  0
SECTION
  2
HEADER
  9
$ACADVER
  1
AC1015
  9
$ACADMAINTVER
 70
     6
  9
$DWGCODEPAGE
  3
ANSI_1252
  9
$INSBASE
 10
0.0
 20
0.0
 30
0.0
  9
$EXTMIN
 10
0.0
 20
0.0
 30
0.0
  9
$EXTMAX
 10
297.0
 20
210.0
 30
0.0
  9
$LIMMIN
 10
0.0
 20
0.0
  9
$LIMMAX
 10
297.0
 20
210.0
  9
$ORTHOMODE
 70
     0
  9
$REGENMODE
 70
     1
  9
$FILLMODE
 70
     1
  9
$QTEXTMODE
 70
     0
  9
$MIRRTEXT
 70
     1
  9
$LTSCALE
 40
1.0
  9
$ATTMODE
 70
     1
  9
$TEXTSIZE
 40
2.0
  9
$TRACEWID
 40
1.0
  9
$TEXTSTYLE
  7
Standard
  9
$CLAYER
  8
0
  9
$CELTYPE
  6
ByLayer
  9
$CECOLOR
 62
   256
  9
$CELTSCALE
 40
1.0
  9
$DISPSILH
 70
     0
  9
$DIMSCALE
 40
1.0
  9
$DIMASZ
 40
3.0
  9
$DIMEXO
 40
0.0
  9
$DIMDLI
 40
3.75
  9
$DIMRND
 40
0.0
  9
$DIMDLE
 40
0.0
  9
$DIMEXE
 40
1.0
  9
$DIMTP
 40
0.0
  9
$DIMTM
 40
0.0
  9
$DIMTXT
 40
2.0
  9
$DIMCEN
 40
2.5
  9
$DIMTSZ
 40
0.0
  9
$DIMTOL
 70
     0
  9
$DIMLIM
 70
     0
  9
$DIMTIH
 70
     1
  9
$DIMTOH
 70
     1
  9
$DIMSE1
 70
     0
  9
$DIMSE2
 70
     0
  9
$DIMTAD
 70
     1
  9
$DIMZIN
 70
     0
  9
$DIMBLK
  1

  9
$DIMASO
 70
     1
  9
$DIMSHO
 70
     1
  9
$DIMPOST
  1

  9
$DIMAPOST
  1

  9
$DIMALT
 70
     0
  9
$DIMALTD
 70
     3
  9
$DIMALTF
 40
0.0393700787
  9
$DIMLFAC
 40
1.0
  9
$DIMTOFL
 70
     1
  9
$DIMTVP
 40
0.0
  9
$DIMTIX
 70
     0
  9
$DIMSOXD
 70
     0
  9
$DIMSAH
 70
     0
  9
$DIMBLK1
  1

  9
$DIMBLK2
  1

  9
$DIMSTYLE
  2
ISO-25
  9
$DIMCLRD
 70
     0
  9
$DIMCLRE
 70
     0
  9
$DIMCLRT
 70
     0
  9
$DIMTFAC
 40
1.0
  9
$DIMGAP
 40
1.524
  9
$DIMJUST
 70
     0
  9
$DIMSD1
 70
     0
  9
$DIMSD2
 70
     0
  9
$DIMTOLJ
 70
     0
  9
$DIMTZIN
 70
     0
  9
$DIMALTZ
 70
     0
  9
$DIMALTTZ
 70
     0
  9
$DIMUPT
 70
     0
  9
$DIMDEC
 70
     2
  9
$DIMTDEC
 70
     3
  9
$DIMALTU
 70
     2
  9
$DIMALTTD
 70
     3
  9
$DIMTXSTY
  7
Standard
  9
$DIMAUNIT
 70
     0
  9
$DIMADEC
 70
     2
  9
$DIMALTRND
 40
0.0
  9
$DIMAZIN
 70
     0
  9
$DIMDSEP
 70
    44
  9
$DIMATFIT
 70
     3
  9
$DIMFRAC
 70
     0
  9
$DIMLDRBLK
  1

  9
$DIMLUNIT
 70
     2
  9
$DIMLWD
 70
    -2
  9
$DIMLWE
 70
    -2
  9
$DIMTMOVE
 70
     0
  9
$LUNITS
 70
     2
  9
$LUPREC
 70
     2
  9
$SKETCHINC
 40
1.0
  9
$FILLETRAD
 40
10.0
  9
$AUNITS
 70
     0
  9
$AUPREC
 70
     2
  9
$MENU
  1
.
  9
$ELEVATION
 40
0.0
  9
$PELEVATION
 40
0.0
  9
$THICKNESS
 40
0.0
  9
$LIMCHECK
 70
     0
  9
$CHAMFERA
 40
10.0
  9
$CHAMFERB
 40
10.0
  9
$CHAMFERC
 40
20.0
  9
$CHAMFERD
 40
0.0
  9
$SKPOLY
 70
     0
  9
$TDCREATE
 40
2456086.588671088
  9
$TDUCREATE
 40
2456086.505337755
  9
$TDUPDATE
 40
2456086.588672708
  9
$TDUUPDATE
 40
2456086.505339375
  9
$TDINDWG
 40
0.0000000116
  9
$TDUSRTIMER
 40
0.0000000116
  9
$USRTIMER
 70
     1
  9
$ANGBASE
 50
0.0
  9
$ANGDIR
 70
     0
  9
$PDMODE
 70
     0
  9
$PDSIZE
 40
-1.0
  9
$PLINEWID
 40
0.0
  9
$SPLFRAME
 70
     0
  9
$SPLINETYPE
 70
     6
  9
$SPLINESEGS
 70
     8
  9
$HANDSEED
  5
23A
  9
$SURFTAB1
 70
     6
  9
$SURFTAB2
 70
     6
  9
$SURFTYPE
 70
     6
  9
$SURFU
 70
     6
  9
$SURFV
 70
     6
  9
$UCSBASE
  2

  9
$UCSNAME
  2

  9
$UCSORG
 10
0.0
 20
0.0
 30
0.0
  9
$UCSXDIR
 10
1.0
 20
0.0
 30
0.0
  9
$UCSYDIR
 10
0.0
 20
1.0
 30
0.0
  9
$UCSORTHOREF
  2

  9
$UCSORTHOVIEW
 70
     0
  9
$UCSORGTOP
 10
0.0
 20
0.0
 30
0.0
  9
$UCSORGBOTTOM
 10
0.0
 20
0.0
 30
0.0
  9
$UCSORGLEFT
 10
0.0
 20
0.0
 30
0.0
  9
$UCSORGRIGHT
 10
0.0
 20
0.0
 30
0.0
  9
$UCSORGFRONT
 10
0.0
 20
0.0
 30
0.0
  9
$UCSORGBACK
 10
0.0
 20
0.0
 30
0.0
  9
$PUCSBASE
  2

  9
$PUCSNAME
  2

  9
$PUCSORG
 10
0.0
 20
0.0
 30
0.0
  9
$PUCSXDIR
 10
1.0
 20
0.0
 30
0.0
  9
$PUCSYDIR
 10
0.0
 20
1.0
 30
0.0
  9
$PUCSORTHOREF
  2

  9
$PUCSORTHOVIEW
 70
     0
  9
$PUCSORGTOP
 10
0.0
 20
0.0
 30
0.0
  9
$PUCSORGBOTTOM
 10
0.0
 20
0.0
 30
0.0
  9
$PUCSORGLEFT
 10
0.0
 20
0.0
 30
0.0
  9
$PUCSORGRIGHT
 10
0.0
 20
0.0
 30
0.0
  9
$PUCSORGFRONT
 10
0.0
 20
0.0
 30
0.0
  9
$PUCSORGBACK
 10
0.0
 20
0.0
 30
0.0
  9
$USERI1
 70
     0
  9
$USERI2
 70
     0
  9
$USERI3
 70
     0
  9
$USERI4
 70
     0
  9
$USERI5
 70
     0
  9
$USERR1
 40
0.0
  9
$USERR2
 40
0.0
  9
$USERR3
 40
0.0
  9
$USERR4
 40
0.0
  9
$USERR5
 40
0.0
  9
$WORLDVIEW
 70
     1
  9
$SHADEDGE
 70
     3
  9
$SHADEDIF
 70
    70
  9
$TILEMODE
 70
     1
  9
$MAXACTVP
 70
    64
  9
$PINSBASE
 10
0.0
 20
0.0
 30
0.0
  9
$PLIMCHECK
 70
     0
  9
$PEXTMIN
 10
1.0000000000E+20
 20
1.0000000000E+20
 30
1.0000000000E+20
  9
$PEXTMAX
 10
-1.0000000000E+20
 20
-1.0000000000E+20
 30
-1.0000000000E+20
  9
$PLIMMIN
 10
0.0
 20
0.0
  9
$PLIMMAX
 10
420.0
 20
297.0
  9
$UNITMODE
 70
     0
  9
$VISRETAIN
 70
     1
  9
$PLINEGEN
 70
     0
  9
$PSLTSCALE
 70
     1
  9
$TREEDEPTH
 70
  3020
  9
$CMLSTYLE
  2
Standard
  9
$CMLJUST
 70
     0
  9
$CMLSCALE
 40
20.0
  9
$PROXYGRAPHICS
 70
     1
  9
$MEASUREMENT
 70
     1
  9
$CELWEIGHT
370
    -1
  9
$ENDCAPS
280
     0
  9
$JOINSTYLE
280
     0
  9
$LWDISPLAY
290
     1
  9
$INSUNITS
 70
     4
  9
$HYPERLINKBASE
  1

  9
$STYLESHEET
  1

  9
$XEDIT
290
     1
  9
$CEPSNTYPE
380
     0
  9
$PSTYLEMODE
290
     1
  9
$FINGERPRINTGUID
  2
{3C832F9F-D8DA-4AAC-BB37-E2B70275FD1A}
  9
$VERSIONGUID
  2
{FAEB1C32-E019-11D5-929B-00C0DF256EC4}
  9
$EXTNAMES
290
     1
  9
$PSVPSCALE
 40
0.0
  9
$OLESTARTUP
290
     0
  0
ENDSEC
  0
SECTION
  2
CLASSES
  0
CLASS
  1
ACDBDICTIONARYWDFLT
  2
AcDbDictionaryWithDefault
  3
ObjectDBX Classes
 90
        0
280
     0
281
     0
  0
CLASS
  1
VISUALSTYLE
  2
AcDbVisualStyle
  3
ObjectDBX Classes
 90
     4095
280
     0
281
     0
  0
CLASS
  1
MATERIAL
  2
AcDbMaterial
  3
ObjectDBX Classes
 90
     1153
280
     0
281
     0
  0
CLASS
  1
ACDBPLACEHOLDER
  2
AcDbPlaceHolder
  3
ObjectDBX Classes
 90
        0
280
     0
281
     0
  0
CLASS
  1
LAYOUT
  2
AcDbLayout
  3
ObjectDBX Classes
 90
        0
280
     0
281
     0
  0
ENDSEC
  0
SECTION
  2
TABLES
  0
TABLE
  2
VPORT
  5
8
330
0
100
AcDbSymbolTable
 70
     1
  0
VPORT
  5
29
330
8
100
AcDbSymbolTableRecord
100
AcDbViewportTableRecord
  2
*Active
 70
     0
 10
0.0
 20
0.0
 11
1.0
 21
1.0
 12
148.5
 22
105.0
 13
0.0
 23
0.0
 14
10.0
 24
10.0
 15
10.0
 25
10.0
 16
0.0
 26
0.0
 36
1.0
 17
0.0
 27
0.0
 37
0.0
 40
210.0
 41
1.4142857143
 42
50.0
 43
0.0
 44
0.0
 50
0.0
 51
0.0
 71
     0
 72
  2000
 73
     1
 74
     3
 75
     0
 76
     0
 77
     0
 78
     0
281
     0
 65
     1
110
0.0
120
0.0
130
0.0
111
1.0
121
0.0
131
0.0
112
0.0
122
1.0
132
0.0
 79
     0
146
0.0
  0
ENDTAB
  0
TABLE
  2
LTYPE
  5
5
330
0
100
AcDbSymbolTable
 70
     6
  0
LTYPE
  5
14
330
5
100
AcDbSymbolTableRecord
100
AcDbLinetypeTableRecord
  2
ByBlock
 70
     0
  3

 72
    65
 73
     0
 40
0.0
  0
LTYPE
  5
15
330
5
100
AcDbSymbolTableRecord
100
AcDbLinetypeTableRecord
  2
ByLayer
 70
     0
  3

 72
    65
 73
     0
 40
0.0
  0
LTYPE
  5
16
330
5
100
AcDbSymbolTableRecord
100
AcDbLinetypeTableRecord
  2
Continuous
 70
     0
  3
Solid line
 72
    65
 73
     0
 40
0.0
  0
LTYPE
  5
3F
330
5
100
AcDbSymbolTableRecord
100
AcDbLinetypeTableRecord
  2
HIDDEN
 70
     0
  3
Hidden __ __ __ __ __ __ __ __ __ __ __ __ __ __
 72
    65
 73
     2
 40
1.905
 49
1.27
 74
     0
 49
-0.635
 74
     0
  0
LTYPE
  5
40
330
5
100
AcDbSymbolTableRecord
100
AcDbLinetypeTableRecord
  2
PHANTOM
 70
     0
  3
Phantom ______  __  __  ______  __  __  ______
 72
    65
 73
     6
 40
12.7
 49
6.35
 74
     0
 49
-1.27
 74
     0
 49
1.27
 74
     0
 49
-1.27
 74
     0
 49
1.27
 74
     0
 49
-1.27
 74
     0
  0
LTYPE
  5
41
330
5
100
AcDbSymbolTableRecord
100
AcDbLinetypeTableRecord
  2
CENTER
 70
     0
  3
Center ____ _ ____ _ ____ _ ____ _ ____ _ ____
 72
    65
 73
     4
 40
10.16
 49
6.35
 74
     0
 49
-1.27
 74
     0
 49
1.27
 74
     0
 49
-1.27
 74
     0
  0
LTYPE
  5
42
330
5
100
AcDbSymbolTableRecord
100
AcDbLinetypeTableRecord
  2
CENTERX2
 70
     0
  3
Center (2x) ________  __  ________  __  _____
 72
    65
 73
     4
 40
20.32
 49
12.7
 74
     0
 49
-2.54
 74
     0
 49
2.54
 74
     0
 49
-2.54
 74
     0
  0
LTYPE
  5
43
330
5
100
AcDbSymbolTableRecord
100
AcDbLinetypeTableRecord
  2
DOT2
 70
     0
  3
Dot (.5x) ........................................
 72
    65
 73
     2
 40
0.635
 49
0.0
 74
     0
 49
-0.635
 74
     0
  0
ENDTAB
  0
TABLE
  2
LAYER
  5
2
330
0
100
AcDbSymbolTable
 70
     5
  0
LAYER
  5
10
330
2
100
AcDbSymbolTableRecord
100
AcDbLayerTableRecord
  2
0
 70
     0
 62
     7
  6
Continuous
370
    -3
390
F
  0
LAYER
  5
44
330
2
100
AcDbSymbolTableRecord
100
AcDbLayerTableRecord
  2
FORMAT
 70
     0
 62
     7
  6
Continuous
370
    -3
390
F
  0
LAYER
  5
45
330
2
100
AcDbSymbolTableRecord
100
AcDbLayerTableRecord
  2
VERMASSUNG
 70
     0
 62
     7
  6
Continuous
370
    -3
390
F
  0
LAYER
  5
46
330
2
100
AcDbSymbolTableRecord
100
AcDbLayerTableRecord
  2
KOPF_DÜNN
 70
     0
 62
     7
  6
Continuous
370
    -3
390
F
  0
LAYER
  5
47
330
2
100
AcDbSymbolTableRecord
100
AcDbLayerTableRecord
  2
KOPF_DICK
 70
     0
 62
     7
  6
Continuous
370
    15
390
F
  0
ENDTAB
  0
TABLE
  2
STYLE
  5
3
330
0
100
AcDbSymbolTable
 70
     2
  0
STYLE
  5
11
330
3
100
AcDbSymbolTableRecord
100
AcDbTextStyleTableRecord
  2
Standard
 70
     0
 40
0.0
 41
1.0
 50
0.0
 71
     0
 42
2.0
  3
txt
  4

  0
STYLE
  5
48
330
3
100
AcDbSymbolTableRecord
100
AcDbTextStyleTableRecord
  2
SLDTEXTSTYLE0
 70
     0
 40
0.0
 41
0.7
 50
0.0
 71
     0
 42
0.2
  3
TXT
  4

  0
ENDTAB
  0
TABLE
  2
VIEW
  5
6
330
0
100
AcDbSymbolTable
 70
     0
  0
ENDTAB
  0
TABLE
  2
UCS
  5
7
330
0
100
AcDbSymbolTable
 70
     0
  0
ENDTAB
  0
TABLE
  2
APPID
  5
9
330
0
100
AcDbSymbolTable
 70
     1
  0
APPID
  5
12
330
9
100
AcDbSymbolTableRecord
100
AcDbRegAppTableRecord
  2
ACAD
 70
     0
  0
ENDTAB
  0
TABLE
  2
DIMSTYLE
  5
A
330
0
100
AcDbSymbolTable
 70
     5
100
AcDbDimStyleTable
  0
DIMSTYLE
105
27
330
A
100
AcDbSymbolTableRecord
100
AcDbDimStyleTableRecord
  2
ISO-25
 70
     0
 41
2.5
 42
0.625
 43
3.75
 44
1.25
 73
     0
 74
     0
 77
     1
 78
     8
140
2.5
141
2.5
143
0.0393700787
147
0.625
171
     3
172
     1
178
     0
271
     2
272
     2
274
     3
278
    44
283
     0
284
     8
340
11
  0
DIMSTYLE
105
1B5
102
{ACAD_REACTORS
330
1B4
102
}
330
A
100
AcDbSymbolTableRecord
100
AcDbDimStyleTableRecord
  2
SLDDIMSTYLE0
 70
     0
 41
3.0
 44
0.0
 73
     0
 74
     0
 77
     1
 78
    12
 79
     3
140
2.0
147
0.5
173
     1
178
     0
179
     1
272
     3
276
     2
284
    12
340
48
  0
DIMSTYLE
105
1C0
102
{ACAD_REACTORS
330
1BF
330
1CA
330
1D4
330
1DE
330
1EA
102
}
330
A
100
AcDbSymbolTableRecord
100
AcDbDimStyleTableRecord
  2
SLDDIMSTYLE1
 70
     0
 41
3.0
 44
0.0
 45
0.000000001
 73
     0
 74
     0
 77
     1
 78
    12
 79
     3
140
2.0
147
0.5
173
     1
178
     0
271
     2
272
     3
276
     2
284
    12
340
48
  0
DIMSTYLE
105
212
102
{ACAD_REACTORS
330
211
102
}
330
A
100
AcDbSymbolTableRecord
100
AcDbDimStyleTableRecord
  2
SLDDIMSTYLE2
 70
     0
 41
3.0
 44
0.0
 45
0.000000001
 73
     0
 74
     0
 77
     1
 78
    12
 79
     3
140
2.0
147
0.5
172
     1
173
     1
178
     0
271
     2
272
     3
276
     2
284
    12
289
     0
340
48
  0
DIMSTYLE
105
221
102
{ACAD_REACTORS
330
220
102
}
330
A
100
AcDbSymbolTableRecord
100
AcDbDimStyleTableRecord
  2
SLDDIMSTYLE3
 70
     0
 41
3.0
 44
0.0
 73
     0
 74
     0
 77
     1
 78
    12
 79
     3
140
2.0
147
0.5
173
     1
178
     0
179
     2
272
     3
276
     2
284
    12
340
48
  0
ENDTAB
  0
TABLE
  2
BLOCK_RECORD
  5
1
330
0
100
AcDbSymbolTable
 70
    10
  0
BLOCK_RECORD
  5
1F
330
1
100
AcDbSymbolTableRecord
100
AcDbBlockTableRecord
  2
*Model_Space
340
22
  0
BLOCK_RECORD
  5
1B
330
1
100
AcDbSymbolTableRecord
100
AcDbBlockTableRecord
  2
*Paper_Space
340
1E
  0
BLOCK_RECORD
  5
23
330
1
100
AcDbSymbolTableRecord
100
AcDbBlockTableRecord
  2
*Paper_Space0
340
26
  0
BLOCK_RECORD
  5
1B6
330
1
100
AcDbSymbolTableRecord
100
AcDbBlockTableRecord
  2
_D
340
0
  0
BLOCK_RECORD
  5
1C1
330
1
100
AcDbSymbolTableRecord
100
AcDbBlockTableRecord
  2
_D_1
340
0
  0
BLOCK_RECORD
  5
1CB
330
1
100
AcDbSymbolTableRecord
100
AcDbBlockTableRecord
  2
_D_2
340
0
  0
BLOCK_RECORD
  5
1D5
330
1
100
AcDbSymbolTableRecord
100
AcDbBlockTableRecord
  2
_D_3
340
0
  0
BLOCK_RECORD
  5
1DF
330
1
100
AcDbSymbolTableRecord
100
AcDbBlockTableRecord
  2
_D_4
340
0
  0
BLOCK_RECORD
  5
1EB
330
1
100
AcDbSymbolTableRecord
100
AcDbBlockTableRecord
  2
_D_5
340
0
  0
BLOCK_RECORD
  5
213
330
1
100
AcDbSymbolTableRecord
100
AcDbBlockTableRecord
  2
_D_6
340
0
  0
BLOCK_RECORD
  5
222
330
1
100
AcDbSymbolTableRecord
100
AcDbBlockTableRecord
  2
_D_7
340
0
  0
BLOCK_RECORD
  5
22D
330
1
100
AcDbSymbolTableRecord
100
AcDbBlockTableRecord
  2
SW_CENTERMARKSYMBOL_0
340
0
102
{BLKREFS
331
238
102
}
  0
ENDTAB
  0
ENDSEC
  0
SECTION
  2
BLOCKS
  0
BLOCK
  5
20
330
1F
100
AcDbEntity
  8
0
100
AcDbBlockBegin
  2
*Model_Space
 70
     0
 10
0.0
 20
0.0
 30
0.0
  3
*Model_Space
  1

  0
ENDBLK
  5
21
330
1F
100
AcDbEntity
  8
0
100
AcDbBlockEnd
  0
BLOCK
  5
1C
330
1B
100
AcDbEntity
 67
     1
  8
0
100
AcDbBlockBegin
  2
*Paper_Space
 70
     0
 10
0.0
 20
0.0
 30
0.0
  3
*Paper_Space
  1

  0
ENDBLK
  5
1D
330
1B
100
AcDbEntity
 67
     1
  8
0
100
AcDbBlockEnd
  0
BLOCK
  5
24
330
23
100
AcDbEntity
  8
0
100
AcDbBlockBegin
  2
*Paper_Space0
 70
     0
 10
0.0
 20
0.0
 30
0.0
  3
*Paper_Space0
  1

  0
ENDBLK
  5
25
330
23
100
AcDbEntity
  8
0
100
AcDbBlockEnd
  0
BLOCK
  5
1B7
330
1B6
100
AcDbEntity
  8
0
100
AcDbBlockBegin
  2
_D
 70
     0
 10
0.0
 20
0.0
 30
0.0
  3
_D
  1

  0
ARC
  5
1B9
330
1B6
100
AcDbEntity
  8
VERMASSUNG
100
AcDbCircle
 10
251.9751968081
 20
103.429563011
 30
0.0
 40
11.77540774774197
100
AcDbArc
 50
0.0
 51
107.5401158054
  0
SOLID
  5
1BA
330
1B6
100
AcDbEntity
  8
VERMASSUNG
100
AcDbTrace
 10
263.7506045558
 20
103.429563011
 30
0.0
 11
263.8238860594
 21
106.4622400167
 31
0.0
 12
262.930877972
 22
106.3502732547
 32
0.0
 13
262.930877972
 23
106.3502732547
 33
0.0
  0
SOLID
  5
1BB
330
1B6
100
AcDbEntity
  8
VERMASSUNG
100
AcDbTrace
 10
248.4264012742
 20
114.6574870348
 30
0.0
 11
251.4583603806
 21
114.7560972646
 31
0.0
 12
251.2959924307
 22
115.641329804
 32
0.0
 13
251.2959924307
 23
115.641329804
 33
0.0
  0
LINE
  5
1BC
330
1B6
100
AcDbEntity
  8
VERMASSUNG
100
AcDbLine
 10
263.1993578798
 20
103.429563011
 30
0.0
 11
264.7506045558
 21
103.429563011
 31
0.0
  0
LINE
  5
1BD
330
1B6
100
AcDbEntity
  8
VERMASSUNG
100
AcDbLine
 10
248.6077890738
 20
114.0835998065
 30
0.0
 11
248.1250278008
 21
115.6109932117
 31
0.0
  0
MTEXT
  5
1BE
330
1B6
100
AcDbEntity
  8
VERMASSUNG
100
AcDbMText
 10
256.909265727
 20
117.6083910136
 30
0.1
 40
2.0
 41
0.0
 71
     1
 72
     1
  1
107.5°
  7
SLDTEXTSTYLE0
 11
0.8066515584256988
 21
-0.5910272948768031
 31
0.0
 73
     1
 44
1.0
  0
ENDBLK
  5
1B8
330
1B6
100
AcDbEntity
  8
0
100
AcDbBlockEnd
  0
BLOCK
  5
1C2
330
1C1
100
AcDbEntity
  8
0
100
AcDbBlockBegin
  2
_D_1
 70
     0
 10
0.0
 20
0.0
 30
0.0
  3
_D_1
  1

  0
SOLID
  5
1C4
330
1C1
100
AcDbEntity
  8
VERMASSUNG
100
AcDbTrace
 10
270.6362520643
 20
103.429563011
 30
0.0
 11
271.0862520643
 21
106.429563011
 31
0.0
 12
270.1862520643
 22
106.429563011
 32
0.0
 13
270.1862520643
 23
106.429563011
 33
0.0
  0
SOLID
  5
1C5
330
1C1
100
AcDbEntity
  8
VERMASSUNG
100
AcDbTrace
 10
270.6362520643
 20
120.429563011
 30
0.0
 11
270.1862520643
 21
117.429563011
 31
0.0
 12
271.0862520643
 22
117.429563011
 32
0.0
 13
271.0862520643
 23
117.429563011
 33
0.0
  0
LINE
  5
1C6
330
1C1
100
AcDbEntity
  8
VERMASSUNG
100
AcDbLine
 10
251.8296656425
 20
103.429563011
 30
0.0
 11
271.6362520643
 21
103.429563011
 31
0.0
  0
LINE
  5
1C7
330
1C1
100
AcDbEntity
  8
VERMASSUNG
100
AcDbLine
 10
251.8296656425
 20
120.429563011
 30
0.0
 11
271.6362520643
 21
120.429563011
 31
0.0
  0
LINE
  5
1C8
330
1C1
100
AcDbEntity
  8
VERMASSUNG
100
AcDbLine
 10
270.6362520643
 20
103.429563011
 30
0.0
 11
270.6362520643
 21
120.429563011
 31
0.0
  0
MTEXT
  5
1C9
330
1C1
100
AcDbEntity
  8
VERMASSUNG
100
AcDbMText
 10
268.0581167012
 20
109.829562853
 30
0.1
 40
2.0
 41
0.0
 71
     1
 72
     1
  1
17
  7
SLDTEXTSTYLE0
 11
6.123233995736766E-17
 21
1.0
 31
0.0
 73
     1
 44
1.0
  0
ENDBLK
  5
1C3
330
1C1
100
AcDbEntity
  8
0
100
AcDbBlockEnd
  0
BLOCK
  5
1CC
330
1CB
100
AcDbEntity
  8
0
100
AcDbBlockBegin
  2
_D_2
 70
     0
 10
0.0
 20
0.0
 30
0.0
  3
_D_2
  1

  0
SOLID
  5
1CE
330
1CB
100
AcDbEntity
  8
VERMASSUNG
100
AcDbTrace
 10
161.8296656425
 20
90.429563011
 30
0.0
 11
164.8296656425
 21
89.979563011
 31
0.0
 12
164.8296656425
 22
90.879563011
 32
0.0
 13
164.8296656425
 23
90.879563011
 33
0.0
  0
SOLID
  5
1CF
330
1CB
100
AcDbEntity
  8
VERMASSUNG
100
AcDbTrace
 10
251.8296656425
 20
90.429563011
 30
0.0
 11
248.8296656425
 21
90.879563011
 31
0.0
 12
248.8296656425
 22
89.979563011
 32
0.0
 13
248.8296656425
 23
89.979563011
 33
0.0
  0
LINE
  5
1D0
330
1CB
100
AcDbEntity
  8
VERMASSUNG
100
AcDbLine
 10
161.8296656425
 20
100.729563011
 30
0.0
 11
161.8296656425
 21
89.429563011
 31
0.0
  0
LINE
  5
1D1
330
1CB
100
AcDbEntity
  8
VERMASSUNG
100
AcDbLine
 10
251.8296656425
 20
103.429563011
 30
0.0
 11
251.8296656425
 21
89.429563011
 31
0.0
  0
LINE
  5
1D2
330
1CB
100
AcDbEntity
  8
VERMASSUNG
100
AcDbLine
 10
161.8296656425
 20
90.429563011
 30
0.0
 11
251.8296656425
 21
90.429563011
 31
0.0
  0
MTEXT
  5
1D3
330
1CB
100
AcDbEntity
  8
VERMASSUNG
100
AcDbMText
 10
204.5296655915
 20
93.0076983741
 30
0.1
 40
2.0
 41
0.0
 71
     1
 72
     1
  1
90
  7
SLDTEXTSTYLE0
 73
     1
 44
1.0
  0
ENDBLK
  5
1CD
330
1CB
100
AcDbEntity
  8
0
100
AcDbBlockEnd
  0
BLOCK
  5
1D6
330
1D5
100
AcDbEntity
  8
0
100
AcDbBlockBegin
  2
_D_3
 70
     0
 10
0.0
 20
0.0
 30
0.0
  3
_D_3
  1

  0
SOLID
  5
1D8
330
1D5
100
AcDbEntity
  8
VERMASSUNG
100
AcDbTrace
 10
137.8296656425
 20
82.8462456713
 30
0.0
 11
140.8296656425
 21
82.3962456713
 31
0.0
 12
140.8296656425
 22
83.2962456713
 32
0.0
 13
140.8296656425
 23
83.2962456713
 33
0.0
  0
SOLID
  5
1D9
330
1D5
100
AcDbEntity
  8
VERMASSUNG
100
AcDbTrace
 10
251.8296656425
 20
82.8462456713
 30
0.0
 11
248.8296656425
 21
83.2962456713
 31
0.0
 12
248.8296656425
 22
82.3962456713
 32
0.0
 13
248.8296656425
 23
82.3962456713
 33
0.0
  0
LINE
  5
1DA
330
1D5
100
AcDbEntity
  8
VERMASSUNG
100
AcDbLine
 10
137.8296656425
 20
107.7980580289
 30
0.0
 11
137.8296656425
 21
81.8462456713
 31
0.0
  0
LINE
  5
1DB
330
1D5
100
AcDbEntity
  8
VERMASSUNG
100
AcDbLine
 10
251.8296656425
 20
103.429563011
 30
0.0
 11
251.8296656425
 21
81.8462456713
 31
0.0
  0
LINE
  5
1DC
330
1D5
100
AcDbEntity
  8
VERMASSUNG
100
AcDbLine
 10
137.8296656425
 20
82.8462456713
 30
0.0
 11
251.8296656425
 21
82.8462456713
 31
0.0
  0
MTEXT
  5
1DD
330
1D5
100
AcDbEntity
  8
VERMASSUNG
100
AcDbMText
 10
192.1296655725
 20
85.4243810344
 30
0.1
 40
2.0
 41
0.0
 71
     1
 72
     1
  1
114
  7
SLDTEXTSTYLE0
 73
     1
 44
1.0
  0
ENDBLK
  5
1D7
330
1D5
100
AcDbEntity
  8
0
100
AcDbBlockEnd
  0
BLOCK
  5
1E0
330
1DF
100
AcDbEntity
  8
0
100
AcDbBlockBegin
  2
_D_4
 70
     0
 10
0.0
 20
0.0
 30
0.0
  3
_D_4
  1

  0
SOLID
  5
1E2
330
1DF
100
AcDbEntity
  8
VERMASSUNG
100
AcDbTrace
 10
130.8880252172
 20
100.429563011
 30
0.0
 11
131.3380252172
 21
103.429563011
 31
0.0
 12
130.4380252172
 22
103.429563011
 32
0.0
 13
130.4380252172
 23
103.429563011
 33
0.0
  0
SOLID
  5
1E3
330
1DF
100
AcDbEntity
  8
VERMASSUNG
100
AcDbTrace
 10
130.8880252172
 20
140.429563011
 30
0.0
 11
130.4380252172
 21
137.429563011
 31
0.0
 12
131.3380252172
 22
137.429563011
 32
0.0
 13
131.3380252172
 23
137.429563011
 33
0.0
  0
LINE
  5
1E4
330
1DF
100
AcDbEntity
  8
VERMASSUNG
100
AcDbLine
 10
162.1296656425
 20
100.429563011
 30
0.0
 11
129.8880252172
 21
100.429563011
 31
0.0
  0
LINE
  5
1E5
330
1DF
100
AcDbEntity
  8
VERMASSUNG
100
AcDbLine
 10
162.1296656425
 20
140.429563011
 30
0.0
 11
129.8880252172
 21
140.429563011
 31
0.0
  0
LINE
  5
1E6
330
1DF
100
AcDbEntity
  8
VERMASSUNG
100
AcDbLine
 10
130.8880252172
 20
100.429563011
 30
0.0
 11
130.8880252172
 21
140.429563011
 31
0.0
  0
MTEXT
  5
1E7
330
1DF
100
AcDbEntity
  8
VERMASSUNG
100
AcDbMText
 10
128.1098897281
 20
113.9245630716
 30
0.1
 40
2.0
 41
0.0
 71
     1
 72
     1
  1
PSC
  7
SLDTEXTSTYLE0
 11
6.123233995736766E-17
 21
1.0
 31
0.0
 73
     1
 44
1.0
  0
MTEXT
  5
1E8
330
1DF
100
AcDbEntity
  8
VERMASSUNG
100
AcDbMText
 10
128.3098897376
 20
118.5245631737
 30
0.1
 40
2.0
 41
0.0
 71
     1
 72
     1
  1
%%c
  7
SLDTEXTSTYLE0
 11
6.123233995736766E-17
 21
1.0
 31
0.0
 73
     1
 44
1.0
  0
MTEXT
  5
1E9
330
1DF
100
AcDbEntity
  8
VERMASSUNG
100
AcDbMText
 10
128.1098897281
 20
122.1345636536
 30
0.1
 40
2.0
 41
0.0
 71
     1
 72
     1
  1
40
  7
SLDTEXTSTYLE0
 11
6.123233995736766E-17
 21
1.0
 31
0.0
 73
     1
 44
1.0
  0
ENDBLK
  5
1E1
330
1DF
100
AcDbEntity
  8
0
100
AcDbBlockEnd
  0
BLOCK
  5
1EC
330
1EB
100
AcDbEntity
  8
0
100
AcDbBlockBegin
  2
_D_5
 70
     0
 10
0.0
 20
0.0
 30
0.0
  3
_D_5
  1

  0
SOLID
  5
1EE
330
1EB
100
AcDbEntity
  8
VERMASSUNG
100
AcDbTrace
 10
196.6636808159
 20
132.929563011
 30
0.0
 11
196.2136808159
 21
129.929563011
 31
0.0
 12
197.1136808159
 22
129.929563011
 32
0.0
 13
197.1136808159
 23
129.929563011
 33
0.0
  0
SOLID
  5
1EF
330
1EB
100
AcDbEntity
  8
VERMASSUNG
100
AcDbTrace
 10
196.6636808159
 20
107.929563011
 30
0.0
 11
197.1136808159
 21
110.929563011
 31
0.0
 12
196.2136808159
 22
110.929563011
 32
0.0
 13
196.2136808159
 23
110.929563011
 33
0.0
  0
LINE
  5
1F0
330
1EB
100
AcDbEntity
  8
VERMASSUNG
100
AcDbLine
 10
196.6636808159
 20
132.929563011
 30
0.0
 11
196.6636808159
 21
107.929563011
 31
0.0
  0
MTEXT
  5
1F1
330
1EB
100
AcDbEntity
  8
VERMASSUNG
100
AcDbMText
 10
194.0855453364
 20
108.8232141964
 30
0.1
 40
2.0
 41
0.0
 71
     1
 72
     1
  1
%%c
  7
SLDTEXTSTYLE0
 11
-7.044195017643634E-15
 21
1.0
 31
0.0
 73
     1
 44
1.0
  0
MTEXT
  5
1F2
330
1EB
100
AcDbEntity
  8
VERMASSUNG
100
AcDbMText
 10
193.8855453269
 20
112.4332142107
 30
0.1
 40
2.0
 41
0.0
 71
     1
 72
     1
  1
25
  7
SLDTEXTSTYLE0
 11
-7.044195017643634E-15
 21
1.0
 31
0.0
 73
     1
 44
1.0
  0
ENDBLK
  5
1ED
330
1EB
100
AcDbEntity
  8
0
100
AcDbBlockEnd
  0
BLOCK
  5
214
330
213
100
AcDbEntity
  8
0
100
AcDbBlockBegin
  2
_D_6
 70
     0
 10
0.0
 20
0.0
 30
0.0
  3
_D_6
  1

  0
SOLID
  5
216
330
213
100
AcDbEntity
  8
VERMASSUNG
100
AcDbTrace
 10
90.8835147975
 20
130.6968889265
 30
0.0
 11
93.3230331926
 21
132.5000112185
 31
0.0
 12
92.6866370896
 22
133.1364073216
 32
0.0
 13
92.6866370896
 23
133.1364073216
 33
0.0
  0
SOLID
  5
217
330
213
100
AcDbEntity
  8
VERMASSUNG
100
AcDbTrace
 10
68.2560977996
 20
108.0694719285
 30
0.0
 11
65.8165794045
 21
106.2663496365
 31
0.0
 12
66.4529755075
 22
105.6299535335
 32
0.0
 13
66.4529755075
 23
105.6299535335
 33
0.0
  0
LINE
  5
218
330
213
100
AcDbEntity
  8
VERMASSUNG
100
AcDbLine
 10
90.6677825188
 20
130.9126212053
 30
0.0
 11
91.5906215787
 21
129.9897821453
 31
0.0
  0
LINE
  5
219
330
213
100
AcDbEntity
  8
VERMASSUNG
100
AcDbLine
 10
68.0403655208
 20
108.2852042073
 30
0.0
 11
68.9632045807
 21
107.3623651474
 31
0.0
  0
LINE
  5
21A
330
213
100
AcDbEntity
  8
VERMASSUNG
100
AcDbLine
 10
90.8835147975
 20
130.6968889265
 30
0.0
 11
95.1261554847
 21
134.9395296136
 31
0.0
  0
LINE
  5
21B
330
213
100
AcDbEntity
  8
VERMASSUNG
100
AcDbLine
 10
90.8835147975
 20
130.6968889265
 30
0.0
 11
68.2560977996
 21
108.0694719285
 31
0.0
  0
LINE
  5
21C
330
213
100
AcDbEntity
  8
VERMASSUNG
100
AcDbLine
 10
68.2560977996
 20
108.0694719285
 30
0.0
 11
54.4288038446
 21
94.2421779736
 31
0.0
  0
MTEXT
  5
21D
330
213
100
AcDbEntity
  8
VERMASSUNG
100
AcDbMText
 10
52.6057867642
 20
96.065195054
 30
0.1
 40
2.0
 41
0.0
 71
     1
 72
     1
  1
%%c
  7
SLDTEXTSTYLE0
 11
0.707106781186546
 21
0.7071067811865491
 31
0.0
 73
     1
 44
1.0
  0
MTEXT
  5
21E
330
213
100
AcDbEntity
  8
VERMASSUNG
100
AcDbMText
 10
55.0170208915
 20
98.7592719072
 30
0.1
 40
2.0
 41
0.0
 71
     1
 72
     1
  1
32
  7
SLDTEXTSTYLE0
 11
0.707106781186546
 21
0.7071067811865491
 31
0.0
 73
     1
 44
1.0
  0
MTEXT
  5
21F
330
213
100
AcDbEntity
  8
VERMASSUNG
100
AcDbMText
 10
59.1094017891
 20
102.8516528048
 30
0.1
 40
2.0
 41
0.0
 71
     1
 72
     1
  1
min.
  7
SLDTEXTSTYLE0
 11
0.707106781186546
 21
0.7071067811865491
 31
0.0
 73
     1
 44
1.0
  0
ENDBLK
  5
215
330
213
100
AcDbEntity
  8
0
100
AcDbBlockEnd
  0
BLOCK
  5
223
330
222
100
AcDbEntity
  8
0
100
AcDbBlockBegin
  2
_D_7
 70
     0
 10
0.0
 20
0.0
 30
0.0
  3
_D_7
  1

  0
ARC
  5
225
330
222
100
AcDbEntity
  8
VERMASSUNG
100
AcDbCircle
 10
79.3540740198
 20
107.7302391188
 30
0.0
 40
40.21247540445937
100
AcDbArc
 50
90.0
 51
94.0
  0
ARC
  5
226
330
222
100
AcDbEntity
  8
VERMASSUNG
100
AcDbCircle
 10
79.3540740198
 20
107.7302391188
 30
0.0
 40
40.21247540445935
100
AcDbArc
 50
81.4727765728
 51
90.0
  0
ARC
  5
227
330
222
100
AcDbEntity
  8
VERMASSUNG
100
AcDbCircle
 10
79.3540740198
 20
107.7302391188
 30
0.0
 40
40.21247540445938
100
AcDbArc
 50
94.0
 51
106.4273160595
  0
SOLID
  5
228
330
222
100
AcDbEntity
  8
VERMASSUNG
100
AcDbTrace
 10
79.3540740198
 20
147.9427145233
 30
0.0
 11
82.3352439021
 21
147.3813535583
 31
0.0
 12
82.3687457552
 22
148.280729801
 32
0.0
 13
82.3687457552
 23
148.280729801
 33
0.0
  0
SOLID
  5
229
330
222
100
AcDbEntity
  8
VERMASSUNG
100
AcDbTrace
 10
76.5489935351
 20
147.8447589543
 30
0.0
 11
73.5180866347
 21
147.971657974
 31
0.0
 12
73.6142441942
 22
147.0768095378
 32
0.0
 13
73.6142441942
 23
147.0768095378
 33
0.0
  0
LINE
  5
22A
330
222
100
AcDbEntity
  8
VERMASSUNG
100
AcDbLine
 10
79.3540740198
 20
142.929563011
 30
0.0
 11
79.3540740198
 21
148.9427145233
 31
0.0
  0
LINE
  5
22B
330
222
100
AcDbEntity
  8
VERMASSUNG
100
AcDbLine
 10
77.5656456008
 20
133.3059570633
 30
0.0
 11
76.4792370613
 21
148.8423230045
 31
0.0
  0
MTEXT
  5
22C
330
222
100
AcDbEntity
  8
VERMASSUNG
100
AcDbMText
 10
67.3767542782
 20
148.8747427846
 30
-34.3032682109
 40
2.0
 41
0.0
 71
     1
 72
     1
  1
4°
  7
SLDTEXTSTYLE0
 11
0.9737627835243176
 21
0.2275654662354839
 31
0.0
 73
     1
 44
1.0
  0
ENDBLK
  5
224
330
222
100
AcDbEntity
  8
0
100
AcDbBlockEnd
  0
BLOCK
  5
22E
330
22D
100
AcDbEntity
  8
0
100
AcDbBlockBegin
  2
SW_CENTERMARKSYMBOL_0
 70
     0
 10
0.0
 20
0.0
 30
0.0
  3
SW_CENTERMARKSYMBOL_0
  1

  0
LINE
  5
230
330
22D
100
AcDbEntity
  8
VERMASSUNG
 62
     0
100
AcDbLine
 10
0.0
 20
0.0
 30
0.0
 11
0.0
 21
2.5
 31
0.0
  0
LINE
  5
231
330
22D
100
AcDbEntity
  8
VERMASSUNG
 62
     0
100
AcDbLine
 10
0.0
 20
0.0
 30
0.0
 11
-2.5
 21
0.0
 31
0.0
  0
LINE
  5
232
330
22D
100
AcDbEntity
  8
VERMASSUNG
 62
     0
100
AcDbLine
 10
0.0
 20
0.0
 30
0.0
 11
0.0
 21
-2.5
 31
0.0
  0
LINE
  5
233
330
22D
100
AcDbEntity
  8
VERMASSUNG
 62
     0
100
AcDbLine
 10
0.0
 20
0.0
 30
0.0
 11
2.5
 21
0.0
 31
0.0
  0
LINE
  5
234
330
22D
100
AcDbEntity
  8
VERMASSUNG
 62
     0
100
AcDbLine
 10
0.0
 20
5.0
 30
0.0
 11
0.0
 21
22.5
 31
0.0
  0
LINE
  5
235
330
22D
100
AcDbEntity
  8
VERMASSUNG
 62
     0
100
AcDbLine
 10
-5.0
 20
0.0
 30
0.0
 11
-22.5
 21
0.0
 31
0.0
  0
LINE
  5
236
330
22D
100
AcDbEntity
  8
VERMASSUNG
 62
     0
100
AcDbLine
 10
0.0
 20
-5.0
 30
0.0
 11
0.0
 21
-22.5
 31
0.0
  0
LINE
  5
237
330
22D
100
AcDbEntity
  8
VERMASSUNG
 62
     0
100
AcDbLine
 10
5.0
 20
0.0
 30
0.0
 11
22.5
 21
0.0
 31
0.0
  0
ENDBLK
  5
22F
330
22D
100
AcDbEntity
  8
0
100
AcDbBlockEnd
  0
ENDSEC
  0
SECTION
  2
ENTITIES
  0
MTEXT
  5
49
330
1F
100
AcDbEntity
  8
KOPF_DÜNN
100
AcDbMText
 10
13.8892156294
 20
23.8442973028
 30
0.0
 40
3.0
 41
0.0
 71
     1
 72
     1
  1
PS4.BDB.LQA.090
  7
SLDTEXTSTYLE0
 73
     1
 44
1.0
  0
MTEXT
  5
4A
330
1F
100
AcDbEntity
  8
VERMASSUNG
100
AcDbMText
 10
13.9329988022
 20
28.8834360957
 30
0.0
 40
3.0
 41
0.0
 71
     1
 72
     1
  1
Bohrstange links_Boring bar left
  7
SLDTEXTSTYLE0
 73
     1
 44
1.0
  0
MTEXT
  5
4B
330
1F
100
AcDbEntity
  8
VERMASSUNG
100
AcDbMText
 10
98.8601118557
 20
13.8365368179
 30
0.0
 40
2.0
 41
0.0
 71
     1
 72
     1
  1
Datum: 07.06.2012
  7
SLDTEXTSTYLE0
 73
     1
 44
1.0
  0
MTEXT
  5
4C
330
1F
100
AcDbEntity
  8
VERMASSUNG
100
AcDbMText
 10
13.933048693
 20
18.0482802738
 30
0.0
 40
2.0
 41
0.0
 71
     1
 72
     1
  1
PSC ø40 / Wp.: DC..11 T3..
  7
SLDTEXTSTYLE0
 73
     1
 44
1.0
  0
MTEXT
  5
4D
330
1F
100
AcDbEntity
  8
VERMASSUNG
100
AcDbMText
 10
13.9808475933
 20
13.9090973692
 30
0.0
 40
2.0
 41
0.0
 71
     1
 72
     1
  1
Gewicht: 451g
  7
SLDTEXTSTYLE0
 73
     1
 44
1.0
  0
LINE
  5
4E
330
1F
100
AcDbEntity
  8
0
  6
Continuous
 62
     7
370
    15
100
AcDbLine
 10
162.1296656568
 20
100.429563458
 30
0.0
 11
181.2296662147
 21
100.429563458
 31
0.0
  0
LINE
  5
4F
330
1F
100
AcDbEntity
  8
0
  6
Continuous
 62
     7
370
    15
100
AcDbLine
 10
181.2296662147
 20
140.4295625639
 30
0.0
 11
162.1296656568
 21
140.4295625639
 31
0.0
  0
ARC
  5
50
330
1F
100
AcDbEntity
  8
0
  6
Continuous
 62
     7
370
    15
100
AcDbCircle
 10
181.2296656425
 20
101.029563011
 30
0.0
 40
0.6000000000000227
100
AcDbArc
 50
270.0
 51
360.0
  0
ARC
  5
51
330
1F
100
AcDbEntity
  8
0
  6
Continuous
 62
     7
370
    15
100
AcDbCircle
 10
181.2296656425
 20
139.829563011
 30
0.0
 40
0.6000000000000227
100
AcDbArc
 50
0.0
 51
90.0
  0
ARC
  5
52
330
1F
100
AcDbEntity
  8
0
  6
Continuous
 62
     7
370
    15
100
AcDbCircle
 10
162.1296656425
 20
100.729563011
 30
0.0
 40
0.2999999999999972
100
AcDbArc
 50
180.0
 51
270.0
  0
ARC
  5
53
330
1F
100
AcDbEntity
  8
0
  6
Continuous
 62
     7
370
    15
100
AcDbCircle
 10
162.1296656425
 20
140.129563011
 30
0.0
 40
0.3000000000000114
100
AcDbArc
 50
90.0
 51
180.0
  0
LWPOLYLINE
  5
54
330
1F
100
AcDbEntity
  8
0
  6
Continuous
 62
     7
370
    15
100
AcDbPolyline
 90
        3
 70
   128
 43
0.0
 10
161.6296656476
 20
106.3397430358
 10
161.7551205827
 20
106.2714407695
 10
161.8296656425
 20
106.218702766
  0
LWPOLYLINE
  5
55
330
1F
100
AcDbEntity
  8
0
  6
Continuous
 62
     7
370
    15
100
AcDbPolyline
 90
        3
 70
   128
 43
0.0
 10
161.8296656425
 20
134.6404232559
 10
161.7551205827
 20
134.5876852525
 10
161.6296656476
 20
134.5193829862
  0
ARC
  5
56
330
1F
100
AcDbEntity
  8
0
  6
Continuous
 62
     7
370
    15
100
AcDbCircle
 10
183.8296656425
 20
105.929563011
 30
0.0
 40
2.0
100
AcDbArc
 50
90.0
 51
180.0
  0
ARC
  5
57
330
1F
100
AcDbEntity
  8
0
  6
Continuous
 62
     7
370
    15
100
AcDbCircle
 10
183.8296656425
 20
134.929563011
 30
0.0
 40
2.0
100
AcDbArc
 50
180.0
 51
270.0
  0
LINE
  5
58
330
1F
100
AcDbEntity
  8
0
  6
Continuous
 62
     7
370
    15
100
AcDbLine
 10
225.4154536541
 20
132.9295631972
 30
0.0
 11
183.8296655233
 21
132.9295631972
 31
0.0
  0
LINE
  5
59
330
1F
100
AcDbEntity
  8
0
  6
Continuous
 62
     7
370
    15
100
AcDbLine
 10
183.8296655233
 20
107.9295628247
 30
0.0
 11
225.4154536541
 21
107.9295628247
 31
0.0
  0
ARC
  5
5A
330
1F
100
AcDbEntity
  8
0
  6
Continuous
 62
     7
370
    15
100
AcDbCircle
 10
225.4154520801
 20
133.929563011
 30
0.0
 40
1.000000000000008
100
AcDbArc
 50
270.0
 51
315.0
  0
ARC
  5
5B
330
1F
100
AcDbEntity
  8
0
  6
Continuous
 62
     7
370
    15
100
AcDbCircle
 10
225.4154520801
 20
106.929563011
 30
0.0
 40
1.000000000000017
100
AcDbArc
 50
50.5675581036
 51
64.6825126226
  0
LINE
  5
5C
330
1F
100
AcDbEntity
  8
0
  6
Continuous
 62
     7
370
    15
100
AcDbLine
 10
242.2036233957
 20
133.4295632792
 30
0.0
 11
226.329662245
 21
133.4295632792
 31
0.0
  0
LINE
  5
5D
330
1F
100
AcDbEntity
  8
0
  6
Continuous
 62
     7
370
    15
100
AcDbLine
 10
226.329662245
 20
133.4295632792
 30
0.0
 11
226.1225584562
 21
133.222455765
 31
0.0
  0
LINE
  5
5E
330
1F
100
AcDbEntity
  8
0
  6
Continuous
 62
     7
370
    15
100
AcDbLine
 10
245.8663064654
 20
110.7262760875
 30
0.0
 11
245.8663064654
 21
110.6342055378
 31
0.0
  0
LINE
  5
5F
330
1F
100
AcDbEntity
  8
0
  6
Continuous
 62
     7
370
    15
100
AcDbLine
 10
243.4530708606
 20
110.5395030704
 30
0.0
 11
243.4530708606
 21
110.6315428865
 31
0.0
  0
LINE
  5
60
330
1F
100
AcDbEntity
  8
0
  6
Continuous
 62
     7
370
    15
100
AcDbLine
 10
247.2833845432
 20
110.602588999
 30
0.0
 11
247.2833845432
 21
110.6531318751
 31
0.0
  0
LINE
  5
61
330
1F
100
AcDbEntity
  8
0
  6
Continuous
 62
     7
370
    15
100
AcDbLine
 10
242.0333850796
 20
110.6531318751
 30
0.0
 11
242.0333850796
 21
110.602588999
 31
0.0
  0
SPLINE
  5
62
330
1F
100
AcDbEntity
  8
0
  6
Continuous
 62
     7
370
    15
100
AcDbSpline
210
0.0
220
0.0
230
1.0
 70
     8
 71
     3
 72
    12
 73
     8
 74
     0
 42
0.00000001
 43
0.00000001
 12
1.0
 22
0.0
 32
0.0
 13
1.0
 23
0.0
 33
0.0
 40
0.0
 40
0.0
 40
0.0
 40
0.0
 40
0.2500000000000023
 40
0.2500000000000023
 40
0.5000000000000046
 40
0.5000000000000046
 40
1.0
 40
1.0
 40
1.0
 40
1.0
 10
168.7615676445069
 20
126.2587760066089
 30
0.0
 10
168.7240557584623
 20
126.2587760066089
 30
0.0
 10
168.6887684107575
 20
126.2735808208957
 30
0.0
 10
168.6298385625191
 20
126.3171726940215
 30
0.0
 10
168.6063128360501
 20
126.3446861201075
 30
0.0
 10
168.546054048282
 20
126.4338178522211
 30
0.0
 10
168.5204592859926
 20
126.5002037028389
 30
0.0
 10
168.5017600233716
 20
126.5678081380163
 30
0.0
  0
LINE
  5
63
330
1F
100
AcDbEntity
  8
0
  6
Continuous
 62
     7
370
    15
100
AcDbLine
 10
170.8977635617
 20
126.2587761981
 30
0.0
 11
168.7615675519
 21
126.2587761981
 31
0.0
  0
SPLINE
  5
64
330
1F
100
AcDbEntity
  8
0
  6
Continuous
 62
     7
370
    15
100
AcDbSpline
210
0.0
220
0.0
230
1.0
 70
     8
 71
     3
 72
    12
 73
     8
 74
     0
 42
0.00000001
 43
0.00000001
 12
1.0
 22
0.0
 32
0.0
 13
1.0
 23
0.0
 33
0.0
 40
0.0
 40
0.0
 40
0.0
 40
0.0
 40
0.5000000000000061
 40
0.5000000000000061
 40
0.750000000000003
 40
0.750000000000003
 40
1.0
 40
1.0
 40
1.0
 40
1.0
 10
171.1575712616439
 20
126.5678081380163
 30
0.0
 10
171.1388780285135
 20
126.5002255015759
 30
0.0
 10
171.1132227311016
 20
126.4337429320985
 30
0.0
 10
171.0530621084152
 20
126.344747849201
 30
0.0
 10
171.0289897966609
 20
126.3167459522018
 30
0.0
 10
170.9706082763103
 20
126.2736695515366
 30
0.0
 10
170.9351394486573
 20
126.2587760066089
 30
0.0
 10
170.8977636405085
 20
126.2587760066089
 30
0.0
  0
ELLIPSE
  5
65
330
1F
100
AcDbEntity
  8
0
  6
Continuous
 62
     7
370
    15
100
AcDbEllipse
 10
160.8807364701
 20
120.429563011
 30
0.0
 11
9.367417879781669
 21
19.74174915274993
 31
0.0
210
0.0
220
0.0
230
1.0
 40
0.3419987131
 41
5.185211263708391
 42
6.132113578252552
  0
SPLINE
  5
66
330
1F
100
AcDbEntity
  8
0
  6
Continuous
 62
     7
370
    15
100
AcDbSpline
210
0.0
220
0.0
230
1.0
 70
     8
 71
     3
 72
    12
 73
     8
 74
     0
 42
0.00000001
 43
0.00000001
 12
1.0
 22
0.0
 32
0.0
 13
1.0
 23
0.0
 33
0.0
 40
0.0
 40
0.0
 40
0.0
 40
0.0
 40
0.2499999999999988
 40
0.2499999999999988
 40
0.4999999999999976
 40
0.4999999999999976
 40
1.0
 40
1.0
 40
1.0
 40
1.0
 10
170.8977636405085
 20
139.5612193911907
 30
0.0
 10
170.9352755265532
 20
139.5612193911907
 30
0.0
 10
170.9705628742579
 20
139.5567158469282
 30
0.0
 10
171.0294927224963
 20
139.5433426474749
 30
0.0
 10
171.0530184489654
 20
139.5348577449037
 30
0.0
 10
171.1132772367335
 20
139.5071099410692
 30
0.0
 10
171.1388719990228
 20
139.4861200773288
 30
0.0
 10
171.1575712616439
 20
139.4643192941393
 30
0.0
  0
LINE
  5
67
330
1F
100
AcDbEntity
  8
0
  6
Continuous
 62
     7
370
    15
100
AcDbLine
 10
168.7615675519
 20
139.5612197471
 30
0.0
 11
170.8977635617
 21
139.5612197471
 31
0.0
  0
SPLINE
  5
68
330
1F
100
AcDbEntity
  8
0
  6
Continuous
 62
     7
370
    15
100
AcDbSpline
210
0.0
220
0.0
230
1.0
 70
     8
 71
     3
 72
    12
 73
     8
 74
     0
 42
0.00000001
 43
0.00000001
 12
1.0
 22
0.0
 32
0.0
 13
1.0
 23
0.0
 33
0.0
 40
0.0
 40
0.0
 40
0.0
 40
0.0
 40
0.5000000000000046
 40
0.5000000000000046
 40
0.7500000000000022
 40
0.7500000000000022
 40
1.0
 40
1.0
 40
1.0
 40
1.0
 10
168.5017600233716
 20
139.4643192941393
 30
0.0
 10
168.520453256502
 20
139.4861130477672
 30
0.0
 10
168.5461085539138
 20
139.5071332094768
 30
0.0
 10
168.6062691766003
 20
139.5348385554406
 30
0.0
 10
168.6303414883546
 20
139.543473771634
 30
0.0
 10
168.6887230087052
 20
139.5566884168605
 30
0.0
 10
168.7241918363582
 20
139.5612193911907
 30
0.0
 10
168.7615676445069
 20
139.5612193911907
 30
0.0
  0
ELLIPSE
  5
69
330
1F
100
AcDbEntity
  8
0
  6
Continuous
 62
     7
370
    15
100
AcDbEllipse
 10
178.7785948149
 20
120.429563011
 30
0.0
 11
-9.367417879781584
 21
19.74174915274993
 31
0.0
210
0.0
220
0.0
230
1.0
 40
0.3419987131
 41
0.1510717289270732
 42
1.097974043471207
  0
SPLINE
  5
6A
330
1F
100
AcDbEntity
  8
0
  6
Continuous
 62
     7
370
    15
100
AcDbSpline
210
0.0
220
0.0
230
1.0
 70
     8
 71
     3
 72
    12
 73
     8
 74
     0
 42
0.00000001
 43
0.00000001
 12
1.0
 22
0.0
 32
0.0
 13
1.0
 23
0.0
 33
0.0
 40
0.0
 40
0.0
 40
0.0
 40
0.0
 40
0.2499999999999988
 40
0.2499999999999988
 40
0.4999999999999977
 40
0.4999999999999977
 40
1.0
 40
1.0
 40
1.0
 40
1.0
 10
168.7615676445069
 20
101.297906630724
 30
0.0
 10
168.7240668216292
 20
101.297906630724
 30
0.0
 10
168.6887884175932
 20
101.3024075985871
 30
0.0
 10
168.6298706975408
 20
101.3157741198044
 30
0.0
 10
168.6063473161424
 20
101.3242553800493
 30
0.0
 10
168.5460917316765
 20
101.3519927757272
 30
0.0
 10
168.5205700792654
 20
101.3728767747802
 30
0.0
 10
168.5017600233716
 20
101.3948067277754
 30
0.0
  0
LINE
  5
6B
330
1F
100
AcDbEntity
  8
0
  6
Continuous
 62
     7
370
    15
100
AcDbLine
 10
170.8977635617
 20
101.2979062748
 30
0.0
 11
168.7615675519
 21
101.2979062748
 31
0.0
  0
SPLINE
  5
6C
330
1F
100
AcDbEntity
  8
0
  6
Continuous
 62
     7
370
    15
100
AcDbSpline
210
0.0
220
0.0
230
1.0
 70
     8
 71
     3
 72
    12
 73
     8
 74
     0
 42
0.00000001
 43
0.00000001
 12
1.0
 22
0.0
 32
0.0
 13
1.0
 23
0.0
 33
0.0
 40
0.0
 40
0.0
 40
0.0
 40
0.0
 40
0.5
 40
0.5
 40
0.75
 40
0.75
 40
1.0
 40
1.0
 40
1.0
 40
1.0
 10
171.1575712616439
 20
101.3948067277754
 30
0.0
 10
171.1387680287922
 20
101.3728847295143
 30
0.0
 10
171.113231369773
 20
101.3519909215044
 30
0.0
 10
171.0530051958245
 20
101.3242641953866
 30
0.0
 10
171.0290791184246
 20
101.3156910620112
 30
0.0
 10
170.9710181982433
 20
101.3025119562036
 30
0.0
 10
170.9352164996173
 20
101.2979066307239
 30
0.0
 10
170.8977636405085
 20
101.2979066307239
 30
0.0
  0
ELLIPSE
  5
6D
330
1F
100
AcDbEntity
  8
0
  6
Continuous
 62
     7
370
    15
100
AcDbEllipse
 10
160.8807364701
 20
120.429563011
 30
0.0
 11
-9.367417879781783
 21
19.74174915274993
 31
0.0
210
0.0
220
0.0
230
1.0
 40
0.3419987131
 41
3.292664382516895
 42
4.239566697060997
  0
SPLINE
  5
6E
330
1F
100
AcDbEntity
  8
0
  6
Continuous
 62
     7
370
    15
100
AcDbSpline
210
0.0
220
0.0
230
1.0
 70
     8
 71
     3
 72
    12
 73
     8
 74
     0
 42
0.00000001
 43
0.00000001
 12
1.0
 22
0.0
 32
0.0
 13
1.0
 23
0.0
 33
0.0
 40
0.0
 40
0.0
 40
0.0
 40
0.0
 40
0.2500000000000014
 40
0.2500000000000014
 40
0.5000000000000029
 40
0.5000000000000029
 40
1.0
 40
1.0
 40
1.0
 40
1.0
 10
170.8977636405085
 20
114.6003500153056
 30
0.0
 10
170.9352644633863
 20
114.6003500153056
 30
0.0
 10
170.9705428674223
 20
114.5855536775525
 30
0.0
 10
171.0294605874747
 20
114.5419834163934
 30
0.0
 10
171.052983968873
 20
114.5144816178918
 30
0.0
 10
171.113239553339
 20
114.4253824546488
 30
0.0
 10
171.1387612057501
 20
114.3593228758664
 30
0.0
 10
171.1575712616439
 20
114.2913178838982
 30
0.0
  0
LINE
  5
6F
330
1F
100
AcDbEntity
  8
0
  6
Continuous
 62
     7
370
    15
100
AcDbLine
 10
168.7615675519
 20
114.6003498239
 30
0.0
 11
170.8977635617
 21
114.6003498239
 31
0.0
  0
SPLINE
  5
70
330
1F
100
AcDbEntity
  8
0
  6
Continuous
 62
     7
370
    15
100
AcDbSpline
210
0.0
220
0.0
230
1.0
 70
     8
 71
     3
 72
    12
 73
     8
 74
     0
 42
0.00000001
 43
0.00000001
 12
1.0
 22
0.0
 32
0.0
 13
1.0
 23
0.0
 33
0.0
 40
0.0
 40
0.0
 40
0.0
 40
0.0
 40
0.499999999999999
 40
0.499999999999999
 40
0.7499999999999994
 40
0.7499999999999994
 40
1.0
 40
1.0
 40
1.0
 40
1.0
 10
168.5017600233716
 20
114.2913178838982
 30
0.0
 10
168.5205632562233
 20
114.3592982081606
 30
0.0
 10
168.5460999152425
 20
114.4253885959574
 30
0.0
 10
168.606326089191
 20
114.5144532084046
 30
0.0
 10
168.6302521665909
 20
114.5422542954245
 30
0.0
 10
168.6883130867722
 20
114.5852133686494
 30
0.0
 10
168.7241147853982
 20
114.6003500153056
 30
0.0
 10
168.7615676445069
 20
114.6003500153056
 30
0.0
  0
ELLIPSE
  5
71
330
1F
100
AcDbEntity
  8
0
  6
Continuous
 62
     7
370
    15
100
AcDbEllipse
 10
178.7785948149
 20
120.429563011
 30
0.0
 11
9.367417879781669
 21
19.74174915274996
 31
0.0
210
0.0
220
0.0
230
1.0
 40
0.3419987131
 41
2.043618610118597
 42
2.990520924662732
  0
LINE
  5
72
330
1F
100
AcDbEntity
  8
0
  6
Continuous
 62
     7
370
    15
100
AcDbLine
 10
181.8296651955
 20
101.0295624388
 30
0.0
 11
181.8296651955
 21
139.8295635832
 31
0.0
  0
LINE
  5
73
330
1F
100
AcDbEntity
  8
0
  6
Continuous
 62
     7
370
    15
100
AcDbLine
 10
161.8296656425
 20
100.7295629484
 30
0.0
 11
161.8296656425
 21
140.1295630735
 31
0.0
  0
SPLINE
  5
74
330
1F
100
AcDbEntity
  8
0
  6
Continuous
 62
     7
370
    15
100
AcDbSpline
210
0.0
220
0.0
230
1.0
 70
     8
 71
     3
 72
    18
 73
    14
 74
     0
 42
0.00000001
 43
0.00000001
 12
1.0
 22
0.0
 32
0.0
 13
1.0
 23
0.0
 33
0.0
 40
0.0
 40
0.0
 40
0.0
 40
0.0
 40
0.2500000000000003
 40
0.2500000000000003
 40
0.5000000000000007
 40
0.5000000000000007
 40
0.6250000000000004
 40
0.6250000000000004
 40
0.7500000000000003
 40
0.7500000000000003
 40
0.8750000000000001
 40
0.8750000000000001
 40
1.0
 40
1.0
 40
1.0
 40
1.0
 10
160.5735813249437
 20
106.5983746282785
 30
0.0
 10
160.6078781443955
 20
106.5975129727967
 30
0.0
 10
160.6456894243727
 20
106.5977645758916
 30
0.0
 10
160.7322617915527
 20
106.6001630885035
 30
0.0
 10
160.7806009216356
 20
106.6023340732354
 30
0.0
 10
160.869873278958
 20
106.6064289515306
 30
0.0
 10
160.902414744734
 20
106.6079335694802
 30
0.0
 10
160.9785909445874
 20
106.6108966274483
 30
0.0
 10
161.021807004582
 20
106.6123839657041
 30
0.0
 10
161.1274963065479
 20
106.6140093770278
 30
0.0
 10
161.1924673652625
 20
106.6139671359539
 30
0.0
 10
161.3261277536203
 20
106.6099449626329
 30
0.0
 10
161.3854342069565
 20
106.6064037358094
 30
0.0
 10
161.4346887536324
 20
106.6028370283733
 30
0.0
  0
SPLINE
  5
75
330
1F
100
AcDbEntity
  8
0
  6
Continuous
 62
     7
370
    15
100
AcDbSpline
210
0.0
220
0.0
230
1.0
 70
     8
 71
     3
 72
    14
 73
    10
 74
     0
 42
0.00000001
 43
0.00000001
 12
1.0
 22
0.0
 32
0.0
 13
1.0
 23
0.0
 33
0.0
 40
0.0
 40
0.0
 40
0.0
 40
0.0
 40
0.1249999999999974
 40
0.1249999999999974
 40
0.2499999999999949
 40
0.2499999999999949
 40
0.4999999999999942
 40
0.4999999999999942
 40
1.0
 40
1.0
 40
1.0
 40
1.0
 10
161.4346887536016
 20
106.6028370283923
 30
0.0
 10
161.446215531319
 20
106.6020023309582
 30
0.0
 10
161.4595683389715
 20
106.6002619166781
 30
0.0
 10
161.4897109115716
 20
106.5930143266778
 30
0.0
 10
161.5047714371862
 20
106.5876672924498
 30
0.0
 10
161.5401177911145
 20
106.5719200222213
 30
0.0
 10
161.5538498908434
 20
106.5620817480601
 30
0.0
 10
161.5872211365345
 20
106.5358777621096
 30
0.0
 10
161.5981615043885
 20
106.521789860709
 30
0.0
 10
161.6068146294018
 20
106.5090162372206
 30
0.0
  0
LINE
  5
76
330
1F
100
AcDbEntity
  8
0
  6
Continuous
 62
     7
370
    15
100
AcDbLine
 10
161.6296656476
 20
114.9241180633
 30
0.0
 11
161.6296656476
 21
106.3397430358
 31
0.0
  0
SPLINE
  5
77
330
1F
100
AcDbEntity
  8
0
  6
Continuous
 62
     7
370
    15
100
AcDbSpline
210
0.0
220
0.0
230
1.0
 70
     8
 71
     3
 72
    16
 73
    12
 74
     0
 42
0.00000001
 43
0.00000001
 12
1.0
 22
0.0
 32
0.0
 13
1.0
 23
0.0
 33
0.0
 40
0.0
 40
0.0
 40
0.0
 40
0.0
 40
0.4999999999999981
 40
0.4999999999999981
 40
0.7499999999999987
 40
0.7499999999999987
 40
0.8749999999999982
 40
0.8749999999999982
 40
0.9374999999999991
 40
0.9374999999999991
 40
1.0
 40
1.0
 40
1.0
 40
1.0
 10
161.6296656425077
 20
114.9241182439945
 30
0.0
 10
161.6296656425077
 20
115.041693625014
 30
0.0
 10
161.6257822173488
 20
115.1603893781152
 30
0.0
 10
161.6009668920742
 20
115.3411468561077
 30
0.0
 10
161.5901274443616
 20
115.4027909328806
 30
0.0
 10
161.5569116623128
 20
115.4921279072219
 30
0.0
 10
161.543529918684
 20
115.5223874386471
 30
0.0
 10
161.5080202688218
 20
115.5559036826345
 30
0.0
 10
161.492603302321
 20
115.5640420284406
 30
0.0
 10
161.4609022801724
 20
115.5640266190092
 30
0.0
 10
161.4467559952216
 20
115.5569843816534
 30
0.0
 10
161.4346887536319
 20
115.5478433180437
 30
0.0
  0
SPLINE
  5
78
330
1F
100
AcDbEntity
  8
0
  6
Continuous
 62
     7
370
    15
100
AcDbSpline
210
0.0
220
0.0
230
1.0
 70
     8
 71
     3
 72
    18
 73
    14
 74
     0
 42
0.00000001
 43
0.00000001
 12
1.0
 22
0.0
 32
0.0
 13
1.0
 23
0.0
 33
0.0
 40
0.0
 40
0.0
 40
0.0
 40
0.0
 40
0.1249999999999996
 40
0.1249999999999996
 40
0.2499999999999993
 40
0.2499999999999993
 40
0.3749999999999989
 40
0.3749999999999989
 40
0.4999999999999986
 40
0.4999999999999986
 40
0.7499999999999992
 40
0.7499999999999992
 40
1.0
 40
1.0
 40
1.0
 40
1.0
 10
161.4346887536381
 20
115.5478433180365
 30
0.0
 10
161.3859841699502
 20
115.5109490788459
 30
0.0
 10
161.3274756871747
 20
115.48141777442
 30
0.0
 10
161.1957488719048
 20
115.4721818011411
 30
0.0
 10
161.1309908004073
 20
115.4952449756981
 30
0.0
 10
161.0257801982567
 20
115.5627630973455
 30
0.0
 10
160.9825640497365
 20
115.6057741939961
 30
0.0
 10
160.9063857336526
 20
115.6960162159922
 30
0.0
 10
160.8735309013614
 20
115.7436470974675
 30
0.0
 10
160.7831629954004
 20
115.890711396817
 30
0.0
 10
160.7337403375608
 20
115.9946247221216
 30
0.0
 10
160.6460892119692
 20
116.2057586857619
 30
0.0
 10
160.6080276645786
 20
116.3134814305207
 30
0.0
 10
160.5735813249447
 20
116.4228145464301
 30
0.0
  0
SPLINE
  5
79
330
1F
100
AcDbEntity
  8
0
  6
Continuous
 62
     7
370
    15
100
AcDbSpline
210
0.0
220
0.0
230
1.0
 70
     8
 71
     3
 72
     8
 73
     4
 74
     0
 42
0.00000001
 43
0.00000001
 12
1.0
 22
0.0
 32
0.0
 13
1.0
 23
0.0
 33
0.0
 40
0.0
 40
0.0
 40
0.0
 40
0.0
 40
1.0
 40
1.0
 40
1.0
 40
1.0
 10
160.508345298948
 20
116.6580183205589
 30
0.0
 10
160.5277715042469
 20
116.5784260489861
 30
0.0
 10
160.5492683286754
 20
116.4999843028534
 30
0.0
 10
160.5735813249447
 20
116.4228145464301
 30
0.0
  0
SPLINE
  5
7A
330
1F
100
AcDbEntity
  8
0
  6
Continuous
 62
     7
370
    15
100
AcDbSpline
210
0.0
220
0.0
230
1.0
 70
     8
 71
     3
 72
     8
 73
     4
 74
     0
 42
0.00000001
 43
0.00000001
 12
1.0
 22
0.0
 32
0.0
 13
1.0
 23
0.0
 33
0.0
 40
0.0
 40
0.0
 40
0.0
 40
0.0
 40
1.0
 40
1.0
 40
1.0
 40
1.0
 10
160.5735813249447
 20
124.4363114754846
 30
0.0
 10
160.5492683286754
 20
124.3591417190613
 30
0.0
 10
160.5277715042469
 20
124.2806999729286
 30
0.0
 10
160.508345298948
 20
124.2011077013559
 30
0.0
  0
SPLINE
  5
7B
330
1F
100
AcDbEntity
  8
0
  6
Continuous
 62
     7
370
    15
100
AcDbSpline
210
0.0
220
0.0
230
1.0
 70
     8
 71
     3
 72
    18
 73
    14
 74
     0
 42
0.00000001
 43
0.00000001
 12
1.0
 22
0.0
 32
0.0
 13
1.0
 23
0.0
 33
0.0
 40
0.0
 40
0.0
 40
0.0
 40
0.0
 40
0.2499999999999992
 40
0.2499999999999992
 40
0.4999999999999984
 40
0.4999999999999984
 40
0.6249999999999988
 40
0.6249999999999988
 40
0.7499999999999992
 40
0.7499999999999992
 40
0.8749999999999996
 40
0.8749999999999996
 40
1.0
 40
1.0
 40
1.0
 40
1.0
 10
160.5735813249447
 20
124.4363114754846
 30
0.0
 10
160.6078796439574
 20
124.5451747720776
 30
0.0
 10
160.6456940412694
 20
124.652182195314
 30
0.0
 10
160.7322821023429
 20
124.8612170194523
 30
0.0
 10
160.7806322080216
 20
124.9633871134418
 30
0.0
 10
160.8699487968214
 20
125.1100678850065
 30
0.0
 10
160.9025091523097
 20
125.1578695835421
 30
0.0
 10
160.9787547860386
 20
125.2494251215675
 30
0.0
 10
161.0219141558186
 20
125.2931045135594
 30
0.0
 10
161.1276429798367
 20
125.362458730886
 30
0.0
 10
161.1926401568913
 20
125.3865750445519
 30
0.0
 10
161.3261246468456
 20
125.3783708225137
 30
0.0
 10
161.3854520402911
 20
125.3485800369218
 30
0.0
 10
161.4346887536324
 20
125.3112827038707
 30
0.0
  0
SPLINE
  5
7C
330
1F
100
AcDbEntity
  8
0
  6
Continuous
 62
     7
370
    15
100
AcDbSpline
210
0.0
220
0.0
230
1.0
 70
     8
 71
     3
 72
    16
 73
    12
 74
     0
 42
0.00000001
 43
0.00000001
 12
1.0
 22
0.0
 32
0.0
 13
1.0
 23
0.0
 33
0.0
 40
0.0
 40
0.0
 40
0.0
 40
0.0
 40
0.0625000000000002
 40
0.0625000000000002
 40
0.1250000000000004
 40
0.1250000000000004
 40
0.2500000000000031
 40
0.2500000000000031
 40
0.5000000000000038
 40
0.5000000000000038
 40
1.0
 40
1.0
 40
1.0
 40
1.0
 10
161.4346887536016
 20
125.3112827038224
 30
0.0
 10
161.4467585868775
 20
125.3021396769765
 30
0.0
 10
161.4610342418108
 20
125.2950952292853
 30
0.0
 10
161.4924986539352
 20
125.2950881573867
 30
0.0
 10
161.5079991787456
 20
125.3032161261836
 30
0.0
 10
161.5434380753526
 20
125.3366245871908
 30
0.0
 10
161.5570306914559
 20
125.367291753653
 30
0.0
 10
161.5900250098487
 20
125.4561127477348
 30
0.0
 10
161.6008124031675
 20
125.5170153932827
 30
0.0
 10
161.6258656504466
 20
125.699023470661
 30
0.0
 10
161.6296656425079
 20
125.8177121856996
 30
0.0
 10
161.6296656425079
 20
125.9350077779202
 30
0.0
  0
LINE
  5
7D
330
1F
100
AcDbEntity
  8
0
  6
Continuous
 62
     7
370
    15
100
AcDbLine
 10
161.6296656476
 20
134.5193829862
 30
0.0
 11
161.6296656476
 21
125.9350079586
 31
0.0
  0
SPLINE
  5
7E
330
1F
100
AcDbEntity
  8
0
  6
Continuous
 62
     7
370
    15
100
AcDbSpline
210
0.0
220
0.0
230
1.0
 70
     8
 71
     3
 72
    16
 73
    12
 74
     0
 42
0.00000001
 43
0.00000001
 12
1.0
 22
0.0
 32
0.0
 13
1.0
 23
0.0
 33
0.0
 40
0.0
 40
0.0
 40
0.0
 40
0.0
 40
0.4999999999999999
 40
0.4999999999999999
 40
0.75
 40
0.75
 40
0.8749999999999993
 40
0.8749999999999993
 40
0.9374999999999997
 40
0.9374999999999997
 40
1.0
 40
1.0
 40
1.0
 40
1.0
 10
161.6296656425077
 20
134.4143749176175
 30
0.0
 10
161.6296656425077
 20
134.3988096901781
 30
0.0
 10
161.6257822173488
 20
134.3796383123301
 30
0.0
 10
161.6009668920742
 20
134.3408659303482
 30
0.0
 10
161.5901274443616
 20
134.3262151541457
 30
0.0
 10
161.5569116623128
 20
134.2991709101661
 30
0.0
 10
161.543529918684
 20
134.2891928110261
 30
0.0
 10
161.5080202688218
 20
134.2727182752391
 30
0.0
 10
161.492603302321
 20
134.2669661844491
 30
0.0
 10
161.4609022801724
 20
134.2590456640225
 30
0.0
 10
161.4467559952216
 20
134.2571628280037
 30
0.0
 10
161.434688753632
 20
134.2562889935414
 30
0.0
  0
SPLINE
  5
7F
330
1F
100
AcDbEntity
  8
0
  6
Continuous
 62
     7
370
    15
100
AcDbSpline
210
0.0
220
0.0
230
1.0
 70
     8
 71
     3
 72
    18
 73
    14
 74
     0
 42
0.00000001
 43
0.00000001
 12
1.0
 22
0.0
 32
0.0
 13
1.0
 23
0.0
 33
0.0
 40
0.0
 40
0.0
 40
0.0
 40
0.0
 40
0.1249999999999998
 40
0.1249999999999998
 40
0.2499999999999997
 40
0.2499999999999997
 40
0.3749999999999995
 40
0.3749999999999995
 40
0.4999999999999993
 40
0.4999999999999993
 40
0.7499999999999997
 40
0.7499999999999997
 40
1.0
 40
1.0
 40
1.0
 40
1.0
 10
161.4346887536381
 20
134.2562889935413
 30
0.0
 10
161.3859846246214
 20
134.2527621439231
 30
0.0
 10
161.3274769554168
 20
134.2492618707254
 30
0.0
 10
161.195751292786
 20
134.2452188868375
 30
0.0
 10
161.1309936541657
 20
134.2451073122069
 30
0.0
 10
161.0257832375466
 20
134.2466394969684
 30
0.0
 10
160.9825672026064
 20
134.2480946491835
 30
0.0
 10
160.9063889811254
 20
134.2510199107132
 30
0.0
 10
160.8735342134413
 20
134.2525302412215
 30
0.0
 10
160.7831664945994
 20
134.2566722339098
 30
0.0
 10
160.7337441254101
 20
134.2589103188963
 30
0.0
 10
160.646091663322
 20
134.2613616019428
 30
0.0
 10
160.6080289270876
 20
134.2616168373038
 30
0.0
 10
160.5735813249442
 20
134.2607513936359
 30
0.0
  0
SPLINE
  5
80
330
1F
100
AcDbEntity
  8
0
  6
Continuous
 62
     7
370
    15
100
AcDbSpline
210
0.0
220
0.0
230
1.0
 70
     8
 71
     3
 72
     8
 73
     4
 74
     0
 42
0.00000001
 43
0.00000001
 12
1.0
 22
0.0
 32
0.0
 13
1.0
 23
0.0
 33
0.0
 40
0.0
 40
0.0
 40
0.0
 40
0.0
 40
1.0
 40
1.0
 40
1.0
 40
1.0
 10
160.3346256645684
 20
117.4830722065935
 30
0.0
 10
160.3853527472908
 20
117.1997210852743
 30
0.0
 10
160.4432400602779
 20
116.9247649011345
 30
0.0
 10
160.5083452989481
 20
116.658018320559
 30
0.0
  0
SPLINE
  5
81
330
1F
100
AcDbEntity
  8
0
  6
Continuous
 62
     7
370
    15
100
AcDbSpline
210
0.0
220
0.0
230
1.0
 70
     8
 71
     3
 72
    24
 73
    20
 74
     0
 42
0.00000001
 43
0.00000001
 12
1.0
 22
0.0
 32
0.0
 13
1.0
 23
0.0
 33
0.0
 40
0.0
 40
0.0
 40
0.0
 40
0.0
 40
0.2499999999999954
 40
0.2499999999999954
 40
0.3749999999999924
 40
0.3749999999999924
 40
0.4374999999999903
 40
0.4374999999999903
 40
0.4687499999999897
 40
0.4687499999999897
 40
0.4999999999999891
 40
0.4999999999999891
 40
0.5624999999999907
 40
0.5624999999999907
 40
0.6249999999999921
 40
0.6249999999999921
 40
0.7499999999999942
 40
0.7499999999999942
 40
1.0
 40
1.0
 40
1.0
 40
1.0
 10
160.1296656424994
 20
117.4833646148867
 30
0.0
 10
160.1300686718734
 20
117.5766329075163
 30
0.0
 10
160.1320984115885
 20
117.6703904663653
 30
0.0
 10
160.1414071230083
 20
117.8119803520048
 30
0.0
 10
160.1453331161228
 20
117.8591607706141
 30
0.0
 10
160.1562624760388
 20
117.9297568172995
 30
0.0
 10
160.1603841041332
 20
117.9535367310642
 30
0.0
 10
160.1722786253156
 20
117.9869878781114
 30
0.0
 10
160.1775654372694
 20
117.999142830181
 30
0.0
 10
160.1941333687843
 20
118.0070254691491
 30
0.0
 10
160.2020600775516
 20
117.9994618700471
 30
0.0
 10
160.2190524157768
 20
117.9756694388203
 30
0.0
 10
160.2264501165677
 20
117.9554809609758
 30
0.0
 10
160.2405525069096
 20
117.915031336356
 30
0.0
 10
160.2467056642018
 20
117.8941756619586
 30
0.0
 10
160.2640193976629
 20
117.8310506266575
 30
0.0
 10
160.2740244385515
 20
117.788071514756
 30
0.0
 10
160.3023808947822
 20
117.6583458704672
 30
0.0
 10
160.3189294341284
 20
117.5707481433312
 30
0.0
 10
160.3346256645685
 20
117.4830722065935
 30
0.0
  0
SPLINE
  5
82
330
1F
100
AcDbEntity
  8
0
  6
Continuous
 62
     7
370
    15
100
AcDbSpline
210
0.0
220
0.0
230
1.0
 70
     8
 71
     3
 72
    16
 73
    12
 74
     0
 42
0.00000001
 43
0.00000001
 12
1.0
 22
0.0
 32
0.0
 13
1.0
 23
0.0
 33
0.0
 40
0.0
 40
0.0
 40
0.0
 40
0.0
 40
0.25
 40
0.25
 40
0.375
 40
0.375
 40
0.5
 40
0.5
 40
0.75
 40
0.75
 40
1.0
 40
1.0
 40
1.0
 40
1.0
 10
160.1296656425077
 20
123.3757614070267
 30
0.0
 10
160.0491288331122
 20
122.9066885801637
 30
0.0
 10
159.98909142431
 20
122.4263249299837
 30
0.0
 10
159.9283534770628
 20
121.6891406508427
 30
0.0
 10
159.9130309960198
 20
121.4406222476157
 30
0.0
 10
159.8924480442419
 20
120.9378388024019
 30
0.0
 10
159.8872484972054
 20
120.6829802493773
 30
0.0
 10
159.8871947866652
 20
119.9267029096565
 30
0.0
 10
159.9073921239343
 20
119.4280447103467
 30
0.0
 10
159.9880704310073
 20
118.4416217396024
 30
0.0
 10
160.0491167793485
 20
117.9525076468294
 30
0.0
 10
160.1296656425077
 20
117.483364614888
 30
0.0
  0
SPLINE
  5
83
330
1F
100
AcDbEntity
  8
0
  6
Continuous
 62
     7
370
    15
100
AcDbSpline
210
0.0
220
0.0
230
1.0
 70
     8
 71
     3
 72
    24
 73
    20
 74
     0
 42
0.00000001
 43
0.00000001
 12
1.0
 22
0.0
 32
0.0
 13
1.0
 23
0.0
 33
0.0
 40
0.0
 40
0.0
 40
0.0
 40
0.0
 40
0.2500000000000058
 40
0.2500000000000058
 40
0.3750000000000083
 40
0.3750000000000083
 40
0.4375000000000096
 40
0.4375000000000096
 40
0.5000000000000109
 40
0.5000000000000109
 40
0.5312500000000104
 40
0.5312500000000104
 40
0.5625000000000099
 40
0.5625000000000099
 40
0.6250000000000091
 40
0.6250000000000091
 40
0.7500000000000064
 40
0.7500000000000064
 40
1.0
 40
1.0
 40
1.0
 40
1.0
 10
160.3346256645685
 20
123.3760538153212
 30
0.0
 10
160.3188566196588
 20
123.2879711518303
 30
0.0
 10
160.3022424550982
 20
123.2000263353209
 30
0.0
 10
160.2737103276048
 20
123.0696789680578
 30
0.0
 10
160.2636226940509
 20
123.0264177902557
 30
0.0
 10
160.246134871202
 20
122.9629820144203
 30
0.0
 10
160.2399250632757
 20
122.9420678908766
 30
0.0
 10
160.2256472036933
 20
122.9015930991915
 30
0.0
 10
160.2180760413415
 20
122.8811154557323
 30
0.0
 10
160.2006562161671
 20
122.8582690761954
 30
0.0
 10
160.1921721337125
 20
122.8517172791517
 30
0.0
 10
160.176136060095
 20
122.8622886543783
 30
0.0
 10
160.1713156878172
 20
122.8743796946622
 30
0.0
 10
160.1599087872113
 20
122.9080229378821
 30
0.0
 10
160.1558878255019
 20
122.9314306171789
 30
0.0
 10
160.1451338137227
 20
123.00201922024
 30
0.0
 10
160.1412619281
 20
123.0489842477625
 30
0.0
 10
160.1320939632991
 20
123.1895611123686
 30
0.0
 10
160.1300656287859
 20
123.2831973419882
 30
0.0
 10
160.1296656425077
 20
123.3757614070267
 30
0.0
  0
SPLINE
  5
84
330
1F
100
AcDbEntity
  8
0
  6
Continuous
 62
     7
370
    15
100
AcDbSpline
210
0.0
220
0.0
230
1.0
 70
     8
 71
     3
 72
     8
 73
     4
 74
     0
 42
0.00000001
 43
0.00000001
 12
1.0
 22
0.0
 32
0.0
 13
1.0
 23
0.0
 33
0.0
 40
0.0
 40
0.0
 40
0.0
 40
0.0
 40
1.0
 40
1.0
 40
1.0
 40
1.0
 10
160.5083452989481
 20
124.2011077013558
 30
0.0
 10
160.4432400602779
 20
123.9343611207802
 30
0.0
 10
160.3853527472908
 20
123.6594049366404
 30
0.0
 10
160.3346256645684
 20
123.3760538153213
 30
0.0
  0
LINE
  5
85
330
1F
100
AcDbEntity
  8
0
  6
Continuous
 62
     7
370
    15
100
AcDbLine
 10
160.12966562
 20
117.4833645587
 30
0.0
 11
160.12966562
 21
116.3283592564
 31
0.0
  0
LINE
  5
86
330
1F
100
AcDbEntity
  8
0
  6
Continuous
 62
     7
370
    15
100
AcDbLine
 10
139.3296647484
 20
124.2694825874
 30
0.0
 11
139.3296647484
 21
116.5896434345
 31
0.0
  0
LINE
  5
87
330
1F
100
AcDbEntity
  8
0
  6
Continuous
 62
     7
370
    15
100
AcDbLine
 10
160.12966562
 20
124.5307667655
 30
0.0
 11
160.12966562
 21
123.3757614632
 31
0.0
  0
LINE
  5
88
330
1F
100
AcDbEntity
  8
0
  6
Continuous
 62
     7
370
    15
100
AcDbLine
 10
137.8296654339
 20
123.8364697442
 30
0.0
 11
137.8296654339
 21
117.0226562777
 31
0.0
  0
LINE
  5
89
330
1F
100
AcDbEntity
  8
0
  6
Continuous
 62
     7
370
    15
100
AcDbLine
 10
160.3346256207
 20
134.2547476766
 30
0.0
 11
160.5735813401
 21
134.2607509819
 31
0.0
  0
LINE
  5
8A
330
1F
100
AcDbEntity
  8
0
  6
Continuous
 62
     7
370
    15
100
AcDbLine
 10
160.12966562
 20
124.5307667655
 30
0.0
 11
160.12966562
 21
134.4496613843
 31
0.0
  0
ARC
  5
8B
330
1F
100
AcDbEntity
  8
0
  6
Continuous
 62
     7
370
    15
100
AcDbCircle
 10
160.3296025534
 20
134.4546849066
 30
0.0
 40
0.2000000000000066
100
AcDbArc
 50
181.4391666667
 51
271.4391666667
  0
LINE
  5
8C
330
1F
100
AcDbEntity
  8
0
  6
Continuous
 62
     7
370
    15
100
AcDbLine
 10
139.3296647484
 20
124.2694825874
 30
0.0
 11
139.3296647484
 21
133.9270934937
 31
0.0
  0
LINE
  5
8D
330
1F
100
AcDbEntity
  8
0
  6
Continuous
 62
     7
370
    15
100
AcDbLine
 10
139.3296647484
 20
133.9270934937
 30
0.0
 11
160.12966562
 21
134.4496613843
 31
0.0
  0
LINE
  5
8E
330
1F
100
AcDbEntity
  8
0
  6
Continuous
 62
     7
370
    15
100
AcDbLine
 10
139.3296647484
 20
106.9320325282
 30
0.0
 11
139.3296647484
 21
116.5896434345
 31
0.0
  0
LINE
  5
8F
330
1F
100
AcDbEntity
  8
0
  6
Continuous
 62
     7
370
    15
100
AcDbLine
 10
160.12966562
 20
106.4094646377
 30
0.0
 11
160.12966562
 21
116.3283592564
 31
0.0
  0
LINE
  5
90
330
1F
100
AcDbEntity
  8
0
  6
Continuous
 62
     7
370
    15
100
AcDbLine
 10
139.3296647484
 20
106.9320325282
 30
0.0
 11
160.12966562
 21
106.4094646377
 31
0.0
  0
ARC
  5
91
330
1F
100
AcDbEntity
  8
0
  6
Continuous
 62
     7
370
    15
100
AcDbCircle
 10
160.3296025534
 20
106.4044411153
 30
0.0
 40
0.2000000000000059
100
AcDbArc
 50
88.5608333333
 51
178.5608333333
  0
LINE
  5
92
330
1F
100
AcDbEntity
  8
0
  6
Continuous
 62
     7
370
    15
100
AcDbLine
 10
160.3346256207
 20
106.6043783453
 30
0.0
 11
160.5735813401
 21
106.59837504
 31
0.0
  0
LINE
  5
93
330
1F
100
AcDbEntity
  8
0
  6
Continuous
 62
     7
370
    15
100
AcDbLine
 10
137.8296654339
 20
133.0610678074
 30
0.0
 11
139.3296647484
 21
133.9270934937
 31
0.0
  0
LINE
  5
94
330
1F
100
AcDbEntity
  8
0
  6
Continuous
 62
     7
370
    15
100
AcDbLine
 10
137.8296654339
 20
123.8364697442
 30
0.0
 11
137.8296654339
 21
133.0610678074
 31
0.0
  0
LINE
  5
95
330
1F
100
AcDbEntity
  8
0
  6
Continuous
 62
     7
370
    15
100
AcDbLine
 10
137.8296654339
 20
107.7980582145
 30
0.0
 11
139.3296647484
 21
106.9320325282
 31
0.0
  0
LINE
  5
96
330
1F
100
AcDbEntity
  8
0
  6
Continuous
 62
     7
370
    15
100
AcDbLine
 10
137.8296654339
 20
107.7980582145
 30
0.0
 11
137.8296654339
 21
117.0226562777
 31
0.0
  0
SPLINE
  5
97
330
1F
100
AcDbEntity
  8
0
  6
Continuous
 62
     7
370
    15
100
AcDbSpline
210
0.0
220
0.0
230
1.0
 70
     8
 71
     3
 72
    16
 73
    12
 74
     0
 42
0.00000001
 43
0.00000001
 12
1.0
 22
0.0
 32
0.0
 13
1.0
 23
0.0
 33
0.0
 40
0.0
 40
0.0
 40
0.0
 40
0.0
 40
0.2500000000000006
 40
0.2500000000000006
 40
0.3750000000000021
 40
0.3750000000000021
 40
0.5000000000000036
 40
0.5000000000000036
 40
0.7500000000000018
 40
0.7500000000000018
 40
1.0
 40
1.0
 40
1.0
 40
1.0
 10
223.2338691275774
 20
132.2902591564212
 30
0.0
 10
223.3020904532565
 20
132.3732492896597
 30
0.0
 10
223.4024707955216
 20
132.4437955600294
 30
0.0
 10
223.6019989858028
 20
132.5345726274014
 30
0.0
 10
223.6773271335565
 20
132.5624208707907
 30
0.0
 10
223.8405927766138
 20
132.6121347927477
 30
0.0
 10
223.928853791771
 20
132.6342159462224
 30
0.0
 10
224.2133773000252
 20
132.6934748566044
 30
0.0
 10
224.4323030585831
 20
132.7238518293394
 30
0.0
 10
224.8992953231544
 20
132.7687041758844
 30
0.0
 10
225.1517255740464
 20
132.7838945602004
 30
0.0
 10
225.4154520801346
 20
132.7934648564757
 30
0.0
  0
ELLIPSE
  5
98
330
1F
100
AcDbEntity
  8
0
  6
Continuous
 62
     7
370
    15
100
AcDbEllipse
 10
224.0670311285
 20
120.429563011
 30
0.0
 11
0.2516063682710126
 21
12.49981921343796
 31
0.0
210
0.0
220
0.0
230
1.0
 40
0.2671959542
 41
0.3265832336788528
 42
2.965392324511987
  0
SPLINE
  5
99
330
1F
100
AcDbEntity
  8
0
  6
Continuous
 62
     7
370
    15
100
AcDbSpline
210
0.0
220
0.0
230
1.0
 70
     8
 71
     3
 72
    16
 73
    12
 74
     0
 42
0.00000001
 43
0.00000001
 12
1.0
 22
0.0
 32
0.0
 13
1.0
 23
0.0
 33
0.0
 40
0.0
 40
0.0
 40
0.0
 40
0.0
 40
0.2500000000000042
 40
0.2500000000000042
 40
0.3750000000000062
 40
0.3750000000000062
 40
0.5000000000000032
 40
0.5000000000000032
 40
0.7500000000000016
 40
0.7500000000000016
 40
1.0
 40
1.0
 40
1.0
 40
1.0
 10
225.4154520801346
 20
107.9299704239994
 30
0.0
 10
225.1517307948228
 20
107.9304954610543
 30
0.0
 10
224.9027055358074
 20
107.9316724121354
 30
0.0
 10
224.5506793919865
 20
107.9379466881075
 30
0.0
 10
224.4364216047491
 20
107.9408496866305
 30
0.0
 10
224.2218799681713
 20
107.9488837908802
 30
0.0
 10
224.1208166235543
 20
107.9540174606106
 30
0.0
 10
223.8359742862644
 20
107.9740094323384
 30
0.0
 10
223.6693472978735
 20
107.9938650197737
 30
0.0
 10
223.4041497939232
 20
108.050431248395
 30
0.0
 10
223.3020959072599
 20
108.0875917284925
 30
0.0
 10
223.2338691275774
 20
108.1350648994271
 30
0.0
  0
ELLIPSE
  5
9A
330
1F
100
AcDbEntity
  8
0
  6
Continuous
 62
     7
370
    15
100
AcDbEllipse
 10
222.3564660045
 20
115.7977806936
 30
0.0
 11
-0.0660497714683288
 21
2.30032902486839
 31
0.0
210
0.0
220
0.0
230
1.0
 40
0.2554577012
 41
0.0
 42
6.283185307179586
  0
SPLINE
  5
9B
330
1F
100
AcDbEntity
  8
0
  6
Continuous
 62
     7
370
    15
100
AcDbSpline
210
0.0
220
0.0
230
1.0
 70
     8
 71
     3
 72
     8
 73
     4
 74
     0
 42
0.00000001
 43
0.00000001
 12
1.0
 22
0.0
 32
0.0
 13
1.0
 23
0.0
 33
0.0
 40
0.0
 40
0.0
 40
0.0
 40
0.0
 40
1.0
 40
1.0
 40
1.0
 40
1.0
 10
226.1316466064445
 20
107.6275840595443
 30
0.0
 10
226.1286171927604
 20
107.6306133549277
 30
0.0
 10
226.1255879442853
 20
107.6336424877001
 30
0.0
 10
226.1225588613211
 20
107.636671458265
 30
0.0
  0
SPLINE
  5
9C
330
1F
100
AcDbEntity
  8
0
  6
Continuous
 62
     7
370
    15
100
AcDbSpline
210
0.0
220
0.0
230
1.0
 70
     8
 71
     3
 72
    10
 73
     6
 74
     0
 42
0.00000001
 43
0.00000001
 12
1.0
 22
0.0
 32
0.0
 13
1.0
 23
0.0
 33
0.0
 40
0.0
 40
0.0
 40
0.0
 40
0.0
 40
0.5
 40
0.5
 40
1.0
 40
1.0
 40
1.0
 40
1.0
 10
226.1225588613212
 20
107.6366714582651
 30
0.0
 10
226.028333514841
 20
107.7308933083534
 30
0.0
 10
225.9170645539877
 20
107.8045309892368
 30
0.0
 10
225.6744975839888
 20
107.9043581000729
 30
0.0
 10
225.5449921943961
 20
107.9297125253624
 30
0.0
 10
225.4154520801346
 20
107.9299704239996
 30
0.0
  0
SPLINE
  5
9D
330
1F
100
AcDbEntity
  8
0
  6
Continuous
 62
     7
370
    15
100
AcDbSpline
210
0.0
220
0.0
230
1.0
 70
     8
 71
     3
 72
    10
 73
     6
 74
     0
 42
0.00000001
 43
0.00000001
 12
1.0
 22
0.0
 32
0.0
 13
1.0
 23
0.0
 33
0.0
 40
0.0
 40
0.0
 40
0.0
 40
0.0
 40
0.5
 40
0.5
 40
1.0
 40
1.0
 40
1.0
 40
1.0
 10
225.4154520801346
 20
132.7934648564757
 30
0.0
 10
225.5449824946279
 20
132.7981653488977
 30
0.0
 10
225.6740969601759
 20
132.8265219835844
 30
0.0
 10
225.9167635234421
 20
132.9301009435038
 30
0.0
 10
226.0283153232126
 20
133.0045838258001
 30
0.0
 10
226.1225588613216
 20
133.0988636961696
 30
0.0
  0
SPLINE
  5
9E
330
1F
100
AcDbEntity
  8
0
  6
Continuous
 62
     7
370
    15
100
AcDbSpline
210
0.0
220
0.0
230
1.0
 70
     8
 71
     3
 72
     8
 73
     4
 74
     0
 42
0.00000001
 43
0.00000001
 12
1.0
 22
0.0
 32
0.0
 13
1.0
 23
0.0
 33
0.0
 40
0.0
 40
0.0
 40
0.0
 40
0.0
 40
1.0
 40
1.0
 40
1.0
 40
1.0
 10
226.1225588613211
 20
133.09886369617
 30
0.0
 10
226.1255879442853
 20
133.1018939468899
 30
0.0
 10
226.1286171927604
 20
133.1049237198403
 30
0.0
 10
226.1316466064445
 20
133.1079530152236
 30
0.0
  0
ELLIPSE
  5
9F
330
1F
100
AcDbEntity
  8
0
  6
Continuous
 62
     7
370
    15
100
AcDbEllipse
 10
246.4092729211
 20
120.429563011
 30
0.0
 11
-4.24708025276297
 21
12.99357047085398
 31
0.0
210
0.0
220
0.0
230
1.0
 40
0.0962569477
 41
6.113724024734387
 42
6.25173312320005
  0
LINE
  5
A0
330
1F
100
AcDbEntity
  8
0
  6
Continuous
 62
     7
370
    15
100
AcDbLine
 10
226.329662245
 20
133.3059572158
 30
0.0
 11
242.4339655454
 21
133.3059572158
 31
0.0
  0
LINE
  5
A1
330
1F
100
AcDbEntity
  8
0
  6
Continuous
 62
     7
370
    15
100
AcDbLine
 10
226.329662245
 20
133.4295632792
 30
0.0
 11
226.329662245
 21
133.3059572158
 31
0.0
  0
LINE
  5
A2
330
1F
100
AcDbEntity
  8
0
  6
Continuous
 62
     7
370
    15
100
AcDbLine
 10
226.5657413418
 20
107.1935413879
 30
0.0
 11
226.1316481645
 21
107.6275842738
 31
0.0
  0
LINE
  5
A3
330
1F
100
AcDbEntity
  8
0
  6
Continuous
 62
     7
370
    15
100
AcDbLine
 10
226.1316481645
 20
133.1079533798
 30
0.0
 11
226.329662245
 21
133.3059572158
 31
0.0
  0
LINE
  5
A4
330
1F
100
AcDbEntity
  8
0
  6
Continuous
 62
     7
370
    15
100
AcDbLine
 10
242.4339655454
 20
133.3059572158
 30
0.0
 11
248.4427395876
 21
114.2949891751
 31
0.0
  0
LINE
  5
A5
330
1F
100
AcDbEntity
  8
0
  6
Continuous
 62
     7
370
    15
100
AcDbLine
 10
241.0372797067
 20
116.6418361486
 30
0.0
 11
240.3339374478
 21
118.8671010555
 31
0.0
  0
ARC
  5
A6
330
1F
100
AcDbEntity
  8
0
  6
Continuous
 62
     7
370
    15
100
AcDbCircle
 10
238.8883406511
 20
118.4101175456
 30
0.0
 40
1.516108184455845
100
AcDbArc
 50
17.5428394904
 51
197.3771451374
  0
LINE
  5
A7
330
1F
100
AcDbEntity
  8
0
  6
Continuous
 62
     7
370
    15
100
AcDbLine
 10
237.441428345
 20
117.9573164796
 30
0.0
 11
237.6715842302
 21
117.2291307253
 31
0.0
  0
LINE
  5
A8
330
1F
100
AcDbEntity
  8
0
  6
Continuous
 62
     7
370
    15
100
AcDbLine
 10
240.9823167737
 20
106.7544013736
 30
0.0
 11
241.0011369402
 21
106.6948684407
 31
0.0
  0
ELLIPSE
  5
A9
330
1F
100
AcDbEntity
  8
0
  6
Continuous
 62
     7
370
    15
100
AcDbEllipse
 10
235.9459996885
 20
81.0620958535
 30
0.0
 11
-5.684341886080801E-14
 21
26.13144513619378
 31
0.0
210
0.0
220
0.0
230
1.0
 40
0.9949698482
 41
6.087510793612109
 42
6.283185307179586
  0
LINE
  5
AA
330
1F
100
AcDbEntity
  8
0
  6
Continuous
 62
     7
370
    15
100
AcDbLine
 10
235.9459999616
 20
107.1935413879
 30
0.0
 11
226.5657413418
 21
107.1935413879
 31
0.0
  0
ARC
  5
AB
330
1F
100
AcDbEntity
  8
0
  6
Continuous
 62
     7
370
    15
100
AcDbCircle
 10
238.8882799336
 20
118.5616821688
 30
0.0
 40
1.249725476887755
100
AcDbArc
 50
17.551209893
 51
197.3687526839
  0
LINE
  5
AC
330
1F
100
AcDbEntity
  8
0
  6
Continuous
 62
     7
370
    15
100
AcDbLine
 10
240.079827946
 20
118.9385470011
 30
0.0
 11
240.7801899726
 21
116.7226977655
 31
0.0
  0
LINE
  5
AD
330
1F
100
AcDbEntity
  8
0
  6
Continuous
 62
     7
370
    15
100
AcDbLine
 10
237.6955378468
 20
118.1886137006
 30
0.0
 11
237.9045638855
 21
117.5272889909
 31
0.0
  0
LINE
  5
AE
330
1F
100
AcDbEntity
  8
0
  6
Continuous
 62
     7
370
    15
100
AcDbLine
 10
237.6387867744
 20
118.6158977457
 30
0.0
 11
237.6955378468
 21
118.2932484903
 31
0.0
  0
LINE
  5
AF
330
1F
100
AcDbEntity
  8
0
  6
Continuous
 62
     7
370
    15
100
AcDbLine
 10
237.6955378468
 20
118.2932484903
 30
0.0
 11
237.9348206933
 21
117.5361873125
 31
0.0
  0
CIRCLE
  5
B0
330
1F
100
AcDbEntity
  8
0
  6
Continuous
 62
     7
370
    15
100
AcDbCircle
 10
244.6625902221
 20
110.6033222874
 30
0.0
 40
2.62077253334098
  0
CIRCLE
  5
B1
330
1F
100
AcDbEntity
  8
0
  6
Continuous
 62
     7
370
    15
100
AcDbCircle
 10
244.6614412676
 20
110.5840223793
 30
0.0
 40
1.796928348532787
  0
ARC
  5
B2
330
1F
100
AcDbEntity
  8
0
  6
Continuous
 62
     7
370
    15
100
AcDbCircle
 10
244.6589855837
 20
110.5782121148
 30
0.0
 40
1.676099846994297
100
AcDbArc
 50
32.9594835475
 51
91.4832630545
  0
ARC
  5
B3
330
1F
100
AcDbEntity
  8
0
  6
Continuous
 62
     7
370
    15
100
AcDbCircle
 10
244.657477524
 20
110.5788346431
 30
0.0
 40
1.675439155012213
100
AcDbArc
 50
91.4322595629
 51
151.4775414937
  0
ARC
  5
B4
330
1F
100
AcDbEntity
  8
0
  6
Continuous
 62
     7
370
    15
100
AcDbCircle
 10
244.650861224
 20
110.5833638954
 30
0.0
 40
1.667463344584583
100
AcDbArc
 50
151.5057255397
 51
210.239020783
  0
LINE
  5
B5
330
1F
100
AcDbEntity
  8
0
  6
Continuous
 62
     7
370
    15
100
AcDbLine
 10
243.2548407133
 20
109.6714433757
 30
0.0
 11
243.2102862413
 21
109.7436152873
 31
0.0
  0
ARC
  5
B6
330
1F
100
AcDbEntity
  8
0
  6
Continuous
 62
     7
370
    15
100
AcDbCircle
 10
244.6576860417
 20
110.5884092452
 30
0.0
 40
1.675947917206916
100
AcDbArc
 50
213.1705241022
 51
269.5448950854
  0
LINE
  5
B7
330
1F
100
AcDbEntity
  8
0
  6
Continuous
 62
     7
370
    15
100
AcDbLine
 10
244.7641346271
 20
108.9157887277
 30
0.0
 11
244.6443739946
 21
108.9125141976
 31
0.0
  0
ARC
  5
B8
330
1F
100
AcDbEntity
  8
0
  6
Continuous
 62
     7
370
    15
100
AcDbCircle
 10
244.6593238374
 20
110.587989919
 30
0.0
 40
1.675482654587869
100
AcDbArc
 50
273.5865124581
 51
329.3231328968
  0
LINE
  5
B9
330
1F
100
AcDbEntity
  8
0
  6
Continuous
 62
     7
370
    15
100
AcDbLine
 10
246.1575720127
 20
109.838163155
 30
0.0
 11
246.1003366525
 21
109.733165848
 31
0.0
  0
ARC
  5
BA
330
1F
100
AcDbEntity
  8
0
  6
Continuous
 62
     7
370
    15
100
AcDbCircle
 10
244.6659601619
 20
110.5833898127
 30
0.0
 40
1.667413771263102
100
AcDbArc
 50
333.4527522504
 51
30.0259449807
  0
LINE
  5
BB
330
1F
100
AcDbEntity
  8
0
  6
Continuous
 62
     7
370
    15
100
AcDbLine
 10
246.0653263743
 20
111.4900872585
 30
0.0
 11
246.1096051748
 21
111.4177505029
 31
0.0
  0
SPLINE
  5
BC
330
1F
100
AcDbEntity
  8
0
  6
Continuous
 62
     7
370
    15
100
AcDbSpline
210
0.0
220
0.0
230
1.0
 70
     8
 71
     3
 72
    12
 73
     8
 74
     0
 42
0.00000001
 43
0.00000001
 12
1.0
 22
0.0
 32
0.0
 13
1.0
 23
0.0
 33
0.0
 40
0.0
 40
0.0
 40
0.0
 40
0.0
 40
0.2058606223863642
 40
0.4121062383261404
 40
0.6141974483366301
 40
0.8133185331907301
 40
1.0
 40
1.0
 40
1.0
 40
1.0
 10
245.6988248641569
 20
111.6011940416957
 30
0.0
 10
245.6348633758332
 20
111.5874524797166
 30
0.0
 10
245.5068207805801
 20
111.5599436567551
 30
0.0
 10
245.3093705662598
 20
111.6007286250359
 30
0.0
 10
245.1388916777084
 20
111.6977829772999
 30
0.0
 10
245.0097400478117
 20
111.8385864085539
 30
0.0
 10
244.9682031600992
 20
111.952443587026
 30
0.0
 10
244.9481043632109
 20
112.0075366002585
 30
0.0
  0
SPLINE
  5
BD
330
1F
100
AcDbEntity
  8
0
  6
Continuous
 62
     7
370
    15
100
AcDbSpline
210
0.0
220
0.0
230
1.0
 70
     8
 71
     3
 72
    11
 73
     7
 74
     0
 42
0.00000001
 43
0.00000001
 12
1.0
 22
0.0
 32
0.0
 13
1.0
 23
0.0
 33
0.0
 40
0.0
 40
0.0
 40
0.0
 40
0.0
 40
0.2524805397215616
 40
0.5068911661425152
 40
0.7591694744977634
 40
1.0
 40
1.0
 40
1.0
 40
1.0
 10
244.9481043632109
 20
112.0075366002585
 30
0.0
 10
244.9350073481868
 20
112.0424194727968
 30
0.0
 10
244.9087131980483
 20
112.1124518798838
 30
0.0
 10
244.8271243386164
 20
112.1934251121041
 30
0.0
 10
244.7261396482594
 20
112.2462848449861
 30
0.0
 10
244.6518717279336
 20
112.2513006628247
 30
0.0
 10
244.6155998523313
 20
112.2537503493096
 30
0.0
  0
SPLINE
  5
BE
330
1F
100
AcDbEntity
  8
0
  6
Continuous
 62
     7
370
    15
100
AcDbSpline
210
0.0
220
0.0
230
1.0
 70
     8
 71
     3
 72
    11
 73
     7
 74
     0
 42
0.00000001
 43
0.00000001
 12
1.0
 22
0.0
 32
0.0
 13
1.0
 23
0.0
 33
0.0
 40
0.0
 40
0.0
 40
0.0
 40
0.0
 40
0.2423649374705514
 40
0.516685430127671
 40
0.792339455584331
 40
1.0
 40
1.0
 40
1.0
 40
1.0
 10
246.0653263743002
 20
111.4900872585441
 30
0.0
 10
246.0424447712546
 20
111.5140970548164
 30
0.0
 10
245.9936646505202
 20
111.5652823130625
 30
0.0
 10
245.8930708946034
 20
111.6099712790781
 30
0.0
 10
245.7892928702194
 20
111.6228305244093
 30
0.0
 10
245.7260134488145
 20
111.6076965099998
 30
0.0
 10
245.6988248641569
 20
111.6011940416957
 30
0.0
  0
SPLINE
  5
BF
330
1F
100
AcDbEntity
  8
0
  6
Continuous
 62
     7
370
    15
100
AcDbSpline
210
0.0
220
0.0
230
1.0
 70
     8
 71
     3
 72
    12
 73
     8
 74
     0
 42
0.00000001
 43
0.00000001
 12
1.0
 22
0.0
 32
0.0
 13
1.0
 23
0.0
 33
0.0
 40
0.0
 40
0.0
 40
0.0
 40
0.0
 40
0.2058450049138114
 40
0.4120676223134133
 40
0.6141412318110653
 40
0.8132653115119334
 40
1.0
 40
1.0
 40
1.0
 40
1.0
 10
244.2961487586576
 20
111.9903192398216
 30
0.0
 10
244.2766895988188
 20
111.9285359802086
 30
0.0
 10
244.2377355822742
 20
111.8048561226469
 30
0.0
 10
244.1045783396342
 20
111.655216119452
 30
0.0
 10
243.9350290870718
 20
111.5564238959559
 30
0.0
 10
243.7472123518801
 20
111.5146459592024
 30
0.0
 10
243.626472365873
 20
111.5350487551948
 30
0.0
 10
243.5680407698233
 20
111.5449226004149
 30
0.0
  0
SPLINE
  5
C0
330
1F
100
AcDbEntity
  8
0
  6
Continuous
 62
     7
370
    15
100
AcDbSpline
210
0.0
220
0.0
230
1.0
 70
     8
 71
     3
 72
    11
 73
     7
 74
     0
 42
0.00000001
 43
0.00000001
 12
1.0
 22
0.0
 32
0.0
 13
1.0
 23
0.0
 33
0.0
 40
0.0
 40
0.0
 40
0.0
 40
0.0
 40
0.2535059777766656
 40
0.5075765953030321
 40
0.7595134085347259
 40
1.0
 40
1.0
 40
1.0
 40
1.0
 10
243.5680407698233
 20
111.5449226004149
 30
0.0
 10
243.5306556388572
 20
111.5508660880155
 30
0.0
 10
243.455802108155
 20
111.5627663012846
 30
0.0
 10
243.3438056717018
 20
111.5320671276447
 30
0.0
 10
243.2470506412832
 20
111.470792979798
 30
0.0
 10
243.2056200217883
 20
111.4090270479791
 30
0.0
 10
243.1853864009458
 20
111.3788621974255
 30
0.0
  0
SPLINE
  5
C1
330
1F
100
AcDbEntity
  8
0
  6
Continuous
 62
     7
370
    15
100
AcDbSpline
210
0.0
220
0.0
230
1.0
 70
     8
 71
     3
 72
    12
 73
     8
 74
     0
 42
0.00000001
 43
0.00000001
 12
1.0
 22
0.0
 32
0.0
 13
1.0
 23
0.0
 33
0.0
 40
0.0
 40
0.0
 40
0.0
 40
0.0
 40
0.0091600078284242
 40
0.2573301140210675
 40
0.5054870657570741
 40
0.7549917807670475
 40
1.0
 40
1.0
 40
1.0
 40
1.0
 10
244.6155998523313
 20
112.2537503493096
 30
0.0
 10
244.6142289931824
 20
112.2537097639842
 30
0.0
 10
244.5757177443163
 20
112.2525696092375
 30
0.0
 10
244.4998463186663
 20
112.2369523276207
 30
0.0
 10
244.4031009292459
 20
112.1792886447113
 30
0.0
 10
244.3287061659519
 20
112.0944457269143
 30
0.0
 10
244.3069352417035
 20
112.0248170294489
 30
0.0
 10
244.2961487586576
 20
111.9903192398216
 30
0.0
  0
SPLINE
  5
C2
330
1F
100
AcDbEntity
  8
0
  6
Continuous
 62
     7
370
    15
100
AcDbSpline
210
0.0
220
0.0
230
1.0
 70
     8
 71
     3
 72
    11
 73
     7
 74
     0
 42
0.00000001
 43
0.00000001
 12
1.0
 22
0.0
 32
0.0
 13
1.0
 23
0.0
 33
0.0
 40
0.0
 40
0.0
 40
0.0
 40
0.0
 40
0.2657623578939129
 40
0.5530068953029385
 40
0.8418291154004263
 40
0.9999999999999999
 40
0.9999999999999999
 40
0.9999999999999999
 40
0.9999999999999999
 10
246.1575720126707
 20
109.8381631550456
 30
0.0
 10
246.1654357411017
 20
109.872050370277
 30
0.0
 10
246.1817988411268
 20
109.9425639818887
 30
0.0
 10
246.1620508181683
 20
110.0528617380106
 30
0.0
 10
246.1175904347077
 20
110.1392091245053
 30
0.0
 10
246.0768017770069
 20
110.1802848061144
 30
0.0
 10
246.0623684938032
 20
110.1948196542527
 30
0.0
  0
SPLINE
  5
C3
330
1F
100
AcDbEntity
  8
0
  6
Continuous
 62
     7
370
    15
100
AcDbSpline
210
0.0
220
0.0
230
1.0
 70
     8
 71
     3
 72
    12
 73
     8
 74
     0
 42
0.00000001
 43
0.00000001
 12
1.0
 22
0.0
 32
0.0
 13
1.0
 23
0.0
 33
0.0
 40
0.0
 40
0.0
 40
0.0
 40
0.0
 40
0.2057937134144644
 40
0.4120364111609459
 40
0.6141304190961749
 40
0.8132641140596425
 40
1.0
 40
1.0
 40
1.0
 40
1.0
 10
246.0623684938032
 20
110.1948196542527
 30
0.0
 10
246.0178776032676
 20
110.2435286744212
 30
0.0
 10
245.9287987555153
 20
110.3410529842188
 30
0.0
 10
245.8645131639391
 20
110.5325480073971
 30
0.0
 10
245.8635768467487
 20
110.7283202960363
 30
0.0
 10
245.9222303684462
 20
110.9097512396414
 30
0.0
 10
246.0014289820717
 20
111.0019443089653
 30
0.0
 10
246.0397559816915
 20
111.0465597835447
 30
0.0
  0
SPLINE
  5
C4
330
1F
100
AcDbEntity
  8
0
  6
Continuous
 62
     7
370
    15
100
AcDbSpline
210
0.0
220
0.0
230
1.0
 70
     8
 71
     3
 72
    11
 73
     7
 74
     0
 42
0.00000001
 43
0.00000001
 12
1.0
 22
0.0
 32
0.0
 13
1.0
 23
0.0
 33
0.0
 40
0.0
 40
0.0
 40
0.0
 40
0.0
 40
0.2802311442793958
 40
0.561286190952064
 40
0.8399921876036005
 40
1.0
 40
1.0
 40
1.0
 40
1.0
 10
246.0397559816915
 20
111.0465597835447
 30
0.0
 10
246.0639280037064
 20
111.0752578890183
 30
0.0
 10
246.11234311545
 20
111.1327384747335
 30
0.0
 10
246.1425744325975
 20
111.2435979585897
 30
0.0
 10
246.1384801414854
 20
111.3421106067618
 30
0.0
 10
246.1173219835497
 20
111.3975358089606
 30
0.0
 10
246.1096051747877
 20
111.4177505028511
 30
0.0
  0
LWPOLYLINE
  5
C5
330
1F
100
AcDbEntity
  8
0
  6
Continuous
 62
     7
370
    15
100
AcDbPolyline
 90
        3
 70
   128
 43
0.0
 10
246.1346242244
 20
111.3258289647
 10
246.1048293526
 20
111.2320596826
 10
246.0397559817
 20
111.1415304718
  0
SPLINE
  5
C6
330
1F
100
AcDbEntity
  8
0
  6
Continuous
 62
     7
370
    15
100
AcDbSpline
210
0.0
220
0.0
230
1.0
 70
     8
 71
     3
 72
    12
 73
     8
 74
     0
 42
0.00000001
 43
0.00000001
 12
1.0
 22
0.0
 32
0.0
 13
1.0
 23
0.0
 33
0.0
 40
0.0
 40
0.0
 40
0.0
 40
0.0
 40
0.0091741413551608
 40
0.2576797971195918
 40
0.5061904551059054
 40
0.7560339958365212
 40
1.0
 40
1.0
 40
1.0
 40
1.0
 10
243.1853864009458
 20
111.3788621974255
 30
0.0
 10
243.1847381786778
 20
111.377656355979
 30
0.0
 10
243.1665311578739
 20
111.3437871395309
 30
0.0
 10
243.1424127207471
 20
111.2704517717551
 30
0.0
 10
243.1447952798259
 20
111.1583248672278
 30
0.0
 10
243.1821364707151
 20
111.0523371833223
 30
0.0
 10
243.2322551903947
 20
110.9992825558873
 30
0.0
 10
243.2570162828047
 20
110.9730709818269
 30
0.0
  0
SPLINE
  5
C7
330
1F
100
AcDbEntity
  8
0
  6
Continuous
 62
     7
370
    15
100
AcDbSpline
210
0.0
220
0.0
230
1.0
 70
     8
 71
     3
 72
    12
 73
     8
 74
     0
 42
0.00000001
 43
0.00000001
 12
1.0
 22
0.0
 32
0.0
 13
1.0
 23
0.0
 33
0.0
 40
0.0
 40
0.0
 40
0.0
 40
0.0
 40
0.2057520732979714
 40
0.4119602819057792
 40
0.6140155117502798
 40
0.8131408023907332
 40
0.9999999999999999
 40
0.9999999999999999
 40
0.9999999999999999
 40
0.9999999999999999
 10
243.2570162828047
 20
110.9730709818269
 30
0.0
 10
243.3014973880244
 20
110.9257307802513
 30
0.0
 10
243.3905582093909
 20
110.8309454277929
 30
0.0
 10
243.4548562256387
 20
110.6416769862018
 30
0.0
 10
243.4558061439269
 20
110.4457729221911
 30
0.0
 10
243.3971957186584
 20
110.2620006227659
 30
0.0
 10
243.3179786302696
 20
110.1672167391076
 30
0.0
 10
243.2796287949163
 20
110.1213308525349
 30
0.0
  0
SPLINE
  5
C8
330
1F
100
AcDbEntity
  8
0
  6
Continuous
 62
     7
370
    15
100
AcDbSpline
210
0.0
220
0.0
230
1.0
 70
     8
 71
     3
 72
    11
 73
     7
 74
     0
 42
0.00000001
 43
0.00000001
 12
1.0
 22
0.0
 32
0.0
 13
1.0
 23
0.0
 33
0.0
 40
0.0
 40
0.0
 40
0.0
 40
0.0
 40
0.2794056911105572
 40
0.5596259629892476
 40
0.8375013269640341
 40
1.0
 40
1.0
 40
1.0
 40
1.0
 10
243.2796287949163
 20
110.1213308525349
 30
0.0
 10
243.2554535543887
 20
110.0918337673385
 30
0.0
 10
243.2070325927146
 20
110.0327536009939
 30
0.0
 10
243.1768049437937
 20
109.9201541941021
 30
0.0
 10
243.1809092382477
 20
109.8202452001508
 30
0.0
 10
243.2023679462206
 20
109.7642701600993
 30
0.0
 10
243.2102862413008
 20
109.7436152872707
 30
0.0
  0
ARC
  5
C9
330
1F
100
AcDbEntity
  8
0
  6
Continuous
 62
     7
370
    15
100
AcDbCircle
 10
243.4787785504
 20
111.3175000783
 30
0.0
 40
0.3337999488726533
100
AcDbArc
 50
186.888903143
 51
228.366999851
  0
ARC
  5
CA
330
1F
100
AcDbEntity
  8
0
  6
Continuous
 62
     7
370
    15
100
AcDbCircle
 10
246.4504159258
 20
110.7261483726
 30
0.0
 40
0.5841094743444489
100
AcDbArc
 50
134.6724662943
 51
179.9874723373
  0
ARC
  5
CB
330
1F
100
AcDbEntity
  8
0
  6
Continuous
 62
     7
370
    15
100
AcDbCircle
 10
242.8688266523
 20
110.6313777879
 30
0.0
 40
0.5842442316402104
100
AcDbArc
 50
0.0161909276
 51
48.3613576802
  0
ARC
  5
CC
330
1F
100
AcDbEntity
  8
0
  6
Continuous
 62
     7
370
    15
100
AcDbCircle
 10
245.8396138337
 20
110.0409609323
 30
0.0
 40
0.3348430499992983
100
AcDbArc
 50
254.7152966133
 51
352.5022949162
  0
SPLINE
  5
CD
330
1F
100
AcDbEntity
  8
0
  6
Continuous
 62
     7
370
    15
100
AcDbSpline
210
0.0
220
0.0
230
1.0
 70
     8
 71
     3
 72
    11
 73
     7
 74
     0
 42
0.00000001
 43
0.00000001
 12
1.0
 22
0.0
 32
0.0
 13
1.0
 23
0.0
 33
0.0
 40
0.0
 40
0.0
 40
0.0
 40
0.0
 40
0.2928900887811134
 40
0.5864306379424994
 40
0.8775207024369316
 40
0.9999999999999999
 40
0.9999999999999999
 40
0.9999999999999999
 40
0.9999999999999999
 10
245.7513440067846
 20
109.6229680356647
 30
0.0
 10
245.7887131696171
 20
109.6162333382312
 30
0.0
 10
245.8635344860039
 20
109.6027489867165
 30
0.0
 10
245.9757271619836
 20
109.6316346767256
 30
0.0
 10
246.0544348412728
 20
109.6811957472716
 30
0.0
 10
246.0898487583794
 20
109.721291438235
 30
0.0
 10
246.1003366525251
 20
109.7331658479835
 30
0.0
  0
ARC
  5
CE
330
1F
100
AcDbEntity
  8
0
  6
Continuous
 62
     7
370
    15
100
AcDbCircle
 10
243.5153464829
 20
109.979595798
 30
0.0
 40
0.3348847778510827
100
AcDbArc
 50
186.5454764375
 51
288.3111975033
  0
SPLINE
  5
CF
330
1F
100
AcDbEntity
  8
0
  6
Continuous
 62
     7
370
    15
100
AcDbSpline
210
0.0
220
0.0
230
1.0
 70
     8
 71
     3
 72
    11
 73
     7
 74
     0
 42
0.00000001
 43
0.00000001
 12
1.0
 22
0.0
 32
0.0
 13
1.0
 23
0.0
 33
0.0
 40
0.0
 40
0.0
 40
0.0
 40
0.0
 40
0.2431063086438508
 40
0.5182690579900795
 40
0.7947669679295752
 40
1.0
 40
1.0
 40
1.0
 40
1.0
 10
243.2548407132704
 20
109.6714433756734
 30
0.0
 10
243.2778102107305
 20
109.6476572476204
 30
0.0
 10
243.3267780054273
 20
109.5969485093403
 30
0.0
 10
243.4275355913911
 20
109.5538963211244
 30
0.0
 10
243.5309289008854
 20
109.5431958905256
 30
0.0
 10
243.5937823157134
 20
109.5596756720494
 30
0.0
 10
243.620559912451
 20
109.5666965943839
 30
0.0
  0
SPLINE
  5
D0
330
1F
100
AcDbEntity
  8
0
  6
Continuous
 62
     7
370
    15
100
AcDbSpline
210
0.0
220
0.0
230
1.0
 70
     8
 71
     3
 72
    11
 73
     7
 74
     0
 42
0.00000001
 43
0.00000001
 12
1.0
 22
0.0
 32
0.0
 13
1.0
 23
0.0
 33
0.0
 40
0.0
 40
0.0
 40
0.0
 40
0.0
 40
0.2669150018430154
 40
0.5546181483502641
 40
0.8439123640786534
 40
1.0
 40
1.0
 40
1.0
 40
1.0
 10
244.7641346271116
 20
108.9157887277271
 30
0.0
 10
244.7974765481941
 20
108.926083065648
 30
0.0
 10
244.8667571596455
 20
108.9474734955482
 30
0.0
 10
244.9518994185719
 20
109.0203338893869
 30
0.0
 10
245.0035177491891
 20
109.1022106628626
 30
0.0
 10
245.0181134034661
 20
109.1580144960992
 30
0.0
 10
245.0232285673696
 20
109.177571396258
 30
0.0
  0
SPLINE
  5
D1
330
1F
100
AcDbEntity
  8
0
  6
Continuous
 62
     7
370
    15
100
AcDbSpline
210
0.0
220
0.0
230
1.0
 70
     8
 71
     3
 72
    12
 73
     8
 74
     0
 42
0.00000001
 43
0.00000001
 12
1.0
 22
0.0
 32
0.0
 13
1.0
 23
0.0
 33
0.0
 40
0.0
 40
0.0
 40
0.0
 40
0.0
 40
0.2058403993589416
 40
0.4120608027715464
 40
0.6141367787813553
 40
0.8132752623466581
 40
1.0
 40
1.0
 40
1.0
 40
1.0
 10
245.0232285673696
 20
109.177571396258
 30
0.0
 10
245.042687756663
 20
109.2407164203738
 30
0.0
 10
245.0816420590569
 20
109.3671230412762
 30
0.0
 10
245.2148013130328
 20
109.5189504046203
 30
0.0
 10
245.3843505058923
 20
109.6175874136942
 30
0.0
 10
245.5721722941853
 20
109.6570490206455
 30
0.0
 10
245.692914920892
 20
109.6340820713005
 30
0.0
 10
245.7513440067846
 20
109.6229680356647
 30
0.0
  0
SPLINE
  5
D2
330
1F
100
AcDbEntity
  8
0
  6
Continuous
 62
     7
370
    15
100
AcDbSpline
210
0.0
220
0.0
230
1.0
 70
     8
 71
     3
 72
    12
 73
     8
 74
     0
 42
0.00000001
 43
0.00000001
 12
1.0
 22
0.0
 32
0.0
 13
1.0
 23
0.0
 33
0.0
 40
0.0
 40
0.0
 40
0.0
 40
0.0
 40
0.2058129575240198
 40
0.4120164415178733
 40
0.614075566590462
 40
0.8132123720508792
 40
1.0
 40
1.0
 40
1.0
 40
1.0
 10
243.620559912451
 20
109.5666965943839
 30
0.0
 10
243.6845088662424
 20
109.5817992396332
 30
0.0
 10
243.8125281158412
 20
109.6120331871358
 30
0.0
 10
244.0099496532663
 20
109.5734579397923
 30
0.0
 10
244.180420743721
 20
109.4762754827965
 30
0.0
 10
244.3096123257166
 20
109.3331674815
 30
0.0
 10
244.3511676261953
 20
109.2167164136615
 30
0.0
 10
244.371280413397
 20
109.1603540358211
 30
0.0
  0
SPLINE
  5
D3
330
1F
100
AcDbEntity
  8
0
  6
Continuous
 62
     7
370
    15
100
AcDbSpline
210
0.0
220
0.0
230
1.0
 70
     8
 71
     3
 72
    11
 73
     7
 74
     0
 42
0.00000001
 43
0.00000001
 12
1.0
 22
0.0
 32
0.0
 13
1.0
 23
0.0
 33
0.0
 40
0.0
 40
0.0
 40
0.0
 40
0.0
 40
0.2908661484117321
 40
0.583962329444376
 40
0.8745960006634985
 40
1.0
 40
1.0
 40
1.0
 40
1.0
 10
244.371280413397
 20
109.1603540358211
 30
0.0
 10
244.3843748764834
 20
109.1246906530654
 30
0.0
 10
244.4106641961876
 20
109.0530904610747
 30
0.0
 10
244.4922927228642
 20
108.9701758749093
 30
0.0
 10
244.5753573668384
 20
108.9263683606261
 30
0.0
 10
244.6283889649566
 20
108.9157229780259
 30
0.0
 10
244.6443739945967
 20
108.9125141975547
 30
0.0
  0
ARC
  5
D4
330
1F
100
AcDbEntity
  8
0
  6
Continuous
 62
     7
370
    15
100
AcDbCircle
 10
244.6952092999
 20
109.3413658441
 30
0.0
 40
0.3351570879138531
100
AcDbArc
 50
194.872654639
 51
348.154046504
  0
ARC
  5
D5
330
1F
100
AcDbEntity
  8
0
  6
Continuous
 62
     7
370
    15
100
AcDbCircle
 10
245.5970568668
 20
109.1523399372
 30
0.0
 40
0.5862873419490586
100
AcDbArc
 50
74.7423756746
 51
168.1669469853
  0
ARC
  5
D6
330
1F
100
AcDbEntity
  8
0
  6
Continuous
 62
     7
370
    15
100
AcDbCircle
 10
243.8044943466
 20
109.1048309837
 30
0.0
 40
0.5864295158319168
100
AcDbArc
 50
14.8716238375
 51
108.279418767
  0
ARC
  5
D7
330
1F
100
AcDbEntity
  8
0
  6
Continuous
 62
     7
370
    15
100
AcDbCircle
 10
244.6583848114
 20
110.6483406946
 30
0.0
 40
2.625004104235187
100
AcDbArc
 50
0.1045768185
 51
179.8954231815
  0
LINE
  5
D8
330
1F
100
AcDbEntity
  8
0
  6
Continuous
 62
     7
370
    15
100
AcDbLine
 10
237.7060729678
 20
117.0432322201
 30
0.0
 11
240.9089658077
 21
106.9096919623
 31
0.0
  0
LINE
  5
D9
330
1F
100
AcDbEntity
  8
0
  6
Continuous
 62
     7
370
    15
100
AcDbLine
 10
239.4879687245
 20
115.7938285274
 30
0.0
 11
238.0684841092
 21
117.1725263362
 31
0.0
  0
LINE
  5
DA
330
1F
100
AcDbEntity
  8
0
  6
Continuous
 62
     7
370
    15
100
AcDbLine
 10
241.4471435959
 20
107.2231974927
 30
0.0
 11
241.2713769491
 21
107.0389856127
 31
0.0
  0
SPLINE
  5
DB
330
1F
100
AcDbEntity
  8
0
  6
Continuous
 62
     7
370
    15
100
AcDbSpline
210
0.0
220
0.0
230
1.0
 70
     8
 71
     3
 72
    10
 73
     6
 74
     0
 42
0.00000001
 43
0.00000001
 12
1.0
 22
0.0
 32
0.0
 13
1.0
 23
0.0
 33
0.0
 40
0.0
 40
0.0
 40
0.0
 40
0.0
 40
0.3518050093704894
 40
0.7034183217834665
 40
1.0
 40
1.0
 40
1.0
 40
1.0
 10
240.8903617079336
 20
106.9022106480862
 30
0.0
 10
240.9080324160247
 20
106.8611373813784
 30
0.0
 10
240.9433642035182
 20
106.7790132286
 30
0.0
 10
241.0386830142807
 20
106.6891639905467
 30
0.0
 10
241.114789555414
 20
106.6578976152601
 30
0.0
 10
241.1496121103842
 20
106.6435916823412
 30
0.0
  0
LINE
  5
DC
330
1F
100
AcDbEntity
  8
0
  6
Continuous
 62
     7
370
    15
100
AcDbLine
 10
237.6843843277
 20
117.0455016204
 30
0.0
 11
240.8903617079
 21
106.9022106481
 31
0.0
  0
LINE
  5
DD
330
1F
100
AcDbEntity
  8
0
  6
Continuous
 62
     7
370
    15
100
AcDbLine
 10
248.3485344465
 20
114.3422193368
 30
0.0
 11
238.1804812367
 21
117.5403868788
 31
0.0
  0
SPLINE
  5
DE
330
1F
100
AcDbEntity
  8
0
  6
Continuous
 62
     7
370
    15
100
AcDbSpline
210
0.0
220
0.0
230
1.0
 70
     8
 71
     3
 72
    10
 73
     6
 74
     0
 42
0.00000001
 43
0.00000001
 12
1.0
 22
0.0
 32
0.0
 13
1.0
 23
0.0
 33
0.0
 40
0.0
 40
0.0
 40
0.0
 40
0.0
 40
0.3517998062522462
 40
0.7034221777855859
 40
1.0
 40
1.0
 40
1.0
 40
1.0
 10
248.6077922995169
 20
114.083599905398
 30
0.0
 10
248.5901219409562
 20
114.1246735630732
 30
0.0
 10
248.5547901361054
 20
114.2068001624004
 30
0.0
 10
248.4594640352597
 20
114.2966446289925
 30
0.0
 10
248.3833566537152
 20
114.3279128570148
 30
0.0
 10
248.3485344464857
 20
114.3422193368043
 30
0.0
  0
LINE
  5
DF
330
1F
100
AcDbEntity
  8
0
  6
Continuous
 62
     7
370
    15
100
AcDbLine
 10
251.8137622292
 20
103.9403087002
 30
0.0
 11
248.6077922995
 21
114.0835999054
 31
0.0
  0
SPLINE
  5
E0
330
1F
100
AcDbEntity
  8
0
  6
Continuous
 62
     7
370
    15
100
AcDbSpline
210
0.0
220
0.0
230
1.0
 70
     8
 71
     3
 72
    14
 73
    10
 74
     0
 42
0.00000001
 43
0.00000001
 12
1.0
 22
0.0
 32
0.0
 13
1.0
 23
0.0
 33
0.0
 40
0.0
 40
0.0
 40
0.0
 40
0.0
 40
0.1588491702073092
 40
0.3173274282144439
 40
0.4720176585680534
 40
0.6236448892803423
 40
0.7746624195806358
 40
0.9277423666933293
 40
0.9999999999999999
 40
0.9999999999999999
 40
0.9999999999999999
 40
0.9999999999999999
 10
251.3176727707464
 20
103.4454243731762
 30
0.0
 10
251.3627690011417
 20
103.435916167831
 30
0.0
 10
251.4528561624081
 20
103.4169219587634
 30
0.0
 10
251.5891966567625
 20
103.4473468723395
 30
0.0
 10
251.7051349225333
 20
103.5177319592445
 30
0.0
 10
251.7892970509163
 20
103.6220798414403
 30
0.0
 10
251.8334994123342
 20
103.7472925274739
 30
0.0
 10
251.8357463087502
 20
103.8577271019217
 30
0.0
 10
251.8191000756711
 20
103.920257467639
 30
0.0
 10
251.813762229212
 20
103.9403087002303
 30
0.0
  0
LINE
  5
E1
330
1F
100
AcDbEntity
  8
0
  6
Continuous
 62
     7
370
    15
100
AcDbLine
 10
241.1496121104
 20
106.6435916823
 30
0.0
 11
251.3176727707
 21
103.4454243732
 31
0.0
  0
ARC
  5
E2
330
1F
100
AcDbEntity
  8
0
  6
Continuous
 62
     7
370
    15
100
AcDbCircle
 10
238.0681831357
 20
117.1569199632
 30
0.0
 40
0.3795374508775768
100
AcDbArc
 50
72.4301156881
 51
197.4301498195
  0
ARC
  5
E3
330
1F
100
AcDbEntity
  8
0
  6
Continuous
 62
     7
370
    15
100
AcDbCircle
 10
241.2708114869
 20
107.024278195
 30
0.0
 40
0.3795553982096098
100
AcDbArc
 50
197.5715131582
 51
252.5692927945
  0
LINE
  5
E4
330
1F
100
AcDbEntity
  8
0
  6
Continuous
 62
     7
370
    15
100
AcDbLine
 10
241.157114845
 20
106.6621520099
 30
0.0
 11
251.3154003437
 21
103.4670589966
 31
0.0
  0
ARC
  5
E5
330
1F
100
AcDbEntity
  8
0
  6
Continuous
 62
     7
370
    15
100
AcDbCircle
 10
251.429969605
 20
103.82889226
 30
0.0
 40
0.3795384383375355
100
AcDbArc
 50
252.4303634872
 51
17.4299861821
  0
LINE
  5
E6
330
1F
100
AcDbEntity
  8
0
  6
Continuous
 62
     7
370
    15
100
AcDbLine
 10
251.7920810397
 20
103.9425792647
 30
0.0
 11
248.5891807492
 21
114.0761190568
 31
0.0
  0
ARC
  5
E7
330
1F
100
AcDbEntity
  8
0
  6
Continuous
 62
     7
370
    15
100
AcDbCircle
 10
248.2273638811
 20
113.9615644464
 30
0.0
 40
0.3795183853327153
100
AcDbArc
 50
17.568275039
 51
72.5709183911
  0
LINE
  5
E8
330
1F
100
AcDbEntity
  8
0
  6
Continuous
 62
     7
370
    15
100
AcDbLine
 10
248.3410391624
 20
114.3236585436
 30
0.0
 11
238.1827536638
 21
117.5187517897
 31
0.0
  0
SPLINE
  5
E9
330
1F
100
AcDbEntity
  8
0
  6
Continuous
 62
     7
370
    15
100
AcDbSpline
210
0.0
220
0.0
230
1.0
 70
     8
 71
     3
 72
    14
 73
    10
 74
     0
 42
0.00000001
 43
0.00000001
 12
1.0
 22
0.0
 32
0.0
 13
1.0
 23
0.0
 33
0.0
 40
0.0
 40
0.0
 40
0.0
 40
0.0
 40
0.1588484633924519
 40
0.317334677913253
 40
0.4720167531560533
 40
0.6236435520984129
 40
0.7746625812510901
 40
0.9277418847724324
 40
1.0
 40
1.0
 40
1.0
 40
1.0
 10
238.1804812367041
 20
117.5403868787999
 30
0.0
 10
238.1353850796333
 20
117.5498946834458
 30
0.0
 10
238.0452956058447
 20
117.5688886104911
 30
0.0
 10
237.9089536146153
 20
117.5384665813134
 30
0.0
 10
237.7930174492051
 20
117.4680761875524
 30
0.0
 10
237.7088590755433
 20
117.3637293415187
 30
0.0
 10
237.6646446174572
 20
117.2385199514686
 30
0.0
 10
237.6624006241518
 20
117.1280836282469
 30
0.0
 10
237.6790465426453
 20
117.0655530646009
 30
0.0
 10
237.6843843276579
 20
117.0455016204233
 30
0.0
  0
LINE
  5
EA
330
1F
100
AcDbEntity
  8
0
  6
Continuous
 62
     7
370
    15
100
AcDbLine
 10
248.0510104115
 20
113.8109803674
 30
0.0
 11
248.2267696078
 21
113.9774333228
 31
0.0
  0
SPLINE
  5
EB
330
1F
100
AcDbEntity
  8
0
  6
Continuous
 62
     7
370
    15
100
AcDbSpline
210
0.0
220
0.0
230
1.0
 70
     8
 71
     3
 72
    11
 73
     7
 74
     0
 42
0.00000001
 43
0.00000001
 12
1.0
 22
0.0
 32
0.0
 13
1.0
 23
0.0
 33
0.0
 40
0.0
 40
0.0
 40
0.0
 40
0.0
 40
0.0072970386478794
 40
0.1268425069377022
 40
0.5874252039710403
 40
1.0
 40
1.0
 40
1.0
 40
1.0
 10
239.9741414601881
 20
115.3010233779515
 30
0.0
 10
239.9730814675766
 20
115.3021416923757
 30
0.0
 10
239.9546558943183
 20
115.3215810583908
 30
0.0
 10
239.8673373352908
 20
115.4131154197303
 30
0.0
 10
239.7035585818259
 20
115.5817917706985
 30
0.0
 10
239.5571487102281
 20
115.7257886854936
 30
0.0
 10
239.487968724497
 20
115.7938285273577
 30
0.0
  0
ARC
  5
EC
330
1F
100
AcDbEntity
  8
0
  6
Continuous
 62
     7
370
    15
100
AcDbCircle
 10
241.4673255487
 20
113.7650743493
 30
0.0
 40
0.9987819077785945
100
AcDbArc
 50
72.4299240814
 51
197.4302529509
  0
LINE
  5
ED
330
1F
100
AcDbEntity
  8
0
  6
Continuous
 62
     7
370
    15
100
AcDbLine
 10
250.0101778324
 20
105.297253142
 30
0.0
 11
251.4296624477
 21
103.8438925994
 31
0.0
  0
LINE
  5
EE
330
1F
100
AcDbEntity
  8
0
  6
Continuous
 62
     7
370
    15
100
AcDbLine
 10
246.7577386315
 20
113.1480956924
 30
0.0
 11
241.7688298638
 21
114.7172615406
 31
0.0
  0
LINE
  5
EF
330
1F
100
AcDbEntity
  8
0
  6
Continuous
 62
     7
370
    15
100
AcDbLine
 10
248.9837485964
 20
107.5199159336
 30
0.0
 11
247.4107522185
 21
112.496674667
 31
0.0
  0
ARC
  5
F0
330
1F
100
AcDbEntity
  8
0
  6
Continuous
 62
     7
370
    15
100
AcDbCircle
 10
248.0308216131
 20
107.2207430666
 30
0.0
 40
0.9987863835817764
100
AcDbArc
 50
252.430417305
 51
17.4297597274
  0
LINE
  5
F1
330
1F
100
AcDbEntity
  8
0
  6
Continuous
 62
     7
370
    15
100
AcDbLine
 10
242.740415376
 20
107.8377148611
 30
0.0
 11
247.7293241437
 21
106.2685490129
 31
0.0
  0
ARC
  5
F2
330
1F
100
AcDbEntity
  8
0
  6
Continuous
 62
     7
370
    15
100
AcDbCircle
 10
243.0395768855
 20
108.7906232795
 30
0.0
 40
0.9987652690543587
100
AcDbArc
 50
197.5693598914
 51
252.5705428868
  0
LINE
  5
F3
330
1F
100
AcDbEntity
  8
0
  6
Continuous
 62
     7
370
    15
100
AcDbLine
 10
240.514405411
 20
113.4658946198
 30
0.0
 11
242.087401789
 21
108.4891358865
 31
0.0
  0
ARC
  5
F4
330
1F
100
AcDbEntity
  8
0
  6
Continuous
 62
     7
370
    15
100
AcDbCircle
 10
246.4585382883
 20
112.1951483454
 30
0.0
 40
0.9988140424936165
100
AcDbArc
 50
17.5708163768
 51
72.5690864014
  0
CIRCLE
  5
F5
330
1F
100
AcDbEntity
  8
0
  6
Continuous
 62
     7
370
    15
100
AcDbCircle
 10
244.7525998088
 20
110.4874788132
 30
0.0
 40
3.047359316601083
  0
SPLINE
  5
F6
330
1F
100
AcDbEntity
  8
0
  6
Continuous
 62
     7
370
    15
100
AcDbSpline
210
0.0
220
0.0
230
1.0
 70
     8
 71
     3
 72
    11
 73
     7
 74
     0
 42
0.00000001
 43
0.00000001
 12
1.0
 22
0.0
 32
0.0
 13
1.0
 23
0.0
 33
0.0
 40
0.0
 40
0.0
 40
0.0
 40
0.0
 40
0.0092130259419561
 40
0.3448516747789676
 40
0.672230394501255
 40
0.9999999999999999
 40
0.9999999999999999
 40
0.9999999999999999
 40
0.9999999999999999
 10
247.5585493857939
 20
113.3179987323548
 30
0.0
 10
247.5599116369641
 20
113.3194350809106
 30
0.0
 10
247.6109018979808
 20
113.3731988723243
 30
0.0
 10
247.720172606118
 20
113.4861353196249
 30
0.0
 10
247.8933934241123
 20
113.6598249355639
 30
0.0
 10
247.9984505220569
 20
113.7605751863358
 30
0.0
 10
248.0510104115087
 20
113.8109803673889
 30
0.0
  0
ARC
  5
F7
330
1F
100
AcDbEntity
  8
0
  6
Continuous
 62
     7
370
    15
100
AcDbCircle
 10
244.7490770037
 20
110.5683309426
 30
0.0
 40
3.050004937207464
100
AcDbArc
 50
180.1084307524
 51
359.8915692476
  0
SPLINE
  5
F8
330
1F
100
AcDbEntity
  8
0
  6
Continuous
 62
     7
370
    15
100
AcDbSpline
210
0.0
220
0.0
230
1.0
 70
     8
 71
     3
 72
    11
 73
     7
 74
     0
 42
0.00000001
 43
0.00000001
 12
1.0
 22
0.0
 32
0.0
 13
1.0
 23
0.0
 33
0.0
 40
0.0
 40
0.0
 40
0.0
 40
0.0
 40
0.3277696877853182
 40
0.6551483166694219
 40
0.9907874088985542
 40
1.0
 40
1.0
 40
1.0
 40
1.0
 10
241.4471435959417
 20
107.2231974926855
 30
0.0
 10
241.4997033841185
 20
107.2776544621771
 30
0.0
 10
241.6047602518881
 20
107.3865034290674
 30
0.0
 10
241.7779826282137
 20
107.5584366463158
 30
0.0
 10
241.8872496574694
 20
107.6634706290324
 30
0.0
 10
241.9382423693425
 20
107.7114577932822
 30
0.0
 10
241.9396046216566
 20
107.7127397534515
 30
0.0
  0
SPLINE
  5
F9
330
1F
100
AcDbEntity
  8
0
  6
Continuous
 62
     7
370
    15
100
AcDbSpline
210
0.0
220
0.0
230
1.0
 70
     8
 71
     3
 72
    11
 73
     7
 74
     0
 42
0.00000001
 43
0.00000001
 12
1.0
 22
0.0
 32
0.0
 13
1.0
 23
0.0
 33
0.0
 40
0.0
 40
0.0
 40
0.0
 40
0.0
 40
0.4125681241410747
 40
0.8731507940008411
 40
0.9926967132295712
 40
1.0
 40
1.0
 40
1.0
 40
1.0
 10
250.0101778323728
 20
105.2972531420256
 30
0.0
 10
249.9410053836583
 20
105.3672309365554
 30
0.0
 10
249.7946102188747
 20
105.5153305188565
 30
0.0
 10
249.6307708038097
 20
105.6734237792172
 30
0.0
 10
249.5435223601731
 20
105.7560925036379
 30
0.0
 10
249.5250676201527
 20
105.7734231173456
 30
0.0
 10
249.5240050966818
 20
105.7744209197427
 30
0.0
  0
SPLINE
  5
FA
330
1F
100
AcDbEntity
  8
0
  6
HIDDEN
 62
     7
370
     0
100
AcDbSpline
210
0.0
220
0.0
230
1.0
 70
     8
 71
     3
 72
    58
 73
    54
 74
     0
 42
0.00000001
 43
0.00000001
 12
1.0
 22
0.0
 32
0.0
 13
1.0
 23
0.0
 33
0.0
 40
-0.0625
 40
-0.0625
 40
0.0
 40
0.0
 40
0.0312499999999999
 40
0.0312499999999999
 40
0.0624999999999999
 40
0.0624999999999999
 40
0.0937499999999998
 40
0.0937499999999998
 40
0.1249999999999997
 40
0.1249999999999997
 40
0.1874999999999996
 40
0.1874999999999996
 40
0.2499999999999994
 40
0.2499999999999994
 40
0.2812499999999994
 40
0.2812499999999994
 40
0.3124999999999993
 40
0.3124999999999993
 40
0.3437499999999992
 40
0.3437499999999992
 40
0.3749999999999992
 40
0.3749999999999992
 40
0.4062499999999991
 40
0.4062499999999991
 40
0.437499999999999
 40
0.437499999999999
 40
0.4687499999999989
 40
0.4687499999999989
 40
0.4999999999999989
 40
0.4999999999999989
 40
0.5624999999999989
 40
0.5624999999999989
 40
0.6249999999999988
 40
0.6249999999999988
 40
0.656249999999999
 40
0.656249999999999
 40
0.6874999999999991
 40
0.6874999999999991
 40
0.7187499999999993
 40
0.7187499999999993
 40
0.7499999999999994
 40
0.7499999999999994
 40
0.7812499999999996
 40
0.7812499999999996
 40
0.8124999999999998
 40
0.8124999999999998
 40
0.8437499999999999
 40
0.8437499999999999
 40
0.875
 40
0.875
 40
0.9375
 40
0.9375
 40
1.0
 40
1.0
 40
1.03125
 40
1.03125
 10
171.8296656425077
 20
120.1651268965093
 30
0.0
 10
171.8296656425077
 20
120.5617810681814
 30
0.0
 10
171.8426476801799
 20
120.6917732290219
 30
0.0
 10
171.8934984824382
 20
120.9474928414741
 30
0.0
 10
171.9319903864912
 20
121.0745515253353
 30
0.0
 10
172.0324056722176
 20
121.3167147229941
 30
0.0
 10
172.0938418114906
 20
121.4315565073788
 30
0.0
 10
172.2389752878015
 20
121.648898704949
 30
0.0
 10
172.3233969766526
 20
121.7517403527968
 30
0.0
 10
172.5999971508174
 20
122.0282838335484
 30
0.0
 10
172.8229960620845
 20
122.1772664696805
 30
0.0
 10
173.3042305796702
 20
122.3768095332352
 30
0.0
 10
173.5675299951792
 20
122.4294200062666
 30
0.0
 10
173.9590934352194
 20
122.4296340650191
 30
0.0
 10
174.0916810458241
 20
122.4166352156136
 30
0.0
 10
174.3482467514234
 20
122.3655851315872
 30
0.0
 10
174.4729565176039
 20
122.327813892775
 30
0.0
 10
174.715195702631
 20
122.2276219846625
 30
0.0
 10
174.8322123564047
 20
122.165036590838
 30
0.0
 10
175.0488555612509
 20
122.0203315051274
 30
0.0
 10
175.1498623177094
 20
121.9377121637472
 30
0.0
 10
175.336668413366
 20
121.7510681289572
 30
0.0
 10
175.4193819488979
 20
121.6501222809973
 30
0.0
 10
175.5642520782732
 20
121.4336410773156
 30
0.0
 10
175.6269223743699
 20
121.3167239123072
 30
0.0
 10
175.7273503124061
 20
121.0745274431087
 30
0.0
 10
175.7652214913358
 20
120.9498664522052
 30
0.0
 10
175.8164838891115
 20
120.6934671031372
 30
0.0
 10
175.8296175297522
 20
120.5608561778394
 30
0.0
 10
175.829761462891
 20
120.1691815655042
 30
0.0
 10
175.7773962056262
 20
119.9058975458437
 30
0.0
 10
175.5782355422756
 20
119.4243848319838
 30
0.0
 10
175.4294378689136
 20
119.2012637449389
 30
0.0
 10
175.1531372103275
 20
118.9244315964314
 30
0.0
 10
175.0503721632677
 20
118.8399243821471
 30
0.0
 10
174.8331548894733
 20
118.6946034404612
 30
0.0
 10
174.7183851960355
 20
118.6330812171991
 30
0.0
 10
174.4763986588909
 20
118.5324848139271
 30
0.0
 10
174.3493160859995
 20
118.4938569258385
 30
0.0
 10
174.0936413859963
 20
118.4427788157723
 30
0.0
 10
173.9637008686521
 20
118.4296896760051
 30
0.0
 10
173.6994375008908
 20
118.4294381576466
 30
0.0
 10
173.5692266072438
 20
118.4423126277029
 30
0.0
 10
173.3134766618102
 20
118.492931524835
 30
0.0
 10
173.1864592774429
 20
118.5312793436308
 30
0.0
 10
172.9441075496911
 20
118.6315134638242
 30
0.0
 10
172.8292047704048
 20
118.6928576508142
 30
0.0
 10
172.6117826052558
 20
118.8377626553433
 30
0.0
 10
172.5088462078111
 20
118.9221015474653
 30
0.0
 10
172.2320090506542
 20
119.1985026605071
 30
0.0
 10
172.0828538095901
 20
119.4213462935496
 30
0.0
 10
171.8828832243548
 20
119.9024095748001
 30
0.0
 10
171.8296656425077
 20
120.1651268965093
 30
0.0
 10
171.8296656425077
 20
120.5617810681814
 30
0.0
  0
SPLINE
  5
FB
330
1F
100
AcDbEntity
  8
0
  6
HIDDEN
 62
     7
370
     0
100
AcDbSpline
210
0.0
220
0.0
230
1.0
 70
     8
 71
     3
 72
    12
 73
     8
 74
     0
 42
0.00000001
 43
0.00000001
 12
1.0
 22
0.0
 32
0.0
 13
1.0
 23
0.0
 33
0.0
 40
0.0
 40
0.0
 40
0.0
 40
0.0
 40
0.2499999999999993
 40
0.2499999999999993
 40
0.4999999999999987
 40
0.4999999999999987
 40
1.0
 40
1.0
 40
1.0
 40
1.0
 10
168.7615676445069
 20
114.6003500153057
 30
0.0
 10
168.7240557584622
 20
114.6003500153057
 30
0.0
 10
168.6887684107575
 20
114.5855452010189
 30
0.0
 10
168.6298385625191
 20
114.5419533278931
 30
0.0
 10
168.6063128360501
 20
114.5144399018071
 30
0.0
 10
168.546054048282
 20
114.4253081696935
 30
0.0
 10
168.5204592859926
 20
114.3589223190757
 30
0.0
 10
168.5017600233716
 20
114.2913178838983
 30
0.0
  0
LINE
  5
FC
330
1F
100
AcDbEntity
  8
0
  6
HIDDEN
 62
     7
370
     0
100
AcDbLine
 10
170.8977635617
 20
114.6003498239
 30
0.0
 11
168.7615675519
 21
114.6003498239
 31
0.0
  0
SPLINE
  5
FD
330
1F
100
AcDbEntity
  8
0
  6
HIDDEN
 62
     7
370
     0
100
AcDbSpline
210
0.0
220
0.0
230
1.0
 70
     8
 71
     3
 72
    12
 73
     8
 74
     0
 42
0.00000001
 43
0.00000001
 12
1.0
 22
0.0
 32
0.0
 13
1.0
 23
0.0
 33
0.0
 40
0.0
 40
0.0
 40
0.0
 40
0.0
 40
0.5000000000000056
 40
0.5000000000000056
 40
0.7500000000000028
 40
0.7500000000000028
 40
1.0
 40
1.0
 40
1.0
 40
1.0
 10
171.1575712616439
 20
114.2913178838983
 30
0.0
 10
171.1388780285135
 20
114.3589005203387
 30
0.0
 10
171.1132227311016
 20
114.4253830898161
 30
0.0
 10
171.0530621084152
 20
114.5143781727136
 30
0.0
 10
171.0289897966609
 20
114.5423800697128
 30
0.0
 10
170.9706082763103
 20
114.585456470378
 30
0.0
 10
170.9351394486573
 20
114.6003500153058
 30
0.0
 10
170.8977636405085
 20
114.6003500153058
 30
0.0
  0
ELLIPSE
  5
FE
330
1F
100
AcDbEntity
  8
0
  6
HIDDEN
 62
     7
370
     0
100
AcDbEllipse
 10
160.8807364701
 20
120.429563011
 30
0.0
 11
-9.367417879781783
 21
19.74174915274993
 31
0.0
210
0.0
220
0.0
230
1.0
 40
0.3419987131
 41
3.292664382516896
 42
4.239566697061001
  0
SPLINE
  5
FF
330
1F
100
AcDbEntity
  8
0
  6
HIDDEN
 62
     7
370
     0
100
AcDbSpline
210
0.0
220
0.0
230
1.0
 70
     8
 71
     3
 72
    12
 73
     8
 74
     0
 42
0.00000001
 43
0.00000001
 12
1.0
 22
0.0
 32
0.0
 13
1.0
 23
0.0
 33
0.0
 40
0.0
 40
0.0
 40
0.0
 40
0.0
 40
0.2500000000000016
 40
0.2500000000000016
 40
0.5000000000000032
 40
0.5000000000000032
 40
1.0
 40
1.0
 40
1.0
 40
1.0
 10
170.8977636405085
 20
101.297906630724
 30
0.0
 10
170.9352755265532
 20
101.297906630724
 30
0.0
 10
170.9705628742579
 20
101.3024101749866
 30
0.0
 10
171.0294927224963
 20
101.3157833744398
 30
0.0
 10
171.0530184489654
 20
101.324268277011
 30
0.0
 10
171.1132772367335
 20
101.3520160808456
 30
0.0
 10
171.1388719990228
 20
101.3730059445859
 30
0.0
 10
171.1575712616439
 20
101.3948067277755
 30
0.0
  0
LINE
  5
100
330
1F
100
AcDbEntity
  8
0
  6
HIDDEN
 62
     7
370
     0
100
AcDbLine
 10
168.7615675519
 20
101.2979062748
 30
0.0
 11
170.8977635617
 21
101.2979062748
 31
0.0
  0
SPLINE
  5
101
330
1F
100
AcDbEntity
  8
0
  6
HIDDEN
 62
     7
370
     0
100
AcDbSpline
210
0.0
220
0.0
230
1.0
 70
     8
 71
     3
 72
    12
 73
     8
 74
     0
 42
0.00000001
 43
0.00000001
 12
1.0
 22
0.0
 32
0.0
 13
1.0
 23
0.0
 33
0.0
 40
0.0
 40
0.0
 40
0.0
 40
0.0
 40
0.5000000000000037
 40
0.5000000000000037
 40
0.7500000000000018
 40
0.7500000000000018
 40
1.0
 40
1.0
 40
1.0
 40
1.0
 10
168.5017600233716
 20
101.3948067277755
 30
0.0
 10
168.520453256502
 20
101.3730129741475
 30
0.0
 10
168.5461085539138
 20
101.3519928124379
 30
0.0
 10
168.6062691766003
 20
101.3242874664742
 30
0.0
 10
168.6303414883546
 20
101.3156522502808
 30
0.0
 10
168.6887230087052
 20
101.3024376050542
 30
0.0
 10
168.7241918363582
 20
101.297906630724
 30
0.0
 10
168.7615676445069
 20
101.297906630724
 30
0.0
  0
ELLIPSE
  5
102
330
1F
100
AcDbEntity
  8
0
  6
HIDDEN
 62
     7
370
     0
100
AcDbEllipse
 10
178.7785948149
 20
120.429563011
 30
0.0
 11
9.367417879781613
 21
19.74174915274996
 31
0.0
210
0.0
220
0.0
230
1.0
 40
0.3419987131
 41
2.043618610118593
 42
2.990520924662723
  0
SPLINE
  5
103
330
1F
100
AcDbEntity
  8
0
  6
HIDDEN
 62
     7
370
     0
100
AcDbSpline
210
0.0
220
0.0
230
1.0
 70
     8
 71
     3
 72
    12
 73
     8
 74
     0
 42
0.00000001
 43
0.00000001
 12
1.0
 22
0.0
 32
0.0
 13
1.0
 23
0.0
 33
0.0
 40
0.0
 40
0.0
 40
0.0
 40
0.0
 40
0.2500000000000023
 40
0.2500000000000023
 40
0.5000000000000046
 40
0.5000000000000046
 40
1.0
 40
1.0
 40
1.0
 40
1.0
 10
168.7615676445069
 20
139.5612193911908
 30
0.0
 10
168.7240557584622
 20
139.5612193911908
 30
0.0
 10
168.6887684107575
 20
139.5567158469283
 30
0.0
 10
168.6298385625191
 20
139.543342647475
 30
0.0
 10
168.6063128360501
 20
139.5348577449039
 30
0.0
 10
168.546054048282
 20
139.5071099410693
 30
0.0
 10
168.5204592859926
 20
139.4861200773289
 30
0.0
 10
168.5017600233716
 20
139.4643192941394
 30
0.0
  0
LINE
  5
104
330
1F
100
AcDbEntity
  8
0
  6
HIDDEN
 62
     7
370
     0
100
AcDbLine
 10
170.8977635617
 20
139.5612197471
 30
0.0
 11
168.7615675519
 21
139.5612197471
 31
0.0
  0
SPLINE
  5
105
330
1F
100
AcDbEntity
  8
0
  6
HIDDEN
 62
     7
370
     0
100
AcDbSpline
210
0.0
220
0.0
230
1.0
 70
     8
 71
     3
 72
    12
 73
     8
 74
     0
 42
0.00000001
 43
0.00000001
 12
1.0
 22
0.0
 32
0.0
 13
1.0
 23
0.0
 33
0.0
 40
0.0
 40
0.0
 40
0.0
 40
0.0
 40
0.4999999999999969
 40
0.4999999999999969
 40
0.7499999999999984
 40
0.7499999999999984
 40
1.0
 40
1.0
 40
1.0
 40
1.0
 10
171.1575712616439
 20
139.4643192941394
 30
0.0
 10
171.1388780285135
 20
139.4861130477673
 30
0.0
 10
171.1132227311016
 20
139.507133209477
 30
0.0
 10
171.0530621084152
 20
139.5348385554407
 30
0.0
 10
171.0289897966609
 20
139.5434737716341
 30
0.0
 10
170.9706082763103
 20
139.5566884168607
 30
0.0
 10
170.9351394486573
 20
139.5612193911908
 30
0.0
 10
170.8977636405085
 20
139.5612193911908
 30
0.0
  0
ELLIPSE
  5
106
330
1F
100
AcDbEntity
  8
0
  6
HIDDEN
 62
     7
370
     0
100
AcDbEllipse
 10
160.8807364701
 20
120.429563011
 30
0.0
 11
9.367417879781812
 21
19.74174915274993
 31
0.0
210
0.0
220
0.0
230
1.0
 40
0.3419987131
 41
5.185211263708412
 42
6.132113578252577
  0
SPLINE
  5
107
330
1F
100
AcDbEntity
  8
0
  6
HIDDEN
 62
     7
370
     0
100
AcDbSpline
210
0.0
220
0.0
230
1.0
 70
     8
 71
     3
 72
    12
 73
     8
 74
     0
 42
0.00000001
 43
0.00000001
 12
1.0
 22
0.0
 32
0.0
 13
1.0
 23
0.0
 33
0.0
 40
0.0
 40
0.0
 40
0.0
 40
0.0
 40
0.2500000000000016
 40
0.2500000000000016
 40
0.5000000000000032
 40
0.5000000000000032
 40
1.0
 40
1.0
 40
1.0
 40
1.0
 10
170.8977636405085
 20
126.2587760066093
 30
0.0
 10
170.9352755265532
 20
126.2587760066093
 30
0.0
 10
170.9705628742579
 20
126.2735808208961
 30
0.0
 10
171.0294927224963
 20
126.3171726940219
 30
0.0
 10
171.0530184489654
 20
126.3446861201079
 30
0.0
 10
171.1132772367335
 20
126.4338178522215
 30
0.0
 10
171.1388719990228
 20
126.5002037028393
 30
0.0
 10
171.1575712616439
 20
126.5678081380167
 30
0.0
  0
LINE
  5
108
330
1F
100
AcDbEntity
  8
0
  6
HIDDEN
 62
     7
370
     0
100
AcDbLine
 10
168.7615675519
 20
126.2587761981
 30
0.0
 11
170.8977635617
 21
126.2587761981
 31
0.0
  0
SPLINE
  5
109
330
1F
100
AcDbEntity
  8
0
  6
HIDDEN
 62
     7
370
     0
100
AcDbSpline
210
0.0
220
0.0
230
1.0
 70
     8
 71
     3
 72
    12
 73
     8
 74
     0
 42
0.00000001
 43
0.00000001
 12
1.0
 22
0.0
 32
0.0
 13
1.0
 23
0.0
 33
0.0
 40
0.0
 40
0.0
 40
0.0
 40
0.0
 40
0.4999999999999971
 40
0.4999999999999971
 40
0.7499999999999986
 40
0.7499999999999986
 40
1.0
 40
1.0
 40
1.0
 40
1.0
 10
168.5017600233716
 20
126.5678081380167
 30
0.0
 10
168.520453256502
 20
126.5002255015763
 30
0.0
 10
168.5461085539138
 20
126.4337429320989
 30
0.0
 10
168.6062691766003
 20
126.3447478492014
 30
0.0
 10
168.6303414883546
 20
126.3167459522022
 30
0.0
 10
168.6887230087052
 20
126.2736695515371
 30
0.0
 10
168.7241918363582
 20
126.2587760066093
 30
0.0
 10
168.7615676445069
 20
126.2587760066093
 30
0.0
  0
ELLIPSE
  5
10A
330
1F
100
AcDbEntity
  8
0
  6
HIDDEN
 62
     7
370
     0
100
AcDbEllipse
 10
178.7785948149
 20
120.429563011
 30
0.0
 11
-9.367417879781698
 21
19.74174915274996
 31
0.0
210
0.0
220
0.0
230
1.0
 40
0.3419987131
 41
0.1510717289270561
 42
1.09797404347119
  0
LINE
  5
10B
330
1F
100
AcDbEntity
  8
0
  6
HIDDEN
 62
     7
370
     0
100
AcDbLine
 10
181.8296651955
 20
101.0295624388
 30
0.0
 11
181.8296651955
 21
139.8295635832
 31
0.0
  0
LINE
  5
10C
330
1F
100
AcDbEntity
  8
0
  6
HIDDEN
 62
     7
370
     0
100
AcDbLine
 10
161.8296656425
 20
140.1295630735
 30
0.0
 11
161.8296656425
 21
100.7295629484
 31
0.0
  0
LINE
  5
10D
330
1F
100
AcDbEntity
  8
0
  6
HIDDEN
 62
     7
370
     0
100
AcDbLine
 10
161.8296656425
 20
104.6295637739
 30
0.0
 11
161.8296656425
 21
136.2131895972
 31
0.0
  0
SPLINE
  5
10E
330
1F
100
AcDbEntity
  8
0
  6
HIDDEN
 62
     7
370
     0
100
AcDbSpline
210
0.0
220
0.0
230
1.0
 70
     8
 71
     3
 72
    18
 73
    14
 74
     0
 42
0.00000001
 43
0.00000001
 12
1.0
 22
0.0
 32
0.0
 13
1.0
 23
0.0
 33
0.0
 40
0.0
 40
0.0
 40
0.0
 40
0.0
 40
0.2499999999999987
 40
0.2499999999999987
 40
0.4999999999999973
 40
0.4999999999999973
 40
0.624999999999998
 40
0.624999999999998
 40
0.7499999999999987
 40
0.7499999999999987
 40
0.8749999999999993
 40
0.8749999999999993
 40
1.0
 40
1.0
 40
1.0
 40
1.0
 10
160.5735813249447
 20
130.2540029291087
 30
0.0
 10
160.6078823694775
 20
130.1459927433111
 30
0.0
 10
160.6457026407743
 20
130.0387156552831
 30
0.0
 10
160.7323209612351
 20
129.8272189579666
 30
0.0
 10
160.7806922959786
 20
129.7228326077969
 30
0.0
 10
160.870095278097
 20
129.5719576851526
 30
0.0
 10
160.9026925619743
 20
129.522612682117
 30
0.0
 10
160.9790744659192
 20
129.4280070436468
 30
0.0
 10
161.02211290326
 20
129.3830111088922
 30
0.0
 10
161.1279259360918
 20
129.3120833362343
 30
0.0
 10
161.1929643608229
 20
129.2881367923277
 30
0.0
 10
161.3261164326255
 20
129.3004174563985
 30
0.0
 10
161.3854856130887
 20
129.3337344144034
 30
0.0
 10
161.4346887536325
 20
129.3745693006281
 30
0.0
  0
SPLINE
  5
10F
330
1F
100
AcDbEntity
  8
0
  6
HIDDEN
 62
     7
370
     0
100
AcDbSpline
210
0.0
220
0.0
230
1.0
 70
     8
 71
     3
 72
    16
 73
    12
 74
     0
 42
0.00000001
 43
0.00000001
 12
1.0
 22
0.0
 32
0.0
 13
1.0
 23
0.0
 33
0.0
 40
0.0
 40
0.0
 40
0.0
 40
0.0
 40
0.0625000000000026
 40
0.0625000000000026
 40
0.1250000000000052
 40
0.1250000000000052
 40
0.2500000000000065
 40
0.2500000000000065
 40
0.5000000000000043
 40
0.5000000000000043
 40
1.0
 40
1.0
 40
1.0
 40
1.0
 10
161.4346887536016
 20
129.3745693006576
 30
0.0
 10
161.4467585868775
 20
129.3845863496379
 30
0.0
 10
161.4610342418108
 20
129.3935454566935
 30
0.0
 10
161.4924986539352
 20
129.4014158520878
 30
0.0
 10
161.5079991787456
 20
129.3990583614454
 30
0.0
 10
161.5434380753526
 20
129.3820826692674
 30
0.0
 10
161.5570306914559
 20
129.3615341780998
 30
0.0
 10
161.5900250098487
 20
129.2995918510862
 30
0.0
 10
161.6008124031675
 20
129.253196300881
 30
0.0
 10
161.6258656504466
 20
129.1102602721865
 30
0.0
 10
161.6296656425079
 20
129.010697555301
 30
0.0
 10
161.6296656425079
 20
128.9089301506545
 30
0.0
  0
LINE
  5
110
330
1F
100
AcDbEntity
  8
0
  6
HIDDEN
 62
     7
370
     0
100
AcDbLine
 10
161.6296656476
 20
111.9501960007
 30
0.0
 11
161.6296656476
 21
128.9089300213
 31
0.0
  0
SPLINE
  5
111
330
1F
100
AcDbEntity
  8
0
  6
HIDDEN
 62
     7
370
     0
100
AcDbSpline
210
0.0
220
0.0
230
1.0
 70
     8
 71
     3
 72
    16
 73
    12
 74
     0
 42
0.00000001
 43
0.00000001
 12
1.0
 22
0.0
 32
0.0
 13
1.0
 23
0.0
 33
0.0
 40
0.0
 40
0.0
 40
0.0
 40
0.0
 40
0.5000000000000067
 40
0.5000000000000067
 40
0.7500000000000052
 40
0.7500000000000052
 40
0.8750000000000047
 40
0.8750000000000047
 40
0.9375000000000023
 40
0.9375000000000023
 40
1.0
 40
1.0
 40
1.0
 40
1.0
 10
161.6296656425077
 20
111.9501958712602
 30
0.0
 10
161.6296656425077
 20
111.8481857176801
 30
0.0
 10
161.6257822173488
 20
111.7486613424268
 30
0.0
 10
161.6009668920742
 20
111.6066762464162
 30
0.0
 10
161.5901274443616
 20
111.5596829458457
 30
0.0
 10
161.5569116623128
 20
111.4973902154841
 30
0.0
 10
161.543529918684
 20
111.477108783199
 30
0.0
 10
161.5080202688218
 20
111.4600670749986
 30
0.0
 10
161.492603302321
 20
111.4576808199824
 30
0.0
 10
161.4609022801724
 20
111.4656167498404
 30
0.0
 10
161.4467559952216
 20
111.4745418232151
 30
0.0
 10
161.434688753632
 20
111.484556721287
 30
0.0
  0
SPLINE
  5
112
330
1F
100
AcDbEntity
  8
0
  6
HIDDEN
 62
     7
370
     0
100
AcDbSpline
210
0.0
220
0.0
230
1.0
 70
     8
 71
     3
 72
    18
 73
    14
 74
     0
 42
0.00000001
 43
0.00000001
 12
1.0
 22
0.0
 32
0.0
 13
1.0
 23
0.0
 33
0.0
 40
0.0
 40
0.0
 40
0.0
 40
0.0
 40
0.1249999999999993
 40
0.1249999999999993
 40
0.2499999999999987
 40
0.2499999999999987
 40
0.374999999999998
 40
0.374999999999998
 40
0.4999999999999973
 40
0.4999999999999973
 40
0.7499999999999987
 40
0.7499999999999987
 40
1.0
 40
1.0
 40
1.0
 40
1.0
 10
161.4346887536381
 20
111.4845567212944
 30
0.0
 10
161.385983261496
 20
111.5249785969758
 30
0.0
 10
161.3274731531692
 20
111.5580107184435
 30
0.0
 10
161.1957440348771
 20
111.5712878703964
 30
0.0
 10
161.1309850985365
 20
111.5483342834162
 30
0.0
 10
161.0257741256769
 20
111.4792810864966
 30
0.0
 10
160.982557750237
 20
111.4348134346557
 30
0.0
 10
160.906379245125
 20
111.3416437752857
 30
0.0
 10
160.8735242837452
 20
111.2925014057249
 30
0.0
 10
160.7831560039114
 20
111.141291670785
 30
0.0
 10
160.7337327695413
 20
111.0351369012568
 30
0.0
 10
160.6460843144932
 20
110.8215552855953
 30
0.0
 10
160.6080251422903
 20
110.7135828543601
 30
0.0
 10
160.5735813249448
 20
110.6051230928061
 30
0.0
  0
SPLINE
  5
113
330
1F
100
AcDbEntity
  8
0
  6
HIDDEN
 62
     7
370
     0
100
AcDbSpline
210
0.0
220
0.0
230
1.0
 70
     8
 71
     3
 72
     8
 73
     4
 74
     0
 42
0.00000001
 43
0.00000001
 12
1.0
 22
0.0
 32
0.0
 13
1.0
 23
0.0
 33
0.0
 40
0.0
 40
0.0
 40
0.0
 40
0.0
 40
1.0
 40
1.0
 40
1.0
 40
1.0
 10
160.5735813249441
 20
110.6051230928056
 30
0.0
 10
160.549267621054
 20
110.5285619352555
 30
0.0
 10
160.527770979098
 20
110.4521365641223
 30
0.0
 10
160.508345298948
 20
110.3760436933506
 30
0.0
  0
SPLINE
  5
114
330
1F
100
AcDbEntity
  8
0
  6
HIDDEN
 62
     7
370
     0
100
AcDbSpline
210
0.0
220
0.0
230
1.0
 70
     8
 71
     3
 72
     8
 73
     4
 74
     0
 42
0.00000001
 43
0.00000001
 12
1.0
 22
0.0
 32
0.0
 13
1.0
 23
0.0
 33
0.0
 40
0.0
 40
0.0
 40
0.0
 40
0.0
 40
1.0
 40
1.0
 40
1.0
 40
1.0
 10
160.508345298948
 20
106.6044990029522
 30
0.0
 10
160.5277707258413
 20
106.6010017993649
 30
0.0
 10
160.5492672798104
 20
106.5989854817227
 30
0.0
 10
160.5735813249447
 20
106.5983746282788
 30
0.0
  0
SPLINE
  5
115
330
1F
100
AcDbEntity
  8
0
  6
HIDDEN
 62
     7
370
     0
100
AcDbSpline
210
0.0
220
0.0
230
1.0
 70
     8
 71
     3
 72
     8
 73
     4
 74
     0
 42
0.00000001
 43
0.00000001
 12
1.0
 22
0.0
 32
0.0
 13
1.0
 23
0.0
 33
0.0
 40
0.0
 40
0.0
 40
0.0
 40
0.0
 40
1.0
 40
1.0
 40
1.0
 40
1.0
 10
161.6068146294018
 20
106.5090162372206
 30
0.0
 10
161.6257515615675
 20
106.4810617998192
 30
0.0
 10
161.6296656425079
 20
106.4609779484629
 30
0.0
 10
161.6296656425079
 20
106.4447511042975
 30
0.0
  0
LINE
  5
116
330
1F
100
AcDbEntity
  8
0
  6
HIDDEN
 62
     7
370
     0
100
AcDbLine
 10
161.6296656476
 20
106.3397430358
 30
0.0
 11
161.6296656476
 21
106.4447515187
 31
0.0
  0
LINE
  5
117
330
1F
100
AcDbEntity
  8
0
  6
HIDDEN
 62
     7
370
     0
100
AcDbLine
 10
161.6296656476
 20
134.4143745032
 30
0.0
 11
161.6296656476
 21
134.5193829862
 31
0.0
  0
SPLINE
  5
118
330
1F
100
AcDbEntity
  8
0
  6
HIDDEN
 62
     7
370
     0
100
AcDbSpline
210
0.0
220
0.0
230
1.0
 70
     8
 71
     3
 72
     8
 73
     4
 74
     0
 42
0.00000001
 43
0.00000001
 12
1.0
 22
0.0
 32
0.0
 13
1.0
 23
0.0
 33
0.0
 40
0.0
 40
0.0
 40
0.0
 40
0.0
 40
1.0
 40
1.0
 40
1.0
 40
1.0
 10
160.5735813249444
 20
134.2607513936359
 30
0.0
 10
160.5492672798102
 20
134.2601405401921
 30
0.0
 10
160.5277707258413
 20
134.2581242225498
 30
0.0
 10
160.508345298948
 20
134.2546270189626
 30
0.0
  0
SPLINE
  5
119
330
1F
100
AcDbEntity
  8
0
  6
HIDDEN
 62
     7
370
     0
100
AcDbSpline
210
0.0
220
0.0
230
1.0
 70
     8
 71
     3
 72
     8
 73
     4
 74
     0
 42
0.00000001
 43
0.00000001
 12
1.0
 22
0.0
 32
0.0
 13
1.0
 23
0.0
 33
0.0
 40
0.0
 40
0.0
 40
0.0
 40
0.0
 40
1.0
 40
1.0
 40
1.0
 40
1.0
 10
160.508345298948
 20
130.4830823285641
 30
0.0
 10
160.527770979098
 20
130.4069894577924
 30
0.0
 10
160.549267621054
 20
130.3305640866593
 30
0.0
 10
160.5735813249441
 20
130.2540029291092
 30
0.0
  0
LINE
  5
11A
330
1F
100
AcDbEntity
  8
0
  6
HIDDEN
 62
     7
370
     0
100
AcDbLine
 10
181.8296651955
 20
105.9295634282
 30
0.0
 11
181.8296651955
 21
134.9295625937
 31
0.0
  0
LINE
  5
11B
330
1F
100
AcDbEntity
  8
0
  6
HIDDEN
 62
     7
370
     0
100
AcDbLine
 10
161.6296656476
 20
106.4447515187
 30
0.0
 11
161.6296656476
 21
114.9241180633
 31
0.0
  0
LINE
  5
11C
330
1F
100
AcDbEntity
  8
0
  6
HIDDEN
 62
     7
370
     0
100
AcDbLine
 10
161.6296656476
 20
125.9350079586
 30
0.0
 11
161.6296656476
 21
134.4143745032
 31
0.0
  0
SPLINE
  5
11D
330
1F
100
AcDbEntity
  8
0
  6
HIDDEN
 62
     7
370
     0
100
AcDbSpline
210
0.0
220
0.0
230
1.0
 70
     8
 71
     3
 72
    62
 73
    58
 74
     0
 42
0.00000001
 43
0.00000001
 12
1.0
 22
0.0
 32
0.0
 13
1.0
 23
0.0
 33
0.0
 40
-0.0312499999999999
 40
-0.0312499999999999
 40
0.0
 40
0.0
 40
0.0312499999999996
 40
0.0312499999999996
 40
0.0624999999999993
 40
0.0624999999999993
 40
0.0937499999999989
 40
0.0937499999999989
 40
0.1249999999999986
 40
0.1249999999999986
 40
0.1874999999999988
 40
0.1874999999999988
 40
0.2187499999999992
 40
0.2187499999999992
 40
0.2499999999999995
 40
0.2499999999999995
 40
0.2812499999999998
 40
0.2812499999999998
 40
0.3125000000000001
 40
0.3125000000000001
 40
0.3437500000000004
 40
0.3437500000000004
 40
0.3750000000000007
 40
0.3750000000000007
 40
0.4062500000000011
 40
0.4062500000000011
 40
0.4375000000000014
 40
0.4375000000000014
 40
0.4687500000000017
 40
0.4687500000000017
 40
0.500000000000002
 40
0.500000000000002
 40
0.5625000000000013
 40
0.5625000000000013
 40
0.5937500000000009
 40
0.5937500000000009
 40
0.6250000000000006
 40
0.6250000000000006
 40
0.6562500000000002
 40
0.6562500000000002
 40
0.6874999999999999
 40
0.6874999999999999
 40
0.7499999999999996
 40
0.7499999999999996
 40
0.7812499999999996
 40
0.7812499999999996
 40
0.8124999999999996
 40
0.8124999999999996
 40
0.8437499999999996
 40
0.8437499999999996
 40
0.8749999999999996
 40
0.8749999999999996
 40
0.9375000000000003
 40
0.9375000000000003
 40
0.9687500000000001
 40
0.9687500000000001
 40
1.0
 40
1.0
 40
1.03125
 40
1.03125
 10
214.6640551195948
 20
120.3124184373661
 30
0.0
 10
214.9952761654206
 20
120.3124184373661
 30
0.0
 10
215.1580334452696
 20
120.3290524841523
 30
0.0
 10
215.478101931073
 20
120.3940719202663
 30
0.0
 10
215.6371004120485
 20
120.44327503599
 30
0.0
 10
215.939634590635
 20
120.5710917497641
 30
0.0
 10
216.0830563033099
 20
120.6491538840191
 30
0.0
 10
216.3544868143643
 20
120.8330559799806
 30
0.0
 10
216.4826682077877
 20
120.9396047428132
 30
0.0
 10
216.8275850883284
 20
121.2876671581988
 30
0.0
 10
217.0137196575026
 20
121.5670606727756
 30
0.0
 10
217.2009622483758
 20
122.0163499707609
 30
0.0
 10
217.2491968131899
 20
122.1732313887077
 30
0.0
 10
217.3135874832813
 20
122.4926062552347
 30
0.0
 10
217.3295683903516
 20
122.6527208365249
 30
0.0
 10
217.3297620181268
 20
122.9737237948596
 30
0.0
 10
217.3134316402418
 20
123.1361705019676
 30
0.0
 10
217.2494678884927
 20
123.4488301141518
 30
0.0
 10
217.2021465822194
 20
123.6002530341619
 30
0.0
 10
217.0765496961318
 20
123.8934442494347
 30
0.0
 10
216.9984624650227
 20
124.0338410900207
 30
0.0
 10
216.8177227658248
 20
124.2934951805159
 30
0.0
 10
216.7139267767506
 20
124.4147704505641
 30
0.0
 10
216.4816147065985
 20
124.6365679127684
 30
0.0
 10
216.3558490882923
 20
124.7346808446466
 30
0.0
 10
216.0855333078293
 20
124.9065490172718
 30
0.0
 10
215.9391872114488
 20
124.9808767316468
 30
0.0
 10
215.6370616470097
 20
125.0994877191434
 30
0.0
 10
215.4812418176913
 20
125.1442938739688
 30
0.0
 10
215.1599842924691
 20
125.2049975784082
 30
0.0
 10
214.9940526219427
 20
125.2204915064085
 30
0.0
 10
214.5039428691524
 20
125.2206794659239
 30
0.0
 10
214.1741628463632
 20
125.1588383138535
 30
0.0
 10
213.7226195217538
 20
124.9819876765084
 30
0.0
 10
213.5766219275698
 20
124.9081716650124
 30
0.0
 10
213.3044311916742
 20
124.7354546751085
 30
0.0
 10
213.1788222783042
 20
124.63737805959
 30
0.0
 10
212.948157040581
 20
124.4176398349595
 30
0.0
 10
212.8427287221673
 20
124.2949134989573
 30
0.0
 10
212.6615975013785
 20
124.0350769734821
 30
0.0
 10
212.5845945893732
 20
123.8970072252278
 30
0.0
 10
212.3952835344832
 20
123.4570667844832
 30
0.0
 10
212.3298979046338
 20
123.1404794002389
 30
0.0
 10
212.3295504344685
 20
122.6543562019648
 30
0.0
 10
212.3456271329797
 20
122.49411452047
 30
0.0
 10
212.409155322975
 20
122.1771741833716
 30
0.0
 10
212.4574508925852
 20
122.0188875903485
 30
0.0
 10
212.5825968468679
 20
121.7179343768428
 30
0.0
 10
212.6592593359381
 20
121.574385198863
 30
0.0
 10
212.8408941225635
 20
121.3013611223264
 30
0.0
 10
212.9458209128026
 20
121.1726887189531
 30
0.0
 10
213.2902781879393
 20
120.824682157974
 30
0.0
 10
213.5683703953164
 20
120.6353273330356
 30
0.0
 10
214.0193373449741
 20
120.4443478722026
 30
0.0
 10
214.17792267458
 20
120.3948840286632
 30
0.0
 10
214.5006001170113
 20
120.3290555703067
 30
0.0
 10
214.6640551195948
 20
120.3124184373661
 30
0.0
 10
214.9952761654206
 20
120.3124184373661
 30
0.0
  0
SPLINE
  5
11E
330
1F
100
AcDbEntity
  8
0
  6
HIDDEN
 62
     7
370
     0
100
AcDbSpline
210
0.0
220
0.0
230
1.0
 70
     8
 71
     3
 72
    62
 73
    58
 74
     0
 42
0.00000001
 43
0.00000001
 12
1.0
 22
0.0
 32
0.0
 13
1.0
 23
0.0
 33
0.0
 40
-0.0312499999999999
 40
-0.0312499999999999
 40
0.0
 40
0.0
 40
0.0312499999999996
 40
0.0312499999999996
 40
0.0624999999999993
 40
0.0624999999999993
 40
0.0937499999999989
 40
0.0937499999999989
 40
0.1249999999999986
 40
0.1249999999999986
 40
0.1874999999999988
 40
0.1874999999999988
 40
0.2187499999999992
 40
0.2187499999999992
 40
0.2499999999999995
 40
0.2499999999999995
 40
0.2812499999999998
 40
0.2812499999999998
 40
0.3125000000000001
 40
0.3125000000000001
 40
0.3437500000000004
 40
0.3437500000000004
 40
0.3750000000000007
 40
0.3750000000000007
 40
0.4062500000000011
 40
0.4062500000000011
 40
0.4375000000000014
 40
0.4375000000000014
 40
0.4687500000000017
 40
0.4687500000000017
 40
0.500000000000002
 40
0.500000000000002
 40
0.5625000000000013
 40
0.5625000000000013
 40
0.5937500000000009
 40
0.5937500000000009
 40
0.6250000000000006
 40
0.6250000000000006
 40
0.6562500000000002
 40
0.6562500000000002
 40
0.6874999999999999
 40
0.6874999999999999
 40
0.7499999999999996
 40
0.7499999999999996
 40
0.7812499999999996
 40
0.7812499999999996
 40
0.8124999999999996
 40
0.8124999999999996
 40
0.8437499999999996
 40
0.8437499999999996
 40
0.8749999999999996
 40
0.8749999999999996
 40
0.9375000000000003
 40
0.9375000000000003
 40
0.9687500000000001
 40
0.9687500000000001
 40
1.0
 40
1.0
 40
1.03125
 40
1.03125
 10
214.6640551195948
 20
120.3124184373661
 30
0.0
 10
214.9952761654206
 20
120.3124184373661
 30
0.0
 10
215.1580334452696
 20
120.3290524841523
 30
0.0
 10
215.478101931073
 20
120.3940719202663
 30
0.0
 10
215.6371004120485
 20
120.44327503599
 30
0.0
 10
215.939634590635
 20
120.5710917497641
 30
0.0
 10
216.0830563033099
 20
120.6491538840191
 30
0.0
 10
216.3544868143643
 20
120.8330559799806
 30
0.0
 10
216.4826682077877
 20
120.9396047428132
 30
0.0
 10
216.8275850883284
 20
121.2876671581988
 30
0.0
 10
217.0137196575026
 20
121.5670606727756
 30
0.0
 10
217.2009622483758
 20
122.0163499707609
 30
0.0
 10
217.2491968131899
 20
122.1732313887077
 30
0.0
 10
217.3135874832813
 20
122.4926062552347
 30
0.0
 10
217.3295683903516
 20
122.6527208365249
 30
0.0
 10
217.3297620181268
 20
122.9737237948596
 30
0.0
 10
217.3134316402418
 20
123.1361705019676
 30
0.0
 10
217.2494678884927
 20
123.4488301141518
 30
0.0
 10
217.2021465822194
 20
123.6002530341619
 30
0.0
 10
217.0765496961318
 20
123.8934442494347
 30
0.0
 10
216.9984624650227
 20
124.0338410900207
 30
0.0
 10
216.8177227658248
 20
124.2934951805159
 30
0.0
 10
216.7139267767506
 20
124.4147704505641
 30
0.0
 10
216.4816147065985
 20
124.6365679127684
 30
0.0
 10
216.3558490882923
 20
124.7346808446466
 30
0.0
 10
216.0855333078293
 20
124.9065490172718
 30
0.0
 10
215.9391872114488
 20
124.9808767316468
 30
0.0
 10
215.6370616470097
 20
125.0994877191434
 30
0.0
 10
215.4812418176913
 20
125.1442938739688
 30
0.0
 10
215.1599842924691
 20
125.2049975784082
 30
0.0
 10
214.9940526219427
 20
125.2204915064085
 30
0.0
 10
214.5039428691524
 20
125.2206794659239
 30
0.0
 10
214.1741628463632
 20
125.1588383138535
 30
0.0
 10
213.7226195217538
 20
124.9819876765084
 30
0.0
 10
213.5766219275698
 20
124.9081716650124
 30
0.0
 10
213.3044311916742
 20
124.7354546751085
 30
0.0
 10
213.1788222783042
 20
124.63737805959
 30
0.0
 10
212.948157040581
 20
124.4176398349595
 30
0.0
 10
212.8427287221673
 20
124.2949134989573
 30
0.0
 10
212.6615975013785
 20
124.0350769734821
 30
0.0
 10
212.5845945893732
 20
123.8970072252278
 30
0.0
 10
212.3952835344832
 20
123.4570667844832
 30
0.0
 10
212.3298979046338
 20
123.1404794002389
 30
0.0
 10
212.3295504344685
 20
122.6543562019648
 30
0.0
 10
212.3456271329797
 20
122.49411452047
 30
0.0
 10
212.409155322975
 20
122.1771741833716
 30
0.0
 10
212.4574508925852
 20
122.0188875903485
 30
0.0
 10
212.5825968468679
 20
121.7179343768428
 30
0.0
 10
212.6592593359381
 20
121.574385198863
 30
0.0
 10
212.8408941225635
 20
121.3013611223264
 30
0.0
 10
212.9458209128026
 20
121.1726887189531
 30
0.0
 10
213.2902781879393
 20
120.824682157974
 30
0.0
 10
213.5683703953164
 20
120.6353273330356
 30
0.0
 10
214.0193373449741
 20
120.4443478722026
 30
0.0
 10
214.17792267458
 20
120.3948840286632
 30
0.0
 10
214.5006001170113
 20
120.3290555703067
 30
0.0
 10
214.6640551195948
 20
120.3124184373661
 30
0.0
 10
214.9952761654206
 20
120.3124184373661
 30
0.0
  0
CIRCLE
  5
11F
330
1F
100
AcDbEntity
  8
0
  6
HIDDEN
 62
     7
370
     0
100
AcDbCircle
 10
150.3296656425
 20
120.429563011
 30
0.0
 40
2.299999999999997
  0
LINE
  5
120
330
1F
100
AcDbEntity
  8
0
  6
HIDDEN
 62
     7
370
     0
100
AcDbLine
 10
138.8566981669
 20
129.9922565472
 30
0.0
 11
138.8566981669
 21
110.8668694747
 31
0.0
  0
LINE
  5
121
330
1F
100
AcDbEntity
  8
0
  6
HIDDEN
 62
     7
370
     0
100
AcDbLine
 10
137.8296654339
 20
110.2739122239
 30
0.0
 11
137.8296654339
 21
130.5686511573
 31
0.0
  0
LINE
  5
122
330
1F
100
AcDbEntity
  8
0
  6
HIDDEN
 62
     7
370
     0
100
AcDbLine
 10
142.3566978092
 20
129.6605026824
 30
0.0
 11
142.3566978092
 21
111.1986233396
 31
0.0
  0
SPLINE
  5
123
330
1F
100
AcDbEntity
  8
0
  6
HIDDEN
 62
     7
370
     0
100
AcDbSpline
210
0.0
220
0.0
230
1.0
 70
     8
 71
     3
 72
    60
 73
    56
 74
     0
 42
0.00000001
 43
0.00000001
 12
1.0
 22
0.0
 32
0.0
 13
1.0
 23
0.0
 33
0.0
 40
-0.0625000000000007
 40
-0.0625000000000007
 40
0.0
 40
0.0
 40
0.0312500000000007
 40
0.0312500000000007
 40
0.0625000000000015
 40
0.0625000000000015
 40
0.1250000000000017
 40
0.1250000000000017
 40
0.1562500000000018
 40
0.1562500000000018
 40
0.1875000000000019
 40
0.1875000000000019
 40
0.2187500000000019
 40
0.2187500000000019
 40
0.250000000000002
 40
0.250000000000002
 40
0.2812500000000021
 40
0.2812500000000021
 40
0.3125000000000022
 40
0.3125000000000022
 40
0.3750000000000018
 40
0.3750000000000018
 40
0.4062500000000016
 40
0.4062500000000016
 40
0.4375000000000014
 40
0.4375000000000014
 40
0.4687500000000012
 40
0.4687500000000012
 40
0.500000000000001
 40
0.500000000000001
 40
0.5312500000000009
 40
0.5312500000000009
 40
0.5625000000000007
 40
0.5625000000000007
 40
0.5937500000000006
 40
0.5937500000000006
 40
0.6250000000000004
 40
0.6250000000000004
 40
0.6875
 40
0.6875
 40
0.7187499999999999
 40
0.7187499999999999
 40
0.7499999999999998
 40
0.7499999999999998
 40
0.7812499999999996
 40
0.7812499999999996
 40
0.8124999999999992
 40
0.8124999999999992
 40
0.8749999999999988
 40
0.8749999999999988
 40
0.9062499999999991
 40
0.9062499999999991
 40
0.9374999999999993
 40
0.9374999999999993
 40
1.0
 40
1.0
 40
1.031250000000001
 40
1.031250000000001
 10
214.5430698753336
 20
117.8948588380116
 30
0.0
 10
214.9729635260948
 20
117.8948588380116
 30
0.0
 10
215.1126172927049
 20
117.906710706061
 30
0.0
 10
215.3855088725083
 20
117.9526283574208
 30
0.0
 10
215.5195762840026
 20
117.9872697646238
 30
0.0
 10
215.8954786057776
 20
118.1203072580936
 30
0.0
 10
216.1199482142962
 20
118.2497684234423
 30
0.0
 10
216.4029270715087
 20
118.4976689582925
 30
0.0
 10
216.4897874989199
 20
118.5908584254412
 30
0.0
 10
216.6410204022402
 20
118.7923084950983
 30
0.0
 10
216.7060529794357
 20
118.9007985002725
 30
0.0
 10
216.8140178021046
 20
119.1355721722896
 30
0.0
 10
216.8569389542241
 20
119.2633245260093
 30
0.0
 10
216.913949499355
 20
119.5247539467207
 30
0.0
 10
216.9289528247571
 20
119.6597790348258
 30
0.0
 10
216.9303293964504
 20
119.9391664808324
 30
0.0
 10
216.916373827276
 20
120.0804686345143
 30
0.0
 10
216.8613641514781
 20
120.3571133897835
 30
0.0
 10
216.8195799949091
 20
120.4952936921566
 30
0.0
 10
216.6595206804816
 20
120.8886949173035
 30
0.0
 10
216.5048395551379
 20
121.129558568305
 30
0.0
 10
216.2231025236017
 20
121.4346706781189
 30
0.0
 10
216.119239114886
 20
121.5286941794045
 30
0.0
 10
215.8983929022882
 20
121.6938923828646
 30
0.0
 10
215.7813872979206
 20
121.7655216193181
 30
0.0
 10
215.5319367729631
 20
121.8854843532696
 30
0.0
 10
215.3979488993801
 20
121.9339245895491
 30
0.0
 10
215.1246381975577
 20
121.9992115014902
 30
0.0
 10
214.9824031238144
 20
122.0168712890587
 30
0.0
 10
214.6973783742954
 20
122.0184578125215
 30
0.0
 10
214.5571922283697
 20
122.0027942818646
 30
0.0
 10
214.2811258536048
 20
121.9401776167704
 30
0.0
 10
214.1476181402675
 20
121.8935088767111
 30
0.0
 10
213.8955300011556
 20
121.7754423135247
 30
0.0
 10
213.7751183716535
 20
121.7031192126316
 30
0.0
 10
213.5526461584456
 20
121.5393082042018
 30
0.0
 10
213.4494799947186
 20
121.4474308260275
 30
0.0
 10
213.1625287705753
 20
121.1411716386063
 30
0.0
 10
213.0092758440368
 20
120.9059821507853
 30
0.0
 10
212.8450941720807
 20
120.5111447240649
 30
0.0
 10
212.8030525521106
 20
120.3760033788839
 30
0.0
 10
212.7453599470238
 20
120.0984041651769
 30
0.0
 10
212.7301862518664
 20
119.9556049951046
 30
0.0
 10
212.7291720765836
 20
119.6780609413272
 30
0.0
 10
212.7430829601865
 20
119.5400578327277
 30
0.0
 10
212.7990670184915
 20
119.2742593485615
 30
0.0
 10
212.8403364758908
 20
119.1486840466693
 30
0.0
 10
213.0015726576805
 20
118.7915176384924
 30
0.0
 10
213.1567592011015
 20
118.5860661675727
 30
0.0
 10
213.4408776145306
 20
118.3355305753864
 30
0.0
 10
213.5432897715461
 20
118.2620876537353
 30
0.0
 10
213.7648206823986
 20
118.1332748270462
 30
0.0
 10
213.8850054709555
 20
118.0777040694932
 30
0.0
 10
214.2612012120832
 20
117.9437519888994
 30
0.0
 10
214.5430698753336
 20
117.8948588380116
 30
0.0
 10
214.9729635260948
 20
117.8948588380116
 30
0.0
  0
SPLINE
  5
124
330
1F
100
AcDbEntity
  8
0
  6
HIDDEN
 62
     7
370
     0
100
AcDbSpline
210
0.0
220
0.0
230
1.0
 70
     8
 71
     3
 72
    76
 73
    72
 74
     0
 42
0.00000001
 43
0.00000001
 12
1.0
 22
0.0
 32
0.0
 13
1.0
 23
0.0
 33
0.0
 40
0.0
 40
0.0
 40
0.0
 40
0.0
 40
0.0156249999999997
 40
0.0156249999999997
 40
0.0312499999999994
 40
0.0312499999999994
 40
0.0624999999999999
 40
0.0624999999999999
 40
0.1250000000000009
 40
0.1250000000000009
 40
0.1562500000000011
 40
0.1562500000000011
 40
0.1875000000000013
 40
0.1875000000000013
 40
0.2187500000000015
 40
0.2187500000000015
 40
0.2500000000000017
 40
0.2500000000000017
 40
0.2812500000000019
 40
0.2812500000000019
 40
0.3125000000000022
 40
0.3125000000000022
 40
0.3437500000000024
 40
0.3437500000000024
 40
0.3750000000000026
 40
0.3750000000000026
 40
0.4375000000000019
 40
0.4375000000000019
 40
0.4687500000000016
 40
0.4687500000000016
 40
0.4843750000000019
 40
0.4843750000000019
 40
0.5000000000000022
 40
0.5000000000000022
 40
0.5156250000000024
 40
0.5156250000000024
 40
0.5312500000000028
 40
0.5312500000000028
 40
0.546875000000003
 40
0.546875000000003
 40
0.5625000000000033
 40
0.5625000000000033
 40
0.5937500000000031
 40
0.5937500000000031
 40
0.6250000000000028
 40
0.6250000000000028
 40
0.6562500000000024
 40
0.6562500000000024
 40
0.6875000000000021
 40
0.6875000000000021
 40
0.7187500000000018
 40
0.7187500000000018
 40
0.7500000000000013
 40
0.7500000000000013
 40
0.781250000000001
 40
0.781250000000001
 40
0.8125000000000007
 40
0.8125000000000007
 40
0.8437500000000004
 40
0.8437500000000004
 40
0.8750000000000002
 40
0.8750000000000002
 40
0.90625
 40
0.90625
 40
0.9374999999999998
 40
0.9374999999999998
 40
0.9687499999999996
 40
0.9687499999999996
 40
0.9843749999999999
 40
0.9843749999999999
 40
1.0
 40
1.0
 40
1.0
 40
1.0
 10
215.7940450715625
 20
120.9197358474307
 30
0.0
 10
215.8609298918356
 20
120.8899062844523
 30
0.0
 10
215.9192595335958
 20
120.8627237295584
 30
0.0
 10
216.028431028968
 20
120.8083370560993
 30
0.0
 10
216.0792739054364
 20
120.7810692762072
 30
0.0
 10
216.222451380589
 20
120.6974872863085
 30
0.0
 10
216.3064373920112
 20
120.6390310362438
 30
0.0
 10
216.5385618939238
 20
120.4451307508845
 30
0.0
 10
216.6677481144848
 20
120.2896355934919
 30
0.0
 10
216.8104540775091
 20
120.0116073937946
 30
0.0
 10
216.8495400593056
 20
119.9115159310264
 30
0.0
 10
216.9069875370691
 20
119.6921811219027
 30
0.0
 10
216.9247354449549
 20
119.5744895232717
 30
0.0
 10
216.9328237925897
 20
119.3251101759388
 30
0.0
 10
216.9228294062827
 20
119.1908900814856
 30
0.0
 10
216.8704126867375
 20
118.9180581284693
 30
0.0
 10
216.8270264509022
 20
118.7755829969899
 30
0.0
 10
216.7097264911725
 20
118.4997254635653
 30
0.0
 10
216.6348820143667
 20
118.3636875300934
 30
0.0
 10
216.4628452932991
 20
118.1102002229401
 30
0.0
 10
216.3658009360247
 20
117.9925370667179
 30
0.0
 10
216.1606377536594
 20
117.7807086581735
 30
0.0
 10
216.0540150862175
 20
117.6875998895148
 30
0.0
 10
215.8346927722044
 20
117.5214946071388
 30
0.0
 10
215.7225277304757
 20
117.4492162555441
 30
0.0
 10
215.3914554007975
 20
117.2644616333044
 30
0.0
 10
215.1701336089949
 20
117.1798003214375
 30
0.0
 10
214.8611276204809
 20
117.0961054948997
 30
0.0
 10
214.7617103197027
 20
117.0754567992132
 30
0.0
 10
214.6239877968631
 20
117.0509200634481
 30
0.0
 10
214.5799529738522
 20
117.0438046786795
 30
0.0
 10
214.4997459598533
 20
117.0297164731008
 30
0.0
 10
214.4638006260348
 20
117.0229168436296
 30
0.0
 10
214.4121027145471
 20
117.004810982993
 30
0.0
 10
214.3981090839351
 20
116.9930525901593
 30
0.0
 10
214.4095533520804
 20
116.9616014123395
 30
0.0
 10
214.4345559886281
 20
116.9422783570476
 30
0.0
 10
214.502785910884
 20
116.9045702997863
 30
0.0
 10
214.5457863176222
 20
116.8859589329127
 30
0.0
 10
214.6382576533898
 20
116.8523902724452
 30
0.0
 10
214.6877499207634
 20
116.8374031203387
 30
0.0
 10
214.8413696864507
 20
116.7988114508768
 30
0.0
 10
214.9505584354658
 20
116.7815361958098
 30
0.0
 10
215.1758246573194
 20
116.7673847190712
 30
0.0
 10
215.2921301443512
 20
116.7706635908284
 30
0.0
 10
215.5234105338055
 20
116.8005827756153
 30
0.0
 10
215.639284759403
 20
116.8270622619196
 30
0.0
 10
215.870564329337
 20
116.9076441869933
 30
0.0
 10
215.9863581370753
 20
116.9623262800616
 30
0.0
 10
216.2057150916786
 20
117.1004019453913
 30
0.0
 10
216.311975584878
 20
117.1855032821172
 30
0.0
 10
216.5051181665225
 20
117.3853733466358
 30
0.0
 10
216.5910122366292
 20
117.4984223692093
 30
0.0
 10
216.7388330710706
 20
117.7536660486299
 30
0.0
 10
216.7988935443686
 20
117.8939431783036
 30
0.0
 10
216.8853957702308
 20
118.1847182655064
 30
0.0
 10
216.9126238012265
 20
118.3382207444053
 30
0.0
 10
216.9347238246489
 20
118.6410588918974
 30
0.0
 10
216.9300442998477
 20
118.7941765379374
 30
0.0
 10
216.8944121787366
 20
119.0879330372133
 30
0.0
 10
216.8637995798212
 20
119.2298948322046
 30
0.0
 10
216.78026232158
 20
119.5055341716051
 30
0.0
 10
216.7277769687049
 20
119.63720935442
 30
0.0
 10
216.6062240784688
 20
119.8851720912745
 30
0.0
 10
216.5368886217177
 20
120.0023971716654
 30
0.0
 10
216.3804770691655
 20
120.2250409912096
 30
0.0
 10
216.2936971810925
 20
120.3301412336557
 30
0.0
 10
216.148675350663
 20
120.4763016274702
 30
0.0
 10
216.0977296672685
 20
120.5232710046352
 30
0.0
 10
215.9871777908636
 20
120.6139548293753
 30
0.0
 10
215.9284829728916
 20
120.6570298001567
 30
0.0
 10
215.8635283509593
 20
120.6969235603555
 30
0.0
  0
SPLINE
  5
125
330
1F
100
AcDbEntity
  8
0
  6
HIDDEN
 62
     7
370
     0
100
AcDbSpline
210
0.0
220
0.0
230
1.0
 70
     8
 71
     3
 72
     8
 73
     4
 74
     0
 42
0.00000001
 43
0.00000001
 12
1.0
 22
0.0
 32
0.0
 13
1.0
 23
0.0
 33
0.0
 40
0.0
 40
0.0
 40
0.0
 40
0.0
 40
1.0
 40
1.0
 40
1.0
 40
1.0
 10
215.8635283509606
 20
120.6969235603554
 30
0.0
 10
215.8030338742612
 20
120.7918035385432
 30
0.0
 10
215.7783641471361
 20
120.8650329067231
 30
0.0
 10
215.7940450715617
 20
120.9197358474301
 30
0.0
  0
CIRCLE
  5
126
330
1F
100
AcDbEntity
  8
0
  6
HIDDEN
 62
     7
370
     0
100
AcDbCircle
 10
214.8235137936
 20
118.6439351474
 30
0.0
 40
2.088483802413444
  0
LINE
  5
127
330
1F
100
AcDbEntity
  8
0
  6
HIDDEN
 62
     7
370
     0
100
AcDbLine
 10
145.7566976215
 20
129.4295626235
 30
0.0
 11
145.7566976215
 21
111.4295633984
 31
0.0
  0
LINE
  5
128
330
1F
100
AcDbEntity
  8
0
  6
HIDDEN
 62
     7
370
     0
100
AcDbLine
 10
140.9566983248
 20
129.4295626235
 30
0.0
 11
140.9566983248
 21
111.4295633984
 31
0.0
  0
LWPOLYLINE
  5
129
330
1F
100
AcDbEntity
  8
0
  6
HIDDEN
 62
     7
370
     0
100
AcDbPolyline
 90
        9
 70
   128
 43
0.0
 10
215.7940458174
 20
120.9197358353
 10
215.8131081278
 20
120.9146530551
 10
215.8292945142
 20
120.9029276747
 10
215.8425416465
 20
120.8846001196
 10
215.8528122718
 20
120.8597336031
 10
215.8600654121
 20
120.828413807
 10
215.8642749901
 20
120.7907487065
 10
215.8654335554
 20
120.746868221
 10
215.863529932
 20
120.6969235741
  0
LINE
  5
12A
330
1F
100
AcDbEntity
  8
0
  6
HIDDEN
 62
     7
370
     0
100
AcDbLine
 10
141.9566984887
 20
129.4295626235
 30
0.0
 11
141.9566984887
 21
111.4295633984
 31
0.0
  0
SPLINE
  5
12B
330
1F
100
AcDbEntity
  8
0
  6
HIDDEN
 62
     7
370
     0
100
AcDbSpline
210
0.0
220
0.0
230
1.0
 70
     8
 71
     3
 72
    14
 73
    10
 74
     0
 42
0.00000001
 43
0.00000001
 12
1.0
 22
0.0
 32
0.0
 13
1.0
 23
0.0
 33
0.0
 40
0.0
 40
0.0
 40
0.0
 40
0.0
 40
0.25
 40
0.25
 40
0.5
 40
0.5
 40
0.75
 40
0.75
 40
1.0
 40
1.0
 40
1.0
 40
1.0
 10
152.3296656425077
 20
121.5653446801174
 30
0.0
 10
152.4278899890107
 20
121.3923812503139
 30
0.0
 10
152.5032048269948
 20
121.2073486958895
 30
0.0
 10
152.6041715371891
 20
120.824336481755
 30
0.0
 10
152.6295471234793
 20
120.6296179282894
 30
0.0
 10
152.6297833487456
 20
120.2322426270238
 30
0.0
 10
152.6040802794101
 20
120.0347502925484
 30
0.0
 10
152.5037601658936
 20
119.6535784579174
 30
0.0
 10
152.427868337806
 20
119.4667066459449
 30
0.0
 10
152.3296656425123
 20
119.293781341795
 30
0.0
  0
LINE
  5
12C
330
1F
100
AcDbEntity
  8
0
  6
HIDDEN
 62
     7
370
     0
100
AcDbLine
 10
152.8296660299
 20
128.9295634729
 30
0.0
 11
152.8296660299
 21
111.929562549
 31
0.0
  0
SPLINE
  5
12D
330
1F
100
AcDbEntity
  8
0
  6
HIDDEN
 62
     7
370
     0
100
AcDbSpline
210
0.0
220
0.0
230
1.0
 70
     8
 71
     3
 72
    14
 73
    10
 74
     0
 42
0.00000001
 43
0.00000001
 12
1.0
 22
0.0
 32
0.0
 13
1.0
 23
0.0
 33
0.0
 40
0.0
 40
0.0
 40
0.0
 40
0.0
 40
0.25
 40
0.25
 40
0.5
 40
0.5
 40
0.75
 40
0.75
 40
1.0
 40
1.0
 40
1.0
 40
1.0
 10
152.3296656425077
 20
119.2937813417973
 30
0.0
 10
152.4278899890107
 20
119.4667447716009
 30
0.0
 10
152.5032048269948
 20
119.6517773260253
 30
0.0
 10
152.6041715371891
 20
120.0347895401597
 30
0.0
 10
152.6295471234793
 20
120.2295080936253
 30
0.0
 10
152.6297833487456
 20
120.6268833948909
 30
0.0
 10
152.6040802794101
 20
120.8243757293663
 30
0.0
 10
152.5037601658936
 20
121.2055475639973
 30
0.0
 10
152.427868337806
 20
121.3924193759699
 30
0.0
 10
152.3296656425123
 20
121.5653446801198
 30
0.0
  0
SPLINE
  5
12E
330
1F
100
AcDbEntity
  8
0
  6
HIDDEN
 62
     7
370
     0
100
AcDbSpline
210
0.0
220
0.0
230
1.0
 70
     8
 71
     3
 72
    60
 73
    56
 74
     0
 42
0.00000001
 43
0.00000001
 12
1.0
 22
0.0
 32
0.0
 13
1.0
 23
0.0
 33
0.0
 40
0.0
 40
0.0
 40
0.0
 40
0.0
 40
0.0624999999999993
 40
0.0624999999999993
 40
0.1249999999999986
 40
0.1249999999999986
 40
0.1874999999999979
 40
0.1874999999999979
 40
0.2187499999999978
 40
0.2187499999999978
 40
0.2499999999999977
 40
0.2499999999999977
 40
0.3124999999999979
 40
0.3124999999999979
 40
0.3749999999999981
 40
0.3749999999999981
 40
0.4062499999999982
 40
0.4062499999999982
 40
0.4374999999999982
 40
0.4374999999999982
 40
0.4687499999999983
 40
0.4687499999999983
 40
0.4999999999999983
 40
0.4999999999999983
 40
0.5312499999999984
 40
0.5312499999999984
 40
0.5624999999999986
 40
0.5624999999999986
 40
0.5937499999999987
 40
0.5937499999999987
 40
0.6249999999999988
 40
0.6249999999999988
 40
0.6562499999999989
 40
0.6562499999999989
 40
0.687499999999999
 40
0.687499999999999
 40
0.7187499999999991
 40
0.7187499999999991
 40
0.7499999999999991
 40
0.7499999999999991
 40
0.7812499999999992
 40
0.7812499999999992
 40
0.8124999999999993
 40
0.8124999999999993
 40
0.8437499999999994
 40
0.8437499999999994
 40
0.8749999999999996
 40
0.8749999999999996
 40
0.9062499999999997
 40
0.9062499999999997
 40
0.9374999999999998
 40
0.9374999999999998
 40
0.9687499999999999
 40
0.9687499999999999
 40
1.0
 40
1.0
 40
1.0
 40
1.0
 10
152.3296656425077
 20
119.2937813417973
 30
0.0
 10
152.204475740929
 20
119.0733342171818
 30
0.0
 10
152.0476084223609
 20
118.8796004883614
 30
0.0
 10
151.670570902542
 20
118.543910789599
 30
0.0
 10
151.458857596121
 20
118.4099334312862
 30
0.0
 10
150.9929676141723
 20
118.2128066866011
 30
0.0
 10
150.7471283831207
 20
118.1535892743792
 30
0.0
 10
150.3676473300261
 20
118.1263825384886
 30
0.0
 10
150.2399016013322
 20
118.1278758036304
 30
0.0
 10
149.9894353546641
 20
118.1513916094394
 30
0.0
 10
149.8656059718558
 20
118.1733108282436
 30
0.0
 10
149.4983862977572
 20
118.2701473930885
 30
0.0
 10
149.2676172796715
 20
118.3739485145403
 30
0.0
 10
148.847728318252
 20
118.6526669954683
 30
0.0
 10
148.6634699433644
 20
118.824229286972
 30
0.0
 10
148.4327215558811
 20
119.1228766482388
 30
0.0
 10
148.3636747060921
 20
119.2293441887411
 30
0.0
 10
148.2451100422866
 20
119.4496275371341
 30
0.0
 10
148.194901673537
 20
119.5642890535355
 30
0.0
 10
148.1130698211792
 20
119.8029696903123
 30
0.0
 10
148.0817189222965
 20
119.9270153171903
 30
0.0
 10
148.0403245442579
 20
120.1751303532987
 30
0.0
 10
148.0298187691936
 20
120.3003680557872
 30
0.0
 10
148.0295158168578
 20
120.5532471113782
 30
0.0
 10
148.0400003464744
 20
120.6811267976148
 30
0.0
 10
148.0811404239359
 20
120.9295488588203
 30
0.0
 10
148.1117185444844
 20
121.0513477855886
 30
0.0
 10
148.1930012528357
 20
121.290127315063
 30
0.0
 10
148.2440021393977
 20
121.4071688773696
 30
0.0
 10
148.3625691877607
 20
121.6279940752955
 30
0.0
 10
148.4304579410325
 20
121.7329324388583
 30
0.0
 10
148.5836083787701
 20
121.9319097720877
 30
0.0
 10
148.6691645503426
 20
122.0259178972819
 30
0.0
 10
148.8518759213018
 20
122.1964105822186
 30
0.0
 10
148.9496832209837
 20
122.2738487772679
 30
0.0
 10
149.1584863329007
 20
122.4130146731563
 30
0.0
 10
149.2700685081885
 20
122.4747964821632
 30
0.0
 10
149.4987143076875
 20
122.577875352764
 30
0.0
 10
149.6166691186587
 20
122.6198793879597
 30
0.0
 10
149.8599975636474
 20
122.6846155092565
 30
0.0
 10
149.9863414389905
 20
122.7072887718192
 30
0.0
 10
150.2374474200083
 20
122.7311715680003
 30
0.0
 10
150.3631294137313
 20
122.732774869267
 30
0.0
 10
150.6147514835231
 20
122.7153081304961
 30
0.0
 10
150.7416491038088
 20
122.6958722398561
 30
0.0
 10
150.98683967007
 20
122.6372790685325
 30
0.0
 10
151.1060288271035
 20
122.5982162173758
 30
0.0
 10
151.3377138514583
 20
122.500706495252
 30
0.0
 10
151.4508886558088
 20
122.4416711409635
 30
0.0
 10
151.6629670727445
 20
122.307867424124
 30
0.0
 10
151.7627558514453
 20
122.2328722079792
 30
0.0
 10
151.9500140384343
 20
122.0666771434584
 30
0.0
 10
152.0379090753777
 20
121.9747829447169
 30
0.0
 10
152.1961301510096
 20
121.7794187470025
 30
0.0
 10
152.2670681073012
 20
121.67557279333
 30
0.0
 10
152.3296656425077
 20
121.5653446801174
 30
0.0
  0
SPLINE
  5
12F
330
1F
100
AcDbEntity
  8
0
  6
HIDDEN
 62
     7
370
     0
100
AcDbSpline
210
0.0
220
0.0
230
1.0
 70
     8
 71
     3
 72
    60
 73
    56
 74
     0
 42
0.00000001
 43
0.00000001
 12
1.0
 22
0.0
 32
0.0
 13
1.0
 23
0.0
 33
0.0
 40
0.0
 40
0.0
 40
0.0
 40
0.0
 40
0.0624999999999992
 40
0.0624999999999992
 40
0.1249999999999983
 40
0.1249999999999983
 40
0.1874999999999975
 40
0.1874999999999975
 40
0.2187499999999973
 40
0.2187499999999973
 40
0.2499999999999971
 40
0.2499999999999971
 40
0.3124999999999972
 40
0.3124999999999972
 40
0.3749999999999972
 40
0.3749999999999972
 40
0.4062499999999973
 40
0.4062499999999973
 40
0.4374999999999975
 40
0.4374999999999975
 40
0.4687499999999976
 40
0.4687499999999976
 40
0.4999999999999978
 40
0.4999999999999978
 40
0.5312499999999979
 40
0.5312499999999979
 40
0.562499999999998
 40
0.562499999999998
 40
0.5937499999999982
 40
0.5937499999999982
 40
0.6249999999999983
 40
0.6249999999999983
 40
0.6562499999999984
 40
0.6562499999999984
 40
0.6874999999999986
 40
0.6874999999999986
 40
0.7187499999999988
 40
0.7187499999999988
 40
0.7499999999999989
 40
0.7499999999999989
 40
0.781249999999999
 40
0.781249999999999
 40
0.8124999999999991
 40
0.8124999999999991
 40
0.8437499999999993
 40
0.8437499999999993
 40
0.8749999999999994
 40
0.8749999999999994
 40
0.9062499999999996
 40
0.9062499999999996
 40
0.9374999999999997
 40
0.9374999999999997
 40
0.9687499999999999
 40
0.9687499999999999
 40
1.0
 40
1.0
 40
1.0
 40
1.0
 10
152.3296656425077
 20
121.5653446801174
 30
0.0
 10
152.204475740929
 20
121.785791804733
 30
0.0
 10
152.0476084223609
 20
121.9795255335533
 30
0.0
 10
151.670570902542
 20
122.3152152323158
 30
0.0
 10
151.458857596121
 20
122.4491925906285
 30
0.0
 10
150.9929676141723
 20
122.6463193353136
 30
0.0
 10
150.7471283831207
 20
122.7055367475355
 30
0.0
 10
150.3676473300261
 20
122.7327434834262
 30
0.0
 10
150.2399016013322
 20
122.7312502182843
 30
0.0
 10
149.9894353546641
 20
122.7077344124754
 30
0.0
 10
149.8656059718558
 20
122.6858151936711
 30
0.0
 10
149.4983862977572
 20
122.5889786288263
 30
0.0
 10
149.2676172796715
 20
122.4851775073745
 30
0.0
 10
148.847728318252
 20
122.2064590264465
 30
0.0
 10
148.6634699433644
 20
122.0348967349427
 30
0.0
 10
148.4327215558811
 20
121.7362493736759
 30
0.0
 10
148.3636747060921
 20
121.6297818331736
 30
0.0
 10
148.2451100422866
 20
121.4094984847807
 30
0.0
 10
148.194901673537
 20
121.2948369683793
 30
0.0
 10
148.1130698211792
 20
121.0561563316025
 30
0.0
 10
148.0817189222965
 20
120.9321107047244
 30
0.0
 10
148.0403245442579
 20
120.683995668616
 30
0.0
 10
148.0298187691936
 20
120.5587579661276
 30
0.0
 10
148.0295158168578
 20
120.3058789105366
 30
0.0
 10
148.0400003464744
 20
120.1779992243
 30
0.0
 10
148.0811404239359
 20
119.9295771630945
 30
0.0
 10
148.1117185444844
 20
119.8077782363261
 30
0.0
 10
148.1930012528357
 20
119.5689987068518
 30
0.0
 10
148.2440021393977
 20
119.4519571445451
 30
0.0
 10
148.3625691877607
 20
119.2311319466192
 30
0.0
 10
148.4304579410325
 20
119.1261935830564
 30
0.0
 10
148.5836083787701
 20
118.927216249827
 30
0.0
 10
148.6691645503426
 20
118.8332081246329
 30
0.0
 10
148.8518759213018
 20
118.6627154396961
 30
0.0
 10
148.9496832209837
 20
118.5852772446468
 30
0.0
 10
149.1584863329007
 20
118.4461113487585
 30
0.0
 10
149.2700685081885
 20
118.3843295397515
 30
0.0
 10
149.4987143076875
 20
118.2812506691507
 30
0.0
 10
149.6166691186587
 20
118.2392466339551
 30
0.0
 10
149.8599975636474
 20
118.1745105126583
 30
0.0
 10
149.9863414389905
 20
118.1518372500956
 30
0.0
 10
150.2374474200083
 20
118.1279544539145
 30
0.0
 10
150.3631294137313
 20
118.1263511526478
 30
0.0
 10
150.6147514835231
 20
118.1438178914187
 30
0.0
 10
150.7416491038088
 20
118.1632537820586
 30
0.0
 10
150.98683967007
 20
118.2218469533823
 30
0.0
 10
151.1060288271035
 20
118.2609098045389
 30
0.0
 10
151.3377138514583
 20
118.3584195266627
 30
0.0
 10
151.4508886558088
 20
118.4174548809513
 30
0.0
 10
151.6629670727445
 20
118.5512585977908
 30
0.0
 10
151.7627558514453
 20
118.6262538139356
 30
0.0
 10
151.9500140384343
 20
118.7924488784564
 30
0.0
 10
152.0379090753777
 20
118.8843430771979
 30
0.0
 10
152.1961301510096
 20
119.0797072749123
 30
0.0
 10
152.2670681073012
 20
119.1835532285847
 30
0.0
 10
152.3296656425077
 20
119.2937813417973
 30
0.0
  0
LINE
  5
130
330
1F
100
AcDbEntity
  8
0
  6
HIDDEN
 62
     7
370
     0
100
AcDbLine
 10
153.7296654324
 20
126.6795631041
 30
0.0
 11
153.7296654324
 21
114.1795629178
 31
0.0
  0
LINE
  5
131
330
1F
100
AcDbEntity
  8
0
  6
HIDDEN
 62
     7
370
     0
100
AcDbLine
 10
152.8296660299
 20
113.2795630497
 30
0.0
 11
152.8296660299
 21
127.5795629722
 31
0.0
  0
LINE
  5
132
330
1F
100
AcDbEntity
  8
0
  6
HIDDEN
 62
     7
370
     0
100
AcDbLine
 10
172.8296655829
 20
126.6795631041
 30
0.0
 11
172.8296655829
 21
114.1795629178
 31
0.0
  0
LINE
  5
133
330
1F
100
AcDbEntity
  8
0
  6
HIDDEN
 62
     7
370
     0
100
AcDbLine
 10
174.6322478767
 20
123.679563078
 30
0.0
 11
174.6322478767
 21
117.1795629439
 31
0.0
  0
SPLINE
  5
134
330
1F
100
AcDbEntity
  8
0
  6
HIDDEN
 62
     7
370
     0
100
AcDbSpline
210
0.0
220
0.0
230
1.0
 70
     8
 71
     3
 72
    60
 73
    56
 74
     0
 42
0.00000001
 43
0.00000001
 12
1.0
 22
0.0
 32
0.0
 13
1.0
 23
0.0
 33
0.0
 40
-0.0624999999999994
 40
-0.0624999999999994
 40
0.0
 40
0.0
 40
0.0312500000000005
 40
0.0312500000000005
 40
0.0625000000000009
 40
0.0625000000000009
 40
0.1250000000000006
 40
0.1250000000000006
 40
0.1562500000000004
 40
0.1562500000000004
 40
0.1875000000000002
 40
0.1875000000000002
 40
0.21875
 40
0.21875
 40
0.2499999999999998
 40
0.2499999999999998
 40
0.2812499999999996
 40
0.2812499999999996
 40
0.3124999999999994
 40
0.3124999999999994
 40
0.374999999999999
 40
0.374999999999999
 40
0.4062499999999993
 40
0.4062499999999993
 40
0.4374999999999996
 40
0.4374999999999996
 40
0.4687499999999999
 40
0.4687499999999999
 40
0.5000000000000002
 40
0.5000000000000002
 40
0.5312500000000004
 40
0.5312500000000004
 40
0.5625000000000007
 40
0.5625000000000007
 40
0.593750000000001
 40
0.593750000000001
 40
0.6250000000000012
 40
0.6250000000000012
 40
0.6875000000000017
 40
0.6875000000000017
 40
0.7187500000000018
 40
0.7187500000000018
 40
0.7500000000000018
 40
0.7500000000000018
 40
0.7812500000000018
 40
0.7812500000000018
 40
0.8125000000000018
 40
0.8125000000000018
 40
0.8750000000000012
 40
0.8750000000000012
 40
0.9062500000000009
 40
0.9062500000000009
 40
0.9375000000000006
 40
0.9375000000000006
 40
1.0
 40
1.0
 40
1.03125
 40
1.03125
 10
215.1162614096819
 20
118.8414330134229
 30
0.0
 10
214.6863677589206
 20
118.8414330134229
 30
0.0
 10
214.5467139923106
 20
118.8580394009933
 30
0.0
 10
214.2738224125072
 20
118.921318981881
 30
0.0
 10
214.1397550010128
 20
118.9687261703763
 30
0.0
 10
213.7638526792379
 20
119.1465530629099
 30
0.0
 10
213.5393830707192
 20
119.3149594229429
 30
0.0
 10
213.2564042135068
 20
119.61816382027
 30
0.0
 10
213.1695437860955
 20
119.7296327448354
 30
0.0
 10
213.0183108827752
 20
119.9641720195072
 30
0.0
 10
212.9532783055798
 20
120.0875945314035
 30
0.0
 10
212.8453134829109
 20
120.3476727710613
 30
0.0
 10
212.8023923307914
 20
120.4858045915321
 30
0.0
 10
212.7453817856604
 20
120.7611171731502
 30
0.0
 10
212.7303784602584
 20
120.8998617365446
 30
0.0
 10
212.729001888565
 20
121.179588620703
 30
0.0
 10
212.7429574577395
 20
121.3174292506872
 30
0.0
 10
212.7979671335374
 20
121.5806648793402
 30
0.0
 10
212.8397512901063
 20
121.7087243274664
 30
0.0
 10
212.9998106045339
 20
122.0645363861385
 30
0.0
 10
213.1544917298775
 20
122.2701278251435
 30
0.0
 10
213.4362287614137
 20
122.5199481842325
 30
0.0
 10
213.5400921701294
 20
122.594874615723
 30
0.0
 10
213.7609383827273
 20
122.723888622239
 30
0.0
 10
213.8779439870949
 20
122.7783758830485
 30
0.0
 10
214.1273945120523
 20
122.8682291953342
 30
0.0
 10
214.2613823856354
 20
122.9036638896782
 30
0.0
 10
214.5346930874577
 20
122.9510698191299
 30
0.0
 10
214.676928161201
 20
122.9636776990805
 30
0.0
 10
214.9619529107201
 20
122.9648158389076
 30
0.0
 10
215.1021390566457
 20
122.9536433160048
 30
0.0
 10
215.3782054314105
 20
122.9082282596418
 30
0.0
 10
215.5117131447479
 20
122.8741502529044
 30
0.0
 10
215.7638012838598
 20
122.7858833579164
 30
0.0
 10
215.8842129133619
 20
122.7309713492781
 30
0.0
 10
216.1066851265698
 20
122.6032728502337
 30
0.0
 10
216.2098512902969
 20
122.5302213885811
 30
0.0
 10
216.4968025144401
 20
122.2799556353647
 30
0.0
 10
216.6500554409786
 20
122.0796579573658
 30
0.0
 10
216.8142371129347
 20
121.7232945598506
 30
0.0
 10
216.8562787329048
 20
121.5983233180498
 30
0.0
 10
216.9139713379917
 20
121.3347720666939
 30
0.0
 10
216.9291450331491
 20
121.1957350916243
 30
0.0
 10
216.9301592084318
 20
120.9184411162385
 30
0.0
 10
216.916248324829
 20
120.776986667561
 30
0.0
 10
216.8602642665239
 20
120.4975439460467
 30
0.0
 10
216.8189948091247
 20
120.3619733306039
 30
0.0
 10
216.657758627335
 20
119.9669532521235
 30
0.0
 10
216.5025720839139
 20
119.7261202081449
 30
0.0
 10
216.2184536704848
 20
119.4199319214726
 30
0.0
 10
216.1160415134694
 20
119.3277004176832
 30
0.0
 10
215.8945106026169
 20
119.1626801646876
 30
0.0
 10
215.77432581406
 20
119.0895823426615
 30
0.0
 10
215.3981300729322
 20
118.9106050590474
 30
0.0
 10
215.1162614096819
 20
118.8414330134229
 30
0.0
 10
214.6863677589206
 20
118.8414330134229
 30
0.0
  0
LINE
  5
135
330
1F
100
AcDbEntity
  8
0
  6
HIDDEN
 62
     7
370
     0
100
AcDbLine
 10
217.829667371
 20
117.1795629439
 30
0.0
 11
217.829667371
 21
123.679563078
 31
0.0
  0
ELLIPSE
  5
136
330
1F
100
AcDbEntity
  8
0
  6
HIDDEN
 62
     7
370
     0
100
AcDbEllipse
 10
246.4092729211
 20
120.429563011
 30
0.0
 11
-4.24708025276297
 21
12.99357047085398
 31
0.0
210
0.0
220
0.0
230
1.0
 40
0.0962569477
 41
6.25173312320005
 42
7.822529449994796
  0
LINE
  5
137
330
1F
100
AcDbEntity
  8
0
  6
HIDDEN
 62
     7
370
     0
100
AcDbLine
 10
226.329662245
 20
120.429563011
 30
0.0
 11
226.329662245
 21
133.4295632792
 31
0.0
  0
LINE
  5
138
330
1F
100
AcDbEntity
  8
0
  6
HIDDEN
 62
     7
370
     0
100
AcDbLine
 10
248.4427395876
 20
114.2949891751
 30
0.0
 11
241.043456238
 21
116.6222911802
 31
0.0
  0
LINE
  5
139
330
1F
100
AcDbEntity
  8
0
  6
HIDDEN
 62
     7
370
     0
100
AcDbLine
 10
241.043456238
 20
116.6222911802
 30
0.0
 11
241.0372797067
 21
116.6418361486
 31
0.0
  0
LINE
  5
13A
330
1F
100
AcDbEntity
  8
0
  6
HIDDEN
 62
     7
370
     0
100
AcDbLine
 10
237.6715842302
 20
117.2291307253
 30
0.0
 11
240.9823167737
 21
106.7544013736
 31
0.0
  0
SPLINE
  5
13B
330
1F
100
AcDbEntity
  8
0
  6
HIDDEN
 62
     7
370
     0
100
AcDbSpline
210
0.0
220
0.0
230
1.0
 70
     8
 71
     3
 72
    16
 73
    12
 74
     0
 42
0.00000001
 43
0.00000001
 12
1.0
 22
0.0
 32
0.0
 13
1.0
 23
0.0
 33
0.0
 40
0.0
 40
0.0
 40
0.0
 40
0.0
 40
0.249999999999999
 40
0.249999999999999
 40
0.3749999999999986
 40
0.3749999999999986
 40
0.4999999999999984
 40
0.4999999999999984
 40
0.7499999999999992
 40
0.7499999999999992
 40
1.0
 40
1.0
 40
1.0
 40
1.0
 10
228.557192371808
 20
109.1814367744132
 30
0.0
 10
228.3533029448004
 20
109.8573554965991
 30
0.0
 10
228.1543798032997
 20
110.5623254645006
 30
0.0
 10
227.8645334152284
 20
111.6641726133656
 30
0.0
 10
227.7693506213185
 20
112.0388825023584
 30
0.0
 10
227.5821661788543
 20
112.8036719461787
 30
0.0
 10
227.4902187910754
 20
113.1936867235626
 30
0.0
 10
227.2240490784144
 20
114.3681313942636
 30
0.0
 10
227.0578863543202
 20
115.163120479789
 30
0.0
 10
226.7504802394842
 20
116.7775179809855
 30
0.0
 10
226.6092218734895
 20
117.5969170979273
 30
0.0
 10
226.4826120804736
 20
118.4295630109574
 30
0.0
  0
SPLINE
  5
13C
330
1F
100
AcDbEntity
  8
0
  6
HIDDEN
 62
     7
370
     0
100
AcDbSpline
210
0.0
220
0.0
230
1.0
 70
     8
 71
     3
 72
    10
 73
     6
 74
     0
 42
0.00000001
 43
0.00000001
 12
1.0
 22
0.0
 32
0.0
 13
1.0
 23
0.0
 33
0.0
 40
0.0
 40
0.0
 40
0.0
 40
0.0
 40
0.5
 40
0.5
 40
1.0
 40
1.0
 40
1.0
 40
1.0
 10
226.4826120804736
 20
118.4295630109574
 30
0.0
 10
226.4326430683895
 20
118.7581828807076
 30
0.0
 10
226.3943326064161
 20
119.0893051218246
 30
0.0
 10
226.3427998081715
 20
119.7569344766897
 30
0.0
 10
226.3296656425078
 20
120.0944651796192
 30
0.0
 10
226.3296656425078
 20
120.4295630109574
 30
0.0
  0
SPLINE
  5
13D
330
1F
100
AcDbEntity
  8
0
  6
HIDDEN
 62
     7
370
     0
100
AcDbSpline
210
0.0
220
0.0
230
1.0
 70
     8
 71
     3
 72
    18
 73
    14
 74
     0
 42
0.00000001
 43
0.00000001
 12
1.0
 22
0.0
 32
0.0
 13
1.0
 23
0.0
 33
0.0
 40
0.0
 40
0.0
 40
0.0
 40
0.0
 40
0.1250000000000001
 40
0.1250000000000001
 40
0.2500000000000001
 40
0.2500000000000001
 40
0.5000000000000002
 40
0.5000000000000002
 40
0.6249999999999998
 40
0.6249999999999998
 40
0.7499999999999994
 40
0.7499999999999994
 40
1.0
 40
1.0
 40
1.0
 40
1.0
 10
226.5657408696213
 20
107.1935409896797
 30
0.0
 10
226.4824364800861
 20
107.278078862573
 30
0.0
 10
226.4199304146701
 20
107.3633162960463
 30
0.0
 10
226.3406168427567
 20
107.5353282536834
 30
0.0
 10
226.3240130450974
 20
107.6225729581785
 30
0.0
 10
226.3461667069326
 20
107.8815587521714
 30
0.0
 10
226.4557840337617
 20
108.0514295596556
 30
0.0
 10
226.7410885874255
 20
108.3026846800535
 30
0.0
 10
226.8562160293264
 20
108.3858480784458
 30
0.0
 10
227.1221165983995
 20
108.551127699764
 30
0.0
 10
227.2725231711111
 20
108.6329596382339
 30
0.0
 10
227.7624270207289
 20
108.8737703132812
 30
0.0
 10
228.1419775338425
 20
109.0292933438265
 30
0.0
 10
228.557192371808
 20
109.1814367744132
 30
0.0
  0
LINE
  5
13E
330
1F
100
AcDbEntity
  8
0
  6
HIDDEN
 62
     7
370
     0
100
AcDbLine
 10
241.043456238
 20
116.6222911802
 30
0.0
 11
240.8310476358
 21
116.5617775646
 31
0.0
  0
LINE
  5
13F
330
1F
100
AcDbEntity
  8
0
  6
HIDDEN
 62
     7
370
     0
100
AcDbLine
 10
240.7801899726
 20
116.7226977655
 30
0.0
 11
240.8310476358
 21
116.5617775646
 31
0.0
  0
LINE
  5
140
330
1F
100
AcDbEntity
  8
0
  6
HIDDEN
 62
     7
370
     0
100
AcDbLine
 10
237.9045638855
 20
117.5272889909
 30
0.0
 11
241.2099245603
 21
107.069544169
 31
0.0
  0
ELLIPSE
  5
141
330
1F
100
AcDbEntity
  8
0
  6
HIDDEN
 62
     7
370
     0
100
AcDbEllipse
 10
235.9459996885
 20
52.9679450125
 30
0.0
 11
21.39702621087631
 21
70.55389860331951
 31
0.0
210
0.0
220
0.0
230
1.0
 40
0.2093503934
 41
0.7627383773348105
 42
0.7709318511262923
  0
LINE
  5
142
330
1F
100
AcDbEntity
  8
0
  6
HIDDEN
 62
     7
370
     0
100
AcDbLine
 10
248.2303309853
 20
114.2344755595
 30
0.0
 11
240.8310476358
 21
116.5617775646
 31
0.0
  0
LINE
  5
143
330
1F
100
AcDbEntity
  8
0
  6
HIDDEN
 62
     7
370
     0
100
AcDbLine
 10
248.2303309853
 20
114.2344755595
 30
0.0
 11
248.4427395876
 21
114.2949891751
 31
0.0
  0
ARC
  5
144
330
1F
100
AcDbEntity
  8
0
  6
HIDDEN
 62
     7
370
     0
100
AcDbCircle
 10
238.8879532394
 20
118.6658879416
 30
0.0
 40
1.250166339717856
100
AcDbArc
 50
17.5654364658
 51
182.2916879066
  0
LINE
  5
145
330
1F
100
AcDbEntity
  8
0
  6
HIDDEN
 62
     7
370
     0
100
AcDbLine
 10
237.9348206933
 20
117.5361873125
 30
0.0
 11
241.1478016193
 21
107.3707366836
 31
0.0
  0
ELLIPSE
  5
146
330
1F
100
AcDbEntity
  8
0
  6
HIDDEN
 62
     7
370
     0
100
AcDbEllipse
 10
235.9459996885
 20
147.7825973827
 30
0.0
 11
-25.84177378472336
 21
129.9623072976368
 31
0.0
210
0.0
220
0.0
230
1.0
 40
0.02203747
 41
1.882604348066421
 42
1.885043715948171
  0
LINE
  5
147
330
1F
100
AcDbEntity
  8
0
  6
HIDDEN
 62
     7
370
     0
100
AcDbLine
 10
240.8310476358
 20
116.5617775646
 30
0.0
 11
240.8310476358
 21
116.6664123544
 31
0.0
  0
LINE
  5
148
330
1F
100
AcDbEntity
  8
0
  6
HIDDEN
 62
     7
370
     0
100
AcDbLine
 10
248.0159032757
 20
114.4065555659
 30
0.0
 11
248.2303309853
 21
114.2344755595
 31
0.0
  0
CIRCLE
  5
149
330
1F
100
AcDbEntity
  8
0
  6
HIDDEN
 62
     7
370
     0
100
AcDbCircle
 10
214.8235137912
 20
121.6968790961
 30
0.0
 40
2.088483782937137
  0
CIRCLE
  5
14A
330
1F
100
AcDbEntity
  8
0
  6
HIDDEN
 62
     7
370
     0
100
AcDbCircle
 10
244.6575052486
 20
110.8646146582
 30
0.0
 40
2.398460247519593
  0
LINE
  5
14B
330
1F
100
AcDbEntity
  8
0
  6
HIDDEN
 62
     7
370
     0
100
AcDbLine
 10
250.7041770632
 20
104.5068992776
 30
0.0
 11
251.0393339808
 21
104.8408082229
 31
0.0
  0
LINE
  5
14C
330
1F
100
AcDbEntity
  8
0
  6
HIDDEN
 62
     7
370
     0
100
AcDbLine
 10
250.7041770632
 20
104.5068992776
 30
0.0
 11
243.711293083
 21
106.706377725
 31
0.0
  0
LINE
  5
14D
330
1F
100
AcDbEntity
  8
0
  6
HIDDEN
 62
     7
370
     0
100
AcDbLine
 10
248.0159032757
 20
114.4065555659
 30
0.0
 11
240.8310476358
 21
116.6664123544
 31
0.0
  0
LINE
  5
14E
330
1F
100
AcDbEntity
  8
0
  6
HIDDEN
 62
     7
370
     0
100
AcDbLine
 10
240.8310476358
 20
116.6664123544
 30
0.0
 11
240.079827946
 21
119.0431816745
 31
0.0
  0
ELLIPSE
  5
14F
330
1F
100
AcDbEntity
  8
0
  6
HIDDEN
 62
     7
370
     0
100
AcDbEllipse
 10
235.9459996885
 20
81.7676237646
 30
0.0
 11
-5.684341886080801E-14
 21
26.13144513619379
 31
0.0
210
0.0
220
0.0
230
1.0
 40
0.9949698482
 41
5.979891802486658
 42
6.081756687702378
  0
LINE
  5
150
330
1F
100
AcDbEntity
  8
0
  6
HIDDEN
 62
     7
370
     0
100
AcDbLine
 10
248.0159032757
 20
114.4065555659
 30
0.0
 11
251.0393339808
 21
104.8408082229
 31
0.0
  0
CIRCLE
  5
151
330
1F
100
AcDbEntity
  8
0
  6
HIDDEN
 62
     7
370
     0
100
AcDbCircle
 10
244.6576849812
 20
110.9156305414
 30
0.0
 40
1.648985738347236
  0
SPLINE
  5
152
330
1F
100
AcDbEntity
  8
0
  6
HIDDEN
 62
     7
370
     0
100
AcDbSpline
210
0.0
220
0.0
230
1.0
 70
     8
 71
     3
 72
     8
 73
     4
 74
     0
 42
0.00000001
 43
0.00000001
 12
1.0
 22
0.0
 32
0.0
 13
1.0
 23
0.0
 33
0.0
 40
0.0
 40
0.0
 40
0.0
 40
0.0
 40
1.0
 40
1.0
 40
1.0
 40
1.0
 10
160.3346256645654
 20
106.6904784797998
 30
0.0
 10
160.385352807772
 20
106.6447241784745
 30
0.0
 10
160.4432401373329
 20
106.616220032611
 30
0.0
 10
160.5083452989481
 20
106.6044990029522
 30
0.0
  0
LINE
  5
153
330
1F
100
AcDbEntity
  8
0
  6
HIDDEN
 62
     7
370
     0
100
AcDbLine
 10
160.12966562
 20
106.509326632
 30
0.0
 11
160.12966562
 21
106.4094646377
 31
0.0
  0
SPLINE
  5
154
330
1F
100
AcDbEntity
  8
0
  6
HIDDEN
 62
     7
370
     0
100
AcDbSpline
210
0.0
220
0.0
230
1.0
 70
     8
 71
     3
 72
    24
 73
    20
 74
     0
 42
0.00000001
 43
0.00000001
 12
1.0
 22
0.0
 32
0.0
 13
1.0
 23
0.0
 33
0.0
 40
0.0
 40
0.0
 40
0.0
 40
0.0
 40
0.250000000000013
 40
0.250000000000013
 40
0.3750000000000195
 40
0.3750000000000195
 40
0.4375000000000219
 40
0.4375000000000219
 40
0.4687500000000209
 40
0.4687500000000209
 40
0.5000000000000198
 40
0.5000000000000198
 40
0.5625000000000163
 40
0.5625000000000163
 40
0.625000000000013
 40
0.625000000000013
 40
0.7500000000000084
 40
0.7500000000000084
 40
1.0
 40
1.0
 40
1.0
 40
1.0
 10
160.1296656425076
 20
106.5093266226422
 30
0.0
 10
160.130068553143
 20
106.5397508594804
 30
0.0
 10
160.1321125324834
 20
106.5726089600348
 30
0.0
 10
160.1413497753088
 20
106.6286343271887
 30
0.0
 10
160.1452368382891
 20
106.6482453803742
 30
0.0
 10
160.1561407296947
 20
106.6825196638032
 30
0.0
 10
160.160282775445
 20
106.6945820892755
 30
0.0
 10
160.1721778491952
 20
106.7169012539733
 30
0.0
 10
160.1774249135021
 20
106.7258677663322
 30
0.0
 10
160.1942919798776
 20
106.7435173308604
 30
0.0
 10
160.2021143874068
 20
106.7476616150053
 30
0.0
 10
160.2190631880314
 20
106.7541491561829
 30
0.0
 10
160.2265195392496
 20
106.7535522748112
 30
0.0
 10
160.2405794424429
 20
106.7518060108397
 30
0.0
 10
160.2467118275791
 20
106.7499753229413
 30
0.0
 10
160.264006590103
 20
106.7434089133687
 30
0.0
 10
160.2740239085122
 20
106.7375436982099
 30
0.0
 10
160.3023952427558
 20
106.7187990141793
 30
0.0
 10
160.3189306804005
 20
106.7046348660923
 30
0.0
 10
160.3346256645654
 20
106.6904784797998
 30
0.0
  0
LINE
  5
155
330
1F
100
AcDbEntity
  8
0
  6
HIDDEN
 62
     7
370
     0
100
AcDbLine
 10
160.12966562
 20
110.5106674609
 30
0.0
 11
160.12966562
 21
109.4555246187
 31
0.0
  0
LINE
  5
156
330
1F
100
AcDbEntity
  8
0
  6
HIDDEN
 62
     7
370
     0
100
AcDbLine
 10
139.3296647484
 20
110.7719518718
 30
0.0
 11
139.3296647484
 21
106.9320325282
 31
0.0
  0
SPLINE
  5
157
330
1F
100
AcDbEntity
  8
0
  6
HIDDEN
 62
     7
370
     0
100
AcDbSpline
210
0.0
220
0.0
230
1.0
 70
     8
 71
     3
 72
    16
 73
    12
 74
     0
 42
0.00000001
 43
0.00000001
 12
1.0
 22
0.0
 32
0.0
 13
1.0
 23
0.0
 33
0.0
 40
0.0
 40
0.0
 40
0.0
 40
0.0
 40
0.2499999999999999
 40
0.2499999999999999
 40
0.3750000000000002
 40
0.3750000000000002
 40
0.5000000000000006
 40
0.5000000000000006
 40
0.7500000000000002
 40
0.7500000000000002
 40
1.0
 40
1.0
 40
1.0
 40
1.0
 10
160.1296656425076
 20
109.4555250187109
 30
0.0
 10
160.0491283106081
 20
109.0665178347654
 30
0.0
 10
159.9890909665807
 20
108.7100173931398
 30
0.0
 10
159.9283532594271
 20
108.2235150079509
 30
0.0
 10
159.9130308843141
 20
108.069436067097
 30
0.0
 10
159.89244807501
 20
107.7779665086036
 30
0.0
 10
159.8872484779844
 20
107.6403966247045
 30
0.0
 10
159.8871948248046
 20
107.2621517895147
 30
0.0
 10
159.9073923682826
 20
107.0522707209626
 30
0.0
 10
159.9880704566413
 20
106.7156914220514
 30
0.0
 10
160.0491166212491
 20
106.5894069301337
 30
0.0
 10
160.1296656425077
 20
106.5093266226423
 30
0.0
  0
LINE
  5
158
330
1F
100
AcDbEntity
  8
0
  6
HIDDEN
 62
     7
370
     0
100
AcDbLine
 10
137.8296654339
 20
111.204964715
 30
0.0
 11
137.8296654339
 21
107.7980582145
 31
0.0
  0
LINE
  5
159
330
1F
100
AcDbEntity
  8
0
  6
HIDDEN
 62
     7
370
     0
100
AcDbLine
 10
160.12966562
 20
134.4496613843
 30
0.0
 11
160.12966562
 21
134.3497993899
 31
0.0
  0
LINE
  5
15A
330
1F
100
AcDbEntity
  8
0
  6
HIDDEN
 62
     7
370
     0
100
AcDbLine
 10
139.3296647484
 20
133.9270934937
 30
0.0
 11
139.3296647484
 21
130.0871741501
 31
0.0
  0
LINE
  5
15B
330
1F
100
AcDbEntity
  8
0
  6
HIDDEN
 62
     7
370
     0
100
AcDbLine
 10
160.12966562
 20
131.4036014033
 30
0.0
 11
160.12966562
 21
130.348458561
 31
0.0
  0
SPLINE
  5
15C
330
1F
100
AcDbEntity
  8
0
  6
HIDDEN
 62
     7
370
     0
100
AcDbSpline
210
0.0
220
0.0
230
1.0
 70
     8
 71
     3
 72
    16
 73
    12
 74
     0
 42
0.00000001
 43
0.00000001
 12
1.0
 22
0.0
 32
0.0
 13
1.0
 23
0.0
 33
0.0
 40
0.0
 40
0.0
 40
0.0
 40
0.0
 40
0.2499999999999992
 40
0.2499999999999992
 40
0.3749999999999992
 40
0.3749999999999992
 40
0.4999999999999992
 40
0.4999999999999992
 40
0.7499999999999997
 40
0.7499999999999997
 40
1.0
 40
1.0
 40
1.0
 40
1.0
 10
160.1296656425076
 20
134.3497993992723
 30
0.0
 10
160.0491283106083
 20
134.2697307131199
 30
0.0
 10
159.989090966581
 20
134.1458662216296
 30
0.0
 10
159.9283532594273
 20
133.8951853976975
 30
0.0
 10
159.9130308843144
 20
133.800746793388
 30
0.0
 10
159.8924480750102
 20
133.5894357257693
 30
0.0
 10
159.8872484779845
 20
133.4721462710157
 30
0.0
 10
159.8871948248045
 20
133.0941105992605
 30
0.0
 10
159.9073923682821
 20
132.8053334455164
 30
0.0
 10
159.9880704566401
 20
132.1554935823775
 30
0.0
 10
160.0491166212475
 20
131.7926646484848
 30
0.0
 10
160.1296656425056
 20
131.4036010032132
 30
0.0
  0
SPLINE
  5
15D
330
1F
100
AcDbEntity
  8
0
  6
HIDDEN
 62
     7
370
     0
100
AcDbSpline
210
0.0
220
0.0
230
1.0
 70
     8
 71
     3
 72
    24
 73
    20
 74
     0
 42
0.00000001
 43
0.00000001
 12
1.0
 22
0.0
 32
0.0
 13
1.0
 23
0.0
 33
0.0
 40
0.0
 40
0.0
 40
0.0
 40
0.0
 40
0.250000000000004
 40
0.250000000000004
 40
0.3750000000000061
 40
0.3750000000000061
 40
0.4375000000000071
 40
0.4375000000000071
 40
0.5000000000000081
 40
0.5000000000000081
 40
0.5312500000000092
 40
0.5312500000000092
 40
0.5625000000000102
 40
0.5625000000000102
 40
0.6250000000000097
 40
0.6250000000000097
 40
0.7500000000000064
 40
0.7500000000000064
 40
1.0
 40
1.0
 40
1.0
 40
1.0
 10
160.3346256645681
 20
134.1686475421174
 30
0.0
 10
160.3188590762697
 20
134.1544265711291
 30
0.0
 10
160.3022475433151
 20
134.1401962807943
 30
0.0
 10
160.2737211953571
 20
134.1213992255728
 30
0.0
 10
160.2636357615671
 20
134.1155108052315
 30
0.0
 10
160.2461529910322
 20
134.1089734104292
 30
0.0
 10
160.2399453345867
 20
134.107162196428
 30
0.0
 10
160.2256738343415
 20
134.1055563939215
 30
0.0
 10
160.2181037638384
 20
134.1050036165354
 30
0.0
 10
160.2007074344031
 20
134.1122023612483
 30
0.0
 10
160.192248161443
 20
134.117294109996
 30
0.0
 10
160.1761871968955
 20
134.1351090424751
 30
0.0
 10
160.1713539610492
 20
134.1436314573374
 30
0.0
 10
160.1599280413139
 20
134.1655278939862
 30
0.0
 10
160.1559066854315
 20
134.1772684167921
 30
0.0
 10
160.1451461904004
 20
134.2113186807455
 30
0.0
 10
160.1412718813395
 20
134.2308936697742
 30
0.0
 10
160.1320990092123
 20
134.2867419784554
 30
0.0
 10
160.1300666384976
 20
134.3195197394842
 30
0.0
 10
160.1296656425077
 20
134.3497993992721
 30
0.0
  0
LINE
  5
15E
330
1F
100
AcDbEntity
  8
0
  6
HIDDEN
 62
     7
370
     0
100
AcDbLine
 10
137.8296654339
 20
133.0610678074
 30
0.0
 11
137.8296654339
 21
129.6541613069
 31
0.0
  0
SPLINE
  5
15F
330
1F
100
AcDbEntity
  8
0
  6
HIDDEN
 62
     7
370
     0
100
AcDbSpline
210
0.0
220
0.0
230
1.0
 70
     8
 71
     3
 72
     8
 73
     4
 74
     0
 42
0.00000001
 43
0.00000001
 12
1.0
 22
0.0
 32
0.0
 13
1.0
 23
0.0
 33
0.0
 40
0.0
 40
0.0
 40
0.0
 40
0.0
 40
1.0
 40
1.0
 40
1.0
 40
1.0
 10
160.5083452989481
 20
134.2546270189625
 30
0.0
 10
160.443240137334
 20
134.2429059893039
 30
0.0
 10
160.385352807774
 20
134.2144018434412
 30
0.0
 10
160.3346256645681
 20
134.1686475421174
 30
0.0
  0
LINE
  5
160
330
1F
100
AcDbEntity
  8
0
  6
HIDDEN
 62
     7
370
     0
100
AcDbLine
 10
250.1766461546
 20
105.2182313529
 30
0.0
 11
250.7041770632
 21
104.5068992776
 31
0.0
  0
LINE
  5
161
330
1F
100
AcDbEntity
  8
0
  6
HIDDEN
 62
     7
370
     0
100
AcDbLine
 10
251.0393339808
 20
104.8408082229
 30
0.0
 11
250.3991055901
 21
105.7040976835
 31
0.0
  0
SPLINE
  5
162
330
1F
100
AcDbEntity
  8
0
  6
HIDDEN
 62
     7
370
     0
100
AcDbSpline
210
0.0
220
0.0
230
1.0
 70
     8
 71
     3
 72
    54
 73
    50
 74
     0
 42
0.00000001
 43
0.00000001
 12
1.0
 22
0.0
 32
0.0
 13
1.0
 23
0.0
 33
0.0
 40
-0.0625000000000037
 40
-0.0625000000000037
 40
0.0
 40
0.0
 40
0.0312499999999977
 40
0.0312499999999977
 40
0.0624999999999954
 40
0.0624999999999954
 40
0.1249999999999939
 40
0.1249999999999939
 40
0.1562499999999934
 40
0.1562499999999934
 40
0.1874999999999928
 40
0.1874999999999928
 40
0.2499999999999926
 40
0.2499999999999926
 40
0.3124999999999923
 40
0.3124999999999923
 40
0.374999999999992
 40
0.374999999999992
 40
0.4374999999999918
 40
0.4374999999999918
 40
0.46874999999999
 40
0.46874999999999
 40
0.4999999999999882
 40
0.4999999999999882
 40
0.5624999999999885
 40
0.5624999999999885
 40
0.5937499999999903
 40
0.5937499999999903
 40
0.6249999999999922
 40
0.6249999999999922
 40
0.6874999999999936
 40
0.6874999999999936
 40
0.7187499999999939
 40
0.7187499999999939
 40
0.7499999999999942
 40
0.7499999999999942
 40
0.7812499999999947
 40
0.7812499999999947
 40
0.812499999999995
 40
0.812499999999995
 40
0.8437499999999953
 40
0.8437499999999953
 40
0.8749999999999957
 40
0.8749999999999957
 40
0.906249999999996
 40
0.906249999999996
 40
0.9374999999999963
 40
0.9374999999999963
 40
1.0
 40
1.0
 40
1.031249999999998
 40
1.031249999999998
 10
244.8922291888094
 20
109.7048798454933
 30
0.0
 10
244.5414620630141
 20
109.7048798454933
 30
0.0
 10
244.4272383129458
 20
109.7177318445767
 30
0.0
 10
244.2037949131635
 20
109.7673789585085
 30
0.0
 10
244.0941797213268
 20
109.8047390369509
 30
0.0
 10
243.788871990065
 20
109.9455076059428
 30
0.0
 10
243.6098703192693
 20
110.079857169811
 30
0.0
 10
243.3923846834217
 20
110.3173758252692
 30
0.0
 10
243.327738319836
 20
110.4032075738242
 30
0.0
 10
243.2168084702238
 20
110.5820098253357
 30
0.0
 10
243.1698653759848
 20
110.6756649914603
 30
0.0
 10
243.0541433892794
 20
110.9695192252525
 30
0.0
 10
243.0130531029164
 20
111.174178122246
 30
0.0
 10
243.0044472967383
 20
111.5972918512537
 30
0.0
 10
243.0372244206395
 20
111.8069214880094
 30
0.0
 10
243.1827399428163
 20
112.2147773463397
 30
0.0
 10
243.2932189958778
 20
112.4052386462854
 30
0.0
 10
243.5911577495347
 20
112.7395732168072
 30
0.0
 10
243.7735656487989
 20
112.8772251099558
 30
0.0
 10
244.0882467995477
 20
113.0220884660997
 30
0.0
 10
244.196824965111
 20
113.0586820012263
 30
0.0
 10
244.421269584418
 20
113.1085780928224
 30
0.0
 10
244.5385237384194
 20
113.1216914150475
 30
0.0
 10
244.8849758095485
 20
113.1226343052949
 30
0.0
 10
245.1170768404259
 20
113.071993375396
 30
0.0
 10
245.4294907819378
 20
112.9302321356521
 30
0.0
 10
245.5295520269348
 20
112.8712625131543
 30
0.0
 10
245.7116818316583
 20
112.7369007855722
 30
0.0
 10
245.7947281003775
 20
112.6612899316402
 30
0.0
 10
246.0203885520217
 20
112.4101673608447
 30
0.0
 10
246.1326338078582
 20
112.2174760133939
 30
0.0
 10
246.2422269147574
 20
111.9121086807966
 30
0.0
 10
246.2687231138663
 20
111.8085701366608
 30
0.0
 10
246.3027683628805
 20
111.5983394855394
 30
0.0
 10
246.3101341203598
 20
111.4912769392089
 30
0.0
 10
246.305924391192
 20
111.2812409282829
 30
0.0
 10
246.2945658943668
 20
111.1773728376793
 30
0.0
 10
246.2534966960019
 20
110.9718890581921
 30
0.0
 10
246.2235733758033
 20
110.870297586788
 30
0.0
 10
246.1471267728656
 20
110.6762882787115
 30
0.0
 10
246.1004761763309
 20
110.582938556445
 30
0.0
 10
245.9894013918866
 20
110.4037086909977
 30
0.0
 10
245.9244493062142
 20
110.3175326313265
 30
0.0
 10
245.7805685257903
 20
110.1602280603985
 30
0.0
 10
245.7011867472637
 20
110.0881346643742
 30
0.0
 10
245.5258255352033
 20
109.9581734995642
 30
0.0
 10
245.4287034040625
 20
109.8999822015099
 30
0.0
 10
245.1230549222918
 20
109.7584345072294
 30
0.0
 10
244.8922291888094
 20
109.7048798454933
 30
0.0
 10
244.5414620630141
 20
109.7048798454933
 30
0.0
  0
CIRCLE
  5
163
330
1F
100
AcDbEntity
  8
0
  6
HIDDEN
 62
     7
370
     0
100
AcDbCircle
 10
214.8228598678
 20
121.7478528346
 30
0.0
 40
2.486248775233031
  0
ELLIPSE
  5
164
330
1F
100
AcDbEntity
  8
0
  6
HIDDEN
 62
     7
370
     0
100
AcDbEllipse
 10
267.7044315359
 20
118.429563011
 30
0.0
 11
17.78422892287909
 21
16.57047652107811
 31
0.0
210
0.0
220
0.0
230
1.0
 40
0.2135193148
 41
2.641948823341929
 42
2.686169862211862
  0
ELLIPSE
  5
165
330
1F
100
AcDbEntity
  8
0
  6
HIDDEN
 62
     7
370
     0
100
AcDbEllipse
 10
202.2135060726
 20
118.429563011
 30
0.0
 11
54.31434441551219
 21
-16.73983078825395
 31
0.0
210
0.0
220
0.0
230
1.0
 40
0.054548757
 41
0.5055167083903483
 42
0.7182377289169393
  0
LINE
  5
166
330
1F
100
AcDbEntity
  8
0
  6
HIDDEN
 62
     7
370
     0
100
AcDbLine
 10
235.9459999616
 20
109.1814363849
 30
0.0
 11
228.5571921284
 21
109.1814363849
 31
0.0
  0
SPLINE
  5
167
330
1F
100
AcDbEntity
  8
0
  6
HIDDEN
 62
     7
370
     0
100
AcDbSpline
210
0.0
220
0.0
230
1.0
 70
     8
 71
     3
 72
    10
 73
     6
 74
     0
 42
0.00000001
 43
0.00000001
 12
1.0
 22
0.0
 32
0.0
 13
1.0
 23
0.0
 33
0.0
 40
0.0
 40
0.0
 40
0.0
 40
0.0
 40
0.5
 40
0.5
 40
1.0
 40
1.0
 40
1.0
 40
1.0
 10
243.711289777061
 20
107.7747132711551
 30
0.0
 10
242.4974946542588
 20
108.2333920061039
 30
0.0
 10
241.2381326889837
 20
108.5831346094088
 30
0.0
 10
238.6401750024997
 20
109.0576913432019
 30
0.0
 10
237.2929477477957
 20
109.1814367744132
 30
0.0
 10
235.9459996885213
 20
109.1814367744132
 30
0.0
  0
ELLIPSE
  5
168
330
1F
100
AcDbEntity
  8
0
  6
HIDDEN
 62
     7
370
     0
100
AcDbEllipse
 10
247.4820375149
 20
118.429563011
 30
0.0
 11
-5.553874176690045
 21
16.9915921541937
 31
0.0
210
0.0
220
0.0
230
1.0
 40
0.0962569477
 41
1.539344142815211
 42
2.385226998336881
  0
LINE
  5
169
330
1F
100
AcDbEntity
  8
0
  6
HIDDEN
 62
     7
370
     0
100
AcDbLine
 10
137.8296654339
 20
129.6541613069
 30
0.0
 11
137.8296654339
 21
122.2797768665
 31
0.0
  0
LINE
  5
16A
330
1F
100
AcDbEntity
  8
0
  6
HIDDEN
 62
     7
370
     0
100
AcDbLine
 10
137.8296654339
 20
118.5793491555
 30
0.0
 11
137.8296654339
 21
111.204964715
 31
0.0
  0
SPLINE
  5
16B
330
1F
100
AcDbEntity
  8
0
  6
HIDDEN
 62
     7
370
     0
100
AcDbSpline
210
0.0
220
0.0
230
1.0
 70
     8
 71
     3
 72
    24
 73
    20
 74
     0
 42
0.00000001
 43
0.00000001
 12
1.0
 22
0.0
 32
0.0
 13
1.0
 23
0.0
 33
0.0
 40
0.0
 40
0.0
 40
0.0
 40
0.0
 40
0.249999999999999
 40
0.249999999999999
 40
0.3750000000000003
 40
0.3750000000000003
 40
0.4375000000000004
 40
0.4375000000000004
 40
0.5000000000000007
 40
0.5000000000000007
 40
0.5312500000000003
 40
0.5312500000000003
 40
0.5625
 40
0.5625
 40
0.6250000000000008
 40
0.6250000000000008
 40
0.7500000000000009
 40
0.7500000000000009
 40
1.0
 40
1.0
 40
1.0
 40
1.0
 10
160.3346256645681
 20
109.6369692841592
 30
0.0
 10
160.3188567872107
 20
109.5631105922296
 30
0.0
 10
160.3022428053607
 20
109.4893992034938
 30
0.0
 10
160.2737111393556
 20
109.3778523798718
 30
0.0
 10
160.2636237245369
 20
109.3404808067433
 30
0.0
 10
160.2461361640826
 20
109.2835813091056
 30
0.0
 10
160.2399266022993
 20
109.2644782089603
 30
0.0
 10
160.2256490486467
 20
109.2256046947248
 30
0.0
 10
160.2180775008513
 20
109.2056800352914
 30
0.0
 10
160.200659917173
 20
109.175607817264
 30
0.0
 10
160.192177420528
 20
109.163926438461
 30
0.0
 10
160.1761391086562
 20
109.1566649277123
 30
0.0
 10
160.1713185604526
 20
109.160243174722
 30
0.0
 10
160.1599093359047
 20
109.1720040299537
 30
0.0
 10
160.1558888554472
 20
109.1836696800042
 30
0.0
 10
160.1451350006269
 20
109.2202050101178
 30
0.0
 10
160.1412623193447
 20
109.2476007434414
 30
0.0
 10
160.132094169507
 20
109.3323267351973
 30
0.0
 10
160.130065664138
 20
109.3931588573694
 30
0.0
 10
160.1296656425077
 20
109.455525018711
 30
0.0
  0
SPLINE
  5
16C
330
1F
100
AcDbEntity
  8
0
  6
HIDDEN
 62
     7
370
     0
100
AcDbSpline
210
0.0
220
0.0
230
1.0
 70
     8
 71
     3
 72
    24
 73
    20
 74
     0
 42
0.00000001
 43
0.00000001
 12
1.0
 22
0.0
 32
0.0
 13
1.0
 23
0.0
 33
0.0
 40
0.0
 40
0.0
 40
0.0
 40
0.0
 40
0.2499999999999951
 40
0.2499999999999951
 40
0.3749999999999939
 40
0.3749999999999939
 40
0.4374999999999944
 40
0.4374999999999944
 40
0.4687499999999947
 40
0.4687499999999947
 40
0.499999999999995
 40
0.499999999999995
 40
0.5624999999999942
 40
0.5624999999999942
 40
0.6249999999999934
 40
0.6249999999999934
 40
0.7499999999999943
 40
0.7499999999999943
 40
1.0
 40
1.0
 40
1.0
 40
1.0
 10
160.1296656425041
 20
131.4036010032146
 30
0.0
 10
160.1300703120799
 20
131.4666918117072
 30
0.0
 10
160.1321137588943
 20
131.5278775342097
 30
0.0
 10
160.1415133241486
 20
131.6133772667114
 30
0.0
 10
160.1454642176773
 20
131.6409576501525
 30
0.0
 10
160.1566165259743
 20
131.6774117322641
 30
0.0
 10
160.1608380669009
 20
131.6892701539585
 30
0.0
 10
160.1730457884645
 20
131.6998902053338
 30
0.0
 10
160.1788365587167
 20
131.7027235725561
 30
0.0
 10
160.1957580718265
 20
131.6914089855578
 30
0.0
 10
160.2031641877763
 20
131.679628099804
 30
0.0
 10
160.2196214410195
 20
131.6495872585743
 30
0.0
 10
160.2270779589304
 20
131.6298743049612
 30
0.0
 10
160.240985888205
 20
131.5914722389012
 30
0.0
 10
160.2470778341
 20
131.5725905889897
 30
0.0
 10
160.2642721264511
 20
131.5162896784582
 30
0.0
 10
160.2742570766547
 20
131.4792136006486
 30
0.0
 10
160.3025031217535
 20
131.3685549297587
 30
0.0
 10
160.3189826587147
 20
131.2954258693502
 30
0.0
 10
160.3346256645744
 20
131.2221567377263
 30
0.0
  0
SPLINE
  5
16D
330
1F
100
AcDbEntity
  8
0
  6
HIDDEN
 62
     7
370
     0
100
AcDbSpline
210
0.0
220
0.0
230
1.0
 70
     8
 71
     3
 72
     8
 73
     4
 74
     0
 42
0.00000001
 43
0.00000001
 12
1.0
 22
0.0
 32
0.0
 13
1.0
 23
0.0
 33
0.0
 40
0.0
 40
0.0
 40
0.0
 40
0.0
 40
1.0
 40
1.0
 40
1.0
 40
1.0
 10
160.5083452989481
 20
110.3760436933506
 30
0.0
 10
160.443240137334
 20
110.121018458145
 30
0.0
 10
160.385352807774
 20
109.8745664420037
 30
0.0
 10
160.3346256645681
 20
109.6369692841591
 30
0.0
  0
SPLINE
  5
16E
330
1F
100
AcDbEntity
  8
0
  6
HIDDEN
 62
     7
370
     0
100
AcDbSpline
210
0.0
220
0.0
230
1.0
 70
     8
 71
     3
 72
     8
 73
     4
 74
     0
 42
0.00000001
 43
0.00000001
 12
1.0
 22
0.0
 32
0.0
 13
1.0
 23
0.0
 33
0.0
 40
0.0
 40
0.0
 40
0.0
 40
0.0
 40
1.0
 40
1.0
 40
1.0
 40
1.0
 10
160.3346256645743
 20
131.2221567377264
 30
0.0
 10
160.3853528077788
 20
130.9845595798908
 30
0.0
 10
160.4432401373367
 20
130.7381075637593
 30
0.0
 10
160.5083452989481
 20
130.4830823285641
 30
0.0
  0
LINE
  5
16F
330
1F
100
AcDbEntity
  8
0
  6
HIDDEN
 62
     7
370
     0
100
AcDbLine
 10
139.3296647484
 20
117.8745347084
 30
0.0
 11
139.3296647484
 21
110.7719518718
 31
0.0
  0
LINE
  5
170
330
1F
100
AcDbEntity
  8
0
  6
HIDDEN
 62
     7
370
     0
100
AcDbLine
 10
139.3296647484
 20
130.0871741501
 30
0.0
 11
139.3296647484
 21
122.9845913136
 31
0.0
  0
LINE
  5
171
330
1F
100
AcDbEntity
  8
0
  6
HIDDEN
 62
     7
370
     0
100
AcDbLine
 10
160.12966562
 20
130.348458561
 30
0.0
 11
160.12966562
 21
110.5106674609
 31
0.0
  0
LINE
  5
172
330
1F
100
AcDbEntity
  8
0
  6
HIDDEN
 62
     7
370
     0
100
AcDbLine
 10
161.6296656476
 20
128.9089300213
 30
0.0
 11
161.6296656476
 21
111.9501960007
 31
0.0
  0
SPLINE
  5
173
330
1F
100
AcDbEntity
  8
0
  6
HIDDEN
 62
     7
370
     0
100
AcDbSpline
210
0.0
220
0.0
230
1.0
 70
     8
 71
     3
 72
     8
 73
     4
 74
     0
 42
0.00000001
 43
0.00000001
 12
1.0
 22
0.0
 32
0.0
 13
1.0
 23
0.0
 33
0.0
 40
0.0000137051794235
 40
0.0000137051794235
 40
0.0000137051794235
 40
0.0000137051794235
 40
0.0027147144718019
 40
0.0027147144718019
 40
0.0027147144718019
 40
0.0027147144718019
 10
139.3296656425077
 20
117.8745347738956
 30
0.0
 10
140.2296617780025
 20
117.8615632066973
 30
0.0
 10
141.1296619565979
 20
117.8489283493852
 30
0.0
 10
142.0296656425078
 20
117.8366183311294
 30
0.0
  0
SPLINE
  5
174
330
1F
100
AcDbEntity
  8
0
  6
HIDDEN
 62
     7
370
     0
100
AcDbSpline
210
0.0
220
0.0
230
1.0
 70
     8
 71
     3
 72
     8
 73
     4
 74
     0
 42
0.00000001
 43
0.00000001
 12
1.0
 22
0.0
 32
0.0
 13
1.0
 23
0.0
 33
0.0
 40
0.0000137050638847
 40
0.0000137050638847
 40
0.0000137050638847
 40
0.0000137050638847
 40
0.0027147143562632
 40
0.0027147143562632
 40
0.0027147143562632
 40
0.0027147143562632
 10
142.0296656425078
 20
123.0225076907853
 30
0.0
 10
141.1296619565979
 20
123.0101976725295
 30
0.0
 10
140.2296617780025
 20
122.9975628152175
 30
0.0
 10
139.3296656425077
 20
122.9845912480191
 30
0.0
  0
SPLINE
  5
175
330
1F
100
AcDbEntity
  8
0
  6
HIDDEN
 62
     7
370
     0
100
AcDbSpline
210
0.0
220
0.0
230
1.0
 70
     8
 71
     3
 72
    10
 73
     6
 74
     0
 42
0.00000001
 43
0.00000001
 12
1.0
 22
0.0
 32
0.0
 13
1.0
 23
0.0
 33
0.0
 40
0.0
 40
0.0
 40
0.0
 40
0.0
 40
0.5
 40
0.5
 40
1.0
 40
1.0
 40
1.0
 40
1.0
 10
137.8296656425069
 20
118.5793491973073
 30
0.0
 10
138.0668076032227
 20
118.4237343827784
 30
0.0
 10
138.3121503619862
 20
118.2918253533591
 30
0.0
 10
138.8134139507192
 20
118.0601684767216
 30
0.0
 10
139.0694485199695
 20
117.9607228605988
 30
0.0
 10
139.3296656425077
 20
117.8745347738956
 30
0.0
  0
SPLINE
  5
176
330
1F
100
AcDbEntity
  8
0
  6
HIDDEN
 62
     7
370
     0
100
AcDbSpline
210
0.0
220
0.0
230
1.0
 70
     8
 71
     3
 72
    10
 73
     6
 74
     0
 42
0.00000001
 43
0.00000001
 12
1.0
 22
0.0
 32
0.0
 13
1.0
 23
0.0
 33
0.0
 40
0.0
 40
0.0
 40
0.0
 40
0.0
 40
0.5
 40
0.5
 40
1.0
 40
1.0
 40
1.0
 40
1.0
 10
139.3296656425077
 20
122.9845912480191
 30
0.0
 10
139.0694485199697
 20
122.8984031613161
 30
0.0
 10
138.8134139507195
 20
122.7989575451933
 30
0.0
 10
138.3121503619868
 20
122.5673006685559
 30
0.0
 10
138.0668076032235
 20
122.4353916391368
 30
0.0
 10
137.8296656425078
 20
122.279776824608
 30
0.0
  0
LINE
  5
177
330
1F
100
AcDbEntity
  8
0
  6
HIDDEN
 62
     7
370
     0
100
AcDbLine
 10
137.8296654339
 20
118.5793491555
 30
0.0
 11
137.8296654339
 21
122.2797768665
 31
0.0
  0
LINE
  5
178
330
1F
100
AcDbEntity
  8
0
  6
HIDDEN
 62
     7
370
     0
100
AcDbLine
 10
142.0296657498
 20
117.836618238
 30
0.0
 11
142.0296657498
 21
123.0225077839
 31
0.0
  0
SPLINE
  5
179
330
1F
100
AcDbEntity
  8
0
  6
HIDDEN
 62
     7
370
     0
100
AcDbSpline
210
0.0
220
0.0
230
1.0
 70
     8
 71
     3
 72
    22
 73
    18
 74
     0
 42
0.00000001
 43
0.00000001
 12
1.0
 22
0.0
 32
0.0
 13
1.0
 23
0.0
 33
0.0
 40
0.0
 40
0.0
 40
0.0
 40
0.0
 40
0.125
 40
0.125
 40
0.25
 40
0.25
 40
0.375
 40
0.375
 40
0.5
 40
0.5
 40
0.625
 40
0.625
 40
0.75
 40
0.75
 40
0.875
 40
0.875
 40
1.0
 40
1.0
 40
1.0
 40
1.0
 10
142.0296656425078
 20
117.8366183311294
 30
0.0
 10
142.2106020005839
 20
118.028238190436
 30
0.0
 10
142.3896974493608
 20
118.2218800548231
 30
0.0
 10
142.7405374378728
 20
118.6165353082074
 30
0.0
 10
142.9127305457775
 20
118.8175468388749
 30
0.0
 10
143.2384620513967
 20
119.2337579541087
 30
0.0
 10
143.3945382865651
 20
119.4497737943954
 30
0.0
 10
143.6459175004541
 20
119.9150965575602
 30
0.0
 10
143.7397826307729
 20
120.170635750583
 30
0.0
 10
143.7360547139108
 20
120.7049663856836
 30
0.0
 10
143.6386820714234
 20
120.9603872516843
 30
0.0
 10
143.3868612624295
 20
121.420415967632
 30
0.0
 10
143.231892006957
 20
121.6342529685606
 30
0.0
 10
142.9070792492317
 20
122.0482915512543
 30
0.0
 10
142.7361861851038
 20
122.2475840232902
 30
0.0
 10
142.3875519455762
 20
122.6395589157243
 30
0.0
 10
142.2095440950477
 20
122.8320082017137
 30
0.0
 10
142.0296656425078
 20
123.0225076907853
 30
0.0
  0
SPLINE
  5
17A
330
1F
100
AcDbEntity
  8
0
  6
HIDDEN
 62
     7
370
     0
100
AcDbSpline
210
0.0
220
0.0
230
1.0
 70
     8
 71
     3
 72
    62
 73
    58
 74
     0
 42
0.00000001
 43
0.00000001
 12
1.0
 22
0.0
 32
0.0
 13
1.0
 23
0.0
 33
0.0
 40
-0.0312500000000001
 40
-0.0312500000000001
 40
0.0
 40
0.0
 40
0.0312499999999999
 40
0.0312499999999999
 40
0.0624999999999998
 40
0.0624999999999998
 40
0.0937499999999997
 40
0.0937499999999997
 40
0.1249999999999996
 40
0.1249999999999996
 40
0.1874999999999995
 40
0.1874999999999995
 40
0.2499999999999993
 40
0.2499999999999993
 40
0.2812499999999992
 40
0.2812499999999992
 40
0.3124999999999991
 40
0.3124999999999991
 40
0.343749999999999
 40
0.343749999999999
 40
0.3749999999999989
 40
0.3749999999999989
 40
0.4374999999999987
 40
0.4374999999999987
 40
0.4687499999999986
 40
0.4687499999999986
 40
0.4999999999999984
 40
0.4999999999999984
 40
0.5624999999999984
 40
0.5624999999999984
 40
0.5937499999999986
 40
0.5937499999999986
 40
0.6249999999999987
 40
0.6249999999999987
 40
0.6562499999999988
 40
0.6562499999999988
 40
0.6874999999999989
 40
0.6874999999999989
 40
0.718749999999999
 40
0.718749999999999
 40
0.7499999999999991
 40
0.7499999999999991
 40
0.7812499999999992
 40
0.7812499999999992
 40
0.8124999999999993
 40
0.8124999999999993
 40
0.8437499999999994
 40
0.8437499999999994
 40
0.8749999999999996
 40
0.8749999999999996
 40
0.9062499999999997
 40
0.9062499999999997
 40
0.9374999999999998
 40
0.9374999999999998
 40
0.9687499999999999
 40
0.9687499999999999
 40
1.0
 40
1.0
 40
1.03125
 40
1.03125
 10
148.283437770436
 20
121.9175420496137
 30
0.0
 10
148.5109381170243
 20
122.1668885914744
 30
0.0
 10
148.6354006459417
 20
122.2784862689312
 30
0.0
 10
148.9044949120935
 20
122.4771370647496
 30
0.0
 10
149.0503080036828
 20
122.5644773095384
 30
0.0
 10
149.3514748819722
 20
122.7086730621806
 30
0.0
 10
149.5078106090366
 20
122.7664927326948
 30
0.0
 10
149.831933908371
 20
122.8537463447458
 30
0.0
 10
149.9985991200815
 20
122.8825483942276
 30
0.0
 10
150.4966153867134
 20
122.9233276994955
 30
0.0
 10
150.8372863355063
 20
122.8898844393543
 30
0.0
 10
151.4762972509278
 20
122.7074317948955
 30
0.0
 10
151.7827518579916
 20
122.5560072345827
 30
0.0
 10
152.179307767254
 20
122.2555093289984
 30
0.0
 10
152.3036569581035
 20
122.141248143803
 30
0.0
 10
152.5261210521527
 20
121.8915882732305
 30
0.0
 10
152.62368639063
 20
121.7574216652314
 30
0.0
 10
152.7909419942687
 20
121.4699525707326
 30
0.0
 10
152.8610276497878
 20
121.3146857208328
 30
0.0
 10
152.9650830105094
 20
120.9977063007457
 30
0.0
 10
153.0000587731768
 20
120.8350535492413
 30
0.0
 10
153.0519232927009
 20
120.3341165290387
 30
0.0
 10
153.0126171849294
 20
119.9939619277284
 30
0.0
 10
152.8498973924686
 20
119.5174672956313
 30
0.0
 10
152.7796168945823
 20
119.3663999358039
 30
0.0
 10
152.6082837494523
 20
119.079105365363
 30
0.0
 10
152.5068915082706
 20
118.9432475870656
 30
0.0
 10
152.1702919210475
 20
118.5744391920674
 30
0.0
 10
151.8950591548828
 20
118.3720140827363
 30
0.0
 10
151.4452759275369
 20
118.1549373561275
 30
0.0
 10
151.2864761290332
 20
118.0956350840533
 30
0.0
 10
150.9639144081536
 20
118.0076625662528
 30
0.0
 10
150.8000552961864
 20
117.9785428024065
 30
0.0
 10
150.4672225228325
 20
117.9496861872963
 30
0.0
 10
150.2971702313916
 20
117.9503097105103
 30
0.0
 10
149.9648945673719
 20
117.9815661543147
 30
0.0
 10
149.8011799556232
 20
118.0118848493666
 30
0.0
 10
149.4787144700489
 20
118.1026018883695
 30
0.0
 10
149.3202033715224
 20
118.1633707970713
 30
0.0
 10
149.0216496653244
 20
118.3108814718683
 30
0.0
 10
148.8798235361224
 20
118.3980164997322
 30
0.0
 10
148.6119017975641
 20
118.6006019663042
 30
0.0
 10
148.4878083671716
 20
118.7149401329464
 30
0.0
 10
148.2666741792534
 20
118.9631265708992
 30
0.0
 10
148.1682171771547
 20
119.098159187753
 30
0.0
 10
147.9988586634197
 20
119.3901635858077
 30
0.0
 10
147.9306918257138
 20
119.5422993322433
 30
0.0
 10
147.8269578593874
 20
119.8587082806833
 30
0.0
 10
147.7912892975182
 20
120.0252047500375
 30
0.0
 10
147.7570755328657
 20
120.358466626148
 30
0.0
 10
147.7579339356948
 20
120.5251290799699
 30
0.0
 10
147.7957307156443
 20
120.8585172791875
 30
0.0
 10
147.8330734710984
 20
121.024272851667
 30
0.0
 10
147.9403230541668
 20
121.3401641681297
 30
0.0
 10
148.011084270706
 20
121.4934435012018
 30
0.0
 10
148.1832074208066
 20
121.7828205436883
 30
0.0
 10
148.283437770436
 20
121.9175420496137
 30
0.0
 10
148.5109381170243
 20
122.1668885914744
 30
0.0
  0
CIRCLE
  5
17B
330
1F
100
AcDbEntity
  8
0
  6
HIDDEN
 62
     7
370
     0
100
AcDbCircle
 10
150.3296656425
 20
120.429563011
 30
0.0
 40
2.300000000000011
  0
LINE
  5
17C
330
1F
100
AcDbEntity
  8
0
  6
HIDDEN
 62
     7
370
     0
100
AcDbLine
 10
245.6726360734
 20
118.429562916
 30
0.0
 11
245.0256127532
 21
120.429563011
 31
0.0
  0
CIRCLE
  5
17D
330
1F
100
AcDbEntity
  8
0
  6
HIDDEN
 62
     7
370
     0
100
AcDbCircle
 10
173.8296656425
 20
120.429563011
 30
0.0
 40
2.0
  0
LINE
  5
17E
330
1F
100
AcDbEntity
  8
0
  6
HIDDEN
 62
     7
370
     0
100
AcDbLine
 10
161.8296656425
 20
104.6295637739
 30
0.0
 11
161.9225588629
 21
104.7224557501
 31
0.0
  0
LINE
  5
17F
330
1F
100
AcDbEntity
  8
0
  6
HIDDEN
 62
     7
370
     0
100
AcDbLine
 10
161.9225588629
 20
136.1366702718
 30
0.0
 11
161.8296656425
 21
136.229562248
 31
0.0
  0
ARC
  5
180
330
1F
100
AcDbEntity
  8
0
  6
HIDDEN
 62
     7
370
     0
100
AcDbCircle
 10
161.2154520801
 20
105.429563011
 30
0.0
 40
1.000000000000008
100
AcDbArc
 50
315.0
 51
0.0
  0
ARC
  5
181
330
1F
100
AcDbEntity
  8
0
  6
HIDDEN
 62
     7
370
     0
100
AcDbCircle
 10
161.2154520801
 20
105.429563011
 30
0.0
 40
1.0
100
AcDbArc
 50
0.0
 51
52.1052014664
  0
ARC
  5
182
330
1F
100
AcDbEntity
  8
0
  6
HIDDEN
 62
     7
370
     0
100
AcDbCircle
 10
161.2154520801
 20
135.429563011
 30
0.0
 40
1.000000000000008
100
AcDbArc
 50
351.8087250651
 51
45.0
  0
ARC
  5
183
330
1F
100
AcDbEntity
  8
0
  6
HIDDEN
 62
     7
370
     0
100
AcDbCircle
 10
161.2154520801
 20
135.429563011
 30
0.0
 40
1.000000000000006
100
AcDbArc
 50
307.8947985336
 51
351.8087250651
  0
LINE
  5
184
330
1F
100
AcDbEntity
  8
0
  6
HIDDEN
 62
     7
370
     0
100
AcDbLine
 10
162.2154520783
 20
105.4295633462
 30
0.0
 11
162.2154520783
 21
135.4295626757
 31
0.0
  0
LINE
  5
185
330
1F
100
AcDbEntity
  8
0
  6
HIDDEN
 62
     7
370
     0
100
AcDbLine
 10
162.2154520783
 20
105.4295633462
 30
0.0
 11
162.2154520783
 21
135.4295626757
 31
0.0
  0
LINE
  5
186
330
1F
100
AcDbEntity
  8
0
  6
HIDDEN
 62
     7
370
     0
100
AcDbLine
 10
137.8296654339
 20
110.2739122239
 30
0.0
 11
138.8566981669
 21
110.8668694747
 31
0.0
  0
LINE
  5
187
330
1F
100
AcDbEntity
  8
0
  6
HIDDEN
 62
     7
370
     0
100
AcDbLine
 10
138.8566981669
 20
129.9922565472
 30
0.0
 11
137.8296654339
 21
130.585213798
 31
0.0
  0
ARC
  5
188
330
1F
100
AcDbEntity
  8
0
  6
HIDDEN
 62
     7
370
     0
100
AcDbCircle
 10
143.3296656425
 20
111.429563011
 30
0.0
 40
1.000000000000014
100
AcDbArc
 50
193.3524261238
 51
270.0
  0
ARC
  5
189
330
1F
100
AcDbEntity
  8
0
  6
HIDDEN
 62
     7
370
     0
100
AcDbCircle
 10
143.3296656425
 20
129.429563011
 30
0.0
 40
1.000000000000004
100
AcDbArc
 50
90.0
 51
166.6475738762
  0
LINE
  5
18A
330
1F
100
AcDbEntity
  8
0
  6
HIDDEN
 62
     7
370
     0
100
AcDbLine
 10
143.3296654041
 20
110.4295632345
 30
0.0
 11
144.3424842919
 21
110.4295632345
 31
0.0
  0
LINE
  5
18B
330
1F
100
AcDbEntity
  8
0
  6
HIDDEN
 62
     7
370
     0
100
AcDbLine
 10
144.3424842919
 20
130.4295627874
 30
0.0
 11
143.3296654041
 21
130.4295627874
 31
0.0
  0
ARC
  5
18C
330
1F
100
AcDbEntity
  8
0
  6
HIDDEN
 62
     7
370
     0
100
AcDbCircle
 10
144.3424841122
 20
111.429563011
 30
0.0
 40
1.000000000000008
100
AcDbArc
 50
270.0
 51
315.0
  0
ARC
  5
18D
330
1F
100
AcDbEntity
  8
0
  6
HIDDEN
 62
     7
370
     0
100
AcDbCircle
 10
144.3424841122
 20
129.429563011
 30
0.0
 40
1.000000000000008
100
AcDbArc
 50
45.0
 51
90.0
  0
LINE
  5
18E
330
1F
100
AcDbEntity
  8
0
  6
HIDDEN
 62
     7
370
     0
100
AcDbLine
 10
216.9296670373
 20
119.3923587221
 30
0.0
 11
216.9296670373
 21
119.8103907759
 31
0.0
  0
LINE
  5
18F
330
1F
100
AcDbEntity
  8
0
  6
HIDDEN
 62
     7
370
     0
100
AcDbLine
 10
216.9296670373
 20
118.6168774971
 30
0.0
 11
216.9296670373
 21
118.6563525357
 31
0.0
  0
LINE
  5
190
330
1F
100
AcDbEntity
  8
0
  6
HIDDEN
 62
     7
370
     0
100
AcDbLine
 10
212.7296667214
 20
119.8123214658
 30
0.0
 11
212.7296667214
 21
118.6168774971
 31
0.0
  0
LINE
  5
191
330
1F
100
AcDbEntity
  8
0
  6
HIDDEN
 62
     7
370
     0
100
AcDbLine
 10
145.0495909567
 20
110.7224558023
 30
0.0
 11
145.7566976215
 21
111.4295633984
 31
0.0
  0
LINE
  5
192
330
1F
100
AcDbEntity
  8
0
  6
HIDDEN
 62
     7
370
     0
100
AcDbLine
 10
145.7566976215
 20
129.4295626235
 30
0.0
 11
145.0495909567
 21
130.1366702196
 31
0.0
  0
LINE
  5
193
330
1F
100
AcDbEntity
  8
0
  6
HIDDEN
 62
     7
370
     0
100
AcDbLine
 10
138.8566981669
 20
110.8668694747
 30
0.0
 11
140.9566983248
 21
111.4295633984
 31
0.0
  0
LINE
  5
194
330
1F
100
AcDbEntity
  8
0
  6
HIDDEN
 62
     7
370
     0
100
AcDbLine
 10
140.9566983248
 20
129.4295626235
 30
0.0
 11
138.8566981669
 21
129.9922565472
 31
0.0
  0
LINE
  5
195
330
1F
100
AcDbEntity
  8
0
  6
HIDDEN
 62
     7
370
     0
100
AcDbLine
 10
222.3604697402
 20
118.0839207032
 30
0.0
 11
215.8113423402
 21
120.9154564954
 31
0.0
  0
LINE
  5
196
330
1F
100
AcDbEntity
  8
0
  6
HIDDEN
 62
     7
370
     0
100
AcDbLine
 10
214.5347896631
 20
116.8916336269
 30
0.0
 11
222.352460366
 21
113.5116407191
 31
0.0
  0
LINE
  5
197
330
1F
100
AcDbEntity
  8
0
  6
HIDDEN
 62
     7
370
     0
100
AcDbLine
 10
142.3566978092
 20
129.6605026824
 30
0.0
 11
141.9566984887
 21
129.4295626235
 31
0.0
  0
LINE
  5
198
330
1F
100
AcDbEntity
  8
0
  6
HIDDEN
 62
     7
370
     0
100
AcDbLine
 10
141.9566984887
 20
111.4295633984
 30
0.0
 11
142.3566978092
 21
111.1986233396
 31
0.0
  0
ARC
  5
199
330
1F
100
AcDbEntity
  8
0
  6
HIDDEN
 62
     7
370
     0
100
AcDbCircle
 10
152.3296656425
 20
111.929563011
 30
0.0
 40
0.5000000000000142
100
AcDbArc
 50
270.0
 51
360.0
  0
ARC
  5
19A
330
1F
100
AcDbEntity
  8
0
  6
HIDDEN
 62
     7
370
     0
100
AcDbCircle
 10
152.3296656425
 20
128.929563011
 30
0.0
 40
0.5
100
AcDbArc
 50
0.0
 51
90.0
  0
LINE
  5
19B
330
1F
100
AcDbEntity
  8
0
  6
HIDDEN
 62
     7
370
     0
100
AcDbLine
 10
140.9566983248
 20
111.4295633984
 30
0.0
 11
141.9566984887
 21
111.4295633984
 31
0.0
  0
LINE
  5
19C
330
1F
100
AcDbEntity
  8
0
  6
HIDDEN
 62
     7
370
     0
100
AcDbLine
 10
141.9566984887
 20
129.4295626235
 30
0.0
 11
140.9566983248
 21
129.4295626235
 31
0.0
  0
LINE
  5
19D
330
1F
100
AcDbEntity
  8
0
  6
HIDDEN
 62
     7
370
     0
100
AcDbLine
 10
145.7566976215
 20
111.4295633984
 30
0.0
 11
152.329665948
 21
111.4295633984
 31
0.0
  0
LINE
  5
19E
330
1F
100
AcDbEntity
  8
0
  6
HIDDEN
 62
     7
370
     0
100
AcDbLine
 10
152.329665948
 20
129.4295626235
 30
0.0
 11
145.7566976215
 21
129.4295626235
 31
0.0
  0
LINE
  5
19F
330
1F
100
AcDbEntity
  8
0
  6
HIDDEN
 62
     7
370
     0
100
AcDbLine
 10
152.8296660299
 20
113.2795630497
 30
0.0
 11
153.7296654324
 21
114.1795629178
 31
0.0
  0
LINE
  5
1A0
330
1F
100
AcDbEntity
  8
0
  6
HIDDEN
 62
     7
370
     0
100
AcDbLine
 10
153.7296654324
 20
126.6795631041
 30
0.0
 11
152.8296660299
 21
127.5795629722
 31
0.0
  0
LINE
  5
1A1
330
1F
100
AcDbEntity
  8
0
  6
HIDDEN
 62
     7
370
     0
100
AcDbLine
 10
172.8296655829
 20
114.1795629178
 30
0.0
 11
174.6322478767
 21
117.1795629439
 31
0.0
  0
LINE
  5
1A2
330
1F
100
AcDbEntity
  8
0
  6
HIDDEN
 62
     7
370
     0
100
AcDbLine
 10
174.6322478767
 20
123.679563078
 30
0.0
 11
172.8296655829
 21
126.6795631041
 31
0.0
  0
LINE
  5
1A3
330
1F
100
AcDbEntity
  8
0
  6
HIDDEN
 62
     7
370
     0
100
AcDbLine
 10
153.7296654324
 20
114.1795629178
 30
0.0
 11
172.8296655829
 21
114.1795629178
 31
0.0
  0
LINE
  5
1A4
330
1F
100
AcDbEntity
  8
0
  6
HIDDEN
 62
     7
370
     0
100
AcDbLine
 10
172.8296655829
 20
126.6795631041
 30
0.0
 11
153.7296654324
 21
126.6795631041
 31
0.0
  0
LINE
  5
1A5
330
1F
100
AcDbEntity
  8
0
  6
HIDDEN
 62
     7
370
     0
100
AcDbLine
 10
217.829667371
 20
123.679563078
 30
0.0
 11
174.6322478767
 21
123.679563078
 31
0.0
  0
LINE
  5
1A6
330
1F
100
AcDbEntity
  8
0
  6
HIDDEN
 62
     7
370
     0
100
AcDbLine
 10
174.6322478767
 20
117.1795629439
 30
0.0
 11
217.829667371
 21
117.1795629439
 31
0.0
  0
LINE
  5
1A7
330
1F
100
AcDbEntity
  8
0
  6
HIDDEN
 62
     7
370
     0
100
AcDbLine
 10
217.829667371
 20
117.1795629439
 30
0.0
 11
219.7824608202
 21
120.429563011
 31
0.0
  0
LINE
  5
1A8
330
1F
100
AcDbEntity
  8
0
  6
HIDDEN
 62
     7
370
     0
100
AcDbLine
 10
219.7824608202
 20
120.429563011
 30
0.0
 11
217.829667371
 21
123.679563078
 31
0.0
  0
ARC
  5
1A9
330
1F
100
AcDbEntity
  8
0
  6
HIDDEN
 62
     7
370
     0
100
AcDbCircle
 10
225.4154520801
 20
106.929563011
 30
0.0
 40
1.000000000000014
100
AcDbArc
 50
64.6825126226
 51
90.0
  0
LINE
  5
1AA
330
1F
100
AcDbEntity
  8
0
  6
HIDDEN
 62
     7
370
     0
100
AcDbLine
 10
237.6376840885
 20
118.6682151406
 30
0.0
 11
237.6376840885
 21
118.5635803509
 31
0.0
  0
LINE
  5
1AB
330
1F
100
AcDbEntity
  8
0
  6
HIDDEN
 62
     7
370
     0
100
AcDbLine
 10
216.9296670373
 20
121.0468045561
 30
0.0
 11
216.9296670373
 21
121.6698214653
 31
0.0
  0
LINE
  5
1AC
330
1F
100
AcDbEntity
  8
0
  6
HIDDEN
 62
     7
370
     0
100
AcDbLine
 10
212.7296667214
 20
121.6698214653
 30
0.0
 11
212.7296667214
 21
121.048735246
 31
0.0
  0
LINE
  5
1AD
330
1F
100
AcDbEntity
  8
0
  6
HIDDEN
 62
     7
370
     0
100
AcDbLine
 10
246.3083866651
 20
110.9126262841
 30
0.0
 11
246.3083866651
 21
111.421573582
 31
0.0
  0
LINE
  5
1AE
330
1F
100
AcDbEntity
  8
0
  6
HIDDEN
 62
     7
370
     0
100
AcDbLine
 10
243.0083829577
 20
111.4216769588
 30
0.0
 11
243.0083829577
 21
110.9126262841
 31
0.0
  0
LINE
  5
1AF
330
1F
100
AcDbEntity
  8
0
  6
HIDDEN
 62
     7
370
     0
100
AcDbLine
 10
217.3296663578
 20
121.7156813023
 30
0.0
 11
217.3296663578
 21
122.8135262159
 31
0.0
  0
LINE
  5
1B0
330
1F
100
AcDbEntity
  8
0
  6
HIDDEN
 62
     7
370
     0
100
AcDbLine
 10
212.3296674008
 20
122.81438117
 30
0.0
 11
212.3296674008
 21
121.7156813023
 31
0.0
  0
LINE
  5
1B1
330
1F
100
AcDbEntity
  8
VERMASSUNG
  6
CENTERX2
100
AcDbLine
 10
251.8296656425
 20
103.429563011
 30
0.0
 11
251.8296656425
 21
120.429563011
 31
0.0
  0
LINE
  5
1B2
330
1F
100
AcDbEntity
  8
VERMASSUNG
  6
CENTERX2
100
AcDbLine
 10
251.8296656425
 20
103.429563011
 30
0.0
 11
263.1993578798
 21
103.429563011
 31
0.0
  0
LINE
  5
1B3
330
1F
100
AcDbEntity
  8
VERMASSUNG
  6
CENTERX2
100
AcDbLine
 10
134.8776982341
 20
120.429563011
 30
0.0
 11
251.8296656425
 21
120.429563011
 31
0.0
  0
DIMENSION
  5
1B4
330
1F
100
AcDbEntity
  8
VERMASSUNG
100
AcDbDimension
  2
_D
 10
251.8137659093
 20
103.9403092202
 30
0.0
 11
258.9347841953
 21
112.9282140218
 31
0.0
 70
   162
  1
<>
 71
     1
 42
-1.0
  3
SLDDIMSTYLE0
100
AcDb2LineAngularDimension
 13
263.1993578798
 23
103.429563011
 33
0.0
 14
251.8296656425
 24
103.429563011
 34
0.0
 15
248.6077890738
 25
114.0835998065
 35
0.0
 16
258.9347841953
 26
112.9282140218
 36
0.0
  0
DIMENSION
  5
1BF
330
1F
100
AcDbEntity
  8
VERMASSUNG
100
AcDbDimension
  2
_D_1
 10
270.6362520643
 20
120.429563011
 30
0.0
 11
270.6362520643
 21
111.929563011
 31
0.0
 70
   160
  1
<>
 71
     2
 42
-1.0
  3
SLDDIMSTYLE1
100
AcDbAlignedDimension
 13
251.8296656425
 23
103.429563011
 33
0.0
 14
251.8296656425
 24
120.429563011
 34
0.0
 50
90.0
100
AcDbRotatedDimension
  0
DIMENSION
  5
1CA
330
1F
100
AcDbEntity
  8
VERMASSUNG
100
AcDbDimension
  2
_D_2
 10
251.8296656425
 20
90.429563011
 30
0.0
 11
206.8296656425
 21
90.429563011
 31
0.0
 70
   160
  1
<>
 71
     2
 42
-1.0
  3
SLDDIMSTYLE1
100
AcDbAlignedDimension
 13
161.8296656425
 23
100.729563011
 33
0.0
 14
251.8296656425
 24
103.429563011
 34
0.0
100
AcDbRotatedDimension
  0
DIMENSION
  5
1D4
330
1F
100
AcDbEntity
  8
VERMASSUNG
100
AcDbDimension
  2
_D_3
 10
251.8296656425
 20
82.8462456713
 30
0.0
 11
194.8296656425
 21
82.8462456713
 31
0.0
 70
   160
  1
<>
 71
     2
 42
-1.0
  3
SLDDIMSTYLE1
100
AcDbAlignedDimension
 13
137.8296656425
 23
107.7980580289
 33
0.0
 14
251.8296656425
 24
103.429563011
 34
0.0
100
AcDbRotatedDimension
  0
DIMENSION
  5
1DE
330
1F
100
AcDbEntity
  8
VERMASSUNG
100
AcDbDimension
  2
_D_4
 10
130.8880252172
 20
140.429563011
 30
0.0
 11
130.8880252172
 21
120.429563011
 31
0.0
 70
   160
  1
PSC%%c<>
 71
     2
 42
-1.0
  3
SLDDIMSTYLE1
100
AcDbAlignedDimension
 13
162.1296656425
 23
100.429563011
 33
0.0
 14
162.1296656425
 24
140.429563011
 34
0.0
 50
90.0
100
AcDbRotatedDimension
  0
DIMENSION
  5
1EA
330
1F
100
AcDbEntity
  8
VERMASSUNG
100
AcDbDimension
  2
_D_5
 10
196.6636808159
 20
107.929563011
 30
0.0
 11
196.6636808159
 21
112.9282140218
 31
0.0
 70
   160
  1
%%c<>
 71
     2
 42
-1.0
  3
SLDDIMSTYLE1
100
AcDbAlignedDimension
 13
183.8296656425
 23
132.929563011
 33
0.0
 14
183.8296656425
 24
107.929563011
 34
0.0
 50
90.0
100
AcDbRotatedDimension
  0
SPLINE
  5
1F3
330
1F
100
AcDbEntity
  8
0
  6
Continuous
 62
     7
370
    15
100
AcDbSpline
210
0.0
220
0.0
230
1.0
 70
     8
 71
     3
 72
    10
 73
     6
 74
     0
 42
0.00000001
 43
0.00000001
 12
1.0
 22
0.0
 32
0.0
 13
1.0
 23
0.0
 33
0.0
 40
0.0
 40
0.0
 40
0.0
 40
0.0
 40
0.3326244556838674
 40
0.6678450967289952
 40
1.0
 40
1.0
 40
1.0
 40
1.0
 10
79.30696590862941
 20
103.4155810725953
 30
0.0
 10
79.74795733661738
 20
103.5190852739108
 30
0.0
 10
80.63338219894678
 20
103.7269015428539
 30
0.0
 10
81.98336474044336
 20
103.9802040617903
 30
0.0
 10
82.86506991194757
 20
104.1935507199827
 30
0.0
 10
83.30389734344213
 20
104.2997340214516
 30
0.0
  0
LINE
  5
1F4
330
1F
100
AcDbEntity
  8
0
  6
Continuous
 62
     7
370
    15
100
AcDbLine
 10
78.6685131535
 20
117.5342164011
 30
0.0
 11
78.3176442421
 21
117.5635383939
 31
0.0
  0
LINE
  5
1F5
330
1F
100
AcDbEntity
  8
0
  6
Continuous
 62
     7
370
    15
100
AcDbLine
 10
82.5661822966
 20
114.4065555659
 30
0.0
 11
81.0745524288
 21
114.2344755595
 31
0.0
  0
LINE
  5
1F6
330
1F
100
AcDbEntity
  8
0
  6
Continuous
 62
     7
370
    15
100
AcDbLine
 10
81.0745524288
 20
114.2344755595
 30
0.0
 11
78.8950219796
 21
114.2949891751
 31
0.0
  0
LINE
  5
1F7
330
1F
100
AcDbEntity
  8
0
  6
Continuous
 62
     7
370
    15
100
AcDbLine
 10
77.5656456173
 20
133.3059572158
 30
0.0
 11
78.8950219796
 21
114.2949891751
 31
0.0
  0
ARC
  5
1F8
330
1F
100
AcDbEntity
  8
0
  6
Continuous
 62
     7
370
    15
100
AcDbCircle
 10
79.3540740198
 20
120.429563011
 30
0.0
 40
13.0
100
AcDbArc
 50
0.0
 51
97.9073388765
  0
LINE
  5
1F9
330
1F
100
AcDbEntity
  8
0
  6
Continuous
 62
     7
370
    15
100
AcDbLine
 10
92.354074288
 20
118.429562916
 30
0.0
 11
92.354074288
 21
120.429563011
 31
0.0
  0
ARC
  5
1FA
330
1F
100
AcDbEntity
  8
0
  6
Continuous
 62
     7
370
    15
100
AcDbCircle
 10
75.3540740198
 20
118.429563011
 30
0.0
 40
17.00000000000003
100
AcDbArc
 50
311.5344824161
 51
0.0
  0
LINE
  5
1FB
330
1F
100
AcDbEntity
  8
0
  6
Continuous
 62
     7
370
    15
100
AcDbLine
 10
83.2350844795
 20
104.8408082229
 30
0.0
 11
86.62627561
 21
105.7040976835
 31
0.0
  0
LINE
  5
1FC
330
1F
100
AcDbEntity
  8
0
  6
Continuous
 62
     7
370
    15
100
AcDbLine
 10
82.5661822966
 20
114.4065555659
 30
0.0
 11
82.5811402685
 21
114.1926461374
 31
0.0
  0
LINE
  5
1FD
330
1F
100
AcDbEntity
  8
0
  6
Continuous
 62
     7
370
    15
100
AcDbLine
 10
82.5816739163
 20
114.1850144145
 30
0.0
 11
82.5819442327
 21
114.1811480288
 31
0.0
  0
ARC
  5
1FE
330
1F
100
AcDbEntity
  8
0
  6
Continuous
 62
     7
370
    15
100
AcDbCircle
 10
75.3540740198
 20
118.429563011
 30
0.0
 40
17.00000000000003
100
AcDbArc
 50
309.0008035232
 51
311.5344824161
  0
LINE
  5
1FF
330
1F
100
AcDbEntity
  8
0
  6
Continuous
 62
     7
370
    15
100
AcDbLine
 10
86.052706167
 20
105.2182313529
 30
0.0
 11
83.2584336678
 21
104.5068992776
 31
0.0
  0
SPLINE
  5
200
330
1F
100
AcDbEntity
  8
0
  6
Continuous
 62
     7
370
    15
100
AcDbSpline
210
0.0
220
0.0
230
1.0
 70
     8
 71
     3
 72
    11
 73
     7
 74
     0
 42
0.00000001
 43
0.00000001
 12
1.0
 22
0.0
 32
0.0
 13
1.0
 23
0.0
 33
0.0
 40
0.0
 40
0.0
 40
0.0
 40
0.0
 40
0.1725471048294368
 40
0.5457880904319256
 40
0.9170390421264281
 40
1.0
 40
1.0
 40
1.0
 40
1.0
 10
79.03901524711988
 20
107.9351135072376
 30
0.0
 10
78.98387658595719
 20
107.9359748443459
 30
0.0
 10
78.80946609895017
 20
107.9386993614336
 30
0.0
 10
78.201033214362
 20
107.9741900687201
 30
0.0
 10
77.55165738593294
 20
108.0541397499615
 30
0.0
 10
77.16704246698625
 20
108.1225666864327
 30
0.0
 10
77.09679326960473
 20
108.1350647387172
 30
0.0
  0
SPLINE
  5
201
330
1F
100
AcDbEntity
  8
0
  6
Continuous
 62
     7
370
    15
100
AcDbSpline
210
0.0
220
0.0
230
1.0
 70
     8
 71
     3
 72
    16
 73
    12
 74
     0
 42
0.00000001
 43
0.00000001
 12
1.0
 22
0.0
 32
0.0
 13
1.0
 23
0.0
 33
0.0
 40
0.0
 40
0.0
 40
0.0
 40
0.0
 40
0.2500000000000006
 40
0.2500000000000006
 40
0.3750000000000021
 40
0.3750000000000021
 40
0.5000000000000036
 40
0.5000000000000036
 40
0.7500000000000018
 40
0.7500000000000018
 40
1.0
 40
1.0
 40
1.0
 40
1.0
 10
75.40769758755985
 20
132.2902591564212
 30
0.0
 10
75.65712152628262
 20
132.3732492896597
 30
0.0
 10
75.89532056789396
 20
132.4437955600294
 30
0.0
 10
76.23438942326831
 20
132.5345726274014
 30
0.0
 10
76.3448882805242
 20
132.5624208707907
 30
0.0
 10
76.55293435139556
 20
132.6121347927477
 30
0.0
 10
76.65122478809948
 20
132.6342159462224
 30
0.0
 10
76.92873791925908
 20
132.6934748566044
 30
0.0
 10
77.09183197167484
 20
132.7238518293394
 30
0.0
 10
77.35085861797586
 20
132.7687041758844
 30
0.0
 10
77.45020399162144
 20
132.7838945602004
 30
0.0
 10
77.51452756635808
 20
132.7934648564757
 30
0.0
  0
SPLINE
  5
202
330
1F
100
AcDbEntity
  8
0
  6
Continuous
 62
     7
370
    15
100
AcDbSpline
210
0.0
220
0.0
230
1.0
 70
     8
 71
     3
 72
    10
 73
     6
 74
     0
 42
0.00000001
 43
0.00000001
 12
1.0
 22
0.0
 32
0.0
 13
1.0
 23
0.0
 33
0.0
 40
0.0
 40
0.0
 40
0.0
 40
0.0
 40
0.5
 40
0.5
 40
1.0
 40
1.0
 40
1.0
 40
1.0
 10
77.51452756635808
 20
132.7934648564757
 30
0.0
 10
77.54612036838967
 20
132.7981653488977
 30
0.0
 10
77.56650733798807
 20
132.8265219835844
 30
0.0
 10
77.58669979935685
 20
132.9301009435038
 30
0.0
 10
77.58641968679498
 20
133.0045838258001
 30
0.0
 10
77.58011318155765
 20
133.0988636961696
 30
0.0
  0
ELLIPSE
  5
203
330
1F
100
AcDbEntity
  8
0
  6
Continuous
 62
     7
370
    15
100
AcDbEllipse
 10
73.2784549665
 20
115.7977806936
 30
0.0
 11
-1.592296756449642
 21
1.876496366007161
 31
0.0
210
0.0
220
0.0
230
1.0
 40
0.8356632004
 41
0.0
 42
6.283185307179586
  0
ARC
  5
204
330
1F
100
AcDbEntity
  8
0
  6
Continuous
 62
     7
370
    15
100
AcDbCircle
 10
79.3540740198
 20
120.429563011
 30
0.0
 40
12.5
100
AcDbArc
 50
108.4036880773
 51
259.5963119227
  0
SPLINE
  5
205
330
1F
100
AcDbEntity
  8
0
  6
Continuous
 62
     7
370
    15
100
AcDbSpline
210
0.0
220
0.0
230
1.0
 70
     8
 71
     3
 72
    16
 73
    12
 74
     0
 42
0.00000001
 43
0.00000001
 12
1.0
 22
0.0
 32
0.0
 13
1.0
 23
0.0
 33
0.0
 40
0.0
 40
0.0
 40
0.0
 40
0.0
 40
0.0594676115329155
 40
0.2772718918851783
 40
0.5040564178970567
 40
0.5579262346925724
 40
0.6004775054043
 40
0.6433636595997352
 40
0.7056840706579075
 40
0.9088741612398771
 40
1.0
 40
1.0
 40
1.0
 40
1.0
 10
74.18643327416508
 20
117.6980113619085
 30
0.0
 10
74.15674168690937
 20
117.6434677736928
 30
0.0
 10
74.01830258772162
 20
117.3891544844097
 30
0.0
 10
73.54455294475444
 20
117.1584007174066
 30
0.0
 10
73.02917770482239
 20
117.0578122499028
 30
0.0
 10
72.61899909255388
 20
117.0183755295132
 30
0.0
 10
72.4216154328585
 20
116.9902022483636
 30
0.0
 10
72.21160391701974
 20
116.9407878960339
 30
0.0
 10
71.84494738258395
 20
116.830194541113
 30
0.0
 10
71.48901739753803
 20
116.721740543091
 30
0.0
 10
71.22719501380476
 20
116.8068443125567
 30
0.0
 10
71.14612979801028
 20
116.833194066685
 30
0.0
  0
CIRCLE
  5
206
330
1F
100
AcDbEntity
  8
0
  6
Continuous
 62
     7
370
    15
100
AcDbCircle
 10
79.3540740198
 20
120.429563011
 30
0.0
 40
20.00000000000001
  0
LINE
  5
207
330
1F
100
AcDbEntity
  8
0
  6
Continuous
 62
     7
370
    15
100
AcDbLine
 10
83.2644739932
 20
104.4205191088
 30
0.0
 11
82.5861952546
 21
114.1203578104
 31
0.0
  0
LINE
  5
208
330
1F
100
AcDbEntity
  8
0
  6
Continuous
 62
     7
370
    15
100
AcDbLine
 10
79.3183591669
 20
103.9403087002
 30
0.0
 11
78.6090711992
 21
114.0835999054
 31
0.0
  0
SPLINE
  5
209
330
1F
100
AcDbEntity
  8
0
  6
Continuous
 62
     7
370
    15
100
AcDbSpline
210
0.0
220
0.0
230
1.0
 70
     8
 71
     3
 72
    14
 73
    10
 74
     0
 42
0.00000001
 43
0.00000001
 12
1.0
 22
0.0
 32
0.0
 13
1.0
 23
0.0
 33
0.0
 40
0.0
 40
0.0
 40
0.0
 40
0.0
 40
0.1583244498993917
 40
0.3168036723697623
 40
0.4713678433351516
 40
0.622128944054328
 40
0.7721385608825518
 40
0.9245849024365713
 40
1.0
 40
1.0
 40
1.0
 40
1.0
 10
83.26447399319737
 20
104.4205191087986
 30
0.0
 10
83.26526142674837
 20
104.4092575662741
 30
0.0
 10
83.2668370636185
 20
104.386723472326
 30
0.0
 10
83.26922581233916
 20
104.3525626251126
 30
0.0
 10
83.27125842055278
 20
104.323495900991
 30
0.0
 10
83.272730262398
 20
104.3024488765264
 30
0.0
 10
83.2735042753508
 20
104.2913763008633
 30
0.0
 10
83.27355020081369
 20
104.2907253894887
 30
0.0
 10
83.27325631048672
 20
104.2949258461896
 30
0.0
 10
83.27315904186695
 20
104.2963160676028
 30
0.0
  0
SPLINE
  5
20A
330
1F
100
AcDbEntity
  8
0
  6
Continuous
 62
     7
370
    15
100
AcDbSpline
210
0.0
220
0.0
230
1.0
 70
     8
 71
     3
 72
    13
 73
     9
 74
     0
 42
0.00000001
 43
0.00000001
 12
1.0
 22
0.0
 32
0.0
 13
1.0
 23
0.0
 33
0.0
 40
0.0
 40
0.0
 40
0.0
 40
0.0
 40
0.166973506987356
 40
0.3557331926998557
 40
0.5407552742449071
 40
0.7250333730711792
 40
0.9118281217752552
 40
1.0
 40
1.0
 40
1.0
 40
1.0
 10
79.35400305707763
 20
103.4305772286917
 30
0.0
 10
79.35362486387582
 20
103.4359856902803
 30
0.0
 10
79.35281913201112
 20
103.4475082925375
 30
0.0
 10
79.34784859647743
 20
103.518590610078
 30
0.0
 10
79.34062776779307
 20
103.6218525185285
 30
0.0
 10
79.33185182678295
 20
103.7473554577003
 30
0.0
 10
79.32413437227373
 20
103.8577205240325
 30
0.0
 10
79.31976141620989
 20
103.920255870494
 30
0.0
 10
79.31835916694841
 20
103.9403087002303
 30
0.0
  0
SPLINE
  5
20B
330
1F
100
AcDbEntity
  8
0
  6
Continuous
 62
     7
370
    15
100
AcDbSpline
210
0.0
220
0.0
230
1.0
 70
     8
 71
     3
 72
    10
 73
     6
 74
     0
 42
0.00000001
 43
0.00000001
 12
1.0
 22
0.0
 32
0.0
 13
1.0
 23
0.0
 33
0.0
 40
0.0
 40
0.0
 40
0.0
 40
0.0
 40
0.265696792088522
 40
0.6165103092009817
 40
1.0
 40
1.0
 40
1.0
 40
1.0
 10
82.58167391629546
 20
114.1850144145156
 30
0.0
 10
82.58189320119097
 20
114.1818791736098
 30
0.0
 10
82.5824020195236
 20
114.1746043084331
 30
0.0
 10
82.58391772757656
 20
114.1529248395305
 30
0.0
 10
82.5854138861005
 20
114.1315308282023
 30
0.0
 10
82.58619525456457
 20
114.1203578104342
 30
0.0
  0
SPLINE
  5
20C
330
1F
100
AcDbEntity
  8
0
  6
Continuous
 62
     7
370
    15
100
AcDbSpline
210
0.0
220
0.0
230
1.0
 70
     8
 71
     3
 72
    10
 73
     6
 74
     0
 42
0.00000001
 43
0.00000001
 12
1.0
 22
0.0
 32
0.0
 13
1.0
 23
0.0
 33
0.0
 40
0.0
 40
0.0
 40
0.0
 40
0.0
 40
0.3517998062522462
 40
0.7034221777855859
 40
1.0
 40
1.0
 40
1.0
 40
1.0
 10
78.60907119918271
 20
114.083599905398
 30
0.0
 10
78.6061990516581
 20
114.1246735630732
 30
0.0
 10
78.6004562052131
 20
114.2068001624004
 30
0.0
 10
78.59417360060307
 20
114.2966446289925
 30
0.0
 10
78.59198712177492
 20
114.3279128570148
 30
0.0
 10
78.59098671922116
 20
114.3422193368043
 30
0.0
  0
LINE
  5
20D
330
1F
100
AcDbEntity
  8
0
  6
Continuous
 62
     7
370
    15
100
AcDbLine
 10
82.5816739163
 20
114.1850144145
 30
0.0
 11
82.5811402685
 21
114.1926461374
 31
0.0
  0
LINE
  5
20E
330
1F
100
AcDbEntity
  8
0
  6
Continuous
 62
     7
370
    15
100
AcDbLine
 10
78.5909867192
 20
114.3422193368
 30
0.0
 11
78.3673490443
 21
117.5403868788
 31
0.0
  0
LINE
  5
20F
330
1F
100
AcDbEntity
  8
0
  6
Continuous
 62
     7
370
    15
100
AcDbLine
 10
78.6090711992
 20
114.0835999054
 30
0.0
 11
78.5909867192
 21
114.3422193368
 31
0.0
  0
CIRCLE
  5
210
330
1F
100
AcDbEntity
  8
VERMASSUNG
  6
CENTERX2
100
AcDbCircle
 10
79.3540740198
 20
119.5989127063
 30
0.0
 40
15.99999999999999
  0
DIMENSION
  5
211
330
1F
100
AcDbEntity
  8
VERMASSUNG
100
AcDbDimension
  2
_D_6
 10
68.2560977996
 20
108.0694719285
 30
0.0
 11
59.3113759747
 21
99.1247501036
 31
0.0
 70
   160
  1
%%c<> min. 
 71
     2
 42
-1.0
  3
SLDDIMSTYLE2
100
AcDbAlignedDimension
 13
90.6677825188
 23
130.9126212053
 33
0.0
 14
68.0403655208
 24
108.2852042073
 34
0.0
 50
45.0
100
AcDbRotatedDimension
  0
DIMENSION
  5
220
330
1F
100
AcDbEntity
  8
VERMASSUNG
100
AcDbDimension
  2
_D_7
 10
79.3540740198
 20
97.929563011
 30
0.0
 11
70.2031033059
 21
146.8876511011
 31
0.0
 70
   162
  1
<>
 71
     1
 42
-1.0
  3
SLDDIMSTYLE3
100
AcDb2LineAngularDimension
 13
77.5656456008
 23
133.3059570633
 33
0.0
 14
78.8950219828
 24
114.2949890941
 34
0.0
 15
79.3540740198
 25
142.929563011
 35
0.0
 16
77.950678867
 26
147.9182181698
 36
0.0
  0
INSERT
  5
238
330
1F
100
AcDbEntity
  8
VERMASSUNG
100
AcDbBlockReference
  2
SW_CENTERMARKSYMBOL_0
 10
79.3540740198
 20
120.429563011
 30
0.0
  0
OLE2FRAME
  5
239
330
1F
100
AcDbEntity
  8
0
100
AcDbOle2Frame
 70
     2
  3
Paintbrush-Bild
 10
13.8511154363
 20
38.264191557
 30
0.0
 11
51.6290888628
 21
31.9806341108
 31
0.0
 71
     2
 72
     0
 73
     1
 90
    12928
310
80552BED0767C5B32B40DDAF6807D121434000000000000000006FFBDDFB85D0
310
4940DDAF6807D121434000000000000000006FFBDDFB85D04940416F4BD60AFB
310
3F4000000000000000002BED0767C5B32B40416F4BD60AFB3F40000000000000
310
0000000000000100000000010000010000000100000000000100000000320000
310
D0CF11E0A1B11AE1000000000000000000000000000000003E000300FEFF0900
310
0600000000000000000000000100000001000000000000000010000002000000
310
01000000FEFFFFFF0000000000000000FFFFFFFFFFFFFFFFFFFFFFFFFFFFFFFF
310
FFFFFFFFFFFFFFFFFFFFFFFFFFFFFFFFFFFFFFFFFFFFFFFFFFFFFFFFFFFFFFFF
310
FFFFFFFFFFFFFFFFFFFFFFFFFFFFFFFFFFFFFFFFFFFFFFFFFFFFFFFFFFFFFFFF
310
FFFFFFFFFFFFFFFFFFFFFFFFFFFFFFFFFFFFFFFFFFFFFFFFFFFFFFFFFFFFFFFF
310
FFFFFFFFFFFFFFFFFFFFFFFFFFFFFFFFFFFFFFFFFFFFFFFFFFFFFFFFFFFFFFFF
310
FFFFFFFFFFFFFFFFFFFFFFFFFFFFFFFFFFFFFFFFFFFFFFFFFFFFFFFFFFFFFFFF
310
FFFFFFFFFFFFFFFFFFFFFFFFFFFFFFFFFFFFFFFFFFFFFFFFFFFFFFFFFFFFFFFF
310
FFFFFFFFFFFFFFFFFFFFFFFFFFFFFFFFFFFFFFFFFFFFFFFFFFFFFFFFFFFFFFFF
310
FFFFFFFFFFFFFFFFFFFFFFFFFFFFFFFFFFFFFFFFFFFFFFFFFFFFFFFFFFFFFFFF
310
FFFFFFFFFFFFFFFFFFFFFFFFFFFFFFFFFFFFFFFFFFFFFFFFFFFFFFFFFFFFFFFF
310
FFFFFFFFFFFFFFFFFFFFFFFFFFFFFFFFFFFFFFFFFFFFFFFFFFFFFFFFFFFFFFFF
310
FFFFFFFFFFFFFFFFFFFFFFFFFFFFFFFFFFFFFFFFFFFFFFFFFFFFFFFFFFFFFFFF
310
FFFFFFFFFFFFFFFFFFFFFFFFFFFFFFFFFFFFFFFFFFFFFFFFFFFFFFFFFFFFFFFF
310
FFFFFFFFFFFFFFFFFFFFFFFFFFFFFFFFFFFFFFFFFFFFFFFFFFFFFFFFFFFFFFFF
310
FDFFFFFFFEFFFFFFFEFFFFFFFEFFFFFF05000000060000000700000008000000
310
090000000A0000000B0000000C0000000D0000000E0000000F00000010000000
310
11000000120000001300000014000000150000001600000017000000FEFFFFFF
310
FFFFFFFFFFFFFFFFFFFFFFFFFFFFFFFFFFFFFFFFFFFFFFFFFFFFFFFFFFFFFFFF
310
FFFFFFFFFFFFFFFFFFFFFFFFFFFFFFFFFFFFFFFFFFFFFFFFFFFFFFFFFFFFFFFF
310
FFFFFFFFFFFFFFFFFFFFFFFFFFFFFFFFFFFFFFFFFFFFFFFFFFFFFFFFFFFFFFFF
310
FFFFFFFFFFFFFFFFFFFFFFFFFFFFFFFFFFFFFFFFFFFFFFFFFFFFFFFFFFFFFFFF
310
FFFFFFFFFFFFFFFFFFFFFFFFFFFFFFFFFFFFFFFFFFFFFFFFFFFFFFFFFFFFFFFF
310
FFFFFFFFFFFFFFFFFFFFFFFFFFFFFFFFFFFFFFFFFFFFFFFFFFFFFFFFFFFFFFFF
310
FFFFFFFFFFFFFFFFFFFFFFFFFFFFFFFFFFFFFFFFFFFFFFFFFFFFFFFFFFFFFFFF
310
FFFFFFFFFFFFFFFFFFFFFFFFFFFFFFFFFFFFFFFFFFFFFFFFFFFFFFFFFFFFFFFF
310
FFFFFFFFFFFFFFFFFFFFFFFFFFFFFFFFFFFFFFFFFFFFFFFFFFFFFFFFFFFFFFFF
310
FFFFFFFFFFFFFFFFFFFFFFFFFFFFFFFFFFFFFFFFFFFFFFFFFFFFFFFFFFFFFFFF
310
FFFFFFFFFFFFFFFFFFFFFFFFFFFFFFFFFFFFFFFFFFFFFFFFFFFFFFFFFFFFFFFF
310
FFFFFFFFFFFFFFFFFFFFFFFFFFFFFFFFFFFFFFFFFFFFFFFFFFFFFFFFFFFFFFFF
310
FFFFFFFFFFFFFFFFFFFFFFFFFFFFFFFFFFFFFFFFFFFFFFFFFFFFFFFFFFFFFFFF
310
52006F006F007400200045006E00740072007900000000000000000000000000
310
0000000000000000000000000000000000000000000000000000000000000000
310
16000500FFFFFFFFFFFFFFFF020000000A00030000000000C000000000000046
310
000000000000000000000000A0066D23A644CD0103000000C000000000000000
310
01004F006C006500000000000000000000000000000000000000000000000000
310
0000000000000000000000000000000000000000000000000000000000000000
310
0A000200FFFFFFFFFFFFFFFFFFFFFFFF00000000000000000000000000000000
310
0000000000000000000000000000000000000000000000001400000000000000
310
010043006F006D0070004F0062006A0000000000000000000000000000000000
310
0000000000000000000000000000000000000000000000000000000000000000
310
120002010100000003000000FFFFFFFF00000000000000000000000000000000
310
0000000000000000000000000000000000000000010000004D00000000000000
310
01004F006C006500310030004E00610074006900760065000000000000000000
310
0000000000000000000000000000000000000000000000000000000000000000
310
1A000200FFFFFFFFFFFFFFFFFFFFFFFF00000000000000000000000000000000
310
0000000000000000000000000000000000000000040000002426000000000000
310
FEFFFFFF02000000FEFFFFFFFFFFFFFFFFFFFFFFFFFFFFFFFFFFFFFFFFFFFFFF
310
FFFFFFFFFFFFFFFFFFFFFFFFFFFFFFFFFFFFFFFFFFFFFFFFFFFFFFFFFFFFFFFF
310
FFFFFFFFFFFFFFFFFFFFFFFFFFFFFFFFFFFFFFFFFFFFFFFFFFFFFFFFFFFFFFFF
310
FFFFFFFFFFFFFFFFFFFFFFFFFFFFFFFFFFFFFFFFFFFFFFFFFFFFFFFFFFFFFFFF
310
FFFFFFFFFFFFFFFFFFFFFFFFFFFFFFFFFFFFFFFFFFFFFFFFFFFFFFFFFFFFFFFF
310
FFFFFFFFFFFFFFFFFFFFFFFFFFFFFFFFFFFFFFFFFFFFFFFFFFFFFFFFFFFFFFFF
310
FFFFFFFFFFFFFFFFFFFFFFFFFFFFFFFFFFFFFFFFFFFFFFFFFFFFFFFFFFFFFFFF
310
FFFFFFFFFFFFFFFFFFFFFFFFFFFFFFFFFFFFFFFFFFFFFFFFFFFFFFFFFFFFFFFF
310
FFFFFFFFFFFFFFFFFFFFFFFFFFFFFFFFFFFFFFFFFFFFFFFFFFFFFFFFFFFFFFFF
310
FFFFFFFFFFFFFFFFFFFFFFFFFFFFFFFFFFFFFFFFFFFFFFFFFFFFFFFFFFFFFFFF
310
FFFFFFFFFFFFFFFFFFFFFFFFFFFFFFFFFFFFFFFFFFFFFFFFFFFFFFFFFFFFFFFF
310
FFFFFFFFFFFFFFFFFFFFFFFFFFFFFFFFFFFFFFFFFFFFFFFFFFFFFFFFFFFFFFFF
310
FFFFFFFFFFFFFFFFFFFFFFFFFFFFFFFFFFFFFFFFFFFFFFFFFFFFFFFFFFFFFFFF
310
FFFFFFFFFFFFFFFFFFFFFFFFFFFFFFFFFFFFFFFFFFFFFFFFFFFFFFFFFFFFFFFF
310
FFFFFFFFFFFFFFFFFFFFFFFFFFFFFFFFFFFFFFFFFFFFFFFFFFFFFFFFFFFFFFFF
310
FFFFFFFFFFFFFFFFFFFFFFFFFFFFFFFFFFFFFFFFFFFFFFFFFFFFFFFFFFFFFFFF
310
0100000200000000000000000000000000000000000000000000000000000000
310
0000000000000000000000000000000000000000000000000000000000000000
310
0100FEFF030A0000FFFFFFFF0A00030000000000C00000000000004607000000
310
5042727573680007000000504272757368000700000050427275736800F439B2
310
7100000000000000000000000000000000000000000000000000000000000000
310
0000000000000000000000000000000000000000000000000000000000000000
310
0000000000000000000000000000000000000000000000000000000000000000
310
0000000000000000000000000000000000000000000000000000000000000000
310
0000000000000000000000000000000000000000000000000000000000000000
310
0000000000000000000000000000000000000000000000000000000000000000
310
0000000000000000000000000000000000000000000000000000000000000000
310
0000000000000000000000000000000000000000000000000000000000000000
310
0000000000000000000000000000000000000000000000000000000000000000
310
0000000000000000000000000000000000000000000000000000000000000000
310
0000000000000000000000000000000000000000000000000000000000000000
310
0000000000000000000000000000000000000000000000000000000000000000
310
20260000424D0E260000000000003E00000028000000B40200006E0000000100
310
01000000000000000000130B0000130B00000200000002000000000000FFFFFF
310
FFFFFFFFFFFFFFFFFFFFFFFFFFFFFFFFFFFFFFFFFFFFFFFFFFFFFFFFFFFFFFFF
310
FFFFFFFFFFFFFFFFFFFFFFFFFFFFFFFFFFFFFFFFFFFFFFFFFFFFFFFFFFFFFFFF
310
FFFFFFFFFFFFFFFFFFFFFFFFFFFFFFFFFFFFFFFFFFFFFFFFF000FFFFFFFFFFFF
310
FFFFFFFFFFFFFFFFFFFFFFFFFFFFFFFFFFFFFFFFFFFFFFFFFFFFFFFFFFFFFFFF
310
FFFFFFFFFFFFFFFFFFFFFFFFFFFFFFFFFFFFFFFFFFFFFFFFFFFFFFFFFFFFFFFF
310
FFFFFFFFFFFFFFFFFFFFFFFFFFFFFFFFF000FFFFFFFFFFFFFFFFFFFFFFFFFFFF
310
FFFFFFFFFFFFFFFFFFFFFFFFFFFFFFFFFFFFFFFFFFFFFFFFFFFFFFFFFFFFFFFF
310
FFFFFFFFFFFFFFFFFFFFFFFFFFFFFFFFFFFFFFFFFFFFFFFFFFFFFFFFFFFFFFFF
310
FFFFFFFFFFFFFFFFF000FFFFFFFFFFFFFFFFFFFFFFFFFFFFFFFFFFFFFFFFFFFF
310
FFFFFFFFFFFFFFFFFFFFFFFFFFFFFFFFFFFFFFFFFFFFFFFFFFFFFFFFFFFFFFFF
310
FFFFFFFFFFFFFFFFFFFFFFFFFFFFFFFFFFFFFFFFFFFFFFFFFFFFFFFFFFFFFFFF
310
F000FFFFFFFFFFFFFFFFFFFFFFFFFFFFFFFFFFFFFFFFFFFFFFFFFFFFFFFFFFFF
310
FFFFFFFFFFFFFFFFFFFFFFFFFFFFFFFFFFFFFFFFFFFFFFFFFFFFFFFFFFFFFFFF
310
FFFFFFFFFFFFFFFFFFFFFFFFFFFFFFFFFFFFFFFFFFFFFFFFF000FFFFFFFFFFFF
310
FFFFFFFFFFFFFFFFFFFFFFFFFFFFFFFFFFFFFFFFFFFFFFFFFFFFFFFFFFFFFFFF
310
FFFFFFFFFFFFFFFFFFFFFFFFFFFFFFFFFFFFFFFFFFFFFFFFFFFFFFFFFFFFFFFF
310
FFFFFFFFFFFFFFFFFFFFFFFFFFFFFFFFF000FFFFFFFFFFFFFFFFFFFFFFFFFFFF
310
FFFFFFFFFFFFFFFFFFFFFFFFFFFFFFFFFFFFFFFFFFFFFFFFFFFFFFFFFFFFFFFF
310
FFFFFFFFFFFFFFFFFFFFFFFFFFFFFFFFFFFFFFFFFFFFFFFFFFFFFFFFFFFFFFFF
310
FFFFFFFFFFFFFFFFF000FFFFFFFFFFFFFFFFFFFFFFFFFFFFFFFFFFFFFFFFFFFF
310
FFFFFFFFFFFFFFFFFFFFFFFFFFFFFFFFFFFFFFFFFFFFFFFFFFFFFFFFFFFFFFFF
310
FFFFFFFFFFFFFFFFFFFFFFFFFFFFFFFFFFFFFFFFFFFFFFFFFFFFFFFFFFFFFFFF
310
F000FFFFFFFFFFFFFFFFFFFFFFFFFFFFFFFFFFFFFFFFFFFFFFFFFFFFFFFFFFFF
310
FFFFFFFFFFFFFFFFFFFFFFFFFFFFFFFFFFFFFFFFFFFFFFFFFFFFFFFFFFFFFFFF
310
FFFFFFFFFFFFFFFFFFFFFFFFFFFFFFFFFFFFFFFFFFFFFFFFF000FFFFFFFFFFFF
310
FFFFFFFFFFFFFFFFFFFFFFFFFFFFFFFFFFFFFFFFFFFFFFFFFFFFFFFFFFFFFFFF
310
FFFFFFFFFFFFFFFFFFFFFFFFFFFFFFFFFFFFFFFFFFFFFFFFFFFFFFFFFFFFFFFF
310
FFFFFFFFFFFFFFFFFFFFFFFFFFFFFFFFF000FFFFFFFFFFFFFFFFFFFFFFFFFFFF
310
FFFFFFFFFFFFFFFFFFFFFFFFFFFFFFFFFFFFFFFFFFFFFFFFFFFFFFFFFFFFFFFF
310
FFFFFFFFFFFFFFFFFFFFFFFFFFFFFFFFFFFFFFFFFFFFFFFFFFFFFFFFFFFFFFFF
310
FFFFFFFFFFFFFFFFF000FFFFFFFFFFFFFFFFFFFFFFFFFFFFFFFFFFFFFFFFFFFF
310
FFFFFFFFFFFFFFFFFFFFFFFFFFFFFFFFFFFFFFFFFFFFFFFFFFFFFFFFFFFFFFFF
310
FFFFFFFFFFFFFFFFFFFFFFFFFFFFFFFFFFFFFFFFFFFFFFFFFFFFFFFFFFFFFFFF
310
F000FFFFFFFFFFFFFFFFFFFFFFFFFFFFFFFFFFFFFFFFFFFFFFFFFFFFFFFFFFFF
310
FFFFFFFFFFFFFFFFFFFFFFFFFFFFFFFFFFFFFFFFFFFFFFFFFFFFFFFFFFFFFFFF
310
FFFFFFFFFFFFFFFFFFFFFFFFFFFFFFFFFFFFFFFFFFFFFFFFF000FFFFFFFFFFFF
310
FFFFFFFFFFFFFFFFFFFFFFFFFFFFFFFFFFFFFFFFFFFFFFFFFFFFFFFFFFFFFFFF
310
FFFFFFFFFFFFFFFFFFFFFFFFFFFFFFFFFFFFFFFFFFFFFFFFFFFFFFFFFFFFFFFF
310
FFFFFFFFFFFFFFFFFFFFFFFFFFFFFFFFF000FFFFFFFFFFFFFFFFFFFFFFFFFFFF
310
FFFFFFFFFFFFFFFFFFFFFFFFFFFFFFFFFFFFFFFFFFFFFFFFFFFFFFFFFFFFFFFF
310
FFFFFFFFFFFFFFFFFFFFFFFFFFFFFFFFFFFFFFFFFFFFFFFFFFFFFFFFFFFFFFFF
310
FFFFFFFFFFFFFFFFF000FFFFFFFFFFFFFFFFFFFFFFFFFFFFFFFFFFFFFFFFFFFF
310
FFFFFFFFFFFFFFFFFFFFFFFFFFFFFFFFFFFFFFFFFFFFFFFFFFFFFFFFFFFFFFFF
310
FFFFFFFFFFFFFFFFFFFFFFFFFFFFFFFFFFFFFFFFFFFFFFFFFFFFFFFFFFFFFFFF
310
F000FFFFFFFFFFFFFFFFFFFFFFFFFFFFFFFFFFFFFFFFFFFFFFFFFFFFFFFFFFFF
310
FFFFFFFFFFFFFFFFFFFFFFFFFFFFFFFFFFFFFFFFFFFFFFFFFFFFFFFFFFFFFFFF
310
FFFFFFFFFFFFFFFFFFFFFFFFFFFFFFFFFFFFFFFFFFFFFFFFF000FFFFFFFFFFFF
310
FFFFFFFFFFFFFFFFFFFFFFFFFFFFFFFFFFFFFFFFFFFFFFFFFFFFFFFFFFFFFFFF
310
FFFFFFFFFFFFFFFFFFFFFFFFFFFFFFFFFFFFFFFFFFFFFFFFFFFFFFFFFFFFFFFF
310
FFFFFFFFFFFFFFFFFFFFFFFFFFFFFFFFF000FFFFFFFFFFFFFFFFFFFFFFFFFFFF
310
FFFFFFFFFFFFFFFFFFFFFFFFFFFFFFFFFFFFFFFFFFFFFFFFFFFFFFFFFFFFFFFF
310
FFFFFFFFFFFFFFFFFFFFFFFFFFFFFFFFFFFFFFFFFFFFFFFFFFFFFFFFFFFFFFFF
310
FFFFFFFFFFFFFFFFF000FFFFF80003FFFFFFFFFFFFFFFFFFFFFFFFFFFFFFFFFF
310
FFFFF00007FFFFFFFFFF00007FFFFFF800000000000000007FFFFFFFFFFFFFFF
310
FFFFFFFC001FFFFFFFFFFFFFFC001FFFFFFFFFFFFFFFFFFFFFFFFFFE0007FFFF
310
F000FFFF8000007FFFFFFFF8000FFFFFC0007FFFFF80007FFFFF0000007FFFFF
310
FFF8000007FFFFF800000000000000007FFFFFF0001FFFFFFFFFFFC00001FFFF
310
FFFFFFFFC00001FFFFFFFF000000000003FFFFE000007FFFF000FFFE0000000F
310
FFFFFFF0000FFFFF80007FFFFF80007FFFFC0000001FFFFFFFC0000001FFFFF8
310
00000000000000007FFFFFF0001FFFFFFFFFFE0000003FFFFFFFFFFE0000003F
310
FFFFFF000000000003FFFF0000000FFFF000FFF800000003FFFFFFF00007FFFF
310
80007FFFFF80007FFFF000000007FFFFFF000000003FFFF80000000000000000
310
7FFFFFF0001FFFFFFFFFF80000000FFFFFFFFFF80000000FFFFFFF0000000000
310
03FFFC00000003FFF000FFE000000000FFFFFFF00007FFFF80003FFFFF80007F
310
FFC000000001FFFFFC000000001FFFF800000000000000007FFFFFF0001FFFFF
310
FFFFE000000003FFFFFFFFE000000003FFFFFF000000000003FFF000000000FF
310
F000FF80000000007FFFFFF00007FFFF80003FFFFF80007FFF8000000000FFFF
310
F80000000007FFF800000000000000007FFFFFF0001FFFFFFFFFC000000001FF
310
FFFFFFC000000001FFFFFF000000000003FFC0000000007FF000FF0000000000
310
3FFFFFE00007FFFF00003FFFFF80007FFE00000000003FFFF00000000003FFF8
310
00000000000000007FFFFFF0001FFFFFFFFF8000000000FFFFFFFF8000000000
310
FFFFFF000000000003FF80000000003FF000FE00000000001FFFFFE00003FFFF
310
00003FFFFF80007FFC00000000001FFFE00000000001FFF8000001FFFE000000
310
7FFFFFF0001FFFFFFFFE00000000003FFFFFFE00000000003FFFFF0000000000
310
03FF00000000001FF000FC00000000000FFFFFE00003FFFF00001FFFFF80007F
310
F800000000001FFFC00000000000FFF8000001FFFE0000007FFFFFF0001FFFFF
310
FFFC00000000001FFFFFFC00000000001FFFFF000000000003FE00000000000F
310
F000F8000000000007FFFFE00003FFFF00001FFFFF80007FF800000000000FFF
310
800000000000FFF8000001FFFE0000007FFFFFF0001FFFFFFFF800000000000F
310
FFFFF800000000000FFFFF000000000003FC000000000007F000F80000000000
310
03FFFFC00003FFFE00001FFFFF80007FF0000000000007FF0000000000007FF8
310
000001FFFE0000007FFFFFF0001FFFFFFFF0000000000007FFFFF00000000000
310
07FFFF000000000003F8000000000003F000F0000000000003FFFFC00001FFFE
310
00001FFFFF80007FE0000000000007FE0000000000003FF8000001FFFE000000
310
7FFFFFF0001FFFFFFFF0000000000007FFFFF0000000000007FFFF0000000000
310
03F800001F800003F000E00001FFF00001FFFFC00001FFFE00000FFFFF80007F
310
E00001FFE00003FE00001FFF00003FF8000001FFFE0000007FFFFFF0001FFFFF
310
FFE000003E000003FFFFE000003E000003FFFF000000000003F00001FFF80001
310
F000E00007FFFC0001FFFFC00001FFFE00000FFFFF80007FC0000FFFFC0003FC
310
0000FFFFC0001FF8000001FFFE0000007FFFFFF0001FFFFFFFC00003FFE00001
310
FFFFC00003FFE00001FFFF0001FFFFFFFFF00007FFFE0001F000E0000FFFFF00
310
00FFFF800001FFFC00000FFFFF80007FC0001FFFFE0001FC0001FFFFE0001FF8
310
000001FFFE0000007FFFFFF0001FFFFFFF80000FFFF80000FFFF80000FFFF800
310
00FFFF0003FFFFFFFFE0000FFFFF8000F000C0003FFFFF8000FFFF800000FFFC
310
000007FFFF80007F80003FFFFF0001FC0003FFFFF0001FF8000001FFFE000000
310
7FFFFFF0001FFFFFFF80003FFFFE0000FFFF80003FFFFE0000FFFF0003FFFFFF
310
FFE0003FFFFF8000F000C0003FFFFF8000FFFF800000FFFC000007FFFF80007F
310
80007FFFFF8001F80007FFFFF8000FF8000001FFFE0000007FFFFFF0001FFFFF
310
FF00007FFFFF00007FFF00007FFFFF00007FFF0003FFFFFFFFE0003FFFFFC000
310
F000C0007FFFFFC000FFFF000000FFFC000007FFFF80007F8000FFFFFF8000F8
310
000FFFFFF8000FF8000001FFFE0000007FFFFFF0001FFFFFFF0000FFFFFF8000
310
7FFF0000FFFFFF80007FFF0003FFFFFFFFC0007FFFFFC00070008000FFFFFFC0
310
00FFFF000000FFF8000007FFFF80007F8000FFFFFF8000F8000FFFFFF8000FF8
310
000001FFFE0000007FFFFFF0001FFFFFFE0001FFFFFFC0003FFE0001FFFFFFC0
310
003FFF0003FFFFFFFFC0007FFFFFE00070008000FFFFFFC0007FFF0000007FF8
310
000003FFFF80007F0001FFFFFF8000F8000FFFFFF8000FF8000001FFFE000000
310
7FFFFFF0001FFFFFFE0001FFFFFFC0003FFE0001FFFFFFC0003FFF0003FFFFFF
310
FFC000FFFFFFE00070008000FFFFFFC0007FFF0000007FF8000003FFFF80007F
310
0001FFFFFF8000F8001FFFFFF8000FF8000001FFFE0000007FFFFFF0001FFFFF
310
FE0003FFFFFFE0003FFE0003FFFFFFE0003FFF0003FFFFFFFFC000FFFFFFE000
310
70008000FFFFFFC0007FFE0000007FF8000003FFFF80007F0001FFFFFF8000F0
310
001FFFFFF8000FF8000001FFFE0000007FFFFFF0001FFFFFFC0003FFFFFFE000
310
1FFC0003FFFFFFE0001FFF0003FFFFFFFFC000FFFFFFC00070008000FFFFFF80
310
007FFE0000007FF0000003FFFF80007F0001FFFFFF0000F0001FFFFFF8000FF8
310
000001FFFE0000007FFFFFF0001FFFFFFC0007FFFFFFF0001FFC0007FFFFFFF0
310
001FFF0003FFFFFFFFC000FFFFFFC00070008001FFFFFF0000FFFE0000003FF0
310
000001FFFF80007F0001FFFFFF0000F8001FFFFFF0000FF8000001FFFE000000
310
7FFFFFF0001FFFFFFC0007FFFFFFF0001FFC0007FFFFFFF0001FFF0003FFFFFF
310
FFC001FFFFFF80007000FFFFFFFFFE0000FFFE0008003FF0008001FFFF80007F
310
FFFFFFFFFC0000FFFFFFFFFFE0000FF8000001FFFE0000007FFFFFF0001FFFFF
310
F8000FFFFFFFF8000FF8000FFFFFFFF8000FFF0003FFFFFFFFFFFFFFFFFF0000
310
7000FFFFFFFFFC0000FFFC0008003FF0008001FFFF80007FFFFFFFFFF80001FF
310
FFFFFFFF80000FF8000001FFFE0000007FFFFFF0001FFFFFF8000FFFFFFFF800
310
0FF8000FFFFFFFF8000FFF0003FFFFFFFFFFFFFFFFFE0000F000FFFFFFFFE000
310
00FFFC000C003FE000C001FFFF80007FFFFFFFFFC00001FFFFFFFFFE00001FF8
310
000001FFFE0000007FFFFFF0001FFFFFF8000FFFFFFFF8000FF8000FFFFFFFF8
310
000FFF0003FFFFFFFFFFFFFFFFF00000F000FFFFFFFE000001FFFC000C001FE0
310
00C000FFFF80007FFFFFFFFE000001FFFFFFFFE000001FF80FFFFFFFFFFFFFC0
310
7FFFFFF0001FFFFFF8000FFFFFFFF8000FF8000FFFFFFFF8000FFF0003FFFFFF
310
FFFFFFFFFF800000F000FFFFFFC0000001FFFC001C001FE001C000FFFF80007F
310
FFFFFF80000003FFFFFFF80000001FF80FFFFFFFFFFFFFC07FFFFFF0001FFFFF
310
F8001FFFFFFFFC000FF8001FFFFFFFFC000FFF0003FFFFFFFFFFFFFFF0000001
310
F000FFFFF800000001FFF8001C001FE001C000FFFF80007FFFFFF800000003FF
310
FFFF800000003FF80FFFFFFFFFFFFFC07FFFFFF0001FFFFFF8001FFFFFFFFC00
310
0FF8001FFFFFFFFC000FFF0003FFFFFFFFFFFFFE00000001F000FFFFC0000000
310
03FFF8001E001FC001E000FFFF80007FFFFF8000000007FFFFFC000000003FF8
310
0FFFFFFFFFFFFFC07FFFFFF0001FFFFFF8001FFFFFFFFC000FF8001FFFFFFFFC
310
000FFF0003FFFFFFFFFFFFE000000003F000FFFE0000000007FFF8001E000FC0
310
01E0007FFF80007FFFFE0000000007FFFFE0000000007FF80FFFFFFFFFFFFFC0
310
7FFFFFF0001FFFFFF0001FFFFFFFFC0007F0001FFFFFFFFC0007FF0003FFFFFF
310
FFFFFF0000000003F000FFF80000000007FFF8001E000FC003E0007FFF80007F
310
FFF0000000000FFFFF8000000000FFF80FFFFFFFFFFFFFC07FFFFFF0001FFFFF
310
F0001FFFFFFFFC0007F0001FFFFFFFFC0007FF0003FFFFFFFFFFFC0000000007
310
F000FFE0000000000FFFF0003E000FC003E0007FFF80007FFFC0000000001FFF
310
FE0000000001FFF80FFFFFFFFFFFFFC07FFFFFF0001FFFFFF0001FFFFFFFFC00
310
07F0001FFFFFFFFC0007FF0003FFFFFFFFFFF0000000000FF000FFC000000000
310
1FFFF0003F000F8003F0003FFF80007FFF80000000003FFFF80000000003FFF8
310
0FFFFFFFFFFFFFC07FFFFFF0001FFFFFF0001FFFFFFFFC0007F0001FFFFFFFFC
310
0007FF0003FFFFFFFFFFE0000000001FF000FF00000000007FFFF0003F000780
310
03F0003FFF80007FFF00000000007FFFF00000000007FFF80FFFFFFFFFFFFFC0
310
7FFFFFF0001FFFFFF0001FFFFFFFFC0007F0001FFFFFFFFC0007FF0003FFFFFF
310
FFFF80000000007FF000FE0000000000FFFFE0003F00078007F0003FFF80007F
310
FE0000000001FFFFE0000000001FFFF80FFFFFFFFFFFFFC07FFFFFF0001FFFFF
310
F0001FFFFFFFFC0007F0001FFFFFFFFC0007FF0003FFFFFFFFFF0000000000FF
310
F000FC0000000003FFFFE0007F00078007F0003FFF80007FFC0000000007FFFF
310
C0000000007FFFF80FFFFFFFFFFFFFC07FFFFFF0001FFFFFF8001FFFFFFFFC00
310
0FF8001FFFFFFFFC000FFF0003FFFFFFFFFE0000000003FFF000FC000000000F
310
FFFFE0007F80070007F8001FFF80007FF8000000001FFFFF8000000001FFFFF8
310
0FFFFFFFFFFFFFC07FFFFFF0001FFFFFF8001FFFFFFFFC000FF8001FFFFFFFFC
310
000FFF0003FFFFFFFFFC000000000FFFF000F8000000007FFFFFE0007F800700
310
07F8001FFF80007FF000000000FFFFFF800000000FFFFFF80FFFFFFFFFFFFFC0
310
7FFFFFF0001FFFFFF8000FFFFFFFF8000FF8000FFFFFFFF8000FFF0003FFFFFF
310
FFFC000000007FFFF000F800000007FFFFFFC0007F8003000FF8001FFF80007F
310
F000000007FFFFFF000000007FFFFFF80FFFFFFFFFFFFFC07FFFFFF0001FFFFF
310
F8000FFFFFFFF8000FF8000FFFFFFFF8000FFF0003FFFFFFFFF80000000FFFFF
310
F000F0000000FFFFFFFFC000FF8003000FF8001FFF80007FE0000000FFFFFFFF
310
0000000FFFFFFFF8000001FFFE0000007FFFFFF0001FFFFFF8000FFFFFFFF800
310
0FF8000FFFFFFFF8000FFF0003FFFFFFFFF8000000FFFFFFF000F000000FFFFF
310
FFFFC000FFC002000FF8000FFF80007FE000001FFFFFFFFE000001FFFFFFFFF8
310
000001FFFE0000007FFFFFF0001FFFFFF8000FFFFFFFF8000FF8000FFFFFFFF8
310
000FFF0003FFFFFFFFF000001FFFFFFFF000E00000FFFFFFFFFFC000FFC00200
310
0FFC000FFF80007FE00001FFFFFFFFFE00001FFFFFFFFFF8000001FFFE000000
310
7FFFFFF0001FFFFFFC000FFFFFFFF8001FFC000FFFFFFFF8001FFF0003FFFFFF
310
FFF00001FFFFFFFFF000E00007FFFFFFFFFF8000FFC000001FFC000FFF80007F
310
C0000FFFFFFFFFFE0000FFFFFFFFFFF8000001FFFE0000007FFFFFF0001FFFFF
310
FC0007FFFFFFF0001FFC0007FFFFFFF0001FFF0003FFFFFFFFF00007FFFFFFFF
310
F000E0001FFFFFFFFFFF8000FFC000001FFC000FFF80007FC0003FFFFFFFFFFE
310
0001FFFFFFFFFFF8000001FFFE0000007FFFFFF0001FFFFFFC0007FFFFFFF000
310
1FFC0007FFFFFFF0001FFF0003FFFFFFFFF0001FFFFFFFFFF000E0003FFFFF00
310
03FF8001FFE000001FFC0007FF80007FC0007FFFFF0007FC0003FFFFF0003FF8
310
000001FFFE0000007FFFFFF0001FFFFFFC0003FFFFFFE0001FFC0003FFFFFFE0
310
001FFF0003FFFFFFFFF0003FFFFFFFFFF000E0003FFFFF0001FF8001FFE00000
310
1FFE0007FF80007FC0007FFFFE0003FC0007FFFFE0003FF8000001FFFE000000
310
7FFFFFF0001FFFFFFE0003FFFFFFE0003FFE0003FFFFFFE0003FFF0003FFFFFF
310
FFF0003FFFFF8001F000E0003FFFFF0001FF0001FFE000001FFE0007FF80007F
310
C0007FFFFE0003FC0007FFFFE0003FF8000001FFFE0000007FFFFFF0001FFFFF
310
FE0001FFFFFFC0003FFE0001FFFFFFC0003FFF0003FFFFFFFFF0003FFFFF0001
310
F000E0003FFFFF0003FF0001FFE000003FFE0007FF80007FC0007FFFFE0003FC
310
0007FFFFE0003FF8000001FFFE0000007FFFFFF0001FFFFFFF0001FFFFFFC000
310
7FFF0001FFFFFFC0007FFF0003FFFFFFFFF0003FFFFF0001F000E0003FFFFE00
310
03FF0003FFF000003FFE0003FF80007FC0007FFFFC0003FE0007FFFFE0003FF8
310
000001FFFE0000007FFFFFF0001FFFFFFF0000FFFFFF80007FFF0000FFFFFF80
310
007FFF0003FFFFFFFFF0003FFFFF0001F000E0003FFFFE0003FF0003FFF00000
310
3FFF0003FF80007FC0007FFFFC0007FE0007FFFFC0003FF8000001FFFE000000
310
7FFFFFF0001FFFFFFF80007FFFFF0000FFFF80007FFFFF0000FFFF0003FFFFFF
310
FFF0003FFFFF0003F000E0003FFFFC0003FE0003FFF000003FFF0003FF80007F
310
E0003FFFF80007FE0003FFFFC0007FF8000001FFFE0000007FFFFFF0001FFFFF
310
FF80003FFFFE0000FFFF80003FFFFE0000FFFF0003FFFFFFFFF0001FFFFE0003
310
F000F0001FFFF80003FE0003FFF000007FFF0001FF80007FE0003FFFF00007FE
310
0001FFFF80007FF8000001FFFE0000007FFFFFF0001FFFFFFFC0000FFFF80001
310
FFFFC0000FFFF80001FFFF0003FFFFFFFFF0001FFFFC0003F000F0000FFFF000
310
07FE0007FFF800007FFF0001FF80007FE0001FFFE00007FF0000FFFE00007FF8
310
000001FFFE0000007FFFFFF0001FFFFFFFC00003FFE00001FFFFC00003FFE000
310
01FFFF0003FFFFFFFFF8000FFFF80003F000F00003FFC00007FC0007FFF80000
310
7FFF8001FF80007FF00007FF80000FFF00007FF80000FFF8000001FFFE000000
310
7F80000000000001FFE000003E000003FFFFE000003E000003FFFF0003FFFFFF
310
FFF80003FFE00007F000F800000000000FFC0007FFF800007FFF8001FF80007F
310
F000000000000FFF000000000000FFF8000001FFFE0000007F80000000000001
310
FFF0000000000007FFFFF0000000000007FFFF0003FFFFFFFFFC00007E000007
310
F000F800000000000FFC0007FFF80000FFFF8000FF80007FF800000000001FFF
310
800000000001FFF8000001FFFE0000007F80000000000001FFF800000000000F
310
FFFFF800000000000FFFFF0003FFFFFFFFFC00000000000FF000FC0000000000
310
1FFC0007FFFC0000FFFF8000FF80007FF800000000003FFFC00000000001FFF8
310
000001FFFE0000007F80000000000001FFF800000000000FFFFFF80000000000
310
0FFFFF0003FFFFFFFFFE00000000001FF000FE00000000003FF8000FFFFC0000
310
FFFF8000FF80007FFC00000000003FFFC00000000003FFF8000001FFFE000000
310
7F80000000000001FFFC00000000001FFFFFFC00000000001FFFFF0003FFFFFF
310
FFFF00000000001FF000FF00000000003FF8000FFFFC0000FFFFC000FF80007F
310
FE00000000007FFFE00000000007FFF8000001FFFE0000007F80000000000001
310
FFFE00000000003FFFFFFE00000000003FFFFF0003FFFFFFFFFF80000000003F
310
F000FF80000000007FF8000FFFFC0001FFFFC0007F80007FFF0000000000FFFF
310
F0000000000FFFF800000000000000007F80000000000001FFFF8000000000FF
310
FFFFFF8000000000FFFFFF0003FFFFFFFFFFC0000000007FF000FFC000000000
310
FFF8000FFFFE0001FFFFC0007F80007FFF8000000001FFFFF8000000001FFFF8
310
00000000000000007F80000000000001FFFFC000000001FFFFFFFFC000000001
310
FFFFFF0003FFFFFFFFFFE000000000FFF000FFE000000003FFF0001FFFFE0001
310
FFFFC0007F80007FFFC000000007FFFFFE000000003FFFF80000000000000000
310
7F80000000000001FFFFE000000003FFFFFFFFE000000003FFFFFF0003FFFFFF
310
FFFFF000000003FFF000FFF80000000FFFF0001FFFFE0001FFFFE0007F80007F
310
FFF00000000FFFFFFF00000000FFFFF800000000000000007F80000000000001
310
FFFFF80000000FFFFFFFFFF80000000FFFFFFF0003FFFFFFFFFFFC0000000FFF
310
F000FFFE0000003FFFF0001FFFFE0003FFFFE0003F80007FFFFC0000003FFFFF
310
FFC0000003FFFFF800000000000000007F80000000000001FFFFFE0000003FFF
310
FFFFFFFE0000003FFFFFFF0003FFFFFFFFFFFF0000003FFFF000FFFF800000FF
310
FFF0001FFFFF0003FFFFE0003F80007FFFFF000001FFFFFFFFF800001FFFFFF8
310
00000000000000007F80000000000001FFFFFFC00001FFFFFFFFFFFFC00001FF
310
FFFFFF0003FFFFFFFFFFFFC00000FFFFF000FFFFF8000FFFFFFFFFFFFFFFFFFF
310
FFFFFFFFFFFFFFFFFFFFF0001FFFFFFFFFFF0000FFFFFFF80000000000000000
310
7FFFFFFFFFFFFFFFFFFFFFFC001FFFFFFFFFFFFFFC001FFFFFFFFFFFFFFFFFFF
310
FFFFFFFC001FFFFFF000FFFFFFFFFFFFFFFFFFFFFFFFFFFFFFFFFFFFFFFFFFFF
310
FFFFFFFFFFFFFFFFFFFFFFFFFFFFFFFFFFFFFFFFFFFFFFFFFFFFFFFFFFFFFFFF
310
FFFFFFFFFFFFFFFFFFFFFFFFFFFFFFFFFFFFFFFFFFFFFFFFFFFFFFFFFFFFFFFF
310
F000FFFFFFFFFFFFFFFFFFFFFFFFFFFFFFFFFFFFFFFFFFFFFFFFFFFFFFFFFFFF
310
FFFFFFFFFFFFFFFFFFFFFFFFFFFFFFFFFFFFFFFFFFFFFFFFFFFFFFFFFFFFFFFF
310
FFFFFFFFFFFFFFFFFFFFFFFFFFFFFFFFFFFFFFFFFFFFFFFFF000FFFFFFFFFFFF
310
FFFFFFFFFFFFFFFFFFFFFFFFFFFFFFFFFFFFFFFFFFFFFFFFFFFFFFFFFFFFFFFF
310
FFFFFFFFFFFFFFFFFFFFFFFFFFFFFFFFFFFFFFFFFFFFFFFFFFFFFFFFFFFFFFFF
310
FFFFFFFFFFFFFFFFFFFFFFFFFFFFFFFFF000FFFFFFFFFFFFFFFFFFFFFFFFFFFF
310
FFFFFFFFFFFFFFFFFFFFFFFFFFFFFFFFFFFFFFFFFFFFFFFFFFFFFFFFFFFFFFFF
310
FFFFFFFFFFFFFFFFFFFFFFFFFFFFFFFFFFFFFFFFFFFFFFFFFFFFFFFFFFFFFFFF
310
FFFFFFFFFFFFFFFFF000FFFFFFFFFFFFFFFFFFFFFFFFFFFFFFFFFFFFFFFFFFFF
310
FFFFFFFFFFFFFFFFFFFFFFFFFFFFFFFFFFFFFFFFFFFFFFFFFFFFFFFFFFFFFFFF
310
FFFFFFFFFFFFFFFFFFFFFFFFFFFFFFFFFFFFFFFFFFFFFFFFFFFFFFFFFFFFFFFF
310
F000FFFFFFFFFFFFFFFFFFFFFFFFFFFFFFFFFFFFFFFFFFFFFFFFFFFFFFFFFFFF
310
FFFFFFFFFFFFFFFFFFFFFFFFFFFFFFFFFFFFFFFFFFFFFFFFFFFFFFFFFFFFFFFF
310
FFFFFFFFFFFFFFFFFFFFFFFFFFFFFFFFFFFFFFFFFFFFFFFFF000FFFFFFFFFFFF
310
FFFFFFFFFFFFFFFFFFFFFFFFFFFFFFFFFFFFFFFFFFFFFFFFFFFFFFFFFFFFFFFF
310
FFFFFFFFFFFFFFFFFFFFFFFFFFFFFFFFFFFFFFFFFFFFFFFFFFFFFFFFFFFFFFFF
310
FFFFFFFFFFFFFFFFFFFFFFFFFFFFFFFFF000FFFFFFFFFFFFFFFFFFFFFFFFFFFF
310
FFFFFFFFFFFFFFFFFFFFFFFFFFFFFFFFFFFFFFFFFFFFFFFFFFFFFFFFFFFFFFFF
310
FFFFFFFFFFFFFFFFFFFFFFFFFFFFFFFFFFFFFFFFFFFFFFFFFFFFFFFFFFFFFFFF
310
FFFFFFFFFFFFFFFFF000FFFFFFFFFFFFFFFFFFFFFFFFFFFFFFFFFFFFFFFFFFFF
310
FFFFFFFFFFFFFFFFFFFFFFFFFFFFFFFFFFFFFFFFFFFFFFFFFFFFFFFFFFFFFFFF
310
FFFFFFFFFFFFFFFFFFFFFFFFFFFFFFFFFFFFFFFFFFFFFFFFFFFFFFFFFFFFFFFF
310
F000FFFFFFFFFFFFFFFFFFFFFFFFFFFFFFFFFFFFFFFFFFFFFFFFFFFFFFFFFFFF
310
FFFFFFFFFFFFFFFFFFFFFFFFFFFFFFFFFFFFFFFFFFFFFFFFFFFFFFFFFFFFFFFF
310
FFFFFFFFFFFFFFFFFFFFFFFFFFFFFFFFFFFFFFFFFFFFFFFFF000FFFFFFFFFFFF
310
FFFFFFFFFFFFFFFFFFFFFFFFFFFFFFFFFFFFFFFFFFFFFFFFFFFFFFFFFFFFFFFF
310
FFFFFFFFFFFFFFFFFFFFFFFFFFFFFFFFFFFFFFFFFFFFFFFFFFFFFFFFFFFFFFFF
310
FFFFFFFFFFFFFFFFFFFFFFFFFFFFFFFFF000FFFFFFFFFFFFFFFFFFFFFFFFFFFF
310
FFFFFFFFFFFFFFFFFFFFFFFFFFFFFFFFFFFFFFFFFFFFFFFFFFFFFFFFFFFFFFFF
310
FFFFFFFFFFFFFFFFFFFFFFFFFFFFFFFFFFFFFFFFFFFFFFFFFFFFFFFFFFFFFFFF
310
FFFFFFFFFFFFFFFFF000FFFFFFFFFFFFFFFFFFFFFFFFFFFFFFFFFFFFFFFFFFFF
310
FFFFFFFFFFFFFFFFFFFFFFFFFFFFFFFFFFFFFFFFFFFFFFFFFFFFFFFFFFFFFFFF
310
FFFFFFFFFFFFFFFFFFFFFFFFFFFFFFFFFFFFFFFFFFFFFFFFFFFFFFFFFFFFFFFF
310
F000FFFFFFFFFFFFFFFFFFFFFFFFFFFFFFFFFFFFFFFFFFFFFFFFFFFFFFFFFFFF
310
FFFFFFFFFFFFFFFFFFFFFFFFFFFFFFFFFFFFFFFFFFFFFFFFFFFFFFFFFFFFFFFF
310
FFFFFFFFFFFFFFFFFFFFFFFFFFFFFFFFFFFFFFFFFFFFFFFFF000FFFFFFFFFFFF
310
FFFFFFFFFFFFFFFFFFFFFFFFFFFFFFFFFFFFFFFFFFFFFFFFFFFFFFFFFFFFFFFF
310
FFFFFFFFFFFFFFFFFFFFFFFFFFFFFFFFFFFFFFFFFFFFFFFFFFFFFFFFFFFFFFFF
310
FFFFFFFFFFFFFFFFFFFFFFFFFFFFFFFFF000FFFFFFFFFFFFFFFFFFFFFFFFFFFF
310
FFFFFFFFFFFFFFFFFFFFFFFFFFFFFFFFFFFFFFFFFFFFFFFFFFFFFFFFFFFFFFFF
310
FFFFFFFFFFFFFFFFFFFFFFFFFFFFFFFFFFFFFFFFFFFFFFFFFFFFFFFFFFFFFFFF
310
FFFFFFFFFFFFFFFFF000FFFFFFFFFFFFFFFFFFFFFFFFFFFFFFFFFFFFFFFFFFFF
310
FFFFFFFFFFFFFFFFFFFFFFFFFFFFFFFFFFFFFFFFFFFFFFFFFFFFFFFFFFFFFFFF
310
FFFFFFFFFFFFFFFFFFFFFFFFFFFFFFFFFFFFFFFFFFFFFFFFFFFFFFFFFFFFFFFF
310
F000FFFFFFFFFFFFFFFFFFFFFFFFFFFFFFFFFFFFFFFFFFFFFFFFFFFFFFFFFFFF
310
FFFFFFFFFFFFFFFFFFFFFFFFFFFFFFFFFFFFFFFFFFFFFFFFFFFFFFFFFFFFFFFF
310
FFFFFFFFFFFFFFFFFFFFFFFFFFFFFFFFFFFFFFFFFFFFFFFFF000FFFFFFFFFFFF
310
FFFFFFFFFFFFFFFFFFFFFFFFFFFFFFFFFFFFFFFFFFFFFFFFFFFFFFFFFFFFFFFF
310
FFFFFFFFFFFFFFFFFFFFFFFFFFFFFFFFFFFFFFFFFFFFFFFFFFFFFFFFFFFFFFFF
310
FFFFFFFFFFFFFFFFFFFFFFFFFFFFFFFFF000FFFFFFFFFFFFFFFFFFFFFFFFFFFF
310
FFFFFFFFFFFFFFFFFFFFFFFFFFFFFFFFFFFFFFFFFFFFFFFFFFFFFFFFFFFFFFFF
310
FFFFFFFFFFFFFFFFFFFFFFFFFFFFFFFFFFFFFFFFFFFFFFFFFFFFFFFFFFFFFFFF
310
FFFFFFFFFFFFFFFFF000FFFFFFFFFFFFFFFFFFFFFFFFFFFFFFFFFFFFFFFFFFFF
310
FFFFFFFFFFFFFFFFFFFFFFFFFFFFFFFFFFFFFFFFFFFFFFFFFFFFFFFFFFFFFFFF
310
FFFFFFFFFFFFFFFFFFFFFFFFFFFFFFFFFFFFFFFFFFFFFFFFFFFFFFFFFFFFFFFF
310
F000FFFFFFFFFFFFFFFFFFFFFFFFFFFFFFFFFFFFFFFFFFFFFFFFFFFFFFFFFFFF
310
FFFFFFFFFFFFFFFFFFFFFFFFFFFFFFFFFFFFFFFFFFFFFFFFFFFFFFFFFFFFFFFF
310
FFFFFFFFFFFFFFFFFFFFFFFFFFFFFFFFFFFFFFFFFFFFFFFFF000FFFFFFFFFFFF
310
FFFFFFFFFFFFFFFFFFFFFFFFFFFFFFFFFFFFFFFFFFFFFFFFFFFFFFFFFFFFFFFF
310
FFFFFFFFFFFFFFFFFFFFFFFFFFFFFFFFFFFFFFFFFFFFFFFFFFFFFFFFFFFFFFFF
310
FFFFFFFFFFFFFFFFFFFFFFFFFFFFFFFFF0000000000000000000000000000000
310
0000000000000000000000000000000000000000000000000000000000000000
310
0000000000000000000000000000000000000000000000000000000000000000
310
0000000000000000000000000000000000000000000000000000000000000000
310
0000000000000000000000000000000000000000000000000000000000000000
310
0000000000000000000000000000000000000000000000000000000000000000
310
0000000000000000000000000000000000000000000000000000000000000000
310
0000000000000000000000000000000000000000000000000000000000000000
310
0000000000000000000000000000000000000000000000000000000000000000
310
0000000000000000000000000000000000000000000000000000000000000000
310
0000000000000000000000000000000000000000000000000000000000000000
310
0000000000000000000000000000000000000000000000000000000000000000
310
0000000000000000000000000000000000000000000000000000000000000000
310
0000000000000000000000000000000000000000000000000000000000000000
310
0000000000000000000000000000000000000000000000000000000000000000
310
0000000000000000000000000000000000000000000000000000000000000000
  1
OLE
  0
ENDSEC
  0
SECTION
  2
OBJECTS
  0
DICTIONARY
  5
C
330
0
100
AcDbDictionary
281
     1
  3
ACAD_GROUP
350
D
  3
ACAD_LAYOUT
350
1A
  3
ACAD_MLINESTYLE
350
17
  3
ACAD_PLOTSETTINGS
350
19
  3
ACAD_PLOTSTYLENAME
350
E
  0
DICTIONARY
  5
D
102
{ACAD_REACTORS
330
C
102
}
330
C
100
AcDbDictionary
281
     1
  0
DICTIONARY
  5
1A
102
{ACAD_REACTORS
330
C
102
}
330
C
100
AcDbDictionary
281
     1
  3
Layout1
350
1E
  3
Layout2
350
26
  3
Model
350
22
  0
DICTIONARY
  5
17
102
{ACAD_REACTORS
330
C
102
}
330
C
100
AcDbDictionary
281
     1
  3
Standard
350
18
  0
DICTIONARY
  5
19
102
{ACAD_REACTORS
330
C
102
}
330
C
100
AcDbDictionary
281
     1
  0
ACDBDICTIONARYWDFLT
  5
E
102
{ACAD_REACTORS
330
C
102
}
330
C
100
AcDbDictionary
281
     1
  3
Normal
350
F
100
AcDbDictionaryWithDefault
340
F
  0
LAYOUT
  5
1E
102
{ACAD_REACTORS
330
1A
102
}
330
1A
100
AcDbPlotSettings
  1

  2
none_device
  4

  6

 40
0.0
 41
0.0
 42
0.0
 43
0.0
 44
0.0
 45
0.0
 46
0.0
 47
0.0
 48
0.0
 49
0.0
140
0.0
141
0.0
142
1.0
143
1.0
 70
   688
 72
     0
 73
     0
 74
     5
  7

 75
    16
147
1.0
148
0.0
149
0.0
100
AcDbLayout
  1
Layout1
 70
     1
 71
     1
 10
0.0
 20
0.0
 11
420.0
 21
297.0
 12
0.0
 22
0.0
 32
0.0
 14
1.0000000000E+20
 24
1.0000000000E+20
 34
1.0000000000E+20
 15
-1.0000000000E+20
 25
-1.0000000000E+20
 35
-1.0000000000E+20
146
0.0
 13
0.0
 23
0.0
 33
0.0
 16
1.0
 26
0.0
 36
0.0
 17
0.0
 27
1.0
 37
0.0
 76
     0
330
1B
  0
LAYOUT
  5
26
102
{ACAD_REACTORS
330
1A
102
}
330
1A
100
AcDbPlotSettings
  1

  2
none_device
  4

  6

 40
0.0
 41
0.0
 42
0.0
 43
0.0
 44
0.0
 45
0.0
 46
0.0
 47
0.0
 48
0.0
 49
0.0
140
0.0
141
0.0
142
1.0
143
1.0
 70
   688
 72
     0
 73
     0
 74
     5
  7

 75
    16
147
1.0
148
0.0
149
0.0
100
AcDbLayout
  1
Layout2
 70
     1
 71
     2
 10
0.0
 20
0.0
 11
0.0
 21
0.0
 12
0.0
 22
0.0
 32
0.0
 14
0.0
 24
0.0
 34
0.0
 15
0.0
 25
0.0
 35
0.0
146
0.0
 13
0.0
 23
0.0
 33
0.0
 16
1.0
 26
0.0
 36
0.0
 17
0.0
 27
1.0
 37
0.0
 76
     0
330
23
  0
LAYOUT
  5
22
102
{ACAD_REACTORS
330
1A
102
}
330
1A
100
AcDbPlotSettings
  1

  2
none_device
  4

  6

 40
0.0
 41
0.0
 42
0.0
 43
0.0
 44
0.0
 45
0.0
 46
0.0
 47
0.0
 48
0.0
 49
0.0
140
0.0
141
0.0
142
1.0
143
1.0
 70
  1712
 72
     0
 73
     0
 74
     0
  7

 75
     0
147
1.0
148
0.0
149
0.0
100
AcDbLayout
  1
Model
 70
     1
 71
     0
 10
0.0
 20
0.0
 11
297.0
 21
210.0
 12
0.0
 22
0.0
 32
0.0
 14
0.0
 24
0.0
 34
0.0
 15
297.0
 25
210.0
 35
0.0
146
0.0
 13
0.0
 23
0.0
 33
0.0
 16
1.0
 26
0.0
 36
0.0
 17
0.0
 27
1.0
 37
0.0
 76
     0
330
1F
331
29
  0
MLINESTYLE
  5
18
102
{ACAD_REACTORS
330
17
102
}
330
17
100
AcDbMlineStyle
  2
Standard
 70
     0
  3

 62
   256
 51
90.0
 52
90.0
 71
     2
 49
0.5
 62
   256
  6
BYLAYER
 49
-0.5
 62
   256
  6
BYLAYER
  0
ACDBPLACEHOLDER
  5
F
102
{ACAD_REACTORS
330
E
102
}
330
E
  0
ENDSEC
  0
EOF
