  0
SECTION
  2
HEADER
  9
$ACADVER
  1
AC1015
  9
$ACADMAINTVER
 70
     6
  9
$DWGCODEPAGE
  3
ANSI_1252
  9
$INSBASE
 10
0.0
 20
0.0
 30
0.0
  9
$EXTMIN
 10
0.0
 20
0.0
 30
0.0
  9
$EXTMAX
 10
297.0
 20
210.0
 30
0.0
  9
$LIMMIN
 10
0.0
 20
0.0
  9
$LIMMAX
 10
297.0
 20
210.0
  9
$ORTHOMODE
 70
     0
  9
$REGENMODE
 70
     1
  9
$FILLMODE
 70
     1
  9
$QTEXTMODE
 70
     0
  9
$MIRRTEXT
 70
     1
  9
$LTSCALE
 40
1.0
  9
$ATTMODE
 70
     1
  9
$TEXTSIZE
 40
2.0
  9
$TRACEWID
 40
1.0
  9
$TEXTSTYLE
  7
Standard
  9
$CLAYER
  8
0
  9
$CELTYPE
  6
ByLayer
  9
$CECOLOR
 62
   256
  9
$CELTSCALE
 40
1.0
  9
$DISPSILH
 70
     0
  9
$DIMSCALE
 40
1.0
  9
$DIMASZ
 40
3.0
  9
$DIMEXO
 40
0.0
  9
$DIMDLI
 40
3.75
  9
$DIMRND
 40
0.0
  9
$DIMDLE
 40
0.0
  9
$DIMEXE
 40
1.0
  9
$DIMTP
 40
0.0
  9
$DIMTM
 40
0.0
  9
$DIMTXT
 40
2.0
  9
$DIMCEN
 40
2.5
  9
$DIMTSZ
 40
0.0
  9
$DIMTOL
 70
     0
  9
$DIMLIM
 70
     0
  9
$DIMTIH
 70
     1
  9
$DIMTOH
 70
     1
  9
$DIMSE1
 70
     0
  9
$DIMSE2
 70
     0
  9
$DIMTAD
 70
     1
  9
$DIMZIN
 70
     0
  9
$DIMBLK
  1

  9
$DIMASO
 70
     1
  9
$DIMSHO
 70
     1
  9
$DIMPOST
  1

  9
$DIMAPOST
  1

  9
$DIMALT
 70
     0
  9
$DIMALTD
 70
     3
  9
$DIMALTF
 40
0.0393700787
  9
$DIMLFAC
 40
1.0
  9
$DIMTOFL
 70
     1
  9
$DIMTVP
 40
0.0
  9
$DIMTIX
 70
     0
  9
$DIMSOXD
 70
     0
  9
$DIMSAH
 70
     0
  9
$DIMBLK1
  1

  9
$DIMBLK2
  1

  9
$DIMSTYLE
  2
ISO-25
  9
$DIMCLRD
 70
     0
  9
$DIMCLRE
 70
     0
  9
$DIMCLRT
 70
     0
  9
$DIMTFAC
 40
1.0
  9
$DIMGAP
 40
1.524
  9
$DIMJUST
 70
     0
  9
$DIMSD1
 70
     0
  9
$DIMSD2
 70
     0
  9
$DIMTOLJ
 70
     0
  9
$DIMTZIN
 70
     0
  9
$DIMALTZ
 70
     0
  9
$DIMALTTZ
 70
     0
  9
$DIMUPT
 70
     0
  9
$DIMDEC
 70
     2
  9
$DIMTDEC
 70
     3
  9
$DIMALTU
 70
     2
  9
$DIMALTTD
 70
     3
  9
$DIMTXSTY
  7
Standard
  9
$DIMAUNIT
 70
     0
  9
$DIMADEC
 70
     2
  9
$DIMALTRND
 40
0.0
  9
$DIMAZIN
 70
     0
  9
$DIMDSEP
 70
    44
  9
$DIMATFIT
 70
     3
  9
$DIMFRAC
 70
     0
  9
$DIMLDRBLK
  1

  9
$DIMLUNIT
 70
     2
  9
$DIMLWD
 70
    -2
  9
$DIMLWE
 70
    -2
  9
$DIMTMOVE
 70
     0
  9
$LUNITS
 70
     2
  9
$LUPREC
 70
     2
  9
$SKETCHINC
 40
1.0
  9
$FILLETRAD
 40
10.0
  9
$AUNITS
 70
     0
  9
$AUPREC
 70
     2
  9
$MENU
  1
.
  9
$ELEVATION
 40
0.0
  9
$PELEVATION
 40
0.0
  9
$THICKNESS
 40
0.0
  9
$LIMCHECK
 70
     0
  9
$CHAMFERA
 40
10.0
  9
$CHAMFERB
 40
10.0
  9
$CHAMFERC
 40
20.0
  9
$CHAMFERD
 40
0.0
  9
$SKPOLY
 70
     0
  9
$TDCREATE
 40
2456085.631612234
  9
$TDUCREATE
 40
2456085.5482789
  9
$TDUPDATE
 40
2456085.631613854
  9
$TDUUPDATE
 40
2456085.548280521
  9
$TDINDWG
 40
0.0000000116
  9
$TDUSRTIMER
 40
0.0000000116
  9
$USRTIMER
 70
     1
  9
$ANGBASE
 50
0.0
  9
$ANGDIR
 70
     0
  9
$PDMODE
 70
     0
  9
$PDSIZE
 40
-1.0
  9
$PLINEWID
 40
0.0
  9
$SPLFRAME
 70
     0
  9
$SPLINETYPE
 70
     6
  9
$SPLINESEGS
 70
     8
  9
$HANDSEED
  5
237
  9
$SURFTAB1
 70
     6
  9
$SURFTAB2
 70
     6
  9
$SURFTYPE
 70
     6
  9
$SURFU
 70
     6
  9
$SURFV
 70
     6
  9
$UCSBASE
  2

  9
$UCSNAME
  2

  9
$UCSORG
 10
0.0
 20
0.0
 30
0.0
  9
$UCSXDIR
 10
1.0
 20
0.0
 30
0.0
  9
$UCSYDIR
 10
0.0
 20
1.0
 30
0.0
  9
$UCSORTHOREF
  2

  9
$UCSORTHOVIEW
 70
     0
  9
$UCSORGTOP
 10
0.0
 20
0.0
 30
0.0
  9
$UCSORGBOTTOM
 10
0.0
 20
0.0
 30
0.0
  9
$UCSORGLEFT
 10
0.0
 20
0.0
 30
0.0
  9
$UCSORGRIGHT
 10
0.0
 20
0.0
 30
0.0
  9
$UCSORGFRONT
 10
0.0
 20
0.0
 30
0.0
  9
$UCSORGBACK
 10
0.0
 20
0.0
 30
0.0
  9
$PUCSBASE
  2

  9
$PUCSNAME
  2

  9
$PUCSORG
 10
0.0
 20
0.0
 30
0.0
  9
$PUCSXDIR
 10
1.0
 20
0.0
 30
0.0
  9
$PUCSYDIR
 10
0.0
 20
1.0
 30
0.0
  9
$PUCSORTHOREF
  2

  9
$PUCSORTHOVIEW
 70
     0
  9
$PUCSORGTOP
 10
0.0
 20
0.0
 30
0.0
  9
$PUCSORGBOTTOM
 10
0.0
 20
0.0
 30
0.0
  9
$PUCSORGLEFT
 10
0.0
 20
0.0
 30
0.0
  9
$PUCSORGRIGHT
 10
0.0
 20
0.0
 30
0.0
  9
$PUCSORGFRONT
 10
0.0
 20
0.0
 30
0.0
  9
$PUCSORGBACK
 10
0.0
 20
0.0
 30
0.0
  9
$USERI1
 70
     0
  9
$USERI2
 70
     0
  9
$USERI3
 70
     0
  9
$USERI4
 70
     0
  9
$USERI5
 70
     0
  9
$USERR1
 40
0.0
  9
$USERR2
 40
0.0
  9
$USERR3
 40
0.0
  9
$USERR4
 40
0.0
  9
$USERR5
 40
0.0
  9
$WORLDVIEW
 70
     1
  9
$SHADEDGE
 70
     3
  9
$SHADEDIF
 70
    70
  9
$TILEMODE
 70
     1
  9
$MAXACTVP
 70
    64
  9
$PINSBASE
 10
0.0
 20
0.0
 30
0.0
  9
$PLIMCHECK
 70
     0
  9
$PEXTMIN
 10
1.0000000000E+20
 20
1.0000000000E+20
 30
1.0000000000E+20
  9
$PEXTMAX
 10
-1.0000000000E+20
 20
-1.0000000000E+20
 30
-1.0000000000E+20
  9
$PLIMMIN
 10
0.0
 20
0.0
  9
$PLIMMAX
 10
420.0
 20
297.0
  9
$UNITMODE
 70
     0
  9
$VISRETAIN
 70
     1
  9
$PLINEGEN
 70
     0
  9
$PSLTSCALE
 70
     1
  9
$TREEDEPTH
 70
  3020
  9
$CMLSTYLE
  2
Standard
  9
$CMLJUST
 70
     0
  9
$CMLSCALE
 40
20.0
  9
$PROXYGRAPHICS
 70
     1
  9
$MEASUREMENT
 70
     1
  9
$CELWEIGHT
370
    -1
  9
$ENDCAPS
280
     0
  9
$JOINSTYLE
280
     0
  9
$LWDISPLAY
290
     1
  9
$INSUNITS
 70
     4
  9
$HYPERLINKBASE
  1

  9
$STYLESHEET
  1

  9
$XEDIT
290
     1
  9
$CEPSNTYPE
380
     0
  9
$PSTYLEMODE
290
     1
  9
$FINGERPRINTGUID
  2
{0AC00B60-FA3E-4919-9CF8-86D0A3377F3B}
  9
$VERSIONGUID
  2
{FAEB1C32-E019-11D5-929B-00C0DF256EC4}
  9
$EXTNAMES
290
     1
  9
$PSVPSCALE
 40
0.0
  9
$OLESTARTUP
290
     0
  0
ENDSEC
  0
SECTION
  2
CLASSES
  0
CLASS
  1
ACDBDICTIONARYWDFLT
  2
AcDbDictionaryWithDefault
  3
ObjectDBX Classes
 90
        0
280
     0
281
     0
  0
CLASS
  1
VISUALSTYLE
  2
AcDbVisualStyle
  3
ObjectDBX Classes
 90
     4095
280
     0
281
     0
  0
CLASS
  1
MATERIAL
  2
AcDbMaterial
  3
ObjectDBX Classes
 90
     1153
280
     0
281
     0
  0
CLASS
  1
ACDBPLACEHOLDER
  2
AcDbPlaceHolder
  3
ObjectDBX Classes
 90
        0
280
     0
281
     0
  0
CLASS
  1
LAYOUT
  2
AcDbLayout
  3
ObjectDBX Classes
 90
        0
280
     0
281
     0
  0
ENDSEC
  0
SECTION
  2
TABLES
  0
TABLE
  2
VPORT
  5
8
330
0
100
AcDbSymbolTable
 70
     1
  0
VPORT
  5
29
330
8
100
AcDbSymbolTableRecord
100
AcDbViewportTableRecord
  2
*Active
 70
     0
 10
0.0
 20
0.0
 11
1.0
 21
1.0
 12
148.5
 22
105.0
 13
0.0
 23
0.0
 14
10.0
 24
10.0
 15
10.0
 25
10.0
 16
0.0
 26
0.0
 36
1.0
 17
0.0
 27
0.0
 37
0.0
 40
210.0
 41
1.4142857143
 42
50.0
 43
0.0
 44
0.0
 50
0.0
 51
0.0
 71
     0
 72
  2000
 73
     1
 74
     3
 75
     0
 76
     0
 77
     0
 78
     0
281
     0
 65
     1
110
0.0
120
0.0
130
0.0
111
1.0
121
0.0
131
0.0
112
0.0
122
1.0
132
0.0
 79
     0
146
0.0
  0
ENDTAB
  0
TABLE
  2
LTYPE
  5
5
330
0
100
AcDbSymbolTable
 70
     6
  0
LTYPE
  5
14
330
5
100
AcDbSymbolTableRecord
100
AcDbLinetypeTableRecord
  2
ByBlock
 70
     0
  3

 72
    65
 73
     0
 40
0.0
  0
LTYPE
  5
15
330
5
100
AcDbSymbolTableRecord
100
AcDbLinetypeTableRecord
  2
ByLayer
 70
     0
  3

 72
    65
 73
     0
 40
0.0
  0
LTYPE
  5
16
330
5
100
AcDbSymbolTableRecord
100
AcDbLinetypeTableRecord
  2
Continuous
 70
     0
  3
Solid line
 72
    65
 73
     0
 40
0.0
  0
LTYPE
  5
3F
330
5
100
AcDbSymbolTableRecord
100
AcDbLinetypeTableRecord
  2
HIDDEN
 70
     0
  3
Hidden __ __ __ __ __ __ __ __ __ __ __ __ __ __
 72
    65
 73
     2
 40
1.905
 49
1.27
 74
     0
 49
-0.635
 74
     0
  0
LTYPE
  5
40
330
5
100
AcDbSymbolTableRecord
100
AcDbLinetypeTableRecord
  2
PHANTOM
 70
     0
  3
Phantom ______  __  __  ______  __  __  ______
 72
    65
 73
     6
 40
12.7
 49
6.35
 74
     0
 49
-1.27
 74
     0
 49
1.27
 74
     0
 49
-1.27
 74
     0
 49
1.27
 74
     0
 49
-1.27
 74
     0
  0
LTYPE
  5
41
330
5
100
AcDbSymbolTableRecord
100
AcDbLinetypeTableRecord
  2
CENTER
 70
     0
  3
Center ____ _ ____ _ ____ _ ____ _ ____ _ ____
 72
    65
 73
     4
 40
10.16
 49
6.35
 74
     0
 49
-1.27
 74
     0
 49
1.27
 74
     0
 49
-1.27
 74
     0
  0
LTYPE
  5
42
330
5
100
AcDbSymbolTableRecord
100
AcDbLinetypeTableRecord
  2
CENTERX2
 70
     0
  3
Center (2x) ________  __  ________  __  _____
 72
    65
 73
     4
 40
20.32
 49
12.7
 74
     0
 49
-2.54
 74
     0
 49
2.54
 74
     0
 49
-2.54
 74
     0
  0
LTYPE
  5
43
330
5
100
AcDbSymbolTableRecord
100
AcDbLinetypeTableRecord
  2
DOT2
 70
     0
  3
Dot (.5x) ........................................
 72
    65
 73
     2
 40
0.635
 49
0.0
 74
     0
 49
-0.635
 74
     0
  0
ENDTAB
  0
TABLE
  2
LAYER
  5
2
330
0
100
AcDbSymbolTable
 70
     5
  0
LAYER
  5
10
330
2
100
AcDbSymbolTableRecord
100
AcDbLayerTableRecord
  2
0
 70
     0
 62
     7
  6
Continuous
370
    -3
390
F
  0
LAYER
  5
44
330
2
100
AcDbSymbolTableRecord
100
AcDbLayerTableRecord
  2
FORMAT
 70
     0
 62
     7
  6
Continuous
370
    -3
390
F
  0
LAYER
  5
45
330
2
100
AcDbSymbolTableRecord
100
AcDbLayerTableRecord
  2
VERMASSUNG
 70
     0
 62
     7
  6
Continuous
370
    -3
390
F
  0
LAYER
  5
46
330
2
100
AcDbSymbolTableRecord
100
AcDbLayerTableRecord
  2
KOPF_DÜNN
 70
     0
 62
     7
  6
Continuous
370
    -3
390
F
  0
LAYER
  5
47
330
2
100
AcDbSymbolTableRecord
100
AcDbLayerTableRecord
  2
KOPF_DICK
 70
     0
 62
     7
  6
Continuous
370
    15
390
F
  0
ENDTAB
  0
TABLE
  2
STYLE
  5
3
330
0
100
AcDbSymbolTable
 70
     2
  0
STYLE
  5
11
330
3
100
AcDbSymbolTableRecord
100
AcDbTextStyleTableRecord
  2
Standard
 70
     0
 40
0.0
 41
1.0
 50
0.0
 71
     0
 42
2.0
  3
txt
  4

  0
STYLE
  5
48
330
3
100
AcDbSymbolTableRecord
100
AcDbTextStyleTableRecord
  2
SLDTEXTSTYLE0
 70
     0
 40
0.0
 41
0.7
 50
0.0
 71
     0
 42
0.2
  3
TXT
  4

  0
ENDTAB
  0
TABLE
  2
VIEW
  5
6
330
0
100
AcDbSymbolTable
 70
     0
  0
ENDTAB
  0
TABLE
  2
UCS
  5
7
330
0
100
AcDbSymbolTable
 70
     0
  0
ENDTAB
  0
TABLE
  2
APPID
  5
9
330
0
100
AcDbSymbolTable
 70
     1
  0
APPID
  5
12
330
9
100
AcDbSymbolTableRecord
100
AcDbRegAppTableRecord
  2
ACAD
 70
     0
  0
ENDTAB
  0
TABLE
  2
DIMSTYLE
  5
A
330
0
100
AcDbSymbolTable
 70
     5
100
AcDbDimStyleTable
  0
DIMSTYLE
105
27
330
A
100
AcDbSymbolTableRecord
100
AcDbDimStyleTableRecord
  2
ISO-25
 70
     0
 41
2.5
 42
0.625
 43
3.75
 44
1.25
 73
     0
 74
     0
 77
     1
 78
     8
140
2.5
141
2.5
143
0.0393700787
147
0.625
171
     3
172
     1
178
     0
271
     2
272
     2
274
     3
278
    44
283
     0
284
     8
340
11
  0
DIMSTYLE
105
1B5
102
{ACAD_REACTORS
330
1B4
330
1BF
330
1C9
330
1DC
330
1E8
102
}
330
A
100
AcDbSymbolTableRecord
100
AcDbDimStyleTableRecord
  2
SLDDIMSTYLE0
 70
     0
 41
3.0
 44
0.0
 45
0.000000001
 73
     0
 74
     0
 77
     1
 78
    12
 79
     3
140
2.0
147
0.5
173
     1
178
     0
271
     2
272
     3
276
     2
284
    12
340
48
  0
DIMSTYLE
105
1D4
102
{ACAD_REACTORS
330
1D3
102
}
330
A
100
AcDbSymbolTableRecord
100
AcDbDimStyleTableRecord
  2
SLDDIMSTYLE1
 70
     0
 41
3.0
 44
0.0
 73
     0
 74
     0
 77
     1
 78
    12
 79
     3
140
2.0
147
0.5
173
     1
178
     0
179
     1
272
     3
276
     2
284
    12
340
48
  0
DIMSTYLE
105
20F
102
{ACAD_REACTORS
330
20E
102
}
330
A
100
AcDbSymbolTableRecord
100
AcDbDimStyleTableRecord
  2
SLDDIMSTYLE2
 70
     0
 41
3.0
 44
0.0
 45
0.000000001
 73
     0
 74
     0
 77
     1
 78
    12
 79
     3
140
2.0
147
0.5
172
     1
173
     1
178
     0
271
     2
272
     3
276
     2
284
    12
289
     0
340
48
  0
DIMSTYLE
105
21E
102
{ACAD_REACTORS
330
21D
102
}
330
A
100
AcDbSymbolTableRecord
100
AcDbDimStyleTableRecord
  2
SLDDIMSTYLE3
 70
     0
 41
3.0
 44
0.0
 73
     0
 74
     0
 77
     1
 78
    12
 79
     3
140
2.0
147
0.5
173
     1
178
     0
179
     2
272
     3
276
     2
284
    12
340
48
  0
ENDTAB
  0
TABLE
  2
BLOCK_RECORD
  5
1
330
0
100
AcDbSymbolTable
 70
    10
  0
BLOCK_RECORD
  5
1F
330
1
100
AcDbSymbolTableRecord
100
AcDbBlockTableRecord
  2
*Model_Space
340
22
  0
BLOCK_RECORD
  5
1B
330
1
100
AcDbSymbolTableRecord
100
AcDbBlockTableRecord
  2
*Paper_Space
340
1E
  0
BLOCK_RECORD
  5
23
330
1
100
AcDbSymbolTableRecord
100
AcDbBlockTableRecord
  2
*Paper_Space0
340
26
  0
BLOCK_RECORD
  5
1B6
330
1
100
AcDbSymbolTableRecord
100
AcDbBlockTableRecord
  2
_D
340
0
  0
BLOCK_RECORD
  5
1C0
330
1
100
AcDbSymbolTableRecord
100
AcDbBlockTableRecord
  2
_D_1
340
0
  0
BLOCK_RECORD
  5
1CA
330
1
100
AcDbSymbolTableRecord
100
AcDbBlockTableRecord
  2
_D_2
340
0
  0
BLOCK_RECORD
  5
1D5
330
1
100
AcDbSymbolTableRecord
100
AcDbBlockTableRecord
  2
_D_3
340
0
  0
BLOCK_RECORD
  5
1DD
330
1
100
AcDbSymbolTableRecord
100
AcDbBlockTableRecord
  2
_D_4
340
0
  0
BLOCK_RECORD
  5
1E9
330
1
100
AcDbSymbolTableRecord
100
AcDbBlockTableRecord
  2
_D_5
340
0
  0
BLOCK_RECORD
  5
210
330
1
100
AcDbSymbolTableRecord
100
AcDbBlockTableRecord
  2
_D_6
340
0
  0
BLOCK_RECORD
  5
21F
330
1
100
AcDbSymbolTableRecord
100
AcDbBlockTableRecord
  2
_D_7
340
0
  0
BLOCK_RECORD
  5
22A
330
1
100
AcDbSymbolTableRecord
100
AcDbBlockTableRecord
  2
SW_CENTERMARKSYMBOL_0
340
0
102
{BLKREFS
331
235
102
}
  0
ENDTAB
  0
ENDSEC
  0
SECTION
  2
BLOCKS
  0
BLOCK
  5
20
330
1F
100
AcDbEntity
  8
0
100
AcDbBlockBegin
  2
*Model_Space
 70
     0
 10
0.0
 20
0.0
 30
0.0
  3
*Model_Space
  1

  0
ENDBLK
  5
21
330
1F
100
AcDbEntity
  8
0
100
AcDbBlockEnd
  0
BLOCK
  5
1C
330
1B
100
AcDbEntity
 67
     1
  8
0
100
AcDbBlockBegin
  2
*Paper_Space
 70
     0
 10
0.0
 20
0.0
 30
0.0
  3
*Paper_Space
  1

  0
ENDBLK
  5
1D
330
1B
100
AcDbEntity
 67
     1
  8
0
100
AcDbBlockEnd
  0
BLOCK
  5
24
330
23
100
AcDbEntity
  8
0
100
AcDbBlockBegin
  2
*Paper_Space0
 70
     0
 10
0.0
 20
0.0
 30
0.0
  3
*Paper_Space0
  1

  0
ENDBLK
  5
25
330
23
100
AcDbEntity
  8
0
100
AcDbBlockEnd
  0
BLOCK
  5
1B7
330
1B6
100
AcDbEntity
  8
0
100
AcDbBlockBegin
  2
_D
 70
     0
 10
0.0
 20
0.0
 30
0.0
  3
_D
  1

  0
SOLID
  5
1B9
330
1B6
100
AcDbEntity
  8
VERMASSUNG
100
AcDbTrace
 10
155.7216552031
 20
139.0691121112
 30
0.0
 11
158.7216552031
 21
138.6191121112
 31
0.0
 12
158.7216552031
 22
139.5191121112
 32
0.0
 13
158.7216552031
 23
139.5191121112
 33
0.0
  0
SOLID
  5
1BA
330
1B6
100
AcDbEntity
  8
VERMASSUNG
100
AcDbTrace
 10
245.7216552031
 20
139.0691121112
 30
0.0
 11
242.7216552031
 21
139.5191121112
 31
0.0
 12
242.7216552031
 22
138.6191121112
 32
0.0
 13
242.7216552031
 23
138.6191121112
 33
0.0
  0
LINE
  5
1BB
330
1B6
100
AcDbEntity
  8
VERMASSUNG
100
AcDbLine
 10
155.7216552031
 20
130.589956754
 30
0.0
 11
155.7216552031
 21
140.0691121112
 31
0.0
  0
LINE
  5
1BC
330
1B6
100
AcDbEntity
  8
VERMASSUNG
100
AcDbLine
 10
245.7216552031
 20
127.889956754
 30
0.0
 11
245.7216552031
 21
140.0691121112
 31
0.0
  0
LINE
  5
1BD
330
1B6
100
AcDbEntity
  8
VERMASSUNG
100
AcDbLine
 10
155.7216552031
 20
139.0691121112
 30
0.0
 11
245.7216552031
 21
139.0691121112
 31
0.0
  0
MTEXT
  5
1BE
330
1B6
100
AcDbEntity
  8
VERMASSUNG
100
AcDbMText
 10
198.4216551521
 20
141.6472474743
 30
0.1
 40
2.0
 41
0.0
 71
     1
 72
     1
  1
90
  7
SLDTEXTSTYLE0
 73
     1
 44
1.0
  0
ENDBLK
  5
1B8
330
1B6
100
AcDbEntity
  8
0
100
AcDbBlockEnd
  0
BLOCK
  5
1C1
330
1C0
100
AcDbEntity
  8
0
100
AcDbBlockBegin
  2
_D_1
 70
     0
 10
0.0
 20
0.0
 30
0.0
  3
_D_1
  1

  0
SOLID
  5
1C3
330
1C0
100
AcDbEntity
  8
VERMASSUNG
100
AcDbTrace
 10
245.7216552031
 20
146.889956754
 30
0.0
 11
242.7216552031
 21
147.339956754
 31
0.0
 12
242.7216552031
 22
146.439956754
 32
0.0
 13
242.7216552031
 23
146.439956754
 33
0.0
  0
SOLID
  5
1C4
330
1C0
100
AcDbEntity
  8
VERMASSUNG
100
AcDbTrace
 10
131.7216552031
 20
146.889956754
 30
0.0
 11
134.7216552031
 21
146.439956754
 31
0.0
 12
134.7216552031
 22
147.339956754
 32
0.0
 13
134.7216552031
 23
147.339956754
 33
0.0
  0
LINE
  5
1C5
330
1C0
100
AcDbEntity
  8
VERMASSUNG
100
AcDbLine
 10
245.7216552031
 20
127.889956754
 30
0.0
 11
245.7216552031
 21
147.889956754
 31
0.0
  0
LINE
  5
1C6
330
1C0
100
AcDbEntity
  8
VERMASSUNG
100
AcDbLine
 10
131.7216552031
 20
123.521461736
 30
0.0
 11
131.7216552031
 21
147.889956754
 31
0.0
  0
LINE
  5
1C7
330
1C0
100
AcDbEntity
  8
VERMASSUNG
100
AcDbLine
 10
245.7216552031
 20
146.889956754
 30
0.0
 11
131.7216552031
 21
146.889956754
 31
0.0
  0
MTEXT
  5
1C8
330
1C0
100
AcDbEntity
  8
VERMASSUNG
100
AcDbMText
 10
186.0216551331
 20
149.4680921171
 30
0.1
 40
2.0
 41
0.0
 71
     1
 72
     1
  1
114
  7
SLDTEXTSTYLE0
 73
     1
 44
1.0
  0
ENDBLK
  5
1C2
330
1C0
100
AcDbEntity
  8
0
100
AcDbBlockEnd
  0
BLOCK
  5
1CB
330
1CA
100
AcDbEntity
  8
0
100
AcDbBlockBegin
  2
_D_2
 70
     0
 10
0.0
 20
0.0
 30
0.0
  3
_D_2
  1

  0
SOLID
  5
1CD
330
1CA
100
AcDbEntity
  8
VERMASSUNG
100
AcDbTrace
 10
260.1405228479
 20
127.889956754
 30
0.0
 11
259.6905228479
 21
124.889956754
 31
0.0
 12
260.5905228479
 22
124.889956754
 32
0.0
 13
260.5905228479
 23
124.889956754
 33
0.0
  0
SOLID
  5
1CE
330
1CA
100
AcDbEntity
  8
VERMASSUNG
100
AcDbTrace
 10
260.1405228479
 20
110.889956754
 30
0.0
 11
260.5905228479
 21
113.889956754
 31
0.0
 12
259.6905228479
 22
113.889956754
 32
0.0
 13
259.6905228479
 23
113.889956754
 33
0.0
  0
LINE
  5
1CF
330
1CA
100
AcDbEntity
  8
VERMASSUNG
100
AcDbLine
 10
245.7216552031
 20
127.889956754
 30
0.0
 11
261.1405228479
 21
127.889956754
 31
0.0
  0
LINE
  5
1D0
330
1CA
100
AcDbEntity
  8
VERMASSUNG
100
AcDbLine
 10
245.7216552031
 20
110.889956754
 30
0.0
 11
261.1405228479
 21
110.889956754
 31
0.0
  0
LINE
  5
1D1
330
1CA
100
AcDbEntity
  8
VERMASSUNG
100
AcDbLine
 10
260.1405228479
 20
127.889956754
 30
0.0
 11
260.1405228479
 21
110.889956754
 31
0.0
  0
MTEXT
  5
1D2
330
1CA
100
AcDbEntity
  8
VERMASSUNG
100
AcDbMText
 10
257.5623874848
 20
117.289956596
 30
0.1
 40
2.0
 41
0.0
 71
     1
 72
     1
  1
17
  7
SLDTEXTSTYLE0
 11
-7.044195017643634E-15
 21
1.0
 31
0.0
 73
     1
 44
1.0
  0
ENDBLK
  5
1CC
330
1CA
100
AcDbEntity
  8
0
100
AcDbBlockEnd
  0
BLOCK
  5
1D6
330
1D5
100
AcDbEntity
  8
0
100
AcDbBlockBegin
  2
_D_3
 70
     0
 10
0.0
 20
0.0
 30
0.0
  3
_D_3
  1

  0
ARC
  5
1D8
330
1D5
100
AcDbEntity
  8
VERMASSUNG
100
AcDbCircle
 10
245.8671863687
 20
127.889956754
 30
0.0
 40
9.568677548486885
100
AcDbArc
 50
252.4598841946
 51
0.0
  0
SOLID
  5
1D9
330
1D5
100
AcDbEntity
  8
VERMASSUNG
100
AcDbTrace
 10
242.9834407799
 20
118.7661636061
 30
0.0
 11
245.87870741
 21
117.8606631143
 31
0.0
 12
246.0169598786
 22
118.7499809736
 32
0.0
 13
246.0169598786
 23
118.7499809736
 33
0.0
  0
SOLID
  5
1DA
330
1D5
100
AcDbEntity
  8
VERMASSUNG
100
AcDbTrace
 10
255.4358639172
 20
127.889956754
 30
0.0
 11
254.5370719698
 21
124.9926005392
 31
0.0
 12
255.4267076686
 22
124.8564083098
 32
0.0
 13
255.4267076686
 23
124.8564083098
 33
0.0
  0
MTEXT
  5
1DB
330
1D5
100
AcDbEntity
  8
VERMASSUNG
100
AcDbMText
 10
246.4495207684
 20
119.6505049225
 30
0.1
 40
2.0
 41
0.0
 71
     1
 72
     1
  1
107.5°
  7
SLDTEXTSTYLE0
 11
0.8066515584257005
 21
0.5910272948768007
 31
0.0
 73
     1
 44
1.0
  0
ENDBLK
  5
1D7
330
1D5
100
AcDbEntity
  8
0
100
AcDbBlockEnd
  0
BLOCK
  5
1DE
330
1DD
100
AcDbEntity
  8
0
100
AcDbBlockBegin
  2
_D_4
 70
     0
 10
0.0
 20
0.0
 30
0.0
  3
_D_4
  1

  0
SOLID
  5
1E0
330
1DD
100
AcDbEntity
  8
VERMASSUNG
100
AcDbTrace
 10
124.4701960571
 20
130.889956754
 30
0.0
 11
124.0201960571
 21
127.889956754
 31
0.0
 12
124.9201960571
 22
127.889956754
 32
0.0
 13
124.9201960571
 23
127.889956754
 33
0.0
  0
SOLID
  5
1E1
330
1DD
100
AcDbEntity
  8
VERMASSUNG
100
AcDbTrace
 10
124.4701960571
 20
90.889956754
 30
0.0
 11
124.9201960571
 21
93.889956754
 31
0.0
 12
124.0201960571
 22
93.889956754
 32
0.0
 13
124.0201960571
 23
93.889956754
 33
0.0
  0
LINE
  5
1E2
330
1DD
100
AcDbEntity
  8
VERMASSUNG
100
AcDbLine
 10
156.0216552031
 20
130.889956754
 30
0.0
 11
123.4701960571
 21
130.889956754
 31
0.0
  0
LINE
  5
1E3
330
1DD
100
AcDbEntity
  8
VERMASSUNG
100
AcDbLine
 10
156.0216552031
 20
90.889956754
 30
0.0
 11
123.4701960571
 21
90.889956754
 31
0.0
  0
LINE
  5
1E4
330
1DD
100
AcDbEntity
  8
VERMASSUNG
100
AcDbLine
 10
124.4701960571
 20
130.889956754
 30
0.0
 11
124.4701960571
 21
90.889956754
 31
0.0
  0
MTEXT
  5
1E5
330
1DD
100
AcDbEntity
  8
VERMASSUNG
100
AcDbMText
 10
121.6920605681
 20
104.3849568146
 30
0.1
 40
2.0
 41
0.0
 71
     1
 72
     1
  1
PSC
  7
SLDTEXTSTYLE0
 11
-7.044195017643634E-15
 21
1.0
 31
0.0
 73
     1
 44
1.0
  0
MTEXT
  5
1E6
330
1DD
100
AcDbEntity
  8
VERMASSUNG
100
AcDbMText
 10
121.8920605776
 20
108.9849569167
 30
0.1
 40
2.0
 41
0.0
 71
     1
 72
     1
  1
%%c
  7
SLDTEXTSTYLE0
 11
-7.044195017643634E-15
 21
1.0
 31
0.0
 73
     1
 44
1.0
  0
MTEXT
  5
1E7
330
1DD
100
AcDbEntity
  8
VERMASSUNG
100
AcDbMText
 10
121.6920605681
 20
112.5949573967
 30
0.1
 40
2.0
 41
0.0
 71
     1
 72
     1
  1
40
  7
SLDTEXTSTYLE0
 11
-7.044195017643634E-15
 21
1.0
 31
0.0
 73
     1
 44
1.0
  0
ENDBLK
  5
1DF
330
1DD
100
AcDbEntity
  8
0
100
AcDbBlockEnd
  0
BLOCK
  5
1EA
330
1E9
100
AcDbEntity
  8
0
100
AcDbBlockBegin
  2
_D_5
 70
     0
 10
0.0
 20
0.0
 30
0.0
  3
_D_5
  1

  0
SOLID
  5
1EC
330
1E9
100
AcDbEntity
  8
VERMASSUNG
100
AcDbTrace
 10
188.7216552031
 20
98.389956754
 30
0.0
 11
189.1716552031
 21
101.389956754
 31
0.0
 12
188.2716552031
 22
101.389956754
 32
0.0
 13
188.2716552031
 23
101.389956754
 33
0.0
  0
SOLID
  5
1ED
330
1E9
100
AcDbEntity
  8
VERMASSUNG
100
AcDbTrace
 10
188.7216552031
 20
123.389956754
 30
0.0
 11
188.2716552031
 21
120.389956754
 31
0.0
 12
189.1716552031
 22
120.389956754
 32
0.0
 13
189.1716552031
 23
120.389956754
 33
0.0
  0
LINE
  5
1EE
330
1E9
100
AcDbEntity
  8
VERMASSUNG
100
AcDbLine
 10
188.7216552031
 20
98.389956754
 30
0.0
 11
188.7216552031
 21
123.389956754
 31
0.0
  0
MTEXT
  5
1EF
330
1E9
100
AcDbEntity
  8
VERMASSUNG
100
AcDbMText
 10
186.1435197236
 20
112.962861783
 30
0.1
 40
2.0
 41
0.0
 71
     1
 72
     1
  1
%%c
  7
SLDTEXTSTYLE0
 11
6.123233995736766E-17
 21
1.0
 31
0.0
 73
     1
 44
1.0
  0
MTEXT
  5
1F0
330
1E9
100
AcDbEntity
  8
VERMASSUNG
100
AcDbMText
 10
185.9435197141
 20
116.5728617973
 30
0.1
 40
2.0
 41
0.0
 71
     1
 72
     1
  1
25
  7
SLDTEXTSTYLE0
 11
6.123233995736766E-17
 21
1.0
 31
0.0
 73
     1
 44
1.0
  0
ENDBLK
  5
1EB
330
1E9
100
AcDbEntity
  8
0
100
AcDbBlockEnd
  0
BLOCK
  5
211
330
210
100
AcDbEntity
  8
0
100
AcDbBlockBegin
  2
_D_6
 70
     0
 10
0.0
 20
0.0
 30
0.0
  3
_D_6
  1

  0
SOLID
  5
213
330
210
100
AcDbEntity
  8
VERMASSUNG
100
AcDbTrace
 10
83.7317670665
 20
100.5313225472
 30
0.0
 11
85.5348893585
 21
98.0918041521
 31
0.0
 12
86.1712854616
 22
98.7282002551
 32
0.0
 13
86.1712854616
 23
98.7282002551
 33
0.0
  0
SOLID
  5
214
330
210
100
AcDbEntity
  8
VERMASSUNG
100
AcDbTrace
 10
61.1043500685
 20
123.1587395451
 30
0.0
 11
59.3012277765
 21
125.5982579402
 31
0.0
 12
58.6648316734
 22
124.9618618372
 32
0.0
 13
58.6648316734
 23
124.9618618372
 33
0.0
  0
LINE
  5
215
330
210
100
AcDbEntity
  8
VERMASSUNG
100
AcDbLine
 10
83.7317670665
 20
100.5313225472
 30
0.0
 11
83.0246602853
 21
99.824215766
 31
0.0
  0
LINE
  5
216
330
210
100
AcDbEntity
  8
VERMASSUNG
100
AcDbLine
 10
61.1043500685
 20
123.1587395451
 30
0.0
 11
60.3972432873
 21
122.4516327639
 31
0.0
  0
LINE
  5
217
330
210
100
AcDbEntity
  8
VERMASSUNG
100
AcDbLine
 10
83.7317670665
 20
100.5313225472
 30
0.0
 11
87.9744077536
 21
96.28868186
 31
0.0
  0
LINE
  5
218
330
210
100
AcDbEntity
  8
VERMASSUNG
100
AcDbLine
 10
83.7317670665
 20
100.5313225472
 30
0.0
 11
61.1043500685
 21
123.1587395451
 31
0.0
  0
LINE
  5
219
330
210
100
AcDbEntity
  8
VERMASSUNG
100
AcDbLine
 10
61.1043500685
 20
123.1587395451
 30
0.0
 11
49.1682509987
 21
135.0948386149
 31
0.0
  0
MTEXT
  5
21A
330
210
100
AcDbEntity
  8
VERMASSUNG
100
AcDbMText
 10
50.9912680791
 20
136.9178556954
 30
0.1
 40
2.0
 41
0.0
 71
     1
 72
     1
  1
%%c
  7
SLDTEXTSTYLE0
 11
0.7071067811865466
 21
-0.7071067811865485
 31
0.0
 73
     1
 44
1.0
  0
MTEXT
  5
21B
330
210
100
AcDbEntity
  8
VERMASSUNG
100
AcDbMText
 10
53.6853449322
 20
134.5066215681
 30
0.1
 40
2.0
 41
0.0
 71
     1
 72
     1
  1
32
  7
SLDTEXTSTYLE0
 11
0.7071067811865466
 21
-0.7071067811865485
 31
0.0
 73
     1
 44
1.0
  0
MTEXT
  5
21C
330
210
100
AcDbEntity
  8
VERMASSUNG
100
AcDbMText
 10
57.7777258298
 20
130.4142406705
 30
0.1
 40
2.0
 41
0.0
 71
     1
 72
     1
  1
min.
  7
SLDTEXTSTYLE0
 11
0.7071067811865466
 21
-0.7071067811865485
 31
0.0
 73
     1
 44
1.0
  0
ENDBLK
  5
212
330
210
100
AcDbEntity
  8
0
100
AcDbBlockEnd
  0
BLOCK
  5
220
330
21F
100
AcDbEntity
  8
0
100
AcDbBlockBegin
  2
_D_7
 70
     0
 10
0.0
 20
0.0
 30
0.0
  3
_D_7
  1

  0
ARC
  5
222
330
21F
100
AcDbEntity
  8
VERMASSUNG
100
AcDbCircle
 10
72.4180585675
 20
123.5892806461
 30
0.0
 40
40.77742305412988
100
AcDbArc
 50
266.0
 51
270.0
  0
ARC
  5
223
330
21F
100
AcDbEntity
  8
VERMASSUNG
100
AcDbCircle
 10
72.4180585675
 20
123.5892806461
 30
0.0
 40
40.77742305412988
100
AcDbArc
 50
252.5322662829
 51
266.0
  0
ARC
  5
224
330
21F
100
AcDbEntity
  8
VERMASSUNG
100
AcDbCircle
 10
72.4180585675
 20
123.5892806461
 30
0.0
 40
40.77742305412989
100
AcDbArc
 50
270.0
 51
278.4096714054
  0
SOLID
  5
225
330
21F
100
AcDbEntity
  8
VERMASSUNG
100
AcDbTrace
 10
69.5735693269
 20
82.9111893451
 30
0.0
 11
66.6384256672
 21
83.6776302738
 31
0.0
 12
66.5427280497
 22
82.7827325333
 32
0.0
 13
66.5427280497
 23
82.7827325333
 33
0.0
  0
SOLID
  5
226
330
21F
100
AcDbEntity
  8
VERMASSUNG
100
AcDbTrace
 10
72.4180585675
 20
82.811857592
 30
0.0
 11
75.4325561734
 21
82.4722928946
 31
0.0
 12
75.3995165812
 22
83.3716862375
 32
0.0
 13
75.3995165812
 23
83.3716862375
 33
0.0
  0
LINE
  5
227
330
21F
100
AcDbEntity
  8
VERMASSUNG
100
AcDbLine
 10
70.6296301485
 20
98.0135627017
 30
0.0
 11
69.5038128531
 21
81.9136252948
 31
0.0
  0
LINE
  5
228
330
21F
100
AcDbEntity
  8
VERMASSUNG
100
AcDbLine
 10
72.4180585675
 20
88.389956754
 30
0.0
 11
72.4180585675
 21
81.811857592
 31
0.0
  0
MTEXT
  5
229
330
21F
100
AcDbEntity
  8
VERMASSUNG
100
AcDbMText
 10
60.7926558983
 20
87.1293630226
 30
-32.9737959269
 40
2.0
 41
0.0
 71
     1
 72
     1
  1
4°
  7
SLDTEXTSTYLE0
 11
0.9692761888860648
 21
-0.2459749370535656
 31
0.0
 73
     1
 44
1.0
  0
ENDBLK
  5
221
330
21F
100
AcDbEntity
  8
0
100
AcDbBlockEnd
  0
BLOCK
  5
22B
330
22A
100
AcDbEntity
  8
0
100
AcDbBlockBegin
  2
SW_CENTERMARKSYMBOL_0
 70
     0
 10
0.0
 20
0.0
 30
0.0
  3
SW_CENTERMARKSYMBOL_0
  1

  0
LINE
  5
22D
330
22A
100
AcDbEntity
  8
VERMASSUNG
 62
     0
100
AcDbLine
 10
0.0
 20
0.0
 30
0.0
 11
0.0
 21
2.5
 31
0.0
  0
LINE
  5
22E
330
22A
100
AcDbEntity
  8
VERMASSUNG
 62
     0
100
AcDbLine
 10
0.0
 20
0.0
 30
0.0
 11
-2.5
 21
0.0
 31
0.0
  0
LINE
  5
22F
330
22A
100
AcDbEntity
  8
VERMASSUNG
 62
     0
100
AcDbLine
 10
0.0
 20
0.0
 30
0.0
 11
0.0
 21
-2.5
 31
0.0
  0
LINE
  5
230
330
22A
100
AcDbEntity
  8
VERMASSUNG
 62
     0
100
AcDbLine
 10
0.0
 20
0.0
 30
0.0
 11
2.5
 21
0.0
 31
0.0
  0
LINE
  5
231
330
22A
100
AcDbEntity
  8
VERMASSUNG
 62
     0
100
AcDbLine
 10
0.0
 20
5.0
 30
0.0
 11
0.0
 21
22.5
 31
0.0
  0
LINE
  5
232
330
22A
100
AcDbEntity
  8
VERMASSUNG
 62
     0
100
AcDbLine
 10
-5.0
 20
0.0
 30
0.0
 11
-22.5
 21
0.0
 31
0.0
  0
LINE
  5
233
330
22A
100
AcDbEntity
  8
VERMASSUNG
 62
     0
100
AcDbLine
 10
0.0
 20
-5.0
 30
0.0
 11
0.0
 21
-22.5
 31
0.0
  0
LINE
  5
234
330
22A
100
AcDbEntity
  8
VERMASSUNG
 62
     0
100
AcDbLine
 10
5.0
 20
0.0
 30
0.0
 11
22.5
 21
0.0
 31
0.0
  0
ENDBLK
  5
22C
330
22A
100
AcDbEntity
  8
0
100
AcDbBlockEnd
  0
ENDSEC
  0
SECTION
  2
ENTITIES
  0
MTEXT
  5
49
330
1F
100
AcDbEntity
  8
KOPF_DÜNN
100
AcDbMText
 10
13.8892156294
 20
23.8442973028
 30
0.0
 40
3.0
 41
0.0
 71
     1
 72
     1
  1
PS4.BDB.RQA.090
  7
SLDTEXTSTYLE0
 73
     1
 44
1.0
  0
MTEXT
  5
4A
330
1F
100
AcDbEntity
  8
VERMASSUNG
100
AcDbMText
 10
13.9329988022
 20
28.8834360957
 30
0.0
 40
3.0
 41
0.0
 71
     1
 72
     1
  1
Bohrstange rechts_Boring bar right
  7
SLDTEXTSTYLE0
 73
     1
 44
1.0
  0
MTEXT
  5
4B
330
1F
100
AcDbEntity
  8
VERMASSUNG
100
AcDbMText
 10
98.8601118557
 20
13.8365368179
 30
0.0
 40
2.0
 41
0.0
 71
     1
 72
     1
  1
Datum: 06.06.2012
  7
SLDTEXTSTYLE0
 73
     1
 44
1.0
  0
MTEXT
  5
4C
330
1F
100
AcDbEntity
  8
VERMASSUNG
100
AcDbMText
 10
13.933048693
 20
18.0482802738
 30
0.0
 40
2.0
 41
0.0
 71
     1
 72
     1
  1
PSC ø40 / Wp.: DC..11 T3..
  7
SLDTEXTSTYLE0
 73
     1
 44
1.0
  0
MTEXT
  5
4D
330
1F
100
AcDbEntity
  8
VERMASSUNG
100
AcDbMText
 10
13.9808475933
 20
13.9090973692
 30
0.0
 40
2.0
 41
0.0
 71
     1
 72
     1
  1
Gewicht: 451g
  7
SLDTEXTSTYLE0
 73
     1
 44
1.0
  0
ARC
  5
4E
330
1F
100
AcDbEntity
  8
0
  6
Continuous
 62
     7
370
    15
100
AcDbCircle
 10
175.1216552031
 20
91.489956754
 30
0.0
 40
0.600000000000037
100
AcDbArc
 50
270.0
 51
360.0
  0
ARC
  5
4F
330
1F
100
AcDbEntity
  8
0
  6
Continuous
 62
     7
370
    15
100
AcDbCircle
 10
175.1216552031
 20
130.289956754
 30
0.0
 40
0.6000000000000512
100
AcDbArc
 50
0.0
 51
90.0
  0
LINE
  5
50
330
1F
100
AcDbEntity
  8
0
  6
Continuous
 62
     7
370
    15
100
AcDbLine
 10
156.0216552174
 20
90.889957201
 30
0.0
 11
175.1216557753
 21
90.889957201
 31
0.0
  0
LINE
  5
51
330
1F
100
AcDbEntity
  8
0
  6
Continuous
 62
     7
370
    15
100
AcDbLine
 10
175.1216557753
 20
130.8899563069
 30
0.0
 11
156.0216552174
 21
130.8899563069
 31
0.0
  0
ARC
  5
52
330
1F
100
AcDbEntity
  8
0
  6
Continuous
 62
     7
370
    15
100
AcDbCircle
 10
156.0216552031
 20
91.189956754
 30
0.0
 40
0.3000000000000398
100
AcDbArc
 50
180.0
 51
270.0
  0
ARC
  5
53
330
1F
100
AcDbEntity
  8
0
  6
Continuous
 62
     7
370
    15
100
AcDbCircle
 10
156.0216552031
 20
130.589956754
 30
0.0
 40
0.3000000000000682
100
AcDbArc
 50
90.0
 51
180.0
  0
LWPOLYLINE
  5
54
330
1F
100
AcDbEntity
  8
0
  6
Continuous
 62
     7
370
    15
100
AcDbPolyline
 90
        3
 70
   128
 43
0.0
 10
155.5216552082
 20
96.8001367788
 10
155.6471101434
 20
96.7318345125
 10
155.7216552031
 20
96.679096509
  0
LWPOLYLINE
  5
55
330
1F
100
AcDbEntity
  8
0
  6
Continuous
 62
     7
370
    15
100
AcDbPolyline
 90
        3
 70
   128
 43
0.0
 10
155.7216552031
 20
125.1008169989
 10
155.6471101434
 20
125.0480789955
 10
155.5216552082
 20
124.9797767292
  0
ARC
  5
56
330
1F
100
AcDbEntity
  8
0
  6
Continuous
 62
     7
370
    15
100
AcDbCircle
 10
177.7216552031
 20
96.389956754
 30
0.0
 40
2.000000000000028
100
AcDbArc
 50
90.0
 51
180.0
  0
ARC
  5
57
330
1F
100
AcDbEntity
  8
0
  6
Continuous
 62
     7
370
    15
100
AcDbCircle
 10
177.7216552031
 20
125.389956754
 30
0.0
 40
2.000000000000028
100
AcDbArc
 50
180.0
 51
270.0
  0
LINE
  5
58
330
1F
100
AcDbEntity
  8
0
  6
Continuous
 62
     7
370
    15
100
AcDbLine
 10
219.3074432147
 20
123.3899569402
 30
0.0
 11
177.7216550839
 21
123.3899569402
 31
0.0
  0
LINE
  5
59
330
1F
100
AcDbEntity
  8
0
  6
Continuous
 62
     7
370
    15
100
AcDbLine
 10
177.7216550839
 20
98.3899565677
 30
0.0
 11
219.3074432147
 21
98.3899565677
 31
0.0
  0
ARC
  5
5A
330
1F
100
AcDbEntity
  8
0
  6
Continuous
 62
     7
370
    15
100
AcDbCircle
 10
219.3074416407
 20
124.389956754
 30
0.0
 40
0.999999999999993
100
AcDbArc
 50
290.1029878206
 51
304.4282891726
  0
ARC
  5
5B
330
1F
100
AcDbEntity
  8
0
  6
Continuous
 62
     7
370
    15
100
AcDbCircle
 10
219.3074416407
 20
97.389956754
 30
0.0
 40
0.9999999999999716
100
AcDbArc
 50
45.0
 51
90.0
  0
LINE
  5
5C
330
1F
100
AcDbEntity
  8
0
  6
Continuous
 62
     7
370
    15
100
AcDbLine
 10
220.2216518057
 20
97.8899564857
 30
0.0
 11
236.0956129563
 21
97.8899564857
 31
0.0
  0
LINE
  5
5D
330
1F
100
AcDbEntity
  8
0
  6
Continuous
 62
     7
370
    15
100
AcDbLine
 10
220.0145480168
 20
98.0970639999
 30
0.0
 11
220.2216518057
 21
97.8899564857
 31
0.0
  0
LINE
  5
5E
330
1F
100
AcDbEntity
  8
0
  6
Continuous
 62
     7
370
    15
100
AcDbLine
 10
237.3450604212
 20
120.5889940525
 30
0.0
 11
237.3450604212
 21
120.6810347999
 31
0.0
  0
LINE
  5
5F
330
1F
100
AcDbEntity
  8
0
  6
Continuous
 62
     7
370
    15
100
AcDbLine
 10
239.758296026
 20
120.7757968719
 30
0.0
 11
239.758296026
 21
120.6837263222
 31
0.0
  0
LINE
  5
60
330
1F
100
AcDbEntity
  8
0
  6
Continuous
 62
     7
370
    15
100
AcDbLine
 10
235.9253746402
 20
120.7169307659
 30
0.0
 11
235.9253746402
 21
120.6663878898
 31
0.0
  0
LINE
  5
61
330
1F
100
AcDbEntity
  8
0
  6
Continuous
 62
     7
370
    15
100
AcDbLine
 10
241.1753741038
 20
120.6663878898
 30
0.0
 11
241.1753741038
 21
120.7169307659
 31
0.0
  0
LINE
  5
62
330
1F
100
AcDbEntity
  8
0
  6
Continuous
 62
     7
370
    15
100
AcDbLine
 10
175.7216547561
 20
130.2899573262
 30
0.0
 11
175.7216547561
 21
91.4899561818
 31
0.0
  0
SPLINE
  5
63
330
1F
100
AcDbEntity
  8
0
  6
Continuous
 62
     7
370
    15
100
AcDbSpline
210
0.0
220
0.0
230
1.0
 70
     8
 71
     3
 72
    12
 73
     8
 74
     0
 42
0.00000001
 43
0.00000001
 12
1.0
 22
0.0
 32
0.0
 13
1.0
 23
0.0
 33
0.0
 40
0.0
 40
0.0
 40
0.0
 40
0.0
 40
0.25
 40
0.25
 40
0.5
 40
0.5
 40
1.0
 40
1.0
 40
1.0
 40
1.0
 10
162.6535572051217
 20
116.7191697496155
 30
0.0
 10
162.616045319077
 20
116.7191697496155
 30
0.0
 10
162.5807579713723
 20
116.7339745639024
 30
0.0
 10
162.521828123134
 20
116.7775664370282
 30
0.0
 10
162.4983023966649
 20
116.8050798631142
 30
0.0
 10
162.4380436088969
 20
116.8942115952278
 30
0.0
 10
162.4124488466074
 20
116.9605974458456
 30
0.0
 10
162.3937495839864
 20
117.028201881023
 30
0.0
  0
LINE
  5
64
330
1F
100
AcDbEntity
  8
0
  6
Continuous
 62
     7
370
    15
100
AcDbLine
 10
164.7897531223
 20
116.7191699411
 30
0.0
 11
162.6535571125
 21
116.7191699411
 31
0.0
  0
SPLINE
  5
65
330
1F
100
AcDbEntity
  8
0
  6
Continuous
 62
     7
370
    15
100
AcDbSpline
210
0.0
220
0.0
230
1.0
 70
     8
 71
     3
 72
    12
 73
     8
 74
     0
 42
0.00000001
 43
0.00000001
 12
1.0
 22
0.0
 32
0.0
 13
1.0
 23
0.0
 33
0.0
 40
0.0
 40
0.0
 40
0.0
 40
0.0
 40
0.5000000000000002
 40
0.5000000000000002
 40
0.7500000000000001
 40
0.7500000000000001
 40
1.0
 40
1.0
 40
1.0
 40
1.0
 10
165.0495608222587
 20
117.028201881023
 30
0.0
 10
165.0308675891283
 20
116.9606192445826
 30
0.0
 10
165.0052122917164
 20
116.8941366751052
 30
0.0
 10
164.94505166903
 20
116.8051415922076
 30
0.0
 10
164.9209793572756
 20
116.7771396952085
 30
0.0
 10
164.8625978369251
 20
116.7340632945433
 30
0.0
 10
164.8271290092721
 20
116.7191697496155
 30
0.0
 10
164.7897532011233
 20
116.7191697496155
 30
0.0
  0
ELLIPSE
  5
66
330
1F
100
AcDbEntity
  8
0
  6
Continuous
 62
     7
370
    15
100
AcDbEllipse
 10
154.7727260307
 20
110.889956754
 30
0.0
 11
9.367417879781669
 21
19.74174915274995
 31
0.0
210
0.0
220
0.0
230
1.0
 40
0.3419987131
 41
5.185211263708392
 42
6.132113578252551
  0
SPLINE
  5
67
330
1F
100
AcDbEntity
  8
0
  6
Continuous
 62
     7
370
    15
100
AcDbSpline
210
0.0
220
0.0
230
1.0
 70
     8
 71
     3
 72
    12
 73
     8
 74
     0
 42
0.00000001
 43
0.00000001
 12
1.0
 22
0.0
 32
0.0
 13
1.0
 23
0.0
 33
0.0
 40
0.0
 40
0.0
 40
0.0
 40
0.0
 40
0.2500000000000011
 40
0.2500000000000011
 40
0.5000000000000021
 40
0.5000000000000021
 40
1.0
 40
1.0
 40
1.0
 40
1.0
 10
164.7897532011233
 20
130.0216131341975
 30
0.0
 10
164.827265087168
 20
130.0216131341975
 30
0.0
 10
164.8625524348727
 20
130.0171095899348
 30
0.0
 10
164.9214822831111
 20
130.0037363904815
 30
0.0
 10
164.9450080095801
 20
129.9952514879104
 30
0.0
 10
165.0052667973483
 20
129.9675036840758
 30
0.0
 10
165.0308615596376
 20
129.9465138203354
 30
0.0
 10
165.0495608222586
 20
129.9247130371459
 30
0.0
  0
LINE
  5
68
330
1F
100
AcDbEntity
  8
0
  6
Continuous
 62
     7
370
    15
100
AcDbLine
 10
162.6535571125
 20
130.0216134901
 30
0.0
 11
164.7897531223
 21
130.0216134901
 31
0.0
  0
SPLINE
  5
69
330
1F
100
AcDbEntity
  8
0
  6
Continuous
 62
     7
370
    15
100
AcDbSpline
210
0.0
220
0.0
230
1.0
 70
     8
 71
     3
 72
    12
 73
     8
 74
     0
 42
0.00000001
 43
0.00000001
 12
1.0
 22
0.0
 32
0.0
 13
1.0
 23
0.0
 33
0.0
 40
0.0
 40
0.0
 40
0.0
 40
0.0
 40
0.5000000000000016
 40
0.5000000000000016
 40
0.7500000000000008
 40
0.7500000000000008
 40
1.0
 40
1.0
 40
1.0
 40
1.0
 10
162.3937495839864
 20
129.9247130371459
 30
0.0
 10
162.4124428171169
 20
129.9465067907739
 30
0.0
 10
162.4380981145286
 20
129.9675269524835
 30
0.0
 10
162.4982587372152
 20
129.9952322984472
 30
0.0
 10
162.5223310489694
 20
130.0038675146406
 30
0.0
 10
162.58071256932
 20
130.0170821598672
 30
0.0
 10
162.616181396973
 20
130.0216131341975
 30
0.0
 10
162.6535572051217
 20
130.0216131341975
 30
0.0
  0
ELLIPSE
  5
6A
330
1F
100
AcDbEntity
  8
0
  6
Continuous
 62
     7
370
    15
100
AcDbEllipse
 10
172.6705843756
 20
110.889956754
 30
0.0
 11
-9.367417879781556
 21
19.74174915274995
 31
0.0
210
0.0
220
0.0
230
1.0
 40
0.3419987131
 41
0.1510717289270732
 42
1.097974043471209
  0
SPLINE
  5
6B
330
1F
100
AcDbEntity
  8
0
  6
Continuous
 62
     7
370
    15
100
AcDbSpline
210
0.0
220
0.0
230
1.0
 70
     8
 71
     3
 72
    12
 73
     8
 74
     0
 42
0.00000001
 43
0.00000001
 12
1.0
 22
0.0
 32
0.0
 13
1.0
 23
0.0
 33
0.0
 40
0.0
 40
0.0
 40
0.0
 40
0.0
 40
0.2500000000000012
 40
0.2500000000000012
 40
0.5000000000000023
 40
0.5000000000000023
 40
1.0
 40
1.0
 40
1.0
 40
1.0
 10
162.6535572051217
 20
91.75830037373056
 30
0.0
 10
162.616056382244
 20
91.75830037373056
 30
0.0
 10
162.580777978208
 20
91.76280134159379
 30
0.0
 10
162.5218602581556
 20
91.7761678628111
 30
0.0
 10
162.4983368767572
 20
91.78464912305596
 30
0.0
 10
162.4380812922914
 20
91.81238651873386
 30
0.0
 10
162.4125596398802
 20
91.83327051778687
 30
0.0
 10
162.3937495839864
 20
91.85520047078205
 30
0.0
  0
LINE
  5
6C
330
1F
100
AcDbEntity
  8
0
  6
Continuous
 62
     7
370
    15
100
AcDbLine
 10
164.7897531223
 20
91.7583000178
 30
0.0
 11
162.6535571125
 21
91.7583000178
 31
0.0
  0
SPLINE
  5
6D
330
1F
100
AcDbEntity
  8
0
  6
Continuous
 62
     7
370
    15
100
AcDbSpline
210
0.0
220
0.0
230
1.0
 70
     8
 71
     3
 72
    12
 73
     8
 74
     0
 42
0.00000001
 43
0.00000001
 12
1.0
 22
0.0
 32
0.0
 13
1.0
 23
0.0
 33
0.0
 40
0.0
 40
0.0
 40
0.0
 40
0.0
 40
0.4999999999999969
 40
0.4999999999999969
 40
0.7499999999999984
 40
0.7499999999999984
 40
1.0
 40
1.0
 40
1.0
 40
1.0
 10
165.0495608222587
 20
91.85520047078205
 30
0.0
 10
165.030757589407
 20
91.83327847252097
 30
0.0
 10
165.0052209303877
 20
91.81238466451109
 30
0.0
 10
164.9449947564393
 20
91.78465793839331
 30
0.0
 10
164.9210686790393
 20
91.77608480501786
 30
0.0
 10
164.863007758858
 20
91.76290569921031
 30
0.0
 10
164.8272060602321
 20
91.75830037373056
 30
0.0
 10
164.7897532011233
 20
91.75830037373055
 30
0.0
  0
ELLIPSE
  5
6E
330
1F
100
AcDbEntity
  8
0
  6
Continuous
 62
     7
370
    15
100
AcDbEllipse
 10
154.7727260307
 20
110.889956754
 30
0.0
 11
-9.367417879781755
 21
19.74174915274995
 31
0.0
210
0.0
220
0.0
230
1.0
 40
0.3419987131
 41
3.292664382516898
 42
4.239566697060999
  0
SPLINE
  5
6F
330
1F
100
AcDbEntity
  8
0
  6
Continuous
 62
     7
370
    15
100
AcDbSpline
210
0.0
220
0.0
230
1.0
 70
     8
 71
     3
 72
    12
 73
     8
 74
     0
 42
0.00000001
 43
0.00000001
 12
1.0
 22
0.0
 32
0.0
 13
1.0
 23
0.0
 33
0.0
 40
0.0
 40
0.0
 40
0.0
 40
0.0
 40
0.25
 40
0.25
 40
0.5
 40
0.5
 40
1.0
 40
1.0
 40
1.0
 40
1.0
 10
164.7897532011233
 20
105.0607437583123
 30
0.0
 10
164.8272540240011
 20
105.0607437583123
 30
0.0
 10
164.8625324280371
 20
105.0459474205591
 30
0.0
 10
164.9214501480894
 20
105.0023771594
 30
0.0
 10
164.9449735294878
 20
104.9748753608985
 30
0.0
 10
165.0052291139538
 20
104.8857761976554
 30
0.0
 10
165.0307507663649
 20
104.8197166188731
 30
0.0
 10
165.0495608222587
 20
104.7517116269049
 30
0.0
  0
LINE
  5
70
330
1F
100
AcDbEntity
  8
0
  6
Continuous
 62
     7
370
    15
100
AcDbLine
 10
162.6535571125
 20
105.0607435669
 30
0.0
 11
164.7897531223
 21
105.0607435669
 31
0.0
  0
SPLINE
  5
71
330
1F
100
AcDbEntity
  8
0
  6
Continuous
 62
     7
370
    15
100
AcDbSpline
210
0.0
220
0.0
230
1.0
 70
     8
 71
     3
 72
    12
 73
     8
 74
     0
 42
0.00000001
 43
0.00000001
 12
1.0
 22
0.0
 32
0.0
 13
1.0
 23
0.0
 33
0.0
 40
0.0
 40
0.0
 40
0.0
 40
0.0
 40
0.5
 40
0.5
 40
0.75
 40
0.75
 40
1.0
 40
1.0
 40
1.0
 40
1.0
 10
162.3937495839864
 20
104.7517116269049
 30
0.0
 10
162.4125528168381
 20
104.8196919511673
 30
0.0
 10
162.4380894758573
 20
104.8857823389641
 30
0.0
 10
162.4983156498058
 20
104.9748469514112
 30
0.0
 10
162.5222417272057
 20
105.0026480384312
 30
0.0
 10
162.580302647387
 20
105.045607111656
 30
0.0
 10
162.616104346013
 20
105.0607437583123
 30
0.0
 10
162.6535572051217
 20
105.0607437583123
 30
0.0
  0
ELLIPSE
  5
72
330
1F
100
AcDbEntity
  8
0
  6
Continuous
 62
     7
370
    15
100
AcDbEllipse
 10
172.6705843756
 20
110.889956754
 30
0.0
 11
9.367417879781641
 21
19.74174915274995
 31
0.0
210
0.0
220
0.0
230
1.0
 40
0.3419987131
 41
2.043618610118596
 42
2.99052092466273
  0
LINE
  5
73
330
1F
100
AcDbEntity
  8
0
  6
Continuous
 62
     7
370
    15
100
AcDbLine
 10
155.7216552031
 20
91.1899566914
 30
0.0
 11
155.7216552031
 21
130.5899568165
 31
0.0
  0
SPLINE
  5
74
330
1F
100
AcDbEntity
  8
0
  6
Continuous
 62
     7
370
    15
100
AcDbSpline
210
0.0
220
0.0
230
1.0
 70
     8
 71
     3
 72
    18
 73
    14
 74
     0
 42
0.00000001
 43
0.00000001
 12
1.0
 22
0.0
 32
0.0
 13
1.0
 23
0.0
 33
0.0
 40
0.0
 40
0.0
 40
0.0
 40
0.0
 40
0.2499999999999997
 40
0.2499999999999997
 40
0.4999999999999993
 40
0.4999999999999993
 40
0.6249999999999994
 40
0.6249999999999994
 40
0.7499999999999997
 40
0.7499999999999997
 40
0.8749999999999998
 40
0.8749999999999998
 40
1.0
 40
1.0
 40
1.0
 40
1.0
 10
154.4655708855585
 20
97.05876837128517
 30
0.0
 10
154.4998677050103
 20
97.05790671580334
 30
0.0
 10
154.5376789849875
 20
97.0581583188983
 30
0.0
 10
154.6242513521675
 20
97.06055683151014
 30
0.0
 10
154.6725904822504
 20
97.06272781624205
 30
0.0
 10
154.7618628395729
 20
97.06682269453728
 30
0.0
 10
154.7944043053488
 20
97.0683273124869
 30
0.0
 10
154.8705805052023
 20
97.071290370455
 30
0.0
 10
154.9137965651968
 20
97.0727777087108
 30
0.0
 10
155.0194858671628
 20
97.07440312003448
 30
0.0
 10
155.0844569258772
 20
97.07436087896058
 30
0.0
 10
155.2181173142351
 20
97.07033870563956
 30
0.0
 10
155.2774237675713
 20
97.06679747881607
 30
0.0
 10
155.3266783142472
 20
97.06323077137998
 30
0.0
  0
SPLINE
  5
75
330
1F
100
AcDbEntity
  8
0
  6
Continuous
 62
     7
370
    15
100
AcDbSpline
210
0.0
220
0.0
230
1.0
 70
     8
 71
     3
 72
    14
 73
    10
 74
     0
 42
0.00000001
 43
0.00000001
 12
1.0
 22
0.0
 32
0.0
 13
1.0
 23
0.0
 33
0.0
 40
0.0
 40
0.0
 40
0.0
 40
0.0
 40
0.1250000000000023
 40
0.1250000000000023
 40
0.2500000000000046
 40
0.2500000000000046
 40
0.5000000000000042
 40
0.5000000000000042
 40
1.0
 40
1.0
 40
1.0
 40
1.0
 10
155.3266783142164
 20
97.06323077139893
 30
0.0
 10
155.3382050919338
 20
97.06239607396492
 30
0.0
 10
155.3515578995863
 20
97.06065565968474
 30
0.0
 10
155.3817004721865
 20
97.05340806968442
 30
0.0
 10
155.3967609978011
 20
97.04806103545644
 30
0.0
 10
155.4321073517293
 20
97.03231376522801
 30
0.0
 10
155.4458394514583
 20
97.02247549106673
 30
0.0
 10
155.4792106971493
 20
96.99627150511625
 30
0.0
 10
155.4901510650033
 20
96.98218360371564
 30
0.0
 10
155.4988041900166
 20
96.96940998022727
 30
0.0
  0
LINE
  5
76
330
1F
100
AcDbEntity
  8
0
  6
Continuous
 62
     7
370
    15
100
AcDbLine
 10
155.5216552082
 20
105.3845118063
 30
0.0
 11
155.5216552082
 21
96.8001367788
 31
0.0
  0
SPLINE
  5
77
330
1F
100
AcDbEntity
  8
0
  6
Continuous
 62
     7
370
    15
100
AcDbSpline
210
0.0
220
0.0
230
1.0
 70
     8
 71
     3
 72
    16
 73
    12
 74
     0
 42
0.00000001
 43
0.00000001
 12
1.0
 22
0.0
 32
0.0
 13
1.0
 23
0.0
 33
0.0
 40
0.0
 40
0.0
 40
0.0
 40
0.0
 40
0.4999999999999984
 40
0.4999999999999984
 40
0.7499999999999966
 40
0.7499999999999966
 40
0.8749999999999972
 40
0.8749999999999972
 40
0.9374999999999987
 40
0.9374999999999987
 40
1.0
 40
1.0
 40
1.0
 40
1.0
 10
155.5216552031225
 20
105.3845119870011
 30
0.0
 10
155.5216552031225
 20
105.5020873680206
 30
0.0
 10
155.5177717779636
 20
105.6207831211219
 30
0.0
 10
155.492956452689
 20
105.8015405991144
 30
0.0
 10
155.4821170049765
 20
105.8631846758873
 30
0.0
 10
155.4489012229276
 20
105.9525216502286
 30
0.0
 10
155.4355194792989
 20
105.9827811816538
 30
0.0
 10
155.4000098294366
 20
106.0162974256412
 30
0.0
 10
155.3845928629358
 20
106.0244357714473
 30
0.0
 10
155.3528918407873
 20
106.0244203620159
 30
0.0
 10
155.3387455558364
 20
106.01737812466
 30
0.0
 10
155.3266783142468
 20
106.0082370610504
 30
0.0
  0
SPLINE
  5
78
330
1F
100
AcDbEntity
  8
0
  6
Continuous
 62
     7
370
    15
100
AcDbSpline
210
0.0
220
0.0
230
1.0
 70
     8
 71
     3
 72
    18
 73
    14
 74
     0
 42
0.00000001
 43
0.00000001
 12
1.0
 22
0.0
 32
0.0
 13
1.0
 23
0.0
 33
0.0
 40
0.0
 40
0.0
 40
0.0
 40
0.0
 40
0.125
 40
0.125
 40
0.25
 40
0.25
 40
0.375
 40
0.375
 40
0.5
 40
0.5
 40
0.75
 40
0.75
 40
1.0
 40
1.0
 40
1.0
 40
1.0
 10
155.3266783142529
 20
106.0082370610432
 30
0.0
 10
155.277973730565
 20
105.9713428218526
 30
0.0
 10
155.2194652477895
 20
105.9418115174267
 30
0.0
 10
155.0877384325197
 20
105.9325755441479
 30
0.0
 10
155.0229803610222
 20
105.9556387187048
 30
0.0
 10
154.9177697588715
 20
106.0231568403522
 30
0.0
 10
154.8745536103513
 20
106.0661679370028
 30
0.0
 10
154.7983752942674
 20
106.1564099589989
 30
0.0
 10
154.7655204619762
 20
106.2040408404742
 30
0.0
 10
154.6751525560152
 20
106.3511051398237
 30
0.0
 10
154.6257298981756
 20
106.4550184651283
 30
0.0
 10
154.538078772584
 20
106.6661524287686
 30
0.0
 10
154.5000172251935
 20
106.7738751735274
 30
0.0
 10
154.4655708855596
 20
106.8832082894368
 30
0.0
  0
SPLINE
  5
79
330
1F
100
AcDbEntity
  8
0
  6
Continuous
 62
     7
370
    15
100
AcDbSpline
210
0.0
220
0.0
230
1.0
 70
     8
 71
     3
 72
     8
 73
     4
 74
     0
 42
0.00000001
 43
0.00000001
 12
1.0
 22
0.0
 32
0.0
 13
1.0
 23
0.0
 33
0.0
 40
0.0
 40
0.0
 40
0.0
 40
0.0
 40
1.0
 40
1.0
 40
1.0
 40
1.0
 10
154.4003348595628
 20
107.1184120635656
 30
0.0
 10
154.4197610648617
 20
107.0388197919928
 30
0.0
 10
154.4412578892902
 20
106.9603780458601
 30
0.0
 10
154.4655708855595
 20
106.8832082894368
 30
0.0
  0
SPLINE
  5
7A
330
1F
100
AcDbEntity
  8
0
  6
Continuous
 62
     7
370
    15
100
AcDbSpline
210
0.0
220
0.0
230
1.0
 70
     8
 71
     3
 72
     8
 73
     4
 74
     0
 42
0.00000001
 43
0.00000001
 12
1.0
 22
0.0
 32
0.0
 13
1.0
 23
0.0
 33
0.0
 40
0.0
 40
0.0
 40
0.0
 40
0.0
 40
1.0
 40
1.0
 40
1.0
 40
1.0
 10
154.4655708855595
 20
114.8967052184913
 30
0.0
 10
154.4412578892902
 20
114.819535462068
 30
0.0
 10
154.4197610648617
 20
114.7410937159353
 30
0.0
 10
154.4003348595628
 20
114.6615014443625
 30
0.0
  0
SPLINE
  5
7B
330
1F
100
AcDbEntity
  8
0
  6
Continuous
 62
     7
370
    15
100
AcDbSpline
210
0.0
220
0.0
230
1.0
 70
     8
 71
     3
 72
    18
 73
    14
 74
     0
 42
0.00000001
 43
0.00000001
 12
1.0
 22
0.0
 32
0.0
 13
1.0
 23
0.0
 33
0.0
 40
0.0
 40
0.0
 40
0.0
 40
0.0
 40
0.2500000000000007
 40
0.2500000000000007
 40
0.5000000000000013
 40
0.5000000000000013
 40
0.625000000000001
 40
0.625000000000001
 40
0.7500000000000007
 40
0.7500000000000007
 40
0.8750000000000003
 40
0.8750000000000003
 40
1.0
 40
1.0
 40
1.0
 40
1.0
 10
154.4655708855595
 20
114.8967052184912
 30
0.0
 10
154.4998692045722
 20
115.0055685150843
 30
0.0
 10
154.5376836018842
 20
115.1125759383206
 30
0.0
 10
154.6242716629578
 20
115.3216107624589
 30
0.0
 10
154.6726217686364
 20
115.4237808564485
 30
0.0
 10
154.7619383574362
 20
115.5704616280132
 30
0.0
 10
154.7944987129245
 20
115.6182633265488
 30
0.0
 10
154.8707443466535
 20
115.7098188645741
 30
0.0
 10
154.9139037164334
 20
115.753498256566
 30
0.0
 10
155.0196325404515
 20
115.8228524738926
 30
0.0
 10
155.0846297175061
 20
115.8469687875585
 30
0.0
 10
155.2181142074603
 20
115.8387645655203
 30
0.0
 10
155.2774416009058
 20
115.8089737799284
 30
0.0
 10
155.3266783142472
 20
115.7716764468773
 30
0.0
  0
SPLINE
  5
7C
330
1F
100
AcDbEntity
  8
0
  6
Continuous
 62
     7
370
    15
100
AcDbSpline
210
0.0
220
0.0
230
1.0
 70
     8
 71
     3
 72
    16
 73
    12
 74
     0
 42
0.00000001
 43
0.00000001
 12
1.0
 22
0.0
 32
0.0
 13
1.0
 23
0.0
 33
0.0
 40
0.0
 40
0.0
 40
0.0
 40
0.0
 40
0.0624999999999991
 40
0.0624999999999991
 40
0.1249999999999982
 40
0.1249999999999982
 40
0.2499999999999987
 40
0.2499999999999987
 40
0.4999999999999996
 40
0.4999999999999996
 40
1.0
 40
1.0
 40
1.0
 40
1.0
 10
155.3266783142164
 20
115.771676446829
 30
0.0
 10
155.3387481474923
 20
115.7625334199831
 30
0.0
 10
155.3530238024256
 20
115.7554889722919
 30
0.0
 10
155.38448821455
 20
115.7554819003933
 30
0.0
 10
155.3999887393605
 20
115.7636098691903
 30
0.0
 10
155.4354276359674
 20
115.7970183301975
 30
0.0
 10
155.4490202520707
 20
115.8276854966597
 30
0.0
 10
155.4820145704635
 20
115.9165064907415
 30
0.0
 10
155.4928019637823
 20
115.9774091362893
 30
0.0
 10
155.5178552110614
 20
116.1594172136677
 30
0.0
 10
155.5216552031226
 20
116.2781059287063
 30
0.0
 10
155.5216552031227
 20
116.3954015209269
 30
0.0
  0
LINE
  5
7D
330
1F
100
AcDbEntity
  8
0
  6
Continuous
 62
     7
370
    15
100
AcDbLine
 10
155.5216552082
 20
124.9797767292
 30
0.0
 11
155.5216552082
 21
116.3954017016
 31
0.0
  0
SPLINE
  5
7E
330
1F
100
AcDbEntity
  8
0
  6
Continuous
 62
     7
370
    15
100
AcDbSpline
210
0.0
220
0.0
230
1.0
 70
     8
 71
     3
 72
    16
 73
    12
 74
     0
 42
0.00000001
 43
0.00000001
 12
1.0
 22
0.0
 32
0.0
 13
1.0
 23
0.0
 33
0.0
 40
0.0
 40
0.0
 40
0.0
 40
0.0
 40
0.4999999999999984
 40
0.4999999999999984
 40
0.7499999999999977
 40
0.7499999999999977
 40
0.8749999999999989
 40
0.8749999999999989
 40
0.9374999999999996
 40
0.9374999999999996
 40
1.0
 40
1.0
 40
1.0
 40
1.0
 10
155.5216552031225
 20
124.8747686606242
 30
0.0
 10
155.5216552031225
 20
124.8592034331847
 30
0.0
 10
155.5177717779636
 20
124.8400320553367
 30
0.0
 10
155.4929564526889
 20
124.8012596733549
 30
0.0
 10
155.4821170049764
 20
124.7866088971524
 30
0.0
 10
155.4489012229276
 20
124.7595646531728
 30
0.0
 10
155.4355194792988
 20
124.7495865540327
 30
0.0
 10
155.4000098294366
 20
124.7331120182457
 30
0.0
 10
155.3845928629358
 20
124.7273599274558
 30
0.0
 10
155.3528918407872
 20
124.7194394070291
 30
0.0
 10
155.3387455558364
 20
124.7175565710104
 30
0.0
 10
155.3266783142468
 20
124.7166827365481
 30
0.0
  0
SPLINE
  5
7F
330
1F
100
AcDbEntity
  8
0
  6
Continuous
 62
     7
370
    15
100
AcDbSpline
210
0.0
220
0.0
230
1.0
 70
     8
 71
     3
 72
    18
 73
    14
 74
     0
 42
0.00000001
 43
0.00000001
 12
1.0
 22
0.0
 32
0.0
 13
1.0
 23
0.0
 33
0.0
 40
0.0
 40
0.0
 40
0.0
 40
0.0
 40
0.1250000000000002
 40
0.1250000000000002
 40
0.2500000000000004
 40
0.2500000000000004
 40
0.3750000000000006
 40
0.3750000000000006
 40
0.5000000000000008
 40
0.5000000000000008
 40
0.7500000000000003
 40
0.7500000000000003
 40
1.0
 40
1.0
 40
1.0
 40
1.0
 10
155.3266783142529
 20
124.7166827365479
 30
0.0
 10
155.2779741852361
 20
124.7131558869297
 30
0.0
 10
155.2194665160317
 20
124.7096556137321
 30
0.0
 10
155.0877408534008
 20
124.7056126298442
 30
0.0
 10
155.0229832147805
 20
124.7055010552136
 30
0.0
 10
154.9177727981614
 20
124.707033239975
 30
0.0
 10
154.8745567632212
 20
124.7084883921901
 30
0.0
 10
154.7983785417403
 20
124.7114136537199
 30
0.0
 10
154.7655237740561
 20
124.7129239842281
 30
0.0
 10
154.6751560552143
 20
124.7170659769165
 30
0.0
 10
154.6257336860249
 20
124.719304061903
 30
0.0
 10
154.5380812239369
 20
124.7217553449494
 30
0.0
 10
154.5000184877024
 20
124.7220105803105
 30
0.0
 10
154.4655708855591
 20
124.7211451366426
 30
0.0
  0
SPLINE
  5
80
330
1F
100
AcDbEntity
  8
0
  6
Continuous
 62
     7
370
    15
100
AcDbSpline
210
0.0
220
0.0
230
1.0
 70
     8
 71
     3
 72
     8
 73
     4
 74
     0
 42
0.00000001
 43
0.00000001
 12
1.0
 22
0.0
 32
0.0
 13
1.0
 23
0.0
 33
0.0
 40
0.0
 40
0.0
 40
0.0
 40
0.0
 40
1.0
 40
1.0
 40
1.0
 40
1.0
 10
154.2266152251832
 20
107.9434659496001
 30
0.0
 10
154.2773423079056
 20
107.660114828281
 30
0.0
 10
154.3352296208927
 20
107.3851586441412
 30
0.0
 10
154.4003348595629
 20
107.1184120635656
 30
0.0
  0
SPLINE
  5
81
330
1F
100
AcDbEntity
  8
0
  6
Continuous
 62
     7
370
    15
100
AcDbSpline
210
0.0
220
0.0
230
1.0
 70
     8
 71
     3
 72
    24
 73
    20
 74
     0
 42
0.00000001
 43
0.00000001
 12
1.0
 22
0.0
 32
0.0
 13
1.0
 23
0.0
 33
0.0
 40
0.0
 40
0.0
 40
0.0
 40
0.0
 40
0.2499999999999952
 40
0.2499999999999952
 40
0.374999999999992
 40
0.374999999999992
 40
0.4374999999999909
 40
0.4374999999999909
 40
0.4687499999999903
 40
0.4687499999999903
 40
0.4999999999999898
 40
0.4999999999999898
 40
0.5624999999999908
 40
0.5624999999999908
 40
0.6249999999999918
 40
0.6249999999999918
 40
0.749999999999994
 40
0.749999999999994
 40
1.0
 40
1.0
 40
1.0
 40
1.0
 10
154.0216552031143
 20
107.9437583578934
 30
0.0
 10
154.0220582324882
 20
108.037026650523
 30
0.0
 10
154.0240879722033
 20
108.130784209372
 30
0.0
 10
154.0333966836231
 20
108.2723740950115
 30
0.0
 10
154.0373226767376
 20
108.3195545136207
 30
0.0
 10
154.0482520366537
 20
108.3901505603061
 30
0.0
 10
154.052373664748
 20
108.4139304740709
 30
0.0
 10
154.0642681859304
 20
108.4473816211181
 30
0.0
 10
154.0695549978842
 20
108.4595365731876
 30
0.0
 10
154.0861229293991
 20
108.4674192121557
 30
0.0
 10
154.0940496381664
 20
108.4598556130537
 30
0.0
 10
154.1110419763916
 20
108.436063181827
 30
0.0
 10
154.1184396771825
 20
108.4158747039825
 30
0.0
 10
154.1325420675244
 20
108.3754250793627
 30
0.0
 10
154.1386952248166
 20
108.3545694049652
 30
0.0
 10
154.1560089582777
 20
108.2914443696642
 30
0.0
 10
154.1660139991663
 20
108.2484652577627
 30
0.0
 10
154.194370455397
 20
108.1187396134738
 30
0.0
 10
154.2109189947433
 20
108.0311418863379
 30
0.0
 10
154.2266152251833
 20
107.9434659496002
 30
0.0
  0
SPLINE
  5
82
330
1F
100
AcDbEntity
  8
0
  6
Continuous
 62
     7
370
    15
100
AcDbSpline
210
0.0
220
0.0
230
1.0
 70
     8
 71
     3
 72
    16
 73
    12
 74
     0
 42
0.00000001
 43
0.00000001
 12
1.0
 22
0.0
 32
0.0
 13
1.0
 23
0.0
 33
0.0
 40
0.0
 40
0.0
 40
0.0
 40
0.0
 40
0.2499999999999998
 40
0.2499999999999998
 40
0.3749999999999998
 40
0.3749999999999998
 40
0.4999999999999998
 40
0.4999999999999998
 40
0.7499999999999998
 40
0.7499999999999998
 40
1.0
 40
1.0
 40
1.0
 40
1.0
 10
154.0216552031225
 20
113.8361551500334
 30
0.0
 10
153.941118393727
 20
113.3670823231703
 30
0.0
 10
153.8810809849248
 20
112.8867186729904
 30
0.0
 10
153.8203430376776
 20
112.1495343938494
 30
0.0
 10
153.8050205566346
 20
111.9010159906223
 30
0.0
 10
153.7844376048567
 20
111.3982325454086
 30
0.0
 10
153.7792380578202
 20
111.1433739923839
 30
0.0
 10
153.77918434728
 20
110.3870966526632
 30
0.0
 10
153.7993816845491
 20
109.8884384533533
 30
0.0
 10
153.8800599916221
 20
108.9020154826091
 30
0.0
 10
153.9411063399633
 20
108.4129013898361
 30
0.0
 10
154.0216552031225
 20
107.9437583578947
 30
0.0
  0
SPLINE
  5
83
330
1F
100
AcDbEntity
  8
0
  6
Continuous
 62
     7
370
    15
100
AcDbSpline
210
0.0
220
0.0
230
1.0
 70
     8
 71
     3
 72
    24
 73
    20
 74
     0
 42
0.00000001
 43
0.00000001
 12
1.0
 22
0.0
 32
0.0
 13
1.0
 23
0.0
 33
0.0
 40
0.0
 40
0.0
 40
0.0
 40
0.0
 40
0.2499999999999971
 40
0.2499999999999971
 40
0.3749999999999962
 40
0.3749999999999962
 40
0.4374999999999951
 40
0.4374999999999951
 40
0.4999999999999941
 40
0.4999999999999941
 40
0.5312499999999946
 40
0.5312499999999946
 40
0.562499999999995
 40
0.562499999999995
 40
0.6249999999999961
 40
0.6249999999999961
 40
0.7499999999999972
 40
0.7499999999999972
 40
1.0
 40
1.0
 40
1.0
 40
1.0
 10
154.2266152251834
 20
113.8364475583279
 30
0.0
 10
154.2108461802736
 20
113.748364894837
 30
0.0
 10
154.194232015713
 20
113.6604200783275
 30
0.0
 10
154.1656998882196
 20
113.5300727110645
 30
0.0
 10
154.1556122546657
 20
113.4868115332624
 30
0.0
 10
154.1381244318168
 20
113.423375757427
 30
0.0
 10
154.1319146238905
 20
113.4024616338832
 30
0.0
 10
154.1176367643081
 20
113.3619868421982
 30
0.0
 10
154.1100656019563
 20
113.341509198739
 30
0.0
 10
154.0926457767819
 20
113.3186628192021
 30
0.0
 10
154.0841616943273
 20
113.3121110221585
 30
0.0
 10
154.0681256207099
 20
113.322682397385
 30
0.0
 10
154.063305248432
 20
113.3347734376689
 30
0.0
 10
154.0518983478261
 20
113.3684166808888
 30
0.0
 10
154.0478773861167
 20
113.3918243601856
 30
0.0
 10
154.0371233743375
 20
113.4624129632466
 30
0.0
 10
154.0332514887148
 20
113.5093779907692
 30
0.0
 10
154.0240835239139
 20
113.6499548553753
 30
0.0
 10
154.0220551894007
 20
113.7435910849948
 30
0.0
 10
154.0216552031225
 20
113.8361551500334
 30
0.0
  0
SPLINE
  5
84
330
1F
100
AcDbEntity
  8
0
  6
Continuous
 62
     7
370
    15
100
AcDbSpline
210
0.0
220
0.0
230
1.0
 70
     8
 71
     3
 72
     8
 73
     4
 74
     0
 42
0.00000001
 43
0.00000001
 12
1.0
 22
0.0
 32
0.0
 13
1.0
 23
0.0
 33
0.0
 40
0.0
 40
0.0
 40
0.0
 40
0.0
 40
1.0
 40
1.0
 40
1.0
 40
1.0
 10
154.4003348595629
 20
114.6615014443625
 30
0.0
 10
154.3352296208927
 20
114.3947548637869
 30
0.0
 10
154.2773423079056
 20
114.1197986796471
 30
0.0
 10
154.2266152251832
 20
113.8364475583279
 30
0.0
  0
LINE
  5
85
330
1F
100
AcDbEntity
  8
0
  6
Continuous
 62
     7
370
    15
100
AcDbLine
 10
154.0216551806
 20
107.9437583017
 30
0.0
 11
154.0216551806
 21
106.7887529994
 31
0.0
  0
LINE
  5
86
330
1F
100
AcDbEntity
  8
0
  6
Continuous
 62
     7
370
    15
100
AcDbLine
 10
133.2216543091
 20
114.7298763304
 30
0.0
 11
133.2216543091
 21
107.0500371775
 31
0.0
  0
LINE
  5
87
330
1F
100
AcDbEntity
  8
0
  6
Continuous
 62
     7
370
    15
100
AcDbLine
 10
154.0216551806
 20
114.9911605085
 30
0.0
 11
154.0216551806
 21
113.8361552062
 31
0.0
  0
LINE
  5
88
330
1F
100
AcDbEntity
  8
0
  6
Continuous
 62
     7
370
    15
100
AcDbLine
 10
131.7216549945
 20
114.2968634873
 30
0.0
 11
131.7216549945
 21
107.4830500207
 31
0.0
  0
LINE
  5
89
330
1F
100
AcDbEntity
  8
0
  6
Continuous
 62
     7
370
    15
100
AcDbLine
 10
154.2266151813
 20
124.7151414196
 30
0.0
 11
154.4655709007
 21
124.7211447249
 31
0.0
  0
LINE
  5
8A
330
1F
100
AcDbEntity
  8
0
  6
Continuous
 62
     7
370
    15
100
AcDbLine
 10
133.2216543091
 20
97.3924262713
 30
0.0
 11
133.2216543091
 21
107.0500371775
 31
0.0
  0
LINE
  5
8B
330
1F
100
AcDbEntity
  8
0
  6
Continuous
 62
     7
370
    15
100
AcDbLine
 10
154.0216551806
 20
96.8698583807
 30
0.0
 11
154.0216551806
 21
106.7887529994
 31
0.0
  0
LINE
  5
8C
330
1F
100
AcDbEntity
  8
0
  6
Continuous
 62
     7
370
    15
100
AcDbLine
 10
133.2216543091
 20
97.3924262713
 30
0.0
 11
154.0216551806
 21
96.8698583807
 31
0.0
  0
ARC
  5
8D
330
1F
100
AcDbEntity
  8
0
  6
Continuous
 62
     7
370
    15
100
AcDbCircle
 10
154.2215921141
 20
96.8648348583
 30
0.0
 40
0.2000000000000066
100
AcDbArc
 50
88.5608333333
 51
178.5608333333
  0
LINE
  5
8E
330
1F
100
AcDbEntity
  8
0
  6
Continuous
 62
     7
370
    15
100
AcDbLine
 10
133.2216543091
 20
114.7298763304
 30
0.0
 11
133.2216543091
 21
124.3874872367
 31
0.0
  0
LINE
  5
8F
330
1F
100
AcDbEntity
  8
0
  6
Continuous
 62
     7
370
    15
100
AcDbLine
 10
133.2216543091
 20
124.3874872367
 30
0.0
 11
154.0216551806
 21
124.9100551273
 31
0.0
  0
LINE
  5
90
330
1F
100
AcDbEntity
  8
0
  6
Continuous
 62
     7
370
    15
100
AcDbLine
 10
154.0216551806
 20
114.9911605085
 30
0.0
 11
154.0216551806
 21
124.9100551273
 31
0.0
  0
ARC
  5
91
330
1F
100
AcDbEntity
  8
0
  6
Continuous
 62
     7
370
    15
100
AcDbCircle
 10
154.2215921141
 20
124.9150786497
 30
0.0
 40
0.1999999999999782
100
AcDbArc
 50
181.4391666667
 51
271.4391666667
  0
LINE
  5
92
330
1F
100
AcDbEntity
  8
0
  6
Continuous
 62
     7
370
    15
100
AcDbLine
 10
154.2266151813
 20
97.0647720883
 30
0.0
 11
154.4655709007
 21
97.058768783
 31
0.0
  0
LINE
  5
93
330
1F
100
AcDbEntity
  8
0
  6
Continuous
 62
     7
370
    15
100
AcDbLine
 10
131.7216549945
 20
98.2584519575
 30
0.0
 11
133.2216543091
 21
97.3924262713
 31
0.0
  0
LINE
  5
94
330
1F
100
AcDbEntity
  8
0
  6
Continuous
 62
     7
370
    15
100
AcDbLine
 10
131.7216549945
 20
98.2584519575
 30
0.0
 11
131.7216549945
 21
107.4830500207
 31
0.0
  0
LINE
  5
95
330
1F
100
AcDbEntity
  8
0
  6
Continuous
 62
     7
370
    15
100
AcDbLine
 10
131.7216549945
 20
123.5214615504
 30
0.0
 11
133.2216543091
 21
124.3874872367
 31
0.0
  0
LINE
  5
96
330
1F
100
AcDbEntity
  8
0
  6
Continuous
 62
     7
370
    15
100
AcDbLine
 10
131.7216549945
 20
114.2968634873
 30
0.0
 11
131.7216549945
 21
123.5214615504
 31
0.0
  0
SPLINE
  5
97
330
1F
100
AcDbEntity
  8
0
  6
Continuous
 62
     7
370
    15
100
AcDbSpline
210
0.0
220
0.0
230
1.0
 70
     8
 71
     3
 72
    16
 73
    12
 74
     0
 42
0.00000001
 43
0.00000001
 12
1.0
 22
0.0
 32
0.0
 13
1.0
 23
0.0
 33
0.0
 40
0.0
 40
0.0
 40
0.0
 40
0.0
 40
0.2499999999999974
 40
0.2499999999999974
 40
0.3749999999999963
 40
0.3749999999999963
 40
0.4999999999999952
 40
0.4999999999999952
 40
0.7499999999999977
 40
0.7499999999999977
 40
1.0
 40
1.0
 40
1.0
 40
1.0
 10
217.1258586881922
 20
123.1844548654943
 30
0.0
 10
217.1940800138714
 20
123.2319242414553
 30
0.0
 10
217.2944603561365
 20
123.2686330611044
 30
0.0
 10
217.4939885464176
 20
123.3113374282556
 30
0.0
 10
217.5693166941713
 20
123.3235361858377
 30
0.0
 10
217.7325823372286
 20
123.3438118784978
 30
0.0
 10
217.8208433523858
 20
123.351998754834
 30
0.0
 10
218.10536686064
 20
123.3720585985531
 30
0.0
 10
218.3242926191979
 20
123.3794416396548
 30
0.0
 10
218.7912848837692
 20
123.3878079446494
 30
0.0
 10
219.0437151346612
 20
123.3890242934733
 30
0.0
 10
219.3074416407495
 20
123.3895493409221
 30
0.0
  0
ELLIPSE
  5
98
330
1F
100
AcDbEntity
  8
0
  6
Continuous
 62
     7
370
    15
100
AcDbEllipse
 10
217.9590206891
 20
110.889956754
 30
0.0
 11
-0.2516063682710126
 21
12.49981921343799
 31
0.0
210
0.0
220
0.0
230
1.0
 40
0.2671959542
 41
0.1762003290778059
 42
2.815009419910941
  0
SPLINE
  5
99
330
1F
100
AcDbEntity
  8
0
  6
Continuous
 62
     7
370
    15
100
AcDbSpline
210
0.0
220
0.0
230
1.0
 70
     8
 71
     3
 72
    16
 73
    12
 74
     0
 42
0.00000001
 43
0.00000001
 12
1.0
 22
0.0
 32
0.0
 13
1.0
 23
0.0
 33
0.0
 40
0.0
 40
0.0
 40
0.0
 40
0.0
 40
0.2500000000000026
 40
0.2500000000000026
 40
0.3750000000000038
 40
0.3750000000000038
 40
0.500000000000005
 40
0.500000000000005
 40
0.7500000000000024
 40
0.7500000000000024
 40
1.0
 40
1.0
 40
1.0
 40
1.0
 10
219.3074416407494
 20
98.5260549084457
 30
0.0
 10
219.0437203554376
 20
98.53562501526568
 30
0.0
 10
218.7946950964223
 20
98.55054640353741
 30
0.0
 10
218.4426689526013
 20
98.58426969989804
 30
0.0
 10
218.3284111653639
 20
98.59755298080559
 30
0.0
 10
218.1138695287862
 20
98.62808427902617
 30
0.0
 10
218.0128061841691
 20
98.64538028676544
 30
0.0
 10
217.7279638468792
 20
98.70453542216939
 30
0.0
 10
217.5613368584883
 20
98.75446532027438
 30
0.0
 10
217.296139354538
 20
98.87480295567632
 30
0.0
 10
217.1940854678747
 20
98.94626384055533
 30
0.0
 10
217.1258586881922
 20
99.02926060850017
 30
0.0
  0
ELLIPSE
  5
9A
330
1F
100
AcDbEntity
  8
0
  6
Continuous
 62
     7
370
    15
100
AcDbEllipse
 10
216.2484555652
 20
115.5217390714
 30
0.0
 11
0.0660497714683288
 21
2.30032902486839
 31
0.0
210
0.0
220
0.0
230
1.0
 40
0.2554577012
 41
0.0
 42
6.283185307179586
  0
SPLINE
  5
9B
330
1F
100
AcDbEntity
  8
0
  6
Continuous
 62
     7
370
    15
100
AcDbSpline
210
0.0
220
0.0
230
1.0
 70
     8
 71
     3
 72
     8
 73
     4
 74
     0
 42
0.00000001
 43
0.00000001
 12
1.0
 22
0.0
 32
0.0
 13
1.0
 23
0.0
 33
0.0
 40
0.0
 40
0.0
 40
0.0
 40
0.0
 40
1.0
 40
1.0
 40
1.0
 40
1.0
 10
220.0236361670594
 20
98.21156674969772
 30
0.0
 10
220.0206067533752
 20
98.21459604508108
 30
0.0
 10
220.0175775049001
 20
98.21762581803152
 30
0.0
 10
220.014548421936
 20
98.22065606875137
 30
0.0
  0
SPLINE
  5
9C
330
1F
100
AcDbEntity
  8
0
  6
Continuous
 62
     7
370
    15
100
AcDbSpline
210
0.0
220
0.0
230
1.0
 70
     8
 71
     3
 72
    10
 73
     6
 74
     0
 42
0.00000001
 43
0.00000001
 12
1.0
 22
0.0
 32
0.0
 13
1.0
 23
0.0
 33
0.0
 40
0.0
 40
0.0
 40
0.0
 40
0.0
 40
0.5
 40
0.5
 40
1.0
 40
1.0
 40
1.0
 40
1.0
 10
220.014548421936
 20
98.22065606875144
 30
0.0
 10
219.9203230754558
 20
98.31491774047903
 30
0.0
 10
219.8090541146026
 20
98.38923859008796
 30
0.0
 10
219.5664871446036
 20
98.4928783715001
 30
0.0
 10
219.4369817550109
 20
98.52135406403185
 30
0.0
 10
219.3074416407495
 20
98.52605490844601
 30
0.0
  0
SPLINE
  5
9D
330
1F
100
AcDbEntity
  8
0
  6
Continuous
 62
     7
370
    15
100
AcDbSpline
210
0.0
220
0.0
230
1.0
 70
     8
 71
     3
 72
    10
 73
     6
 74
     0
 42
0.00000001
 43
0.00000001
 12
1.0
 22
0.0
 32
0.0
 13
1.0
 23
0.0
 33
0.0
 40
0.0
 40
0.0
 40
0.0
 40
0.0
 40
0.5
 40
0.5
 40
1.0
 40
1.0
 40
1.0
 40
1.0
 10
219.3074416407495
 20
123.3895493409221
 30
0.0
 10
219.4369720552427
 20
123.3898072202482
 30
0.0
 10
219.5660865207907
 20
123.4150505723372
 30
0.0
 10
219.808753084057
 20
123.5148112614742
 30
0.0
 10
219.9203048838275
 20
123.5886082656139
 30
0.0
 10
220.0145484219364
 20
123.682848306656
 30
0.0
  0
SPLINE
  5
9E
330
1F
100
AcDbEntity
  8
0
  6
Continuous
 62
     7
370
    15
100
AcDbSpline
210
0.0
220
0.0
230
1.0
 70
     8
 71
     3
 72
     8
 73
     4
 74
     0
 42
0.00000001
 43
0.00000001
 12
1.0
 22
0.0
 32
0.0
 13
1.0
 23
0.0
 33
0.0
 40
0.0
 40
0.0
 40
0.0
 40
0.0
 40
1.0
 40
1.0
 40
1.0
 40
1.0
 10
220.0145484219359
 20
123.6828483066565
 30
0.0
 10
220.0175775049001
 20
123.6858772772213
 30
0.0
 10
220.0206067533753
 20
123.6889064099938
 30
0.0
 10
220.0236361670594
 20
123.6919357053771
 30
0.0
  0
LINE
  5
9F
330
1F
100
AcDbEntity
  8
0
  6
Continuous
 62
     7
370
    15
100
AcDbLine
 10
236.325955106
 20
98.0135625492
 30
0.0
 11
220.2216518057
 21
98.0135625492
 31
0.0
  0
ELLIPSE
  5
A0
330
1F
100
AcDbEntity
  8
0
  6
Continuous
 62
     7
370
    15
100
AcDbEllipse
 10
240.3012624817
 20
110.889956754
 30
0.0
 11
4.24708025276297
 21
12.99357047085402
 31
0.0
210
0.0
220
0.0
230
1.0
 40
0.0962569477
 41
3.173044837569575
 42
3.311053936035256
  0
LINE
  5
A1
330
1F
100
AcDbEntity
  8
0
  6
Continuous
 62
     7
370
    15
100
AcDbLine
 10
220.2216518057
 20
98.0135625492
 30
0.0
 11
220.2216518057
 21
97.8899564857
 31
0.0
  0
LINE
  5
A2
330
1F
100
AcDbEntity
  8
0
  6
Continuous
 62
     7
370
    15
100
AcDbLine
 10
234.8931265009
 20
124.6246513243
 30
0.0
 11
234.8738071454
 21
124.5635463188
 31
0.0
  0
LINE
  5
A3
330
1F
100
AcDbEntity
  8
0
  6
Continuous
 62
     7
370
    15
100
AcDbLine
 10
232.4674558771
 20
117.0932933952
 30
0.0
 11
230.2673962844
 21
116.4013067524
 31
0.0
  0
ARC
  5
A4
330
1F
100
AcDbEntity
  8
0
  6
Continuous
 62
     7
370
    15
100
AcDbCircle
 10
230.7213124572
 20
114.9579125111
 30
0.0
 40
1.513085201760644
100
AcDbArc
 50
107.4572304789
 51
287.6231655537
  0
LINE
  5
A5
330
1F
100
AcDbEntity
  8
0
  6
Continuous
 62
     7
370
    15
100
AcDbLine
 10
231.1794069541
 20
113.5158389139
 30
0.0
 11
231.9729459417
 21
113.7654321997
 31
0.0
  0
LINE
  5
A6
330
1F
100
AcDbEntity
  8
0
  6
Continuous
 62
     7
370
    15
100
AcDbLine
 10
242.3347291482
 20
117.0245305898
 30
0.0
 11
236.325955106
 21
98.0135625492
 31
0.0
  0
LINE
  5
A7
330
1F
100
AcDbEntity
  8
0
  6
Continuous
 62
     7
370
    15
100
AcDbLine
 10
220.2216518057
 20
98.0135625492
 30
0.0
 11
220.0236377251
 21
98.2115663851
 31
0.0
  0
LINE
  5
A8
330
1F
100
AcDbEntity
  8
0
  6
Continuous
 62
     7
370
    15
100
AcDbLine
 10
220.0236377251
 20
123.6919354911
 30
0.0
 11
220.4577309025
 21
124.125978377
 31
0.0
  0
LINE
  5
A9
330
1F
100
AcDbEntity
  8
0
  6
Continuous
 62
     7
370
    15
100
AcDbLine
 10
220.4577309025
 20
124.125978377
 30
0.0
 11
229.8379895222
 21
124.125978377
 31
0.0
  0
ELLIPSE
  5
AA
330
1F
100
AcDbEntity
  8
0
  6
Continuous
 62
     7
370
    15
100
AcDbEllipse
 10
229.8379892491
 20
150.2574239114
 30
0.0
 11
5.684341886080801E-14
 21
26.13144513619383
 31
0.0
210
0.0
220
0.0
230
1.0
 40
0.9949698482
 41
3.14159265358981
 42
3.337267167157296
  0
ARC
  5
AB
330
1F
100
AcDbEntity
  8
0
  6
Continuous
 62
     7
370
    15
100
AcDbCircle
 10
230.7215049553
 20
114.8066018908
 30
0.0
 40
1.247232202755193
100
AcDbArc
 50
107.4487168505
 51
287.6314731386
  0
LINE
  5
AC
330
1F
100
AcDbEntity
  8
0
  6
Continuous
 62
     7
370
    15
100
AcDbLine
 10
231.0992834103
 20
113.6179591327
 30
0.0
 11
231.7438703907
 21
113.8207003738
 31
0.0
  0
LINE
  5
AD
330
1F
100
AcDbEntity
  8
0
  6
Continuous
 62
     7
370
    15
100
AcDbLine
 10
230.3475198281
 20
115.9964435997
 30
0.0
 11
232.3165220154
 21
116.615756348
 31
0.0
  0
ARC
  5
AE
330
1F
100
AcDbEntity
  8
0
  6
Continuous
 62
     7
370
    15
100
AcDbCircle
 10
230.7206231964
 20
114.7016677612
 30
0.0
 40
1.247253496783479
100
AcDbArc
 50
107.4059548056
 51
177.5546349482
  0
LINE
  5
AF
330
1F
100
AcDbEntity
  8
0
  6
Continuous
 62
     7
370
    15
100
AcDbLine
 10
232.2798055542
 20
116.4995710629
 30
0.0
 11
230.3475198281
 21
115.8918085771
 31
0.0
  0
CIRCLE
  5
B0
330
1F
100
AcDbEntity
  8
0
  6
Continuous
 62
     7
370
    15
100
AcDbCircle
 10
238.5545797827
 20
120.7176640544
 30
0.0
 40
2.62077253334098
  0
CIRCLE
  5
B1
330
1F
100
AcDbEntity
  8
0
  6
Continuous
 62
     7
370
    15
100
AcDbCircle
 10
238.5534308282
 20
120.736791447
 30
0.0
 40
1.796928348532758
  0
ARC
  5
B2
330
1F
100
AcDbEntity
  8
0
  6
Continuous
 62
     7
370
    15
100
AcDbCircle
 10
238.5509751443
 20
120.7309811824
 30
0.0
 40
1.676099846994305
100
AcDbArc
 50
32.9594835475
 51
91.4832630545
  0
ARC
  5
B3
330
1F
100
AcDbEntity
  8
0
  6
Continuous
 62
     7
370
    15
100
AcDbCircle
 10
238.5494670846
 20
120.7316037108
 30
0.0
 40
1.675439155012203
100
AcDbArc
 50
91.4322595629
 51
151.4775414937
  0
ARC
  5
B4
330
1F
100
AcDbEntity
  8
0
  6
Continuous
 62
     7
370
    15
100
AcDbCircle
 10
238.5428507846
 20
120.736132963
 30
0.0
 40
1.667463344584579
100
AcDbArc
 50
151.5057255397
 51
210.239020783
  0
LINE
  5
B5
330
1F
100
AcDbEntity
  8
0
  6
Continuous
 62
     7
370
    15
100
AcDbLine
 10
237.1468302739
 20
119.8242124433
 30
0.0
 11
237.1022758019
 21
119.8963843549
 31
0.0
  0
ARC
  5
B6
330
1F
100
AcDbEntity
  8
0
  6
Continuous
 62
     7
370
    15
100
AcDbCircle
 10
238.5496756023
 20
120.7411783128
 30
0.0
 40
1.675947917206957
100
AcDbArc
 50
213.1705241022
 51
269.5448950853
  0
LINE
  5
B7
330
1F
100
AcDbEntity
  8
0
  6
Continuous
 62
     7
370
    15
100
AcDbLine
 10
238.6561241877
 20
119.0685587267
 30
0.0
 11
238.5363635552
 21
119.0652832652
 31
0.0
  0
ARC
  5
B8
330
1F
100
AcDbEntity
  8
0
  6
Continuous
 62
     7
370
    15
100
AcDbCircle
 10
238.5513168106
 20
120.7407553133
 30
0.0
 40
1.675477845418531
100
AcDbArc
 50
273.586405838
 51
329.3231813961
  0
LINE
  5
B9
330
1F
100
AcDbEntity
  8
0
  6
Continuous
 62
     7
370
    15
100
AcDbLine
 10
240.0495615733
 20
119.9909322227
 30
0.0
 11
239.9923262131
 21
119.8859349157
 31
0.0
  0
ARC
  5
BA
330
1F
100
AcDbEntity
  8
0
  6
Continuous
 62
     7
370
    15
100
AcDbCircle
 10
238.5579497225
 20
120.7361588803
 30
0.0
 40
1.667413771263047
100
AcDbArc
 50
333.4527522504
 51
30.0259449807
  0
LINE
  5
BB
330
1F
100
AcDbEntity
  8
0
  6
Continuous
 62
     7
370
    15
100
AcDbLine
 10
239.9573159349
 20
121.6428563262
 30
0.0
 11
240.0015947354
 21
121.5705195705
 31
0.0
  0
SPLINE
  5
BC
330
1F
100
AcDbEntity
  8
0
  6
Continuous
 62
     7
370
    15
100
AcDbSpline
210
0.0
220
0.0
230
1.0
 70
     8
 71
     3
 72
    11
 73
     7
 74
     0
 42
0.00000001
 43
0.00000001
 12
1.0
 22
0.0
 32
0.0
 13
1.0
 23
0.0
 33
0.0
 40
0.0
 40
0.0
 40
0.0
 40
0.0
 40
0.2431053768943284
 40
0.5182689273516293
 40
0.7947667045153165
 40
1.0
 40
1.0
 40
1.0
 40
1.0
 10
237.1468302738852
 20
119.8242124433466
 30
0.0
 10
237.1697998336989
 20
119.8002883818188
 30
0.0
 10
237.218767936661
 20
119.7492854058078
 30
0.0
 10
237.3195248674177
 20
119.704966443628
 30
0.0
 10
237.4229185884735
 20
119.6925561038187
 30
0.0
 10
237.4857718952533
 20
119.7076567119724
 30
0.0
 10
237.5125494730658
 20
119.7140900681563
 30
0.0
  0
SPLINE
  5
BD
330
1F
100
AcDbEntity
  8
0
  6
Continuous
 62
     7
370
    15
100
AcDbSpline
210
0.0
220
0.0
230
1.0
 70
     8
 71
     3
 72
    12
 73
     8
 74
     0
 42
0.00000001
 43
0.00000001
 12
1.0
 22
0.0
 32
0.0
 13
1.0
 23
0.0
 33
0.0
 40
0.0
 40
0.0
 40
0.0
 40
0.0
 40
0.2058128664094037
 40
0.4120162777971223
 40
0.614075527608416
 40
0.8132123270578733
 40
0.9999999999999999
 40
0.9999999999999999
 40
0.9999999999999999
 40
0.9999999999999999
 10
237.5125494730658
 20
119.7140900681563
 30
0.0
 10
237.57649842387
 20
119.7278317915903
 30
0.0
 10
237.7045176732934
 20
119.7553413143842
 30
0.0
 10
237.9019393305003
 20
119.7145848259292
 30
0.0
 10
238.0724102288185
 20
119.6175721397957
 30
0.0
 10
238.201601911902
 20
119.4767838769995
 30
0.0
 10
238.2431571932542
 20
119.3628987244463
 30
0.0
 10
238.2632699740118
 20
119.3077782432385
 30
0.0
  0
SPLINE
  5
BE
330
1F
100
AcDbEntity
  8
0
  6
Continuous
 62
     7
370
    15
100
AcDbSpline
210
0.0
220
0.0
230
1.0
 70
     8
 71
     3
 72
    11
 73
     7
 74
     0
 42
0.00000001
 43
0.00000001
 12
1.0
 22
0.0
 32
0.0
 13
1.0
 23
0.0
 33
0.0
 40
0.0
 40
0.0
 40
0.0
 40
0.0
 40
0.2908663573595582
 40
0.5839620339238757
 40
0.874596379880595
 40
1.0
 40
1.0
 40
1.0
 40
1.0
 10
238.2632699740118
 20
119.3077782432385
 30
0.0
 10
238.276364403324
 20
119.2729077433284
 30
0.0
 10
238.3026536230316
 20
119.2028994816774
 30
0.0
 10
238.3842825848325
 20
119.1217221247396
 30
0.0
 10
238.4673466642708
 20
119.0788279619603
 30
0.0
 10
238.5203785104827
 20
119.068420360802
 30
0.0
 10
238.5363635552115
 20
119.0652832652279
 30
0.0
  0
SPLINE
  5
BF
330
1F
100
AcDbEntity
  8
0
  6
Continuous
 62
     7
370
    15
100
AcDbSpline
210
0.0
220
0.0
230
1.0
 70
     8
 71
     3
 72
    12
 73
     8
 74
     0
 42
0.00000001
 43
0.00000001
 12
1.0
 22
0.0
 32
0.0
 13
1.0
 23
0.0
 33
0.0
 40
0.0
 40
0.0
 40
0.0
 40
0.0
 40
0.2058404805518997
 40
0.4120612791353468
 40
0.6141369290651888
 40
0.8132753233678952
 40
1.0
 40
1.0
 40
1.0
 40
1.0
 10
238.9152181279845
 20
119.3250095735141
 30
0.0
 10
238.9346773526803
 20
119.3867926687943
 30
0.0
 10
238.9736317556123
 20
119.5104730119505
 30
0.0
 10
239.1067905181353
 20
119.6601119190809
 30
0.0
 10
239.2763402303396
 20
119.7589101378586
 30
0.0
 10
239.4641618473349
 20
119.800682965673
 30
0.0
 10
239.5849044766045
 20
119.7802796635686
 30
0.0
 10
239.6433335673994
 20
119.7704062129208
 30
0.0
  0
SPLINE
  5
C0
330
1F
100
AcDbEntity
  8
0
  6
Continuous
 62
     7
370
    15
100
AcDbSpline
210
0.0
220
0.0
230
1.0
 70
     8
 71
     3
 72
    11
 73
     7
 74
     0
 42
0.00000001
 43
0.00000001
 12
1.0
 22
0.0
 32
0.0
 13
1.0
 23
0.0
 33
0.0
 40
0.0
 40
0.0
 40
0.0
 40
0.0
 40
0.292889932751063
 40
0.5864300056627918
 40
0.8775192613667513
 40
1.0
 40
1.0
 40
1.0
 40
1.0
 10
239.6433335673994
 20
119.7704062129208
 30
0.0
 10
239.6807027312399
 20
119.764467762416
 30
0.0
 10
239.7555240088331
 20
119.752577679577
 30
0.0
 10
239.8677165450899
 20
119.7831958762669
 30
0.0
 10
239.9464249124328
 20
119.8336603835069
 30
0.0
 10
239.9818383528143
 20
119.8739908534334
 30
0.0
 10
239.9923262131399
 20
119.8859349156567
 30
0.0
  0
SPLINE
  5
C1
330
1F
100
AcDbEntity
  8
0
  6
Continuous
 62
     7
370
    15
100
AcDbSpline
210
0.0
220
0.0
230
1.0
 70
     8
 71
     3
 72
    11
 73
     7
 74
     0
 42
0.00000001
 43
0.00000001
 12
1.0
 22
0.0
 32
0.0
 13
1.0
 23
0.0
 33
0.0
 40
0.0
 40
0.0
 40
0.0
 40
0.0
 40
0.2669140471709262
 40
0.554616796449391
 40
0.8439119055756449
 40
1.0
 40
1.0
 40
1.0
 40
1.0
 10
238.6561241877264
 20
119.0685587267228
 30
0.0
 10
238.6894661180512
 20
119.0786688712091
 30
0.0
 10
238.7587468276287
 20
119.0996765926311
 30
0.0
 10
238.843889168791
 20
119.171118653535
 30
0.0
 10
238.8955072950658
 20
119.2513108411911
 30
0.0
 10
238.9101029606271
 20
119.3058839814393
 30
0.0
 10
238.9152181279844
 20
119.3250095735141
 30
0.0
  0
ARC
  5
C2
330
1F
100
AcDbEntity
  8
0
  6
Continuous
 62
     7
370
    15
100
AcDbCircle
 10
239.7323568653
 20
119.9976427939
 30
0.0
 40
0.3340538131453413
100
AcDbArc
 50
8.0467689088
 51
48.350873441
  0
SPLINE
  5
C3
330
1F
100
AcDbEntity
  8
0
  6
Continuous
 62
     7
370
    15
100
AcDbSpline
210
0.0
220
0.0
230
1.0
 70
     8
 71
     3
 72
    11
 73
     7
 74
     0
 42
0.00000001
 43
0.00000001
 12
1.0
 22
0.0
 32
0.0
 13
1.0
 23
0.0
 33
0.0
 40
0.0
 40
0.0
 40
0.0
 40
0.0
 40
0.2657624501699998
 40
0.5530069315028865
 40
0.8418290704265661
 40
0.9999999999999999
 40
0.9999999999999999
 40
0.9999999999999999
 40
0.9999999999999999
 10
240.0495615732855
 20
119.9909322227188
 30
0.0
 10
240.0574253023239
 20
120.0246363004798
 30
0.0
 10
240.0737883990026
 20
120.09476881397
 30
0.0
 10
240.0540403864516
 20
120.2036511254139
 30
0.0
 10
240.0095799763878
 20
120.2883095194774
 30
0.0
 10
239.9687913365674
 20
120.3281471125777
 30
0.0
 10
239.954358054418
 20
120.3422438616701
 30
0.0
  0
LWPOLYLINE
  5
C4
330
1F
100
AcDbEntity
  8
0
  6
Continuous
 62
     7
370
    15
100
AcDbPolyline
 90
        3
 70
   128
 43
0.0
 10
237.0767426622
 20
119.9894467632
 10
237.106537534
 20
120.0832104574
 10
237.1716183555
 20
120.1737387369
  0
SPLINE
  5
C5
330
1F
100
AcDbEntity
  8
0
  6
Continuous
 62
     7
370
    15
100
AcDbSpline
210
0.0
220
0.0
230
1.0
 70
     8
 71
     3
 72
    11
 73
     7
 74
     0
 42
0.00000001
 43
0.00000001
 12
1.0
 22
0.0
 32
0.0
 13
1.0
 23
0.0
 33
0.0
 40
0.0
 40
0.0
 40
0.0
 40
0.0
 40
0.2794044292693081
 40
0.559624450588602
 40
0.8375016789049727
 40
0.9999999999999999
 40
0.9999999999999999
 40
0.9999999999999999
 40
0.9999999999999999
 10
237.1716183555311
 20
120.2686963866302
 30
0.0
 10
237.1474431018914
 20
120.2399964290401
 30
0.0
 10
237.0990220261364
 20
120.1825127376032
 30
0.0
 10
237.0687945014591
 20
120.0716494190735
 30
0.0
 10
237.072898684055
 20
119.9727153454589
 30
0.0
 10
237.0943575082815
 20
119.9169585718954
 30
0.0
 10
237.1022758019156
 20
119.8963843549438
 30
0.0
  0
SPLINE
  5
C6
330
1F
100
AcDbEntity
  8
0
  6
Continuous
 62
     7
370
    15
100
AcDbSpline
210
0.0
220
0.0
230
1.0
 70
     8
 71
     3
 72
    12
 73
     8
 74
     0
 42
0.00000001
 43
0.00000001
 12
1.0
 22
0.0
 32
0.0
 13
1.0
 23
0.0
 33
0.0
 40
0.0
 40
0.0
 40
0.0
 40
0.0
 40
0.2057933904290654
 40
0.4120357632924481
 40
0.6141302256681721
 40
0.8132640782267908
 40
1.0
 40
1.0
 40
1.0
 40
1.0
 10
239.954358054418
 20
120.3422438616701
 30
0.0
 10
239.90986716306
 20
120.3895897342973
 30
0.0
 10
239.8207883139189
 20
120.484384774731
 30
0.0
 10
239.7565026537857
 20
120.6736818537335
 30
0.0
 10
239.7555664060366
 20
120.8696070233462
 30
0.0
 10
239.814219891337
 20
121.0533441095643
 30
0.0
 10
239.8934185383749
 20
121.1480983540321
 30
0.0
 10
239.9317455423063
 20
121.1939532573172
 30
0.0
  0
SPLINE
  5
C7
330
1F
100
AcDbEntity
  8
0
  6
Continuous
 62
     7
370
    15
100
AcDbSpline
210
0.0
220
0.0
230
1.0
 70
     8
 71
     3
 72
    11
 73
     7
 74
     0
 42
0.00000001
 43
0.00000001
 12
1.0
 22
0.0
 32
0.0
 13
1.0
 23
0.0
 33
0.0
 40
0.0
 40
0.0
 40
0.0
 40
0.0
 40
0.280232023035589
 40
0.5612861604190116
 40
0.8399911460333715
 40
1.0
 40
1.0
 40
1.0
 40
1.0
 10
239.9317455423063
 20
121.1939532573172
 30
0.0
 10
239.9559175453458
 20
121.2234467415939
 30
0.0
 10
240.0043324646285
 20
121.2825202349361
 30
0.0
 10
240.0345640690864
 20
121.3951085634761
 30
0.0
 10
240.0304695597817
 20
121.4945851252479
 30
0.0
 10
240.0093115425441
 20
121.5502260628684
 30
0.0
 10
240.0015947354025
 20
121.5705195705243
 30
0.0
  0
SPLINE
  5
C8
330
1F
100
AcDbEntity
  8
0
  6
Continuous
 62
     7
370
    15
100
AcDbSpline
210
0.0
220
0.0
230
1.0
 70
     8
 71
     3
 72
    12
 73
     8
 74
     0
 42
0.00000001
 43
0.00000001
 12
1.0
 22
0.0
 32
0.0
 13
1.0
 23
0.0
 33
0.0
 40
0.0
 40
0.0
 40
0.0
 40
0.0
 40
0.0091731645887257
 40
0.2576785847283232
 40
0.5061918635561113
 40
0.7560357480834832
 40
0.9999999999999999
 40
0.9999999999999999
 40
0.9999999999999999
 40
0.9999999999999999
 10
237.0773759615606
 20
121.5316312650987
 30
0.0
 10
237.0767277384103
 20
121.5304254810621
 30
0.0
 10
237.0585188397945
 20
121.496554430235
 30
0.0
 10
237.0344030075208
 20
121.4229465547759
 30
0.0
 10
237.0367845891333
 20
121.309701231303
 30
0.0
 10
237.0741257825419
 20
121.2019863719196
 30
0.0
 10
237.1242447405052
 20
121.1473825949596
 30
0.0
 10
237.1490058434195
 20
121.1204057822772
 30
0.0
  0
SPLINE
  5
C9
330
1F
100
AcDbEntity
  8
0
  6
Continuous
 62
     7
370
    15
100
AcDbSpline
210
0.0
220
0.0
230
1.0
 70
     8
 71
     3
 72
    12
 73
     8
 74
     0
 42
0.00000001
 43
0.00000001
 12
1.0
 22
0.0
 32
0.0
 13
1.0
 23
0.0
 33
0.0
 40
0.0
 40
0.0
 40
0.0
 40
0.0
 40
0.2057519779924419
 40
0.4119607507592345
 40
0.6140155786174196
 40
0.8131404293782998
 40
1.0
 40
1.0
 40
1.0
 40
1.0
 10
237.1490058434195
 20
121.1204057822772
 30
0.0
 10
237.1934869662156
 20
121.0717048286522
 30
0.0
 10
237.2825479653881
 20
120.9741947992771
 30
0.0
 10
237.3468456462079
 20
120.7827422837345
 30
0.0
 10
237.3477957834732
 20
120.5870079102474
 30
0.0
 10
237.2891850428559
 20
120.4055566652087
 30
0.0
 10
237.2099681698253
 20
120.3133396983299
 30
0.0
 10
237.1716183555311
 20
120.2686963866302
 30
0.0
  0
ARC
  5
CA
330
1F
100
AcDbEntity
  8
0
  6
Continuous
 62
     7
370
    15
100
AcDbCircle
 10
236.7609338131
 20
120.5891206299
 30
0.0
 40
0.5841266218889001
100
AcDbArc
 50
314.6741963536
 51
359.9875842887
  0
ARC
  5
CB
330
1F
100
AcDbEntity
  8
0
  6
Continuous
 62
     7
370
    15
100
AcDbCircle
 10
240.3425545315
 20
120.6839054012
 30
0.0
 40
0.5842585328964333
100
AcDbArc
 50
180.0175615244
 51
228.3617061459
  0
ARC
  5
CC
330
1F
100
AcDbEntity
  8
0
  6
Continuous
 62
     7
370
    15
100
AcDbCircle
 10
239.6960070018
 20
121.3356415732
 30
0.0
 40
0.3349093373718479
100
AcDbArc
 50
6.5507975731
 51
108.3060494403
  0
SPLINE
  5
CD
330
1F
100
AcDbEntity
  8
0
  6
Continuous
 62
     7
370
    15
100
AcDbSpline
210
0.0
220
0.0
230
1.0
 70
     8
 71
     3
 72
    11
 73
     7
 74
     0
 42
0.00000001
 43
0.00000001
 12
1.0
 22
0.0
 32
0.0
 13
1.0
 23
0.0
 33
0.0
 40
0.0
 40
0.0
 40
0.0
 40
0.0
 40
0.2423643062723843
 40
0.5166849326330111
 40
0.7923390587593652
 40
1.0
 40
1.0
 40
1.0
 40
1.0
 10
239.957315934915
 20
121.6428563262173
 30
0.0
 10
239.9344343061206
 20
121.6667277584871
 30
0.0
 10
239.8856540504219
 20
121.7176181291191
 30
0.0
 10
239.7850604947623
 20
121.7610415038608
 30
0.0
 10
239.6812823370537
 20
121.7721843856521
 30
0.0
 10
239.6180029980109
 20
121.7556589541617
 30
0.0
 10
239.5908144247717
 20
121.7485586444684
 30
0.0
  0
ARC
  5
CE
330
1F
100
AcDbEntity
  8
0
  6
Continuous
 62
     7
370
    15
100
AcDbCircle
 10
237.3717444684
 20
121.2743439349
 30
0.0
 40
0.3348137791466413
100
AcDbArc
 50
74.7110830285
 51
174.4656905406
  0
SPLINE
  5
CF
330
1F
100
AcDbEntity
  8
0
  6
Continuous
 62
     7
370
    15
100
AcDbSpline
210
0.0
220
0.0
230
1.0
 70
     8
 71
     3
 72
    11
 73
     7
 74
     0
 42
0.00000001
 43
0.00000001
 12
1.0
 22
0.0
 32
0.0
 13
1.0
 23
0.0
 33
0.0
 40
0.0
 40
0.0
 40
0.0
 40
0.0
 40
0.2535059569022345
 40
0.5075761223202909
 40
0.7595128310261534
 40
1.0
 40
1.0
 40
1.0
 40
1.0
 10
237.4600303304381
 20
121.692242499704
 30
0.0
 10
237.4226452186305
 20
121.6989829757988
 30
0.0
 10
237.347791789876
 20
121.7124789297424
 30
0.0
 10
237.2357951419699
 20
121.6835124105894
 30
0.0
 10
237.1390400837063
 20
121.623358878363
 30
0.0
 10
237.0976095632095
 20
121.5617294797884
 30
0.0
 10
237.0773759615606
 20
121.5316312650987
 30
0.0
  0
SPLINE
  5
D0
330
1F
100
AcDbEntity
  8
0
  6
Continuous
 62
     7
370
    15
100
AcDbSpline
210
0.0
220
0.0
230
1.0
 70
     8
 71
     3
 72
    12
 73
     8
 74
     0
 42
0.00000001
 43
0.00000001
 12
1.0
 22
0.0
 32
0.0
 13
1.0
 23
0.0
 33
0.0
 40
0.0
 40
0.0
 40
0.0
 40
0.0
 40
0.2058603179165755
 40
0.4121056943384918
 40
0.6141966306864449
 40
0.8133179336566481
 40
1.0
 40
1.0
 40
1.0
 40
1.0
 10
239.5908144247717
 20
121.7485586444684
 30
0.0
 10
239.5268529280864
 20
121.7334537150079
 30
0.0
 10
239.3988102957364
 20
121.7032156025526
 30
0.0
 10
239.2013601760673
 20
121.7418003142481
 30
0.0
 10
239.0308810141898
 20
121.8390081249605
 30
0.0
 10
238.9017295196427
 20
121.982119759305
 30
0.0
 10
238.8601927065558
 20
122.0985387302637
 30
0.0
 10
238.8400939238257
 20
122.1548714007088
 30
0.0
  0
SPLINE
  5
D1
330
1F
100
AcDbEntity
  8
0
  6
Continuous
 62
     7
370
    15
100
AcDbSpline
210
0.0
220
0.0
230
1.0
 70
     8
 71
     3
 72
    11
 73
     7
 74
     0
 42
0.00000001
 43
0.00000001
 12
1.0
 22
0.0
 32
0.0
 13
1.0
 23
0.0
 33
0.0
 40
0.0
 40
0.0
 40
0.0
 40
0.0
 40
0.2524801167292094
 40
0.5068907811478198
 40
0.759169384521043
 40
0.9999999999999999
 40
0.9999999999999999
 40
0.9999999999999999
 40
0.9999999999999999
 10
238.8400939238257
 20
122.1548714007088
 30
0.0
 10
238.8269968981463
 20
122.1905462775368
 30
0.0
 10
238.8007027025346
 20
122.2621688132713
 30
0.0
 10
238.719113838358
 20
122.3448701607529
 30
0.0
 10
238.6181292640782
 20
122.3988509510688
 30
0.0
 10
238.5438612967407
 20
122.4040031325689
 30
0.0
 10
238.5075894129461
 20
122.4065194169827
 30
0.0
  0
SPLINE
  5
D2
330
1F
100
AcDbEntity
  8
0
  6
Continuous
 62
     7
370
    15
100
AcDbSpline
210
0.0
220
0.0
230
1.0
 70
     8
 71
     3
 72
    12
 73
     8
 74
     0
 42
0.00000001
 43
0.00000001
 12
1.0
 22
0.0
 32
0.0
 13
1.0
 23
0.0
 33
0.0
 40
0.0
 40
0.0
 40
0.0
 40
0.0
 40
0.009159977974441
 40
0.2573301282697962
 40
0.5054884590496602
 40
0.7549934125125858
 40
0.9999999999999999
 40
0.9999999999999999
 40
0.9999999999999999
 40
0.9999999999999999
 10
238.5075894129461
 20
122.4065194169827
 30
0.0
 10
238.5062185537403
 20
122.406478891854
 30
0.0
 10
238.4677071756271
 20
122.4053404244231
 30
0.0
 10
238.3918355545488
 20
122.3894463599598
 30
0.0
 10
238.295090755477
 20
122.3306647933476
 30
0.0
 10
238.2206959260787
 20
122.2440917907652
 30
0.0
 10
238.1989248407026
 20
122.1729081344979
 30
0.0
 10
238.1881383192725
 20
122.1376400704332
 30
0.0
  0
SPLINE
  5
D3
330
1F
100
AcDbEntity
  8
0
  6
Continuous
 62
     7
370
    15
100
AcDbSpline
210
0.0
220
0.0
230
1.0
 70
     8
 71
     3
 72
    12
 73
     8
 74
     0
 42
0.00000001
 43
0.00000001
 12
1.0
 22
0.0
 32
0.0
 13
1.0
 23
0.0
 33
0.0
 40
0.0
 40
0.0
 40
0.0
 40
0.0
 40
0.2058449266301454
 40
0.4120681511946391
 40
0.6141416802512288
 40
0.8132654931958886
 40
1.0
 40
1.0
 40
1.0
 40
1.0
 10
238.1881383192724
 20
122.1376400704332
 30
0.0
 10
238.1686791051477
 20
122.0744940420501
 30
0.0
 10
238.1297249151204
 20
121.9480859367007
 30
0.0
 10
237.9965682103658
 20
121.7962532971229
 30
0.0
 10
237.8270187233483
 20
121.6976228153053
 30
0.0
 10
237.6392018699492
 20
121.6581617174601
 30
0.0
 10
237.5184619200641
 20
121.6811280432025
 30
0.0
 10
237.4600303304381
 20
121.692242499704
 30
0.0
  0
ARC
  5
D4
330
1F
100
AcDbEntity
  8
0
  6
Continuous
 62
     7
370
    15
100
AcDbCircle
 10
237.6143184403
 20
122.1629192698
 30
0.0
 40
0.5862770495779974
100
AcDbArc
 50
254.7420030594
 51
348.1677349094
  0
ARC
  5
D5
330
1F
100
AcDbEntity
  8
0
  6
Continuous
 62
     7
370
    15
100
AcDbCircle
 10
239.4068778046
 20
122.2104351175
 30
0.0
 40
0.5864263664594932
100
AcDbArc
 50
194.8712972644
 51
288.27974534
  0
ARC
  5
D6
330
1F
100
AcDbEntity
  8
0
  6
Continuous
 62
     7
370
    15
100
AcDbCircle
 10
238.550374372
 20
120.6711790704
 30
0.0
 40
2.625004104235187
100
AcDbArc
 50
180.1045768185
 51
359.8954231815
  0
ARC
  5
D7
330
1F
100
AcDbEntity
  8
0
  6
Continuous
 62
     7
370
    15
100
AcDbCircle
 10
238.5161615516
 20
121.9738980651
 30
0.0
 40
0.3351620562233101
100
AcDbArc
 50
14.8735311719
 51
168.1532989784
  0
LINE
  5
D8
330
1F
100
AcDbEntity
  8
0
  6
Continuous
 62
     7
370
    15
100
AcDbLine
 10
232.0747432244
 20
113.8007679752
 30
0.0
 11
242.233028723
 21
116.9958612214
 31
0.0
  0
LINE
  5
D9
330
1F
100
AcDbEntity
  8
0
  6
Continuous
 62
     7
370
    15
100
AcDbLine
 10
233.3799582851
 20
115.5256912376
 30
0.0
 11
231.9604736698
 21
114.1469934287
 31
0.0
  0
LINE
  5
DA
330
1F
100
AcDbEntity
  8
0
  6
Continuous
 62
     7
370
    15
100
AcDbLine
 10
241.9429999721
 20
117.5085393975
 30
0.0
 11
242.1187591684
 21
117.3420864421
 31
0.0
  0
SPLINE
  5
DB
330
1F
100
AcDbEntity
  8
0
  6
Continuous
 62
     7
370
    15
100
AcDbSpline
210
0.0
220
0.0
230
1.0
 70
     8
 71
     3
 72
    10
 73
     6
 74
     0
 42
0.00000001
 43
0.00000001
 12
1.0
 22
0.0
 32
0.0
 13
1.0
 23
0.0
 33
0.0
 40
0.0
 40
0.0
 40
0.0
 40
0.0
 40
0.3518009696524972
 40
0.7034204166233025
 40
1.0
 40
1.0
 40
1.0
 40
1.0
 10
242.2405240071005
 20
116.9773004281171
 30
0.0
 10
242.281698549402
 20
116.9949267336539
 30
0.0
 10
242.3640263887159
 20
117.0301702498855
 30
0.0
 10
242.4540888162463
 20
117.1252641830119
 30
0.0
 10
242.4854381570441
 20
117.2011834525373
 30
0.0
 10
242.4997818601317
 20
117.2359198595234
 30
0.0
  0
LINE
  5
DC
330
1F
100
AcDbEntity
  8
0
  6
Continuous
 62
     7
370
    15
100
AcDbLine
 10
232.0724707973
 20
113.7791328861
 30
0.0
 11
242.2405240071
 21
116.9773004281
 31
0.0
  0
SPLINE
  5
DD
330
1F
100
AcDbEntity
  8
0
  6
Continuous
 62
     7
370
    15
100
AcDbSpline
210
0.0
220
0.0
230
1.0
 70
     8
 71
     3
 72
    14
 73
    10
 74
     0
 42
0.00000001
 43
0.00000001
 12
1.0
 22
0.0
 32
0.0
 13
1.0
 23
0.0
 33
0.0
 40
0.0
 40
0.0
 40
0.0
 40
0.0
 40
0.1588496922763696
 40
0.3173312122747293
 40
0.4720156873727186
 40
0.623640080806589
 40
0.774657089329316
 40
0.9277351880787232
 40
1.0
 40
1.0
 40
1.0
 40
1.0
 10
231.5763738882727
 20
114.2740181444981
 30
0.0
 10
231.5668422032798
 20
114.2290316299136
 30
0.0
 10
231.5478009252612
 20
114.1391628677868
 30
0.0
 10
231.5782980596624
 20
114.0031525969321
 30
0.0
 10
231.6488646962792
 20
113.8875046307557
 30
0.0
 10
231.7534594495132
 20
113.8035431106194
 30
0.0
 10
231.8789774651487
 20
113.7594470300361
 30
0.0
 10
231.989682882956
 20
113.7572046584295
 30
0.0
 10
232.0523683180932
 20
113.7738082956299
 30
0.0
 10
232.0724707973189
 20
113.7791328861215
 30
0.0
  0
LINE
  5
DE
330
1F
100
AcDbEntity
  8
0
  6
Continuous
 62
     7
370
    15
100
AcDbLine
 10
234.7823512685
 20
124.4173091168
 30
0.0
 11
231.5763738883
 21
114.2740181445
 31
0.0
  0
SPLINE
  5
DF
330
1F
100
AcDbEntity
  8
0
  6
Continuous
 62
     7
370
    15
100
AcDbSpline
210
0.0
220
0.0
230
1.0
 70
     8
 71
     3
 72
    10
 73
     6
 74
     0
 42
0.00000001
 43
0.00000001
 12
1.0
 22
0.0
 32
0.0
 13
1.0
 23
0.0
 33
0.0
 40
0.0
 40
0.0
 40
0.0
 40
0.0
 40
0.3518044204897122
 40
0.7034282112960015
 40
1.0
 40
1.0
 40
1.0
 40
1.0
 10
235.041601670999
 20
124.6759280825802
 30
0.0
 10
235.0004272803713
 20
124.6583017139833
 30
0.0
 10
234.918099639604
 20
124.6230580268331
 30
0.0
 10
234.828035974816
 20
124.527965865213
 30
0.0
 10
234.7966921481236
 20
124.4520453608067
 30
0.0
 10
234.7823512685484
 20
124.4173091168352
 30
0.0
  0
LINE
  5
E0
330
1F
100
AcDbEntity
  8
0
  6
Continuous
 62
     7
370
    15
100
AcDbLine
 10
245.2096623314
 20
127.8740953917
 30
0.0
 11
235.041601671
 21
124.6759280826
 31
0.0
  0
SPLINE
  5
E1
330
1F
100
AcDbEntity
  8
0
  6
Continuous
 62
     7
370
    15
100
AcDbSpline
210
0.0
220
0.0
230
1.0
 70
     8
 71
     3
 72
    14
 73
    10
 74
     0
 42
0.00000001
 43
0.00000001
 12
1.0
 22
0.0
 32
0.0
 13
1.0
 23
0.0
 33
0.0
 40
0.0
 40
0.0
 40
0.0
 40
0.0
 40
0.1588507448991896
 40
0.3173317328837491
 40
0.4720136335484338
 40
0.6236460994162446
 40
0.7746640182678471
 40
0.9277431231790695
 40
0.9999999999999999
 40
0.9999999999999999
 40
0.9999999999999999
 40
0.9999999999999999
 10
245.7057517898268
 20
127.3792110646912
 30
0.0
 10
245.7152837206929
 20
127.4241977206997
 30
0.0
 10
245.7343253949475
 20
127.5140663172674
 30
0.0
 10
245.7038252407298
 20
127.6500729851877
 30
0.0
 10
245.6332695671875
 20
127.7657289343733
 30
0.0
 10
245.5286665172494
 20
127.8496837628703
 30
0.0
 10
245.4031487279755
 20
127.8937821951568
 30
0.0
 10
245.2924449306479
 20
127.8960247006962
 30
0.0
 10
245.2297623166521
 20
127.8794199260211
 30
0.0
 10
245.2096623313612
 20
127.8740953917452
 30
0.0
  0
LINE
  5
E2
330
1F
100
AcDbEntity
  8
0
  6
Continuous
 62
     7
370
    15
100
AcDbLine
 10
242.4997818601
 20
117.2359198595
 30
0.0
 11
245.7057517898
 21
127.3792110647
 31
0.0
  0
ARC
  5
E3
330
1F
100
AcDbEntity
  8
0
  6
Continuous
 62
     7
370
    15
100
AcDbCircle
 10
231.9601726963
 20
114.1625998017
 30
0.0
 40
0.3795374508775953
100
AcDbArc
 50
162.5698501805
 51
287.5698843119
  0
ARC
  5
E4
330
1F
100
AcDbEntity
  8
0
  6
Continuous
 62
     7
370
    15
100
AcDbCircle
 10
242.1193534417
 20
117.3579553186
 30
0.0
 40
0.379518385332654
100
AcDbArc
 50
287.4290816089
 51
342.431724961
  0
LINE
  5
E5
330
1F
100
AcDbEntity
  8
0
  6
Continuous
 62
     7
370
    15
100
AcDbLine
 10
242.4811703098
 20
117.2434007081
 30
0.0
 11
245.6840706003
 21
127.3769405003
 31
0.0
  0
ARC
  5
E6
330
1F
100
AcDbEntity
  8
0
  6
Continuous
 62
     7
370
    15
100
AcDbCircle
 10
245.3219591656
 20
127.4906275049
 30
0.0
 40
0.3795384383375593
100
AcDbArc
 50
342.5700138179
 51
107.5696365128
  0
LINE
  5
E7
330
1F
100
AcDbEntity
  8
0
  6
Continuous
 62
     7
370
    15
100
AcDbLine
 10
245.2073899043
 20
127.8524607683
 30
0.0
 11
235.0491044057
 21
124.657367755
 31
0.0
  0
ARC
  5
E8
330
1F
100
AcDbEntity
  8
0
  6
Continuous
 62
     7
370
    15
100
AcDbCircle
 10
235.1628010475
 20
124.2952415699
 30
0.0
 40
0.3795553982096098
100
AcDbArc
 50
107.4307072055
 51
162.4284868418
  0
LINE
  5
E9
330
1F
100
AcDbEntity
  8
0
  6
Continuous
 62
     7
370
    15
100
AcDbLine
 10
234.8009553683
 20
124.4098278026
 30
0.0
 11
231.5980625284
 21
114.2762875448
 31
0.0
  0
LINE
  5
EA
330
1F
100
AcDbEntity
  8
0
  6
Continuous
 62
     7
370
    15
100
AcDbLine
 10
235.3391331566
 20
124.0963222722
 30
0.0
 11
235.1633665097
 21
124.2805341522
 31
0.0
  0
SPLINE
  5
EB
330
1F
100
AcDbEntity
  8
0
  6
Continuous
 62
     7
370
    15
100
AcDbSpline
210
0.0
220
0.0
230
1.0
 70
     8
 71
     3
 72
    11
 73
     7
 74
     0
 42
0.00000001
 43
0.00000001
 12
1.0
 22
0.0
 32
0.0
 13
1.0
 23
0.0
 33
0.0
 40
0.0
 40
0.0
 40
0.0
 40
0.0
 40
0.0072970386478794
 40
0.1268425069377022
 40
0.5874252039710403
 40
1.0
 40
1.0
 40
1.0
 40
1.0
 10
233.8661310208029
 20
116.0184963869699
 30
0.0
 10
233.8650710281914
 20
116.0173780725458
 30
0.0
 10
233.8466454549331
 20
115.9979387065307
 30
0.0
 10
233.7593268959056
 20
115.9064043451911
 30
0.0
 10
233.5955481424407
 20
115.737727994223
 30
0.0
 10
233.449138270843
 20
115.5937310794278
 30
0.0
 10
233.3799582851118
 20
115.5256912375637
 30
0.0
  0
LINE
  5
EC
330
1F
100
AcDbEntity
  8
0
  6
Continuous
 62
     7
370
    15
100
AcDbLine
 10
235.6608194244
 20
116.6022582243
 30
0.0
 11
240.6497281921
 21
118.1714240725
 31
0.0
  0
LINE
  5
ED
330
1F
100
AcDbEntity
  8
0
  6
Continuous
 62
     7
370
    15
100
AcDbLine
 10
241.6213137043
 20
125.0509707521
 30
0.0
 11
236.6324049366
 21
123.4818049039
 31
0.0
  0
ARC
  5
EE
330
1F
100
AcDbEntity
  8
0
  6
Continuous
 62
     7
370
    15
100
AcDbCircle
 10
241.9228111737
 20
124.0987766983
 30
0.0
 40
0.9987863835817279
100
AcDbArc
 50
342.5702402726
 51
107.569582695
  0
LINE
  5
EF
330
1F
100
AcDbEntity
  8
0
  6
Continuous
 62
     7
370
    15
100
AcDbLine
 10
241.3027417791
 20
118.8228450979
 30
0.0
 11
242.8757381571
 21
123.7996038313
 31
0.0
  0
ARC
  5
F0
330
1F
100
AcDbEntity
  8
0
  6
Continuous
 62
     7
370
    15
100
AcDbCircle
 10
240.3505278489
 20
119.1243714195
 30
0.0
 40
0.9988140424935799
100
AcDbArc
 50
287.4309135986
 51
342.4291836232
  0
ARC
  5
F1
330
1F
100
AcDbEntity
  8
0
  6
Continuous
 62
     7
370
    15
100
AcDbCircle
 10
235.3593151093
 20
117.5544454156
 30
0.0
 40
0.9987819077785859
100
AcDbArc
 50
162.5697470491
 51
287.5700759186
  0
LINE
  5
F2
330
1F
100
AcDbEntity
  8
0
  6
Continuous
 62
     7
370
    15
100
AcDbLine
 10
235.9793913496
 20
122.8303838785
 30
0.0
 11
234.4063949716
 21
117.8536251451
 31
0.0
  0
ARC
  5
F3
330
1F
100
AcDbEntity
  8
0
  6
Continuous
 62
     7
370
    15
100
AcDbCircle
 10
236.9315664461
 20
122.5288964855
 30
0.0
 40
0.9987652690543402
100
AcDbArc
 50
107.4294571132
 51
162.4306401086
  0
CIRCLE
  5
F4
330
1F
100
AcDbEntity
  8
0
  6
Continuous
 62
     7
370
    15
100
AcDbCircle
 10
238.6356499136
 20
120.823078274
 30
0.0
 40
3.045230741209997
  0
SPLINE
  5
F5
330
1F
100
AcDbEntity
  8
0
  6
Continuous
 62
     7
370
    15
100
AcDbSpline
210
0.0
220
0.0
230
1.0
 70
     8
 71
     3
 72
    11
 73
     7
 74
     0
 42
0.00000001
 43
0.00000001
 12
1.0
 22
0.0
 32
0.0
 13
1.0
 23
0.0
 33
0.0
 40
0.0
 40
0.0
 40
0.0
 40
0.0
 40
0.327769605498745
 40
0.6551483252210325
 40
0.9907869740580441
 40
1.0
 40
1.0
 40
1.0
 40
1.0
 10
241.9429999721235
 20
117.5085393975326
 30
0.0
 10
241.8904400826718
 20
117.5589445785856
 30
0.0
 10
241.7853829847272
 20
117.6596948293575
 30
0.0
 10
241.6121621667329
 20
117.8333844452965
 30
0.0
 10
241.5028914585952
 20
117.9463208925971
 30
0.0
 10
241.451901197579
 20
118.0000846840109
 30
0.0
 10
241.4505389464087
 20
118.0015210325666
 30
0.0
  0
LWPOLYLINE
  5
F6
330
1F
100
AcDbEntity
  8
0
  6
Continuous
 62
     7
370
    15
100
AcDbPolyline
 90
        3
 70
   128
 43
0.0
 10
235.7322257889
 20
121.6718791316
 10
235.6051039827
 20
121.04857846
 10
235.5910670889
 20
120.7569608728
  0
ARC
  5
F7
330
1F
100
AcDbEntity
  8
0
  6
Continuous
 62
     7
370
    15
100
AcDbCircle
 10
238.6404102104
 20
120.7504636043
 30
0.0
 40
3.050662748296627
100
AcDbArc
 50
0.1220280229
 51
162.4199594682
  0
LINE
  5
F8
330
1F
100
AcDbEntity
  8
0
  6
Continuous
 62
     7
370
    15
100
AcDbLine
 10
243.902167393
 20
126.0222666229
 30
0.0
 11
245.3216520083
 21
127.4756271656
 31
0.0
  0
SPLINE
  5
F9
330
1F
100
AcDbEntity
  8
0
  6
Continuous
 62
     7
370
    15
100
AcDbSpline
210
0.0
220
0.0
230
1.0
 70
     8
 71
     3
 72
    11
 73
     7
 74
     0
 42
0.00000001
 43
0.00000001
 12
1.0
 22
0.0
 32
0.0
 13
1.0
 23
0.0
 33
0.0
 40
0.0
 40
0.0
 40
0.0
 40
0.0
 40
0.0092125911014458
 40
0.3448516833305781
 40
0.6722303122146819
 40
1.0
 40
1.0
 40
1.0
 40
1.0
 10
235.8315941822714
 20
123.6067800114699
 30
0.0
 10
235.8302319299573
 20
123.6080619716392
 30
0.0
 10
235.7792392180843
 20
123.656049135889
 30
0.0
 10
235.6699721888286
 20
123.7610831186056
 30
0.0
 10
235.4967498125029
 20
123.933016335854
 30
0.0
 10
235.3916929447333
 20
124.0418653027443
 30
0.0
 10
235.3391331565565
 20
124.096322272236
 30
0.0
  0
SPLINE
  5
FA
330
1F
100
AcDbEntity
  8
0
  6
Continuous
 62
     7
370
    15
100
AcDbSpline
210
0.0
220
0.0
230
1.0
 70
     8
 71
     3
 72
    11
 73
     7
 74
     0
 42
0.00000001
 43
0.00000001
 12
1.0
 22
0.0
 32
0.0
 13
1.0
 23
0.0
 33
0.0
 40
0.0
 40
0.0
 40
0.0
 40
0.0
 40
0.4125681241410747
 40
0.8731507940008411
 40
0.9926967132295712
 40
1.0
 40
1.0
 40
1.0
 40
1.0
 10
243.9021673929876
 20
126.0222666228958
 30
0.0
 10
243.8329949442731
 20
125.9522888283661
 30
0.0
 10
243.6865997794895
 20
125.8041892460649
 30
0.0
 10
243.5227603644245
 20
125.6460959857042
 30
0.0
 10
243.435511920788
 20
125.5634272612836
 30
0.0
 10
243.4170571807675
 20
125.5460966475758
 30
0.0
 10
243.4159946572966
 20
125.5450988451787
 30
0.0
  0
LINE
  5
FB
330
1F
100
AcDbEntity
  8
0
  6
HIDDEN
 62
     7
370
     0
100
AcDbLine
 10
175.7216547561
 20
91.4899561818
 30
0.0
 11
175.7216547561
 21
130.2899573262
 31
0.0
  0
SPLINE
  5
FC
330
1F
100
AcDbEntity
  8
0
  6
HIDDEN
 62
     7
370
     0
100
AcDbSpline
210
0.0
220
0.0
230
1.0
 70
     8
 71
     3
 72
    58
 73
    54
 74
     0
 42
0.00000001
 43
0.00000001
 12
1.0
 22
0.0
 32
0.0
 13
1.0
 23
0.0
 33
0.0
 40
-0.0625000000000001
 40
-0.0625000000000001
 40
0.0
 40
0.0
 40
0.0312499999999999
 40
0.0312499999999999
 40
0.0624999999999998
 40
0.0624999999999998
 40
0.0937499999999997
 40
0.0937499999999997
 40
0.1249999999999996
 40
0.1249999999999996
 40
0.1874999999999992
 40
0.1874999999999992
 40
0.2499999999999987
 40
0.2499999999999987
 40
0.2812499999999987
 40
0.2812499999999987
 40
0.3124999999999987
 40
0.3124999999999987
 40
0.3437499999999986
 40
0.3437499999999986
 40
0.3749999999999986
 40
0.3749999999999986
 40
0.4062499999999986
 40
0.4062499999999986
 40
0.4374999999999985
 40
0.4374999999999985
 40
0.4687499999999985
 40
0.4687499999999985
 40
0.4999999999999984
 40
0.4999999999999984
 40
0.5624999999999984
 40
0.5624999999999984
 40
0.6249999999999986
 40
0.6249999999999986
 40
0.6562499999999987
 40
0.6562499999999987
 40
0.6874999999999988
 40
0.6874999999999988
 40
0.7187499999999989
 40
0.7187499999999989
 40
0.749999999999999
 40
0.749999999999999
 40
0.7812499999999992
 40
0.7812499999999992
 40
0.8124999999999993
 40
0.8124999999999993
 40
0.8437499999999994
 40
0.8437499999999994
 40
0.8749999999999996
 40
0.8749999999999996
 40
0.9374999999999999
 40
0.9374999999999999
 40
1.0
 40
1.0
 40
1.03125
 40
1.03125
 10
165.7216552031225
 20
110.625520639516
 30
0.0
 10
165.7216552031225
 20
111.0221748111881
 30
0.0
 10
165.7346372407947
 20
111.1521669720285
 30
0.0
 10
165.785488043053
 20
111.4078865844808
 30
0.0
 10
165.823979947106
 20
111.534945268342
 30
0.0
 10
165.9243952328324
 20
111.7771084660008
 30
0.0
 10
165.9858313721055
 20
111.8919502503855
 30
0.0
 10
166.1309648484163
 20
112.1092924479557
 30
0.0
 10
166.2153865372674
 20
112.2121340958034
 30
0.0
 10
166.4919867114322
 20
112.488677576555
 30
0.0
 10
166.7149856226993
 20
112.6376602126872
 30
0.0
 10
167.196220140285
 20
112.8372032762419
 30
0.0
 10
167.459519555794
 20
112.8898137492733
 30
0.0
 10
167.8510829958342
 20
112.8900278080258
 30
0.0
 10
167.9836706064389
 20
112.8770289586202
 30
0.0
 10
168.2402363120382
 20
112.8259788745938
 30
0.0
 10
168.3649460782188
 20
112.7882076357817
 30
0.0
 10
168.6071852632458
 20
112.6880157276692
 30
0.0
 10
168.7242019170195
 20
112.6254303338446
 30
0.0
 10
168.9408451218657
 20
112.4807252481341
 30
0.0
 10
169.0418518783242
 20
112.3981059067539
 30
0.0
 10
169.2286579739808
 20
112.2114618719639
 30
0.0
 10
169.3113715095127
 20
112.110516024004
 30
0.0
 10
169.456241638888
 20
111.8940348203223
 30
0.0
 10
169.5189119349847
 20
111.7771176553138
 30
0.0
 10
169.6193398730209
 20
111.5349211861154
 30
0.0
 10
169.6572110519506
 20
111.4102601952119
 30
0.0
 10
169.7084734497263
 20
111.1538608461439
 30
0.0
 10
169.721607090367
 20
111.021249920846
 30
0.0
 10
169.7217510235058
 20
110.6295753085109
 30
0.0
 10
169.669385766241
 20
110.3662912888503
 30
0.0
 10
169.4702251028904
 20
109.8847785749905
 30
0.0
 10
169.3214274295284
 20
109.6616574879456
 30
0.0
 10
169.0451267709423
 20
109.384825339438
 30
0.0
 10
168.9423617238825
 20
109.3003181251538
 30
0.0
 10
168.7251444500881
 20
109.1549971834679
 30
0.0
 10
168.6103747566504
 20
109.0934749602058
 30
0.0
 10
168.3683882195057
 20
108.9928785569338
 30
0.0
 10
168.2413056466143
 20
108.9542506688452
 30
0.0
 10
167.9856309466111
 20
108.903172558779
 30
0.0
 10
167.8556904292669
 20
108.8900834190118
 30
0.0
 10
167.5914270615056
 20
108.8898319006532
 30
0.0
 10
167.4612161678587
 20
108.9027063707096
 30
0.0
 10
167.205466222425
 20
108.9533252678417
 30
0.0
 10
167.0784488380577
 20
108.9916730866375
 30
0.0
 10
166.836097110306
 20
109.0919072068308
 30
0.0
 10
166.7211943310196
 20
109.1532513938209
 30
0.0
 10
166.5037721658707
 20
109.29815639835
 30
0.0
 10
166.4008357684259
 20
109.382495290472
 30
0.0
 10
166.123998611269
 20
109.6588964035137
 30
0.0
 10
165.9748433702049
 20
109.8817400365562
 30
0.0
 10
165.7748727849696
 20
110.3628033178068
 30
0.0
 10
165.7216552031225
 20
110.625520639516
 30
0.0
 10
165.7216552031225
 20
111.0221748111881
 30
0.0
  0
SPLINE
  5
FD
330
1F
100
AcDbEntity
  8
0
  6
HIDDEN
 62
     7
370
     0
100
AcDbSpline
210
0.0
220
0.0
230
1.0
 70
     8
 71
     3
 72
    12
 73
     8
 74
     0
 42
0.00000001
 43
0.00000001
 12
1.0
 22
0.0
 32
0.0
 13
1.0
 23
0.0
 33
0.0
 40
0.0
 40
0.0
 40
0.0
 40
0.0
 40
0.2499999999999992
 40
0.2499999999999992
 40
0.4999999999999984
 40
0.4999999999999984
 40
1.0
 40
1.0
 40
1.0
 40
1.0
 10
162.6535572051217
 20
105.0607437583124
 30
0.0
 10
162.6160453190771
 20
105.0607437583124
 30
0.0
 10
162.5807579713723
 20
105.0459389440256
 30
0.0
 10
162.521828123134
 20
105.0023470708997
 30
0.0
 10
162.4983023966649
 20
104.9748336448138
 30
0.0
 10
162.4380436088969
 20
104.8857019127002
 30
0.0
 10
162.4124488466074
 20
104.8193160620824
 30
0.0
 10
162.3937495839864
 20
104.751711626905
 30
0.0
  0
LINE
  5
FE
330
1F
100
AcDbEntity
  8
0
  6
HIDDEN
 62
     7
370
     0
100
AcDbLine
 10
164.7897531223
 20
105.0607435669
 30
0.0
 11
162.6535571125
 21
105.0607435669
 31
0.0
  0
SPLINE
  5
FF
330
1F
100
AcDbEntity
  8
0
  6
HIDDEN
 62
     7
370
     0
100
AcDbSpline
210
0.0
220
0.0
230
1.0
 70
     8
 71
     3
 72
    12
 73
     8
 74
     0
 42
0.00000001
 43
0.00000001
 12
1.0
 22
0.0
 32
0.0
 13
1.0
 23
0.0
 33
0.0
 40
0.0
 40
0.0
 40
0.0
 40
0.0
 40
0.4999999999999971
 40
0.4999999999999971
 40
0.7499999999999986
 40
0.7499999999999986
 40
1.0
 40
1.0
 40
1.0
 40
1.0
 10
165.0495608222587
 20
104.751711626905
 30
0.0
 10
165.0308675891283
 20
104.8192942633454
 30
0.0
 10
165.0052122917164
 20
104.8857768328228
 30
0.0
 10
164.94505166903
 20
104.9747719157203
 30
0.0
 10
164.9209793572757
 20
105.0027738127194
 30
0.0
 10
164.8625978369251
 20
105.0458502133846
 30
0.0
 10
164.8271290092721
 20
105.0607437583124
 30
0.0
 10
164.7897532011233
 20
105.0607437583124
 30
0.0
  0
ELLIPSE
  5
100
330
1F
100
AcDbEntity
  8
0
  6
HIDDEN
 62
     7
370
     0
100
AcDbEllipse
 10
154.7727260307
 20
110.889956754
 30
0.0
 11
-9.367417879781698
 21
19.74174915274995
 31
0.0
210
0.0
220
0.0
230
1.0
 40
0.3419987131
 41
3.292664382516904
 42
4.239566697061006
  0
SPLINE
  5
101
330
1F
100
AcDbEntity
  8
0
  6
HIDDEN
 62
     7
370
     0
100
AcDbSpline
210
0.0
220
0.0
230
1.0
 70
     8
 71
     3
 72
    12
 73
     8
 74
     0
 42
0.00000001
 43
0.00000001
 12
1.0
 22
0.0
 32
0.0
 13
1.0
 23
0.0
 33
0.0
 40
0.0
 40
0.0
 40
0.0
 40
0.0
 40
0.2499999999999974
 40
0.2499999999999974
 40
0.4999999999999948
 40
0.4999999999999948
 40
1.0
 40
1.0
 40
1.0
 40
1.0
 10
164.7897532011233
 20
91.75830037373063
 30
0.0
 10
164.827265087168
 20
91.75830037373063
 30
0.0
 10
164.8625524348727
 20
91.76280391799324
 30
0.0
 10
164.9214822831111
 20
91.77617711744652
 30
0.0
 10
164.9450080095802
 20
91.78466202001765
 30
0.0
 10
165.0052667973483
 20
91.81240982385222
 30
0.0
 10
165.0308615596376
 20
91.83339968759259
 30
0.0
 10
165.0495608222587
 20
91.85520047078212
 30
0.0
  0
LINE
  5
102
330
1F
100
AcDbEntity
  8
0
  6
HIDDEN
 62
     7
370
     0
100
AcDbLine
 10
162.6535571125
 20
91.7583000178
 30
0.0
 11
164.7897531223
 21
91.7583000178
 31
0.0
  0
SPLINE
  5
103
330
1F
100
AcDbEntity
  8
0
  6
HIDDEN
 62
     7
370
     0
100
AcDbSpline
210
0.0
220
0.0
230
1.0
 70
     8
 71
     3
 72
    12
 73
     8
 74
     0
 42
0.00000001
 43
0.00000001
 12
1.0
 22
0.0
 32
0.0
 13
1.0
 23
0.0
 33
0.0
 40
0.0
 40
0.0
 40
0.0
 40
0.0
 40
0.5000000000000008
 40
0.5000000000000008
 40
0.7500000000000003
 40
0.7500000000000003
 40
1.0
 40
1.0
 40
1.0
 40
1.0
 10
162.3937495839864
 20
91.85520047078212
 30
0.0
 10
162.4124428171169
 20
91.83340671715416
 30
0.0
 10
162.4380981145286
 20
91.81238655544453
 30
0.0
 10
162.4982587372151
 20
91.78468120948082
 30
0.0
 10
162.5223310489694
 20
91.77604599328744
 30
0.0
 10
162.58071256932
 20
91.76283134806087
 30
0.0
 10
162.616181396973
 20
91.75830037373065
 30
0.0
 10
162.6535572051217
 20
91.75830037373065
 30
0.0
  0
ELLIPSE
  5
104
330
1F
100
AcDbEntity
  8
0
  6
HIDDEN
 62
     7
370
     0
100
AcDbEllipse
 10
172.6705843756
 20
110.889956754
 30
0.0
 11
9.367417879781586
 21
19.74174915274995
 31
0.0
210
0.0
220
0.0
230
1.0
 40
0.3419987131
 41
2.043618610118591
 42
2.990520924662723
  0
SPLINE
  5
105
330
1F
100
AcDbEntity
  8
0
  6
HIDDEN
 62
     7
370
     0
100
AcDbSpline
210
0.0
220
0.0
230
1.0
 70
     8
 71
     3
 72
    12
 73
     8
 74
     0
 42
0.00000001
 43
0.00000001
 12
1.0
 22
0.0
 32
0.0
 13
1.0
 23
0.0
 33
0.0
 40
0.0
 40
0.0
 40
0.0
 40
0.0
 40
0.2499999999999986
 40
0.2499999999999986
 40
0.4999999999999971
 40
0.4999999999999971
 40
1.0
 40
1.0
 40
1.0
 40
1.0
 10
162.6535572051217
 20
130.0216131341975
 30
0.0
 10
162.6160453190771
 20
130.0216131341976
 30
0.0
 10
162.5807579713724
 20
130.0171095899349
 30
0.0
 10
162.521828123134
 20
130.0037363904816
 30
0.0
 10
162.4983023966649
 20
129.9952514879105
 30
0.0
 10
162.4380436088969
 20
129.967503684076
 30
0.0
 10
162.4124488466074
 20
129.9465138203356
 30
0.0
 10
162.3937495839864
 20
129.9247130371461
 30
0.0
  0
LINE
  5
106
330
1F
100
AcDbEntity
  8
0
  6
HIDDEN
 62
     7
370
     0
100
AcDbLine
 10
164.7897531223
 20
130.0216134901
 30
0.0
 11
162.6535571125
 21
130.0216134901
 31
0.0
  0
SPLINE
  5
107
330
1F
100
AcDbEntity
  8
0
  6
HIDDEN
 62
     7
370
     0
100
AcDbSpline
210
0.0
220
0.0
230
1.0
 70
     8
 71
     3
 72
    12
 73
     8
 74
     0
 42
0.00000001
 43
0.00000001
 12
1.0
 22
0.0
 32
0.0
 13
1.0
 23
0.0
 33
0.0
 40
0.0
 40
0.0
 40
0.0
 40
0.0
 40
0.4999999999999977
 40
0.4999999999999977
 40
0.7499999999999988
 40
0.7499999999999988
 40
1.0
 40
1.0
 40
1.0
 40
1.0
 10
165.0495608222587
 20
129.924713037146
 30
0.0
 10
165.0308675891283
 20
129.946506790774
 30
0.0
 10
165.0052122917164
 20
129.9675269524836
 30
0.0
 10
164.94505166903
 20
129.9952322984473
 30
0.0
 10
164.9209793572756
 20
130.0038675146407
 30
0.0
 10
164.8625978369251
 20
130.0170821598673
 30
0.0
 10
164.8271290092721
 20
130.0216131341975
 30
0.0
 10
164.7897532011233
 20
130.0216131341975
 30
0.0
  0
ELLIPSE
  5
108
330
1F
100
AcDbEntity
  8
0
  6
HIDDEN
 62
     7
370
     0
100
AcDbEllipse
 10
154.7727260307
 20
110.889956754
 30
0.0
 11
9.367417879781783
 21
19.74174915274995
 31
0.0
210
0.0
220
0.0
230
1.0
 40
0.3419987131
 41
5.18521126370841
 42
6.132113578252568
  0
SPLINE
  5
109
330
1F
100
AcDbEntity
  8
0
  6
HIDDEN
 62
     7
370
     0
100
AcDbSpline
210
0.0
220
0.0
230
1.0
 70
     8
 71
     3
 72
    12
 73
     8
 74
     0
 42
0.00000001
 43
0.00000001
 12
1.0
 22
0.0
 32
0.0
 13
1.0
 23
0.0
 33
0.0
 40
0.0
 40
0.0
 40
0.0
 40
0.0
 40
0.2500000000000014
 40
0.2500000000000014
 40
0.5000000000000029
 40
0.5000000000000029
 40
1.0
 40
1.0
 40
1.0
 40
1.0
 10
164.7897532011233
 20
116.719169749616
 30
0.0
 10
164.827265087168
 20
116.719169749616
 30
0.0
 10
164.8625524348727
 20
116.7339745639028
 30
0.0
 10
164.9214822831111
 20
116.7775664370287
 30
0.0
 10
164.9450080095801
 20
116.8050798631146
 30
0.0
 10
165.0052667973483
 20
116.8942115952282
 30
0.0
 10
165.0308615596376
 20
116.960597445846
 30
0.0
 10
165.0495608222586
 20
117.0282018810233
 30
0.0
  0
LINE
  5
10A
330
1F
100
AcDbEntity
  8
0
  6
HIDDEN
 62
     7
370
     0
100
AcDbLine
 10
162.6535571125
 20
116.7191699411
 30
0.0
 11
164.7897531223
 21
116.7191699411
 31
0.0
  0
SPLINE
  5
10B
330
1F
100
AcDbEntity
  8
0
  6
HIDDEN
 62
     7
370
     0
100
AcDbSpline
210
0.0
220
0.0
230
1.0
 70
     8
 71
     3
 72
    12
 73
     8
 74
     0
 42
0.00000001
 43
0.00000001
 12
1.0
 22
0.0
 32
0.0
 13
1.0
 23
0.0
 33
0.0
 40
0.0
 40
0.0
 40
0.0
 40
0.0
 40
0.5
 40
0.5
 40
0.75
 40
0.75
 40
1.0
 40
1.0
 40
1.0
 40
1.0
 10
162.3937495839864
 20
117.0282018810233
 30
0.0
 10
162.4124428171169
 20
116.960619244583
 30
0.0
 10
162.4380981145286
 20
116.8941366751056
 30
0.0
 10
162.4982587372152
 20
116.8051415922081
 30
0.0
 10
162.5223310489694
 20
116.7771396952089
 30
0.0
 10
162.58071256932
 20
116.7340632945438
 30
0.0
 10
162.616181396973
 20
116.719169749616
 30
0.0
 10
162.6535572051217
 20
116.719169749616
 30
0.0
  0
ELLIPSE
  5
10C
330
1F
100
AcDbEntity
  8
0
  6
HIDDEN
 62
     7
370
     0
100
AcDbEllipse
 10
172.6705843756
 20
110.889956754
 30
0.0
 11
-9.367417879781668
 21
19.74174915274997
 31
0.0
210
0.0
220
0.0
230
1.0
 40
0.3419987131
 41
0.1510717289270579
 42
1.09797404347119
  0
LINE
  5
10D
330
1F
100
AcDbEntity
  8
0
  6
HIDDEN
 62
     7
370
     0
100
AcDbLine
 10
155.7216552031
 20
130.5899568165
 30
0.0
 11
155.7216552031
 21
91.1899566914
 31
0.0
  0
LINE
  5
10E
330
1F
100
AcDbEntity
  8
0
  6
HIDDEN
 62
     7
370
     0
100
AcDbLine
 10
155.7216552031
 20
95.0899575169
 30
0.0
 11
155.7216552031
 21
126.6735833402
 31
0.0
  0
SPLINE
  5
10F
330
1F
100
AcDbEntity
  8
0
  6
HIDDEN
 62
     7
370
     0
100
AcDbSpline
210
0.0
220
0.0
230
1.0
 70
     8
 71
     3
 72
    18
 73
    14
 74
     0
 42
0.00000001
 43
0.00000001
 12
1.0
 22
0.0
 32
0.0
 13
1.0
 23
0.0
 33
0.0
 40
0.0
 40
0.0
 40
0.0
 40
0.0
 40
0.2499999999999993
 40
0.2499999999999993
 40
0.4999999999999987
 40
0.4999999999999987
 40
0.624999999999999
 40
0.624999999999999
 40
0.7499999999999993
 40
0.7499999999999993
 40
0.8749999999999997
 40
0.8749999999999997
 40
1.0
 40
1.0
 40
1.0
 40
1.0
 10
154.4655708855596
 20
120.7143966721154
 30
0.0
 10
154.4998719300923
 20
120.6063864863178
 30
0.0
 10
154.5376922013891
 20
120.4991093982898
 30
0.0
 10
154.6243105218499
 20
120.2876127009732
 30
0.0
 10
154.6726818565934
 20
120.1832263508036
 30
0.0
 10
154.7620848387119
 20
120.0323514281593
 30
0.0
 10
154.7946821225891
 20
119.9830064251237
 30
0.0
 10
154.871064026534
 20
119.8884007866534
 30
0.0
 10
154.9141024638748
 20
119.8434048518988
 30
0.0
 10
155.0199154967067
 20
119.772477079241
 30
0.0
 10
155.0849539214377
 20
119.7485305353344
 30
0.0
 10
155.2181059932403
 20
119.7608111994053
 30
0.0
 10
155.2774751737035
 20
119.7941281574101
 30
0.0
 10
155.3266783142472
 20
119.8349630436348
 30
0.0
  0
SPLINE
  5
110
330
1F
100
AcDbEntity
  8
0
  6
HIDDEN
 62
     7
370
     0
100
AcDbSpline
210
0.0
220
0.0
230
1.0
 70
     8
 71
     3
 72
    16
 73
    12
 74
     0
 42
0.00000001
 43
0.00000001
 12
1.0
 22
0.0
 32
0.0
 13
1.0
 23
0.0
 33
0.0
 40
0.0
 40
0.0
 40
0.0
 40
0.0
 40
0.0624999999999991
 40
0.0624999999999991
 40
0.1249999999999981
 40
0.1249999999999981
 40
0.2499999999999984
 40
0.2499999999999984
 40
0.499999999999999
 40
0.499999999999999
 40
1.0
 40
1.0
 40
1.0
 40
1.0
 10
155.3266783142164
 20
119.8349630436643
 30
0.0
 10
155.3387481474923
 20
119.8449800926446
 30
0.0
 10
155.3530238024256
 20
119.8539391997003
 30
0.0
 10
155.3844882145501
 20
119.8618095950945
 30
0.0
 10
155.3999887393605
 20
119.8594521044521
 30
0.0
 10
155.4354276359674
 20
119.8424764122742
 30
0.0
 10
155.4490202520707
 20
119.8219279211065
 30
0.0
 10
155.4820145704635
 20
119.7599855940928
 30
0.0
 10
155.4928019637823
 20
119.7135900438877
 30
0.0
 10
155.5178552110614
 20
119.5706540151932
 30
0.0
 10
155.5216552031227
 20
119.4710912983077
 30
0.0
 10
155.5216552031227
 20
119.3693238936611
 30
0.0
  0
LINE
  5
111
330
1F
100
AcDbEntity
  8
0
  6
HIDDEN
 62
     7
370
     0
100
AcDbLine
 10
155.5216552082
 20
102.4105897437
 30
0.0
 11
155.5216552082
 21
119.3693237643
 31
0.0
  0
SPLINE
  5
112
330
1F
100
AcDbEntity
  8
0
  6
HIDDEN
 62
     7
370
     0
100
AcDbSpline
210
0.0
220
0.0
230
1.0
 70
     8
 71
     3
 72
    16
 73
    12
 74
     0
 42
0.00000001
 43
0.00000001
 12
1.0
 22
0.0
 32
0.0
 13
1.0
 23
0.0
 33
0.0
 40
0.0
 40
0.0
 40
0.0
 40
0.0
 40
0.4999999999999962
 40
0.4999999999999962
 40
0.7499999999999991
 40
0.7499999999999991
 40
0.8750000000000006
 40
0.8750000000000006
 40
0.9375000000000002
 40
0.9375000000000002
 40
1.0
 40
1.0
 40
1.0
 40
1.0
 10
155.5216552031225
 20
102.4105896142668
 30
0.0
 10
155.5216552031225
 20
102.3085794606868
 30
0.0
 10
155.5177717779636
 20
102.2090550854335
 30
0.0
 10
155.492956452689
 20
102.0670699894228
 30
0.0
 10
155.4821170049765
 20
102.0200766888524
 30
0.0
 10
155.4489012229276
 20
101.9577839584908
 30
0.0
 10
155.4355194792988
 20
101.9375025262056
 30
0.0
 10
155.4000098294366
 20
101.9204608180052
 30
0.0
 10
155.3845928629358
 20
101.918074562989
 30
0.0
 10
155.3528918407872
 20
101.9260104928471
 30
0.0
 10
155.3387455558364
 20
101.9349355662217
 30
0.0
 10
155.3266783142468
 20
101.9449504642936
 30
0.0
  0
SPLINE
  5
113
330
1F
100
AcDbEntity
  8
0
  6
HIDDEN
 62
     7
370
     0
100
AcDbSpline
210
0.0
220
0.0
230
1.0
 70
     8
 71
     3
 72
    18
 73
    14
 74
     0
 42
0.00000001
 43
0.00000001
 12
1.0
 22
0.0
 32
0.0
 13
1.0
 23
0.0
 33
0.0
 40
0.0
 40
0.0
 40
0.0
 40
0.0
 40
0.125
 40
0.125
 40
0.25
 40
0.25
 40
0.375
 40
0.375
 40
0.5
 40
0.5
 40
0.75
 40
0.75
 40
1.0
 40
1.0
 40
1.0
 40
1.0
 10
155.3266783142529
 20
101.944950464301
 30
0.0
 10
155.2779728221108
 20
101.9853723399824
 30
0.0
 10
155.2194627137839
 20
102.0184044614502
 30
0.0
 10
155.0877335954919
 20
102.031681613403
 30
0.0
 10
155.0229746591513
 20
102.0087280264228
 30
0.0
 10
154.9177636862917
 20
101.9396748295032
 30
0.0
 10
154.8745473108518
 20
101.8952071776624
 30
0.0
 10
154.7983688057399
 20
101.8020375182924
 30
0.0
 10
154.76551384436
 20
101.7528951487316
 30
0.0
 10
154.6751455645262
 20
101.6016854137917
 30
0.0
 10
154.6257223301562
 20
101.4955306442635
 30
0.0
 10
154.538073875108
 20
101.281949028602
 30
0.0
 10
154.5000147029052
 20
101.1739765973667
 30
0.0
 10
154.4655708855596
 20
101.0655168358128
 30
0.0
  0
SPLINE
  5
114
330
1F
100
AcDbEntity
  8
0
  6
HIDDEN
 62
     7
370
     0
100
AcDbSpline
210
0.0
220
0.0
230
1.0
 70
     8
 71
     3
 72
     8
 73
     4
 74
     0
 42
0.00000001
 43
0.00000001
 12
1.0
 22
0.0
 32
0.0
 13
1.0
 23
0.0
 33
0.0
 40
0.0
 40
0.0
 40
0.0
 40
0.0
 40
1.0
 40
1.0
 40
1.0
 40
1.0
 10
154.4655708855589
 20
101.0655168358122
 30
0.0
 10
154.4412571816688
 20
100.9889556782622
 30
0.0
 10
154.4197605397127
 20
100.912530307129
 30
0.0
 10
154.4003348595628
 20
100.8364374363573
 30
0.0
  0
SPLINE
  5
115
330
1F
100
AcDbEntity
  8
0
  6
HIDDEN
 62
     7
370
     0
100
AcDbSpline
210
0.0
220
0.0
230
1.0
 70
     8
 71
     3
 72
     8
 73
     4
 74
     0
 42
0.00000001
 43
0.00000001
 12
1.0
 22
0.0
 32
0.0
 13
1.0
 23
0.0
 33
0.0
 40
0.0
 40
0.0
 40
0.0
 40
0.0
 40
1.0
 40
1.0
 40
1.0
 40
1.0
 10
154.4003348595628
 20
97.06489274595883
 30
0.0
 10
154.4197602864562
 20
97.06139554237153
 30
0.0
 10
154.4412568404252
 20
97.05937922472933
 30
0.0
 10
154.4655708855595
 20
97.05876837128545
 30
0.0
  0
SPLINE
  5
116
330
1F
100
AcDbEntity
  8
0
  6
HIDDEN
 62
     7
370
     0
100
AcDbSpline
210
0.0
220
0.0
230
1.0
 70
     8
 71
     3
 72
     8
 73
     4
 74
     0
 42
0.00000001
 43
0.00000001
 12
1.0
 22
0.0
 32
0.0
 13
1.0
 23
0.0
 33
0.0
 40
0.0
 40
0.0
 40
0.0
 40
0.0
 40
1.0
 40
1.0
 40
1.0
 40
1.0
 10
155.4988041900166
 20
96.96940998022727
 30
0.0
 10
155.5177411221824
 20
96.9414555428258
 30
0.0
 10
155.5216552031227
 20
96.92137169146953
 30
0.0
 10
155.5216552031227
 20
96.90514484730411
 30
0.0
  0
LINE
  5
117
330
1F
100
AcDbEntity
  8
0
  6
HIDDEN
 62
     7
370
     0
100
AcDbLine
 10
155.5216552082
 20
96.8001367788
 30
0.0
 11
155.5216552082
 21
96.9051452617
 31
0.0
  0
LINE
  5
118
330
1F
100
AcDbEntity
  8
0
  6
HIDDEN
 62
     7
370
     0
100
AcDbLine
 10
155.5216552082
 20
124.8747682462
 30
0.0
 11
155.5216552082
 21
124.9797767292
 31
0.0
  0
SPLINE
  5
119
330
1F
100
AcDbEntity
  8
0
  6
HIDDEN
 62
     7
370
     0
100
AcDbSpline
210
0.0
220
0.0
230
1.0
 70
     8
 71
     3
 72
     8
 73
     4
 74
     0
 42
0.00000001
 43
0.00000001
 12
1.0
 22
0.0
 32
0.0
 13
1.0
 23
0.0
 33
0.0
 40
0.0
 40
0.0
 40
0.0
 40
0.0
 40
1.0
 40
1.0
 40
1.0
 40
1.0
 10
154.4655708855592
 20
124.7211451366426
 30
0.0
 10
154.4412568404249
 20
124.7205342831987
 30
0.0
 10
154.419760286456
 20
124.7185179655565
 30
0.0
 10
154.4003348595628
 20
124.7150207619693
 30
0.0
  0
SPLINE
  5
11A
330
1F
100
AcDbEntity
  8
0
  6
HIDDEN
 62
     7
370
     0
100
AcDbSpline
210
0.0
220
0.0
230
1.0
 70
     8
 71
     3
 72
     8
 73
     4
 74
     0
 42
0.00000001
 43
0.00000001
 12
1.0
 22
0.0
 32
0.0
 13
1.0
 23
0.0
 33
0.0
 40
0.0
 40
0.0
 40
0.0
 40
0.0
 40
1.0
 40
1.0
 40
1.0
 40
1.0
 10
154.4003348595628
 20
120.9434760715708
 30
0.0
 10
154.4197605397127
 20
120.8673832007991
 30
0.0
 10
154.4412571816688
 20
120.7909578296659
 30
0.0
 10
154.4655708855589
 20
120.7143966721159
 30
0.0
  0
LINE
  5
11B
330
1F
100
AcDbEntity
  8
0
  6
HIDDEN
 62
     7
370
     0
100
AcDbLine
 10
175.7216547561
 20
96.3899571712
 30
0.0
 11
175.7216547561
 21
125.3740195448
 31
0.0
  0
LINE
  5
11C
330
1F
100
AcDbEntity
  8
0
  6
HIDDEN
 62
     7
370
     0
100
AcDbLine
 10
155.5216552082
 20
96.9051452617
 30
0.0
 11
155.5216552082
 21
105.3845118063
 31
0.0
  0
LINE
  5
11D
330
1F
100
AcDbEntity
  8
0
  6
HIDDEN
 62
     7
370
     0
100
AcDbLine
 10
155.5216552082
 20
116.3954017016
 30
0.0
 11
155.5216552082
 21
124.8747682462
 31
0.0
  0
SPLINE
  5
11E
330
1F
100
AcDbEntity
  8
0
  6
HIDDEN
 62
     7
370
     0
100
AcDbSpline
210
0.0
220
0.0
230
1.0
 70
     8
 71
     3
 72
    62
 73
    58
 74
     0
 42
0.00000001
 43
0.00000001
 12
1.0
 22
0.0
 32
0.0
 13
1.0
 23
0.0
 33
0.0
 40
-0.03125
 40
-0.03125
 40
0.0
 40
0.0
 40
0.0312499999999998
 40
0.0312499999999998
 40
0.0624999999999995
 40
0.0624999999999995
 40
0.0937499999999993
 40
0.0937499999999993
 40
0.1249999999999991
 40
0.1249999999999991
 40
0.1874999999999995
 40
0.1874999999999995
 40
0.2187499999999997
 40
0.2187499999999997
 40
0.2499999999999999
 40
0.2499999999999999
 40
0.2812500000000002
 40
0.2812500000000002
 40
0.3125000000000004
 40
0.3125000000000004
 40
0.3437500000000006
 40
0.3437500000000006
 40
0.3750000000000008
 40
0.3750000000000008
 40
0.406250000000001
 40
0.406250000000001
 40
0.4375000000000012
 40
0.4375000000000012
 40
0.4687500000000014
 40
0.4687500000000014
 40
0.5000000000000017
 40
0.5000000000000017
 40
0.5625000000000019
 40
0.5625000000000019
 40
0.5937500000000018
 40
0.5937500000000018
 40
0.6250000000000017
 40
0.6250000000000017
 40
0.6562500000000016
 40
0.6562500000000016
 40
0.6875000000000014
 40
0.6875000000000014
 40
0.7499999999999999
 40
0.7499999999999999
 40
0.7812499999999998
 40
0.7812499999999998
 40
0.8124999999999997
 40
0.8124999999999997
 40
0.8437499999999996
 40
0.8437499999999996
 40
0.8749999999999994
 40
0.8749999999999994
 40
0.9375
 40
0.9375
 40
0.96875
 40
0.96875
 40
1.0
 40
1.0
 40
1.03125
 40
1.03125
 10
211.2216552031225
 20
108.3422778857146
 30
0.0
 10
211.2216552031226
 20
108.6674107378002
 30
0.0
 10
211.2053626790827
 20
108.8278071844499
 30
0.0
 10
211.1416026851715
 20
109.1443925195703
 30
0.0
 10
211.0933320747925
 20
109.3022670022202
 30
0.0
 10
210.9676990742499
 20
109.6037045395529
 30
0.0
 10
210.8908807030158
 20
109.7471321206005
 30
0.0
 10
210.7094676158369
 20
110.0193750534963
 30
0.0
 10
210.6041608804404
 20
110.1483801459058
 30
0.0
 10
210.2591464595491
 20
110.4963569129417
 30
0.0
 10
209.9809211778631
 20
110.6853601142158
 30
0.0
 10
209.5299960528133
 20
110.875857855731
 30
0.0
 10
209.372011804895
 20
110.9250221661179
 30
0.0
 10
209.0491218594004
 20
110.9906858113423
 30
0.0
 10
208.8866411480139
 20
111.0070015449413
 30
0.0
 10
208.5596456884261
 20
111.0072002060272
 30
0.0
 10
208.3935179584794
 20
110.9905286615791
 30
0.0
 10
208.0725682833751
 20
110.9253011102038
 30
0.0
 10
207.916529410899
 20
110.8770648552925
 30
0.0
 10
207.6133426375975
 20
110.7492811818111
 30
0.0
 10
207.4676070501941
 20
110.669932979131
 30
0.0
 10
207.1972252083897
 20
110.4867162381374
 30
0.0
 10
207.0704822816346
 20
110.38168254904
 30
0.0
 10
206.8380803613203
 20
110.1473183940917
 30
0.0
 10
206.734940479746
 20
110.0207524255981
 30
0.0
 10
206.5539079711532
 20
109.7496166191455
 30
0.0
 10
206.4754072091989
 20
109.6032587381149
 30
0.0
 10
206.3499814236709
 20
109.3022303904375
 30
0.0
 10
206.3025073581958
 20
109.1475028653203
 30
0.0
 10
206.2381630310438
 20
108.8297227960453
 30
0.0
 10
206.2217216107776
 20
108.66621033397
 30
0.0
 10
206.2215230035998
 20
108.1850956638861
 30
0.0
 10
206.2872220410147
 20
107.863954351355
 30
0.0
 10
206.4742320809247
 20
107.4273002312944
 30
0.0
 10
206.552192178343
 20
107.2866499987716
 30
0.0
 10
206.7341265624752
 20
107.0252511219035
 30
0.0
 10
206.8372289751325
 20
106.9050584420939
 30
0.0
 10
207.0674848927938
 20
106.684922618535
 30
0.0
 10
207.195742957377
 20
106.584630090079
 30
0.0
 10
207.4663218228131
 20
106.4126675548072
 30
0.0
 10
207.6096526712425
 20
106.339756501207
 30
0.0
 10
208.0646094846819
 20
106.160729921035
 30
0.0
 10
208.3897237428874
 20
106.0991856898934
 30
0.0
 10
208.8849739612553
 20
106.0988561511742
 30
0.0
 10
209.0475837837541
 20
106.1140054112225
 30
0.0
 10
209.3680226235217
 20
106.1739381381349
 30
0.0
 10
209.5274378530447
 20
106.2195192632645
 30
0.0
 10
209.8294997006411
 20
106.3378653395801
 30
0.0
 10
209.9730504802698
 20
106.4104515104207
 30
0.0
 10
210.2452679937136
 20
106.5828884429917
 30
0.0
 10
210.3731180418317
 20
106.6826976784609
 30
0.0
 10
210.7180739432638
 20
107.0114150082552
 30
0.0
 10
210.9045593555595
 20
107.2781506176355
 30
0.0
 10
211.092278123291
 20
107.7142289745579
 30
0.0
 10
211.1408068152491
 20
107.868113477547
 30
0.0
 10
211.2053597865519
 20
108.1824515311538
 30
0.0
 10
211.2216552031225
 20
108.3422778857146
 30
0.0
 10
211.2216552031226
 20
108.6674107378002
 30
0.0
  0
CIRCLE
  5
11F
330
1F
100
AcDbEntity
  8
0
  6
HIDDEN
 62
     7
370
     0
100
AcDbCircle
 10
144.2216552031
 20
110.889956754
 30
0.0
 40
2.300000000000011
  0
LINE
  5
120
330
1F
100
AcDbEntity
  8
0
  6
HIDDEN
 62
     7
370
     0
100
AcDbLine
 10
132.7486877275
 20
120.4526502902
 30
0.0
 11
132.7486877275
 21
101.3272632177
 31
0.0
  0
LINE
  5
121
330
1F
100
AcDbEntity
  8
0
  6
HIDDEN
 62
     7
370
     0
100
AcDbLine
 10
131.7216549945
 20
100.7343059669
 30
0.0
 11
131.7216549945
 21
121.045607541
 31
0.0
  0
LINE
  5
122
330
1F
100
AcDbEntity
  8
0
  6
HIDDEN
 62
     7
370
     0
100
AcDbLine
 10
136.2486873698
 20
120.1208964254
 30
0.0
 11
136.2486873698
 21
101.6590170826
 31
0.0
  0
SPLINE
  5
123
330
1F
100
AcDbEntity
  8
0
  6
HIDDEN
 62
     7
370
     0
100
AcDbSpline
210
0.0
220
0.0
230
1.0
 70
     8
 71
     3
 72
    60
 73
    56
 74
     0
 42
0.00000001
 43
0.00000001
 12
1.0
 22
0.0
 32
0.0
 13
1.0
 23
0.0
 33
0.0
 40
-0.062500000000002
 40
-0.062500000000002
 40
0.0
 40
0.0
 40
0.0312500000000002
 40
0.0312500000000002
 40
0.0625000000000004
 40
0.0625000000000004
 40
0.1250000000000008
 40
0.1250000000000008
 40
0.1562500000000005
 40
0.1562500000000005
 40
0.1875000000000002
 40
0.1875000000000002
 40
0.2187499999999999
 40
0.2187499999999999
 40
0.2499999999999996
 40
0.2499999999999996
 40
0.2812499999999993
 40
0.2812499999999993
 40
0.312499999999999
 40
0.312499999999999
 40
0.3749999999999977
 40
0.3749999999999977
 40
0.4062499999999976
 40
0.4062499999999976
 40
0.4374999999999975
 40
0.4374999999999975
 40
0.4687499999999973
 40
0.4687499999999973
 40
0.4999999999999972
 40
0.4999999999999972
 40
0.5312499999999971
 40
0.5312499999999971
 40
0.562499999999997
 40
0.562499999999997
 40
0.5937499999999968
 40
0.5937499999999968
 40
0.6249999999999967
 40
0.6249999999999967
 40
0.6874999999999963
 40
0.6874999999999963
 40
0.7187499999999964
 40
0.7187499999999964
 40
0.7499999999999964
 40
0.7499999999999964
 40
0.7812499999999966
 40
0.7812499999999966
 40
0.8124999999999967
 40
0.8124999999999967
 40
0.8749999999999974
 40
0.8749999999999974
 40
0.9062499999999978
 40
0.9062499999999978
 40
0.937499999999998
 40
0.937499999999998
 40
1.0
 40
1.0
 40
1.03125
 40
1.03125
 10
208.4350594359483
 20
109.3018267564296
 30
0.0
 10
208.8649530867096
 20
109.3018267564296
 30
0.0
 10
209.0046068533198
 20
109.318433144
 30
0.0
 10
209.2774984331231
 20
109.3817127248877
 30
0.0
 10
209.4115658446174
 20
109.429119913383
 30
0.0
 10
209.7874681663924
 20
109.6069468059166
 30
0.0
 10
210.0119377749111
 20
109.7753531659495
 30
0.0
 10
210.2949166321235
 20
110.0785575632767
 30
0.0
 10
210.3817770595347
 20
110.190026487842
 30
0.0
 10
210.533009962855
 20
110.4245657625138
 30
0.0
 10
210.5980425400505
 20
110.5479882744102
 30
0.0
 10
210.7060073627194
 20
110.8080665140679
 30
0.0
 10
210.7489285148389
 20
110.9461983345388
 30
0.0
 10
210.8059390599698
 20
111.2215109161569
 30
0.0
 10
210.820942385372
 20
111.3602554795513
 30
0.0
 10
210.8223189570652
 20
111.6399823637096
 30
0.0
 10
210.8083633878908
 20
111.7778229936938
 30
0.0
 10
210.7533537120929
 20
112.0410586223469
 30
0.0
 10
210.7115695555239
 20
112.1691180704731
 30
0.0
 10
210.5515102410964
 20
112.5249301291451
 30
0.0
 10
210.3968291157527
 20
112.7305215681502
 30
0.0
 10
210.1150920842166
 20
112.9803419272392
 30
0.0
 10
210.0112286755009
 20
113.0552683587297
 30
0.0
 10
209.790382462903
 20
113.1842823652457
 30
0.0
 10
209.6733768585353
 20
113.2387696260552
 30
0.0
 10
209.4239263335779
 20
113.3286229383409
 30
0.0
 10
209.2899384599949
 20
113.3640576326849
 30
0.0
 10
209.0166277581726
 20
113.4114635621365
 30
0.0
 10
208.8743926844293
 20
113.4240714420872
 30
0.0
 10
208.5893679349102
 20
113.4252095819142
 30
0.0
 10
208.4491817889846
 20
113.4140370590114
 30
0.0
 10
208.1731154142197
 20
113.3686220026485
 30
0.0
 10
208.0396077008823
 20
113.3345439959111
 30
0.0
 10
207.7875195617705
 20
113.2462771009231
 30
0.0
 10
207.6671079322684
 20
113.1913650922848
 30
0.0
 10
207.4446357190605
 20
113.0636665932404
 30
0.0
 10
207.3414695553334
 20
112.9906151315878
 30
0.0
 10
207.0545183311901
 20
112.7403493783714
 30
0.0
 10
206.9012654046517
 20
112.5400517003724
 30
0.0
 10
206.7370837326955
 20
112.1836883028573
 30
0.0
 10
206.6950421127255
 20
112.0587170610564
 30
0.0
 10
206.6373495076386
 20
111.7951658097006
 30
0.0
 10
206.6221758124812
 20
111.656128834631
 30
0.0
 10
206.6211616371985
 20
111.3788348592451
 30
0.0
 10
206.6350725208013
 20
111.2373804105677
 30
0.0
 10
206.6910565791064
 20
110.9579376890533
 30
0.0
 10
206.7323260365056
 20
110.8223670736106
 30
0.0
 10
206.8935622182953
 20
110.4273469951302
 30
0.0
 10
207.0487487617163
 20
110.1865139511516
 30
0.0
 10
207.3328671751455
 20
109.8803256644793
 30
0.0
 10
207.4352793321609
 20
109.7880941606899
 30
0.0
 10
207.6568102430134
 20
109.6230739076942
 30
0.0
 10
207.7769950315703
 20
109.5499760856682
 30
0.0
 10
208.153190772698
 20
109.370998802054
 30
0.0
 10
208.4350594359483
 20
109.3018267564296
 30
0.0
 10
208.8649530867096
 20
109.3018267564296
 30
0.0
  0
SPLINE
  5
124
330
1F
100
AcDbEntity
  8
0
  6
HIDDEN
 62
     7
370
     0
100
AcDbSpline
210
0.0
220
0.0
230
1.0
 70
     8
 71
     3
 72
     8
 73
     4
 74
     0
 42
0.00000001
 43
0.00000001
 12
1.0
 22
0.0
 32
0.0
 13
1.0
 23
0.0
 33
0.0
 40
0.0
 40
0.0
 40
0.0
 40
0.0
 40
1.0
 40
1.0
 40
1.0
 40
1.0
 10
209.6860346321766
 20
110.3997839174919
 30
0.0
 10
209.6703537077513
 20
110.4544868581987
 30
0.0
 10
209.6950234348762
 20
110.5277162263782
 30
0.0
 10
209.7555179115751
 20
110.6225962045654
 30
0.0
  0
SPLINE
  5
125
330
1F
100
AcDbEntity
  8
0
  6
HIDDEN
 62
     7
370
     0
100
AcDbSpline
210
0.0
220
0.0
230
1.0
 70
     8
 71
     3
 72
    76
 73
    72
 74
     0
 42
0.00000001
 43
0.00000001
 12
1.0
 22
0.0
 32
0.0
 13
1.0
 23
0.0
 33
0.0
 40
0.0
 40
0.0
 40
0.0
 40
0.0
 40
0.015625
 40
0.015625
 40
0.0312499999999999
 40
0.0312499999999999
 40
0.0625
 40
0.0625
 40
0.0937500000000001
 40
0.0937500000000001
 40
0.1250000000000002
 40
0.1250000000000002
 40
0.1562500000000003
 40
0.1562500000000003
 40
0.1875000000000004
 40
0.1875000000000004
 40
0.2187500000000005
 40
0.2187500000000005
 40
0.2500000000000007
 40
0.2500000000000007
 40
0.2812500000000008
 40
0.2812500000000008
 40
0.3125000000000009
 40
0.3125000000000009
 40
0.3437500000000011
 40
0.3437500000000011
 40
0.3750000000000013
 40
0.3750000000000013
 40
0.4062500000000014
 40
0.4062500000000014
 40
0.4375000000000016
 40
0.4375000000000016
 40
0.4531250000000017
 40
0.4531250000000017
 40
0.4687500000000018
 40
0.4687500000000018
 40
0.484375000000002
 40
0.484375000000002
 40
0.5000000000000021
 40
0.5000000000000021
 40
0.5312500000000018
 40
0.5312500000000018
 40
0.5625000000000016
 40
0.5625000000000016
 40
0.5937500000000012
 40
0.5937500000000012
 40
0.6250000000000009
 40
0.6250000000000009
 40
0.6562500000000007
 40
0.6562500000000007
 40
0.6875000000000003
 40
0.6875000000000003
 40
0.7187500000000001
 40
0.7187500000000001
 40
0.7499999999999998
 40
0.7499999999999998
 40
0.7812499999999994
 40
0.7812499999999994
 40
0.8124999999999992
 40
0.8124999999999992
 40
0.8437499999999989
 40
0.8437499999999989
 40
0.8749999999999986
 40
0.8749999999999986
 40
0.9374999999999984
 40
0.9374999999999984
 40
0.9687499999999988
 40
0.9687499999999988
 40
0.9843749999999993
 40
0.9843749999999993
 40
1.0
 40
1.0
 40
1.0
 40
1.0
 10
209.7555179115762
 20
110.6225962045671
 30
0.0
 10
209.8215149691657
 20
110.6631302067826
 30
0.0
 10
209.8797404187774
 20
110.7060329673038
 30
0.0
 10
209.9892104278545
 20
110.7958334470789
 30
0.0
 10
210.0402098989561
 20
110.842771217987
 30
0.0
 10
210.1860394895187
 20
110.989710784934
 30
0.0
 10
210.2725736921348
 20
111.0946612182309
 30
0.0
 10
210.4283958411845
 20
111.3164060309125
 30
0.0
 10
210.4979278065971
 20
111.4337248072663
 30
0.0
 10
210.6203453926889
 20
111.683531142769
 30
0.0
 10
210.6732156908216
 20
111.8167212777356
 30
0.0
 10
210.7561813172293
 20
112.0913707679185
 30
0.0
 10
210.7869190216125
 20
112.2337859802765
 30
0.0
 10
210.8224974239802
 20
112.5312875302015
 30
0.0
 10
210.8267152858856
 20
112.6824929760061
 30
0.0
 10
210.8039630867347
 20
112.9860327547283
 30
0.0
 10
210.7762573558288
 20
113.1398670202997
 30
0.0
 10
210.6892036825785
 20
113.4299061433649
 30
0.0
 10
210.6284475222165
 20
113.57088717804
 30
0.0
 10
210.4794720056575
 20
113.8262221830415
 30
0.0
 10
210.3914915659077
 20
113.9411031563798
 30
0.0
 10
210.1956039260685
 20
114.1414390113656
 30
0.0
 10
210.0901695128443
 20
114.2248602346288
 30
0.0
 10
209.8669003350809
 20
114.3633107949823
 30
0.0
 10
209.7522536379109
 20
114.4162782240424
 30
0.0
 10
209.5204860190072
 20
114.4953247959812
 30
0.0
 10
209.402003702202
 20
114.5215996903435
 30
0.0
 10
209.168169275135
 20
114.5498652694732
 30
0.0
 10
209.0533066578946
 20
114.5520252696951
 30
0.0
 10
208.8293072976785
 20
114.5362443350376
 30
0.0
 10
208.719853214775
 20
114.5182139324359
 30
0.0
 10
208.5652119002217
 20
114.4779185869568
 30
0.0
 10
208.5157820274334
 20
114.4623964021314
 30
0.0
 10
208.4246689945748
 20
114.4281023925454
 30
0.0
 10
208.3826036751198
 20
114.4091596107498
 30
0.0
 10
208.3182590896918
 20
114.3713862712595
 30
0.0
 10
208.2965274818494
 20
114.3524384439566
 30
0.0
 10
208.292727583454
 20
114.322321298621
 30
0.0
 10
208.3105384261237
 20
114.3114235584007
 30
0.0
 10
208.3943167056659
 20
114.2857607295966
 30
0.0
 10
208.4821305173535
 20
114.2748643921908
 30
0.0
 10
208.667549478829
 20
114.2413263275118
 30
0.0
 10
208.7669946225707
 20
114.2201355672312
 30
0.0
 10
208.9718216464112
 20
114.1636312353889
 30
0.0
 10
209.0775017925678
 20
114.128501152147
 30
0.0
 10
209.2938204899063
 20
114.0407707884251
 30
0.0
 10
209.4051772520924
 20
113.9877535447287
 30
0.0
 10
209.625916361756
 20
113.8632460324754
 30
0.0
 10
209.7359700406814
 20
113.7916498644884
 30
0.0
 10
209.9546589377353
 20
113.6246504026179
 30
0.0
 10
210.062257787568
 20
113.5297609021524
 30
0.0
 10
210.2648536911913
 20
113.3187203510252
 30
0.0
 10
210.3619828896303
 20
113.1998912128995
 30
0.0
 10
210.5315408016749
 20
112.947769007757
 30
0.0
 10
210.6061327231329
 20
112.8109620570651
 30
0.0
 10
210.7218279425431
 20
112.535669612573
 30
0.0
 10
210.764237088708
 20
112.3945647905479
 30
0.0
 10
210.8156282459712
 20
112.1216250560709
 30
0.0
 10
210.8250308983489
 20
111.9889935387174
 30
0.0
 10
210.8161404644153
 20
111.7396666493856
 30
0.0
 10
210.7982804820841
 20
111.6239474454411
 30
0.0
 10
210.7409344388489
 20
111.4064796622404
 30
0.0
 10
210.7012175789895
 20
111.3051193385422
 30
0.0
 10
210.5585666595838
 20
111.0284270635842
 30
0.0
 10
210.4309756408778
 20
110.8747080870146
 30
0.0
 10
210.1979586074729
 20
110.6801151666247
 30
0.0
 10
210.1136170907272
 20
110.6215034573696
 30
0.0
 10
209.970584942996
 20
110.5380787099478
 30
0.0
 10
209.9204693439584
 20
110.5112113370509
 30
0.0
 10
209.8115741703761
 20
110.4569536555965
 30
0.0
 10
209.7520268749007
 20
110.4292154051197
 30
0.0
 10
209.6860346321768
 20
110.3997839174909
 30
0.0
  0
CIRCLE
  5
126
330
1F
100
AcDbEntity
  8
0
  6
HIDDEN
 62
     7
370
     0
100
AcDbCircle
 10
208.7155032366
 20
112.7296998207
 30
0.0
 40
2.088483763555052
  0
LINE
  5
127
330
1F
100
AcDbEntity
  8
0
  6
HIDDEN
 62
     7
370
     0
100
AcDbLine
 10
139.6486871821
 20
119.8899563665
 30
0.0
 11
139.6486871821
 21
101.8899571414
 31
0.0
  0
LINE
  5
128
330
1F
100
AcDbEntity
  8
0
  6
HIDDEN
 62
     7
370
     0
100
AcDbLine
 10
134.8486878854
 20
119.8899563665
 30
0.0
 11
134.8486878854
 21
101.8899571414
 31
0.0
  0
LWPOLYLINE
  5
129
330
1F
100
AcDbEntity
  8
0
  6
HIDDEN
 62
     7
370
     0
100
AcDbPolyline
 90
        9
 70
   128
 43
0.0
 10
209.7555194926
 20
110.6225961908
 10
209.757423116
 20
110.5726515439
 10
209.7562645507
 20
110.5287710585
 10
209.7520549727
 20
110.4911059579
 10
209.7448018325
 20
110.4597861618
 10
209.7345312071
 20
110.4349196453
 10
209.7212840748
 20
110.4165920902
 10
209.7050976885
 20
110.4048667099
 10
209.686035378
 20
110.3997839296
  0
LINE
  5
12A
330
1F
100
AcDbEntity
  8
0
  6
HIDDEN
 62
     7
370
     0
100
AcDbLine
 10
135.8486880493
 20
119.8899563665
 30
0.0
 11
135.8486880493
 21
101.8899571414
 31
0.0
  0
SPLINE
  5
12B
330
1F
100
AcDbEntity
  8
0
  6
HIDDEN
 62
     7
370
     0
100
AcDbSpline
210
0.0
220
0.0
230
1.0
 70
     8
 71
     3
 72
    14
 73
    10
 74
     0
 42
0.00000001
 43
0.00000001
 12
1.0
 22
0.0
 32
0.0
 13
1.0
 23
0.0
 33
0.0
 40
0.0
 40
0.0
 40
0.0
 40
0.0
 40
0.25
 40
0.25
 40
0.5
 40
0.5
 40
0.75
 40
0.75
 40
1.0
 40
1.0
 40
1.0
 40
1.0
 10
146.2216552031226
 20
112.0257384231241
 30
0.0
 10
146.3198795496255
 20
111.8527749933206
 30
0.0
 10
146.3951943876096
 20
111.6677424388962
 30
0.0
 10
146.4961610978039
 20
111.2847302247617
 30
0.0
 10
146.5215366840941
 20
111.0900116712961
 30
0.0
 10
146.5217729093604
 20
110.6926363700305
 30
0.0
 10
146.4960698400249
 20
110.4951440355551
 30
0.0
 10
146.3957497265084
 20
110.1139722009241
 30
0.0
 10
146.3198578984208
 20
109.9271003889515
 30
0.0
 10
146.2216552031271
 20
109.7541750848016
 30
0.0
  0
LINE
  5
12C
330
1F
100
AcDbEntity
  8
0
  6
HIDDEN
 62
     7
370
     0
100
AcDbLine
 10
146.7216555906
 20
119.3899562846
 30
0.0
 11
146.7216555906
 21
102.389956292
 31
0.0
  0
SPLINE
  5
12D
330
1F
100
AcDbEntity
  8
0
  6
HIDDEN
 62
     7
370
     0
100
AcDbSpline
210
0.0
220
0.0
230
1.0
 70
     8
 71
     3
 72
    14
 73
    10
 74
     0
 42
0.00000001
 43
0.00000001
 12
1.0
 22
0.0
 32
0.0
 13
1.0
 23
0.0
 33
0.0
 40
0.0
 40
0.0
 40
0.0
 40
0.0
 40
0.25
 40
0.25
 40
0.5
 40
0.5
 40
0.75
 40
0.75
 40
1.0
 40
1.0
 40
1.0
 40
1.0
 10
146.2216552031226
 20
109.754175084804
 30
0.0
 10
146.3198795496255
 20
109.9271385146075
 30
0.0
 10
146.3951943876096
 20
110.1121710690319
 30
0.0
 10
146.4961610978039
 20
110.4951832831664
 30
0.0
 10
146.5215366840941
 20
110.689901836632
 30
0.0
 10
146.5217729093604
 20
111.0872771378976
 30
0.0
 10
146.4960698400249
 20
111.284769472373
 30
0.0
 10
146.3957497265084
 20
111.665941307004
 30
0.0
 10
146.3198578984208
 20
111.8528131189766
 30
0.0
 10
146.2216552031271
 20
112.0257384231265
 30
0.0
  0
SPLINE
  5
12E
330
1F
100
AcDbEntity
  8
0
  6
HIDDEN
 62
     7
370
     0
100
AcDbSpline
210
0.0
220
0.0
230
1.0
 70
     8
 71
     3
 72
    60
 73
    56
 74
     0
 42
0.00000001
 43
0.00000001
 12
1.0
 22
0.0
 32
0.0
 13
1.0
 23
0.0
 33
0.0
 40
0.0
 40
0.0
 40
0.0
 40
0.0
 40
0.0625000000000008
 40
0.0625000000000008
 40
0.1250000000000017
 40
0.1250000000000017
 40
0.1875000000000025
 40
0.1875000000000025
 40
0.2187500000000027
 40
0.2187500000000027
 40
0.2500000000000029
 40
0.2500000000000029
 40
0.3125000000000029
 40
0.3125000000000029
 40
0.3750000000000029
 40
0.3750000000000029
 40
0.4062500000000027
 40
0.4062500000000027
 40
0.4375000000000026
 40
0.4375000000000026
 40
0.4687500000000024
 40
0.4687500000000024
 40
0.5000000000000023
 40
0.5000000000000023
 40
0.5312500000000022
 40
0.5312500000000022
 40
0.562500000000002
 40
0.562500000000002
 40
0.5937500000000019
 40
0.5937500000000019
 40
0.6250000000000018
 40
0.6250000000000018
 40
0.6562500000000017
 40
0.6562500000000017
 40
0.6875000000000014
 40
0.6875000000000014
 40
0.7187500000000013
 40
0.7187500000000013
 40
0.7500000000000012
 40
0.7500000000000012
 40
0.7812500000000011
 40
0.7812500000000011
 40
0.8125000000000009
 40
0.8125000000000009
 40
0.8437500000000008
 40
0.8437500000000008
 40
0.8750000000000007
 40
0.8750000000000007
 40
0.9062500000000006
 40
0.9062500000000006
 40
0.9375000000000003
 40
0.9375000000000003
 40
0.9687500000000002
 40
0.9687500000000002
 40
1.0
 40
1.0
 40
1.0
 40
1.0
 10
146.2216552031226
 20
109.754175084804
 30
0.0
 10
146.0964653015438
 20
109.5337279601884
 30
0.0
 10
145.9395979829757
 20
109.3399942313681
 30
0.0
 10
145.5625604631568
 20
109.0043045326056
 30
0.0
 10
145.3508471567359
 20
108.8703271742929
 30
0.0
 10
144.8849571747871
 20
108.6732004296078
 30
0.0
 10
144.6391179437356
 20
108.6139830173859
 30
0.0
 10
144.2596368906409
 20
108.5867762814952
 30
0.0
 10
144.131891161947
 20
108.5882695466371
 30
0.0
 10
143.8814249152789
 20
108.611785352446
 30
0.0
 10
143.7575955324707
 20
108.6337045712503
 30
0.0
 10
143.3903758583721
 20
108.7305411360952
 30
0.0
 10
143.1596068402863
 20
108.834342257547
 30
0.0
 10
142.7397178788668
 20
109.113060738475
 30
0.0
 10
142.5554595039792
 20
109.2846230299787
 30
0.0
 10
142.3247111164959
 20
109.5832703912455
 30
0.0
 10
142.2556642667069
 20
109.6897379317478
 30
0.0
 10
142.1370996029014
 20
109.9100212801407
 30
0.0
 10
142.0868912341518
 20
110.0246827965422
 30
0.0
 10
142.005059381794
 20
110.2633634333189
 30
0.0
 10
141.9737084829113
 20
110.387409060197
 30
0.0
 10
141.9323141048727
 20
110.6355240963054
 30
0.0
 10
141.9218083298084
 20
110.7607617987938
 30
0.0
 10
141.9215053774726
 20
111.0136408543848
 30
0.0
 10
141.9319899070892
 20
111.1415205406215
 30
0.0
 10
141.9731299845507
 20
111.3899426018269
 30
0.0
 10
142.0037081050992
 20
111.5117415285953
 30
0.0
 10
142.0849908134505
 20
111.7505210580696
 30
0.0
 10
142.1359917000125
 20
111.8675626203763
 30
0.0
 10
142.2545587483755
 20
112.0883878183022
 30
0.0
 10
142.3224475016473
 20
112.193326181865
 30
0.0
 10
142.4755979393849
 20
112.3923035150944
 30
0.0
 10
142.5611541109574
 20
112.4863116402885
 30
0.0
 10
142.7438654819166
 20
112.6568043252253
 30
0.0
 10
142.8416727815985
 20
112.7342425202746
 30
0.0
 10
143.0504758935155
 20
112.8734084161629
 30
0.0
 10
143.1620580688033
 20
112.9351902251699
 30
0.0
 10
143.3907038683024
 20
113.0382690957707
 30
0.0
 10
143.5086586792735
 20
113.0802731309663
 30
0.0
 10
143.7519871242622
 20
113.1450092522631
 30
0.0
 10
143.8783309996053
 20
113.1676825148258
 30
0.0
 10
144.1294369806231
 20
113.191565311007
 30
0.0
 10
144.2551189743461
 20
113.1931686122736
 30
0.0
 10
144.5067410441379
 20
113.1757018735027
 30
0.0
 10
144.6336386644236
 20
113.1562659828628
 30
0.0
 10
144.8788292306848
 20
113.0976728115391
 30
0.0
 10
144.9980183877183
 20
113.0586099603825
 30
0.0
 10
145.2297034120731
 20
112.9611002382587
 30
0.0
 10
145.3428782164236
 20
112.9020648839701
 30
0.0
 10
145.5549566333593
 20
112.7682611671306
 30
0.0
 10
145.6547454120602
 20
112.6932659509859
 30
0.0
 10
145.8420035990491
 20
112.527070886465
 30
0.0
 10
145.9298986359925
 20
112.4351766877235
 30
0.0
 10
146.0881197116244
 20
112.2398124900092
 30
0.0
 10
146.1590576679161
 20
112.1359665363367
 30
0.0
 10
146.2216552031225
 20
112.0257384231241
 30
0.0
  0
SPLINE
  5
12F
330
1F
100
AcDbEntity
  8
0
  6
HIDDEN
 62
     7
370
     0
100
AcDbSpline
210
0.0
220
0.0
230
1.0
 70
     8
 71
     3
 72
    60
 73
    56
 74
     0
 42
0.00000001
 43
0.00000001
 12
1.0
 22
0.0
 32
0.0
 13
1.0
 23
0.0
 33
0.0
 40
0.0
 40
0.0
 40
0.0
 40
0.0
 40
0.0624999999999998
 40
0.0624999999999998
 40
0.1249999999999995
 40
0.1249999999999995
 40
0.1874999999999993
 40
0.1874999999999993
 40
0.2187499999999994
 40
0.2187499999999994
 40
0.2499999999999995
 40
0.2499999999999995
 40
0.3124999999999997
 40
0.3124999999999997
 40
0.3750000000000001
 40
0.3750000000000001
 40
0.4062500000000001
 40
0.4062500000000001
 40
0.4375000000000001
 40
0.4375000000000001
 40
0.4687500000000002
 40
0.4687500000000002
 40
0.5000000000000002
 40
0.5000000000000002
 40
0.5312500000000002
 40
0.5312500000000002
 40
0.5625000000000002
 40
0.5625000000000002
 40
0.5937500000000002
 40
0.5937500000000002
 40
0.6250000000000001
 40
0.6250000000000001
 40
0.6562500000000001
 40
0.6562500000000001
 40
0.6875000000000001
 40
0.6875000000000001
 40
0.7187500000000001
 40
0.7187500000000001
 40
0.7500000000000001
 40
0.7500000000000001
 40
0.7812500000000001
 40
0.7812500000000001
 40
0.8125000000000001
 40
0.8125000000000001
 40
0.8437500000000001
 40
0.8437500000000001
 40
0.875
 40
0.875
 40
0.90625
 40
0.90625
 40
0.9375
 40
0.9375
 40
0.96875
 40
0.96875
 40
1.0
 40
1.0
 40
1.0
 40
1.0
 10
146.2216552031226
 20
112.0257384231241
 30
0.0
 10
146.0964653015438
 20
112.2461855477397
 30
0.0
 10
145.9395979829757
 20
112.43991927656
 30
0.0
 10
145.5625604631568
 20
112.7756089753224
 30
0.0
 10
145.3508471567359
 20
112.9095863336352
 30
0.0
 10
144.8849571747871
 20
113.1067130783203
 30
0.0
 10
144.6391179437356
 20
113.1659304905422
 30
0.0
 10
144.2596368906409
 20
113.1931372264329
 30
0.0
 10
144.131891161947
 20
113.191643961291
 30
0.0
 10
143.8814249152789
 20
113.1681281554821
 30
0.0
 10
143.7575955324707
 20
113.1462089366778
 30
0.0
 10
143.3903758583721
 20
113.0493723718329
 30
0.0
 10
143.1596068402863
 20
112.9455712503811
 30
0.0
 10
142.7397178788668
 20
112.6668527694531
 30
0.0
 10
142.5554595039792
 20
112.4952904779494
 30
0.0
 10
142.3247111164959
 20
112.1966431166826
 30
0.0
 10
142.2556642667069
 20
112.0901755761803
 30
0.0
 10
142.1370996029014
 20
111.8698922277873
 30
0.0
 10
142.0868912341518
 20
111.7552307113859
 30
0.0
 10
142.005059381794
 20
111.5165500746092
 30
0.0
 10
141.9737084829113
 20
111.3925044477311
 30
0.0
 10
141.9323141048727
 20
111.1443894116227
 30
0.0
 10
141.9218083298084
 20
111.0191517091343
 30
0.0
 10
141.9215053774726
 20
110.7662726535432
 30
0.0
 10
141.9319899070892
 20
110.6383929673066
 30
0.0
 10
141.9731299845507
 20
110.3899709061012
 30
0.0
 10
142.0037081050992
 20
110.2681719793328
 30
0.0
 10
142.0849908134505
 20
110.0293924498584
 30
0.0
 10
142.1359917000125
 20
109.9123508875518
 30
0.0
 10
142.2545587483755
 20
109.6915256896259
 30
0.0
 10
142.3224475016473
 20
109.5865873260631
 30
0.0
 10
142.4755979393849
 20
109.3876099928337
 30
0.0
 10
142.5611541109574
 20
109.2936018676396
 30
0.0
 10
142.7438654819166
 20
109.1231091827028
 30
0.0
 10
142.8416727815985
 20
109.0456709876535
 30
0.0
 10
143.0504758935155
 20
108.9065050917652
 30
0.0
 10
143.1620580688033
 20
108.8447232827582
 30
0.0
 10
143.3907038683024
 20
108.7416444121574
 30
0.0
 10
143.5086586792735
 20
108.6996403769617
 30
0.0
 10
143.7519871242622
 20
108.6349042556649
 30
0.0
 10
143.8783309996053
 20
108.6122309931023
 30
0.0
 10
144.1294369806231
 20
108.5883481969211
 30
0.0
 10
144.2551189743461
 20
108.5867448956544
 30
0.0
 10
144.5067410441379
 20
108.6042116344253
 30
0.0
 10
144.6336386644236
 20
108.6236475250653
 30
0.0
 10
144.8788292306848
 20
108.6822406963889
 30
0.0
 10
144.9980183877183
 20
108.7213035475456
 30
0.0
 10
145.2297034120731
 20
108.8188132696694
 30
0.0
 10
145.3428782164236
 20
108.877848623958
 30
0.0
 10
145.5549566333593
 20
109.0116523407975
 30
0.0
 10
145.6547454120602
 20
109.0866475569422
 30
0.0
 10
145.8420035990491
 20
109.252842621463
 30
0.0
 10
145.9298986359925
 20
109.3447368202046
 30
0.0
 10
146.0881197116244
 20
109.5401010179189
 30
0.0
 10
146.159057667916
 20
109.6439469715914
 30
0.0
 10
146.2216552031226
 20
109.754175084804
 30
0.0
  0
LINE
  5
130
330
1F
100
AcDbEntity
  8
0
  6
HIDDEN
 62
     7
370
     0
100
AcDbLine
 10
147.621654993
 20
117.1399568471
 30
0.0
 11
147.621654993
 21
104.6399566608
 31
0.0
  0
LINE
  5
131
330
1F
100
AcDbEntity
  8
0
  6
HIDDEN
 62
     7
370
     0
100
AcDbLine
 10
146.7216555906
 20
103.7399567927
 30
0.0
 11
146.7216555906
 21
118.023990121
 31
0.0
  0
LINE
  5
132
330
1F
100
AcDbEntity
  8
0
  6
HIDDEN
 62
     7
370
     0
100
AcDbLine
 10
166.7216551435
 20
117.1399568471
 30
0.0
 11
166.7216551435
 21
104.6399566608
 31
0.0
  0
LINE
  5
133
330
1F
100
AcDbEntity
  8
0
  6
HIDDEN
 62
     7
370
     0
100
AcDbLine
 10
168.5242374373
 20
114.139956821
 30
0.0
 11
168.5242374373
 21
107.6399566869
 31
0.0
  0
SPLINE
  5
134
330
1F
100
AcDbEntity
  8
0
  6
HIDDEN
 62
     7
370
     0
100
AcDbSpline
210
0.0
220
0.0
230
1.0
 70
     8
 71
     3
 72
    60
 73
    56
 74
     0
 42
0.00000001
 43
0.00000001
 12
1.0
 22
0.0
 32
0.0
 13
1.0
 23
0.0
 33
0.0
 40
-0.0625000000000013
 40
-0.0625000000000013
 40
0.0
 40
0.0
 40
0.0312499999999995
 40
0.0312499999999995
 40
0.0624999999999991
 40
0.0624999999999991
 40
0.1249999999999982
 40
0.1249999999999982
 40
0.1562499999999978
 40
0.1562499999999978
 40
0.1874999999999973
 40
0.1874999999999973
 40
0.2187499999999969
 40
0.2187499999999969
 40
0.2499999999999966
 40
0.2499999999999966
 40
0.2812499999999962
 40
0.2812499999999962
 40
0.3124999999999958
 40
0.3124999999999958
 40
0.3749999999999956
 40
0.3749999999999956
 40
0.4062499999999955
 40
0.4062499999999955
 40
0.4374999999999954
 40
0.4374999999999954
 40
0.4687499999999953
 40
0.4687499999999953
 40
0.4999999999999953
 40
0.4999999999999953
 40
0.5312499999999953
 40
0.5312499999999953
 40
0.5624999999999953
 40
0.5624999999999953
 40
0.5937499999999952
 40
0.5937499999999952
 40
0.6249999999999952
 40
0.6249999999999952
 40
0.6874999999999961
 40
0.6874999999999961
 40
0.7187499999999966
 40
0.7187499999999966
 40
0.7499999999999969
 40
0.7499999999999969
 40
0.7812499999999973
 40
0.7812499999999973
 40
0.8124999999999978
 40
0.8124999999999978
 40
0.8749999999999988
 40
0.8749999999999988
 40
0.9062499999999988
 40
0.9062499999999988
 40
0.9374999999999987
 40
0.9374999999999987
 40
1.0
 40
1.0
 40
1.03125
 40
1.03125
 10
209.0082509702967
 20
108.3552525810183
 30
0.0
 10
208.5783573195355
 20
108.3552525810183
 30
0.0
 10
208.4387035529253
 20
108.3671044490677
 30
0.0
 10
208.165811973122
 20
108.4130221004275
 30
0.0
 10
208.0317445616277
 20
108.4476635076305
 30
0.0
 10
207.6558422398527
 20
108.5807010011003
 30
0.0
 10
207.4313726313341
 20
108.710162166449
 30
0.0
 10
207.1483937741216
 20
108.9580627012992
 30
0.0
 10
207.0615333467104
 20
109.0512521684478
 30
0.0
 10
206.9103004433901
 20
109.252702238105
 30
0.0
 10
206.8452678661946
 20
109.3611922432792
 30
0.0
 10
206.7373030435257
 20
109.5959659152963
 30
0.0
 10
206.6943818914062
 20
109.723718269016
 30
0.0
 10
206.6373713462752
 20
109.9851476897273
 30
0.0
 10
206.6223680208732
 20
110.1201727778325
 30
0.0
 10
206.6209914491799
 20
110.3995602238391
 30
0.0
 10
206.6349470183543
 20
110.540862377521
 30
0.0
 10
206.6899566941522
 20
110.8175071327902
 30
0.0
 10
206.7317408507212
 20
110.9556874351633
 30
0.0
 10
206.8918001651487
 20
111.3490886603102
 30
0.0
 10
207.0464812904923
 20
111.5899523113117
 30
0.0
 10
207.3282183220285
 20
111.8950644211255
 30
0.0
 10
207.4320817307442
 20
111.9890879224112
 30
0.0
 10
207.6529279433421
 20
112.1542861258712
 30
0.0
 10
207.7699335477097
 20
112.2259153623248
 30
0.0
 10
208.0193840726672
 20
112.3458780962763
 30
0.0
 10
208.1533719462502
 20
112.3943183325557
 30
0.0
 10
208.4266826480725
 20
112.4596052444969
 30
0.0
 10
208.5689177218158
 20
112.4772650320654
 30
0.0
 10
208.8539424713349
 20
112.4788515555282
 30
0.0
 10
208.9941286172605
 20
112.4631880248712
 30
0.0
 10
209.2701949920254
 20
112.4005713597771
 30
0.0
 10
209.4037027053627
 20
112.3539026197178
 30
0.0
 10
209.6557908444746
 20
112.2358360565314
 30
0.0
 10
209.7762024739768
 20
112.1635129556383
 30
0.0
 10
209.9986746871846
 20
111.9997019472085
 30
0.0
 10
210.1018408509117
 20
111.9078245690342
 30
0.0
 10
210.388792075055
 20
111.601565381613
 30
0.0
 10
210.5420450015934
 20
111.366375893792
 30
0.0
 10
210.7062266735496
 20
110.9715384670716
 30
0.0
 10
210.7482682935197
 20
110.8363971218905
 30
0.0
 10
210.8059608986065
 20
110.5587979081835
 30
0.0
 10
210.8211345937639
 20
110.4159987381113
 30
0.0
 10
210.8221487690467
 20
110.1384546843339
 30
0.0
 10
210.8082378854438
 20
110.0004515757344
 30
0.0
 10
210.7522538271387
 20
109.7346530915682
 30
0.0
 10
210.7109843697395
 20
109.6090777896759
 30
0.0
 10
210.5497481879498
 20
109.2519113814991
 30
0.0
 10
210.3945616445288
 20
109.0464599105793
 30
0.0
 10
210.1104432310997
 20
108.7959243183931
 30
0.0
 10
210.0080310740842
 20
108.7224813967419
 30
0.0
 10
209.7865001632317
 20
108.5936685700529
 30
0.0
 10
209.6663153746748
 20
108.5380978124999
 30
0.0
 10
209.2901196335471
 20
108.4041457319061
 30
0.0
 10
209.0082509702967
 20
108.3552525810183
 30
0.0
 10
208.5783573195355
 20
108.3552525810183
 30
0.0
  0
LINE
  5
135
330
1F
100
AcDbEntity
  8
0
  6
HIDDEN
 62
     7
370
     0
100
AcDbLine
 10
211.7216569317
 20
107.6399566869
 30
0.0
 11
211.7216569317
 21
114.139956821
 31
0.0
  0
ELLIPSE
  5
136
330
1F
100
AcDbEntity
  8
0
  6
HIDDEN
 62
     7
370
     0
100
AcDbEllipse
 10
240.3012624817
 20
110.889956754
 30
0.0
 11
4.24708025276297
 21
12.99357047085402
 31
0.0
210
0.0
220
0.0
230
1.0
 40
0.0962569477
 41
1.602248510774564
 42
3.173044837569575
  0
LINE
  5
137
330
1F
100
AcDbEntity
  8
0
  6
HIDDEN
 62
     7
370
     0
100
AcDbLine
 10
220.2216518057
 20
97.8899564857
 30
0.0
 11
220.2216518057
 21
110.889956754
 31
0.0
  0
LINE
  5
138
330
1F
100
AcDbEntity
  8
0
  6
HIDDEN
 62
     7
370
     0
100
AcDbLine
 10
234.8738071454
 20
124.5635463188
 30
0.0
 11
232.5176876915
 21
117.109092817
 31
0.0
  0
LINE
  5
139
330
1F
100
AcDbEntity
  8
0
  6
HIDDEN
 62
     7
370
     0
100
AcDbLine
 10
232.5176876915
 20
117.109092817
 30
0.0
 11
232.4674558771
 21
117.0932933952
 31
0.0
  0
LINE
  5
13A
330
1F
100
AcDbEntity
  8
0
  6
HIDDEN
 62
     7
370
     0
100
AcDbLine
 10
231.9729459417
 20
113.7654321997
 30
0.0
 11
242.3347291482
 21
117.0245305898
 31
0.0
  0
SPLINE
  5
13B
330
1F
100
AcDbEntity
  8
0
  6
HIDDEN
 62
     7
370
     0
100
AcDbSpline
210
0.0
220
0.0
230
1.0
 70
     8
 71
     3
 72
    10
 73
     6
 74
     0
 42
0.00000001
 43
0.00000001
 12
1.0
 22
0.0
 32
0.0
 13
1.0
 23
0.0
 33
0.0
 40
0.0
 40
0.0
 40
0.0
 40
0.0
 40
0.5
 40
0.5
 40
1.0
 40
1.0
 40
1.0
 40
1.0
 10
220.2216552031226
 20
110.889956753964
 30
0.0
 10
220.2216552031226
 20
111.3071829332359
 30
0.0
 10
220.2417870863989
 20
111.7244768872556
 30
0.0
 10
220.3217994305834
 20
112.5591986103879
 30
0.0
 10
220.3820913946563
 20
112.9781633908844
 30
0.0
 10
220.4598574979963
 20
113.389956753964
 30
0.0
  0
SPLINE
  5
13C
330
1F
100
AcDbEntity
  8
0
  6
HIDDEN
 62
     7
370
     0
100
AcDbSpline
210
0.0
220
0.0
230
1.0
 70
     8
 71
     3
 72
    16
 73
    12
 74
     0
 42
0.00000001
 43
0.00000001
 12
1.0
 22
0.0
 32
0.0
 13
1.0
 23
0.0
 33
0.0
 40
0.0
 40
0.0
 40
0.0
 40
0.0
 40
0.2499999999999994
 40
0.2499999999999994
 40
0.4999999999999988
 40
0.4999999999999988
 40
0.6249999999999988
 40
0.6249999999999988
 40
0.7499999999999988
 40
0.7499999999999988
 40
1.0
 40
1.0
 40
1.0
 40
1.0
 10
220.4598574979963
 20
113.389956753964
 30
0.0
 10
220.6092100459056
 20
114.1808204509558
 30
0.0
 10
220.763203408492
 20
114.9599684886792
 30
0.0
 10
221.0789432365055
 20
116.496208918178
 30
0.0
 10
221.240697587691
 20
117.2532958354898
 30
0.0
 10
221.4888185004245
 20
118.372075320261
 30
0.0
 10
221.5725623531968
 20
118.74260924395
 30
0.0
 10
221.7390143179769
 20
119.465409466468
 30
0.0
 10
221.8220732980717
 20
119.8192835228689
 30
0.0
 10
222.0707444283623
 20
120.8587601894256
 30
0.0
 10
222.2358428111662
 20
121.5223518093776
 30
0.0
 10
222.4003514146459
 20
122.1560535489379
 30
0.0
  0
SPLINE
  5
13D
330
1F
100
AcDbEntity
  8
0
  6
HIDDEN
 62
     7
370
     0
100
AcDbSpline
210
0.0
220
0.0
230
1.0
 70
     8
 71
     3
 72
    18
 73
    14
 74
     0
 42
0.00000001
 43
0.00000001
 12
1.0
 22
0.0
 32
0.0
 13
1.0
 23
0.0
 33
0.0
 40
0.0
 40
0.0
 40
0.0
 40
0.0
 40
0.2499999999999998
 40
0.2499999999999998
 40
0.3750000000000002
 40
0.3750000000000002
 40
0.5000000000000006
 40
0.5000000000000006
 40
0.7500000000000002
 40
0.7500000000000002
 40
0.8750000000000002
 40
0.8750000000000002
 40
1.0
 40
1.0
 40
1.0
 40
1.0
 10
222.4003514146459
 20
122.1560535489379
 30
0.0
 10
221.9926874686908
 20
122.3067409113658
 30
0.0
 10
221.6206231573413
 20
122.460716760634
 30
0.0
 10
221.1412009935884
 20
122.6989480083137
 30
0.0
 10
220.9946134738588
 20
122.7795795986109
 30
0.0
 10
220.733592076382
 20
122.9438129453234
 30
0.0
 10
220.6204476826425
 20
123.0266922890423
 30
0.0
 10
220.3416135452306
 20
123.2762715704472
 30
0.0
 10
220.2360229846726
 20
123.4445571981109
 30
0.0
 10
220.2165336362322
 20
123.7002711849745
 30
0.0
 10
220.2333634552019
 20
123.7865133569964
 30
0.0
 10
220.3128067917909
 20
123.957432500492
 30
0.0
 10
220.3750517490325
 20
124.0420758755076
 30
0.0
 10
220.4577304302361
 20
124.1259787752417
 30
0.0
  0
LINE
  5
13E
330
1F
100
AcDbEntity
  8
0
  6
HIDDEN
 62
     7
370
     0
100
AcDbLine
 10
231.7438703907
 20
113.8207003738
 30
0.0
 11
242.1223205459
 21
117.0850442055
 31
0.0
  0
LINE
  5
13F
330
1F
100
AcDbEntity
  8
0
  6
HIDDEN
 62
     7
370
     0
100
AcDbLine
 10
242.3347291482
 20
117.0245305898
 30
0.0
 11
242.1223205459
 21
117.0850442055
 31
0.0
  0
LINE
  5
140
330
1F
100
AcDbEntity
  8
0
  6
HIDDEN
 62
     7
370
     0
100
AcDbLine
 10
232.5176876915
 20
117.109092817
 30
0.0
 11
232.7300888431
 21
116.7458360347
 31
0.0
  0
LINE
  5
141
330
1F
100
AcDbEntity
  8
0
  6
HIDDEN
 62
     7
370
     0
100
AcDbLine
 10
232.3165220154
 20
116.615756348
 30
0.0
 11
232.7300888431
 21
116.7458360347
 31
0.0
  0
ELLIPSE
  5
142
330
1F
100
AcDbEntity
  8
0
  6
HIDDEN
 62
     7
370
     0
100
AcDbEllipse
 10
229.8379892491
 20
178.3515747525
 30
0.0
 11
-21.39702621087628
 21
70.55389860331951
 31
0.0
210
0.0
220
0.0
230
1.0
 40
0.2093503934
 41
2.370660802463499
 42
2.378854276254981
  0
LINE
  5
143
330
1F
100
AcDbEntity
  8
0
  6
HIDDEN
 62
     7
370
     0
100
AcDbLine
 10
235.1019141209
 20
124.2499755959
 30
0.0
 11
232.7300888431
 21
116.7458360347
 31
0.0
  0
ARC
  5
144
330
1F
100
AcDbEntity
  8
0
  6
HIDDEN
 62
     7
370
     0
100
AcDbCircle
 10
230.7226064886
 20
114.7043025386
 30
0.0
 40
1.249125520484472
100
AcDbArc
 50
177.6792602758
 51
287.5508736706
  0
LINE
  5
145
330
1F
100
AcDbEntity
  8
0
  6
HIDDEN
 62
     7
370
     0
100
AcDbLine
 10
242.1223205459
 20
117.0850442055
 30
0.0
 11
241.9078928364
 21
116.912964199
 31
0.0
  0
LINE
  5
146
330
1F
100
AcDbEntity
  8
0
  6
HIDDEN
 62
     7
370
     0
100
AcDbLine
 10
232.7300888431
 20
116.7458360347
 30
0.0
 11
232.7300888431
 21
116.6412014778
 31
0.0
  0
LINE
  5
147
330
1F
100
AcDbEntity
  8
0
  6
HIDDEN
 62
     7
370
     0
100
AcDbLine
 10
232.7300888431
 20
116.6412014778
 30
0.0
 11
232.2798055542
 21
116.4995710629
 31
0.0
  0
LINE
  5
148
330
1F
100
AcDbEntity
  8
0
  6
HIDDEN
 62
     7
370
     0
100
AcDbLine
 10
235.0397911799
 20
123.9487830813
 30
0.0
 11
232.7300888431
 21
116.6412014778
 31
0.0
  0
ELLIPSE
  5
149
330
1F
100
AcDbEntity
  8
0
  6
HIDDEN
 62
     7
370
     0
100
AcDbEllipse
 10
229.8379892491
 20
83.5369223823
 30
0.0
 11
25.84177378472359
 21
129.962307297638
 31
0.0
210
0.0
220
0.0
230
1.0
 40
0.02203747
 41
1.256548937641621
 42
1.258988305523375
  0
CIRCLE
  5
14A
330
1F
100
AcDbEntity
  8
0
  6
HIDDEN
 62
     7
370
     0
100
AcDbCircle
 10
208.7155033546
 20
109.6767558363
 30
0.0
 40
2.088483805218525
  0
CIRCLE
  5
14B
330
1F
100
AcDbEntity
  8
0
  6
HIDDEN
 62
     7
370
     0
100
AcDbCircle
 10
238.549501278
 20
120.4632723671
 30
0.0
 40
2.398214803385595
  0
LINE
  5
14C
330
1F
100
AcDbEntity
  8
0
  6
HIDDEN
 62
     7
370
     0
100
AcDbLine
 10
237.6032826436
 20
124.6131420399
 30
0.0
 11
244.5961666238
 21
126.8126204873
 31
0.0
  0
LINE
  5
14D
330
1F
100
AcDbEntity
  8
0
  6
HIDDEN
 62
     7
370
     0
100
AcDbLine
 10
244.9313235414
 20
126.478711542
 30
0.0
 11
244.5961666238
 21
126.8126204873
 31
0.0
  0
LINE
  5
14E
330
1F
100
AcDbEntity
  8
0
  6
HIDDEN
 62
     7
370
     0
100
AcDbLine
 10
231.0992834103
 20
113.5133243429
 30
0.0
 11
241.9078928364
 21
116.912964199
 31
0.0
  0
ELLIPSE
  5
14F
330
1F
100
AcDbEntity
  8
0
  6
HIDDEN
 62
     7
370
     0
100
AcDbEllipse
 10
229.8379892491
 20
149.5518960003
 30
0.0
 11
2.842170943040401E-14
 21
26.1314451361938
 31
0.0
210
0.0
220
0.0
230
1.0
 40
0.9949698482
 41
3.343021273067024
 42
3.444886158282745
  0
LINE
  5
150
330
1F
100
AcDbEntity
  8
0
  6
HIDDEN
 62
     7
370
     0
100
AcDbLine
 10
244.9313235414
 20
126.478711542
 30
0.0
 11
241.9078928364
 21
116.912964199
 31
0.0
  0
CIRCLE
  5
151
330
1F
100
AcDbEntity
  8
0
  6
HIDDEN
 62
     7
370
     0
100
AcDbCircle
 10
238.5496745418
 20
120.4098986694
 30
0.0
 40
1.64898573834725
  0
LINE
  5
152
330
1F
100
AcDbEntity
  8
0
  6
HIDDEN
 62
     7
370
     0
100
AcDbLine
 10
133.2216543091
 20
101.2323456148
 30
0.0
 11
133.2216543091
 21
97.3924262713
 31
0.0
  0
LINE
  5
153
330
1F
100
AcDbEntity
  8
0
  6
HIDDEN
 62
     7
370
     0
100
AcDbLine
 10
131.7216549945
 20
101.665358458
 30
0.0
 11
131.7216549945
 21
98.2584519575
 31
0.0
  0
SPLINE
  5
154
330
1F
100
AcDbEntity
  8
0
  6
HIDDEN
 62
     7
370
     0
100
AcDbSpline
210
0.0
220
0.0
230
1.0
 70
     8
 71
     3
 72
     8
 73
     4
 74
     0
 42
0.00000001
 43
0.00000001
 12
1.0
 22
0.0
 32
0.0
 13
1.0
 23
0.0
 33
0.0
 40
0.0
 40
0.0
 40
0.0
 40
0.0
 40
1.0
 40
1.0
 40
1.0
 40
1.0
 10
154.2266152251802
 20
97.15087222280641
 30
0.0
 10
154.2773423683868
 20
97.1051179214812
 30
0.0
 10
154.3352296979477
 20
97.07661377561767
 30
0.0
 10
154.4003348595629
 20
97.06489274595886
 30
0.0
  0
LINE
  5
155
330
1F
100
AcDbEntity
  8
0
  6
HIDDEN
 62
     7
370
     0
100
AcDbLine
 10
154.0216551806
 20
100.9710612039
 30
0.0
 11
154.0216551806
 21
99.9159183617
 31
0.0
  0
LINE
  5
156
330
1F
100
AcDbEntity
  8
0
  6
HIDDEN
 62
     7
370
     0
100
AcDbLine
 10
154.0216551806
 20
96.9697203751
 30
0.0
 11
154.0216551806
 21
96.8698583807
 31
0.0
  0
SPLINE
  5
157
330
1F
100
AcDbEntity
  8
0
  6
HIDDEN
 62
     7
370
     0
100
AcDbSpline
210
0.0
220
0.0
230
1.0
 70
     8
 71
     3
 72
    16
 73
    12
 74
     0
 42
0.00000001
 43
0.00000001
 12
1.0
 22
0.0
 32
0.0
 13
1.0
 23
0.0
 33
0.0
 40
0.0
 40
0.0
 40
0.0
 40
0.0
 40
0.2499999999999991
 40
0.2499999999999991
 40
0.3749999999999993
 40
0.3749999999999993
 40
0.4999999999999994
 40
0.4999999999999994
 40
0.7499999999999998
 40
0.7499999999999998
 40
1.0
 40
1.0
 40
1.0
 40
1.0
 10
154.0216552031224
 20
99.91591876171759
 30
0.0
 10
153.9411178712229
 20
99.52691157777207
 30
0.0
 10
153.8810805271955
 20
99.17041113614641
 30
0.0
 10
153.8203428200419
 20
98.68390875095754
 30
0.0
 10
153.8050204449289
 20
98.52982981010365
 30
0.0
 10
153.7844376356248
 20
98.23836025161023
 30
0.0
 10
153.7792380385993
 20
98.1007903677111
 30
0.0
 10
153.7791843854194
 20
97.72254553252138
 30
0.0
 10
153.7993819288974
 20
97.51266446396927
 30
0.0
 10
153.8800600172561
 20
97.1760851650581
 30
0.0
 10
153.9411061818639
 20
97.04980067314033
 30
0.0
 10
154.0216552031225
 20
96.96972036564897
 30
0.0
  0
SPLINE
  5
158
330
1F
100
AcDbEntity
  8
0
  6
HIDDEN
 62
     7
370
     0
100
AcDbSpline
210
0.0
220
0.0
230
1.0
 70
     8
 71
     3
 72
    24
 73
    20
 74
     0
 42
0.00000001
 43
0.00000001
 12
1.0
 22
0.0
 32
0.0
 13
1.0
 23
0.0
 33
0.0
 40
0.0
 40
0.0
 40
0.0
 40
0.0
 40
0.2499999999999964
 40
0.2499999999999964
 40
0.3749999999999956
 40
0.3749999999999956
 40
0.4374999999999962
 40
0.4374999999999962
 40
0.4687499999999959
 40
0.4687499999999959
 40
0.4999999999999956
 40
0.4999999999999956
 40
0.562499999999996
 40
0.562499999999996
 40
0.6249999999999964
 40
0.6249999999999964
 40
0.7499999999999971
 40
0.7499999999999971
 40
1.0
 40
1.0
 40
1.0
 40
1.0
 10
154.0216552031224
 20
96.96972036564883
 30
0.0
 10
154.0220581137578
 20
97.00014460248701
 30
0.0
 10
154.0241020930981
 20
97.03300270304145
 30
0.0
 10
154.0333393359235
 20
97.08902807019527
 30
0.0
 10
154.0372263989039
 20
97.1086391233808
 30
0.0
 10
154.0481302903094
 20
97.14291340680985
 30
0.0
 10
154.0522723360597
 20
97.1549758322821
 30
0.0
 10
154.0641674098098
 20
97.17729499697991
 30
0.0
 10
154.0694144741169
 20
97.18626150933888
 30
0.0
 10
154.0862815404923
 20
97.20391107386708
 30
0.0
 10
154.0941039480217
 20
97.20805535801205
 30
0.0
 10
154.1110527486463
 20
97.21454289918957
 30
0.0
 10
154.1185090998644
 20
97.21394601781785
 30
0.0
 10
154.1325690030577
 20
97.21219975384639
 30
0.0
 10
154.1387013881939
 20
97.21036906594802
 30
0.0
 10
154.1559961507178
 20
97.20380265637533
 30
0.0
 10
154.166013469127
 20
97.19793744121658
 30
0.0
 10
154.1943848033706
 20
97.17919275718594
 30
0.0
 10
154.2109202410153
 20
97.165028609099
 30
0.0
 10
154.2266152251802
 20
97.15087222280644
 30
0.0
  0
LINE
  5
159
330
1F
100
AcDbEntity
  8
0
  6
HIDDEN
 62
     7
370
     0
100
AcDbLine
 10
154.0216551806
 20
124.9100551273
 30
0.0
 11
154.0216551806
 21
124.8101931329
 31
0.0
  0
LINE
  5
15A
330
1F
100
AcDbEntity
  8
0
  6
HIDDEN
 62
     7
370
     0
100
AcDbLine
 10
133.2216543091
 20
124.3874872367
 30
0.0
 11
133.2216543091
 21
120.5475678931
 31
0.0
  0
LINE
  5
15B
330
1F
100
AcDbEntity
  8
0
  6
HIDDEN
 62
     7
370
     0
100
AcDbLine
 10
154.0216551806
 20
121.8639951463
 30
0.0
 11
154.0216551806
 21
120.808852304
 31
0.0
  0
SPLINE
  5
15C
330
1F
100
AcDbEntity
  8
0
  6
HIDDEN
 62
     7
370
     0
100
AcDbSpline
210
0.0
220
0.0
230
1.0
 70
     8
 71
     3
 72
    16
 73
    12
 74
     0
 42
0.00000001
 43
0.00000001
 12
1.0
 22
0.0
 32
0.0
 13
1.0
 23
0.0
 33
0.0
 40
0.0
 40
0.0
 40
0.0
 40
0.0
 40
0.2500000000000003
 40
0.2500000000000003
 40
0.3750000000000003
 40
0.3750000000000003
 40
0.5000000000000002
 40
0.5000000000000002
 40
0.7500000000000001
 40
0.7500000000000001
 40
1.0
 40
1.0
 40
1.0
 40
1.0
 10
154.0216552031224
 20
124.8101931422789
 30
0.0
 10
153.941117871223
 20
124.7301244561266
 30
0.0
 10
153.8810805271958
 20
124.6062599646363
 30
0.0
 10
153.8203428200421
 20
124.3555791407042
 30
0.0
 10
153.8050204449292
 20
124.2611405363947
 30
0.0
 10
153.784437635625
 20
124.049829468776
 30
0.0
 10
153.7792380385993
 20
123.9325400140224
 30
0.0
 10
153.7791843854192
 20
123.5545043422671
 30
0.0
 10
153.7993819288969
 20
123.265727188523
 30
0.0
 10
153.8800600172549
 20
122.6158873253842
 30
0.0
 10
153.9411061818624
 20
122.2530583914915
 30
0.0
 10
154.0216552031204
 20
121.8639947462198
 30
0.0
  0
SPLINE
  5
15D
330
1F
100
AcDbEntity
  8
0
  6
HIDDEN
 62
     7
370
     0
100
AcDbSpline
210
0.0
220
0.0
230
1.0
 70
     8
 71
     3
 72
    24
 73
    20
 74
     0
 42
0.00000001
 43
0.00000001
 12
1.0
 22
0.0
 32
0.0
 13
1.0
 23
0.0
 33
0.0
 40
0.0
 40
0.0
 40
0.0
 40
0.0
 40
0.2500000000000011
 40
0.2500000000000011
 40
0.3750000000000006
 40
0.3750000000000006
 40
0.4375000000000004
 40
0.4375000000000004
 40
0.5000000000000002
 40
0.5000000000000002
 40
0.5312500000000013
 40
0.5312500000000013
 40
0.5625000000000024
 40
0.5625000000000024
 40
0.625000000000003
 40
0.625000000000003
 40
0.750000000000002
 40
0.750000000000002
 40
1.0
 40
1.0
 40
1.0
 40
1.0
 10
154.2266152251829
 20
124.629041285124
 30
0.0
 10
154.2108486368845
 20
124.6148203141358
 30
0.0
 10
154.1942371039299
 20
124.6005900238009
 30
0.0
 10
154.1657107559719
 20
124.5817929685795
 30
0.0
 10
154.1556253221819
 20
124.5759045482382
 30
0.0
 10
154.138142551647
 20
124.5693671534359
 30
0.0
 10
154.1319348952014
 20
124.5675559394347
 30
0.0
 10
154.1176633949563
 20
124.5659501369282
 30
0.0
 10
154.1100933244532
 20
124.5653973595421
 30
0.0
 10
154.0926969950178
 20
124.572596104255
 30
0.0
 10
154.0842377220579
 20
124.5776878530027
 30
0.0
 10
154.0681767575103
 20
124.5955027854818
 30
0.0
 10
154.0633435216641
 20
124.6040252003441
 30
0.0
 10
154.0519176019288
 20
124.6259216369928
 30
0.0
 10
154.0478962460463
 20
124.6376621597988
 30
0.0
 10
154.0371357510152
 20
124.6717124237521
 30
0.0
 10
154.0332614419543
 20
124.6912874127808
 30
0.0
 10
154.0240885698272
 20
124.747135721462
 30
0.0
 10
154.0220561991124
 20
124.7799134824909
 30
0.0
 10
154.0216552031225
 20
124.8101931422788
 30
0.0
  0
LINE
  5
15E
330
1F
100
AcDbEntity
  8
0
  6
HIDDEN
 62
     7
370
     0
100
AcDbLine
 10
131.7216549945
 20
123.5214615504
 30
0.0
 11
131.7216549945
 21
120.11455505
 31
0.0
  0
SPLINE
  5
15F
330
1F
100
AcDbEntity
  8
0
  6
HIDDEN
 62
     7
370
     0
100
AcDbSpline
210
0.0
220
0.0
230
1.0
 70
     8
 71
     3
 72
     8
 73
     4
 74
     0
 42
0.00000001
 43
0.00000001
 12
1.0
 22
0.0
 32
0.0
 13
1.0
 23
0.0
 33
0.0
 40
0.0
 40
0.0
 40
0.0
 40
0.0
 40
1.0
 40
1.0
 40
1.0
 40
1.0
 10
154.4003348595629
 20
124.7150207619692
 30
0.0
 10
154.3352296979488
 20
124.7032997323106
 30
0.0
 10
154.2773423683889
 20
124.6747955864479
 30
0.0
 10
154.2266152251829
 20
124.6290412851241
 30
0.0
  0
LINE
  5
160
330
1F
100
AcDbEntity
  8
0
  6
HIDDEN
 62
     7
370
     0
100
AcDbLine
 10
244.5961666238
 20
126.8126204873
 30
0.0
 11
244.3103847039
 21
126.4272634203
 31
0.0
  0
LINE
  5
161
330
1F
100
AcDbEntity
  8
0
  6
HIDDEN
 62
     7
370
     0
100
AcDbLine
 10
244.4648352397
 20
125.8496888245
 30
0.0
 11
244.9313235414
 21
126.478711542
 31
0.0
  0
SPLINE
  5
162
330
1F
100
AcDbEntity
  8
0
  6
HIDDEN
 62
     7
370
     0
100
AcDbSpline
210
0.0
220
0.0
230
1.0
 70
    11
 71
     3
 72
    30
 73
    26
 74
     0
 42
0.00000001
 43
0.00000001
 12
1.0
 22
0.0
 32
0.0
 13
1.0
 23
0.0
 33
0.0
 40
0.0
 40
0.0
 40
0.0
 40
0.0
 40
0.0186928440620145
 40
0.0653553996138237
 40
0.1119754238697646
 40
0.1535491754959568
 40
0.1597870584961564
 40
0.161428764243845
 40
0.2110540475492664
 40
0.2674962175584296
 40
0.3300694623050938
 40
0.3969331011258375
 40
0.4485029872924602
 40
0.4917512464868224
 40
0.535156952539154
 40
0.5750375637858242
 40
0.616984460174856
 40
0.6658252149542105
 40
0.7240030960320967
 40
0.7896783182124458
 40
0.8559341460167553
 40
0.9161714993795209
 40
0.9505740700201253
 40
0.9692649854628085
 40
1.0
 40
1.0
 40
1.0
 40
1.0
 10
238.7552169096655
 20
118.2288331243046
 30
0.0
 10
238.6870703141449
 20
118.214004965132
 30
0.0
 10
238.4488107979475
 20
118.1621615824426
 30
0.0
 10
238.0320802936336
 20
118.2612188719888
 30
0.0
 10
237.5658370128058
 20
118.471806462207
 30
0.0
 10
237.3755518461459
 20
118.7531147645501
 30
0.0
 10
237.2298133142541
 20
118.8666612560116
 30
0.0
 10
237.1463417065806
 20
119.0493690620558
 30
0.0
 10
236.9318097690327
 20
119.3693444034832
 30
0.0
 10
236.8726239480301
 20
119.9528340160141
 30
0.0
 10
236.9870536127045
 20
120.5639231676679
 30
0.0
 10
237.3136556127218
 20
121.0889479628105
 30
0.0
 10
237.763613914374
 20
121.4392149062424
 30
0.0
 10
238.2436572997658
 20
121.613309123308
 30
0.0
 10
238.7243685501873
 20
121.6319158036392
 30
0.0
 10
239.1750970690348
 20
121.5114879520142
 30
0.0
 10
239.5767053509571
 20
121.2717024532327
 30
0.0
 10
239.9257733448652
 20
120.8959673802007
 30
0.0
 10
240.1726929385689
 20
120.370773636029
 30
0.0
 10
240.2365371120972
 20
119.7265287986158
 30
0.0
 10
240.0444715842247
 20
119.0897204729428
 30
0.0
 10
239.7003974867302
 20
118.596921579368
 30
0.0
 10
239.3146736939725
 20
118.4274102774846
 30
0.0
 10
239.0612259197775
 20
118.2480161525548
 30
0.0
 10
238.8725457589071
 20
118.2361882104465
 30
0.0
 10
238.7552169096655
 20
118.2288331243046
 30
0.0
  0
ELLIPSE
  5
163
330
1F
100
AcDbEntity
  8
0
  6
HIDDEN
 62
     7
370
     0
100
AcDbEllipse
 10
260.2367366764
 20
113.389956754
 30
0.0
 11
15.69196669665808
 21
-14.62100869506895
 31
0.0
210
0.0
220
0.0
230
1.0
 40
0.2135193148
 41
3.433630769380317
 42
3.506847419125134
  0
ELLIPSE
  5
164
330
1F
100
AcDbEntity
  8
0
  6
HIDDEN
 62
     7
370
     0
100
AcDbEllipse
 10
198.8932747887
 20
113.389956754
 30
0.0
 11
47.92442154309891
 21
14.77043893081228
 31
0.0
210
0.0
220
0.0
230
1.0
 40
0.054548757
 41
5.635676856880677
 42
5.941053274376944
  0
SPLINE
  5
165
330
1F
100
AcDbEntity
  8
0
  6
HIDDEN
 62
     7
370
     0
100
AcDbSpline
210
0.0
220
0.0
230
1.0
 70
     8
 71
     3
 72
    14
 73
    10
 74
     0
 42
0.00000001
 43
0.00000001
 12
1.0
 22
0.0
 32
0.0
 13
1.0
 23
0.0
 33
0.0
 40
0.0
 40
0.0
 40
0.0
 40
0.0
 40
0.4999999999999949
 40
0.4999999999999949
 40
0.6249999999999949
 40
0.6249999999999949
 40
0.749999999999995
 40
0.749999999999995
 40
1.0
 40
1.0
 40
1.0
 40
1.0
 10
229.8379892491363
 20
122.1560535489379
 30
0.0
 10
231.1901816059261
 20
122.1560535489379
 30
0.0
 10
232.5182161991067
 20
122.2796715444898
 30
0.0
 10
234.1472789349051
 20
122.5820770845114
 30
0.0
 10
234.4715108951683
 20
122.6500256325874
 30
0.0
 10
235.1166602225351
 20
122.8009757601435
 30
0.0
 10
235.4382913385364
 20
122.8842071111347
 30
0.0
 10
236.3887421855209
 20
123.154069096753
 30
0.0
 10
237.0053192693221
 20
123.3612072397019
 30
0.0
 10
237.6032793376758
 20
123.5938001913691
 30
0.0
  0
LINE
  5
166
330
1F
100
AcDbEntity
  8
0
  6
HIDDEN
 62
     7
370
     0
100
AcDbLine
 10
222.4003505838
 20
122.1560532491
 30
0.0
 11
229.8379895222
 21
122.1560532491
 31
0.0
  0
ELLIPSE
  5
167
330
1F
100
AcDbEntity
  8
0
  6
HIDDEN
 62
     7
370
     0
100
AcDbEllipse
 10
241.3229118902
 20
113.389956754
 30
0.0
 11
4.900477214726521
 21
14.99258131252387
 31
0.0
210
0.0
220
0.0
230
1.0
 40
0.0962569477
 41
0.6219765905403153
 42
1.602248510774582
  0
CIRCLE
  5
168
330
1F
100
AcDbEntity
  8
0
  6
HIDDEN
 62
     7
370
     0
100
AcDbCircle
 10
208.71484943
 20
109.6360098928
 30
0.0
 40
2.48624878942505
  0
LINE
  5
169
330
1F
100
AcDbEntity
  8
0
  6
HIDDEN
 62
     7
370
     0
100
AcDbLine
 10
131.7216549945
 20
120.11455505
 30
0.0
 11
131.7216549945
 21
112.7401706095
 31
0.0
  0
LINE
  5
16A
330
1F
100
AcDbEntity
  8
0
  6
HIDDEN
 62
     7
370
     0
100
AcDbLine
 10
131.7216549945
 20
109.0397428985
 30
0.0
 11
131.7216549945
 21
101.665358458
 31
0.0
  0
SPLINE
  5
16B
330
1F
100
AcDbEntity
  8
0
  6
HIDDEN
 62
     7
370
     0
100
AcDbSpline
210
0.0
220
0.0
230
1.0
 70
     8
 71
     3
 72
    24
 73
    20
 74
     0
 42
0.00000001
 43
0.00000001
 12
1.0
 22
0.0
 32
0.0
 13
1.0
 23
0.0
 33
0.0
 40
0.0
 40
0.0
 40
0.0
 40
0.0
 40
0.2500000000000063
 40
0.2500000000000063
 40
0.3750000000000108
 40
0.3750000000000108
 40
0.4375000000000136
 40
0.4375000000000136
 40
0.5000000000000163
 40
0.5000000000000163
 40
0.5312500000000153
 40
0.5312500000000153
 40
0.5625000000000143
 40
0.5625000000000143
 40
0.6250000000000122
 40
0.6250000000000122
 40
0.7500000000000103
 40
0.7500000000000103
 40
1.0
 40
1.0
 40
1.0
 40
1.0
 10
154.2266152251829
 20
100.0973630271658
 30
0.0
 10
154.2108463478255
 20
100.0235043352362
 30
0.0
 10
154.1942323659755
 20
99.94979294650047
 30
0.0
 10
154.1657006999704
 20
99.83824612287843
 30
0.0
 10
154.1556132851517
 20
99.80087454974996
 30
0.0
 10
154.1381257246974
 20
99.74397505211229
 30
0.0
 10
154.1319161629141
 20
99.724871951967
 30
0.0
 10
154.1176386092615
 20
99.68599843773143
 30
0.0
 10
154.1100670614661
 20
99.66607377829806
 30
0.0
 10
154.0926494777879
 20
99.63600156027069
 30
0.0
 10
154.0841669811427
 20
99.62432018146745
 30
0.0
 10
154.0681286692709
 20
99.61705867071879
 30
0.0
 10
154.0633081210674
 20
99.6206369177286
 30
0.0
 10
154.0518988965194
 20
99.63239777296026
 30
0.0
 10
154.0478784160619
 20
99.6440634230108
 30
0.0
 10
154.0371245612416
 20
99.68059875312441
 30
0.0
 10
154.0332518799594
 20
99.70799448644799
 30
0.0
 10
154.0240837301218
 20
99.79272047820396
 30
0.0
 10
154.0220552247527
 20
99.85355260037606
 30
0.0
 10
154.0216552031225
 20
99.91591876171768
 30
0.0
  0
SPLINE
  5
16C
330
1F
100
AcDbEntity
  8
0
  6
HIDDEN
 62
     7
370
     0
100
AcDbSpline
210
0.0
220
0.0
230
1.0
 70
     8
 71
     3
 72
    24
 73
    20
 74
     0
 42
0.00000001
 43
0.00000001
 12
1.0
 22
0.0
 32
0.0
 13
1.0
 23
0.0
 33
0.0
 40
0.0
 40
0.0
 40
0.0
 40
0.0
 40
0.2500000000000024
 40
0.2500000000000024
 40
0.3750000000000004
 40
0.3750000000000004
 40
0.4374999999999976
 40
0.4374999999999976
 40
0.4687499999999967
 40
0.4687499999999967
 40
0.4999999999999958
 40
0.4999999999999958
 40
0.5624999999999962
 40
0.5624999999999962
 40
0.6249999999999968
 40
0.6249999999999968
 40
0.7499999999999967
 40
0.7499999999999967
 40
1.0
 40
1.0
 40
1.0
 40
1.0
 10
154.0216552031189
 20
121.8639947462212
 30
0.0
 10
154.0220598726948
 20
121.9270855547138
 30
0.0
 10
154.0241033195091
 20
121.9882712772164
 30
0.0
 10
154.0335028847634
 20
122.073771009718
 30
0.0
 10
154.0374537782922
 20
122.1013513931592
 30
0.0
 10
154.0486060865892
 20
122.1378054752708
 30
0.0
 10
154.0528276275157
 20
122.1496638969652
 30
0.0
 10
154.0650353490793
 20
122.1602839483404
 30
0.0
 10
154.0708261193315
 20
122.1631173155627
 30
0.0
 10
154.0877476324413
 20
122.1518027285644
 30
0.0
 10
154.0951537483911
 20
122.1400218428107
 30
0.0
 10
154.1116110016342
 20
122.109981001581
 30
0.0
 10
154.1190675195452
 20
122.0902680479679
 30
0.0
 10
154.1329754488198
 20
122.0518659819079
 30
0.0
 10
154.1390673947148
 20
122.0329843319964
 30
0.0
 10
154.1562616870659
 20
121.9766834214649
 30
0.0
 10
154.1662466372695
 20
121.9396073436553
 30
0.0
 10
154.1944926823683
 20
121.8289486727654
 30
0.0
 10
154.2109722193295
 20
121.7558196123569
 30
0.0
 10
154.2266152251891
 20
121.682550480733
 30
0.0
  0
SPLINE
  5
16D
330
1F
100
AcDbEntity
  8
0
  6
HIDDEN
 62
     7
370
     0
100
AcDbSpline
210
0.0
220
0.0
230
1.0
 70
     8
 71
     3
 72
     8
 73
     4
 74
     0
 42
0.00000001
 43
0.00000001
 12
1.0
 22
0.0
 32
0.0
 13
1.0
 23
0.0
 33
0.0
 40
0.0
 40
0.0
 40
0.0
 40
0.0
 40
1.0
 40
1.0
 40
1.0
 40
1.0
 10
154.4003348595629
 20
100.8364374363573
 30
0.0
 10
154.3352296979488
 20
100.5814122011516
 30
0.0
 10
154.2773423683889
 20
100.3349601850104
 30
0.0
 10
154.2266152251828
 20
100.0973630271658
 30
0.0
  0
SPLINE
  5
16E
330
1F
100
AcDbEntity
  8
0
  6
HIDDEN
 62
     7
370
     0
100
AcDbSpline
210
0.0
220
0.0
230
1.0
 70
     8
 71
     3
 72
     8
 73
     4
 74
     0
 42
0.00000001
 43
0.00000001
 12
1.0
 22
0.0
 32
0.0
 13
1.0
 23
0.0
 33
0.0
 40
0.0
 40
0.0
 40
0.0
 40
0.0
 40
1.0
 40
1.0
 40
1.0
 40
1.0
 10
154.2266152251891
 20
121.682550480733
 30
0.0
 10
154.2773423683936
 20
121.4449533228975
 30
0.0
 10
154.3352296979515
 20
121.198501306766
 30
0.0
 10
154.4003348595629
 20
120.9434760715708
 30
0.0
  0
LINE
  5
16F
330
1F
100
AcDbEntity
  8
0
  6
HIDDEN
 62
     7
370
     0
100
AcDbLine
 10
133.2216543091
 20
108.3349284514
 30
0.0
 11
133.2216543091
 21
101.2323456148
 31
0.0
  0
LINE
  5
170
330
1F
100
AcDbEntity
  8
0
  6
HIDDEN
 62
     7
370
     0
100
AcDbLine
 10
133.2216543091
 20
120.5475678931
 30
0.0
 11
133.2216543091
 21
113.4449850566
 31
0.0
  0
LINE
  5
171
330
1F
100
AcDbEntity
  8
0
  6
HIDDEN
 62
     7
370
     0
100
AcDbLine
 10
154.0216551806
 20
120.808852304
 30
0.0
 11
154.0216551806
 21
100.9710612039
 31
0.0
  0
LINE
  5
172
330
1F
100
AcDbEntity
  8
0
  6
HIDDEN
 62
     7
370
     0
100
AcDbLine
 10
155.5216552082
 20
119.3693237643
 30
0.0
 11
155.5216552082
 21
102.4105897437
 31
0.0
  0
SPLINE
  5
173
330
1F
100
AcDbEntity
  8
0
  6
HIDDEN
 62
     7
370
     0
100
AcDbSpline
210
0.0
220
0.0
230
1.0
 70
     8
 71
     3
 72
     8
 73
     4
 74
     0
 42
0.00000001
 43
0.00000001
 12
1.0
 22
0.0
 32
0.0
 13
1.0
 23
0.0
 33
0.0
 40
0.0000137051794235
 40
0.0000137051794235
 40
0.0000137051794235
 40
0.0000137051794235
 40
0.0027147144718019
 40
0.0027147144718019
 40
0.0027147144718019
 40
0.0027147144718019
 10
133.2216552031225
 20
108.3349285169023
 30
0.0
 10
134.1216513386173
 20
108.3219569497039
 30
0.0
 10
135.0216515172127
 20
108.3093220923919
 30
0.0
 10
135.9216552031226
 20
108.2970120741361
 30
0.0
  0
SPLINE
  5
174
330
1F
100
AcDbEntity
  8
0
  6
HIDDEN
 62
     7
370
     0
100
AcDbSpline
210
0.0
220
0.0
230
1.0
 70
     8
 71
     3
 72
     8
 73
     4
 74
     0
 42
0.00000001
 43
0.00000001
 12
1.0
 22
0.0
 32
0.0
 13
1.0
 23
0.0
 33
0.0
 40
0.0000137050638847
 40
0.0000137050638847
 40
0.0000137050638847
 40
0.0000137050638847
 40
0.0027147143562632
 40
0.0027147143562632
 40
0.0027147143562632
 40
0.0027147143562632
 10
135.9216552031226
 20
113.482901433792
 30
0.0
 10
135.0216515172127
 20
113.4705914155362
 30
0.0
 10
134.1216513386173
 20
113.4579565582241
 30
0.0
 10
133.2216552031225
 20
113.4449849910257
 30
0.0
  0
SPLINE
  5
175
330
1F
100
AcDbEntity
  8
0
  6
HIDDEN
 62
     7
370
     0
100
AcDbSpline
210
0.0
220
0.0
230
1.0
 70
     8
 71
     3
 72
    10
 73
     6
 74
     0
 42
0.00000001
 43
0.00000001
 12
1.0
 22
0.0
 32
0.0
 13
1.0
 23
0.0
 33
0.0
 40
0.0
 40
0.0
 40
0.0
 40
0.0
 40
0.5
 40
0.5
 40
1.0
 40
1.0
 40
1.0
 40
1.0
 10
131.7216552031217
 20
109.039742940314
 30
0.0
 10
131.9587971638376
 20
108.8841281257851
 30
0.0
 10
132.204139922601
 20
108.7522190963658
 30
0.0
 10
132.705403511334
 20
108.5205622197283
 30
0.0
 10
132.9614380805844
 20
108.4211166036054
 30
0.0
 10
133.2216552031226
 20
108.3349285169023
 30
0.0
  0
SPLINE
  5
176
330
1F
100
AcDbEntity
  8
0
  6
HIDDEN
 62
     7
370
     0
100
AcDbSpline
210
0.0
220
0.0
230
1.0
 70
     8
 71
     3
 72
    10
 73
     6
 74
     0
 42
0.00000001
 43
0.00000001
 12
1.0
 22
0.0
 32
0.0
 13
1.0
 23
0.0
 33
0.0
 40
0.0
 40
0.0
 40
0.0
 40
0.0
 40
0.5
 40
0.5
 40
1.0
 40
1.0
 40
1.0
 40
1.0
 10
133.2216552031226
 20
113.4449849910257
 30
0.0
 10
132.9614380805845
 20
113.3587969043227
 30
0.0
 10
132.7054035113344
 20
113.2593512881999
 30
0.0
 10
132.2041399226017
 20
113.0276944115626
 30
0.0
 10
131.9587971638383
 20
112.8957853821434
 30
0.0
 10
131.7216552031226
 20
112.7401705676147
 30
0.0
  0
LINE
  5
177
330
1F
100
AcDbEntity
  8
0
  6
HIDDEN
 62
     7
370
     0
100
AcDbLine
 10
131.7216549945
 20
109.0397428985
 30
0.0
 11
131.7216549945
 21
112.7401706095
 31
0.0
  0
LINE
  5
178
330
1F
100
AcDbEntity
  8
0
  6
HIDDEN
 62
     7
370
     0
100
AcDbLine
 10
135.9216553104
 20
108.297011981
 30
0.0
 11
135.9216553104
 21
113.4829015269
 31
0.0
  0
SPLINE
  5
179
330
1F
100
AcDbEntity
  8
0
  6
HIDDEN
 62
     7
370
     0
100
AcDbSpline
210
0.0
220
0.0
230
1.0
 70
     8
 71
     3
 72
    22
 73
    18
 74
     0
 42
0.00000001
 43
0.00000001
 12
1.0
 22
0.0
 32
0.0
 13
1.0
 23
0.0
 33
0.0
 40
0.0
 40
0.0
 40
0.0
 40
0.0
 40
0.125
 40
0.125
 40
0.25
 40
0.25
 40
0.375
 40
0.375
 40
0.5
 40
0.5
 40
0.625
 40
0.625
 40
0.75
 40
0.75
 40
0.875
 40
0.875
 40
1.0
 40
1.0
 40
1.0
 40
1.0
 10
135.9216552031225
 20
108.2970120741361
 30
0.0
 10
136.1025915611987
 20
108.4886319334426
 30
0.0
 10
136.2816870099756
 20
108.6822737978298
 30
0.0
 10
136.6325269984876
 20
109.0769290512141
 30
0.0
 10
136.8047201063922
 20
109.2779405818816
 30
0.0
 10
137.1304516120115
 20
109.6941516971154
 30
0.0
 10
137.2865278471798
 20
109.9101675374021
 30
0.0
 10
137.5379070610689
 20
110.3754903005669
 30
0.0
 10
137.6317721913877
 20
110.6310294935897
 30
0.0
 10
137.6280442745255
 20
111.1653601286903
 30
0.0
 10
137.5306716320382
 20
111.420780994691
 30
0.0
 10
137.2788508230443
 20
111.8808097106387
 30
0.0
 10
137.1238815675717
 20
112.0946467115672
 30
0.0
 10
136.7990688098465
 20
112.508685294261
 30
0.0
 10
136.6281757457186
 20
112.7079777662968
 30
0.0
 10
136.279541506191
 20
113.099952658731
 30
0.0
 10
136.1015336556625
 20
113.2924019447204
 30
0.0
 10
135.9216552031225
 20
113.482901433792
 30
0.0
  0
SPLINE
  5
17A
330
1F
100
AcDbEntity
  8
0
  6
HIDDEN
 62
     7
370
     0
100
AcDbSpline
210
0.0
220
0.0
230
1.0
 70
     8
 71
     3
 72
    62
 73
    58
 74
     0
 42
0.00000001
 43
0.00000001
 12
1.0
 22
0.0
 32
0.0
 13
1.0
 23
0.0
 33
0.0
 40
-0.0312500000000001
 40
-0.0312500000000001
 40
0.0
 40
0.0
 40
0.0312499999999998
 40
0.0312499999999998
 40
0.0624999999999997
 40
0.0624999999999997
 40
0.0937499999999995
 40
0.0937499999999995
 40
0.1249999999999994
 40
0.1249999999999994
 40
0.1874999999999994
 40
0.1874999999999994
 40
0.2499999999999993
 40
0.2499999999999993
 40
0.2812499999999993
 40
0.2812499999999993
 40
0.3124999999999993
 40
0.3124999999999993
 40
0.3437499999999993
 40
0.3437499999999993
 40
0.3749999999999993
 40
0.3749999999999993
 40
0.4374999999999993
 40
0.4374999999999993
 40
0.4687499999999992
 40
0.4687499999999992
 40
0.4999999999999992
 40
0.4999999999999992
 40
0.5624999999999993
 40
0.5624999999999993
 40
0.5937499999999993
 40
0.5937499999999993
 40
0.6249999999999993
 40
0.6249999999999993
 40
0.6562499999999994
 40
0.6562499999999994
 40
0.6874999999999994
 40
0.6874999999999994
 40
0.7187499999999996
 40
0.7187499999999996
 40
0.7499999999999996
 40
0.7499999999999996
 40
0.7812499999999996
 40
0.7812499999999996
 40
0.8124999999999997
 40
0.8124999999999997
 40
0.8437499999999997
 40
0.8437499999999997
 40
0.8749999999999997
 40
0.8749999999999997
 40
0.9062499999999998
 40
0.9062499999999998
 40
0.9374999999999998
 40
0.9374999999999998
 40
0.9687499999999999
 40
0.9687499999999999
 40
1.0
 40
1.0
 40
1.03125
 40
1.03125
 10
142.1754273310508
 20
112.3779357926204
 30
0.0
 10
142.4029276776391
 20
112.627282334481
 30
0.0
 10
142.5273902065566
 20
112.7388800119379
 30
0.0
 10
142.7964844727084
 20
112.9375308077563
 30
0.0
 10
142.9422975642977
 20
113.024871052545
 30
0.0
 10
143.243464442587
 20
113.1690668051872
 30
0.0
 10
143.3998001696514
 20
113.2268864757014
 30
0.0
 10
143.7239234689858
 20
113.3141400877525
 30
0.0
 10
143.8905886806963
 20
113.3429421372343
 30
0.0
 10
144.3886049473282
 20
113.3837214425021
 30
0.0
 10
144.7292758961211
 20
113.3502781823609
 30
0.0
 10
145.3682868115426
 20
113.1678255379021
 30
0.0
 10
145.6747414186064
 20
113.0164009775893
 30
0.0
 10
146.0712973278688
 20
112.715903072005
 30
0.0
 10
146.1956465187183
 20
112.6016418868096
 30
0.0
 10
146.4181106127675
 20
112.3519820162371
 30
0.0
 10
146.5156759512447
 20
112.217815408238
 30
0.0
 10
146.6829315548835
 20
111.9303463137393
 30
0.0
 10
146.7530172104026
 20
111.7750794638394
 30
0.0
 10
146.8570725711242
 20
111.4581000437524
 30
0.0
 10
146.8920483337915
 20
111.295447292248
 30
0.0
 10
146.9439128533156
 20
110.7945102720454
 30
0.0
 10
146.9046067455442
 20
110.4543556707351
 30
0.0
 10
146.7418869530834
 20
109.977861038638
 30
0.0
 10
146.6716064551971
 20
109.8267936788105
 30
0.0
 10
146.5002733100671
 20
109.5394991083696
 30
0.0
 10
146.3988810688854
 20
109.4036413300723
 30
0.0
 10
146.0622814816622
 20
109.0348329350741
 30
0.0
 10
145.7870487154976
 20
108.832407825743
 30
0.0
 10
145.3372654881517
 20
108.6153310991342
 30
0.0
 10
145.178465689648
 20
108.55602882706
 30
0.0
 10
144.8559039687684
 20
108.4680563092595
 30
0.0
 10
144.6920448568012
 20
108.4389365454132
 30
0.0
 10
144.3592120834473
 20
108.410079930303
 30
0.0
 10
144.1891597920065
 20
108.410703453517
 30
0.0
 10
143.8568841279868
 20
108.4419598973214
 30
0.0
 10
143.693169516238
 20
108.4722785923733
 30
0.0
 10
143.3707040306637
 20
108.5629956313763
 30
0.0
 10
143.2121929321372
 20
108.623764540078
 30
0.0
 10
142.9136392259393
 20
108.771275214875
 30
0.0
 10
142.7718130967372
 20
108.8584102427389
 30
0.0
 10
142.5038913581789
 20
109.0609957093109
 30
0.0
 10
142.3797979277864
 20
109.1753338759531
 30
0.0
 10
142.1586637398682
 20
109.4235203139059
 30
0.0
 10
142.0602067377696
 20
109.5585529307597
 30
0.0
 10
141.8908482240346
 20
109.8505573288144
 30
0.0
 10
141.8226813863287
 20
110.00269307525
 30
0.0
 10
141.7189474200023
 20
110.31910202369
 30
0.0
 10
141.6832788581331
 20
110.4855984930442
 30
0.0
 10
141.6490650934806
 20
110.8188603691547
 30
0.0
 10
141.6499234963097
 20
110.9855228229766
 30
0.0
 10
141.6877202762592
 20
111.3189110221942
 30
0.0
 10
141.7250630317133
 20
111.4846665946737
 30
0.0
 10
141.8323126147817
 20
111.8005579111363
 30
0.0
 10
141.9030738313208
 20
111.9538372442084
 30
0.0
 10
142.0751969814215
 20
112.2432142866949
 30
0.0
 10
142.1754273310508
 20
112.3779357926204
 30
0.0
 10
142.4029276776391
 20
112.627282334481
 30
0.0
  0
CIRCLE
  5
17B
330
1F
100
AcDbEntity
  8
0
  6
HIDDEN
 62
     7
370
     0
100
AcDbCircle
 10
144.2216552031
 20
110.889956754
 30
0.0
 40
2.300000000000011
  0
LINE
  5
17C
330
1F
100
AcDbEntity
  8
0
  6
HIDDEN
 62
     7
370
     0
100
AcDbLine
 10
238.9176023138
 20
110.889956754
 30
0.0
 11
239.7263777387
 21
113.3899566981
 31
0.0
  0
CIRCLE
  5
17D
330
1F
100
AcDbEntity
  8
0
  6
HIDDEN
 62
     7
370
     0
100
AcDbCircle
 10
167.7216552031
 20
110.889956754
 30
0.0
 40
2.0
  0
LINE
  5
17E
330
1F
100
AcDbEntity
  8
0
  6
HIDDEN
 62
     7
370
     0
100
AcDbLine
 10
155.7216552031
 20
95.0899575169
 30
0.0
 11
155.8145484235
 21
95.1828494931
 31
0.0
  0
LINE
  5
17F
330
1F
100
AcDbEntity
  8
0
  6
HIDDEN
 62
     7
370
     0
100
AcDbLine
 10
155.8145484235
 20
126.5970640148
 30
0.0
 11
155.7216552031
 21
126.689955991
 31
0.0
  0
ARC
  5
180
330
1F
100
AcDbEntity
  8
0
  6
HIDDEN
 62
     7
370
     0
100
AcDbCircle
 10
155.1074416407
 20
95.889956754
 30
0.0
 40
1.000000000000028
100
AcDbArc
 50
315.0
 51
0.0
  0
ARC
  5
181
330
1F
100
AcDbEntity
  8
0
  6
HIDDEN
 62
     7
370
     0
100
AcDbCircle
 10
155.1074416407
 20
95.889956754
 30
0.0
 40
1.0
100
AcDbArc
 50
0.0
 51
52.1052014664
  0
ARC
  5
182
330
1F
100
AcDbEntity
  8
0
  6
HIDDEN
 62
     7
370
     0
100
AcDbCircle
 10
155.1074416407
 20
125.889956754
 30
0.0
 40
1.000000000000038
100
AcDbArc
 50
351.8087250651
 51
45.0
  0
ARC
  5
183
330
1F
100
AcDbEntity
  8
0
  6
HIDDEN
 62
     7
370
     0
100
AcDbCircle
 10
155.1074416407
 20
125.889956754
 30
0.0
 40
1.000000000000002
100
AcDbArc
 50
307.8947985336
 51
351.8087250651
  0
LINE
  5
184
330
1F
100
AcDbEntity
  8
0
  6
HIDDEN
 62
     7
370
     0
100
AcDbLine
 10
156.1074416389
 20
95.8899570892
 30
0.0
 11
156.1074416389
 21
125.8899564187
 31
0.0
  0
LINE
  5
185
330
1F
100
AcDbEntity
  8
0
  6
HIDDEN
 62
     7
370
     0
100
AcDbLine
 10
156.1074416389
 20
95.8899570892
 30
0.0
 11
156.1074416389
 21
125.8899564187
 31
0.0
  0
LINE
  5
186
330
1F
100
AcDbEntity
  8
0
  6
HIDDEN
 62
     7
370
     0
100
AcDbLine
 10
131.7216549945
 20
100.7343059669
 30
0.0
 11
132.7486877275
 21
101.3272632177
 31
0.0
  0
LINE
  5
187
330
1F
100
AcDbEntity
  8
0
  6
HIDDEN
 62
     7
370
     0
100
AcDbLine
 10
132.7486877275
 20
120.4526502902
 30
0.0
 11
131.7216549945
 21
121.045607541
 31
0.0
  0
ARC
  5
188
330
1F
100
AcDbEntity
  8
0
  6
HIDDEN
 62
     7
370
     0
100
AcDbCircle
 10
137.2216552031
 20
101.889956754
 30
0.0
 40
1.000000000000014
100
AcDbArc
 50
193.3524261238
 51
270.0
  0
ARC
  5
189
330
1F
100
AcDbEntity
  8
0
  6
HIDDEN
 62
     7
370
     0
100
AcDbCircle
 10
137.2216552031
 20
119.889956754
 30
0.0
 40
1.000000000000014
100
AcDbArc
 50
90.0
 51
166.6475738762
  0
LINE
  5
18A
330
1F
100
AcDbEntity
  8
0
  6
HIDDEN
 62
     7
370
     0
100
AcDbLine
 10
137.2216549647
 20
100.8899569775
 30
0.0
 11
138.2344738525
 21
100.8899569775
 31
0.0
  0
LINE
  5
18B
330
1F
100
AcDbEntity
  8
0
  6
HIDDEN
 62
     7
370
     0
100
AcDbLine
 10
138.2344738525
 20
120.8899565304
 30
0.0
 11
137.2216549647
 21
120.8899565304
 31
0.0
  0
ARC
  5
18C
330
1F
100
AcDbEntity
  8
0
  6
HIDDEN
 62
     7
370
     0
100
AcDbCircle
 10
138.2344736728
 20
101.889956754
 30
0.0
 40
1.000000000000014
100
AcDbArc
 50
270.0
 51
315.0
  0
ARC
  5
18D
330
1F
100
AcDbEntity
  8
0
  6
HIDDEN
 62
     7
370
     0
100
AcDbCircle
 10
138.2344736728
 20
119.889956754
 30
0.0
 40
1.000000000000014
100
AcDbArc
 50
45.0
 51
90.0
  0
LINE
  5
18E
330
1F
100
AcDbEntity
  8
0
  6
HIDDEN
 62
     7
370
     0
100
AcDbLine
 10
206.621656282
 20
112.7026422678
 30
0.0
 11
206.621656282
 21
111.5071982991
 31
0.0
  0
LINE
  5
18F
330
1F
100
AcDbEntity
  8
0
  6
HIDDEN
 62
     7
370
     0
100
AcDbLine
 10
210.8216565979
 20
112.6615085437
 30
0.0
 11
210.8216565979
 21
112.7026422678
 31
0.0
  0
LINE
  5
190
330
1F
100
AcDbEntity
  8
0
  6
HIDDEN
 62
     7
370
     0
100
AcDbLine
 10
210.8216565979
 20
111.509128989
 30
0.0
 11
210.8216565979
 21
111.9251167898
 31
0.0
  0
LINE
  5
191
330
1F
100
AcDbEntity
  8
0
  6
HIDDEN
 62
     7
370
     0
100
AcDbLine
 10
138.9415805173
 20
101.1828495453
 30
0.0
 11
139.6486871821
 21
101.8899571414
 31
0.0
  0
LINE
  5
192
330
1F
100
AcDbEntity
  8
0
  6
HIDDEN
 62
     7
370
     0
100
AcDbLine
 10
139.6486871821
 20
119.8899563665
 30
0.0
 11
138.9415805173
 21
120.5970639626
 31
0.0
  0
LINE
  5
193
330
1F
100
AcDbEntity
  8
0
  6
HIDDEN
 62
     7
370
     0
100
AcDbLine
 10
132.7486877275
 20
101.3272632177
 30
0.0
 11
134.8486878854
 21
101.8899571414
 31
0.0
  0
LINE
  5
194
330
1F
100
AcDbEntity
  8
0
  6
HIDDEN
 62
     7
370
     0
100
AcDbLine
 10
134.8486878854
 20
119.8899563665
 30
0.0
 11
132.7486877275
 21
120.4526502902
 31
0.0
  0
LINE
  5
195
330
1F
100
AcDbEntity
  8
0
  6
HIDDEN
 62
     7
370
     0
100
AcDbLine
 10
216.2444499266
 20
117.8078790459
 30
0.0
 11
208.423113538
 21
114.4263012598
 31
0.0
  0
LINE
  5
196
330
1F
100
AcDbEntity
  8
0
  6
HIDDEN
 62
     7
370
     0
100
AcDbLine
 10
209.7033319009
 20
110.4040632695
 30
0.0
 11
216.2524593008
 21
113.2355990617
 31
0.0
  0
LINE
  5
197
330
1F
100
AcDbEntity
  8
0
  6
HIDDEN
 62
     7
370
     0
100
AcDbLine
 10
136.2486873698
 20
120.1208964254
 30
0.0
 11
135.8486880493
 21
119.8899563665
 31
0.0
  0
LINE
  5
198
330
1F
100
AcDbEntity
  8
0
  6
HIDDEN
 62
     7
370
     0
100
AcDbLine
 10
135.8486880493
 20
101.8899571414
 30
0.0
 11
136.2486873698
 21
101.6590170826
 31
0.0
  0
ARC
  5
199
330
1F
100
AcDbEntity
  8
0
  6
HIDDEN
 62
     7
370
     0
100
AcDbCircle
 10
146.2216552031
 20
102.389956754
 30
0.0
 40
0.5000000000000142
100
AcDbArc
 50
270.0
 51
360.0
  0
ARC
  5
19A
330
1F
100
AcDbEntity
  8
0
  6
HIDDEN
 62
     7
370
     0
100
AcDbCircle
 10
146.2216552031
 20
119.389956754
 30
0.0
 40
0.5000000000000142
100
AcDbArc
 50
0.0
 51
90.0
  0
LINE
  5
19B
330
1F
100
AcDbEntity
  8
0
  6
HIDDEN
 62
     7
370
     0
100
AcDbLine
 10
134.8486878854
 20
101.8899571414
 30
0.0
 11
135.8486880493
 21
101.8899571414
 31
0.0
  0
LINE
  5
19C
330
1F
100
AcDbEntity
  8
0
  6
HIDDEN
 62
     7
370
     0
100
AcDbLine
 10
135.8486880493
 20
119.8899563665
 30
0.0
 11
134.8486878854
 21
119.8899563665
 31
0.0
  0
LINE
  5
19D
330
1F
100
AcDbEntity
  8
0
  6
HIDDEN
 62
     7
370
     0
100
AcDbLine
 10
139.6486871821
 20
101.8899571414
 30
0.0
 11
146.2216555086
 21
101.8899571414
 31
0.0
  0
LINE
  5
19E
330
1F
100
AcDbEntity
  8
0
  6
HIDDEN
 62
     7
370
     0
100
AcDbLine
 10
146.2216555086
 20
119.8899563665
 30
0.0
 11
139.6486871821
 21
119.8899563665
 31
0.0
  0
LINE
  5
19F
330
1F
100
AcDbEntity
  8
0
  6
HIDDEN
 62
     7
370
     0
100
AcDbLine
 10
146.7216555906
 20
103.7399567927
 30
0.0
 11
147.621654993
 21
104.6399566608
 31
0.0
  0
LINE
  5
1A0
330
1F
100
AcDbEntity
  8
0
  6
HIDDEN
 62
     7
370
     0
100
AcDbLine
 10
147.621654993
 20
117.1399568471
 30
0.0
 11
146.7216555906
 21
118.0399567152
 31
0.0
  0
LINE
  5
1A1
330
1F
100
AcDbEntity
  8
0
  6
HIDDEN
 62
     7
370
     0
100
AcDbLine
 10
166.7216551435
 20
104.6399566608
 30
0.0
 11
168.5242374373
 21
107.6399566869
 31
0.0
  0
LINE
  5
1A2
330
1F
100
AcDbEntity
  8
0
  6
HIDDEN
 62
     7
370
     0
100
AcDbLine
 10
168.5242374373
 20
114.139956821
 30
0.0
 11
166.7216551435
 21
117.1399568471
 31
0.0
  0
LINE
  5
1A3
330
1F
100
AcDbEntity
  8
0
  6
HIDDEN
 62
     7
370
     0
100
AcDbLine
 10
147.621654993
 20
104.6399566608
 30
0.0
 11
166.7216551435
 21
104.6399566608
 31
0.0
  0
LINE
  5
1A4
330
1F
100
AcDbEntity
  8
0
  6
HIDDEN
 62
     7
370
     0
100
AcDbLine
 10
166.7216551435
 20
117.1399568471
 30
0.0
 11
147.621654993
 21
117.1399568471
 31
0.0
  0
LINE
  5
1A5
330
1F
100
AcDbEntity
  8
0
  6
HIDDEN
 62
     7
370
     0
100
AcDbLine
 10
211.7216569317
 20
114.139956821
 30
0.0
 11
168.5242374373
 21
114.139956821
 31
0.0
  0
LINE
  5
1A6
330
1F
100
AcDbEntity
  8
0
  6
HIDDEN
 62
     7
370
     0
100
AcDbLine
 10
168.5242374373
 20
107.6399566869
 30
0.0
 11
211.7216569317
 21
107.6399566869
 31
0.0
  0
LINE
  5
1A7
330
1F
100
AcDbEntity
  8
0
  6
HIDDEN
 62
     7
370
     0
100
AcDbLine
 10
211.7216569317
 20
107.6399566869
 30
0.0
 11
213.6744503808
 21
110.889956754
 31
0.0
  0
LINE
  5
1A8
330
1F
100
AcDbEntity
  8
0
  6
HIDDEN
 62
     7
370
     0
100
AcDbLine
 10
213.6744503808
 20
110.889956754
 30
0.0
 11
211.7216569317
 21
114.139956821
 31
0.0
  0
ARC
  5
1A9
330
1F
100
AcDbEntity
  8
0
  6
HIDDEN
 62
     7
370
     0
100
AcDbCircle
 10
219.3074416407
 20
124.389956754
 30
0.0
 40
0.999999999999993
100
AcDbArc
 50
270.0
 51
290.1029878206
  0
LINE
  5
1AA
330
1F
100
AcDbEntity
  8
0
  6
HIDDEN
 62
     7
370
     0
100
AcDbLine
 10
229.4734028113
 20
114.8072014826
 30
0.0
 11
229.4734028113
 21
114.7025666929
 31
0.0
  0
LINE
  5
1AB
330
1F
100
AcDbEntity
  8
0
  6
HIDDEN
 62
     7
370
     0
100
AcDbLine
 10
206.621656282
 20
110.2707845189
 30
0.0
 11
206.621656282
 21
109.6496982996
 31
0.0
  0
LINE
  5
1AC
330
1F
100
AcDbEntity
  8
0
  6
HIDDEN
 62
     7
370
     0
100
AcDbLine
 10
210.8216565979
 20
109.6496982996
 30
0.0
 11
210.8216565979
 21
110.2727152088
 31
0.0
  0
LINE
  5
1AD
330
1F
100
AcDbEntity
  8
0
  6
HIDDEN
 62
     7
370
     0
100
AcDbLine
 10
236.9003725183
 20
120.4068934808
 30
0.0
 11
236.9003725183
 21
119.8959931995
 31
0.0
  0
LINE
  5
1AE
330
1F
100
AcDbEntity
  8
0
  6
HIDDEN
 62
     7
370
     0
100
AcDbLine
 10
240.2003762257
 20
119.8960909883
 30
0.0
 11
240.2003762257
 21
120.4068934808
 31
0.0
  0
LINE
  5
1AF
330
1F
100
AcDbEntity
  8
0
  6
HIDDEN
 62
     7
370
     0
100
AcDbLine
 10
206.2216569615
 20
109.6038384626
 30
0.0
 11
206.2216569615
 21
108.5060757383
 31
0.0
  0
LINE
  5
1B0
330
1F
100
AcDbEntity
  8
0
  6
HIDDEN
 62
     7
370
     0
100
AcDbLine
 10
211.2216559184
 20
108.504844297
 30
0.0
 11
211.2216559184
 21
109.6038384626
 31
0.0
  0
LINE
  5
1B1
330
1F
100
AcDbEntity
  8
VERMASSUNG
  6
CENTERX2
100
AcDbLine
 10
245.7216552031
 20
127.889956754
 30
0.0
 11
257.5031363216
 21
127.889956754
 31
0.0
  0
LINE
  5
1B2
330
1F
100
AcDbEntity
  8
VERMASSUNG
  6
CENTERX2
100
AcDbLine
 10
245.7216552031
 20
127.889956754
 30
0.0
 11
245.7216552031
 21
110.889956754
 31
0.0
  0
LINE
  5
1B3
330
1F
100
AcDbEntity
  8
VERMASSUNG
  6
CENTERX2
100
AcDbLine
 10
129.1062386315
 20
110.889956754
 30
0.0
 11
245.7216552031
 21
110.889956754
 31
0.0
  0
DIMENSION
  5
1B4
330
1F
100
AcDbEntity
  8
VERMASSUNG
100
AcDbDimension
  2
_D
 10
245.7216552031
 20
139.0691121112
 30
0.0
 11
200.7216552031
 21
139.0691121112
 31
0.0
 70
   160
  1
<>
 71
     2
 42
-1.0
  3
SLDDIMSTYLE0
100
AcDbAlignedDimension
 13
155.7216552031
 23
130.589956754
 33
0.0
 14
245.7216552031
 24
127.889956754
 34
0.0
100
AcDbRotatedDimension
  0
DIMENSION
  5
1BF
330
1F
100
AcDbEntity
  8
VERMASSUNG
100
AcDbDimension
  2
_D_1
 10
131.7216552031
 20
146.889956754
 30
0.0
 11
188.7216552031
 21
146.889956754
 31
0.0
 70
   160
  1
<>
 71
     2
 42
-1.0
  3
SLDDIMSTYLE0
100
AcDbAlignedDimension
 13
245.7216552031
 23
127.889956754
 33
0.0
 14
131.7216552031
 24
123.521461736
 34
0.0
100
AcDbRotatedDimension
  0
DIMENSION
  5
1C9
330
1F
100
AcDbEntity
  8
VERMASSUNG
100
AcDbDimension
  2
_D_2
 10
260.1405228479
 20
110.889956754
 30
0.0
 11
260.1405228479
 21
119.389956754
 31
0.0
 70
   160
  1
<>
 71
     2
 42
-1.0
  3
SLDDIMSTYLE0
100
AcDbAlignedDimension
 13
245.7216552031
 23
127.889956754
 33
0.0
 14
245.7216552031
 24
110.889956754
 34
0.0
 50
90.0
100
AcDbRotatedDimension
  0
DIMENSION
  5
1D3
330
1F
100
AcDbEntity
  8
VERMASSUNG
100
AcDbDimension
  2
_D_3
 10
245.7216552031
 20
127.889956754
 30
0.0
 11
251.5225359757
 21
120.1713680974
 31
0.0
 70
   162
  1
<>
 71
     1
 42
-1.0
  3
SLDDIMSTYLE1
100
AcDb2LineAngularDimension
 13
245.70575547
 23
127.3792105447
 33
0.0
 14
242.4997786344
 24
117.2359199584
 34
0.0
 15
257.5031363216
 25
127.889956754
 35
0.0
 16
251.5225359757
 26
120.1713680974
 36
0.0
  0
DIMENSION
  5
1DC
330
1F
100
AcDbEntity
  8
VERMASSUNG
100
AcDbDimension
  2
_D_4
 10
124.4701960571
 20
90.889956754
 30
0.0
 11
124.4701960571
 21
110.889956754
 31
0.0
 70
   160
  1
PSC%%c<>
 71
     2
 42
-1.0
  3
SLDDIMSTYLE0
100
AcDbAlignedDimension
 13
156.0216552031
 23
130.889956754
 33
0.0
 14
156.0216552031
 24
90.889956754
 34
0.0
 50
90.0
100
AcDbRotatedDimension
  0
DIMENSION
  5
1E8
330
1F
100
AcDbEntity
  8
VERMASSUNG
100
AcDbDimension
  2
_D_5
 10
188.7216552031
 20
123.389956754
 30
0.0
 11
188.7216552031
 21
117.0678616084
 31
0.0
 70
   160
  1
%%c<>
 71
     2
 42
-1.0
  3
SLDDIMSTYLE0
100
AcDbAlignedDimension
 13
177.7216552031
 23
98.389956754
 33
0.0
 14
177.7216552031
 24
123.389956754
 34
0.0
 50
90.0
100
AcDbRotatedDimension
  0
LINE
  5
1F1
330
1F
100
AcDbEntity
  8
0
  6
Continuous
 62
     7
370
    15
100
AcDbLine
 10
82.9726078518
 20
121.6171471665
 30
0.0
 11
82.9599390708
 21
121.6180328543
 31
0.0
  0
SPLINE
  5
1F2
330
1F
100
AcDbEntity
  8
0
  6
Continuous
 62
     7
370
    15
100
AcDbSpline
210
0.0
220
0.0
230
1.0
 70
     8
 71
     3
 72
    10
 73
     6
 74
     0
 42
0.00000001
 43
0.00000001
 12
1.0
 22
0.0
 32
0.0
 13
1.0
 23
0.0
 33
0.0
 40
0.0
 40
0.0
 40
0.0
 40
0.0
 40
0.3321549032710048
 40
0.6673755443161326
 40
1.0
 40
1.0
 40
1.0
 40
1.0
 10
76.36788189111763
 20
127.0197857434698
 30
0.0
 10
75.92905445962309
 20
127.1259690449387
 30
0.0
 10
75.04734928811887
 20
127.3393157031311
 30
0.0
 10
73.6973667466223
 20
127.5926182220675
 30
0.0
 10
72.81194188429288
 20
127.8004344910106
 30
0.0
 10
72.37095045630491
 20
127.9039386923262
 30
0.0
  0
LINE
  5
1F3
330
1F
100
AcDbEntity
  8
0
  6
Continuous
 62
     7
370
    15
100
AcDbLine
 10
71.3816287897
 20
113.7559813711
 30
0.0
 11
71.7324977012
 21
113.7853033638
 31
0.0
  0
LINE
  5
1F4
330
1F
100
AcDbEntity
  8
0
  6
Continuous
 62
     7
370
    15
100
AcDbLine
 10
85.4180588357
 20
110.889956754
 30
0.0
 11
85.4180588357
 21
113.3899566981
 31
0.0
  0
ARC
  5
1F5
330
1F
100
AcDbEntity
  8
0
  6
Continuous
 62
     7
370
    15
100
AcDbCircle
 10
72.4180585675
 20
110.889956754
 30
0.0
 40
13.00000000000006
100
AcDbArc
 50
262.0926611235
 51
0.0
  0
LINE
  5
1F6
330
1F
100
AcDbEntity
  8
0
  6
Continuous
 62
     7
370
    15
100
AcDbLine
 10
71.9590065272
 20
117.0245305898
 30
0.0
 11
70.629630165
 21
98.0135625492
 31
0.0
  0
LINE
  5
1F7
330
1F
100
AcDbEntity
  8
0
  6
Continuous
 62
     7
370
    15
100
AcDbLine
 10
71.9590065272
 20
117.0245305898
 30
0.0
 11
74.1385369765
 21
117.0850442055
 31
0.0
  0
LINE
  5
1F8
330
1F
100
AcDbEntity
  8
0
  6
Continuous
 62
     7
370
    15
100
AcDbLine
 10
74.1385369765
 20
117.0850442055
 30
0.0
 11
75.6301668443
 21
116.912964199
 31
0.0
  0
LINE
  5
1F9
330
1F
100
AcDbEntity
  8
0
  6
Continuous
 62
     7
370
    15
100
AcDbLine
 10
75.6451248161
 20
117.1268736276
 30
0.0
 11
75.6301668443
 21
116.912964199
 31
0.0
  0
LINE
  5
1FA
330
1F
100
AcDbEntity
  8
0
  6
Continuous
 62
     7
370
    15
100
AcDbLine
 10
78.7700091459
 20
125.8496888245
 30
0.0
 11
76.2990690272
 21
126.478711542
 31
0.0
  0
ARC
  5
1FB
330
1F
100
AcDbEntity
  8
0
  6
Continuous
 62
     7
370
    15
100
AcDbCircle
 10
70.4180585675
 20
113.389956754
 30
0.0
 40
15.00000000000007
100
AcDbArc
 50
0.0
 51
56.1654438046
  0
LINE
  5
1FC
330
1F
100
AcDbEntity
  8
0
  6
Continuous
 62
     7
370
    15
100
AcDbLine
 10
76.3224182155
 20
126.8126204873
 30
0.0
 11
77.8361878328
 21
126.4272634203
 31
0.0
  0
ARC
  5
1FD
330
1F
100
AcDbEntity
  8
0
  6
Continuous
 62
     7
370
    15
100
AcDbCircle
 10
70.4180585675
 20
113.389956754
 30
0.0
 40
15.00000000000007
100
AcDbArc
 50
56.1654438046
 51
60.3604488251
  0
SPLINE
  5
1FE
330
1F
100
AcDbEntity
  8
0
  6
Continuous
 62
     7
370
    15
100
AcDbSpline
210
0.0
220
0.0
230
1.0
 70
     8
 71
     3
 72
    10
 73
     6
 74
     0
 42
0.00000001
 43
0.00000001
 12
1.0
 22
0.0
 32
0.0
 13
1.0
 23
0.0
 33
0.0
 40
0.0
 40
0.0
 40
0.0
 40
0.0
 40
0.5
 40
0.5
 40
1.0
 40
1.0
 40
1.0
 40
1.0
 10
70.64409772923302
 20
98.22065606875144
 30
0.0
 10
70.65040301713913
 20
98.31491774047903
 30
0.0
 10
70.6506912673374
 20
98.38923859008796
 30
0.0
 10
70.63054329816529
 20
98.4928783715001
 30
0.0
 10
70.61010728186378
 20
98.52135406403185
 30
0.0
 10
70.57851211403371
 20
98.52605490844601
 30
0.0
  0
SPLINE
  5
1FF
330
1F
100
AcDbEntity
  8
0
  6
Continuous
 62
     7
370
    15
100
AcDbSpline
210
0.0
220
0.0
230
1.0
 70
     8
 71
     3
 72
    16
 73
    12
 74
     0
 42
0.00000001
 43
0.00000001
 12
1.0
 22
0.0
 32
0.0
 13
1.0
 23
0.0
 33
0.0
 40
0.0
 40
0.0
 40
0.0
 40
0.0
 40
0.2500000000000026
 40
0.2500000000000026
 40
0.3750000000000038
 40
0.3750000000000038
 40
0.500000000000005
 40
0.500000000000005
 40
0.7500000000000024
 40
0.7500000000000024
 40
1.0
 40
1.0
 40
1.0
 40
1.0
 10
70.57851211403359
 20
98.5260549084457
 30
0.0
 10
70.51418981265776
 20
98.53562501526568
 30
0.0
 10
70.41647536085775
 20
98.55054640353741
 30
0.0
 10
70.22160417239162
 20
98.58426969989804
 30
0.0
 10
70.14794762283469
 20
98.59755298080559
 30
0.0
 10
69.98843356931275
 20
98.62808427902617
 30
0.0
 10
69.90225301884917
 20
98.64538028676544
 30
0.0
 10
69.62499060464214
 20
98.70453542216939
 30
0.0
 10
69.41238920301033
 20
98.75446532027438
 30
0.0
 10
68.96258756208024
 20
98.87480295567632
 30
0.0
 10
68.72112601433571
 20
98.94626384055533
 30
0.0
 10
68.47168213523535
 20
99.02926060850017
 30
0.0
  0
SPLINE
  5
200
330
1F
100
AcDbEntity
  8
0
  6
Continuous
 62
     7
370
    15
100
AcDbSpline
210
0.0
220
0.0
230
1.0
 70
     8
 71
     3
 72
    10
 73
     6
 74
     0
 42
0.00000001
 43
0.00000001
 12
1.0
 22
0.0
 32
0.0
 13
1.0
 23
0.0
 33
0.0
 40
0.0
 40
0.0
 40
0.0
 40
0.0
 40
0.3757240780609037
 40
0.7516328934593264
 40
0.9999999999999999
 40
0.9999999999999999
 40
0.9999999999999999
 40
0.9999999999999999
 10
70.16077781728023
 20
123.1844550262042
 30
0.0
 10
70.47142351137657
 20
123.2340648291862
 30
0.0
 10
71.09286763893779
 20
123.3333088274727
 30
0.0
 10
71.78017918549781
 20
123.3769163957592
 30
0.0
 10
72.01110462002303
 20
123.3820506707754
 30
0.0
 10
72.10297790871488
 20
123.3840933332988
 30
0.0
  0
ELLIPSE
  5
201
330
1F
100
AcDbEntity
  8
0
  6
Continuous
 62
     7
370
    15
100
AcDbEllipse
 10
66.3424395142
 20
115.5217390714
 30
0.0
 11
1.592296756449656
 21
1.876496366007146
 31
0.0
210
0.0
220
0.0
230
1.0
 40
0.8356632004
 41
0.0
 42
6.283185307179586
  0
ARC
  5
202
330
1F
100
AcDbEntity
  8
0
  6
Continuous
 62
     7
370
    15
100
AcDbCircle
 10
72.4180585675
 20
110.889956754
 30
0.0
 40
12.50000000000003
100
AcDbArc
 50
100.4036880773
 51
251.5963119227
  0
SPLINE
  5
203
330
1F
100
AcDbEntity
  8
0
  6
Continuous
 62
     7
370
    15
100
AcDbSpline
210
0.0
220
0.0
230
1.0
 70
     8
 71
     3
 72
    16
 73
    12
 74
     0
 42
0.00000001
 43
0.00000001
 12
1.0
 22
0.0
 32
0.0
 13
1.0
 23
0.0
 33
0.0
 40
0.0
 40
0.0
 40
0.0
 40
0.0
 40
0.2349995040910169
 40
0.3121083304389328
 40
0.3648238589770781
 40
0.4034893451308946
 40
0.4421058721156057
 40
0.5421566514653031
 40
0.8161508651845572
 40
0.999383728465669
 40
1.0
 40
1.0
 40
1.0
 40
1.0
 10
64.20011194123441
 20
114.5226894209929
 30
0.0
 10
64.41930961239612
 20
114.5342629968364
 30
0.0
 10
64.71043115942663
 20
114.5496341332467
 30
0.0
 10
65.09977383820025
 20
114.4319106223
 30
0.0
 10
65.30738301934947
 20
114.3704465991334
 30
0.0
 10
65.49151769629358
 20
114.328790316591
 30
0.0
 10
65.74061432124797
 20
114.2928347546142
 30
0.0
 10
66.24197356669552
 20
114.2528538410144
 30
0.0
 10
66.77816201517496
 20
114.0839732655784
 30
0.0
 10
67.1799882184736
 20
113.8322889424375
 30
0.0
 10
67.25773538123556
 20
113.6539472009916
 30
0.0
 10
67.25799599363023
 20
113.6533493905165
 30
0.0
  0
CIRCLE
  5
204
330
1F
100
AcDbEntity
  8
0
  6
Continuous
 62
     7
370
    15
100
AcDbCircle
 10
72.4180585675
 20
110.889956754
 30
0.0
 40
20.00000000000007
  0
SPLINE
  5
205
330
1F
100
AcDbEntity
  8
0
  6
Continuous
 62
     7
370
    15
100
AcDbSpline
210
0.0
220
0.0
230
1.0
 70
     8
 71
     3
 72
    13
 73
     9
 74
     0
 42
0.00000001
 43
0.00000001
 12
1.0
 22
0.0
 32
0.0
 13
1.0
 23
0.0
 33
0.0
 40
0.0
 40
0.0
 40
0.0
 40
0.0
 40
0.1940418572531294
 40
0.3876320432314874
 40
0.5765815083880251
 40
0.7618059800487297
 40
0.9462797605844409
 40
0.9999999999999999
 40
0.9999999999999999
 40
0.9999999999999999
 40
0.9999999999999999
 10
72.38234371462391
 20
127.3792110646912
 30
0.0
 10
72.38549041064498
 20
127.4242111039773
 30
0.0
 10
72.39177647812205
 20
127.5141064359479
 30
0.0
 10
72.40127328608307
 20
127.6499145443049
 30
0.0
 10
72.40941181151307
 20
127.766302448426
 30
0.0
 10
72.41509605369318
 20
127.8475914893402
 30
0.0
 10
72.41796893848245
 20
127.8886750090032
 30
0.0
 10
72.41788417269424
 20
127.8874631087491
 30
0.0
 10
72.4178650553443
 20
127.8871897871443
 30
0.0
  0
SPLINE
  5
206
330
1F
100
AcDbEntity
  8
0
  6
Continuous
 62
     7
370
    15
100
AcDbSpline
210
0.0
220
0.0
230
1.0
 70
     8
 71
     3
 72
    14
 73
    10
 74
     0
 42
0.00000001
 43
0.00000001
 12
1.0
 22
0.0
 32
0.0
 13
1.0
 23
0.0
 33
0.0
 40
0.0
 40
0.0
 40
0.0
 40
0.0
 40
0.1583283140540097
 40
0.3168118466634977
 40
0.4713750405514328
 40
0.6221326967417385
 40
0.7721315717449309
 40
0.9245977440743043
 40
0.9999999999999999
 40
0.9999999999999999
 40
0.9999999999999999
 40
0.9999999999999999
 10
76.33714358954245
 20
127.0232036973186
 30
0.0
 10
76.33731144700349
 20
127.0256036592268
 30
0.0
 10
76.33764732648608
 20
127.0304059358668
 30
0.0
 10
76.33712505864949
 20
127.0229326415358
 30
0.0
 10
76.3358954850237
 20
127.0053600516201
 30
0.0
 10
76.33407315198107
 20
126.9792874926383
 30
0.0
 10
76.33188563757253
 20
126.948013740551
 30
0.0
 10
76.32993833870367
 20
126.9201599772977
 30
0.0
 10
76.32882646332821
 20
126.9042615027317
 30
0.0
 10
76.32845854087287
 20
126.8990006561228
 30
0.0
  0
LINE
  5
207
330
1F
100
AcDbEntity
  8
0
  6
Continuous
 62
     7
370
    15
100
AcDbLine
 10
75.6501798022
 20
117.1991619545
 30
0.0
 11
76.3284585409
 21
126.8990006561
 31
0.0
  0
LINE
  5
208
330
1F
100
AcDbEntity
  8
0
  6
Continuous
 62
     7
370
    15
100
AcDbLine
 10
71.6730557469
 20
117.2359198595
 30
0.0
 11
72.3823437146
 21
127.3792110647
 31
0.0
  0
SPLINE
  5
209
330
1F
100
AcDbEntity
  8
0
  6
Continuous
 62
     7
370
    15
100
AcDbSpline
210
0.0
220
0.0
230
1.0
 70
     8
 71
     3
 72
    10
 73
     6
 74
     0
 42
0.00000001
 43
0.00000001
 12
1.0
 22
0.0
 32
0.0
 13
1.0
 23
0.0
 33
0.0
 40
0.0
 40
0.0
 40
0.0
 40
0.0
 40
0.2656897963376472
 40
0.6165094241464336
 40
1.0
 40
1.0
 40
1.0
 40
1.0
 10
75.65017980224007
 20
117.1991619544872
 30
0.0
 10
75.64963472924615
 20
117.1913672808656
 30
0.0
 10
75.6483699360842
 20
117.1732804374412
 30
0.0
 10
75.64665841171346
 20
117.1488061113024
 30
0.0
 10
75.64600152200298
 20
117.1394115976834
 30
0.0
 10
75.64565846397096
 20
117.1345053504058
 30
0.0
  0
SPLINE
  5
20A
330
1F
100
AcDbEntity
  8
0
  6
Continuous
 62
     7
370
    15
100
AcDbSpline
210
0.0
220
0.0
230
1.0
 70
     8
 71
     3
 72
    10
 73
     6
 74
     0
 42
0.00000001
 43
0.00000001
 12
1.0
 22
0.0
 32
0.0
 13
1.0
 23
0.0
 33
0.0
 40
0.0
 40
0.0
 40
0.0
 40
0.0
 40
0.3518009696524972
 40
0.7034204166233025
 40
1.0
 40
1.0
 40
1.0
 40
1.0
 10
71.65497126689667
 20
116.9773004281171
 30
0.0
 10
71.65620384816943
 20
116.9949267336539
 30
0.0
 10
71.65866837472618
 20
117.0301702498855
 30
0.0
 10
71.66531792285646
 20
117.1252641830119
 30
0.0
 10
71.67062673271104
 20
117.2011834525373
 30
0.0
 10
71.67305574685821
 20
117.2359198595234
 30
0.0
  0
LINE
  5
20B
330
1F
100
AcDbEntity
  8
0
  6
Continuous
 62
     7
370
    15
100
AcDbLine
 10
75.6451248161
 20
117.1268736276
 30
0.0
 11
75.645658464
 21
117.1345053504
 31
0.0
  0
LINE
  5
20C
330
1F
100
AcDbEntity
  8
0
  6
Continuous
 62
     7
370
    15
100
AcDbLine
 10
71.431333592
 20
113.7791328861
 30
0.0
 11
71.6549712669
 21
116.9773004281
 31
0.0
  0
CIRCLE
  5
20D
330
1F
100
AcDbEntity
  8
VERMASSUNG
  6
CENTERX2
100
AcDbCircle
 10
72.4180585675
 20
111.8450310461
 30
0.0
 40
16.0
  0
DIMENSION
  5
20E
330
1F
100
AcDbEntity
  8
VERMASSUNG
100
AcDbDimension
  2
_D_6
 10
61.1043500685
 20
123.1587395451
 30
0.0
 11
54.0508231287
 21
130.2122664849
 31
0.0
 70
   160
  1
%%c<> min. 
 71
     2
 42
-1.0
  3
SLDDIMSTYLE2
100
AcDbAlignedDimension
 13
83.7317670665
 23
100.5313225472
 33
0.0
 14
61.1043500685
 24
123.1587395451
 34
0.0
 50
-45.0
100
AcDbRotatedDimension
  0
DIMENSION
  5
21D
330
1F
100
AcDbEntity
  8
VERMASSUNG
100
AcDbDimension
  2
_D_7
 10
72.4180585675
 20
133.389956754
 30
0.0
 11
62.3878344985
 21
84.0646954356
 31
0.0
 70
   162
  1
<>
 71
     1
 42
-1.0
  3
SLDDIMSTYLE3
100
AcDb2LineAngularDimension
 13
70.6296301485
 23
98.0135627017
 33
0.0
 14
71.9590065305
 24
117.0245306708
 34
0.0
 15
72.4180585675
 25
88.389956754
 35
0.0
 16
70.9949470261
 26
82.8366980963
 36
0.0
  0
INSERT
  5
235
330
1F
100
AcDbEntity
  8
VERMASSUNG
100
AcDbBlockReference
  2
SW_CENTERMARKSYMBOL_0
 10
72.4180585675
 20
110.889956754
 30
0.0
  0
OLE2FRAME
  5
236
330
1F
100
AcDbEntity
  8
0
100
AcDbOle2Frame
 70
     2
  3
Paintbrush-Bild
 10
13.8511154363
 20
38.264191557
 30
0.0
 11
51.6290888628
 21
31.9806341108
 31
0.0
 71
     2
 72
     0
 73
     1
 90
    12928
310
80552BED0767C5B32B40DDAF6807D121434000000000000000006FFBDDFB85D0
310
4940DDAF6807D121434000000000000000006FFBDDFB85D04940416F4BD60AFB
310
3F4000000000000000002BED0767C5B32B40416F4BD60AFB3F40000000000000
310
0000000000000100000000010000010000000100000000000100000000320000
310
D0CF11E0A1B11AE1000000000000000000000000000000003E000300FEFF0900
310
0600000000000000000000000100000001000000000000000010000002000000
310
01000000FEFFFFFF0000000000000000FFFFFFFFFFFFFFFFFFFFFFFFFFFFFFFF
310
FFFFFFFFFFFFFFFFFFFFFFFFFFFFFFFFFFFFFFFFFFFFFFFFFFFFFFFFFFFFFFFF
310
FFFFFFFFFFFFFFFFFFFFFFFFFFFFFFFFFFFFFFFFFFFFFFFFFFFFFFFFFFFFFFFF
310
FFFFFFFFFFFFFFFFFFFFFFFFFFFFFFFFFFFFFFFFFFFFFFFFFFFFFFFFFFFFFFFF
310
FFFFFFFFFFFFFFFFFFFFFFFFFFFFFFFFFFFFFFFFFFFFFFFFFFFFFFFFFFFFFFFF
310
FFFFFFFFFFFFFFFFFFFFFFFFFFFFFFFFFFFFFFFFFFFFFFFFFFFFFFFFFFFFFFFF
310
FFFFFFFFFFFFFFFFFFFFFFFFFFFFFFFFFFFFFFFFFFFFFFFFFFFFFFFFFFFFFFFF
310
FFFFFFFFFFFFFFFFFFFFFFFFFFFFFFFFFFFFFFFFFFFFFFFFFFFFFFFFFFFFFFFF
310
FFFFFFFFFFFFFFFFFFFFFFFFFFFFFFFFFFFFFFFFFFFFFFFFFFFFFFFFFFFFFFFF
310
FFFFFFFFFFFFFFFFFFFFFFFFFFFFFFFFFFFFFFFFFFFFFFFFFFFFFFFFFFFFFFFF
310
FFFFFFFFFFFFFFFFFFFFFFFFFFFFFFFFFFFFFFFFFFFFFFFFFFFFFFFFFFFFFFFF
310
FFFFFFFFFFFFFFFFFFFFFFFFFFFFFFFFFFFFFFFFFFFFFFFFFFFFFFFFFFFFFFFF
310
FFFFFFFFFFFFFFFFFFFFFFFFFFFFFFFFFFFFFFFFFFFFFFFFFFFFFFFFFFFFFFFF
310
FFFFFFFFFFFFFFFFFFFFFFFFFFFFFFFFFFFFFFFFFFFFFFFFFFFFFFFFFFFFFFFF
310
FDFFFFFFFEFFFFFFFEFFFFFFFEFFFFFF05000000060000000700000008000000
310
090000000A0000000B0000000C0000000D0000000E0000000F00000010000000
310
11000000120000001300000014000000150000001600000017000000FEFFFFFF
310
FFFFFFFFFFFFFFFFFFFFFFFFFFFFFFFFFFFFFFFFFFFFFFFFFFFFFFFFFFFFFFFF
310
FFFFFFFFFFFFFFFFFFFFFFFFFFFFFFFFFFFFFFFFFFFFFFFFFFFFFFFFFFFFFFFF
310
FFFFFFFFFFFFFFFFFFFFFFFFFFFFFFFFFFFFFFFFFFFFFFFFFFFFFFFFFFFFFFFF
310
FFFFFFFFFFFFFFFFFFFFFFFFFFFFFFFFFFFFFFFFFFFFFFFFFFFFFFFFFFFFFFFF
310
FFFFFFFFFFFFFFFFFFFFFFFFFFFFFFFFFFFFFFFFFFFFFFFFFFFFFFFFFFFFFFFF
310
FFFFFFFFFFFFFFFFFFFFFFFFFFFFFFFFFFFFFFFFFFFFFFFFFFFFFFFFFFFFFFFF
310
FFFFFFFFFFFFFFFFFFFFFFFFFFFFFFFFFFFFFFFFFFFFFFFFFFFFFFFFFFFFFFFF
310
FFFFFFFFFFFFFFFFFFFFFFFFFFFFFFFFFFFFFFFFFFFFFFFFFFFFFFFFFFFFFFFF
310
FFFFFFFFFFFFFFFFFFFFFFFFFFFFFFFFFFFFFFFFFFFFFFFFFFFFFFFFFFFFFFFF
310
FFFFFFFFFFFFFFFFFFFFFFFFFFFFFFFFFFFFFFFFFFFFFFFFFFFFFFFFFFFFFFFF
310
FFFFFFFFFFFFFFFFFFFFFFFFFFFFFFFFFFFFFFFFFFFFFFFFFFFFFFFFFFFFFFFF
310
FFFFFFFFFFFFFFFFFFFFFFFFFFFFFFFFFFFFFFFFFFFFFFFFFFFFFFFFFFFFFFFF
310
FFFFFFFFFFFFFFFFFFFFFFFFFFFFFFFFFFFFFFFFFFFFFFFFFFFFFFFFFFFFFFFF
310
52006F006F007400200045006E00740072007900000000000000000000000000
310
0000000000000000000000000000000000000000000000000000000000000000
310
16000500FFFFFFFFFFFFFFFF020000000A00030000000000C000000000000046
310
000000000000000000000000D0E5699CE543CD0103000000C000000000000000
310
01004F006C006500000000000000000000000000000000000000000000000000
310
0000000000000000000000000000000000000000000000000000000000000000
310
0A000200FFFFFFFFFFFFFFFFFFFFFFFF00000000000000000000000000000000
310
0000000000000000000000000000000000000000000000001400000000000000
310
010043006F006D0070004F0062006A0000000000000000000000000000000000
310
0000000000000000000000000000000000000000000000000000000000000000
310
120002010100000003000000FFFFFFFF00000000000000000000000000000000
310
0000000000000000000000000000000000000000010000004D00000000000000
310
01004F006C006500310030004E00610074006900760065000000000000000000
310
0000000000000000000000000000000000000000000000000000000000000000
310
1A000200FFFFFFFFFFFFFFFFFFFFFFFF00000000000000000000000000000000
310
0000000000000000000000000000000000000000040000002426000000000000
310
FEFFFFFF02000000FEFFFFFFFFFFFFFFFFFFFFFFFFFFFFFFFFFFFFFFFFFFFFFF
310
FFFFFFFFFFFFFFFFFFFFFFFFFFFFFFFFFFFFFFFFFFFFFFFFFFFFFFFFFFFFFFFF
310
FFFFFFFFFFFFFFFFFFFFFFFFFFFFFFFFFFFFFFFFFFFFFFFFFFFFFFFFFFFFFFFF
310
FFFFFFFFFFFFFFFFFFFFFFFFFFFFFFFFFFFFFFFFFFFFFFFFFFFFFFFFFFFFFFFF
310
FFFFFFFFFFFFFFFFFFFFFFFFFFFFFFFFFFFFFFFFFFFFFFFFFFFFFFFFFFFFFFFF
310
FFFFFFFFFFFFFFFFFFFFFFFFFFFFFFFFFFFFFFFFFFFFFFFFFFFFFFFFFFFFFFFF
310
FFFFFFFFFFFFFFFFFFFFFFFFFFFFFFFFFFFFFFFFFFFFFFFFFFFFFFFFFFFFFFFF
310
FFFFFFFFFFFFFFFFFFFFFFFFFFFFFFFFFFFFFFFFFFFFFFFFFFFFFFFFFFFFFFFF
310
FFFFFFFFFFFFFFFFFFFFFFFFFFFFFFFFFFFFFFFFFFFFFFFFFFFFFFFFFFFFFFFF
310
FFFFFFFFFFFFFFFFFFFFFFFFFFFFFFFFFFFFFFFFFFFFFFFFFFFFFFFFFFFFFFFF
310
FFFFFFFFFFFFFFFFFFFFFFFFFFFFFFFFFFFFFFFFFFFFFFFFFFFFFFFFFFFFFFFF
310
FFFFFFFFFFFFFFFFFFFFFFFFFFFFFFFFFFFFFFFFFFFFFFFFFFFFFFFFFFFFFFFF
310
FFFFFFFFFFFFFFFFFFFFFFFFFFFFFFFFFFFFFFFFFFFFFFFFFFFFFFFFFFFFFFFF
310
FFFFFFFFFFFFFFFFFFFFFFFFFFFFFFFFFFFFFFFFFFFFFFFFFFFFFFFFFFFFFFFF
310
FFFFFFFFFFFFFFFFFFFFFFFFFFFFFFFFFFFFFFFFFFFFFFFFFFFFFFFFFFFFFFFF
310
FFFFFFFFFFFFFFFFFFFFFFFFFFFFFFFFFFFFFFFFFFFFFFFFFFFFFFFFFFFFFFFF
310
0100000200000000000000000000000000000000000000000000000000000000
310
0000000000000000000000000000000000000000000000000000000000000000
310
0100FEFF030A0000FFFFFFFF0A00030000000000C00000000000004607000000
310
5042727573680007000000504272757368000700000050427275736800F439B2
310
7100000000000000000000000000000000000000000000000000000000000000
310
0000000000000000000000000000000000000000000000000000000000000000
310
0000000000000000000000000000000000000000000000000000000000000000
310
0000000000000000000000000000000000000000000000000000000000000000
310
0000000000000000000000000000000000000000000000000000000000000000
310
0000000000000000000000000000000000000000000000000000000000000000
310
0000000000000000000000000000000000000000000000000000000000000000
310
0000000000000000000000000000000000000000000000000000000000000000
310
0000000000000000000000000000000000000000000000000000000000000000
310
0000000000000000000000000000000000000000000000000000000000000000
310
0000000000000000000000000000000000000000000000000000000000000000
310
0000000000000000000000000000000000000000000000000000000000000000
310
20260000424D0E260000000000003E00000028000000B40200006E0000000100
310
01000000000000000000130B0000130B00000200000002000000000000FFFFFF
310
FFFFFFFFFFFFFFFFFFFFFFFFFFFFFFFFFFFFFFFFFFFFFFFFFFFFFFFFFFFFFFFF
310
FFFFFFFFFFFFFFFFFFFFFFFFFFFFFFFFFFFFFFFFFFFFFFFFFFFFFFFFFFFFFFFF
310
FFFFFFFFFFFFFFFFFFFFFFFFFFFFFFFFFFFFFFFFFFFFFFFFF000FFFFFFFFFFFF
310
FFFFFFFFFFFFFFFFFFFFFFFFFFFFFFFFFFFFFFFFFFFFFFFFFFFFFFFFFFFFFFFF
310
FFFFFFFFFFFFFFFFFFFFFFFFFFFFFFFFFFFFFFFFFFFFFFFFFFFFFFFFFFFFFFFF
310
FFFFFFFFFFFFFFFFFFFFFFFFFFFFFFFFF000FFFFFFFFFFFFFFFFFFFFFFFFFFFF
310
FFFFFFFFFFFFFFFFFFFFFFFFFFFFFFFFFFFFFFFFFFFFFFFFFFFFFFFFFFFFFFFF
310
FFFFFFFFFFFFFFFFFFFFFFFFFFFFFFFFFFFFFFFFFFFFFFFFFFFFFFFFFFFFFFFF
310
FFFFFFFFFFFFFFFFF000FFFFFFFFFFFFFFFFFFFFFFFFFFFFFFFFFFFFFFFFFFFF
310
FFFFFFFFFFFFFFFFFFFFFFFFFFFFFFFFFFFFFFFFFFFFFFFFFFFFFFFFFFFFFFFF
310
FFFFFFFFFFFFFFFFFFFFFFFFFFFFFFFFFFFFFFFFFFFFFFFFFFFFFFFFFFFFFFFF
310
F000FFFFFFFFFFFFFFFFFFFFFFFFFFFFFFFFFFFFFFFFFFFFFFFFFFFFFFFFFFFF
310
FFFFFFFFFFFFFFFFFFFFFFFFFFFFFFFFFFFFFFFFFFFFFFFFFFFFFFFFFFFFFFFF
310
FFFFFFFFFFFFFFFFFFFFFFFFFFFFFFFFFFFFFFFFFFFFFFFFF000FFFFFFFFFFFF
310
FFFFFFFFFFFFFFFFFFFFFFFFFFFFFFFFFFFFFFFFFFFFFFFFFFFFFFFFFFFFFFFF
310
FFFFFFFFFFFFFFFFFFFFFFFFFFFFFFFFFFFFFFFFFFFFFFFFFFFFFFFFFFFFFFFF
310
FFFFFFFFFFFFFFFFFFFFFFFFFFFFFFFFF000FFFFFFFFFFFFFFFFFFFFFFFFFFFF
310
FFFFFFFFFFFFFFFFFFFFFFFFFFFFFFFFFFFFFFFFFFFFFFFFFFFFFFFFFFFFFFFF
310
FFFFFFFFFFFFFFFFFFFFFFFFFFFFFFFFFFFFFFFFFFFFFFFFFFFFFFFFFFFFFFFF
310
FFFFFFFFFFFFFFFFF000FFFFFFFFFFFFFFFFFFFFFFFFFFFFFFFFFFFFFFFFFFFF
310
FFFFFFFFFFFFFFFFFFFFFFFFFFFFFFFFFFFFFFFFFFFFFFFFFFFFFFFFFFFFFFFF
310
FFFFFFFFFFFFFFFFFFFFFFFFFFFFFFFFFFFFFFFFFFFFFFFFFFFFFFFFFFFFFFFF
310
F000FFFFFFFFFFFFFFFFFFFFFFFFFFFFFFFFFFFFFFFFFFFFFFFFFFFFFFFFFFFF
310
FFFFFFFFFFFFFFFFFFFFFFFFFFFFFFFFFFFFFFFFFFFFFFFFFFFFFFFFFFFFFFFF
310
FFFFFFFFFFFFFFFFFFFFFFFFFFFFFFFFFFFFFFFFFFFFFFFFF000FFFFFFFFFFFF
310
FFFFFFFFFFFFFFFFFFFFFFFFFFFFFFFFFFFFFFFFFFFFFFFFFFFFFFFFFFFFFFFF
310
FFFFFFFFFFFFFFFFFFFFFFFFFFFFFFFFFFFFFFFFFFFFFFFFFFFFFFFFFFFFFFFF
310
FFFFFFFFFFFFFFFFFFFFFFFFFFFFFFFFF000FFFFFFFFFFFFFFFFFFFFFFFFFFFF
310
FFFFFFFFFFFFFFFFFFFFFFFFFFFFFFFFFFFFFFFFFFFFFFFFFFFFFFFFFFFFFFFF
310
FFFFFFFFFFFFFFFFFFFFFFFFFFFFFFFFFFFFFFFFFFFFFFFFFFFFFFFFFFFFFFFF
310
FFFFFFFFFFFFFFFFF000FFFFFFFFFFFFFFFFFFFFFFFFFFFFFFFFFFFFFFFFFFFF
310
FFFFFFFFFFFFFFFFFFFFFFFFFFFFFFFFFFFFFFFFFFFFFFFFFFFFFFFFFFFFFFFF
310
FFFFFFFFFFFFFFFFFFFFFFFFFFFFFFFFFFFFFFFFFFFFFFFFFFFFFFFFFFFFFFFF
310
F000FFFFFFFFFFFFFFFFFFFFFFFFFFFFFFFFFFFFFFFFFFFFFFFFFFFFFFFFFFFF
310
FFFFFFFFFFFFFFFFFFFFFFFFFFFFFFFFFFFFFFFFFFFFFFFFFFFFFFFFFFFFFFFF
310
FFFFFFFFFFFFFFFFFFFFFFFFFFFFFFFFFFFFFFFFFFFFFFFFF000FFFFFFFFFFFF
310
FFFFFFFFFFFFFFFFFFFFFFFFFFFFFFFFFFFFFFFFFFFFFFFFFFFFFFFFFFFFFFFF
310
FFFFFFFFFFFFFFFFFFFFFFFFFFFFFFFFFFFFFFFFFFFFFFFFFFFFFFFFFFFFFFFF
310
FFFFFFFFFFFFFFFFFFFFFFFFFFFFFFFFF000FFFFFFFFFFFFFFFFFFFFFFFFFFFF
310
FFFFFFFFFFFFFFFFFFFFFFFFFFFFFFFFFFFFFFFFFFFFFFFFFFFFFFFFFFFFFFFF
310
FFFFFFFFFFFFFFFFFFFFFFFFFFFFFFFFFFFFFFFFFFFFFFFFFFFFFFFFFFFFFFFF
310
FFFFFFFFFFFFFFFFF000FFFFFFFFFFFFFFFFFFFFFFFFFFFFFFFFFFFFFFFFFFFF
310
FFFFFFFFFFFFFFFFFFFFFFFFFFFFFFFFFFFFFFFFFFFFFFFFFFFFFFFFFFFFFFFF
310
FFFFFFFFFFFFFFFFFFFFFFFFFFFFFFFFFFFFFFFFFFFFFFFFFFFFFFFFFFFFFFFF
310
F000FFFFFFFFFFFFFFFFFFFFFFFFFFFFFFFFFFFFFFFFFFFFFFFFFFFFFFFFFFFF
310
FFFFFFFFFFFFFFFFFFFFFFFFFFFFFFFFFFFFFFFFFFFFFFFFFFFFFFFFFFFFFFFF
310
FFFFFFFFFFFFFFFFFFFFFFFFFFFFFFFFFFFFFFFFFFFFFFFFF000FFFFFFFFFFFF
310
FFFFFFFFFFFFFFFFFFFFFFFFFFFFFFFFFFFFFFFFFFFFFFFFFFFFFFFFFFFFFFFF
310
FFFFFFFFFFFFFFFFFFFFFFFFFFFFFFFFFFFFFFFFFFFFFFFFFFFFFFFFFFFFFFFF
310
FFFFFFFFFFFFFFFFFFFFFFFFFFFFFFFFF000FFFFFFFFFFFFFFFFFFFFFFFFFFFF
310
FFFFFFFFFFFFFFFFFFFFFFFFFFFFFFFFFFFFFFFFFFFFFFFFFFFFFFFFFFFFFFFF
310
FFFFFFFFFFFFFFFFFFFFFFFFFFFFFFFFFFFFFFFFFFFFFFFFFFFFFFFFFFFFFFFF
310
FFFFFFFFFFFFFFFFF000FFFFF80003FFFFFFFFFFFFFFFFFFFFFFFFFFFFFFFFFF
310
FFFFF00007FFFFFFFFFF00007FFFFFF800000000000000007FFFFFFFFFFFFFFF
310
FFFFFFFC001FFFFFFFFFFFFFFC001FFFFFFFFFFFFFFFFFFFFFFFFFFE0007FFFF
310
F000FFFF8000007FFFFFFFF8000FFFFFC0007FFFFF80007FFFFF0000007FFFFF
310
FFF8000007FFFFF800000000000000007FFFFFF0001FFFFFFFFFFFC00001FFFF
310
FFFFFFFFC00001FFFFFFFF000000000003FFFFE000007FFFF000FFFE0000000F
310
FFFFFFF0000FFFFF80007FFFFF80007FFFFC0000001FFFFFFFC0000001FFFFF8
310
00000000000000007FFFFFF0001FFFFFFFFFFE0000003FFFFFFFFFFE0000003F
310
FFFFFF000000000003FFFF0000000FFFF000FFF800000003FFFFFFF00007FFFF
310
80007FFFFF80007FFFF000000007FFFFFF000000003FFFF80000000000000000
310
7FFFFFF0001FFFFFFFFFF80000000FFFFFFFFFF80000000FFFFFFF0000000000
310
03FFFC00000003FFF000FFE000000000FFFFFFF00007FFFF80003FFFFF80007F
310
FFC000000001FFFFFC000000001FFFF800000000000000007FFFFFF0001FFFFF
310
FFFFE000000003FFFFFFFFE000000003FFFFFF000000000003FFF000000000FF
310
F000FF80000000007FFFFFF00007FFFF80003FFFFF80007FFF8000000000FFFF
310
F80000000007FFF800000000000000007FFFFFF0001FFFFFFFFFC000000001FF
310
FFFFFFC000000001FFFFFF000000000003FFC0000000007FF000FF0000000000
310
3FFFFFE00007FFFF00003FFFFF80007FFE00000000003FFFF00000000003FFF8
310
00000000000000007FFFFFF0001FFFFFFFFF8000000000FFFFFFFF8000000000
310
FFFFFF000000000003FF80000000003FF000FE00000000001FFFFFE00003FFFF
310
00003FFFFF80007FFC00000000001FFFE00000000001FFF8000001FFFE000000
310
7FFFFFF0001FFFFFFFFE00000000003FFFFFFE00000000003FFFFF0000000000
310
03FF00000000001FF000FC00000000000FFFFFE00003FFFF00001FFFFF80007F
310
F800000000001FFFC00000000000FFF8000001FFFE0000007FFFFFF0001FFFFF
310
FFFC00000000001FFFFFFC00000000001FFFFF000000000003FE00000000000F
310
F000F8000000000007FFFFE00003FFFF00001FFFFF80007FF800000000000FFF
310
800000000000FFF8000001FFFE0000007FFFFFF0001FFFFFFFF800000000000F
310
FFFFF800000000000FFFFF000000000003FC000000000007F000F80000000000
310
03FFFFC00003FFFE00001FFFFF80007FF0000000000007FF0000000000007FF8
310
000001FFFE0000007FFFFFF0001FFFFFFFF0000000000007FFFFF00000000000
310
07FFFF000000000003F8000000000003F000F0000000000003FFFFC00001FFFE
310
00001FFFFF80007FE0000000000007FE0000000000003FF8000001FFFE000000
310
7FFFFFF0001FFFFFFFF0000000000007FFFFF0000000000007FFFF0000000000
310
03F800001F800003F000E00001FFF00001FFFFC00001FFFE00000FFFFF80007F
310
E00001FFE00003FE00001FFF00003FF8000001FFFE0000007FFFFFF0001FFFFF
310
FFE000003E000003FFFFE000003E000003FFFF000000000003F00001FFF80001
310
F000E00007FFFC0001FFFFC00001FFFE00000FFFFF80007FC0000FFFFC0003FC
310
0000FFFFC0001FF8000001FFFE0000007FFFFFF0001FFFFFFFC00003FFE00001
310
FFFFC00003FFE00001FFFF0001FFFFFFFFF00007FFFE0001F000E0000FFFFF00
310
00FFFF800001FFFC00000FFFFF80007FC0001FFFFE0001FC0001FFFFE0001FF8
310
000001FFFE0000007FFFFFF0001FFFFFFF80000FFFF80000FFFF80000FFFF800
310
00FFFF0003FFFFFFFFE0000FFFFF8000F000C0003FFFFF8000FFFF800000FFFC
310
000007FFFF80007F80003FFFFF0001FC0003FFFFF0001FF8000001FFFE000000
310
7FFFFFF0001FFFFFFF80003FFFFE0000FFFF80003FFFFE0000FFFF0003FFFFFF
310
FFE0003FFFFF8000F000C0003FFFFF8000FFFF800000FFFC000007FFFF80007F
310
80007FFFFF8001F80007FFFFF8000FF8000001FFFE0000007FFFFFF0001FFFFF
310
FF00007FFFFF00007FFF00007FFFFF00007FFF0003FFFFFFFFE0003FFFFFC000
310
F000C0007FFFFFC000FFFF000000FFFC000007FFFF80007F8000FFFFFF8000F8
310
000FFFFFF8000FF8000001FFFE0000007FFFFFF0001FFFFFFF0000FFFFFF8000
310
7FFF0000FFFFFF80007FFF0003FFFFFFFFC0007FFFFFC00070008000FFFFFFC0
310
00FFFF000000FFF8000007FFFF80007F8000FFFFFF8000F8000FFFFFF8000FF8
310
000001FFFE0000007FFFFFF0001FFFFFFE0001FFFFFFC0003FFE0001FFFFFFC0
310
003FFF0003FFFFFFFFC0007FFFFFE00070008000FFFFFFC0007FFF0000007FF8
310
000003FFFF80007F0001FFFFFF8000F8000FFFFFF8000FF8000001FFFE000000
310
7FFFFFF0001FFFFFFE0001FFFFFFC0003FFE0001FFFFFFC0003FFF0003FFFFFF
310
FFC000FFFFFFE00070008000FFFFFFC0007FFF0000007FF8000003FFFF80007F
310
0001FFFFFF8000F8001FFFFFF8000FF8000001FFFE0000007FFFFFF0001FFFFF
310
FE0003FFFFFFE0003FFE0003FFFFFFE0003FFF0003FFFFFFFFC000FFFFFFE000
310
70008000FFFFFFC0007FFE0000007FF8000003FFFF80007F0001FFFFFF8000F0
310
001FFFFFF8000FF8000001FFFE0000007FFFFFF0001FFFFFFC0003FFFFFFE000
310
1FFC0003FFFFFFE0001FFF0003FFFFFFFFC000FFFFFFC00070008000FFFFFF80
310
007FFE0000007FF0000003FFFF80007F0001FFFFFF0000F0001FFFFFF8000FF8
310
000001FFFE0000007FFFFFF0001FFFFFFC0007FFFFFFF0001FFC0007FFFFFFF0
310
001FFF0003FFFFFFFFC000FFFFFFC00070008001FFFFFF0000FFFE0000003FF0
310
000001FFFF80007F0001FFFFFF0000F8001FFFFFF0000FF8000001FFFE000000
310
7FFFFFF0001FFFFFFC0007FFFFFFF0001FFC0007FFFFFFF0001FFF0003FFFFFF
310
FFC001FFFFFF80007000FFFFFFFFFE0000FFFE0008003FF0008001FFFF80007F
310
FFFFFFFFFC0000FFFFFFFFFFE0000FF8000001FFFE0000007FFFFFF0001FFFFF
310
F8000FFFFFFFF8000FF8000FFFFFFFF8000FFF0003FFFFFFFFFFFFFFFFFF0000
310
7000FFFFFFFFFC0000FFFC0008003FF0008001FFFF80007FFFFFFFFFF80001FF
310
FFFFFFFF80000FF8000001FFFE0000007FFFFFF0001FFFFFF8000FFFFFFFF800
310
0FF8000FFFFFFFF8000FFF0003FFFFFFFFFFFFFFFFFE0000F000FFFFFFFFE000
310
00FFFC000C003FE000C001FFFF80007FFFFFFFFFC00001FFFFFFFFFE00001FF8
310
000001FFFE0000007FFFFFF0001FFFFFF8000FFFFFFFF8000FF8000FFFFFFFF8
310
000FFF0003FFFFFFFFFFFFFFFFF00000F000FFFFFFFE000001FFFC000C001FE0
310
00C000FFFF80007FFFFFFFFE000001FFFFFFFFE000001FF80FFFFFFFFFFFFFC0
310
7FFFFFF0001FFFFFF8000FFFFFFFF8000FF8000FFFFFFFF8000FFF0003FFFFFF
310
FFFFFFFFFF800000F000FFFFFFC0000001FFFC001C001FE001C000FFFF80007F
310
FFFFFF80000003FFFFFFF80000001FF80FFFFFFFFFFFFFC07FFFFFF0001FFFFF
310
F8001FFFFFFFFC000FF8001FFFFFFFFC000FFF0003FFFFFFFFFFFFFFF0000001
310
F000FFFFF800000001FFF8001C001FE001C000FFFF80007FFFFFF800000003FF
310
FFFF800000003FF80FFFFFFFFFFFFFC07FFFFFF0001FFFFFF8001FFFFFFFFC00
310
0FF8001FFFFFFFFC000FFF0003FFFFFFFFFFFFFE00000001F000FFFFC0000000
310
03FFF8001E001FC001E000FFFF80007FFFFF8000000007FFFFFC000000003FF8
310
0FFFFFFFFFFFFFC07FFFFFF0001FFFFFF8001FFFFFFFFC000FF8001FFFFFFFFC
310
000FFF0003FFFFFFFFFFFFE000000003F000FFFE0000000007FFF8001E000FC0
310
01E0007FFF80007FFFFE0000000007FFFFE0000000007FF80FFFFFFFFFFFFFC0
310
7FFFFFF0001FFFFFF0001FFFFFFFFC0007F0001FFFFFFFFC0007FF0003FFFFFF
310
FFFFFF0000000003F000FFF80000000007FFF8001E000FC003E0007FFF80007F
310
FFF0000000000FFFFF8000000000FFF80FFFFFFFFFFFFFC07FFFFFF0001FFFFF
310
F0001FFFFFFFFC0007F0001FFFFFFFFC0007FF0003FFFFFFFFFFFC0000000007
310
F000FFE0000000000FFFF0003E000FC003E0007FFF80007FFFC0000000001FFF
310
FE0000000001FFF80FFFFFFFFFFFFFC07FFFFFF0001FFFFFF0001FFFFFFFFC00
310
07F0001FFFFFFFFC0007FF0003FFFFFFFFFFF0000000000FF000FFC000000000
310
1FFFF0003F000F8003F0003FFF80007FFF80000000003FFFF80000000003FFF8
310
0FFFFFFFFFFFFFC07FFFFFF0001FFFFFF0001FFFFFFFFC0007F0001FFFFFFFFC
310
0007FF0003FFFFFFFFFFE0000000001FF000FF00000000007FFFF0003F000780
310
03F0003FFF80007FFF00000000007FFFF00000000007FFF80FFFFFFFFFFFFFC0
310
7FFFFFF0001FFFFFF0001FFFFFFFFC0007F0001FFFFFFFFC0007FF0003FFFFFF
310
FFFF80000000007FF000FE0000000000FFFFE0003F00078007F0003FFF80007F
310
FE0000000001FFFFE0000000001FFFF80FFFFFFFFFFFFFC07FFFFFF0001FFFFF
310
F0001FFFFFFFFC0007F0001FFFFFFFFC0007FF0003FFFFFFFFFF0000000000FF
310
F000FC0000000003FFFFE0007F00078007F0003FFF80007FFC0000000007FFFF
310
C0000000007FFFF80FFFFFFFFFFFFFC07FFFFFF0001FFFFFF8001FFFFFFFFC00
310
0FF8001FFFFFFFFC000FFF0003FFFFFFFFFE0000000003FFF000FC000000000F
310
FFFFE0007F80070007F8001FFF80007FF8000000001FFFFF8000000001FFFFF8
310
0FFFFFFFFFFFFFC07FFFFFF0001FFFFFF8001FFFFFFFFC000FF8001FFFFFFFFC
310
000FFF0003FFFFFFFFFC000000000FFFF000F8000000007FFFFFE0007F800700
310
07F8001FFF80007FF000000000FFFFFF800000000FFFFFF80FFFFFFFFFFFFFC0
310
7FFFFFF0001FFFFFF8000FFFFFFFF8000FF8000FFFFFFFF8000FFF0003FFFFFF
310
FFFC000000007FFFF000F800000007FFFFFFC0007F8003000FF8001FFF80007F
310
F000000007FFFFFF000000007FFFFFF80FFFFFFFFFFFFFC07FFFFFF0001FFFFF
310
F8000FFFFFFFF8000FF8000FFFFFFFF8000FFF0003FFFFFFFFF80000000FFFFF
310
F000F0000000FFFFFFFFC000FF8003000FF8001FFF80007FE0000000FFFFFFFF
310
0000000FFFFFFFF8000001FFFE0000007FFFFFF0001FFFFFF8000FFFFFFFF800
310
0FF8000FFFFFFFF8000FFF0003FFFFFFFFF8000000FFFFFFF000F000000FFFFF
310
FFFFC000FFC002000FF8000FFF80007FE000001FFFFFFFFE000001FFFFFFFFF8
310
000001FFFE0000007FFFFFF0001FFFFFF8000FFFFFFFF8000FF8000FFFFFFFF8
310
000FFF0003FFFFFFFFF000001FFFFFFFF000E00000FFFFFFFFFFC000FFC00200
310
0FFC000FFF80007FE00001FFFFFFFFFE00001FFFFFFFFFF8000001FFFE000000
310
7FFFFFF0001FFFFFFC000FFFFFFFF8001FFC000FFFFFFFF8001FFF0003FFFFFF
310
FFF00001FFFFFFFFF000E00007FFFFFFFFFF8000FFC000001FFC000FFF80007F
310
C0000FFFFFFFFFFE0000FFFFFFFFFFF8000001FFFE0000007FFFFFF0001FFFFF
310
FC0007FFFFFFF0001FFC0007FFFFFFF0001FFF0003FFFFFFFFF00007FFFFFFFF
310
F000E0001FFFFFFFFFFF8000FFC000001FFC000FFF80007FC0003FFFFFFFFFFE
310
0001FFFFFFFFFFF8000001FFFE0000007FFFFFF0001FFFFFFC0007FFFFFFF000
310
1FFC0007FFFFFFF0001FFF0003FFFFFFFFF0001FFFFFFFFFF000E0003FFFFF00
310
03FF8001FFE000001FFC0007FF80007FC0007FFFFF0007FC0003FFFFF0003FF8
310
000001FFFE0000007FFFFFF0001FFFFFFC0003FFFFFFE0001FFC0003FFFFFFE0
310
001FFF0003FFFFFFFFF0003FFFFFFFFFF000E0003FFFFF0001FF8001FFE00000
310
1FFE0007FF80007FC0007FFFFE0003FC0007FFFFE0003FF8000001FFFE000000
310
7FFFFFF0001FFFFFFE0003FFFFFFE0003FFE0003FFFFFFE0003FFF0003FFFFFF
310
FFF0003FFFFF8001F000E0003FFFFF0001FF0001FFE000001FFE0007FF80007F
310
C0007FFFFE0003FC0007FFFFE0003FF8000001FFFE0000007FFFFFF0001FFFFF
310
FE0001FFFFFFC0003FFE0001FFFFFFC0003FFF0003FFFFFFFFF0003FFFFF0001
310
F000E0003FFFFF0003FF0001FFE000003FFE0007FF80007FC0007FFFFE0003FC
310
0007FFFFE0003FF8000001FFFE0000007FFFFFF0001FFFFFFF0001FFFFFFC000
310
7FFF0001FFFFFFC0007FFF0003FFFFFFFFF0003FFFFF0001F000E0003FFFFE00
310
03FF0003FFF000003FFE0003FF80007FC0007FFFFC0003FE0007FFFFE0003FF8
310
000001FFFE0000007FFFFFF0001FFFFFFF0000FFFFFF80007FFF0000FFFFFF80
310
007FFF0003FFFFFFFFF0003FFFFF0001F000E0003FFFFE0003FF0003FFF00000
310
3FFF0003FF80007FC0007FFFFC0007FE0007FFFFC0003FF8000001FFFE000000
310
7FFFFFF0001FFFFFFF80007FFFFF0000FFFF80007FFFFF0000FFFF0003FFFFFF
310
FFF0003FFFFF0003F000E0003FFFFC0003FE0003FFF000003FFF0003FF80007F
310
E0003FFFF80007FE0003FFFFC0007FF8000001FFFE0000007FFFFFF0001FFFFF
310
FF80003FFFFE0000FFFF80003FFFFE0000FFFF0003FFFFFFFFF0001FFFFE0003
310
F000F0001FFFF80003FE0003FFF000007FFF0001FF80007FE0003FFFF00007FE
310
0001FFFF80007FF8000001FFFE0000007FFFFFF0001FFFFFFFC0000FFFF80001
310
FFFFC0000FFFF80001FFFF0003FFFFFFFFF0001FFFFC0003F000F0000FFFF000
310
07FE0007FFF800007FFF0001FF80007FE0001FFFE00007FF0000FFFE00007FF8
310
000001FFFE0000007FFFFFF0001FFFFFFFC00003FFE00001FFFFC00003FFE000
310
01FFFF0003FFFFFFFFF8000FFFF80003F000F00003FFC00007FC0007FFF80000
310
7FFF8001FF80007FF00007FF80000FFF00007FF80000FFF8000001FFFE000000
310
7F80000000000001FFE000003E000003FFFFE000003E000003FFFF0003FFFFFF
310
FFF80003FFE00007F000F800000000000FFC0007FFF800007FFF8001FF80007F
310
F000000000000FFF000000000000FFF8000001FFFE0000007F80000000000001
310
FFF0000000000007FFFFF0000000000007FFFF0003FFFFFFFFFC00007E000007
310
F000F800000000000FFC0007FFF80000FFFF8000FF80007FF800000000001FFF
310
800000000001FFF8000001FFFE0000007F80000000000001FFF800000000000F
310
FFFFF800000000000FFFFF0003FFFFFFFFFC00000000000FF000FC0000000000
310
1FFC0007FFFC0000FFFF8000FF80007FF800000000003FFFC00000000001FFF8
310
000001FFFE0000007F80000000000001FFF800000000000FFFFFF80000000000
310
0FFFFF0003FFFFFFFFFE00000000001FF000FE00000000003FF8000FFFFC0000
310
FFFF8000FF80007FFC00000000003FFFC00000000003FFF8000001FFFE000000
310
7F80000000000001FFFC00000000001FFFFFFC00000000001FFFFF0003FFFFFF
310
FFFF00000000001FF000FF00000000003FF8000FFFFC0000FFFFC000FF80007F
310
FE00000000007FFFE00000000007FFF8000001FFFE0000007F80000000000001
310
FFFE00000000003FFFFFFE00000000003FFFFF0003FFFFFFFFFF80000000003F
310
F000FF80000000007FF8000FFFFC0001FFFFC0007F80007FFF0000000000FFFF
310
F0000000000FFFF800000000000000007F80000000000001FFFF8000000000FF
310
FFFFFF8000000000FFFFFF0003FFFFFFFFFFC0000000007FF000FFC000000000
310
FFF8000FFFFE0001FFFFC0007F80007FFF8000000001FFFFF8000000001FFFF8
310
00000000000000007F80000000000001FFFFC000000001FFFFFFFFC000000001
310
FFFFFF0003FFFFFFFFFFE000000000FFF000FFE000000003FFF0001FFFFE0001
310
FFFFC0007F80007FFFC000000007FFFFFE000000003FFFF80000000000000000
310
7F80000000000001FFFFE000000003FFFFFFFFE000000003FFFFFF0003FFFFFF
310
FFFFF000000003FFF000FFF80000000FFFF0001FFFFE0001FFFFE0007F80007F
310
FFF00000000FFFFFFF00000000FFFFF800000000000000007F80000000000001
310
FFFFF80000000FFFFFFFFFF80000000FFFFFFF0003FFFFFFFFFFFC0000000FFF
310
F000FFFE0000003FFFF0001FFFFE0003FFFFE0003F80007FFFFC0000003FFFFF
310
FFC0000003FFFFF800000000000000007F80000000000001FFFFFE0000003FFF
310
FFFFFFFE0000003FFFFFFF0003FFFFFFFFFFFF0000003FFFF000FFFF800000FF
310
FFF0001FFFFF0003FFFFE0003F80007FFFFF000001FFFFFFFFF800001FFFFFF8
310
00000000000000007F80000000000001FFFFFFC00001FFFFFFFFFFFFC00001FF
310
FFFFFF0003FFFFFFFFFFFFC00000FFFFF000FFFFF8000FFFFFFFFFFFFFFFFFFF
310
FFFFFFFFFFFFFFFFFFFFF0001FFFFFFFFFFF0000FFFFFFF80000000000000000
310
7FFFFFFFFFFFFFFFFFFFFFFC001FFFFFFFFFFFFFFC001FFFFFFFFFFFFFFFFFFF
310
FFFFFFFC001FFFFFF000FFFFFFFFFFFFFFFFFFFFFFFFFFFFFFFFFFFFFFFFFFFF
310
FFFFFFFFFFFFFFFFFFFFFFFFFFFFFFFFFFFFFFFFFFFFFFFFFFFFFFFFFFFFFFFF
310
FFFFFFFFFFFFFFFFFFFFFFFFFFFFFFFFFFFFFFFFFFFFFFFFFFFFFFFFFFFFFFFF
310
F000FFFFFFFFFFFFFFFFFFFFFFFFFFFFFFFFFFFFFFFFFFFFFFFFFFFFFFFFFFFF
310
FFFFFFFFFFFFFFFFFFFFFFFFFFFFFFFFFFFFFFFFFFFFFFFFFFFFFFFFFFFFFFFF
310
FFFFFFFFFFFFFFFFFFFFFFFFFFFFFFFFFFFFFFFFFFFFFFFFF000FFFFFFFFFFFF
310
FFFFFFFFFFFFFFFFFFFFFFFFFFFFFFFFFFFFFFFFFFFFFFFFFFFFFFFFFFFFFFFF
310
FFFFFFFFFFFFFFFFFFFFFFFFFFFFFFFFFFFFFFFFFFFFFFFFFFFFFFFFFFFFFFFF
310
FFFFFFFFFFFFFFFFFFFFFFFFFFFFFFFFF000FFFFFFFFFFFFFFFFFFFFFFFFFFFF
310
FFFFFFFFFFFFFFFFFFFFFFFFFFFFFFFFFFFFFFFFFFFFFFFFFFFFFFFFFFFFFFFF
310
FFFFFFFFFFFFFFFFFFFFFFFFFFFFFFFFFFFFFFFFFFFFFFFFFFFFFFFFFFFFFFFF
310
FFFFFFFFFFFFFFFFF000FFFFFFFFFFFFFFFFFFFFFFFFFFFFFFFFFFFFFFFFFFFF
310
FFFFFFFFFFFFFFFFFFFFFFFFFFFFFFFFFFFFFFFFFFFFFFFFFFFFFFFFFFFFFFFF
310
FFFFFFFFFFFFFFFFFFFFFFFFFFFFFFFFFFFFFFFFFFFFFFFFFFFFFFFFFFFFFFFF
310
F000FFFFFFFFFFFFFFFFFFFFFFFFFFFFFFFFFFFFFFFFFFFFFFFFFFFFFFFFFFFF
310
FFFFFFFFFFFFFFFFFFFFFFFFFFFFFFFFFFFFFFFFFFFFFFFFFFFFFFFFFFFFFFFF
310
FFFFFFFFFFFFFFFFFFFFFFFFFFFFFFFFFFFFFFFFFFFFFFFFF000FFFFFFFFFFFF
310
FFFFFFFFFFFFFFFFFFFFFFFFFFFFFFFFFFFFFFFFFFFFFFFFFFFFFFFFFFFFFFFF
310
FFFFFFFFFFFFFFFFFFFFFFFFFFFFFFFFFFFFFFFFFFFFFFFFFFFFFFFFFFFFFFFF
310
FFFFFFFFFFFFFFFFFFFFFFFFFFFFFFFFF000FFFFFFFFFFFFFFFFFFFFFFFFFFFF
310
FFFFFFFFFFFFFFFFFFFFFFFFFFFFFFFFFFFFFFFFFFFFFFFFFFFFFFFFFFFFFFFF
310
FFFFFFFFFFFFFFFFFFFFFFFFFFFFFFFFFFFFFFFFFFFFFFFFFFFFFFFFFFFFFFFF
310
FFFFFFFFFFFFFFFFF000FFFFFFFFFFFFFFFFFFFFFFFFFFFFFFFFFFFFFFFFFFFF
310
FFFFFFFFFFFFFFFFFFFFFFFFFFFFFFFFFFFFFFFFFFFFFFFFFFFFFFFFFFFFFFFF
310
FFFFFFFFFFFFFFFFFFFFFFFFFFFFFFFFFFFFFFFFFFFFFFFFFFFFFFFFFFFFFFFF
310
F000FFFFFFFFFFFFFFFFFFFFFFFFFFFFFFFFFFFFFFFFFFFFFFFFFFFFFFFFFFFF
310
FFFFFFFFFFFFFFFFFFFFFFFFFFFFFFFFFFFFFFFFFFFFFFFFFFFFFFFFFFFFFFFF
310
FFFFFFFFFFFFFFFFFFFFFFFFFFFFFFFFFFFFFFFFFFFFFFFFF000FFFFFFFFFFFF
310
FFFFFFFFFFFFFFFFFFFFFFFFFFFFFFFFFFFFFFFFFFFFFFFFFFFFFFFFFFFFFFFF
310
FFFFFFFFFFFFFFFFFFFFFFFFFFFFFFFFFFFFFFFFFFFFFFFFFFFFFFFFFFFFFFFF
310
FFFFFFFFFFFFFFFFFFFFFFFFFFFFFFFFF000FFFFFFFFFFFFFFFFFFFFFFFFFFFF
310
FFFFFFFFFFFFFFFFFFFFFFFFFFFFFFFFFFFFFFFFFFFFFFFFFFFFFFFFFFFFFFFF
310
FFFFFFFFFFFFFFFFFFFFFFFFFFFFFFFFFFFFFFFFFFFFFFFFFFFFFFFFFFFFFFFF
310
FFFFFFFFFFFFFFFFF000FFFFFFFFFFFFFFFFFFFFFFFFFFFFFFFFFFFFFFFFFFFF
310
FFFFFFFFFFFFFFFFFFFFFFFFFFFFFFFFFFFFFFFFFFFFFFFFFFFFFFFFFFFFFFFF
310
FFFFFFFFFFFFFFFFFFFFFFFFFFFFFFFFFFFFFFFFFFFFFFFFFFFFFFFFFFFFFFFF
310
F000FFFFFFFFFFFFFFFFFFFFFFFFFFFFFFFFFFFFFFFFFFFFFFFFFFFFFFFFFFFF
310
FFFFFFFFFFFFFFFFFFFFFFFFFFFFFFFFFFFFFFFFFFFFFFFFFFFFFFFFFFFFFFFF
310
FFFFFFFFFFFFFFFFFFFFFFFFFFFFFFFFFFFFFFFFFFFFFFFFF000FFFFFFFFFFFF
310
FFFFFFFFFFFFFFFFFFFFFFFFFFFFFFFFFFFFFFFFFFFFFFFFFFFFFFFFFFFFFFFF
310
FFFFFFFFFFFFFFFFFFFFFFFFFFFFFFFFFFFFFFFFFFFFFFFFFFFFFFFFFFFFFFFF
310
FFFFFFFFFFFFFFFFFFFFFFFFFFFFFFFFF000FFFFFFFFFFFFFFFFFFFFFFFFFFFF
310
FFFFFFFFFFFFFFFFFFFFFFFFFFFFFFFFFFFFFFFFFFFFFFFFFFFFFFFFFFFFFFFF
310
FFFFFFFFFFFFFFFFFFFFFFFFFFFFFFFFFFFFFFFFFFFFFFFFFFFFFFFFFFFFFFFF
310
FFFFFFFFFFFFFFFFF000FFFFFFFFFFFFFFFFFFFFFFFFFFFFFFFFFFFFFFFFFFFF
310
FFFFFFFFFFFFFFFFFFFFFFFFFFFFFFFFFFFFFFFFFFFFFFFFFFFFFFFFFFFFFFFF
310
FFFFFFFFFFFFFFFFFFFFFFFFFFFFFFFFFFFFFFFFFFFFFFFFFFFFFFFFFFFFFFFF
310
F000FFFFFFFFFFFFFFFFFFFFFFFFFFFFFFFFFFFFFFFFFFFFFFFFFFFFFFFFFFFF
310
FFFFFFFFFFFFFFFFFFFFFFFFFFFFFFFFFFFFFFFFFFFFFFFFFFFFFFFFFFFFFFFF
310
FFFFFFFFFFFFFFFFFFFFFFFFFFFFFFFFFFFFFFFFFFFFFFFFF000FFFFFFFFFFFF
310
FFFFFFFFFFFFFFFFFFFFFFFFFFFFFFFFFFFFFFFFFFFFFFFFFFFFFFFFFFFFFFFF
310
FFFFFFFFFFFFFFFFFFFFFFFFFFFFFFFFFFFFFFFFFFFFFFFFFFFFFFFFFFFFFFFF
310
FFFFFFFFFFFFFFFFFFFFFFFFFFFFFFFFF000FFFFFFFFFFFFFFFFFFFFFFFFFFFF
310
FFFFFFFFFFFFFFFFFFFFFFFFFFFFFFFFFFFFFFFFFFFFFFFFFFFFFFFFFFFFFFFF
310
FFFFFFFFFFFFFFFFFFFFFFFFFFFFFFFFFFFFFFFFFFFFFFFFFFFFFFFFFFFFFFFF
310
FFFFFFFFFFFFFFFFF000FFFFFFFFFFFFFFFFFFFFFFFFFFFFFFFFFFFFFFFFFFFF
310
FFFFFFFFFFFFFFFFFFFFFFFFFFFFFFFFFFFFFFFFFFFFFFFFFFFFFFFFFFFFFFFF
310
FFFFFFFFFFFFFFFFFFFFFFFFFFFFFFFFFFFFFFFFFFFFFFFFFFFFFFFFFFFFFFFF
310
F000FFFFFFFFFFFFFFFFFFFFFFFFFFFFFFFFFFFFFFFFFFFFFFFFFFFFFFFFFFFF
310
FFFFFFFFFFFFFFFFFFFFFFFFFFFFFFFFFFFFFFFFFFFFFFFFFFFFFFFFFFFFFFFF
310
FFFFFFFFFFFFFFFFFFFFFFFFFFFFFFFFFFFFFFFFFFFFFFFFF000FFFFFFFFFFFF
310
FFFFFFFFFFFFFFFFFFFFFFFFFFFFFFFFFFFFFFFFFFFFFFFFFFFFFFFFFFFFFFFF
310
FFFFFFFFFFFFFFFFFFFFFFFFFFFFFFFFFFFFFFFFFFFFFFFFFFFFFFFFFFFFFFFF
310
FFFFFFFFFFFFFFFFFFFFFFFFFFFFFFFFF0000000000000000000000000000000
310
0000000000000000000000000000000000000000000000000000000000000000
310
0000000000000000000000000000000000000000000000000000000000000000
310
0000000000000000000000000000000000000000000000000000000000000000
310
0000000000000000000000000000000000000000000000000000000000000000
310
0000000000000000000000000000000000000000000000000000000000000000
310
0000000000000000000000000000000000000000000000000000000000000000
310
0000000000000000000000000000000000000000000000000000000000000000
310
0000000000000000000000000000000000000000000000000000000000000000
310
0000000000000000000000000000000000000000000000000000000000000000
310
0000000000000000000000000000000000000000000000000000000000000000
310
0000000000000000000000000000000000000000000000000000000000000000
310
0000000000000000000000000000000000000000000000000000000000000000
310
0000000000000000000000000000000000000000000000000000000000000000
310
0000000000000000000000000000000000000000000000000000000000000000
310
0000000000000000000000000000000000000000000000000000000000000000
  1
OLE
  0
ENDSEC
  0
SECTION
  2
OBJECTS
  0
DICTIONARY
  5
C
330
0
100
AcDbDictionary
281
     1
  3
ACAD_GROUP
350
D
  3
ACAD_LAYOUT
350
1A
  3
ACAD_MLINESTYLE
350
17
  3
ACAD_PLOTSETTINGS
350
19
  3
ACAD_PLOTSTYLENAME
350
E
  0
DICTIONARY
  5
D
102
{ACAD_REACTORS
330
C
102
}
330
C
100
AcDbDictionary
281
     1
  0
DICTIONARY
  5
1A
102
{ACAD_REACTORS
330
C
102
}
330
C
100
AcDbDictionary
281
     1
  3
Layout1
350
1E
  3
Layout2
350
26
  3
Model
350
22
  0
DICTIONARY
  5
17
102
{ACAD_REACTORS
330
C
102
}
330
C
100
AcDbDictionary
281
     1
  3
Standard
350
18
  0
DICTIONARY
  5
19
102
{ACAD_REACTORS
330
C
102
}
330
C
100
AcDbDictionary
281
     1
  0
ACDBDICTIONARYWDFLT
  5
E
102
{ACAD_REACTORS
330
C
102
}
330
C
100
AcDbDictionary
281
     1
  3
Normal
350
F
100
AcDbDictionaryWithDefault
340
F
  0
LAYOUT
  5
1E
102
{ACAD_REACTORS
330
1A
102
}
330
1A
100
AcDbPlotSettings
  1

  2
none_device
  4

  6

 40
0.0
 41
0.0
 42
0.0
 43
0.0
 44
0.0
 45
0.0
 46
0.0
 47
0.0
 48
0.0
 49
0.0
140
0.0
141
0.0
142
1.0
143
1.0
 70
   688
 72
     0
 73
     0
 74
     5
  7

 75
    16
147
1.0
148
0.0
149
0.0
100
AcDbLayout
  1
Layout1
 70
     1
 71
     1
 10
0.0
 20
0.0
 11
420.0
 21
297.0
 12
0.0
 22
0.0
 32
0.0
 14
1.0000000000E+20
 24
1.0000000000E+20
 34
1.0000000000E+20
 15
-1.0000000000E+20
 25
-1.0000000000E+20
 35
-1.0000000000E+20
146
0.0
 13
0.0
 23
0.0
 33
0.0
 16
1.0
 26
0.0
 36
0.0
 17
0.0
 27
1.0
 37
0.0
 76
     0
330
1B
  0
LAYOUT
  5
26
102
{ACAD_REACTORS
330
1A
102
}
330
1A
100
AcDbPlotSettings
  1

  2
none_device
  4

  6

 40
0.0
 41
0.0
 42
0.0
 43
0.0
 44
0.0
 45
0.0
 46
0.0
 47
0.0
 48
0.0
 49
0.0
140
0.0
141
0.0
142
1.0
143
1.0
 70
   688
 72
     0
 73
     0
 74
     5
  7

 75
    16
147
1.0
148
0.0
149
0.0
100
AcDbLayout
  1
Layout2
 70
     1
 71
     2
 10
0.0
 20
0.0
 11
0.0
 21
0.0
 12
0.0
 22
0.0
 32
0.0
 14
0.0
 24
0.0
 34
0.0
 15
0.0
 25
0.0
 35
0.0
146
0.0
 13
0.0
 23
0.0
 33
0.0
 16
1.0
 26
0.0
 36
0.0
 17
0.0
 27
1.0
 37
0.0
 76
     0
330
23
  0
LAYOUT
  5
22
102
{ACAD_REACTORS
330
1A
102
}
330
1A
100
AcDbPlotSettings
  1

  2
none_device
  4

  6

 40
0.0
 41
0.0
 42
0.0
 43
0.0
 44
0.0
 45
0.0
 46
0.0
 47
0.0
 48
0.0
 49
0.0
140
0.0
141
0.0
142
1.0
143
1.0
 70
  1712
 72
     0
 73
     0
 74
     0
  7

 75
     0
147
1.0
148
0.0
149
0.0
100
AcDbLayout
  1
Model
 70
     1
 71
     0
 10
0.0
 20
0.0
 11
297.0
 21
210.0
 12
0.0
 22
0.0
 32
0.0
 14
0.0
 24
0.0
 34
0.0
 15
297.0
 25
210.0
 35
0.0
146
0.0
 13
0.0
 23
0.0
 33
0.0
 16
1.0
 26
0.0
 36
0.0
 17
0.0
 27
1.0
 37
0.0
 76
     0
330
1F
331
29
  0
MLINESTYLE
  5
18
102
{ACAD_REACTORS
330
17
102
}
330
17
100
AcDbMlineStyle
  2
Standard
 70
     0
  3

 62
   256
 51
90.0
 52
90.0
 71
     2
 49
0.5
 62
   256
  6
BYLAYER
 49
-0.5
 62
   256
  6
BYLAYER
  0
ACDBPLACEHOLDER
  5
F
102
{ACAD_REACTORS
330
E
102
}
330
E
  0
ENDSEC
  0
EOF
