  0
SECTION
  2
HEADER
  9
$ACADVER
  1
AC1015
  9
$ACADMAINTVER
 70
     6
  9
$DWGCODEPAGE
  3
ANSI_1252
  9
$INSBASE
 10
0.0
 20
0.0
 30
0.0
  9
$EXTMIN
 10
0.0
 20
0.0
 30
0.0
  9
$EXTMAX
 10
297.0
 20
210.0
 30
0.0
  9
$LIMMIN
 10
0.0
 20
0.0
  9
$LIMMAX
 10
297.0
 20
210.0
  9
$ORTHOMODE
 70
     0
  9
$REGENMODE
 70
     1
  9
$FILLMODE
 70
     1
  9
$QTEXTMODE
 70
     0
  9
$MIRRTEXT
 70
     1
  9
$LTSCALE
 40
1.0
  9
$ATTMODE
 70
     1
  9
$TEXTSIZE
 40
2.0
  9
$TRACEWID
 40
1.0
  9
$TEXTSTYLE
  7
Standard
  9
$CLAYER
  8
0
  9
$CELTYPE
  6
ByLayer
  9
$CECOLOR
 62
   256
  9
$CELTSCALE
 40
1.0
  9
$DISPSILH
 70
     0
  9
$DIMSCALE
 40
1.0
  9
$DIMASZ
 40
3.0
  9
$DIMEXO
 40
0.0
  9
$DIMDLI
 40
3.75
  9
$DIMRND
 40
0.0
  9
$DIMDLE
 40
0.0
  9
$DIMEXE
 40
1.0
  9
$DIMTP
 40
0.0
  9
$DIMTM
 40
0.0
  9
$DIMTXT
 40
2.0
  9
$DIMCEN
 40
2.5
  9
$DIMTSZ
 40
0.0
  9
$DIMTOL
 70
     0
  9
$DIMLIM
 70
     0
  9
$DIMTIH
 70
     1
  9
$DIMTOH
 70
     1
  9
$DIMSE1
 70
     0
  9
$DIMSE2
 70
     0
  9
$DIMTAD
 70
     1
  9
$DIMZIN
 70
     0
  9
$DIMBLK
  1

  9
$DIMASO
 70
     1
  9
$DIMSHO
 70
     1
  9
$DIMPOST
  1

  9
$DIMAPOST
  1

  9
$DIMALT
 70
     0
  9
$DIMALTD
 70
     3
  9
$DIMALTF
 40
0.0393700787
  9
$DIMLFAC
 40
1.0
  9
$DIMTOFL
 70
     1
  9
$DIMTVP
 40
0.0
  9
$DIMTIX
 70
     0
  9
$DIMSOXD
 70
     0
  9
$DIMSAH
 70
     0
  9
$DIMBLK1
  1

  9
$DIMBLK2
  1

  9
$DIMSTYLE
  2
ISO-25
  9
$DIMCLRD
 70
     0
  9
$DIMCLRE
 70
     0
  9
$DIMCLRT
 70
     0
  9
$DIMTFAC
 40
1.0
  9
$DIMGAP
 40
1.524
  9
$DIMJUST
 70
     0
  9
$DIMSD1
 70
     0
  9
$DIMSD2
 70
     0
  9
$DIMTOLJ
 70
     0
  9
$DIMTZIN
 70
     0
  9
$DIMALTZ
 70
     0
  9
$DIMALTTZ
 70
     0
  9
$DIMUPT
 70
     0
  9
$DIMDEC
 70
     2
  9
$DIMTDEC
 70
     3
  9
$DIMALTU
 70
     2
  9
$DIMALTTD
 70
     3
  9
$DIMTXSTY
  7
Standard
  9
$DIMAUNIT
 70
     0
  9
$DIMADEC
 70
     2
  9
$DIMALTRND
 40
0.0
  9
$DIMAZIN
 70
     0
  9
$DIMDSEP
 70
    44
  9
$DIMATFIT
 70
     3
  9
$DIMFRAC
 70
     0
  9
$DIMLDRBLK
  1

  9
$DIMLUNIT
 70
     2
  9
$DIMLWD
 70
    -2
  9
$DIMLWE
 70
    -2
  9
$DIMTMOVE
 70
     0
  9
$LUNITS
 70
     2
  9
$LUPREC
 70
     2
  9
$SKETCHINC
 40
1.0
  9
$FILLETRAD
 40
10.0
  9
$AUNITS
 70
     0
  9
$AUPREC
 70
     2
  9
$MENU
  1
.
  9
$ELEVATION
 40
0.0
  9
$PELEVATION
 40
0.0
  9
$THICKNESS
 40
0.0
  9
$LIMCHECK
 70
     0
  9
$CHAMFERA
 40
10.0
  9
$CHAMFERB
 40
10.0
  9
$CHAMFERC
 40
20.0
  9
$CHAMFERD
 40
0.0
  9
$SKPOLY
 70
     0
  9
$TDCREATE
 40
2456085.561738681
  9
$TDUCREATE
 40
2456085.478405347
  9
$TDUPDATE
 40
2456085.561740301
  9
$TDUUPDATE
 40
2456085.478406968
  9
$TDINDWG
 40
0.0000000116
  9
$TDUSRTIMER
 40
0.0000000116
  9
$USRTIMER
 70
     1
  9
$ANGBASE
 50
0.0
  9
$ANGDIR
 70
     0
  9
$PDMODE
 70
     0
  9
$PDSIZE
 40
-1.0
  9
$PLINEWID
 40
0.0
  9
$SPLFRAME
 70
     0
  9
$SPLINETYPE
 70
     6
  9
$SPLINESEGS
 70
     8
  9
$HANDSEED
  5
23B
  9
$SURFTAB1
 70
     6
  9
$SURFTAB2
 70
     6
  9
$SURFTYPE
 70
     6
  9
$SURFU
 70
     6
  9
$SURFV
 70
     6
  9
$UCSBASE
  2

  9
$UCSNAME
  2

  9
$UCSORG
 10
0.0
 20
0.0
 30
0.0
  9
$UCSXDIR
 10
1.0
 20
0.0
 30
0.0
  9
$UCSYDIR
 10
0.0
 20
1.0
 30
0.0
  9
$UCSORTHOREF
  2

  9
$UCSORTHOVIEW
 70
     0
  9
$UCSORGTOP
 10
0.0
 20
0.0
 30
0.0
  9
$UCSORGBOTTOM
 10
0.0
 20
0.0
 30
0.0
  9
$UCSORGLEFT
 10
0.0
 20
0.0
 30
0.0
  9
$UCSORGRIGHT
 10
0.0
 20
0.0
 30
0.0
  9
$UCSORGFRONT
 10
0.0
 20
0.0
 30
0.0
  9
$UCSORGBACK
 10
0.0
 20
0.0
 30
0.0
  9
$PUCSBASE
  2

  9
$PUCSNAME
  2

  9
$PUCSORG
 10
0.0
 20
0.0
 30
0.0
  9
$PUCSXDIR
 10
1.0
 20
0.0
 30
0.0
  9
$PUCSYDIR
 10
0.0
 20
1.0
 30
0.0
  9
$PUCSORTHOREF
  2

  9
$PUCSORTHOVIEW
 70
     0
  9
$PUCSORGTOP
 10
0.0
 20
0.0
 30
0.0
  9
$PUCSORGBOTTOM
 10
0.0
 20
0.0
 30
0.0
  9
$PUCSORGLEFT
 10
0.0
 20
0.0
 30
0.0
  9
$PUCSORGRIGHT
 10
0.0
 20
0.0
 30
0.0
  9
$PUCSORGFRONT
 10
0.0
 20
0.0
 30
0.0
  9
$PUCSORGBACK
 10
0.0
 20
0.0
 30
0.0
  9
$USERI1
 70
     0
  9
$USERI2
 70
     0
  9
$USERI3
 70
     0
  9
$USERI4
 70
     0
  9
$USERI5
 70
     0
  9
$USERR1
 40
0.0
  9
$USERR2
 40
0.0
  9
$USERR3
 40
0.0
  9
$USERR4
 40
0.0
  9
$USERR5
 40
0.0
  9
$WORLDVIEW
 70
     1
  9
$SHADEDGE
 70
     3
  9
$SHADEDIF
 70
    70
  9
$TILEMODE
 70
     1
  9
$MAXACTVP
 70
    64
  9
$PINSBASE
 10
0.0
 20
0.0
 30
0.0
  9
$PLIMCHECK
 70
     0
  9
$PEXTMIN
 10
1.0000000000E+20
 20
1.0000000000E+20
 30
1.0000000000E+20
  9
$PEXTMAX
 10
-1.0000000000E+20
 20
-1.0000000000E+20
 30
-1.0000000000E+20
  9
$PLIMMIN
 10
0.0
 20
0.0
  9
$PLIMMAX
 10
420.0
 20
297.0
  9
$UNITMODE
 70
     0
  9
$VISRETAIN
 70
     1
  9
$PLINEGEN
 70
     0
  9
$PSLTSCALE
 70
     1
  9
$TREEDEPTH
 70
  3020
  9
$CMLSTYLE
  2
Standard
  9
$CMLJUST
 70
     0
  9
$CMLSCALE
 40
20.0
  9
$PROXYGRAPHICS
 70
     1
  9
$MEASUREMENT
 70
     1
  9
$CELWEIGHT
370
    -1
  9
$ENDCAPS
280
     0
  9
$JOINSTYLE
280
     0
  9
$LWDISPLAY
290
     1
  9
$INSUNITS
 70
     4
  9
$HYPERLINKBASE
  1

  9
$STYLESHEET
  1

  9
$XEDIT
290
     1
  9
$CEPSNTYPE
380
     0
  9
$PSTYLEMODE
290
     1
  9
$FINGERPRINTGUID
  2
{E7522F27-09EB-4090-8F5F-9EFDC9163CEC}
  9
$VERSIONGUID
  2
{FAEB1C32-E019-11D5-929B-00C0DF256EC4}
  9
$EXTNAMES
290
     1
  9
$PSVPSCALE
 40
0.0
  9
$OLESTARTUP
290
     0
  0
ENDSEC
  0
SECTION
  2
CLASSES
  0
CLASS
  1
ACDBDICTIONARYWDFLT
  2
AcDbDictionaryWithDefault
  3
ObjectDBX Classes
 90
        0
280
     0
281
     0
  0
CLASS
  1
VISUALSTYLE
  2
AcDbVisualStyle
  3
ObjectDBX Classes
 90
     4095
280
     0
281
     0
  0
CLASS
  1
MATERIAL
  2
AcDbMaterial
  3
ObjectDBX Classes
 90
     1153
280
     0
281
     0
  0
CLASS
  1
ACDBPLACEHOLDER
  2
AcDbPlaceHolder
  3
ObjectDBX Classes
 90
        0
280
     0
281
     0
  0
CLASS
  1
LAYOUT
  2
AcDbLayout
  3
ObjectDBX Classes
 90
        0
280
     0
281
     0
  0
ENDSEC
  0
SECTION
  2
TABLES
  0
TABLE
  2
VPORT
  5
8
330
0
100
AcDbSymbolTable
 70
     1
  0
VPORT
  5
29
330
8
100
AcDbSymbolTableRecord
100
AcDbViewportTableRecord
  2
*Active
 70
     0
 10
0.0
 20
0.0
 11
1.0
 21
1.0
 12
148.5
 22
105.0
 13
0.0
 23
0.0
 14
10.0
 24
10.0
 15
10.0
 25
10.0
 16
0.0
 26
0.0
 36
1.0
 17
0.0
 27
0.0
 37
0.0
 40
210.0
 41
1.4142857143
 42
50.0
 43
0.0
 44
0.0
 50
0.0
 51
0.0
 71
     0
 72
  2000
 73
     1
 74
     3
 75
     0
 76
     0
 77
     0
 78
     0
281
     0
 65
     1
110
0.0
120
0.0
130
0.0
111
1.0
121
0.0
131
0.0
112
0.0
122
1.0
132
0.0
 79
     0
146
0.0
  0
ENDTAB
  0
TABLE
  2
LTYPE
  5
5
330
0
100
AcDbSymbolTable
 70
     6
  0
LTYPE
  5
14
330
5
100
AcDbSymbolTableRecord
100
AcDbLinetypeTableRecord
  2
ByBlock
 70
     0
  3

 72
    65
 73
     0
 40
0.0
  0
LTYPE
  5
15
330
5
100
AcDbSymbolTableRecord
100
AcDbLinetypeTableRecord
  2
ByLayer
 70
     0
  3

 72
    65
 73
     0
 40
0.0
  0
LTYPE
  5
16
330
5
100
AcDbSymbolTableRecord
100
AcDbLinetypeTableRecord
  2
Continuous
 70
     0
  3
Solid line
 72
    65
 73
     0
 40
0.0
  0
LTYPE
  5
3F
330
5
100
AcDbSymbolTableRecord
100
AcDbLinetypeTableRecord
  2
HIDDEN
 70
     0
  3
Hidden __ __ __ __ __ __ __ __ __ __ __ __ __ __
 72
    65
 73
     2
 40
1.905
 49
1.27
 74
     0
 49
-0.635
 74
     0
  0
LTYPE
  5
40
330
5
100
AcDbSymbolTableRecord
100
AcDbLinetypeTableRecord
  2
PHANTOM
 70
     0
  3
Phantom ______  __  __  ______  __  __  ______
 72
    65
 73
     6
 40
12.7
 49
6.35
 74
     0
 49
-1.27
 74
     0
 49
1.27
 74
     0
 49
-1.27
 74
     0
 49
1.27
 74
     0
 49
-1.27
 74
     0
  0
LTYPE
  5
41
330
5
100
AcDbSymbolTableRecord
100
AcDbLinetypeTableRecord
  2
CENTER
 70
     0
  3
Center ____ _ ____ _ ____ _ ____ _ ____ _ ____
 72
    65
 73
     4
 40
10.16
 49
6.35
 74
     0
 49
-1.27
 74
     0
 49
1.27
 74
     0
 49
-1.27
 74
     0
  0
LTYPE
  5
42
330
5
100
AcDbSymbolTableRecord
100
AcDbLinetypeTableRecord
  2
CENTERX2
 70
     0
  3
Center (2x) ________  __  ________  __  _____
 72
    65
 73
     4
 40
20.32
 49
12.7
 74
     0
 49
-2.54
 74
     0
 49
2.54
 74
     0
 49
-2.54
 74
     0
  0
LTYPE
  5
43
330
5
100
AcDbSymbolTableRecord
100
AcDbLinetypeTableRecord
  2
DOT2
 70
     0
  3
Dot (.5x) ........................................
 72
    65
 73
     2
 40
0.635
 49
0.0
 74
     0
 49
-0.635
 74
     0
  0
ENDTAB
  0
TABLE
  2
LAYER
  5
2
330
0
100
AcDbSymbolTable
 70
     5
  0
LAYER
  5
10
330
2
100
AcDbSymbolTableRecord
100
AcDbLayerTableRecord
  2
0
 70
     0
 62
     7
  6
Continuous
370
    -3
390
F
  0
LAYER
  5
44
330
2
100
AcDbSymbolTableRecord
100
AcDbLayerTableRecord
  2
FORMAT
 70
     0
 62
     7
  6
Continuous
370
    -3
390
F
  0
LAYER
  5
45
330
2
100
AcDbSymbolTableRecord
100
AcDbLayerTableRecord
  2
VERMASSUNG
 70
     0
 62
     7
  6
Continuous
370
    -3
390
F
  0
LAYER
  5
46
330
2
100
AcDbSymbolTableRecord
100
AcDbLayerTableRecord
  2
KOPF_DÜNN
 70
     0
 62
     7
  6
Continuous
370
    -3
390
F
  0
LAYER
  5
47
330
2
100
AcDbSymbolTableRecord
100
AcDbLayerTableRecord
  2
KOPF_DICK
 70
     0
 62
     7
  6
Continuous
370
    15
390
F
  0
ENDTAB
  0
TABLE
  2
STYLE
  5
3
330
0
100
AcDbSymbolTable
 70
     2
  0
STYLE
  5
11
330
3
100
AcDbSymbolTableRecord
100
AcDbTextStyleTableRecord
  2
Standard
 70
     0
 40
0.0
 41
1.0
 50
0.0
 71
     0
 42
2.0
  3
txt
  4

  0
STYLE
  5
48
330
3
100
AcDbSymbolTableRecord
100
AcDbTextStyleTableRecord
  2
SLDTEXTSTYLE0
 70
     0
 40
0.0
 41
0.7
 50
0.0
 71
     0
 42
0.2
  3
TXT
  4

  0
ENDTAB
  0
TABLE
  2
VIEW
  5
6
330
0
100
AcDbSymbolTable
 70
     0
  0
ENDTAB
  0
TABLE
  2
UCS
  5
7
330
0
100
AcDbSymbolTable
 70
     0
  0
ENDTAB
  0
TABLE
  2
APPID
  5
9
330
0
100
AcDbSymbolTable
 70
     1
  0
APPID
  5
12
330
9
100
AcDbSymbolTableRecord
100
AcDbRegAppTableRecord
  2
ACAD
 70
     0
  0
ENDTAB
  0
TABLE
  2
DIMSTYLE
  5
A
330
0
100
AcDbSymbolTable
 70
     5
100
AcDbDimStyleTable
  0
DIMSTYLE
105
27
330
A
100
AcDbSymbolTableRecord
100
AcDbDimStyleTableRecord
  2
ISO-25
 70
     0
 41
2.5
 42
0.625
 43
3.75
 44
1.25
 73
     0
 74
     0
 77
     1
 78
     8
140
2.5
141
2.5
143
0.0393700787
147
0.625
171
     3
172
     1
178
     0
271
     2
272
     2
274
     3
278
    44
283
     0
284
     8
340
11
  0
DIMSTYLE
105
1B9
102
{ACAD_REACTORS
330
1B8
330
1C3
330
1CD
330
1E0
330
1EC
102
}
330
A
100
AcDbSymbolTableRecord
100
AcDbDimStyleTableRecord
  2
SLDDIMSTYLE0
 70
     0
 41
3.0
 44
0.0
 45
0.000000001
 73
     0
 74
     0
 77
     1
 78
    12
 79
     3
140
2.0
147
0.5
173
     1
178
     0
271
     2
272
     3
276
     2
284
    12
340
48
  0
DIMSTYLE
105
1D8
102
{ACAD_REACTORS
330
1D7
102
}
330
A
100
AcDbSymbolTableRecord
100
AcDbDimStyleTableRecord
  2
SLDDIMSTYLE1
 70
     0
 41
3.0
 44
0.0
 73
     0
 74
     0
 77
     1
 78
    12
 79
     3
140
2.0
147
0.5
173
     1
178
     0
179
     1
272
     3
276
     2
284
    12
340
48
  0
DIMSTYLE
105
213
102
{ACAD_REACTORS
330
212
102
}
330
A
100
AcDbSymbolTableRecord
100
AcDbDimStyleTableRecord
  2
SLDDIMSTYLE2
 70
     0
 41
3.0
 44
0.0
 45
0.000000001
 73
     0
 74
     0
 77
     1
 78
    12
 79
     3
140
2.0
147
0.5
172
     1
173
     1
178
     0
271
     2
272
     3
276
     2
284
    12
289
     0
340
48
  0
DIMSTYLE
105
222
102
{ACAD_REACTORS
330
221
102
}
330
A
100
AcDbSymbolTableRecord
100
AcDbDimStyleTableRecord
  2
SLDDIMSTYLE3
 70
     0
 41
3.0
 44
0.0
 73
     0
 74
     0
 77
     1
 78
    12
 79
     3
140
2.0
147
0.5
173
     1
178
     0
179
     2
272
     3
276
     2
284
    12
340
48
  0
ENDTAB
  0
TABLE
  2
BLOCK_RECORD
  5
1
330
0
100
AcDbSymbolTable
 70
    10
  0
BLOCK_RECORD
  5
1F
330
1
100
AcDbSymbolTableRecord
100
AcDbBlockTableRecord
  2
*Model_Space
340
22
  0
BLOCK_RECORD
  5
1B
330
1
100
AcDbSymbolTableRecord
100
AcDbBlockTableRecord
  2
*Paper_Space
340
1E
  0
BLOCK_RECORD
  5
23
330
1
100
AcDbSymbolTableRecord
100
AcDbBlockTableRecord
  2
*Paper_Space0
340
26
  0
BLOCK_RECORD
  5
1BA
330
1
100
AcDbSymbolTableRecord
100
AcDbBlockTableRecord
  2
_D
340
0
  0
BLOCK_RECORD
  5
1C4
330
1
100
AcDbSymbolTableRecord
100
AcDbBlockTableRecord
  2
_D_1
340
0
  0
BLOCK_RECORD
  5
1CE
330
1
100
AcDbSymbolTableRecord
100
AcDbBlockTableRecord
  2
_D_2
340
0
  0
BLOCK_RECORD
  5
1D9
330
1
100
AcDbSymbolTableRecord
100
AcDbBlockTableRecord
  2
_D_3
340
0
  0
BLOCK_RECORD
  5
1E1
330
1
100
AcDbSymbolTableRecord
100
AcDbBlockTableRecord
  2
_D_4
340
0
  0
BLOCK_RECORD
  5
1ED
330
1
100
AcDbSymbolTableRecord
100
AcDbBlockTableRecord
  2
_D_5
340
0
  0
BLOCK_RECORD
  5
214
330
1
100
AcDbSymbolTableRecord
100
AcDbBlockTableRecord
  2
_D_6
340
0
  0
BLOCK_RECORD
  5
223
330
1
100
AcDbSymbolTableRecord
100
AcDbBlockTableRecord
  2
_D_7
340
0
  0
BLOCK_RECORD
  5
22E
330
1
100
AcDbSymbolTableRecord
100
AcDbBlockTableRecord
  2
SW_CENTERMARKSYMBOL_0
340
0
102
{BLKREFS
331
239
102
}
  0
ENDTAB
  0
ENDSEC
  0
SECTION
  2
BLOCKS
  0
BLOCK
  5
20
330
1F
100
AcDbEntity
  8
0
100
AcDbBlockBegin
  2
*Model_Space
 70
     0
 10
0.0
 20
0.0
 30
0.0
  3
*Model_Space
  1

  0
ENDBLK
  5
21
330
1F
100
AcDbEntity
  8
0
100
AcDbBlockEnd
  0
BLOCK
  5
1C
330
1B
100
AcDbEntity
 67
     1
  8
0
100
AcDbBlockBegin
  2
*Paper_Space
 70
     0
 10
0.0
 20
0.0
 30
0.0
  3
*Paper_Space
  1

  0
ENDBLK
  5
1D
330
1B
100
AcDbEntity
 67
     1
  8
0
100
AcDbBlockEnd
  0
BLOCK
  5
24
330
23
100
AcDbEntity
  8
0
100
AcDbBlockBegin
  2
*Paper_Space0
 70
     0
 10
0.0
 20
0.0
 30
0.0
  3
*Paper_Space0
  1

  0
ENDBLK
  5
25
330
23
100
AcDbEntity
  8
0
100
AcDbBlockEnd
  0
BLOCK
  5
1BB
330
1BA
100
AcDbEntity
  8
0
100
AcDbBlockBegin
  2
_D
 70
     0
 10
0.0
 20
0.0
 30
0.0
  3
_D
  1

  0
SOLID
  5
1BD
330
1BA
100
AcDbEntity
  8
VERMASSUNG
100
AcDbTrace
 10
149.636559524
 20
135.810477768
 30
0.0
 11
152.636559524
 21
135.360477768
 31
0.0
 12
152.636559524
 22
136.260477768
 32
0.0
 13
152.636559524
 23
136.260477768
 33
0.0
  0
SOLID
  5
1BE
330
1BA
100
AcDbEntity
  8
VERMASSUNG
100
AcDbTrace
 10
259.636559524
 20
135.810477768
 30
0.0
 11
256.636559524
 21
136.260477768
 31
0.0
 12
256.636559524
 22
135.360477768
 32
0.0
 13
256.636559524
 23
135.360477768
 33
0.0
  0
LINE
  5
1BF
330
1BA
100
AcDbEntity
  8
VERMASSUNG
100
AcDbLine
 10
149.636559524
 20
127.8141502601
 30
0.0
 11
149.636559524
 21
136.810477768
 31
0.0
  0
LINE
  5
1C0
330
1BA
100
AcDbEntity
  8
VERMASSUNG
100
AcDbLine
 10
259.636559524
 20
130.1141502601
 30
0.0
 11
259.636559524
 21
136.810477768
 31
0.0
  0
LINE
  5
1C1
330
1BA
100
AcDbEntity
  8
VERMASSUNG
100
AcDbLine
 10
149.636559524
 20
135.810477768
 30
0.0
 11
259.636559524
 21
135.810477768
 31
0.0
  0
MTEXT
  5
1C2
330
1BA
100
AcDbEntity
  8
VERMASSUNG
100
AcDbMText
 10
202.0365592841
 20
138.3886131311
 30
0.1
 40
2.0
 41
0.0
 71
     1
 72
     1
  1
110
  7
SLDTEXTSTYLE0
 73
     1
 44
1.0
  0
ENDBLK
  5
1BC
330
1BA
100
AcDbEntity
  8
0
100
AcDbBlockEnd
  0
BLOCK
  5
1C5
330
1C4
100
AcDbEntity
  8
0
100
AcDbBlockBegin
  2
_D_1
 70
     0
 10
0.0
 20
0.0
 30
0.0
  3
_D_1
  1

  0
SOLID
  5
1C7
330
1C4
100
AcDbEntity
  8
VERMASSUNG
100
AcDbTrace
 10
259.636559524
 20
142.9193367695
 30
0.0
 11
256.636559524
 21
143.3693367695
 31
0.0
 12
256.636559524
 22
142.4693367695
 32
0.0
 13
256.636559524
 23
142.4693367695
 33
0.0
  0
SOLID
  5
1C8
330
1C4
100
AcDbEntity
  8
VERMASSUNG
100
AcDbTrace
 10
125.636559524
 20
142.9193367695
 30
0.0
 11
128.636559524
 21
142.4693367695
 31
0.0
 12
128.636559524
 22
143.3693367695
 32
0.0
 13
128.636559524
 23
143.3693367695
 33
0.0
  0
LINE
  5
1C9
330
1C4
100
AcDbEntity
  8
VERMASSUNG
100
AcDbLine
 10
259.636559524
 20
130.1141502601
 30
0.0
 11
259.636559524
 21
143.9193367695
 31
0.0
  0
LINE
  5
1CA
330
1C4
100
AcDbEntity
  8
VERMASSUNG
100
AcDbLine
 10
125.636559524
 20
120.7456552422
 30
0.0
 11
125.636559524
 21
143.9193367695
 31
0.0
  0
LINE
  5
1CB
330
1C4
100
AcDbEntity
  8
VERMASSUNG
100
AcDbLine
 10
259.636559524
 20
142.9193367695
 30
0.0
 11
125.636559524
 21
142.9193367695
 31
0.0
  0
MTEXT
  5
1CC
330
1C4
100
AcDbEntity
  8
VERMASSUNG
100
AcDbMText
 10
189.736559328
 20
145.4974721326
 30
0.1
 40
2.0
 41
0.0
 71
     1
 72
     1
  1
134
  7
SLDTEXTSTYLE0
 73
     1
 44
1.0
  0
ENDBLK
  5
1C6
330
1C4
100
AcDbEntity
  8
0
100
AcDbBlockEnd
  0
BLOCK
  5
1CF
330
1CE
100
AcDbEntity
  8
0
100
AcDbBlockBegin
  2
_D_2
 70
     0
 10
0.0
 20
0.0
 30
0.0
  3
_D_2
  1

  0
SOLID
  5
1D1
330
1CE
100
AcDbEntity
  8
VERMASSUNG
100
AcDbTrace
 10
273.0797513372
 20
130.1141502601
 30
0.0
 11
272.6297513372
 21
127.1141502601
 31
0.0
 12
273.5297513372
 22
127.1141502601
 32
0.0
 13
273.5297513372
 23
127.1141502601
 33
0.0
  0
SOLID
  5
1D2
330
1CE
100
AcDbEntity
  8
VERMASSUNG
100
AcDbTrace
 10
273.0797513372
 20
108.1141502601
 30
0.0
 11
273.5297513372
 21
111.1141502601
 31
0.0
 12
272.6297513372
 22
111.1141502601
 32
0.0
 13
272.6297513372
 23
111.1141502601
 33
0.0
  0
LINE
  5
1D3
330
1CE
100
AcDbEntity
  8
VERMASSUNG
100
AcDbLine
 10
259.636559524
 20
130.1141502601
 30
0.0
 11
274.0797513372
 21
130.1141502601
 31
0.0
  0
LINE
  5
1D4
330
1CE
100
AcDbEntity
  8
VERMASSUNG
100
AcDbLine
 10
259.636559524
 20
108.1141502601
 30
0.0
 11
274.0797513372
 21
108.1141502601
 31
0.0
  0
LINE
  5
1D5
330
1CE
100
AcDbEntity
  8
VERMASSUNG
100
AcDbLine
 10
273.0797513372
 20
130.1141502601
 30
0.0
 11
273.0797513372
 21
108.1141502601
 31
0.0
  0
MTEXT
  5
1D6
330
1CE
100
AcDbEntity
  8
VERMASSUNG
100
AcDbMText
 10
270.5016159741
 20
116.8141502091
 30
0.1
 40
2.0
 41
0.0
 71
     1
 72
     1
  1
22
  7
SLDTEXTSTYLE0
 11
-7.044195017643634E-15
 21
1.0
 31
0.0
 73
     1
 44
1.0
  0
ENDBLK
  5
1D0
330
1CE
100
AcDbEntity
  8
0
100
AcDbBlockEnd
  0
BLOCK
  5
1DA
330
1D9
100
AcDbEntity
  8
0
100
AcDbBlockBegin
  2
_D_3
 70
     0
 10
0.0
 20
0.0
 30
0.0
  3
_D_3
  1

  0
ARC
  5
1DC
330
1D9
100
AcDbEntity
  8
VERMASSUNG
100
AcDbCircle
 10
259.7820906896
 20
130.1141502601
 30
0.0
 40
9.343654952960492
100
AcDbArc
 50
252.4598841946
 51
0.0
  0
SOLID
  5
1DD
330
1D9
100
AcDbEntity
  8
VERMASSUNG
100
AcDbTrace
 10
256.966160942
 20
121.204917547
 30
0.0
 11
259.864516352
 21
120.309352967
 31
0.0
 12
259.9997177022
 22
121.1991397925
 32
0.0
 13
259.9997177022
 23
121.1991397925
 33
0.0
  0
SOLID
  5
1DE
330
1D9
100
AcDbEntity
  8
VERMASSUNG
100
AcDbTrace
 10
269.1257456425
 20
130.1141502601
 30
0.0
 11
268.2170212295
 21
127.2198938891
 31
0.0
 12
269.1061845643
 22
127.0806510654
 32
0.0
 13
269.1061845643
 23
127.0806510654
 33
0.0
  0
MTEXT
  5
1DF
330
1D9
100
AcDbEntity
  8
VERMASSUNG
100
AcDbMText
 10
260.2314305934
 20
122.056213256
 30
0.1
 40
2.0
 41
0.0
 71
     1
 72
     1
  1
107.5°
  7
SLDTEXTSTYLE0
 11
0.8066515584257096
 21
0.5910272948767883
 31
0.0
 73
     1
 44
1.0
  0
ENDBLK
  5
1DB
330
1D9
100
AcDbEntity
  8
0
100
AcDbBlockEnd
  0
BLOCK
  5
1E2
330
1E1
100
AcDbEntity
  8
0
100
AcDbBlockBegin
  2
_D_4
 70
     0
 10
0.0
 20
0.0
 30
0.0
  3
_D_4
  1

  0
SOLID
  5
1E4
330
1E1
100
AcDbEntity
  8
VERMASSUNG
100
AcDbTrace
 10
115.636509524
 20
128.1141502601
 30
0.0
 11
115.186509524
 21
125.1141502601
 31
0.0
 12
116.086509524
 22
125.1141502601
 32
0.0
 13
116.086509524
 23
125.1141502601
 33
0.0
  0
SOLID
  5
1E5
330
1E1
100
AcDbEntity
  8
VERMASSUNG
100
AcDbTrace
 10
115.636509524
 20
88.1141502601
 30
0.0
 11
116.086509524
 21
91.1141502601
 31
0.0
 12
115.186509524
 22
91.1141502601
 32
0.0
 13
115.186509524
 23
91.1141502601
 33
0.0
  0
LINE
  5
1E6
330
1E1
100
AcDbEntity
  8
VERMASSUNG
100
AcDbLine
 10
149.936559524
 20
128.1141502601
 30
0.0
 11
114.636509524
 21
128.1141502601
 31
0.0
  0
LINE
  5
1E7
330
1E1
100
AcDbEntity
  8
VERMASSUNG
100
AcDbLine
 10
149.936559524
 20
88.1141502601
 30
0.0
 11
114.636509524
 21
88.1141502601
 31
0.0
  0
LINE
  5
1E8
330
1E1
100
AcDbEntity
  8
VERMASSUNG
100
AcDbLine
 10
115.636509524
 20
128.1141502601
 30
0.0
 11
115.636509524
 21
88.1141502601
 31
0.0
  0
MTEXT
  5
1E9
330
1E1
100
AcDbEntity
  8
VERMASSUNG
100
AcDbMText
 10
112.8583740349
 20
101.6091503207
 30
0.1
 40
2.0
 41
0.0
 71
     1
 72
     1
  1
PSC
  7
SLDTEXTSTYLE0
 11
-7.044195017643634E-15
 21
1.0
 31
0.0
 73
     1
 44
1.0
  0
MTEXT
  5
1EA
330
1E1
100
AcDbEntity
  8
VERMASSUNG
100
AcDbMText
 10
113.0583740444
 20
106.2091504228
 30
0.1
 40
2.0
 41
0.0
 71
     1
 72
     1
  1
%%c
  7
SLDTEXTSTYLE0
 11
-7.044195017643634E-15
 21
1.0
 31
0.0
 73
     1
 44
1.0
  0
MTEXT
  5
1EB
330
1E1
100
AcDbEntity
  8
VERMASSUNG
100
AcDbMText
 10
112.8583740349
 20
109.8191509028
 30
0.1
 40
2.0
 41
0.0
 71
     1
 72
     1
  1
40
  7
SLDTEXTSTYLE0
 11
-7.044195017643634E-15
 21
1.0
 31
0.0
 73
     1
 44
1.0
  0
ENDBLK
  5
1E3
330
1E1
100
AcDbEntity
  8
0
100
AcDbBlockEnd
  0
BLOCK
  5
1EE
330
1ED
100
AcDbEntity
  8
0
100
AcDbBlockBegin
  2
_D_5
 70
     0
 10
0.0
 20
0.0
 30
0.0
  3
_D_5
  1

  0
SOLID
  5
1F0
330
1ED
100
AcDbEntity
  8
VERMASSUNG
100
AcDbTrace
 10
185.6988688719
 20
124.1141502601
 30
0.0
 11
185.2488688719
 21
121.1141502601
 31
0.0
 12
186.1488688719
 22
121.1141502601
 32
0.0
 13
186.1488688719
 23
121.1141502601
 33
0.0
  0
SOLID
  5
1F1
330
1ED
100
AcDbEntity
  8
VERMASSUNG
100
AcDbTrace
 10
185.6988688719
 20
92.1141502601
 30
0.0
 11
186.1488688719
 21
95.1141502601
 31
0.0
 12
185.2488688719
 22
95.1141502601
 32
0.0
 13
185.2488688719
 23
95.1141502601
 33
0.0
  0
LINE
  5
1F2
330
1ED
100
AcDbEntity
  8
VERMASSUNG
100
AcDbLine
 10
185.6988688719
 20
124.1141502601
 30
0.0
 11
185.6988688719
 21
92.1141502601
 31
0.0
  0
MTEXT
  5
1F3
330
1ED
100
AcDbEntity
  8
VERMASSUNG
100
AcDbMText
 10
183.1207333924
 20
112.467095226
 30
0.1
 40
2.0
 41
0.0
 71
     1
 72
     1
  1
%%c
  7
SLDTEXTSTYLE0
 11
-7.044195017643634E-15
 21
1.0
 31
0.0
 73
     1
 44
1.0
  0
MTEXT
  5
1F4
330
1ED
100
AcDbEntity
  8
VERMASSUNG
100
AcDbMText
 10
182.9207333829
 20
116.0770952403
 30
0.1
 40
2.0
 41
0.0
 71
     1
 72
     1
  1
32
  7
SLDTEXTSTYLE0
 11
-7.044195017643634E-15
 21
1.0
 31
0.0
 73
     1
 44
1.0
  0
ENDBLK
  5
1EF
330
1ED
100
AcDbEntity
  8
0
100
AcDbBlockEnd
  0
BLOCK
  5
215
330
214
100
AcDbEntity
  8
0
100
AcDbBlockBegin
  2
_D_6
 70
     0
 10
0.0
 20
0.0
 30
0.0
  3
_D_6
  1

  0
SOLID
  5
217
330
214
100
AcDbEntity
  8
VERMASSUNG
100
AcDbTrace
 10
78.8850731141
 20
92.6242916126
 30
0.0
 11
79.9953616824
 21
89.8012154012
 31
0.0
 12
80.7747845458
 22
90.2512154012
 32
0.0
 13
80.7747845458
 23
90.2512154012
 33
0.0
  0
SOLID
  5
218
330
214
100
AcDbEntity
  8
VERMASSUNG
100
AcDbTrace
 10
58.8850731141
 20
127.265307764
 30
0.0
 11
57.7747845458
 21
130.0883839753
 31
0.0
 12
56.9953616824
 22
129.6383839753
 32
0.0
 13
56.9953616824
 23
129.6383839753
 33
0.0
  0
LINE
  5
219
330
214
100
AcDbEntity
  8
VERMASSUNG
100
AcDbLine
 10
78.8850731141
 20
92.6242916126
 30
0.0
 11
78.0190477103
 21
92.1242916126
 31
0.0
  0
LINE
  5
21A
330
214
100
AcDbEntity
  8
VERMASSUNG
100
AcDbLine
 10
58.8850731141
 20
127.265307764
 30
0.0
 11
58.0190477103
 21
126.765307764
 31
0.0
  0
LINE
  5
21B
330
214
100
AcDbEntity
  8
VERMASSUNG
100
AcDbLine
 10
78.8850731141
 20
92.6242916126
 30
0.0
 11
81.8850731141
 21
87.4281391899
 31
0.0
  0
LINE
  5
21C
330
214
100
AcDbEntity
  8
VERMASSUNG
100
AcDbLine
 10
78.8850731141
 20
92.6242916126
 30
0.0
 11
58.8850731141
 21
127.265307764
 31
0.0
  0
LINE
  5
21D
330
214
100
AcDbEntity
  8
VERMASSUNG
100
AcDbLine
 10
58.8850731141
 20
127.265307764
 30
0.0
 11
50.6746866962
 21
141.4861141895
 31
0.0
  0
MTEXT
  5
21E
330
214
100
AcDbEntity
  8
VERMASSUNG
100
AcDbMText
 10
52.9074175159
 20
142.7751819293
 30
0.1
 40
2.0
 41
0.0
 71
     1
 72
     1
  1
%%c
  7
SLDTEXTSTYLE0
 11
0.4999999999999972
 21
-0.8660254037844403
 31
0.0
 73
     1
 44
1.0
  0
MTEXT
  5
21F
330
214
100
AcDbEntity
  8
VERMASSUNG
100
AcDbMText
 10
54.885622612
 20
139.748830214
 30
0.1
 40
2.0
 41
0.0
 71
     1
 72
     1
  1
40
  7
SLDTEXTSTYLE0
 11
0.4999999999999972
 21
-0.8660254037844403
 31
0.0
 73
     1
 44
1.0
  0
MTEXT
  5
220
330
214
100
AcDbEntity
  8
VERMASSUNG
100
AcDbMText
 10
57.879372726
 20
134.5635029114
 30
0.1
 40
2.0
 41
0.0
 71
     1
 72
     1
  1
min.
  7
SLDTEXTSTYLE0
 11
0.4999999999999972
 21
-0.8660254037844403
 31
0.0
 73
     1
 44
1.0
  0
ENDBLK
  5
216
330
214
100
AcDbEntity
  8
0
100
AcDbBlockEnd
  0
BLOCK
  5
224
330
223
100
AcDbEntity
  8
0
100
AcDbBlockBegin
  2
_D_7
 70
     0
 10
0.0
 20
0.0
 30
0.0
  3
_D_7
  1

  0
ARC
  5
226
330
223
100
AcDbEntity
  8
VERMASSUNG
100
AcDbCircle
 10
68.8850731141
 20
125.8134741522
 30
0.0
 40
46.1759961698852
100
AcDbArc
 50
266.0
 51
270.0
  0
ARC
  5
227
330
223
100
AcDbEntity
  8
VERMASSUNG
100
AcDbCircle
 10
68.8850731141
 20
125.8134741522
 30
0.0
 40
46.17599616988521
100
AcDbArc
 50
253.9346451829
 51
266.0
  0
ARC
  5
228
330
223
100
AcDbEntity
  8
VERMASSUNG
100
AcDbCircle
 10
68.8850731141
 20
125.8134741522
 30
0.0
 40
46.1759961698852
100
AcDbArc
 50
270.0
 51
277.4305134053
  0
SOLID
  5
229
330
223
100
AcDbEntity
  8
VERMASSUNG
100
AcDbTrace
 10
65.6639984496
 20
79.7499603882
 30
0.0
 11
62.7256012499
 21
80.5038316616
 31
0.0
 12
62.6337347384
 22
79.608532525
 32
0.0
 13
62.6337347384
 23
79.608532525
 33
0.0
  0
SOLID
  5
22A
330
223
100
AcDbEntity
  8
VERMASSUNG
100
AcDbTrace
 10
68.8850731141
 20
79.6374779824
 30
0.0
 11
71.8980897462
 21
79.2850141193
 31
0.0
 12
71.8688999276
 22
80.1845406361
 32
0.0
 13
71.8688999276
 23
80.1845406361
 33
0.0
  0
LINE
  5
22B
330
223
100
AcDbEntity
  8
VERMASSUNG
100
AcDbLine
 10
66.5056831283
 20
91.7866120716
 30
0.0
 11
65.5942419759
 21
78.752396338
 31
0.0
  0
LINE
  5
22C
330
223
100
AcDbEntity
  8
VERMASSUNG
100
AcDbLine
 10
68.8850731141
 20
85.6141502601
 30
0.0
 11
68.8850731141
 21
78.6374779824
 31
0.0
  0
MTEXT
  5
22D
330
223
100
AcDbEntity
  8
VERMASSUNG
100
AcDbMText
 10
56.6801054214
 20
83.8956708847
 30
-42.9737959269
 40
2.0
 41
0.0
 71
     1
 72
     1
  1
4°
  7
SLDTEXTSTYLE0
 11
0.973523710239336
 21
-0.2285860573216078
 31
0.0
 73
     1
 44
1.0
  0
ENDBLK
  5
225
330
223
100
AcDbEntity
  8
0
100
AcDbBlockEnd
  0
BLOCK
  5
22F
330
22E
100
AcDbEntity
  8
0
100
AcDbBlockBegin
  2
SW_CENTERMARKSYMBOL_0
 70
     0
 10
0.0
 20
0.0
 30
0.0
  3
SW_CENTERMARKSYMBOL_0
  1

  0
LINE
  5
231
330
22E
100
AcDbEntity
  8
VERMASSUNG
 62
     0
100
AcDbLine
 10
0.0
 20
0.0
 30
0.0
 11
0.0
 21
2.5
 31
0.0
  0
LINE
  5
232
330
22E
100
AcDbEntity
  8
VERMASSUNG
 62
     0
100
AcDbLine
 10
0.0
 20
0.0
 30
0.0
 11
-2.5
 21
0.0
 31
0.0
  0
LINE
  5
233
330
22E
100
AcDbEntity
  8
VERMASSUNG
 62
     0
100
AcDbLine
 10
0.0
 20
0.0
 30
0.0
 11
0.0
 21
-2.5
 31
0.0
  0
LINE
  5
234
330
22E
100
AcDbEntity
  8
VERMASSUNG
 62
     0
100
AcDbLine
 10
0.0
 20
0.0
 30
0.0
 11
2.5
 21
0.0
 31
0.0
  0
LINE
  5
235
330
22E
100
AcDbEntity
  8
VERMASSUNG
 62
     0
100
AcDbLine
 10
0.0
 20
5.0
 30
0.0
 11
0.0
 21
22.5
 31
0.0
  0
LINE
  5
236
330
22E
100
AcDbEntity
  8
VERMASSUNG
 62
     0
100
AcDbLine
 10
-5.0
 20
0.0
 30
0.0
 11
-22.5
 21
0.0
 31
0.0
  0
LINE
  5
237
330
22E
100
AcDbEntity
  8
VERMASSUNG
 62
     0
100
AcDbLine
 10
0.0
 20
-5.0
 30
0.0
 11
0.0
 21
-22.5
 31
0.0
  0
LINE
  5
238
330
22E
100
AcDbEntity
  8
VERMASSUNG
 62
     0
100
AcDbLine
 10
5.0
 20
0.0
 30
0.0
 11
22.5
 21
0.0
 31
0.0
  0
ENDBLK
  5
230
330
22E
100
AcDbEntity
  8
0
100
AcDbBlockEnd
  0
ENDSEC
  0
SECTION
  2
ENTITIES
  0
MTEXT
  5
49
330
1F
100
AcDbEntity
  8
KOPF_DÜNN
100
AcDbMText
 10
13.8892156294
 20
23.8442973028
 30
0.0
 40
3.0
 41
0.0
 71
     1
 72
     1
  1
PS4.BDB.RQB.110
  7
SLDTEXTSTYLE0
 73
     1
 44
1.0
  0
MTEXT
  5
4A
330
1F
100
AcDbEntity
  8
VERMASSUNG
100
AcDbMText
 10
13.9329988022
 20
28.8834360957
 30
0.0
 40
3.0
 41
0.0
 71
     1
 72
     1
  1
Bohrstange rechts_Boring bar right
  7
SLDTEXTSTYLE0
 73
     1
 44
1.0
  0
MTEXT
  5
4B
330
1F
100
AcDbEntity
  8
VERMASSUNG
100
AcDbMText
 10
98.8601118557
 20
13.8365368179
 30
0.0
 40
2.0
 41
0.0
 71
     1
 72
     1
  1
Datum: 06.06.2012
  7
SLDTEXTSTYLE0
 73
     1
 44
1.0
  0
MTEXT
  5
4C
330
1F
100
AcDbEntity
  8
VERMASSUNG
100
AcDbMText
 10
13.933048693
 20
18.0482802738
 30
0.0
 40
2.0
 41
0.0
 71
     1
 72
     1
  1
PSC ø40 / Wp.: DC..11 T3..
  7
SLDTEXTSTYLE0
 73
     1
 44
1.0
  0
MTEXT
  5
4D
330
1F
100
AcDbEntity
  8
VERMASSUNG
100
AcDbMText
 10
13.9808475933
 20
13.9090973692
 30
0.0
 40
2.0
 41
0.0
 71
     1
 72
     1
  1
Gewicht: 682g
  7
SLDTEXTSTYLE0
 73
     1
 44
1.0
  0
ARC
  5
4E
330
1F
100
AcDbEntity
  8
0
  6
Continuous
 62
     7
370
    15
100
AcDbCircle
 10
169.036559524
 20
88.7141502601
 30
0.0
 40
0.6000000000000227
100
AcDbArc
 50
270.0
 51
0.0
  0
ARC
  5
4F
330
1F
100
AcDbEntity
  8
0
  6
Continuous
 62
     7
370
    15
100
AcDbCircle
 10
169.036559524
 20
127.5141502601
 30
0.0
 40
0.6000000000000227
100
AcDbArc
 50
0.0
 51
90.0
  0
LINE
  5
50
330
1F
100
AcDbEntity
  8
0
  6
Continuous
 62
     7
370
    15
100
AcDbLine
 10
149.9365595382
 20
88.1141507071
 30
0.0
 11
169.0365600962
 21
88.1141507071
 31
0.0
  0
LINE
  5
51
330
1F
100
AcDbEntity
  8
0
  6
Continuous
 62
     7
370
    15
100
AcDbLine
 10
169.0365600962
 20
128.1141498131
 30
0.0
 11
149.9365595382
 21
128.1141498131
 31
0.0
  0
ARC
  5
52
330
1F
100
AcDbEntity
  8
0
  6
Continuous
 62
     7
370
    15
100
AcDbCircle
 10
149.936559524
 20
88.4141502601
 30
0.0
 40
0.3000000000000256
100
AcDbArc
 50
180.0
 51
270.0
  0
ARC
  5
53
330
1F
100
AcDbEntity
  8
0
  6
Continuous
 62
     7
370
    15
100
AcDbCircle
 10
149.936559524
 20
127.8141502601
 30
0.0
 40
0.3000000000000114
100
AcDbArc
 50
90.0
 51
180.0
  0
ARC
  5
54
330
1F
100
AcDbEntity
  8
0
  6
Continuous
 62
     7
370
    15
100
AcDbCircle
 10
171.636559524
 20
90.1141502601
 30
0.0
 40
2.0
100
AcDbArc
 50
90.0
 51
180.0
  0
ARC
  5
55
330
1F
100
AcDbEntity
  8
0
  6
Continuous
 62
     7
370
    15
100
AcDbCircle
 10
171.636559524
 20
126.1141502601
 30
0.0
 40
2.0
100
AcDbArc
 50
180.0
 51
270.0
  0
LINE
  5
56
330
1F
100
AcDbEntity
  8
0
  6
Continuous
 62
     7
370
    15
100
AcDbLine
 10
233.2223433632
 20
124.1141510201
 30
0.0
 11
171.6365594048
 21
124.1141510201
 31
0.0
  0
LINE
  5
57
330
1F
100
AcDbEntity
  8
0
  6
Continuous
 62
     7
370
    15
100
AcDbLine
 10
171.6365594048
 20
92.1141495001
 30
0.0
 11
233.2223433632
 21
92.1141495001
 31
0.0
  0
LWPOLYLINE
  5
58
330
1F
100
AcDbEntity
  8
0
  6
Continuous
 62
     7
370
    15
100
AcDbPolyline
 90
        3
 70
   128
 43
0.0
 10
149.436559529
 20
94.0243302849
 10
149.5620144642
 20
93.9560280186
 10
149.636559524
 20
93.9032900152
  0
LWPOLYLINE
  5
59
330
1F
100
AcDbEntity
  8
0
  6
Continuous
 62
     7
370
    15
100
AcDbPolyline
 90
        3
 70
   128
 43
0.0
 10
149.636559524
 20
122.325010505
 10
149.5620144642
 20
122.2722725016
 10
149.436559529
 20
122.2039702353
  0
ARC
  5
5A
330
1F
100
AcDbEntity
  8
0
  6
Continuous
 62
     7
370
    15
100
AcDbCircle
 10
233.2223459616
 20
91.1141502601
 30
0.0
 40
1.000000000000008
100
AcDbArc
 50
45.0
 51
90.0
  0
LINE
  5
5B
330
1F
100
AcDbEntity
  8
0
  6
Continuous
 62
     7
370
    15
100
AcDbLine
 10
234.1365594048
 20
91.6141503495
 30
0.0
 11
247.2606751699
 21
91.6141503495
 31
0.0
  0
LINE
  5
5C
330
1F
100
AcDbEntity
  8
0
  6
Continuous
 62
     7
370
    15
100
AcDbLine
 10
234.4474870342
 20
124.9250796628
 30
0.0
 11
233.9294556159
 21
124.4070426565
 31
0.0
  0
LINE
  5
5D
330
1F
100
AcDbEntity
  8
0
  6
Continuous
 62
     7
370
    15
100
AcDbLine
 10
233.9294556159
 20
91.8212578636
 30
0.0
 11
234.1365594048
 21
91.6141503495
 31
0.0
  0
LINE
  5
5E
330
1F
100
AcDbEntity
  8
0
  6
Continuous
 62
     7
370
    15
100
AcDbLine
 10
251.2599680204
 20
122.8131874469
 30
0.0
 11
251.2599680204
 21
122.9052281943
 31
0.0
  0
LINE
  5
5F
330
1F
100
AcDbEntity
  8
0
  6
Continuous
 62
     7
370
    15
100
AcDbLine
 10
253.6732036251
 20
122.9999902663
 30
0.0
 11
253.6732036251
 21
122.9079206479
 31
0.0
  0
LINE
  5
60
330
1F
100
AcDbEntity
  8
0
  6
Continuous
 62
     7
370
    15
100
AcDbLine
 10
249.8402747888
 20
122.9411241603
 30
0.0
 11
249.8402747888
 21
122.8905812842
 31
0.0
  0
LINE
  5
61
330
1F
100
AcDbEntity
  8
0
  6
Continuous
 62
     7
370
    15
100
AcDbLine
 10
255.0902817029
 20
122.8905812842
 30
0.0
 11
255.0902817029
 21
122.9411241603
 31
0.0
  0
LINE
  5
62
330
1F
100
AcDbEntity
  8
0
  6
Continuous
 62
     7
370
    15
100
AcDbLine
 10
169.6365590769
 20
88.7141496879
 30
0.0
 11
169.6365590769
 21
127.5141508323
 31
0.0
  0
SPLINE
  5
63
330
1F
100
AcDbEntity
  8
0
  6
Continuous
 62
     7
370
    15
100
AcDbSpline
210
0.0
220
0.0
230
1.0
 70
     8
 71
     3
 72
    12
 73
     8
 74
     0
 42
0.00000001
 43
0.00000001
 12
1.0
 22
0.0
 32
0.0
 13
1.0
 23
0.0
 33
0.0
 40
0.0
 40
0.0
 40
0.0
 40
0.0
 40
0.2500000000000014
 40
0.2500000000000014
 40
0.5000000000000029
 40
0.5000000000000029
 40
1.0
 40
1.0
 40
1.0
 40
1.0
 10
156.568461525984
 20
113.9433632557471
 30
0.0
 10
156.5309496399393
 20
113.9433632557471
 30
0.0
 10
156.4956622922346
 20
113.958168070034
 30
0.0
 10
156.4367324439962
 20
114.0017599431598
 30
0.0
 10
156.4132067175271
 20
114.0292733692458
 30
0.0
 10
156.3529479297591
 20
114.1184051013594
 30
0.0
 10
156.3273531674697
 20
114.1847909519772
 30
0.0
 10
156.3086539048487
 20
114.2523953871545
 30
0.0
  0
LINE
  5
64
330
1F
100
AcDbEntity
  8
0
  6
Continuous
 62
     7
370
    15
100
AcDbLine
 10
158.7046574432
 20
113.9433634472
 30
0.0
 11
156.5684614334
 21
113.9433634472
 31
0.0
  0
SPLINE
  5
65
330
1F
100
AcDbEntity
  8
0
  6
Continuous
 62
     7
370
    15
100
AcDbSpline
210
0.0
220
0.0
230
1.0
 70
     8
 71
     3
 72
    12
 73
     8
 74
     0
 42
0.00000001
 43
0.00000001
 12
1.0
 22
0.0
 32
0.0
 13
1.0
 23
0.0
 33
0.0
 40
0.0
 40
0.0
 40
0.0
 40
0.0
 40
0.4999999999999944
 40
0.4999999999999944
 40
0.7499999999999972
 40
0.7499999999999972
 40
1.0
 40
1.0
 40
1.0
 40
1.0
 10
158.9644651431209
 20
114.2523953871546
 30
0.0
 10
158.9457719099905
 20
114.1848127507142
 30
0.0
 10
158.9201166125787
 20
114.1183301812368
 30
0.0
 10
158.8599559898922
 20
114.0293350983392
 30
0.0
 10
158.8358836781379
 20
114.0013332013401
 30
0.0
 10
158.7775021577874
 20
113.9582568006749
 30
0.0
 10
158.7420333301343
 20
113.9433632557471
 30
0.0
 10
158.7046575219856
 20
113.9433632557471
 30
0.0
  0
ELLIPSE
  5
66
330
1F
100
AcDbEntity
  8
0
  6
Continuous
 62
     7
370
    15
100
AcDbEllipse
 10
148.6876303515
 20
108.1141502601
 30
0.0
 11
9.367417879781728
 21
19.74174915274996
 31
0.0
210
0.0
220
0.0
230
1.0
 40
0.3419987131
 41
5.185211263708393
 42
6.132113578252555
  0
SPLINE
  5
67
330
1F
100
AcDbEntity
  8
0
  6
Continuous
 62
     7
370
    15
100
AcDbSpline
210
0.0
220
0.0
230
1.0
 70
     8
 71
     3
 72
    12
 73
     8
 74
     0
 42
0.00000001
 43
0.00000001
 12
1.0
 22
0.0
 32
0.0
 13
1.0
 23
0.0
 33
0.0
 40
0.0
 40
0.0
 40
0.0
 40
0.0
 40
0.2499999999999984
 40
0.2499999999999984
 40
0.4999999999999969
 40
0.4999999999999969
 40
1.0
 40
1.0
 40
1.0
 40
1.0
 10
158.7046575219856
 20
127.245806640329
 30
0.0
 10
158.7421694080303
 20
127.245806640329
 30
0.0
 10
158.777456755735
 20
127.2413030960664
 30
0.0
 10
158.8363866039734
 20
127.2279298966131
 30
0.0
 10
158.8599123304425
 20
127.219444994042
 30
0.0
 10
158.9201711182106
 20
127.1916971902074
 30
0.0
 10
158.9457658804999
 20
127.170707326467
 30
0.0
 10
158.9644651431209
 20
127.1489065432775
 30
0.0
  0
LINE
  5
68
330
1F
100
AcDbEntity
  8
0
  6
Continuous
 62
     7
370
    15
100
AcDbLine
 10
156.5684614334
 20
127.2458069962
 30
0.0
 11
158.7046574432
 21
127.2458069962
 31
0.0
  0
SPLINE
  5
69
330
1F
100
AcDbEntity
  8
0
  6
Continuous
 62
     7
370
    15
100
AcDbSpline
210
0.0
220
0.0
230
1.0
 70
     8
 71
     3
 72
    12
 73
     8
 74
     0
 42
0.00000001
 43
0.00000001
 12
1.0
 22
0.0
 32
0.0
 13
1.0
 23
0.0
 33
0.0
 40
0.0
 40
0.0
 40
0.0
 40
0.0
 40
0.4999999999999994
 40
0.4999999999999994
 40
0.7499999999999997
 40
0.7499999999999997
 40
1.0
 40
1.0
 40
1.0
 40
1.0
 10
156.3086539048487
 20
127.1489065432775
 30
0.0
 10
156.3273471379791
 20
127.1707002969055
 30
0.0
 10
156.3530024353909
 20
127.1917204586151
 30
0.0
 10
156.4131630580774
 20
127.2194258045788
 30
0.0
 10
156.4372353698317
 20
127.2280610207722
 30
0.0
 10
156.4956168901822
 20
127.2412756659988
 30
0.0
 10
156.5310857178353
 20
127.245806640329
 30
0.0
 10
156.568461525984
 20
127.245806640329
 30
0.0
  0
ELLIPSE
  5
6A
330
1F
100
AcDbEntity
  8
0
  6
Continuous
 62
     7
370
    15
100
AcDbEllipse
 10
166.5854886964
 20
108.1141502601
 30
0.0
 11
-9.367417879781584
 21
19.74174915274996
 31
0.0
210
0.0
220
0.0
230
1.0
 40
0.3419987131
 41
0.1510717289270744
 42
1.09797404347121
  0
SPLINE
  5
6B
330
1F
100
AcDbEntity
  8
0
  6
Continuous
 62
     7
370
    15
100
AcDbSpline
210
0.0
220
0.0
230
1.0
 70
     8
 71
     3
 72
    12
 73
     8
 74
     0
 42
0.00000001
 43
0.00000001
 12
1.0
 22
0.0
 32
0.0
 13
1.0
 23
0.0
 33
0.0
 40
0.0
 40
0.0
 40
0.0
 40
0.0
 40
0.2499999999999986
 40
0.2499999999999986
 40
0.4999999999999971
 40
0.4999999999999971
 40
1.0
 40
1.0
 40
1.0
 40
1.0
 10
156.568461525984
 20
88.98249387986219
 30
0.0
 10
156.5309607031062
 20
88.98249387986219
 30
0.0
 10
156.4956822990702
 20
88.98699484772538
 30
0.0
 10
156.4367645790179
 20
89.0003613689427
 30
0.0
 10
156.4132411976195
 20
89.00884262918754
 30
0.0
 10
156.3529856131536
 20
89.03658002486546
 30
0.0
 10
156.3274639607424
 20
89.05746402391851
 30
0.0
 10
156.3086539048486
 20
89.07939397691366
 30
0.0
  0
LINE
  5
6C
330
1F
100
AcDbEntity
  8
0
  6
Continuous
 62
     7
370
    15
100
AcDbLine
 10
158.7046574432
 20
88.982493524
 30
0.0
 11
156.5684614334
 21
88.982493524
 31
0.0
  0
SPLINE
  5
6D
330
1F
100
AcDbEntity
  8
0
  6
Continuous
 62
     7
370
    15
100
AcDbSpline
210
0.0
220
0.0
230
1.0
 70
     8
 71
     3
 72
    12
 73
     8
 74
     0
 42
0.00000001
 43
0.00000001
 12
1.0
 22
0.0
 32
0.0
 13
1.0
 23
0.0
 33
0.0
 40
0.0
 40
0.0
 40
0.0
 40
0.0
 40
0.4999999999999969
 40
0.4999999999999969
 40
0.7499999999999984
 40
0.7499999999999984
 40
1.0
 40
1.0
 40
1.0
 40
1.0
 10
158.9644651431209
 20
89.07939397691365
 30
0.0
 10
158.9456619102693
 20
89.0574719786526
 30
0.0
 10
158.9201252512501
 20
89.03657817064266
 30
0.0
 10
158.8598990773016
 20
89.00885144452491
 30
0.0
 10
158.8359729999016
 20
89.00027831114946
 30
0.0
 10
158.7779120797203
 20
88.9870992053419
 30
0.0
 10
158.7421103810943
 20
88.98249387986219
 30
0.0
 10
158.7046575219856
 20
88.98249387986219
 30
0.0
  0
ELLIPSE
  5
6E
330
1F
100
AcDbEntity
  8
0
  6
Continuous
 62
     7
370
    15
100
AcDbEllipse
 10
148.6876303515
 20
108.1141502601
 30
0.0
 11
-9.367417879781755
 21
19.74174915274996
 31
0.0
210
0.0
220
0.0
230
1.0
 40
0.3419987131
 41
3.2926643825169
 42
4.239566697061
  0
SPLINE
  5
6F
330
1F
100
AcDbEntity
  8
0
  6
Continuous
 62
     7
370
    15
100
AcDbSpline
210
0.0
220
0.0
230
1.0
 70
     8
 71
     3
 72
    12
 73
     8
 74
     0
 42
0.00000001
 43
0.00000001
 12
1.0
 22
0.0
 32
0.0
 13
1.0
 23
0.0
 33
0.0
 40
0.0
 40
0.0
 40
0.0
 40
0.0
 40
0.2499999999999997
 40
0.2499999999999997
 40
0.4999999999999994
 40
0.4999999999999994
 40
1.0
 40
1.0
 40
1.0
 40
1.0
 10
158.7046575219856
 20
102.2849372644439
 30
0.0
 10
158.7421583448634
 20
102.2849372644439
 30
0.0
 10
158.7774367488993
 20
102.2701409266908
 30
0.0
 10
158.8363544689517
 20
102.2265706655317
 30
0.0
 10
158.8598778503501
 20
102.1990688670301
 30
0.0
 10
158.920133434816
 20
102.109969703787
 30
0.0
 10
158.9456550872271
 20
102.0439101250047
 30
0.0
 10
158.9644651431209
 20
101.9759051330365
 30
0.0
  0
LINE
  5
70
330
1F
100
AcDbEntity
  8
0
  6
Continuous
 62
     7
370
    15
100
AcDbLine
 10
156.5684614334
 20
102.284937073
 30
0.0
 11
158.7046574432
 21
102.284937073
 31
0.0
  0
SPLINE
  5
71
330
1F
100
AcDbEntity
  8
0
  6
Continuous
 62
     7
370
    15
100
AcDbSpline
210
0.0
220
0.0
230
1.0
 70
     8
 71
     3
 72
    12
 73
     8
 74
     0
 42
0.00000001
 43
0.00000001
 12
1.0
 22
0.0
 32
0.0
 13
1.0
 23
0.0
 33
0.0
 40
0.0
 40
0.0
 40
0.0
 40
0.0
 40
0.5000000000000013
 40
0.5000000000000013
 40
0.7500000000000007
 40
0.7500000000000007
 40
1.0
 40
1.0
 40
1.0
 40
1.0
 10
156.3086539048487
 20
101.9759051330365
 30
0.0
 10
156.3274571377003
 20
102.0438854572989
 30
0.0
 10
156.3529937967195
 20
102.1099758450957
 30
0.0
 10
156.413219970668
 20
102.1990404575428
 30
0.0
 10
156.437146048068
 20
102.2268415445628
 30
0.0
 10
156.4952069682493
 20
102.2698006177876
 30
0.0
 10
156.5310086668752
 20
102.2849372644439
 30
0.0
 10
156.568461525984
 20
102.2849372644439
 30
0.0
  0
ELLIPSE
  5
72
330
1F
100
AcDbEntity
  8
0
  6
Continuous
 62
     7
370
    15
100
AcDbEllipse
 10
166.5854886964
 20
108.1141502601
 30
0.0
 11
9.367417879781643
 21
19.74174915274997
 31
0.0
210
0.0
220
0.0
230
1.0
 40
0.3419987131
 41
2.043618610118594
 42
2.990520924662727
  0
LINE
  5
73
330
1F
100
AcDbEntity
  8
0
  6
Continuous
 62
     7
370
    15
100
AcDbLine
 10
149.636559524
 20
88.4141501975
 30
0.0
 11
149.636559524
 21
127.8141503227
 31
0.0
  0
LINE
  5
74
330
1F
100
AcDbEntity
  8
0
  6
Continuous
 62
     7
370
    15
100
AcDbLine
 10
231.9385412711
 20
124.1137095732
 30
0.0
 11
233.2223433632
 21
124.1137095732
 31
0.0
  0
SPLINE
  5
75
330
1F
100
AcDbEntity
  8
0
  6
Continuous
 62
     7
370
    15
100
AcDbSpline
210
0.0
220
0.0
230
1.0
 70
     8
 71
     3
 72
    14
 73
    10
 74
     0
 42
0.00000001
 43
0.00000001
 12
1.0
 22
0.0
 32
0.0
 13
1.0
 23
0.0
 33
0.0
 40
0.0
 40
0.0
 40
0.0
 40
0.0
 40
0.25
 40
0.25
 40
0.5
 40
0.5
 40
0.75
 40
0.75
 40
1.0
 40
1.0
 40
1.0
 40
1.0
 10
229.0407630090545
 20
123.9391373457912
 30
0.0
 10
229.1247956687282
 20
123.9865160813191
 30
0.0
 10
229.2568938849962
 20
124.0211495394127
 30
0.0
 10
229.6201771583715
 20
124.0720810830679
 30
0.0
 10
229.8424660583595
 20
124.0871459624686
 30
0.0
 10
230.3651664712276
 20
124.10616442797
 30
0.0
 10
230.6547363103639
 20
124.1097996470466
 30
0.0
 10
231.2806525151075
 20
124.1135714464932
 30
0.0
 10
231.606462221119
 20
124.1137087695263
 30
0.0
 10
231.9385404879217
 20
124.1137087695263
 30
0.0
  0
ELLIPSE
  5
76
330
1F
100
AcDbEntity
  8
0
  6
Continuous
 62
     7
370
    15
100
AcDbEllipse
 10
229.967380964
 20
108.1141502601
 30
0.0
 11
-0.3220561513868745
 21
15.99976859320063
 31
0.0
210
0.0
220
0.0
230
1.0
 40
0.2671959542
 41
0.1426643238695702
 42
2.848545425119187
  0
SPLINE
  5
77
330
1F
100
AcDbEntity
  8
0
  6
Continuous
 62
     7
370
    15
100
AcDbSpline
210
0.0
220
0.0
230
1.0
 70
     8
 71
     3
 72
    14
 73
    10
 74
     0
 42
0.00000001
 43
0.00000001
 12
1.0
 22
0.0
 32
0.0
 13
1.0
 23
0.0
 33
0.0
 40
0.0
 40
0.0
 40
0.0
 40
0.0
 40
0.2500000000000001
 40
0.2500000000000001
 40
0.5000000000000001
 40
0.5000000000000001
 40
0.7500000000000002
 40
0.7500000000000002
 40
1.0
 40
1.0
 40
1.0
 40
1.0
 10
231.9385404879217
 20
92.28684035410394
 30
0.0
 10
231.6064649137015
 20
92.28684035410394
 30
0.0
 10
231.2835439084426
 20
92.29445611853346
 30
0.0
 10
230.6559687848946
 20
92.32809392241704
 30
0.0
 10
230.3672707134205
 20
92.35337218903855
 30
0.0
 10
229.8440372366429
 20
92.42867911197686
 30
0.0
 10
229.621197835735
 20
92.47722013921796
 30
0.0
 10
229.2582295141412
 20
92.6041900603899
 30
0.0
 10
229.1247980468227
 20
92.68049024703457
 30
0.0
 10
229.0407630090545
 20
92.77162479675864
 30
0.0
  0
LINE
  5
78
330
1F
100
AcDbEntity
  8
0
  6
Continuous
 62
     7
370
    15
100
AcDbLine
 10
233.2223433632
 20
92.2868409199
 30
0.0
 11
231.9385412711
 21
92.2868409199
 31
0.0
  0
ELLIPSE
  5
79
330
1F
100
AcDbEntity
  8
0
  6
Continuous
 62
     7
370
    15
100
AcDbEllipse
 10
227.7506485213
 20
115.0326010221
 30
0.0
 11
0.08998737201204675
 21
2.357478075397765
 31
0.0
210
0.0
220
0.0
230
1.0
 40
0.2521532344
 41
0.0
 42
6.283185307179586
  0
SPLINE
  5
7A
330
1F
100
AcDbEntity
  8
0
  6
Continuous
 62
     7
370
    15
100
AcDbSpline
210
0.0
220
0.0
230
1.0
 70
     8
 71
     3
 72
    18
 73
    14
 74
     0
 42
0.00000001
 43
0.00000001
 12
1.0
 22
0.0
 32
0.0
 13
1.0
 23
0.0
 33
0.0
 40
0.0
 40
0.0
 40
0.0
 40
0.0
 40
0.2500000000000004
 40
0.2500000000000004
 40
0.5000000000000009
 40
0.5000000000000009
 40
0.6250000000000007
 40
0.6250000000000007
 40
0.7500000000000004
 40
0.7500000000000004
 40
0.8750000000000002
 40
0.8750000000000002
 40
1.0
 40
1.0
 40
1.0
 40
1.0
 10
148.3804752064208
 20
94.28296187741677
 30
0.0
 10
148.4147720258726
 20
94.28210022193493
 30
0.0
 10
148.4525833058498
 20
94.28235182502986
 30
0.0
 10
148.5391556730297
 20
94.28475033764173
 30
0.0
 10
148.5874948031127
 20
94.28692132237364
 30
0.0
 10
148.6767671604351
 20
94.29101620066888
 30
0.0
 10
148.709308626211
 20
94.29252081861848
 30
0.0
 10
148.7854848260645
 20
94.29548387658659
 30
0.0
 10
148.828700886059
 20
94.29697121484237
 30
0.0
 10
148.934390188025
 20
94.29859662616607
 30
0.0
 10
148.9993612467395
 20
94.29855438509216
 30
0.0
 10
149.1330216350974
 20
94.29453221177114
 30
0.0
 10
149.1923280884336
 20
94.29099098494765
 30
0.0
 10
149.2415826351095
 20
94.28742427751155
 30
0.0
  0
SPLINE
  5
7B
330
1F
100
AcDbEntity
  8
0
  6
Continuous
 62
     7
370
    15
100
AcDbSpline
210
0.0
220
0.0
230
1.0
 70
     8
 71
     3
 72
    14
 73
    10
 74
     0
 42
0.00000001
 43
0.00000001
 12
1.0
 22
0.0
 32
0.0
 13
1.0
 23
0.0
 33
0.0
 40
0.0
 40
0.0
 40
0.0
 40
0.0
 40
0.1250000000000021
 40
0.1250000000000021
 40
0.2500000000000042
 40
0.2500000000000042
 40
0.5000000000000018
 40
0.5000000000000018
 40
1.0
 40
1.0
 40
1.0
 40
1.0
 10
149.2415826350787
 20
94.2874242775305
 30
0.0
 10
149.2531094127961
 20
94.28658958009649
 30
0.0
 10
149.2664622204485
 20
94.28484916581634
 30
0.0
 10
149.2966047930487
 20
94.27760157581602
 30
0.0
 10
149.3116653186632
 20
94.27225454158805
 30
0.0
 10
149.3470116725915
 20
94.25650727135962
 30
0.0
 10
149.3607437723205
 20
94.24666899719833
 30
0.0
 10
149.3941150180115
 20
94.22046501124787
 30
0.0
 10
149.4050553858655
 20
94.20637710984727
 30
0.0
 10
149.4137085108788
 20
94.19360348635891
 30
0.0
  0
LINE
  5
7C
330
1F
100
AcDbEntity
  8
0
  6
Continuous
 62
     7
370
    15
100
AcDbLine
 10
149.436559529
 20
102.6087053125
 30
0.0
 11
149.436559529
 21
94.0243302849
 31
0.0
  0
SPLINE
  5
7D
330
1F
100
AcDbEntity
  8
0
  6
Continuous
 62
     7
370
    15
100
AcDbSpline
210
0.0
220
0.0
230
1.0
 70
     8
 71
     3
 72
    16
 73
    12
 74
     0
 42
0.00000001
 43
0.00000001
 12
1.0
 22
0.0
 32
0.0
 13
1.0
 23
0.0
 33
0.0
 40
0.0
 40
0.0
 40
0.0
 40
0.0
 40
0.4999999999999994
 40
0.4999999999999994
 40
0.7499999999999997
 40
0.7499999999999997
 40
0.8749999999999999
 40
0.8749999999999999
 40
0.9375
 40
0.9375
 40
1.0
 40
1.0
 40
1.0
 40
1.0
 10
149.4365595239848
 20
102.6087054931327
 30
0.0
 10
149.4365595239848
 20
102.7262808741522
 30
0.0
 10
149.4326760988259
 20
102.8449766272535
 30
0.0
 10
149.4078607735512
 20
103.025734105246
 30
0.0
 10
149.3970213258387
 20
103.0873781820189
 30
0.0
 10
149.3638055437899
 20
103.1767151563602
 30
0.0
 10
149.3504238001611
 20
103.2069746877853
 30
0.0
 10
149.3149141502988
 20
103.2404909317728
 30
0.0
 10
149.2994971837981
 20
103.2486292775789
 30
0.0
 10
149.2677961616494
 20
103.2486138681475
 30
0.0
 10
149.2536498766987
 20
103.2415716307916
 30
0.0
 10
149.241582635109
 20
103.232430567182
 30
0.0
  0
SPLINE
  5
7E
330
1F
100
AcDbEntity
  8
0
  6
Continuous
 62
     7
370
    15
100
AcDbSpline
210
0.0
220
0.0
230
1.0
 70
     8
 71
     3
 72
    18
 73
    14
 74
     0
 42
0.00000001
 43
0.00000001
 12
1.0
 22
0.0
 32
0.0
 13
1.0
 23
0.0
 33
0.0
 40
0.0
 40
0.0
 40
0.0
 40
0.0
 40
0.1250000000000007
 40
0.1250000000000007
 40
0.2500000000000014
 40
0.2500000000000014
 40
0.3750000000000021
 40
0.3750000000000021
 40
0.5000000000000028
 40
0.5000000000000028
 40
0.7500000000000013
 40
0.7500000000000013
 40
1.0
 40
1.0
 40
1.0
 40
1.0
 10
149.2415826351152
 20
103.2324305671748
 30
0.0
 10
149.1928780514272
 20
103.1955363279842
 30
0.0
 10
149.1343695686517
 20
103.1660050235583
 30
0.0
 10
149.0026427533819
 20
103.1567690502794
 30
0.0
 10
148.9378846818844
 20
103.1798322248364
 30
0.0
 10
148.8326740797337
 20
103.2473503464838
 30
0.0
 10
148.7894579312135
 20
103.2903614431343
 30
0.0
 10
148.7132796151296
 20
103.3806034651304
 30
0.0
 10
148.6804247828384
 20
103.4282343466057
 30
0.0
 10
148.5900568768775
 20
103.5752986459553
 30
0.0
 10
148.5406342190379
 20
103.6792119712598
 30
0.0
 10
148.4529830934462
 20
103.8903459349002
 30
0.0
 10
148.4149215460557
 20
103.998068679659
 30
0.0
 10
148.3804752064218
 20
104.1074017955684
 30
0.0
  0
SPLINE
  5
7F
330
1F
100
AcDbEntity
  8
0
  6
Continuous
 62
     7
370
    15
100
AcDbSpline
210
0.0
220
0.0
230
1.0
 70
     8
 71
     3
 72
     8
 73
     4
 74
     0
 42
0.00000001
 43
0.00000001
 12
1.0
 22
0.0
 32
0.0
 13
1.0
 23
0.0
 33
0.0
 40
0.0
 40
0.0
 40
0.0
 40
0.0
 40
1.0
 40
1.0
 40
1.0
 40
1.0
 10
148.315239180425
 20
104.3426055696972
 30
0.0
 10
148.334665385724
 20
104.2630132981244
 30
0.0
 10
148.3561622101524
 20
104.1845715519917
 30
0.0
 10
148.3804752064218
 20
104.1074017955684
 30
0.0
  0
SPLINE
  5
80
330
1F
100
AcDbEntity
  8
0
  6
Continuous
 62
     7
370
    15
100
AcDbSpline
210
0.0
220
0.0
230
1.0
 70
     8
 71
     3
 72
     8
 73
     4
 74
     0
 42
0.00000001
 43
0.00000001
 12
1.0
 22
0.0
 32
0.0
 13
1.0
 23
0.0
 33
0.0
 40
0.0
 40
0.0
 40
0.0
 40
0.0
 40
1.0
 40
1.0
 40
1.0
 40
1.0
 10
148.3804752064218
 20
112.1208987246229
 30
0.0
 10
148.3561622101524
 20
112.0437289681996
 30
0.0
 10
148.334665385724
 20
111.9652872220668
 30
0.0
 10
148.315239180425
 20
111.8856949504941
 30
0.0
  0
SPLINE
  5
81
330
1F
100
AcDbEntity
  8
0
  6
Continuous
 62
     7
370
    15
100
AcDbSpline
210
0.0
220
0.0
230
1.0
 70
     8
 71
     3
 72
    18
 73
    14
 74
     0
 42
0.00000001
 43
0.00000001
 12
1.0
 22
0.0
 32
0.0
 13
1.0
 23
0.0
 33
0.0
 40
0.0
 40
0.0
 40
0.0
 40
0.0
 40
0.25
 40
0.25
 40
0.5
 40
0.5
 40
0.625
 40
0.625
 40
0.75
 40
0.75
 40
0.875
 40
0.875
 40
1.0
 40
1.0
 40
1.0
 40
1.0
 10
148.3804752064218
 20
112.1208987246228
 30
0.0
 10
148.4147735254344
 20
112.2297620212159
 30
0.0
 10
148.4525879227464
 20
112.3367694444522
 30
0.0
 10
148.53917598382
 20
112.5458042685906
 30
0.0
 10
148.5875260894987
 20
112.6479743625801
 30
0.0
 10
148.6768426782984
 20
112.7946551341448
 30
0.0
 10
148.7094030337867
 20
112.8424568326804
 30
0.0
 10
148.7856486675157
 20
112.9340123707057
 30
0.0
 10
148.8288080372957
 20
112.9776917626977
 30
0.0
 10
148.9345368613137
 20
113.0470459800243
 30
0.0
 10
148.9995340383684
 20
113.0711622936902
 30
0.0
 10
149.1330185283226
 20
113.0629580716519
 30
0.0
 10
149.1923459217681
 20
113.03316728606
 30
0.0
 10
149.2415826351095
 20
112.995869953009
 30
0.0
  0
SPLINE
  5
82
330
1F
100
AcDbEntity
  8
0
  6
Continuous
 62
     7
370
    15
100
AcDbSpline
210
0.0
220
0.0
230
1.0
 70
     8
 71
     3
 72
    16
 73
    12
 74
     0
 42
0.00000001
 43
0.00000001
 12
1.0
 22
0.0
 32
0.0
 13
1.0
 23
0.0
 33
0.0
 40
0.0
 40
0.0
 40
0.0
 40
0.0
 40
0.0624999999999996
 40
0.0624999999999996
 40
0.1249999999999992
 40
0.1249999999999992
 40
0.2499999999999984
 40
0.2499999999999984
 40
0.5
 40
0.5
 40
1.0
 40
1.0
 40
1.0
 40
1.0
 10
149.2415826350787
 20
112.9958699529606
 30
0.0
 10
149.2536524683545
 20
112.9867269261148
 30
0.0
 10
149.2679281232879
 20
112.9796824784235
 30
0.0
 10
149.2993925354123
 20
112.9796754065249
 30
0.0
 10
149.3148930602227
 20
112.9878033753219
 30
0.0
 10
149.3503319568296
 20
113.0212118363291
 30
0.0
 10
149.363924572933
 20
113.0518790027913
 30
0.0
 10
149.3969188913258
 20
113.1406999968731
 30
0.0
 10
149.4077062846445
 20
113.2016026424209
 30
0.0
 10
149.4327595319237
 20
113.3836107197993
 30
0.0
 10
149.4365595239849
 20
113.5022994348379
 30
0.0
 10
149.4365595239849
 20
113.6195950270585
 30
0.0
  0
LINE
  5
83
330
1F
100
AcDbEntity
  8
0
  6
Continuous
 62
     7
370
    15
100
AcDbLine
 10
149.436559529
 20
122.2039702353
 30
0.0
 11
149.436559529
 21
113.6195952077
 31
0.0
  0
SPLINE
  5
84
330
1F
100
AcDbEntity
  8
0
  6
Continuous
 62
     7
370
    15
100
AcDbSpline
210
0.0
220
0.0
230
1.0
 70
     8
 71
     3
 72
    12
 73
     8
 74
     0
 42
0.00000001
 43
0.00000001
 12
1.0
 22
0.0
 32
0.0
 13
1.0
 23
0.0
 33
0.0
 40
0.0
 40
0.0
 40
0.0
 40
0.0
 40
0.5000000000000031
 40
0.5000000000000031
 40
0.7500000000000016
 40
0.7500000000000016
 40
1.0
 40
1.0
 40
1.0
 40
1.0
 10
149.3962201941172
 20
122.0127577629664
 30
0.0
 10
149.3860973420361
 20
122.0018240183287
 30
0.0
 10
149.37373455769
 20
121.9897587315062
 30
0.0
 10
149.3388999545167
 20
121.968409391162
 30
0.0
 10
149.3235427332737
 20
121.9601897149329
 30
0.0
 10
149.2808736911338
 20
121.9458504153034
 30
0.0
 10
149.2584494767741
 20
121.94209763428
 30
0.0
 10
149.241582635109
 20
121.9408762426797
 30
0.0
  0
SPLINE
  5
85
330
1F
100
AcDbEntity
  8
0
  6
Continuous
 62
     7
370
    15
100
AcDbSpline
210
0.0
220
0.0
230
1.0
 70
     8
 71
     3
 72
    18
 73
    14
 74
     0
 42
0.00000001
 43
0.00000001
 12
1.0
 22
0.0
 32
0.0
 13
1.0
 23
0.0
 33
0.0
 40
0.0
 40
0.0
 40
0.0
 40
0.0
 40
0.125
 40
0.125
 40
0.25
 40
0.25
 40
0.375
 40
0.375
 40
0.5
 40
0.5
 40
0.75
 40
0.75
 40
1.0
 40
1.0
 40
1.0
 40
1.0
 10
149.2415826351152
 20
121.9408762426795
 30
0.0
 10
149.1928785060984
 20
121.9373493930614
 30
0.0
 10
149.1343708368939
 20
121.9338491198637
 30
0.0
 10
149.0026451742631
 20
121.9298061359758
 30
0.0
 10
148.9378875356427
 20
121.9296945613452
 30
0.0
 10
148.8326771190237
 20
121.9312267461066
 30
0.0
 10
148.7894610840835
 20
121.9326818983217
 30
0.0
 10
148.7132828626025
 20
121.9356071598515
 30
0.0
 10
148.6804280949184
 20
121.9371174903597
 30
0.0
 10
148.5900603760765
 20
121.9412594830481
 30
0.0
 10
148.5406380068871
 20
121.9434975680346
 30
0.0
 10
148.4529855447991
 20
121.9459488510811
 30
0.0
 10
148.4149228085647
 20
121.9462040864421
 30
0.0
 10
148.3804752064213
 20
121.9453386427742
 30
0.0
  0
SPLINE
  5
86
330
1F
100
AcDbEntity
  8
0
  6
Continuous
 62
     7
370
    15
100
AcDbSpline
210
0.0
220
0.0
230
1.0
 70
     8
 71
     3
 72
     8
 73
     4
 74
     0
 42
0.00000001
 43
0.00000001
 12
1.0
 22
0.0
 32
0.0
 13
1.0
 23
0.0
 33
0.0
 40
0.0
 40
0.0
 40
0.0
 40
0.0
 40
1.0
 40
1.0
 40
1.0
 40
1.0
 10
148.1415195460455
 20
105.1676594557318
 30
0.0
 10
148.1922466287679
 20
104.8843083344126
 30
0.0
 10
148.250133941755
 20
104.6093521502728
 30
0.0
 10
148.3152391804252
 20
104.3426055696972
 30
0.0
  0
SPLINE
  5
87
330
1F
100
AcDbEntity
  8
0
  6
Continuous
 62
     7
370
    15
100
AcDbSpline
210
0.0
220
0.0
230
1.0
 70
     8
 71
     3
 72
    24
 73
    20
 74
     0
 42
0.00000001
 43
0.00000001
 12
1.0
 22
0.0
 32
0.0
 13
1.0
 23
0.0
 33
0.0
 40
0.0
 40
0.0
 40
0.0
 40
0.0
 40
0.2499999999999938
 40
0.2499999999999938
 40
0.3749999999999916
 40
0.3749999999999916
 40
0.4374999999999905
 40
0.4374999999999905
 40
0.4687499999999894
 40
0.4687499999999894
 40
0.4999999999999883
 40
0.4999999999999883
 40
0.5624999999999899
 40
0.5624999999999899
 40
0.6249999999999915
 40
0.6249999999999915
 40
0.7499999999999946
 40
0.7499999999999946
 40
1.0
 40
1.0
 40
1.0
 40
1.0
 10
147.9365595239765
 20
105.167951864025
 30
0.0
 10
147.9369625533504
 20
105.2612201566546
 30
0.0
 10
147.9389922930655
 20
105.3549777155036
 30
0.0
 10
147.9483010044853
 20
105.4965676011431
 30
0.0
 10
147.9522269975999
 20
105.5437480197523
 30
0.0
 10
147.9631563575159
 20
105.6143440664377
 30
0.0
 10
147.9672779856103
 20
105.6381239802025
 30
0.0
 10
147.9791725067926
 20
105.6715751272497
 30
0.0
 10
147.9844593187464
 20
105.6837300793192
 30
0.0
 10
148.0010272502613
 20
105.6916127182874
 30
0.0
 10
148.0089539590286
 20
105.6840491191854
 30
0.0
 10
148.0259462972538
 20
105.6602566879586
 30
0.0
 10
148.0333439980448
 20
105.6400682101141
 30
0.0
 10
148.0474463883866
 20
105.5996185854943
 30
0.0
 10
148.0535995456789
 20
105.5787629110969
 30
0.0
 10
148.07091327914
 20
105.5156378757958
 30
0.0
 10
148.0809183200285
 20
105.4726587638943
 30
0.0
 10
148.1092747762592
 20
105.3429331196054
 30
0.0
 10
148.1258233156055
 20
105.2553353924695
 30
0.0
 10
148.1415195460455
 20
105.1676594557318
 30
0.0
  0
SPLINE
  5
88
330
1F
100
AcDbEntity
  8
0
  6
Continuous
 62
     7
370
    15
100
AcDbSpline
210
0.0
220
0.0
230
1.0
 70
     8
 71
     3
 72
    16
 73
    12
 74
     0
 42
0.00000001
 43
0.00000001
 12
1.0
 22
0.0
 32
0.0
 13
1.0
 23
0.0
 33
0.0
 40
0.0
 40
0.0
 40
0.0
 40
0.0
 40
0.2499999999999999
 40
0.2499999999999999
 40
0.375
 40
0.375
 40
0.5000000000000001
 40
0.5000000000000001
 40
0.75
 40
0.75
 40
1.0
 40
1.0
 40
1.0
 40
1.0
 10
147.9365595239848
 20
111.060348656165
 30
0.0
 10
147.8560227145893
 20
110.5912758293019
 30
0.0
 10
147.7959853057871
 20
110.1109121791219
 30
0.0
 10
147.7352473585398
 20
109.373727899981
 30
0.0
 10
147.7199248774969
 20
109.1252094967539
 30
0.0
 10
147.699341925719
 20
108.6224260515402
 30
0.0
 10
147.6941423786824
 20
108.3675674985155
 30
0.0
 10
147.6940886681422
 20
107.6112901587948
 30
0.0
 10
147.7142860054114
 20
107.1126319594849
 30
0.0
 10
147.7949643124844
 20
106.1262089887407
 30
0.0
 10
147.8560106608256
 20
105.6370948959677
 30
0.0
 10
147.9365595239848
 20
105.1679518640263
 30
0.0
  0
SPLINE
  5
89
330
1F
100
AcDbEntity
  8
0
  6
Continuous
 62
     7
370
    15
100
AcDbSpline
210
0.0
220
0.0
230
1.0
 70
     8
 71
     3
 72
    24
 73
    20
 74
     0
 42
0.00000001
 43
0.00000001
 12
1.0
 22
0.0
 32
0.0
 13
1.0
 23
0.0
 33
0.0
 40
0.0
 40
0.0
 40
0.0
 40
0.0
 40
0.2499999999999922
 40
0.2499999999999922
 40
0.3749999999999889
 40
0.3749999999999889
 40
0.4374999999999878
 40
0.4374999999999878
 40
0.4999999999999868
 40
0.4999999999999868
 40
0.5312499999999867
 40
0.5312499999999867
 40
0.5624999999999866
 40
0.5624999999999866
 40
0.6249999999999883
 40
0.6249999999999883
 40
0.7499999999999917
 40
0.7499999999999917
 40
1.0
 40
1.0
 40
1.0
 40
1.0
 10
148.1415195460456
 20
111.0606410644595
 30
0.0
 10
148.1257505011359
 20
110.9725584009686
 30
0.0
 10
148.1091363365753
 20
110.8846135844591
 30
0.0
 10
148.0806042090818
 20
110.754266217196
 30
0.0
 10
148.0705165755279
 20
110.7110050393939
 30
0.0
 10
148.053028752679
 20
110.6475692635585
 30
0.0
 10
148.0468189447527
 20
110.6266551400147
 30
0.0
 10
148.0325410851703
 20
110.5861803483296
 30
0.0
 10
148.0249699228185
 20
110.5657027048704
 30
0.0
 10
148.0075500976441
 20
110.5428563253336
 30
0.0
 10
147.9990660151895
 20
110.53630452829
 30
0.0
 10
147.983029941572
 20
110.5468759035167
 30
0.0
 10
147.9782095692942
 20
110.5589669438006
 30
0.0
 10
147.9668026686883
 20
110.5926101870205
 30
0.0
 10
147.962781706979
 20
110.6160178663172
 30
0.0
 10
147.9520276951997
 20
110.6866064693783
 30
0.0
 10
147.948155809577
 20
110.7335714969008
 30
0.0
 10
147.9389878447761
 20
110.8741483615069
 30
0.0
 10
147.936959510263
 20
110.9677845911264
 30
0.0
 10
147.9365595239848
 20
111.060348656165
 30
0.0
  0
SPLINE
  5
8A
330
1F
100
AcDbEntity
  8
0
  6
Continuous
 62
     7
370
    15
100
AcDbSpline
210
0.0
220
0.0
230
1.0
 70
     8
 71
     3
 72
     8
 73
     4
 74
     0
 42
0.00000001
 43
0.00000001
 12
1.0
 22
0.0
 32
0.0
 13
1.0
 23
0.0
 33
0.0
 40
0.0
 40
0.0
 40
0.0
 40
0.0
 40
1.0
 40
1.0
 40
1.0
 40
1.0
 10
148.3152391804252
 20
111.8856949504941
 30
0.0
 10
148.250133941755
 20
111.6189483699185
 30
0.0
 10
148.1922466287679
 20
111.3439921857787
 30
0.0
 10
148.1415195460455
 20
111.0606410644595
 30
0.0
  0
LINE
  5
8B
330
1F
100
AcDbEntity
  8
0
  6
Continuous
 62
     7
370
    15
100
AcDbLine
 10
147.9365595014
 20
105.1679518078
 30
0.0
 11
147.9365595014
 21
104.0129465056
 31
0.0
  0
LINE
  5
8C
330
1F
100
AcDbEntity
  8
0
  6
Continuous
 62
     7
370
    15
100
AcDbLine
 10
127.1365586299
 20
111.9540698365
 30
0.0
 11
127.1365586299
 21
104.2742306837
 31
0.0
  0
LINE
  5
8D
330
1F
100
AcDbEntity
  8
0
  6
Continuous
 62
     7
370
    15
100
AcDbLine
 10
147.9365595014
 20
112.2153540146
 30
0.0
 11
147.9365595014
 21
111.0603487124
 31
0.0
  0
LINE
  5
8E
330
1F
100
AcDbEntity
  8
0
  6
Continuous
 62
     7
370
    15
100
AcDbLine
 10
125.6365593154
 20
111.5210569934
 30
0.0
 11
125.6365593154
 21
104.7072435268
 31
0.0
  0
LINE
  5
8F
330
1F
100
AcDbEntity
  8
0
  6
Continuous
 62
     7
370
    15
100
AcDbLine
 10
148.1415195021
 20
121.9393349257
 30
0.0
 11
148.3804752215
 21
121.945338231
 31
0.0
  0
LINE
  5
90
330
1F
100
AcDbEntity
  8
0
  6
Continuous
 62
     7
370
    15
100
AcDbLine
 10
147.9365595014
 20
94.0940518868
 30
0.0
 11
147.9365595014
 21
104.0129465056
 31
0.0
  0
ARC
  5
91
330
1F
100
AcDbEntity
  8
0
  6
Continuous
 62
     7
370
    15
100
AcDbCircle
 10
148.1364964349
 20
94.0890283644
 30
0.0
 40
0.2000000000000059
100
AcDbArc
 50
88.5608333333
 51
178.5608333333
  0
LINE
  5
92
330
1F
100
AcDbEntity
  8
0
  6
Continuous
 62
     7
370
    15
100
AcDbLine
 10
127.1365586299
 20
94.6166197774
 30
0.0
 11
127.1365586299
 21
104.2742306837
 31
0.0
  0
LINE
  5
93
330
1F
100
AcDbEntity
  8
0
  6
Continuous
 62
     7
370
    15
100
AcDbLine
 10
127.1365586299
 20
94.6166197774
 30
0.0
 11
147.9365595014
 21
94.0940518868
 31
0.0
  0
LINE
  5
94
330
1F
100
AcDbEntity
  8
0
  6
Continuous
 62
     7
370
    15
100
AcDbLine
 10
127.1365586299
 20
111.9540698365
 30
0.0
 11
127.1365586299
 21
121.6116807428
 31
0.0
  0
LINE
  5
95
330
1F
100
AcDbEntity
  8
0
  6
Continuous
 62
     7
370
    15
100
AcDbLine
 10
127.1365586299
 20
121.6116807428
 30
0.0
 11
147.9365595014
 21
122.1342486334
 31
0.0
  0
LINE
  5
96
330
1F
100
AcDbEntity
  8
0
  6
Continuous
 62
     7
370
    15
100
AcDbLine
 10
147.9365595014
 20
112.2153540146
 30
0.0
 11
147.9365595014
 21
122.1342486334
 31
0.0
  0
ARC
  5
97
330
1F
100
AcDbEntity
  8
0
  6
Continuous
 62
     7
370
    15
100
AcDbCircle
 10
148.1364964349
 20
122.1392721558
 30
0.0
 40
0.2000000000000059
100
AcDbArc
 50
181.4391666667
 51
271.4391666667
  0
LINE
  5
98
330
1F
100
AcDbEntity
  8
0
  6
Continuous
 62
     7
370
    15
100
AcDbLine
 10
148.1415195021
 20
94.2889655945
 30
0.0
 11
148.3804752215
 21
94.2829622892
 31
0.0
  0
LINE
  5
99
330
1F
100
AcDbEntity
  8
0
  6
Continuous
 62
     7
370
    15
100
AcDbLine
 10
125.6365593154
 20
95.4826454637
 30
0.0
 11
127.1365586299
 21
94.6166197774
 31
0.0
  0
LINE
  5
9A
330
1F
100
AcDbEntity
  8
0
  6
Continuous
 62
     7
370
    15
100
AcDbLine
 10
125.6365593154
 20
95.4826454637
 30
0.0
 11
125.6365593154
 21
104.7072435268
 31
0.0
  0
LINE
  5
9B
330
1F
100
AcDbEntity
  8
0
  6
Continuous
 62
     7
370
    15
100
AcDbLine
 10
125.6365593154
 20
120.7456550565
 30
0.0
 11
127.1365586299
 21
121.6116807428
 31
0.0
  0
LINE
  5
9C
330
1F
100
AcDbEntity
  8
0
  6
Continuous
 62
     7
370
    15
100
AcDbLine
 10
125.6365593154
 20
111.5210569934
 30
0.0
 11
125.6365593154
 21
120.7456550565
 31
0.0
  0
LINE
  5
9D
330
1F
100
AcDbEntity
  8
0
  6
Continuous
 62
     7
370
    15
100
AcDbLine
 10
246.3823634762
 20
119.3174867895
 30
0.0
 11
244.1823038835
 21
118.6255001468
 31
0.0
  0
ARC
  5
9E
330
1F
100
AcDbEntity
  8
0
  6
Continuous
 62
     7
370
    15
100
AcDbCircle
 10
244.6362146582
 20
117.1821053821
 30
0.0
 40
1.513084081596348
100
AcDbArc
 50
107.4570295389
 51
287.6230974806
  0
LINE
  5
9F
330
1F
100
AcDbEntity
  8
0
  6
Continuous
 62
     7
370
    15
100
AcDbLine
 10
245.0943071026
 20
115.7400323083
 30
0.0
 11
245.8878535408
 21
115.9896253613
 31
0.0
  0
LINE
  5
A0
330
1F
100
AcDbEntity
  8
0
  6
Continuous
 62
     7
370
    15
100
AcDbLine
 10
256.2496292967
 20
119.2487244499
 30
0.0
 11
247.5697178025
 21
91.7866126639
 31
0.0
  0
LINE
  5
A1
330
1F
100
AcDbEntity
  8
0
  6
Continuous
 62
     7
370
    15
100
AcDbLine
 10
247.5697178025
 20
91.7866126639
 30
0.0
 11
234.1365594048
 21
91.7866126639
 31
0.0
  0
LINE
  5
A2
330
1F
100
AcDbEntity
  8
0
  6
Continuous
 62
     7
370
    15
100
AcDbLine
 10
234.1365594048
 20
91.7866126639
 30
0.0
 11
233.9294556159
 21
91.9938021344
 31
0.0
  0
SPLINE
  5
A3
330
1F
100
AcDbEntity
  8
0
  6
Continuous
 62
     7
370
    15
100
AcDbSpline
210
0.0
220
0.0
230
1.0
 70
     8
 71
     3
 72
    10
 73
     6
 74
     0
 42
0.00000001
 43
0.00000001
 12
1.0
 22
0.0
 32
0.0
 13
1.0
 23
0.0
 33
0.0
 40
0.0
 40
0.0
 40
0.0
 40
0.0
 40
0.5
 40
0.5
 40
1.0
 40
1.0
 40
1.0
 40
1.0
 10
233.9294527427983
 20
91.99380259465929
 30
0.0
 10
233.8362077831327
 20
92.08708863817897
 30
0.0
 10
233.7263117335784
 20
92.16037023933886
 30
0.0
 10
233.4843481440896
 20
92.26073914041835
 30
0.0
 10
233.3544150709814
 20
92.28684035410416
 30
0.0
 10
233.2223459616117
 20
92.28684035410416
 30
0.0
  0
SPLINE
  5
A4
330
1F
100
AcDbEntity
  8
0
  6
Continuous
 62
     7
370
    15
100
AcDbSpline
210
0.0
220
0.0
230
1.0
 70
     8
 71
     3
 72
    10
 73
     6
 74
     0
 42
0.00000001
 43
0.00000001
 12
1.0
 22
0.0
 32
0.0
 13
1.0
 23
0.0
 33
0.0
 40
0.0
 40
0.0
 40
0.0
 40
0.0
 40
0.5
 40
0.5
 40
1.0
 40
1.0
 40
1.0
 40
1.0
 10
233.2223459616117
 20
124.1137087695262
 30
0.0
 10
233.3544084522993
 20
124.1137087695262
 30
0.0
 10
233.4840068769104
 20
124.1397190727659
 30
0.0
 10
233.7259940939154
 20
124.2399966113713
 30
0.0
 10
233.8362066253421
 20
124.3134593271499
 30
0.0
 10
233.9294527427985
 20
124.4067465289706
 30
0.0
  0
LINE
  5
A5
330
1F
100
AcDbEntity
  8
0
  6
Continuous
 62
     7
370
    15
100
AcDbLine
 10
233.9294556159
 20
124.406746496
 30
0.0
 11
234.4574410099
 21
124.9349181545
 31
0.0
  0
LINE
  5
A6
330
1F
100
AcDbEntity
  8
0
  6
Continuous
 62
     7
370
    15
100
AcDbLine
 10
234.4574410099
 20
124.9349181545
 30
0.0
 11
239.2533201355
 21
124.9349181545
 31
0.0
  0
ELLIPSE
  5
A7
330
1F
100
AcDbEntity
  8
0
  6
Continuous
 62
     7
370
    15
100
AcDbEllipse
 10
239.2533178588
 20
151.0663625535
 30
0.0
 11
8.526512829121202E-14
 21
26.13144513619378
 31
0.0
210
0.0
220
0.0
230
1.0
 40
0.9949698482
 41
3.141592653589808
 42
3.444886158282752
  0
LINE
  5
A8
330
1F
100
AcDbEntity
  8
0
  6
Continuous
 62
     7
370
    15
100
AcDbLine
 10
247.0186058063
 20
126.1276089591
 30
0.0
 11
248.7052384395
 21
126.6581070614
 31
0.0
  0
ELLIPSE
  5
A9
330
1F
100
AcDbEntity
  8
0
  6
Continuous
 62
     7
370
    15
100
AcDbEllipse
 10
252.598609764
 20
108.1141502601
 30
0.0
 11
5.390524936199199
 21
16.49183944377624
 31
0.0
210
0.0
220
0.0
230
1.0
 40
0.0962569477
 41
3.173044837569608
 42
3.317754824184832
  0
LINE
  5
AA
330
1F
100
AcDbEntity
  8
0
  6
Continuous
 62
     7
370
    15
100
AcDbLine
 10
234.1365594048
 20
91.7866126639
 30
0.0
 11
234.1365594048
 21
91.6141503495
 31
0.0
  0
ARC
  5
AB
330
1F
100
AcDbEntity
  8
0
  6
Continuous
 62
     7
370
    15
100
AcDbCircle
 10
244.6364139214
 20
117.0307972381
 30
0.0
 40
1.247233427960434
100
AcDbArc
 50
107.4491237657
 51
287.6313893541
  0
LINE
  5
AC
330
1F
100
AcDbEntity
  8
0
  6
Continuous
 62
     7
370
    15
100
AcDbLine
 10
245.0141910094
 20
115.8421527599
 30
0.0
 11
245.6587705392
 21
116.0448937681
 31
0.0
  0
LINE
  5
AD
330
1F
100
AcDbEntity
  8
0
  6
Continuous
 62
     7
370
    15
100
AcDbLine
 10
244.2624199766
 20
118.2206374598
 30
0.0
 11
246.2314296145
 21
118.8399492768
 31
0.0
  0
ARC
  5
AE
330
1F
100
AcDbEntity
  8
0
  6
Continuous
 62
     7
370
    15
100
AcDbCircle
 10
244.6355339658
 20
116.9258534876
 30
0.0
 40
1.247264435099299
100
AcDbArc
 50
107.4063085847
 51
177.5543038409
  0
LINE
  5
AF
330
1F
100
AcDbEntity
  8
0
  6
Continuous
 62
     7
370
    15
100
AcDbLine
 10
246.1947057027
 20
118.7237649229
 30
0.0
 11
244.2624199766
 21
118.1160024372
 31
0.0
  0
CIRCLE
  5
B0
330
1F
100
AcDbEntity
  8
0
  6
Continuous
 62
     7
370
    15
100
AcDbCircle
 10
252.4699872403
 20
122.9418872583
 30
0.0
 40
2.620272081704016
  0
CIRCLE
  5
B1
330
1F
100
AcDbEntity
  8
0
  6
Continuous
 62
     7
370
    15
100
AcDbCircle
 10
252.4683426195
 20
122.9610327603
 30
0.0
 40
1.796915504234868
  0
ARC
  5
B2
330
1F
100
AcDbEntity
  8
0
  6
Continuous
 62
     7
370
    15
100
AcDbCircle
 10
252.4658881298
 20
122.9551974108
 30
0.0
 40
1.67607716007882
100
AcDbArc
 50
32.9590940605
 51
91.483467327
  0
ARC
  5
B3
330
1F
100
AcDbEntity
  8
0
  6
Continuous
 62
     7
370
    15
100
AcDbCircle
 10
252.4643847341
 20
122.955768139
 30
0.0
 40
1.675468363398339
100
AcDbArc
 50
91.4325783872
 51
151.4769569384
  0
ARC
  5
B4
330
1F
100
AcDbEntity
  8
0
  6
Continuous
 62
     7
370
    15
100
AcDbCircle
 10
252.4577452627
 20
122.9603328346
 30
0.0
 40
1.667455270913502
100
AcDbArc
 50
151.5058281898
 51
210.2394401187
  0
LINE
  5
B5
330
1F
100
AcDbEntity
  8
0
  6
Continuous
 62
     7
370
    15
100
AcDbLine
 10
251.0617304224
 20
122.048406769
 30
0.0
 11
251.017183401
 21
122.1205777493
 31
0.0
  0
ARC
  5
B6
330
1F
100
AcDbEntity
  8
0
  6
Continuous
 62
     7
370
    15
100
AcDbCircle
 10
252.4645887004
 20
122.9653944222
 30
0.0
 40
1.675970675190427
100
AcDbArc
 50
213.1709052427
 51
269.5447132678
  0
LINE
  5
B7
330
1F
100
AcDbEntity
  8
0
  6
Continuous
 62
     7
370
    15
100
AcDbLine
 10
252.5710317868
 20
121.2927521211
 30
0.0
 11
252.4512711543
 21
121.2894766596
 31
0.0
  0
ARC
  5
B8
330
1F
100
AcDbEntity
  8
0
  6
Continuous
 62
     7
370
    15
100
AcDbCircle
 10
252.4662140616
 20
122.9649656242
 30
0.0
 40
1.675495376112413
100
AcDbArc
 50
273.5867228253
 51
329.3228644088
  0
LINE
  5
B9
330
1F
100
AcDbEntity
  8
0
  6
Continuous
 62
     7
370
    15
100
AcDbLine
 10
253.9644691724
 20
122.2151256171
 30
0.0
 11
253.9072338123
 21
122.11012831
 31
0.0
  0
ARC
  5
BA
330
1F
100
AcDbEntity
  8
0
  6
Continuous
 62
     7
370
    15
100
AcDbCircle
 10
252.4728638495
 20
122.9603456636
 30
0.0
 40
1.667404976912036
100
AcDbArc
 50
333.4528552174
 51
30.02638202
  0
LINE
  5
BB
330
1F
100
AcDbEntity
  8
0
  6
Continuous
 62
     7
370
    15
100
AcDbLine
 10
253.8722160835
 20
123.8670506519
 30
0.0
 11
253.9164948839
 21
123.7947129649
 31
0.0
  0
SPLINE
  5
BC
330
1F
100
AcDbEntity
  8
0
  6
Continuous
 62
     7
370
    15
100
AcDbSpline
210
0.0
220
0.0
230
1.0
 70
     8
 71
     3
 72
    11
 73
     7
 74
     0
 42
0.00000001
 43
0.00000001
 12
1.0
 22
0.0
 32
0.0
 13
1.0
 23
0.0
 33
0.0
 40
0.0
 40
0.0
 40
0.0
 40
0.0
 40
0.2431068382133509
 40
0.5182869121812179
 40
0.7947845836961679
 40
1.0
 40
1.0
 40
1.0
 40
1.0
 10
251.0617304224223
 20
122.048406769042
 30
0.0
 10
251.084699849544
 20
122.0244821160466
 30
0.0
 10
251.1336690745356
 20
121.9734764157662
 30
0.0
 10
251.2344307433359
 20
121.9291616379438
 30
0.0
 10
251.3378238462336
 20
121.9167488002529
 30
0.0
 10
251.400674504988
 20
121.93185012244
 30
0.0
 10
251.4274496216029
 20
121.9382834625292
 30
0.0
  0
SPLINE
  5
BD
330
1F
100
AcDbEntity
  8
0
  6
Continuous
 62
     7
370
    15
100
AcDbSpline
210
0.0
220
0.0
230
1.0
 70
     8
 71
     3
 72
    12
 73
     8
 74
     0
 42
0.00000001
 43
0.00000001
 12
1.0
 22
0.0
 32
0.0
 13
1.0
 23
0.0
 33
0.0
 40
0.0
 40
0.0
 40
0.0
 40
0.0
 40
0.2058195489379775
 40
0.412022021337396
 40
0.6140803510316546
 40
0.8132162436720365
 40
1.0
 40
1.0
 40
1.0
 40
1.0
 10
251.4274496216029
 20
121.9382834625292
 30
0.0
 10
251.4914010510629
 20
121.9520253370852
 30
0.0
 10
251.6194228904338
 20
121.9795346527004
 30
0.0
 10
251.8168470483405
 20
121.9387784252366
 30
0.0
 10
251.9873173026875
 20
121.8417652721092
 30
0.0
 10
252.1165107413969
 20
121.7009788184999
 30
0.0
 10
252.1580602878283
 20
121.5870923088014
 30
0.0
 10
252.1781701225489
 20
121.5319716376114
 30
0.0
  0
SPLINE
  5
BE
330
1F
100
AcDbEntity
  8
0
  6
Continuous
 62
     7
370
    15
100
AcDbSpline
210
0.0
220
0.0
230
1.0
 70
     8
 71
     3
 72
    11
 73
     7
 74
     0
 42
0.00000001
 43
0.00000001
 12
1.0
 22
0.0
 32
0.0
 13
1.0
 23
0.0
 33
0.0
 40
0.0
 40
0.0
 40
0.0
 40
0.0
 40
0.2908614005114298
 40
0.5839520822362994
 40
0.8745985169675561
 40
1.0
 40
1.0
 40
1.0
 40
1.0
 10
252.1781701225489
 20
121.5319716376114
 30
0.0
 10
252.1912645937836
 20
121.4971012209474
 30
0.0
 10
252.2175538976575
 20
121.4270931264269
 30
0.0
 10
252.2991838168529
 20
121.3459129303757
 30
0.0
 10
252.3822523240344
 20
121.3030222559253
 30
0.0
 10
252.4352861635555
 20
121.2926138647859
 30
0.0
 10
252.4512711543292
 20
121.2894766596008
 30
0.0
  0
SPLINE
  5
BF
330
1F
100
AcDbEntity
  8
0
  6
Continuous
 62
     7
370
    15
100
AcDbSpline
210
0.0
220
0.0
230
1.0
 70
     8
 71
     3
 72
    12
 73
     8
 74
     0
 42
0.00000001
 43
0.00000001
 12
1.0
 22
0.0
 32
0.0
 13
1.0
 23
0.0
 33
0.0
 40
0.0
 40
0.0
 40
0.0
 40
0.0
 40
0.2058387317800432
 40
0.4120656300129186
 40
0.6141423132876698
 40
0.8132819236759313
 40
1.0
 40
1.0
 40
1.0
 40
1.0
 10
252.8301257271022
 20
121.549202967887
 30
0.0
 10
252.8495815385605
 20
121.6109866102947
 30
0.0
 10
252.8885298508468
 20
121.7346704054341
 30
0.0
 10
253.0216988184357
 20
121.8843030633729
 30
0.0
 10
253.1912473711967
 20
121.983103433656
 30
0.0
 10
253.3790671502358
 20
122.0248776882095
 30
0.0
 10
253.4998071483993
 20
122.0044733487063
 30
0.0
 10
253.5582337159366
 20
121.9945996072936
 30
0.0
  0
SPLINE
  5
C0
330
1F
100
AcDbEntity
  8
0
  6
Continuous
 62
     7
370
    15
100
AcDbSpline
210
0.0
220
0.0
230
1.0
 70
     8
 71
     3
 72
    11
 73
     7
 74
     0
 42
0.00000001
 43
0.00000001
 12
1.0
 22
0.0
 32
0.0
 13
1.0
 23
0.0
 33
0.0
 40
0.0
 40
0.0
 40
0.0
 40
0.0
 40
0.2929036239022043
 40
0.5864390857210959
 40
0.8775231859231343
 40
1.0
 40
1.0
 40
1.0
 40
1.0
 10
253.5582337159366
 20
121.9945996072936
 30
0.0
 10
253.5956053977709
 20
121.9886608709018
 30
0.0
 10
253.6704293778735
 20
121.9767705873553
 30
0.0
 10
253.782624087958
 20
122.0073902646077
 30
0.0
 10
253.8613320201096
 20
122.0578548471718
 30
0.0
 10
253.8967459212654
 20
122.0981845850772
 30
0.0
 10
253.9072338122577
 20
122.1101283100295
 30
0.0
  0
SPLINE
  5
C1
330
1F
100
AcDbEntity
  8
0
  6
Continuous
 62
     7
370
    15
100
AcDbSpline
210
0.0
220
0.0
230
1.0
 70
     8
 71
     3
 72
    11
 73
     7
 74
     0
 42
0.00000001
 43
0.00000001
 12
1.0
 22
0.0
 32
0.0
 13
1.0
 23
0.0
 33
0.0
 40
0.0
 40
0.0
 40
0.0
 40
0.0
 40
0.2668981744872582
 40
0.5546178825850736
 40
0.8439052277064434
 40
1.0
 40
1.0
 40
1.0
 40
1.0
 10
252.5710317868441
 20
121.2927521210957
 30
0.0
 10
252.6043704547044
 20
121.3028632192292
 30
0.0
 10
252.6736486407106
 20
121.3238742128345
 30
0.0
 10
252.7587991643582
 20
121.3953065998589
 30
0.0
 10
252.810403472764
 20
121.4755078202554
 30
0.0
 10
252.8250074243831
 20
121.5300776656758
 30
0.0
 10
252.8301257271022
 20
121.549202967887
 30
0.0
  0
ARC
  5
C2
330
1F
100
AcDbEntity
  8
0
  6
Continuous
 62
     7
370
    15
100
AcDbCircle
 10
253.6475550055
 20
122.2219959621
 30
0.0
 40
0.3337364104737202
100
AcDbArc
 50
8.026770378
 51
48.3708719717
  0
SPLINE
  5
C3
330
1F
100
AcDbEntity
  8
0
  6
Continuous
 62
     7
370
    15
100
AcDbSpline
210
0.0
220
0.0
230
1.0
 70
     8
 71
     3
 72
    11
 73
     7
 74
     0
 42
0.00000001
 43
0.00000001
 12
1.0
 22
0.0
 32
0.0
 13
1.0
 23
0.0
 33
0.0
 40
0.0
 40
0.0
 40
0.0
 40
0.0
 40
0.2657591244642641
 40
0.5530033694040694
 40
0.8418162883330466
 40
1.0
 40
1.0
 40
1.0
 40
1.0
 10
253.9644691724032
 20
122.2151256170917
 30
0.0
 10
253.9723299595117
 20
122.2488299236401
 30
0.0
 10
253.9886870338585
 20
122.3189633390863
 30
0.0
 10
253.9689385483848
 20
122.4278415734151
 30
0.0
 10
253.9244889219933
 20
122.5125075133724
 30
0.0
 10
253.8836945610543
 20
122.552340950745
 30
0.0
 10
253.8692582029551
 20
122.566437256043
 30
0.0
  0
LWPOLYLINE
  5
C4
330
1F
100
AcDbEntity
  8
0
  6
Continuous
 62
     7
370
    15
100
AcDbPolyline
 90
        3
 70
   128
 43
0.0
 10
250.9916502613
 20
122.2136401576
 10
251.0214451331
 20
122.3074038518
 10
251.0865185041
 20
122.3979321313
  0
SPLINE
  5
C5
330
1F
100
AcDbEntity
  8
0
  6
Continuous
 62
     7
370
    15
100
AcDbSpline
210
0.0
220
0.0
230
1.0
 70
     8
 71
     3
 72
    11
 73
     7
 74
     0
 42
0.00000001
 43
0.00000001
 12
1.0
 22
0.0
 32
0.0
 13
1.0
 23
0.0
 33
0.0
 40
0.0
 40
0.0
 40
0.0
 40
0.0
 40
0.2794058418193772
 40
0.5596222242369499
 40
0.8375008573825106
 40
0.9999999999999999
 40
0.9999999999999999
 40
0.9999999999999999
 40
0.9999999999999999
 10
251.0865185040683
 20
122.492889781003
 30
0.0
 10
251.0623424467664
 20
122.4641900558574
 30
0.0
 10
251.0139201987831
 20
122.4067073492812
 30
0.0
 10
250.9837045406072
 20
122.295841434593
 30
0.0
 10
250.987805962628
 20
122.1969088308613
 30
0.0
 10
251.0092650209999
 20
122.1411519908043
 30
0.0
 10
251.0171834010333
 20
122.1205777493167
 30
0.0
  0
SPLINE
  5
C6
330
1F
100
AcDbEntity
  8
0
  6
Continuous
 62
     7
370
    15
100
AcDbSpline
210
0.0
220
0.0
230
1.0
 70
     8
 71
     3
 72
    12
 73
     8
 74
     0
 42
0.00000001
 43
0.00000001
 12
1.0
 22
0.0
 32
0.0
 13
1.0
 23
0.0
 33
0.0
 40
0.0
 40
0.0
 40
0.0
 40
0.0
 40
0.2057900610955149
 40
0.412033926379135
 40
0.6141308218349875
 40
0.8132627269600029
 40
1.0
 40
1.0
 40
1.0
 40
1.0
 10
253.8692582029551
 20
122.566437256043
 30
0.0
 10
253.8247703854323
 20
122.6137835165675
 30
0.0
 10
253.735696646728
 20
122.7085804446572
 30
0.0
 10
253.6714092784812
 20
122.8978755369989
 30
0.0
 10
253.6704762684112
 20
123.0937992471257
 30
0.0
 10
253.7291185867414
 20
123.277539051379
 30
0.0
 10
253.8083179862182
 20
123.3722919817059
 30
0.0
 10
253.8466456908435
 20
123.41814665169
 30
0.0
  0
SPLINE
  5
C7
330
1F
100
AcDbEntity
  8
0
  6
Continuous
 62
     7
370
    15
100
AcDbSpline
210
0.0
220
0.0
230
1.0
 70
     8
 71
     3
 72
    11
 73
     7
 74
     0
 42
0.00000001
 43
0.00000001
 12
1.0
 22
0.0
 32
0.0
 13
1.0
 23
0.0
 33
0.0
 40
0.0
 40
0.0
 40
0.0
 40
0.0
 40
0.2802379567747659
 40
0.5612874512501487
 40
0.8399901229076705
 40
1.0
 40
1.0
 40
1.0
 40
1.0
 10
253.8466456908435
 20
123.41814665169
 30
0.0
 10
253.8708208489333
 20
123.447639781796
 30
0.0
 10
253.9192411736601
 20
123.5067114508056
 30
0.0
 10
253.9494702605926
 20
123.6193021190808
 30
0.0
 10
253.9453806835926
 20
123.7187807795393
 30
0.0
 10
253.9242146770402
 20
123.7744199223752
 30
0.0
 10
253.9164948839396
 20
123.7947129648972
 30
0.0
  0
SPLINE
  5
C8
330
1F
100
AcDbEntity
  8
0
  6
Continuous
 62
     7
370
    15
100
AcDbSpline
210
0.0
220
0.0
230
1.0
 70
     8
 71
     3
 72
    12
 73
     8
 74
     0
 42
0.00000001
 43
0.00000001
 12
1.0
 22
0.0
 32
0.0
 13
1.0
 23
0.0
 33
0.0
 40
0.0
 40
0.0
 40
0.0
 40
0.0
 40
0.0091714287916962
 40
0.2576761265772602
 40
0.5061916019652017
 40
0.7560436511782674
 40
1.0
 40
1.0
 40
1.0
 40
1.0
 10
250.9922761100978
 20
123.7558246594715
 30
0.0
 10
250.99162788223
 20
123.7546191873855
 30
0.0
 10
250.9734155785749
 20
123.7207508136678
 30
0.0
 10
250.949318974167
 20
123.6471379687442
 30
0.0
 10
250.9516781404708
 20
123.5338931068387
 30
0.0
 10
250.9890366485283
 20
123.4261835151874
 30
0.0
 10
251.0391489786413
 20
123.3715766344853
 30
0.0
 10
251.0639059919566
 20
123.3445991766501
 30
0.0
  0
SPLINE
  5
C9
330
1F
100
AcDbEntity
  8
0
  6
Continuous
 62
     7
370
    15
100
AcDbSpline
210
0.0
220
0.0
230
1.0
 70
     8
 71
     3
 72
    12
 73
     8
 74
     0
 42
0.00000001
 43
0.00000001
 12
1.0
 22
0.0
 32
0.0
 13
1.0
 23
0.0
 33
0.0
 40
0.0
 40
0.0
 40
0.0
 40
0.0
 40
0.2057552981699632
 40
0.411962569060933
 40
0.6140159252976309
 40
0.8131417903285039
 40
0.9999999999999999
 40
0.9999999999999999
 40
0.9999999999999999
 40
0.9999999999999999
 10
251.0639059919566
 20
123.3445991766501
 30
0.0
 10
251.108390194122
 20
123.295898614731
 30
0.0
 10
251.1974563147501
 20
123.1983905127216
 30
0.0
 10
251.2617523057461
 20
123.0069356667185
 30
0.0
 10
251.2627058420455
 20
122.8111997790786
 30
0.0
 10
251.2040834929717
 20
122.6297513719377
 30
0.0
 10
251.1248675993529
 20
122.5375333287167
 30
0.0
 10
251.0865185040683
 20
122.492889781003
 30
0.0
  0
ARC
  5
CA
330
1F
100
AcDbEntity
  8
0
  6
Continuous
 62
     7
370
    15
100
AcDbCircle
 10
250.67585354
 20
122.813316327
 30
0.0
 40
0.5841144945872352
100
AcDbArc
 50
314.6726718838
 51
359.9873581497
  0
ARC
  5
CB
330
1F
100
AcDbEntity
  8
0
  6
Continuous
 62
     7
370
    15
100
AcDbCircle
 10
254.257499643
 20
122.9081090185
 30
0.0
 40
0.5842960482820575
100
AcDbArc
 50
180.0184715286
 51
228.3590770791
  0
ARC
  5
CC
330
1F
100
AcDbEntity
  8
0
  6
Continuous
 62
     7
370
    15
100
AcDbCircle
 10
253.6109289031
 20
123.559867275
 30
0.0
 40
0.3348840422155791
100
AcDbArc
 50
6.5457307359
 51
108.3100586831
  0
SPLINE
  5
CD
330
1F
100
AcDbEntity
  8
0
  6
Continuous
 62
     7
370
    15
100
AcDbSpline
210
0.0
220
0.0
230
1.0
 70
     8
 71
     3
 72
    11
 73
     7
 74
     0
 42
0.00000001
 43
0.00000001
 12
1.0
 22
0.0
 32
0.0
 13
1.0
 23
0.0
 33
0.0
 40
0.0
 40
0.0
 40
0.0
 40
0.0
 40
0.2423545885889602
 40
0.5166949938536136
 40
0.7923354442387872
 40
1.0
 40
1.0
 40
1.0
 40
1.0
 10
253.8722160834521
 20
123.8670506519127
 30
0.0
 10
253.8493372521443
 20
123.8909225652991
 30
0.0
 10
253.8005600547708
 20
123.9418169932209
 30
0.0
 10
253.6999639690897
 20
123.9852313613627
 30
0.0
 10
253.5961877073885
 20
123.9963793573598
 30
0.0
 10
253.5329106542013
 20
123.9798530124217
 30
0.0
 10
253.5057220238894
 20
123.9727520388413
 30
0.0
  0
ARC
  5
CE
330
1F
100
AcDbEntity
  8
0
  6
Continuous
 62
     7
370
    15
100
AcDbCircle
 10
251.2866749408
 20
123.4984933533
 30
0.0
 40
0.3348482052986582
100
AcDbArc
 50
74.7180722717
 51
174.4587012975
  0
SPLINE
  5
CF
330
1F
100
AcDbEntity
  8
0
  6
Continuous
 62
     7
370
    15
100
AcDbSpline
210
0.0
220
0.0
230
1.0
 70
     8
 71
     3
 72
    11
 73
     7
 74
     0
 42
0.00000001
 43
0.00000001
 12
1.0
 22
0.0
 32
0.0
 13
1.0
 23
0.0
 33
0.0
 40
0.0
 40
0.0
 40
0.0
 40
0.0
 40
0.2535072801095059
 40
0.5075629842844277
 40
0.7595012256435358
 40
0.9999999999999999
 40
0.9999999999999999
 40
0.9999999999999999
 40
0.9999999999999999
 10
251.3749304789752
 20
123.9164368253994
 30
0.0
 10
251.3375453276759
 20
123.9231771602286
 30
0.0
 10
251.2626941480445
 20
123.936672411566
 30
0.0
 10
251.1507003880419
 20
123.9077045476765
 30
0.0
 10
251.0539477832046
 20
123.84755038518
 30
0.0
 10
251.0125124827727
 20
123.7859226911254
 30
0.0
 10
250.9922761100978
 20
123.7558246594716
 30
0.0
  0
SPLINE
  5
D0
330
1F
100
AcDbEntity
  8
0
  6
Continuous
 62
     7
370
    15
100
AcDbSpline
210
0.0
220
0.0
230
1.0
 70
     8
 71
     3
 72
    12
 73
     8
 74
     0
 42
0.00000001
 43
0.00000001
 12
1.0
 22
0.0
 32
0.0
 13
1.0
 23
0.0
 33
0.0
 40
0.0
 40
0.0
 40
0.0
 40
0.0
 40
0.2058594447737137
 40
0.4121039464195682
 40
0.614194025612241
 40
0.8133196164670241
 40
1.0
 40
1.0
 40
1.0
 40
1.0
 10
253.5057220238894
 20
123.9727520388413
 30
0.0
 10
253.4417605651378
 20
123.95764714339
 30
0.0
 10
253.3137180087263
 20
123.9274090990166
 30
0.0
 10
253.1162673225342
 20
123.9659933028009
 30
0.0
 10
252.9457888218622
 20
124.063203819002
 30
0.0
 10
252.8166293051823
 20
124.2063103453097
 30
0.0
 10
252.775092523169
 20
124.322731179784
 30
0.0
 10
252.7549940723628
 20
124.3790638637591
 30
0.0
  0
SPLINE
  5
D1
330
1F
100
AcDbEntity
  8
0
  6
Continuous
 62
     7
370
    15
100
AcDbSpline
210
0.0
220
0.0
230
1.0
 70
     8
 71
     3
 72
    11
 73
     7
 74
     0
 42
0.00000001
 43
0.00000001
 12
1.0
 22
0.0
 32
0.0
 13
1.0
 23
0.0
 33
0.0
 40
0.0
 40
0.0
 40
0.0
 40
0.0
 40
0.2524767303808105
 40
0.5068904234249451
 40
0.7591843927302906
 40
1.0
 40
1.0
 40
1.0
 40
1.0
 10
252.7549940723628
 20
124.3790638637591
 30
0.0
 10
252.741899940313
 20
124.4147391217629
 30
0.0
 10
252.7156112200455
 20
124.4863633328657
 30
0.0
 10
252.6340203859027
 20
124.5690669774633
 30
0.0
 10
252.533033145097
 20
124.6230415981444
 30
0.0
 10
252.4587661394729
 20
124.628195732083
 30
0.0
 10
252.4224970120639
 20
124.6307128113556
 30
0.0
  0
SPLINE
  5
D2
330
1F
100
AcDbEntity
  8
0
  6
Continuous
 62
     7
370
    15
100
AcDbSpline
210
0.0
220
0.0
230
1.0
 70
     8
 71
     3
 72
    12
 73
     8
 74
     0
 42
0.00000001
 43
0.00000001
 12
1.0
 22
0.0
 32
0.0
 13
1.0
 23
0.0
 33
0.0
 40
0.0
 40
0.0
 40
0.0
 40
0.0
 40
0.0091764936089372
 40
0.2573287377660694
 40
0.505498527405625
 40
0.7549912030325838
 40
1.0
 40
1.0
 40
1.0
 40
1.0
 10
252.4224970120639
 20
124.6307128113556
 30
0.0
 10
252.4211236690007
 20
124.6306722994385
 30
0.0
 10
252.3826121577403
 20
124.6295362576184
 30
0.0
 10
252.3067406839556
 20
124.6136345956446
 30
0.0
 10
252.2099911087566
 20
124.5548645806414
 30
0.0
 10
252.1356040752604
 20
124.4682826430578
 30
0.0
 10
252.1138328339674
 20
124.3971007567353
 30
0.0
 10
252.1030459183902
 20
124.3618325334835
 30
0.0
  0
SPLINE
  5
D3
330
1F
100
AcDbEntity
  8
0
  6
Continuous
 62
     7
370
    15
100
AcDbSpline
210
0.0
220
0.0
230
1.0
 70
     8
 71
     3
 72
    12
 73
     8
 74
     0
 42
0.00000001
 43
0.00000001
 12
1.0
 22
0.0
 32
0.0
 13
1.0
 23
0.0
 33
0.0
 40
0.0
 40
0.0
 40
0.0
 40
0.0
 40
0.205843886371796
 40
0.4120703735306401
 40
0.6141361612204513
 40
0.813258781675168
 40
1.0
 40
1.0
 40
1.0
 40
1.0
 10
252.1030459183902
 20
124.3618325334835
 30
0.0
 10
252.0835872490464
 20
124.298685975287
 30
0.0
 10
252.044633742648
 20
124.172275488768
 30
0.0
 10
251.9114686412026
 20
124.0204517406455
 30
0.0
 10
251.7419255071581
 20
123.9218135516144
 30
0.0
 10
251.5541067084606
 20
123.8823567493937
 30
0.0
 10
251.4333644501283
 20
123.9053224371576
 30
0.0
 10
251.3749304789752
 20
123.9164368253994
 30
0.0
  0
ARC
  5
D4
330
1F
100
AcDbEntity
  8
0
  6
Continuous
 62
     7
370
    15
100
AcDbCircle
 10
251.5292175805
 20
124.3871236601
 30
0.0
 40
0.586287392508129
100
AcDbArc
 50
254.7423809201
 51
348.1669417398
  0
ARC
  5
D5
330
1F
100
AcDbEntity
  8
0
  6
Continuous
 62
     7
370
    15
100
AcDbCircle
 10
253.3217853449
 20
124.4346400723
 30
0.0
 40
0.5864364776614414
100
AcDbArc
 50
194.8722035585
 51
288.2794250713
  0
ARC
  5
D6
330
1F
100
AcDbEntity
  8
0
  6
Continuous
 62
     7
370
    15
100
AcDbCircle
 10
252.4652782459
 20
122.8951261925
 30
0.0
 40
2.625007391573933
100
AcDbArc
 50
180.0992013185
 51
359.9007986815
  0
ARC
  5
D7
330
1F
100
AcDbEntity
  8
0
  6
Continuous
 62
     7
370
    15
100
AcDbCircle
 10
252.4310652726
 20
124.1980944096
 30
0.0
 40
0.33515784622436
100
AcDbArc
 50
14.8732004959
 51
168.1535006471
  0
LINE
  5
D8
330
1F
100
AcDbEntity
  8
0
  6
Continuous
 62
     7
370
    15
100
AcDbLine
 10
245.9896433729
 20
116.0249616024
 30
0.0
 11
256.1479288716
 21
119.2200546157
 31
0.0
  0
LINE
  5
D9
330
1F
100
AcDbEntity
  8
0
  6
Continuous
 62
     7
370
    15
100
AcDbLine
 10
247.2948658842
 20
117.7498846319
 30
0.0
 11
245.8753812689
 21
116.3711872888
 31
0.0
  0
LINE
  5
DA
330
1F
100
AcDbEntity
  8
0
  6
Continuous
 62
     7
370
    15
100
AcDbLine
 10
255.8579001207
 20
119.7327327919
 30
0.0
 11
256.0336667675
 21
119.5662803021
 31
0.0
  0
SPLINE
  5
DB
330
1F
100
AcDbEntity
  8
0
  6
Continuous
 62
     7
370
    15
100
AcDbSpline
210
0.0
220
0.0
230
1.0
 70
     8
 71
     3
 72
    10
 73
     6
 74
     0
 42
0.00000001
 43
0.00000001
 12
1.0
 22
0.0
 32
0.0
 13
1.0
 23
0.0
 33
0.0
 40
0.0
 40
0.0
 40
0.0
 40
0.0
 40
0.3518049947670181
 40
0.7034264592363386
 40
1.0
 40
1.0
 40
1.0
 40
1.0
 10
256.1554316062183
 20
119.2014933568287
 30
0.0
 10
256.1966059148778
 20
119.2191201365391
 30
0.0
 10
256.2789330523054
 20
119.254364500388
 30
0.0
 10
256.3689978458932
 20
119.3494557733555
 30
0.0
 10
256.4003412328581
 20
119.4253766181827
 30
0.0
 10
256.4146820086688
 20
119.4601132538963
 30
0.0
  0
LINE
  5
DC
330
1F
100
AcDbEntity
  8
0
  6
Continuous
 62
     7
370
    15
100
AcDbLine
 10
245.9873709459
 20
116.0033260477
 30
0.0
 11
256.1554316062
 21
119.2014933568
 31
0.0
  0
SPLINE
  5
DD
330
1F
100
AcDbEntity
  8
0
  6
Continuous
 62
     7
370
    15
100
AcDbSpline
210
0.0
220
0.0
230
1.0
 70
     8
 71
     3
 72
    14
 73
    10
 74
     0
 42
0.00000001
 43
0.00000001
 12
1.0
 22
0.0
 32
0.0
 13
1.0
 23
0.0
 33
0.0
 40
0.0
 40
0.0
 40
0.0
 40
0.0
 40
0.1588507222896881
 40
0.3173327424647698
 40
0.4720136986135731
 40
0.6236461427688725
 40
0.7746640401563378
 40
0.927743134465197
 40
0.9999999999999999
 40
0.9999999999999999
 40
0.9999999999999999
 40
0.9999999999999999
 10
245.4912814873904
 20
116.4982113060403
 30
0.0
 10
245.4817496050534
 20
116.4532246652295
 30
0.0
 10
245.4627079644535
 20
116.3633558003166
 30
0.0
 10
245.4932076027355
 20
116.2273488610589
 30
0.0
 10
245.5637640553675
 20
116.1116933687219
 30
0.0
 10
245.668366723485
 20
116.0277384909338
 30
0.0
 10
245.7938845660907
 20
115.9836405427467
 30
0.0
 10
245.9045883402077
 20
115.9813966020981
 30
0.0
 10
245.9672709599194
 20
115.9980014804553
 30
0.0
 10
245.987370945856
 20
116.0033260476637
 30
0.0
  0
LINE
  5
DE
330
1F
100
AcDbEntity
  8
0
  6
Continuous
 62
     7
370
    15
100
AcDbLine
 10
248.6972588677
 20
126.6415015799
 30
0.0
 11
245.4912814874
 21
116.498211306
 31
0.0
  0
SPLINE
  5
DF
330
1F
100
AcDbEntity
  8
0
  6
Continuous
 62
     7
370
    15
100
AcDbSpline
210
0.0
220
0.0
230
1.0
 70
     8
 71
     3
 72
    10
 73
     6
 74
     0
 42
0.00000001
 43
0.00000001
 12
1.0
 22
0.0
 32
0.0
 13
1.0
 23
0.0
 33
0.0
 40
0.0
 40
0.0
 40
0.0
 40
0.0
 40
0.3518030188042782
 40
0.7034271855535061
 40
0.9999999999999999
 40
0.9999999999999999
 40
0.9999999999999999
 40
0.9999999999999999
 10
248.9565092701167
 20
126.9001224082756
 30
0.0
 10
248.9153348400871
 20
126.8824960791858
 30
0.0
 10
248.8330069125698
 20
126.8472523820015
 30
0.0
 10
248.7429435169098
 20
126.7521591665358
 30
0.0
 10
248.7115997420947
 20
126.676238117891
 30
0.0
 10
248.6972588676661
 20
126.6415015798855
 30
0.0
  0
LINE
  5
E0
330
1F
100
AcDbEntity
  8
0
  6
Continuous
 62
     7
370
    15
100
AcDbLine
 10
259.1245624799
 20
130.0982897174
 30
0.0
 11
248.9565092701
 21
126.9001224083
 31
0.0
  0
SPLINE
  5
E1
330
1F
100
AcDbEntity
  8
0
  6
Continuous
 62
     7
370
    15
100
AcDbSpline
210
0.0
220
0.0
230
1.0
 70
     8
 71
     3
 72
    14
 73
    10
 74
     0
 42
0.00000001
 43
0.00000001
 12
1.0
 22
0.0
 32
0.0
 13
1.0
 23
0.0
 33
0.0
 40
0.0
 40
0.0
 40
0.0
 40
0.0
 40
0.1588496346985167
 40
0.3173316248491931
 40
0.4720169663455823
 40
0.6236402910640718
 40
0.7746571544582685
 40
0.9277352132707353
 40
1.0
 40
1.0
 40
1.0
 40
1.0
 10
259.6206593889445
 20
129.6034035277415
 30
0.0
 10
259.6301910789013
 20
129.6483900555233
 30
0.0
 10
259.6492323984943
 20
129.7382589934306
 30
0.0
 10
259.6187349989607
 20
129.8742694901943
 30
0.0
 10
259.5481693364347
 20
129.989918375605
 30
0.0
 10
259.4435733360926
 20
130.073878540982
 30
0.0
 10
259.318055821724
 20
130.1179739660229
 30
0.0
 10
259.2073503949839
 20
130.1202181141361
 30
0.0
 10
259.1446649583925
 20
130.1036143487292
 30
0.0
 10
259.1245624798984
 20
130.0982897174407
 30
0.0
  0
LINE
  5
E2
330
1F
100
AcDbEntity
  8
0
  6
Continuous
 62
     7
370
    15
100
AcDbLine
 10
256.4146820087
 20
119.4601132539
 30
0.0
 11
259.6206593889
 21
129.6034035277
 31
0.0
  0
ARC
  5
E3
330
1F
100
AcDbEntity
  8
0
  6
Continuous
 62
     7
370
    15
100
AcDbCircle
 10
245.8750781699
 20
116.3867987113
 30
0.0
 40
0.3795408794383515
100
AcDbArc
 50
162.5708853287
 51
287.5688772176
  0
ARC
  5
E4
330
1F
100
AcDbEntity
  8
0
  6
Continuous
 62
     7
370
    15
100
AcDbCircle
 10
256.0342607705
 20
119.5821521898
 30
0.0
 40
0.3795195520185737
100
AcDbArc
 50
287.4278901645
 51
342.4313038828
  0
LINE
  5
E5
330
1F
100
AcDbEntity
  8
0
  6
Continuous
 62
     7
370
    15
100
AcDbLine
 10
256.3960779089
 20
119.4675945681
 30
0.0
 11
259.5989707488
 21
129.6011348259
 31
0.0
  0
ARC
  5
E6
330
1F
100
AcDbEntity
  8
0
  6
Continuous
 62
     7
370
    15
100
AcDbCircle
 10
259.2368601115
 20
129.71482263
 30
0.0
 40
0.3795379169632757
100
AcDbArc
 50
342.5698626227
 51
107.569787708
  0
LINE
  5
E7
330
1F
100
AcDbEntity
  8
0
  6
Continuous
 62
     7
370
    15
100
AcDbLine
 10
259.1222900528
 20
130.076655094
 30
0.0
 11
248.9640045542
 21
126.8815611494
 31
0.0
  0
ARC
  5
E8
330
1F
100
AcDbEntity
  8
0
  6
Continuous
 62
     7
370
    15
100
AcDbCircle
 10
249.077691744
 20
126.5194553302
 30
0.0
 40
0.379533136145531
100
AcDbArc
 50
107.4302667923
 51
162.4306475597
  0
LINE
  5
E9
330
1F
100
AcDbEntity
  8
0
  6
Continuous
 62
     7
370
    15
100
AcDbLine
 10
248.7158629674
 20
126.634021197
 30
0.0
 11
245.5129626769
 21
116.5004809392
 31
0.0
  0
LINE
  5
EA
330
1F
100
AcDbEntity
  8
0
  6
Continuous
 62
     7
370
    15
100
AcDbLine
 10
249.2540333051
 20
126.3205156666
 30
0.0
 11
249.0782741088
 21
126.5047275466
 31
0.0
  0
SPLINE
  5
EB
330
1F
100
AcDbEntity
  8
0
  6
Continuous
 62
     7
370
    15
100
AcDbSpline
210
0.0
220
0.0
230
1.0
 70
     8
 71
     3
 72
    11
 73
     7
 74
     0
 42
0.00000001
 43
0.00000001
 12
1.0
 22
0.0
 32
0.0
 13
1.0
 23
0.0
 33
0.0
 40
0.0
 40
0.0
 40
0.0
 40
0.0
 40
0.0073038909729019
 40
0.1268494238022935
 40
0.5874319130292882
 40
0.9999999999999999
 40
0.9999999999999999
 40
0.9999999999999999
 40
0.9999999999999999
 10
247.7810386199206
 20
118.2426902470041
 30
0.0
 10
247.779976099314
 20
118.2415718052742
 30
0.0
 10
247.7615229039923
 20
118.2221474067565
 30
0.0
 10
247.6742700447653
 20
118.1305719939589
 30
0.0
 10
247.5104343562269
 20
117.9619324736866
 30
0.0
 10
247.3640386159094
 20
117.8179276454848
 30
0.0
 10
247.2948658842296
 20
117.7498846319366
 30
0.0
  0
LINE
  5
EC
330
1F
100
AcDbEntity
  8
0
  6
Continuous
 62
     7
370
    15
100
AcDbLine
 10
249.5757195729
 20
118.8264516187
 30
0.0
 11
254.5646283406
 21
120.3956174669
 31
0.0
  0
LINE
  5
ED
330
1F
100
AcDbEntity
  8
0
  6
Continuous
 62
     7
370
    15
100
AcDbLine
 10
255.5362213034
 20
127.2751641464
 30
0.0
 11
250.5473050851
 21
125.7059973669
 31
0.0
  0
ARC
  5
EE
330
1F
100
AcDbEntity
  8
0
  6
Continuous
 62
     7
370
    15
100
AcDbCircle
 10
255.8377203181
 20
126.3229770928
 30
0.0
 40
0.9987801765284194
100
AcDbArc
 50
342.5696515949
 51
107.5697884259
  0
LINE
  5
EF
330
1F
100
AcDbEntity
  8
0
  6
Continuous
 62
     7
370
    15
100
AcDbLine
 10
255.2176419276
 20
121.0470384923
 30
0.0
 11
256.7906383056
 21
126.0237962943
 31
0.0
  0
ARC
  5
F0
330
1F
100
AcDbEntity
  8
0
  6
Continuous
 62
     7
370
    15
100
AcDbCircle
 10
254.2654668311
 20
121.3485258853
 30
0.0
 40
0.9987652690543537
100
AcDbArc
 50
287.4294571132
 51
342.4306401086
  0
ARC
  5
F1
330
1F
100
AcDbEntity
  8
0
  6
Continuous
 62
     7
370
    15
100
AcDbCircle
 10
249.2742221035
 20
119.7786456724
 30
0.0
 40
0.9987863835817222
100
AcDbArc
 50
162.5702402726
 51
287.569582695
  0
LINE
  5
F2
330
1F
100
AcDbEntity
  8
0
  6
Continuous
 62
     7
370
    15
100
AcDbLine
 10
249.8942989487
 20
125.0545782042
 30
0.0
 11
248.3212951202
 21
120.0778185394
 31
0.0
  0
ARC
  5
F3
330
1F
100
AcDbEntity
  8
0
  6
Continuous
 62
     7
370
    15
100
AcDbCircle
 10
250.8464797372
 20
124.7530858024
 30
0.0
 40
0.9987722073958993
100
AcDbArc
 50
107.4301223717
 51
162.4304647413
  0
CIRCLE
  5
F4
330
1F
100
AcDbEntity
  8
0
  6
Continuous
 62
     7
370
    15
100
AcDbCircle
 10
252.5509288608
 20
123.0470716825
 30
0.0
 40
3.045645114338963
  0
SPLINE
  5
F5
330
1F
100
AcDbEntity
  8
0
  6
Continuous
 62
     7
370
    15
100
AcDbSpline
210
0.0
220
0.0
230
1.0
 70
     8
 71
     3
 72
    11
 73
     7
 74
     0
 42
0.00000001
 43
0.00000001
 12
1.0
 22
0.0
 32
0.0
 13
1.0
 23
0.0
 33
0.0
 40
0.0
 40
0.0
 40
0.0
 40
0.0
 40
0.3277697749931978
 40
0.6551482086907537
 40
0.9907806430003532
 40
1.0
 40
1.0
 40
1.0
 40
1.0
 10
255.8579001206607
 20
119.7327327919054
 30
0.0
 10
255.8053424511356
 20
119.7831394232879
 30
0.0
 10
255.7002898634069
 20
119.8838925029671
 30
0.0
 10
255.5270367239478
 20
120.057558999871
 30
0.0
 10
255.4178528703412
 20
120.1705518501127
 30
0.0
 10
255.3668038525923
 20
120.2242780955942
 30
0.0
 10
255.3654390949458
 20
120.2257144269395
 30
0.0
  0
LWPOLYLINE
  5
F6
330
1F
100
AcDbEntity
  8
0
  6
Continuous
 62
     7
370
    15
100
AcDbPolyline
 90
        3
 70
   128
 43
0.0
 10
249.647133388
 20
123.896072526
 10
249.5159808177
 20
123.2274332088
 10
249.5059672374
 20
122.9811542672
  0
ARC
  5
F7
330
1F
100
AcDbEntity
  8
0
  6
Continuous
 62
     7
370
    15
100
AcDbCircle
 10
252.5552739076
 20
122.9743959095
 30
0.0
 40
3.050699766822283
100
AcDbArc
 50
0.1269301207
 51
162.4150358781
  0
LINE
  5
F8
330
1F
100
AcDbEntity
  8
0
  6
Continuous
 62
     7
370
    15
100
AcDbLine
 10
257.8170749921
 20
128.2464590859
 30
0.0
 11
259.2365596074
 21
129.6998196286
 31
0.0
  0
SPLINE
  5
F9
330
1F
100
AcDbEntity
  8
0
  6
Continuous
 62
     7
370
    15
100
AcDbSpline
210
0.0
220
0.0
230
1.0
 70
     8
 71
     3
 72
    11
 73
     7
 74
     0
 42
0.00000001
 43
0.00000001
 12
1.0
 22
0.0
 32
0.0
 13
1.0
 23
0.0
 33
0.0
 40
0.0
 40
0.0
 40
0.0
 40
0.0
 40
0.0092125878314733
 40
0.344845551830649
 40
0.6722295346988182
 40
1.0
 40
1.0
 40
1.0
 40
1.0
 10
249.7464943308085
 20
125.8309734058428
 30
0.0
 10
249.7451320774727
 20
125.83225536509
 30
0.0
 10
249.6941402159102
 20
125.8802416586387
 30
0.0
 10
249.5848817439348
 20
125.9852828455586
 30
0.0
 10
249.411648469649
 20
126.1572059066074
 30
0.0
 10
249.3065923511782
 20
126.2660576756776
 30
0.0
 10
249.2540333050937
 20
126.3205156666088
 30
0.0
  0
SPLINE
  5
FA
330
1F
100
AcDbEntity
  8
0
  6
Continuous
 62
     7
370
    15
100
AcDbSpline
210
0.0
220
0.0
230
1.0
 70
     8
 71
     3
 72
    11
 73
     7
 74
     0
 42
0.00000001
 43
0.00000001
 12
1.0
 22
0.0
 32
0.0
 13
1.0
 23
0.0
 33
0.0
 40
0.0
 40
0.0
 40
0.0
 40
0.0
 40
0.4125754717133717
 40
0.8731572324322295
 40
0.9927031395529122
 40
0.9999999999999999
 40
0.9999999999999999
 40
0.9999999999999999
 40
0.9999999999999999
 10
257.8170749921054
 20
128.2464590859461
 30
0.0
 10
257.7478951992322
 20
128.1764841324965
 30
0.0
 10
257.6014860192717
 20
128.028392108412
 30
0.0
 10
257.4377050172762
 20
127.8702639667745
 30
0.0
 10
257.3503883277793
 20
127.7876355475552
 30
0.0
 10
257.3319622499861
 20
127.7702900696531
 30
0.0
 10
257.3309022564143
 20
127.7692922395516
 30
0.0
  0
LINE
  5
FB
330
1F
100
AcDbEntity
  8
0
  6
HIDDEN
 62
     7
370
     0
100
AcDbLine
 10
169.6365590769
 20
88.7141496879
 30
0.0
 11
169.6365590769
 21
127.5141508323
 31
0.0
  0
SPLINE
  5
FC
330
1F
100
AcDbEntity
  8
0
  6
HIDDEN
 62
     7
370
     0
100
AcDbSpline
210
0.0
220
0.0
230
1.0
 70
     8
 71
     3
 72
    58
 73
    54
 74
     0
 42
0.00000001
 43
0.00000001
 12
1.0
 22
0.0
 32
0.0
 13
1.0
 23
0.0
 33
0.0
 40
-0.0624999999999999
 40
-0.0624999999999999
 40
0.0
 40
0.0
 40
0.0312499999999998
 40
0.0312499999999998
 40
0.0624999999999996
 40
0.0624999999999996
 40
0.0937499999999993
 40
0.0937499999999993
 40
0.1249999999999991
 40
0.1249999999999991
 40
0.187499999999999
 40
0.187499999999999
 40
0.2499999999999988
 40
0.2499999999999988
 40
0.2812499999999989
 40
0.2812499999999989
 40
0.3124999999999991
 40
0.3124999999999991
 40
0.3437499999999992
 40
0.3437499999999992
 40
0.3749999999999993
 40
0.3749999999999993
 40
0.4062499999999994
 40
0.4062499999999994
 40
0.4374999999999996
 40
0.4374999999999996
 40
0.4687499999999997
 40
0.4687499999999997
 40
0.4999999999999998
 40
0.4999999999999998
 40
0.5625
 40
0.5625
 40
0.6250000000000002
 40
0.6250000000000002
 40
0.6562500000000003
 40
0.6562500000000003
 40
0.6875000000000003
 40
0.6875000000000003
 40
0.7187500000000003
 40
0.7187500000000003
 40
0.7500000000000002
 40
0.7500000000000002
 40
0.7812500000000001
 40
0.7812500000000001
 40
0.8125000000000001
 40
0.8125000000000001
 40
0.8437500000000001
 40
0.8437500000000001
 40
0.8750000000000001
 40
0.8750000000000001
 40
0.9375000000000001
 40
0.9375000000000001
 40
1.0
 40
1.0
 40
1.03125
 40
1.03125
 10
159.6365595239848
 20
107.8497141456476
 30
0.0
 10
159.6365595239848
 20
108.2463683173197
 30
0.0
 10
159.649541561657
 20
108.3763604781601
 30
0.0
 10
159.7003923639153
 20
108.6320800906124
 30
0.0
 10
159.7388842679682
 20
108.7591387744736
 30
0.0
 10
159.8392995536947
 20
109.0013019721324
 30
0.0
 10
159.9007356929677
 20
109.1161437565171
 30
0.0
 10
160.0458691692785
 20
109.3334859540873
 30
0.0
 10
160.1302908581296
 20
109.436327601935
 30
0.0
 10
160.4068910322945
 20
109.7128710826866
 30
0.0
 10
160.6298899435616
 20
109.8618537188188
 30
0.0
 10
161.1111244611473
 20
110.0613967823735
 30
0.0
 10
161.3744238766563
 20
110.1140072554049
 30
0.0
 10
161.7659873166965
 20
110.1142213141574
 30
0.0
 10
161.8985749273012
 20
110.1012224647518
 30
0.0
 10
162.1551406329005
 20
110.0501723807255
 30
0.0
 10
162.279850399081
 20
110.0124011419133
 30
0.0
 10
162.522089584108
 20
109.9122092338008
 30
0.0
 10
162.6391062378817
 20
109.8496238399762
 30
0.0
 10
162.855749442728
 20
109.7049187542657
 30
0.0
 10
162.9567561991865
 20
109.6222994128855
 30
0.0
 10
163.1435622948431
 20
109.4356553780955
 30
0.0
 10
163.2262758303749
 20
109.3347095301356
 30
0.0
 10
163.3711459597502
 20
109.1182283264539
 30
0.0
 10
163.4338162558469
 20
109.0013111614454
 30
0.0
 10
163.5342441938832
 20
108.759114692247
 30
0.0
 10
163.5721153728129
 20
108.6344537013435
 30
0.0
 10
163.6233777705886
 20
108.3780543522755
 30
0.0
 10
163.6365114112293
 20
108.2454434269776
 30
0.0
 10
163.6366553443681
 20
107.8537688146425
 30
0.0
 10
163.5842900871033
 20
107.5904847949819
 30
0.0
 10
163.3851294237526
 20
107.1089720811221
 30
0.0
 10
163.2363317503907
 20
106.8858509940772
 30
0.0
 10
162.9600310918045
 20
106.6090188455696
 30
0.0
 10
162.8572660447448
 20
106.5245116312854
 30
0.0
 10
162.6400487709504
 20
106.3791906895995
 30
0.0
 10
162.5252790775126
 20
106.3176684663374
 30
0.0
 10
162.283292540368
 20
106.2170720630654
 30
0.0
 10
162.1562099674766
 20
106.1784441749768
 30
0.0
 10
161.9005352674734
 20
106.1273660649106
 30
0.0
 10
161.7705947501292
 20
106.1142769251434
 30
0.0
 10
161.5063313823678
 20
106.1140254067848
 30
0.0
 10
161.3761204887209
 20
106.1268998768412
 30
0.0
 10
161.1203705432873
 20
106.1775187739733
 30
0.0
 10
160.9933531589199
 20
106.215866592769
 30
0.0
 10
160.7510014311682
 20
106.3161007129624
 30
0.0
 10
160.6360986518819
 20
106.3774448999525
 30
0.0
 10
160.4186764867329
 20
106.5223499044816
 30
0.0
 10
160.3157400892882
 20
106.6066887966036
 30
0.0
 10
160.0389029321313
 20
106.8830899096453
 30
0.0
 10
159.8897476910671
 20
107.1059335426878
 30
0.0
 10
159.6897771058319
 20
107.5869968239384
 30
0.0
 10
159.6365595239848
 20
107.8497141456476
 30
0.0
 10
159.6365595239848
 20
108.2463683173197
 30
0.0
  0
SPLINE
  5
FD
330
1F
100
AcDbEntity
  8
0
  6
HIDDEN
 62
     7
370
     0
100
AcDbSpline
210
0.0
220
0.0
230
1.0
 70
     8
 71
     3
 72
    12
 73
     8
 74
     0
 42
0.00000001
 43
0.00000001
 12
1.0
 22
0.0
 32
0.0
 13
1.0
 23
0.0
 33
0.0
 40
0.0
 40
0.0
 40
0.0
 40
0.0
 40
0.2499999999999996
 40
0.2499999999999996
 40
0.4999999999999992
 40
0.4999999999999992
 40
1.0
 40
1.0
 40
1.0
 40
1.0
 10
156.568461525984
 20
102.284937264444
 30
0.0
 10
156.5309496399393
 20
102.284937264444
 30
0.0
 10
156.4956622922346
 20
102.2701324501572
 30
0.0
 10
156.4367324439962
 20
102.2265405770313
 30
0.0
 10
156.4132067175271
 20
102.1990271509454
 30
0.0
 10
156.3529479297591
 20
102.1098954188318
 30
0.0
 10
156.3273531674697
 20
102.043509568214
 30
0.0
 10
156.3086539048487
 20
101.9759051330366
 30
0.0
  0
LINE
  5
FE
330
1F
100
AcDbEntity
  8
0
  6
HIDDEN
 62
     7
370
     0
100
AcDbLine
 10
158.7046574432
 20
102.284937073
 30
0.0
 11
156.5684614334
 21
102.284937073
 31
0.0
  0
SPLINE
  5
FF
330
1F
100
AcDbEntity
  8
0
  6
HIDDEN
 62
     7
370
     0
100
AcDbSpline
210
0.0
220
0.0
230
1.0
 70
     8
 71
     3
 72
    12
 73
     8
 74
     0
 42
0.00000001
 43
0.00000001
 12
1.0
 22
0.0
 32
0.0
 13
1.0
 23
0.0
 33
0.0
 40
0.0
 40
0.0
 40
0.0
 40
0.0
 40
0.5000000000000031
 40
0.5000000000000031
 40
0.7500000000000016
 40
0.7500000000000016
 40
1.0
 40
1.0
 40
1.0
 40
1.0
 10
158.9644651431209
 20
101.9759051330366
 30
0.0
 10
158.9457719099906
 20
102.043487769477
 30
0.0
 10
158.9201166125787
 20
102.1099703389544
 30
0.0
 10
158.8599559898923
 20
102.1989654218519
 30
0.0
 10
158.8358836781379
 20
102.226967318851
 30
0.0
 10
158.7775021577874
 20
102.2700437195162
 30
0.0
 10
158.7420333301343
 20
102.284937264444
 30
0.0
 10
158.7046575219856
 20
102.284937264444
 30
0.0
  0
ELLIPSE
  5
100
330
1F
100
AcDbEntity
  8
0
  6
HIDDEN
 62
     7
370
     0
100
AcDbEllipse
 10
148.6876303515
 20
108.1141502601
 30
0.0
 11
-9.367417879781728
 21
19.74174915274996
 31
0.0
210
0.0
220
0.0
230
1.0
 40
0.3419987131
 41
3.292664382516902
 42
4.239566697061005
  0
SPLINE
  5
101
330
1F
100
AcDbEntity
  8
0
  6
HIDDEN
 62
     7
370
     0
100
AcDbSpline
210
0.0
220
0.0
230
1.0
 70
     8
 71
     3
 72
    12
 73
     8
 74
     0
 42
0.00000001
 43
0.00000001
 12
1.0
 22
0.0
 32
0.0
 13
1.0
 23
0.0
 33
0.0
 40
0.0
 40
0.0
 40
0.0
 40
0.0
 40
0.2499999999999972
 40
0.2499999999999972
 40
0.4999999999999944
 40
0.4999999999999944
 40
1.0
 40
1.0
 40
1.0
 40
1.0
 10
158.7046575219856
 20
88.98249387986226
 30
0.0
 10
158.7421694080303
 20
88.98249387986225
 30
0.0
 10
158.777456755735
 20
88.98699742412482
 30
0.0
 10
158.8363866039734
 20
89.0003706235781
 30
0.0
 10
158.8599123304425
 20
89.00885552614923
 30
0.0
 10
158.9201711182106
 20
89.03660332998382
 30
0.0
 10
158.9457658804999
 20
89.05759319372417
 30
0.0
 10
158.9644651431209
 20
89.07939397691372
 30
0.0
  0
LINE
  5
102
330
1F
100
AcDbEntity
  8
0
  6
HIDDEN
 62
     7
370
     0
100
AcDbLine
 10
156.5684614334
 20
88.982493524
 30
0.0
 11
158.7046574432
 21
88.982493524
 31
0.0
  0
SPLINE
  5
103
330
1F
100
AcDbEntity
  8
0
  6
HIDDEN
 62
     7
370
     0
100
AcDbSpline
210
0.0
220
0.0
230
1.0
 70
     8
 71
     3
 72
    12
 73
     8
 74
     0
 42
0.00000001
 43
0.00000001
 12
1.0
 22
0.0
 32
0.0
 13
1.0
 23
0.0
 33
0.0
 40
0.0
 40
0.0
 40
0.0
 40
0.0
 40
0.4999999999999984
 40
0.4999999999999984
 40
0.7499999999999992
 40
0.7499999999999992
 40
1.0
 40
1.0
 40
1.0
 40
1.0
 10
156.3086539048487
 20
89.07939397691372
 30
0.0
 10
156.3273471379791
 20
89.05760022328576
 30
0.0
 10
156.3530024353909
 20
89.03658006157613
 30
0.0
 10
156.4131630580773
 20
89.00887471561242
 30
0.0
 10
156.4372353698317
 20
89.00023949941904
 30
0.0
 10
156.4956168901822
 20
88.98702485419246
 30
0.0
 10
156.5310857178353
 20
88.98249387986226
 30
0.0
 10
156.568461525984
 20
88.98249387986226
 30
0.0
  0
ELLIPSE
  5
104
330
1F
100
AcDbEntity
  8
0
  6
HIDDEN
 62
     7
370
     0
100
AcDbEllipse
 10
166.5854886964
 20
108.1141502601
 30
0.0
 11
9.367417879781584
 21
19.74174915274996
 31
0.0
210
0.0
220
0.0
230
1.0
 40
0.3419987131
 41
2.043618610118589
 42
2.99052092466272
  0
SPLINE
  5
105
330
1F
100
AcDbEntity
  8
0
  6
HIDDEN
 62
     7
370
     0
100
AcDbSpline
210
0.0
220
0.0
230
1.0
 70
     8
 71
     3
 72
    12
 73
     8
 74
     0
 42
0.00000001
 43
0.00000001
 12
1.0
 22
0.0
 32
0.0
 13
1.0
 23
0.0
 33
0.0
 40
0.0
 40
0.0
 40
0.0
 40
0.0
 40
0.2499999999999973
 40
0.2499999999999973
 40
0.4999999999999947
 40
0.4999999999999947
 40
1.0
 40
1.0
 40
1.0
 40
1.0
 10
156.568461525984
 20
127.2458066403291
 30
0.0
 10
156.5309496399393
 20
127.2458066403291
 30
0.0
 10
156.4956622922346
 20
127.2413030960665
 30
0.0
 10
156.4367324439962
 20
127.2279298966132
 30
0.0
 10
156.4132067175271
 20
127.2194449940421
 30
0.0
 10
156.3529479297591
 20
127.1916971902075
 30
0.0
 10
156.3273531674697
 20
127.1707073264672
 30
0.0
 10
156.3086539048487
 20
127.1489065432776
 30
0.0
  0
LINE
  5
106
330
1F
100
AcDbEntity
  8
0
  6
HIDDEN
 62
     7
370
     0
100
AcDbLine
 10
158.7046574432
 20
127.2458069962
 30
0.0
 11
156.5684614334
 21
127.2458069962
 31
0.0
  0
SPLINE
  5
107
330
1F
100
AcDbEntity
  8
0
  6
HIDDEN
 62
     7
370
     0
100
AcDbSpline
210
0.0
220
0.0
230
1.0
 70
     8
 71
     3
 72
    12
 73
     8
 74
     0
 42
0.00000001
 43
0.00000001
 12
1.0
 22
0.0
 32
0.0
 13
1.0
 23
0.0
 33
0.0
 40
0.0
 40
0.0
 40
0.0
 40
0.0
 40
0.4999999999999991
 40
0.4999999999999991
 40
0.7499999999999996
 40
0.7499999999999996
 40
1.0
 40
1.0
 40
1.0
 40
1.0
 10
158.9644651431209
 20
127.1489065432776
 30
0.0
 10
158.9457719099905
 20
127.1707002969056
 30
0.0
 10
158.9201166125787
 20
127.1917204586152
 30
0.0
 10
158.8599559898922
 20
127.219425804579
 30
0.0
 10
158.8358836781379
 20
127.2280610207723
 30
0.0
 10
158.7775021577874
 20
127.2412756659989
 30
0.0
 10
158.7420333301343
 20
127.2458066403291
 30
0.0
 10
158.7046575219856
 20
127.2458066403291
 30
0.0
  0
ELLIPSE
  5
108
330
1F
100
AcDbEntity
  8
0
  6
HIDDEN
 62
     7
370
     0
100
AcDbEllipse
 10
148.6876303515
 20
108.1141502601
 30
0.0
 11
9.367417879781812
 21
19.74174915274996
 31
0.0
210
0.0
220
0.0
230
1.0
 40
0.3419987131
 41
5.185211263708412
 42
6.132113578252571
  0
SPLINE
  5
109
330
1F
100
AcDbEntity
  8
0
  6
HIDDEN
 62
     7
370
     0
100
AcDbSpline
210
0.0
220
0.0
230
1.0
 70
     8
 71
     3
 72
    12
 73
     8
 74
     0
 42
0.00000001
 43
0.00000001
 12
1.0
 22
0.0
 32
0.0
 13
1.0
 23
0.0
 33
0.0
 40
0.0
 40
0.0
 40
0.0
 40
0.0
 40
0.2500000000000016
 40
0.2500000000000016
 40
0.5000000000000032
 40
0.5000000000000032
 40
1.0
 40
1.0
 40
1.0
 40
1.0
 10
158.7046575219856
 20
113.9433632557475
 30
0.0
 10
158.7421694080303
 20
113.9433632557475
 30
0.0
 10
158.777456755735
 20
113.9581680700344
 30
0.0
 10
158.8363866039734
 20
114.0017599431602
 30
0.0
 10
158.8599123304425
 20
114.0292733692462
 30
0.0
 10
158.9201711182106
 20
114.1184051013598
 30
0.0
 10
158.9457658804998
 20
114.1847909519776
 30
0.0
 10
158.9644651431209
 20
114.2523953871549
 30
0.0
  0
LINE
  5
10A
330
1F
100
AcDbEntity
  8
0
  6
HIDDEN
 62
     7
370
     0
100
AcDbLine
 10
156.5684614334
 20
113.9433634472
 30
0.0
 11
158.7046574432
 21
113.9433634472
 31
0.0
  0
SPLINE
  5
10B
330
1F
100
AcDbEntity
  8
0
  6
HIDDEN
 62
     7
370
     0
100
AcDbSpline
210
0.0
220
0.0
230
1.0
 70
     8
 71
     3
 72
    12
 73
     8
 74
     0
 42
0.00000001
 43
0.00000001
 12
1.0
 22
0.0
 32
0.0
 13
1.0
 23
0.0
 33
0.0
 40
0.0
 40
0.0
 40
0.0
 40
0.0
 40
0.5
 40
0.5
 40
0.75
 40
0.75
 40
1.0
 40
1.0
 40
1.0
 40
1.0
 10
156.3086539048487
 20
114.2523953871549
 30
0.0
 10
156.3273471379791
 20
114.1848127507146
 30
0.0
 10
156.3530024353909
 20
114.1183301812372
 30
0.0
 10
156.4131630580774
 20
114.0293350983397
 30
0.0
 10
156.4372353698317
 20
114.0013332013405
 30
0.0
 10
156.4956168901823
 20
113.9582568006754
 30
0.0
 10
156.5310857178353
 20
113.9433632557476
 30
0.0
 10
156.568461525984
 20
113.9433632557476
 30
0.0
  0
ELLIPSE
  5
10C
330
1F
100
AcDbEntity
  8
0
  6
HIDDEN
 62
     7
370
     0
100
AcDbEllipse
 10
166.5854886964
 20
108.1141502601
 30
0.0
 11
-9.367417879781698
 21
19.74174915274996
 31
0.0
210
0.0
220
0.0
230
1.0
 40
0.3419987131
 41
0.1510717289270556
 42
1.09797404347119
  0
LINE
  5
10D
330
1F
100
AcDbEntity
  8
0
  6
HIDDEN
 62
     7
370
     0
100
AcDbLine
 10
149.636559524
 20
88.4141501975
 30
0.0
 11
149.636559524
 21
127.8141503227
 31
0.0
  0
LINE
  5
10E
330
1F
100
AcDbEntity
  8
0
  6
HIDDEN
 62
     7
370
     0
100
AcDbLine
 10
169.6365590769
 20
90.114151035
 30
0.0
 11
169.6365590769
 21
126.0954969567
 31
0.0
  0
SPLINE
  5
10F
330
1F
100
AcDbEntity
  8
0
  6
HIDDEN
 62
     7
370
     0
100
AcDbSpline
210
0.0
220
0.0
230
1.0
 70
     8
 71
     3
 72
    66
 73
    62
 74
     0
 42
0.00000001
 43
0.00000001
 12
1.0
 22
0.0
 32
0.0
 13
1.0
 23
0.0
 33
0.0
 40
-0.0312500000000027
 40
-0.0312500000000027
 40
0.0
 40
0.0
 40
0.0312499999999992
 40
0.0312499999999992
 40
0.0624999999999984
 40
0.0624999999999984
 40
0.0937499999999976
 40
0.0937499999999976
 40
0.1249999999999968
 40
0.1249999999999968
 40
0.156249999999996
 40
0.156249999999996
 40
0.1874999999999952
 40
0.1874999999999952
 40
0.2187499999999944
 40
0.2187499999999944
 40
0.2499999999999936
 40
0.2499999999999936
 40
0.2812499999999928
 40
0.2812499999999928
 40
0.312499999999992
 40
0.312499999999992
 40
0.3437499999999911
 40
0.3437499999999911
 40
0.3749999999999902
 40
0.3749999999999902
 40
0.4062499999999894
 40
0.4062499999999894
 40
0.4374999999999885
 40
0.4374999999999885
 40
0.4687499999999877
 40
0.4687499999999877
 40
0.4999999999999868
 40
0.4999999999999868
 40
0.5624999999999877
 40
0.5624999999999877
 40
0.5937499999999881
 40
0.5937499999999881
 40
0.6249999999999886
 40
0.6249999999999886
 40
0.656249999999989
 40
0.656249999999989
 40
0.6874999999999893
 40
0.6874999999999893
 40
0.7187499999999898
 40
0.7187499999999898
 40
0.7499999999999902
 40
0.7499999999999902
 40
0.7812499999999907
 40
0.7812499999999907
 40
0.812499999999991
 40
0.812499999999991
 40
0.8437499999999915
 40
0.8437499999999915
 40
0.8749999999999919
 40
0.8749999999999919
 40
0.9374999999999947
 40
0.9374999999999947
 40
0.9687499999999973
 40
0.9687499999999973
 40
1.0
 40
1.0
 40
1.031249999999999
 40
1.031249999999999
 10
219.4711257762634
 20
100.8529648846354
 30
0.0
 10
219.8019932717061
 20
100.8529648846354
 30
0.0
 10
219.9646110194335
 20
100.867625470922
 30
0.0
 10
220.2844608781686
 20
100.9251155237522
 30
0.0
 10
220.4433693700252
 20
100.9686608898734
 30
0.0
 10
220.7459924193508
 20
101.0824234934918
 30
0.0
 10
220.8894824728767
 20
101.152117827022
 30
0.0
 10
221.1610424482268
 20
101.3173018480052
 30
0.0
 10
221.2894200047865
 20
101.4135429540261
 30
0.0
 10
221.5196271212844
 20
101.6246227697777
 30
0.0
 10
221.6230217651964
 20
101.7402283472729
 30
0.0
 10
221.8057917323121
 20
101.9926778866967
 30
0.0
 10
221.8832999564875
 20
102.1273420004429
 30
0.0
 10
222.0080675302883
 20
102.4077551139424
 30
0.0
 10
222.0562033100163
 20
102.5555853668499
 30
0.0
 10
222.1205249449085
 20
102.8595567473786
 30
0.0
 10
222.1364662257476
 20
103.0132063349606
 30
0.0
 10
222.1366520134084
 20
103.3238456332062
 30
0.0
 10
222.1203640016215
 20
103.4824443372045
 30
0.0
 10
222.0564801071922
 20
103.7905889722494
 30
0.0
 10
222.0092156744243
 20
103.9411336985532
 30
0.0
 10
221.8838075635993
 20
104.234898139453
 30
0.0
 10
221.8056407608395
 20
104.3771636584442
 30
0.0
 10
221.6248331273235
 20
104.6418050965707
 30
0.0
 10
221.5212966499977
 20
104.7660605249981
 30
0.0
 10
221.2884634435576
 20
104.9956376172932
 30
0.0
 10
221.1624931087652
 20
105.0977811267677
 30
0.0
 10
220.8920378933222
 20
105.2772940803929
 30
0.0
 10
220.7457766409374
 20
105.3552945575628
 30
0.0
 10
220.4433345501397
 20
105.4802817458093
 30
0.0
 10
220.2875150695161
 20
105.5276094528769
 30
0.0
 10
219.9666643083157
 20
105.5917459631165
 30
0.0
 10
219.800803552721
 20
105.6081840172884
 30
0.0
 10
219.3109775192811
 20
105.6083738007807
 30
0.0
 10
218.9815352632545
 20
105.5426911307377
 30
0.0
 10
218.5300773497177
 20
105.3565748544551
 30
0.0
 10
218.3843579713786
 20
105.2792729595211
 30
0.0
 10
218.1115349364965
 20
105.0985775688984
 30
0.0
 10
217.9857897149513
 20
104.996473307834
 30
0.0
 10
217.7551237662229
 20
104.7695928993014
 30
0.0
 10
217.6495530593203
 20
104.6434604852703
 30
0.0
 10
217.4681676717191
 20
104.3783698213254
 30
0.0
 10
217.39122227187
 20
104.2386670693247
 30
0.0
 10
217.2652625055969
 20
103.9450062934405
 30
0.0
 10
217.2170503888118
 20
103.7919302827217
 30
0.0
 10
217.1531314401525
 20
103.4848952936296
 30
0.0
 10
217.1366975528032
 20
103.3289966094193
 30
0.0
 10
217.1364232181963
 20
103.0147079517507
 30
0.0
 10
217.1525068241264
 20
102.8608815580821
 30
0.0
 10
217.2158927104795
 20
102.5595234430226
 30
0.0
 10
217.2640187326732
 20
102.4104228950212
 30
0.0
 10
217.3892244976428
 20
102.1283361986156
 30
0.0
 10
217.4658852084008
 20
101.9951047795779
 30
0.0
 10
217.6472316070874
 20
101.7437617446834
 30
0.0
 10
217.7524686347285
 20
101.6257010911494
 30
0.0
 10
218.0974131904911
 20
101.308998992066
 30
0.0
 10
218.3758087177501
 20
101.1395894495106
 30
0.0
 10
218.826725061626
 20
100.9696581987896
 30
0.0
 10
218.9846732429256
 20
100.9259822612182
 30
0.0
 10
219.3076738231426
 20
100.8676271562414
 30
0.0
 10
219.4711257762634
 20
100.8529648846354
 30
0.0
 10
219.8019932717061
 20
100.8529648846354
 30
0.0
  0
LINE
  5
110
330
1F
100
AcDbEntity
  8
0
  6
HIDDEN
 62
     7
370
     0
100
AcDbLine
 10
149.636559524
 20
92.314151023
 30
0.0
 11
149.636559524
 21
123.895699997
 31
0.0
  0
SPLINE
  5
111
330
1F
100
AcDbEntity
  8
0
  6
HIDDEN
 62
     7
370
     0
100
AcDbSpline
210
0.0
220
0.0
230
1.0
 70
     8
 71
     3
 72
    18
 73
    14
 74
     0
 42
0.00000001
 43
0.00000001
 12
1.0
 22
0.0
 32
0.0
 13
1.0
 23
0.0
 33
0.0
 40
0.0
 40
0.0
 40
0.0
 40
0.0
 40
0.2500000000000007
 40
0.2500000000000007
 40
0.5000000000000013
 40
0.5000000000000013
 40
0.625000000000001
 40
0.625000000000001
 40
0.7500000000000007
 40
0.7500000000000007
 40
0.8750000000000003
 40
0.8750000000000003
 40
1.0
 40
1.0
 40
1.0
 40
1.0
 10
148.3804752064218
 20
117.9385901782469
 30
0.0
 10
148.4147762509546
 20
117.8305799924494
 30
0.0
 10
148.4525965222514
 20
117.7233029044214
 30
0.0
 10
148.5392148427121
 20
117.5118062071048
 30
0.0
 10
148.5875861774556
 20
117.4074198569351
 30
0.0
 10
148.6769891595741
 20
117.2565449342909
 30
0.0
 10
148.7095864434514
 20
117.2071999312553
 30
0.0
 10
148.7859683473963
 20
117.112594292785
 30
0.0
 10
148.829006784737
 20
117.0675983580304
 30
0.0
 10
148.9348198175689
 20
116.9966705853726
 30
0.0
 10
148.9998582423
 20
116.972724041466
 30
0.0
 10
149.1330103141026
 20
116.9850047055368
 30
0.0
 10
149.1923794945657
 20
117.0183216635417
 30
0.0
 10
149.2415826351095
 20
117.0591565497664
 30
0.0
  0
SPLINE
  5
112
330
1F
100
AcDbEntity
  8
0
  6
HIDDEN
 62
     7
370
     0
100
AcDbSpline
210
0.0
220
0.0
230
1.0
 70
     8
 71
     3
 72
    16
 73
    12
 74
     0
 42
0.00000001
 43
0.00000001
 12
1.0
 22
0.0
 32
0.0
 13
1.0
 23
0.0
 33
0.0
 40
0.0
 40
0.0
 40
0.0
 40
0.0
 40
0.0625000000000001
 40
0.0625000000000001
 40
0.1250000000000002
 40
0.1250000000000002
 40
0.2500000000000003
 40
0.2500000000000003
 40
0.5000000000000002
 40
0.5000000000000002
 40
1.0
 40
1.0
 40
1.0
 40
1.0
 10
149.2415826350787
 20
117.0591565497958
 30
0.0
 10
149.2536524683545
 20
117.0691735987761
 30
0.0
 10
149.2679281232878
 20
117.0781327058318
 30
0.0
 10
149.2993925354123
 20
117.0860031012261
 30
0.0
 10
149.3148930602227
 20
117.0836456105837
 30
0.0
 10
149.3503319568296
 20
117.0666699184057
 30
0.0
 10
149.363924572933
 20
117.0461214272381
 30
0.0
 10
149.3969188913258
 20
116.9841791002245
 30
0.0
 10
149.4077062846445
 20
116.9377835500193
 30
0.0
 10
149.4327595319237
 20
116.7948475213248
 30
0.0
 10
149.4365595239849
 20
116.6952848044393
 30
0.0
 10
149.4365595239849
 20
116.5935173997927
 30
0.0
  0
LINE
  5
113
330
1F
100
AcDbEntity
  8
0
  6
HIDDEN
 62
     7
370
     0
100
AcDbLine
 10
149.436559529
 20
99.6347832498
 30
0.0
 11
149.436559529
 21
116.5935172704
 31
0.0
  0
SPLINE
  5
114
330
1F
100
AcDbEntity
  8
0
  6
HIDDEN
 62
     7
370
     0
100
AcDbSpline
210
0.0
220
0.0
230
1.0
 70
     8
 71
     3
 72
    16
 73
    12
 74
     0
 42
0.00000001
 43
0.00000001
 12
1.0
 22
0.0
 32
0.0
 13
1.0
 23
0.0
 33
0.0
 40
0.0
 40
0.0
 40
0.0
 40
0.0
 40
0.5000000000000067
 40
0.5000000000000067
 40
0.7500000000000078
 40
0.7500000000000078
 40
0.875000000000006
 40
0.875000000000006
 40
0.937500000000003
 40
0.937500000000003
 40
1.0
 40
1.0
 40
1.0
 40
1.0
 10
149.4365595239848
 20
99.63478312039842
 30
0.0
 10
149.4365595239848
 20
99.53277296681836
 30
0.0
 10
149.4326760988259
 20
99.4332485915651
 30
0.0
 10
149.4078607735512
 20
99.29126349555445
 30
0.0
 10
149.3970213258387
 20
99.24427019498398
 30
0.0
 10
149.3638055437899
 20
99.18197746462235
 30
0.0
 10
149.3504238001611
 20
99.16169603233723
 30
0.0
 10
149.3149141502989
 20
99.14465432413678
 30
0.0
 10
149.2994971837981
 20
99.14226806912066
 30
0.0
 10
149.2677961616495
 20
99.15020399897865
 30
0.0
 10
149.2536498766987
 20
99.15912907235331
 30
0.0
 10
149.241582635109
 20
99.1691439704252
 30
0.0
  0
SPLINE
  5
115
330
1F
100
AcDbEntity
  8
0
  6
HIDDEN
 62
     7
370
     0
100
AcDbSpline
210
0.0
220
0.0
230
1.0
 70
     8
 71
     3
 72
    18
 73
    14
 74
     0
 42
0.00000001
 43
0.00000001
 12
1.0
 22
0.0
 32
0.0
 13
1.0
 23
0.0
 33
0.0
 40
0.0
 40
0.0
 40
0.0
 40
0.0
 40
0.1249999999999994
 40
0.1249999999999994
 40
0.2499999999999987
 40
0.2499999999999987
 40
0.3749999999999981
 40
0.3749999999999981
 40
0.4999999999999974
 40
0.4999999999999974
 40
0.7499999999999987
 40
0.7499999999999987
 40
1.0
 40
1.0
 40
1.0
 40
1.0
 10
149.2415826351152
 20
99.1691439704326
 30
0.0
 10
149.1928771429731
 20
99.20956584611406
 30
0.0
 10
149.1343670346463
 20
99.24259796758179
 30
0.0
 10
149.0026379163541
 20
99.25587511953464
 30
0.0
 10
148.9378789800136
 20
99.23292153255446
 30
0.0
 10
148.832668007154
 20
99.16386833563487
 30
0.0
 10
148.7894516317141
 20
99.11940068379398
 30
0.0
 10
148.7132731266021
 20
99.02623102442396
 30
0.0
 10
148.6804181652222
 20
98.97708865486315
 30
0.0
 10
148.5900498853885
 20
98.8258789199233
 30
0.0
 10
148.5406266510184
 20
98.71972415039507
 30
0.0
 10
148.4529781959702
 20
98.50614253473358
 30
0.0
 10
148.4149190237674
 20
98.39817010349833
 30
0.0
 10
148.3804752064218
 20
98.28971034194437
 30
0.0
  0
SPLINE
  5
116
330
1F
100
AcDbEntity
  8
0
  6
HIDDEN
 62
     7
370
     0
100
AcDbSpline
210
0.0
220
0.0
230
1.0
 70
     8
 71
     3
 72
     8
 73
     4
 74
     0
 42
0.00000001
 43
0.00000001
 12
1.0
 22
0.0
 32
0.0
 13
1.0
 23
0.0
 33
0.0
 40
0.0
 40
0.0
 40
0.0
 40
0.0
 40
1.0
 40
1.0
 40
1.0
 40
1.0
 10
148.3804752064212
 20
98.28971034194383
 30
0.0
 10
148.3561615025311
 20
98.21314918439376
 30
0.0
 10
148.334664860575
 20
98.13672381326057
 30
0.0
 10
148.315239180425
 20
98.06063094248887
 30
0.0
  0
SPLINE
  5
117
330
1F
100
AcDbEntity
  8
0
  6
HIDDEN
 62
     7
370
     0
100
AcDbSpline
210
0.0
220
0.0
230
1.0
 70
     8
 71
     3
 72
     8
 73
     4
 74
     0
 42
0.00000001
 43
0.00000001
 12
1.0
 22
0.0
 32
0.0
 13
1.0
 23
0.0
 33
0.0
 40
0.0
 40
0.0
 40
0.0
 40
0.0
 40
1.0
 40
1.0
 40
1.0
 40
1.0
 10
148.315239180425
 20
94.28908625209044
 30
0.0
 10
148.3346646073184
 20
94.28558904850316
 30
0.0
 10
148.3561611612874
 20
94.28357273086093
 30
0.0
 10
148.3804752064218
 20
94.28296187741705
 30
0.0
  0
SPLINE
  5
118
330
1F
100
AcDbEntity
  8
0
  6
HIDDEN
 62
     7
370
     0
100
AcDbSpline
210
0.0
220
0.0
230
1.0
 70
     8
 71
     3
 72
     8
 73
     4
 74
     0
 42
0.00000001
 43
0.00000001
 12
1.0
 22
0.0
 32
0.0
 13
1.0
 23
0.0
 33
0.0
 40
0.0
 40
0.0
 40
0.0
 40
0.0
 40
1.0
 40
1.0
 40
1.0
 40
1.0
 10
149.4137085108788
 20
94.19360348635891
 30
0.0
 10
149.4326454430446
 20
94.16564904895743
 30
0.0
 10
149.4365595239849
 20
94.14556519760112
 30
0.0
 10
149.4365595239849
 20
94.1293383534357
 30
0.0
  0
LINE
  5
119
330
1F
100
AcDbEntity
  8
0
  6
HIDDEN
 62
     7
370
     0
100
AcDbLine
 10
149.436559529
 20
94.0243302849
 30
0.0
 11
149.436559529
 21
94.1293387678
 31
0.0
  0
LINE
  5
11A
330
1F
100
AcDbEntity
  8
0
  6
HIDDEN
 62
     7
370
     0
100
AcDbLine
 10
149.436559529
 20
122.0989617524
 30
0.0
 11
149.436559529
 21
122.2039702353
 31
0.0
  0
SPLINE
  5
11B
330
1F
100
AcDbEntity
  8
0
  6
HIDDEN
 62
     7
370
     0
100
AcDbSpline
210
0.0
220
0.0
230
1.0
 70
     8
 71
     3
 72
    10
 73
     6
 74
     0
 42
0.00000001
 43
0.00000001
 12
1.0
 22
0.0
 32
0.0
 13
1.0
 23
0.0
 33
0.0
 40
0.0
 40
0.0
 40
0.0
 40
0.0
 40
0.5
 40
0.5
 40
1.0
 40
1.0
 40
1.0
 40
1.0
 10
149.4365595239848
 20
122.0989621667558
 30
0.0
 10
149.4365595239848
 20
122.0888359666357
 30
0.0
 10
149.4345509449393
 20
122.0770753740819
 30
0.0
 10
149.4233677170338
 20
122.0490941593316
 30
0.0
 10
149.4150665833593
 20
122.033113844994
 30
0.0
 10
149.3962201941172
 20
122.0127577629664
 30
0.0
  0
SPLINE
  5
11C
330
1F
100
AcDbEntity
  8
0
  6
HIDDEN
 62
     7
370
     0
100
AcDbSpline
210
0.0
220
0.0
230
1.0
 70
     8
 71
     3
 72
     8
 73
     4
 74
     0
 42
0.00000001
 43
0.00000001
 12
1.0
 22
0.0
 32
0.0
 13
1.0
 23
0.0
 33
0.0
 40
0.0
 40
0.0
 40
0.0
 40
0.0
 40
1.0
 40
1.0
 40
1.0
 40
1.0
 10
148.3804752064214
 20
121.9453386427742
 30
0.0
 10
148.3561611612872
 20
121.9447277893303
 30
0.0
 10
148.3346646073183
 20
121.9427114716881
 30
0.0
 10
148.315239180425
 20
121.9392142681008
 30
0.0
  0
SPLINE
  5
11D
330
1F
100
AcDbEntity
  8
0
  6
HIDDEN
 62
     7
370
     0
100
AcDbSpline
210
0.0
220
0.0
230
1.0
 70
     8
 71
     3
 72
     8
 73
     4
 74
     0
 42
0.00000001
 43
0.00000001
 12
1.0
 22
0.0
 32
0.0
 13
1.0
 23
0.0
 33
0.0
 40
0.0
 40
0.0
 40
0.0
 40
0.0
 40
1.0
 40
1.0
 40
1.0
 40
1.0
 10
148.315239180425
 20
118.1676695777024
 30
0.0
 10
148.334664860575
 20
118.0915767069307
 30
0.0
 10
148.3561615025311
 20
118.0151513357975
 30
0.0
 10
148.3804752064212
 20
117.9385901782475
 30
0.0
  0
LINE
  5
11E
330
1F
100
AcDbEntity
  8
0
  6
HIDDEN
 62
     7
370
     0
100
AcDbLine
 10
149.436559529
 20
94.1293387678
 30
0.0
 11
149.436559529
 21
102.6087053125
 31
0.0
  0
LINE
  5
11F
330
1F
100
AcDbEntity
  8
0
  6
HIDDEN
 62
     7
370
     0
100
AcDbLine
 10
149.436559529
 20
113.6195952077
 30
0.0
 11
149.436559529
 21
122.0989617524
 31
0.0
  0
SPLINE
  5
120
330
1F
100
AcDbEntity
  8
0
  6
HIDDEN
 62
     7
370
     0
100
AcDbSpline
210
0.0
220
0.0
230
1.0
 70
     8
 71
     3
 72
    62
 73
    58
 74
     0
 42
0.00000001
 43
0.00000001
 12
1.0
 22
0.0
 32
0.0
 13
1.0
 23
0.0
 33
0.0
 40
-0.0312499999999998
 40
-0.0312499999999998
 40
0.0
 40
0.0
 40
0.031249999999999
 40
0.031249999999999
 40
0.0624999999999979
 40
0.0624999999999979
 40
0.1249999999999987
 40
0.1249999999999987
 40
0.1874999999999995
 40
0.1874999999999995
 40
0.2187500000000005
 40
0.2187500000000005
 40
0.2500000000000014
 40
0.2500000000000014
 40
0.2812500000000023
 40
0.2812500000000023
 40
0.3125000000000033
 40
0.3125000000000033
 40
0.3437500000000042
 40
0.3437500000000042
 40
0.3750000000000052
 40
0.3750000000000052
 40
0.4375000000000072
 40
0.4375000000000072
 40
0.4687500000000067
 40
0.4687500000000067
 40
0.5000000000000063
 40
0.5000000000000063
 40
0.5312500000000059
 40
0.5312500000000059
 40
0.5625000000000053
 40
0.5625000000000053
 40
0.5937500000000049
 40
0.5937500000000049
 40
0.6250000000000044
 40
0.6250000000000044
 40
0.656250000000004
 40
0.656250000000004
 40
0.6875000000000034
 40
0.6875000000000034
 40
0.7187500000000031
 40
0.7187500000000031
 40
0.7500000000000028
 40
0.7500000000000028
 40
0.7812500000000024
 40
0.7812500000000024
 40
0.812500000000002
 40
0.812500000000002
 40
0.8750000000000013
 40
0.8750000000000013
 40
0.906250000000001
 40
0.906250000000001
 40
0.9375000000000006
 40
0.9375000000000006
 40
0.9687500000000002
 40
0.9687500000000002
 40
1.0
 40
1.0
 40
1.031249999999999
 40
1.031249999999999
 10
219.4953613000049
 20
107.2587274167107
 30
0.0
 10
219.7777577479646
 20
107.2587274167107
 30
0.0
 10
219.9160356249785
 20
107.2746314787285
 30
0.0
 10
220.1872016961863
 20
107.3359833369254
 30
0.0
 10
220.3214050236458
 20
107.3822471497574
 30
0.0
 10
220.700468203436
 20
107.5583448172168
 30
0.0
 10
220.9294751251298
 20
107.7281026702217
 30
0.0
 10
221.3105057441325
 20
108.1336250676871
 30
0.0
 10
221.4661288210542
 20
108.3736148596975
 30
0.0
 10
221.6251992976228
 20
108.7559514317352
 30
0.0
 10
221.6669264427662
 20
108.8900842191898
 30
0.0
 10
221.7221971439082
 20
109.1572710897797
 30
0.0
 10
221.736277075398
 20
109.2905720361992
 30
0.0
 10
221.7368336417192
 20
109.5564157429456
 30
0.0
 10
221.7228443642986
 20
109.6886308926574
 30
0.0
 10
221.668362845063
 20
109.938938866933
 30
0.0
 10
221.627512386908
 20
110.0597607790054
 30
0.0
 10
221.5208984200486
 20
110.2871206385336
 30
0.0
 10
221.4561462777756
 20
110.3921362864695
 30
0.0
 10
221.304587735823
 20
110.5869611114484
 30
0.0
 10
221.21724961265
 20
110.6768460653902
 30
0.0
 10
220.9314731916884
 20
110.9158813173733
 30
0.0
 10
220.7019368432227
 20
111.0405212188867
 30
0.0
 10
220.3256187072284
 20
111.1660908911822
 30
0.0
 10
220.1932857988677
 20
111.1984100824489
 30
0.0
 10
219.9192531398769
 20
111.2420132676737
 30
0.0
 10
219.7812279802547
 20
111.2528697447794
 30
0.0
 10
219.503156599036
 20
111.2534481098699
 30
0.0
 10
219.3614436603656
 20
111.2427496547874
 30
0.0
 10
219.0890214046853
 20
111.2003133939992
 30
0.0
 10
218.9571932601883
 20
111.1688377679811
 30
0.0
 10
218.7017943645836
 20
111.0845636841101
 30
0.0
 10
218.5816283613943
 20
111.0328314942359
 30
0.0
 10
218.356456948838
 20
110.910559760447
 30
0.0
 10
218.2503058875037
 20
110.8390731632201
 30
0.0
 10
218.0588585988015
 20
110.6797394765001
 30
0.0
 10
217.972924584882
 20
110.5918218688133
 30
0.0
 10
217.8205122668419
 20
110.3974329042173
 30
0.0
 10
217.7543287765544
 20
110.2906372968786
 30
0.0
 10
217.6481470780034
 20
110.0661153435385
 30
0.0
 10
217.6071670147876
 20
109.9473220837014
 30
0.0
 10
217.5510868739902
 20
109.6949034826033
 30
0.0
 10
217.5368626985489
 20
109.5639691814012
 30
0.0
 10
217.5362660146775
 20
109.2995437546712
 30
0.0
 10
217.5500345821759
 20
109.1633618040806
 30
0.0
 10
217.604884649118
 20
108.894676032682
 30
0.0
 10
217.6453811623944
 20
108.7630874746404
 30
0.0
 10
217.8048436335705
 20
108.3767740825007
 30
0.0
 10
217.9595120578847
 20
108.1372920131657
 30
0.0
 10
218.2478200892293
 20
107.829904670995
 30
0.0
 10
218.3518449045772
 20
107.737441948817
 30
0.0
 10
218.5762641627559
 20
107.5728229726943
 30
0.0
 10
218.6981949506164
 20
107.5000997306528
 30
0.0
 10
218.9506521020425
 20
107.382663341947
 30
0.0
 10
219.0815386319596
 20
107.3372841208622
 30
0.0
 10
219.3534795496724
 20
107.2751457415817
 30
0.0
 10
219.4953613000049
 20
107.2587274167107
 30
0.0
 10
219.7777577479646
 20
107.2587274167107
 30
0.0
  0
SPLINE
  5
121
330
1F
100
AcDbEntity
  8
0
  6
HIDDEN
 62
     7
370
     0
100
AcDbSpline
210
0.0
220
0.0
230
1.0
 70
     8
 71
     3
 72
    10
 73
     6
 74
     0
 42
0.00000001
 43
0.00000001
 12
1.0
 22
0.0
 32
0.0
 13
1.0
 23
0.0
 33
0.0
 40
0.0
 40
0.0
 40
0.0
 40
0.0
 40
0.5
 40
0.5
 40
1.0
 40
1.0
 40
1.0
 40
1.0
 10
220.4136094988817
 20
109.1383026692032
 30
0.0
 10
220.3786863898378
 20
109.1969209752926
 30
0.0
 10
220.3632936523855
 20
109.2635460232653
 30
0.0
 10
220.3850347939249
 20
109.4146890851154
 30
0.0
 10
220.4225583691235
 20
109.4999429462926
 30
0.0
 10
220.4769030651323
 20
109.5929985410467
 30
0.0
  0
SPLINE
  5
122
330
1F
100
AcDbEntity
  8
0
  6
HIDDEN
 62
     7
370
     0
100
AcDbSpline
210
0.0
220
0.0
230
1.0
 70
     8
 71
     3
 72
    74
 73
    70
 74
     0
 42
0.00000001
 43
0.00000001
 12
1.0
 22
0.0
 32
0.0
 13
1.0
 23
0.0
 33
0.0
 40
0.0
 40
0.0
 40
0.0
 40
0.0
 40
0.0156250000000004
 40
0.0156250000000004
 40
0.0312500000000008
 40
0.0312500000000008
 40
0.0624999999999996
 40
0.0624999999999996
 40
0.0937499999999984
 40
0.0937499999999984
 40
0.1249999999999972
 40
0.1249999999999972
 40
0.1874999999999957
 40
0.1874999999999957
 40
0.2187499999999949
 40
0.2187499999999949
 40
0.2499999999999941
 40
0.2499999999999941
 40
0.2812499999999932
 40
0.2812499999999932
 40
0.3124999999999924
 40
0.3124999999999924
 40
0.3437499999999916
 40
0.3437499999999916
 40
0.3749999999999907
 40
0.3749999999999907
 40
0.4062499999999899
 40
0.4062499999999899
 40
0.4374999999999891
 40
0.4374999999999891
 40
0.4687499999999882
 40
0.4687499999999882
 40
0.4843749999999882
 40
0.4843749999999882
 40
0.4999999999999883
 40
0.4999999999999883
 40
0.5312499999999891
 40
0.5312499999999891
 40
0.5624999999999901
 40
0.5624999999999901
 40
0.593749999999991
 40
0.593749999999991
 40
0.624999999999992
 40
0.624999999999992
 40
0.6562499999999929
 40
0.6562499999999929
 40
0.6874999999999939
 40
0.6874999999999939
 40
0.7187499999999947
 40
0.7187499999999947
 40
0.7499999999999956
 40
0.7499999999999956
 40
0.7812499999999963
 40
0.7812499999999963
 40
0.8124999999999972
 40
0.8124999999999972
 40
0.843749999999998
 40
0.843749999999998
 40
0.8749999999999989
 40
0.8749999999999989
 40
0.9062499999999997
 40
0.9062499999999997
 40
0.9375000000000006
 40
0.9375000000000006
 40
0.9687500000000013
 40
0.9687500000000013
 40
0.9843750000000007
 40
0.9843750000000007
 40
1.0
 40
1.0
 40
1.0
 40
1.0
 10
220.4769030651309
 20
109.5929985410387
 30
0.0
 10
220.5462832340779
 20
109.615613623928
 30
0.0
 10
220.6148155721935
 20
109.6455613072549
 30
0.0
 10
220.750168137948
 20
109.7221125347619
 30
0.0
 10
220.8138574233948
 20
109.7669240220873
 30
0.0
 10
220.9928893744453
 20
109.9141019133713
 30
0.0
 10
221.0929794976063
 20
110.0245322073152
 30
0.0
 10
221.2722997949919
 20
110.2598503524984
 30
0.0
 10
221.3500677952227
 20
110.38411376317
 30
0.0
 10
221.4856594139492
 20
110.642735020846
 30
0.0
 10
221.5436954761574
 20
110.7776492868569
 30
0.0
 10
221.6878309575098
 20
111.2022351908625
 30
0.0
 10
221.7420914441233
 20
111.5074302052145
 30
0.0
 10
221.7331309208848
 20
111.9720879950181
 30
0.0
 10
221.7151947088451
 20
112.1248722667944
 30
0.0
 10
221.6445685523802
 20
112.4255045133892
 30
0.0
 10
221.592817185488
 20
112.5679089774428
 30
0.0
 10
221.4582756171658
 20
112.8294928539119
 30
0.0
 10
221.3744441858564
 20
112.94935967281
 30
0.0
 10
221.1874882482473
 20
113.1518550151109
 30
0.0
 10
221.0821012393967
 20
113.237269098397
 30
0.0
 10
220.8631476385583
 20
113.3712872320662
 30
0.0
 10
220.7471914713915
 20
113.4216096392045
 30
0.0
 10
220.5153738266018
 20
113.4904410788195
 30
0.0
 10
220.3991190527292
 20
113.5095466472012
 30
0.0
 10
220.1674209266218
 20
113.5223207514116
 30
0.0
 10
220.0517896874644
 20
113.5156844109892
 30
0.0
 10
219.8310295707865
 20
113.4807810478683
 30
0.0
 10
219.7246757309331
 20
113.4525776635053
 30
0.0
 10
219.52784272461
 20
113.3776252203747
 30
0.0
 10
219.4367362237633
 20
113.3307103293784
 30
0.0
 10
219.3410736781912
 20
113.2534219793261
 30
0.0
 10
219.3172006550485
 20
113.2271739012224
 30
0.0
 10
219.2943425008306
 20
113.1759518341491
 30
0.0
 10
219.2964354004982
 20
113.1523625752256
 30
0.0
 10
219.338999479179
 20
113.0881447848053
 30
0.0
 10
219.411087570827
 20
113.054722052571
 30
0.0
 10
219.577657198097
 20
112.9848505898704
 30
0.0
 10
219.6729790091661
 20
112.9487923912994
 30
0.0
 10
219.8742838505915
 20
112.8645456032848
 30
0.0
 10
219.9815519952782
 20
112.8162261608729
 30
0.0
 10
220.1996392103566
 20
112.704937414561
 30
0.0
 10
220.3105684195747
 20
112.6421399005715
 30
0.0
 10
220.5347151075872
 20
112.4981553438801
 30
0.0
 10
220.6492189935419
 20
112.4160107387224
 30
0.0
 10
220.8735939503882
 20
112.2318481687653
 30
0.0
 10
220.9825990392326
 20
112.1308418092856
 30
0.0
 10
221.1917654261002
 20
111.9057506835179
 30
0.0
 10
221.2886851093173
 20
111.7848780965991
 30
0.0
 10
221.4599843285563
 20
111.5288742081386
 30
0.0
 10
221.5331829141633
 20
111.3948938618728
 30
0.0
 10
221.6461345666344
 20
111.1289654731338
 30
0.0
 10
221.6866297911739
 20
110.9950258088604
 30
0.0
 10
221.7336222557632
 20
110.7418249939165
 30
0.0
 10
221.7408052067678
 20
110.6198923228078
 30
0.0
 10
221.7275409425872
 20
110.395718306157
 30
0.0
 10
221.7073066651545
 20
110.2910481987861
 30
0.0
 10
221.6442180550369
 20
110.09713628011
 30
0.0
 10
221.6020526462324
 20
110.0093920214165
 30
0.0
 10
221.4992717338873
 20
109.8475761441884
 30
0.0
 10
221.4385313310094
 20
109.773462068248
 30
0.0
 10
221.2980107337679
 20
109.6358021516717
 30
0.0
 10
221.2194859206192
 20
109.5733718498359
 30
0.0
 10
221.0395298414882
 20
109.4535770637806
 30
0.0
 10
220.9379107109404
 20
109.3963754144944
 30
0.0
 10
220.756217964376
 20
109.3032294066322
 30
0.0
 10
220.6915178107189
 20
109.2712131950315
 30
0.0
 10
220.5547257339375
 20
109.2047070217762
 30
0.0
 10
220.4839646300343
 20
109.1708585173686
 30
0.0
 10
220.413609498881
 20
109.1383026692052
 30
0.0
  0
LWPOLYLINE
  5
123
330
1F
100
AcDbEntity
  8
0
  6
HIDDEN
 62
     7
370
     0
100
AcDbPolyline
 90
       24
 70
   128
 43
0.0
 10
219.636559822
 20
110.1341526029
 10
220.2031317729
 20
110.2082148664
 10
220.7276824493
 20
110.4249087167
 10
221.1713123697
 20
110.7681632512
 10
221.5011197705
 20
111.2125207675
 10
221.6926369447
 20
111.7250250191
 10
221.7316630859
 20
112.2676664037
 10
221.6153073687
 20
112.8001989801
 10
221.3521975655
 20
113.2831279193
 10
220.9618467468
 20
113.6806364176
 10
220.4732004184
 20
113.9632425275
 10
219.9225131053
 20
114.109987766
 10
219.3506065387
 20
114.109987766
 10
218.7999192256
 20
113.9632425275
 10
218.3112728972
 20
113.6806364176
 10
217.9209220785
 20
113.2831279193
 10
217.6578122753
 20
112.8001989801
 10
217.5414565582
 20
112.2676664037
 10
217.5804826993
 20
111.7250250191
 10
217.7719998736
 20
111.2125207675
 10
218.1018072743
 20
110.7681632512
 10
218.5454297442
 20
110.4249087167
 10
219.0699878711
 20
110.2082148664
 10
219.636559822
 20
110.1341526029
  0
LWPOLYLINE
  5
124
330
1F
100
AcDbEntity
  8
0
  6
HIDDEN
 62
     7
370
     0
100
AcDbPolyline
 90
        9
 70
   128
 43
0.0
 10
220.476903357
 20
109.5929985405
 10
220.493316986
 20
109.4941065186
 10
220.5027941245
 20
109.4061910645
 10
220.5052602667
 20
109.3298786091
 10
220.5007005114
 20
109.2657131613
 10
220.4891521115
 20
109.2141517675
 10
220.4706895727
 20
109.175561951
 10
220.4454470057
 20
109.1502186847
 10
220.4136106748
 20
109.1383026452
  0
CIRCLE
  5
125
330
1F
100
AcDbEntity
  8
0
  6
HIDDEN
 62
     7
370
     0
100
AcDbCircle
 10
138.136559524
 20
108.1141502601
 30
0.0
 40
2.300000000000011
  0
LINE
  5
126
330
1F
100
AcDbEntity
  8
0
  6
HIDDEN
 62
     7
370
     0
100
AcDbLine
 10
126.6635920483
 20
117.6768437964
 30
0.0
 11
126.6635920483
 21
98.5514567238
 31
0.0
  0
LINE
  5
127
330
1F
100
AcDbEntity
  8
0
  6
HIDDEN
 62
     7
370
     0
100
AcDbLine
 10
125.6365593154
 20
97.958499473
 30
0.0
 11
125.6365593154
 21
118.2698010472
 31
0.0
  0
LINE
  5
128
330
1F
100
AcDbEntity
  8
0
  6
HIDDEN
 62
     7
370
     0
100
AcDbLine
 10
130.1635916907
 20
117.3450899315
 30
0.0
 11
130.1635916907
 21
98.8832105887
 31
0.0
  0
LINE
  5
129
330
1F
100
AcDbEntity
  8
0
  6
HIDDEN
 62
     7
370
     0
100
AcDbLine
 10
133.5635915029
 20
117.1141498727
 30
0.0
 11
133.5635915029
 21
99.1141506475
 31
0.0
  0
LINE
  5
12A
330
1F
100
AcDbEntity
  8
0
  6
HIDDEN
 62
     7
370
     0
100
AcDbLine
 10
128.7635922063
 20
117.1141498727
 30
0.0
 11
128.7635922063
 21
99.1141506475
 31
0.0
  0
LINE
  5
12B
330
1F
100
AcDbEntity
  8
0
  6
HIDDEN
 62
     7
370
     0
100
AcDbLine
 10
129.7635923702
 20
117.1141498727
 30
0.0
 11
129.7635923702
 21
99.1141506475
 31
0.0
  0
SPLINE
  5
12C
330
1F
100
AcDbEntity
  8
0
  6
HIDDEN
 62
     7
370
     0
100
AcDbSpline
210
0.0
220
0.0
230
1.0
 70
     8
 71
     3
 72
    14
 73
    10
 74
     0
 42
0.00000001
 43
0.00000001
 12
1.0
 22
0.0
 32
0.0
 13
1.0
 23
0.0
 33
0.0
 40
0.0
 40
0.0
 40
0.0
 40
0.0
 40
0.25
 40
0.25
 40
0.5
 40
0.5
 40
0.75
 40
0.75
 40
1.0
 40
1.0
 40
1.0
 40
1.0
 10
140.1365595239848
 20
109.2499319292557
 30
0.0
 10
140.2347838704877
 20
109.0769684994522
 30
0.0
 10
140.3100987084718
 20
108.8919359450278
 30
0.0
 10
140.4110654186662
 20
108.5089237308933
 30
0.0
 10
140.4364410049564
 20
108.3142051774277
 30
0.0
 10
140.4366772302226
 20
107.9168298761621
 30
0.0
 10
140.4109741608871
 20
107.7193375416867
 30
0.0
 10
140.3106540473706
 20
107.3381657070557
 30
0.0
 10
140.234762219283
 20
107.1512938950831
 30
0.0
 10
140.1365595239893
 20
106.9783685909332
 30
0.0
  0
LINE
  5
12D
330
1F
100
AcDbEntity
  8
0
  6
HIDDEN
 62
     7
370
     0
100
AcDbLine
 10
140.6365599114
 20
116.6141497907
 30
0.0
 11
140.6365599114
 21
99.6141497982
 31
0.0
  0
SPLINE
  5
12E
330
1F
100
AcDbEntity
  8
0
  6
HIDDEN
 62
     7
370
     0
100
AcDbSpline
210
0.0
220
0.0
230
1.0
 70
     8
 71
     3
 72
    14
 73
    10
 74
     0
 42
0.00000001
 43
0.00000001
 12
1.0
 22
0.0
 32
0.0
 13
1.0
 23
0.0
 33
0.0
 40
0.0
 40
0.0
 40
0.0
 40
0.0
 40
0.25
 40
0.25
 40
0.5
 40
0.5
 40
0.75
 40
0.75
 40
1.0
 40
1.0
 40
1.0
 40
1.0
 10
140.1365595239848
 20
106.9783685909356
 30
0.0
 10
140.2347838704877
 20
107.1513320207391
 30
0.0
 10
140.3100987084718
 20
107.3363645751635
 30
0.0
 10
140.4110654186662
 20
107.719376789298
 30
0.0
 10
140.4364410049564
 20
107.9140953427636
 30
0.0
 10
140.4366772302226
 20
108.3114706440292
 30
0.0
 10
140.4109741608871
 20
108.5089629785046
 30
0.0
 10
140.3106540473706
 20
108.8901348131356
 30
0.0
 10
140.234762219283
 20
109.0770066251082
 30
0.0
 10
140.1365595239893
 20
109.2499319292581
 30
0.0
  0
SPLINE
  5
12F
330
1F
100
AcDbEntity
  8
0
  6
HIDDEN
 62
     7
370
     0
100
AcDbSpline
210
0.0
220
0.0
230
1.0
 70
     8
 71
     3
 72
    60
 73
    56
 74
     0
 42
0.00000001
 43
0.00000001
 12
1.0
 22
0.0
 32
0.0
 13
1.0
 23
0.0
 33
0.0
 40
0.0
 40
0.0
 40
0.0
 40
0.0
 40
0.0625000000000007
 40
0.0625000000000007
 40
0.1250000000000014
 40
0.1250000000000014
 40
0.1875000000000021
 40
0.1875000000000021
 40
0.2187500000000022
 40
0.2187500000000022
 40
0.2500000000000023
 40
0.2500000000000023
 40
0.3125000000000021
 40
0.3125000000000021
 40
0.3750000000000019
 40
0.3750000000000019
 40
0.4062500000000019
 40
0.4062500000000019
 40
0.4375000000000019
 40
0.4375000000000019
 40
0.4687500000000018
 40
0.4687500000000018
 40
0.5000000000000017
 40
0.5000000000000017
 40
0.5312500000000016
 40
0.5312500000000016
 40
0.5625000000000014
 40
0.5625000000000014
 40
0.5937500000000013
 40
0.5937500000000013
 40
0.6250000000000012
 40
0.6250000000000012
 40
0.6562500000000011
 40
0.6562500000000011
 40
0.687500000000001
 40
0.687500000000001
 40
0.7187500000000009
 40
0.7187500000000009
 40
0.7500000000000008
 40
0.7500000000000008
 40
0.7812500000000008
 40
0.7812500000000008
 40
0.8125000000000007
 40
0.8125000000000007
 40
0.8437500000000006
 40
0.8437500000000006
 40
0.8750000000000004
 40
0.8750000000000004
 40
0.9062500000000003
 40
0.9062500000000003
 40
0.9375000000000002
 40
0.9375000000000002
 40
0.9687500000000001
 40
0.9687500000000001
 40
1.0
 40
1.0
 40
1.0
 40
1.0
 10
140.1365595239848
 20
106.9783685909356
 30
0.0
 10
140.0113696224061
 20
106.75792146632
 30
0.0
 10
139.8545023038379
 20
106.5641877374997
 30
0.0
 10
139.4774647840191
 20
106.2284980387372
 30
0.0
 10
139.2657514775981
 20
106.0945206804245
 30
0.0
 10
138.7998614956494
 20
105.8973939357394
 30
0.0
 10
138.5540222645978
 20
105.8381765235175
 30
0.0
 10
138.1745412115032
 20
105.8109697876268
 30
0.0
 10
138.0467954828092
 20
105.8124630527687
 30
0.0
 10
137.7963292361412
 20
105.8359788585776
 30
0.0
 10
137.6724998533329
 20
105.8578980773819
 30
0.0
 10
137.3052801792343
 20
105.9547346422268
 30
0.0
 10
137.0745111611485
 20
106.0585357636785
 30
0.0
 10
136.654622199729
 20
106.3372542446066
 30
0.0
 10
136.4703638248415
 20
106.5088165361103
 30
0.0
 10
136.2396154373581
 20
106.8074638973771
 30
0.0
 10
136.1705685875692
 20
106.9139314378794
 30
0.0
 10
136.0520039237637
 20
107.1342147862723
 30
0.0
 10
136.001795555014
 20
107.2488763026737
 30
0.0
 10
135.9199637026562
 20
107.4875569394505
 30
0.0
 10
135.8886128037735
 20
107.6116025663286
 30
0.0
 10
135.847218425735
 20
107.859717602437
 30
0.0
 10
135.8367126506706
 20
107.9849553049254
 30
0.0
 10
135.8364096983349
 20
108.2378343605165
 30
0.0
 10
135.8468942279515
 20
108.3657140467531
 30
0.0
 10
135.8880343054129
 20
108.6141361079585
 30
0.0
 10
135.9186124259615
 20
108.7359350347269
 30
0.0
 10
135.9998951343128
 20
108.9747145642012
 30
0.0
 10
136.0508960208747
 20
109.0917561265079
 30
0.0
 10
136.1694630692377
 20
109.3125813244338
 30
0.0
 10
136.2373518225095
 20
109.4175196879966
 30
0.0
 10
136.3905022602472
 20
109.616497021226
 30
0.0
 10
136.4760584318196
 20
109.7105051464201
 30
0.0
 10
136.6587698027789
 20
109.8809978313569
 30
0.0
 10
136.7565771024607
 20
109.9584360264062
 30
0.0
 10
136.9653802143777
 20
110.0976019222945
 30
0.0
 10
137.0769623896656
 20
110.1593837313015
 30
0.0
 10
137.3056081891646
 20
110.2624626019023
 30
0.0
 10
137.4235630001357
 20
110.3044666370979
 30
0.0
 10
137.6668914451245
 20
110.3692027583947
 30
0.0
 10
137.7932353204675
 20
110.3918760209574
 30
0.0
 10
138.0443413014854
 20
110.4157588171386
 30
0.0
 10
138.1700232952083
 20
110.4173621184052
 30
0.0
 10
138.4216453650001
 20
110.3998953796343
 30
0.0
 10
138.5485429852859
 20
110.3804594889944
 30
0.0
 10
138.7937335515471
 20
110.3218663176707
 30
0.0
 10
138.9129227085806
 20
110.2828034665141
 30
0.0
 10
139.1446077329354
 20
110.1852937443903
 30
0.0
 10
139.2577825372859
 20
110.1262583901017
 30
0.0
 10
139.4698609542216
 20
109.9924546732622
 30
0.0
 10
139.5696497329224
 20
109.9174594571174
 30
0.0
 10
139.7569079199114
 20
109.7512643925966
 30
0.0
 10
139.8448029568547
 20
109.6593701938551
 30
0.0
 10
140.0030240324866
 20
109.4640059961408
 30
0.0
 10
140.0739619887783
 20
109.3601600424683
 30
0.0
 10
140.1365595239848
 20
109.2499319292557
 30
0.0
  0
SPLINE
  5
130
330
1F
100
AcDbEntity
  8
0
  6
HIDDEN
 62
     7
370
     0
100
AcDbSpline
210
0.0
220
0.0
230
1.0
 70
     8
 71
     3
 72
    60
 73
    56
 74
     0
 42
0.00000001
 43
0.00000001
 12
1.0
 22
0.0
 32
0.0
 13
1.0
 23
0.0
 33
0.0
 40
0.0
 40
0.0
 40
0.0
 40
0.0
 40
0.0624999999999997
 40
0.0624999999999997
 40
0.1249999999999993
 40
0.1249999999999993
 40
0.187499999999999
 40
0.187499999999999
 40
0.2187499999999991
 40
0.2187499999999991
 40
0.2499999999999991
 40
0.2499999999999991
 40
0.3124999999999992
 40
0.3124999999999992
 40
0.3749999999999993
 40
0.3749999999999993
 40
0.4062499999999993
 40
0.4062499999999993
 40
0.4374999999999993
 40
0.4374999999999993
 40
0.4687499999999993
 40
0.4687499999999993
 40
0.4999999999999993
 40
0.4999999999999993
 40
0.5312499999999992
 40
0.5312499999999992
 40
0.5624999999999992
 40
0.5624999999999992
 40
0.5937499999999992
 40
0.5937499999999992
 40
0.6249999999999993
 40
0.6249999999999993
 40
0.6562499999999993
 40
0.6562499999999993
 40
0.6874999999999994
 40
0.6874999999999994
 40
0.7187499999999994
 40
0.7187499999999994
 40
0.7499999999999996
 40
0.7499999999999996
 40
0.7812499999999996
 40
0.7812499999999996
 40
0.8124999999999997
 40
0.8124999999999997
 40
0.8437499999999997
 40
0.8437499999999997
 40
0.8749999999999998
 40
0.8749999999999998
 40
0.9062499999999998
 40
0.9062499999999998
 40
0.9374999999999999
 40
0.9374999999999999
 40
0.9687499999999999
 40
0.9687499999999999
 40
1.0
 40
1.0
 40
1.0
 40
1.0
 10
140.1365595239848
 20
109.2499319292557
 30
0.0
 10
140.0113696224061
 20
109.4703790538713
 30
0.0
 10
139.8545023038379
 20
109.6641127826916
 30
0.0
 10
139.4774647840191
 20
109.999802481454
 30
0.0
 10
139.2657514775981
 20
110.1337798397668
 30
0.0
 10
138.7998614956494
 20
110.3309065844519
 30
0.0
 10
138.5540222645978
 20
110.3901239966738
 30
0.0
 10
138.1745412115032
 20
110.4173307325645
 30
0.0
 10
138.0467954828092
 20
110.4158374674226
 30
0.0
 10
137.7963292361412
 20
110.3923216616137
 30
0.0
 10
137.6724998533329
 20
110.3704024428094
 30
0.0
 10
137.3052801792343
 20
110.2735658779645
 30
0.0
 10
137.0745111611485
 20
110.1697647565127
 30
0.0
 10
136.654622199729
 20
109.8910462755847
 30
0.0
 10
136.4703638248415
 20
109.719483984081
 30
0.0
 10
136.2396154373581
 20
109.4208366228142
 30
0.0
 10
136.1705685875692
 20
109.3143690823119
 30
0.0
 10
136.0520039237637
 20
109.0940857339189
 30
0.0
 10
136.001795555014
 20
108.9794242175175
 30
0.0
 10
135.9199637026562
 20
108.7407435807408
 30
0.0
 10
135.8886128037735
 20
108.6166979538627
 30
0.0
 10
135.847218425735
 20
108.3685829177543
 30
0.0
 10
135.8367126506706
 20
108.2433452152659
 30
0.0
 10
135.8364096983349
 20
107.9904661596748
 30
0.0
 10
135.8468942279515
 20
107.8625864734382
 30
0.0
 10
135.8880343054129
 20
107.6141644122327
 30
0.0
 10
135.9186124259615
 20
107.4923654854644
 30
0.0
 10
135.9998951343128
 20
107.25358595599
 30
0.0
 10
136.0508960208747
 20
107.1365443936834
 30
0.0
 10
136.1694630692377
 20
106.9157191957575
 30
0.0
 10
136.2373518225095
 20
106.8107808321947
 30
0.0
 10
136.3905022602472
 20
106.6118034989653
 30
0.0
 10
136.4760584318196
 20
106.5177953737711
 30
0.0
 10
136.6587698027789
 20
106.3473026888344
 30
0.0
 10
136.7565771024607
 20
106.2698644937851
 30
0.0
 10
136.9653802143777
 20
106.1306985978968
 30
0.0
 10
137.0769623896656
 20
106.0689167888898
 30
0.0
 10
137.3056081891646
 20
105.965837918289
 30
0.0
 10
137.4235630001357
 20
105.9238338830933
 30
0.0
 10
137.6668914451245
 20
105.8590977617966
 30
0.0
 10
137.7932353204675
 20
105.8364244992339
 30
0.0
 10
138.0443413014854
 20
105.8125417030527
 30
0.0
 10
138.1700232952083
 20
105.8109384017861
 30
0.0
 10
138.4216453650001
 20
105.8284051405569
 30
0.0
 10
138.5485429852859
 20
105.8478410311969
 30
0.0
 10
138.7937335515471
 20
105.9064342025205
 30
0.0
 10
138.9129227085806
 20
105.9454970536772
 30
0.0
 10
139.1446077329354
 20
106.043006775801
 30
0.0
 10
139.2577825372859
 20
106.1020421300896
 30
0.0
 10
139.4698609542216
 20
106.2358458469291
 30
0.0
 10
139.5696497329224
 20
106.3108410630738
 30
0.0
 10
139.7569079199114
 20
106.4770361275946
 30
0.0
 10
139.8448029568547
 20
106.5689303263361
 30
0.0
 10
140.0030240324866
 20
106.7642945240505
 30
0.0
 10
140.0739619887783
 20
106.868140477723
 30
0.0
 10
140.1365595239848
 20
106.9783685909356
 30
0.0
  0
LINE
  5
131
330
1F
100
AcDbEntity
  8
0
  6
HIDDEN
 62
     7
370
     0
100
AcDbLine
 10
141.5365593139
 20
114.3641503532
 30
0.0
 11
141.5365593139
 21
101.864150167
 31
0.0
  0
LINE
  5
132
330
1F
100
AcDbEntity
  8
0
  6
HIDDEN
 62
     7
370
     0
100
AcDbLine
 10
140.6365599114
 20
100.9641502988
 30
0.0
 11
140.6365599114
 21
115.2450762694
 31
0.0
  0
LINE
  5
133
330
1F
100
AcDbEntity
  8
0
  6
HIDDEN
 62
     7
370
     0
100
AcDbLine
 10
160.6365594644
 20
114.3641503532
 30
0.0
 11
160.6365594644
 21
101.864150167
 31
0.0
  0
LINE
  5
134
330
1F
100
AcDbEntity
  8
0
  6
HIDDEN
 62
     7
370
     0
100
AcDbLine
 10
161.8382803727
 20
112.3641504911
 30
0.0
 11
161.8382803727
 21
103.8641500291
 31
0.0
  0
SPLINE
  5
135
330
1F
100
AcDbEntity
  8
0
  6
HIDDEN
 62
     7
370
     0
100
AcDbSpline
210
0.0
220
0.0
230
1.0
 70
     8
 71
     3
 72
    62
 73
    58
 74
     0
 42
0.00000001
 43
0.00000001
 12
1.0
 22
0.0
 32
0.0
 13
1.0
 23
0.0
 33
0.0
 40
-0.0312500000000008
 40
-0.0312500000000008
 40
0.0
 40
0.0
 40
0.0312499999999981
 40
0.0312499999999981
 40
0.0624999999999962
 40
0.0624999999999962
 40
0.1249999999999952
 40
0.1249999999999952
 40
0.1874999999999942
 40
0.1874999999999942
 40
0.2187499999999943
 40
0.2187499999999943
 40
0.2499999999999944
 40
0.2499999999999944
 40
0.2812499999999944
 40
0.2812499999999944
 40
0.3124999999999945
 40
0.3124999999999945
 40
0.3437499999999946
 40
0.3437499999999946
 40
0.3749999999999946
 40
0.3749999999999946
 40
0.4374999999999947
 40
0.4374999999999947
 40
0.4687499999999948
 40
0.4687499999999948
 40
0.4999999999999949
 40
0.4999999999999949
 40
0.531249999999995
 40
0.531249999999995
 40
0.5624999999999951
 40
0.5624999999999951
 40
0.5937499999999952
 40
0.5937499999999952
 40
0.6249999999999953
 40
0.6249999999999953
 40
0.6562499999999954
 40
0.6562499999999954
 40
0.6874999999999956
 40
0.6874999999999956
 40
0.7187499999999957
 40
0.7187499999999957
 40
0.7499999999999957
 40
0.7499999999999957
 40
0.7812499999999958
 40
0.7812499999999958
 40
0.8124999999999959
 40
0.8124999999999959
 40
0.8749999999999972
 40
0.8749999999999972
 40
0.9062499999999979
 40
0.9062499999999979
 40
0.9374999999999986
 40
0.9374999999999986
 40
0.9687499999999992
 40
0.9687499999999992
 40
1.0
 40
1.0
 40
1.031249999999998
 40
1.031249999999998
 10
219.7777577479647
 20
104.9751357350409
 30
0.0
 10
219.4953613000049
 20
104.9751357350409
 30
0.0
 10
219.3570834229911
 20
104.9860312395624
 30
0.0
 10
219.0859173517833
 20
105.0286750415812
 30
0.0
 10
218.9517140243238
 20
105.0610146549161
 30
0.0
 10
218.5726508445336
 20
105.1868753156474
 30
0.0
 10
218.3436439228398
 20
105.3112125867836
 30
0.0
 10
217.9626133038371
 20
105.6289979582564
 30
0.0
 10
217.8069902269155
 20
105.8260701006749
 30
0.0
 10
217.6479197503468
 20
106.1627864199992
 30
0.0
 10
217.6061926052034
 20
106.2844785075983
 30
0.0
 10
217.5509219040614
 20
106.5350437398903
 30
0.0
 10
217.5368419725716
 20
106.6640138384571
 30
0.0
 10
217.5362854062504
 20
106.9296875804001
 30
0.0
 10
217.550274683671
 20
107.066205678137
 30
0.0
 10
217.6047562029067
 20
107.3329042880575
 30
0.0
 10
217.6456066610615
 20
107.4659195765101
 30
0.0
 10
217.752220627921
 20
107.7238806927256
 30
0.0
 10
217.816972770194
 20
107.8470141267257
 30
0.0
 10
217.9685313121466
 20
108.0818167964061
 30
0.0
 10
218.0558694353196
 20
108.1936666042265
 30
0.0
 10
218.3416458562812
 20
108.4985818174693
 30
0.0
 10
218.5711822047469
 20
108.6687272816966
 30
0.0
 10
218.9475003407412
 20
108.8443635865993
 30
0.0
 10
219.0798332491019
 20
108.8905756833009
 30
0.0
 10
219.3538659080928
 20
108.9532938530744
 30
0.0
 10
219.4918910677148
 20
108.9691444149017
 30
0.0
 10
219.7699624489335
 20
108.9699847694042
 30
0.0
 10
219.911675387604
 20
108.9543656294556
 30
0.0
 10
220.1840976432842
 20
108.8933015680427
 30
0.0
 10
220.3159257877814
 20
108.8482477870501
 30
0.0
 10
220.5713246833859
 20
108.7302904739513
 30
0.0
 10
220.6914906865752
 20
108.6589167735568
 30
0.0
 10
220.9166620991316
 20
108.4947157511656
 30
0.0
 10
221.0228131604659
 20
108.4006720937884
 30
0.0
 10
221.2142604491681
 20
108.1972925031498
 30
0.0
 10
221.3001944630876
 20
108.0877980134468
 30
0.0
 10
221.4526067811277
 20
107.8532808296493
 30
0.0
 10
221.5187902714152
 20
107.72798779386
 30
0.0
 10
221.6249719699662
 20
107.4730173416685
 30
0.0
 10
221.6659520331821
 20
107.3420076078716
 30
0.0
 10
221.7220321739794
 20
107.0727275080108
 30
0.0
 10
221.7362563494206
 20
106.9374173129578
 30
0.0
 10
221.7368530332922
 20
106.6728096703288
 30
0.0
 10
221.7230844657938
 20
106.5408641847263
 30
0.0
 10
221.6682343988517
 20
106.288680267066
 30
0.0
 10
221.6277378855752
 20
106.1691792030415
 30
0.0
 10
221.468275414399
 20
105.8286431079929
 30
0.0
 10
221.3136069900849
 20
105.6319144190504
 30
0.0
 10
221.0252989587403
 20
105.3909679538887
 30
0.0
 10
220.9212741433925
 20
105.3206562055082
 30
0.0
 10
220.6968548852137
 20
105.1979886977904
 30
0.0
 10
220.5749240973532
 20
105.1452500271693
 30
0.0
 10
220.3224669459272
 20
105.0613084586039
 30
0.0
 10
220.19158041601
 20
105.0295833581371
 30
0.0
 10
219.9196394982972
 20
104.9863846269528
 30
0.0
 10
219.7777577479647
 20
104.9751357350409
 30
0.0
 10
219.4953613000049
 20
104.9751357350409
 30
0.0
  0
LINE
  5
136
330
1F
100
AcDbEntity
  8
0
  6
HIDDEN
 62
     7
370
     0
100
AcDbLine
 10
224.6365625042
 20
103.8641500291
 30
0.0
 11
224.6365625042
 21
112.3641504911
 31
0.0
  0
LINE
  5
137
330
1F
100
AcDbEntity
  8
0
  6
HIDDEN
 62
     7
370
     0
100
AcDbLine
 10
248.752430417
 20
126.6729486179
 30
0.0
 11
246.4325952906
 21
119.3332857457
 31
0.0
  0
LINE
  5
138
330
1F
100
AcDbEntity
  8
0
  6
HIDDEN
 62
     7
370
     0
100
AcDbLine
 10
246.4325952906
 20
119.3332857457
 30
0.0
 11
246.3823634762
 21
119.3174867895
 31
0.0
  0
LINE
  5
139
330
1F
100
AcDbEntity
  8
0
  6
HIDDEN
 62
     7
370
     0
100
AcDbLine
 10
245.8878535408
 20
115.9896253613
 30
0.0
 11
256.2496292967
 21
119.2487244499
 31
0.0
  0
LINE
  5
13A
330
1F
100
AcDbEntity
  8
0
  6
HIDDEN
 62
     7
370
     0
100
AcDbLine
 10
248.7052384395
 20
126.6581070614
 30
0.0
 11
248.752430417
 21
126.6729486179
 31
0.0
  0
ELLIPSE
  5
13B
330
1F
100
AcDbEntity
  8
0
  6
HIDDEN
 62
     7
370
     0
100
AcDbEllipse
 10
252.598609764
 20
108.1141502601
 30
0.0
 11
5.390524936199199
 21
16.49183944377624
 31
0.0
210
0.0
220
0.0
230
1.0
 40
0.0962569477
 41
1.602248510774567
 42
3.173044837569608
  0
LINE
  5
13C
330
1F
100
AcDbEntity
  8
0
  6
HIDDEN
 62
     7
370
     0
100
AcDbLine
 10
234.1365594048
 20
91.6141503495
 30
0.0
 11
234.1365594048
 21
108.1141502601
 31
0.0
  0
SPLINE
  5
13D
330
1F
100
AcDbEntity
  8
0
  6
HIDDEN
 62
     7
370
     0
100
AcDbSpline
210
0.0
220
0.0
230
1.0
 70
     8
 71
     3
 72
     8
 73
     4
 74
     0
 42
0.00000001
 43
0.00000001
 12
1.0
 22
0.0
 32
0.0
 13
1.0
 23
0.0
 33
0.0
 40
0.0
 40
0.0
 40
0.0
 40
0.0
 40
1.0
 40
1.0
 40
1.0
 40
1.0
 10
234.1365595239848
 20
108.1141502600956
 30
0.0
 10
234.1365595239848
 20
108.6135951464942
 30
0.0
 10
234.1596065642791
 20
109.1171699241135
 30
0.0
 10
234.2046010497657
 20
109.6141502600956
 30
0.0
  0
SPLINE
  5
13E
330
1F
100
AcDbEntity
  8
0
  6
HIDDEN
 62
     7
370
     0
100
AcDbSpline
210
0.0
220
0.0
230
1.0
 70
     8
 71
     3
 72
    16
 73
    12
 74
     0
 42
0.00000001
 43
0.00000001
 12
1.0
 22
0.0
 32
0.0
 13
1.0
 23
0.0
 33
0.0
 40
0.0
 40
0.0
 40
0.0
 40
0.0
 40
0.25
 40
0.25
 40
0.5
 40
0.5
 40
0.625
 40
0.625
 40
0.75
 40
0.75
 40
1.0
 40
1.0
 40
1.0
 40
1.0
 10
234.2046010497657
 20
109.6141502600956
 30
0.0
 10
234.3100748201197
 20
110.7791461314999
 30
0.0
 10
234.4473822575276
 20
111.9251854185759
 30
0.0
 10
234.7775289014933
 20
114.1822508024967
 30
0.0
 10
234.9703814710784
 20
115.2932669398434
 30
0.0
 10
235.2977942750188
 20
116.9338584743409
 30
0.0
 10
235.41323230151
 20
117.4756296696537
 30
0.0
 10
235.6523623104039
 20
118.5331772626025
 30
0.0
 10
235.7764909997649
 20
119.0512068656158
 30
0.0
 10
236.1613615237245
 20
120.5740804781635
 30
0.0
 10
236.4344949638428
 20
121.5478851689514
 30
0.0
 10
236.7222157773844
 20
122.4807011102934
 30
0.0
  0
SPLINE
  5
13F
330
1F
100
AcDbEntity
  8
0
  6
HIDDEN
 62
     7
370
     0
100
AcDbSpline
210
0.0
220
0.0
230
1.0
 70
     8
 71
     3
 72
    18
 73
    14
 74
     0
 42
0.00000001
 43
0.00000001
 12
1.0
 22
0.0
 32
0.0
 13
1.0
 23
0.0
 33
0.0
 40
0.0
 40
0.0
 40
0.0
 40
0.0
 40
0.2499999999999994
 40
0.2499999999999994
 40
0.3749999999999993
 40
0.3749999999999993
 40
0.4999999999999992
 40
0.4999999999999992
 40
0.7499999999999997
 40
0.7499999999999997
 40
0.8749999999999998
 40
0.8749999999999998
 40
1.0
 40
1.0
 40
1.0
 40
1.0
 10
236.7222157773844
 20
122.4807011102934
 30
0.0
 10
236.2263510475018
 20
122.6689560053812
 30
0.0
 10
235.7757817252769
 20
122.8613950145864
 30
0.0
 10
235.1993570506108
 20
123.1592382028593
 30
0.0
 10
235.0236109073548
 20
123.2602683950331
 30
0.0
 10
234.7138991108593
 20
123.4651775571404
 30
0.0
 10
234.5812777046789
 20
123.5681566156659
 30
0.0
 10
234.2572738921186
 20
123.8788360446244
 30
0.0
 10
234.1403880249448
 20
124.0882936738436
 30
0.0
 10
234.1347849815626
 20
124.4064836872557
 30
0.0
 10
234.1614871902405
 20
124.513744778584
 30
0.0
 10
234.2699541686757
 20
124.7257886056088
 30
0.0
 10
234.3513735998783
 20
124.8308076119954
 30
0.0
 10
234.4574388700871
 20
124.9349174173111
 30
0.0
  0
LINE
  5
140
330
1F
100
AcDbEntity
  8
0
  6
HIDDEN
 62
     7
370
     0
100
AcDbLine
 10
245.6587705392
 20
116.0448937681
 30
0.0
 11
256.037228145
 21
119.3092380655
 31
0.0
  0
LINE
  5
141
330
1F
100
AcDbEntity
  8
0
  6
HIDDEN
 62
     7
370
     0
100
AcDbLine
 10
256.2496292967
 20
119.2487244499
 30
0.0
 11
256.037228145
 21
119.3092380655
 31
0.0
  0
LINE
  5
142
330
1F
100
AcDbEntity
  8
0
  6
HIDDEN
 62
     7
370
     0
100
AcDbLine
 10
246.4325952906
 20
119.3332857457
 30
0.0
 11
246.6449964422
 21
118.9700298947
 31
0.0
  0
LINE
  5
143
330
1F
100
AcDbEntity
  8
0
  6
HIDDEN
 62
     7
370
     0
100
AcDbLine
 10
246.2314296145
 20
118.8399492768
 30
0.0
 11
246.6449964422
 21
118.9700298947
 31
0.0
  0
LINE
  5
144
330
1F
100
AcDbEntity
  8
0
  6
HIDDEN
 62
     7
370
     0
100
AcDbLine
 10
248.9693615216
 20
126.3240155768
 30
0.0
 11
248.752430417
 21
126.6729486179
 31
0.0
  0
LINE
  5
145
330
1F
100
AcDbEntity
  8
0
  6
HIDDEN
 62
     7
370
     0
100
AcDbLine
 10
248.9693615216
 20
126.3240155768
 30
0.0
 11
246.6449964422
 21
118.9700298947
 31
0.0
  0
ARC
  5
146
330
1F
100
AcDbEntity
  8
0
  6
HIDDEN
 62
     7
370
     0
100
AcDbCircle
 10
244.6375213785
 20
116.9285129641
 30
0.0
 40
1.24913956028074
100
AcDbArc
 50
177.6800682016
 51
287.5503192519
  0
LINE
  5
147
330
1F
100
AcDbEntity
  8
0
  6
HIDDEN
 62
     7
370
     0
100
AcDbLine
 10
256.037228145
 20
119.3092380655
 30
0.0
 11
255.8227929849
 21
119.1371575934
 31
0.0
  0
LINE
  5
148
330
1F
100
AcDbEntity
  8
0
  6
HIDDEN
 62
     7
370
     0
100
AcDbLine
 10
246.6449964422
 20
118.9700298947
 30
0.0
 11
246.6449964422
 21
118.8653948721
 31
0.0
  0
LINE
  5
149
330
1F
100
AcDbEntity
  8
0
  6
HIDDEN
 62
     7
370
     0
100
AcDbLine
 10
246.6449964422
 20
118.8653948721
 30
0.0
 11
246.1947057027
 21
118.7237649229
 31
0.0
  0
LINE
  5
14A
330
1F
100
AcDbEntity
  8
0
  6
HIDDEN
 62
     7
370
     0
100
AcDbLine
 10
248.9048841972
 20
126.0153715503
 30
0.0
 11
246.6449964422
 21
118.8653948721
 31
0.0
  0
LINE
  5
14B
330
1F
100
AcDbEntity
  8
0
  6
HIDDEN
 62
     7
370
     0
100
AcDbLine
 10
248.9048841972
 20
126.0153715503
 30
0.0
 11
248.9693615216
 21
126.3240155768
 31
0.0
  0
LWPOLYLINE
  5
14C
330
1F
100
AcDbEntity
  8
0
  6
HIDDEN
 62
     7
370
     0
100
AcDbPolyline
 90
       24
 70
   128
 43
0.0
 10
219.636559822
 20
103.0267615807
 10
220.2031317729
 20
103.1008240771
 10
220.7276824493
 20
103.3175176945
 10
221.1713123697
 20
103.6607724619
 10
221.5011197705
 20
104.1051297453
 10
221.6926369447
 20
104.6176342298
 10
221.7316630859
 20
105.1602753815
 10
221.6153073687
 20
105.6928081908
 10
221.3521975655
 20
106.1757370136
 10
220.9618467468
 20
106.5732453954
 10
220.4732004184
 20
106.8558518546
 10
219.9225131053
 20
107.0025967439
 10
219.3506065387
 20
107.0025967439
 10
218.7999192256
 20
106.8558518546
 10
218.3112728972
 20
106.5732453954
 10
217.9209220785
 20
106.1757370136
 10
217.6578122753
 20
105.6928081908
 10
217.5414565582
 20
105.1602753815
 10
217.5804826993
 20
104.6176342298
 10
217.7719998736
 20
104.1051297453
 10
218.1018072743
 20
103.6607724619
 10
218.5454297442
 20
103.3175176945
 10
219.0699878711
 20
103.1008240771
 10
219.636559822
 20
103.0267615807
  0
CIRCLE
  5
14D
330
1F
100
AcDbEntity
  8
0
  6
HIDDEN
 62
     7
370
     0
100
AcDbCircle
 10
252.4643344872
 20
122.6874717444
 30
0.0
 40
2.398220814512139
  0
LINE
  5
14E
330
1F
100
AcDbEntity
  8
0
  6
HIDDEN
 62
     7
370
     0
100
AcDbLine
 10
258.8462311405
 20
128.7029040051
 30
0.0
 11
258.511074223
 21
129.036814813
 31
0.0
  0
LINE
  5
14F
330
1F
100
AcDbEntity
  8
0
  6
HIDDEN
 62
     7
370
     0
100
AcDbLine
 10
245.0141910094
 20
115.7375177373
 30
0.0
 11
255.8227929849
 21
119.1371575934
 31
0.0
  0
LINE
  5
150
330
1F
100
AcDbEntity
  8
0
  6
HIDDEN
 62
     7
370
     0
100
AcDbLine
 10
248.9048841972
 20
126.0153715503
 30
0.0
 11
258.511074223
 21
129.036814813
 31
0.0
  0
LINE
  5
151
330
1F
100
AcDbEntity
  8
0
  6
HIDDEN
 62
     7
370
     0
100
AcDbLine
 10
258.8462311405
 20
128.7029040051
 30
0.0
 11
255.8227929849
 21
119.1371575934
 31
0.0
  0
CIRCLE
  5
152
330
1F
100
AcDbEntity
  8
0
  6
HIDDEN
 62
     7
370
     0
100
AcDbCircle
 10
252.4644494866
 20
122.6337027785
 30
0.0
 40
1.648596514383912
  0
LINE
  5
153
330
1F
100
AcDbEntity
  8
0
  6
HIDDEN
 62
     7
370
     0
100
AcDbLine
 10
127.1365586299
 20
98.456539121
 30
0.0
 11
127.1365586299
 21
94.6166197774
 31
0.0
  0
LINE
  5
154
330
1F
100
AcDbEntity
  8
0
  6
HIDDEN
 62
     7
370
     0
100
AcDbLine
 10
125.6365593154
 20
98.8895519641
 30
0.0
 11
125.6365593154
 21
95.4826454637
 31
0.0
  0
SPLINE
  5
155
330
1F
100
AcDbEntity
  8
0
  6
HIDDEN
 62
     7
370
     0
100
AcDbSpline
210
0.0
220
0.0
230
1.0
 70
     8
 71
     3
 72
     8
 73
     4
 74
     0
 42
0.00000001
 43
0.00000001
 12
1.0
 22
0.0
 32
0.0
 13
1.0
 23
0.0
 33
0.0
 40
0.0
 40
0.0
 40
0.0
 40
0.0
 40
1.0
 40
1.0
 40
1.0
 40
1.0
 10
148.1415195460424
 20
94.37506572893803
 30
0.0
 10
148.1922466892491
 20
94.32931142761282
 30
0.0
 10
148.25013401881
 20
94.30080728174929
 30
0.0
 10
148.3152391804252
 20
94.28908625209048
 30
0.0
  0
LINE
  5
156
330
1F
100
AcDbEntity
  8
0
  6
HIDDEN
 62
     7
370
     0
100
AcDbLine
 10
147.9365595014
 20
98.19525471
 30
0.0
 11
147.9365595014
 21
97.1401118678
 31
0.0
  0
LINE
  5
157
330
1F
100
AcDbEntity
  8
0
  6
HIDDEN
 62
     7
370
     0
100
AcDbLine
 10
147.9365595014
 20
94.1939138812
 30
0.0
 11
147.9365595014
 21
94.0940518868
 31
0.0
  0
SPLINE
  5
158
330
1F
100
AcDbEntity
  8
0
  6
HIDDEN
 62
     7
370
     0
100
AcDbSpline
210
0.0
220
0.0
230
1.0
 70
     8
 71
     3
 72
    16
 73
    12
 74
     0
 42
0.00000001
 43
0.00000001
 12
1.0
 22
0.0
 32
0.0
 13
1.0
 23
0.0
 33
0.0
 40
0.0
 40
0.0
 40
0.0
 40
0.0
 40
0.2499999999999998
 40
0.2499999999999998
 40
0.375
 40
0.375
 40
0.5000000000000002
 40
0.5000000000000002
 40
0.7500000000000001
 40
0.7500000000000001
 40
1.0
 40
1.0
 40
1.0
 40
1.0
 10
147.9365595239846
 20
97.14011226784919
 30
0.0
 10
147.8560221920852
 20
96.75110508390365
 30
0.0
 10
147.7959848480577
 20
96.39460464227801
 30
0.0
 10
147.7352471409041
 20
95.90810225708915
 30
0.0
 10
147.7199247657912
 20
95.75402331623525
 30
0.0
 10
147.6993419564871
 20
95.46255375774183
 30
0.0
 10
147.6941423594615
 20
95.32498387384271
 30
0.0
 10
147.6940887062817
 20
94.94673903865299
 30
0.0
 10
147.7142862497596
 20
94.7368579701009
 30
0.0
 10
147.7949643381183
 20
94.40027867118972
 30
0.0
 10
147.8560105027262
 20
94.27399417927192
 30
0.0
 10
147.9365595239848
 20
94.19391387178058
 30
0.0
  0
SPLINE
  5
159
330
1F
100
AcDbEntity
  8
0
  6
HIDDEN
 62
     7
370
     0
100
AcDbSpline
210
0.0
220
0.0
230
1.0
 70
     8
 71
     3
 72
    24
 73
    20
 74
     0
 42
0.00000001
 43
0.00000001
 12
1.0
 22
0.0
 32
0.0
 13
1.0
 23
0.0
 33
0.0
 40
0.0
 40
0.0
 40
0.0
 40
0.0
 40
0.2500000000000155
 40
0.2500000000000155
 40
0.3750000000000213
 40
0.3750000000000213
 40
0.4375000000000232
 40
0.4375000000000232
 40
0.4687500000000219
 40
0.4687500000000219
 40
0.5000000000000205
 40
0.5000000000000205
 40
0.5625000000000193
 40
0.5625000000000193
 40
0.6250000000000181
 40
0.6250000000000181
 40
0.750000000000013
 40
0.750000000000013
 40
1.0
 40
1.0
 40
1.0
 40
1.0
 10
147.9365595239847
 20
94.19391387178044
 30
0.0
 10
147.9369624346201
 20
94.22433810861864
 30
0.0
 10
147.9390064139604
 20
94.25719620917307
 30
0.0
 10
147.9482436567858
 20
94.31322157632688
 30
0.0
 10
147.9521307197662
 20
94.33283262951242
 30
0.0
 10
147.9630346111717
 20
94.36710691294145
 30
0.0
 10
147.967176656922
 20
94.3791693384137
 30
0.0
 10
147.9790717306722
 20
94.40148850311152
 30
0.0
 10
147.9843187949791
 20
94.41045501547043
 30
0.0
 10
148.0011858613545
 20
94.42810457999863
 30
0.0
 10
148.0090082688839
 20
94.43224886414362
 30
0.0
 10
148.0259570695085
 20
94.43873640532117
 30
0.0
 10
148.0334134207266
 20
94.43813952394945
 30
0.0
 10
148.0474733239199
 20
94.436393259978
 30
0.0
 10
148.0536057090562
 20
94.43456257207961
 30
0.0
 10
148.07090047158
 20
94.42799616250696
 30
0.0
 10
148.0809177899893
 20
94.4221309473482
 30
0.0
 10
148.1092891242328
 20
94.40338626331757
 30
0.0
 10
148.1258245618776
 20
94.3892221152306
 30
0.0
 10
148.1415195460424
 20
94.37506572893805
 30
0.0
  0
LINE
  5
15A
330
1F
100
AcDbEntity
  8
0
  6
HIDDEN
 62
     7
370
     0
100
AcDbLine
 10
147.9365595014
 20
122.1342486334
 30
0.0
 11
147.9365595014
 21
122.034386639
 31
0.0
  0
LINE
  5
15B
330
1F
100
AcDbEntity
  8
0
  6
HIDDEN
 62
     7
370
     0
100
AcDbLine
 10
127.1365586299
 20
121.6116807428
 30
0.0
 11
127.1365586299
 21
117.7717613992
 31
0.0
  0
LINE
  5
15C
330
1F
100
AcDbEntity
  8
0
  6
HIDDEN
 62
     7
370
     0
100
AcDbLine
 10
147.9365595014
 20
119.0881886524
 30
0.0
 11
147.9365595014
 21
118.0330458102
 31
0.0
  0
SPLINE
  5
15D
330
1F
100
AcDbEntity
  8
0
  6
HIDDEN
 62
     7
370
     0
100
AcDbSpline
210
0.0
220
0.0
230
1.0
 70
     8
 71
     3
 72
    16
 73
    12
 74
     0
 42
0.00000001
 43
0.00000001
 12
1.0
 22
0.0
 32
0.0
 13
1.0
 23
0.0
 33
0.0
 40
0.0
 40
0.0
 40
0.0
 40
0.0
 40
0.2500000000000001
 40
0.2500000000000001
 40
0.3750000000000004
 40
0.3750000000000004
 40
0.5000000000000007
 40
0.5000000000000007
 40
0.7500000000000003
 40
0.7500000000000003
 40
1.0
 40
1.0
 40
1.0
 40
1.0
 10
147.9365595239846
 20
122.0343866484105
 30
0.0
 10
147.8560221920852
 20
121.954317962258
 30
0.0
 10
147.7959848480577
 20
121.8304534707673
 30
0.0
 10
147.7352471409041
 20
121.5797726468344
 30
0.0
 10
147.7199247657912
 20
121.4853340425246
 30
0.0
 10
147.6993419564871
 20
121.2740229749052
 30
0.0
 10
147.6941423594615
 20
121.1567335201511
 30
0.0
 10
147.6940887062817
 20
120.7786978483946
 30
0.0
 10
147.7142862497596
 20
120.4899206946495
 30
0.0
 10
147.7949643381183
 20
119.8400808315083
 30
0.0
 10
147.8560105027262
 20
119.4772518976144
 30
0.0
 10
147.9365595239848
 20
119.0881882523414
 30
0.0
  0
LINE
  5
15E
330
1F
100
AcDbEntity
  8
0
  6
HIDDEN
 62
     7
370
     0
100
AcDbLine
 10
125.6365593154
 20
120.7456550565
 30
0.0
 11
125.6365593154
 21
117.3387485561
 31
0.0
  0
SPLINE
  5
15F
330
1F
100
AcDbEntity
  8
0
  6
HIDDEN
 62
     7
370
     0
100
AcDbSpline
210
0.0
220
0.0
230
1.0
 70
     8
 71
     3
 72
    24
 73
    20
 74
     0
 42
0.00000001
 43
0.00000001
 12
1.0
 22
0.0
 32
0.0
 13
1.0
 23
0.0
 33
0.0
 40
0.0
 40
0.0
 40
0.0
 40
0.0
 40
0.2499999999999909
 40
0.2499999999999909
 40
0.3749999999999856
 40
0.3749999999999856
 40
0.437499999999984
 40
0.437499999999984
 40
0.4999999999999825
 40
0.4999999999999825
 40
0.5312499999999822
 40
0.5312499999999822
 40
0.5624999999999819
 40
0.5624999999999819
 40
0.6249999999999841
 40
0.6249999999999841
 40
0.7499999999999888
 40
0.7499999999999888
 40
1.0
 40
1.0
 40
1.0
 40
1.0
 10
148.1415195460452
 20
121.8532347912556
 30
0.0
 10
148.1257529577468
 20
121.8390138202674
 30
0.0
 10
148.1091414247922
 20
121.8247835299325
 30
0.0
 10
148.0806150768342
 20
121.8059864747111
 30
0.0
 10
148.0705296430442
 20
121.8000980543698
 30
0.0
 10
148.0530468725093
 20
121.7935606595674
 30
0.0
 10
148.0468392160637
 20
121.7917494455663
 30
0.0
 10
148.0325677158185
 20
121.7901436430598
 30
0.0
 10
148.0249976453155
 20
121.7895908656737
 30
0.0
 10
148.0076013158802
 20
121.7967896103865
 30
0.0
 10
147.9991420429201
 20
121.8018813591342
 30
0.0
 10
147.9830810783726
 20
121.8196962916133
 30
0.0
 10
147.9782478425263
 20
121.8282187064757
 30
0.0
 10
147.966821922791
 20
121.8501151431244
 30
0.0
 10
147.9628005669086
 20
121.8618556659303
 30
0.0
 10
147.9520400718775
 20
121.8959059298837
 30
0.0
 10
147.9481657628166
 20
121.9154809189124
 30
0.0
 10
147.9389928906894
 20
121.9713292275936
 30
0.0
 10
147.9369605199747
 20
122.0041069886225
 30
0.0
 10
147.9365595239848
 20
122.0343866484104
 30
0.0
  0
SPLINE
  5
160
330
1F
100
AcDbEntity
  8
0
  6
HIDDEN
 62
     7
370
     0
100
AcDbSpline
210
0.0
220
0.0
230
1.0
 70
     8
 71
     3
 72
     8
 73
     4
 74
     0
 42
0.00000001
 43
0.00000001
 12
1.0
 22
0.0
 32
0.0
 13
1.0
 23
0.0
 33
0.0
 40
0.0
 40
0.0
 40
0.0
 40
0.0
 40
1.0
 40
1.0
 40
1.0
 40
1.0
 10
148.3152391804252
 20
121.9392142681008
 30
0.0
 10
148.2501340188111
 20
121.9274932384422
 30
0.0
 10
148.1922466892511
 20
121.8989890925795
 30
0.0
 10
148.1415195460451
 20
121.8532347912557
 30
0.0
  0
LINE
  5
161
330
1F
100
AcDbEntity
  8
0
  6
HIDDEN
 62
     7
370
     0
100
AcDbLine
 10
258.511074223
 20
129.036814813
 30
0.0
 11
257.9320300001
 21
128.2560256314
 31
0.0
  0
LINE
  5
162
330
1F
100
AcDbEntity
  8
0
  6
HIDDEN
 62
     7
370
     0
100
AcDbLine
 10
258.1336278099
 20
127.7420212519
 30
0.0
 11
258.8462311405
 21
128.7029040051
 31
0.0
  0
SPLINE
  5
163
330
1F
100
AcDbEntity
  8
0
  6
HIDDEN
 62
     7
370
     0
100
AcDbSpline
210
0.0
220
0.0
230
1.0
 70
     8
 71
     3
 72
    32
 73
    28
 74
     0
 42
0.00000001
 43
0.00000001
 12
1.0
 22
0.0
 32
0.0
 13
1.0
 23
0.0
 33
0.0
 40
0.0
 40
0.0
 40
0.0
 40
0.0
 40
0.1249999999999973
 40
0.1249999999999973
 40
0.2499999999999945
 40
0.2499999999999945
 40
0.3124999999999949
 40
0.3124999999999949
 40
0.3749999999999954
 40
0.3749999999999954
 40
0.4374999999999959
 40
0.4374999999999959
 40
0.4999999999999966
 40
0.4999999999999966
 40
0.5624999999999972
 40
0.5624999999999972
 40
0.6249999999999978
 40
0.6249999999999978
 40
0.6874999999999984
 40
0.6874999999999984
 40
0.749999999999999
 40
0.749999999999999
 40
0.8124999999999997
 40
0.8124999999999997
 40
0.8750000000000003
 40
0.8750000000000003
 40
1.0
 40
1.0
 40
1.0
 40
1.0
 10
250.8182699087791
 20
121.9216460406351
 30
0.0
 10
250.8056644675821
 20
122.1409152026686
 30
0.0
 10
250.8319712528394
 20
122.3540000966903
 30
0.0
 10
250.9598109819944
 20
122.7685327919063
 30
0.0
 10
251.0595757953394
 20
122.9629013737087
 30
0.0
 10
251.2673383800075
 20
123.2260224444287
 30
0.0
 10
251.3474370673517
 20
123.3096772730134
 30
0.0
 10
251.5248067412919
 20
123.4593852679666
 30
0.0
 10
251.6232128813339
 20
123.52675573775
 30
0.0
 10
251.8402795955528
 20
123.6408502846371
 30
0.0
 10
251.9557962611318
 20
123.6860785282171
 30
0.0
 10
252.2033077269504
 20
123.7491585297543
 30
0.0
 10
252.3318433111453
 20
123.7657078235127
 30
0.0
 10
252.5896896507525
 20
123.766455420054
 30
0.0
 10
252.720392244584
 20
123.7502474946382
 30
0.0
 10
252.9667336766514
 20
123.6887440534851
 30
0.0
 10
253.0853443976835
 20
123.642918880248
 30
0.0
 10
253.3016348977363
 20
123.5302553396546
 30
0.0
 10
253.4018554178282
 20
123.4622409639746
 30
0.0
 10
253.5798881454978
 20
123.3128192162623
 30
0.0
 10
253.6587440360007
 20
123.2310521672464
 30
0.0
 10
253.7988575952163
 20
123.054845993018
 30
0.0
 10
253.8593545068689
 20
122.9610159097853
 30
0.0
 10
253.960387882949
 20
122.7679924964546
 30
0.0
 10
254.0015097986416
 20
122.6680409209457
 30
0.0
 10
254.097815878961
 20
122.3579318605019
 30
0.0
 10
254.1249045186815
 20
122.1411299719702
 30
0.0
 10
254.1122867307334
 20
121.9216460406351
 30
0.0
  0
ARC
  5
164
330
1F
100
AcDbEntity
  8
0
  6
HIDDEN
 62
     7
370
     0
100
AcDbCircle
 10
252.4652782459
 20
122.0239593909
 30
0.0
 40
1.650185254200272
100
AcDbArc
 50
183.5546734206
 51
356.4453265794
  0
ELLIPSE
  5
165
330
1F
100
AcDbEntity
  8
0
  6
HIDDEN
 62
     7
370
     0
100
AcDbEllipse
 10
281.9553339181
 20
109.6141502601
 30
0.0
 11
24.06101560154366
 21
-22.41887999910566
 31
0.0
210
0.0
220
0.0
230
1.0
 40
0.2135193148
 41
3.542086208490072
 42
3.579292178252498
  0
ELLIPSE
  5
166
330
1F
100
AcDbEntity
  8
0
  6
HIDDEN
 62
     7
370
     0
100
AcDbEllipse
 10
191.2442430822
 20
109.6141502601
 30
0.0
 11
73.48411303275158
 21
22.64800636057881
 31
0.0
210
0.0
220
0.0
230
1.0
 40
0.054548757
 41
5.557188037262496
 42
5.832597835267139
  0
LINE
  5
167
330
1F
100
AcDbEntity
  8
0
  6
HIDDEN
 62
     7
370
     0
100
AcDbLine
 10
236.7222163457
 20
122.4807015625
 30
0.0
 11
239.2533201355
 21
122.4807015625
 31
0.0
  0
SPLINE
  5
168
330
1F
100
AcDbEntity
  8
0
  6
HIDDEN
 62
     7
370
     0
100
AcDbSpline
210
0.0
220
0.0
230
1.0
 70
     8
 71
     3
 72
    12
 73
     8
 74
     0
 42
0.00000001
 43
0.00000001
 12
1.0
 22
0.0
 32
0.0
 13
1.0
 23
0.0
 33
0.0
 40
0.0
 40
0.0
 40
0.0
 40
0.0
 40
0.5
 40
0.5
 40
0.75
 40
0.75
 40
1.0
 40
1.0
 40
1.0
 40
1.0
 10
239.2533178588351
 20
122.4807011102934
 30
0.0
 10
240.600443068362
 20
122.4807011102934
 30
0.0
 10
241.9231999521549
 20
122.6023700518347
 30
0.0
 10
243.871365566467
 20
122.9573972950023
 30
0.0
 10
244.5146919177774
 20
123.1046908853028
 30
0.0
 10
245.7884944939111
 20
123.4576363338532
 30
0.0
 10
246.4112227416885
 20
123.6611824809093
 30
0.0
 10
247.0186079473748
 20
123.8900364320839
 30
0.0
  0
ELLIPSE
  5
169
330
1F
100
AcDbEntity
  8
0
  6
HIDDEN
 62
     7
370
     0
100
AcDbEllipse
 10
253.7757072655
 20
109.6141502601
 30
0.0
 11
7.514065062580669
 21
22.98862467920323
 31
0.0
210
0.0
220
0.0
230
1.0
 40
0.0962569477
 41
0.6944213496676822
 42
1.602248510774582
  0
LWPOLYLINE
  5
16A
330
1F
100
AcDbEntity
  8
0
  6
HIDDEN
 62
     7
370
     0
100
AcDbPolyline
 90
       26
 70
   128
 43
0.0
 10
219.636559822
 20
102.5720684794
 10
220.2582809705
 20
102.6467666034
 10
220.8409461755
 20
102.8661671099
 10
221.3479283828
 20
103.2164840964
 10
221.7473763603
 20
103.6757057537
 10
222.0142040033
 20
104.2149783117
 10
222.1316251535
 20
104.8004165296
 10
222.0922786373
 20
105.3952354942
 10
221.898630597
 20
105.9620602992
 10
221.5628403801
 20
106.4652754231
 10
221.106022932
 20
106.8732621153
 10
220.5568704385
 20
107.1603848487
 10
219.949893989
 20
107.308602741
 10
219.323225655
 20
107.308602741
 10
218.7162492055
 20
107.1603848487
 10
218.167096712
 20
106.8732621153
 10
217.7102792639
 20
106.4652754231
 10
217.374489047
 20
105.9620602992
 10
217.1808410067
 20
105.3952354942
 10
217.1414944905
 20
104.8004165296
 10
217.2589156408
 20
104.2149783117
 10
217.5257432837
 20
103.6757057537
 10
217.9251912612
 20
103.2164840964
 10
218.4321734685
 20
102.8661671099
 10
219.0148312229
 20
102.6467666034
 10
219.636559822
 20
102.5720684794
  0
LINE
  5
16B
330
1F
100
AcDbEntity
  8
0
  6
HIDDEN
 62
     7
370
     0
100
AcDbLine
 10
125.6365593154
 20
117.3387485561
 30
0.0
 11
125.6365593154
 21
109.9643641156
 31
0.0
  0
LINE
  5
16C
330
1F
100
AcDbEntity
  8
0
  6
HIDDEN
 62
     7
370
     0
100
AcDbLine
 10
125.6365593154
 20
106.2639364046
 30
0.0
 11
125.6365593154
 21
98.8895519641
 31
0.0
  0
SPLINE
  5
16D
330
1F
100
AcDbEntity
  8
0
  6
HIDDEN
 62
     7
370
     0
100
AcDbSpline
210
0.0
220
0.0
230
1.0
 70
     8
 71
     3
 72
    24
 73
    20
 74
     0
 42
0.00000001
 43
0.00000001
 12
1.0
 22
0.0
 32
0.0
 13
1.0
 23
0.0
 33
0.0
 40
0.0
 40
0.0
 40
0.0
 40
0.0
 40
0.2500000000000062
 40
0.2500000000000062
 40
0.3750000000000093
 40
0.3750000000000093
 40
0.4375000000000104
 40
0.4375000000000104
 40
0.5000000000000114
 40
0.5000000000000114
 40
0.5312500000000118
 40
0.5312500000000118
 40
0.5625000000000121
 40
0.5625000000000121
 40
0.6250000000000087
 40
0.6250000000000087
 40
0.7500000000000079
 40
0.7500000000000079
 40
1.0
 40
1.0
 40
1.0
 40
1.0
 10
148.1415195460452
 20
97.32155653329741
 30
0.0
 10
148.1257506686877
 20
97.24769784136782
 30
0.0
 10
148.1091366868377
 20
97.17398645263208
 30
0.0
 10
148.0806050208326
 20
97.06243962901006
 30
0.0
 10
148.070517606014
 20
97.02506805588159
 30
0.0
 10
148.0530300455596
 20
96.9681685582439
 30
0.0
 10
148.0468204837764
 20
96.9490654580986
 30
0.0
 10
148.0325429301238
 20
96.91019194386307
 30
0.0
 10
148.0249713823284
 20
96.8902672844297
 30
0.0
 10
148.0075537986501
 20
96.8601950664023
 30
0.0
 10
147.9990713020051
 20
96.84851368759914
 30
0.0
 10
147.9830329901332
 20
96.84125217685042
 30
0.0
 10
147.9782124419297
 20
96.8448304238602
 30
0.0
 10
147.9668032173817
 20
96.85659127909186
 30
0.0
 10
147.9627827369242
 20
96.86825692914242
 30
0.0
 10
147.9520288821039
 20
96.90479225925598
 30
0.0
 10
147.9481562008218
 20
96.93218799257956
 30
0.0
 10
147.9389880509841
 20
97.01691398433557
 30
0.0
 10
147.936959545615
 20
97.07774610650766
 30
0.0
 10
147.9365595239848
 20
97.14011226784929
 30
0.0
  0
SPLINE
  5
16E
330
1F
100
AcDbEntity
  8
0
  6
HIDDEN
 62
     7
370
     0
100
AcDbSpline
210
0.0
220
0.0
230
1.0
 70
     8
 71
     3
 72
    24
 73
    20
 74
     0
 42
0.00000001
 43
0.00000001
 12
1.0
 22
0.0
 32
0.0
 13
1.0
 23
0.0
 33
0.0
 40
0.0
 40
0.0
 40
0.0
 40
0.0
 40
0.2499999999999968
 40
0.2499999999999968
 40
0.3749999999999952
 40
0.3749999999999952
 40
0.4374999999999955
 40
0.4374999999999955
 40
0.4687499999999951
 40
0.4687499999999951
 40
0.4999999999999946
 40
0.4999999999999946
 40
0.5624999999999961
 40
0.5624999999999961
 40
0.6249999999999976
 40
0.6249999999999976
 40
0.7500000000000006
 40
0.7500000000000006
 40
1.0
 40
1.0
 40
1.0
 40
1.0
 10
147.9365595239811
 20
119.0881882523442
 30
0.0
 10
147.9369641935568
 20
119.1512790608378
 30
0.0
 10
147.939007640371
 20
119.2124647833412
 30
0.0
 10
147.9484072056249
 20
119.2979645158444
 30
0.0
 10
147.9523580991535
 20
119.325544899286
 30
0.0
 10
147.9635104074499
 20
119.3619989813986
 30
0.0
 10
147.9677319483764
 20
119.3738574030933
 30
0.0
 10
147.9799396699387
 20
119.3844774544707
 30
0.0
 10
147.985730440189
 20
119.3873108216948
 30
0.0
 10
148.0026519532987
 20
119.375996234702
 30
0.0
 10
148.0100580692499
 20
119.3642153489478
 30
0.0
 10
148.0265153224945
 20
119.3341745077177
 30
0.0
 10
148.0339718404056
 20
119.3144615541043
 30
0.0
 10
148.0478797696807
 20
119.2760594880437
 30
0.0
 10
148.0539717155758
 20
119.257177838132
 30
0.0
 10
148.0711660079272
 20
119.2008769275998
 30
0.0
 10
148.081150958131
 20
119.1638008497898
 30
0.0
 10
148.1093970032302
 20
119.0531421788986
 30
0.0
 10
148.1258765401915
 20
118.9800131184893
 30
0.0
 10
148.1415195460514
 20
118.9067439868646
 30
0.0
  0
SPLINE
  5
16F
330
1F
100
AcDbEntity
  8
0
  6
HIDDEN
 62
     7
370
     0
100
AcDbSpline
210
0.0
220
0.0
230
1.0
 70
     8
 71
     3
 72
     8
 73
     4
 74
     0
 42
0.00000001
 43
0.00000001
 12
1.0
 22
0.0
 32
0.0
 13
1.0
 23
0.0
 33
0.0
 40
0.0
 40
0.0
 40
0.0
 40
0.0
 40
1.0
 40
1.0
 40
1.0
 40
1.0
 10
148.3152391804252
 20
98.06063094248887
 30
0.0
 10
148.2501340188111
 20
97.80560570728319
 30
0.0
 10
148.1922466892511
 20
97.55915369114196
 30
0.0
 10
148.1415195460451
 20
97.32155653329738
 30
0.0
  0
SPLINE
  5
170
330
1F
100
AcDbEntity
  8
0
  6
HIDDEN
 62
     7
370
     0
100
AcDbSpline
210
0.0
220
0.0
230
1.0
 70
     8
 71
     3
 72
     8
 73
     4
 74
     0
 42
0.00000001
 43
0.00000001
 12
1.0
 22
0.0
 32
0.0
 13
1.0
 23
0.0
 33
0.0
 40
0.0
 40
0.0
 40
0.0
 40
0.0
 40
1.0
 40
1.0
 40
1.0
 40
1.0
 10
148.1415195460514
 20
118.9067439868646
 30
0.0
 10
148.1922466892559
 20
118.6691468290291
 30
0.0
 10
148.2501340188138
 20
118.4226948128976
 30
0.0
 10
148.3152391804252
 20
118.1676695777024
 30
0.0
  0
LINE
  5
171
330
1F
100
AcDbEntity
  8
0
  6
HIDDEN
 62
     7
370
     0
100
AcDbLine
 10
127.1365586299
 20
105.5591219575
 30
0.0
 11
127.1365586299
 21
98.456539121
 31
0.0
  0
LINE
  5
172
330
1F
100
AcDbEntity
  8
0
  6
HIDDEN
 62
     7
370
     0
100
AcDbLine
 10
127.1365586299
 20
117.7717613992
 30
0.0
 11
127.1365586299
 21
110.6691785627
 31
0.0
  0
LINE
  5
173
330
1F
100
AcDbEntity
  8
0
  6
HIDDEN
 62
     7
370
     0
100
AcDbLine
 10
147.9365595014
 20
118.0330458102
 30
0.0
 11
147.9365595014
 21
98.19525471
 31
0.0
  0
LINE
  5
174
330
1F
100
AcDbEntity
  8
0
  6
HIDDEN
 62
     7
370
     0
100
AcDbLine
 10
149.436559529
 20
116.5935172704
 30
0.0
 11
149.436559529
 21
99.6347832498
 31
0.0
  0
SPLINE
  5
175
330
1F
100
AcDbEntity
  8
0
  6
HIDDEN
 62
     7
370
     0
100
AcDbSpline
210
0.0
220
0.0
230
1.0
 70
     8
 71
     3
 72
    22
 73
    18
 74
     0
 42
0.00000001
 43
0.00000001
 12
1.0
 22
0.0
 32
0.0
 13
1.0
 23
0.0
 33
0.0
 40
0.0
 40
0.0
 40
0.0
 40
0.0
 40
0.125
 40
0.125
 40
0.25
 40
0.25
 40
0.375
 40
0.375
 40
0.5
 40
0.5
 40
0.625
 40
0.625
 40
0.75
 40
0.75
 40
0.875
 40
0.875
 40
1.0
 40
1.0
 40
1.0
 40
1.0
 10
129.8365595239848
 20
105.5212055802677
 30
0.0
 10
130.017495882061
 20
105.7128254395742
 30
0.0
 10
130.1965913308378
 20
105.9064673039614
 30
0.0
 10
130.5474313193498
 20
106.3011225573456
 30
0.0
 10
130.7196244272545
 20
106.5021340880132
 30
0.0
 10
131.0453559328737
 20
106.918345203247
 30
0.0
 10
131.2014321680421
 20
107.1343610435337
 30
0.0
 10
131.4528113819312
 20
107.5996838066985
 30
0.0
 10
131.5466765122499
 20
107.8552229997213
 30
0.0
 10
131.5429485953878
 20
108.3895536348219
 30
0.0
 10
131.4455759529005
 20
108.6449745008226
 30
0.0
 10
131.1937551439066
 20
109.1050032167703
 30
0.0
 10
131.038785888434
 20
109.3188402176988
 30
0.0
 10
130.7139731307087
 20
109.7328788003926
 30
0.0
 10
130.5430800665808
 20
109.9321712724284
 30
0.0
 10
130.1944458270532
 20
110.3241461648626
 30
0.0
 10
130.0164379765247
 20
110.516595450852
 30
0.0
 10
129.8365595239848
 20
110.7070949399236
 30
0.0
  0
LINE
  5
176
330
1F
100
AcDbEntity
  8
0
  6
HIDDEN
 62
     7
370
     0
100
AcDbLine
 10
129.8365596313
 20
105.5212054872
 30
0.0
 11
129.8365596313
 21
110.707095033
 31
0.0
  0
SPLINE
  5
177
330
1F
100
AcDbEntity
  8
0
  6
HIDDEN
 62
     7
370
     0
100
AcDbSpline
210
0.0
220
0.0
230
1.0
 70
     8
 71
     3
 72
     8
 73
     4
 74
     0
 42
0.00000001
 43
0.00000001
 12
1.0
 22
0.0
 32
0.0
 13
1.0
 23
0.0
 33
0.0
 40
0.0000137051794235
 40
0.0000137051794235
 40
0.0000137051794235
 40
0.0000137051794235
 40
0.0027147144718019
 40
0.0027147144718019
 40
0.0027147144718019
 40
0.0027147144718019
 10
127.1365595239848
 20
105.5591220230339
 30
0.0
 10
128.0365556594795
 20
105.5461504558355
 30
0.0
 10
128.936555838075
 20
105.5335155985235
 30
0.0
 10
129.8365595239848
 20
105.5212055802677
 30
0.0
  0
SPLINE
  5
178
330
1F
100
AcDbEntity
  8
0
  6
HIDDEN
 62
     7
370
     0
100
AcDbSpline
210
0.0
220
0.0
230
1.0
 70
     8
 71
     3
 72
     8
 73
     4
 74
     0
 42
0.00000001
 43
0.00000001
 12
1.0
 22
0.0
 32
0.0
 13
1.0
 23
0.0
 33
0.0
 40
0.0000137050638847
 40
0.0000137050638847
 40
0.0000137050638847
 40
0.0000137050638847
 40
0.0027147143562632
 40
0.0027147143562632
 40
0.0027147143562632
 40
0.0027147143562632
 10
129.8365595239848
 20
110.7070949399236
 30
0.0
 10
128.936555838075
 20
110.6947849216678
 30
0.0
 10
128.0365556594795
 20
110.6821500643558
 30
0.0
 10
127.1365595239848
 20
110.6691784971574
 30
0.0
  0
SPLINE
  5
179
330
1F
100
AcDbEntity
  8
0
  6
HIDDEN
 62
     7
370
     0
100
AcDbSpline
210
0.0
220
0.0
230
1.0
 70
     8
 71
     3
 72
    10
 73
     6
 74
     0
 42
0.00000001
 43
0.00000001
 12
1.0
 22
0.0
 32
0.0
 13
1.0
 23
0.0
 33
0.0
 40
0.0
 40
0.0
 40
0.0
 40
0.0
 40
0.5
 40
0.5
 40
1.0
 40
1.0
 40
1.0
 40
1.0
 10
125.6365595239839
 20
106.2639364464456
 30
0.0
 10
125.8737014846998
 20
106.1083216319167
 30
0.0
 10
126.1190442434633
 20
105.9764126024974
 30
0.0
 10
126.6203078321963
 20
105.7447557258599
 30
0.0
 10
126.8763424014466
 20
105.645310109737
 30
0.0
 10
127.1365595239848
 20
105.5591220230339
 30
0.0
  0
SPLINE
  5
17A
330
1F
100
AcDbEntity
  8
0
  6
HIDDEN
 62
     7
370
     0
100
AcDbSpline
210
0.0
220
0.0
230
1.0
 70
     8
 71
     3
 72
    10
 73
     6
 74
     0
 42
0.00000001
 43
0.00000001
 12
1.0
 22
0.0
 32
0.0
 13
1.0
 23
0.0
 33
0.0
 40
0.0
 40
0.0
 40
0.0
 40
0.0
 40
0.5
 40
0.5
 40
1.0
 40
1.0
 40
1.0
 40
1.0
 10
127.1365595239848
 20
110.6691784971574
 30
0.0
 10
126.8763424014468
 20
110.5829904104543
 30
0.0
 10
126.6203078321966
 20
110.4835447943316
 30
0.0
 10
126.1190442434639
 20
110.2518879176942
 30
0.0
 10
125.8737014847006
 20
110.119978888275
 30
0.0
 10
125.6365595239848
 20
109.9643640737463
 30
0.0
  0
LINE
  5
17B
330
1F
100
AcDbEntity
  8
0
  6
HIDDEN
 62
     7
370
     0
100
AcDbLine
 10
125.6365593154
 20
106.2639364046
 30
0.0
 11
125.6365593154
 21
109.9643641156
 31
0.0
  0
SPLINE
  5
17C
330
1F
100
AcDbEntity
  8
0
  6
HIDDEN
 62
     7
370
     0
100
AcDbSpline
210
0.0
220
0.0
230
1.0
 70
     8
 71
     3
 72
    62
 73
    58
 74
     0
 42
0.00000001
 43
0.00000001
 12
1.0
 22
0.0
 32
0.0
 13
1.0
 23
0.0
 33
0.0
 40
-0.03125
 40
-0.03125
 40
0.0
 40
0.0
 40
0.03125
 40
0.03125
 40
0.0624999999999999
 40
0.0624999999999999
 40
0.0937499999999998
 40
0.0937499999999998
 40
0.1249999999999998
 40
0.1249999999999998
 40
0.1874999999999999
 40
0.1874999999999999
 40
0.2500000000000001
 40
0.2500000000000001
 40
0.2812500000000001
 40
0.2812500000000001
 40
0.3125
 40
0.3125
 40
0.34375
 40
0.34375
 40
0.3749999999999999
 40
0.3749999999999999
 40
0.4374999999999998
 40
0.4374999999999998
 40
0.4687499999999997
 40
0.4687499999999997
 40
0.4999999999999997
 40
0.4999999999999997
 40
0.5624999999999997
 40
0.5624999999999997
 40
0.5937499999999998
 40
0.5937499999999998
 40
0.6249999999999998
 40
0.6249999999999998
 40
0.6562499999999999
 40
0.6562499999999999
 40
0.6875
 40
0.6875
 40
0.71875
 40
0.71875
 40
0.7500000000000001
 40
0.7500000000000001
 40
0.7812500000000002
 40
0.7812500000000002
 40
0.8125000000000002
 40
0.8125000000000002
 40
0.8437500000000002
 40
0.8437500000000002
 40
0.8750000000000001
 40
0.8750000000000001
 40
0.9062500000000001
 40
0.9062500000000001
 40
0.9375000000000001
 40
0.9375000000000001
 40
0.96875
 40
0.96875
 40
1.0
 40
1.0
 40
1.03125
 40
1.03125
 10
136.0903316519131
 20
109.602129298752
 30
0.0
 10
136.3178319985013
 20
109.8514758406126
 30
0.0
 10
136.4422945274188
 20
109.9630735180695
 30
0.0
 10
136.7113887935706
 20
110.1617243138879
 30
0.0
 10
136.8572018851599
 20
110.2490645586766
 30
0.0
 10
137.1583687634492
 20
110.3932603113188
 30
0.0
 10
137.3147044905136
 20
110.4510799818331
 30
0.0
 10
137.6388277898481
 20
110.5383335938841
 30
0.0
 10
137.8054930015585
 20
110.5671356433659
 30
0.0
 10
138.3035092681904
 20
110.6079149486337
 30
0.0
 10
138.6441802169834
 20
110.5744716884925
 30
0.0
 10
139.2831911324049
 20
110.3920190440337
 30
0.0
 10
139.5896457394687
 20
110.240594483721
 30
0.0
 10
139.9862016487311
 20
109.9400965781366
 30
0.0
 10
140.1105508395806
 20
109.8258353929413
 30
0.0
 10
140.3330149336298
 20
109.5761755223687
 30
0.0
 10
140.430580272107
 20
109.4420089143696
 30
0.0
 10
140.5978358757458
 20
109.1545398198709
 30
0.0
 10
140.6679215312649
 20
108.999272969971
 30
0.0
 10
140.7719768919864
 20
108.682293549884
 30
0.0
 10
140.8069526546539
 20
108.5196407983796
 30
0.0
 10
140.8588171741779
 20
108.018703778177
 30
0.0
 10
140.8195110664065
 20
107.6785491768667
 30
0.0
 10
140.6567912739457
 20
107.2020545447696
 30
0.0
 10
140.5865107760594
 20
107.0509871849421
 30
0.0
 10
140.4151776309294
 20
106.7636926145012
 30
0.0
 10
140.3137853897477
 20
106.6278348362038
 30
0.0
 10
139.9771858025245
 20
106.2590264412056
 30
0.0
 10
139.7019530363598
 20
106.0566013318746
 30
0.0
 10
139.2521698090139
 20
105.8395246052658
 30
0.0
 10
139.0933700105103
 20
105.7802223331916
 30
0.0
 10
138.7708082896306
 20
105.6922498153911
 30
0.0
 10
138.6069491776634
 20
105.6631300515448
 30
0.0
 10
138.2741164043095
 20
105.6342734364346
 30
0.0
 10
138.1040641128687
 20
105.6348969596486
 30
0.0
 10
137.771788448849
 20
105.666153403453
 30
0.0
 10
137.6080738371003
 20
105.6964720985048
 30
0.0
 10
137.2856083515259
 20
105.7871891375078
 30
0.0
 10
137.1270972529994
 20
105.8479580462096
 30
0.0
 10
136.8285435468015
 20
105.9954687210066
 30
0.0
 10
136.6867174175995
 20
106.0826037488705
 30
0.0
 10
136.4187956790412
 20
106.2851892154425
 30
0.0
 10
136.2947022486486
 20
106.3995273820847
 30
0.0
 10
136.0735680607305
 20
106.6477138200375
 30
0.0
 10
135.9751110586318
 20
106.7827464368913
 30
0.0
 10
135.8057525448968
 20
107.074750834946
 30
0.0
 10
135.7375857071909
 20
107.2268865813815
 30
0.0
 10
135.6338517408645
 20
107.5432955298216
 30
0.0
 10
135.5981831789953
 20
107.7097919991758
 30
0.0
 10
135.5639694143428
 20
108.0430538752863
 30
0.0
 10
135.5648278171719
 20
108.2097163291082
 30
0.0
 10
135.6026245971214
 20
108.5431045283257
 30
0.0
 10
135.6399673525755
 20
108.7088601008053
 30
0.0
 10
135.7472169356439
 20
109.0247514172679
 30
0.0
 10
135.8179781521831
 20
109.1780307503401
 30
0.0
 10
135.9901013022837
 20
109.4674077928265
 30
0.0
 10
136.0903316519131
 20
109.602129298752
 30
0.0
 10
136.3178319985013
 20
109.8514758406126
 30
0.0
  0
SPLINE
  5
17D
330
1F
100
AcDbEntity
  8
0
  6
HIDDEN
 62
     7
370
     0
100
AcDbSpline
210
0.0
220
0.0
230
1.0
 70
     8
 71
     3
 72
    62
 73
    58
 74
     0
 42
0.00000001
 43
0.00000001
 12
1.0
 22
0.0
 32
0.0
 13
1.0
 23
0.0
 33
0.0
 40
-0.03125
 40
-0.03125
 40
0.0
 40
0.0
 40
0.03125
 40
0.03125
 40
0.0624999999999999
 40
0.0624999999999999
 40
0.0937499999999998
 40
0.0937499999999998
 40
0.1249999999999998
 40
0.1249999999999998
 40
0.1874999999999999
 40
0.1874999999999999
 40
0.2500000000000001
 40
0.2500000000000001
 40
0.2812500000000001
 40
0.2812500000000001
 40
0.3125
 40
0.3125
 40
0.34375
 40
0.34375
 40
0.3749999999999999
 40
0.3749999999999999
 40
0.4374999999999998
 40
0.4374999999999998
 40
0.4687499999999997
 40
0.4687499999999997
 40
0.4999999999999997
 40
0.4999999999999997
 40
0.5624999999999997
 40
0.5624999999999997
 40
0.5937499999999998
 40
0.5937499999999998
 40
0.6249999999999998
 40
0.6249999999999998
 40
0.6562499999999999
 40
0.6562499999999999
 40
0.6875
 40
0.6875
 40
0.71875
 40
0.71875
 40
0.7500000000000001
 40
0.7500000000000001
 40
0.7812500000000002
 40
0.7812500000000002
 40
0.8125000000000002
 40
0.8125000000000002
 40
0.8437500000000002
 40
0.8437500000000002
 40
0.8750000000000001
 40
0.8750000000000001
 40
0.9062500000000001
 40
0.9062500000000001
 40
0.9375000000000001
 40
0.9375000000000001
 40
0.96875
 40
0.96875
 40
1.0
 40
1.0
 40
1.03125
 40
1.03125
 10
136.0903316519131
 20
109.602129298752
 30
0.0
 10
136.3178319985013
 20
109.8514758406126
 30
0.0
 10
136.4422945274188
 20
109.9630735180695
 30
0.0
 10
136.7113887935706
 20
110.1617243138879
 30
0.0
 10
136.8572018851599
 20
110.2490645586766
 30
0.0
 10
137.1583687634492
 20
110.3932603113188
 30
0.0
 10
137.3147044905136
 20
110.4510799818331
 30
0.0
 10
137.6388277898481
 20
110.5383335938841
 30
0.0
 10
137.8054930015585
 20
110.5671356433659
 30
0.0
 10
138.3035092681904
 20
110.6079149486337
 30
0.0
 10
138.6441802169834
 20
110.5744716884925
 30
0.0
 10
139.2831911324049
 20
110.3920190440337
 30
0.0
 10
139.5896457394687
 20
110.240594483721
 30
0.0
 10
139.9862016487311
 20
109.9400965781366
 30
0.0
 10
140.1105508395806
 20
109.8258353929413
 30
0.0
 10
140.3330149336298
 20
109.5761755223687
 30
0.0
 10
140.430580272107
 20
109.4420089143696
 30
0.0
 10
140.5978358757458
 20
109.1545398198709
 30
0.0
 10
140.6679215312649
 20
108.999272969971
 30
0.0
 10
140.7719768919864
 20
108.682293549884
 30
0.0
 10
140.8069526546539
 20
108.5196407983796
 30
0.0
 10
140.8588171741779
 20
108.018703778177
 30
0.0
 10
140.8195110664065
 20
107.6785491768667
 30
0.0
 10
140.6567912739457
 20
107.2020545447696
 30
0.0
 10
140.5865107760594
 20
107.0509871849421
 30
0.0
 10
140.4151776309294
 20
106.7636926145012
 30
0.0
 10
140.3137853897477
 20
106.6278348362038
 30
0.0
 10
139.9771858025245
 20
106.2590264412056
 30
0.0
 10
139.7019530363598
 20
106.0566013318746
 30
0.0
 10
139.2521698090139
 20
105.8395246052658
 30
0.0
 10
139.0933700105103
 20
105.7802223331916
 30
0.0
 10
138.7708082896306
 20
105.6922498153911
 30
0.0
 10
138.6069491776634
 20
105.6631300515448
 30
0.0
 10
138.2741164043095
 20
105.6342734364346
 30
0.0
 10
138.1040641128687
 20
105.6348969596486
 30
0.0
 10
137.771788448849
 20
105.666153403453
 30
0.0
 10
137.6080738371003
 20
105.6964720985048
 30
0.0
 10
137.2856083515259
 20
105.7871891375078
 30
0.0
 10
137.1270972529994
 20
105.8479580462096
 30
0.0
 10
136.8285435468015
 20
105.9954687210066
 30
0.0
 10
136.6867174175995
 20
106.0826037488705
 30
0.0
 10
136.4187956790412
 20
106.2851892154425
 30
0.0
 10
136.2947022486486
 20
106.3995273820847
 30
0.0
 10
136.0735680607305
 20
106.6477138200375
 30
0.0
 10
135.9751110586318
 20
106.7827464368913
 30
0.0
 10
135.8057525448968
 20
107.074750834946
 30
0.0
 10
135.7375857071909
 20
107.2268865813815
 30
0.0
 10
135.6338517408645
 20
107.5432955298216
 30
0.0
 10
135.5981831789953
 20
107.7097919991758
 30
0.0
 10
135.5639694143428
 20
108.0430538752863
 30
0.0
 10
135.5648278171719
 20
108.2097163291082
 30
0.0
 10
135.6026245971214
 20
108.5431045283257
 30
0.0
 10
135.6399673525755
 20
108.7088601008053
 30
0.0
 10
135.7472169356439
 20
109.0247514172679
 30
0.0
 10
135.8179781521831
 20
109.1780307503401
 30
0.0
 10
135.9901013022837
 20
109.4674077928265
 30
0.0
 10
136.0903316519131
 20
109.602129298752
 30
0.0
 10
136.3178319985013
 20
109.8514758406126
 30
0.0
  0
CIRCLE
  5
17E
330
1F
100
AcDbEntity
  8
0
  6
HIDDEN
 62
     7
370
     0
100
AcDbCircle
 10
138.136559524
 20
108.1141502601
 30
0.0
 40
2.300000000000011
  0
SPLINE
  5
17F
330
1F
100
AcDbEntity
  8
0
  6
HIDDEN
 62
     7
370
     0
100
AcDbSpline
210
0.0
220
0.0
230
1.0
 70
     8
 71
     3
 72
    20
 73
    16
 74
     0
 42
0.00000001
 43
0.00000001
 12
1.0
 22
0.0
 32
0.0
 13
1.0
 23
0.0
 33
0.0
 40
0.0
 40
0.0
 40
0.0
 40
0.0
 40
0.2500000000000003
 40
0.2500000000000003
 40
0.3750000000000003
 40
0.3750000000000003
 40
0.5000000000000003
 40
0.5000000000000003
 40
0.6250000000000002
 40
0.6250000000000002
 40
0.7500000000000002
 40
0.7500000000000002
 40
0.8750000000000001
 40
0.8750000000000001
 40
1.0
 40
1.0
 40
1.0
 40
1.0
 10
254.1122867307334
 20
121.9216460406351
 30
0.0
 10
253.8830860344126
 20
121.7348994236375
 30
0.0
 10
253.6387699088074
 20
121.5553641457961
 30
0.0
 10
253.2305787204681
 20
121.3447841242359
 30
0.0
 10
253.0855663574838
 20
121.2841367045933
 30
0.0
 10
252.7820058101414
 20
121.1993747499052
 30
0.0
 10
252.6234037992141
 20
121.1757062529188
 30
0.0
 10
252.3034635952237
 20
121.176062935905
 30
0.0
 10
252.1464564724341
 20
121.1997046775719
 30
0.0
 10
251.8412579150558
 20
121.285438662167
 30
0.0
 10
251.6987886346542
 20
121.3453124357414
 30
0.0
 10
251.4265534989981
 20
121.4859258944072
 30
0.0
 10
251.2966910152905
 20
121.5669995639283
 30
0.0
 10
251.0501677757561
 20
121.738026119302
 30
0.0
 10
250.9325729375248
 20
121.828514980069
 30
0.0
 10
250.818269908779
 20
121.9216460406351
 30
0.0
  0
LINE
  5
180
330
1F
100
AcDbEntity
  8
0
  6
HIDDEN
 62
     7
370
     0
100
AcDbLine
 10
250.8424225826
 20
108.1141502601
 30
0.0
 11
251.327693798
 21
109.6141502731
 31
0.0
  0
CIRCLE
  5
181
330
1F
100
AcDbEntity
  8
0
  6
HIDDEN
 62
     7
370
     0
100
AcDbCircle
 10
161.636559524
 20
108.1141502601
 30
0.0
 40
2.000000000000014
  0
LINE
  5
182
330
1F
100
AcDbEntity
  8
0
  6
HIDDEN
 62
     7
370
     0
100
AcDbLine
 10
149.636559524
 20
92.314151023
 30
0.0
 11
149.7294527444
 21
92.4070429993
 31
0.0
  0
LINE
  5
183
330
1F
100
AcDbEntity
  8
0
  6
HIDDEN
 62
     7
370
     0
100
AcDbLine
 10
149.7294527444
 20
123.8212575209
 30
0.0
 11
149.636559524
 21
123.9141494972
 31
0.0
  0
ARC
  5
184
330
1F
100
AcDbEntity
  8
0
  6
HIDDEN
 62
     7
370
     0
100
AcDbCircle
 10
149.0223459616
 20
93.1141502601
 30
0.0
 40
1.000000000000038
100
AcDbArc
 50
315.0
 51
0.0
  0
ARC
  5
185
330
1F
100
AcDbEntity
  8
0
  6
HIDDEN
 62
     7
370
     0
100
AcDbCircle
 10
149.0223459616
 20
93.1141502601
 30
0.0
 40
1.000000000000028
100
AcDbArc
 50
0.0
 51
52.1052014664
  0
ARC
  5
186
330
1F
100
AcDbEntity
  8
0
  6
HIDDEN
 62
     7
370
     0
100
AcDbCircle
 10
149.0223459616
 20
123.1141502601
 30
0.0
 40
1.000000000000048
100
AcDbArc
 50
351.8087250651
 51
45.0
  0
ARC
  5
187
330
1F
100
AcDbEntity
  8
0
  6
HIDDEN
 62
     7
370
     0
100
AcDbCircle
 10
149.0223459616
 20
123.1141502601
 30
0.0
 40
1.000000000000005
100
AcDbArc
 50
307.8947985336
 51
351.8087250651
  0
LINE
  5
188
330
1F
100
AcDbEntity
  8
0
  6
HIDDEN
 62
     7
370
     0
100
AcDbLine
 10
150.0223459598
 20
93.1141505954
 30
0.0
 11
150.0223459598
 21
123.1141499248
 31
0.0
  0
LINE
  5
189
330
1F
100
AcDbEntity
  8
0
  6
HIDDEN
 62
     7
370
     0
100
AcDbLine
 10
150.0223459598
 20
93.1141505954
 30
0.0
 11
150.0223459598
 21
123.1141499248
 31
0.0
  0
LINE
  5
18A
330
1F
100
AcDbEntity
  8
0
  6
HIDDEN
 62
     7
370
     0
100
AcDbLine
 10
217.5365615267
 20
112.1313710702
 30
0.0
 11
217.5365615267
 21
109.4233304267
 31
0.0
  0
LINE
  5
18B
330
1F
100
AcDbEntity
  8
0
  6
HIDDEN
 62
     7
370
     0
100
AcDbLine
 10
221.7365581173
 20
111.7702514403
 30
0.0
 11
221.7365581173
 21
112.1313710702
 31
0.0
  0
LINE
  5
18C
330
1F
100
AcDbEntity
  8
0
  6
HIDDEN
 62
     7
370
     0
100
AcDbLine
 10
221.7365581173
 20
109.4248817772
 30
0.0
 11
221.7365581173
 21
110.593495565
 31
0.0
  0
LINE
  5
18D
330
1F
100
AcDbEntity
  8
0
  6
HIDDEN
 62
     7
370
     0
100
AcDbLine
 10
227.7605313439
 20
117.3720358875
 30
0.0
 11
219.5273045081
 21
113.3728217338
 31
0.0
  0
LINE
  5
18E
330
1F
100
AcDbEntity
  8
0
  6
HIDDEN
 62
     7
370
     0
100
AcDbLine
 10
220.4369831461
 20
109.1454238868
 30
0.0
 11
227.7407649535
 21
112.6931662676
 31
0.0
  0
LINE
  5
18F
330
1F
100
AcDbEntity
  8
0
  6
HIDDEN
 62
     7
370
     0
100
AcDbLine
 10
125.6365593154
 20
97.958499473
 30
0.0
 11
126.6635920483
 21
98.5514567238
 31
0.0
  0
LINE
  5
190
330
1F
100
AcDbEntity
  8
0
  6
HIDDEN
 62
     7
370
     0
100
AcDbLine
 10
126.6635920483
 20
117.6768437964
 30
0.0
 11
125.6365593154
 21
118.2698010472
 31
0.0
  0
ARC
  5
191
330
1F
100
AcDbEntity
  8
0
  6
HIDDEN
 62
     7
370
     0
100
AcDbCircle
 10
131.136559524
 20
99.1141502601
 30
0.0
 40
1.0
100
AcDbArc
 50
193.3524261238
 51
270.0
  0
ARC
  5
192
330
1F
100
AcDbEntity
  8
0
  6
HIDDEN
 62
     7
370
     0
100
AcDbCircle
 10
131.136559524
 20
117.1141502601
 30
0.0
 40
1.0
100
AcDbArc
 50
90.0
 51
166.6475738762
  0
LINE
  5
193
330
1F
100
AcDbEntity
  8
0
  6
HIDDEN
 62
     7
370
     0
100
AcDbLine
 10
131.1365592856
 20
98.1141504836
 30
0.0
 11
132.1493781734
 21
98.1141504836
 31
0.0
  0
LINE
  5
194
330
1F
100
AcDbEntity
  8
0
  6
HIDDEN
 62
     7
370
     0
100
AcDbLine
 10
132.1493781734
 20
118.1141500366
 30
0.0
 11
131.1365592856
 21
118.1141500366
 31
0.0
  0
ARC
  5
195
330
1F
100
AcDbEntity
  8
0
  6
HIDDEN
 62
     7
370
     0
100
AcDbCircle
 10
132.1493779937
 20
99.1141502601
 30
0.0
 40
1.0
100
AcDbArc
 50
270.0
 51
315.0
  0
ARC
  5
196
330
1F
100
AcDbEntity
  8
0
  6
HIDDEN
 62
     7
370
     0
100
AcDbCircle
 10
132.1493779937
 20
117.1141502601
 30
0.0
 40
1.0
100
AcDbArc
 50
45.0
 51
90.0
  0
LINE
  5
197
330
1F
100
AcDbEntity
  8
0
  6
HIDDEN
 62
     7
370
     0
100
AcDbLine
 10
132.8564848382
 20
98.4070430514
 30
0.0
 11
133.5635915029
 21
99.1141506475
 31
0.0
  0
LINE
  5
198
330
1F
100
AcDbEntity
  8
0
  6
HIDDEN
 62
     7
370
     0
100
AcDbLine
 10
133.5635915029
 20
117.1141498727
 30
0.0
 11
132.8564848382
 21
117.8212574688
 31
0.0
  0
LINE
  5
199
330
1F
100
AcDbEntity
  8
0
  6
HIDDEN
 62
     7
370
     0
100
AcDbLine
 10
126.6635920483
 20
98.5514567238
 30
0.0
 11
128.7635922063
 21
99.1141506475
 31
0.0
  0
LINE
  5
19A
330
1F
100
AcDbEntity
  8
0
  6
HIDDEN
 62
     7
370
     0
100
AcDbLine
 10
128.7635922063
 20
117.1141498727
 30
0.0
 11
126.6635920483
 21
117.6768437964
 31
0.0
  0
LINE
  5
19B
330
1F
100
AcDbEntity
  8
0
  6
HIDDEN
 62
     7
370
     0
100
AcDbLine
 10
130.1635916907
 20
117.3450899315
 30
0.0
 11
129.7635923702
 21
117.1141498727
 31
0.0
  0
LINE
  5
19C
330
1F
100
AcDbEntity
  8
0
  6
HIDDEN
 62
     7
370
     0
100
AcDbLine
 10
129.7635923702
 20
99.1141506475
 30
0.0
 11
130.1635916907
 21
98.8832105887
 31
0.0
  0
ARC
  5
19D
330
1F
100
AcDbEntity
  8
0
  6
HIDDEN
 62
     7
370
     0
100
AcDbCircle
 10
140.136559524
 20
99.6141502601
 30
0.0
 40
0.5
100
AcDbArc
 50
270.0
 51
0.0
  0
ARC
  5
19E
330
1F
100
AcDbEntity
  8
0
  6
HIDDEN
 62
     7
370
     0
100
AcDbCircle
 10
140.136559524
 20
116.6141502601
 30
0.0
 40
0.5
100
AcDbArc
 50
0.0
 51
90.0
  0
LINE
  5
19F
330
1F
100
AcDbEntity
  8
0
  6
HIDDEN
 62
     7
370
     0
100
AcDbLine
 10
128.7635922063
 20
99.1141506475
 30
0.0
 11
129.7635923702
 21
99.1141506475
 31
0.0
  0
LINE
  5
1A0
330
1F
100
AcDbEntity
  8
0
  6
HIDDEN
 62
     7
370
     0
100
AcDbLine
 10
129.7635923702
 20
117.1141498727
 30
0.0
 11
128.7635922063
 21
117.1141498727
 31
0.0
  0
LINE
  5
1A1
330
1F
100
AcDbEntity
  8
0
  6
HIDDEN
 62
     7
370
     0
100
AcDbLine
 10
133.5635915029
 20
99.1141506475
 30
0.0
 11
140.1365598295
 21
99.1141506475
 31
0.0
  0
LINE
  5
1A2
330
1F
100
AcDbEntity
  8
0
  6
HIDDEN
 62
     7
370
     0
100
AcDbLine
 10
140.1365598295
 20
117.1141498727
 30
0.0
 11
133.5635915029
 21
117.1141498727
 31
0.0
  0
LINE
  5
1A3
330
1F
100
AcDbEntity
  8
0
  6
HIDDEN
 62
     7
370
     0
100
AcDbLine
 10
140.6365599114
 20
100.9641502988
 30
0.0
 11
141.5365593139
 21
101.864150167
 31
0.0
  0
LINE
  5
1A4
330
1F
100
AcDbEntity
  8
0
  6
HIDDEN
 62
     7
370
     0
100
AcDbLine
 10
141.5365593139
 20
114.3641503532
 30
0.0
 11
140.6365599114
 21
115.2641502214
 31
0.0
  0
LINE
  5
1A5
330
1F
100
AcDbEntity
  8
0
  6
HIDDEN
 62
     7
370
     0
100
AcDbLine
 10
160.6365594644
 20
101.864150167
 30
0.0
 11
161.8382803727
 21
103.8641500291
 31
0.0
  0
LINE
  5
1A6
330
1F
100
AcDbEntity
  8
0
  6
HIDDEN
 62
     7
370
     0
100
AcDbLine
 10
161.8382803727
 20
112.3641504911
 30
0.0
 11
160.6365594644
 21
114.3641503532
 31
0.0
  0
LINE
  5
1A7
330
1F
100
AcDbEntity
  8
0
  6
HIDDEN
 62
     7
370
     0
100
AcDbLine
 10
141.5365593139
 20
101.864150167
 30
0.0
 11
160.6365594644
 21
101.864150167
 31
0.0
  0
LINE
  5
1A8
330
1F
100
AcDbEntity
  8
0
  6
HIDDEN
 62
     7
370
     0
100
AcDbLine
 10
160.6365594644
 20
114.3641503532
 30
0.0
 11
141.5365593139
 21
114.3641503532
 31
0.0
  0
LINE
  5
1A9
330
1F
100
AcDbEntity
  8
0
  6
HIDDEN
 62
     7
370
     0
100
AcDbLine
 10
224.6365625042
 20
112.3641504911
 30
0.0
 11
161.8382803727
 21
112.3641504911
 31
0.0
  0
LINE
  5
1AA
330
1F
100
AcDbEntity
  8
0
  6
HIDDEN
 62
     7
370
     0
100
AcDbLine
 10
161.8382803727
 20
103.8641500291
 30
0.0
 11
224.6365625042
 21
103.8641500291
 31
0.0
  0
LINE
  5
1AB
330
1F
100
AcDbEntity
  8
0
  6
HIDDEN
 62
     7
370
     0
100
AcDbLine
 10
224.6365625042
 20
103.8641500291
 30
0.0
 11
227.1902192015
 21
108.1141502601
 31
0.0
  0
LINE
  5
1AC
330
1F
100
AcDbEntity
  8
0
  6
HIDDEN
 62
     7
370
     0
100
AcDbLine
 10
227.1902192015
 20
108.1141502601
 30
0.0
 11
224.6365625042
 21
112.3641504911
 31
0.0
  0
ARC
  5
1AD
330
1F
100
AcDbEntity
  8
0
  6
HIDDEN
 62
     7
370
     0
100
AcDbCircle
 10
233.2223459616
 20
125.1141502601
 30
0.0
 40
0.9999999999999858
100
AcDbArc
 50
270.0
 51
290.335377491
  0
LINE
  5
1AE
330
1F
100
AcDbEntity
  8
0
  6
HIDDEN
 62
     7
370
     0
100
AcDbLine
 10
243.3883029598
 20
117.0313944113
 30
0.0
 11
243.3883029598
 21
116.9267603201
 31
0.0
  0
LINE
  5
1AF
330
1F
100
AcDbEntity
  8
0
  6
HIDDEN
 62
     7
370
     0
100
AcDbLine
 10
217.5365615267
 20
106.8034187429
 30
0.0
 11
217.5365615267
 21
105.0239802808
 31
0.0
  0
LINE
  5
1B0
330
1F
100
AcDbEntity
  8
0
  6
HIDDEN
 62
     7
370
     0
100
AcDbLine
 10
221.7365581173
 20
105.0239802808
 30
0.0
 11
221.7365581173
 21
106.8049700935
 31
0.0
  0
LINE
  5
1B1
330
1F
100
AcDbEntity
  8
0
  6
HIDDEN
 62
     7
370
     0
100
AcDbLine
 10
250.8152801174
 20
122.6310878065
 30
0.0
 11
250.8152801174
 21
122.0258818013
 31
0.0
  0
LINE
  5
1B2
330
1F
100
AcDbEntity
  8
0
  6
HIDDEN
 62
     7
370
     0
100
AcDbLine
 10
254.1152763743
 20
122.025904153
 30
0.0
 11
254.1152763743
 21
122.6310878065
 31
0.0
  0
LINE
  5
1B3
330
1F
100
AcDbEntity
  8
0
  6
HIDDEN
 62
     7
370
     0
100
AcDbLine
 10
217.1365622062
 20
104.9497098666
 30
0.0
 11
217.1365622062
 21
103.1700367113
 31
0.0
  0
LINE
  5
1B4
330
1F
100
AcDbEntity
  8
0
  6
HIDDEN
 62
     7
370
     0
100
AcDbLine
 10
222.1365574378
 20
103.1713624489
 30
0.0
 11
222.1365574378
 21
104.9497098666
 31
0.0
  0
LINE
  5
1B5
330
1F
100
AcDbEntity
  8
VERMASSUNG
  6
CENTERX2
100
AcDbLine
 10
259.636559524
 20
130.1141502601
 30
0.0
 11
259.636559524
 21
108.1141502601
 31
0.0
  0
LINE
  5
1B6
330
1F
100
AcDbEntity
  8
VERMASSUNG
  6
CENTERX2
100
AcDbLine
 10
259.636559524
 20
130.1141502601
 30
0.0
 11
270.8863910012
 21
130.1141502601
 31
0.0
  0
LINE
  5
1B7
330
1F
100
AcDbEntity
  8
VERMASSUNG
  6
CENTERX2
100
AcDbLine
 10
121.857127934
 20
108.1141502601
 30
0.0
 11
259.636559524
 21
108.1141502601
 31
0.0
  0
DIMENSION
  5
1B8
330
1F
100
AcDbEntity
  8
VERMASSUNG
100
AcDbDimension
  2
_D
 10
259.636559524
 20
135.810477768
 30
0.0
 11
204.636559524
 21
135.810477768
 31
0.0
 70
   160
  1
<>
 71
     2
 42
-1.0
  3
SLDDIMSTYLE0
100
AcDbAlignedDimension
 13
149.636559524
 23
127.8141502601
 33
0.0
 14
259.636559524
 24
130.1141502601
 34
0.0
100
AcDbRotatedDimension
  0
DIMENSION
  5
1C3
330
1F
100
AcDbEntity
  8
VERMASSUNG
100
AcDbDimension
  2
_D_1
 10
125.636559524
 20
142.9193367695
 30
0.0
 11
192.636559524
 21
142.9193367695
 31
0.0
 70
   160
  1
<>
 71
     2
 42
-1.0
  3
SLDDIMSTYLE0
100
AcDbAlignedDimension
 13
259.636559524
 23
130.1141502601
 33
0.0
 14
125.636559524
 24
120.7456552422
 34
0.0
100
AcDbRotatedDimension
  0
DIMENSION
  5
1CD
330
1F
100
AcDbEntity
  8
VERMASSUNG
100
AcDbDimension
  2
_D_2
 10
273.0797513372
 20
108.1141502601
 30
0.0
 11
273.0797513372
 21
119.1141502601
 31
0.0
 70
   160
  1
<>
 71
     2
 42
-1.0
  3
SLDDIMSTYLE0
100
AcDbAlignedDimension
 13
259.636559524
 23
130.1141502601
 33
0.0
 14
259.636559524
 24
108.1141502601
 34
0.0
 50
90.0
100
AcDbRotatedDimension
  0
DIMENSION
  5
1D7
330
1F
100
AcDbEntity
  8
VERMASSUNG
100
AcDbDimension
  2
_D_3
 10
270.8863910012
 20
130.1141502601
 30
0.0
 11
265.3044458007
 21
122.5770764309
 31
0.0
 70
   162
  1
<>
 71
     1
 42
-1.0
  3
SLDDIMSTYLE1
100
AcDb2LineAngularDimension
 13
259.6206597908
 23
129.6034040508
 33
0.0
 14
256.4146829553
 24
119.4601134645
 34
0.0
 15
259.636559524
 25
130.1141502601
 35
0.0
 16
265.3044458007
 26
122.5770764309
 36
0.0
  0
DIMENSION
  5
1E0
330
1F
100
AcDbEntity
  8
VERMASSUNG
100
AcDbDimension
  2
_D_4
 10
115.636509524
 20
88.1141502601
 30
0.0
 11
115.636509524
 21
108.1141502601
 31
0.0
 70
   160
  1
PSC%%c<>
 71
     2
 42
-1.0
  3
SLDDIMSTYLE0
100
AcDbAlignedDimension
 13
149.936559524
 23
128.1141502601
 33
0.0
 14
149.936559524
 24
88.1141502601
 34
0.0
 50
90.0
100
AcDbRotatedDimension
  0
DIMENSION
  5
1EC
330
1F
100
AcDbEntity
  8
VERMASSUNG
100
AcDbDimension
  2
_D_5
 10
185.6988688719
 20
92.1141502601
 30
0.0
 11
185.6988688719
 21
116.5720950514
 31
0.0
 70
   160
  1
%%c<>
 71
     2
 42
-1.0
  3
SLDDIMSTYLE0
100
AcDbAlignedDimension
 13
171.636559524
 23
124.1141502601
 33
0.0
 14
171.636559524
 24
92.1141502601
 34
0.0
 50
90.0
100
AcDbRotatedDimension
  0
LINE
  5
1F5
330
1F
100
AcDbEntity
  8
0
  6
Continuous
 62
     7
370
    15
100
AcDbLine
 10
68.2362670678
 20
121.2878040043
 30
0.0
 11
68.2677210326
 21
121.2856042203
 31
0.0
  0
SPLINE
  5
1F6
330
1F
100
AcDbEntity
  8
0
  6
Continuous
 62
     7
370
    15
100
AcDbSpline
210
0.0
220
0.0
230
1.0
 70
     8
 71
     3
 72
    10
 73
     6
 74
     0
 42
0.00000001
 43
0.00000001
 12
1.0
 22
0.0
 32
0.0
 13
1.0
 23
0.0
 33
0.0
 40
0.0
 40
0.0
 40
0.0
 40
0.0
 40
0.3321546492005076
 40
0.6673754960980611
 40
1.0
 40
1.0
 40
1.0
 40
1.0
 10
72.83489643770558
 20
129.2439800691653
 30
0.0
 10
72.39606882796237
 20
129.3501624139244
 30
0.0
 10
71.51436268758826
 20
129.5635072976436
 30
0.0
 10
70.16438179157812
 20
129.8168131783994
 30
0.0
 10
69.27895652725547
 20
130.0246290426419
 30
0.0
 10
68.83796500289286
 20
130.1281330180216
 30
0.0
  0
LINE
  5
1F7
330
1F
100
AcDbEntity
  8
0
  6
Continuous
 62
     7
370
    15
100
AcDbLine
 10
67.8486433363
 20
115.9801752311
 30
0.0
 11
68.1995122478
 21
116.009496991
 31
0.0
  0
LINE
  5
1F8
330
1F
100
AcDbEntity
  8
0
  6
Continuous
 62
     7
370
    15
100
AcDbLine
 10
85.3850730247
 20
108.1141502601
 30
0.0
 11
85.3850730247
 21
109.6141502731
 31
0.0
  0
ARC
  5
1F9
330
1F
100
AcDbEntity
  8
0
  6
Continuous
 62
     7
370
    15
100
AcDbCircle
 10
68.8850731141
 20
108.1141502601
 30
0.0
 40
16.50000000000003
100
AcDbArc
 50
261.7087285136
 51
0.0
  0
LINE
  5
1FA
330
1F
100
AcDbEntity
  8
0
  6
Continuous
 62
     7
370
    15
100
AcDbLine
 10
68.4260210738
 20
119.2487244499
 30
0.0
 11
66.5056831687
 21
91.7866126639
 31
0.0
  0
LINE
  5
1FB
330
1F
100
AcDbEntity
  8
0
  6
Continuous
 62
     7
370
    15
100
AcDbLine
 10
68.4260210738
 20
119.2487244499
 30
0.0
 11
70.605551523
 21
119.3092380655
 31
0.0
  0
LINE
  5
1FC
330
1F
100
AcDbEntity
  8
0
  6
Continuous
 62
     7
370
    15
100
AcDbLine
 10
70.605551523
 20
119.3092380655
 30
0.0
 11
72.0971813909
 21
119.1371575934
 31
0.0
  0
LINE
  5
1FD
330
1F
100
AcDbEntity
  8
0
  6
Continuous
 62
     7
370
    15
100
AcDbLine
 10
72.1121393627
 20
119.3510674876
 30
0.0
 11
72.0971813909
 21
119.1371575934
 31
0.0
  0
LINE
  5
1FE
330
1F
100
AcDbEntity
  8
0
  6
Continuous
 62
     7
370
    15
100
AcDbLine
 10
76.5406475886
 20
127.7420212519
 30
0.0
 11
72.7660835738
 21
128.7029040051
 31
0.0
  0
ARC
  5
1FF
330
1F
100
AcDbEntity
  8
0
  6
Continuous
 62
     7
370
    15
100
AcDbCircle
 10
62.3850731141
 20
109.6141502601
 30
0.0
 40
23.00000000000003
100
AcDbArc
 50
0.0
 51
52.0146648588
  0
LINE
  5
200
330
1F
100
AcDbEntity
  8
0
  6
Continuous
 62
     7
370
    15
100
AcDbLine
 10
72.7894327621
 20
129.036814813
 30
0.0
 11
75.8565417974
 21
128.2560256314
 31
0.0
  0
ARC
  5
201
330
1F
100
AcDbEntity
  8
0
  6
Continuous
 62
     7
370
    15
100
AcDbCircle
 10
62.3850731141
 20
109.6141502601
 30
0.0
 40
23.00000000000004
100
AcDbArc
 50
52.0146648588
 51
54.1464098988
  0
SPLINE
  5
202
330
1F
100
AcDbEntity
  8
0
  6
Continuous
 62
     7
370
    15
100
AcDbSpline
210
0.0
220
0.0
230
1.0
 70
     8
 71
     3
 72
    10
 73
     6
 74
     0
 42
0.00000001
 43
0.00000001
 12
1.0
 22
0.0
 32
0.0
 13
1.0
 23
0.0
 33
0.0
 40
0.0
 40
0.0
 40
0.0
 40
0.0
 40
0.3780963866427928
 40
0.756357150135271
 40
0.9999999999999999
 40
0.9999999999999999
 40
0.9999999999999999
 40
0.9999999999999999
 10
66.52503418910605
 20
123.9391368818331
 30
0.0
 10
66.83819014191657
 20
123.9800231597639
 30
0.0
 10
67.46463819162892
 20
124.0618134908748
 30
0.0
 10
68.14920957181701
 20
124.0997053783504
 30
0.0
 10
68.37612404973628
 20
124.1050485822076
 30
0.0
 10
68.465022214803
 20
124.1071418863583
 30
0.0
  0
SPLINE
  5
203
330
1F
100
AcDbEntity
  8
0
  6
Continuous
 62
     7
370
    15
100
AcDbSpline
210
0.0
220
0.0
230
1.0
 70
     8
 71
     3
 72
    14
 73
    10
 74
     0
 42
0.00000001
 43
0.00000001
 12
1.0
 22
0.0
 32
0.0
 13
1.0
 23
0.0
 33
0.0
 40
0.0
 40
0.0
 40
0.0
 40
0.0
 40
0.2500000000000001
 40
0.2500000000000001
 40
0.5000000000000001
 40
0.5000000000000001
 40
0.7500000000000002
 40
0.7500000000000002
 40
1.0
 40
1.0
 40
1.0
 40
1.0
 10
66.540662497368
 20
92.28684035410394
 30
0.0
 10
66.540662497368
 20
92.28684035410394
 30
0.0
 10
66.48740164309532
 20
92.29445611853346
 30
0.0
 10
66.27509676955248
 20
92.32809392241704
 30
0.0
 10
66.12116331657214
 20
92.35337218903855
 30
0.0
 10
65.72163864575026
 20
92.42867911197686
 30
0.0
 10
65.48462810161003
 20
92.47722013921796
 30
0.0
 10
64.94581626898866
 20
92.6041900603899
 30
0.0
 10
64.65360551569923
 20
92.68049024703457
 30
0.0
 10
64.34558939817553
 20
92.77162479675864
 30
0.0
  0
ELLIPSE
  5
204
330
1F
100
AcDbEntity
  8
0
  6
Continuous
 62
     7
370
    15
100
AcDbEllipse
 10
61.0756984959
 20
115.0326010221
 30
0.0
 11
1.654506653606646
 21
1.945141503315696
 31
0.0
210
0.0
220
0.0
230
1.0
 40
0.8051687171
 41
0.0
 42
6.283185307179586
  0
ARC
  5
205
330
1F
100
AcDbEntity
  8
0
  6
Continuous
 62
     7
370
    15
100
AcDbCircle
 10
68.8850731141
 20
108.1141502601
 30
0.0
 40
16.00000000000003
100
AcDbArc
 50
98.4822165171
 51
253.5177834829
  0
SPLINE
  5
206
330
1F
100
AcDbEntity
  8
0
  6
Continuous
 62
     7
370
    15
100
AcDbSpline
210
0.0
220
0.0
230
1.0
 70
     8
 71
     3
 72
    14
 73
    10
 74
     0
 42
0.00000001
 43
0.00000001
 12
1.0
 22
0.0
 32
0.0
 13
1.0
 23
0.0
 33
0.0
 40
0.0
 40
0.0
 40
0.0
 40
0.0
 40
0.1422754127765296
 40
0.2932233596472203
 40
0.3992741710506366
 40
0.5062453570985217
 40
0.6510758293914914
 40
0.9792327155739129
 40
0.9999999999999999
 40
0.9999999999999999
 40
0.9999999999999999
 40
0.9999999999999999
 10
59.1718992701481
 20
113.4486104366231
 30
0.0
 10
59.25275313236235
 20
113.4356544969907
 30
0.0
 10
59.41938938142497
 20
113.4089528760129
 30
0.0
 10
59.67834050388866
 20
113.2978988249065
 30
0.0
 10
59.94856552319039
 20
113.1949931330546
 30
0.0
 10
60.23918095195778
 20
113.105723017542
 30
0.0
 10
60.65564160886877
 20
112.9940729094336
 30
0.0
 10
60.98614188202034
 20
112.9310276581911
 30
0.0
 10
61.13602761393756
 20
112.801843046468
 30
0.0
 10
61.14494851964813
 20
112.7941542309571
 30
0.0
  0
ARC
  5
207
330
1F
100
AcDbEntity
  8
0
  6
Continuous
 62
     7
370
    15
100
AcDbCircle
 10
68.8850731141
 20
108.1141502601
 30
0.0
 40
20.00000000000001
100
AcDbArc
 50
90.400752391
 51
270.0
  0
ARC
  5
208
330
1F
100
AcDbEntity
  8
0
  6
Continuous
 62
     7
370
    15
100
AcDbCircle
 10
68.8850731141
 20
108.1141502601
 30
0.0
 40
20.00000000000001
100
AcDbArc
 50
270.0
 51
58.5432923595
  0
SPLINE
  5
209
330
1F
100
AcDbEntity
  8
0
  6
Continuous
 62
     7
370
    15
100
AcDbSpline
210
0.0
220
0.0
230
1.0
 70
     8
 71
     3
 72
    13
 73
     9
 74
     0
 42
0.00000001
 43
0.00000001
 12
1.0
 22
0.0
 32
0.0
 13
1.0
 23
0.0
 33
0.0
 40
0.0
 40
0.0
 40
0.0
 40
0.0
 40
0.1940401528102857
 40
0.3876312154833598
 40
0.5765845445762273
 40
0.7617975175479179
 40
0.9462696776857441
 40
0.9999999999999999
 40
0.9999999999999999
 40
0.9999999999999999
 40
0.9999999999999999
 10
68.84935826121186
 20
129.6034035277415
 30
0.0
 10
68.85250496191252
 20
129.6484034379604
 30
0.0
 10
68.85879108053122
 20
129.7382991097695
 30
0.0
 10
68.86828795346602
 20
129.8741110550649
 30
0.0
 10
68.87642597711807
 20
129.9904918590624
 30
0.0
 10
68.88211082599855
 20
130.0717865256265
 30
0.0
 10
68.88498351855357
 20
130.1128679897939
 30
0.0
 10
68.88489872781828
 20
130.1116557010238
 30
0.0
 10
68.88487960193224
 20
130.1113822501946
 30
0.0
  0
SPLINE
  5
20A
330
1F
100
AcDbEntity
  8
0
  6
Continuous
 62
     7
370
    15
100
AcDbSpline
210
0.0
220
0.0
230
1.0
 70
     8
 71
     3
 72
    14
 73
    10
 74
     0
 42
0.00000001
 43
0.00000001
 12
1.0
 22
0.0
 32
0.0
 13
1.0
 23
0.0
 33
0.0
 40
0.0
 40
0.0
 40
0.0
 40
0.0
 40
0.1583226926276926
 40
0.3168005982998489
 40
0.4713921226896925
 40
0.6221377572154888
 40
0.7721313065280204
 40
0.9245920655656608
 40
1.0
 40
1.0
 40
1.0
 40
1.0
 10
72.8041581361304
 20
129.2473980230141
 30
0.0
 10
72.80432600415384
 20
129.2497980602162
 30
0.0
 10
72.80466190477162
 20
129.2546004875179
 30
0.0
 10
72.80413944212826
 20
129.2471255354399
 30
0.0
 10
72.8029102982858
 20
129.2295549407491
 30
0.0
 10
72.80108761250285
 20
129.2034815355478
 30
0.0
 10
72.79890022110763
 20
129.1722079945159
 30
0.0
 10
72.79695276972957
 20
129.1443537650798
 30
0.0
 10
72.79584100167918
 20
129.1284545882488
 30
0.0
 10
72.79547308746082
 20
129.1231931191731
 30
0.0
  0
LINE
  5
20B
330
1F
100
AcDbEntity
  8
0
  6
Continuous
 62
     7
370
    15
100
AcDbLine
 10
72.1171943488
 20
119.4233558145
 30
0.0
 11
72.7954730875
 21
129.1231931192
 31
0.0
  0
LINE
  5
20C
330
1F
100
AcDbEntity
  8
0
  6
Continuous
 62
     7
370
    15
100
AcDbLine
 10
68.1400702934
 20
119.4601132539
 30
0.0
 11
68.8493582612
 21
129.6034035277
 31
0.0
  0
SPLINE
  5
20D
330
1F
100
AcDbEntity
  8
0
  6
Continuous
 62
     7
370
    15
100
AcDbSpline
210
0.0
220
0.0
230
1.0
 70
     8
 71
     3
 72
    10
 73
     6
 74
     0
 42
0.00000001
 43
0.00000001
 12
1.0
 22
0.0
 32
0.0
 13
1.0
 23
0.0
 33
0.0
 40
0.0
 40
0.0
 40
0.0
 40
0.0
 40
0.2657356536001607
 40
0.6165664955274722
 40
1.0
 40
1.0
 40
1.0
 40
1.0
 10
72.11719434882802
 20
119.4233558145213
 30
0.0
 10
72.11664928833194
 20
119.4155611285007
 30
0.0
 10
72.1153846253657
 20
119.3974757034614
 30
0.0
 10
72.11367308881007
 20
119.3730014240274
 30
0.0
 10
72.11301609389605
 20
119.3636053717561
 30
0.0
 10
72.11267301055891
 20
119.3586987447787
 30
0.0
  0
SPLINE
  5
20E
330
1F
100
AcDbEntity
  8
0
  6
Continuous
 62
     7
370
    15
100
AcDbSpline
210
0.0
220
0.0
230
1.0
 70
     8
 71
     3
 72
    10
 73
     6
 74
     0
 42
0.00000001
 43
0.00000001
 12
1.0
 22
0.0
 32
0.0
 13
1.0
 23
0.0
 33
0.0
 40
0.0
 40
0.0
 40
0.0
 40
0.0
 40
0.3518049947670181
 40
0.7034264592363386
 40
1.0
 40
1.0
 40
1.0
 40
1.0
 10
68.12198581348461
 20
119.2014933568287
 30
0.0
 10
68.12321839668027
 20
119.2191201365391
 30
0.0
 10
68.12568292005527
 20
119.254364500388
 30
0.0
 10
68.13233235581598
 20
119.3494557733555
 30
0.0
 10
68.13764126723554
 20
119.4253766181827
 30
0.0
 10
68.14007029344616
 20
119.4601132538963
 30
0.0
  0
LINE
  5
20F
330
1F
100
AcDbEntity
  8
0
  6
Continuous
 62
     7
370
    15
100
AcDbLine
 10
72.1121393627
 20
119.3510674876
 30
0.0
 11
72.1126730106
 21
119.3586987448
 31
0.0
  0
LINE
  5
210
330
1F
100
AcDbEntity
  8
0
  6
Continuous
 62
     7
370
    15
100
AcDbLine
 10
67.8983481385
 20
116.0033260477
 30
0.0
 11
68.1219858135
 21
119.2014933568
 31
0.0
  0
CIRCLE
  5
211
330
1F
100
AcDbEntity
  8
VERMASSUNG
  6
CENTERX2
100
AcDbCircle
 10
68.8850731141
 20
109.9447996883
 30
0.0
 40
20.0
  0
DIMENSION
  5
212
330
1F
100
AcDbEntity
  8
VERMASSUNG
100
AcDbDimension
  2
_D_6
 10
58.8850731141
 20
127.265307764
 30
0.0
 11
54.1771867068
 21
135.4196062175
 31
0.0
 70
   160
  1
%%c<> min. 
 71
     2
 42
-1.0
  3
SLDDIMSTYLE2
100
AcDbAlignedDimension
 13
78.8850731141
 23
92.6242916126
 33
0.0
 14
58.8850731141
 24
127.265307764
 34
0.0
 50
-60.0
100
AcDbRotatedDimension
  0
DIMENSION
  5
221
330
1F
100
AcDbEntity
  8
VERMASSUNG
100
AcDbDimension
  2
_D_7
 10
68.8850731141
 20
130.6141502601
 30
0.0
 11
58.3298842067
 21
80.8600470369
 31
0.0
 70
   162
  1
<>
 71
     1
 42
-1.0
  3
SLDDIMSTYLE3
100
AcDb2LineAngularDimension
 13
66.5056831283
 23
91.7866120716
 33
0.0
 14
68.4260210771
 24
119.248724177
 34
0.0
 15
68.8850731141
 25
85.6141502601
 35
0.0
 16
67.273554088
 26
79.6656071516
 36
0.0
  0
INSERT
  5
239
330
1F
100
AcDbEntity
  8
VERMASSUNG
100
AcDbBlockReference
  2
SW_CENTERMARKSYMBOL_0
 10
68.8850731141
 20
108.1141502601
 30
0.0
  0
OLE2FRAME
  5
23A
330
1F
100
AcDbEntity
  8
0
100
AcDbOle2Frame
 70
     2
  3
Paintbrush-Bild
 10
13.8511154363
 20
38.264191557
 30
0.0
 11
51.6290888628
 21
31.9806341108
 31
0.0
 71
     2
 72
     0
 73
     1
 90
    12928
310
80552BED0767C5B32B40DDAF6807D121434000000000000000006FFBDDFB85D0
310
4940DDAF6807D121434000000000000000006FFBDDFB85D04940416F4BD60AFB
310
3F4000000000000000002BED0767C5B32B40416F4BD60AFB3F40000000000000
310
0000000000000100000000010000010000000100000000000100000000320000
310
D0CF11E0A1B11AE1000000000000000000000000000000003E000300FEFF0900
310
0600000000000000000000000100000001000000000000000010000002000000
310
01000000FEFFFFFF0000000000000000FFFFFFFFFFFFFFFFFFFFFFFFFFFFFFFF
310
FFFFFFFFFFFFFFFFFFFFFFFFFFFFFFFFFFFFFFFFFFFFFFFFFFFFFFFFFFFFFFFF
310
FFFFFFFFFFFFFFFFFFFFFFFFFFFFFFFFFFFFFFFFFFFFFFFFFFFFFFFFFFFFFFFF
310
FFFFFFFFFFFFFFFFFFFFFFFFFFFFFFFFFFFFFFFFFFFFFFFFFFFFFFFFFFFFFFFF
310
FFFFFFFFFFFFFFFFFFFFFFFFFFFFFFFFFFFFFFFFFFFFFFFFFFFFFFFFFFFFFFFF
310
FFFFFFFFFFFFFFFFFFFFFFFFFFFFFFFFFFFFFFFFFFFFFFFFFFFFFFFFFFFFFFFF
310
FFFFFFFFFFFFFFFFFFFFFFFFFFFFFFFFFFFFFFFFFFFFFFFFFFFFFFFFFFFFFFFF
310
FFFFFFFFFFFFFFFFFFFFFFFFFFFFFFFFFFFFFFFFFFFFFFFFFFFFFFFFFFFFFFFF
310
FFFFFFFFFFFFFFFFFFFFFFFFFFFFFFFFFFFFFFFFFFFFFFFFFFFFFFFFFFFFFFFF
310
FFFFFFFFFFFFFFFFFFFFFFFFFFFFFFFFFFFFFFFFFFFFFFFFFFFFFFFFFFFFFFFF
310
FFFFFFFFFFFFFFFFFFFFFFFFFFFFFFFFFFFFFFFFFFFFFFFFFFFFFFFFFFFFFFFF
310
FFFFFFFFFFFFFFFFFFFFFFFFFFFFFFFFFFFFFFFFFFFFFFFFFFFFFFFFFFFFFFFF
310
FFFFFFFFFFFFFFFFFFFFFFFFFFFFFFFFFFFFFFFFFFFFFFFFFFFFFFFFFFFFFFFF
310
FFFFFFFFFFFFFFFFFFFFFFFFFFFFFFFFFFFFFFFFFFFFFFFFFFFFFFFFFFFFFFFF
310
FDFFFFFFFEFFFFFFFEFFFFFFFEFFFFFF05000000060000000700000008000000
310
090000000A0000000B0000000C0000000D0000000E0000000F00000010000000
310
11000000120000001300000014000000150000001600000017000000FEFFFFFF
310
FFFFFFFFFFFFFFFFFFFFFFFFFFFFFFFFFFFFFFFFFFFFFFFFFFFFFFFFFFFFFFFF
310
FFFFFFFFFFFFFFFFFFFFFFFFFFFFFFFFFFFFFFFFFFFFFFFFFFFFFFFFFFFFFFFF
310
FFFFFFFFFFFFFFFFFFFFFFFFFFFFFFFFFFFFFFFFFFFFFFFFFFFFFFFFFFFFFFFF
310
FFFFFFFFFFFFFFFFFFFFFFFFFFFFFFFFFFFFFFFFFFFFFFFFFFFFFFFFFFFFFFFF
310
FFFFFFFFFFFFFFFFFFFFFFFFFFFFFFFFFFFFFFFFFFFFFFFFFFFFFFFFFFFFFFFF
310
FFFFFFFFFFFFFFFFFFFFFFFFFFFFFFFFFFFFFFFFFFFFFFFFFFFFFFFFFFFFFFFF
310
FFFFFFFFFFFFFFFFFFFFFFFFFFFFFFFFFFFFFFFFFFFFFFFFFFFFFFFFFFFFFFFF
310
FFFFFFFFFFFFFFFFFFFFFFFFFFFFFFFFFFFFFFFFFFFFFFFFFFFFFFFFFFFFFFFF
310
FFFFFFFFFFFFFFFFFFFFFFFFFFFFFFFFFFFFFFFFFFFFFFFFFFFFFFFFFFFFFFFF
310
FFFFFFFFFFFFFFFFFFFFFFFFFFFFFFFFFFFFFFFFFFFFFFFFFFFFFFFFFFFFFFFF
310
FFFFFFFFFFFFFFFFFFFFFFFFFFFFFFFFFFFFFFFFFFFFFFFFFFFFFFFFFFFFFFFF
310
FFFFFFFFFFFFFFFFFFFFFFFFFFFFFFFFFFFFFFFFFFFFFFFFFFFFFFFFFFFFFFFF
310
FFFFFFFFFFFFFFFFFFFFFFFFFFFFFFFFFFFFFFFFFFFFFFFFFFFFFFFFFFFFFFFF
310
52006F006F007400200045006E00740072007900000000000000000000000000
310
0000000000000000000000000000000000000000000000000000000000000000
310
16000500FFFFFFFFFFFFFFFF020000000A00030000000000C000000000000046
310
000000000000000000000000B011078ED743CD0103000000C000000000000000
310
01004F006C006500000000000000000000000000000000000000000000000000
310
0000000000000000000000000000000000000000000000000000000000000000
310
0A000200FFFFFFFFFFFFFFFFFFFFFFFF00000000000000000000000000000000
310
0000000000000000000000000000000000000000000000001400000000000000
310
010043006F006D0070004F0062006A0000000000000000000000000000000000
310
0000000000000000000000000000000000000000000000000000000000000000
310
120002010100000003000000FFFFFFFF00000000000000000000000000000000
310
0000000000000000000000000000000000000000010000004D00000000000000
310
01004F006C006500310030004E00610074006900760065000000000000000000
310
0000000000000000000000000000000000000000000000000000000000000000
310
1A000200FFFFFFFFFFFFFFFFFFFFFFFF00000000000000000000000000000000
310
0000000000000000000000000000000000000000040000002426000000000000
310
FEFFFFFF02000000FEFFFFFFFFFFFFFFFFFFFFFFFFFFFFFFFFFFFFFFFFFFFFFF
310
FFFFFFFFFFFFFFFFFFFFFFFFFFFFFFFFFFFFFFFFFFFFFFFFFFFFFFFFFFFFFFFF
310
FFFFFFFFFFFFFFFFFFFFFFFFFFFFFFFFFFFFFFFFFFFFFFFFFFFFFFFFFFFFFFFF
310
FFFFFFFFFFFFFFFFFFFFFFFFFFFFFFFFFFFFFFFFFFFFFFFFFFFFFFFFFFFFFFFF
310
FFFFFFFFFFFFFFFFFFFFFFFFFFFFFFFFFFFFFFFFFFFFFFFFFFFFFFFFFFFFFFFF
310
FFFFFFFFFFFFFFFFFFFFFFFFFFFFFFFFFFFFFFFFFFFFFFFFFFFFFFFFFFFFFFFF
310
FFFFFFFFFFFFFFFFFFFFFFFFFFFFFFFFFFFFFFFFFFFFFFFFFFFFFFFFFFFFFFFF
310
FFFFFFFFFFFFFFFFFFFFFFFFFFFFFFFFFFFFFFFFFFFFFFFFFFFFFFFFFFFFFFFF
310
FFFFFFFFFFFFFFFFFFFFFFFFFFFFFFFFFFFFFFFFFFFFFFFFFFFFFFFFFFFFFFFF
310
FFFFFFFFFFFFFFFFFFFFFFFFFFFFFFFFFFFFFFFFFFFFFFFFFFFFFFFFFFFFFFFF
310
FFFFFFFFFFFFFFFFFFFFFFFFFFFFFFFFFFFFFFFFFFFFFFFFFFFFFFFFFFFFFFFF
310
FFFFFFFFFFFFFFFFFFFFFFFFFFFFFFFFFFFFFFFFFFFFFFFFFFFFFFFFFFFFFFFF
310
FFFFFFFFFFFFFFFFFFFFFFFFFFFFFFFFFFFFFFFFFFFFFFFFFFFFFFFFFFFFFFFF
310
FFFFFFFFFFFFFFFFFFFFFFFFFFFFFFFFFFFFFFFFFFFFFFFFFFFFFFFFFFFFFFFF
310
FFFFFFFFFFFFFFFFFFFFFFFFFFFFFFFFFFFFFFFFFFFFFFFFFFFFFFFFFFFFFFFF
310
FFFFFFFFFFFFFFFFFFFFFFFFFFFFFFFFFFFFFFFFFFFFFFFFFFFFFFFFFFFFFFFF
310
0100000200000000000000000000000000000000000000000000000000000000
310
0000000000000000000000000000000000000000000000000000000000000000
310
0100FEFF030A0000FFFFFFFF0A00030000000000C00000000000004607000000
310
5042727573680007000000504272757368000700000050427275736800F439B2
310
7100000000000000000000000000000000000000000000000000000000000000
310
0000000000000000000000000000000000000000000000000000000000000000
310
0000000000000000000000000000000000000000000000000000000000000000
310
0000000000000000000000000000000000000000000000000000000000000000
310
0000000000000000000000000000000000000000000000000000000000000000
310
0000000000000000000000000000000000000000000000000000000000000000
310
0000000000000000000000000000000000000000000000000000000000000000
310
0000000000000000000000000000000000000000000000000000000000000000
310
0000000000000000000000000000000000000000000000000000000000000000
310
0000000000000000000000000000000000000000000000000000000000000000
310
0000000000000000000000000000000000000000000000000000000000000000
310
0000000000000000000000000000000000000000000000000000000000000000
310
20260000424D0E260000000000003E00000028000000B40200006E0000000100
310
01000000000000000000130B0000130B00000200000002000000000000FFFFFF
310
FFFFFFFFFFFFFFFFFFFFFFFFFFFFFFFFFFFFFFFFFFFFFFFFFFFFFFFFFFFFFFFF
310
FFFFFFFFFFFFFFFFFFFFFFFFFFFFFFFFFFFFFFFFFFFFFFFFFFFFFFFFFFFFFFFF
310
FFFFFFFFFFFFFFFFFFFFFFFFFFFFFFFFFFFFFFFFFFFFFFFFF000FFFFFFFFFFFF
310
FFFFFFFFFFFFFFFFFFFFFFFFFFFFFFFFFFFFFFFFFFFFFFFFFFFFFFFFFFFFFFFF
310
FFFFFFFFFFFFFFFFFFFFFFFFFFFFFFFFFFFFFFFFFFFFFFFFFFFFFFFFFFFFFFFF
310
FFFFFFFFFFFFFFFFFFFFFFFFFFFFFFFFF000FFFFFFFFFFFFFFFFFFFFFFFFFFFF
310
FFFFFFFFFFFFFFFFFFFFFFFFFFFFFFFFFFFFFFFFFFFFFFFFFFFFFFFFFFFFFFFF
310
FFFFFFFFFFFFFFFFFFFFFFFFFFFFFFFFFFFFFFFFFFFFFFFFFFFFFFFFFFFFFFFF
310
FFFFFFFFFFFFFFFFF000FFFFFFFFFFFFFFFFFFFFFFFFFFFFFFFFFFFFFFFFFFFF
310
FFFFFFFFFFFFFFFFFFFFFFFFFFFFFFFFFFFFFFFFFFFFFFFFFFFFFFFFFFFFFFFF
310
FFFFFFFFFFFFFFFFFFFFFFFFFFFFFFFFFFFFFFFFFFFFFFFFFFFFFFFFFFFFFFFF
310
F000FFFFFFFFFFFFFFFFFFFFFFFFFFFFFFFFFFFFFFFFFFFFFFFFFFFFFFFFFFFF
310
FFFFFFFFFFFFFFFFFFFFFFFFFFFFFFFFFFFFFFFFFFFFFFFFFFFFFFFFFFFFFFFF
310
FFFFFFFFFFFFFFFFFFFFFFFFFFFFFFFFFFFFFFFFFFFFFFFFF000FFFFFFFFFFFF
310
FFFFFFFFFFFFFFFFFFFFFFFFFFFFFFFFFFFFFFFFFFFFFFFFFFFFFFFFFFFFFFFF
310
FFFFFFFFFFFFFFFFFFFFFFFFFFFFFFFFFFFFFFFFFFFFFFFFFFFFFFFFFFFFFFFF
310
FFFFFFFFFFFFFFFFFFFFFFFFFFFFFFFFF000FFFFFFFFFFFFFFFFFFFFFFFFFFFF
310
FFFFFFFFFFFFFFFFFFFFFFFFFFFFFFFFFFFFFFFFFFFFFFFFFFFFFFFFFFFFFFFF
310
FFFFFFFFFFFFFFFFFFFFFFFFFFFFFFFFFFFFFFFFFFFFFFFFFFFFFFFFFFFFFFFF
310
FFFFFFFFFFFFFFFFF000FFFFFFFFFFFFFFFFFFFFFFFFFFFFFFFFFFFFFFFFFFFF
310
FFFFFFFFFFFFFFFFFFFFFFFFFFFFFFFFFFFFFFFFFFFFFFFFFFFFFFFFFFFFFFFF
310
FFFFFFFFFFFFFFFFFFFFFFFFFFFFFFFFFFFFFFFFFFFFFFFFFFFFFFFFFFFFFFFF
310
F000FFFFFFFFFFFFFFFFFFFFFFFFFFFFFFFFFFFFFFFFFFFFFFFFFFFFFFFFFFFF
310
FFFFFFFFFFFFFFFFFFFFFFFFFFFFFFFFFFFFFFFFFFFFFFFFFFFFFFFFFFFFFFFF
310
FFFFFFFFFFFFFFFFFFFFFFFFFFFFFFFFFFFFFFFFFFFFFFFFF000FFFFFFFFFFFF
310
FFFFFFFFFFFFFFFFFFFFFFFFFFFFFFFFFFFFFFFFFFFFFFFFFFFFFFFFFFFFFFFF
310
FFFFFFFFFFFFFFFFFFFFFFFFFFFFFFFFFFFFFFFFFFFFFFFFFFFFFFFFFFFFFFFF
310
FFFFFFFFFFFFFFFFFFFFFFFFFFFFFFFFF000FFFFFFFFFFFFFFFFFFFFFFFFFFFF
310
FFFFFFFFFFFFFFFFFFFFFFFFFFFFFFFFFFFFFFFFFFFFFFFFFFFFFFFFFFFFFFFF
310
FFFFFFFFFFFFFFFFFFFFFFFFFFFFFFFFFFFFFFFFFFFFFFFFFFFFFFFFFFFFFFFF
310
FFFFFFFFFFFFFFFFF000FFFFFFFFFFFFFFFFFFFFFFFFFFFFFFFFFFFFFFFFFFFF
310
FFFFFFFFFFFFFFFFFFFFFFFFFFFFFFFFFFFFFFFFFFFFFFFFFFFFFFFFFFFFFFFF
310
FFFFFFFFFFFFFFFFFFFFFFFFFFFFFFFFFFFFFFFFFFFFFFFFFFFFFFFFFFFFFFFF
310
F000FFFFFFFFFFFFFFFFFFFFFFFFFFFFFFFFFFFFFFFFFFFFFFFFFFFFFFFFFFFF
310
FFFFFFFFFFFFFFFFFFFFFFFFFFFFFFFFFFFFFFFFFFFFFFFFFFFFFFFFFFFFFFFF
310
FFFFFFFFFFFFFFFFFFFFFFFFFFFFFFFFFFFFFFFFFFFFFFFFF000FFFFFFFFFFFF
310
FFFFFFFFFFFFFFFFFFFFFFFFFFFFFFFFFFFFFFFFFFFFFFFFFFFFFFFFFFFFFFFF
310
FFFFFFFFFFFFFFFFFFFFFFFFFFFFFFFFFFFFFFFFFFFFFFFFFFFFFFFFFFFFFFFF
310
FFFFFFFFFFFFFFFFFFFFFFFFFFFFFFFFF000FFFFFFFFFFFFFFFFFFFFFFFFFFFF
310
FFFFFFFFFFFFFFFFFFFFFFFFFFFFFFFFFFFFFFFFFFFFFFFFFFFFFFFFFFFFFFFF
310
FFFFFFFFFFFFFFFFFFFFFFFFFFFFFFFFFFFFFFFFFFFFFFFFFFFFFFFFFFFFFFFF
310
FFFFFFFFFFFFFFFFF000FFFFFFFFFFFFFFFFFFFFFFFFFFFFFFFFFFFFFFFFFFFF
310
FFFFFFFFFFFFFFFFFFFFFFFFFFFFFFFFFFFFFFFFFFFFFFFFFFFFFFFFFFFFFFFF
310
FFFFFFFFFFFFFFFFFFFFFFFFFFFFFFFFFFFFFFFFFFFFFFFFFFFFFFFFFFFFFFFF
310
F000FFFFFFFFFFFFFFFFFFFFFFFFFFFFFFFFFFFFFFFFFFFFFFFFFFFFFFFFFFFF
310
FFFFFFFFFFFFFFFFFFFFFFFFFFFFFFFFFFFFFFFFFFFFFFFFFFFFFFFFFFFFFFFF
310
FFFFFFFFFFFFFFFFFFFFFFFFFFFFFFFFFFFFFFFFFFFFFFFFF000FFFFFFFFFFFF
310
FFFFFFFFFFFFFFFFFFFFFFFFFFFFFFFFFFFFFFFFFFFFFFFFFFFFFFFFFFFFFFFF
310
FFFFFFFFFFFFFFFFFFFFFFFFFFFFFFFFFFFFFFFFFFFFFFFFFFFFFFFFFFFFFFFF
310
FFFFFFFFFFFFFFFFFFFFFFFFFFFFFFFFF000FFFFFFFFFFFFFFFFFFFFFFFFFFFF
310
FFFFFFFFFFFFFFFFFFFFFFFFFFFFFFFFFFFFFFFFFFFFFFFFFFFFFFFFFFFFFFFF
310
FFFFFFFFFFFFFFFFFFFFFFFFFFFFFFFFFFFFFFFFFFFFFFFFFFFFFFFFFFFFFFFF
310
FFFFFFFFFFFFFFFFF000FFFFF80003FFFFFFFFFFFFFFFFFFFFFFFFFFFFFFFFFF
310
FFFFF00007FFFFFFFFFF00007FFFFFF800000000000000007FFFFFFFFFFFFFFF
310
FFFFFFFC001FFFFFFFFFFFFFFC001FFFFFFFFFFFFFFFFFFFFFFFFFFE0007FFFF
310
F000FFFF8000007FFFFFFFF8000FFFFFC0007FFFFF80007FFFFF0000007FFFFF
310
FFF8000007FFFFF800000000000000007FFFFFF0001FFFFFFFFFFFC00001FFFF
310
FFFFFFFFC00001FFFFFFFF000000000003FFFFE000007FFFF000FFFE0000000F
310
FFFFFFF0000FFFFF80007FFFFF80007FFFFC0000001FFFFFFFC0000001FFFFF8
310
00000000000000007FFFFFF0001FFFFFFFFFFE0000003FFFFFFFFFFE0000003F
310
FFFFFF000000000003FFFF0000000FFFF000FFF800000003FFFFFFF00007FFFF
310
80007FFFFF80007FFFF000000007FFFFFF000000003FFFF80000000000000000
310
7FFFFFF0001FFFFFFFFFF80000000FFFFFFFFFF80000000FFFFFFF0000000000
310
03FFFC00000003FFF000FFE000000000FFFFFFF00007FFFF80003FFFFF80007F
310
FFC000000001FFFFFC000000001FFFF800000000000000007FFFFFF0001FFFFF
310
FFFFE000000003FFFFFFFFE000000003FFFFFF000000000003FFF000000000FF
310
F000FF80000000007FFFFFF00007FFFF80003FFFFF80007FFF8000000000FFFF
310
F80000000007FFF800000000000000007FFFFFF0001FFFFFFFFFC000000001FF
310
FFFFFFC000000001FFFFFF000000000003FFC0000000007FF000FF0000000000
310
3FFFFFE00007FFFF00003FFFFF80007FFE00000000003FFFF00000000003FFF8
310
00000000000000007FFFFFF0001FFFFFFFFF8000000000FFFFFFFF8000000000
310
FFFFFF000000000003FF80000000003FF000FE00000000001FFFFFE00003FFFF
310
00003FFFFF80007FFC00000000001FFFE00000000001FFF8000001FFFE000000
310
7FFFFFF0001FFFFFFFFE00000000003FFFFFFE00000000003FFFFF0000000000
310
03FF00000000001FF000FC00000000000FFFFFE00003FFFF00001FFFFF80007F
310
F800000000001FFFC00000000000FFF8000001FFFE0000007FFFFFF0001FFFFF
310
FFFC00000000001FFFFFFC00000000001FFFFF000000000003FE00000000000F
310
F000F8000000000007FFFFE00003FFFF00001FFFFF80007FF800000000000FFF
310
800000000000FFF8000001FFFE0000007FFFFFF0001FFFFFFFF800000000000F
310
FFFFF800000000000FFFFF000000000003FC000000000007F000F80000000000
310
03FFFFC00003FFFE00001FFFFF80007FF0000000000007FF0000000000007FF8
310
000001FFFE0000007FFFFFF0001FFFFFFFF0000000000007FFFFF00000000000
310
07FFFF000000000003F8000000000003F000F0000000000003FFFFC00001FFFE
310
00001FFFFF80007FE0000000000007FE0000000000003FF8000001FFFE000000
310
7FFFFFF0001FFFFFFFF0000000000007FFFFF0000000000007FFFF0000000000
310
03F800001F800003F000E00001FFF00001FFFFC00001FFFE00000FFFFF80007F
310
E00001FFE00003FE00001FFF00003FF8000001FFFE0000007FFFFFF0001FFFFF
310
FFE000003E000003FFFFE000003E000003FFFF000000000003F00001FFF80001
310
F000E00007FFFC0001FFFFC00001FFFE00000FFFFF80007FC0000FFFFC0003FC
310
0000FFFFC0001FF8000001FFFE0000007FFFFFF0001FFFFFFFC00003FFE00001
310
FFFFC00003FFE00001FFFF0001FFFFFFFFF00007FFFE0001F000E0000FFFFF00
310
00FFFF800001FFFC00000FFFFF80007FC0001FFFFE0001FC0001FFFFE0001FF8
310
000001FFFE0000007FFFFFF0001FFFFFFF80000FFFF80000FFFF80000FFFF800
310
00FFFF0003FFFFFFFFE0000FFFFF8000F000C0003FFFFF8000FFFF800000FFFC
310
000007FFFF80007F80003FFFFF0001FC0003FFFFF0001FF8000001FFFE000000
310
7FFFFFF0001FFFFFFF80003FFFFE0000FFFF80003FFFFE0000FFFF0003FFFFFF
310
FFE0003FFFFF8000F000C0003FFFFF8000FFFF800000FFFC000007FFFF80007F
310
80007FFFFF8001F80007FFFFF8000FF8000001FFFE0000007FFFFFF0001FFFFF
310
FF00007FFFFF00007FFF00007FFFFF00007FFF0003FFFFFFFFE0003FFFFFC000
310
F000C0007FFFFFC000FFFF000000FFFC000007FFFF80007F8000FFFFFF8000F8
310
000FFFFFF8000FF8000001FFFE0000007FFFFFF0001FFFFFFF0000FFFFFF8000
310
7FFF0000FFFFFF80007FFF0003FFFFFFFFC0007FFFFFC00070008000FFFFFFC0
310
00FFFF000000FFF8000007FFFF80007F8000FFFFFF8000F8000FFFFFF8000FF8
310
000001FFFE0000007FFFFFF0001FFFFFFE0001FFFFFFC0003FFE0001FFFFFFC0
310
003FFF0003FFFFFFFFC0007FFFFFE00070008000FFFFFFC0007FFF0000007FF8
310
000003FFFF80007F0001FFFFFF8000F8000FFFFFF8000FF8000001FFFE000000
310
7FFFFFF0001FFFFFFE0001FFFFFFC0003FFE0001FFFFFFC0003FFF0003FFFFFF
310
FFC000FFFFFFE00070008000FFFFFFC0007FFF0000007FF8000003FFFF80007F
310
0001FFFFFF8000F8001FFFFFF8000FF8000001FFFE0000007FFFFFF0001FFFFF
310
FE0003FFFFFFE0003FFE0003FFFFFFE0003FFF0003FFFFFFFFC000FFFFFFE000
310
70008000FFFFFFC0007FFE0000007FF8000003FFFF80007F0001FFFFFF8000F0
310
001FFFFFF8000FF8000001FFFE0000007FFFFFF0001FFFFFFC0003FFFFFFE000
310
1FFC0003FFFFFFE0001FFF0003FFFFFFFFC000FFFFFFC00070008000FFFFFF80
310
007FFE0000007FF0000003FFFF80007F0001FFFFFF0000F0001FFFFFF8000FF8
310
000001FFFE0000007FFFFFF0001FFFFFFC0007FFFFFFF0001FFC0007FFFFFFF0
310
001FFF0003FFFFFFFFC000FFFFFFC00070008001FFFFFF0000FFFE0000003FF0
310
000001FFFF80007F0001FFFFFF0000F8001FFFFFF0000FF8000001FFFE000000
310
7FFFFFF0001FFFFFFC0007FFFFFFF0001FFC0007FFFFFFF0001FFF0003FFFFFF
310
FFC001FFFFFF80007000FFFFFFFFFE0000FFFE0008003FF0008001FFFF80007F
310
FFFFFFFFFC0000FFFFFFFFFFE0000FF8000001FFFE0000007FFFFFF0001FFFFF
310
F8000FFFFFFFF8000FF8000FFFFFFFF8000FFF0003FFFFFFFFFFFFFFFFFF0000
310
7000FFFFFFFFFC0000FFFC0008003FF0008001FFFF80007FFFFFFFFFF80001FF
310
FFFFFFFF80000FF8000001FFFE0000007FFFFFF0001FFFFFF8000FFFFFFFF800
310
0FF8000FFFFFFFF8000FFF0003FFFFFFFFFFFFFFFFFE0000F000FFFFFFFFE000
310
00FFFC000C003FE000C001FFFF80007FFFFFFFFFC00001FFFFFFFFFE00001FF8
310
000001FFFE0000007FFFFFF0001FFFFFF8000FFFFFFFF8000FF8000FFFFFFFF8
310
000FFF0003FFFFFFFFFFFFFFFFF00000F000FFFFFFFE000001FFFC000C001FE0
310
00C000FFFF80007FFFFFFFFE000001FFFFFFFFE000001FF80FFFFFFFFFFFFFC0
310
7FFFFFF0001FFFFFF8000FFFFFFFF8000FF8000FFFFFFFF8000FFF0003FFFFFF
310
FFFFFFFFFF800000F000FFFFFFC0000001FFFC001C001FE001C000FFFF80007F
310
FFFFFF80000003FFFFFFF80000001FF80FFFFFFFFFFFFFC07FFFFFF0001FFFFF
310
F8001FFFFFFFFC000FF8001FFFFFFFFC000FFF0003FFFFFFFFFFFFFFF0000001
310
F000FFFFF800000001FFF8001C001FE001C000FFFF80007FFFFFF800000003FF
310
FFFF800000003FF80FFFFFFFFFFFFFC07FFFFFF0001FFFFFF8001FFFFFFFFC00
310
0FF8001FFFFFFFFC000FFF0003FFFFFFFFFFFFFE00000001F000FFFFC0000000
310
03FFF8001E001FC001E000FFFF80007FFFFF8000000007FFFFFC000000003FF8
310
0FFFFFFFFFFFFFC07FFFFFF0001FFFFFF8001FFFFFFFFC000FF8001FFFFFFFFC
310
000FFF0003FFFFFFFFFFFFE000000003F000FFFE0000000007FFF8001E000FC0
310
01E0007FFF80007FFFFE0000000007FFFFE0000000007FF80FFFFFFFFFFFFFC0
310
7FFFFFF0001FFFFFF0001FFFFFFFFC0007F0001FFFFFFFFC0007FF0003FFFFFF
310
FFFFFF0000000003F000FFF80000000007FFF8001E000FC003E0007FFF80007F
310
FFF0000000000FFFFF8000000000FFF80FFFFFFFFFFFFFC07FFFFFF0001FFFFF
310
F0001FFFFFFFFC0007F0001FFFFFFFFC0007FF0003FFFFFFFFFFFC0000000007
310
F000FFE0000000000FFFF0003E000FC003E0007FFF80007FFFC0000000001FFF
310
FE0000000001FFF80FFFFFFFFFFFFFC07FFFFFF0001FFFFFF0001FFFFFFFFC00
310
07F0001FFFFFFFFC0007FF0003FFFFFFFFFFF0000000000FF000FFC000000000
310
1FFFF0003F000F8003F0003FFF80007FFF80000000003FFFF80000000003FFF8
310
0FFFFFFFFFFFFFC07FFFFFF0001FFFFFF0001FFFFFFFFC0007F0001FFFFFFFFC
310
0007FF0003FFFFFFFFFFE0000000001FF000FF00000000007FFFF0003F000780
310
03F0003FFF80007FFF00000000007FFFF00000000007FFF80FFFFFFFFFFFFFC0
310
7FFFFFF0001FFFFFF0001FFFFFFFFC0007F0001FFFFFFFFC0007FF0003FFFFFF
310
FFFF80000000007FF000FE0000000000FFFFE0003F00078007F0003FFF80007F
310
FE0000000001FFFFE0000000001FFFF80FFFFFFFFFFFFFC07FFFFFF0001FFFFF
310
F0001FFFFFFFFC0007F0001FFFFFFFFC0007FF0003FFFFFFFFFF0000000000FF
310
F000FC0000000003FFFFE0007F00078007F0003FFF80007FFC0000000007FFFF
310
C0000000007FFFF80FFFFFFFFFFFFFC07FFFFFF0001FFFFFF8001FFFFFFFFC00
310
0FF8001FFFFFFFFC000FFF0003FFFFFFFFFE0000000003FFF000FC000000000F
310
FFFFE0007F80070007F8001FFF80007FF8000000001FFFFF8000000001FFFFF8
310
0FFFFFFFFFFFFFC07FFFFFF0001FFFFFF8001FFFFFFFFC000FF8001FFFFFFFFC
310
000FFF0003FFFFFFFFFC000000000FFFF000F8000000007FFFFFE0007F800700
310
07F8001FFF80007FF000000000FFFFFF800000000FFFFFF80FFFFFFFFFFFFFC0
310
7FFFFFF0001FFFFFF8000FFFFFFFF8000FF8000FFFFFFFF8000FFF0003FFFFFF
310
FFFC000000007FFFF000F800000007FFFFFFC0007F8003000FF8001FFF80007F
310
F000000007FFFFFF000000007FFFFFF80FFFFFFFFFFFFFC07FFFFFF0001FFFFF
310
F8000FFFFFFFF8000FF8000FFFFFFFF8000FFF0003FFFFFFFFF80000000FFFFF
310
F000F0000000FFFFFFFFC000FF8003000FF8001FFF80007FE0000000FFFFFFFF
310
0000000FFFFFFFF8000001FFFE0000007FFFFFF0001FFFFFF8000FFFFFFFF800
310
0FF8000FFFFFFFF8000FFF0003FFFFFFFFF8000000FFFFFFF000F000000FFFFF
310
FFFFC000FFC002000FF8000FFF80007FE000001FFFFFFFFE000001FFFFFFFFF8
310
000001FFFE0000007FFFFFF0001FFFFFF8000FFFFFFFF8000FF8000FFFFFFFF8
310
000FFF0003FFFFFFFFF000001FFFFFFFF000E00000FFFFFFFFFFC000FFC00200
310
0FFC000FFF80007FE00001FFFFFFFFFE00001FFFFFFFFFF8000001FFFE000000
310
7FFFFFF0001FFFFFFC000FFFFFFFF8001FFC000FFFFFFFF8001FFF0003FFFFFF
310
FFF00001FFFFFFFFF000E00007FFFFFFFFFF8000FFC000001FFC000FFF80007F
310
C0000FFFFFFFFFFE0000FFFFFFFFFFF8000001FFFE0000007FFFFFF0001FFFFF
310
FC0007FFFFFFF0001FFC0007FFFFFFF0001FFF0003FFFFFFFFF00007FFFFFFFF
310
F000E0001FFFFFFFFFFF8000FFC000001FFC000FFF80007FC0003FFFFFFFFFFE
310
0001FFFFFFFFFFF8000001FFFE0000007FFFFFF0001FFFFFFC0007FFFFFFF000
310
1FFC0007FFFFFFF0001FFF0003FFFFFFFFF0001FFFFFFFFFF000E0003FFFFF00
310
03FF8001FFE000001FFC0007FF80007FC0007FFFFF0007FC0003FFFFF0003FF8
310
000001FFFE0000007FFFFFF0001FFFFFFC0003FFFFFFE0001FFC0003FFFFFFE0
310
001FFF0003FFFFFFFFF0003FFFFFFFFFF000E0003FFFFF0001FF8001FFE00000
310
1FFE0007FF80007FC0007FFFFE0003FC0007FFFFE0003FF8000001FFFE000000
310
7FFFFFF0001FFFFFFE0003FFFFFFE0003FFE0003FFFFFFE0003FFF0003FFFFFF
310
FFF0003FFFFF8001F000E0003FFFFF0001FF0001FFE000001FFE0007FF80007F
310
C0007FFFFE0003FC0007FFFFE0003FF8000001FFFE0000007FFFFFF0001FFFFF
310
FE0001FFFFFFC0003FFE0001FFFFFFC0003FFF0003FFFFFFFFF0003FFFFF0001
310
F000E0003FFFFF0003FF0001FFE000003FFE0007FF80007FC0007FFFFE0003FC
310
0007FFFFE0003FF8000001FFFE0000007FFFFFF0001FFFFFFF0001FFFFFFC000
310
7FFF0001FFFFFFC0007FFF0003FFFFFFFFF0003FFFFF0001F000E0003FFFFE00
310
03FF0003FFF000003FFE0003FF80007FC0007FFFFC0003FE0007FFFFE0003FF8
310
000001FFFE0000007FFFFFF0001FFFFFFF0000FFFFFF80007FFF0000FFFFFF80
310
007FFF0003FFFFFFFFF0003FFFFF0001F000E0003FFFFE0003FF0003FFF00000
310
3FFF0003FF80007FC0007FFFFC0007FE0007FFFFC0003FF8000001FFFE000000
310
7FFFFFF0001FFFFFFF80007FFFFF0000FFFF80007FFFFF0000FFFF0003FFFFFF
310
FFF0003FFFFF0003F000E0003FFFFC0003FE0003FFF000003FFF0003FF80007F
310
E0003FFFF80007FE0003FFFFC0007FF8000001FFFE0000007FFFFFF0001FFFFF
310
FF80003FFFFE0000FFFF80003FFFFE0000FFFF0003FFFFFFFFF0001FFFFE0003
310
F000F0001FFFF80003FE0003FFF000007FFF0001FF80007FE0003FFFF00007FE
310
0001FFFF80007FF8000001FFFE0000007FFFFFF0001FFFFFFFC0000FFFF80001
310
FFFFC0000FFFF80001FFFF0003FFFFFFFFF0001FFFFC0003F000F0000FFFF000
310
07FE0007FFF800007FFF0001FF80007FE0001FFFE00007FF0000FFFE00007FF8
310
000001FFFE0000007FFFFFF0001FFFFFFFC00003FFE00001FFFFC00003FFE000
310
01FFFF0003FFFFFFFFF8000FFFF80003F000F00003FFC00007FC0007FFF80000
310
7FFF8001FF80007FF00007FF80000FFF00007FF80000FFF8000001FFFE000000
310
7F80000000000001FFE000003E000003FFFFE000003E000003FFFF0003FFFFFF
310
FFF80003FFE00007F000F800000000000FFC0007FFF800007FFF8001FF80007F
310
F000000000000FFF000000000000FFF8000001FFFE0000007F80000000000001
310
FFF0000000000007FFFFF0000000000007FFFF0003FFFFFFFFFC00007E000007
310
F000F800000000000FFC0007FFF80000FFFF8000FF80007FF800000000001FFF
310
800000000001FFF8000001FFFE0000007F80000000000001FFF800000000000F
310
FFFFF800000000000FFFFF0003FFFFFFFFFC00000000000FF000FC0000000000
310
1FFC0007FFFC0000FFFF8000FF80007FF800000000003FFFC00000000001FFF8
310
000001FFFE0000007F80000000000001FFF800000000000FFFFFF80000000000
310
0FFFFF0003FFFFFFFFFE00000000001FF000FE00000000003FF8000FFFFC0000
310
FFFF8000FF80007FFC00000000003FFFC00000000003FFF8000001FFFE000000
310
7F80000000000001FFFC00000000001FFFFFFC00000000001FFFFF0003FFFFFF
310
FFFF00000000001FF000FF00000000003FF8000FFFFC0000FFFFC000FF80007F
310
FE00000000007FFFE00000000007FFF8000001FFFE0000007F80000000000001
310
FFFE00000000003FFFFFFE00000000003FFFFF0003FFFFFFFFFF80000000003F
310
F000FF80000000007FF8000FFFFC0001FFFFC0007F80007FFF0000000000FFFF
310
F0000000000FFFF800000000000000007F80000000000001FFFF8000000000FF
310
FFFFFF8000000000FFFFFF0003FFFFFFFFFFC0000000007FF000FFC000000000
310
FFF8000FFFFE0001FFFFC0007F80007FFF8000000001FFFFF8000000001FFFF8
310
00000000000000007F80000000000001FFFFC000000001FFFFFFFFC000000001
310
FFFFFF0003FFFFFFFFFFE000000000FFF000FFE000000003FFF0001FFFFE0001
310
FFFFC0007F80007FFFC000000007FFFFFE000000003FFFF80000000000000000
310
7F80000000000001FFFFE000000003FFFFFFFFE000000003FFFFFF0003FFFFFF
310
FFFFF000000003FFF000FFF80000000FFFF0001FFFFE0001FFFFE0007F80007F
310
FFF00000000FFFFFFF00000000FFFFF800000000000000007F80000000000001
310
FFFFF80000000FFFFFFFFFF80000000FFFFFFF0003FFFFFFFFFFFC0000000FFF
310
F000FFFE0000003FFFF0001FFFFE0003FFFFE0003F80007FFFFC0000003FFFFF
310
FFC0000003FFFFF800000000000000007F80000000000001FFFFFE0000003FFF
310
FFFFFFFE0000003FFFFFFF0003FFFFFFFFFFFF0000003FFFF000FFFF800000FF
310
FFF0001FFFFF0003FFFFE0003F80007FFFFF000001FFFFFFFFF800001FFFFFF8
310
00000000000000007F80000000000001FFFFFFC00001FFFFFFFFFFFFC00001FF
310
FFFFFF0003FFFFFFFFFFFFC00000FFFFF000FFFFF8000FFFFFFFFFFFFFFFFFFF
310
FFFFFFFFFFFFFFFFFFFFF0001FFFFFFFFFFF0000FFFFFFF80000000000000000
310
7FFFFFFFFFFFFFFFFFFFFFFC001FFFFFFFFFFFFFFC001FFFFFFFFFFFFFFFFFFF
310
FFFFFFFC001FFFFFF000FFFFFFFFFFFFFFFFFFFFFFFFFFFFFFFFFFFFFFFFFFFF
310
FFFFFFFFFFFFFFFFFFFFFFFFFFFFFFFFFFFFFFFFFFFFFFFFFFFFFFFFFFFFFFFF
310
FFFFFFFFFFFFFFFFFFFFFFFFFFFFFFFFFFFFFFFFFFFFFFFFFFFFFFFFFFFFFFFF
310
F000FFFFFFFFFFFFFFFFFFFFFFFFFFFFFFFFFFFFFFFFFFFFFFFFFFFFFFFFFFFF
310
FFFFFFFFFFFFFFFFFFFFFFFFFFFFFFFFFFFFFFFFFFFFFFFFFFFFFFFFFFFFFFFF
310
FFFFFFFFFFFFFFFFFFFFFFFFFFFFFFFFFFFFFFFFFFFFFFFFF000FFFFFFFFFFFF
310
FFFFFFFFFFFFFFFFFFFFFFFFFFFFFFFFFFFFFFFFFFFFFFFFFFFFFFFFFFFFFFFF
310
FFFFFFFFFFFFFFFFFFFFFFFFFFFFFFFFFFFFFFFFFFFFFFFFFFFFFFFFFFFFFFFF
310
FFFFFFFFFFFFFFFFFFFFFFFFFFFFFFFFF000FFFFFFFFFFFFFFFFFFFFFFFFFFFF
310
FFFFFFFFFFFFFFFFFFFFFFFFFFFFFFFFFFFFFFFFFFFFFFFFFFFFFFFFFFFFFFFF
310
FFFFFFFFFFFFFFFFFFFFFFFFFFFFFFFFFFFFFFFFFFFFFFFFFFFFFFFFFFFFFFFF
310
FFFFFFFFFFFFFFFFF000FFFFFFFFFFFFFFFFFFFFFFFFFFFFFFFFFFFFFFFFFFFF
310
FFFFFFFFFFFFFFFFFFFFFFFFFFFFFFFFFFFFFFFFFFFFFFFFFFFFFFFFFFFFFFFF
310
FFFFFFFFFFFFFFFFFFFFFFFFFFFFFFFFFFFFFFFFFFFFFFFFFFFFFFFFFFFFFFFF
310
F000FFFFFFFFFFFFFFFFFFFFFFFFFFFFFFFFFFFFFFFFFFFFFFFFFFFFFFFFFFFF
310
FFFFFFFFFFFFFFFFFFFFFFFFFFFFFFFFFFFFFFFFFFFFFFFFFFFFFFFFFFFFFFFF
310
FFFFFFFFFFFFFFFFFFFFFFFFFFFFFFFFFFFFFFFFFFFFFFFFF000FFFFFFFFFFFF
310
FFFFFFFFFFFFFFFFFFFFFFFFFFFFFFFFFFFFFFFFFFFFFFFFFFFFFFFFFFFFFFFF
310
FFFFFFFFFFFFFFFFFFFFFFFFFFFFFFFFFFFFFFFFFFFFFFFFFFFFFFFFFFFFFFFF
310
FFFFFFFFFFFFFFFFFFFFFFFFFFFFFFFFF000FFFFFFFFFFFFFFFFFFFFFFFFFFFF
310
FFFFFFFFFFFFFFFFFFFFFFFFFFFFFFFFFFFFFFFFFFFFFFFFFFFFFFFFFFFFFFFF
310
FFFFFFFFFFFFFFFFFFFFFFFFFFFFFFFFFFFFFFFFFFFFFFFFFFFFFFFFFFFFFFFF
310
FFFFFFFFFFFFFFFFF000FFFFFFFFFFFFFFFFFFFFFFFFFFFFFFFFFFFFFFFFFFFF
310
FFFFFFFFFFFFFFFFFFFFFFFFFFFFFFFFFFFFFFFFFFFFFFFFFFFFFFFFFFFFFFFF
310
FFFFFFFFFFFFFFFFFFFFFFFFFFFFFFFFFFFFFFFFFFFFFFFFFFFFFFFFFFFFFFFF
310
F000FFFFFFFFFFFFFFFFFFFFFFFFFFFFFFFFFFFFFFFFFFFFFFFFFFFFFFFFFFFF
310
FFFFFFFFFFFFFFFFFFFFFFFFFFFFFFFFFFFFFFFFFFFFFFFFFFFFFFFFFFFFFFFF
310
FFFFFFFFFFFFFFFFFFFFFFFFFFFFFFFFFFFFFFFFFFFFFFFFF000FFFFFFFFFFFF
310
FFFFFFFFFFFFFFFFFFFFFFFFFFFFFFFFFFFFFFFFFFFFFFFFFFFFFFFFFFFFFFFF
310
FFFFFFFFFFFFFFFFFFFFFFFFFFFFFFFFFFFFFFFFFFFFFFFFFFFFFFFFFFFFFFFF
310
FFFFFFFFFFFFFFFFFFFFFFFFFFFFFFFFF000FFFFFFFFFFFFFFFFFFFFFFFFFFFF
310
FFFFFFFFFFFFFFFFFFFFFFFFFFFFFFFFFFFFFFFFFFFFFFFFFFFFFFFFFFFFFFFF
310
FFFFFFFFFFFFFFFFFFFFFFFFFFFFFFFFFFFFFFFFFFFFFFFFFFFFFFFFFFFFFFFF
310
FFFFFFFFFFFFFFFFF000FFFFFFFFFFFFFFFFFFFFFFFFFFFFFFFFFFFFFFFFFFFF
310
FFFFFFFFFFFFFFFFFFFFFFFFFFFFFFFFFFFFFFFFFFFFFFFFFFFFFFFFFFFFFFFF
310
FFFFFFFFFFFFFFFFFFFFFFFFFFFFFFFFFFFFFFFFFFFFFFFFFFFFFFFFFFFFFFFF
310
F000FFFFFFFFFFFFFFFFFFFFFFFFFFFFFFFFFFFFFFFFFFFFFFFFFFFFFFFFFFFF
310
FFFFFFFFFFFFFFFFFFFFFFFFFFFFFFFFFFFFFFFFFFFFFFFFFFFFFFFFFFFFFFFF
310
FFFFFFFFFFFFFFFFFFFFFFFFFFFFFFFFFFFFFFFFFFFFFFFFF000FFFFFFFFFFFF
310
FFFFFFFFFFFFFFFFFFFFFFFFFFFFFFFFFFFFFFFFFFFFFFFFFFFFFFFFFFFFFFFF
310
FFFFFFFFFFFFFFFFFFFFFFFFFFFFFFFFFFFFFFFFFFFFFFFFFFFFFFFFFFFFFFFF
310
FFFFFFFFFFFFFFFFFFFFFFFFFFFFFFFFF000FFFFFFFFFFFFFFFFFFFFFFFFFFFF
310
FFFFFFFFFFFFFFFFFFFFFFFFFFFFFFFFFFFFFFFFFFFFFFFFFFFFFFFFFFFFFFFF
310
FFFFFFFFFFFFFFFFFFFFFFFFFFFFFFFFFFFFFFFFFFFFFFFFFFFFFFFFFFFFFFFF
310
FFFFFFFFFFFFFFFFF000FFFFFFFFFFFFFFFFFFFFFFFFFFFFFFFFFFFFFFFFFFFF
310
FFFFFFFFFFFFFFFFFFFFFFFFFFFFFFFFFFFFFFFFFFFFFFFFFFFFFFFFFFFFFFFF
310
FFFFFFFFFFFFFFFFFFFFFFFFFFFFFFFFFFFFFFFFFFFFFFFFFFFFFFFFFFFFFFFF
310
F000FFFFFFFFFFFFFFFFFFFFFFFFFFFFFFFFFFFFFFFFFFFFFFFFFFFFFFFFFFFF
310
FFFFFFFFFFFFFFFFFFFFFFFFFFFFFFFFFFFFFFFFFFFFFFFFFFFFFFFFFFFFFFFF
310
FFFFFFFFFFFFFFFFFFFFFFFFFFFFFFFFFFFFFFFFFFFFFFFFF000FFFFFFFFFFFF
310
FFFFFFFFFFFFFFFFFFFFFFFFFFFFFFFFFFFFFFFFFFFFFFFFFFFFFFFFFFFFFFFF
310
FFFFFFFFFFFFFFFFFFFFFFFFFFFFFFFFFFFFFFFFFFFFFFFFFFFFFFFFFFFFFFFF
310
FFFFFFFFFFFFFFFFFFFFFFFFFFFFFFFFF000FFFFFFFFFFFFFFFFFFFFFFFFFFFF
310
FFFFFFFFFFFFFFFFFFFFFFFFFFFFFFFFFFFFFFFFFFFFFFFFFFFFFFFFFFFFFFFF
310
FFFFFFFFFFFFFFFFFFFFFFFFFFFFFFFFFFFFFFFFFFFFFFFFFFFFFFFFFFFFFFFF
310
FFFFFFFFFFFFFFFFF000FFFFFFFFFFFFFFFFFFFFFFFFFFFFFFFFFFFFFFFFFFFF
310
FFFFFFFFFFFFFFFFFFFFFFFFFFFFFFFFFFFFFFFFFFFFFFFFFFFFFFFFFFFFFFFF
310
FFFFFFFFFFFFFFFFFFFFFFFFFFFFFFFFFFFFFFFFFFFFFFFFFFFFFFFFFFFFFFFF
310
F000FFFFFFFFFFFFFFFFFFFFFFFFFFFFFFFFFFFFFFFFFFFFFFFFFFFFFFFFFFFF
310
FFFFFFFFFFFFFFFFFFFFFFFFFFFFFFFFFFFFFFFFFFFFFFFFFFFFFFFFFFFFFFFF
310
FFFFFFFFFFFFFFFFFFFFFFFFFFFFFFFFFFFFFFFFFFFFFFFFF000FFFFFFFFFFFF
310
FFFFFFFFFFFFFFFFFFFFFFFFFFFFFFFFFFFFFFFFFFFFFFFFFFFFFFFFFFFFFFFF
310
FFFFFFFFFFFFFFFFFFFFFFFFFFFFFFFFFFFFFFFFFFFFFFFFFFFFFFFFFFFFFFFF
310
FFFFFFFFFFFFFFFFFFFFFFFFFFFFFFFFF0000000000000000000000000000000
310
0000000000000000000000000000000000000000000000000000000000000000
310
0000000000000000000000000000000000000000000000000000000000000000
310
0000000000000000000000000000000000000000000000000000000000000000
310
0000000000000000000000000000000000000000000000000000000000000000
310
0000000000000000000000000000000000000000000000000000000000000000
310
0000000000000000000000000000000000000000000000000000000000000000
310
0000000000000000000000000000000000000000000000000000000000000000
310
0000000000000000000000000000000000000000000000000000000000000000
310
0000000000000000000000000000000000000000000000000000000000000000
310
0000000000000000000000000000000000000000000000000000000000000000
310
0000000000000000000000000000000000000000000000000000000000000000
310
0000000000000000000000000000000000000000000000000000000000000000
310
0000000000000000000000000000000000000000000000000000000000000000
310
0000000000000000000000000000000000000000000000000000000000000000
310
0000000000000000000000000000000000000000000000000000000000000000
  1
OLE
  0
ENDSEC
  0
SECTION
  2
OBJECTS
  0
DICTIONARY
  5
C
330
0
100
AcDbDictionary
281
     1
  3
ACAD_GROUP
350
D
  3
ACAD_LAYOUT
350
1A
  3
ACAD_MLINESTYLE
350
17
  3
ACAD_PLOTSETTINGS
350
19
  3
ACAD_PLOTSTYLENAME
350
E
  0
DICTIONARY
  5
D
102
{ACAD_REACTORS
330
C
102
}
330
C
100
AcDbDictionary
281
     1
  0
DICTIONARY
  5
1A
102
{ACAD_REACTORS
330
C
102
}
330
C
100
AcDbDictionary
281
     1
  3
Layout1
350
1E
  3
Layout2
350
26
  3
Model
350
22
  0
DICTIONARY
  5
17
102
{ACAD_REACTORS
330
C
102
}
330
C
100
AcDbDictionary
281
     1
  3
Standard
350
18
  0
DICTIONARY
  5
19
102
{ACAD_REACTORS
330
C
102
}
330
C
100
AcDbDictionary
281
     1
  0
ACDBDICTIONARYWDFLT
  5
E
102
{ACAD_REACTORS
330
C
102
}
330
C
100
AcDbDictionary
281
     1
  3
Normal
350
F
100
AcDbDictionaryWithDefault
340
F
  0
LAYOUT
  5
1E
102
{ACAD_REACTORS
330
1A
102
}
330
1A
100
AcDbPlotSettings
  1

  2
none_device
  4

  6

 40
0.0
 41
0.0
 42
0.0
 43
0.0
 44
0.0
 45
0.0
 46
0.0
 47
0.0
 48
0.0
 49
0.0
140
0.0
141
0.0
142
1.0
143
1.0
 70
   688
 72
     0
 73
     0
 74
     5
  7

 75
    16
147
1.0
148
0.0
149
0.0
100
AcDbLayout
  1
Layout1
 70
     1
 71
     1
 10
0.0
 20
0.0
 11
420.0
 21
297.0
 12
0.0
 22
0.0
 32
0.0
 14
1.0000000000E+20
 24
1.0000000000E+20
 34
1.0000000000E+20
 15
-1.0000000000E+20
 25
-1.0000000000E+20
 35
-1.0000000000E+20
146
0.0
 13
0.0
 23
0.0
 33
0.0
 16
1.0
 26
0.0
 36
0.0
 17
0.0
 27
1.0
 37
0.0
 76
     0
330
1B
  0
LAYOUT
  5
26
102
{ACAD_REACTORS
330
1A
102
}
330
1A
100
AcDbPlotSettings
  1

  2
none_device
  4

  6

 40
0.0
 41
0.0
 42
0.0
 43
0.0
 44
0.0
 45
0.0
 46
0.0
 47
0.0
 48
0.0
 49
0.0
140
0.0
141
0.0
142
1.0
143
1.0
 70
   688
 72
     0
 73
     0
 74
     5
  7

 75
    16
147
1.0
148
0.0
149
0.0
100
AcDbLayout
  1
Layout2
 70
     1
 71
     2
 10
0.0
 20
0.0
 11
0.0
 21
0.0
 12
0.0
 22
0.0
 32
0.0
 14
0.0
 24
0.0
 34
0.0
 15
0.0
 25
0.0
 35
0.0
146
0.0
 13
0.0
 23
0.0
 33
0.0
 16
1.0
 26
0.0
 36
0.0
 17
0.0
 27
1.0
 37
0.0
 76
     0
330
23
  0
LAYOUT
  5
22
102
{ACAD_REACTORS
330
1A
102
}
330
1A
100
AcDbPlotSettings
  1

  2
none_device
  4

  6

 40
0.0
 41
0.0
 42
0.0
 43
0.0
 44
0.0
 45
0.0
 46
0.0
 47
0.0
 48
0.0
 49
0.0
140
0.0
141
0.0
142
1.0
143
1.0
 70
  1712
 72
     0
 73
     0
 74
     0
  7

 75
     0
147
1.0
148
0.0
149
0.0
100
AcDbLayout
  1
Model
 70
     1
 71
     0
 10
0.0
 20
0.0
 11
297.0
 21
210.0
 12
0.0
 22
0.0
 32
0.0
 14
0.0
 24
0.0
 34
0.0
 15
297.0
 25
210.0
 35
0.0
146
0.0
 13
0.0
 23
0.0
 33
0.0
 16
1.0
 26
0.0
 36
0.0
 17
0.0
 27
1.0
 37
0.0
 76
     0
330
1F
331
29
  0
MLINESTYLE
  5
18
102
{ACAD_REACTORS
330
17
102
}
330
17
100
AcDbMlineStyle
  2
Standard
 70
     0
  3

 62
   256
 51
90.0
 52
90.0
 71
     2
 49
0.5
 62
   256
  6
BYLAYER
 49
-0.5
 62
   256
  6
BYLAYER
  0
ACDBPLACEHOLDER
  5
F
102
{ACAD_REACTORS
330
E
102
}
330
E
  0
ENDSEC
  0
EOF
