  0
SECTION
  2
HEADER
  9
$ACADVER
  1
AC1015
  9
$ACADMAINTVER
 70
     6
  9
$DWGCODEPAGE
  3
ANSI_1252
  9
$INSBASE
 10
0.0
 20
0.0
 30
0.0
  9
$EXTMIN
 10
0.0
 20
0.0
 30
0.0
  9
$EXTMAX
 10
297.0
 20
210.0
 30
0.0
  9
$LIMMIN
 10
0.0
 20
0.0
  9
$LIMMAX
 10
297.0
 20
210.0
  9
$ORTHOMODE
 70
     0
  9
$REGENMODE
 70
     1
  9
$FILLMODE
 70
     1
  9
$QTEXTMODE
 70
     0
  9
$MIRRTEXT
 70
     1
  9
$LTSCALE
 40
1.0
  9
$ATTMODE
 70
     1
  9
$TEXTSIZE
 40
2.0
  9
$TRACEWID
 40
1.0
  9
$TEXTSTYLE
  7
Standard
  9
$CLAYER
  8
0
  9
$CELTYPE
  6
ByLayer
  9
$CECOLOR
 62
   256
  9
$CELTSCALE
 40
1.0
  9
$DISPSILH
 70
     0
  9
$DIMSCALE
 40
1.0
  9
$DIMASZ
 40
3.0
  9
$DIMEXO
 40
0.0
  9
$DIMDLI
 40
3.75
  9
$DIMRND
 40
0.0
  9
$DIMDLE
 40
0.0
  9
$DIMEXE
 40
1.0
  9
$DIMTP
 40
0.0
  9
$DIMTM
 40
0.0
  9
$DIMTXT
 40
2.0
  9
$DIMCEN
 40
2.5
  9
$DIMTSZ
 40
0.0
  9
$DIMTOL
 70
     0
  9
$DIMLIM
 70
     0
  9
$DIMTIH
 70
     1
  9
$DIMTOH
 70
     1
  9
$DIMSE1
 70
     0
  9
$DIMSE2
 70
     0
  9
$DIMTAD
 70
     1
  9
$DIMZIN
 70
     0
  9
$DIMBLK
  1

  9
$DIMASO
 70
     1
  9
$DIMSHO
 70
     1
  9
$DIMPOST
  1

  9
$DIMAPOST
  1

  9
$DIMALT
 70
     0
  9
$DIMALTD
 70
     3
  9
$DIMALTF
 40
0.0393700787
  9
$DIMLFAC
 40
1.0
  9
$DIMTOFL
 70
     1
  9
$DIMTVP
 40
0.0
  9
$DIMTIX
 70
     0
  9
$DIMSOXD
 70
     0
  9
$DIMSAH
 70
     0
  9
$DIMBLK1
  1

  9
$DIMBLK2
  1

  9
$DIMSTYLE
  2
ISO-25
  9
$DIMCLRD
 70
     0
  9
$DIMCLRE
 70
     0
  9
$DIMCLRT
 70
     0
  9
$DIMTFAC
 40
1.0
  9
$DIMGAP
 40
1.524
  9
$DIMJUST
 70
     0
  9
$DIMSD1
 70
     0
  9
$DIMSD2
 70
     0
  9
$DIMTOLJ
 70
     0
  9
$DIMTZIN
 70
     0
  9
$DIMALTZ
 70
     0
  9
$DIMALTTZ
 70
     0
  9
$DIMUPT
 70
     0
  9
$DIMDEC
 70
     2
  9
$DIMTDEC
 70
     3
  9
$DIMALTU
 70
     2
  9
$DIMALTTD
 70
     3
  9
$DIMTXSTY
  7
Standard
  9
$DIMAUNIT
 70
     0
  9
$DIMADEC
 70
     2
  9
$DIMALTRND
 40
0.0
  9
$DIMAZIN
 70
     0
  9
$DIMDSEP
 70
    44
  9
$DIMATFIT
 70
     3
  9
$DIMFRAC
 70
     0
  9
$DIMLDRBLK
  1

  9
$DIMLUNIT
 70
     2
  9
$DIMLWD
 70
    -2
  9
$DIMLWE
 70
    -2
  9
$DIMTMOVE
 70
     0
  9
$LUNITS
 70
     2
  9
$LUPREC
 70
     2
  9
$SKETCHINC
 40
1.0
  9
$FILLETRAD
 40
10.0
  9
$AUNITS
 70
     0
  9
$AUPREC
 70
     2
  9
$MENU
  1
.
  9
$ELEVATION
 40
0.0
  9
$PELEVATION
 40
0.0
  9
$THICKNESS
 40
0.0
  9
$LIMCHECK
 70
     0
  9
$CHAMFERA
 40
10.0
  9
$CHAMFERB
 40
10.0
  9
$CHAMFERC
 40
20.0
  9
$CHAMFERD
 40
0.0
  9
$SKPOLY
 70
     0
  9
$TDCREATE
 40
2456316.461004005
  9
$TDUCREATE
 40
2456316.419337338
  9
$TDUPDATE
 40
2456316.461005451
  9
$TDUUPDATE
 40
2456316.419338785
  9
$TDINDWG
 40
0.0000000116
  9
$TDUSRTIMER
 40
0.0000000116
  9
$USRTIMER
 70
     1
  9
$ANGBASE
 50
0.0
  9
$ANGDIR
 70
     0
  9
$PDMODE
 70
     0
  9
$PDSIZE
 40
-1.0
  9
$PLINEWID
 40
0.0
  9
$SPLFRAME
 70
     0
  9
$SPLINETYPE
 70
     6
  9
$SPLINESEGS
 70
     8
  9
$HANDSEED
  5
286
  9
$SURFTAB1
 70
     6
  9
$SURFTAB2
 70
     6
  9
$SURFTYPE
 70
     6
  9
$SURFU
 70
     6
  9
$SURFV
 70
     6
  9
$UCSBASE
  2

  9
$UCSNAME
  2

  9
$UCSORG
 10
0.0
 20
0.0
 30
0.0
  9
$UCSXDIR
 10
1.0
 20
0.0
 30
0.0
  9
$UCSYDIR
 10
0.0
 20
1.0
 30
0.0
  9
$UCSORTHOREF
  2

  9
$UCSORTHOVIEW
 70
     0
  9
$UCSORGTOP
 10
0.0
 20
0.0
 30
0.0
  9
$UCSORGBOTTOM
 10
0.0
 20
0.0
 30
0.0
  9
$UCSORGLEFT
 10
0.0
 20
0.0
 30
0.0
  9
$UCSORGRIGHT
 10
0.0
 20
0.0
 30
0.0
  9
$UCSORGFRONT
 10
0.0
 20
0.0
 30
0.0
  9
$UCSORGBACK
 10
0.0
 20
0.0
 30
0.0
  9
$PUCSBASE
  2

  9
$PUCSNAME
  2

  9
$PUCSORG
 10
0.0
 20
0.0
 30
0.0
  9
$PUCSXDIR
 10
1.0
 20
0.0
 30
0.0
  9
$PUCSYDIR
 10
0.0
 20
1.0
 30
0.0
  9
$PUCSORTHOREF
  2

  9
$PUCSORTHOVIEW
 70
     0
  9
$PUCSORGTOP
 10
0.0
 20
0.0
 30
0.0
  9
$PUCSORGBOTTOM
 10
0.0
 20
0.0
 30
0.0
  9
$PUCSORGLEFT
 10
0.0
 20
0.0
 30
0.0
  9
$PUCSORGRIGHT
 10
0.0
 20
0.0
 30
0.0
  9
$PUCSORGFRONT
 10
0.0
 20
0.0
 30
0.0
  9
$PUCSORGBACK
 10
0.0
 20
0.0
 30
0.0
  9
$USERI1
 70
     0
  9
$USERI2
 70
     0
  9
$USERI3
 70
     0
  9
$USERI4
 70
     0
  9
$USERI5
 70
     0
  9
$USERR1
 40
0.0
  9
$USERR2
 40
0.0
  9
$USERR3
 40
0.0
  9
$USERR4
 40
0.0
  9
$USERR5
 40
0.0
  9
$WORLDVIEW
 70
     1
  9
$SHADEDGE
 70
     3
  9
$SHADEDIF
 70
    70
  9
$TILEMODE
 70
     1
  9
$MAXACTVP
 70
    64
  9
$PINSBASE
 10
0.0
 20
0.0
 30
0.0
  9
$PLIMCHECK
 70
     0
  9
$PEXTMIN
 10
1.0000000000E+20
 20
1.0000000000E+20
 30
1.0000000000E+20
  9
$PEXTMAX
 10
-1.0000000000E+20
 20
-1.0000000000E+20
 30
-1.0000000000E+20
  9
$PLIMMIN
 10
0.0
 20
0.0
  9
$PLIMMAX
 10
420.0
 20
297.0
  9
$UNITMODE
 70
     0
  9
$VISRETAIN
 70
     1
  9
$PLINEGEN
 70
     0
  9
$PSLTSCALE
 70
     1
  9
$TREEDEPTH
 70
  3020
  9
$CMLSTYLE
  2
Standard
  9
$CMLJUST
 70
     0
  9
$CMLSCALE
 40
20.0
  9
$PROXYGRAPHICS
 70
     1
  9
$MEASUREMENT
 70
     1
  9
$CELWEIGHT
370
    -1
  9
$ENDCAPS
280
     0
  9
$JOINSTYLE
280
     0
  9
$LWDISPLAY
290
     1
  9
$INSUNITS
 70
     4
  9
$HYPERLINKBASE
  1

  9
$STYLESHEET
  1

  9
$XEDIT
290
     1
  9
$CEPSNTYPE
380
     0
  9
$PSTYLEMODE
290
     1
  9
$FINGERPRINTGUID
  2
{2C1849E9-E23A-4BE2-BA80-6EC5B917E85C}
  9
$VERSIONGUID
  2
{FAEB1C32-E019-11D5-929B-00C0DF256EC4}
  9
$EXTNAMES
290
     1
  9
$PSVPSCALE
 40
0.0
  9
$OLESTARTUP
290
     0
  0
ENDSEC
  0
SECTION
  2
CLASSES
  0
CLASS
  1
ACDBDICTIONARYWDFLT
  2
AcDbDictionaryWithDefault
  3
ObjectDBX Classes
 90
        0
280
     0
281
     0
  0
CLASS
  1
VISUALSTYLE
  2
AcDbVisualStyle
  3
ObjectDBX Classes
 90
     4095
280
     0
281
     0
  0
CLASS
  1
MATERIAL
  2
AcDbMaterial
  3
ObjectDBX Classes
 90
     1153
280
     0
281
     0
  0
CLASS
  1
ACDBPLACEHOLDER
  2
AcDbPlaceHolder
  3
ObjectDBX Classes
 90
        0
280
     0
281
     0
  0
CLASS
  1
LAYOUT
  2
AcDbLayout
  3
ObjectDBX Classes
 90
        0
280
     0
281
     0
  0
ENDSEC
  0
SECTION
  2
TABLES
  0
TABLE
  2
VPORT
  5
8
330
0
100
AcDbSymbolTable
 70
     1
  0
VPORT
  5
29
330
8
100
AcDbSymbolTableRecord
100
AcDbViewportTableRecord
  2
*Active
 70
     0
 10
0.0
 20
0.0
 11
1.0
 21
1.0
 12
148.5
 22
105.0
 13
0.0
 23
0.0
 14
10.0
 24
10.0
 15
10.0
 25
10.0
 16
0.0
 26
0.0
 36
1.0
 17
0.0
 27
0.0
 37
0.0
 40
210.0
 41
1.4142857143
 42
50.0
 43
0.0
 44
0.0
 50
0.0
 51
0.0
 71
     0
 72
  2000
 73
     1
 74
     3
 75
     0
 76
     0
 77
     0
 78
     0
281
     0
 65
     1
110
0.0
120
0.0
130
0.0
111
1.0
121
0.0
131
0.0
112
0.0
122
1.0
132
0.0
 79
     0
146
0.0
  0
ENDTAB
  0
TABLE
  2
LTYPE
  5
5
330
0
100
AcDbSymbolTable
 70
     6
  0
LTYPE
  5
14
330
5
100
AcDbSymbolTableRecord
100
AcDbLinetypeTableRecord
  2
ByBlock
 70
     0
  3

 72
    65
 73
     0
 40
0.0
  0
LTYPE
  5
15
330
5
100
AcDbSymbolTableRecord
100
AcDbLinetypeTableRecord
  2
ByLayer
 70
     0
  3

 72
    65
 73
     0
 40
0.0
  0
LTYPE
  5
16
330
5
100
AcDbSymbolTableRecord
100
AcDbLinetypeTableRecord
  2
Continuous
 70
     0
  3
Solid line
 72
    65
 73
     0
 40
0.0
  0
LTYPE
  5
3F
330
5
100
AcDbSymbolTableRecord
100
AcDbLinetypeTableRecord
  2
HIDDEN
 70
     0
  3
Hidden __ __ __ __ __ __ __ __ __ __ __ __ __ __
 72
    65
 73
     2
 40
1.905
 49
1.27
 74
     0
 49
-0.635
 74
     0
  0
LTYPE
  5
40
330
5
100
AcDbSymbolTableRecord
100
AcDbLinetypeTableRecord
  2
PHANTOM
 70
     0
  3
Phantom ______  __  __  ______  __  __  ______
 72
    65
 73
     6
 40
12.7
 49
6.35
 74
     0
 49
-1.27
 74
     0
 49
1.27
 74
     0
 49
-1.27
 74
     0
 49
1.27
 74
     0
 49
-1.27
 74
     0
  0
LTYPE
  5
41
330
5
100
AcDbSymbolTableRecord
100
AcDbLinetypeTableRecord
  2
CENTER
 70
     0
  3
Center ____ _ ____ _ ____ _ ____ _ ____ _ ____
 72
    65
 73
     4
 40
10.16
 49
6.35
 74
     0
 49
-1.27
 74
     0
 49
1.27
 74
     0
 49
-1.27
 74
     0
  0
LTYPE
  5
42
330
5
100
AcDbSymbolTableRecord
100
AcDbLinetypeTableRecord
  2
CENTERX2
 70
     0
  3
Center (2x) ________  __  ________  __  _____
 72
    65
 73
     4
 40
20.32
 49
12.7
 74
     0
 49
-2.54
 74
     0
 49
2.54
 74
     0
 49
-2.54
 74
     0
  0
LTYPE
  5
43
330
5
100
AcDbSymbolTableRecord
100
AcDbLinetypeTableRecord
  2
DOT2
 70
     0
  3
Dot (.5x) ........................................
 72
    65
 73
     2
 40
0.635
 49
0.0
 74
     0
 49
-0.635
 74
     0
  0
ENDTAB
  0
TABLE
  2
LAYER
  5
2
330
0
100
AcDbSymbolTable
 70
     5
  0
LAYER
  5
10
330
2
100
AcDbSymbolTableRecord
100
AcDbLayerTableRecord
  2
0
 70
     0
 62
     7
  6
Continuous
370
    -3
390
F
  0
LAYER
  5
44
330
2
100
AcDbSymbolTableRecord
100
AcDbLayerTableRecord
  2
FORMAT
 70
     0
 62
     7
  6
Continuous
370
    -3
390
F
  0
LAYER
  5
45
330
2
100
AcDbSymbolTableRecord
100
AcDbLayerTableRecord
  2
VERMASSUNG
 70
     0
 62
     7
  6
Continuous
370
    -3
390
F
  0
LAYER
  5
46
330
2
100
AcDbSymbolTableRecord
100
AcDbLayerTableRecord
  2
KOPF_DÜNN
 70
     0
 62
     7
  6
Continuous
370
    -3
390
F
  0
LAYER
  5
47
330
2
100
AcDbSymbolTableRecord
100
AcDbLayerTableRecord
  2
KOPF_DICK
 70
     0
 62
     7
  6
Continuous
370
    15
390
F
  0
ENDTAB
  0
TABLE
  2
STYLE
  5
3
330
0
100
AcDbSymbolTable
 70
     3
  0
STYLE
  5
11
330
3
100
AcDbSymbolTableRecord
100
AcDbTextStyleTableRecord
  2
Standard
 70
     0
 40
0.0
 41
1.0
 50
0.0
 71
     0
 42
2.0
  3
txt
  4

  0
STYLE
  5
48
330
3
100
AcDbSymbolTableRecord
100
AcDbTextStyleTableRecord
  2
SLDTEXTSTYLE0
 70
     0
 40
0.0
 41
0.7
 50
0.0
 71
     0
 42
0.2
  3
TXT
  4

  0
STYLE
  5
4C
330
3
100
AcDbSymbolTableRecord
100
AcDbTextStyleTableRecord
  2
SLDTEXTSTYLE1
 70
     0
 40
0.0
 41
0.647826087
 50
0.0
 71
     0
 42
0.2
  3
TXT
  4

  0
ENDTAB
  0
TABLE
  2
VIEW
  5
6
330
0
100
AcDbSymbolTable
 70
     0
  0
ENDTAB
  0
TABLE
  2
UCS
  5
7
330
0
100
AcDbSymbolTable
 70
     0
  0
ENDTAB
  0
TABLE
  2
APPID
  5
9
330
0
100
AcDbSymbolTable
 70
     1
  0
APPID
  5
12
330
9
100
AcDbSymbolTableRecord
100
AcDbRegAppTableRecord
  2
ACAD
 70
     0
  0
ENDTAB
  0
TABLE
  2
DIMSTYLE
  5
A
330
0
100
AcDbSymbolTable
 70
     4
100
AcDbDimStyleTable
  0
DIMSTYLE
105
27
330
A
100
AcDbSymbolTableRecord
100
AcDbDimStyleTableRecord
  2
ISO-25
 70
     0
 41
2.5
 42
0.625
 43
3.75
 44
1.25
 73
     0
 74
     0
 77
     1
 78
     8
140
2.5
141
2.5
143
0.0393700787
147
0.625
171
     3
172
     1
178
     0
271
     2
272
     2
274
     3
278
    44
283
     0
284
     8
340
11
  0
DIMSTYLE
105
1D9
102
{ACAD_REACTORS
330
1D8
330
1E3
330
1ED
330
201
102
}
330
A
100
AcDbSymbolTableRecord
100
AcDbDimStyleTableRecord
  2
SLDDIMSTYLE0
 70
     0
 41
3.0
 44
0.0
 45
0.000000001
 73
     0
 74
     0
 77
     1
 78
    12
 79
     3
140
2.0
147
0.5
173
     1
178
     0
271
     2
272
     3
276
     2
284
    12
340
48
  0
DIMSTYLE
105
1F8
102
{ACAD_REACTORS
330
1F7
102
}
330
A
100
AcDbSymbolTableRecord
100
AcDbDimStyleTableRecord
  2
SLDDIMSTYLE1
 70
     0
 41
3.0
 44
0.0
 73
     0
 74
     0
 77
     1
 78
    12
 79
     3
140
2.0
147
0.5
173
     1
178
     0
179
     1
272
     3
276
     2
284
    12
340
48
  0
DIMSTYLE
105
26D
102
{ACAD_REACTORS
330
26C
102
}
330
A
100
AcDbSymbolTableRecord
100
AcDbDimStyleTableRecord
  2
SLDDIMSTYLE2
 70
     0
 41
3.0
 44
0.0
 45
0.000000001
 73
     0
 74
     0
 77
     1
 78
    12
 79
     3
140
2.0
147
0.5
173
     1
178
     0
271
     2
272
     3
276
     2
284
    12
340
48
  0
ENDTAB
  0
TABLE
  2
BLOCK_RECORD
  5
1
330
0
100
AcDbSymbolTable
 70
     8
  0
BLOCK_RECORD
  5
1F
330
1
100
AcDbSymbolTableRecord
100
AcDbBlockTableRecord
  2
*Model_Space
340
22
  0
BLOCK_RECORD
  5
1B
330
1
100
AcDbSymbolTableRecord
100
AcDbBlockTableRecord
  2
*Paper_Space
340
1E
  0
BLOCK_RECORD
  5
23
330
1
100
AcDbSymbolTableRecord
100
AcDbBlockTableRecord
  2
*Paper_Space0
340
26
  0
BLOCK_RECORD
  5
1DA
330
1
100
AcDbSymbolTableRecord
100
AcDbBlockTableRecord
  2
_D
340
0
  0
BLOCK_RECORD
  5
1E4
330
1
100
AcDbSymbolTableRecord
100
AcDbBlockTableRecord
  2
_D_1
340
0
  0
BLOCK_RECORD
  5
1EE
330
1
100
AcDbSymbolTableRecord
100
AcDbBlockTableRecord
  2
_D_2
340
0
  0
BLOCK_RECORD
  5
1F9
330
1
100
AcDbSymbolTableRecord
100
AcDbBlockTableRecord
  2
_D_3
340
0
  0
BLOCK_RECORD
  5
202
330
1
100
AcDbSymbolTableRecord
100
AcDbBlockTableRecord
  2
_D_4
340
0
  0
BLOCK_RECORD
  5
26E
330
1
100
AcDbSymbolTableRecord
100
AcDbBlockTableRecord
  2
_D_5
340
0
  0
BLOCK_RECORD
  5
279
330
1
100
AcDbSymbolTableRecord
100
AcDbBlockTableRecord
  2
SW_CENTERMARKSYMBOL_0
340
0
102
{BLKREFS
331
284
102
}
  0
ENDTAB
  0
ENDSEC
  0
SECTION
  2
BLOCKS
  0
BLOCK
  5
20
330
1F
100
AcDbEntity
  8
0
100
AcDbBlockBegin
  2
*Model_Space
 70
     0
 10
0.0
 20
0.0
 30
0.0
  3
*Model_Space
  1

  0
ENDBLK
  5
21
330
1F
100
AcDbEntity
  8
0
100
AcDbBlockEnd
  0
BLOCK
  5
1C
330
1B
100
AcDbEntity
 67
     1
  8
0
100
AcDbBlockBegin
  2
*Paper_Space
 70
     0
 10
0.0
 20
0.0
 30
0.0
  3
*Paper_Space
  1

  0
ENDBLK
  5
1D
330
1B
100
AcDbEntity
 67
     1
  8
0
100
AcDbBlockEnd
  0
BLOCK
  5
24
330
23
100
AcDbEntity
  8
0
100
AcDbBlockBegin
  2
*Paper_Space0
 70
     0
 10
0.0
 20
0.0
 30
0.0
  3
*Paper_Space0
  1

  0
ENDBLK
  5
25
330
23
100
AcDbEntity
  8
0
100
AcDbBlockEnd
  0
BLOCK
  5
1DB
330
1DA
100
AcDbEntity
  8
0
100
AcDbBlockBegin
  2
_D
 70
     0
 10
0.0
 20
0.0
 30
0.0
  3
_D
  1

  0
SOLID
  5
1DD
330
1DA
100
AcDbEntity
  8
VERMASSUNG
100
AcDbTrace
 10
241.1367002371
 20
131.7409231381
 30
0.0
 11
240.6867002371
 21
128.7409231381
 31
0.0
 12
241.5867002371
 22
128.7409231381
 32
0.0
 13
241.5867002371
 23
128.7409231381
 33
0.0
  0
SOLID
  5
1DE
330
1DA
100
AcDbEntity
  8
VERMASSUNG
100
AcDbTrace
 10
241.1367002371
 20
104.7409231381
 30
0.0
 11
241.5867002371
 21
107.7409231381
 31
0.0
 12
240.6867002371
 22
107.7409231381
 32
0.0
 13
240.6867002371
 23
107.7409231381
 33
0.0
  0
LINE
  5
1DF
330
1DA
100
AcDbEntity
  8
VERMASSUNG
100
AcDbLine
 10
231.6923255683
 20
131.7409231381
 30
0.0
 11
242.1367002371
 21
131.7409231381
 31
0.0
  0
LINE
  5
1E0
330
1DA
100
AcDbEntity
  8
VERMASSUNG
100
AcDbLine
 10
231.6923255683
 20
104.7409231381
 30
0.0
 11
242.1367002371
 21
104.7409231381
 31
0.0
  0
LINE
  5
1E1
330
1DA
100
AcDbEntity
  8
VERMASSUNG
100
AcDbLine
 10
241.1367002371
 20
131.7409231381
 30
0.0
 11
241.1367002371
 21
104.7409231381
 31
0.0
  0
MTEXT
  5
1E2
330
1DA
100
AcDbEntity
  8
VERMASSUNG
100
AcDbMText
 10
238.558564874
 20
115.940923087
 30
0.1
 40
2.0
 41
0.0
 71
     1
 72
     1
  1
27
  7
SLDTEXTSTYLE0
 11
-7.044195017643634E-15
 21
1.0
 31
0.0
 73
     1
 44
1.0
  0
ENDBLK
  5
1DC
330
1DA
100
AcDbEntity
  8
0
100
AcDbBlockEnd
  0
BLOCK
  5
1E5
330
1E4
100
AcDbEntity
  8
0
100
AcDbBlockBegin
  2
_D_1
 70
     0
 10
0.0
 20
0.0
 30
0.0
  3
_D_1
  1

  0
SOLID
  5
1E7
330
1E4
100
AcDbEntity
  8
VERMASSUNG
100
AcDbTrace
 10
181.6923255683
 20
141.8909433227
 30
0.0
 11
184.6923255683
 21
141.4409433227
 31
0.0
 12
184.6923255683
 22
142.3409433227
 32
0.0
 13
184.6923255683
 23
142.3409433227
 33
0.0
  0
SOLID
  5
1E8
330
1E4
100
AcDbEntity
  8
VERMASSUNG
100
AcDbTrace
 10
231.6923255683
 20
141.8909433227
 30
0.0
 11
228.6923255683
 21
142.3409433227
 31
0.0
 12
228.6923255683
 22
141.4409433227
 32
0.0
 13
228.6923255683
 23
141.4409433227
 33
0.0
  0
LINE
  5
1E9
330
1E4
100
AcDbEntity
  8
VERMASSUNG
100
AcDbLine
 10
181.6923255683
 20
124.4409231381
 30
0.0
 11
181.6923255683
 21
142.8909433227
 31
0.0
  0
LINE
  5
1EA
330
1E4
100
AcDbEntity
  8
VERMASSUNG
100
AcDbLine
 10
231.6923255683
 20
131.7409231381
 30
0.0
 11
231.6923255683
 21
142.8909433227
 31
0.0
  0
LINE
  5
1EB
330
1E4
100
AcDbEntity
  8
VERMASSUNG
100
AcDbLine
 10
181.6923255683
 20
141.8909433227
 30
0.0
 11
231.6923255683
 21
141.8909433227
 31
0.0
  0
MTEXT
  5
1EC
330
1E4
100
AcDbEntity
  8
VERMASSUNG
100
AcDbMText
 10
204.3923255173
 20
144.4690786859
 30
0.1
 40
2.0
 41
0.0
 71
     1
 72
     1
  1
50
  7
SLDTEXTSTYLE0
 73
     1
 44
1.0
  0
ENDBLK
  5
1E6
330
1E4
100
AcDbEntity
  8
0
100
AcDbBlockEnd
  0
BLOCK
  5
1EF
330
1EE
100
AcDbEntity
  8
0
100
AcDbBlockBegin
  2
_D_2
 70
     0
 10
0.0
 20
0.0
 30
0.0
  3
_D_2
  1

  0
SOLID
  5
1F1
330
1EE
100
AcDbEntity
  8
VERMASSUNG
100
AcDbTrace
 10
157.6923255683
 20
149.6216792157
 30
0.0
 11
160.6923255683
 21
149.1716792157
 31
0.0
 12
160.6923255683
 22
150.0716792157
 32
0.0
 13
160.6923255683
 23
150.0716792157
 33
0.0
  0
SOLID
  5
1F2
330
1EE
100
AcDbEntity
  8
VERMASSUNG
100
AcDbTrace
 10
231.6923255683
 20
149.6216792157
 30
0.0
 11
228.6923255683
 21
150.0716792157
 31
0.0
 12
228.6923255683
 22
149.1716792157
 32
0.0
 13
228.6923255683
 23
149.1716792157
 33
0.0
  0
LINE
  5
1F3
330
1EE
100
AcDbEntity
  8
VERMASSUNG
100
AcDbLine
 10
157.6923255683
 20
117.3724281201
 30
0.0
 11
157.6923255683
 21
150.6216792157
 31
0.0
  0
LINE
  5
1F4
330
1EE
100
AcDbEntity
  8
VERMASSUNG
100
AcDbLine
 10
231.6923255683
 20
131.7409231381
 30
0.0
 11
231.6923255683
 21
150.6216792157
 31
0.0
  0
LINE
  5
1F5
330
1EE
100
AcDbEntity
  8
VERMASSUNG
100
AcDbLine
 10
157.6923255683
 20
149.6216792157
 30
0.0
 11
231.6923255683
 21
149.6216792157
 31
0.0
  0
MTEXT
  5
1F6
330
1EE
100
AcDbEntity
  8
VERMASSUNG
100
AcDbMText
 10
192.2923254543
 20
152.1998145788
 30
0.1
 40
2.0
 41
0.0
 71
     1
 72
     1
  1
74
  7
SLDTEXTSTYLE0
 73
     1
 44
1.0
  0
ENDBLK
  5
1F0
330
1EE
100
AcDbEntity
  8
0
100
AcDbBlockEnd
  0
BLOCK
  5
1FA
330
1F9
100
AcDbEntity
  8
0
100
AcDbBlockBegin
  2
_D_3
 70
     0
 10
0.0
 20
0.0
 30
0.0
  3
_D_3
  1

  0
ARC
  5
1FC
330
1F9
100
AcDbEntity
  8
VERMASSUNG
100
AcDbCircle
 10
231.6923255683
 20
131.9991006378
 30
0.0
 40
6.96552851545819
100
AcDbArc
 50
90.0
 51
207.4804697925
  0
SOLID
  5
1FD
330
1F9
100
AcDbEntity
  8
VERMASSUNG
100
AcDbTrace
 10
231.6923255683
 20
138.9646291532
 30
0.0
 11
228.6632593451
 21
138.7995297428
 31
0.0
 12
228.8450078079
 22
137.9180721452
 32
0.0
 13
228.8450078079
 23
137.9180721452
 33
0.0
  0
SOLID
  5
1FE
330
1F9
100
AcDbEntity
  8
VERMASSUNG
100
AcDbTrace
 10
225.5127303387
 20
128.7848837351
 30
0.0
 11
225.1273183527
 21
131.79386323
 31
0.0
 12
224.2614500797
 22
131.5483593933
 32
0.0
 13
224.2614500797
 23
131.5483593933
 33
0.0
  0
LINE
  5
1FF
330
1F9
100
AcDbEntity
  8
VERMASSUNG
100
AcDbLine
 10
231.6923255683
 20
137.4307718193
 30
0.0
 11
231.6923255683
 21
139.9646291532
 31
0.0
  0
MTEXT
  5
200
330
1F9
100
AcDbEntity
  8
VERMASSUNG
100
AcDbMText
 10
221.3547184242
 20
133.3612304054
 30
0.1
 40
2.0
 41
0.0
 71
     1
 72
     1
  1
117.5°
  7
SLDTEXTSTYLE0
 11
0.5189189560017106
 21
0.8548234420639708
 31
0.0
 73
     1
 44
1.0
  0
ENDBLK
  5
1FB
330
1F9
100
AcDbEntity
  8
0
100
AcDbBlockEnd
  0
BLOCK
  5
203
330
202
100
AcDbEntity
  8
0
100
AcDbBlockBegin
  2
_D_4
 70
     0
 10
0.0
 20
0.0
 30
0.0
  3
_D_4
  1

  0
SOLID
  5
205
330
202
100
AcDbEntity
  8
VERMASSUNG
100
AcDbTrace
 10
152.1592487719
 20
124.7409231381
 30
0.0
 11
151.7092487719
 21
121.7409231381
 31
0.0
 12
152.6092487719
 22
121.7409231381
 32
0.0
 13
152.6092487719
 23
121.7409231381
 33
0.0
  0
SOLID
  5
206
330
202
100
AcDbEntity
  8
VERMASSUNG
100
AcDbTrace
 10
152.1592487719
 20
84.7409231381
 30
0.0
 11
152.6092487719
 21
87.7409231381
 31
0.0
 12
151.7092487719
 22
87.7409231381
 32
0.0
 13
151.7092487719
 23
87.7409231381
 33
0.0
  0
LINE
  5
207
330
202
100
AcDbEntity
  8
VERMASSUNG
100
AcDbLine
 10
181.9923255683
 20
124.7409231381
 30
0.0
 11
151.1592487719
 21
124.7409231381
 31
0.0
  0
LINE
  5
208
330
202
100
AcDbEntity
  8
VERMASSUNG
100
AcDbLine
 10
181.9923255683
 20
84.7409231381
 30
0.0
 11
151.1592487719
 21
84.7409231381
 31
0.0
  0
LINE
  5
209
330
202
100
AcDbEntity
  8
VERMASSUNG
100
AcDbLine
 10
152.1592487719
 20
124.7409231381
 30
0.0
 11
152.1592487719
 21
84.7409231381
 31
0.0
  0
MTEXT
  5
20A
330
202
100
AcDbEntity
  8
VERMASSUNG
100
AcDbMText
 10
149.3811132828
 20
97.635922821
 30
0.35
 40
2.0
 41
0.0
 71
     1
 72
     1
  1
PSC
  7
SLDTEXTSTYLE0
 11
-7.044195017643634E-15
 21
1.0
 31
0.0
 73
     1
 44
1.0
  0
MTEXT
  5
20B
330
202
100
AcDbEntity
  8
VERMASSUNG
100
AcDbMText
 10
149.5811132923
 20
103.4359232129
 30
0.35
 40
2.0
 41
0.0
 71
     1
 72
     1
  1
%%c
  7
SLDTEXTSTYLE0
 11
-7.044195017643634E-15
 21
1.0
 31
0.0
 73
     1
 44
1.0
  0
MTEXT
  5
20C
330
202
100
AcDbEntity
  8
VERMASSUNG
100
AcDbMText
 10
149.3811132828
 20
107.0459232272
 30
0.35
 40
2.0
 41
0.0
 71
     1
 72
     1
  1
40
  7
SLDTEXTSTYLE0
 11
-7.044195017643634E-15
 21
1.0
 31
0.0
 73
     1
 44
1.0
  0
ENDBLK
  5
204
330
202
100
AcDbEntity
  8
0
100
AcDbBlockEnd
  0
BLOCK
  5
26F
330
26E
100
AcDbEntity
  8
0
100
AcDbBlockBegin
  2
_D_5
 70
     0
 10
0.0
 20
0.0
 30
0.0
  3
_D_5
  1

  0
SOLID
  5
271
330
26E
100
AcDbEntity
  8
VERMASSUNG
100
AcDbTrace
 10
57.25129785
 20
81.4791230942
 30
0.0
 11
57.70129785
 21
84.4791230942
 31
0.0
 12
56.80129785
 22
84.4791230942
 32
0.0
 13
56.80129785
 23
84.4791230942
 33
0.0
  0
SOLID
  5
272
330
26E
100
AcDbEntity
  8
VERMASSUNG
100
AcDbTrace
 10
57.25129785
 20
131.4791230942
 30
0.0
 11
56.80129785
 21
128.4791230942
 31
0.0
 12
57.70129785
 22
128.4791230942
 32
0.0
 13
57.70129785
 23
128.4791230942
 33
0.0
  0
LINE
  5
273
330
26E
100
AcDbEntity
  8
VERMASSUNG
100
AcDbLine
 10
90.8812025198
 20
81.4791230942
 30
0.0
 11
56.25129785
 21
81.4791230942
 31
0.0
  0
LINE
  5
274
330
26E
100
AcDbEntity
  8
VERMASSUNG
100
AcDbLine
 10
90.8812025198
 20
131.4791230942
 30
0.0
 11
56.25129785
 21
131.4791230942
 31
0.0
  0
LINE
  5
275
330
26E
100
AcDbEntity
  8
VERMASSUNG
100
AcDbLine
 10
57.25129785
 20
81.4791230942
 30
0.0
 11
57.25129785
 21
131.4791230942
 31
0.0
  0
MTEXT
  5
276
330
26E
100
AcDbEntity
  8
VERMASSUNG
100
AcDbMText
 10
54.6731623705
 20
99.5741233686
 30
0.1
 40
2.0
 41
0.0
 71
     1
 72
     1
  1
%%c
  7
SLDTEXTSTYLE0
 11
6.123233995736766E-17
 21
1.0
 31
0.0
 73
     1
 44
1.0
  0
MTEXT
  5
277
330
26E
100
AcDbEntity
  8
VERMASSUNG
100
AcDbMText
 10
54.473162361
 20
103.184123383
 30
0.1
 40
2.0
 41
0.0
 71
     1
 72
     1
  1
50
  7
SLDTEXTSTYLE0
 11
6.123233995736766E-17
 21
1.0
 31
0.0
 73
     1
 44
1.0
  0
MTEXT
  5
278
330
26E
100
AcDbEntity
  8
VERMASSUNG
100
AcDbMText
 10
54.473162361
 20
108.9716239507
 30
0.1
 40
2.0
 41
0.0
 71
     1
 72
     1
  1
min.
  7
SLDTEXTSTYLE0
 11
6.123233995736766E-17
 21
1.0
 31
0.0
 73
     1
 44
1.0
  0
ENDBLK
  5
270
330
26E
100
AcDbEntity
  8
0
100
AcDbBlockEnd
  0
BLOCK
  5
27A
330
279
100
AcDbEntity
  8
0
100
AcDbBlockBegin
  2
SW_CENTERMARKSYMBOL_0
 70
     0
 10
0.0
 20
0.0
 30
0.0
  3
SW_CENTERMARKSYMBOL_0
  1

  0
LINE
  5
27C
330
279
100
AcDbEntity
  8
VERMASSUNG
 62
     0
100
AcDbLine
 10
0.0
 20
0.0
 30
0.0
 11
0.0
 21
2.5
 31
0.0
  0
LINE
  5
27D
330
279
100
AcDbEntity
  8
VERMASSUNG
 62
     0
100
AcDbLine
 10
0.0
 20
0.0
 30
0.0
 11
-2.5
 21
0.0
 31
0.0
  0
LINE
  5
27E
330
279
100
AcDbEntity
  8
VERMASSUNG
 62
     0
100
AcDbLine
 10
0.0
 20
0.0
 30
0.0
 11
0.0
 21
-2.5
 31
0.0
  0
LINE
  5
27F
330
279
100
AcDbEntity
  8
VERMASSUNG
 62
     0
100
AcDbLine
 10
0.0
 20
0.0
 30
0.0
 11
2.5
 21
0.0
 31
0.0
  0
LINE
  5
280
330
279
100
AcDbEntity
  8
VERMASSUNG
 62
     0
100
AcDbLine
 10
0.0
 20
5.0
 30
0.0
 11
0.0
 21
30.3512070626
 31
0.0
  0
LINE
  5
281
330
279
100
AcDbEntity
  8
VERMASSUNG
 62
     0
100
AcDbLine
 10
-5.0
 20
0.0
 30
0.0
 11
-22.5
 21
0.0
 31
0.0
  0
LINE
  5
282
330
279
100
AcDbEntity
  8
VERMASSUNG
 62
     0
100
AcDbLine
 10
0.0
 20
-5.0
 30
0.0
 11
0.0
 21
-22.5
 31
0.0
  0
LINE
  5
283
330
279
100
AcDbEntity
  8
VERMASSUNG
 62
     0
100
AcDbLine
 10
5.0
 20
0.0
 30
0.0
 11
22.5
 21
0.0
 31
0.0
  0
ENDBLK
  5
27B
330
279
100
AcDbEntity
  8
0
100
AcDbBlockEnd
  0
ENDSEC
  0
SECTION
  2
ENTITIES
  0
MTEXT
  5
49
330
1F
100
AcDbEntity
  8
KOPF_DÜNN
100
AcDbMText
 10
13.8892156294
 20
23.8442973028
 30
0.0
 40
3.0
 41
0.0
 71
     1
 72
     1
  1
PS4.KVB.RPA.050
  7
SLDTEXTSTYLE0
 73
     1
 44
1.0
  0
MTEXT
  5
4A
330
1F
100
AcDbEntity
  8
VERMASSUNG
100
AcDbMText
 10
13.9329988022
 20
28.8834360957
 30
0.0
 40
3.0
 41
0.0
 71
     1
 72
     1
  1
Klemmhalter rechts_Turning tool right 117.5° /35°
  7
SLDTEXTSTYLE0
 73
     1
 44
1.0
  0
MTEXT
  5
4B
330
1F
100
AcDbEntity
  8
VERMASSUNG
100
AcDbMText
 10
98.8601118557
 20
13.8365368179
 30
0.0
 40
2.0
 41
0.0
 71
     1
 72
     1
  1
Datum: 23.01.2013
  7
SLDTEXTSTYLE0
 73
     1
 44
1.0
  0
MTEXT
  5
4D
330
1F
100
AcDbEntity
  8
VERMASSUNG
100
AcDbMText
 10
13.933048693
 20
18.0482802738
 30
0.0
 40
2.0
 41
0.0
 71
     1
 72
     1
  1
PSC ø40  / VC.. 16 04..
  7
SLDTEXTSTYLE1
 73
     1
 44
1.0
  0
MTEXT
  5
4E
330
1F
100
AcDbEntity
  8
VERMASSUNG
100
AcDbMText
 10
13.9808475933
 20
13.9090973692
 30
0.0
 40
2.0
 41
0.0
 71
     1
 72
     1
  1
Gewicht: 345g
  7
SLDTEXTSTYLE0
 73
     1
 44
1.0
  0
LINE
  5
4F
330
1F
100
AcDbEntity
  8
0
  6
Continuous
 62
     7
370
    15
100
AcDbLine
 10
181.9923255826
 20
84.7409235851
 30
0.0
 11
203.9249977679
 21
84.7409235851
 31
0.0
  0
LINE
  5
50
330
1F
100
AcDbEntity
  8
0
  6
Continuous
 62
     7
370
    15
100
AcDbLine
 10
203.9249977679
 20
124.740922691
 30
0.0
 11
181.9923255826
 21
124.740922691
 31
0.0
  0
ARC
  5
51
330
1F
100
AcDbEntity
  8
0
  6
Continuous
 62
     7
370
    15
100
AcDbCircle
 10
181.9923255683
 20
85.0409231381
 30
0.0
 40
0.3000000000000114
100
AcDbArc
 50
180.0
 51
270.0
  0
ARC
  5
52
330
1F
100
AcDbEntity
  8
0
  6
Continuous
 62
     7
370
    15
100
AcDbCircle
 10
181.9923255683
 20
124.4409231381
 30
0.0
 40
0.3000000000000114
100
AcDbArc
 50
90.0
 51
180.0
  0
LWPOLYLINE
  5
53
330
1F
100
AcDbEntity
  8
0
  6
Continuous
 62
     7
370
    15
100
AcDbPolyline
 90
        3
 70
   128
 43
0.0
 10
181.4923255734
 20
90.6511031629
 10
181.6177805086
 20
90.5828008966
 10
181.6923255683
 20
90.5300628931
  0
LWPOLYLINE
  5
54
330
1F
100
AcDbEntity
  8
0
  6
Continuous
 62
     7
370
    15
100
AcDbPolyline
 90
        3
 70
   128
 43
0.0
 10
181.6923255683
 20
118.951783383
 10
181.6177805086
 20
118.8990453796
 10
181.4923255734
 20
118.8307431133
  0
ARC
  5
55
330
1F
100
AcDbEntity
  8
0
  6
Continuous
 62
     7
370
    15
100
AcDbCircle
 10
203.9249985803
 20
125.7409231381
 30
0.0
 40
1.0
100
AcDbArc
 50
270.0
 51
345.0
  0
ARC
  5
56
330
1F
100
AcDbEntity
  8
0
  6
Continuous
 62
     7
370
    15
100
AcDbCircle
 10
203.9249985803
 20
83.7409231381
 30
0.0
 40
1.000000000000001
100
AcDbArc
 50
30.0
 51
90.0
  0
LINE
  5
57
330
1F
100
AcDbEntity
  8
0
  6
Continuous
 62
     7
370
    15
100
AcDbLine
 10
204.7910234542
 20
84.2409225718
 30
0.0
 11
205.9649723233
 21
84.2409225718
 31
0.0
  0
LINE
  5
58
330
1F
100
AcDbEntity
  8
0
  6
Continuous
 62
     7
370
    15
100
AcDbLine
 10
204.914855829
 20
125.5714146958
 30
0.0
 11
204.8909245641
 21
125.4821045862
 31
0.0
  0
LINE
  5
59
330
1F
100
AcDbEntity
  8
0
  6
Continuous
 62
     7
370
    15
100
AcDbLine
 10
219.1427136422
 20
122.8798347132
 30
0.0
 11
219.0921689035
 21
122.8294147716
 31
0.0
  0
LINE
  5
5A
330
1F
100
AcDbEntity
  8
0
  6
Continuous
 62
     7
370
    15
100
AcDbLine
 10
222.7999503375
 20
119.1125799508
 30
0.0
 11
222.850491351
 21
119.162998961
 31
0.0
  0
LINE
  5
5B
330
1F
100
AcDbEntity
  8
0
  6
Continuous
 62
     7
370
    15
100
AcDbLine
 10
219.833579904
 20
121.5104608403
 30
0.0
 11
219.9257286848
 21
121.602384241
 31
0.0
  0
LINE
  5
5C
330
1F
100
AcDbEntity
  8
0
  6
Continuous
 62
     7
370
    15
100
AcDbLine
 10
222.0993573428
 20
120.470065491
 30
0.0
 11
222.0071750344
 21
120.3781067
 31
0.0
  0
ELLIPSE
  5
5D
330
1F
100
AcDbEntity
  8
0
  6
Continuous
 62
     7
370
    15
100
AcDbEllipse
 10
204.6410379891
 20
104.7409231381
 30
0.0
 11
-0.4025701892336997
 21
19.99971074150081
 31
0.0
210
0.0
220
0.0
230
1.0
 40
0.2671959542
 41
0.1308550886409839
 42
2.860354660347733
  0
ELLIPSE
  5
5E
330
1F
100
AcDbEntity
  8
0
  6
Continuous
 62
     7
370
    15
100
AcDbEllipse
 10
201.6085830323
 20
113.5373898153
 30
0.0
 11
0.1533054465530483
 21
2.542222654825252
 31
0.0
210
0.0
220
0.0
230
1.0
 40
0.2386235143
 41
0.0
 42
6.283185307179586
  0
SPLINE
  5
5F
330
1F
100
AcDbEntity
  8
0
  6
Continuous
 62
     7
370
    15
100
AcDbSpline
210
0.0
220
0.0
230
1.0
 70
     8
 71
     3
 72
    12
 73
     8
 74
     0
 42
0.00000001
 43
0.00000001
 12
1.0
 22
0.0
 32
0.0
 13
1.0
 23
0.0
 33
0.0
 40
0.0
 40
0.0
 40
0.0
 40
0.0
 40
0.2500000000000007
 40
0.2500000000000007
 40
0.5000000000000013
 40
0.5000000000000013
 40
1.0
 40
1.0
 40
1.0
 40
1.0
 10
188.6242275703199
 20
110.5701361337236
 30
0.0
 10
188.5867156842753
 20
110.5701361337236
 30
0.0
 10
188.5514283365706
 20
110.5849409480104
 30
0.0
 10
188.4924984883321
 20
110.6285328211362
 30
0.0
 10
188.4689727618631
 20
110.6560462472222
 30
0.0
 10
188.408713974095
 20
110.7451779793358
 30
0.0
 10
188.3831192118056
 20
110.8115638299536
 30
0.0
 10
188.3644199491846
 20
110.879168265131
 30
0.0
  0
LINE
  5
60
330
1F
100
AcDbEntity
  8
0
  6
Continuous
 62
     7
370
    15
100
AcDbLine
 10
190.7604234875
 20
110.5701363252
 30
0.0
 11
188.6242274777
 21
110.5701363252
 31
0.0
  0
SPLINE
  5
61
330
1F
100
AcDbEntity
  8
0
  6
Continuous
 62
     7
370
    15
100
AcDbSpline
210
0.0
220
0.0
230
1.0
 70
     8
 71
     3
 72
    12
 73
     8
 74
     0
 42
0.00000001
 43
0.00000001
 12
1.0
 22
0.0
 32
0.0
 13
1.0
 23
0.0
 33
0.0
 40
0.0
 40
0.0
 40
0.0
 40
0.0
 40
0.5000000000000061
 40
0.5000000000000061
 40
0.750000000000003
 40
0.750000000000003
 40
1.0
 40
1.0
 40
1.0
 40
1.0
 10
191.0202311874569
 20
110.879168265131
 30
0.0
 10
191.0015379543265
 20
110.8115856286906
 30
0.0
 10
190.9758826569147
 20
110.7451030592132
 30
0.0
 10
190.9157220342283
 20
110.6561079763157
 30
0.0
 10
190.8916497224739
 20
110.6281060793165
 30
0.0
 10
190.8332682021233
 20
110.5850296786513
 30
0.0
 10
190.7977993744703
 20
110.5701361337236
 30
0.0
 10
190.7604235663215
 20
110.5701361337236
 30
0.0
  0
ELLIPSE
  5
62
330
1F
100
AcDbEntity
  8
0
  6
Continuous
 62
     7
370
    15
100
AcDbEllipse
 10
180.7433963959
 20
104.7409231381
 30
0.0
 11
9.367417879781694
 21
19.74174915274993
 31
0.0
210
0.0
220
0.0
230
1.0
 40
0.3419987131
 41
5.185211263708394
 42
6.132113578252555
  0
SPLINE
  5
63
330
1F
100
AcDbEntity
  8
0
  6
Continuous
 62
     7
370
    15
100
AcDbSpline
210
0.0
220
0.0
230
1.0
 70
     8
 71
     3
 72
    12
 73
     8
 74
     0
 42
0.00000001
 43
0.00000001
 12
1.0
 22
0.0
 32
0.0
 13
1.0
 23
0.0
 33
0.0
 40
0.0
 40
0.0
 40
0.0
 40
0.0
 40
0.249999999999997
 40
0.249999999999997
 40
0.499999999999994
 40
0.499999999999994
 40
1.0
 40
1.0
 40
1.0
 40
1.0
 10
190.7604235663215
 20
123.8725795183054
 30
0.0
 10
190.7979354523662
 20
123.8725795183054
 30
0.0
 10
190.833222800071
 20
123.8680759740429
 30
0.0
 10
190.8921526483093
 20
123.8547027745896
 30
0.0
 10
190.9156783747784
 20
123.8462178720184
 30
0.0
 10
190.9759371625465
 20
123.8184700681838
 30
0.0
 10
191.0015319248358
 20
123.7974802044435
 30
0.0
 10
191.0202311874569
 20
123.775679421254
 30
0.0
  0
LINE
  5
64
330
1F
100
AcDbEntity
  8
0
  6
Continuous
 62
     7
370
    15
100
AcDbLine
 10
188.6242274777
 20
123.8725798742
 30
0.0
 11
190.7604234875
 21
123.8725798742
 31
0.0
  0
SPLINE
  5
65
330
1F
100
AcDbEntity
  8
0
  6
Continuous
 62
     7
370
    15
100
AcDbSpline
210
0.0
220
0.0
230
1.0
 70
     8
 71
     3
 72
    12
 73
     8
 74
     0
 42
0.00000001
 43
0.00000001
 12
1.0
 22
0.0
 32
0.0
 13
1.0
 23
0.0
 33
0.0
 40
0.0
 40
0.0
 40
0.0
 40
0.0
 40
0.500000000000004
 40
0.500000000000004
 40
0.750000000000002
 40
0.750000000000002
 40
1.0
 40
1.0
 40
1.0
 40
1.0
 10
188.3644199491846
 20
123.775679421254
 30
0.0
 10
188.383113182315
 20
123.7974731748819
 30
0.0
 10
188.4087684797268
 20
123.8184933365915
 30
0.0
 10
188.4689291024133
 20
123.8461986825553
 30
0.0
 10
188.4930014141676
 20
123.8548338987486
 30
0.0
 10
188.5513829345182
 20
123.8680485439752
 30
0.0
 10
188.5868517621712
 20
123.8725795183054
 30
0.0
 10
188.6242275703199
 20
123.8725795183054
 30
0.0
  0
ELLIPSE
  5
66
330
1F
100
AcDbEntity
  8
0
  6
Continuous
 62
     7
370
    15
100
AcDbEllipse
 10
198.6412547408
 20
104.7409231381
 30
0.0
 11
-9.367417879781556
 21
19.74174915274995
 31
0.0
210
0.0
220
0.0
230
1.0
 40
0.3419987131
 41
0.1510717289270739
 42
1.097974043471208
  0
SPLINE
  5
67
330
1F
100
AcDbEntity
  8
0
  6
Continuous
 62
     7
370
    15
100
AcDbSpline
210
0.0
220
0.0
230
1.0
 70
     8
 71
     3
 72
    12
 73
     8
 74
     0
 42
0.00000001
 43
0.00000001
 12
1.0
 22
0.0
 32
0.0
 13
1.0
 23
0.0
 33
0.0
 40
0.0
 40
0.0
 40
0.0
 40
0.0
 40
0.2500000000000027
 40
0.2500000000000027
 40
0.5000000000000053
 40
0.5000000000000053
 40
1.0
 40
1.0
 40
1.0
 40
1.0
 10
188.6242275703199
 20
85.6092667578387
 30
0.0
 10
188.5867267474422
 20
85.6092667578387
 30
0.0
 10
188.5514483434062
 20
85.61376772570183
 30
0.0
 10
188.4925306233538
 20
85.62713424691914
 30
0.0
 10
188.4690072419554
 20
85.63561550716399
 30
0.0
 10
188.4087516574895
 20
85.6633529028419
 30
0.0
 10
188.3832300050784
 20
85.68423690189495
 30
0.0
 10
188.3644199491846
 20
85.7061668548901
 30
0.0
  0
LINE
  5
68
330
1F
100
AcDbEntity
  8
0
  6
Continuous
 62
     7
370
    15
100
AcDbLine
 10
190.7604234875
 20
85.6092664019
 30
0.0
 11
188.6242274777
 21
85.6092664019
 31
0.0
  0
SPLINE
  5
69
330
1F
100
AcDbEntity
  8
0
  6
Continuous
 62
     7
370
    15
100
AcDbSpline
210
0.0
220
0.0
230
1.0
 70
     8
 71
     3
 72
    12
 73
     8
 74
     0
 42
0.00000001
 43
0.00000001
 12
1.0
 22
0.0
 32
0.0
 13
1.0
 23
0.0
 33
0.0
 40
0.0
 40
0.0
 40
0.0
 40
0.0
 40
0.5000000000000023
 40
0.5000000000000023
 40
0.7500000000000011
 40
0.7500000000000011
 40
1.0
 40
1.0
 40
1.0
 40
1.0
 10
191.0202311874569
 20
85.7061668548901
 30
0.0
 10
191.0014279546052
 20
85.68424485662904
 30
0.0
 10
190.975891295586
 20
85.6633510486191
 30
0.0
 10
190.9156651216375
 20
85.63562432250136
 30
0.0
 10
190.8917390442376
 20
85.6270511891259
 30
0.0
 10
190.8336781240563
 20
85.61387208331836
 30
0.0
 10
190.7978764254303
 20
85.60926675783868
 30
0.0
 10
190.7604235663215
 20
85.60926675783867
 30
0.0
  0
ELLIPSE
  5
6A
330
1F
100
AcDbEntity
  8
0
  6
Continuous
 62
     7
370
    15
100
AcDbEllipse
 10
180.7433963959
 20
104.7409231381
 30
0.0
 11
-9.367417879781783
 21
19.74174915274995
 31
0.0
210
0.0
220
0.0
230
1.0
 40
0.3419987131
 41
3.292664382516893
 42
4.239566697060998
  0
SPLINE
  5
6B
330
1F
100
AcDbEntity
  8
0
  6
Continuous
 62
     7
370
    15
100
AcDbSpline
210
0.0
220
0.0
230
1.0
 70
     8
 71
     3
 72
    12
 73
     8
 74
     0
 42
0.00000001
 43
0.00000001
 12
1.0
 22
0.0
 32
0.0
 13
1.0
 23
0.0
 33
0.0
 40
0.0
 40
0.0
 40
0.0
 40
0.0
 40
0.2500000000000012
 40
0.2500000000000012
 40
0.5000000000000023
 40
0.5000000000000023
 40
1.0
 40
1.0
 40
1.0
 40
1.0
 10
190.7604235663215
 20
98.91171014242032
 30
0.0
 10
190.7979243891994
 20
98.91171014242032
 30
0.0
 10
190.8332027932353
 20
98.89691380466721
 30
0.0
 10
190.8921205132877
 20
98.85334354350809
 30
0.0
 10
190.9156438946861
 20
98.82584174500656
 30
0.0
 10
190.975899479152
 20
98.73674258176348
 30
0.0
 10
191.0014211315631
 20
98.67068300298111
 30
0.0
 10
191.0202311874569
 20
98.6026780110129
 30
0.0
  0
LINE
  5
6C
330
1F
100
AcDbEntity
  8
0
  6
Continuous
 62
     7
370
    15
100
AcDbLine
 10
188.6242274777
 20
98.911709951
 30
0.0
 11
190.7604234875
 21
98.911709951
 31
0.0
  0
SPLINE
  5
6D
330
1F
100
AcDbEntity
  8
0
  6
Continuous
 62
     7
370
    15
100
AcDbSpline
210
0.0
220
0.0
230
1.0
 70
     8
 71
     3
 72
    12
 73
     8
 74
     0
 42
0.00000001
 43
0.00000001
 12
1.0
 22
0.0
 32
0.0
 13
1.0
 23
0.0
 33
0.0
 40
0.0
 40
0.0
 40
0.0
 40
0.0
 40
0.500000000000001
 40
0.500000000000001
 40
0.7500000000000004
 40
0.7500000000000004
 40
1.0
 40
1.0
 40
1.0
 40
1.0
 10
188.3644199491846
 20
98.60267801101291
 30
0.0
 10
188.3832231820363
 20
98.67065833527532
 30
0.0
 10
188.4087598410555
 20
98.73674872307213
 30
0.0
 10
188.4689860150039
 20
98.82581333551926
 30
0.0
 10
188.4929120924039
 20
98.85361442253921
 30
0.0
 10
188.5509730125852
 20
98.89657349576409
 30
0.0
 10
188.5867747112112
 20
98.91171014242032
 30
0.0
 10
188.6242275703199
 20
98.9117101424203
 30
0.0
  0
ELLIPSE
  5
6E
330
1F
100
AcDbEntity
  8
0
  6
Continuous
 62
     7
370
    15
100
AcDbEllipse
 10
198.6412547408
 20
104.7409231381
 30
0.0
 11
9.367417879781669
 21
19.74174915274995
 31
0.0
210
0.0
220
0.0
230
1.0
 40
0.3419987131
 41
2.043618610118597
 42
2.990520924662734
  0
SPLINE
  5
6F
330
1F
100
AcDbEntity
  8
0
  6
Continuous
 62
     7
370
    15
100
AcDbSpline
210
0.0
220
0.0
230
1.0
 70
     8
 71
     3
 72
     8
 73
     4
 74
     0
 42
0.00000001
 43
0.00000001
 12
1.0
 22
0.0
 32
0.0
 13
1.0
 23
0.0
 33
0.0
 40
0.0
 40
0.0
 40
0.0
 40
0.0
 40
1.0
 40
1.0
 40
1.0
 40
1.0
 10
203.5446345037517
 20
85.49709533613564
 30
0.0
 10
203.5995982517979
 20
85.44001652341922
 30
0.0
 10
203.7368862711865
 20
85.39379337527495
 30
0.0
 10
203.9249985803418
 20
85.36707218141895
 30
0.0
  0
SPLINE
  5
70
330
1F
100
AcDbEntity
  8
0
  6
Continuous
 62
     7
370
    15
100
AcDbSpline
210
0.0
220
0.0
230
1.0
 70
     8
 71
     3
 72
     8
 73
     4
 74
     0
 42
0.00000001
 43
0.00000001
 12
1.0
 22
0.0
 32
0.0
 13
1.0
 23
0.0
 33
0.0
 40
0.0
 40
0.0
 40
0.0
 40
0.0
 40
1.0
 40
1.0
 40
1.0
 40
1.0
 10
203.9249985803418
 20
124.6172610330153
 30
0.0
 10
203.7369279896922
 20
124.6053131028461
 30
0.0
 10
203.5995874469888
 20
124.5840699697065
 30
0.0
 10
203.5446345037517
 20
124.5556146940217
 30
0.0
  0
LINE
  5
71
330
1F
100
AcDbEntity
  8
0
  6
Continuous
 62
     7
370
    15
100
AcDbLine
 10
181.6923255683
 20
85.0409230755
 30
0.0
 11
181.6923255683
 21
124.4409232007
 31
0.0
  0
SPLINE
  5
72
330
1F
100
AcDbEntity
  8
0
  6
Continuous
 62
     7
370
    15
100
AcDbSpline
210
0.0
220
0.0
230
1.0
 70
     8
 71
     3
 72
    18
 73
    14
 74
     0
 42
0.00000001
 43
0.00000001
 12
1.0
 22
0.0
 32
0.0
 13
1.0
 23
0.0
 33
0.0
 40
0.0
 40
0.0
 40
0.0
 40
0.0
 40
0.25
 40
0.25
 40
0.5
 40
0.5
 40
0.625
 40
0.625
 40
0.75
 40
0.75
 40
0.875
 40
0.875
 40
1.0
 40
1.0
 40
1.0
 40
1.0
 10
180.4362412507568
 20
90.9097347553932
 30
0.0
 10
180.4705380702085
 20
90.90887309991136
 30
0.0
 10
180.5083493501857
 20
90.9091247030063
 30
0.0
 10
180.5949217173657
 20
90.91152321561816
 30
0.0
 10
180.6432608474486
 20
90.91369420035008
 30
0.0
 10
180.7325332047711
 20
90.91778907864531
 30
0.0
 10
180.765074670547
 20
90.91929369659492
 30
0.0
 10
180.8412508704004
 20
90.92225675456304
 30
0.0
 10
180.884466930395
 20
90.92374409281881
 30
0.0
 10
180.990156232361
 20
90.92536950414251
 30
0.0
 10
181.0551272910755
 20
90.9253272630686
 30
0.0
 10
181.1887876794333
 20
90.92130508974758
 30
0.0
 10
181.2480941327696
 20
90.91776386292409
 30
0.0
 10
181.2973486794454
 20
90.914197155488
 30
0.0
  0
SPLINE
  5
73
330
1F
100
AcDbEntity
  8
0
  6
Continuous
 62
     7
370
    15
100
AcDbSpline
210
0.0
220
0.0
230
1.0
 70
     8
 71
     3
 72
    14
 73
    10
 74
     0
 42
0.00000001
 43
0.00000001
 12
1.0
 22
0.0
 32
0.0
 13
1.0
 23
0.0
 33
0.0
 40
0.0
 40
0.0
 40
0.0
 40
0.0
 40
0.1250000000000008
 40
0.1250000000000008
 40
0.2500000000000016
 40
0.2500000000000016
 40
0.5
 40
0.5
 40
1.0
 40
1.0
 40
1.0
 40
1.0
 10
181.2973486794147
 20
90.91419715550694
 30
0.0
 10
181.308875457132
 20
90.91336245807291
 30
0.0
 10
181.3222282647845
 20
90.91162204379276
 30
0.0
 10
181.3523708373847
 20
90.90437445379244
 30
0.0
 10
181.3674313629992
 20
90.8990274195645
 30
0.0
 10
181.4027777169275
 20
90.88328014933607
 30
0.0
 10
181.4165098166564
 20
90.87344187517479
 30
0.0
 10
181.4498810623475
 20
90.84723788922433
 30
0.0
 10
181.4608214302015
 20
90.83314998782376
 30
0.0
 10
181.4694745552148
 20
90.82037636433539
 30
0.0
  0
LINE
  5
74
330
1F
100
AcDbEntity
  8
0
  6
Continuous
 62
     7
370
    15
100
AcDbLine
 10
181.4923255734
 20
99.2354781904
 30
0.0
 11
181.4923255734
 21
90.6511031629
 31
0.0
  0
SPLINE
  5
75
330
1F
100
AcDbEntity
  8
0
  6
Continuous
 62
     7
370
    15
100
AcDbSpline
210
0.0
220
0.0
230
1.0
 70
     8
 71
     3
 72
    16
 73
    12
 74
     0
 42
0.00000001
 43
0.00000001
 12
1.0
 22
0.0
 32
0.0
 13
1.0
 23
0.0
 33
0.0
 40
0.0
 40
0.0
 40
0.0
 40
0.0
 40
0.5000000000000003
 40
0.5000000000000003
 40
0.7500000000000021
 40
0.7500000000000021
 40
0.8750000000000022
 40
0.8750000000000022
 40
0.9375000000000012
 40
0.9375000000000012
 40
1.0
 40
1.0
 40
1.0
 40
1.0
 10
181.4923255683207
 20
99.23547837110911
 30
0.0
 10
181.4923255683207
 20
99.3530537521286
 30
0.0
 10
181.4884421431618
 20
99.47174950522982
 30
0.0
 10
181.4636268178872
 20
99.65250698322232
 30
0.0
 10
181.4527873701747
 20
99.71415105999525
 30
0.0
 10
181.4195715881258
 20
99.80348803433655
 30
0.0
 10
181.406189844497
 20
99.83374756576168
 30
0.0
 10
181.3706801946348
 20
99.86726380974913
 30
0.0
 10
181.355263228134
 20
99.8754021555552
 30
0.0
 10
181.3235622059854
 20
99.87538674612384
 30
0.0
 10
181.3094159210347
 20
99.86834450876799
 30
0.0
 10
181.297348679445
 20
99.85920344515839
 30
0.0
  0
SPLINE
  5
76
330
1F
100
AcDbEntity
  8
0
  6
Continuous
 62
     7
370
    15
100
AcDbSpline
210
0.0
220
0.0
230
1.0
 70
     8
 71
     3
 72
    18
 73
    14
 74
     0
 42
0.00000001
 43
0.00000001
 12
1.0
 22
0.0
 32
0.0
 13
1.0
 23
0.0
 33
0.0
 40
0.0
 40
0.0
 40
0.0
 40
0.0
 40
0.1249999999999997
 40
0.1249999999999997
 40
0.2499999999999993
 40
0.2499999999999993
 40
0.374999999999999
 40
0.374999999999999
 40
0.4999999999999987
 40
0.4999999999999987
 40
0.7499999999999993
 40
0.7499999999999993
 40
1.0
 40
1.0
 40
1.0
 40
1.0
 10
181.2973486794512
 20
99.85920344515117
 30
0.0
 10
181.2486440957632
 20
99.8223092059606
 30
0.0
 10
181.1901356129877
 20
99.79277790153465
 30
0.0
 10
181.0584087977179
 20
99.78354192825581
 30
0.0
 10
180.9936507262204
 20
99.80660510281278
 30
0.0
 10
180.8884401240697
 20
99.8741232244602
 30
0.0
 10
180.8452239755495
 20
99.91713432111075
 30
0.0
 10
180.7690456594656
 20
100.0073763431069
 30
0.0
 10
180.7361908271744
 20
100.0550072245822
 30
0.0
 10
180.6458229212134
 20
100.2020715239317
 30
0.0
 10
180.5964002633738
 20
100.3059848492363
 30
0.0
 10
180.5087491377822
 20
100.5171188128766
 30
0.0
 10
180.4706875903916
 20
100.6248415576354
 30
0.0
 10
180.4362412507577
 20
100.7341746735448
 30
0.0
  0
SPLINE
  5
77
330
1F
100
AcDbEntity
  8
0
  6
Continuous
 62
     7
370
    15
100
AcDbSpline
210
0.0
220
0.0
230
1.0
 70
     8
 71
     3
 72
     8
 73
     4
 74
     0
 42
0.00000001
 43
0.00000001
 12
1.0
 22
0.0
 32
0.0
 13
1.0
 23
0.0
 33
0.0
 40
0.0
 40
0.0
 40
0.0
 40
0.0
 40
1.0
 40
1.0
 40
1.0
 40
1.0
 10
180.371005224761
 20
100.9693784476737
 30
0.0
 10
180.3904314300599
 20
100.8897861761009
 30
0.0
 10
180.4119282544884
 20
100.8113444299681
 30
0.0
 10
180.4362412507577
 20
100.7341746735448
 30
0.0
  0
SPLINE
  5
78
330
1F
100
AcDbEntity
  8
0
  6
Continuous
 62
     7
370
    15
100
AcDbSpline
210
0.0
220
0.0
230
1.0
 70
     8
 71
     3
 72
     8
 73
     4
 74
     0
 42
0.00000001
 43
0.00000001
 12
1.0
 22
0.0
 32
0.0
 13
1.0
 23
0.0
 33
0.0
 40
0.0
 40
0.0
 40
0.0
 40
0.0
 40
1.0
 40
1.0
 40
1.0
 40
1.0
 10
180.4362412507577
 20
108.7476716025993
 30
0.0
 10
180.4119282544884
 20
108.670501846176
 30
0.0
 10
180.3904314300599
 20
108.5920601000432
 30
0.0
 10
180.371005224761
 20
108.5124678284705
 30
0.0
  0
SPLINE
  5
79
330
1F
100
AcDbEntity
  8
0
  6
Continuous
 62
     7
370
    15
100
AcDbSpline
210
0.0
220
0.0
230
1.0
 70
     8
 71
     3
 72
    18
 73
    14
 74
     0
 42
0.00000001
 43
0.00000001
 12
1.0
 22
0.0
 32
0.0
 13
1.0
 23
0.0
 33
0.0
 40
0.0
 40
0.0
 40
0.0
 40
0.0
 40
0.2500000000000006
 40
0.2500000000000006
 40
0.5000000000000011
 40
0.5000000000000011
 40
0.6250000000000008
 40
0.6250000000000008
 40
0.7500000000000006
 40
0.7500000000000006
 40
0.8750000000000002
 40
0.8750000000000002
 40
1.0
 40
1.0
 40
1.0
 40
1.0
 10
180.4362412507577
 20
108.7476716025993
 30
0.0
 10
180.4705395697704
 20
108.8565348991924
 30
0.0
 10
180.5083539670824
 20
108.9635423224287
 30
0.0
 10
180.594942028156
 20
109.172577146567
 30
0.0
 10
180.6432921338346
 20
109.2747472405566
 30
0.0
 10
180.7326087226344
 20
109.4214280121213
 30
0.0
 10
180.7651690781227
 20
109.4692297106568
 30
0.0
 10
180.8414147118516
 20
109.5607852486822
 30
0.0
 10
180.8845740816316
 20
109.6044646406742
 30
0.0
 10
180.9903029056497
 20
109.6738188580008
 30
0.0
 10
181.0553000827043
 20
109.6979351716667
 30
0.0
 10
181.1887845726586
 20
109.6897309496285
 30
0.0
 10
181.2481119661041
 20
109.6599401640365
 30
0.0
 10
181.2973486794455
 20
109.6226428309855
 30
0.0
  0
SPLINE
  5
7A
330
1F
100
AcDbEntity
  8
0
  6
Continuous
 62
     7
370
    15
100
AcDbSpline
210
0.0
220
0.0
230
1.0
 70
     8
 71
     3
 72
    16
 73
    12
 74
     0
 42
0.00000001
 43
0.00000001
 12
1.0
 22
0.0
 32
0.0
 13
1.0
 23
0.0
 33
0.0
 40
0.0
 40
0.0
 40
0.0
 40
0.0
 40
0.0624999999999996
 40
0.0624999999999996
 40
0.1249999999999991
 40
0.1249999999999991
 40
0.2499999999999984
 40
0.2499999999999984
 40
0.5
 40
0.5
 40
1.0
 40
1.0
 40
1.0
 40
1.0
 10
181.2973486794147
 20
109.6226428309371
 30
0.0
 10
181.3094185126905
 20
109.6134998040913
 30
0.0
 10
181.3236941676238
 20
109.6064553564
 30
0.0
 10
181.3551585797483
 20
109.6064482845014
 30
0.0
 10
181.3706591045587
 20
109.6145762532984
 30
0.0
 10
181.4060980011656
 20
109.6479847143056
 30
0.0
 10
181.4196906172689
 20
109.6786518807677
 30
0.0
 10
181.4526849356617
 20
109.7674728748496
 30
0.0
 10
181.4634723289805
 20
109.8283755203974
 30
0.0
 10
181.4885255762596
 20
110.0103835977758
 30
0.0
 10
181.4923255683209
 20
110.1290723128144
 30
0.0
 10
181.4923255683209
 20
110.246367905035
 30
0.0
  0
LINE
  5
7B
330
1F
100
AcDbEntity
  8
0
  6
Continuous
 62
     7
370
    15
100
AcDbLine
 10
181.4923255734
 20
118.8307431133
 30
0.0
 11
181.4923255734
 21
110.2463680857
 31
0.0
  0
SPLINE
  5
7C
330
1F
100
AcDbEntity
  8
0
  6
Continuous
 62
     7
370
    15
100
AcDbSpline
210
0.0
220
0.0
230
1.0
 70
     8
 71
     3
 72
    12
 73
     8
 74
     0
 42
0.00000001
 43
0.00000001
 12
1.0
 22
0.0
 32
0.0
 13
1.0
 23
0.0
 33
0.0
 40
0.0
 40
0.0
 40
0.0
 40
0.0
 40
0.5
 40
0.5
 40
0.75
 40
0.75
 40
1.0
 40
1.0
 40
1.0
 40
1.0
 10
181.4519862384531
 20
118.6395306409428
 30
0.0
 10
181.441863386372
 20
118.6285968963052
 30
0.0
 10
181.4295006020259
 20
118.6165316094826
 30
0.0
 10
181.3946659988526
 20
118.5951822691384
 30
0.0
 10
181.3793087776096
 20
118.5869625929094
 30
0.0
 10
181.3366397354698
 20
118.5726232932798
 30
0.0
 10
181.31421552111
 20
118.5688705122565
 30
0.0
 10
181.297348679445
 20
118.5676491206561
 30
0.0
  0
SPLINE
  5
7D
330
1F
100
AcDbEntity
  8
0
  6
Continuous
 62
     7
370
    15
100
AcDbSpline
210
0.0
220
0.0
230
1.0
 70
     8
 71
     3
 72
    18
 73
    14
 74
     0
 42
0.00000001
 43
0.00000001
 12
1.0
 22
0.0
 32
0.0
 13
1.0
 23
0.0
 33
0.0
 40
0.0
 40
0.0
 40
0.0
 40
0.0
 40
0.125
 40
0.125
 40
0.25
 40
0.25
 40
0.375
 40
0.375
 40
0.5
 40
0.5
 40
0.75
 40
0.75
 40
1.0
 40
1.0
 40
1.0
 40
1.0
 10
181.2973486794512
 20
118.567649120656
 30
0.0
 10
181.2486445504344
 20
118.5641222710378
 30
0.0
 10
181.1901368812298
 20
118.5606219978401
 30
0.0
 10
181.058411218599
 20
118.5565790139522
 30
0.0
 10
180.9936535799787
 20
118.5564674393216
 30
0.0
 10
180.8884431633596
 20
118.5579996240831
 30
0.0
 10
180.8452271284194
 20
118.5594547762982
 30
0.0
 10
180.7690489069384
 20
118.5623800378279
 30
0.0
 10
180.7361941392543
 20
118.5638903683361
 30
0.0
 10
180.6458264204125
 20
118.5680323610245
 30
0.0
 10
180.5964040512231
 20
118.570270446011
 30
0.0
 10
180.508751589135
 20
118.5727217290575
 30
0.0
 10
180.4706888529006
 20
118.5729769644185
 30
0.0
 10
180.4362412507572
 20
118.5721115207507
 30
0.0
  0
SPLINE
  5
7E
330
1F
100
AcDbEntity
  8
0
  6
Continuous
 62
     7
370
    15
100
AcDbSpline
210
0.0
220
0.0
230
1.0
 70
     8
 71
     3
 72
     8
 73
     4
 74
     0
 42
0.00000001
 43
0.00000001
 12
1.0
 22
0.0
 32
0.0
 13
1.0
 23
0.0
 33
0.0
 40
0.0
 40
0.0
 40
0.0
 40
0.0
 40
1.0
 40
1.0
 40
1.0
 40
1.0
 10
180.1972855903815
 20
101.7944323337083
 30
0.0
 10
180.2480126731039
 20
101.5110812123891
 30
0.0
 10
180.3058999860909
 20
101.2361250282493
 30
0.0
 10
180.3710052247611
 20
100.9693784476737
 30
0.0
  0
SPLINE
  5
7F
330
1F
100
AcDbEntity
  8
0
  6
Continuous
 62
     7
370
    15
100
AcDbSpline
210
0.0
220
0.0
230
1.0
 70
     8
 71
     3
 72
    24
 73
    20
 74
     0
 42
0.00000001
 43
0.00000001
 12
1.0
 22
0.0
 32
0.0
 13
1.0
 23
0.0
 33
0.0
 40
0.0
 40
0.0
 40
0.0
 40
0.0
 40
0.2499999999999988
 40
0.2499999999999988
 40
0.3749999999999977
 40
0.3749999999999977
 40
0.4374999999999976
 40
0.4374999999999976
 40
0.4687499999999976
 40
0.4687499999999976
 40
0.4999999999999976
 40
0.4999999999999976
 40
0.5624999999999978
 40
0.5624999999999978
 40
0.624999999999998
 40
0.624999999999998
 40
0.7499999999999982
 40
0.7499999999999982
 40
1.0
 40
1.0
 40
1.0
 40
1.0
 10
179.9923255683125
 20
101.7947247420015
 30
0.0
 10
179.9927285976864
 20
101.8879930346311
 30
0.0
 10
179.9947583374015
 20
101.9817505934801
 30
0.0
 10
180.0040670488213
 20
102.1233404791196
 30
0.0
 10
180.0079930419359
 20
102.1705208977288
 30
0.0
 10
180.0189224018518
 20
102.2411169444142
 30
0.0
 10
180.0230440299462
 20
102.264896858179
 30
0.0
 10
180.0349385511286
 20
102.2983480052262
 30
0.0
 10
180.0402253630823
 20
102.3105029572958
 30
0.0
 10
180.0567932945973
 20
102.318385596264
 30
0.0
 10
180.0647200033646
 20
102.3108219971619
 30
0.0
 10
180.0817123415898
 20
102.2870295659352
 30
0.0
 10
180.0891100423807
 20
102.2668410880907
 30
0.0
 10
180.1032124327226
 20
102.2263914634709
 30
0.0
 10
180.1093655900148
 20
102.2055357890734
 30
0.0
 10
180.1266793234759
 20
102.1424107537724
 30
0.0
 10
180.1366843643645
 20
102.0994316418709
 30
0.0
 10
180.1650408205952
 20
101.969705997582
 30
0.0
 10
180.1815893599415
 20
101.882108270446
 30
0.0
 10
180.1972855903815
 20
101.7944323337083
 30
0.0
  0
SPLINE
  5
80
330
1F
100
AcDbEntity
  8
0
  6
Continuous
 62
     7
370
    15
100
AcDbSpline
210
0.0
220
0.0
230
1.0
 70
     8
 71
     3
 72
    16
 73
    12
 74
     0
 42
0.00000001
 43
0.00000001
 12
1.0
 22
0.0
 32
0.0
 13
1.0
 23
0.0
 33
0.0
 40
0.0
 40
0.0
 40
0.0
 40
0.0
 40
0.2500000000000001
 40
0.2500000000000001
 40
0.3750000000000001
 40
0.3750000000000001
 40
0.5000000000000001
 40
0.5000000000000001
 40
0.7500000000000002
 40
0.7500000000000002
 40
1.0
 40
1.0
 40
1.0
 40
1.0
 10
179.9923255683207
 20
107.6871215341414
 30
0.0
 10
179.9117887589253
 20
107.2180487072783
 30
0.0
 10
179.8517513501231
 20
106.7376850570983
 30
0.0
 10
179.7910134028758
 20
106.0005007779574
 30
0.0
 10
179.7756909218329
 20
105.7519823747303
 30
0.0
 10
179.755107970055
 20
105.2491989295166
 30
0.0
 10
179.7499084230184
 20
104.994340376492
 30
0.0
 10
179.7498547124782
 20
104.2380630367712
 30
0.0
 10
179.7700520497473
 20
103.7394048374614
 30
0.0
 10
179.8507303568203
 20
102.7529818667171
 30
0.0
 10
179.9117767051616
 20
102.2638677739442
 30
0.0
 10
179.9923255683207
 20
101.7947247420028
 30
0.0
  0
SPLINE
  5
81
330
1F
100
AcDbEntity
  8
0
  6
Continuous
 62
     7
370
    15
100
AcDbSpline
210
0.0
220
0.0
230
1.0
 70
     8
 71
     3
 72
    24
 73
    20
 74
     0
 42
0.00000001
 43
0.00000001
 12
1.0
 22
0.0
 32
0.0
 13
1.0
 23
0.0
 33
0.0
 40
0.0
 40
0.0
 40
0.0
 40
0.0
 40
0.250000000000004
 40
0.250000000000004
 40
0.375000000000006
 40
0.375000000000006
 40
0.437500000000006
 40
0.437500000000006
 40
0.500000000000006
 40
0.500000000000006
 40
0.5312500000000054
 40
0.5312500000000054
 40
0.562500000000005
 40
0.562500000000005
 40
0.6250000000000046
 40
0.6250000000000046
 40
0.7500000000000036
 40
0.7500000000000036
 40
1.0
 40
1.0
 40
1.0
 40
1.0
 10
180.1972855903816
 20
107.6874139424359
 30
0.0
 10
180.1815165454718
 20
107.5993312789449
 30
0.0
 10
180.1649023809112
 20
107.5113864624354
 30
0.0
 10
180.1363702534178
 20
107.3810390951724
 30
0.0
 10
180.1262826198639
 20
107.3377779173703
 30
0.0
 10
180.108794797015
 20
107.2743421415348
 30
0.0
 10
180.1025849890887
 20
107.2534280179911
 30
0.0
 10
180.0883071295063
 20
107.212953226306
 30
0.0
 10
180.0807359671545
 20
107.1924755828468
 30
0.0
 10
180.0633161419801
 20
107.1696292033099
 30
0.0
 10
180.0548320595254
 20
107.1630774062663
 30
0.0
 10
180.038795985908
 20
107.173648781493
 30
0.0
 10
180.0339756136301
 20
107.1857398217769
 30
0.0
 10
180.0225687130243
 20
107.2193830649968
 30
0.0
 10
180.0185477513149
 20
107.2427907442936
 30
0.0
 10
180.0077937395357
 20
107.3133793473546
 30
0.0
 10
180.003921853913
 20
107.3603443748772
 30
0.0
 10
179.9947538891121
 20
107.5009212394833
 30
0.0
 10
179.9927255545989
 20
107.5945574691028
 30
0.0
 10
179.9923255683208
 20
107.6871215341414
 30
0.0
  0
SPLINE
  5
82
330
1F
100
AcDbEntity
  8
0
  6
Continuous
 62
     7
370
    15
100
AcDbSpline
210
0.0
220
0.0
230
1.0
 70
     8
 71
     3
 72
     8
 73
     4
 74
     0
 42
0.00000001
 43
0.00000001
 12
1.0
 22
0.0
 32
0.0
 13
1.0
 23
0.0
 33
0.0
 40
0.0
 40
0.0
 40
0.0
 40
0.0
 40
1.0
 40
1.0
 40
1.0
 40
1.0
 10
180.3710052247611
 20
108.5124678284704
 30
0.0
 10
180.3058999860909
 20
108.2457212478948
 30
0.0
 10
180.2480126731039
 20
107.9707650637551
 30
0.0
 10
180.1972855903815
 20
107.6874139424359
 30
0.0
  0
LINE
  5
83
330
1F
100
AcDbEntity
  8
0
  6
Continuous
 62
     7
370
    15
100
AcDbLine
 10
179.9923255458
 20
101.7947246858
 30
0.0
 11
179.9923255458
 21
100.6397193835
 31
0.0
  0
LINE
  5
84
330
1F
100
AcDbEntity
  8
0
  6
Continuous
 62
     7
370
    15
100
AcDbLine
 10
159.1923246743
 20
108.5808427145
 30
0.0
 11
159.1923246743
 21
100.9010035617
 31
0.0
  0
LINE
  5
85
330
1F
100
AcDbEntity
  8
0
  6
Continuous
 62
     7
370
    15
100
AcDbLine
 10
179.9923255458
 20
108.8421268926
 30
0.0
 11
179.9923255458
 21
107.6871215903
 31
0.0
  0
LINE
  5
86
330
1F
100
AcDbEntity
  8
0
  6
Continuous
 62
     7
370
    15
100
AcDbLine
 10
157.6923253597
 20
108.1478298714
 30
0.0
 11
157.6923253597
 21
101.3340164048
 31
0.0
  0
LINE
  5
87
330
1F
100
AcDbEntity
  8
0
  6
Continuous
 62
     7
370
    15
100
AcDbLine
 10
180.1972855465
 20
118.5661078037
 30
0.0
 11
180.4362412659
 21
118.572111109
 31
0.0
  0
LINE
  5
88
330
1F
100
AcDbEntity
  8
0
  6
Continuous
 62
     7
370
    15
100
AcDbLine
 10
179.9923255458
 20
90.7208247648
 30
0.0
 11
179.9923255458
 21
100.6397193835
 31
0.0
  0
ARC
  5
89
330
1F
100
AcDbEntity
  8
0
  6
Continuous
 62
     7
370
    15
100
AcDbCircle
 10
180.1922624793
 20
90.7158012424
 30
0.0
 40
0.2000000000000063
100
AcDbArc
 50
88.5608333333
 51
178.5608333333
  0
LINE
  5
8A
330
1F
100
AcDbEntity
  8
0
  6
Continuous
 62
     7
370
    15
100
AcDbLine
 10
159.1923246743
 20
91.2433926554
 30
0.0
 11
159.1923246743
 21
100.9010035617
 31
0.0
  0
LINE
  5
8B
330
1F
100
AcDbEntity
  8
0
  6
Continuous
 62
     7
370
    15
100
AcDbLine
 10
159.1923246743
 20
91.2433926554
 30
0.0
 11
179.9923255458
 21
90.7208247648
 31
0.0
  0
LINE
  5
8C
330
1F
100
AcDbEntity
  8
0
  6
Continuous
 62
     7
370
    15
100
AcDbLine
 10
179.9923255458
 20
108.8421268926
 30
0.0
 11
179.9923255458
 21
118.7610215114
 31
0.0
  0
ARC
  5
8D
330
1F
100
AcDbEntity
  8
0
  6
Continuous
 62
     7
370
    15
100
AcDbCircle
 10
180.1922624793
 20
118.7660450338
 30
0.0
 40
0.2000000000000063
100
AcDbArc
 50
181.4391666667
 51
271.4391666667
  0
LINE
  5
8E
330
1F
100
AcDbEntity
  8
0
  6
Continuous
 62
     7
370
    15
100
AcDbLine
 10
159.1923246743
 20
108.5808427145
 30
0.0
 11
159.1923246743
 21
118.2384536208
 31
0.0
  0
LINE
  5
8F
330
1F
100
AcDbEntity
  8
0
  6
Continuous
 62
     7
370
    15
100
AcDbLine
 10
159.1923246743
 20
118.2384536208
 30
0.0
 11
179.9923255458
 21
118.7610215114
 31
0.0
  0
LINE
  5
90
330
1F
100
AcDbEntity
  8
0
  6
Continuous
 62
     7
370
    15
100
AcDbLine
 10
180.1972855465
 20
90.9157384725
 30
0.0
 11
180.4362412659
 21
90.9097351671
 31
0.0
  0
LINE
  5
91
330
1F
100
AcDbEntity
  8
0
  6
Continuous
 62
     7
370
    15
100
AcDbLine
 10
157.6923253597
 20
92.1094183416
 30
0.0
 11
159.1923246743
 21
91.2433926554
 31
0.0
  0
LINE
  5
92
330
1F
100
AcDbEntity
  8
0
  6
Continuous
 62
     7
370
    15
100
AcDbLine
 10
157.6923253597
 20
92.1094183416
 30
0.0
 11
157.6923253597
 21
101.3340164048
 31
0.0
  0
LINE
  5
93
330
1F
100
AcDbEntity
  8
0
  6
Continuous
 62
     7
370
    15
100
AcDbLine
 10
157.6923253597
 20
117.3724279345
 30
0.0
 11
159.1923246743
 21
118.2384536208
 31
0.0
  0
LINE
  5
94
330
1F
100
AcDbEntity
  8
0
  6
Continuous
 62
     7
370
    15
100
AcDbLine
 10
157.6923253597
 20
108.1478298714
 30
0.0
 11
157.6923253597
 21
117.3724279345
 31
0.0
  0
SPLINE
  5
95
330
1F
100
AcDbEntity
  8
0
  6
Continuous
 62
     7
370
    15
100
AcDbSpline
210
0.0
220
0.0
230
1.0
 70
     8
 71
     3
 72
     8
 73
     4
 74
     0
 42
0.00000001
 43
0.00000001
 12
1.0
 22
0.0
 32
0.0
 13
1.0
 23
0.0
 33
0.0
 40
0.0
 40
0.0
 40
0.0
 40
0.0
 40
1.0
 40
1.0
 40
1.0
 40
1.0
 10
203.9249985803418
 20
124.6172610330153
 30
0.0
 10
204.0309605912392
 20
124.6239926900087
 30
0.0
 10
204.1474760916248
 20
124.6453231390024
 30
0.0
 10
204.2615699857878
 20
124.6874920414333
 30
0.0
  0
SPLINE
  5
96
330
1F
100
AcDbEntity
  8
0
  6
Continuous
 62
     7
370
    15
100
AcDbSpline
210
0.0
220
0.0
230
1.0
 70
     8
 71
     3
 72
     8
 73
     4
 74
     0
 42
0.00000001
 43
0.00000001
 12
1.0
 22
0.0
 32
0.0
 13
1.0
 23
0.0
 33
0.0
 40
0.0
 40
0.0
 40
0.0
 40
0.0
 40
1.0
 40
1.0
 40
1.0
 40
1.0
 10
204.2615699857876
 20
85.28276639423366
 30
0.0
 10
204.1474935318428
 20
85.32604174595528
 30
0.0
 10
204.0309983294239
 20
85.3520150070293
 30
0.0
 10
203.9249985803412
 20
85.36707218141959
 30
0.0
  0
SPLINE
  5
97
330
1F
100
AcDbEntity
  8
0
  6
Continuous
 62
     7
370
    15
100
AcDbSpline
210
0.0
220
0.0
230
1.0
 70
     8
 71
     3
 72
    12
 73
     8
 74
     0
 42
0.00000001
 43
0.00000001
 12
1.0
 22
0.0
 32
0.0
 13
1.0
 23
0.0
 33
0.0
 40
0.0
 40
0.0
 40
0.0
 40
0.0
 40
0.4999999999999964
 40
0.4999999999999964
 40
0.7499999999999982
 40
0.7499999999999982
 40
1.0
 40
1.0
 40
1.0
 40
1.0
 10
204.2615699857876
 20
124.6874920414343
 30
0.0
 10
204.4147634955972
 20
124.7441120929769
 30
0.0
 10
204.5525767143006
 20
124.8383695075419
 30
0.0
 10
204.7151842637989
 20
125.0185202528838
 30
0.0
 10
204.7628747339617
 20
125.0860275425193
 30
0.0
 10
204.8401104699189
 20
125.2288933487701
 30
0.0
 10
204.8699930402136
 20
125.3041508884642
 30
0.0
 10
204.8909244066309
 20
125.3833275964482
 30
0.0
  0
SPLINE
  5
98
330
1F
100
AcDbEntity
  8
0
  6
Continuous
 62
     7
370
    15
100
AcDbSpline
210
0.0
220
0.0
230
1.0
 70
     8
 71
     3
 72
    10
 73
     6
 74
     0
 42
0.00000001
 43
0.00000001
 12
1.0
 22
0.0
 32
0.0
 13
1.0
 23
0.0
 33
0.0
 40
0.0
 40
0.0
 40
0.0
 40
0.0
 40
0.5
 40
0.5
 40
1.0
 40
1.0
 40
1.0
 40
1.0
 10
204.7910239841262
 20
84.82651900944244
 30
0.0
 10
204.7328861012455
 20
84.92941570571308
 30
0.0
 10
204.6560262366265
 20
85.02339891021423
 30
0.0
 10
204.4771148827385
 20
85.17798501283482
 30
0.0
 10
204.373120442959
 20
85.24044928932842
 30
0.0
 10
204.2615699857876
 20
85.28276639423366
 30
0.0
  0
LINE
  5
99
330
1F
100
AcDbEntity
  8
0
  6
Continuous
 62
     7
370
    15
100
AcDbLine
 10
204.7910234542
 20
84.8265195803
 30
0.0
 11
204.7910234542
 21
84.2409225718
 31
0.0
  0
ELLIPSE
  5
9A
330
1F
100
AcDbEntity
  8
0
  6
Continuous
 62
     7
370
    15
100
AcDbEllipse
 10
254.3258788175
 20
104.7409231381
 30
0.0
 11
293.1636411261455
 21
-1.436999852876426
 31
0.0
210
0.0
220
0.0
230
1.0
 40
0.0697548059
 41
4.542949838587372
 42
4.551508996190224
  0
LINE
  5
9B
330
1F
100
AcDbEntity
  8
0
  6
Continuous
 62
     7
370
    15
100
AcDbLine
 10
204.8909245641
 20
125.3833285139
 30
0.0
 11
205.0341228606
 21
125.9247659312
 31
0.0
  0
LINE
  5
9C
330
1F
100
AcDbEntity
  8
0
  6
Continuous
 62
     7
370
    15
100
AcDbLine
 10
205.0341228606
 20
125.9247659312
 30
0.0
 11
217.2376895906
 21
125.7728355543
 31
0.0
  0
ELLIPSE
  5
9D
330
1F
100
AcDbEntity
  8
0
  6
Continuous
 62
     7
370
    15
100
AcDbEllipse
 10
217.2528719605
 20
136.8103056871
 30
0.0
 11
-6.253262676623848
 21
9.146302074812979
 31
0.0
210
0.0
220
0.0
230
1.0
 40
0.9882480265
 41
2.534994341733471
 42
2.621804549364549
  0
LINE
  5
9E
330
1F
100
AcDbEntity
  8
0
  6
Continuous
 62
     7
370
    15
100
AcDbLine
 10
218.1906859041
 20
125.8025354312
 30
0.0
 11
217.5954739214
 21
124.6522347049
 31
0.0
  0
LINE
  5
9F
330
1F
100
AcDbEntity
  8
0
  6
Continuous
 62
     7
370
    15
100
AcDbLine
 10
210.4897546233
 20
110.9198172183
 30
0.0
 11
209.8823516281
 21
109.7459610158
 31
0.0
  0
ARC
  5
A0
330
1F
100
AcDbEntity
  8
0
  6
Continuous
 62
     7
370
    15
100
AcDbCircle
 10
211.6497192904
 20
108.8318284665
 30
0.0
 40
1.989780583736467
100
AcDbArc
 50
152.6507160049
 51
332.3088007771
  0
LINE
  5
A1
330
1F
100
AcDbEntity
  8
0
  6
Continuous
 62
     7
370
    15
100
AcDbLine
 10
213.4116003872
 20
107.9071654079
 30
0.0
 11
216.1386209191
 21
113.1773710788
 31
0.0
  0
LINE
  5
A2
330
1F
100
AcDbEntity
  8
0
  6
Continuous
 62
     7
370
    15
100
AcDbLine
 10
224.539046234
 20
117.5486360283
 30
0.0
 11
223.5817732872
 21
115.6986168192
 31
0.0
  0
ELLIPSE
  5
A3
330
1F
100
AcDbEntity
  8
0
  6
Continuous
 62
     7
370
    15
100
AcDbEllipse
 10
233.4260630392
 20
110.5610761555
 30
0.0
 11
9.148699490328172
 21
-6.297498731701666
 31
0.0
210
0.0
220
0.0
230
1.0
 40
0.9858180188
 41
3.265193610787207
 42
3.751144268652109
  0
LINE
  5
A4
330
1F
100
AcDbEntity
  8
0
  6
Continuous
 62
     7
370
    15
100
AcDbLine
 10
222.3708117963
 20
110.5610759535
 30
0.0
 11
222.4220419885
 21
106.7409232331
 31
0.0
  0
LINE
  5
A5
330
1F
100
AcDbEntity
  8
0
  6
Continuous
 62
     7
370
    15
100
AcDbLine
 10
222.4220419885
 20
106.7409232331
 30
0.0
 11
207.2659647675
 21
84.7856103049
 31
0.0
  0
ELLIPSE
  5
A6
330
1F
100
AcDbEntity
  8
0
  6
Continuous
 62
     7
370
    15
100
AcDbEllipse
 10
220.587890748
 20
104.7409231381
 30
0.0
 11
14.93020472090421
 21
20.41110106401191
 31
0.0
210
0.0
220
0.0
230
1.0
 40
0.1277329972
 41
3.234755643517415
 42
3.465790714823239
  0
ARC
  5
A7
330
1F
100
AcDbEntity
  8
0
  6
Continuous
 62
     7
370
    15
100
AcDbCircle
 10
211.512833616
 20
108.6951243415
 30
0.0
 40
1.749229380465892
100
AcDbArc
 50
152.6626032557
 51
332.296890864
  0
ELLIPSE
  5
A8
330
1F
100
AcDbEntity
  8
0
  6
Continuous
 62
     7
370
    15
100
AcDbEllipse
 10
220.655916106
 20
184.1426180854
 30
0.0
 11
-2.852237932806844
 21
94.45633382174503
 31
0.0
210
0.0
220
0.0
230
1.0
 40
0.0567718425
 41
2.234820214214805
 42
2.239480326715519
  0
LINE
  5
A9
330
1F
100
AcDbEntity
  8
0
  6
Continuous
 62
     7
370
    15
100
AcDbLine
 10
218.216580397
 20
125.456988679
 30
0.0
 11
217.8858938278
 21
124.8179076777
 31
0.0
  0
LINE
  5
AA
330
1F
100
AcDbEntity
  8
0
  6
Continuous
 62
     7
370
    15
100
AcDbLine
 10
210.5562491925
 20
110.652732996
 30
0.0
 11
209.9589622231
 21
109.4984219947
 31
0.0
  0
LINE
  5
AB
330
1F
100
AcDbEntity
  8
0
  6
Continuous
 62
     7
370
    15
100
AcDbLine
 10
215.677530563
 20
112.937541546
 30
0.0
 11
213.0615460337
 21
107.8819249363
 31
0.0
  0
LINE
  5
AC
330
1F
100
AcDbEntity
  8
0
  6
Continuous
 62
     7
370
    15
100
AcDbLine
 10
204.9209802063
 20
125.5697737054
 30
0.0
 11
205.0341228606
 21
125.9247659312
 31
0.0
  0
LINE
  5
AD
330
1F
100
AcDbEntity
  8
0
  6
Continuous
 62
     7
370
    15
100
AcDbLine
 10
212.6558898599
 20
107.3673475606
 30
0.0
 11
212.887154019
 21
107.707958536
 31
0.0
  0
LINE
  5
AE
330
1F
100
AcDbEntity
  8
0
  6
Continuous
 62
     7
370
    15
100
AcDbLine
 10
212.887154019
 20
107.707958536
 30
0.0
 11
215.5620838166
 21
112.877494523
 31
0.0
  0
ELLIPSE
  5
AF
330
1F
100
AcDbEntity
  8
0
  6
Continuous
 62
     7
370
    15
100
AcDbEllipse
 10
217.1956944031
 20
136.0150336029
 30
0.0
 11
-6.253262676623819
 21
9.146302074812949
 31
0.0
210
0.0
220
0.0
230
1.0
 40
0.9882480265
 41
2.607652077833625
 42
2.634414742906165
  0
SPLINE
  5
B0
330
1F
100
AcDbEntity
  8
0
  6
Continuous
 62
     7
370
    15
100
AcDbSpline
210
0.0
220
0.0
230
1.0
 70
     8
 71
     3
 72
    10
 73
     6
 74
     0
 42
0.00000001
 43
0.00000001
 12
1.0
 22
0.0
 32
0.0
 13
1.0
 23
0.0
 33
0.0
 40
0.0
 40
0.0
 40
0.0
 40
0.0
 40
0.272481219620992
 40
0.5447556693826664
 40
1.0
 40
1.0
 40
1.0
 40
1.0
 10
217.673515027883
 20
124.7074416444798
 30
0.0
 10
217.6546133252044
 20
124.696366863973
 30
0.0
 10
217.6168242632298
 20
124.6742257069544
 30
0.0
 10
217.5562474395147
 20
124.6202864557626
 30
0.0
 10
217.5251430638107
 20
124.570439935454
 30
0.0
 10
217.5056795240664
 20
124.5392485127946
 30
0.0
  0
LINE
  5
B1
330
1F
100
AcDbEntity
  8
0
  6
Continuous
 62
     7
370
    15
100
AcDbLine
 10
231.1359132291
 20
131.7096928672
 30
0.0
 11
217.6735150279
 21
124.7074416445
 31
0.0
  0
SPLINE
  5
B2
330
1F
100
AcDbEntity
  8
0
  6
Continuous
 62
     7
370
    15
100
AcDbSpline
210
0.0
220
0.0
230
1.0
 70
     8
 71
     3
 72
    15
 73
    11
 74
     0
 42
0.00000001
 43
0.00000001
 12
1.0
 22
0.0
 32
0.0
 13
1.0
 23
0.0
 33
0.0
 40
0.0
 40
0.0
 40
0.0
 40
0.0
 40
0.1411612306960603
 40
0.28183428443325
 40
0.4169664346883123
 40
0.5461331788104409
 40
0.6723555627359068
 40
0.7999816545953891
 40
0.9323886231086437
 40
1.0
 40
1.0
 40
1.0
 40
1.0
 10
231.6633770824695
 20
131.1833261118432
 30
0.0
 10
231.680861044554
 20
131.2270634757986
 30
0.0
 10
231.7157685040515
 20
131.3143869470705
 30
0.0
 10
231.7086234385908
 20
131.4564874230022
 30
0.0
 10
231.6574602895093
 20
131.5831864788879
 30
0.0
 10
231.5683807504941
 20
131.6810825775486
 30
0.0
 10
231.454294352459
 20
131.7423560744089
 30
0.0
 10
231.3260138284336
 20
131.7631856608426
 30
0.0
 10
231.216381163805
 20
131.7467323262901
 30
0.0
 10
231.1562418675501
 20
131.7190501568493
 30
0.0
 10
231.1359132291103
 20
131.7096928672095
 30
0.0
  0
LINE
  5
B3
330
1F
100
AcDbEntity
  8
0
  6
Continuous
 62
     7
370
    15
100
AcDbLine
 10
224.6896150173
 20
117.7059289606
 30
0.0
 11
231.6633770825
 21
131.1833261118
 31
0.0
  0
SPLINE
  5
B4
330
1F
100
AcDbEntity
  8
0
  6
Continuous
 62
     7
370
    15
100
AcDbSpline
210
0.0
220
0.0
230
1.0
 70
     8
 71
     3
 72
    10
 73
     6
 74
     0
 42
0.00000001
 43
0.00000001
 12
1.0
 22
0.0
 32
0.0
 13
1.0
 23
0.0
 33
0.0
 40
0.0
 40
0.0
 40
0.0
 40
0.0
 40
0.2724827068899379
 40
0.5447566471411246
 40
1.0
 40
1.0
 40
1.0
 40
1.0
 10
224.5217795134807
 20
117.537734897544
 30
0.0
 10
224.5406811850424
 20
117.5488100412153
 30
0.0
 10
224.578470046372
 20
117.5709518431736
 30
0.0
 10
224.6390471423791
 20
117.6248909235301
 30
0.0
 10
224.6701514943916
 20
117.6747375036762
 30
0.0
 10
224.6896150172973
 20
117.7059289605518
 30
0.0
  0
LINE
  5
B5
330
1F
100
AcDbEntity
  8
0
  6
Continuous
 62
     7
370
    15
100
AcDbLine
 10
211.0593794496
 20
110.5354850718
 30
0.0
 11
224.5217795135
 21
117.5377348975
 31
0.0
  0
LINE
  5
B6
330
1F
100
AcDbEntity
  8
0
  6
Continuous
 62
     7
370
    15
100
AcDbLine
 10
217.5056795241
 20
124.5392485128
 30
0.0
 11
210.5319174589
 21
111.0618508958
 31
0.0
  0
LINE
  5
B7
330
1F
100
AcDbEntity
  8
0
  6
Continuous
 62
     7
370
    15
100
AcDbLine
 10
224.6723184944
 20
117.7159974889
 30
0.0
 11
231.6321032704
 21
131.1663872169
 31
0.0
  0
ARC
  5
B8
330
1F
100
AcDbEntity
  8
0
  6
Continuous
 62
     7
370
    15
100
AcDbCircle
 10
231.2937147798
 20
131.3403563206
 30
0.0
 40
0.3804891846086945
100
AcDbArc
 50
332.7918245081
 51
117.3274889489
  0
LINE
  5
B9
330
1F
100
AcDbEntity
  8
0
  6
Continuous
 62
     7
370
    15
100
AcDbLine
 10
231.1190413893
 20
131.6783818023
 30
0.0
 11
217.6836180152
 21
124.6901637481
 31
0.0
  0
ARC
  5
BA
330
1F
100
AcDbEntity
  8
0
  6
Continuous
 62
     7
370
    15
100
AcDbCircle
 10
217.8572885002
 20
124.356220664
 30
0.0
 40
0.37640326885099
100
AcDbArc
 50
117.4771436325
 51
152.6449655623
  0
LINE
  5
BB
330
1F
100
AcDbEntity
  8
0
  6
Continuous
 62
     7
370
    15
100
AcDbLine
 10
217.5229760469
 20
124.5291790531
 30
0.0
 11
210.5631912709
 21
111.0787897908
 31
0.0
  0
ARC
  5
BC
330
1F
100
AcDbEntity
  8
0
  6
Continuous
 62
     7
370
    15
100
AcDbCircle
 10
210.9015792476
 20
110.9048198647
 30
0.0
 40
0.3804891036026573
100
AcDbArc
 50
152.7916789895
 51
297.3275823568
  0
LINE
  5
BD
330
1F
100
AcDbEntity
  8
0
  6
Continuous
 62
     7
370
    15
100
AcDbLine
 10
211.076253152
 20
110.5667947398
 30
0.0
 11
224.5116728009
 21
117.5550127939
 31
0.0
  0
ARC
  5
BE
330
1F
100
AcDbEntity
  8
0
  6
Continuous
 62
     7
370
    15
100
AcDbCircle
 10
224.3379870506
 20
117.8889788475
 30
0.0
 40
0.3764306905481459
100
AcDbArc
 50
297.477591937
 51
332.643188586
  0
SPLINE
  5
BF
330
1F
100
AcDbEntity
  8
0
  6
Continuous
 62
     7
370
    15
100
AcDbSpline
210
0.0
220
0.0
230
1.0
 70
     8
 71
     3
 72
    15
 73
    11
 74
     0
 42
0.00000001
 43
0.00000001
 12
1.0
 22
0.0
 32
0.0
 13
1.0
 23
0.0
 33
0.0
 40
0.0
 40
0.0
 40
0.0
 40
0.0
 40
0.1411621866223518
 40
0.2818348917134876
 40
0.4169670958990799
 40
0.5461346542262647
 40
0.6723560694467905
 40
0.7999807850562874
 40
0.9323883761158318
 40
1.0
 40
1.0
 40
1.0
 40
1.0
 10
210.5319174588942
 20
111.0618508958419
 30
0.0
 10
210.5144332730045
 20
111.0181133707253
 30
0.0
 10
210.4795255278438
 20
110.9307899808714
 30
0.0
 10
210.4866735833337
 20
110.7886899305427
 30
0.0
 10
210.5378361908672
 20
110.6619912413346
 30
0.0
 10
210.6269153820522
 20
110.5640955867167
 30
0.0
 10
210.7409998740362
 20
110.5028208375956
 30
0.0
 10
210.8692796025192
 20
110.4819910409116
 30
0.0
 10
210.9789114463582
 20
110.4984457466841
 30
0.0
 10
211.0390508043958
 20
110.5261278208569
 30
0.0
 10
211.0593794496083
 20
110.5354850717981
 30
0.0
  0
LINE
  5
C0
330
1F
100
AcDbEntity
  8
0
  6
Continuous
 62
     7
370
    15
100
AcDbLine
 10
213.1949822069
 20
113.2033624293
 30
0.0
 11
210.8847378404
 21
110.8880176746
 31
0.0
  0
LINE
  5
C1
330
1F
100
AcDbEntity
  8
0
  6
Continuous
 62
     7
370
    15
100
AcDbLine
 10
213.1949822069
 20
113.2033624293
 30
0.0
 11
214.3042917014
 21
113.7803512232
 31
0.0
  0
LINE
  5
C2
330
1F
100
AcDbEntity
  8
0
  6
Continuous
 62
     7
370
    15
100
AcDbLine
 10
224.2182093323
 20
117.9675039441
 30
0.0
 11
224.3201593519
 21
117.8762361945
 31
0.0
  0
LINE
  5
C3
330
1F
100
AcDbEntity
  8
0
  6
Continuous
 62
     7
370
    15
100
AcDbLine
 10
217.9359803559
 20
124.2366692589
 30
0.0
 11
217.844524479
 21
124.3384069369
 31
0.0
  0
LINE
  5
C4
330
1F
100
AcDbEntity
  8
0
  6
Continuous
 62
     7
370
    15
100
AcDbLine
 10
213.7696231366
 20
114.3139059262
 30
0.0
 11
213.1949822069
 21
113.2033624293
 31
0.0
  0
SPLINE
  5
C5
330
1F
100
AcDbEntity
  8
0
  6
Continuous
 62
     7
370
    15
100
AcDbSpline
210
0.0
220
0.0
230
1.0
 70
     8
 71
     3
 72
    14
 73
    10
 74
     0
 42
0.00000001
 43
0.00000001
 12
1.0
 22
0.0
 32
0.0
 13
1.0
 23
0.0
 33
0.0
 40
0.0
 40
0.0
 40
0.0
 40
0.0
 40
0.2055167591454665
 40
0.3570174887954793
 40
0.4668466203482703
 40
0.5770822630269298
 40
0.7093659203692598
 40
0.9240577667159422
 40
1.0
 40
1.0
 40
1.0
 40
1.0
 10
214.3298434675956
 20
114.3948043302794
 30
0.0
 10
214.294593053358
 20
114.4283996564541
 30
0.0
 10
214.2333571014948
 20
114.4867604394678
 30
0.0
 10
214.1334726440498
 20
114.5378079579394
 30
0.0
 10
214.0452151706571
 20
114.5504685770246
 30
0.0
 10
213.9626096586769
 20
114.5311798563681
 30
0.0
 10
213.8721451379639
 20
114.4698886471049
 30
0.0
 10
213.8106930492619
 20
114.3895620360499
 30
0.0
 10
213.7781314356653
 20
114.3295793173302
 30
0.0
 10
213.769623136642
 20
114.313905926158
 30
0.0
  0
SPLINE
  5
C6
330
1F
100
AcDbEntity
  8
0
  6
Continuous
 62
     7
370
    15
100
AcDbSpline
210
0.0
220
0.0
230
1.0
 70
     8
 71
     3
 72
    14
 73
    10
 74
     0
 42
0.00000001
 43
0.00000001
 12
1.0
 22
0.0
 32
0.0
 13
1.0
 23
0.0
 33
0.0
 40
0.0
 40
0.0
 40
0.0
 40
0.0
 40
0.2086057514803472
 40
0.3652037005651722
 40
0.4768532628280511
 40
0.5890212298623532
 40
0.718567625512346
 40
0.9352578392283948
 40
1.0
 40
1.0
 40
1.0
 40
1.0
 10
214.3042917014384
 20
113.7803512231608
 30
0.0
 10
214.3468642222893
 20
113.8050656187856
 30
0.0
 10
214.4213954470843
 20
113.8483328282241
 30
0.0
 10
214.4983636139655
 20
113.9326217251744
 30
0.0
 10
214.534927456231
 20
114.0159349231794
 30
0.0
 10
214.5382257807899
 20
114.1011282739777
 30
0.0
 10
214.5021624955457
 20
114.2050520958915
 30
0.0
 10
214.4418491947325
 20
114.2831331581208
 30
0.0
 10
214.3948265266085
 20
114.3299769691544
 30
0.0
 10
214.3840091885352
 20
114.3407531620165
 30
0.0
  0
ARC
  5
C7
330
1F
100
AcDbEntity
  8
0
  6
Continuous
 62
     7
370
    15
100
AcDbCircle
 10
216.0934665935
 20
116.1077500539
 30
0.0
 40
1.001286234411545
100
AcDbArc
 50
152.7916062161
 51
297.327557353
  0
ARC
  5
C8
330
1F
100
AcDbEntity
  8
0
  6
Continuous
 62
     7
370
    15
100
AcDbCircle
 10
216.055922545
 20
116.0703757097
 30
0.0
 40
2.405595233819882
100
AcDbArc
 50
224.1493349112
 51
225.9719656086
  0
LINE
  5
C9
330
1F
100
AcDbEntity
  8
0
  6
Continuous
 62
     7
370
    15
100
AcDbLine
 10
218.6210463406
 20
123.1712883876
 30
0.0
 11
215.2029732825
 21
116.5655663775
 31
0.0
  0
ARC
  5
CA
330
1F
100
AcDbEntity
  8
0
  6
Continuous
 62
     7
370
    15
100
AcDbCircle
 10
219.5008248259
 20
122.7161213972
 30
0.0
 40
0.9905489247686895
100
AcDbArc
 50
117.4772878954
 51
152.6445162946
  0
LINE
  5
CB
330
1F
100
AcDbEntity
  8
0
  6
Continuous
 62
     7
370
    15
100
AcDbLine
 10
225.6421605707
 20
127.0269657091
 30
0.0
 11
219.0437885584
 21
123.594930263
 31
0.0
  0
ARC
  5
CC
330
1F
100
AcDbEntity
  8
0
  6
Continuous
 62
     7
370
    15
100
AcDbCircle
 10
226.1018290624
 20
126.137428238
 30
0.0
 40
1.001285191558245
100
AcDbArc
 50
332.7915827953
 51
117.327659982
  0
LINE
  5
CD
330
1F
100
AcDbEntity
  8
0
  6
Continuous
 62
     7
370
    15
100
AcDbLine
 10
223.5742482008
 20
119.0738900171
 30
0.0
 11
226.9923212589
 21
125.6796120272
 31
0.0
  0
ARC
  5
CE
330
1F
100
AcDbEntity
  8
0
  6
Continuous
 62
     7
370
    15
100
AcDbCircle
 10
222.6944667019
 20
119.5290580827
 30
0.0
 40
0.9905520954156602
100
AcDbArc
 50
297.4773889927
 51
332.6445411544
  0
LINE
  5
CF
330
1F
100
AcDbEntity
  8
0
  6
Continuous
 62
     7
370
    15
100
AcDbLine
 10
216.5531339706
 20
115.2182108329
 30
0.0
 11
223.151505983
 21
118.6502472104
 31
0.0
  0
CIRCLE
  5
D0
330
1F
100
AcDbEntity
  8
0
  6
Continuous
 62
     7
370
    15
100
AcDbCircle
 10
221.1026413886
 20
121.1120386999
 30
0.0
 40
3.039345583748022
  0
ARC
  5
D1
330
1F
100
AcDbEntity
  8
0
  6
Continuous
 62
     7
370
    15
100
AcDbCircle
 10
221.0193680334
 20
121.0425209479
 30
0.0
 40
3.051431453305088
100
AcDbArc
 50
332.7308283091
 51
134.6751334672
  0
LWPOLYLINE
  5
D2
330
1F
100
AcDbEntity
  8
0
  6
Continuous
 62
     7
370
    15
100
AcDbPolyline
 90
        3
 70
   128
 43
0.0
 10
223.1820384623
 20
118.8938001708
 10
223.4292189242
 20
119.1728784309
 10
223.7316752435
 20
119.6444424407
  0
LINE
  5
D3
330
1F
100
AcDbEntity
  8
0
  6
Continuous
 62
     7
370
    15
100
AcDbLine
 10
228.8887026371
 20
128.9304754303
 30
0.0
 11
231.2799478532
 21
131.3266268538
 31
0.0
  0
LINE
  5
D4
330
1F
100
AcDbEntity
  8
0
  6
Continuous
 62
     7
370
    15
100
AcDbLine
 10
228.3140579821
 20
127.8199328647
 30
0.0
 11
228.8887026371
 21
128.9304754303
 31
0.0
  0
LINE
  5
D5
330
1F
100
AcDbEntity
  8
0
  6
Continuous
 62
     7
370
    15
100
AcDbLine
 10
228.8887026371
 20
128.9304754303
 30
0.0
 11
227.7793931426
 21
128.3534875677
 31
0.0
  0
SPLINE
  5
D6
330
1F
100
AcDbEntity
  8
0
  6
Continuous
 62
     7
370
    15
100
AcDbSpline
210
0.0
220
0.0
230
1.0
 70
     8
 71
     3
 72
    11
 73
     7
 74
     0
 42
0.00000001
 43
0.00000001
 12
1.0
 22
0.0
 32
0.0
 13
1.0
 23
0.0
 33
0.0
 40
0.0
 40
0.0
 40
0.0
 40
0.0
 40
0.3241883005840327
 40
0.6482201985811307
 40
0.98879809410067
 40
0.9999999999999999
 40
0.9999999999999999
 40
0.9999999999999999
 40
0.9999999999999999
 10
224.2182093323493
 20
117.9675039441486
 30
0.0
 10
224.1644200774949
 20
118.0168393929351
 30
0.0
 10
224.0568675180706
 20
118.1154864889342
 30
0.0
 10
223.8830785955594
 20
118.2896276616704
 30
0.0
 10
223.7754599903092
 20
118.4046402912629
 30
0.0
 10
223.7260838211122
 20
118.4598380257253
 30
0.0
 10
223.7245115102553
 20
118.4615957156916
 30
0.0
  0
SPLINE
  5
D7
330
1F
100
AcDbEntity
  8
0
  6
Continuous
 62
     7
370
    15
100
AcDbSpline
210
0.0
220
0.0
230
1.0
 70
     8
 71
     3
 72
    11
 73
     7
 74
     0
 42
0.00000001
 43
0.00000001
 12
1.0
 22
0.0
 32
0.0
 13
1.0
 23
0.0
 33
0.0
 40
0.0
 40
0.0
 40
0.0
 40
0.0
 40
0.3241911227387568
 40
0.6482212877664492
 40
0.9887986769978302
 40
1.0
 40
1.0
 40
1.0
 40
1.0
 10
217.9359803558612
 20
124.2366692588826
 30
0.0
 10
217.9854202876373
 20
124.1829941354559
 30
0.0
 10
218.0842756047487
 20
124.0756705377745
 30
0.0
 10
218.2587590756794
 20
123.9022218682449
 30
0.0
 10
218.3740531905025
 20
123.7948688722823
 30
0.0
 10
218.4293407739361
 20
123.7455676032081
 30
0.0
 10
218.4311012388492
 20
123.7439977542658
 30
0.0
  0
ARC
  5
D8
330
1F
100
AcDbEntity
  8
0
  6
Continuous
 62
     7
370
    15
100
AcDbCircle
 10
226.032591962
 20
126.0683918937
 30
0.0
 40
2.398694084045904
100
AcDbArc
 50
44.145275422
 51
45.9730716432
  0
SPLINE
  5
D9
330
1F
100
AcDbEntity
  8
0
  6
Continuous
 62
     7
370
    15
100
AcDbSpline
210
0.0
220
0.0
230
1.0
 70
     8
 71
     3
 72
    14
 73
    10
 74
     0
 42
0.00000001
 43
0.00000001
 12
1.0
 22
0.0
 32
0.0
 13
1.0
 23
0.0
 33
0.0
 40
0.0
 40
0.0
 40
0.0
 40
0.0
 40
0.2055214927312874
 40
0.3570162579308628
 40
0.4668456539146635
 40
0.57708180596312
 40
0.7093697933761556
 40
0.9240615194116547
 40
1.0
 40
1.0
 40
1.0
 40
1.0
 10
227.7538376511359
 20
127.7390344605943
 30
0.0
 10
227.789089327062
 20
127.7054386527446
 30
0.0
 10
227.8503258491291
 20
127.6470785783736
 30
0.0
 10
227.9502099047775
 20
127.5960326051549
 30
0.0
 10
228.0384661502623
 20
127.5833679181927
 30
0.0
 10
228.1210719392964
 20
127.6026615390485
 30
0.0
 10
228.2115392967476
 20
127.6639490447937
 30
0.0
 10
228.272993321913
 20
127.7442759403784
 30
0.0
 10
228.3055510146139
 20
127.8042597532891
 30
0.0
 10
228.3140579820895
 20
127.8199328647157
 30
0.0
  0
SPLINE
  5
DA
330
1F
100
AcDbEntity
  8
0
  6
Continuous
 62
     7
370
    15
100
AcDbSpline
210
0.0
220
0.0
230
1.0
 70
     8
 71
     3
 72
    14
 73
    10
 74
     0
 42
0.00000001
 43
0.00000001
 12
1.0
 22
0.0
 32
0.0
 13
1.0
 23
0.0
 33
0.0
 40
0.0
 40
0.0
 40
0.0
 40
0.0
 40
0.2086056079374393
 40
0.365204433686716
 40
0.4768514988666
 40
0.5890220128525676
 40
0.718565815018631
 40
0.935256946092515
 40
1.0
 40
1.0
 40
1.0
 40
1.0
 10
227.7793931425834
 20
128.3534875677129
 30
0.0
 10
227.7368205124712
 20
128.3287732548033
 30
0.0
 10
227.6622888954913
 20
128.2855060735453
 30
0.0
 10
227.5853220772175
 20
128.2012165514968
 30
0.0
 10
227.5487568899568
 20
128.1179037934608
 30
0.0
 10
227.5454588727464
 20
128.0327106789537
 30
0.0
 10
227.5815229774538
 20
127.9287869918694
 30
0.0
 10
227.6418360408005
 20
127.8507060736647
 30
0.0
 10
227.6888583258908
 20
127.8038612115336
 30
0.0
 10
227.6996756554866
 20
127.7930846975346
 30
0.0
  0
CIRCLE
  5
DB
330
1F
100
AcDbEntity
  8
0
  6
Continuous
 62
     7
370
    15
100
AcDbCircle
 10
220.9841704356
 20
121.0203361398
 30
0.0
 40
2.619696798286273
  0
CIRCLE
  5
DC
330
1F
100
AcDbEntity
  8
0
  6
Continuous
 62
     7
370
    15
100
AcDbCircle
 10
221.00733536
 20
121.0395553052
 30
0.0
 40
1.796648363987128
  0
ARC
  5
DD
330
1F
100
AcDbEntity
  8
0
  6
Continuous
 62
     7
370
    15
100
AcDbCircle
 10
221.0059638065
 20
121.050430616
 30
0.0
 40
1.660992912611627
100
AcDbArc
 50
118.1656650801
 51
177.0075377641
  0
ARC
  5
DE
330
1F
100
AcDbEntity
  8
0
  6
Continuous
 62
     7
370
    15
100
AcDbCircle
 10
221.0247964419
 20
121.0498083225
 30
0.0
 40
1.679832393586
100
AcDbArc
 50
177.0198748047
 51
236.9053285546
  0
ARC
  5
DF
330
1F
100
AcDbEntity
  8
0
  6
Continuous
 62
     7
370
    15
100
AcDbCircle
 10
221.0229818815
 20
121.0420779047
 30
0.0
 40
1.672367472556031
100
AcDbArc
 50
236.812797982
 51
295.3776234663
  0
LINE
  5
E0
330
1F
100
AcDbEntity
  8
0
  6
Continuous
 62
     7
370
    15
100
AcDbLine
 10
221.8151623966
 20
119.5693675966
 30
0.0
 11
221.7397289933
 21
119.5310893075
 31
0.0
  0
ARC
  5
E1
330
1F
100
AcDbEntity
  8
0
  6
Continuous
 62
     7
370
    15
100
AcDbCircle
 10
221.025838549
 20
121.0305779068
 30
0.0
 40
1.660773225570628
100
AcDbArc
 50
298.3772509847
 51
355.0586372344
  0
LINE
  5
E2
330
1F
100
AcDbEntity
  8
0
  6
Continuous
 62
     7
370
    15
100
AcDbLine
 10
222.686541325
 20
121.0068556086
 30
0.0
 11
222.6804392995
 21
120.8875252471
 31
0.0
  0
ARC
  5
E3
330
1F
100
AcDbEntity
  8
0
  6
Continuous
 62
     7
370
    15
100
AcDbCircle
 10
221.0067482991
 20
121.0312186718
 30
0.0
 40
1.679969692795328
100
AcDbArc
 50
359.1690626111
 51
54.7559690091
  0
LINE
  5
E4
330
1F
100
AcDbEntity
  8
0
  6
Continuous
 62
     7
370
    15
100
AcDbLine
 10
221.8759926618
 20
122.4688923524
 30
0.0
 11
221.976191795
 21
122.4032527373
 31
0.0
  0
ARC
  5
E5
330
1F
100
AcDbEntity
  8
0
  6
Continuous
 62
     7
370
    15
100
AcDbCircle
 10
221.0085997968
 20
121.0394327316
 30
0.0
 40
1.672042221305935
100
AcDbArc
 50
58.7507185086
 51
115.1682855213
  0
LINE
  5
E6
330
1F
100
AcDbEntity
  8
0
  6
Continuous
 62
     7
370
    15
100
AcDbLine
 10
220.2219376923
 20
122.5147395001
 30
0.0
 11
220.2975163819
 21
122.5527355985
 31
0.0
  0
SPLINE
  5
E7
330
1F
100
AcDbEntity
  8
0
  6
Continuous
 62
     7
370
    15
100
AcDbSpline
210
0.0
220
0.0
230
1.0
 70
     8
 71
     3
 72
    12
 73
     8
 74
     0
 42
0.00000001
 43
0.00000001
 12
1.0
 22
0.0
 32
0.0
 13
1.0
 23
0.0
 33
0.0
 40
0.0
 40
0.0
 40
0.0
 40
0.0
 40
0.0091682677092711
 40
0.2573275799479454
 40
0.5054939690493667
 40
0.7549940028045325
 40
1.0
 40
1.0
 40
1.0
 40
1.0
 10
219.3472358049178
 20
121.1371420488854
 30
0.0
 10
219.3471696181734
 20
121.1357745638733
 30
0.0
 10
219.3453119417497
 20
121.0973930920474
 30
0.0
 10
219.3549253729667
 20
121.0205230157228
 30
0.0
 10
219.4048452703491
 20
120.9189379609104
 30
0.0
 10
219.4836076441858
 20
120.8369858488962
 30
0.0
 10
219.5513149191944
 20
120.8087036159133
 30
0.0
 10
219.5848608971858
 20
120.794691012909
 30
0.0
  0
SPLINE
  5
E8
330
1F
100
AcDbEntity
  8
0
  6
Continuous
 62
     7
370
    15
100
AcDbSpline
210
0.0
220
0.0
230
1.0
 70
     8
 71
     3
 72
    12
 73
     8
 74
     0
 42
0.00000001
 43
0.00000001
 12
1.0
 22
0.0
 32
0.0
 13
1.0
 23
0.0
 33
0.0
 40
0.0
 40
0.0
 40
0.0
 40
0.0
 40
0.2058434483780343
 40
0.4120707635906681
 40
0.6141395210204218
 40
0.8132609970391258
 40
1.0
 40
1.0
 40
1.0
 40
1.0
 10
219.5848608971858
 20
120.794691012909
 30
0.0
 10
219.6449306893456
 20
120.7694672133926
 30
0.0
 10
219.7651822947236
 20
120.7189725757966
 30
0.0
 10
219.9039390890582
 20
120.5729488695229
 30
0.0
 10
219.9891685414481
 20
120.3962613299565
 30
0.0
 10
220.0161314193253
 20
120.2073228434828
 30
0.0
 10
219.9863525402474
 20
120.0903772732496
 30
0.0
 10
219.9719409109378
 20
120.0337809116741
 30
0.0
  0
SPLINE
  5
E9
330
1F
100
AcDbEntity
  8
0
  6
Continuous
 62
     7
370
    15
100
AcDbSpline
210
0.0
220
0.0
230
1.0
 70
     8
 71
     3
 72
    11
 73
     7
 74
     0
 42
0.00000001
 43
0.00000001
 12
1.0
 22
0.0
 32
0.0
 13
1.0
 23
0.0
 33
0.0
 40
0.0
 40
0.0
 40
0.0
 40
0.0
 40
0.2535078735179398
 40
0.5075667641853062
 40
0.759506958444822
 40
1.0
 40
1.0
 40
1.0
 40
1.0
 10
219.9719409109378
 20
120.0337809116741
 30
0.0
 10
219.9630919421069
 20
119.9975415028036
 30
0.0
 10
219.9453747705906
 20
119.9249839161647
 30
0.0
 10
219.9672232843397
 20
119.8120273117018
 30
0.0
 10
220.0207445121706
 20
119.7113476616598
 30
0.0
 10
220.079078553618
 20
119.665088086635
 30
0.0
 10
220.1075675548339
 20
119.6424959764977
 30
0.0
  0
SPLINE
  5
EA
330
1F
100
AcDbEntity
  8
0
  6
Continuous
 62
     7
370
    15
100
AcDbSpline
210
0.0
220
0.0
230
1.0
 70
     8
 71
     3
 72
    12
 73
     8
 74
     0
 42
0.00000001
 43
0.00000001
 12
1.0
 22
0.0
 32
0.0
 13
1.0
 23
0.0
 33
0.0
 40
0.0
 40
0.0
 40
0.0
 40
0.0
 40
0.0091690896640036
 40
0.2576747164366336
 40
0.5061884996614023
 40
0.7560373613590136
 40
1.0
 40
1.0
 40
1.0
 40
1.0
 10
220.1075675548339
 20
119.6424959764977
 30
0.0
 10
220.1087182564733
 20
119.6417513729158
 30
0.0
 10
220.1410558962503
 20
119.6208261203699
 30
0.0
 10
220.2122835294075
 20
119.5906082076502
 30
0.0
 10
220.3242487706726
 20
119.5830237110803
 30
0.0
 10
220.4328284844234
 20
119.6103934287308
 30
0.0
 10
220.4896374756437
 20
119.6549609750898
 30
0.0
 10
220.517703390243
 20
119.6769791261454
 30
0.0
  0
SPLINE
  5
EB
330
1F
100
AcDbEntity
  8
0
  6
Continuous
 62
     7
370
    15
100
AcDbSpline
210
0.0
220
0.0
230
1.0
 70
     8
 71
     3
 72
    12
 73
     8
 74
     0
 42
0.00000001
 43
0.00000001
 12
1.0
 22
0.0
 32
0.0
 13
1.0
 23
0.0
 33
0.0
 40
0.0
 40
0.0
 40
0.0
 40
0.0
 40
0.2057527066712314
 40
0.4119613500890332
 40
0.6140151386997316
 40
0.8131435816237845
 40
1.0
 40
1.0
 40
1.0
 40
1.0
 10
220.5177033902431
 20
119.6769791261454
 30
0.0
 10
220.5683744310791
 20
119.7165224986815
 30
0.0
 10
220.6698287970069
 20
119.7956968697049
 30
0.0
 10
220.8635420034637
 20
119.8426692056986
 30
0.0
 10
221.0589191455525
 20
119.8274004534124
 30
0.0
 10
221.2375428890945
 20
119.7550793772004
 30
0.0
 10
221.3258431015063
 20
119.6698237743026
 30
0.0
 10
221.3685894967341
 20
119.628551283588
 30
0.0
  0
SPLINE
  5
EC
330
1F
100
AcDbEntity
  8
0
  6
Continuous
 62
     7
370
    15
100
AcDbSpline
210
0.0
220
0.0
230
1.0
 70
     8
 71
     3
 72
    11
 73
     7
 74
     0
 42
0.00000001
 43
0.00000001
 12
1.0
 22
0.0
 32
0.0
 13
1.0
 23
0.0
 33
0.0
 40
0.0
 40
0.0
 40
0.0
 40
0.0
 40
0.2794065969936968
 40
0.5596240453338411
 40
0.8375024323466884
 40
1.0
 40
1.0
 40
1.0
 40
1.0
 10
221.3685894967341
 20
119.628551283588
 30
0.0
 10
221.3961059417814
 20
119.6024919047839
 30
0.0
 10
221.4512186859193
 20
119.5502975216086
 30
0.0
 10
221.5611131197344
 20
119.5118178566223
 30
0.0
 10
221.661036954404
 20
119.5081015560082
 30
0.0
 10
221.718518466645
 20
119.5248932256104
 30
0.0
 10
221.739728993299
 20
119.5310893074771
 30
0.0
  0
LWPOLYLINE
  5
ED
330
1F
100
AcDbEntity
  8
0
  6
Continuous
 62
     7
370
    15
100
AcDbPolyline
 90
        3
 70
   128
 43
0.0
 10
219.3988608779
 20
121.299989389
 10
219.4189737202
 20
121.3122046159
 10
219.5237475098
 20
121.34953575
  0
SPLINE
  5
EE
330
1F
100
AcDbEntity
  8
0
  6
Continuous
 62
     7
370
    15
100
AcDbSpline
210
0.0
220
0.0
230
1.0
 70
     8
 71
     3
 72
    11
 73
     7
 74
     0
 42
0.00000001
 43
0.00000001
 12
1.0
 22
0.0
 32
0.0
 13
1.0
 23
0.0
 33
0.0
 40
0.0
 40
0.0
 40
0.0
 40
0.0
 40
0.2524737025453648
 40
0.506890689713099
 40
0.7591759787789867
 40
1.0
 40
1.0
 40
1.0
 40
1.0
 10
219.6186902583861
 20
121.4442456678649
 30
0.0
 10
219.5828925935202
 20
121.4345599620564
 30
0.0
 10
219.5110217299369
 20
121.4151139997715
 30
0.0
 10
219.4239150237528
 20
121.3416838687341
 30
0.0
 10
219.3633285702582
 20
121.246296369227
 30
0.0
 10
219.3525162906179
 20
121.1729586295336
 30
0.0
 10
219.3472358049178
 20
121.1371420488854
 30
0.0
  0
SPLINE
  5
EF
330
1F
100
AcDbEntity
  8
0
  6
Continuous
 62
     7
370
    15
100
AcDbSpline
210
0.0
220
0.0
230
1.0
 70
     8
 71
     3
 72
    12
 73
     8
 74
     0
 42
0.00000001
 43
0.00000001
 12
1.0
 22
0.0
 32
0.0
 13
1.0
 23
0.0
 33
0.0
 40
0.0
 40
0.0
 40
0.0
 40
0.0
 40
0.2058586320238047
 40
0.412101867000684
 40
0.6141945828299888
 40
0.8133169918689847
 40
1.0
 40
1.0
 40
1.0
 40
1.0
 10
220.0825000764155
 20
122.1567297891875
 30
0.0
 10
220.0911940883765
 20
122.0912642512469
 30
0.0
 10
220.1085983552056
 20
121.9602108669691
 30
0.0
 10
220.0524937290351
 20
121.7661314334541
 30
0.0
 10
219.9424026777214
 20
121.6048220846803
 30
0.0
 10
219.7919364294668
 20
121.4893985227087
 30
0.0
 10
219.6751841802458
 20
121.4589695826122
 30
0.0
 10
219.6186902583862
 20
121.4442456678649
 30
0.0
  0
SPLINE
  5
F0
330
1F
100
AcDbEntity
  8
0
  6
Continuous
 62
     7
370
    15
100
AcDbSpline
210
0.0
220
0.0
230
1.0
 70
     8
 71
     3
 72
    11
 73
     7
 74
     0
 42
0.00000001
 43
0.00000001
 12
1.0
 22
0.0
 32
0.0
 13
1.0
 23
0.0
 33
0.0
 40
0.0
 40
0.0
 40
0.0
 40
0.0
 40
0.2423570735909232
 40
0.5166831963703572
 40
0.7923339014818452
 40
1.0
 40
1.0
 40
1.0
 40
1.0
 10
220.221937692287
 20
122.5147395000954
 30
0.0
 10
220.1962130634693
 20
122.4939178879764
 30
0.0
 10
220.141370498959
 20
122.4495281082854
 30
0.0
 10
220.0889515753314
 20
122.3525649727911
 30
0.0
 10
220.0680079435353
 20
122.2495415781505
 30
0.0
 10
220.0781446507095
 20
122.1846231886487
 30
0.0
 10
220.0825000764155
 20
122.1567297891875
 30
0.0
  0
ARC
  5
F1
330
1F
100
AcDbEntity
  8
0
  6
Continuous
 62
     7
370
    15
100
AcDbCircle
 10
221.529476338
 20
119.7469856524
 30
0.0
 40
0.3333735028662487
100
AcDbArc
 50
328.7029232791
 51
13.8102729359
  0
SPLINE
  5
F2
330
1F
100
AcDbEntity
  8
0
  6
Continuous
 62
     7
370
    15
100
AcDbSpline
210
0.0
220
0.0
230
1.0
 70
     8
 71
     3
 72
    11
 73
     7
 74
     0
 42
0.00000001
 43
0.00000001
 12
1.0
 22
0.0
 32
0.0
 13
1.0
 23
0.0
 33
0.0
 40
0.0
 40
0.0
 40
0.0
 40
0.0
 40
0.2431072766349531
 40
0.5182785434622353
 40
0.7947796024520325
 40
0.9999999999999999
 40
0.9999999999999999
 40
0.9999999999999999
 40
0.9999999999999999
 10
221.8151623965526
 20
119.5693675966163
 30
0.0
 10
221.8406712224404
 20
119.5901469731236
 30
0.0
 10
221.8950532932265
 20
119.6344463669521
 30
0.0
 10
221.945852227557
 20
119.7303424635487
 30
0.0
 10
221.964606845412
 20
119.8313114355867
 30
0.0
 10
221.9530883745632
 20
119.8944192847585
 30
0.0
 10
221.9481813372398
 20
119.9213041530152
 30
0.0
  0
ARC
  5
F3
330
1F
100
AcDbEntity
  8
0
  6
Continuous
 62
     7
370
    15
100
AcDbCircle
 10
220.9528806997
 20
120.9778018257
 30
0.0
 40
2.625017883717778
100
AcDbArc
 50
135.1404307854
 51
314.7198392741
  0
SPLINE
  5
F4
330
1F
100
AcDbEntity
  8
0
  6
Continuous
 62
     7
370
    15
100
AcDbSpline
210
0.0
220
0.0
230
1.0
 70
     8
 71
     3
 72
    12
 73
     8
 74
     0
 42
0.00000001
 43
0.00000001
 12
1.0
 22
0.0
 32
0.0
 13
1.0
 23
0.0
 33
0.0
 40
0.0
 40
0.0
 40
0.0
 40
0.0
 40
0.2058183859629501
 40
0.4120220655062066
 40
0.6140805065448969
 40
0.8132140283775217
 40
1.0
 40
1.0
 40
1.0
 40
1.0
 10
221.9481813372397
 20
119.9213041530152
 30
0.0
 10
221.9381265125355
 20
119.9854006584795
 30
0.0
 10
221.9179980404191
 20
120.1137136585527
 30
0.0
 10
221.9718871569202
 20
120.3055847212365
 30
0.0
 10
222.0821086886108
 20
120.4670483368112
 30
0.0
 10
222.2348820149664
 20
120.5848159429907
 30
0.0
 10
222.3542276016244
 20
120.6178161122911
 30
0.0
 10
222.4119911552691
 20
120.6337882743378
 30
0.0
  0
SPLINE
  5
F5
330
1F
100
AcDbEntity
  8
0
  6
Continuous
 62
     7
370
    15
100
AcDbSpline
210
0.0
220
0.0
230
1.0
 70
     8
 71
     3
 72
    11
 73
     7
 74
     0
 42
0.00000001
 43
0.00000001
 12
1.0
 22
0.0
 32
0.0
 13
1.0
 23
0.0
 33
0.0
 40
0.0
 40
0.0
 40
0.0
 40
0.0
 40
0.2908702436230732
 40
0.5839567956597628
 40
0.874597859529709
 40
1.0
 40
1.0
 40
1.0
 40
1.0
 10
222.4119911552691
 20
120.6337882743378
 30
0.0
 10
222.448571540795
 20
120.6442634646033
 30
0.0
 10
222.5220110389354
 20
120.66529366166
 30
0.0
 10
222.6110563942324
 20
120.7404796227518
 30
0.0
 10
222.661228220402
 20
120.8199010472035
 30
0.0
 10
222.6759898929687
 20
120.8718630579678
 30
0.0
 10
222.6804392994666
 20
120.8875252471467
 30
0.0
  0
ARC
  5
F6
330
1F
100
AcDbEntity
  8
0
  6
Continuous
 62
     7
370
    15
100
AcDbCircle
 10
219.4230225456
 20
121.9221894935
 30
0.0
 40
0.5814446048147223
100
AcDbArc
 50
279.9758030854
 51
314.9183858105
  0
ARC
  5
F7
330
1F
100
AcDbEntity
  8
0
  6
Continuous
 62
     7
370
    15
100
AcDbCircle
 10
222.4189547755
 20
119.9658983767
 30
0.0
 40
0.5826476267876709
100
AcDbArc
 50
134.9701986559
 51
193.8357465537
  0
ARC
  5
F8
330
1F
100
AcDbEntity
  8
0
  6
Continuous
 62
     7
370
    15
100
AcDbCircle
 10
220.3108437752
 20
122.1394603766
 30
0.0
 40
0.3347017602098582
100
AcDbArc
 50
40.0311774563
 51
122.1870680612
  0
SPLINE
  5
F9
330
1F
100
AcDbEntity
  8
0
  6
Continuous
 62
     7
370
    15
100
AcDbSpline
210
0.0
220
0.0
230
1.0
 70
     8
 71
     3
 72
    11
 73
     7
 74
     0
 42
0.00000001
 43
0.00000001
 12
1.0
 22
0.0
 32
0.0
 13
1.0
 23
0.0
 33
0.0
 40
0.0
 40
0.0
 40
0.0
 40
0.0
 40
0.2802406467845494
 40
0.5612884173715245
 40
0.839993216718598
 40
0.9999999999999999
 40
0.9999999999999999
 40
0.9999999999999999
 40
0.9999999999999999
 10
220.6620919169211
 20
122.4494817272921
 30
0.0
 10
220.6353743257364
 20
122.4763340241035
 30
0.0
 10
220.5818621937736
 20
122.5301159552864
 30
0.0
 10
220.4737079762589
 20
122.5703284062953
 30
0.0
 10
220.3751804575195
 20
122.5749882465521
 30
0.0
 10
220.3182720152785
 20
122.5586825926707
 30
0.0
 10
220.2975163818622
 20
122.5527355984946
 30
0.0
  0
SPLINE
  5
FA
330
1F
100
AcDbEntity
  8
0
  6
Continuous
 62
     7
370
    15
100
AcDbSpline
210
0.0
220
0.0
230
1.0
 70
     8
 71
     3
 72
    11
 73
     7
 74
     0
 42
0.00000001
 43
0.00000001
 12
1.0
 22
0.0
 32
0.0
 13
1.0
 23
0.0
 33
0.0
 40
0.0
 40
0.0
 40
0.0
 40
0.0
 40
0.2657622207051869
 40
0.5530045714450661
 40
0.8418258283424779
 40
1.0
 40
1.0
 40
1.0
 40
1.0
 10
221.8759926618361
 20
122.4688923523923
 30
0.0
 10
221.8428241736062
 20
122.4794307143613
 30
0.0
 10
221.7738063667471
 20
122.5013591973824
 30
0.0
 10
221.6623039640783
 20
122.4901474041372
 30
0.0
 10
221.5727382725846
 20
122.4522334399304
 30
0.0
 10
221.5286004094265
 20
122.4144314569772
 30
0.0
 10
221.5129817487025
 20
122.4010548160573
 30
0.0
  0
SPLINE
  5
FB
330
1F
100
AcDbEntity
  8
0
  6
Continuous
 62
     7
370
    15
100
AcDbSpline
210
0.0
220
0.0
230
1.0
 70
     8
 71
     3
 72
    12
 73
     8
 74
     0
 42
0.00000001
 43
0.00000001
 12
1.0
 22
0.0
 32
0.0
 13
1.0
 23
0.0
 33
0.0
 40
0.0
 40
0.0
 40
0.0
 40
0.0
 40
0.2057920570556903
 40
0.4120337709869164
 40
0.6141302514272755
 40
0.8132625276862262
 40
1.0
 40
1.0
 40
1.0
 40
1.0
 10
221.5129817487025
 20
122.4010548160573
 30
0.0
 10
221.4609399325889
 20
122.3601476549752
 30
0.0
 10
221.3567425886821
 20
122.2782439504196
 30
0.0
 10
221.1608074225977
 20
122.2290932048548
 30
0.0
 10
220.965565068594
 20
122.2445446071644
 30
0.0
 10
220.7892819826046
 20
122.3192027886625
 30
0.0
 10
220.7035708758004
 20
122.4069954316115
 30
0.0
 10
220.6620919169211
 20
122.4494817272921
 30
0.0
  0
SPLINE
  5
FC
330
1F
100
AcDbEntity
  8
0
  6
Continuous
 62
     7
370
    15
100
AcDbSpline
210
0.0
220
0.0
230
1.0
 70
     8
 71
     3
 72
    11
 73
     7
 74
     0
 42
0.00000001
 43
0.00000001
 12
1.0
 22
0.0
 32
0.0
 13
1.0
 23
0.0
 33
0.0
 40
0.0
 40
0.0
 40
0.0
 40
0.0
 40
0.2669011556695272
 40
0.5546153833738088
 40
0.8439030914533775
 40
1.0
 40
1.0
 40
1.0
 40
1.0
 10
222.6865413249755
 20
121.0068556086322
 30
0.0
 10
222.6788850791766
 20
121.0407564976476
 30
0.0
 10
222.6629755500915
 20
121.1112018822351
 30
0.0
 10
222.5970020167663
 20
121.2011456574521
 30
0.0
 10
222.519407953791
 20
121.258362617145
 30
0.0
 10
222.4649179799709
 20
121.2768600211116
 30
0.0
 10
222.4458205164695
 20
121.2833429292937
 30
0.0
  0
SPLINE
  5
FD
330
1F
100
AcDbEntity
  8
0
  6
Continuous
 62
     7
370
    15
100
AcDbSpline
210
0.0
220
0.0
230
1.0
 70
     8
 71
     3
 72
    12
 73
     8
 74
     0
 42
0.00000001
 43
0.00000001
 12
1.0
 22
0.0
 32
0.0
 13
1.0
 23
0.0
 33
0.0
 40
0.0
 40
0.0
 40
0.0
 40
0.0
 40
0.2058398781096949
 40
0.4120617084884026
 40
0.6141388962321227
 40
0.813277535718728
 40
1.0
 40
1.0
 40
1.0
 40
1.0
 10
222.4458205164695
 20
121.2833429292937
 30
0.0
 10
222.3843896152658
 20
121.3072079497639
 30
0.0
 10
222.2614138229342
 20
121.3549822741482
 30
0.0
 10
222.1204650459206
 20
121.4988170848586
 30
0.0
 10
222.035396068907
 20
121.6756700949238
 30
0.0
 10
222.0107508704554
 20
121.8669198972872
 30
0.0
 10
222.0430933457762
 20
121.9864231505837
 30
0.0
 10
222.0587442280078
 20
122.044252099206
 30
0.0
  0
SPLINE
  5
FE
330
1F
100
AcDbEntity
  8
0
  6
Continuous
 62
     7
370
    15
100
AcDbSpline
210
0.0
220
0.0
230
1.0
 70
     8
 71
     3
 72
    11
 73
     7
 74
     0
 42
0.00000001
 43
0.00000001
 12
1.0
 22
0.0
 32
0.0
 13
1.0
 23
0.0
 33
0.0
 40
0.0
 40
0.0
 40
0.0
 40
0.0
 40
0.2928992187743527
 40
0.5864372077347145
 40
0.8775173468226798
 40
1.0
 40
1.0
 40
1.0
 40
1.0
 10
222.0587442280078
 20
122.044252099206
 30
0.0
 10
222.0683831746018
 20
122.0812723553625
 30
0.0
 10
222.0876820889169
 20
122.1553936034181
 30
0.0
 10
222.0676600940287
 20
122.2702683071159
 30
0.0
 10
222.0244088457636
 20
122.3531268321809
 30
0.0
 10
221.9872090554834
 20
122.3917993169038
 30
0.0
 10
221.9761917949939
 20
122.4032527373334
 30
0.0
  0
ARC
  5
FF
330
1F
100
AcDbEntity
  8
0
  6
Continuous
 62
     7
370
    15
100
AcDbCircle
 10
222.2563687456
 20
120.8669855379
 30
0.0
 40
0.3351810752608895
100
AcDbArc
 50
325.6568613383
 51
73.6311663503
  0
ARC
  5
100
330
1F
100
AcDbEntity
  8
0
  6
Continuous
 62
     7
370
    15
100
AcDbCircle
 10
221.0153549222
 20
122.7309325056
 30
0.0
 40
0.5851760977441279
100
AcDbArc
 50
220.0059504882
 51
313.4771560257
  0
ARC
  5
101
330
1F
100
AcDbEntity
  8
0
  6
Continuous
 62
     7
370
    15
100
AcDbCircle
 10
221.6481837647
 20
122.0626020837
 30
0.0
 40
0.3352252383838757
100
AcDbArc
 50
340.2801710007
 51
133.3671682484
  0
ARC
  5
102
330
1F
100
AcDbEntity
  8
0
  6
Continuous
 62
     7
370
    15
100
AcDbCircle
 10
222.5170538733
 20
121.7520502737
 30
0.0
 40
0.5874762794869429
100
AcDbArc
 50
160.3616993048
 51
253.5638419676
  0
SPLINE
  5
103
330
1F
100
AcDbEntity
  8
0
  6
HIDDEN
 62
     7
370
     0
100
AcDbSpline
210
0.0
220
0.0
230
1.0
 70
     8
 71
     3
 72
    14
 73
    10
 74
     0
 42
0.00000001
 43
0.00000001
 12
1.0
 22
0.0
 32
0.0
 13
1.0
 23
0.0
 33
0.0
 40
0.0
 40
0.0
 40
0.0
 40
0.0
 40
0.1578268149534495
 40
0.315623659440764
 40
0.4741975014891651
 40
0.633286524147407
 40
0.7915361789549654
 40
0.948910875760914
 40
1.0
 40
1.0
 40
1.0
 40
1.0
 10
195.6923260004544
 20
94.98959393959242
 30
0.0
 10
195.4124483918949
 20
95.01367569473014
 30
0.0
 10
194.8527463220335
 20
95.06183463200937
 30
0.0
 10
194.1067079905301
 20
95.43958505748655
 30
0.0
 10
193.5377358990975
 20
96.00334277277715
 30
0.0
 10
193.2059023272008
 20
96.72407163272914
 30
0.0
 10
193.1710180661285
 20
97.50436000648965
 30
0.0
 10
193.3155994599269
 20
98.12301071732197
 30
0.0
 10
193.5389731557888
 20
98.40346821018764
 30
0.0
 10
193.593716307106
 20
98.47220113288361
 30
0.0
  0
SPLINE
  5
104
330
1F
100
AcDbEntity
  8
0
  6
HIDDEN
 62
     7
370
     0
100
AcDbSpline
210
0.0
220
0.0
230
1.0
 70
     8
 71
     3
 72
    14
 73
    10
 74
     0
 42
0.00000001
 43
0.00000001
 12
1.0
 22
0.0
 32
0.0
 13
1.0
 23
0.0
 33
0.0
 40
0.0
 40
0.0
 40
0.0
 40
0.0
 40
0.1038411133448136
 40
0.2620775136439
 40
0.4192397754988723
 40
0.5763557985470559
 40
0.7345163945525325
 40
0.8932097999001692
 40
0.9999999999999999
 40
0.9999999999999999
 40
0.9999999999999999
 40
0.9999999999999999
 10
197.7821393520856
 20
98.48301518495876
 30
0.0
 10
197.881124072525
 20
98.33437472211634
 30
0.0
 10
198.1309448668703
 20
97.95923118143354
 30
0.0
 10
198.2339849422823
 20
97.24861372156987
 30
0.0
 10
198.1005685307247
 20
96.48057925625211
 30
0.0
 10
197.6897354557523
 20
95.8046575195181
 30
0.0
 10
197.057286768024
 20
95.29917971920149
 30
0.0
 10
196.3521931200706
 20
95.02874551424637
 30
0.0
 10
195.8816150148655
 20
95.0008249325584
 30
0.0
 10
195.6923260004544
 20
94.98959393959242
 30
0.0
  0
SPLINE
  5
105
330
1F
100
AcDbEntity
  8
0
  6
HIDDEN
 62
     7
370
     0
100
AcDbSpline
210
0.0
220
0.0
230
1.0
 70
     8
 71
     3
 72
    18
 73
    14
 74
     0
 42
0.00000001
 43
0.00000001
 12
1.0
 22
0.0
 32
0.0
 13
1.0
 23
0.0
 33
0.0
 40
0.0
 40
0.0
 40
0.0
 40
0.0
 40
0.2500000000000006
 40
0.2500000000000006
 40
0.5000000000000011
 40
0.5000000000000011
 40
0.6250000000000008
 40
0.6250000000000008
 40
0.7500000000000006
 40
0.7500000000000006
 40
0.8750000000000002
 40
0.8750000000000002
 40
1.0
 40
1.0
 40
1.0
 40
1.0
 10
180.4362412507578
 20
114.5653630562234
 30
0.0
 10
180.4705422952905
 20
114.4573528704258
 30
0.0
 10
180.5083625665873
 20
114.3500757823978
 30
0.0
 10
180.5949808870481
 20
114.1385790850812
 30
0.0
 10
180.6433522217916
 20
114.0341927349116
 30
0.0
 10
180.73275520391
 20
113.8833178122673
 30
0.0
 10
180.7653524877873
 20
113.8339728092317
 30
0.0
 10
180.8417343917322
 20
113.7393671707614
 30
0.0
 10
180.884772829073
 20
113.6943712360068
 30
0.0
 10
180.9905858619048
 20
113.623443463349
 30
0.0
 10
181.0556242866359
 20
113.5994969194424
 30
0.0
 10
181.1887763584386
 20
113.6117775835132
 30
0.0
 10
181.2481455389017
 20
113.6450945415181
 30
0.0
 10
181.2973486794455
 20
113.6859294277428
 30
0.0
  0
SPLINE
  5
106
330
1F
100
AcDbEntity
  8
0
  6
HIDDEN
 62
     7
370
     0
100
AcDbSpline
210
0.0
220
0.0
230
1.0
 70
     8
 71
     3
 72
    15
 73
    11
 74
     0
 42
0.00000001
 43
0.00000001
 12
1.0
 22
0.0
 32
0.0
 13
1.0
 23
0.0
 33
0.0
 40
0.0
 40
0.0
 40
0.0
 40
0.0
 40
0.0422156777640537
 40
0.0765628012484092
 40
0.1111953837719016
 40
0.1404256926896114
 40
0.1887126572205224
 40
0.2833047600945556
 40
0.6079133263446013
 40
1.0
 40
1.0
 40
1.0
 40
1.0
 10
181.2973486667318
 20
113.6859290839334
 30
0.0
 10
181.3039602344736
 20
113.6909758198281
 30
0.0
 10
181.3159510439019
 20
113.7001286336101
 30
0.0
 10
181.3371124802283
 20
113.709223294933
 30
0.0
 10
181.356787296992
 20
113.7118334871538
 30
0.0
 10
181.3768804140947
 20
113.7083251738789
 30
0.0
 10
181.4015244965195
 20
113.6947579377165
 30
0.0
 10
181.4450155635771
 20
113.6398635118702
 30
0.0
 10
181.4772062940976
 20
113.521988378332
 30
0.0
 10
181.4810054647791
 20
113.4078729410184
 30
0.0
 10
181.4830838993942
 20
113.3454431385894
 30
0.0
  0
SPLINE
  5
107
330
1F
100
AcDbEntity
  8
0
  6
HIDDEN
 62
     7
370
     0
100
AcDbSpline
210
0.0
220
0.0
230
1.0
 70
     8
 71
     3
 72
    16
 73
    12
 74
     0
 42
0.00000001
 43
0.00000001
 12
1.0
 22
0.0
 32
0.0
 13
1.0
 23
0.0
 33
0.0
 40
0.0
 40
0.0
 40
0.0
 40
0.0
 40
0.4999999999999981
 40
0.4999999999999981
 40
0.749999999999995
 40
0.749999999999995
 40
0.8749999999999954
 40
0.8749999999999954
 40
0.9374999999999977
 40
0.9374999999999977
 40
1.0
 40
1.0
 40
1.0
 40
1.0
 10
181.4923255683207
 20
96.26155599837493
 30
0.0
 10
181.4923255683207
 20
96.15954584479489
 30
0.0
 10
181.4884421431618
 20
96.06002146954164
 30
0.0
 10
181.4636268178872
 20
95.918036373531
 30
0.0
 10
181.4527873701747
 20
95.87104307296055
 30
0.0
 10
181.4195715881258
 20
95.80875034259891
 30
0.0
 10
181.406189844497
 20
95.7884689103138
 30
0.0
 10
181.3706801946348
 20
95.77142720211336
 30
0.0
 10
181.355263228134
 20
95.76904094709722
 30
0.0
 10
181.3235622059854
 20
95.77697687695522
 30
0.0
 10
181.3094159210347
 20
95.78590195032982
 30
0.0
 10
181.297348679445
 20
95.79591684840173
 30
0.0
  0
SPLINE
  5
108
330
1F
100
AcDbEntity
  8
0
  6
HIDDEN
 62
     7
370
     0
100
AcDbSpline
210
0.0
220
0.0
230
1.0
 70
     8
 71
     3
 72
    18
 73
    14
 74
     0
 42
0.00000001
 43
0.00000001
 12
1.0
 22
0.0
 32
0.0
 13
1.0
 23
0.0
 33
0.0
 40
0.0
 40
0.0
 40
0.0
 40
0.0
 40
0.124999999999999
 40
0.124999999999999
 40
0.249999999999998
 40
0.249999999999998
 40
0.374999999999997
 40
0.374999999999997
 40
0.499999999999996
 40
0.499999999999996
 40
0.749999999999998
 40
0.749999999999998
 40
1.0
 40
1.0
 40
1.0
 40
1.0
 10
181.2973486794512
 20
95.79591684840914
 30
0.0
 10
181.2486431873091
 20
95.83633872409058
 30
0.0
 10
181.1901330789822
 20
95.86937084555831
 30
0.0
 10
181.0584039606901
 20
95.88264799751116
 30
0.0
 10
180.9936450243495
 20
95.85969441053096
 30
0.0
 10
180.88843405149
 20
95.79064121361137
 30
0.0
 10
180.84521767605
 20
95.74617356177046
 30
0.0
 10
180.7690391709381
 20
95.65300390240044
 30
0.0
 10
180.7361842095582
 20
95.60386153283963
 30
0.0
 10
180.6458159297244
 20
95.45265179789978
 30
0.0
 10
180.5963926953544
 20
95.34649702837154
 30
0.0
 10
180.5087442403062
 20
95.13291541271006
 30
0.0
 10
180.4706850681034
 20
95.0249429814748
 30
0.0
 10
180.4362412507578
 20
94.91648321992082
 30
0.0
  0
SPLINE
  5
109
330
1F
100
AcDbEntity
  8
0
  6
HIDDEN
 62
     7
370
     0
100
AcDbSpline
210
0.0
220
0.0
230
1.0
 70
     8
 71
     3
 72
     8
 73
     4
 74
     0
 42
0.00000001
 43
0.00000001
 12
1.0
 22
0.0
 32
0.0
 13
1.0
 23
0.0
 33
0.0
 40
0.0
 40
0.0
 40
0.0
 40
0.0
 40
1.0
 40
1.0
 40
1.0
 40
1.0
 10
180.4362412507572
 20
94.9164832199203
 30
0.0
 10
180.411927546867
 20
94.8399220623702
 30
0.0
 10
180.390430904911
 20
94.763496691237
 30
0.0
 10
180.371005224761
 20
94.68740382046526
 30
0.0
  0
SPLINE
  5
10A
330
1F
100
AcDbEntity
  8
0
  6
HIDDEN
 62
     7
370
     0
100
AcDbSpline
210
0.0
220
0.0
230
1.0
 70
     8
 71
     3
 72
     8
 73
     4
 74
     0
 42
0.00000001
 43
0.00000001
 12
1.0
 22
0.0
 32
0.0
 13
1.0
 23
0.0
 33
0.0
 40
0.0
 40
0.0
 40
0.0
 40
0.0
 40
1.0
 40
1.0
 40
1.0
 40
1.0
 10
180.371005224761
 20
90.91585913006689
 30
0.0
 10
180.3904306516544
 20
90.91236192647959
 30
0.0
 10
180.4119272056234
 20
90.91034560883737
 30
0.0
 10
180.4362412507577
 20
90.90973475539349
 30
0.0
  0
SPLINE
  5
10B
330
1F
100
AcDbEntity
  8
0
  6
HIDDEN
 62
     7
370
     0
100
AcDbSpline
210
0.0
220
0.0
230
1.0
 70
     8
 71
     3
 72
     8
 73
     4
 74
     0
 42
0.00000001
 43
0.00000001
 12
1.0
 22
0.0
 32
0.0
 13
1.0
 23
0.0
 33
0.0
 40
0.0
 40
0.0
 40
0.0
 40
0.0
 40
1.0
 40
1.0
 40
1.0
 40
1.0
 10
180.4362412507574
 20
118.5721115207507
 30
0.0
 10
180.4119272056232
 20
118.5715006673068
 30
0.0
 10
180.3904306516543
 20
118.5694843496645
 30
0.0
 10
180.371005224761
 20
118.5659871460773
 30
0.0
  0
SPLINE
  5
10C
330
1F
100
AcDbEntity
  8
0
  6
HIDDEN
 62
     7
370
     0
100
AcDbSpline
210
0.0
220
0.0
230
1.0
 70
     8
 71
     3
 72
     8
 73
     4
 74
     0
 42
0.00000001
 43
0.00000001
 12
1.0
 22
0.0
 32
0.0
 13
1.0
 23
0.0
 33
0.0
 40
0.0
 40
0.0
 40
0.0
 40
0.0
 40
1.0
 40
1.0
 40
1.0
 40
1.0
 10
180.371005224761
 20
114.7944424556789
 30
0.0
 10
180.390430904911
 20
114.7183495849072
 30
0.0
 10
180.411927546867
 20
114.641924213774
 30
0.0
 10
180.4362412507571
 20
114.5653630562239
 30
0.0
  0
SPLINE
  5
10D
330
1F
100
AcDbEntity
  8
0
  6
HIDDEN
 62
     7
370
     0
100
AcDbSpline
210
0.0
220
0.0
230
1.0
 70
     8
 71
     3
 72
    62
 73
    58
 74
     0
 42
0.00000001
 43
0.00000001
 12
1.0
 22
0.0
 32
0.0
 13
1.0
 23
0.0
 33
0.0
 40
-0.03125
 40
-0.03125
 40
0.0
 40
0.0
 40
0.0312500000000003
 40
0.0312500000000003
 40
0.0625000000000005
 40
0.0625000000000005
 40
0.0937500000000008
 40
0.0937500000000008
 40
0.1250000000000011
 40
0.1250000000000011
 40
0.1875000000000013
 40
0.1875000000000013
 40
0.2187500000000014
 40
0.2187500000000014
 40
0.2500000000000014
 40
0.2500000000000014
 40
0.2812500000000015
 40
0.2812500000000015
 40
0.3125000000000016
 40
0.3125000000000016
 40
0.3437500000000016
 40
0.3437500000000016
 40
0.3750000000000016
 40
0.3750000000000016
 40
0.4062500000000017
 40
0.4062500000000017
 40
0.4375000000000017
 40
0.4375000000000017
 40
0.4687500000000018
 40
0.4687500000000018
 40
0.5000000000000018
 40
0.5000000000000018
 40
0.5625000000000016
 40
0.5625000000000016
 40
0.5937500000000012
 40
0.5937500000000012
 40
0.625000000000001
 40
0.625000000000001
 40
0.6875000000000007
 40
0.6875000000000007
 40
0.7187500000000004
 40
0.7187500000000004
 40
0.7500000000000002
 40
0.7500000000000002
 40
0.7812500000000001
 40
0.7812500000000001
 40
0.8124999999999999
 40
0.8124999999999999
 40
0.8749999999999998
 40
0.8749999999999998
 40
0.9062499999999999
 40
0.9062499999999999
 40
0.9374999999999999
 40
0.9374999999999999
 40
0.96875
 40
0.96875
 40
1.0
 40
1.0
 40
1.03125
 40
1.03125
 10
195.8321671141225
 20
104.999010230418
 30
0.0
 10
195.5524840225191
 20
104.999010230418
 30
0.0
 10
195.4152000655615
 20
105.0136970297855
 30
0.0
 10
195.1454643107101
 20
105.0707894961663
 30
0.0
 10
195.0115822916146
 20
105.1139442841658
 30
0.0
 10
194.7578357332165
 20
105.2248825928142
 30
0.0
 10
194.6376500714739
 20
105.2923282271883
 30
0.0
 10
194.4101874799601
 20
105.4501348432484
 30
0.0
 10
194.3033722744985
 20
105.5405861613671
 30
0.0
 10
194.0151276771738
 20
105.834294138964
 30
0.0
 10
193.8590069782726
 20
106.067413887459
 30
0.0
 10
193.7012915174303
 20
106.4368489240616
 30
0.0
 10
193.6603822883228
 20
106.56558654319
 30
0.0
 10
193.6060053833005
 20
106.8241205880171
 30
0.0
 10
193.5924179154109
 20
106.9528352185249
 30
0.0
 10
193.5922341504233
 20
107.2090030087807
 30
0.0
 10
193.6061201866294
 20
107.3373047771334
 30
0.0
 10
193.6602072711801
 20
107.5811760396122
 30
0.0
 10
193.7002160272251
 20
107.6981710636913
 30
0.0
 10
193.8065623018074
 20
107.9227467443042
 30
0.0
 10
193.8717615767249
 20
108.0276492601938
 30
0.0
 10
194.0234689807631
 20
108.2214774506843
 30
0.0
 10
194.111269655403
 20
108.3117097357483
 30
0.0
 10
194.3046075647664
 20
108.4731311995436
 30
0.0
 10
194.409555950778
 20
108.5442562008028
 30
0.0
 10
194.6362839607241
 20
108.6686430081185
 30
0.0
 10
194.7590557117061
 20
108.7219956387595
 30
0.0
 10
195.0117341839314
 20
108.8066491012965
 30
0.0
 10
195.1427151554321
 20
108.8387126640006
 30
0.0
 10
195.4145035266809
 20
108.8822126617404
 30
0.0
 10
195.5537371370152
 20
108.8931374951711
 30
0.0
 10
195.9669209198136
 20
108.8932718487429
 30
0.0
 10
196.2449966645283
 20
108.8493940214322
 30
0.0
 10
196.6250654925596
 20
108.7222286400914
 30
0.0
 10
196.7478337345017
 20
108.6688909307856
 30
0.0
 10
196.974519900388
 20
108.5446163261157
 30
0.0
 10
197.0796880089334
 20
108.473428563641
 30
0.0
 10
197.3707745046636
 20
108.2303934693852
 30
0.0
 10
197.5247050268916
 20
108.0352580259099
 30
0.0
 10
197.6841366296414
 20
107.6989116752451
 30
0.0
 10
197.7241378271969
 20
107.5821292545923
 30
0.0
 10
197.7782970481263
 20
107.3387818389418
 30
0.0
 10
197.7923199546757
 20
107.2106034129359
 30
0.0
 10
197.7923311785125
 20
106.953983197549
 30
0.0
 10
197.7787902253134
 20
106.825164839096
 30
0.0
 10
197.7245721387036
 20
106.5666741055874
 30
0.0
 10
197.6836921840972
 20
106.437730479889
 30
0.0
 10
197.5257241069214
 20
106.0673967819034
 30
0.0
 10
197.3696961495665
 20
105.8344292830632
 30
0.0
 10
197.0809490302413
 20
105.5402705132499
 30
0.0
 10
196.9737341955123
 20
105.4495888673359
 30
0.0
 10
196.7468807885625
 20
105.2922848306611
 30
0.0
 10
196.6268632763226
 20
105.2249044758597
 30
0.0
 10
196.3730450688684
 20
105.1139329363348
 30
0.0
 10
196.239178024817
 20
105.0707894576011
 30
0.0
 10
195.9695107829228
 20
105.0137078444969
 30
0.0
 10
195.8321671141225
 20
104.999010230418
 30
0.0
 10
195.5524840225191
 20
104.999010230418
 30
0.0
  0
SPLINE
  5
10E
330
1F
100
AcDbEntity
  8
0
  6
HIDDEN
 62
     7
370
     0
100
AcDbSpline
210
0.0
220
0.0
230
1.0
 70
     8
 71
     3
 72
     8
 73
     4
 74
     0
 42
0.00000001
 43
0.00000001
 12
1.0
 22
0.0
 32
0.0
 13
1.0
 23
0.0
 33
0.0
 40
0.0
 40
0.0
 40
0.0
 40
0.0
 40
1.0
 40
1.0
 40
1.0
 40
1.0
 10
194.511286945001
 20
111.3750831756059
 30
0.0
 10
194.5112944948852
 20
111.4104512796618
 30
0.0
 10
194.513973334596
 20
111.442390049816
 30
0.0
 10
194.5193056963496
 20
111.4706876476525
 30
0.0
  0
SPLINE
  5
10F
330
1F
100
AcDbEntity
  8
0
  6
HIDDEN
 62
     7
370
     0
100
AcDbSpline
210
0.0
220
0.0
230
1.0
 70
     8
 71
     3
 72
    54
 73
    50
 74
     0
 42
0.00000001
 43
0.00000001
 12
1.0
 22
0.0
 32
0.0
 13
1.0
 23
0.0
 33
0.0
 40
0.0
 40
0.0
 40
0.0
 40
0.0
 40
0.0078124999999997
 40
0.0078124999999997
 40
0.0156249999999993
 40
0.0156249999999993
 40
0.031249999999999
 40
0.031249999999999
 40
0.0624999999999989
 40
0.0624999999999989
 40
0.1249999999999985
 40
0.1249999999999985
 40
0.2499999999999981
 40
0.2499999999999981
 40
0.3124999999999977
 40
0.3124999999999977
 40
0.3749999999999972
 40
0.3749999999999972
 40
0.4062499999999968
 40
0.4062499999999968
 40
0.4374999999999963
 40
0.4374999999999963
 40
0.4999999999999956
 40
0.4999999999999956
 40
0.5624999999999948
 40
0.5624999999999948
 40
0.624999999999994
 40
0.624999999999994
 40
0.6874999999999932
 40
0.6874999999999932
 40
0.7499999999999925
 40
0.7499999999999925
 40
0.7656249999999926
 40
0.7656249999999926
 40
0.7734374999999928
 40
0.7734374999999928
 40
0.7812499999999931
 40
0.7812499999999931
 40
0.7890624999999934
 40
0.7890624999999934
 40
0.7968749999999938
 40
0.7968749999999938
 40
0.8124999999999944
 40
0.8124999999999944
 40
0.8749999999999961
 40
0.8749999999999961
 40
0.937499999999998
 40
0.937499999999998
 40
1.0
 40
1.0
 40
1.0
 40
1.0
 10
194.5112869450016
 20
111.3750831780416
 30
0.0
 10
194.5330632384972
 20
111.3862714403517
 30
0.0
 10
194.5521969315156
 20
111.3928058810009
 30
0.0
 10
194.5894169200303
 20
111.4034126184761
 30
0.0
 10
194.6072475906917
 20
111.4072034893521
 30
0.0
 10
194.6596488278535
 20
111.4166154095283
 30
0.0
 10
194.6935346961657
 20
111.4203317373212
 30
0.0
 10
194.7958953421651
 20
111.4282724240323
 30
0.0
 10
194.8649118758404
 20
111.4288989859779
 30
0.0
 10
195.0756237677125
 20
111.4211001565827
 30
0.0
 10
195.2210373027628
 20
111.4026735237652
 30
0.0
 10
195.6768312675238
 20
111.3077061392178
 30
0.0
 10
196.0114437113935
 20
111.1902054904729
 30
0.0
 10
196.526241751929
 20
110.9057054267211
 30
0.0
 10
196.6978037329182
 20
110.7936984356628
 30
0.0
 10
197.0286211182719
 20
110.5318134050065
 30
0.0
 10
197.1851746950381
 20
110.3834140974147
 30
0.0
 10
197.3873213985424
 20
110.1444550192223
 30
0.0
 10
197.4476723753336
 20
110.0641239958515
 30
0.0
 10
197.5547823175547
 20
109.9021558454784
 30
0.0
 10
197.6018343511332
 20
109.819700732345
 30
0.0
 10
197.7176124724287
 20
109.5804164121807
 30
0.0
 10
197.7633444792136
 20
109.4271741665635
 30
0.0
 10
197.8006244928426
 20
109.15209693363
 30
0.0
 10
197.7931129435792
 20
109.026539915577
 30
0.0
 10
197.7394118337688
 20
108.8064016475992
 30
0.0
 10
197.6937406908283
 20
108.7108344384467
 30
0.0
 10
197.572120650062
 20
108.5433384422143
 30
0.0
 10
197.496765550504
 20
108.4728094894372
 30
0.0
 10
197.3254385473647
 20
108.3572893676931
 30
0.0
 10
197.2278966279688
 20
108.31060063888
 30
0.0
 10
197.0990587340513
 20
108.2730621173061
 30
0.0
 10
197.0728769710108
 20
108.2665761769301
 30
0.0
 10
197.0355352637817
 20
108.2609973709294
 30
0.0
 10
197.0234339383867
 20
108.2598139587256
 30
0.0
 10
197.0021798573846
 20
108.2610589055452
 30
0.0
 10
196.9928727843948
 20
108.2634778482641
 30
0.0
 10
196.986805789144
 20
108.2787097987561
 30
0.0
 10
196.9915810415795
 20
108.2923807434688
 30
0.0
 10
197.0091956795555
 20
108.3233899744361
 30
0.0
 10
197.020941584442
 20
108.340297660458
 30
0.0
 10
197.0580912213241
 20
108.3925296316964
 30
0.0
 10
197.085253036869
 20
108.4289196104114
 30
0.0
 10
197.2189479276126
 20
108.6143300123435
 30
0.0
 10
197.3221930660932
 20
108.7762938804551
 30
0.0
 10
197.4994042783327
 20
109.1160768371436
 30
0.0
 10
197.5756005598317
 20
109.2948839981593
 30
0.0
 10
197.6983459656554
 20
109.6730047150824
 30
0.0
 10
197.744920909085
 20
109.8733830471715
 30
0.0
 10
197.7704075663057
 20
110.0794432601086
 30
0.0
  0
SPLINE
  5
110
330
1F
100
AcDbEntity
  8
0
  6
HIDDEN
 62
     7
370
     0
100
AcDbSpline
210
0.0
220
0.0
230
1.0
 70
     8
 71
     3
 72
    16
 73
    12
 74
     0
 42
0.00000001
 43
0.00000001
 12
1.0
 22
0.0
 32
0.0
 13
1.0
 23
0.0
 33
0.0
 40
0.0
 40
0.0
 40
0.0
 40
0.0
 40
0.5000000000000017
 40
0.5000000000000017
 40
0.7500000000000024
 40
0.7500000000000024
 40
0.8750000000000022
 40
0.8750000000000022
 40
0.9375000000000011
 40
0.9375000000000011
 40
1.0
 40
1.0
 40
1.0
 40
1.0
 10
196.114286830479
 20
112.2673969134867
 30
0.0
 10
195.8187170206193
 20
112.2492264290263
 30
0.0
 10
195.5408003850555
 20
112.161021781774
 30
0.0
 10
195.1418733231579
 20
111.9530818859211
 30
0.0
 10
195.0145463433407
 20
111.8718224009616
 30
0.0
 10
194.8298272876539
 20
111.7333112186545
 30
0.0
 10
194.7694832872416
 20
111.6844073427636
 30
0.0
 10
194.6792852263251
 20
111.6070918398186
 30
0.0
 10
194.6492300763368
 20
111.5805828979146
 30
0.0
 10
194.5874872195476
 20
111.5262653483828
 30
0.0
 10
194.5558816425296
 20
111.4976976543902
 30
0.0
 10
194.5193056949736
 20
111.4706876459468
 30
0.0
  0
LWPOLYLINE
  5
111
330
1F
100
AcDbEntity
  8
0
  6
HIDDEN
 62
     7
370
     0
100
AcDbPolyline
 90
       22
 70
   128
 43
0.0
 10
196.1142868386
 20
112.2673967459
 10
195.6401747302
 20
112.3065076375
 10
195.1687420369
 20
112.2456186989
 10
194.7242087336
 20
112.0878582427
 10
194.3294108496
 20
111.8413311036
 10
194.0046325908
 20
111.5187028029
 10
193.7665586011
 20
111.1365476229
 10
193.6274199398
 20
110.7144987748
 10
193.5943645076
 20
110.2742388451
 10
193.669091037
 20
109.8383859337
 10
193.847759685
 20
109.4293322952
 10
194.1211922677
 20
109.0680918263
 10
194.4753407152
 20
108.7732239233
 10
194.8920116411
 20
108.5598767807
 10
195.3497976647
 20
108.4390111339
 10
195.8251810284
 20
108.4168363434
 10
196.2937387289
 20
108.4944916495
 10
196.731399803
 20
108.667987732
 10
197.1156783984
 20
108.9284111352
 10
197.4268342019
 20
109.2623829448
 10
197.6488782675
 20
109.6527449393
 10
197.7704084129
 20
110.0794434154
  0
SPLINE
  5
112
330
1F
100
AcDbEntity
  8
0
  6
HIDDEN
 62
     7
370
     0
100
AcDbSpline
210
0.0
220
0.0
230
1.0
 70
     8
 71
     3
 72
    24
 73
    20
 74
     0
 42
0.00000001
 43
0.00000001
 12
1.0
 22
0.0
 32
0.0
 13
1.0
 23
0.0
 33
0.0
 40
0.0
 40
0.0
 40
0.0
 40
0.0
 40
0.1249999999999999
 40
0.1249999999999999
 40
0.2499999999999999
 40
0.2499999999999999
 40
0.3749999999999998
 40
0.3749999999999998
 40
0.4999999999999998
 40
0.4999999999999998
 40
0.6249999999999998
 40
0.6249999999999998
 40
0.7499999999999997
 40
0.7499999999999997
 40
0.8124999999999999
 40
0.8124999999999999
 40
0.875
 40
0.875
 40
1.0
 40
1.0
 40
1.0
 40
1.0
 10
197.7704075663057
 20
110.0794432601084
 30
0.0
 10
197.647512094441
 20
110.1105272366566
 30
0.0
 10
197.5271150459047
 20
110.1547224872016
 30
0.0
 10
197.2951183782813
 20
110.2909555723406
 30
0.0
 10
197.189854641751
 20
110.382401900267
 30
0.0
 10
197.0043954420374
 20
110.5983491046318
 30
0.0
 10
196.9257467677679
 20
110.7168629202796
 30
0.0
 10
196.7676867599821
 20
110.9535965430857
 30
0.0
 10
196.6899995683001
 20
111.0684416928939
 30
0.0
 10
196.527319896222
 20
111.2831640121114
 30
0.0
 10
196.4412957798679
 20
111.3841998418592
 30
0.0
 10
196.2772237511891
 20
111.5723299148403
 30
0.0
 10
196.1989533393219
 20
111.6603926581224
 30
0.0
 10
196.1138757251381
 20
111.7938199455625
 30
0.0
 10
196.0916266503344
 20
111.8377249613404
 30
0.0
 10
196.0614217772537
 20
111.926013602142
 30
0.0
 10
196.0535421097486
 20
111.9707969162208
 30
0.0
 10
196.0507297094644
 20
112.1016533149772
 30
0.0
 10
196.0753651943708
 20
112.1863427726744
 30
0.0
 10
196.1142868304789
 20
112.2673969134867
 30
0.0
  0
CIRCLE
  5
113
330
1F
100
AcDbEntity
  8
0
  6
HIDDEN
 62
     7
370
     0
100
AcDbCircle
 10
170.1923255683
 20
104.7409231381
 30
0.0
 40
2.299999999999997
  0
LINE
  5
114
330
1F
100
AcDbEntity
  8
0
  6
HIDDEN
 62
     7
370
     0
100
AcDbLine
 10
158.7193580927
 20
95.1782296018
 30
0.0
 11
158.7193580927
 21
114.3036166744
 31
0.0
  0
LINE
  5
115
330
1F
100
AcDbEntity
  8
0
  6
HIDDEN
 62
     7
370
     0
100
AcDbLine
 10
162.219357735
 20
95.5099834667
 30
0.0
 11
162.219357735
 21
113.9718628095
 31
0.0
  0
LINE
  5
116
330
1F
100
AcDbEntity
  8
0
  6
HIDDEN
 62
     7
370
     0
100
AcDbLine
 10
165.6193575473
 20
95.7409235255
 30
0.0
 11
165.6193575473
 21
113.7409227506
 31
0.0
  0
LINE
  5
117
330
1F
100
AcDbEntity
  8
0
  6
HIDDEN
 62
     7
370
     0
100
AcDbLine
 10
160.8193582506
 20
95.7409235255
 30
0.0
 11
160.8193582506
 21
113.7409227506
 31
0.0
  0
LINE
  5
118
330
1F
100
AcDbEntity
  8
0
  6
HIDDEN
 62
     7
370
     0
100
AcDbLine
 10
161.8193584145
 20
95.7409235255
 30
0.0
 11
161.8193584145
 21
113.7409227506
 31
0.0
  0
LINE
  5
119
330
1F
100
AcDbEntity
  8
0
  6
HIDDEN
 62
     7
370
     0
100
AcDbLine
 10
172.6923259558
 20
96.2409226761
 30
0.0
 11
172.6923259558
 21
113.2409236
 31
0.0
  0
LINE
  5
11A
330
1F
100
AcDbEntity
  8
0
  6
HIDDEN
 62
     7
370
     0
100
AcDbLine
 10
172.1923258738
 20
105.8767047783
 30
0.0
 11
171.9600223587
 21
106.1603844703
 31
0.0
  0
LINE
  5
11B
330
1F
100
AcDbEntity
  8
0
  6
HIDDEN
 62
     7
370
     0
100
AcDbLine
 10
170.2289609821
 20
107.0334840172
 30
0.0
 11
169.5531262667
 21
106.946047263
 31
0.0
  0
SPLINE
  5
11C
330
1F
100
AcDbEntity
  8
0
  6
HIDDEN
 62
     7
370
     0
100
AcDbSpline
210
0.0
220
0.0
230
1.0
 70
     8
 71
     3
 72
     9
 73
     5
 74
     0
 42
0.00000001
 43
0.00000001
 12
1.0
 22
0.0
 32
0.0
 13
1.0
 23
0.0
 33
0.0
 40
0.0
 40
0.0
 40
0.0
 40
0.0
 40
0.1446683787500264
 40
1.0
 40
1.0
 40
1.0
 40
1.0
 10
171.7830002890253
 20
103.0985846721728
 30
0.0
 10
171.80867530392
 20
103.117113241926
 30
0.0
 10
171.986150265045
 20
103.2451893972909
 30
0.0
 10
172.0972762796011
 20
103.4391989729762
 30
0.0
 10
172.1923258737945
 20
103.6051414978852
 30
0.0
  0
LINE
  5
11D
330
1F
100
AcDbEntity
  8
0
  6
HIDDEN
 62
     7
370
     0
100
AcDbLine
 10
173.5923253582
 20
98.4909230449
 30
0.0
 11
173.5923253582
 21
110.9909232312
 31
0.0
  0
LINE
  5
11E
330
1F
100
AcDbEntity
  8
0
  6
HIDDEN
 62
     7
370
     0
100
AcDbLine
 10
198.6769466312
 20
104.7409231381
 30
0.0
 11
198.6769466312
 21
98.4909230449
 31
0.0
  0
LINE
  5
11F
330
1F
100
AcDbEntity
  8
0
  6
HIDDEN
 62
     7
370
     0
100
AcDbLine
 10
198.6769466312
 20
110.9909232312
 30
0.0
 11
198.6769466312
 21
104.7409231381
 31
0.0
  0
SPLINE
  5
120
330
1F
100
AcDbEntity
  8
0
  6
HIDDEN
 62
     7
370
     0
100
AcDbSpline
210
0.0
220
0.0
230
1.0
 70
     8
 71
     3
 72
    62
 73
    58
 74
     0
 42
0.00000001
 43
0.00000001
 12
1.0
 22
0.0
 32
0.0
 13
1.0
 23
0.0
 33
0.0
 40
-0.0312500000000002
 40
-0.0312500000000002
 40
0.0
 40
0.0
 40
0.0312499999999999
 40
0.0312499999999999
 40
0.0624999999999997
 40
0.0624999999999997
 40
0.0937499999999996
 40
0.0937499999999996
 40
0.1249999999999995
 40
0.1249999999999995
 40
0.1874999999999992
 40
0.1874999999999992
 40
0.2187499999999993
 40
0.2187499999999993
 40
0.2499999999999994
 40
0.2499999999999994
 40
0.2812499999999995
 40
0.2812499999999995
 40
0.3124999999999996
 40
0.3124999999999996
 40
0.3437499999999997
 40
0.3437499999999997
 40
0.3749999999999997
 40
0.3749999999999997
 40
0.4062499999999998
 40
0.4062499999999998
 40
0.4374999999999999
 40
0.4374999999999999
 40
0.46875
 40
0.46875
 40
0.5000000000000001
 40
0.5000000000000001
 40
0.5625000000000003
 40
0.5625000000000003
 40
0.5937500000000001
 40
0.5937500000000001
 40
0.625
 40
0.625
 40
0.6874999999999998
 40
0.6874999999999998
 40
0.7187499999999997
 40
0.7187499999999997
 40
0.7499999999999994
 40
0.7499999999999994
 40
0.7812499999999993
 40
0.7812499999999993
 40
0.8124999999999992
 40
0.8124999999999992
 40
0.8749999999999992
 40
0.8749999999999992
 40
0.9062499999999994
 40
0.9062499999999994
 40
0.9374999999999996
 40
0.9374999999999996
 40
0.9687499999999998
 40
0.9687499999999998
 40
1.0
 40
1.0
 40
1.03125
 40
1.03125
 10
195.5524840225191
 20
100.5886638565456
 30
0.0
 10
195.8321671141225
 20
100.5886638565456
 30
0.0
 10
195.96945107108
 20
100.5996168939927
 30
0.0
 10
196.2391868259315
 20
100.642600048743
 30
0.0
 10
196.3730688450269
 20
100.6752047261575
 30
0.0
 10
196.626815403425
 20
100.7603029312289
 30
0.0
 10
196.7470010651676
 20
100.8125348031075
 30
0.0
 10
196.9744636566815
 20
100.9371633097852
 30
0.0
 10
197.0812788621431
 20
101.0096726029444
 30
0.0
 10
197.3695234594677
 20
101.2505557204859
 30
0.0
 10
197.5256441583689
 20
101.4487358727909
 30
0.0
 10
197.6833596192112
 20
101.7812124291745
 30
0.0
 10
197.7242688483188
 20
101.8999288777764
 30
0.0
 10
197.778645753341
 20
102.1450114147986
 30
0.0
 10
197.7922332212306
 20
102.2702760478744
 30
0.0
 10
197.7924169862183
 20
102.5263975779443
 30
0.0
 10
197.7785309500121
 20
102.6582239162337
 30
0.0
 10
197.7244438654614
 20
102.9154751663675
 30
0.0
 10
197.6844351094164
 20
103.0422797802962
 30
0.0
 10
197.5780888348341
 20
103.2917817680964
 30
0.0
 10
197.5128895599166
 20
103.4115192313807
 30
0.0
 10
197.3611821558784
 20
103.6376461125139
 30
0.0
 10
197.2733814812385
 20
103.745597923821
 30
0.0
 10
197.0800435718751
 20
103.9424367343374
 30
0.0
 10
196.9750951858635
 20
104.0311788924043
 30
0.0
 10
196.7483671759175
 20
104.1886638597417
 30
0.0
 10
196.6255954249354
 20
104.2575509093271
 30
0.0
 10
196.3729169527101
 20
104.3679142564087
 30
0.0
 10
196.2419359812094
 20
104.4103496471333
 30
0.0
 10
195.9701476099606
 20
104.4681254833495
 30
0.0
 10
195.8309139996263
 20
104.4827759903043
 30
0.0
 10
195.417730216828
 20
104.4829555954964
 30
0.0
 10
195.1396544721132
 20
104.4236473343863
 30
0.0
 10
194.7595856440819
 20
104.2578515867973
 30
0.0
 10
194.6368174021398
 20
104.1889820905332
 30
0.0
 10
194.4101312362535
 20
104.0316305266173
 30
0.0
 10
194.3049631277081
 20
103.9427992821678
 30
0.0
 10
194.013876631978
 20
103.6464402456407
 30
0.0
 10
193.8599461097499
 20
103.4168024575554
 30
0.0
 10
193.7005145070001
 20
103.0430919082692
 30
0.0
 10
193.6605133094446
 20
102.9165033022275
 30
0.0
 10
193.6063540885152
 20
102.6597596190033
 30
0.0
 10
193.5923311819658
 20
102.5280224083915
 30
0.0
 10
193.5923199581291
 20
102.2713993675649
 30
0.0
 10
193.6058609113281
 20
102.1460192747571
 30
0.0
 10
193.6600789979379
 20
101.9009420605438
 30
0.0
 10
193.7009589525443
 20
101.7820146233282
 30
0.0
 10
193.8589270297201
 20
101.448702881487
 30
0.0
 10
194.014954987075
 20
101.2506628406133
 30
0.0
 10
194.3037021064002
 20
101.0094155868966
 30
0.0
 10
194.4109169411292
 20
100.9367295118006
 30
0.0
 10
194.637770348079
 20
100.8125031512763
 30
0.0
 10
194.757787860319
 20
100.760319749923
 30
0.0
 10
195.0116060677731
 20
100.6751959887853
 30
0.0
 10
195.1454731118245
 20
100.6426000368617
 30
0.0
 10
195.4151403537188
 20
100.5996250189049
 30
0.0
 10
195.5524840225191
 20
100.5886638565456
 30
0.0
 10
195.8321671141225
 20
100.5886638565456
 30
0.0
  0
SPLINE
  5
121
330
1F
100
AcDbEntity
  8
0
  6
HIDDEN
 62
     7
370
     0
100
AcDbSpline
210
0.0
220
0.0
230
1.0
 70
     8
 71
     3
 72
    14
 73
    10
 74
     0
 42
0.00000001
 43
0.00000001
 12
1.0
 22
0.0
 32
0.0
 13
1.0
 23
0.0
 33
0.0
 40
0.0
 40
0.0
 40
0.0
 40
0.0
 40
0.25
 40
0.25
 40
0.5
 40
0.5
 40
0.75
 40
0.75
 40
1.0
 40
1.0
 40
1.0
 40
1.0
 10
204.8909244066309
 20
124.3590374243094
 30
0.0
 10
204.8695056625761
 20
124.4520849285267
 30
0.0
 10
204.8429954911295
 20
124.5450956542082
 30
0.0
 10
204.803543850177
 20
124.7312073814119
 30
0.0
 10
204.7910095158439
 20
124.8243484590808
 30
0.0
 10
204.7910384793349
 20
125.0105084355984
 30
0.0
 10
204.8035849261323
 20
125.1035338030386
 30
0.0
 10
204.8430259329486
 20
125.2895220013827
 30
0.0
 10
204.8695196457691
 20
125.3824865793869
 30
0.0
 10
204.8909244066309
 20
125.4754733376894
 30
0.0
  0
LINE
  5
122
330
1F
100
AcDbEntity
  8
0
  6
HIDDEN
 62
     7
370
     0
100
AcDbLine
 10
204.7910234542
 20
84.8265195803
 30
0.0
 11
204.7910234542
 21
104.7409231381
 31
0.0
  0
SPLINE
  5
123
330
1F
100
AcDbEntity
  8
0
  6
HIDDEN
 62
     7
370
     0
100
AcDbSpline
210
0.0
220
0.0
230
1.0
 70
     8
 71
     3
 72
    10
 73
     6
 74
     0
 42
0.00000001
 43
0.00000001
 12
1.0
 22
0.0
 32
0.0
 13
1.0
 23
0.0
 33
0.0
 40
0.0
 40
0.0
 40
0.0
 40
0.0
 40
0.5
 40
0.5
 40
1.0
 40
1.0
 40
1.0
 40
1.0
 10
204.8845156016756
 20
107.7409231380879
 30
0.0
 10
204.8632706576606
 20
107.2410826620422
 30
0.0
 10
204.8385924252791
 20
106.7413388999282
 30
0.0
 10
204.8023072248214
 20
105.7414831650438
 30
0.0
 10
204.7910239841264
 20
105.2413620730428
 30
0.0
 10
204.7910239841264
 20
104.7409231380721
 30
0.0
  0
SPLINE
  5
124
330
1F
100
AcDbEntity
  8
0
  6
HIDDEN
 62
     7
370
     0
100
AcDbSpline
210
0.0
220
0.0
230
1.0
 70
     8
 71
     3
 72
     8
 73
     4
 74
     0
 42
0.00000001
 43
0.00000001
 12
1.0
 22
0.0
 32
0.0
 13
1.0
 23
0.0
 33
0.0
 40
0.0000051235233691
 40
0.0000051235233691
 40
0.0000051235233691
 40
0.0000051235233691
 40
0.0001622798818434
 40
0.0001622798818434
 40
0.0001622798818434
 40
0.0001622798818434
 10
204.890924406631
 20
107.8979479939162
 30
0.0
 10
204.8888766284043
 20
107.845603613042
 30
0.0
 10
204.8867401556247
 20
107.7932613369641
 30
0.0
 10
204.8845156016755
 20
107.7409231380879
 30
0.0
  0
LINE
  5
125
330
1F
100
AcDbEntity
  8
0
  6
HIDDEN
 62
     7
370
     0
100
AcDbLine
 10
217.5954739214
 20
124.6522347049
 30
0.0
 11
210.4897546233
 21
110.9198172183
 31
0.0
  0
LINE
  5
126
330
1F
100
AcDbEntity
  8
0
  6
HIDDEN
 62
     7
370
     0
100
AcDbLine
 10
216.1386209191
 20
113.1773710788
 30
0.0
 11
216.1609316827
 21
113.2204857261
 31
0.0
  0
LINE
  5
127
330
1F
100
AcDbEntity
  8
0
  6
HIDDEN
 62
     7
370
     0
100
AcDbLine
 10
216.1609316827
 20
113.2204857261
 30
0.0
 11
224.5600009919
 21
117.5891252772
 31
0.0
  0
LINE
  5
128
330
1F
100
AcDbEntity
  8
0
  6
HIDDEN
 62
     7
370
     0
100
AcDbLine
 10
224.5600009919
 20
117.5891252772
 30
0.0
 11
224.539046234
 21
117.5486360283
 31
0.0
  0
ELLIPSE
  5
129
330
1F
100
AcDbEntity
  8
0
  6
HIDDEN
 62
     7
370
     0
100
AcDbEllipse
 10
220.587890748
 20
104.7409231381
 30
0.0
 11
14.93020472090421
 21
20.41110106401191
 31
0.0
210
0.0
220
0.0
230
1.0
 40
0.1277329972
 41
1.663959316722409
 42
3.234755643517415
  0
LINE
  5
12A
330
1F
100
AcDbEntity
  8
0
  6
HIDDEN
 62
     7
370
     0
100
AcDbLine
 10
217.8858938278
 20
124.8179076777
 30
0.0
 11
210.5562491925
 21
110.652732996
 31
0.0
  0
LINE
  5
12B
330
1F
100
AcDbEntity
  8
0
  6
HIDDEN
 62
     7
370
     0
100
AcDbLine
 10
215.8455933095
 20
113.2623393626
 30
0.0
 11
215.677530563
 21
112.937541546
 31
0.0
  0
LINE
  5
12C
330
1F
100
AcDbEntity
  8
0
  6
HIDDEN
 62
     7
370
     0
100
AcDbLine
 10
215.8455933095
 20
113.2623393626
 30
0.0
 11
216.1609316827
 21
113.2204857261
 31
0.0
  0
LINE
  5
12D
330
1F
100
AcDbEntity
  8
0
  6
HIDDEN
 62
     7
370
     0
100
AcDbLine
 10
218.0297198356
 20
106.7409232331
 30
0.0
 11
222.4220419885
 21
106.7409232331
 31
0.0
  0
LINE
  5
12E
330
1F
100
AcDbEntity
  8
0
  6
HIDDEN
 62
     7
370
     0
100
AcDbLine
 10
215.8455933095
 20
113.2623393626
 30
0.0
 11
224.1889620782
 21
117.6020082624
 31
0.0
  0
LINE
  5
12F
330
1F
100
AcDbEntity
  8
0
  6
HIDDEN
 62
     7
370
     0
100
AcDbLine
 10
224.5600009919
 20
117.5891252772
 30
0.0
 11
224.1889620782
 21
117.6020082624
 31
0.0
  0
LINE
  5
130
330
1F
100
AcDbEntity
  8
0
  6
HIDDEN
 62
     7
370
     0
100
AcDbLine
 10
204.8909245641
 20
125.4754735694
 30
0.0
 11
204.9209802063
 21
125.5697737054
 31
0.0
  0
ARC
  5
131
330
1F
100
AcDbEntity
  8
0
  6
HIDDEN
 62
     7
370
     0
100
AcDbCircle
 10
211.3398714847
 20
108.5214303896
 30
0.0
 40
1.750374685610017
100
AcDbArc
 50
152.6920196629
 51
318.7508444007
  0
ELLIPSE
  5
132
330
1F
100
AcDbEntity
  8
0
  6
HIDDEN
 62
     7
370
     0
100
AcDbEllipse
 10
216.4708914497
 20
125.9338832129
 30
0.0
 11
12.18038239000418
 21
17.38382058521285
 31
0.0
210
0.0
220
0.0
230
1.0
 40
0.0802792249
 41
4.714446963868665
 42
4.741185873096497
  0
LINE
  5
133
330
1F
100
AcDbEntity
  8
0
  6
HIDDEN
 62
     7
370
     0
100
AcDbLine
 10
215.5620838166
 20
112.877494523
 30
0.0
 11
215.6712012948
 21
113.0883729623
 31
0.0
  0
LINE
  5
134
330
1F
100
AcDbEntity
  8
0
  6
HIDDEN
 62
     7
370
     0
100
AcDbLine
 10
215.8455933095
 20
113.2623393626
 30
0.0
 11
215.6712012948
 21
113.0883729623
 31
0.0
  0
LINE
  5
135
330
1F
100
AcDbEntity
  8
0
  6
HIDDEN
 62
     7
370
     0
100
AcDbLine
 10
224.1889620782
 20
117.6020082624
 30
0.0
 11
223.470845318
 21
117.1452317924
 31
0.0
  0
CIRCLE
  5
136
330
1F
100
AcDbEntity
  8
0
  6
HIDDEN
 62
     7
370
     0
100
AcDbCircle
 10
220.6829451082
 20
120.7208775712
 30
0.0
 40
2.393320893834908
  0
LINE
  5
137
330
1F
100
AcDbEntity
  8
0
  6
HIDDEN
 62
     7
370
     0
100
AcDbLine
 10
222.3348068656
 20
126.2013985382
 30
0.0
 11
229.8221262754
 21
130.0958058403
 31
0.0
  0
LINE
  5
138
330
1F
100
AcDbEntity
  8
0
  6
HIDDEN
 62
     7
370
     0
100
AcDbLine
 10
230.0534556271
 20
129.866694899
 30
0.0
 11
229.8221262754
 21
130.0958058403
 31
0.0
  0
LINE
  5
139
330
1F
100
AcDbEntity
  8
0
  6
HIDDEN
 62
     7
370
     0
100
AcDbLine
 10
215.6712012948
 20
113.0883729623
 30
0.0
 11
223.470845318
 21
117.1452317924
 31
0.0
  0
LINE
  5
13A
330
1F
100
AcDbEntity
  8
0
  6
HIDDEN
 62
     7
370
     0
100
AcDbLine
 10
217.8915152909
 20
124.9918284432
 30
0.0
 11
209.7845702083
 21
109.3244555944
 31
0.0
  0
ELLIPSE
  5
13B
330
1F
100
AcDbEntity
  8
0
  6
HIDDEN
 62
     7
370
     0
100
AcDbEllipse
 10
217.1956944031
 20
136.0150336029
 30
0.0
 11
-6.253262676623819
 21
9.146302074812949
 31
0.0
210
0.0
220
0.0
230
1.0
 40
0.9882480265
 41
2.599725752637433
 42
2.607652077833625
  0
ELLIPSE
  5
13C
330
1F
100
AcDbEntity
  8
0
  6
HIDDEN
 62
     7
370
     0
100
AcDbEllipse
 10
217.1956944031
 20
136.0150336029
 30
0.0
 11
-6.253262676623819
 21
9.146302074812949
 31
0.0
210
0.0
220
0.0
230
1.0
 40
0.9882480265
 41
2.634414742906165
 42
3.022917513862043
  0
LINE
  5
13D
330
1F
100
AcDbEntity
  8
0
  6
HIDDEN
 62
     7
370
     0
100
AcDbLine
 10
230.0534556271
 20
129.866694899
 30
0.0
 11
223.470845318
 21
117.1452317924
 31
0.0
  0
CIRCLE
  5
13E
330
1F
100
AcDbEntity
  8
0
  6
HIDDEN
 62
     7
370
     0
100
AcDbCircle
 10
220.630459298
 20
120.6650597498
 30
0.0
 40
1.64498303842258
  0
SPLINE
  5
13F
330
1F
100
AcDbEntity
  8
0
  6
HIDDEN
 62
     7
370
     0
100
AcDbSpline
210
0.0
220
0.0
230
1.0
 70
     8
 71
     3
 72
     8
 73
     4
 74
     0
 42
0.00000001
 43
0.00000001
 12
1.0
 22
0.0
 32
0.0
 13
1.0
 23
0.0
 33
0.0
 40
0.0
 40
0.0
 40
0.0
 40
0.0
 40
1.0
 40
1.0
 40
1.0
 40
1.0
 10
180.1972855903784
 20
91.00183860691449
 30
0.0
 10
180.248012733585
 20
90.95608430558927
 30
0.0
 10
180.3059000631459
 20
90.92758015972574
 30
0.0
 10
180.3710052247611
 20
90.91585913006692
 30
0.0
  0
SPLINE
  5
140
330
1F
100
AcDbEntity
  8
0
  6
HIDDEN
 62
     7
370
     0
100
AcDbSpline
210
0.0
220
0.0
230
1.0
 70
     8
 71
     3
 72
    18
 73
    14
 74
     0
 42
0.00000001
 43
0.00000001
 12
1.0
 22
0.0
 32
0.0
 13
1.0
 23
0.0
 33
0.0
 40
0.0
 40
0.0
 40
0.0
 40
0.0
 40
0.2759671653812927
 40
0.3262536203403243
 40
0.3441749575982456
 40
0.3532728758984537
 40
0.360868286346167
 40
0.368498409104154
 40
0.3775092641090248
 40
0.3930209901925522
 40
0.4424675011858039
 40
0.6722148217085665
 40
0.9999999999999999
 40
0.9999999999999999
 40
0.9999999999999999
 40
0.9999999999999999
 10
180.0021820818359
 20
90.89277578305203
 30
0.0
 10
180.002742969423
 20
90.9221833814113
 30
0.0
 10
180.0034060613734
 20
90.95694960230198
 30
0.0
 10
180.0278316615107
 20
91.01622014615909
 30
0.0
 10
180.0376207507014
 20
91.03256248807371
 30
0.0
 10
180.0436812175419
 20
91.04070541947549
 30
0.0
 10
180.048847545284
 20
91.04656097952062
 30
0.0
 10
180.0544124211393
 20
91.05177231652586
 30
0.0
 10
180.0612493506492
 20
91.05685888220519
 30
0.0
 10
180.0740763087309
 20
91.06351316011863
 30
0.0
 10
180.1081924680363
 20
91.06720569380944
 30
0.0
 10
180.1486845430885
 20
91.04240526341174
 30
0.0
 10
180.1792912276366
 20
91.01685805732713
 30
0.0
 10
180.197285546484
 20
91.00183831315238
 30
0.0
  0
SPLINE
  5
141
330
1F
100
AcDbEntity
  8
0
  6
HIDDEN
 62
     7
370
     0
100
AcDbSpline
210
0.0
220
0.0
230
1.0
 70
     8
 71
     3
 72
    16
 73
    12
 74
     0
 42
0.00000001
 43
0.00000001
 12
1.0
 22
0.0
 32
0.0
 13
1.0
 23
0.0
 33
0.0
 40
0.0
 40
0.0
 40
0.0
 40
0.0
 40
0.2500000000000006
 40
0.2500000000000006
 40
0.3750000000000006
 40
0.3750000000000006
 40
0.5000000000000007
 40
0.5000000000000007
 40
0.7500000000000002
 40
0.7500000000000002
 40
1.0
 40
1.0
 40
1.0
 40
1.0
 10
179.9923255683206
 20
93.7668851458256
 30
0.0
 10
179.9117882364211
 20
93.37787796188007
 30
0.0
 10
179.8517508923937
 20
93.02137752025443
 30
0.0
 10
179.7910131852401
 20
92.53487513506559
 30
0.0
 10
179.7756908101272
 20
92.3807961942117
 30
0.0
 10
179.7551080008231
 20
92.08932663571828
 30
0.0
 10
179.7499084037975
 20
91.95175675181916
 30
0.0
 10
179.7498547506177
 20
91.57351191662943
 30
0.0
 10
179.7700522940956
 20
91.36363084807735
 30
0.0
 10
179.8507303824543
 20
91.02705154916619
 30
0.0
 10
179.9117765470621
 20
90.90076705724839
 30
0.0
 10
179.9923255683207
 20
90.82068674975703
 30
0.0
  0
SPLINE
  5
142
330
1F
100
AcDbEntity
  8
0
  6
HIDDEN
 62
     7
370
     0
100
AcDbSpline
210
0.0
220
0.0
230
1.0
 70
     8
 71
     3
 72
     8
 73
     4
 74
     0
 42
0.00000001
 43
0.00000001
 12
1.0
 22
0.0
 32
0.0
 13
1.0
 23
0.0
 33
0.0
 40
0.0
 40
0.0
 40
0.0
 40
0.0
 40
1.0
 40
1.0
 40
1.0
 40
1.0
 10
180.3710052247611
 20
118.5659871460772
 30
0.0
 10
180.305900063147
 20
118.5542661164186
 30
0.0
 10
180.2480127335871
 20
118.5257619705559
 30
0.0
 10
180.1972855903811
 20
118.4800076692321
 30
0.0
  0
SPLINE
  5
143
330
1F
100
AcDbEntity
  8
0
  6
HIDDEN
 62
     7
370
     0
100
AcDbSpline
210
0.0
220
0.0
230
1.0
 70
     8
 71
     3
 72
    20
 73
    16
 74
     0
 42
0.00000001
 43
0.00000001
 12
1.0
 22
0.0
 32
0.0
 13
1.0
 23
0.0
 33
0.0
 40
0.0
 40
0.0
 40
0.0
 40
0.0
 40
0.4002352853079045
 40
0.5000924819032568
 40
0.5345664655200963
 40
0.5587907588228656
 40
0.5840074956572766
 40
0.5936930888512228
 40
0.6034733988533385
 40
0.6102340699408328
 40
0.6169871342736959
 40
0.6273291519488992
 40
0.6476696717987709
 40
0.7233129529340107
 40
0.9999999999999999
 40
0.9999999999999999
 40
0.9999999999999999
 40
0.9999999999999999
 10
180.197285546484
 20
118.4800079629918
 30
0.0
 10
180.1749920473159
 20
118.4597603093895
 30
0.0
 10
180.1471364040517
 20
118.4344609424561
 30
0.0
 10
180.1037697776766
 20
118.4181345255933
 30
0.0
 10
180.0874797040127
 20
118.4170383554343
 30
0.0
 10
180.0773445059294
 20
118.4182576741653
 30
0.0
 10
180.068633958577
 20
118.4209835070805
 30
0.0
 10
180.0602043020446
 20
118.4257528884452
 30
0.0
 10
180.0543191306839
 20
118.4301325796933
 30
0.0
 10
180.0487321930845
 20
118.4354287433269
 30
0.0
 10
180.0434237636519
 20
118.4414288078906
 30
0.0
 10
180.0366398674554
 20
118.4506652245492
 30
0.0
 10
180.0235538327101
 20
118.4735852207981
 30
0.0
 10
180.0023434500444
 20
118.5356204497253
 30
0.0
 10
179.9985966179899
 20
118.5776889604825
 30
0.0
 10
179.9956542090797
 20
118.6107256055971
 30
0.0
  0
SPLINE
  5
144
330
1F
100
AcDbEntity
  8
0
  6
HIDDEN
 62
     7
370
     0
100
AcDbSpline
210
0.0
220
0.0
230
1.0
 70
     8
 71
     3
 72
    16
 73
    12
 74
     0
 42
0.00000001
 43
0.00000001
 12
1.0
 22
0.0
 32
0.0
 13
1.0
 23
0.0
 33
0.0
 40
0.0
 40
0.0
 40
0.0
 40
0.0
 40
0.2499999999999994
 40
0.2499999999999994
 40
0.3749999999999992
 40
0.3749999999999992
 40
0.4999999999999989
 40
0.4999999999999989
 40
0.7499999999999994
 40
0.7499999999999994
 40
1.0
 40
1.0
 40
1.0
 40
1.0
 10
179.9923255683206
 20
118.661159526387
 30
0.0
 10
179.9117882364213
 20
118.5810908402346
 30
0.0
 10
179.851750892394
 20
118.4572263487443
 30
0.0
 10
179.7910131852404
 20
118.2065455248122
 30
0.0
 10
179.7756908101274
 20
118.1121069205027
 30
0.0
 10
179.7551080008232
 20
117.900795852884
 30
0.0
 10
179.7499084037976
 20
117.7835063981304
 30
0.0
 10
179.7498547506175
 20
117.4054707263752
 30
0.0
 10
179.7700522940952
 20
117.1166935726311
 30
0.0
 10
179.8507303824532
 20
116.4668537094923
 30
0.0
 10
179.9117765470606
 20
116.1040247755996
 30
0.0
 10
179.9923255683186
 20
115.7149611303279
 30
0.0
  0
CIRCLE
  5
145
330
1F
100
AcDbEntity
  8
0
  6
HIDDEN
 62
     7
370
     0
100
AcDbCircle
 10
220.0200899515
 20
120.0561926643
 30
0.0
 40
1.644980231418316
  0
LINE
  5
146
330
1F
100
AcDbEntity
  8
0
  6
HIDDEN
 62
     7
370
     0
100
AcDbLine
 10
229.8221262754
 20
130.0958058403
 30
0.0
 11
227.4370799423
 21
127.792468162
 31
0.0
  0
LINE
  5
147
330
1F
100
AcDbEntity
  8
0
  6
HIDDEN
 62
     7
370
     0
100
AcDbLine
 10
227.4232181371
 20
127.3265628682
 30
0.0
 11
230.0534556271
 21
129.866694899
 31
0.0
  0
LWPOLYLINE
  5
148
330
1F
100
AcDbEntity
  8
0
  6
HIDDEN
 62
     7
370
     0
100
AcDbPolyline
 90
       29
 70
   128
 43
0.0
 10
195.6923260005
 20
97.6393794247
 10
196.1596198962
 20
97.6881965601
 10
196.603481716
 20
97.8322013819
 10
197.0016537817
 20
98.0641719491
 10
197.3341713311
 20
98.3724769742
 10
197.5843599648
 20
98.7416565024
 10
197.739674768
 20
99.1531981693
 10
197.7923261584
 20
99.5864652635
 10
197.739674768
 20
100.0197328233
 10
197.5843599648
 20
100.4312744902
 10
197.3341713311
 20
100.8004535527
 10
197.0016537817
 20
101.1087585778
 10
196.603481716
 20
101.3407293779
 10
196.1596198962
 20
101.4847339668
 10
195.6923260005
 20
101.5335515679
 10
195.2250311734
 20
101.4847339668
 10
194.7811693535
 20
101.3407293779
 10
194.3829972879
 20
101.1087585778
 10
194.0504797385
 20
100.8004535527
 10
193.8002911047
 20
100.4312744902
 10
193.6449772329
 20
100.0197328233
 10
193.5923258425
 20
99.5864652635
 10
193.6449772329
 20
99.1531981693
 10
193.8002911047
 20
98.7416565024
 10
194.0504797385
 20
98.3724769742
 10
194.3829972879
 20
98.0641719491
 10
194.7811693535
 20
97.8322013819
 10
195.2250311734
 20
97.6881965601
 10
195.6923260005
 20
97.6393794247
  0
SPLINE
  5
149
330
1F
100
AcDbEntity
  8
0
  6
HIDDEN
 62
     7
370
     0
100
AcDbSpline
210
0.0
220
0.0
230
1.0
 70
     8
 71
     3
 72
     8
 73
     4
 74
     0
 42
0.00000001
 43
0.00000001
 12
1.0
 22
0.0
 32
0.0
 13
1.0
 23
0.0
 33
0.0
 40
0.0
 40
0.0
 40
0.0
 40
0.0
 40
1.0
 40
1.0
 40
1.0
 40
1.0
 10
205.7016381115561
 20
122.7887855687437
 30
0.0
 10
205.3026977184259
 20
123.3096112391318
 30
0.0
 10
205.0121015470213
 20
123.8326185804831
 30
0.0
 10
204.8909244066309
 20
124.3590374243094
 30
0.0
  0
SPLINE
  5
14A
330
1F
100
AcDbEntity
  8
0
  6
HIDDEN
 62
     7
370
     0
100
AcDbSpline
210
0.0
220
0.0
230
1.0
 70
     8
 71
     3
 72
    24
 73
    20
 74
     0
 42
0.00000001
 43
0.00000001
 12
1.0
 22
0.0
 32
0.0
 13
1.0
 23
0.0
 33
0.0
 40
0.0
 40
0.0
 40
0.0
 40
0.0
 40
0.2499999999999916
 40
0.2499999999999916
 40
0.3749999999999873
 40
0.3749999999999873
 40
0.4374999999999871
 40
0.4374999999999871
 40
0.4999999999999869
 40
0.4999999999999869
 40
0.5312499999999867
 40
0.5312499999999867
 40
0.5624999999999866
 40
0.5624999999999866
 40
0.6249999999999878
 40
0.6249999999999878
 40
0.749999999999994
 40
0.749999999999994
 40
1.0
 40
1.0
 40
1.0
 40
1.0
 10
180.1972855903811
 20
93.94832941127382
 30
0.0
 10
180.1815167130237
 20
93.87447071934425
 30
0.0
 10
180.1649027311737
 20
93.80075933060847
 30
0.0
 10
180.1363710651686
 20
93.68921250698645
 30
0.0
 10
180.1262836503499
 20
93.65184093385798
 30
0.0
 10
180.1087960898956
 20
93.59494143622027
 30
0.0
 10
180.1025865281123
 20
93.57583833607498
 30
0.0
 10
180.0883089744597
 20
93.53696482183943
 30
0.0
 10
180.0807374266643
 20
93.51704016240606
 30
0.0
 10
180.063319842986
 20
93.48696794437868
 30
0.0
 10
180.054837346341
 20
93.4752865655756
 30
0.0
 10
180.0387990344692
 20
93.46802505482691
 30
0.0
 10
180.0339784862657
 20
93.47160330183668
 30
0.0
 10
180.0225692617177
 20
93.48336415706832
 30
0.0
 10
180.0185487812602
 20
93.49502980711885
 30
0.0
 10
180.0077949264399
 20
93.53156513723243
 30
0.0
 10
180.0039222451577
 20
93.55896087055599
 30
0.0
 10
179.9947540953201
 20
93.643686862312
 30
0.0
 10
179.992725589951
 20
93.7045189844841
 30
0.0
 10
179.9923255683208
 20
93.76688514582571
 30
0.0
  0
SPLINE
  5
14B
330
1F
100
AcDbEntity
  8
0
  6
HIDDEN
 62
     7
370
     0
100
AcDbSpline
210
0.0
220
0.0
230
1.0
 70
     8
 71
     3
 72
    24
 73
    20
 74
     0
 42
0.00000001
 43
0.00000001
 12
1.0
 22
0.0
 32
0.0
 13
1.0
 23
0.0
 33
0.0
 40
0.0
 40
0.0
 40
0.0
 40
0.0
 40
0.2500000000000014
 40
0.2500000000000014
 40
0.3750000000000053
 40
0.3750000000000053
 40
0.4375000000000072
 40
0.4375000000000072
 40
0.4687500000000083
 40
0.4687500000000083
 40
0.5000000000000093
 40
0.5000000000000093
 40
0.562500000000009
 40
0.562500000000009
 40
0.6250000000000087
 40
0.6250000000000087
 40
0.7500000000000079
 40
0.7500000000000079
 40
1.0
 40
1.0
 40
1.0
 40
1.0
 10
179.9923255683171
 20
115.7149611303293
 30
0.0
 10
179.992730237893
 20
115.7780519388219
 30
0.0
 10
179.9947736847074
 20
115.8392376613244
 30
0.0
 10
180.0041732499616
 20
115.924737393826
 30
0.0
 10
180.0081241434904
 20
115.9523177772671
 30
0.0
 10
180.0192764517873
 20
115.9887718593787
 30
0.0
 10
180.0234979927138
 20
116.0006302810731
 30
0.0
 10
180.0357057142774
 20
116.0112503324485
 30
0.0
 10
180.0414964845294
 20
116.0140836996709
 30
0.0
 10
180.0584179976393
 20
116.0027691126729
 30
0.0
 10
180.0658241135891
 20
115.9909882269191
 30
0.0
 10
180.0822813668323
 20
115.9609473856894
 30
0.0
 10
180.0897378847433
 20
115.9412344320763
 30
0.0
 10
180.103645814018
 20
115.9028323660162
 30
0.0
 10
180.1097377599129
 20
115.8839507161047
 30
0.0
 10
180.126932052264
 20
115.8276498055732
 30
0.0
 10
180.1369170024676
 20
115.7905737277635
 30
0.0
 10
180.1651630475665
 20
115.6799150568735
 30
0.0
 10
180.1816425845277
 20
115.606785996465
 30
0.0
 10
180.1972855903874
 20
115.5335168648411
 30
0.0
  0
SPLINE
  5
14C
330
1F
100
AcDbEntity
  8
0
  6
HIDDEN
 62
     7
370
     0
100
AcDbSpline
210
0.0
220
0.0
230
1.0
 70
     8
 71
     3
 72
     8
 73
     4
 74
     0
 42
0.00000001
 43
0.00000001
 12
1.0
 22
0.0
 32
0.0
 13
1.0
 23
0.0
 33
0.0
 40
0.0
 40
0.0
 40
0.0
 40
0.0
 40
1.0
 40
1.0
 40
1.0
 40
1.0
 10
180.3710052247611
 20
94.68740382046526
 30
0.0
 10
180.305900063147
 20
94.4323785852596
 30
0.0
 10
180.2480127335871
 20
94.18592656911835
 30
0.0
 10
180.1972855903811
 20
93.94832941127379
 30
0.0
  0
SPLINE
  5
14D
330
1F
100
AcDbEntity
  8
0
  6
HIDDEN
 62
     7
370
     0
100
AcDbSpline
210
0.0
220
0.0
230
1.0
 70
     8
 71
     3
 72
     8
 73
     4
 74
     0
 42
0.00000001
 43
0.00000001
 12
1.0
 22
0.0
 32
0.0
 13
1.0
 23
0.0
 33
0.0
 40
0.0
 40
0.0
 40
0.0
 40
0.0
 40
1.0
 40
1.0
 40
1.0
 40
1.0
 10
180.1972855903873
 20
115.5335168648411
 30
0.0
 10
180.2480127335918
 20
115.2959197070056
 30
0.0
 10
180.3059000631497
 20
115.0494676908741
 30
0.0
 10
180.3710052247611
 20
114.7944424556789
 30
0.0
  0
LINE
  5
14E
330
1F
100
AcDbEntity
  8
0
  6
HIDDEN
 62
     7
370
     0
100
AcDbLine
 10
179.9923255458
 20
107.6871215903
 30
0.0
 11
179.9923255458
 21
101.7947246858
 31
0.0
  0
SPLINE
  5
14F
330
1F
100
AcDbEntity
  8
0
  6
HIDDEN
 62
     7
370
     0
100
AcDbSpline
210
0.0
220
0.0
230
1.0
 70
     8
 71
     3
 72
    18
 73
    14
 74
     0
 42
0.00000001
 43
0.00000001
 12
1.0
 22
0.0
 32
0.0
 13
1.0
 23
0.0
 33
0.0
 40
0.0
 40
0.0
 40
0.0
 40
0.0
 40
0.2500000000000006
 40
0.2500000000000006
 40
0.3750000000000005
 40
0.3750000000000005
 40
0.5000000000000004
 40
0.5000000000000004
 40
0.7500000000000003
 40
0.7500000000000003
 40
0.8750000000000001
 40
0.8750000000000001
 40
1.0
 40
1.0
 40
1.0
 40
1.0
 10
205.7016381115561
 20
122.7887855687437
 30
0.0
 10
205.6250658905744
 20
121.7262058328283
 30
0.0
 10
205.5497690875442
 20
120.6074431108552
 30
0.0
 10
205.4389401598876
 20
118.8453115444299
 30
0.0
 10
205.4023531865503
 20
118.2438711926884
 30
0.0
 10
205.3299699290524
 20
117.0120880603224
 30
0.0
 10
205.2943174557071
 20
116.3839908788949
 30
0.0
 10
205.1905185895561
 20
114.4894181142253
 30
0.0
 10
205.1249226379091
 20
113.2029201684817
 30
0.0
 10
205.0324172840717
 20
111.2383858221126
 30
0.0
 10
205.0025692337826
 20
110.5777157213123
 30
0.0
 10
204.9450016182673
 20
109.244449656718
 30
0.0
 10
204.9172491883916
 20
108.5708501592739
 30
0.0
 10
204.8909244066308
 20
107.8979479939162
 30
0.0
  0
ELLIPSE
  5
150
330
1F
100
AcDbEntity
  8
0
  6
HIDDEN
 62
     7
370
     0
100
AcDbEllipse
 10
259.6340347987
 20
107.7409231381
 30
0.0
 11
31.30463163267609
 21
-22.70686112393082
 31
0.0
210
0.0
220
0.0
230
1.0
 40
0.3341157914
 41
3.349994201191096
 42
3.380574828651494
  0
ELLIPSE
  5
151
330
1F
100
AcDbEntity
  8
0
  6
HIDDEN
 62
     7
370
     0
100
AcDbEllipse
 10
185.4109660892
 20
107.7409231381
 30
0.0
 11
47.07765300287025
 21
24.77624893971907
 31
0.0
210
0.0
220
0.0
230
1.0
 40
0.0708889968
 41
5.571200496451457
 42
5.777019613794685
  0
SPLINE
  5
152
330
1F
100
AcDbEntity
  8
0
  6
HIDDEN
 62
     7
370
     0
100
AcDbSpline
210
0.0
220
0.0
230
1.0
 70
     8
 71
     3
 72
     9
 73
     5
 74
     0
 42
0.00000001
 43
0.00000001
 12
1.0
 22
0.0
 32
0.0
 13
1.0
 23
0.0
 33
0.0
 40
0.0
 40
0.0
 40
0.0
 40
0.0
 40
0.524516485395937
 40
1.0
 40
1.0
 40
1.0
 40
1.0
 10
217.023146396997
 20
122.7887848929663
 30
0.0
 10
217.4675606968222
 20
122.8040273094188
 30
0.0
 10
218.3148444566258
 20
122.8330872472412
 30
0.0
 10
219.1224990487435
 20
123.0363713951232
 30
0.0
 10
219.5065254927897
 20
123.1330296562215
 30
0.0
  0
SPLINE
  5
153
330
1F
100
AcDbEntity
  8
0
  6
HIDDEN
 62
     7
370
     0
100
AcDbSpline
210
0.0
220
0.0
230
1.0
 70
     8
 71
     3
 72
     9
 73
     5
 74
     0
 42
0.00000001
 43
0.00000001
 12
1.0
 22
0.0
 32
0.0
 13
1.0
 23
0.0
 33
0.0
 40
0.0
 40
0.0
 40
0.0
 40
0.0
 40
0.114822518924729
 40
1.0
 40
1.0
 40
1.0
 40
1.0
 10
220.8034741343284
 20
123.5899719015856
 30
0.0
 10
220.8623329936658
 20
123.6113318269614
 30
0.0
 10
221.3749402756574
 20
123.7973574043112
 30
0.0
 10
221.8122703654047
 20
124.0734384210922
 30
0.0
 10
222.1993851126456
 20
124.3178191200991
 30
0.0
  0
ELLIPSE
  5
154
330
1F
100
AcDbEntity
  8
0
  6
HIDDEN
 62
     7
370
     0
100
AcDbEllipse
 10
219.9046102206
 20
107.7409231381
 30
0.0
 11
13.8078937898064
 21
24.91436694914228
 31
0.0
210
0.0
220
0.0
230
1.0
 40
0.1497290449
 41
0.7534297689820072
 42
1.120017158866655
  0
ELLIPSE
  5
155
330
1F
100
AcDbEntity
  8
0
  6
HIDDEN
 62
     7
370
     0
100
AcDbEllipse
 10
219.9046102206
 20
107.7409231381
 30
0.0
 11
13.8078937898064
 21
24.91436694914228
 31
0.0
210
0.0
220
0.0
230
1.0
 40
0.1497290449
 41
1.167938559494036
 42
1.329644728241435
  0
SPLINE
  5
156
330
1F
100
AcDbEntity
  8
0
  6
HIDDEN
 62
     7
370
     0
100
AcDbSpline
210
0.0
220
0.0
230
1.0
 70
     8
 71
     3
 72
    12
 73
     8
 74
     0
 42
0.00000001
 43
0.00000001
 12
1.0
 22
0.0
 32
0.0
 13
1.0
 23
0.0
 33
0.0
 40
0.0
 40
0.0
 40
0.0
 40
0.0
 40
0.5
 40
0.5
 40
0.75
 40
0.75
 40
1.0
 40
1.0
 40
1.0
 40
1.0
 10
219.5797661826226
 20
115.6986170458477
 30
0.0
 10
219.1183129088786
 20
114.9338004530829
 30
0.0
 10
218.7527518487469
 20
114.123262956306
 30
0.0
 10
218.3620688836465
 20
112.8291029822631
 30
0.0
 10
218.2582743167654
 20
112.3820034102849
 30
0.0
 10
218.1131411406074
 20
111.4800818302138
 30
0.0
 10
218.0709441874968
 20
111.0235258955176
 30
0.0
 10
218.0607387776336
 20
110.5610761554727
 30
0.0
  0
LINE
  5
157
330
1F
100
AcDbEntity
  8
0
  6
HIDDEN
 62
     7
370
     0
100
AcDbLine
 10
205.7016390027
 20
122.788784893
 30
0.0
 11
217.023146397
 21
122.788784893
 31
0.0
  0
ELLIPSE
  5
158
330
1F
100
AcDbEntity
  8
0
  6
HIDDEN
 62
     7
370
     0
100
AcDbEllipse
 10
222.8892283574
 20
107.7409231381
 30
0.0
 11
5.684341886080801E-14
 21
25.00000000000002
 31
0.0
210
0.0
220
0.0
230
1.0
 40
0.1943803091
 41
1.457749578484772
 42
1.570796326794897
  0
LINE
  5
159
330
1F
100
AcDbEntity
  8
0
  6
HIDDEN
 62
     7
370
     0
100
AcDbLine
 10
181.4923255734
 20
110.2463680857
 30
0.0
 11
181.4923255734
 21
99.2354781904
 31
0.0
  0
SPLINE
  5
15A
330
1F
100
AcDbEntity
  8
0
  6
HIDDEN
 62
     7
370
     0
100
AcDbSpline
210
0.0
220
0.0
230
1.0
 70
     8
 71
     3
 72
     8
 73
     4
 74
     0
 42
0.00000001
 43
0.00000001
 12
1.0
 22
0.0
 32
0.0
 13
1.0
 23
0.0
 33
0.0
 40
0.0000137051794235
 40
0.0000137051794235
 40
0.0000137051794235
 40
0.0000137051794235
 40
0.0027147144718018
 40
0.0027147144718018
 40
0.0027147144718018
 40
0.0027147144718018
 10
159.1923255683207
 20
102.1858949010103
 30
0.0
 10
160.0923217038155
 20
102.172923333812
 30
0.0
 10
160.9923218824109
 20
102.1602884764999
 30
0.0
 10
161.8923255683207
 20
102.1479784582441
 30
0.0
  0
SPLINE
  5
15B
330
1F
100
AcDbEntity
  8
0
  6
HIDDEN
 62
     7
370
     0
100
AcDbSpline
210
0.0
220
0.0
230
1.0
 70
     8
 71
     3
 72
     8
 73
     4
 74
     0
 42
0.00000001
 43
0.00000001
 12
1.0
 22
0.0
 32
0.0
 13
1.0
 23
0.0
 33
0.0
 40
0.0000137050638847
 40
0.0000137050638847
 40
0.0000137050638847
 40
0.0000137050638847
 40
0.0027147143562631
 40
0.0027147143562631
 40
0.0027147143562631
 40
0.0027147143562631
 10
161.8923255683207
 20
107.3338678179
 30
0.0
 10
160.9923218824109
 20
107.3215577996443
 30
0.0
 10
160.0923217038155
 20
107.3089229423322
 30
0.0
 10
159.1923255683207
 20
107.2959513751338
 30
0.0
  0
SPLINE
  5
15C
330
1F
100
AcDbEntity
  8
0
  6
HIDDEN
 62
     7
370
     0
100
AcDbSpline
210
0.0
220
0.0
230
1.0
 70
     8
 71
     3
 72
    10
 73
     6
 74
     0
 42
0.00000001
 43
0.00000001
 12
1.0
 22
0.0
 32
0.0
 13
1.0
 23
0.0
 33
0.0
 40
0.0
 40
0.0
 40
0.0
 40
0.0
 40
0.5
 40
0.5
 40
1.0
 40
1.0
 40
1.0
 40
1.0
 10
157.6923255683199
 20
102.8907093244219
 30
0.0
 10
157.9294675290357
 20
102.7350945098931
 30
0.0
 10
158.1748102877992
 20
102.6031854804738
 30
0.0
 10
158.6760738765322
 20
102.3715286038363
 30
0.0
 10
158.9321084457825
 20
102.2720829877134
 30
0.0
 10
159.1923255683207
 20
102.1858949010103
 30
0.0
  0
SPLINE
  5
15D
330
1F
100
AcDbEntity
  8
0
  6
HIDDEN
 62
     7
370
     0
100
AcDbSpline
210
0.0
220
0.0
230
1.0
 70
     8
 71
     3
 72
    10
 73
     6
 74
     0
 42
0.00000001
 43
0.00000001
 12
1.0
 22
0.0
 32
0.0
 13
1.0
 23
0.0
 33
0.0
 40
0.0
 40
0.0
 40
0.0
 40
0.0
 40
0.5
 40
0.5
 40
1.0
 40
1.0
 40
1.0
 40
1.0
 10
159.1923255683207
 20
107.2959513751338
 30
0.0
 10
158.9321084457827
 20
107.2097632884308
 30
0.0
 10
158.6760738765325
 20
107.110317672308
 30
0.0
 10
158.1748102877998
 20
106.8786607956707
 30
0.0
 10
157.9294675290365
 20
106.7467517662515
 30
0.0
 10
157.6923255683207
 20
106.5911369517228
 30
0.0
  0
LINE
  5
15E
330
1F
100
AcDbEntity
  8
0
  6
HIDDEN
 62
     7
370
     0
100
AcDbLine
 10
161.8923256756
 20
102.1479783652
 30
0.0
 11
161.8923256756
 21
107.333867911
 31
0.0
  0
SPLINE
  5
15F
330
1F
100
AcDbEntity
  8
0
  6
HIDDEN
 62
     7
370
     0
100
AcDbSpline
210
0.0
220
0.0
230
1.0
 70
     8
 71
     3
 72
    22
 73
    18
 74
     0
 42
0.00000001
 43
0.00000001
 12
1.0
 22
0.0
 32
0.0
 13
1.0
 23
0.0
 33
0.0
 40
0.0
 40
0.0
 40
0.0
 40
0.0
 40
0.125
 40
0.125
 40
0.25
 40
0.25
 40
0.375
 40
0.375
 40
0.5
 40
0.5
 40
0.625
 40
0.625
 40
0.75
 40
0.75
 40
0.875
 40
0.875
 40
1.0
 40
1.0
 40
1.0
 40
1.0
 10
161.8923255683207
 20
102.1479784582441
 30
0.0
 10
162.0732619263969
 20
102.3395983175506
 30
0.0
 10
162.2523573751738
 20
102.5332401819378
 30
0.0
 10
162.6031973636858
 20
102.927895435322
 30
0.0
 10
162.7753904715904
 20
103.1289069659896
 30
0.0
 10
163.1011219772097
 20
103.5451180812234
 30
0.0
 10
163.2571982123781
 20
103.7611339215101
 30
0.0
 10
163.5085774262671
 20
104.2264566846749
 30
0.0
 10
163.6024425565859
 20
104.4819958776977
 30
0.0
 10
163.5987146397238
 20
105.0163265127983
 30
0.0
 10
163.5013419972364
 20
105.271747378799
 30
0.0
 10
163.2495211882425
 20
105.7317760947467
 30
0.0
 10
163.09455193277
 20
105.9456130956753
 30
0.0
 10
162.7697391750447
 20
106.359651678369
 30
0.0
 10
162.5988461109168
 20
106.5589441504049
 30
0.0
 10
162.2502118713892
 20
106.950919042839
 30
0.0
 10
162.0722040208607
 20
107.1433683288285
 30
0.0
 10
161.8923255683207
 20
107.3338678179001
 30
0.0
  0
LWPOLYLINE
  5
160
330
1F
100
AcDbEntity
  8
0
  6
HIDDEN
 62
     7
370
     0
100
AcDbPolyline
 90
       32
 70
   128
 43
0.0
 10
195.6923260005
 20
97.1784711422
 10
196.1955717416
 20
97.2259201647
 10
196.6782147647
 20
97.3663235621
 10
197.1204961301
 20
97.5939341427
 10
197.5043072016
 20
97.8994330929
 10
197.8139365674
 20
98.2703136818
 10
198.036705202
 20
98.6913911604
 10
198.1634954573
 20
99.1454272137
 10
198.1891161413
 20
99.6138335743
 10
198.1125185848
 20
100.0774333791
 10
197.9368376197
 20
100.5172467397
 10
197.6692649187
 20
100.9152676982
 10
197.3207565607
 20
101.2552016021
 10
196.9055804075
 20
101.5231309996
 10
196.4407330961
 20
101.7080870063
 10
195.9452462034
 20
101.8024977368
 10
195.4394048662
 20
101.8024977368
 10
194.9439179735
 20
101.7080870063
 10
194.4790706621
 20
101.5231309996
 10
194.0638945089
 20
101.2552016021
 10
193.7153861509
 20
100.9152676982
 10
193.4478143812
 20
100.5172467397
 10
193.2721324847
 20
100.0774333791
 10
193.1955339969
 20
99.6138335743
 10
193.221154681
 20
99.1454272137
 10
193.3479449363
 20
98.6913911604
 10
193.5707145022
 20
98.2703136818
 10
193.880343868
 20
97.8994330929
 10
194.2641549395
 20
97.5939341427
 10
194.7064363049
 20
97.3663235621
 10
195.189079328
 20
97.2259201647
 10
195.6923260005
 20
97.1784711422
  0
SPLINE
  5
161
330
1F
100
AcDbEntity
  8
0
  6
HIDDEN
 62
     7
370
     0
100
AcDbSpline
210
0.0
220
0.0
230
1.0
 70
     8
 71
     3
 72
    62
 73
    58
 74
     0
 42
0.00000001
 43
0.00000001
 12
1.0
 22
0.0
 32
0.0
 13
1.0
 23
0.0
 33
0.0
 40
-0.03125
 40
-0.03125
 40
0.0
 40
0.0
 40
0.03125
 40
0.03125
 40
0.0625
 40
0.0625
 40
0.09375
 40
0.09375
 40
0.125
 40
0.125
 40
0.1874999999999999
 40
0.1874999999999999
 40
0.2499999999999999
 40
0.2499999999999999
 40
0.2812499999999999
 40
0.2812499999999999
 40
0.3124999999999999
 40
0.3124999999999999
 40
0.3437499999999999
 40
0.3437499999999999
 40
0.3749999999999999
 40
0.3749999999999999
 40
0.4374999999999998
 40
0.4374999999999998
 40
0.4687499999999998
 40
0.4687499999999998
 40
0.4999999999999997
 40
0.4999999999999997
 40
0.5624999999999994
 40
0.5624999999999994
 40
0.5937499999999994
 40
0.5937499999999994
 40
0.6249999999999994
 40
0.6249999999999994
 40
0.6562499999999994
 40
0.6562499999999994
 40
0.6874999999999994
 40
0.6874999999999994
 40
0.7187499999999994
 40
0.7187499999999994
 40
0.7499999999999994
 40
0.7499999999999994
 40
0.7812499999999994
 40
0.7812499999999994
 40
0.8124999999999996
 40
0.8124999999999996
 40
0.8437499999999997
 40
0.8437499999999997
 40
0.8749999999999998
 40
0.8749999999999998
 40
0.9062499999999999
 40
0.9062499999999999
 40
0.9375
 40
0.9375
 40
0.96875
 40
0.96875
 40
1.0
 40
1.0
 40
1.03125
 40
1.03125
 10
168.1460976962491
 20
106.2289021767284
 30
0.0
 10
168.3735980428373
 20
106.478248718589
 30
0.0
 10
168.4980605717547
 20
106.589846396046
 30
0.0
 10
168.7671548379065
 20
106.7884971918644
 30
0.0
 10
168.9129679294958
 20
106.8758374366531
 30
0.0
 10
169.2141348077852
 20
107.0200331892953
 30
0.0
 10
169.3704705348496
 20
107.0778528598095
 30
0.0
 10
169.694593834184
 20
107.1651064718606
 30
0.0
 10
169.8612590458945
 20
107.1939085213424
 30
0.0
 10
170.3592753125264
 20
107.2346878266102
 30
0.0
 10
170.6999462613194
 20
107.201244566469
 30
0.0
 10
171.3389571767408
 20
107.0187919220102
 30
0.0
 10
171.6454117838047
 20
106.8673673616974
 30
0.0
 10
172.0419676930671
 20
106.5668694561131
 30
0.0
 10
172.1663168839166
 20
106.4526082709177
 30
0.0
 10
172.3887809779657
 20
106.2029484003452
 30
0.0
 10
172.486346316443
 20
106.0687817923461
 30
0.0
 10
172.6536019200818
 20
105.7813126978474
 30
0.0
 10
172.7236875756009
 20
105.6260458479475
 30
0.0
 10
172.8277429363224
 20
105.3090664278604
 30
0.0
 10
172.8627186989898
 20
105.146413676356
 30
0.0
 10
172.9145832185139
 20
104.6454766561534
 30
0.0
 10
172.8752771107425
 20
104.3053220548431
 30
0.0
 10
172.7125573182817
 20
103.828827422746
 30
0.0
 10
172.6422768203954
 20
103.6777600629186
 30
0.0
 10
172.4709436752653
 20
103.3904654924777
 30
0.0
 10
172.3695514340837
 20
103.2546077141803
 30
0.0
 10
172.0329518468605
 20
102.8857993191821
 30
0.0
 10
171.7577190806958
 20
102.683374209851
 30
0.0
 10
171.3079358533499
 20
102.4662974832422
 30
0.0
 10
171.1491360548463
 20
102.406995211168
 30
0.0
 10
170.8265743339666
 20
102.3190226933675
 30
0.0
 10
170.6627152219994
 20
102.2899029295212
 30
0.0
 10
170.3298824486455
 20
102.261046314411
 30
0.0
 10
170.1598301572047
 20
102.261669837625
 30
0.0
 10
169.8275544931849
 20
102.2929262814294
 30
0.0
 10
169.6638398814362
 20
102.3232449764812
 30
0.0
 10
169.3413743958619
 20
102.4139620154842
 30
0.0
 10
169.1828632973354
 20
102.474730924186
 30
0.0
 10
168.8843095911375
 20
102.622241598983
 30
0.0
 10
168.7424834619354
 20
102.7093766268469
 30
0.0
 10
168.4745617233771
 20
102.9119620934189
 30
0.0
 10
168.3504682929845
 20
103.0263002600611
 30
0.0
 10
168.1293341050664
 20
103.2744866980139
 30
0.0
 10
168.0308771029677
 20
103.4095193148677
 30
0.0
 10
167.8615185892327
 20
103.7015237129224
 30
0.0
 10
167.7933517515268
 20
103.853659459358
 30
0.0
 10
167.6896177852004
 20
104.170068407798
 30
0.0
 10
167.6539492233312
 20
104.3365648771522
 30
0.0
 10
167.6197354586787
 20
104.6698267532628
 30
0.0
 10
167.6205938615078
 20
104.8364892070846
 30
0.0
 10
167.6583906414573
 20
105.1698774063022
 30
0.0
 10
167.6957333969114
 20
105.3356329787817
 30
0.0
 10
167.8029829799798
 20
105.6515242952444
 30
0.0
 10
167.873744196519
 20
105.8048036283165
 30
0.0
 10
168.0458673466197
 20
106.094180670803
 30
0.0
 10
168.1460976962491
 20
106.2289021767284
 30
0.0
 10
168.3735980428373
 20
106.478248718589
 30
0.0
  0
CIRCLE
  5
162
330
1F
100
AcDbEntity
  8
0
  6
HIDDEN
 62
     7
370
     0
100
AcDbCircle
 10
193.6923255683
 20
104.7409231381
 30
0.0
 40
2.0
  0
LINE
  5
163
330
1F
100
AcDbEntity
  8
0
  6
HIDDEN
 62
     7
370
     0
100
AcDbLine
 10
218.0297198356
 20
106.7409232331
 30
0.0
 11
218.0297198356
 21
107.7409231641
 31
0.0
  0
LINE
  5
164
330
1F
100
AcDbEntity
  8
0
  6
HIDDEN
 62
     7
370
     0
100
AcDbLine
 10
216.6030938388
 20
104.7409231381
 30
0.0
 11
218.0297198356
 21
106.7409232331
 31
0.0
  0
LWPOLYLINE
  5
165
330
1F
100
AcDbEntity
  8
0
  6
HIDDEN
 62
     7
370
     0
100
AcDbPolyline
 90
       29
 70
   128
 43
0.0
 10
195.1972162933
 20
97.8355178216
 10
195.6363125355
 20
97.7779429943
 10
196.0782176466
 20
97.8124047236
 10
196.5007726685
 20
97.9371758715
 10
196.8827881501
 20
98.1459988819
 10
197.20510958
 20
98.4284033605
 10
197.4515738548
 20
98.7702276164
 10
197.609822324
 20
99.1543315889
 10
197.6719173254
 20
99.5614545957
 10
197.6347501041
 20
99.9711820462
 10
197.50017958
 20
100.3629680329
 10
197.2749569104
 20
100.7171672375
 10
196.9703743817
 20
101.0160181743
 10
196.6017047526
 20
101.2445356303
 10
196.1874347762
 20
101.3912603797
 10
195.7483385341
 20
101.4488352069
 10
195.306433423
 20
101.4143732448
 10
194.883878401
 20
101.2896025625
 10
194.5018629195
 20
101.0807793194
 10
194.1795414896
 20
100.7983748407
 10
193.9330772148
 20
100.4565505848
 10
193.7748296769
 20
100.0724466124
 10
193.7127328129
 20
99.6653236055
 10
193.7499018968
 20
99.255596155
 10
193.8844714896
 20
98.8638101683
 10
194.1096941592
 20
98.5096109637
 10
194.4142766879
 20
98.2107602597
 10
194.782946317
 20
97.9822425709
 10
195.1972162933
 20
97.8355178216
  0
LWPOLYLINE
  5
166
330
1F
100
AcDbEntity
  8
0
  6
HIDDEN
 62
     7
370
     0
100
AcDbPolyline
 90
       32
 70
   128
 43
0.0
 10
195.0673089014
 20
97.2566566036
 10
195.567368588
 20
97.1859450058
 10
196.0725430982
 20
97.2100122438
 10
196.5621524141
 20
97.3278729783
 10
197.0161507489
 20
97.5347024926
 10
197.4159507663
 20
97.8220322707
 10
197.745186335
 20
98.178100174
 10
197.9903774918
 20
98.5883272791
 10
198.1414864422
 20
99.0359199771
 10
198.1923254789
 20
99.5025535652
 10
198.1408140273
 20
99.9691233576
 10
197.9890624644
 20
100.4165288598
 10
197.743280849
 20
100.8264528194
 10
197.4135330529
 20
101.1821125706
 10
197.0133195282
 20
101.4689478164
 10
196.5590241016
 20
101.6752152776
 10
196.0692462162
 20
101.7924704195
 10
195.5640372471
 20
101.8159129729
 10
195.064080006
 20
101.7445827441
 10
194.5898431004
 20
101.5814003606
 10
194.1607418121
 20
101.3330464323
 10
193.7943446101
 20
101.0096886733
 10
193.5056504445
 20
100.6245653683
 10
193.30647873
 20
100.1934431099
 10
193.2049841271
 20
99.7339727895
 10
193.2053212659
 20
99.2649647945
 10
193.3074771078
 20
98.8056202025
 10
193.5072690831
 20
98.3747452104
 10
193.7965173857
 20
97.9899790676
 10
194.1633793176
 20
97.6670746298
 10
194.5928373025
 20
97.419252021
 10
195.0673089014
 20
97.2566566036
  0
LWPOLYLINE
  5
167
330
1F
100
AcDbEntity
  8
0
  6
HIDDEN
 62
     7
370
     0
100
AcDbPolyline
 90
       32
 70
   128
 43
0.0
 10
195.0673089014
 20
96.6010949181
 10
195.567368588
 20
96.5303833203
 10
196.0725430982
 20
96.5544505582
 10
196.5621524141
 20
96.6723112927
 10
197.0161507489
 20
96.8791412727
 10
197.4159507663
 20
97.1664710508
 10
197.745186335
 20
97.5225384885
 10
197.9903774918
 20
97.9327660592
 10
198.1414864422
 20
98.3803587572
 10
198.1923254789
 20
98.8469918796
 10
198.1408140273
 20
99.3135621377
 10
197.9890624644
 20
99.7609671743
 10
197.743280849
 20
100.1708911338
 10
197.4135330529
 20
100.5265511179
 10
197.0133195282
 20
100.8133863636
 10
196.5590241016
 20
101.0196538248
 10
196.0692462162
 20
101.1369089668
 10
195.5640372471
 20
101.1603512873
 10
195.064080006
 20
101.0890212913
 10
194.5898431004
 20
100.9258389079
 10
194.1607418121
 20
100.6774849796
 10
193.7943446101
 20
100.3541269877
 10
193.5056504445
 20
99.9690036827
 10
193.30647873
 20
99.53788189
 10
193.2049841271
 20
99.0784111039
 10
193.2053212659
 20
98.6094031089
 10
193.3074771078
 20
98.150058517
 10
193.5072690831
 20
97.7191835248
 10
193.7965173857
 20
97.334417382
 10
194.1633793176
 20
97.0115134099
 10
194.5928373025
 20
96.7636908011
 10
195.0673089014
 20
96.6010949181
  0
LWPOLYLINE
  5
168
330
1F
100
AcDbEntity
  8
0
  6
HIDDEN
 62
     7
370
     0
100
AcDbPolyline
 90
       29
 70
   128
 43
0.0
 10
195.1923119487
 20
95.7575718478
 10
195.6357574673
 20
95.6994265855
 10
196.0820397944
 20
95.7342301102
 10
196.50878018
 20
95.8602371232
 10
196.8945796253
 20
96.0711286009
 10
197.2200936289
 20
96.3563303069
 10
197.4689989002
 20
96.7015399204
 10
197.628813854
 20
97.0894483456
 10
197.6915253909
 20
97.5006039792
 10
197.6539893658
 20
97.9143896678
 10
197.5180870504
 20
98.3100564757
 10
197.2906320007
 20
98.6677635067
 10
196.9830329181
 20
98.9695744195
 10
196.6107115732
 20
99.2003552222
 10
196.1923391209
 20
99.3485333004
 10
195.7488936023
 20
99.4066785627
 10
195.3026112751
 20
99.3718755038
 10
194.8758708895
 20
99.2458684907
 10
194.4900714443
 20
99.034977013
 10
194.1645574407
 20
98.7497757727
 10
193.9156521694
 20
98.4045656935
 10
193.7558372156
 20
98.0166572684
 10
193.6931256787
 20
97.6055016347
 10
193.7306626351
 20
97.1917159462
 10
193.8665649505
 20
96.7960496039
 10
194.0940190689
 20
96.4383425729
 10
194.4016181515
 20
96.1365307287
 10
194.7739394964
 20
95.9057499261
 10
195.1923119487
 20
95.7575718478
  0
LWPOLYLINE
  5
169
330
1F
100
AcDbEntity
  8
0
  6
HIDDEN
 62
     7
370
     0
100
AcDbPolyline
 90
       29
 70
   128
 43
0.0
 10
195.1923119487
 20
97.3104288408
 10
195.6357574673
 20
97.2522835785
 10
196.0820397944
 20
97.2870866374
 10
196.50878018
 20
97.4130936505
 10
196.8945796253
 20
97.6239851282
 10
197.2200936289
 20
97.9091863685
 10
197.4689989002
 20
98.2543964476
 10
197.628813854
 20
98.6423048728
 10
197.6915253909
 20
99.0534605065
 10
197.6539893658
 20
99.467246195
 10
197.5180870504
 20
99.8629130029
 10
197.2906320007
 20
100.220620034
 10
196.9830329181
 20
100.5224309468
 10
196.6107115732
 20
100.7532117495
 10
196.1923391209
 20
100.9013900605
 10
195.7488936023
 20
100.9595353228
 10
195.3026112751
 20
100.9247317982
 10
194.8758708895
 20
100.798725018
 10
194.4900714443
 20
100.5878335403
 10
194.1645574407
 20
100.3026322999
 10
193.9156521694
 20
99.9574222208
 10
193.7558372156
 20
99.5695137956
 10
193.6931256787
 20
99.158358162
 10
193.7306626351
 20
98.7445724734
 10
193.8665649505
 20
98.3489061312
 10
194.0940190689
 20
97.9911986345
 10
194.4016181515
 20
97.6893877217
 10
194.7739394964
 20
97.458606919
 10
195.1923119487
 20
97.3104288408
  0
LWPOLYLINE
  5
16A
330
1F
100
AcDbEntity
  8
0
  6
HIDDEN
 62
     7
370
     0
100
AcDbPolyline
 90
       32
 70
   128
 43
0.0
 10
195.0673089014
 20
96.342616582
 10
195.567368588
 20
96.2719049842
 10
196.0725430982
 20
96.2959722222
 10
196.5621524141
 20
96.4138329567
 10
197.0161507489
 20
96.6206620054
 10
197.4159507663
 20
96.9079927148
 10
197.745186335
 20
97.2640596868
 10
197.9903774918
 20
97.6742872575
 10
198.1414864422
 20
98.1218799555
 10
198.1923254789
 20
98.5885135436
 10
198.1408140273
 20
99.055083336
 10
197.9890624644
 20
99.5024888382
 10
197.743280849
 20
99.9124127978
 10
197.4135330529
 20
100.2680723162
 10
197.0133195282
 20
100.5549075619
 10
196.5590241016
 20
100.7611750231
 10
196.0692462162
 20
100.8784303979
 10
195.5640372471
 20
100.9018727184
 10
195.064080006
 20
100.8305427225
 10
194.5898431004
 20
100.6673601062
 10
194.1607418121
 20
100.4190061779
 10
193.7943446101
 20
100.0956486517
 10
193.5056504445
 20
99.7105253467
 10
193.30647873
 20
99.2794030884
 10
193.2049841271
 20
98.8199327679
 10
193.2053212659
 20
98.3509247729
 10
193.3074771078
 20
97.8915801809
 10
193.5072690831
 20
97.4607047231
 10
193.7965173857
 20
97.075939046
 10
194.1633793176
 20
96.7530346082
 10
194.5928373025
 20
96.5052115337
 10
195.0673089014
 20
96.342616582
  0
LWPOLYLINE
  5
16B
330
1F
100
AcDbEntity
  8
0
  6
HIDDEN
 62
     7
370
     0
100
AcDbPolyline
 90
       31
 70
   128
 43
0.0
 10
195.1173106791
 20
96.7133118377
 10
195.5928868265
 20
96.6475856097
 10
196.0728094564
 20
96.6749739439
 10
196.5361033217
 20
96.7942791597
 10
196.9625205384
 20
97.0002881789
 10
197.3334225477
 20
97.2839960435
 10
197.6326024742
 20
97.6330045217
 10
197.846981755
 20
98.0320594811
 10
197.9671931477
 20
98.4637209752
 10
197.9879821302
 20
98.9091227369
 10
197.9084378691
 20
99.3487987274
 10
197.7320416482
 20
99.7635334336
 10
197.4664973677
 20
100.1352005244
 10
197.1234148951
 20
100.4475563371
 10
196.7177866609
 20
100.6869495453
 10
196.2673413218
 20
100.8429172055
 10
195.7917642431
 20
100.9086434336
 10
195.3118416132
 20
100.8812553321
 10
194.8485477479
 20
100.7619498835
 10
194.4221314625
 20
100.55594133
 10
194.0512275906
 20
100.2722329998
 10
193.7520485954
 20
99.9232245215
 10
193.5376693146
 20
99.5241695621
 10
193.4174579219
 20
99.092508068
 10
193.3966698707
 20
98.6471063064
 10
193.4762122692
 20
98.2074303159
 10
193.6526103528
 20
97.7926956096
 10
193.9181537018
 20
97.4210289844
 10
194.2612361745
 20
97.1086731718
 10
194.6668644087
 20
96.869279498
 10
195.1173106791
 20
96.7133118377
  0
LWPOLYLINE
  5
16C
330
1F
100
AcDbEntity
  8
0
  6
HIDDEN
 62
     7
370
     0
100
AcDbPolyline
 90
       32
 70
   128
 43
0.0
 10
195.0673089014
 20
96.0841373147
 10
195.567368588
 20
96.0134257169
 10
196.0725430982
 20
96.0374938862
 10
196.5621524141
 20
96.1553546206
 10
197.0161507489
 20
96.3621836693
 10
197.4159507663
 20
96.6495134474
 10
197.745186335
 20
97.0055813507
 10
197.9903774918
 20
97.4158089214
 10
198.1414864422
 20
97.8634016195
 10
198.1923254789
 20
98.3300347419
 10
198.1408140273
 20
98.796605
 10
197.9890624644
 20
99.2440105022
 10
197.743280849
 20
99.6539339961
 10
197.4135330529
 20
100.0095939801
 10
197.0133195282
 20
100.2964292259
 10
196.5590241016
 20
100.5026966871
 10
196.0692462162
 20
100.6199520619
 10
195.5640372471
 20
100.6433943824
 10
195.064080006
 20
100.5720639208
 10
194.5898431004
 20
100.4088817702
 10
194.1607418121
 20
100.1605278419
 10
193.7943446101
 20
99.83716985
 10
193.5056504445
 20
99.452046545
 10
193.30647873
 20
99.0209247523
 10
193.2049841271
 20
98.5614539662
 10
193.2053212659
 20
98.0924459712
 10
193.3074771078
 20
97.6331018449
 10
193.5072690831
 20
97.2022263871
 10
193.7965173857
 20
96.8174607099
 10
194.1633793176
 20
96.4945562721
 10
194.5928373025
 20
96.2467331977
 10
195.0673089014
 20
96.0841373147
  0
LWPOLYLINE
  5
16D
330
1F
100
AcDbEntity
  8
0
  6
HIDDEN
 62
     7
370
     0
100
AcDbPolyline
 90
       31
 70
   128
 43
0.0
 10
195.1173106791
 20
96.4548335017
 10
195.5928868265
 20
96.3891072736
 10
196.0728094564
 20
96.4164956079
 10
196.5361033217
 20
96.5358008237
 10
196.9625205384
 20
96.7418093772
 10
197.3334225477
 20
97.0255177074
 10
197.6326024742
 20
97.37452572
 10
197.846981755
 20
97.7735811451
 10
197.9671931477
 20
98.2052421735
 10
197.9879821302
 20
98.6506444008
 10
197.9084378691
 20
99.0903203913
 10
197.7320416482
 20
99.5050546319
 10
197.4664973677
 20
99.8767217227
 10
197.1234148951
 20
100.1890775354
 10
196.7177866609
 20
100.4284707436
 10
196.2673413218
 20
100.5844388695
 10
195.7917642431
 20
100.6501650975
 10
195.3118416132
 20
100.6227767633
 10
194.8485477479
 20
100.5034710818
 10
194.4221314625
 20
100.2974625283
 10
194.0512275906
 20
100.0137546637
 10
193.7520485954
 20
99.6647461855
 10
193.5376693146
 20
99.2656912261
 10
193.4174579219
 20
98.834029732
 10
193.3966698707
 20
98.3886279703
 10
193.4762122692
 20
97.9489515142
 10
193.6526103528
 20
97.5342172736
 10
193.9181537018
 20
97.1625501827
 10
194.2612361745
 20
96.8501948358
 10
194.6668644087
 20
96.6108011619
 10
195.1173106791
 20
96.4548335017
  0
LWPOLYLINE
  5
16E
330
1F
100
AcDbEntity
  8
0
  6
HIDDEN
 62
     7
370
     0
100
AcDbPolyline
 90
       32
 70
   128
 43
0.0
 10
195.0673089014
 20
95.8256589786
 10
195.567368588
 20
95.7549473808
 10
196.0725430982
 20
95.7790146188
 10
196.5621524141
 20
95.8968762846
 10
197.0161507489
 20
96.1037053333
 10
197.4159507663
 20
96.3910351114
 10
197.745186335
 20
96.7471030147
 10
197.9903774918
 20
97.1573301197
 10
198.1414864422
 20
97.6049228178
 10
198.1923254789
 20
98.0715564058
 10
198.1408140273
 20
98.5381261983
 10
197.9890624644
 20
98.9855317005
 10
197.743280849
 20
99.39545566
 10
197.4135330529
 20
99.7511151784
 10
197.0133195282
 20
100.0379504242
 10
196.5590241016
 20
100.2442178854
 10
196.0692462162
 20
100.3614732602
 10
195.5640372471
 20
100.3849155807
 10
195.064080006
 20
100.3135855847
 10
194.5898431004
 20
100.1504029685
 10
194.1607418121
 20
99.9020495058
 10
193.7943446101
 20
99.5786915139
 10
193.5056504445
 20
99.1935682089
 10
193.30647873
 20
98.7624459506
 10
193.2049841271
 20
98.3029756301
 10
193.2053212659
 20
97.8339676351
 10
193.3074771078
 20
97.3746230432
 10
193.5072690831
 20
96.943748051
 10
193.7965173857
 20
96.5589814426
 10
194.1633793176
 20
96.2360779361
 10
194.5928373025
 20
95.9882548616
 10
195.0673089014
 20
95.8256589786
  0
LWPOLYLINE
  5
16F
330
1F
100
AcDbEntity
  8
0
  6
HIDDEN
 62
     7
370
     0
100
AcDbPolyline
 90
       31
 70
   128
 43
0.0
 10
195.1173106791
 20
96.1963551657
 10
195.5928868265
 20
96.1306289376
 10
196.0728094564
 20
96.1580163405
 10
196.5361033217
 20
96.2773224876
 10
196.9625205384
 20
96.4833310411
 10
197.3334225477
 20
96.7670389057
 10
197.6326024742
 20
97.116047384
 10
197.846981755
 20
97.5151023434
 10
197.9671931477
 20
97.9467638374
 10
197.9879821302
 20
98.3921655991
 10
197.9084378691
 20
98.8318415896
 10
197.7320416482
 20
99.2465762959
 10
197.4664973677
 20
99.6182433867
 10
197.1234148951
 20
99.9305991993
 10
196.7177866609
 20
100.1699924075
 10
196.2673413218
 20
100.3259600678
 10
195.7917642431
 20
100.3916862958
 10
195.3118416132
 20
100.3642984272
 10
194.8485477479
 20
100.2449927458
 10
194.4221314625
 20
100.0389841923
 10
194.0512275906
 20
99.755275862
 10
193.7520485954
 20
99.4062673838
 10
193.5376693146
 20
99.0072124244
 10
193.4174579219
 20
98.5755509303
 10
193.3966698707
 20
98.1301491686
 10
193.4762122692
 20
97.6904731781
 10
193.6526103528
 20
97.2757384719
 10
193.9181537018
 20
96.9040718467
 10
194.2612361745
 20
96.5917155684
 10
194.6668644087
 20
96.3523228259
 10
195.1173106791
 20
96.1963551657
  0
LWPOLYLINE
  5
170
330
1F
100
AcDbEntity
  8
0
  6
HIDDEN
 62
     7
370
     0
100
AcDbPolyline
 90
       32
 70
   128
 43
0.0
 10
195.0673089014
 20
95.5671806426
 10
195.567368588
 20
95.4964690448
 10
196.0725430982
 20
95.5205362828
 10
196.5621524141
 20
95.6383970172
 10
197.0161507489
 20
95.8452269972
 10
197.4159507663
 20
96.1325567753
 10
197.745186335
 20
96.4886237473
 10
197.9903774918
 20
96.8988517837
 10
198.1414864422
 20
97.3464444817
 10
198.1923254789
 20
97.8130776041
 10
198.1408140273
 20
98.2796478623
 10
197.9890624644
 20
98.7270533645
 10
197.743280849
 20
99.1369768583
 10
197.4135330529
 20
99.4926368424
 10
197.0133195282
 20
99.7794720882
 10
196.5590241016
 20
99.9857395494
 10
196.0692462162
 20
100.1029949241
 10
195.5640372471
 20
100.1264372447
 10
195.064080006
 20
100.055106783
 10
194.5898431004
 20
99.8919246324
 10
194.1607418121
 20
99.6435707041
 10
193.7943446101
 20
99.3202127122
 10
193.5056504445
 20
98.9350894072
 10
193.30647873
 20
98.5039676146
 10
193.2049841271
 20
98.0444968284
 10
193.2053212659
 20
97.5754888334
 10
193.3074771078
 20
97.1161447072
 10
193.5072690831
 20
96.685269715
 10
193.7965173857
 20
96.3005031065
 10
194.1633793176
 20
95.9775986687
 10
194.5928373025
 20
95.7297765256
 10
195.0673089014
 20
95.5671806426
  0
LWPOLYLINE
  5
171
330
1F
100
AcDbEntity
  8
0
  6
HIDDEN
 62
     7
370
     0
100
AcDbPolyline
 90
       31
 70
   128
 43
0.0
 10
195.1173106791
 20
95.9378758983
 10
195.5928868265
 20
95.8721496702
 10
196.0728094564
 20
95.8995380045
 10
196.5361033217
 20
96.0188441516
 10
196.9625205384
 20
96.2248527051
 10
197.3334225477
 20
96.5085605697
 10
197.6326024742
 20
96.8575690479
 10
197.846981755
 20
97.2566240073
 10
197.9671931477
 20
97.6882855014
 10
197.9879821302
 20
98.1336872631
 10
197.9084378691
 20
98.5733632536
 10
197.7320416482
 20
98.9880979599
 10
197.4664973677
 20
99.359764585
 10
197.1234148951
 20
99.6721203976
 10
196.7177866609
 20
99.9115136058
 10
196.2673413218
 20
100.0674817317
 10
195.7917642431
 20
100.1332079598
 10
195.3118416132
 20
100.1058196255
 10
194.8485477479
 20
99.9865139441
 10
194.4221314625
 20
99.7805053906
 10
194.0512275906
 20
99.496797526
 10
193.7520485954
 20
99.1477890478
 10
193.5376693146
 20
98.7487340884
 10
193.4174579219
 20
98.3170725943
 10
193.3966698707
 20
97.8716708326
 10
193.4762122692
 20
97.4319948421
 10
193.6526103528
 20
97.0172601358
 10
193.9181537018
 20
96.6455935107
 10
194.2612361745
 20
96.3332372324
 10
194.6668644087
 20
96.0938444899
 10
195.1173106791
 20
95.9378758983
  0
LWPOLYLINE
  5
172
330
1F
100
AcDbEntity
  8
0
  6
HIDDEN
 62
     7
370
     0
100
AcDbPolyline
 90
       32
 70
   128
 43
0.0
 10
195.0673089014
 20
95.3611469434
 10
195.567368588
 20
95.2904353456
 10
196.0725430982
 20
95.3145025836
 10
196.5621524141
 20
95.432363318
 10
197.0161507489
 20
95.639193298
 10
197.4159507663
 20
95.9265230761
 10
197.745186335
 20
96.2825909794
 10
197.9903774918
 20
96.6928180845
 10
198.1414864422
 20
97.1404107825
 10
198.1923254789
 20
97.6070439049
 10
198.1408140273
 20
98.0736141631
 10
197.9890624644
 20
98.5210196653
 10
197.743280849
 20
98.9309431591
 10
197.4135330529
 20
99.2866031432
 10
197.0133195282
 20
99.573438389
 10
196.5590241016
 20
99.7797058501
 10
196.0692462162
 20
99.8969612249
 10
195.5640372471
 20
99.9204035455
 10
195.064080006
 20
99.8490735495
 10
194.5898431004
 20
99.6858909332
 10
194.1607418121
 20
99.4375370049
 10
193.7943446101
 20
99.1141794787
 10
193.5056504445
 20
98.729055708
 10
193.30647873
 20
98.2979339154
 10
193.2049841271
 20
97.8384635949
 10
193.2053212659
 20
97.3694551342
 10
193.3074771078
 20
96.9101105423
 10
193.5072690831
 20
96.4792360158
 10
193.7965173857
 20
96.0944694073
 10
194.1633793176
 20
95.7715659009
 10
194.5928373025
 20
95.5237428264
 10
195.0673089014
 20
95.3611469434
  0
LWPOLYLINE
  5
173
330
1F
100
AcDbEntity
  8
0
  6
HIDDEN
 62
     7
370
     0
100
AcDbPolyline
 90
       31
 70
   128
 43
0.0
 10
195.1023098664
 20
95.4343861506
 10
195.5902930931
 20
95.3669453577
 10
196.0827354924
 20
95.3950480164
 10
196.5581151308
 20
95.5174657122
 10
196.9956560643
 20
95.728847997
 10
197.3762335838
 20
96.0199570821
 10
197.6832179935
 20
96.3780701698
 10
197.9031907977
 20
96.787535453
 10
198.0265370221
 20
97.2304575683
 10
198.0478680344
 20
97.6874785104
 10
197.9662506492
 20
98.1386246697
 10
197.7852499695
 20
98.5641780847
 10
197.5127803744
 20
98.9455407092
 10
197.1607478918
 20
99.2660451287
 10
196.7445379705
 20
99.5116833204
 10
196.2823412032
 20
99.6717199289
 10
195.7943579764
 20
99.7391607219
 10
195.3019155772
 20
99.7110580632
 10
194.8265359388
 20
99.5886403673
 10
194.3889959366
 20
99.3772576169
 10
194.0084165545
 20
99.0861480662
 10
193.7014330761
 20
98.7280354441
 10
193.4814602719
 20
98.318570161
 10
193.3581140475
 20
97.8756480456
 10
193.3367830352
 20
97.4186271035
 10
193.4184013517
 20
96.9674809442
 10
193.5994001688
 20
96.5419270636
 10
193.8718706952
 20
96.1605644391
 10
194.2239031778
 20
95.8400609509
 10
194.640113099
 20
95.5944227592
 10
195.1023098664
 20
95.4343861506
  0
ARC
  5
174
330
1F
100
AcDbEntity
  8
0
  6
HIDDEN
 62
     7
370
     0
100
AcDbCircle
 10
221.0357331686
 20
121.0608248193
 30
0.0
 40
3.050020039447829
100
AcDbArc
 50
135.1355027137
 51
314.724778195
  0
CIRCLE
  5
175
330
1F
100
AcDbEntity
  8
0
  6
HIDDEN
 62
     7
370
     0
100
AcDbCircle
 10
220.9724117053
 20
120.9865173021
 30
0.0
 40
2.192296414342288
  0
CIRCLE
  5
176
330
1F
100
AcDbEntity
  8
0
  6
HIDDEN
 62
     7
370
     0
100
AcDbCircle
 10
220.7693248927
 20
120.7839310167
 30
0.0
 40
2.192297959629581
  0
SPLINE
  5
177
330
1F
100
AcDbEntity
  8
0
  6
HIDDEN
 62
     7
370
     0
100
AcDbSpline
210
0.0
220
0.0
230
1.0
 70
     8
 71
     3
 72
    15
 73
    11
 74
     0
 42
0.00000001
 43
0.00000001
 12
1.0
 22
0.0
 32
0.0
 13
1.0
 23
0.0
 33
0.0
 40
0.0
 40
0.0
 40
0.0
 40
0.0
 40
0.1437538795485417
 40
0.2878168618268935
 40
0.423490720582034
 40
0.5497149440529454
 40
0.6718830395193364
 40
0.7962131703491221
 40
0.9276126048268419
 40
1.0
 40
1.0
 40
1.0
 40
1.0
 10
230.2539991797233
 20
130.43395230334
 30
0.0
 10
230.2653755267942
 20
130.4385750606165
 30
0.0
 10
230.288152682606
 20
130.447830515123
 30
0.0
 10
230.3251506199975
 20
130.4462936156687
 30
0.0
 10
230.3576958996961
 20
130.4330654272055
 30
0.0
 10
230.3821298832922
 20
130.4103667480329
 30
0.0
 10
230.3970514791789
 20
130.3817588544573
 30
0.0
 10
230.40199479684
 20
130.3495922977361
 30
0.0
 10
230.3977443334684
 20
130.3215152198245
 30
0.0
 10
230.3905607411616
 20
130.3058029933917
 30
0.0
 10
230.3880090476299
 20
130.3002218322059
 30
0.0
  0
LINE
  5
178
330
1F
100
AcDbEntity
  8
0
  6
HIDDEN
 62
     7
370
     0
100
AcDbLine
 10
223.8808433176
 20
117.724558206
 30
0.0
 11
230.3880090476
 21
130.3002218322
 31
0.0
  0
LINE
  5
179
330
1F
100
AcDbEntity
  8
0
  6
HIDDEN
 62
     7
370
     0
100
AcDbLine
 10
230.2539991797
 20
130.4339523033
 30
0.0
 11
217.6923314692
 21
123.9002029018
 31
0.0
  0
SPLINE
  5
17A
330
1F
100
AcDbEntity
  8
0
  6
HIDDEN
 62
     7
370
     0
100
AcDbSpline
210
0.0
220
0.0
230
1.0
 70
     8
 71
     3
 72
    10
 73
     6
 74
     0
 42
0.00000001
 43
0.00000001
 12
1.0
 22
0.0
 32
0.0
 13
1.0
 23
0.0
 33
0.0
 40
0.0
 40
0.0
 40
0.0
 40
0.0
 40
0.4164689401515413
 40
0.7035903075428734
 40
1.0
 40
1.0
 40
1.0
 40
1.0
 10
217.6503697992587
 20
123.8581555501719
 30
0.0
 10
217.654774212637
 20
123.8653085312628
 30
0.0
 10
217.6622151098196
 20
123.8773929094249
 30
0.0
 10
217.67709904783
 20
123.8911931379562
 30
0.0
 10
217.6872003994852
 20
123.8971679459349
 30
0.0
 10
217.6923314691806
 20
123.9002029017707
 30
0.0
  0
SPLINE
  5
17B
330
1F
100
AcDbEntity
  8
0
  6
HIDDEN
 62
     7
370
     0
100
AcDbSpline
210
0.0
220
0.0
230
1.0
 70
     8
 71
     3
 72
    10
 73
     6
 74
     0
 42
0.00000001
 43
0.00000001
 12
1.0
 22
0.0
 32
0.0
 13
1.0
 23
0.0
 33
0.0
 40
0.0
 40
0.0
 40
0.0
 40
0.0
 40
0.4164775649174275
 40
0.7035851270280308
 40
1.0
 40
1.0
 40
1.0
 40
1.0
 10
223.8808433176303
 20
117.7245582060118
 30
0.0
 10
223.8764390768848
 20
117.7174047507531
 30
0.0
 10
223.8689986802214
 20
117.7053199107741
 30
0.0
 10
223.8541134851185
 20
117.6915207271607
 30
0.0
 10
223.8440126304611
 20
117.6855452942691
 30
0.0
 10
223.8388816477084
 20
117.6825099230905
 30
0.0
  0
LINE
  5
17C
330
1F
100
AcDbEntity
  8
0
  6
HIDDEN
 62
     7
370
     0
100
AcDbLine
 10
217.6503697993
 20
123.8581555502
 30
0.0
 11
211.1432040693
 21
111.282491924
 31
0.0
  0
LINE
  5
17D
330
1F
100
AcDbEntity
  8
0
  6
HIDDEN
 62
     7
370
     0
100
AcDbLine
 10
211.2772139372
 20
111.1487609872
 30
0.0
 11
223.8388816477
 21
117.6825099231
 31
0.0
  0
SPLINE
  5
17E
330
1F
100
AcDbEntity
  8
0
  6
HIDDEN
 62
     7
370
     0
100
AcDbSpline
210
0.0
220
0.0
230
1.0
 70
     8
 71
     3
 72
    15
 73
    11
 74
     0
 42
0.00000001
 43
0.00000001
 12
1.0
 22
0.0
 32
0.0
 13
1.0
 23
0.0
 33
0.0
 40
0.0
 40
0.0
 40
0.0
 40
0.0
 40
0.143754020721351
 40
0.2878233992935142
 40
0.423488184638381
 40
0.5497139917429457
 40
0.6718861967859396
 40
0.7962101193821739
 40
0.9276097227892892
 40
1.0
 40
1.0
 40
1.0
 40
1.0
 10
211.2772139371657
 20
111.1487609871824
 30
0.0
 10
211.2658376041312
 20
111.1441377018998
 30
0.0
 10
211.2430599814318
 20
111.1348809890837
 30
0.0
 10
211.2060620191908
 20
111.1364205015134
 30
0.0
 10
211.1735161473849
 20
111.1496474447667
 30
0.0
 10
211.1490836679525
 20
111.1723476448062
 30
0.0
 10
211.1341597878314
 20
111.2009542168505
 30
0.0
 10
211.1292158017617
 20
111.2331212617017
 30
0.0
 10
211.1334693092216
 20
111.261197672525
 30
0.0
 10
211.1406524667717
 20
111.2769104340628
 30
0.0
 10
211.1432040692592
 20
111.2824919239779
 30
0.0
  0
ARC
  5
17F
330
1F
100
AcDbEntity
  8
0
  6
HIDDEN
 62
     7
370
     0
100
AcDbCircle
 10
219.5835295066
 20
121.0211068612
 30
0.0
 40
0.3344816388465771
100
AcDbArc
 50
123.5114717138
 51
253.7495512825
  0
ARC
  5
180
330
1F
100
AcDbEntity
  8
0
  6
HIDDEN
 62
     7
370
     0
100
AcDbCircle
 10
221.5296119649
 20
119.7482060344
 30
0.0
 40
0.3338934261711641
100
AcDbArc
 50
219.9457993505
 51
328.5118897562
  0
ARC
  5
181
330
1F
100
AcDbEntity
  8
0
  6
HIDDEN
 62
     7
370
     0
100
AcDbCircle
 10
220.9319242752
 20
120.9837381233
 30
0.0
 40
2.605997336503733
100
AcDbArc
 50
86.6406853528
 51
134.907944614
  0
ARC
  5
182
330
1F
100
AcDbEntity
  8
0
  6
HIDDEN
 62
     7
370
     0
100
AcDbCircle
 10
220.9373150117
 20
120.9634998582
 30
0.0
 40
2.625893154804643
100
AcDbArc
 50
315.1807544964
 51
86.7839828324
  0
ARC
  5
183
330
1F
100
AcDbEntity
  8
0
  6
HIDDEN
 62
     7
370
     0
100
AcDbCircle
 10
219.4219904564
 20
121.9226160434
 30
0.0
 40
0.5824755658429706
100
AcDbArc
 50
314.9606487321
 51
13.8452964774
  0
ARC
  5
184
330
1F
100
AcDbEntity
  8
0
  6
HIDDEN
 62
     7
370
     0
100
AcDbCircle
 10
222.4177323928
 20
119.9663780467
 30
0.0
 40
0.5814446048147424
100
AcDbArc
 50
99.9758030854
 51
134.9183858105
  0
ARC
  5
185
330
1F
100
AcDbEntity
  8
0
  6
HIDDEN
 62
     7
370
     0
100
AcDbCircle
 10
220.3105765126
 20
122.1416495957
 30
0.0
 40
0.3327079556584085
100
AcDbArc
 50
122.3489420963
 51
193.8504572472
  0
ARC
  5
186
330
1F
100
AcDbEntity
  8
0
  6
HIDDEN
 62
     7
370
     0
100
AcDbCircle
 10
222.259547399
 20
120.8660556778
 30
0.0
 40
0.3320335494701029
100
AcDbArc
 50
279.9654845859
 51
325.479905837
  0
ARC
  5
187
330
1F
100
AcDbEntity
  8
0
  6
HIDDEN
 62
     7
370
     0
100
AcDbCircle
 10
220.8253991898
 20
119.1576368468
 30
0.0
 40
0.5851755657665283
100
AcDbArc
 50
40.0057625621
 51
133.4770939096
  0
ARC
  5
188
330
1F
100
AcDbEntity
  8
0
  6
HIDDEN
 62
     7
370
     0
100
AcDbCircle
 10
219.3236990478
 20
120.1365184335
 30
0.0
 40
0.5874785716284544
100
AcDbArc
 50
340.3616582365
 51
73.563323988
  0
ARC
  5
189
330
1F
100
AcDbEntity
  8
0
  6
HIDDEN
 62
     7
370
     0
100
AcDbCircle
 10
220.1925710788
 20
119.8259665836
 30
0.0
 40
0.3352247687786185
100
AcDbArc
 50
160.280346863
 51
313.367266371
  0
CIRCLE
  5
18A
330
1F
100
AcDbEntity
  8
0
  6
HIDDEN
 62
     7
370
     0
100
AcDbCircle
 10
220.7413116165
 20
120.7752430899
 30
0.0
 40
1.996046353760332
  0
CIRCLE
  5
18B
330
1F
100
AcDbEntity
  8
0
  6
HIDDEN
 62
     7
370
     0
100
AcDbCircle
 10
220.3855538384
 20
120.4203514172
 30
0.0
 40
1.996046383779361
  0
CIRCLE
  5
18C
330
1F
100
AcDbEntity
  8
0
  6
HIDDEN
 62
     7
370
     0
100
AcDbCircle
 10
220.3790041636
 20
120.4130245373
 30
0.0
 40
1.896658552064515
  0
LINE
  5
18D
330
1F
100
AcDbEntity
  8
0
  6
HIDDEN
 62
     7
370
     0
100
AcDbLine
 10
181.6923255683
 20
88.940923901
 30
0.0
 11
181.7852187887
 21
89.0338158772
 31
0.0
  0
LINE
  5
18E
330
1F
100
AcDbEntity
  8
0
  6
HIDDEN
 62
     7
370
     0
100
AcDbLine
 10
181.7852187887
 20
120.4480303989
 30
0.0
 11
181.6923255683
 21
120.5409223751
 31
0.0
  0
ARC
  5
18F
330
1F
100
AcDbEntity
  8
0
  6
HIDDEN
 62
     7
370
     0
100
AcDbCircle
 10
181.0781120059
 20
89.7409231381
 30
0.0
 40
1.0
100
AcDbArc
 50
315.0
 51
0.0
  0
ARC
  5
190
330
1F
100
AcDbEntity
  8
0
  6
HIDDEN
 62
     7
370
     0
100
AcDbCircle
 10
181.0781120059
 20
89.7409231381
 30
0.0
 40
1.000000000000004
100
AcDbArc
 50
0.0
 51
52.1052014664
  0
ARC
  5
191
330
1F
100
AcDbEntity
  8
0
  6
HIDDEN
 62
     7
370
     0
100
AcDbCircle
 10
181.0781120059
 20
119.7409231381
 30
0.0
 40
1.000000000000018
100
AcDbArc
 50
351.8087250651
 51
45.0
  0
ARC
  5
192
330
1F
100
AcDbEntity
  8
0
  6
HIDDEN
 62
     7
370
     0
100
AcDbCircle
 10
181.0781120059
 20
119.7409231381
 30
0.0
 40
0.9999999999999815
100
AcDbArc
 50
307.8947985336
 51
351.8087250651
  0
LINE
  5
193
330
1F
100
AcDbEntity
  8
0
  6
HIDDEN
 62
     7
370
     0
100
AcDbLine
 10
182.0781120041
 20
89.7409234733
 30
0.0
 11
182.0781120041
 21
119.7409228028
 31
0.0
  0
LINE
  5
194
330
1F
100
AcDbEntity
  8
0
  6
HIDDEN
 62
     7
370
     0
100
AcDbLine
 10
193.5923258425
 20
110.3600220361
 30
0.0
 11
193.5923258425
 21
107.079365391
 31
0.0
  0
LINE
  5
195
330
1F
100
AcDbEntity
  8
0
  6
HIDDEN
 62
     7
370
     0
100
AcDbLine
 10
197.7923261584
 20
107.0797360574
 30
0.0
 11
197.7923261584
 21
109.1451708765
 31
0.0
  0
LINE
  5
196
330
1F
100
AcDbEntity
  8
0
  6
HIDDEN
 62
     7
370
     0
100
AcDbLine
 10
201.657409838
 20
116.0493836344
 30
0.0
 11
195.084570034
 21
111.9128175617
 31
0.0
  0
LINE
  5
197
330
1F
100
AcDbEntity
  8
0
  6
HIDDEN
 62
     7
370
     0
100
AcDbLine
 10
197.3840157152
 20
108.3974252527
 30
0.0
 11
201.5597569407
 21
111.0253956706
 31
0.0
  0
LINE
  5
198
330
1F
100
AcDbEntity
  8
0
  6
HIDDEN
 62
     7
370
     0
100
AcDbLine
 10
157.6923253597
 20
94.585272351
 30
0.0
 11
158.7193580927
 21
95.1782296018
 31
0.0
  0
LINE
  5
199
330
1F
100
AcDbEntity
  8
0
  6
HIDDEN
 62
     7
370
     0
100
AcDbLine
 10
158.7193580927
 20
114.3036166744
 30
0.0
 11
157.6923253597
 21
114.8965739251
 31
0.0
  0
LINE
  5
19A
330
1F
100
AcDbEntity
  8
0
  6
HIDDEN
 62
     7
370
     0
100
AcDbLine
 10
163.1923253299
 20
94.7409233616
 30
0.0
 11
164.2051442177
 21
94.7409233616
 31
0.0
  0
LINE
  5
19B
330
1F
100
AcDbEntity
  8
0
  6
HIDDEN
 62
     7
370
     0
100
AcDbLine
 10
164.2051442177
 20
114.7409229146
 30
0.0
 11
163.1923253299
 21
114.7409229146
 31
0.0
  0
ARC
  5
19C
330
1F
100
AcDbEntity
  8
0
  6
HIDDEN
 62
     7
370
     0
100
AcDbCircle
 10
163.1923255683
 20
95.7409231381
 30
0.0
 40
1.0
100
AcDbArc
 50
193.3524261238
 51
270.0
  0
ARC
  5
19D
330
1F
100
AcDbEntity
  8
0
  6
HIDDEN
 62
     7
370
     0
100
AcDbCircle
 10
163.1923255683
 20
113.7409231381
 30
0.0
 40
1.0
100
AcDbArc
 50
90.0
 51
166.6475738762
  0
ARC
  5
19E
330
1F
100
AcDbEntity
  8
0
  6
HIDDEN
 62
     7
370
     0
100
AcDbCircle
 10
164.205144038
 20
95.7409231381
 30
0.0
 40
0.999999999999998
100
AcDbArc
 50
270.0
 51
315.0
  0
ARC
  5
19F
330
1F
100
AcDbEntity
  8
0
  6
HIDDEN
 62
     7
370
     0
100
AcDbCircle
 10
164.205144038
 20
113.7409231381
 30
0.0
 40
1.0
100
AcDbArc
 50
45.0
 51
90.0
  0
LINE
  5
1A0
330
1F
100
AcDbEntity
  8
0
  6
HIDDEN
 62
     7
370
     0
100
AcDbLine
 10
164.9122508825
 20
95.0338159294
 30
0.0
 11
165.6193575473
 21
95.7409235255
 31
0.0
  0
LINE
  5
1A1
330
1F
100
AcDbEntity
  8
0
  6
HIDDEN
 62
     7
370
     0
100
AcDbLine
 10
165.6193575473
 20
113.7409227506
 30
0.0
 11
164.9122508825
 21
114.4480303467
 31
0.0
  0
LINE
  5
1A2
330
1F
100
AcDbEntity
  8
0
  6
HIDDEN
 62
     7
370
     0
100
AcDbLine
 10
158.7193580927
 20
95.1782296018
 30
0.0
 11
160.8193582506
 21
95.7409235255
 31
0.0
  0
LINE
  5
1A3
330
1F
100
AcDbEntity
  8
0
  6
HIDDEN
 62
     7
370
     0
100
AcDbLine
 10
160.8193582506
 20
113.7409227506
 30
0.0
 11
158.7193580927
 21
114.3036166744
 31
0.0
  0
LINE
  5
1A4
330
1F
100
AcDbEntity
  8
0
  6
HIDDEN
 62
     7
370
     0
100
AcDbLine
 10
162.219357735
 20
113.9718628095
 30
0.0
 11
161.8193584145
 21
113.7409227506
 31
0.0
  0
LINE
  5
1A5
330
1F
100
AcDbEntity
  8
0
  6
HIDDEN
 62
     7
370
     0
100
AcDbLine
 10
161.8193584145
 20
95.7409235255
 30
0.0
 11
162.219357735
 21
95.5099834667
 31
0.0
  0
ARC
  5
1A6
330
1F
100
AcDbEntity
  8
0
  6
HIDDEN
 62
     7
370
     0
100
AcDbCircle
 10
172.1923255683
 20
96.2409231381
 30
0.0
 40
0.5
100
AcDbArc
 50
270.0
 51
0.0
  0
ARC
  5
1A7
330
1F
100
AcDbEntity
  8
0
  6
HIDDEN
 62
     7
370
     0
100
AcDbCircle
 10
172.1923255683
 20
113.2409231381
 30
0.0
 40
0.5
100
AcDbArc
 50
0.0
 51
90.0
  0
LINE
  5
1A8
330
1F
100
AcDbEntity
  8
0
  6
HIDDEN
 62
     7
370
     0
100
AcDbLine
 10
160.8193582506
 20
95.7409235255
 30
0.0
 11
161.8193584145
 21
95.7409235255
 31
0.0
  0
LINE
  5
1A9
330
1F
100
AcDbEntity
  8
0
  6
HIDDEN
 62
     7
370
     0
100
AcDbLine
 10
161.8193584145
 20
113.7409227506
 30
0.0
 11
160.8193582506
 21
113.7409227506
 31
0.0
  0
LINE
  5
1AA
330
1F
100
AcDbEntity
  8
0
  6
HIDDEN
 62
     7
370
     0
100
AcDbLine
 10
165.6193575473
 20
95.7409235255
 30
0.0
 11
172.1923258738
 21
95.7409235255
 31
0.0
  0
LINE
  5
1AB
330
1F
100
AcDbEntity
  8
0
  6
HIDDEN
 62
     7
370
     0
100
AcDbLine
 10
172.1923258738
 20
113.7409227506
 30
0.0
 11
165.6193575473
 21
113.7409227506
 31
0.0
  0
LINE
  5
1AC
330
1F
100
AcDbEntity
  8
0
  6
HIDDEN
 62
     7
370
     0
100
AcDbLine
 10
172.6923259558
 20
97.5909231768
 30
0.0
 11
173.5923253582
 21
98.4909230449
 31
0.0
  0
LINE
  5
1AD
330
1F
100
AcDbEntity
  8
0
  6
HIDDEN
 62
     7
370
     0
100
AcDbLine
 10
173.5923253582
 20
110.9909232312
 30
0.0
 11
172.6923259558
 21
111.8909230993
 31
0.0
  0
LINE
  5
1AE
330
1F
100
AcDbEntity
  8
0
  6
HIDDEN
 62
     7
370
     0
100
AcDbLine
 10
198.6769466312
 20
98.4909230449
 30
0.0
 11
202.4323260994
 21
104.7409231381
 31
0.0
  0
LINE
  5
1AF
330
1F
100
AcDbEntity
  8
0
  6
HIDDEN
 62
     7
370
     0
100
AcDbLine
 10
202.4323260994
 20
104.7409231381
 30
0.0
 11
198.6769466312
 21
110.9909232312
 31
0.0
  0
LINE
  5
1B0
330
1F
100
AcDbEntity
  8
0
  6
HIDDEN
 62
     7
370
     0
100
AcDbLine
 10
173.5923253582
 20
98.4909230449
 30
0.0
 11
198.6769466312
 21
98.4909230449
 31
0.0
  0
LINE
  5
1B1
330
1F
100
AcDbEntity
  8
0
  6
HIDDEN
 62
     7
370
     0
100
AcDbLine
 10
198.6769466312
 20
110.9909232312
 30
0.0
 11
173.5923253582
 21
110.9909232312
 31
0.0
  0
LINE
  5
1B2
330
1F
100
AcDbEntity
  8
0
  6
HIDDEN
 62
     7
370
     0
100
AcDbLine
 10
212.5717895688
 20
107.2772621249
 30
0.0
 11
212.7461797209
 21
107.4512285252
 31
0.0
  0
LINE
  5
1B3
330
1F
100
AcDbEntity
  8
0
  6
HIDDEN
 62
     7
370
     0
100
AcDbLine
 10
219.4661545218
 20
121.8253093378
 30
0.0
 11
218.8557880582
 21
121.2164274023
 31
0.0
  0
LINE
  5
1B4
330
1F
100
AcDbEntity
  8
0
  6
HIDDEN
 62
     7
370
     0
100
AcDbLine
 10
221.1863929988
 20
118.8801311494
 30
0.0
 11
221.7967594625
 21
119.4890140162
 31
0.0
  0
LINE
  5
1B5
330
1F
100
AcDbEntity
  8
0
  6
HIDDEN
 62
     7
370
     0
100
AcDbLine
 10
193.5923258425
 20
102.4021102187
 30
0.0
 11
193.5923258425
 21
99.5864652635
 31
0.0
  0
LINE
  5
1B6
330
1F
100
AcDbEntity
  8
0
  6
HIDDEN
 62
     7
370
     0
100
AcDbLine
 10
197.7923261584
 20
99.5864652635
 30
0.0
 11
197.7923261584
 21
102.4024808851
 31
0.0
  0
LINE
  5
1B7
330
1F
100
AcDbEntity
  8
0
  6
HIDDEN
 62
     7
370
     0
100
AcDbLine
 10
193.1923255907
 20
99.4964310506
 30
0.0
 11
193.1923255907
 21
97.250246776
 31
0.0
  0
LINE
  5
1B8
330
1F
100
AcDbEntity
  8
0
  6
HIDDEN
 62
     7
370
     0
100
AcDbLine
 10
198.1923254789
 20
97.2488195242
 30
0.0
 11
198.1923254789
 21
99.4964310506
 31
0.0
  0
LINE
  5
1B9
330
1F
100
AcDbEntity
  8
0
  6
HIDDEN
 62
     7
370
     0
100
AcDbLine
 10
193.1923255907
 20
99.501007104
 30
0.0
 11
193.1923255907
 21
98.8454454185
 31
0.0
  0
LINE
  5
1BA
330
1F
100
AcDbEntity
  8
0
  6
HIDDEN
 62
     7
370
     0
100
AcDbLine
 10
198.1923254789
 20
98.8454454185
 30
0.0
 11
198.1923254789
 21
99.501007104
 31
0.0
  0
LINE
  5
1BB
330
1F
100
AcDbEntity
  8
0
  6
HIDDEN
 62
     7
370
     0
100
AcDbLine
 10
193.6923256726
 20
99.1059093342
 30
0.0
 11
193.6923256726
 21
97.553052807
 31
0.0
  0
LINE
  5
1BC
330
1F
100
AcDbEntity
  8
0
  6
HIDDEN
 62
     7
370
     0
100
AcDbLine
 10
197.6923263283
 20
97.553052807
 30
0.0
 11
197.6923263283
 21
99.1059093342
 31
0.0
  0
LINE
  5
1BD
330
1F
100
AcDbEntity
  8
0
  6
HIDDEN
 62
     7
370
     0
100
AcDbLine
 10
196.2988507585
 20
100.8356750083
 30
0.0
 11
196.2503288524
 21
100.8469258507
 31
0.0
  0
LINE
  5
1BE
330
1F
100
AcDbEntity
  8
0
  6
HIDDEN
 62
     7
370
     0
100
AcDbLine
 10
195.1343222172
 20
100.8469258507
 30
0.0
 11
195.0858003111
 21
100.8356750083
 31
0.0
  0
LINE
  5
1BF
330
1F
100
AcDbEntity
  8
0
  6
HIDDEN
 62
     7
370
     0
100
AcDbLine
 10
196.2988507585
 20
100.5771964395
 30
0.0
 11
196.2503288524
 21
100.5884472818
 31
0.0
  0
LINE
  5
1C0
330
1F
100
AcDbEntity
  8
0
  6
HIDDEN
 62
     7
370
     0
100
AcDbLine
 10
195.1343222172
 20
100.5884472818
 30
0.0
 11
195.0858003111
 21
100.5771964395
 31
0.0
  0
LINE
  5
1C1
330
1F
100
AcDbEntity
  8
0
  6
HIDDEN
 62
     7
370
     0
100
AcDbLine
 10
196.2988507585
 20
100.3187181034
 30
0.0
 11
196.2503288524
 21
100.3299689458
 31
0.0
  0
LINE
  5
1C2
330
1F
100
AcDbEntity
  8
0
  6
HIDDEN
 62
     7
370
     0
100
AcDbLine
 10
195.1343222172
 20
100.3299689458
 30
0.0
 11
195.0858003111
 21
100.3187181034
 31
0.0
  0
LINE
  5
1C3
330
1F
100
AcDbEntity
  8
0
  6
HIDDEN
 62
     7
370
     0
100
AcDbLine
 10
196.2988507585
 20
100.0602393017
 30
0.0
 11
196.2503288524
 21
100.0714901441
 31
0.0
  0
LINE
  5
1C4
330
1F
100
AcDbEntity
  8
0
  6
HIDDEN
 62
     7
370
     0
100
AcDbLine
 10
195.1343222172
 20
100.0714901441
 30
0.0
 11
195.0858003111
 21
100.0602393017
 31
0.0
  0
LINE
  5
1C5
330
1F
100
AcDbEntity
  8
0
  6
HIDDEN
 62
     7
370
     0
100
AcDbLine
 10
193.1923255907
 20
97.8115316087
 30
0.0
 11
193.1923255907
 21
97.6054979094
 31
0.0
  0
LINE
  5
1C6
330
1F
100
AcDbEntity
  8
0
  6
HIDDEN
 62
     7
370
     0
100
AcDbLine
 10
198.1923254789
 20
97.6054979094
 30
0.0
 11
198.1923254789
 21
97.8115316087
 31
0.0
  0
CIRCLE
  5
1C7
330
1F
100
AcDbEntity
  8
0
  6
HIDDEN
 62
     7
370
     0
100
AcDbCircle
 10
195.6923255683
 20
98.4521086887
 30
0.0
 40
2.000000000000008
  0
LINE
  5
1C8
330
1F
100
AcDbEntity
  8
0
  6
HIDDEN
 62
     7
370
     0
100
AcDbLine
 10
218.9436043264
 20
123.2818922565
 30
0.0
 11
218.8739488484
 21
123.2124081419
 31
0.0
  0
LINE
  5
1C9
330
1F
100
AcDbEntity
  8
0
  6
HIDDEN
 62
     7
370
     0
100
AcDbLine
 10
223.1820384623
 20
118.8938001708
 30
0.0
 11
223.251690215
 21
118.9632842855
 31
0.0
  0
LINE
  5
1CA
330
1F
100
AcDbEntity
  8
0
  6
HIDDEN
 62
     7
370
     0
100
AcDbLine
 10
219.4149615825
 20
122.5514857636
 30
0.0
 11
219.2118699313
 21
122.3488877134
 31
0.0
  0
LINE
  5
1CB
330
1F
100
AcDbEntity
  8
0
  6
HIDDEN
 62
     7
370
     0
100
AcDbLine
 10
222.3193431855
 20
119.2338260428
 30
0.0
 11
222.522438562
 21
119.4364250244
 31
0.0
  0
LINE
  5
1CC
330
1F
100
AcDbEntity
  8
0
  6
HIDDEN
 62
     7
370
     0
100
AcDbLine
 10
219.4443615736
 20
121.3550007508
 30
0.0
 11
219.3467030884
 21
121.2575788216
 31
0.0
  0
LINE
  5
1CD
330
1F
100
AcDbEntity
  8
0
  6
HIDDEN
 62
     7
370
     0
100
AcDbLine
 10
221.7652323307
 20
119.511397423
 30
0.0
 11
221.8639897765
 21
119.6099145875
 31
0.0
  0
LINE
  5
1CE
330
1F
100
AcDbEntity
  8
0
  6
HIDDEN
 62
     7
370
     0
100
AcDbLine
 10
220.1742800535
 20
122.4756872819
 30
0.0
 11
220.0755226077
 21
122.3771701173
 31
0.0
  0
LINE
  5
1CF
330
1F
100
AcDbEntity
  8
0
  6
HIDDEN
 62
     7
370
     0
100
AcDbLine
 10
222.49405185
 20
120.6309887187
 30
0.0
 11
222.5908758701
 21
120.7275761829
 31
0.0
  0
SPLINE
  5
1D0
330
1F
100
AcDbEntity
  8
0
  6
HIDDEN
 62
     7
370
     0
100
AcDbSpline
210
0.0
220
0.0
230
1.0
 70
     8
 71
     3
 72
    10
 73
     6
 74
     0
 42
0.00000001
 43
0.00000001
 12
1.0
 22
0.0
 32
0.0
 13
1.0
 23
0.0
 33
0.0
 40
0.0
 40
0.0
 40
0.0
 40
0.0
 40
0.1768174360665219
 40
0.6628104330519721
 40
1.0
 40
1.0
 40
1.0
 40
1.0
 10
220.895708596828
 20
122.6327492461701
 30
0.0
 10
220.9438158244462
 20
122.6286541533038
 30
0.0
 10
221.1241485624379
 20
122.6133034597494
 30
0.0
 10
221.3957430919788
 20
122.5498893469037
 30
0.0
 10
221.5943524046785
 20
122.4395089593166
 30
0.0
 10
221.6757061542296
 20
122.3942952768107
 30
0.0
  0
ARC
  5
1D1
330
1F
100
AcDbEntity
  8
0
  6
HIDDEN
 62
     7
370
     0
100
AcDbCircle
 10
220.7783794183
 20
120.8377994119
 30
0.0
 40
1.798780432326476
100
AcDbArc
 50
86.2601089941
 51
49.6380956877
  0
LINE
  5
1D2
330
1F
100
AcDbEntity
  8
0
  6
HIDDEN
 62
     7
370
     0
100
AcDbLine
 10
219.33825413
 20
122.1920921073
 30
0.0
 11
218.9824963571
 21
121.8372004644
 31
0.0
  0
LINE
  5
1D3
330
1F
100
AcDbEntity
  8
0
  6
HIDDEN
 62
     7
370
     0
100
AcDbLine
 10
221.8074696721
 20
119.0053260491
 30
0.0
 11
222.1632311703
 21
119.3602176921
 31
0.0
  0
LINE
  5
1D4
330
1F
100
AcDbEntity
  8
VERMASSUNG
  6
CENTERX2
100
AcDbLine
 10
231.6923255683
 20
131.7409231381
 30
0.0
 11
231.6923255683
 21
104.7409231381
 31
0.0
  0
LINE
  5
1D5
330
1F
100
AcDbEntity
  8
VERMASSUNG
  6
CENTERX2
100
AcDbLine
 10
231.6923255683
 20
131.7409231381
 30
0.0
 11
226.9857663475
 21
131.7409231381
 31
0.0
  0
LINE
  5
1D6
330
1F
100
AcDbEntity
  8
VERMASSUNG
  6
CENTERX2
100
AcDbLine
 10
231.6923255683
 20
104.7409231381
 30
0.0
 11
154.7697196191
 21
104.7409231381
 31
0.0
  0
LINE
  5
1D7
330
1F
100
AcDbEntity
  8
VERMASSUNG
100
AcDbLine
 10
231.6923255683
 20
131.7409231381
 30
0.0
 11
231.6923255683
 21
137.4307718193
 31
0.0
  0
DIMENSION
  5
1D8
330
1F
100
AcDbEntity
  8
VERMASSUNG
100
AcDbDimension
  2
_D
 10
241.1367002371
 20
104.7409231381
 30
0.0
 11
241.1367002371
 21
118.2409231381
 31
0.0
 70
   160
  1
<>
 71
     2
 42
-1.0
  3
SLDDIMSTYLE0
100
AcDbAlignedDimension
 13
231.6923255683
 23
131.7409231381
 33
0.0
 14
231.6923255683
 24
104.7409231381
 34
0.0
 50
90.0
100
AcDbRotatedDimension
  0
DIMENSION
  5
1E3
330
1F
100
AcDbEntity
  8
VERMASSUNG
100
AcDbDimension
  2
_D_1
 10
231.6923255683
 20
141.8909433227
 30
0.0
 11
206.6923255683
 21
141.8909433227
 31
0.0
 70
   160
  1
<>
 71
     2
 42
-1.0
  3
SLDDIMSTYLE0
100
AcDbAlignedDimension
 13
181.6923255683
 23
124.4409231381
 33
0.0
 14
231.6923255683
 24
131.7409231381
 34
0.0
100
AcDbRotatedDimension
  0
DIMENSION
  5
1ED
330
1F
100
AcDbEntity
  8
VERMASSUNG
100
AcDbDimension
  2
_D_2
 10
231.6923255683
 20
149.6216792157
 30
0.0
 11
194.6923255683
 21
149.6216792157
 31
0.0
 70
   160
  1
<>
 71
     2
 42
-1.0
  3
SLDDIMSTYLE0
100
AcDbAlignedDimension
 13
157.6923255683
 23
117.3724281201
 33
0.0
 14
231.6923255683
 24
131.7409231381
 34
0.0
 50
0.0
100
AcDbRotatedDimension
  0
DIMENSION
  5
1F7
330
1F
100
AcDbEntity
  8
VERMASSUNG
100
AcDbDimension
  2
_D_3
 10
217.673514515
 20
124.7074419176
 30
0.0
 11
225.7380285069
 21
135.613645423
 31
0.0
 70
   162
  1
<>
 71
     1
 42
-1.0
  3
SLDDIMSTYLE1
100
AcDb2LineAngularDimension
 13
231.6923255683
 23
137.4307718193
 33
0.0
 14
231.6923255683
 24
131.7409231381
 34
0.0
 15
231.1359140698
 25
131.7096921608
 35
0.0
 16
225.7380285069
 26
135.613645423
 36
0.0
  0
DIMENSION
  5
201
330
1F
100
AcDbEntity
  8
VERMASSUNG
100
AcDbDimension
  2
_D_4
 10
152.1592487719
 20
84.7409231381
 30
0.0
 11
152.1592487719
 21
104.7409231381
 31
0.0
 70
   160
  1
PSC %%c<>
 71
     2
 42
-1.0
  3
SLDDIMSTYLE0
100
AcDbAlignedDimension
 13
181.9923255683
 23
124.7409231381
 33
0.0
 14
181.9923255683
 24
84.7409231381
 34
0.0
 50
90.0
100
AcDbRotatedDimension
  0
SPLINE
  5
20D
330
1F
100
AcDbEntity
  8
0
  6
Continuous
 62
     7
370
    15
100
AcDbSpline
210
0.0
220
0.0
230
1.0
 70
     8
 71
     3
 72
    11
 73
     7
 74
     0
 42
0.00000001
 43
0.00000001
 12
1.0
 22
0.0
 32
0.0
 13
1.0
 23
0.0
 33
0.0
 40
0.0
 40
0.0
 40
0.0
 40
0.0
 40
0.2476423448333557
 40
0.4989320734063418
 40
0.7510921127143453
 40
1.0
 40
1.0
 40
1.0
 40
1.0
 10
95.51863713273407
 20
130.4306963996192
 30
0.0
 10
95.1431186811105
 20
130.5611496991501
 30
0.0
 10
94.38655097942375
 20
130.8239776709232
 30
0.0
 10
93.17564426175694
 20
131.1243182231136
 30
0.0
 10
91.96017281367274
 20
131.4156730746857
 30
0.0
 10
91.18131185115453
 20
131.6574878512995
 30
0.0
 10
90.79440894561914
 20
131.7776104972859
 30
0.0
  0
LINE
  5
20E
330
1F
100
AcDbEntity
  8
0
  6
Continuous
 62
     7
370
    15
100
AcDbLine
 10
90.4555286149
 20
127.5761480049
 30
0.0
 11
90.1588682652
 21
127.1322778032
 31
0.0
  0
LINE
  5
20F
330
1F
100
AcDbEntity
  8
0
  6
Continuous
 62
     7
370
    15
100
AcDbLine
 10
88.6163456933
 20
115.1140787245
 30
0.0
 11
88.8058405005
 21
114.7213334755
 31
0.0
  0
LINE
  5
210
330
1F
100
AcDbEntity
  8
0
  6
Continuous
 62
     7
370
    15
100
AcDbLine
 10
87.8648689584
 20
110.4760201254
 30
0.0
 11
88.5175703195
 21
110.571560783
 31
0.0
  0
ARC
  5
211
330
1F
100
AcDbEntity
  8
0
  6
Continuous
 62
     7
370
    15
100
AcDbCircle
 10
96.1162620108
 20
120.5698576191
 30
0.0
 40
7.000000000000004
100
AcDbArc
 50
190.365394812
 51
195.2172104216
  0
ARC
  5
212
330
1F
100
AcDbEntity
  8
0
  6
Continuous
 62
     7
370
    15
100
AcDbCircle
 10
96.1162620108
 20
120.5698576191
 30
0.0
 40
7.000000000000005
100
AcDbArc
 50
156.5119881956
 51
161.634605188
  0
LINE
  5
213
330
1F
100
AcDbEntity
  8
0
  6
Continuous
 62
     7
370
    15
100
AcDbLine
 10
89.3816540818
 20
119.8341602997
 30
0.0
 11
89.3746910485
 21
119.8346473814
 31
0.0
  0
LINE
  5
214
330
1F
100
AcDbEntity
  8
0
  6
Continuous
 62
     7
370
    15
100
AcDbLine
 10
89.6931207142
 20
117.5891252772
 30
0.0
 11
89.4923521307
 21
115.6986168192
 31
0.0
  0
LINE
  5
215
330
1F
100
AcDbEntity
  8
0
  6
Continuous
 62
     7
370
    15
100
AcDbLine
 10
89.6931207142
 20
117.5891252772
 30
0.0
 11
91.6375967543
 21
117.6020082624
 31
0.0
  0
LINE
  5
216
330
1F
100
AcDbEntity
  8
0
  6
Continuous
 62
     7
370
    15
100
AcDbLine
 10
91.6375967543
 20
117.6020082624
 30
0.0
 11
94.0675417994
 21
117.1452317924
 31
0.0
  0
LINE
  5
217
330
1F
100
AcDbEntity
  8
0
  6
Continuous
 62
     7
370
    15
100
AcDbLine
 10
94.1177957327
 20
117.6184405179
 30
0.0
 11
94.0675417994
 21
117.1452317924
 31
0.0
  0
LINE
  5
218
330
1F
100
AcDbEntity
  8
0
  6
Continuous
 62
     7
370
    15
100
AcDbLine
 10
101.9183417418
 20
127.3265628682
 30
0.0
 11
95.4259570324
 21
129.8637966232
 31
0.0
  0
ARC
  5
219
330
1F
100
AcDbEntity
  8
0
  6
Continuous
 62
     7
370
    15
100
AcDbCircle
 10
86.3812025198
 20
107.7409231381
 30
0.0
 40
25.00000000000001
100
AcDbArc
 50
18.5606159886
 51
51.5753012465
  0
LINE
  5
21A
330
1F
100
AcDbEntity
  8
0
  6
Continuous
 62
     7
370
    15
100
AcDbLine
 10
95.4493108773
 20
130.0837042348
 30
0.0
 11
101.3122295597
 21
127.792468162
 31
0.0
  0
ARC
  5
21B
330
1F
100
AcDbEntity
  8
0
  6
Continuous
 62
     7
370
    15
100
AcDbCircle
 10
86.3812025198
 20
107.7409231381
 30
0.0
 40
25.00000000000004
100
AcDbArc
 50
51.5753012465
 51
53.3274421349
  0
ARC
  5
21C
330
1F
100
AcDbEntity
  8
0
  6
Continuous
 62
     7
370
    15
100
AcDbCircle
 10
90.8812025198
 20
104.7409231381
 30
0.0
 40
20.50000000000002
100
AcDbArc
 50
256.2722618878
 51
256.7626654947
  0
SPLINE
  5
21D
330
1F
100
AcDbEntity
  8
0
  6
Continuous
 62
     7
370
    15
100
AcDbSpline
210
0.0
220
0.0
230
1.0
 70
     8
 71
     3
 72
    10
 73
     6
 74
     0
 42
0.00000001
 43
0.00000001
 12
1.0
 22
0.0
 32
0.0
 13
1.0
 23
0.0
 33
0.0
 40
0.0
 40
0.0
 40
0.0
 40
0.0
 40
0.5
 40
0.5
 40
1.0
 40
1.0
 40
1.0
 40
1.0
 10
86.01637896679546
 20
84.82651900944244
 30
0.0
 10
86.01949888063753
 20
84.92941570571308
 30
0.0
 10
86.02068313706462
 20
85.02339891021423
 30
0.0
 10
86.01895159993798
 20
85.17798501283482
 30
0.0
 10
86.01602977053795
 20
85.24044928932842
 30
0.0
 10
86.01116945523056
 20
85.28276639423366
 30
0.0
  0
SPLINE
  5
21E
330
1F
100
AcDbEntity
  8
0
  6
Continuous
 62
     7
370
    15
100
AcDbSpline
210
0.0
220
0.0
230
1.0
 70
     8
 71
     3
 72
    12
 73
     8
 74
     0
 42
0.00000001
 43
0.00000001
 12
1.0
 22
0.0
 32
0.0
 13
1.0
 23
0.0
 33
0.0
 40
0.0
 40
0.0
 40
0.0
 40
0.0
 40
0.4999999999999964
 40
0.4999999999999964
 40
0.7499999999999982
 40
0.7499999999999982
 40
1.0
 40
1.0
 40
1.0
 40
1.0
 10
88.76661629524799
 20
124.6874920414343
 30
0.0
 10
88.78131404712309
 20
124.7441120929769
 30
0.0
 10
88.79756553883199
 20
124.8383695075419
 30
0.0
 10
88.82156129957092
 20
125.0185202528838
 30
0.0
 10
88.82962485500224
 20
125.0860275425193
 30
0.0
 10
88.84502904247498
 20
125.2288933487701
 30
0.0
 10
88.8523862577467
 20
125.3041508884642
 30
0.0
 10
88.85939007035702
 20
125.3833275964482
 30
0.0
  0
LINE
  5
21F
330
1F
100
AcDbEntity
  8
0
  6
Continuous
 62
     7
370
    15
100
AcDbLine
 10
88.8593901516
 20
125.3833285139
 30
0.0
 11
88.9072890029
 21
125.9247659312
 31
0.0
  0
LINE
  5
220
330
1F
100
AcDbEntity
  8
0
  6
Continuous
 62
     7
370
    15
100
AcDbLine
 10
88.9072890029
 20
125.9247659312
 30
0.0
 11
89.6292911245
 21
125.7949228005
 31
0.0
  0
LINE
  5
221
330
1F
100
AcDbEntity
  8
0
  6
Continuous
 62
     7
370
    15
100
AcDbLine
 10
88.1985234198
 20
110.5248596125
 30
0.0
 11
88.1158059099
 21
109.7459610158
 31
0.0
  0
LWPOLYLINE
  5
222
330
1F
100
AcDbEntity
  8
0
  6
Continuous
 62
     7
370
    15
100
AcDbPolyline
 90
       15
 70
   128
 43
0.0
 10
88.1158059099
 20
109.7459610158
 10
88.0756999002
 20
109.3312323631
 10
88.040583684
 20
108.8911978134
 10
88.0122183924
 20
108.4479222612
 10
87.9920263876
 20
108.0236333494
 10
87.9810197846
 20
107.6396064439
 10
87.9797508576
 20
107.3150987343
 10
87.9882831694
 20
107.0663820558
 10
88.0061887772
 20
106.9059282147
 10
88.0325696533
 20
106.8417831396
 10
88.0661035524
 20
106.87716292
 10
88.1051082731
 20
107.0102940851
 10
88.1476282709
 20
107.2345004489
 10
88.1915315156
 20
107.5385393181
 10
88.2346163605
 20
107.9071654079
  0
LINE
  5
223
330
1F
100
AcDbEntity
  8
0
  6
Continuous
 62
     7
370
    15
100
AcDbLine
 10
88.2346163605
 20
107.9071654079
 30
0.0
 11
88.7988814254
 21
113.2204857261
 31
0.0
  0
ELLIPSE
  5
224
330
1F
100
AcDbEntity
  8
0
  6
Continuous
 62
     7
370
    15
100
AcDbEllipse
 10
89.8231610475
 20
110.5610761555
 30
0.0
 11
0.7626130685137158
 21
10.99987004243182
 31
0.0
210
0.0
220
0.0
230
1.0
 40
0.0701143
 41
1.089706604568726
 42
1.575657262433632
  0
LINE
  5
225
330
1F
100
AcDbEntity
  8
0
  6
Continuous
 62
     7
370
    15
100
AcDbLine
 10
89.0482149887
 20
110.5610759535
 30
0.0
 11
88.784674798
 21
106.7409232331
 31
0.0
  0
LINE
  5
226
330
1F
100
AcDbEntity
  8
0
  6
Continuous
 62
     7
370
    15
100
AcDbLine
 10
88.784674798
 20
106.7409232331
 30
0.0
 11
86.1870056585
 21
84.7856103049
 31
0.0
  0
LINE
  5
227
330
1F
100
AcDbEntity
  8
0
  6
Continuous
 62
     7
370
    15
100
AcDbLine
 10
88.7988814254
 20
113.2204857261
 30
0.0
 11
89.6931207142
 21
117.5891252772
 31
0.0
  0
SPLINE
  5
228
330
1F
100
AcDbEntity
  8
0
  6
Continuous
 62
     7
370
    15
100
AcDbSpline
210
0.0
220
0.0
230
1.0
 70
     8
 71
     3
 72
    12
 73
     8
 74
     0
 42
0.00000001
 43
0.00000001
 12
1.0
 22
0.0
 32
0.0
 13
1.0
 23
0.0
 33
0.0
 40
0.0
 40
0.0
 40
0.0
 40
0.0
 40
0.5
 40
0.5
 40
0.75
 40
0.75
 40
1.0
 40
1.0
 40
1.0
 40
1.0
 10
110.0808883335178
 20
115.6986170458477
 30
0.0
 10
110.3376924274051
 20
114.9338004530829
 30
0.0
 10
110.5689734020119
 20
114.123262956306
 30
0.0
 10
110.8619307835522
 20
112.8291029822631
 30
0.0
 10
110.9508915181711
 20
112.3820034102849
 30
0.0
 10
111.1042269271167
 20
111.4800818302138
 30
0.0
 10
111.169125695961
 20
111.0235258955176
 30
0.0
 10
111.2216279782574
 20
110.5610761554727
 30
0.0
  0
LINE
  5
229
330
1F
100
AcDbEntity
  8
0
  6
Continuous
 62
     7
370
    15
100
AcDbLine
 10
111.381203086
 20
106.7409232331
 30
0.0
 11
88.784674798
 21
106.7409232331
 31
0.0
  0
LINE
  5
22A
330
1F
100
AcDbEntity
  8
0
  6
Continuous
 62
     7
370
    15
100
AcDbLine
 10
111.381203086
 20
106.7409232331
 30
0.0
 11
111.381203086
 21
107.7409231641
 31
0.0
  0
ARC
  5
22B
330
1F
100
AcDbEntity
  8
0
  6
Continuous
 62
     7
370
    15
100
AcDbCircle
 10
86.3812025198
 20
107.7409231381
 30
0.0
 40
25.00000000000003
100
AcDbArc
 50
0.0
 51
6.4771015658
  0
LINE
  5
22C
330
1F
100
AcDbEntity
  8
0
  6
Continuous
 62
     7
370
    15
100
AcDbLine
 10
111.381203086
 20
104.7409231381
 30
0.0
 11
111.381203086
 21
106.7409232331
 31
0.0
  0
ARC
  5
22D
330
1F
100
AcDbEntity
  8
0
  6
Continuous
 62
     7
370
    15
100
AcDbCircle
 10
90.8812025198
 20
104.7409231381
 30
0.0
 40
20.50000000000003
100
AcDbArc
 50
256.7626654947
 51
0.0
  0
SPLINE
  5
22E
330
1F
100
AcDbEntity
  8
0
  6
Continuous
 62
     7
370
    15
100
AcDbSpline
210
0.0
220
0.0
230
1.0
 70
     8
 71
     3
 72
     8
 73
     4
 74
     0
 42
0.00000001
 43
0.00000001
 12
1.0
 22
0.0
 32
0.0
 13
1.0
 23
0.0
 33
0.0
 40
0.0
 40
0.0
 40
0.0
 40
0.0
 40
1.0
 40
1.0
 40
1.0
 40
1.0
 10
88.66057380563885
 20
124.6172610330153
 30
0.0
 10
88.72082732219539
 20
124.6239926900087
 30
0.0
 10
88.75566985405244
 20
124.6453231390024
 30
0.0
 10
88.76661629524928
 20
124.6874920414333
 30
0.0
  0
SPLINE
  5
22F
330
1F
100
AcDbEntity
  8
0
  6
Continuous
 62
     7
370
    15
100
AcDbSpline
210
0.0
220
0.0
230
1.0
 70
     8
 71
     3
 72
     8
 73
     4
 74
     0
 42
0.00000001
 43
0.00000001
 12
1.0
 22
0.0
 32
0.0
 13
1.0
 23
0.0
 33
0.0
 40
0.0
 40
0.0
 40
0.0
 40
0.0
 40
1.0
 40
1.0
 40
1.0
 40
1.0
 10
86.01116945523056
 20
85.28276639423366
 30
0.0
 10
86.00619908084231
 20
85.32604174595528
 30
0.0
 10
85.97468441564699
 20
85.3520150070293
 30
0.0
 10
85.9159332310676
 20
85.36707218141959
 30
0.0
  0
SPLINE
  5
230
330
1F
100
AcDbEntity
  8
0
  6
Continuous
 62
     7
370
    15
100
AcDbSpline
210
0.0
220
0.0
230
1.0
 70
     8
 71
     3
 72
     8
 73
     4
 74
     0
 42
0.00000001
 43
0.00000001
 12
1.0
 22
0.0
 32
0.0
 13
1.0
 23
0.0
 33
0.0
 40
0.0
 40
0.0
 40
0.0
 40
0.0
 40
1.0
 40
1.0
 40
1.0
 40
1.0
 10
88.66057380563885
 20
124.6172610330153
 30
0.0
 10
88.55363062523361
 20
124.6053131028461
 30
0.0
 10
88.37253314152147
 20
124.5840699697065
 30
0.0
 10
88.16495537664156
 20
124.5556146940217
 30
0.0
  0
SPLINE
  5
231
330
1F
100
AcDbEntity
  8
0
  6
Continuous
 62
     7
370
    15
100
AcDbSpline
210
0.0
220
0.0
230
1.0
 70
     8
 71
     3
 72
     8
 73
     4
 74
     0
 42
0.00000001
 43
0.00000001
 12
1.0
 22
0.0
 32
0.0
 13
1.0
 23
0.0
 33
0.0
 40
0.0
 40
0.0
 40
0.0
 40
0.0
 40
1.0
 40
1.0
 40
1.0
 40
1.0
 10
85.4337176387107
 20
85.49709533613564
 30
0.0
 10
85.63535470004005
 20
85.44001652341922
 30
0.0
 10
85.81167052202677
 20
85.39379337527495
 30
0.0
 10
85.91593323106602
 20
85.36707218141895
 30
0.0
  0
ELLIPSE
  5
232
330
1F
100
AcDbEntity
  8
0
  6
Continuous
 62
     7
370
    15
100
AcDbEllipse
 10
80.1513997861
 20
113.5373898153
 30
0.0
 11
1.779035261107453
 21
2.187503333372306
 31
0.0
210
0.0
220
0.0
230
1.0
 40
0.7283648831
 41
0.0
 42
6.283185307179586
  0
ARC
  5
233
330
1F
100
AcDbEntity
  8
0
  6
Continuous
 62
     7
370
    15
100
AcDbCircle
 10
90.8812025198
 20
104.7409231381
 30
0.0
 40
20.00000000000001
100
AcDbArc
 50
97.8055971792
 51
254.1944028208
  0
SPLINE
  5
234
330
1F
100
AcDbEntity
  8
0
  6
Continuous
 62
     7
370
    15
100
AcDbSpline
210
0.0
220
0.0
230
1.0
 70
     8
 71
     3
 72
    12
 73
     8
 74
     0
 42
0.00000001
 43
0.00000001
 12
1.0
 22
0.0
 32
0.0
 13
1.0
 23
0.0
 33
0.0
 40
0.0
 40
0.0
 40
0.0
 40
0.0
 40
0.0510166764529518
 40
0.250908978694015
 40
0.5988808741170467
 40
0.9577356949426741
 40
1.0
 40
1.0
 40
1.0
 40
1.0
 10
79.09639101558925
 20
111.3750830830236
 30
0.0
 10
79.115848849156
 20
111.3845436740172
 30
0.0
 10
79.21154589348097
 20
111.4310725227992
 30
0.0
 10
79.53044953100992
 20
111.4297148813965
 30
0.0
 10
79.93278516901307
 20
111.3968501443256
 30
0.0
 10
80.2717490560302
 20
111.3284495790067
 30
0.0
 10
80.39139147351695
 20
111.2319727818205
 30
0.0
 10
80.40399771267177
 20
111.2218074106773
 30
0.0
  0
SPLINE
  5
235
330
1F
100
AcDbEntity
  8
0
  6
Continuous
 62
     7
370
    15
100
AcDbSpline
210
0.0
220
0.0
230
1.0
 70
     8
 71
     3
 72
     8
 73
     4
 74
     0
 42
0.00000001
 43
0.00000001
 12
1.0
 22
0.0
 32
0.0
 13
1.0
 23
0.0
 33
0.0
 40
0.0
 40
0.0
 40
0.0
 40
0.0
 40
1.0
 40
1.0
 40
1.0
 40
1.0
 10
79.09639128867778
 20
111.3750831756059
 30
0.0
 10
79.02385133266272
 20
111.4104512796618
 30
0.0
 10
78.94963988810869
 20
111.442390049816
 30
0.0
 10
78.8742491729311
 20
111.4706876476525
 30
0.0
  0
SPLINE
  5
236
330
1F
100
AcDbEntity
  8
0
  6
Continuous
 62
     7
370
    15
100
AcDbSpline
210
0.0
220
0.0
230
1.0
 70
     8
 71
     3
 72
    13
 73
     9
 74
     0
 42
0.00000001
 43
0.00000001
 12
1.0
 22
0.0
 32
0.0
 13
1.0
 23
0.0
 33
0.0
 40
0.0
 40
0.0
 40
0.0
 40
0.0
 40
0.1673034791676845
 40
0.4471792065663974
 40
0.7518852038964153
 40
0.9149626934836353
 40
0.9822843750103679
 40
0.9999999999999999
 40
0.9999999999999999
 40
0.9999999999999999
 40
0.9999999999999999
 10
77.86010872656108
 20
112.2382049055
 30
0.0
 10
77.92257275369555
 20
112.2255380184203
 30
0.0
 10
78.08953051352157
 20
112.1916811701221
 30
0.0
 10
78.36518793737373
 20
112.0261922145139
 30
0.0
 10
78.62866866738122
 20
111.8050413487222
 30
0.0
 10
78.7981526233861
 20
111.6111681080735
 30
0.0
 10
78.867648938572
 20
111.5112065970367
 30
0.0
 10
78.87311121726347
 20
111.4776734244005
 30
0.0
 10
78.87424916112424
 20
111.4706875362595
 30
0.0
  0
SPLINE
  5
237
330
1F
100
AcDbEntity
  8
0
  6
Continuous
 62
     7
370
    15
100
AcDbSpline
210
0.0
220
0.0
230
1.0
 70
     8
 71
     3
 72
    15
 73
    11
 74
     0
 42
0.00000001
 43
0.00000001
 12
1.0
 22
0.0
 32
0.0
 13
1.0
 23
0.0
 33
0.0
 40
0.0
 40
0.0
 40
0.0
 40
0.0
 40
0.1411612306960603
 40
0.28183428443325
 40
0.4169664346883123
 40
0.5461331788104409
 40
0.6723555627359068
 40
0.7999816545953891
 40
0.9323886231086437
 40
1.0
 40
1.0
 40
1.0
 40
1.0
 10
90.84018230056019
 20
131.1833261118432
 30
0.0
 10
90.84446631301645
 20
131.2270634757986
 30
0.0
 10
90.85301952255678
 20
131.3143869470705
 30
0.0
 10
90.86245506817848
 20
131.4564874230022
 30
0.0
 10
90.86772838797522
 20
131.5831864788879
 30
0.0
 10
90.8683296474864
 20
131.6810825775486
 30
0.0
 10
90.86461725915348
 20
131.7423560744089
 30
0.0
 10
90.85708181250561
 20
131.7631856608426
 30
0.0
 10
90.84824615292531
 20
131.7467323262901
 30
0.0
 10
90.8420948470852
 20
131.7190501568493
 30
0.0
 10
90.8400155465256
 20
131.7096928672095
 30
0.0
  0
SPLINE
  5
238
330
1F
100
AcDbEntity
  8
0
  6
Continuous
 62
     7
370
    15
100
AcDbSpline
210
0.0
220
0.0
230
1.0
 70
     8
 71
     3
 72
    15
 73
    11
 74
     0
 42
0.00000001
 43
0.00000001
 12
1.0
 22
0.0
 32
0.0
 13
1.0
 23
0.0
 33
0.0
 40
0.0
 40
0.0
 40
0.0
 40
0.0
 40
0.1437538795485417
 40
0.2878168618268935
 40
0.423490720582034
 40
0.5497149440529454
 40
0.6718830395193364
 40
0.7962131703491221
 40
0.9276126048268419
 40
1.0
 40
1.0
 40
1.0
 40
1.0
 10
95.47226239079238
 20
130.43395230334
 30
0.0
 10
95.47338302604807
 20
130.4385750606165
 30
0.0
 10
95.47562670617387
 20
130.447830515123
 30
0.0
 10
95.47811329670901
 20
130.4462936156687
 30
0.0
 10
95.47946882707404
 20
130.4330654272055
 30
0.0
 10
95.47959483008985
 20
130.4103667480329
 30
0.0
 10
95.4786397624031
 20
130.3817588544573
 30
0.0
 10
95.47673793043728
 20
130.3495922977361
 30
0.0
 10
95.47447605965831
 20
130.3215152198245
 30
0.0
 10
95.47287387879817
 20
130.3058029933917
 30
0.0
 10
95.47230476596953
 20
130.3002218322059
 30
0.0
  0
SPLINE
  5
239
330
1F
100
AcDbEntity
  8
0
  6
Continuous
 62
     7
370
    15
100
AcDbSpline
210
0.0
220
0.0
230
1.0
 70
     8
 71
     3
 72
    10
 73
     6
 74
     0
 42
0.00000001
 43
0.00000001
 12
1.0
 22
0.0
 32
0.0
 13
1.0
 23
0.0
 33
0.0
 40
0.0
 40
0.0
 40
0.0
 40
0.0
 40
0.272481219620992
 40
0.5447556693826664
 40
1.0
 40
1.0
 40
1.0
 40
1.0
 10
89.40668908031286
 20
124.7074416444798
 30
0.0
 10
89.40458967888462
 20
124.696366863973
 30
0.0
 10
89.40039246913953
 20
124.6742257069544
 30
0.0
 10
89.39237437543859
 20
124.6202864557626
 30
0.0
 10
89.38670841269096
 20
124.570439935454
 30
0.0
 10
89.3831629407555
 20
124.5392485127946
 30
0.0
  0
LINE
  5
23A
330
1F
100
AcDbEntity
  8
0
  6
Continuous
 62
     7
370
    15
100
AcDbLine
 10
90.8400155465
 20
131.7096928672
 30
0.0
 11
89.4066890803
 21
124.7074416445
 31
0.0
  0
LINE
  5
23B
330
1F
100
AcDbEntity
  8
0
  6
Continuous
 62
     7
370
    15
100
AcDbLine
 10
89.4089071414
 20
117.7059289606
 30
0.0
 11
90.8401823006
 21
131.1833261118
 31
0.0
  0
SPLINE
  5
23C
330
1F
100
AcDbEntity
  8
0
  6
Continuous
 62
     7
370
    15
100
AcDbSpline
210
0.0
220
0.0
230
1.0
 70
     8
 71
     3
 72
    10
 73
     6
 74
     0
 42
0.00000001
 43
0.00000001
 12
1.0
 22
0.0
 32
0.0
 13
1.0
 23
0.0
 33
0.0
 40
0.0
 40
0.0
 40
0.0
 40
0.0
 40
0.2724827068899379
 40
0.5447566471411246
 40
1.0
 40
1.0
 40
1.0
 40
1.0
 10
89.38538100188227
 20
117.537734897544
 30
0.0
 10
89.38748038588483
 20
117.5488100412153
 30
0.0
 10
89.39167754541597
 20
117.5709518431736
 30
0.0
 10
89.39969591381525
 20
117.6248909235301
 30
0.0
 10
89.40536174942649
 20
117.6747375036762
 30
0.0
 10
89.40890714143963
 20
117.7059289605518
 30
0.0
  0
LINE
  5
23D
330
1F
100
AcDbEntity
  8
0
  6
Continuous
 62
     7
370
    15
100
AcDbLine
 10
87.9520544884
 20
110.5354850718
 30
0.0
 11
89.3853810019
 21
117.5377348975
 31
0.0
  0
SPLINE
  5
23E
330
1F
100
AcDbEntity
  8
0
  6
Continuous
 62
     7
370
    15
100
AcDbSpline
210
0.0
220
0.0
230
1.0
 70
     8
 71
     3
 72
    15
 73
    11
 74
     0
 42
0.00000001
 43
0.00000001
 12
1.0
 22
0.0
 32
0.0
 13
1.0
 23
0.0
 33
0.0
 40
0.0
 40
0.0
 40
0.0
 40
0.0
 40
0.1411621866223518
 40
0.2818348917134876
 40
0.4169670958990799
 40
0.5461346542262647
 40
0.6723560694467905
 40
0.7999807850562874
 40
0.9323883761158318
 40
1.0
 40
1.0
 40
1.0
 40
1.0
 10
87.95188778163494
 20
111.0618508958419
 30
0.0
 10
87.94760378694127
 20
111.0181133707253
 30
0.0
 10
87.93905065235559
 20
110.9307899808714
 30
0.0
 10
87.92961484683308
 20
110.7886899305427
 30
0.0
 10
87.92434173581276
 20
110.6619912413346
 30
0.0
 10
87.92374040188216
 20
110.5640955867167
 30
0.0
 10
87.92745267595276
 20
110.5028208375956
 30
0.0
 10
87.93498838682292
 20
110.4819910409116
 30
0.0
 10
87.94382382738517
 20
110.4984457466841
 30
0.0
 10
87.94997517510365
 20
110.5261278208569
 30
0.0
 10
87.9520544883758
 20
110.5354850717981
 30
0.0
  0
LINE
  5
23F
330
1F
100
AcDbEntity
  8
0
  6
Continuous
 62
     7
370
    15
100
AcDbLine
 10
89.3831629408
 20
124.5392485128
 30
0.0
 11
87.9518877816
 21
111.0618508958
 31
0.0
  0
LINE
  5
240
330
1F
100
AcDbEntity
  8
0
  6
Continuous
 62
     7
370
    15
100
AcDbLine
 10
89.4083986393
 20
117.7159974889
 30
0.0
 11
90.8368056123
 21
131.1663872169
 31
0.0
  0
LWPOLYLINE
  5
241
330
1F
100
AcDbEntity
  8
0
  6
Continuous
 62
     7
370
    15
100
AcDbPolyline
 90
        9
 70
   128
 43
0.0
 10
90.8368056123
 20
131.1663872169
 10
90.8473435927
 20
131.2796230034
 10
90.8557104056
 20
131.3990390466
 10
90.8610757349
 20
131.5127851979
 10
90.8629071244
 20
131.6095701025
 10
90.861022826
 20
131.6797918246
 10
90.8556098391
 20
131.7164784835
 10
90.8472053459
 20
131.7159941957
 10
90.8366434094
 20
131.6783818023
  0
LINE
  5
242
330
1F
100
AcDbEntity
  8
0
  6
Continuous
 62
     7
370
    15
100
AcDbLine
 10
90.8366434094
 20
131.6783818023
 30
0.0
 11
89.4061891929
 21
124.6901637481
 31
0.0
  0
ARC
  5
243
330
1F
100
AcDbEntity
  8
0
  6
Continuous
 62
     7
370
    15
100
AcDbCircle
 10
91.2469390317
 20
124.3506214996
 30
0.0
 40
1.871803650865931
100
AcDbArc
 50
169.5487748499
 51
174.5260421415
  0
LINE
  5
244
330
1F
100
AcDbEntity
  8
0
  6
Continuous
 62
     7
370
    15
100
AcDbLine
 10
89.3836714429
 20
124.5291790531
 30
0.0
 11
87.9552645245
 21
111.0787897908
 31
0.0
  0
LWPOLYLINE
  5
245
330
1F
100
AcDbEntity
  8
0
  6
Continuous
 62
     7
370
    15
100
AcDbPolyline
 90
        9
 70
   128
 43
0.0
 10
87.9552645245
 20
111.0787897908
 10
87.9447266095
 20
110.9655535386
 10
87.9363596075
 20
110.8461374954
 10
87.9309942582
 20
110.7323927411
 10
87.9291630452
 20
110.6356073708
 10
87.9310473436
 20
110.5653861144
 10
87.9364601904
 20
110.5286975929
 10
87.9448646781
 20
110.5291832776
 10
87.9554265746
 20
110.5667947398
  0
LINE
  5
246
330
1F
100
AcDbEntity
  8
0
  6
Continuous
 62
     7
370
    15
100
AcDbLine
 10
87.9554265746
 20
110.5667947398
 30
0.0
 11
89.3858808893
 21
117.5550127939
 31
0.0
  0
ARC
  5
247
330
1F
100
AcDbEntity
  8
0
  6
Continuous
 62
     7
370
    15
100
AcDbCircle
 10
87.5450826609
 20
117.8945618109
 30
0.0
 40
1.871852465519604
100
AcDbArc
 50
349.5488397899
 51
354.5259772014
  0
LINE
  5
248
330
1F
100
AcDbEntity
  8
0
  6
Continuous
 62
     7
370
    15
100
AcDbLine
 10
94.1367921521
 20
117.724558206
 30
0.0
 11
95.472304766
 21
130.3002218322
 31
0.0
  0
LWPOLYLINE
  5
249
330
1F
100
AcDbEntity
  8
0
  6
Continuous
 62
     7
370
    15
100
AcDbPolyline
 90
        9
 70
   128
 43
0.0
 10
90.127895445
 20
125.6796120272
 10
90.1556269716
 20
125.9776017235
 10
90.1776448925
 20
126.2918541745
 10
90.1917641502
 20
126.5911831127
 10
90.1965836281
 20
126.8458812104
 10
90.1916249175
 20
127.0306742356
 10
90.1773802223
 20
127.1272225843
 10
90.1552631738
 20
127.1259429471
 10
90.1274686082
 20
127.0269657091
  0
LWPOLYLINE
  5
24A
330
1F
100
AcDbEntity
  8
0
  6
Continuous
 62
     7
370
    15
100
AcDbPolyline
 90
        9
 70
   128
 43
0.0
 10
88.6641746954
 20
116.5655663775
 10
88.6364431688
 20
116.2675757499
 10
88.6144253061
 20
115.9533232988
 10
88.6003059902
 20
115.6539943607
 10
88.5954863959
 20
115.399296263
 10
88.6004452229
 20
115.2145032377
 10
88.6146898017
 20
115.1179558204
 10
88.6368068502
 20
115.1192335949
 10
88.664601474
 20
115.2182108329
  0
LINE
  5
24B
330
1F
100
AcDbEntity
  8
0
  6
Continuous
 62
     7
370
    15
100
AcDbLine
 10
89.3656902815
 20
123.1712883876
 30
0.0
 11
88.6641746954
 21
116.5655663775
 31
0.0
  0
ARC
  5
24C
330
1F
100
AcDbEntity
  8
0
  6
Continuous
 62
     7
370
    15
100
AcDbCircle
 10
94.2690474895
 20
122.7013924664
 30
0.0
 40
4.925821158550286
100
AcDbArc
 50
169.5487564106
 51
174.5259776819
  0
LINE
  5
24D
330
1F
100
AcDbEntity
  8
0
  6
Continuous
 62
     7
370
    15
100
AcDbLine
 10
90.1274686082
 20
127.0269657091
 30
0.0
 11
89.424947543
 21
123.594930263
 31
0.0
  0
LINE
  5
24E
330
1F
100
AcDbEntity
  8
0
  6
Continuous
 62
     7
370
    15
100
AcDbLine
 10
89.4263798007
 20
119.0738900171
 30
0.0
 11
90.127895445
 21
125.6796120272
 31
0.0
  0
ARC
  5
24F
330
1F
100
AcDbEntity
  8
0
  6
Continuous
 62
     7
370
    15
100
AcDbCircle
 10
84.5231908624
 20
119.5437604371
 30
0.0
 40
4.925651223574981
100
AcDbArc
 50
349.5486824103
 51
354.5260862427
  0
LINE
  5
250
330
1F
100
AcDbEntity
  8
0
  6
Continuous
 62
     7
370
    15
100
AcDbLine
 10
88.664601474
 20
115.2182108329
 30
0.0
 11
89.3671225392
 21
118.6502472104
 31
0.0
  0
LWPOLYLINE
  5
251
330
1F
100
AcDbEntity
  8
0
  6
Continuous
 62
     7
370
    15
100
AcDbPolyline
 90
       35
 70
   128
 43
0.0
 10
89.4870532545
 20
119.7139265553
 10
89.5381298949
 20
120.2334611283
 10
89.5843677324
 20
120.7832729981
 10
89.624192017
 20
121.3446407185
 10
89.6562468595
 20
121.8984460996
 10
89.6794404005
 20
122.4258317218
 10
89.6929828784
 20
122.9088360981
 10
89.6964131723
 20
123.3310120718
 10
89.6896145175
 20
123.6779837475
 10
89.6728182313
 20
123.9379326419
 10
89.646596495
 20
124.1020093278
 10
89.611842214
 20
124.1646258698
 10
89.5697388667
 20
124.1236476765
 10
89.5217203404
 20
123.9804735945
 10
89.469421572
 20
123.739978166
 10
89.4146238322
 20
123.4103495793
 10
89.359193026
 20
123.0028139965
 10
89.3050168277
 20
122.5312499867
 10
89.2539401873
 20
122.0117154137
 10
89.2077023498
 20
121.4619035439
 10
89.1678780652
 20
120.9005358235
 10
89.1358233391
 20
120.3467304425
 10
89.1126297981
 20
119.8193457515
 10
89.0990872038
 20
119.3363413752
 10
89.0956569099
 20
118.9141654016
 10
89.1024556811
 20
118.5671946571
 10
89.1192518509
 20
118.3072448314
 10
89.1454735872
 20
118.1431681455
 10
89.1802278682
 20
118.0805516035
 10
89.2223312155
 20
118.1215288655
 10
89.2703498582
 20
118.2647029475
 10
89.3226485102
 20
118.5051993073
 10
89.37744625
 20
118.8348278941
 10
89.4328770562
 20
119.2423625455
 10
89.4870532545
 20
119.7139265553
  0
SPLINE
  5
252
330
1F
100
AcDbEntity
  8
0
  6
Continuous
 62
     7
370
    15
100
AcDbSpline
210
0.0
220
0.0
230
1.0
 70
     8
 71
     3
 72
    10
 73
     6
 74
     0
 42
0.00000001
 43
0.00000001
 12
1.0
 22
0.0
 32
0.0
 13
1.0
 23
0.0
 33
0.0
 40
0.0
 40
0.0
 40
0.0
 40
0.0
 40
0.4164775649174275
 40
0.7035851270280308
 40
1.0
 40
1.0
 40
1.0
 40
1.0
 10
94.13679215209187
 20
117.7245582060118
 30
0.0
 10
94.13598319183798
 20
117.7174047507531
 30
0.0
 10
94.13461655783186
 20
117.7053199107741
 30
0.0
 10
94.13260841375487
 20
117.6915207271607
 30
0.0
 10
94.13148253538895
 20
117.6855452942691
 30
0.0
 10
94.13091061720253
 20
117.6825099230905
 30
0.0
  0
LINE
  5
253
330
1F
100
AcDbEntity
  8
0
  6
Continuous
 62
     7
370
    15
100
AcDbLine
 10
94.0226592691
 20
117.1536686436
 30
0.0
 11
94.1309106172
 21
117.6825099231
 31
0.0
  0
LWPOLYLINE
  5
254
330
1F
100
AcDbEntity
  8
0
  6
Continuous
 62
     7
370
    15
100
AcDbPolyline
 90
       27
 70
   128
 43
0.0
 10
89.516578392
 20
122.8332201556
 10
89.4843987524
 20
122.8059622065
 10
89.4464170895
 20
122.6761060373
 10
89.4048407542
 20
122.4511990861
 10
89.3620860632
 20
122.1443133966
 10
89.3206377848
 20
121.7732819335
 10
89.2829046686
 20
121.3596704022
 10
89.25107963
 20
120.9275125132
 10
89.2270122756
 20
120.5019278989
 10
89.2121012191
 20
120.107646899
 10
89.2072131726
 20
119.7675847055
 10
89.2126321894
 20
119.5015049146
 10
89.2280432497
 20
119.3248712064
 10
89.2525507704
 20
119.247947687
 10
89.2847304101
 20
119.2752056361
 10
89.322712073
 20
119.4050618054
 10
89.3642884082
 20
119.6299678252
 10
89.4070430993
 20
119.936854446
 10
89.4484913777
 20
120.3078849779
 10
89.4862244938
 20
120.7214983718
 10
89.5180495325
 20
121.1536543981
 10
89.5421168868
 20
121.5792408751
 10
89.5570279433
 20
121.9735200123
 10
89.5619159899
 20
122.3135831372
 10
89.5564969731
 20
122.5796619968
 10
89.5410859127
 20
122.7562966363
 10
89.516578392
 20
122.8332201556
  0
ARC
  5
255
330
1F
100
AcDbEntity
  8
0
  6
Continuous
 62
     7
370
    15
100
AcDbCircle
 10
102.3966095084
 20
120.3333147628
 30
0.0
 40
13.14685313033876
100
AcDbArc
 50
170.4488797729
 51
176.4946246437
  0
ARC
  5
256
330
1F
100
AcDbEntity
  8
0
  6
Continuous
 62
     7
370
    15
100
AcDbCircle
 10
104.6597065
 20
119.861715953
 30
0.0
 40
15.43812831594741
100
AcDbArc
 50
175.2610889506
 51
180.8136220485
  0
LWPOLYLINE
  5
257
330
1F
100
AcDbEntity
  8
0
  6
Continuous
 62
     7
370
    15
100
AcDbPolyline
 90
        9
 70
   128
 43
0.0
 10
89.2231347141
 20
119.6424959765
 10
89.2288283546
 20
119.5372341738
 10
89.2370639238
 20
119.4565108583
 10
89.2477070781
 20
119.4016429202
 10
89.2605838933
 20
119.3735253603
 10
89.2754844724
 20
119.3726182521
 10
89.2921653911
 20
119.3989355655
 10
89.3103545866
 20
119.4520488919
 10
89.3297549671
 20
119.5310893075
  0
LINE
  5
258
330
1F
100
AcDbEntity
  8
0
  6
Continuous
 62
     7
370
    15
100
AcDbLine
 10
89.3377192886
 20
119.5693675966
 30
0.0
 11
89.3297549671
 21
119.5310893075
 31
0.0
  0
ARC
  5
259
330
1F
100
AcDbEntity
  8
0
  6
Continuous
 62
     7
370
    15
100
AcDbCircle
 10
76.6683048624
 20
121.706209461
 30
0.0
 40
12.84835223115624
100
AcDbArc
 50
350.426509968
 51
356.3466949792
  0
LINE
  5
25A
330
1F
100
AcDbEntity
  8
0
  6
Continuous
 62
     7
370
    15
100
AcDbLine
 10
89.4993198206
 20
121.0068556086
 30
0.0
 11
89.4905476932
 21
120.8875252471
 31
0.0
  0
ARC
  5
25B
330
1F
100
AcDbEntity
  8
0
  6
Continuous
 62
     7
370
    15
100
AcDbCircle
 10
73.8967523444
 20
122.2405424695
 30
0.0
 40
15.65126496866405
100
AcDbArc
 50
355.4790585993
 51
0.5956566184
  0
LINE
  5
25C
330
1F
100
AcDbEntity
  8
0
  6
Continuous
 62
     7
370
    15
100
AcDbLine
 10
89.5447379778
 20
122.4688923524
 30
0.0
 11
89.5471715237
 21
122.4032527373
 31
0.0
  0
LWPOLYLINE
  5
25D
330
1F
100
AcDbEntity
  8
0
  6
Continuous
 62
     7
370
    15
100
AcDbPolyline
 90
        9
 70
   128
 43
0.0
 10
89.5447379778
 20
122.4688923524
 10
89.5386392119
 20
122.5645913349
 10
89.5302071338
 20
122.6372084187
 10
89.5195694509
 20
122.6856465058
 10
89.5068870493
 20
122.7091698514
 10
89.4923521307
 20
122.7074245528
 10
89.4761848365
 20
122.6804348246
 10
89.458629988
 20
122.6286104486
 10
89.439953478
 20
122.5527355985
  0
LINE
  5
25E
330
1F
100
AcDbEntity
  8
0
  6
Continuous
 62
     7
370
    15
100
AcDbLine
 10
89.4319987026
 20
122.5147395001
 30
0.0
 11
89.439953478
 21
122.5527355985
 31
0.0
  0
SPLINE
  5
25F
330
1F
100
AcDbEntity
  8
0
  6
Continuous
 62
     7
370
    15
100
AcDbSpline
210
0.0
220
0.0
230
1.0
 70
     8
 71
     3
 72
     9
 73
     5
 74
     0
 42
0.00000001
 43
0.00000001
 12
1.0
 22
0.0
 32
0.0
 13
1.0
 23
0.0
 33
0.0
 40
0.0
 40
0.0
 40
0.0
 40
0.0
 40
0.5183200796402128
 40
1.0
 40
1.0
 40
1.0
 40
1.0
 10
89.3494756062478
 20
119.628551283588
 30
0.0
 10
89.34371840640458
 20
119.6019136702867
 30
0.0
 10
89.33261098442853
 20
119.5505214623681
 30
0.0
 10
89.32870755716552
 20
119.5301579773759
 30
0.0
 10
89.32682735463233
 20
119.5203492955466
 30
0.0
  0
LINE
  5
260
330
1F
100
AcDbEntity
  8
0
  6
Continuous
 62
     7
370
    15
100
AcDbLine
 10
89.3262516809
 20
119.5161276103
 30
0.0
 11
89.3262540092
 21
119.5151469276
 31
0.0
  0
SPLINE
  5
261
330
1F
100
AcDbEntity
  8
0
  6
Continuous
 62
     7
370
    15
100
AcDbSpline
210
0.0
220
0.0
230
1.0
 70
     8
 71
     3
 72
    10
 73
     6
 74
     0
 42
0.00000001
 43
0.00000001
 12
1.0
 22
0.0
 32
0.0
 13
1.0
 23
0.0
 33
0.0
 40
0.0
 40
0.0
 40
0.0
 40
0.0
 40
0.3903704516921051
 40
0.7818652131049431
 40
1.0
 40
1.0
 40
1.0
 40
1.0
 10
89.49701223605872
 20
122.4494817272921
 30
0.0
 10
89.49131331255629
 20
122.4759612183961
 30
0.0
 10
89.47989905202661
 20
122.5289964644428
 30
0.0
 10
89.46486315931259
 20
122.5681465295734
 30
0.0
 10
89.45699963790555
 20
122.5669535054707
 30
0.0
 10
89.45418594954164
 20
122.5665266231795
 30
0.0
  0
LINE
  5
262
330
1F
100
AcDbEntity
  8
0
  6
Continuous
 62
     7
370
    15
100
AcDbLine
 10
89.4474739077
 20
122.5680297778
 30
0.0
 11
89.439953478
 21
122.5527355985
 31
0.0
  0
SPLINE
  5
263
330
1F
100
AcDbEntity
  8
0
  6
Continuous
 62
     7
370
    15
100
AcDbSpline
210
0.0
220
0.0
230
1.0
 70
     8
 71
     3
 72
    12
 73
     8
 74
     0
 42
0.00000001
 43
0.00000001
 12
1.0
 22
0.0
 32
0.0
 13
1.0
 23
0.0
 33
0.0
 40
0.0
 40
0.0
 40
0.0
 40
0.0
 40
0.0091690896640036
 40
0.2576747164366336
 40
0.5061884996614023
 40
0.7560373613590136
 40
1.0
 40
1.0
 40
1.0
 40
1.0
 10
89.2231347140819
 20
119.6424959764977
 30
0.0
 10
89.22316413819598
 20
119.6417513729158
 30
0.0
 10
89.22399103056291
 20
119.6208261203699
 30
0.0
 10
89.22882058622002
 20
119.5906082076502
 30
0.0
 10
89.24419703506902
 20
119.5830237110803
 30
0.0
 10
89.26615854793582
 20
119.6103934287308
 30
0.0
 10
89.2844200759727
 20
119.6549609750898
 30
0.0
 10
89.29344200146944
 20
119.6769791261454
 30
0.0
  0
SPLINE
  5
264
330
1F
100
AcDbEntity
  8
0
  6
Continuous
 62
     7
370
    15
100
AcDbSpline
210
0.0
220
0.0
230
1.0
 70
     8
 71
     3
 72
    10
 73
     6
 74
     0
 42
0.00000001
 43
0.00000001
 12
1.0
 22
0.0
 32
0.0
 13
1.0
 23
0.0
 33
0.0
 40
0.0
 40
0.0
 40
0.0
 40
0.0
 40
0.4396226533218709
 40
0.8802194864031092
 40
1.0
 40
1.0
 40
1.0
 40
1.0
 10
89.29344200146944
 20
119.6769791261454
 30
0.0
 10
89.30924743211018
 20
119.7156116306908
 30
0.0
 10
89.34089331736169
 20
119.792962247299
 30
0.0
 10
89.36930142715815
 20
119.8391394330495
 30
0.0
 10
89.37334500764939
 20
119.8301516954698
 30
0.0
 10
89.37420932193847
 20
119.8282305688759
 30
0.0
  0
SPLINE
  5
265
330
1F
100
AcDbEntity
  8
0
  6
Continuous
 62
     7
370
    15
100
AcDbSpline
210
0.0
220
0.0
230
1.0
 70
     8
 71
     3
 72
    11
 73
     7
 74
     0
 42
0.00000001
 43
0.00000001
 12
1.0
 22
0.0
 32
0.0
 13
1.0
 23
0.0
 33
0.0
 40
0.0
 40
0.0
 40
0.0
 40
0.0
 40
0.2423570735909232
 40
0.5166831963703572
 40
0.7923339014818452
 40
1.0
 40
1.0
 40
1.0
 40
1.0
 10
89.43199870260061
 20
122.5147395000954
 30
0.0
 10
89.42973491255603
 20
122.4939178879764
 30
0.0
 10
89.42490871846638
 20
122.4495281082854
 30
0.0
 10
89.42356919939829
 20
122.3525649727911
 30
0.0
 10
89.42726499357772
 20
122.2495415781505
 30
0.0
 10
89.4334526600984
 20
122.1846231886487
 30
0.0
 10
89.43611130667479
 20
122.1567297891875
 30
0.0
  0
SPLINE
  5
266
330
1F
100
AcDbEntity
  8
0
  6
Continuous
 62
     7
370
    15
100
AcDbSpline
210
0.0
220
0.0
230
1.0
 70
     8
 71
     3
 72
    11
 73
     7
 74
     0
 42
0.00000001
 43
0.00000001
 12
1.0
 22
0.0
 32
0.0
 13
1.0
 23
0.0
 33
0.0
 40
0.0
 40
0.0
 40
0.0
 40
0.0
 40
0.2535078735179398
 40
0.5075667641853062
 40
0.759506958444822
 40
1.0
 40
1.0
 40
1.0
 40
1.0
 10
89.28023456679286
 20
120.0337809116741
 30
0.0
 10
89.27133891340624
 20
119.9975415028036
 30
0.0
 10
89.25352827130622
 20
119.9249839161647
 30
0.0
 10
89.23468991785585
 20
119.8120273117018
 30
0.0
 10
89.22332831949753
 20
119.7113476616598
 30
0.0
 10
89.22319824128334
 20
119.665088086635
 30
0.0
 10
89.2231347140819
 20
119.6424959764977
 30
0.0
  0
SPLINE
  5
267
330
1F
100
AcDbEntity
  8
0
  6
Continuous
 62
     7
370
    15
100
AcDbSpline
210
0.0
220
0.0
230
1.0
 70
     8
 71
     3
 72
    12
 73
     8
 74
     0
 42
0.00000001
 43
0.00000001
 12
1.0
 22
0.0
 32
0.0
 13
1.0
 23
0.0
 33
0.0
 40
0.0
 40
0.0
 40
0.0
 40
0.0
 40
0.2058586320238047
 40
0.412101867000684
 40
0.6141945828299888
 40
0.8133169918689847
 40
1.0
 40
1.0
 40
1.0
 40
1.0
 10
89.43611130667479
 20
122.1567297891875
 30
0.0
 10
89.44196713647857
 20
122.0912642512469
 30
0.0
 10
89.45368973645529
 20
121.9602108669691
 30
0.0
 10
89.45202413368685
 20
121.7661314334541
 30
0.0
 10
89.43192148141122
 20
121.6048220846803
 30
0.0
 10
89.3966807541665
 20
121.4893985227087
 30
0.0
 10
89.36791964987601
 20
121.4589695826122
 30
0.0
 10
89.354002765283
 20
121.4442456678649
 30
0.0
  0
SPLINE
  5
268
330
1F
100
AcDbEntity
  8
0
  6
Continuous
 62
     7
370
    15
100
AcDbSpline
210
0.0
220
0.0
230
1.0
 70
     8
 71
     3
 72
    11
 73
     7
 74
     0
 42
0.00000001
 43
0.00000001
 12
1.0
 22
0.0
 32
0.0
 13
1.0
 23
0.0
 33
0.0
 40
0.0
 40
0.0
 40
0.0
 40
0.0
 40
0.2524737025453648
 40
0.506890689713099
 40
0.7591759787789867
 40
1.0
 40
1.0
 40
1.0
 40
1.0
 10
89.354002765283
 20
121.4442456678649
 30
0.0
 10
89.34511058180172
 20
121.4345599620564
 30
0.0
 10
89.32725777189545
 20
121.4151139997715
 30
0.0
 10
89.30356946251584
 20
121.3416838687341
 30
0.0
 10
89.28457876189053
 20
121.246296369227
 30
0.0
 10
89.27770853589908
 20
121.1729586295336
 30
0.0
 10
89.27435326473416
 20
121.1371420488854
 30
0.0
  0
SPLINE
  5
269
330
1F
100
AcDbEntity
  8
0
  6
Continuous
 62
     7
370
    15
100
AcDbSpline
210
0.0
220
0.0
230
1.0
 70
     8
 71
     3
 72
    12
 73
     8
 74
     0
 42
0.00000001
 43
0.00000001
 12
1.0
 22
0.0
 32
0.0
 13
1.0
 23
0.0
 33
0.0
 40
0.0
 40
0.0
 40
0.0
 40
0.0
 40
0.0091682677092711
 40
0.2573275799479454
 40
0.5054939690493667
 40
0.7549940028045325
 40
1.0
 40
1.0
 40
1.0
 40
1.0
 10
89.27435326473416
 20
121.1371420488854
 30
0.0
 10
89.27425376089028
 20
121.1357745638733
 30
0.0
 10
89.27146096685817
 20
121.0973930920474
 30
0.0
 10
89.26871212357189
 20
121.0205230157228
 30
0.0
 10
89.2731653240703
 20
120.9189379609104
 30
0.0
 10
89.28541601047176
 20
120.8369858488962
 30
0.0
 10
89.29938732922051
 20
120.8087036159133
 30
0.0
 10
89.3063095034063
 20
120.794691012909
 30
0.0
  0
SPLINE
  5
26A
330
1F
100
AcDbEntity
  8
0
  6
Continuous
 62
     7
370
    15
100
AcDbSpline
210
0.0
220
0.0
230
1.0
 70
     8
 71
     3
 72
    12
 73
     8
 74
     0
 42
0.00000001
 43
0.00000001
 12
1.0
 22
0.0
 32
0.0
 13
1.0
 23
0.0
 33
0.0
 40
0.0
 40
0.0
 40
0.0
 40
0.0
 40
0.2058434483780343
 40
0.4120707635906681
 40
0.6141395210204218
 40
0.8132609970391258
 40
1.0
 40
1.0
 40
1.0
 40
1.0
 10
89.3063095034063
 20
120.794691012909
 30
0.0
 10
89.31857249422129
 20
120.7694672133926
 30
0.0
 10
89.34312134447063
 20
120.7189725757966
 30
0.0
 10
89.35842444433727
 20
120.5729488695229
 30
0.0
 10
89.3508759035205
 20
120.3962613299565
 30
0.0
 10
89.32287841778671
 20
120.2073228434828
 30
0.0
 10
89.29414179246834
 20
120.0903772732496
 30
0.0
 10
89.28023456679286
 20
120.0337809116741
 30
0.0
  0
CIRCLE
  5
26B
330
1F
100
AcDbEntity
  8
VERMASSUNG
  6
CENTERX2
100
AcDbCircle
 10
90.8812025198
 20
106.4791230942
 30
0.0
 40
25.0
  0
DIMENSION
  5
26C
330
1F
100
AcDbEntity
  8
VERMASSUNG
100
AcDbDimension
  2
_D_5
 10
57.25129785
 20
131.4791230942
 30
0.0
 11
57.25129785
 21
106.4791230942
 31
0.0
 70
   160
  1
%%c<> min. 
 71
     2
 42
-1.0
  3
SLDDIMSTYLE2
100
AcDbAlignedDimension
 13
90.8812025198
 23
81.4791230942
 33
0.0
 14
90.8812025198
 24
131.4791230942
 34
0.0
 50
90.0
100
AcDbRotatedDimension
  0
INSERT
  5
284
330
1F
100
AcDbEntity
  8
VERMASSUNG
100
AcDbBlockReference
  2
SW_CENTERMARKSYMBOL_0
 10
90.8812025198
 20
104.7409231381
 30
0.0
  0
OLE2FRAME
  5
285
330
1F
100
AcDbEntity
  8
0
100
AcDbOle2Frame
 70
     2
  3
Paintbrush-Bild
 10
13.8511154363
 20
38.264191557
 30
0.0
 11
51.6290888628
 21
31.9806341108
 31
0.0
 71
     2
 72
     0
 73
     1
 90
    12928
310
80552BED0767C5B32B40DDAF6807D121434000000000000000006FFBDDFB85D0
310
4940DDAF6807D121434000000000000000006FFBDDFB85D04940416F4BD60AFB
310
3F4000000000000000002BED0767C5B32B40416F4BD60AFB3F40000000000000
310
0000000000000100000000010000010000000100000000000100000000320000
310
D0CF11E0A1B11AE1000000000000000000000000000000003E000300FEFF0900
310
0600000000000000000000000100000001000000000000000010000002000000
310
01000000FEFFFFFF0000000000000000FFFFFFFFFFFFFFFFFFFFFFFFFFFFFFFF
310
FFFFFFFFFFFFFFFFFFFFFFFFFFFFFFFFFFFFFFFFFFFFFFFFFFFFFFFFFFFFFFFF
310
FFFFFFFFFFFFFFFFFFFFFFFFFFFFFFFFFFFFFFFFFFFFFFFFFFFFFFFFFFFFFFFF
310
FFFFFFFFFFFFFFFFFFFFFFFFFFFFFFFFFFFFFFFFFFFFFFFFFFFFFFFFFFFFFFFF
310
FFFFFFFFFFFFFFFFFFFFFFFFFFFFFFFFFFFFFFFFFFFFFFFFFFFFFFFFFFFFFFFF
310
FFFFFFFFFFFFFFFFFFFFFFFFFFFFFFFFFFFFFFFFFFFFFFFFFFFFFFFFFFFFFFFF
310
FFFFFFFFFFFFFFFFFFFFFFFFFFFFFFFFFFFFFFFFFFFFFFFFFFFFFFFFFFFFFFFF
310
FFFFFFFFFFFFFFFFFFFFFFFFFFFFFFFFFFFFFFFFFFFFFFFFFFFFFFFFFFFFFFFF
310
FFFFFFFFFFFFFFFFFFFFFFFFFFFFFFFFFFFFFFFFFFFFFFFFFFFFFFFFFFFFFFFF
310
FFFFFFFFFFFFFFFFFFFFFFFFFFFFFFFFFFFFFFFFFFFFFFFFFFFFFFFFFFFFFFFF
310
FFFFFFFFFFFFFFFFFFFFFFFFFFFFFFFFFFFFFFFFFFFFFFFFFFFFFFFFFFFFFFFF
310
FFFFFFFFFFFFFFFFFFFFFFFFFFFFFFFFFFFFFFFFFFFFFFFFFFFFFFFFFFFFFFFF
310
FFFFFFFFFFFFFFFFFFFFFFFFFFFFFFFFFFFFFFFFFFFFFFFFFFFFFFFFFFFFFFFF
310
FFFFFFFFFFFFFFFFFFFFFFFFFFFFFFFFFFFFFFFFFFFFFFFFFFFFFFFFFFFFFFFF
310
FDFFFFFFFEFFFFFFFEFFFFFFFEFFFFFF05000000060000000700000008000000
310
090000000A0000000B0000000C0000000D0000000E0000000F00000010000000
310
11000000120000001300000014000000150000001600000017000000FEFFFFFF
310
FFFFFFFFFFFFFFFFFFFFFFFFFFFFFFFFFFFFFFFFFFFFFFFFFFFFFFFFFFFFFFFF
310
FFFFFFFFFFFFFFFFFFFFFFFFFFFFFFFFFFFFFFFFFFFFFFFFFFFFFFFFFFFFFFFF
310
FFFFFFFFFFFFFFFFFFFFFFFFFFFFFFFFFFFFFFFFFFFFFFFFFFFFFFFFFFFFFFFF
310
FFFFFFFFFFFFFFFFFFFFFFFFFFFFFFFFFFFFFFFFFFFFFFFFFFFFFFFFFFFFFFFF
310
FFFFFFFFFFFFFFFFFFFFFFFFFFFFFFFFFFFFFFFFFFFFFFFFFFFFFFFFFFFFFFFF
310
FFFFFFFFFFFFFFFFFFFFFFFFFFFFFFFFFFFFFFFFFFFFFFFFFFFFFFFFFFFFFFFF
310
FFFFFFFFFFFFFFFFFFFFFFFFFFFFFFFFFFFFFFFFFFFFFFFFFFFFFFFFFFFFFFFF
310
FFFFFFFFFFFFFFFFFFFFFFFFFFFFFFFFFFFFFFFFFFFFFFFFFFFFFFFFFFFFFFFF
310
FFFFFFFFFFFFFFFFFFFFFFFFFFFFFFFFFFFFFFFFFFFFFFFFFFFFFFFFFFFFFFFF
310
FFFFFFFFFFFFFFFFFFFFFFFFFFFFFFFFFFFFFFFFFFFFFFFFFFFFFFFFFFFFFFFF
310
FFFFFFFFFFFFFFFFFFFFFFFFFFFFFFFFFFFFFFFFFFFFFFFFFFFFFFFFFFFFFFFF
310
FFFFFFFFFFFFFFFFFFFFFFFFFFFFFFFFFFFFFFFFFFFFFFFFFFFFFFFFFFFFFFFF
310
FFFFFFFFFFFFFFFFFFFFFFFFFFFFFFFFFFFFFFFFFFFFFFFFFFFFFFFFFFFFFFFF
310
52006F006F007400200045006E00740072007900000000000000000000000000
310
0000000000000000000000000000000000000000000000000000000000000000
310
16000500FFFFFFFFFFFFFFFF020000000A00030000000000C000000000000046
310
00000000000000000000000070AE8AF150F9CD0103000000C000000000000000
310
01004F006C006500000000000000000000000000000000000000000000000000
310
0000000000000000000000000000000000000000000000000000000000000000
310
0A000200FFFFFFFFFFFFFFFFFFFFFFFF00000000000000000000000000000000
310
0000000000000000000000000000000000000000000000001400000000000000
310
010043006F006D0070004F0062006A0000000000000000000000000000000000
310
0000000000000000000000000000000000000000000000000000000000000000
310
120002010100000003000000FFFFFFFF00000000000000000000000000000000
310
0000000000000000000000000000000000000000010000004D00000000000000
310
01004F006C006500310030004E00610074006900760065000000000000000000
310
0000000000000000000000000000000000000000000000000000000000000000
310
1A000200FFFFFFFFFFFFFFFFFFFFFFFF00000000000000000000000000000000
310
0000000000000000000000000000000000000000040000002426000000000000
310
FEFFFFFF02000000FEFFFFFFFFFFFFFFFFFFFFFFFFFFFFFFFFFFFFFFFFFFFFFF
310
FFFFFFFFFFFFFFFFFFFFFFFFFFFFFFFFFFFFFFFFFFFFFFFFFFFFFFFFFFFFFFFF
310
FFFFFFFFFFFFFFFFFFFFFFFFFFFFFFFFFFFFFFFFFFFFFFFFFFFFFFFFFFFFFFFF
310
FFFFFFFFFFFFFFFFFFFFFFFFFFFFFFFFFFFFFFFFFFFFFFFFFFFFFFFFFFFFFFFF
310
FFFFFFFFFFFFFFFFFFFFFFFFFFFFFFFFFFFFFFFFFFFFFFFFFFFFFFFFFFFFFFFF
310
FFFFFFFFFFFFFFFFFFFFFFFFFFFFFFFFFFFFFFFFFFFFFFFFFFFFFFFFFFFFFFFF
310
FFFFFFFFFFFFFFFFFFFFFFFFFFFFFFFFFFFFFFFFFFFFFFFFFFFFFFFFFFFFFFFF
310
FFFFFFFFFFFFFFFFFFFFFFFFFFFFFFFFFFFFFFFFFFFFFFFFFFFFFFFFFFFFFFFF
310
FFFFFFFFFFFFFFFFFFFFFFFFFFFFFFFFFFFFFFFFFFFFFFFFFFFFFFFFFFFFFFFF
310
FFFFFFFFFFFFFFFFFFFFFFFFFFFFFFFFFFFFFFFFFFFFFFFFFFFFFFFFFFFFFFFF
310
FFFFFFFFFFFFFFFFFFFFFFFFFFFFFFFFFFFFFFFFFFFFFFFFFFFFFFFFFFFFFFFF
310
FFFFFFFFFFFFFFFFFFFFFFFFFFFFFFFFFFFFFFFFFFFFFFFFFFFFFFFFFFFFFFFF
310
FFFFFFFFFFFFFFFFFFFFFFFFFFFFFFFFFFFFFFFFFFFFFFFFFFFFFFFFFFFFFFFF
310
FFFFFFFFFFFFFFFFFFFFFFFFFFFFFFFFFFFFFFFFFFFFFFFFFFFFFFFFFFFFFFFF
310
FFFFFFFFFFFFFFFFFFFFFFFFFFFFFFFFFFFFFFFFFFFFFFFFFFFFFFFFFFFFFFFF
310
FFFFFFFFFFFFFFFFFFFFFFFFFFFFFFFFFFFFFFFFFFFFFFFFFFFFFFFFFFFFFFFF
310
0100000200000000000000000000000000000000000000000000000000000000
310
0000000000000000000000000000000000000000000000000000000000000000
310
0100FEFF030A0000FFFFFFFF0A00030000000000C00000000000004607000000
310
5042727573680007000000504272757368000700000050427275736800F439B2
310
7100000000000000000000000000000000000000000000000000000000000000
310
0000000000000000000000000000000000000000000000000000000000000000
310
0000000000000000000000000000000000000000000000000000000000000000
310
0000000000000000000000000000000000000000000000000000000000000000
310
0000000000000000000000000000000000000000000000000000000000000000
310
0000000000000000000000000000000000000000000000000000000000000000
310
0000000000000000000000000000000000000000000000000000000000000000
310
0000000000000000000000000000000000000000000000000000000000000000
310
0000000000000000000000000000000000000000000000000000000000000000
310
0000000000000000000000000000000000000000000000000000000000000000
310
0000000000000000000000000000000000000000000000000000000000000000
310
0000000000000000000000000000000000000000000000000000000000000000
310
20260000424D0E260000000000003E00000028000000B40200006E0000000100
310
01000000000000000000130B0000130B00000200000002000000000000FFFFFF
310
FFFFFFFFFFFFFFFFFFFFFFFFFFFFFFFFFFFFFFFFFFFFFFFFFFFFFFFFFFFFFFFF
310
FFFFFFFFFFFFFFFFFFFFFFFFFFFFFFFFFFFFFFFFFFFFFFFFFFFFFFFFFFFFFFFF
310
FFFFFFFFFFFFFFFFFFFFFFFFFFFFFFFFFFFFFFFFFFFFFFFFF000FFFFFFFFFFFF
310
FFFFFFFFFFFFFFFFFFFFFFFFFFFFFFFFFFFFFFFFFFFFFFFFFFFFFFFFFFFFFFFF
310
FFFFFFFFFFFFFFFFFFFFFFFFFFFFFFFFFFFFFFFFFFFFFFFFFFFFFFFFFFFFFFFF
310
FFFFFFFFFFFFFFFFFFFFFFFFFFFFFFFFF000FFFFFFFFFFFFFFFFFFFFFFFFFFFF
310
FFFFFFFFFFFFFFFFFFFFFFFFFFFFFFFFFFFFFFFFFFFFFFFFFFFFFFFFFFFFFFFF
310
FFFFFFFFFFFFFFFFFFFFFFFFFFFFFFFFFFFFFFFFFFFFFFFFFFFFFFFFFFFFFFFF
310
FFFFFFFFFFFFFFFFF000FFFFFFFFFFFFFFFFFFFFFFFFFFFFFFFFFFFFFFFFFFFF
310
FFFFFFFFFFFFFFFFFFFFFFFFFFFFFFFFFFFFFFFFFFFFFFFFFFFFFFFFFFFFFFFF
310
FFFFFFFFFFFFFFFFFFFFFFFFFFFFFFFFFFFFFFFFFFFFFFFFFFFFFFFFFFFFFFFF
310
F000FFFFFFFFFFFFFFFFFFFFFFFFFFFFFFFFFFFFFFFFFFFFFFFFFFFFFFFFFFFF
310
FFFFFFFFFFFFFFFFFFFFFFFFFFFFFFFFFFFFFFFFFFFFFFFFFFFFFFFFFFFFFFFF
310
FFFFFFFFFFFFFFFFFFFFFFFFFFFFFFFFFFFFFFFFFFFFFFFFF000FFFFFFFFFFFF
310
FFFFFFFFFFFFFFFFFFFFFFFFFFFFFFFFFFFFFFFFFFFFFFFFFFFFFFFFFFFFFFFF
310
FFFFFFFFFFFFFFFFFFFFFFFFFFFFFFFFFFFFFFFFFFFFFFFFFFFFFFFFFFFFFFFF
310
FFFFFFFFFFFFFFFFFFFFFFFFFFFFFFFFF000FFFFFFFFFFFFFFFFFFFFFFFFFFFF
310
FFFFFFFFFFFFFFFFFFFFFFFFFFFFFFFFFFFFFFFFFFFFFFFFFFFFFFFFFFFFFFFF
310
FFFFFFFFFFFFFFFFFFFFFFFFFFFFFFFFFFFFFFFFFFFFFFFFFFFFFFFFFFFFFFFF
310
FFFFFFFFFFFFFFFFF000FFFFFFFFFFFFFFFFFFFFFFFFFFFFFFFFFFFFFFFFFFFF
310
FFFFFFFFFFFFFFFFFFFFFFFFFFFFFFFFFFFFFFFFFFFFFFFFFFFFFFFFFFFFFFFF
310
FFFFFFFFFFFFFFFFFFFFFFFFFFFFFFFFFFFFFFFFFFFFFFFFFFFFFFFFFFFFFFFF
310
F000FFFFFFFFFFFFFFFFFFFFFFFFFFFFFFFFFFFFFFFFFFFFFFFFFFFFFFFFFFFF
310
FFFFFFFFFFFFFFFFFFFFFFFFFFFFFFFFFFFFFFFFFFFFFFFFFFFFFFFFFFFFFFFF
310
FFFFFFFFFFFFFFFFFFFFFFFFFFFFFFFFFFFFFFFFFFFFFFFFF000FFFFFFFFFFFF
310
FFFFFFFFFFFFFFFFFFFFFFFFFFFFFFFFFFFFFFFFFFFFFFFFFFFFFFFFFFFFFFFF
310
FFFFFFFFFFFFFFFFFFFFFFFFFFFFFFFFFFFFFFFFFFFFFFFFFFFFFFFFFFFFFFFF
310
FFFFFFFFFFFFFFFFFFFFFFFFFFFFFFFFF000FFFFFFFFFFFFFFFFFFFFFFFFFFFF
310
FFFFFFFFFFFFFFFFFFFFFFFFFFFFFFFFFFFFFFFFFFFFFFFFFFFFFFFFFFFFFFFF
310
FFFFFFFFFFFFFFFFFFFFFFFFFFFFFFFFFFFFFFFFFFFFFFFFFFFFFFFFFFFFFFFF
310
FFFFFFFFFFFFFFFFF000FFFFFFFFFFFFFFFFFFFFFFFFFFFFFFFFFFFFFFFFFFFF
310
FFFFFFFFFFFFFFFFFFFFFFFFFFFFFFFFFFFFFFFFFFFFFFFFFFFFFFFFFFFFFFFF
310
FFFFFFFFFFFFFFFFFFFFFFFFFFFFFFFFFFFFFFFFFFFFFFFFFFFFFFFFFFFFFFFF
310
F000FFFFFFFFFFFFFFFFFFFFFFFFFFFFFFFFFFFFFFFFFFFFFFFFFFFFFFFFFFFF
310
FFFFFFFFFFFFFFFFFFFFFFFFFFFFFFFFFFFFFFFFFFFFFFFFFFFFFFFFFFFFFFFF
310
FFFFFFFFFFFFFFFFFFFFFFFFFFFFFFFFFFFFFFFFFFFFFFFFF000FFFFFFFFFFFF
310
FFFFFFFFFFFFFFFFFFFFFFFFFFFFFFFFFFFFFFFFFFFFFFFFFFFFFFFFFFFFFFFF
310
FFFFFFFFFFFFFFFFFFFFFFFFFFFFFFFFFFFFFFFFFFFFFFFFFFFFFFFFFFFFFFFF
310
FFFFFFFFFFFFFFFFFFFFFFFFFFFFFFFFF000FFFFFFFFFFFFFFFFFFFFFFFFFFFF
310
FFFFFFFFFFFFFFFFFFFFFFFFFFFFFFFFFFFFFFFFFFFFFFFFFFFFFFFFFFFFFFFF
310
FFFFFFFFFFFFFFFFFFFFFFFFFFFFFFFFFFFFFFFFFFFFFFFFFFFFFFFFFFFFFFFF
310
FFFFFFFFFFFFFFFFF000FFFFFFFFFFFFFFFFFFFFFFFFFFFFFFFFFFFFFFFFFFFF
310
FFFFFFFFFFFFFFFFFFFFFFFFFFFFFFFFFFFFFFFFFFFFFFFFFFFFFFFFFFFFFFFF
310
FFFFFFFFFFFFFFFFFFFFFFFFFFFFFFFFFFFFFFFFFFFFFFFFFFFFFFFFFFFFFFFF
310
F000FFFFFFFFFFFFFFFFFFFFFFFFFFFFFFFFFFFFFFFFFFFFFFFFFFFFFFFFFFFF
310
FFFFFFFFFFFFFFFFFFFFFFFFFFFFFFFFFFFFFFFFFFFFFFFFFFFFFFFFFFFFFFFF
310
FFFFFFFFFFFFFFFFFFFFFFFFFFFFFFFFFFFFFFFFFFFFFFFFF000FFFFFFFFFFFF
310
FFFFFFFFFFFFFFFFFFFFFFFFFFFFFFFFFFFFFFFFFFFFFFFFFFFFFFFFFFFFFFFF
310
FFFFFFFFFFFFFFFFFFFFFFFFFFFFFFFFFFFFFFFFFFFFFFFFFFFFFFFFFFFFFFFF
310
FFFFFFFFFFFFFFFFFFFFFFFFFFFFFFFFF000FFFFFFFFFFFFFFFFFFFFFFFFFFFF
310
FFFFFFFFFFFFFFFFFFFFFFFFFFFFFFFFFFFFFFFFFFFFFFFFFFFFFFFFFFFFFFFF
310
FFFFFFFFFFFFFFFFFFFFFFFFFFFFFFFFFFFFFFFFFFFFFFFFFFFFFFFFFFFFFFFF
310
FFFFFFFFFFFFFFFFF000FFFFF80003FFFFFFFFFFFFFFFFFFFFFFFFFFFFFFFFFF
310
FFFFF00007FFFFFFFFFF00007FFFFFF800000000000000007FFFFFFFFFFFFFFF
310
FFFFFFFC001FFFFFFFFFFFFFFC001FFFFFFFFFFFFFFFFFFFFFFFFFFE0007FFFF
310
F000FFFF8000007FFFFFFFF8000FFFFFC0007FFFFF80007FFFFF0000007FFFFF
310
FFF8000007FFFFF800000000000000007FFFFFF0001FFFFFFFFFFFC00001FFFF
310
FFFFFFFFC00001FFFFFFFF000000000003FFFFE000007FFFF000FFFE0000000F
310
FFFFFFF0000FFFFF80007FFFFF80007FFFFC0000001FFFFFFFC0000001FFFFF8
310
00000000000000007FFFFFF0001FFFFFFFFFFE0000003FFFFFFFFFFE0000003F
310
FFFFFF000000000003FFFF0000000FFFF000FFF800000003FFFFFFF00007FFFF
310
80007FFFFF80007FFFF000000007FFFFFF000000003FFFF80000000000000000
310
7FFFFFF0001FFFFFFFFFF80000000FFFFFFFFFF80000000FFFFFFF0000000000
310
03FFFC00000003FFF000FFE000000000FFFFFFF00007FFFF80003FFFFF80007F
310
FFC000000001FFFFFC000000001FFFF800000000000000007FFFFFF0001FFFFF
310
FFFFE000000003FFFFFFFFE000000003FFFFFF000000000003FFF000000000FF
310
F000FF80000000007FFFFFF00007FFFF80003FFFFF80007FFF8000000000FFFF
310
F80000000007FFF800000000000000007FFFFFF0001FFFFFFFFFC000000001FF
310
FFFFFFC000000001FFFFFF000000000003FFC0000000007FF000FF0000000000
310
3FFFFFE00007FFFF00003FFFFF80007FFE00000000003FFFF00000000003FFF8
310
00000000000000007FFFFFF0001FFFFFFFFF8000000000FFFFFFFF8000000000
310
FFFFFF000000000003FF80000000003FF000FE00000000001FFFFFE00003FFFF
310
00003FFFFF80007FFC00000000001FFFE00000000001FFF8000001FFFE000000
310
7FFFFFF0001FFFFFFFFE00000000003FFFFFFE00000000003FFFFF0000000000
310
03FF00000000001FF000FC00000000000FFFFFE00003FFFF00001FFFFF80007F
310
F800000000001FFFC00000000000FFF8000001FFFE0000007FFFFFF0001FFFFF
310
FFFC00000000001FFFFFFC00000000001FFFFF000000000003FE00000000000F
310
F000F8000000000007FFFFE00003FFFF00001FFFFF80007FF800000000000FFF
310
800000000000FFF8000001FFFE0000007FFFFFF0001FFFFFFFF800000000000F
310
FFFFF800000000000FFFFF000000000003FC000000000007F000F80000000000
310
03FFFFC00003FFFE00001FFFFF80007FF0000000000007FF0000000000007FF8
310
000001FFFE0000007FFFFFF0001FFFFFFFF0000000000007FFFFF00000000000
310
07FFFF000000000003F8000000000003F000F0000000000003FFFFC00001FFFE
310
00001FFFFF80007FE0000000000007FE0000000000003FF8000001FFFE000000
310
7FFFFFF0001FFFFFFFF0000000000007FFFFF0000000000007FFFF0000000000
310
03F800001F800003F000E00001FFF00001FFFFC00001FFFE00000FFFFF80007F
310
E00001FFE00003FE00001FFF00003FF8000001FFFE0000007FFFFFF0001FFFFF
310
FFE000003E000003FFFFE000003E000003FFFF000000000003F00001FFF80001
310
F000E00007FFFC0001FFFFC00001FFFE00000FFFFF80007FC0000FFFFC0003FC
310
0000FFFFC0001FF8000001FFFE0000007FFFFFF0001FFFFFFFC00003FFE00001
310
FFFFC00003FFE00001FFFF0001FFFFFFFFF00007FFFE0001F000E0000FFFFF00
310
00FFFF800001FFFC00000FFFFF80007FC0001FFFFE0001FC0001FFFFE0001FF8
310
000001FFFE0000007FFFFFF0001FFFFFFF80000FFFF80000FFFF80000FFFF800
310
00FFFF0003FFFFFFFFE0000FFFFF8000F000C0003FFFFF8000FFFF800000FFFC
310
000007FFFF80007F80003FFFFF0001FC0003FFFFF0001FF8000001FFFE000000
310
7FFFFFF0001FFFFFFF80003FFFFE0000FFFF80003FFFFE0000FFFF0003FFFFFF
310
FFE0003FFFFF8000F000C0003FFFFF8000FFFF800000FFFC000007FFFF80007F
310
80007FFFFF8001F80007FFFFF8000FF8000001FFFE0000007FFFFFF0001FFFFF
310
FF00007FFFFF00007FFF00007FFFFF00007FFF0003FFFFFFFFE0003FFFFFC000
310
F000C0007FFFFFC000FFFF000000FFFC000007FFFF80007F8000FFFFFF8000F8
310
000FFFFFF8000FF8000001FFFE0000007FFFFFF0001FFFFFFF0000FFFFFF8000
310
7FFF0000FFFFFF80007FFF0003FFFFFFFFC0007FFFFFC00070008000FFFFFFC0
310
00FFFF000000FFF8000007FFFF80007F8000FFFFFF8000F8000FFFFFF8000FF8
310
000001FFFE0000007FFFFFF0001FFFFFFE0001FFFFFFC0003FFE0001FFFFFFC0
310
003FFF0003FFFFFFFFC0007FFFFFE00070008000FFFFFFC0007FFF0000007FF8
310
000003FFFF80007F0001FFFFFF8000F8000FFFFFF8000FF8000001FFFE000000
310
7FFFFFF0001FFFFFFE0001FFFFFFC0003FFE0001FFFFFFC0003FFF0003FFFFFF
310
FFC000FFFFFFE00070008000FFFFFFC0007FFF0000007FF8000003FFFF80007F
310
0001FFFFFF8000F8001FFFFFF8000FF8000001FFFE0000007FFFFFF0001FFFFF
310
FE0003FFFFFFE0003FFE0003FFFFFFE0003FFF0003FFFFFFFFC000FFFFFFE000
310
70008000FFFFFFC0007FFE0000007FF8000003FFFF80007F0001FFFFFF8000F0
310
001FFFFFF8000FF8000001FFFE0000007FFFFFF0001FFFFFFC0003FFFFFFE000
310
1FFC0003FFFFFFE0001FFF0003FFFFFFFFC000FFFFFFC00070008000FFFFFF80
310
007FFE0000007FF0000003FFFF80007F0001FFFFFF0000F0001FFFFFF8000FF8
310
000001FFFE0000007FFFFFF0001FFFFFFC0007FFFFFFF0001FFC0007FFFFFFF0
310
001FFF0003FFFFFFFFC000FFFFFFC00070008001FFFFFF0000FFFE0000003FF0
310
000001FFFF80007F0001FFFFFF0000F8001FFFFFF0000FF8000001FFFE000000
310
7FFFFFF0001FFFFFFC0007FFFFFFF0001FFC0007FFFFFFF0001FFF0003FFFFFF
310
FFC001FFFFFF80007000FFFFFFFFFE0000FFFE0008003FF0008001FFFF80007F
310
FFFFFFFFFC0000FFFFFFFFFFE0000FF8000001FFFE0000007FFFFFF0001FFFFF
310
F8000FFFFFFFF8000FF8000FFFFFFFF8000FFF0003FFFFFFFFFFFFFFFFFF0000
310
7000FFFFFFFFFC0000FFFC0008003FF0008001FFFF80007FFFFFFFFFF80001FF
310
FFFFFFFF80000FF8000001FFFE0000007FFFFFF0001FFFFFF8000FFFFFFFF800
310
0FF8000FFFFFFFF8000FFF0003FFFFFFFFFFFFFFFFFE0000F000FFFFFFFFE000
310
00FFFC000C003FE000C001FFFF80007FFFFFFFFFC00001FFFFFFFFFE00001FF8
310
000001FFFE0000007FFFFFF0001FFFFFF8000FFFFFFFF8000FF8000FFFFFFFF8
310
000FFF0003FFFFFFFFFFFFFFFFF00000F000FFFFFFFE000001FFFC000C001FE0
310
00C000FFFF80007FFFFFFFFE000001FFFFFFFFE000001FF80FFFFFFFFFFFFFC0
310
7FFFFFF0001FFFFFF8000FFFFFFFF8000FF8000FFFFFFFF8000FFF0003FFFFFF
310
FFFFFFFFFF800000F000FFFFFFC0000001FFFC001C001FE001C000FFFF80007F
310
FFFFFF80000003FFFFFFF80000001FF80FFFFFFFFFFFFFC07FFFFFF0001FFFFF
310
F8001FFFFFFFFC000FF8001FFFFFFFFC000FFF0003FFFFFFFFFFFFFFF0000001
310
F000FFFFF800000001FFF8001C001FE001C000FFFF80007FFFFFF800000003FF
310
FFFF800000003FF80FFFFFFFFFFFFFC07FFFFFF0001FFFFFF8001FFFFFFFFC00
310
0FF8001FFFFFFFFC000FFF0003FFFFFFFFFFFFFE00000001F000FFFFC0000000
310
03FFF8001E001FC001E000FFFF80007FFFFF8000000007FFFFFC000000003FF8
310
0FFFFFFFFFFFFFC07FFFFFF0001FFFFFF8001FFFFFFFFC000FF8001FFFFFFFFC
310
000FFF0003FFFFFFFFFFFFE000000003F000FFFE0000000007FFF8001E000FC0
310
01E0007FFF80007FFFFE0000000007FFFFE0000000007FF80FFFFFFFFFFFFFC0
310
7FFFFFF0001FFFFFF0001FFFFFFFFC0007F0001FFFFFFFFC0007FF0003FFFFFF
310
FFFFFF0000000003F000FFF80000000007FFF8001E000FC003E0007FFF80007F
310
FFF0000000000FFFFF8000000000FFF80FFFFFFFFFFFFFC07FFFFFF0001FFFFF
310
F0001FFFFFFFFC0007F0001FFFFFFFFC0007FF0003FFFFFFFFFFFC0000000007
310
F000FFE0000000000FFFF0003E000FC003E0007FFF80007FFFC0000000001FFF
310
FE0000000001FFF80FFFFFFFFFFFFFC07FFFFFF0001FFFFFF0001FFFFFFFFC00
310
07F0001FFFFFFFFC0007FF0003FFFFFFFFFFF0000000000FF000FFC000000000
310
1FFFF0003F000F8003F0003FFF80007FFF80000000003FFFF80000000003FFF8
310
0FFFFFFFFFFFFFC07FFFFFF0001FFFFFF0001FFFFFFFFC0007F0001FFFFFFFFC
310
0007FF0003FFFFFFFFFFE0000000001FF000FF00000000007FFFF0003F000780
310
03F0003FFF80007FFF00000000007FFFF00000000007FFF80FFFFFFFFFFFFFC0
310
7FFFFFF0001FFFFFF0001FFFFFFFFC0007F0001FFFFFFFFC0007FF0003FFFFFF
310
FFFF80000000007FF000FE0000000000FFFFE0003F00078007F0003FFF80007F
310
FE0000000001FFFFE0000000001FFFF80FFFFFFFFFFFFFC07FFFFFF0001FFFFF
310
F0001FFFFFFFFC0007F0001FFFFFFFFC0007FF0003FFFFFFFFFF0000000000FF
310
F000FC0000000003FFFFE0007F00078007F0003FFF80007FFC0000000007FFFF
310
C0000000007FFFF80FFFFFFFFFFFFFC07FFFFFF0001FFFFFF8001FFFFFFFFC00
310
0FF8001FFFFFFFFC000FFF0003FFFFFFFFFE0000000003FFF000FC000000000F
310
FFFFE0007F80070007F8001FFF80007FF8000000001FFFFF8000000001FFFFF8
310
0FFFFFFFFFFFFFC07FFFFFF0001FFFFFF8001FFFFFFFFC000FF8001FFFFFFFFC
310
000FFF0003FFFFFFFFFC000000000FFFF000F8000000007FFFFFE0007F800700
310
07F8001FFF80007FF000000000FFFFFF800000000FFFFFF80FFFFFFFFFFFFFC0
310
7FFFFFF0001FFFFFF8000FFFFFFFF8000FF8000FFFFFFFF8000FFF0003FFFFFF
310
FFFC000000007FFFF000F800000007FFFFFFC0007F8003000FF8001FFF80007F
310
F000000007FFFFFF000000007FFFFFF80FFFFFFFFFFFFFC07FFFFFF0001FFFFF
310
F8000FFFFFFFF8000FF8000FFFFFFFF8000FFF0003FFFFFFFFF80000000FFFFF
310
F000F0000000FFFFFFFFC000FF8003000FF8001FFF80007FE0000000FFFFFFFF
310
0000000FFFFFFFF8000001FFFE0000007FFFFFF0001FFFFFF8000FFFFFFFF800
310
0FF8000FFFFFFFF8000FFF0003FFFFFFFFF8000000FFFFFFF000F000000FFFFF
310
FFFFC000FFC002000FF8000FFF80007FE000001FFFFFFFFE000001FFFFFFFFF8
310
000001FFFE0000007FFFFFF0001FFFFFF8000FFFFFFFF8000FF8000FFFFFFFF8
310
000FFF0003FFFFFFFFF000001FFFFFFFF000E00000FFFFFFFFFFC000FFC00200
310
0FFC000FFF80007FE00001FFFFFFFFFE00001FFFFFFFFFF8000001FFFE000000
310
7FFFFFF0001FFFFFFC000FFFFFFFF8001FFC000FFFFFFFF8001FFF0003FFFFFF
310
FFF00001FFFFFFFFF000E00007FFFFFFFFFF8000FFC000001FFC000FFF80007F
310
C0000FFFFFFFFFFE0000FFFFFFFFFFF8000001FFFE0000007FFFFFF0001FFFFF
310
FC0007FFFFFFF0001FFC0007FFFFFFF0001FFF0003FFFFFFFFF00007FFFFFFFF
310
F000E0001FFFFFFFFFFF8000FFC000001FFC000FFF80007FC0003FFFFFFFFFFE
310
0001FFFFFFFFFFF8000001FFFE0000007FFFFFF0001FFFFFFC0007FFFFFFF000
310
1FFC0007FFFFFFF0001FFF0003FFFFFFFFF0001FFFFFFFFFF000E0003FFFFF00
310
03FF8001FFE000001FFC0007FF80007FC0007FFFFF0007FC0003FFFFF0003FF8
310
000001FFFE0000007FFFFFF0001FFFFFFC0003FFFFFFE0001FFC0003FFFFFFE0
310
001FFF0003FFFFFFFFF0003FFFFFFFFFF000E0003FFFFF0001FF8001FFE00000
310
1FFE0007FF80007FC0007FFFFE0003FC0007FFFFE0003FF8000001FFFE000000
310
7FFFFFF0001FFFFFFE0003FFFFFFE0003FFE0003FFFFFFE0003FFF0003FFFFFF
310
FFF0003FFFFF8001F000E0003FFFFF0001FF0001FFE000001FFE0007FF80007F
310
C0007FFFFE0003FC0007FFFFE0003FF8000001FFFE0000007FFFFFF0001FFFFF
310
FE0001FFFFFFC0003FFE0001FFFFFFC0003FFF0003FFFFFFFFF0003FFFFF0001
310
F000E0003FFFFF0003FF0001FFE000003FFE0007FF80007FC0007FFFFE0003FC
310
0007FFFFE0003FF8000001FFFE0000007FFFFFF0001FFFFFFF0001FFFFFFC000
310
7FFF0001FFFFFFC0007FFF0003FFFFFFFFF0003FFFFF0001F000E0003FFFFE00
310
03FF0003FFF000003FFE0003FF80007FC0007FFFFC0003FE0007FFFFE0003FF8
310
000001FFFE0000007FFFFFF0001FFFFFFF0000FFFFFF80007FFF0000FFFFFF80
310
007FFF0003FFFFFFFFF0003FFFFF0001F000E0003FFFFE0003FF0003FFF00000
310
3FFF0003FF80007FC0007FFFFC0007FE0007FFFFC0003FF8000001FFFE000000
310
7FFFFFF0001FFFFFFF80007FFFFF0000FFFF80007FFFFF0000FFFF0003FFFFFF
310
FFF0003FFFFF0003F000E0003FFFFC0003FE0003FFF000003FFF0003FF80007F
310
E0003FFFF80007FE0003FFFFC0007FF8000001FFFE0000007FFFFFF0001FFFFF
310
FF80003FFFFE0000FFFF80003FFFFE0000FFFF0003FFFFFFFFF0001FFFFE0003
310
F000F0001FFFF80003FE0003FFF000007FFF0001FF80007FE0003FFFF00007FE
310
0001FFFF80007FF8000001FFFE0000007FFFFFF0001FFFFFFFC0000FFFF80001
310
FFFFC0000FFFF80001FFFF0003FFFFFFFFF0001FFFFC0003F000F0000FFFF000
310
07FE0007FFF800007FFF0001FF80007FE0001FFFE00007FF0000FFFE00007FF8
310
000001FFFE0000007FFFFFF0001FFFFFFFC00003FFE00001FFFFC00003FFE000
310
01FFFF0003FFFFFFFFF8000FFFF80003F000F00003FFC00007FC0007FFF80000
310
7FFF8001FF80007FF00007FF80000FFF00007FF80000FFF8000001FFFE000000
310
7F80000000000001FFE000003E000003FFFFE000003E000003FFFF0003FFFFFF
310
FFF80003FFE00007F000F800000000000FFC0007FFF800007FFF8001FF80007F
310
F000000000000FFF000000000000FFF8000001FFFE0000007F80000000000001
310
FFF0000000000007FFFFF0000000000007FFFF0003FFFFFFFFFC00007E000007
310
F000F800000000000FFC0007FFF80000FFFF8000FF80007FF800000000001FFF
310
800000000001FFF8000001FFFE0000007F80000000000001FFF800000000000F
310
FFFFF800000000000FFFFF0003FFFFFFFFFC00000000000FF000FC0000000000
310
1FFC0007FFFC0000FFFF8000FF80007FF800000000003FFFC00000000001FFF8
310
000001FFFE0000007F80000000000001FFF800000000000FFFFFF80000000000
310
0FFFFF0003FFFFFFFFFE00000000001FF000FE00000000003FF8000FFFFC0000
310
FFFF8000FF80007FFC00000000003FFFC00000000003FFF8000001FFFE000000
310
7F80000000000001FFFC00000000001FFFFFFC00000000001FFFFF0003FFFFFF
310
FFFF00000000001FF000FF00000000003FF8000FFFFC0000FFFFC000FF80007F
310
FE00000000007FFFE00000000007FFF8000001FFFE0000007F80000000000001
310
FFFE00000000003FFFFFFE00000000003FFFFF0003FFFFFFFFFF80000000003F
310
F000FF80000000007FF8000FFFFC0001FFFFC0007F80007FFF0000000000FFFF
310
F0000000000FFFF800000000000000007F80000000000001FFFF8000000000FF
310
FFFFFF8000000000FFFFFF0003FFFFFFFFFFC0000000007FF000FFC000000000
310
FFF8000FFFFE0001FFFFC0007F80007FFF8000000001FFFFF8000000001FFFF8
310
00000000000000007F80000000000001FFFFC000000001FFFFFFFFC000000001
310
FFFFFF0003FFFFFFFFFFE000000000FFF000FFE000000003FFF0001FFFFE0001
310
FFFFC0007F80007FFFC000000007FFFFFE000000003FFFF80000000000000000
310
7F80000000000001FFFFE000000003FFFFFFFFE000000003FFFFFF0003FFFFFF
310
FFFFF000000003FFF000FFF80000000FFFF0001FFFFE0001FFFFE0007F80007F
310
FFF00000000FFFFFFF00000000FFFFF800000000000000007F80000000000001
310
FFFFF80000000FFFFFFFFFF80000000FFFFFFF0003FFFFFFFFFFFC0000000FFF
310
F000FFFE0000003FFFF0001FFFFE0003FFFFE0003F80007FFFFC0000003FFFFF
310
FFC0000003FFFFF800000000000000007F80000000000001FFFFFE0000003FFF
310
FFFFFFFE0000003FFFFFFF0003FFFFFFFFFFFF0000003FFFF000FFFF800000FF
310
FFF0001FFFFF0003FFFFE0003F80007FFFFF000001FFFFFFFFF800001FFFFFF8
310
00000000000000007F80000000000001FFFFFFC00001FFFFFFFFFFFFC00001FF
310
FFFFFF0003FFFFFFFFFFFFC00000FFFFF000FFFFF8000FFFFFFFFFFFFFFFFFFF
310
FFFFFFFFFFFFFFFFFFFFF0001FFFFFFFFFFF0000FFFFFFF80000000000000000
310
7FFFFFFFFFFFFFFFFFFFFFFC001FFFFFFFFFFFFFFC001FFFFFFFFFFFFFFFFFFF
310
FFFFFFFC001FFFFFF000FFFFFFFFFFFFFFFFFFFFFFFFFFFFFFFFFFFFFFFFFFFF
310
FFFFFFFFFFFFFFFFFFFFFFFFFFFFFFFFFFFFFFFFFFFFFFFFFFFFFFFFFFFFFFFF
310
FFFFFFFFFFFFFFFFFFFFFFFFFFFFFFFFFFFFFFFFFFFFFFFFFFFFFFFFFFFFFFFF
310
F000FFFFFFFFFFFFFFFFFFFFFFFFFFFFFFFFFFFFFFFFFFFFFFFFFFFFFFFFFFFF
310
FFFFFFFFFFFFFFFFFFFFFFFFFFFFFFFFFFFFFFFFFFFFFFFFFFFFFFFFFFFFFFFF
310
FFFFFFFFFFFFFFFFFFFFFFFFFFFFFFFFFFFFFFFFFFFFFFFFF000FFFFFFFFFFFF
310
FFFFFFFFFFFFFFFFFFFFFFFFFFFFFFFFFFFFFFFFFFFFFFFFFFFFFFFFFFFFFFFF
310
FFFFFFFFFFFFFFFFFFFFFFFFFFFFFFFFFFFFFFFFFFFFFFFFFFFFFFFFFFFFFFFF
310
FFFFFFFFFFFFFFFFFFFFFFFFFFFFFFFFF000FFFFFFFFFFFFFFFFFFFFFFFFFFFF
310
FFFFFFFFFFFFFFFFFFFFFFFFFFFFFFFFFFFFFFFFFFFFFFFFFFFFFFFFFFFFFFFF
310
FFFFFFFFFFFFFFFFFFFFFFFFFFFFFFFFFFFFFFFFFFFFFFFFFFFFFFFFFFFFFFFF
310
FFFFFFFFFFFFFFFFF000FFFFFFFFFFFFFFFFFFFFFFFFFFFFFFFFFFFFFFFFFFFF
310
FFFFFFFFFFFFFFFFFFFFFFFFFFFFFFFFFFFFFFFFFFFFFFFFFFFFFFFFFFFFFFFF
310
FFFFFFFFFFFFFFFFFFFFFFFFFFFFFFFFFFFFFFFFFFFFFFFFFFFFFFFFFFFFFFFF
310
F000FFFFFFFFFFFFFFFFFFFFFFFFFFFFFFFFFFFFFFFFFFFFFFFFFFFFFFFFFFFF
310
FFFFFFFFFFFFFFFFFFFFFFFFFFFFFFFFFFFFFFFFFFFFFFFFFFFFFFFFFFFFFFFF
310
FFFFFFFFFFFFFFFFFFFFFFFFFFFFFFFFFFFFFFFFFFFFFFFFF000FFFFFFFFFFFF
310
FFFFFFFFFFFFFFFFFFFFFFFFFFFFFFFFFFFFFFFFFFFFFFFFFFFFFFFFFFFFFFFF
310
FFFFFFFFFFFFFFFFFFFFFFFFFFFFFFFFFFFFFFFFFFFFFFFFFFFFFFFFFFFFFFFF
310
FFFFFFFFFFFFFFFFFFFFFFFFFFFFFFFFF000FFFFFFFFFFFFFFFFFFFFFFFFFFFF
310
FFFFFFFFFFFFFFFFFFFFFFFFFFFFFFFFFFFFFFFFFFFFFFFFFFFFFFFFFFFFFFFF
310
FFFFFFFFFFFFFFFFFFFFFFFFFFFFFFFFFFFFFFFFFFFFFFFFFFFFFFFFFFFFFFFF
310
FFFFFFFFFFFFFFFFF000FFFFFFFFFFFFFFFFFFFFFFFFFFFFFFFFFFFFFFFFFFFF
310
FFFFFFFFFFFFFFFFFFFFFFFFFFFFFFFFFFFFFFFFFFFFFFFFFFFFFFFFFFFFFFFF
310
FFFFFFFFFFFFFFFFFFFFFFFFFFFFFFFFFFFFFFFFFFFFFFFFFFFFFFFFFFFFFFFF
310
F000FFFFFFFFFFFFFFFFFFFFFFFFFFFFFFFFFFFFFFFFFFFFFFFFFFFFFFFFFFFF
310
FFFFFFFFFFFFFFFFFFFFFFFFFFFFFFFFFFFFFFFFFFFFFFFFFFFFFFFFFFFFFFFF
310
FFFFFFFFFFFFFFFFFFFFFFFFFFFFFFFFFFFFFFFFFFFFFFFFF000FFFFFFFFFFFF
310
FFFFFFFFFFFFFFFFFFFFFFFFFFFFFFFFFFFFFFFFFFFFFFFFFFFFFFFFFFFFFFFF
310
FFFFFFFFFFFFFFFFFFFFFFFFFFFFFFFFFFFFFFFFFFFFFFFFFFFFFFFFFFFFFFFF
310
FFFFFFFFFFFFFFFFFFFFFFFFFFFFFFFFF000FFFFFFFFFFFFFFFFFFFFFFFFFFFF
310
FFFFFFFFFFFFFFFFFFFFFFFFFFFFFFFFFFFFFFFFFFFFFFFFFFFFFFFFFFFFFFFF
310
FFFFFFFFFFFFFFFFFFFFFFFFFFFFFFFFFFFFFFFFFFFFFFFFFFFFFFFFFFFFFFFF
310
FFFFFFFFFFFFFFFFF000FFFFFFFFFFFFFFFFFFFFFFFFFFFFFFFFFFFFFFFFFFFF
310
FFFFFFFFFFFFFFFFFFFFFFFFFFFFFFFFFFFFFFFFFFFFFFFFFFFFFFFFFFFFFFFF
310
FFFFFFFFFFFFFFFFFFFFFFFFFFFFFFFFFFFFFFFFFFFFFFFFFFFFFFFFFFFFFFFF
310
F000FFFFFFFFFFFFFFFFFFFFFFFFFFFFFFFFFFFFFFFFFFFFFFFFFFFFFFFFFFFF
310
FFFFFFFFFFFFFFFFFFFFFFFFFFFFFFFFFFFFFFFFFFFFFFFFFFFFFFFFFFFFFFFF
310
FFFFFFFFFFFFFFFFFFFFFFFFFFFFFFFFFFFFFFFFFFFFFFFFF000FFFFFFFFFFFF
310
FFFFFFFFFFFFFFFFFFFFFFFFFFFFFFFFFFFFFFFFFFFFFFFFFFFFFFFFFFFFFFFF
310
FFFFFFFFFFFFFFFFFFFFFFFFFFFFFFFFFFFFFFFFFFFFFFFFFFFFFFFFFFFFFFFF
310
FFFFFFFFFFFFFFFFFFFFFFFFFFFFFFFFF000FFFFFFFFFFFFFFFFFFFFFFFFFFFF
310
FFFFFFFFFFFFFFFFFFFFFFFFFFFFFFFFFFFFFFFFFFFFFFFFFFFFFFFFFFFFFFFF
310
FFFFFFFFFFFFFFFFFFFFFFFFFFFFFFFFFFFFFFFFFFFFFFFFFFFFFFFFFFFFFFFF
310
FFFFFFFFFFFFFFFFF000FFFFFFFFFFFFFFFFFFFFFFFFFFFFFFFFFFFFFFFFFFFF
310
FFFFFFFFFFFFFFFFFFFFFFFFFFFFFFFFFFFFFFFFFFFFFFFFFFFFFFFFFFFFFFFF
310
FFFFFFFFFFFFFFFFFFFFFFFFFFFFFFFFFFFFFFFFFFFFFFFFFFFFFFFFFFFFFFFF
310
F000FFFFFFFFFFFFFFFFFFFFFFFFFFFFFFFFFFFFFFFFFFFFFFFFFFFFFFFFFFFF
310
FFFFFFFFFFFFFFFFFFFFFFFFFFFFFFFFFFFFFFFFFFFFFFFFFFFFFFFFFFFFFFFF
310
FFFFFFFFFFFFFFFFFFFFFFFFFFFFFFFFFFFFFFFFFFFFFFFFF000FFFFFFFFFFFF
310
FFFFFFFFFFFFFFFFFFFFFFFFFFFFFFFFFFFFFFFFFFFFFFFFFFFFFFFFFFFFFFFF
310
FFFFFFFFFFFFFFFFFFFFFFFFFFFFFFFFFFFFFFFFFFFFFFFFFFFFFFFFFFFFFFFF
310
FFFFFFFFFFFFFFFFFFFFFFFFFFFFFFFFF000FFFFFFFFFFFFFFFFFFFFFFFFFFFF
310
FFFFFFFFFFFFFFFFFFFFFFFFFFFFFFFFFFFFFFFFFFFFFFFFFFFFFFFFFFFFFFFF
310
FFFFFFFFFFFFFFFFFFFFFFFFFFFFFFFFFFFFFFFFFFFFFFFFFFFFFFFFFFFFFFFF
310
FFFFFFFFFFFFFFFFF000FFFFFFFFFFFFFFFFFFFFFFFFFFFFFFFFFFFFFFFFFFFF
310
FFFFFFFFFFFFFFFFFFFFFFFFFFFFFFFFFFFFFFFFFFFFFFFFFFFFFFFFFFFFFFFF
310
FFFFFFFFFFFFFFFFFFFFFFFFFFFFFFFFFFFFFFFFFFFFFFFFFFFFFFFFFFFFFFFF
310
F000FFFFFFFFFFFFFFFFFFFFFFFFFFFFFFFFFFFFFFFFFFFFFFFFFFFFFFFFFFFF
310
FFFFFFFFFFFFFFFFFFFFFFFFFFFFFFFFFFFFFFFFFFFFFFFFFFFFFFFFFFFFFFFF
310
FFFFFFFFFFFFFFFFFFFFFFFFFFFFFFFFFFFFFFFFFFFFFFFFF000FFFFFFFFFFFF
310
FFFFFFFFFFFFFFFFFFFFFFFFFFFFFFFFFFFFFFFFFFFFFFFFFFFFFFFFFFFFFFFF
310
FFFFFFFFFFFFFFFFFFFFFFFFFFFFFFFFFFFFFFFFFFFFFFFFFFFFFFFFFFFFFFFF
310
FFFFFFFFFFFFFFFFFFFFFFFFFFFFFFFFF0000000000000000000000000000000
310
0000000000000000000000000000000000000000000000000000000000000000
310
0000000000000000000000000000000000000000000000000000000000000000
310
0000000000000000000000000000000000000000000000000000000000000000
310
0000000000000000000000000000000000000000000000000000000000000000
310
0000000000000000000000000000000000000000000000000000000000000000
310
0000000000000000000000000000000000000000000000000000000000000000
310
0000000000000000000000000000000000000000000000000000000000000000
310
0000000000000000000000000000000000000000000000000000000000000000
310
0000000000000000000000000000000000000000000000000000000000000000
310
0000000000000000000000000000000000000000000000000000000000000000
310
0000000000000000000000000000000000000000000000000000000000000000
310
0000000000000000000000000000000000000000000000000000000000000000
310
0000000000000000000000000000000000000000000000000000000000000000
310
0000000000000000000000000000000000000000000000000000000000000000
310
0000000000000000000000000000000000000000000000000000000000000000
  1
OLE
  0
ENDSEC
  0
SECTION
  2
OBJECTS
  0
DICTIONARY
  5
C
330
0
100
AcDbDictionary
281
     1
  3
ACAD_GROUP
350
D
  3
ACAD_LAYOUT
350
1A
  3
ACAD_MLINESTYLE
350
17
  3
ACAD_PLOTSETTINGS
350
19
  3
ACAD_PLOTSTYLENAME
350
E
  0
DICTIONARY
  5
D
102
{ACAD_REACTORS
330
C
102
}
330
C
100
AcDbDictionary
281
     1
  0
DICTIONARY
  5
1A
102
{ACAD_REACTORS
330
C
102
}
330
C
100
AcDbDictionary
281
     1
  3
Layout1
350
1E
  3
Layout2
350
26
  3
Model
350
22
  0
DICTIONARY
  5
17
102
{ACAD_REACTORS
330
C
102
}
330
C
100
AcDbDictionary
281
     1
  3
Standard
350
18
  0
DICTIONARY
  5
19
102
{ACAD_REACTORS
330
C
102
}
330
C
100
AcDbDictionary
281
     1
  0
ACDBDICTIONARYWDFLT
  5
E
102
{ACAD_REACTORS
330
C
102
}
330
C
100
AcDbDictionary
281
     1
  3
Normal
350
F
100
AcDbDictionaryWithDefault
340
F
  0
LAYOUT
  5
1E
102
{ACAD_REACTORS
330
1A
102
}
330
1A
100
AcDbPlotSettings
  1

  2
none_device
  4

  6

 40
0.0
 41
0.0
 42
0.0
 43
0.0
 44
0.0
 45
0.0
 46
0.0
 47
0.0
 48
0.0
 49
0.0
140
0.0
141
0.0
142
1.0
143
1.0
 70
   688
 72
     0
 73
     0
 74
     5
  7

 75
    16
147
1.0
148
0.0
149
0.0
100
AcDbLayout
  1
Layout1
 70
     1
 71
     1
 10
0.0
 20
0.0
 11
420.0
 21
297.0
 12
0.0
 22
0.0
 32
0.0
 14
1.0000000000E+20
 24
1.0000000000E+20
 34
1.0000000000E+20
 15
-1.0000000000E+20
 25
-1.0000000000E+20
 35
-1.0000000000E+20
146
0.0
 13
0.0
 23
0.0
 33
0.0
 16
1.0
 26
0.0
 36
0.0
 17
0.0
 27
1.0
 37
0.0
 76
     0
330
1B
  0
LAYOUT
  5
26
102
{ACAD_REACTORS
330
1A
102
}
330
1A
100
AcDbPlotSettings
  1

  2
none_device
  4

  6

 40
0.0
 41
0.0
 42
0.0
 43
0.0
 44
0.0
 45
0.0
 46
0.0
 47
0.0
 48
0.0
 49
0.0
140
0.0
141
0.0
142
1.0
143
1.0
 70
   688
 72
     0
 73
     0
 74
     5
  7

 75
    16
147
1.0
148
0.0
149
0.0
100
AcDbLayout
  1
Layout2
 70
     1
 71
     2
 10
0.0
 20
0.0
 11
0.0
 21
0.0
 12
0.0
 22
0.0
 32
0.0
 14
0.0
 24
0.0
 34
0.0
 15
0.0
 25
0.0
 35
0.0
146
0.0
 13
0.0
 23
0.0
 33
0.0
 16
1.0
 26
0.0
 36
0.0
 17
0.0
 27
1.0
 37
0.0
 76
     0
330
23
  0
LAYOUT
  5
22
102
{ACAD_REACTORS
330
1A
102
}
330
1A
100
AcDbPlotSettings
  1

  2
none_device
  4

  6

 40
0.0
 41
0.0
 42
0.0
 43
0.0
 44
0.0
 45
0.0
 46
0.0
 47
0.0
 48
0.0
 49
0.0
140
0.0
141
0.0
142
1.0
143
1.0
 70
  1712
 72
     0
 73
     0
 74
     0
  7

 75
     0
147
1.0
148
0.0
149
0.0
100
AcDbLayout
  1
Model
 70
     1
 71
     0
 10
0.0
 20
0.0
 11
297.0
 21
210.0
 12
0.0
 22
0.0
 32
0.0
 14
0.0
 24
0.0
 34
0.0
 15
297.0
 25
210.0
 35
0.0
146
0.0
 13
0.0
 23
0.0
 33
0.0
 16
1.0
 26
0.0
 36
0.0
 17
0.0
 27
1.0
 37
0.0
 76
     0
330
1F
331
29
  0
MLINESTYLE
  5
18
102
{ACAD_REACTORS
330
17
102
}
330
17
100
AcDbMlineStyle
  2
Standard
 70
     0
  3

 62
   256
 51
90.0
 52
90.0
 71
     2
 49
0.5
 62
   256
  6
BYLAYER
 49
-0.5
 62
   256
  6
BYLAYER
  0
ACDBPLACEHOLDER
  5
F
102
{ACAD_REACTORS
330
E
102
}
330
E
  0
ENDSEC
  0
EOF
