  0
SECTION
  2
HEADER
  9
$ACADVER
  1
AC1015
  9
$ACADMAINTVER
 70
     6
  9
$DWGCODEPAGE
  3
ANSI_1252
  9
$INSBASE
 10
0.0
 20
0.0
 30
0.0
  9
$EXTMIN
 10
0.0
 20
0.0
 30
0.0
  9
$EXTMAX
 10
297.0
 20
210.0
 30
0.0
  9
$LIMMIN
 10
0.0
 20
0.0
  9
$LIMMAX
 10
297.0
 20
210.0
  9
$ORTHOMODE
 70
     0
  9
$REGENMODE
 70
     1
  9
$FILLMODE
 70
     1
  9
$QTEXTMODE
 70
     0
  9
$MIRRTEXT
 70
     1
  9
$LTSCALE
 40
1.0
  9
$ATTMODE
 70
     1
  9
$TEXTSIZE
 40
2.0
  9
$TRACEWID
 40
1.0
  9
$TEXTSTYLE
  7
Standard
  9
$CLAYER
  8
0
  9
$CELTYPE
  6
ByLayer
  9
$CECOLOR
 62
   256
  9
$CELTSCALE
 40
1.0
  9
$DISPSILH
 70
     0
  9
$DIMSCALE
 40
1.0
  9
$DIMASZ
 40
3.0
  9
$DIMEXO
 40
0.0
  9
$DIMDLI
 40
3.75
  9
$DIMRND
 40
0.0
  9
$DIMDLE
 40
0.0
  9
$DIMEXE
 40
1.0
  9
$DIMTP
 40
0.0
  9
$DIMTM
 40
0.0
  9
$DIMTXT
 40
2.0
  9
$DIMCEN
 40
2.5
  9
$DIMTSZ
 40
0.0
  9
$DIMTOL
 70
     0
  9
$DIMLIM
 70
     0
  9
$DIMTIH
 70
     1
  9
$DIMTOH
 70
     1
  9
$DIMSE1
 70
     0
  9
$DIMSE2
 70
     0
  9
$DIMTAD
 70
     1
  9
$DIMZIN
 70
     0
  9
$DIMBLK
  1

  9
$DIMASO
 70
     1
  9
$DIMSHO
 70
     1
  9
$DIMPOST
  1

  9
$DIMAPOST
  1

  9
$DIMALT
 70
     0
  9
$DIMALTD
 70
     3
  9
$DIMALTF
 40
0.0393700787
  9
$DIMLFAC
 40
1.0
  9
$DIMTOFL
 70
     1
  9
$DIMTVP
 40
0.0
  9
$DIMTIX
 70
     0
  9
$DIMSOXD
 70
     0
  9
$DIMSAH
 70
     0
  9
$DIMBLK1
  1

  9
$DIMBLK2
  1

  9
$DIMSTYLE
  2
ISO-25
  9
$DIMCLRD
 70
     0
  9
$DIMCLRE
 70
     0
  9
$DIMCLRT
 70
     0
  9
$DIMTFAC
 40
1.0
  9
$DIMGAP
 40
1.524
  9
$DIMJUST
 70
     0
  9
$DIMSD1
 70
     0
  9
$DIMSD2
 70
     0
  9
$DIMTOLJ
 70
     0
  9
$DIMTZIN
 70
     0
  9
$DIMALTZ
 70
     0
  9
$DIMALTTZ
 70
     0
  9
$DIMUPT
 70
     0
  9
$DIMDEC
 70
     2
  9
$DIMTDEC
 70
     3
  9
$DIMALTU
 70
     2
  9
$DIMALTTD
 70
     3
  9
$DIMTXSTY
  7
Standard
  9
$DIMAUNIT
 70
     0
  9
$DIMADEC
 70
     2
  9
$DIMALTRND
 40
0.0
  9
$DIMAZIN
 70
     0
  9
$DIMDSEP
 70
    44
  9
$DIMATFIT
 70
     3
  9
$DIMFRAC
 70
     0
  9
$DIMLDRBLK
  1

  9
$DIMLUNIT
 70
     2
  9
$DIMLWD
 70
    -2
  9
$DIMLWE
 70
    -2
  9
$DIMTMOVE
 70
     0
  9
$LUNITS
 70
     2
  9
$LUPREC
 70
     2
  9
$SKETCHINC
 40
1.0
  9
$FILLETRAD
 40
10.0
  9
$AUNITS
 70
     0
  9
$AUPREC
 70
     2
  9
$MENU
  1
.
  9
$ELEVATION
 40
0.0
  9
$PELEVATION
 40
0.0
  9
$THICKNESS
 40
0.0
  9
$LIMCHECK
 70
     0
  9
$CHAMFERA
 40
10.0
  9
$CHAMFERB
 40
10.0
  9
$CHAMFERC
 40
20.0
  9
$CHAMFERD
 40
0.0
  9
$SKPOLY
 70
     0
  9
$TDCREATE
 40
2456056.565714595
  9
$TDUCREATE
 40
2456056.482381261
  9
$TDUPDATE
 40
2456056.565716215
  9
$TDUUPDATE
 40
2456056.482382882
  9
$TDINDWG
 40
0.0000000116
  9
$TDUSRTIMER
 40
0.0000000116
  9
$USRTIMER
 70
     1
  9
$ANGBASE
 50
0.0
  9
$ANGDIR
 70
     0
  9
$PDMODE
 70
     0
  9
$PDSIZE
 40
-1.0
  9
$PLINEWID
 40
0.0
  9
$SPLFRAME
 70
     0
  9
$SPLINETYPE
 70
     6
  9
$SPLINESEGS
 70
     8
  9
$HANDSEED
  5
2AD
  9
$SURFTAB1
 70
     6
  9
$SURFTAB2
 70
     6
  9
$SURFTYPE
 70
     6
  9
$SURFU
 70
     6
  9
$SURFV
 70
     6
  9
$UCSBASE
  2

  9
$UCSNAME
  2

  9
$UCSORG
 10
0.0
 20
0.0
 30
0.0
  9
$UCSXDIR
 10
1.0
 20
0.0
 30
0.0
  9
$UCSYDIR
 10
0.0
 20
1.0
 30
0.0
  9
$UCSORTHOREF
  2

  9
$UCSORTHOVIEW
 70
     0
  9
$UCSORGTOP
 10
0.0
 20
0.0
 30
0.0
  9
$UCSORGBOTTOM
 10
0.0
 20
0.0
 30
0.0
  9
$UCSORGLEFT
 10
0.0
 20
0.0
 30
0.0
  9
$UCSORGRIGHT
 10
0.0
 20
0.0
 30
0.0
  9
$UCSORGFRONT
 10
0.0
 20
0.0
 30
0.0
  9
$UCSORGBACK
 10
0.0
 20
0.0
 30
0.0
  9
$PUCSBASE
  2

  9
$PUCSNAME
  2

  9
$PUCSORG
 10
0.0
 20
0.0
 30
0.0
  9
$PUCSXDIR
 10
1.0
 20
0.0
 30
0.0
  9
$PUCSYDIR
 10
0.0
 20
1.0
 30
0.0
  9
$PUCSORTHOREF
  2

  9
$PUCSORTHOVIEW
 70
     0
  9
$PUCSORGTOP
 10
0.0
 20
0.0
 30
0.0
  9
$PUCSORGBOTTOM
 10
0.0
 20
0.0
 30
0.0
  9
$PUCSORGLEFT
 10
0.0
 20
0.0
 30
0.0
  9
$PUCSORGRIGHT
 10
0.0
 20
0.0
 30
0.0
  9
$PUCSORGFRONT
 10
0.0
 20
0.0
 30
0.0
  9
$PUCSORGBACK
 10
0.0
 20
0.0
 30
0.0
  9
$USERI1
 70
     0
  9
$USERI2
 70
     0
  9
$USERI3
 70
     0
  9
$USERI4
 70
     0
  9
$USERI5
 70
     0
  9
$USERR1
 40
0.0
  9
$USERR2
 40
0.0
  9
$USERR3
 40
0.0
  9
$USERR4
 40
0.0
  9
$USERR5
 40
0.0
  9
$WORLDVIEW
 70
     1
  9
$SHADEDGE
 70
     3
  9
$SHADEDIF
 70
    70
  9
$TILEMODE
 70
     1
  9
$MAXACTVP
 70
    64
  9
$PINSBASE
 10
0.0
 20
0.0
 30
0.0
  9
$PLIMCHECK
 70
     0
  9
$PEXTMIN
 10
1.0000000000E+20
 20
1.0000000000E+20
 30
1.0000000000E+20
  9
$PEXTMAX
 10
-1.0000000000E+20
 20
-1.0000000000E+20
 30
-1.0000000000E+20
  9
$PLIMMIN
 10
0.0
 20
0.0
  9
$PLIMMAX
 10
420.0
 20
297.0
  9
$UNITMODE
 70
     0
  9
$VISRETAIN
 70
     1
  9
$PLINEGEN
 70
     0
  9
$PSLTSCALE
 70
     1
  9
$TREEDEPTH
 70
  3020
  9
$CMLSTYLE
  2
Standard
  9
$CMLJUST
 70
     0
  9
$CMLSCALE
 40
20.0
  9
$PROXYGRAPHICS
 70
     1
  9
$MEASUREMENT
 70
     1
  9
$CELWEIGHT
370
    -1
  9
$ENDCAPS
280
     0
  9
$JOINSTYLE
280
     0
  9
$LWDISPLAY
290
     1
  9
$INSUNITS
 70
     4
  9
$HYPERLINKBASE
  1

  9
$STYLESHEET
  1

  9
$XEDIT
290
     1
  9
$CEPSNTYPE
380
     0
  9
$PSTYLEMODE
290
     1
  9
$FINGERPRINTGUID
  2
{5F8D4D04-2453-4F2E-9E4C-B789DAFE44C1}
  9
$VERSIONGUID
  2
{FAEB1C32-E019-11D5-929B-00C0DF256EC4}
  9
$EXTNAMES
290
     1
  9
$PSVPSCALE
 40
0.0
  9
$OLESTARTUP
290
     0
  0
ENDSEC
  0
SECTION
  2
CLASSES
  0
CLASS
  1
ACDBDICTIONARYWDFLT
  2
AcDbDictionaryWithDefault
  3
ObjectDBX Classes
 90
        0
280
     0
281
     0
  0
CLASS
  1
VISUALSTYLE
  2
AcDbVisualStyle
  3
ObjectDBX Classes
 90
     4095
280
     0
281
     0
  0
CLASS
  1
MATERIAL
  2
AcDbMaterial
  3
ObjectDBX Classes
 90
     1153
280
     0
281
     0
  0
CLASS
  1
ACDBPLACEHOLDER
  2
AcDbPlaceHolder
  3
ObjectDBX Classes
 90
        0
280
     0
281
     0
  0
CLASS
  1
LAYOUT
  2
AcDbLayout
  3
ObjectDBX Classes
 90
        0
280
     0
281
     0
  0
ENDSEC
  0
SECTION
  2
TABLES
  0
TABLE
  2
VPORT
  5
8
330
0
100
AcDbSymbolTable
 70
     1
  0
VPORT
  5
29
330
8
100
AcDbSymbolTableRecord
100
AcDbViewportTableRecord
  2
*Active
 70
     0
 10
0.0
 20
0.0
 11
1.0
 21
1.0
 12
148.5
 22
105.0
 13
0.0
 23
0.0
 14
10.0
 24
10.0
 15
10.0
 25
10.0
 16
0.0
 26
0.0
 36
1.0
 17
0.0
 27
0.0
 37
0.0
 40
210.0
 41
1.4142857143
 42
50.0
 43
0.0
 44
0.0
 50
0.0
 51
0.0
 71
     0
 72
  2000
 73
     1
 74
     3
 75
     0
 76
     0
 77
     0
 78
     0
281
     0
 65
     1
110
0.0
120
0.0
130
0.0
111
1.0
121
0.0
131
0.0
112
0.0
122
1.0
132
0.0
 79
     0
146
0.0
  0
ENDTAB
  0
TABLE
  2
LTYPE
  5
5
330
0
100
AcDbSymbolTable
 70
     6
  0
LTYPE
  5
14
330
5
100
AcDbSymbolTableRecord
100
AcDbLinetypeTableRecord
  2
ByBlock
 70
     0
  3

 72
    65
 73
     0
 40
0.0
  0
LTYPE
  5
15
330
5
100
AcDbSymbolTableRecord
100
AcDbLinetypeTableRecord
  2
ByLayer
 70
     0
  3

 72
    65
 73
     0
 40
0.0
  0
LTYPE
  5
16
330
5
100
AcDbSymbolTableRecord
100
AcDbLinetypeTableRecord
  2
Continuous
 70
     0
  3
Solid line
 72
    65
 73
     0
 40
0.0
  0
LTYPE
  5
3F
330
5
100
AcDbSymbolTableRecord
100
AcDbLinetypeTableRecord
  2
HIDDEN
 70
     0
  3
Hidden __ __ __ __ __ __ __ __ __ __ __ __ __ __
 72
    65
 73
     2
 40
1.905
 49
1.27
 74
     0
 49
-0.635
 74
     0
  0
LTYPE
  5
40
330
5
100
AcDbSymbolTableRecord
100
AcDbLinetypeTableRecord
  2
PHANTOM
 70
     0
  3
Phantom ______  __  __  ______  __  __  ______
 72
    65
 73
     6
 40
12.7
 49
6.35
 74
     0
 49
-1.27
 74
     0
 49
1.27
 74
     0
 49
-1.27
 74
     0
 49
1.27
 74
     0
 49
-1.27
 74
     0
  0
LTYPE
  5
41
330
5
100
AcDbSymbolTableRecord
100
AcDbLinetypeTableRecord
  2
CENTER
 70
     0
  3
Center ____ _ ____ _ ____ _ ____ _ ____ _ ____
 72
    65
 73
     4
 40
10.16
 49
6.35
 74
     0
 49
-1.27
 74
     0
 49
1.27
 74
     0
 49
-1.27
 74
     0
  0
LTYPE
  5
42
330
5
100
AcDbSymbolTableRecord
100
AcDbLinetypeTableRecord
  2
CENTERX2
 70
     0
  3
Center (2x) ________  __  ________  __  _____
 72
    65
 73
     4
 40
20.32
 49
12.7
 74
     0
 49
-2.54
 74
     0
 49
2.54
 74
     0
 49
-2.54
 74
     0
  0
LTYPE
  5
43
330
5
100
AcDbSymbolTableRecord
100
AcDbLinetypeTableRecord
  2
DOT2
 70
     0
  3
Dot (.5x) ........................................
 72
    65
 73
     2
 40
0.635
 49
0.0
 74
     0
 49
-0.635
 74
     0
  0
ENDTAB
  0
TABLE
  2
LAYER
  5
2
330
0
100
AcDbSymbolTable
 70
     5
  0
LAYER
  5
10
330
2
100
AcDbSymbolTableRecord
100
AcDbLayerTableRecord
  2
0
 70
     0
 62
     7
  6
Continuous
370
    -3
390
F
  0
LAYER
  5
44
330
2
100
AcDbSymbolTableRecord
100
AcDbLayerTableRecord
  2
FORMAT
 70
     0
 62
     7
  6
Continuous
370
    -3
390
F
  0
LAYER
  5
45
330
2
100
AcDbSymbolTableRecord
100
AcDbLayerTableRecord
  2
VERMASSUNG
 70
     0
 62
     7
  6
Continuous
370
    -3
390
F
  0
LAYER
  5
46
330
2
100
AcDbSymbolTableRecord
100
AcDbLayerTableRecord
  2
KOPF_DÜNN
 70
     0
 62
     7
  6
Continuous
370
    -3
390
F
  0
LAYER
  5
47
330
2
100
AcDbSymbolTableRecord
100
AcDbLayerTableRecord
  2
KOPF_DICK
 70
     0
 62
     7
  6
Continuous
370
    15
390
F
  0
ENDTAB
  0
TABLE
  2
STYLE
  5
3
330
0
100
AcDbSymbolTable
 70
     3
  0
STYLE
  5
11
330
3
100
AcDbSymbolTableRecord
100
AcDbTextStyleTableRecord
  2
Standard
 70
     0
 40
0.0
 41
1.0
 50
0.0
 71
     0
 42
2.0
  3
txt
  4

  0
STYLE
  5
48
330
3
100
AcDbSymbolTableRecord
100
AcDbTextStyleTableRecord
  2
SLDTEXTSTYLE0
 70
     0
 40
0.0
 41
0.7
 50
0.0
 71
     0
 42
0.2
  3
TXT
  4

  0
STYLE
  5
4C
330
3
100
AcDbSymbolTableRecord
100
AcDbTextStyleTableRecord
  2
SLDTEXTSTYLE1
 70
     0
 40
0.0
 41
0.65
 50
0.0
 71
     0
 42
0.2
  3
TXT
  4

  0
ENDTAB
  0
TABLE
  2
VIEW
  5
6
330
0
100
AcDbSymbolTable
 70
     0
  0
ENDTAB
  0
TABLE
  2
UCS
  5
7
330
0
100
AcDbSymbolTable
 70
     0
  0
ENDTAB
  0
TABLE
  2
APPID
  5
9
330
0
100
AcDbSymbolTable
 70
     1
  0
APPID
  5
12
330
9
100
AcDbSymbolTableRecord
100
AcDbRegAppTableRecord
  2
ACAD
 70
     0
  0
ENDTAB
  0
TABLE
  2
DIMSTYLE
  5
A
330
0
100
AcDbSymbolTable
 70
     3
100
AcDbDimStyleTable
  0
DIMSTYLE
105
27
330
A
100
AcDbSymbolTableRecord
100
AcDbDimStyleTableRecord
  2
ISO-25
 70
     0
 41
2.5
 42
0.625
 43
3.75
 44
1.25
 73
     0
 74
     0
 77
     1
 78
     8
140
2.5
141
2.5
143
0.0393700787
147
0.625
171
     3
172
     1
178
     0
271
     2
272
     2
274
     3
278
    44
283
     0
284
     8
340
11
  0
DIMSTYLE
105
190
102
{ACAD_REACTORS
330
18F
330
19A
330
1DF
330
1E9
330
1F3
330
1FD
330
207
330
211
330
295
330
2A1
102
}
330
A
100
AcDbSymbolTableRecord
100
AcDbDimStyleTableRecord
  2
SLDDIMSTYLE0
 70
     0
 41
3.0
 44
0.0
 45
0.000000001
 73
     0
 74
     0
 77
     1
 78
    12
 79
     3
140
2.0
147
0.5
173
     1
178
     0
271
     2
272
     3
276
     2
284
    12
340
48
  0
DIMSTYLE
105
21C
102
{ACAD_REACTORS
330
21B
102
}
330
A
100
AcDbSymbolTableRecord
100
AcDbDimStyleTableRecord
  2
SLDDIMSTYLE1
 70
     0
 41
3.0
 44
0.0
 45
0.000000001
 73
     0
 74
     0
 77
     1
 78
    12
 79
     3
140
2.0
141
0.0
147
0.5
173
     1
178
     0
271
     2
272
     3
276
     2
284
    12
340
48
  0
ENDTAB
  0
TABLE
  2
BLOCK_RECORD
  5
1
330
0
100
AcDbSymbolTable
 70
    12
  0
BLOCK_RECORD
  5
1F
330
1
100
AcDbSymbolTableRecord
100
AcDbBlockTableRecord
  2
*Model_Space
340
22
  0
BLOCK_RECORD
  5
1B
330
1
100
AcDbSymbolTableRecord
100
AcDbBlockTableRecord
  2
*Paper_Space
340
1E
  0
BLOCK_RECORD
  5
23
330
1
100
AcDbSymbolTableRecord
100
AcDbBlockTableRecord
  2
*Paper_Space0
340
26
  0
BLOCK_RECORD
  5
191
330
1
100
AcDbSymbolTableRecord
100
AcDbBlockTableRecord
  2
_D
340
0
  0
BLOCK_RECORD
  5
19B
330
1
100
AcDbSymbolTableRecord
100
AcDbBlockTableRecord
  2
_D_1
340
0
  0
BLOCK_RECORD
  5
1E0
330
1
100
AcDbSymbolTableRecord
100
AcDbBlockTableRecord
  2
_D_2
340
0
  0
BLOCK_RECORD
  5
1EA
330
1
100
AcDbSymbolTableRecord
100
AcDbBlockTableRecord
  2
_D_3
340
0
  0
BLOCK_RECORD
  5
1F4
330
1
100
AcDbSymbolTableRecord
100
AcDbBlockTableRecord
  2
_D_4
340
0
  0
BLOCK_RECORD
  5
1FE
330
1
100
AcDbSymbolTableRecord
100
AcDbBlockTableRecord
  2
_D_5
340
0
  0
BLOCK_RECORD
  5
208
330
1
100
AcDbSymbolTableRecord
100
AcDbBlockTableRecord
  2
_D_6
340
0
  0
BLOCK_RECORD
  5
212
330
1
100
AcDbSymbolTableRecord
100
AcDbBlockTableRecord
  2
_D_7
340
0
  0
BLOCK_RECORD
  5
21D
330
1
100
AcDbSymbolTableRecord
100
AcDbBlockTableRecord
  2
_D_8
340
0
  0
BLOCK_RECORD
  5
296
330
1
100
AcDbSymbolTableRecord
100
AcDbBlockTableRecord
  2
_D_9
340
0
  0
BLOCK_RECORD
  5
2A2
330
1
100
AcDbSymbolTableRecord
100
AcDbBlockTableRecord
  2
_D_10
340
0
  0
ENDTAB
  0
ENDSEC
  0
SECTION
  2
BLOCKS
  0
BLOCK
  5
20
330
1F
100
AcDbEntity
  8
0
100
AcDbBlockBegin
  2
*Model_Space
 70
     0
 10
0.0
 20
0.0
 30
0.0
  3
*Model_Space
  1

  0
ENDBLK
  5
21
330
1F
100
AcDbEntity
  8
0
100
AcDbBlockEnd
  0
BLOCK
  5
1C
330
1B
100
AcDbEntity
 67
     1
  8
0
100
AcDbBlockBegin
  2
*Paper_Space
 70
     0
 10
0.0
 20
0.0
 30
0.0
  3
*Paper_Space
  1

  0
ENDBLK
  5
1D
330
1B
100
AcDbEntity
 67
     1
  8
0
100
AcDbBlockEnd
  0
BLOCK
  5
24
330
23
100
AcDbEntity
  8
0
100
AcDbBlockBegin
  2
*Paper_Space0
 70
     0
 10
0.0
 20
0.0
 30
0.0
  3
*Paper_Space0
  1

  0
ENDBLK
  5
25
330
23
100
AcDbEntity
  8
0
100
AcDbBlockEnd
  0
BLOCK
  5
192
330
191
100
AcDbEntity
  8
0
100
AcDbBlockBegin
  2
_D
 70
     0
 10
0.0
 20
0.0
 30
0.0
  3
_D
  1

  0
SOLID
  5
194
330
191
100
AcDbEntity
  8
VERMASSUNG
100
AcDbTrace
 10
169.6944816636
 20
183.9097809545
 30
0.0
 11
172.6944816636
 21
183.4597809545
 31
0.0
 12
172.6944816636
 22
184.3597809545
 32
0.0
 13
172.6944816636
 23
184.3597809545
 33
0.0
  0
SOLID
  5
195
330
191
100
AcDbEntity
  8
VERMASSUNG
100
AcDbTrace
 10
249.6944816636
 20
183.9097809545
 30
0.0
 11
246.6944816636
 21
184.3597809545
 31
0.0
 12
246.6944816636
 22
183.4597809545
 32
0.0
 13
246.6944816636
 23
183.4597809545
 33
0.0
  0
LINE
  5
196
330
191
100
AcDbEntity
  8
VERMASSUNG
100
AcDbLine
 10
169.6944816636
 20
166.4824472948
 30
0.0
 11
169.6944816636
 21
184.9097809545
 31
0.0
  0
LINE
  5
197
330
191
100
AcDbEntity
  8
VERMASSUNG
100
AcDbLine
 10
249.6944816636
 20
175.7824472948
 30
0.0
 11
249.6944816636
 21
184.9097809545
 31
0.0
  0
LINE
  5
198
330
191
100
AcDbEntity
  8
VERMASSUNG
100
AcDbLine
 10
169.6944816636
 20
183.9097809545
 30
0.0
 11
249.6944816636
 21
183.9097809545
 31
0.0
  0
MTEXT
  5
199
330
191
100
AcDbEntity
  8
VERMASSUNG
100
AcDbMText
 10
207.3944816126
 20
186.4879163176
 30
7.1
 40
2.0
 41
0.0
 71
     1
 72
     1
  1
80
  7
SLDTEXTSTYLE0
 73
     1
 44
1.0
  0
ENDBLK
  5
193
330
191
100
AcDbEntity
  8
0
100
AcDbBlockEnd
  0
BLOCK
  5
19C
330
19B
100
AcDbEntity
  8
0
100
AcDbBlockBegin
  2
_D_1
 70
     0
 10
0.0
 20
0.0
 30
0.0
  3
_D_1
  1

  0
SOLID
  5
19E
330
19B
100
AcDbEntity
  8
VERMASSUNG
100
AcDbTrace
 10
145.6944816636
 20
190.4427910025
 30
0.0
 11
148.6944816636
 21
189.9927910025
 31
0.0
 12
148.6944816636
 22
190.8927910025
 32
0.0
 13
148.6944816636
 23
190.8927910025
 33
0.0
  0
SOLID
  5
19F
330
19B
100
AcDbEntity
  8
VERMASSUNG
100
AcDbTrace
 10
249.6944816636
 20
190.4427910025
 30
0.0
 11
246.6944816636
 21
190.8927910025
 31
0.0
 12
246.6944816636
 22
189.9927910025
 32
0.0
 13
246.6944816636
 23
189.9927910025
 33
0.0
  0
LINE
  5
1A0
330
19B
100
AcDbEntity
  8
VERMASSUNG
100
AcDbLine
 10
145.6944816636
 20
159.4139522769
 30
0.0
 11
145.6944816636
 21
191.4427910025
 31
0.0
  0
LINE
  5
1A1
330
19B
100
AcDbEntity
  8
VERMASSUNG
100
AcDbLine
 10
249.6944816636
 20
175.7824472948
 30
0.0
 11
249.6944816636
 21
191.4427910025
 31
0.0
  0
LINE
  5
1A2
330
19B
100
AcDbEntity
  8
VERMASSUNG
100
AcDbLine
 10
145.6944816636
 20
190.4427910025
 30
0.0
 11
249.6944816636
 21
190.4427910025
 31
0.0
  0
MTEXT
  5
1A3
330
19B
100
AcDbEntity
  8
VERMASSUNG
100
AcDbMText
 10
194.7944814677
 20
193.0209263656
 30
7.1
 40
2.0
 41
0.0
 71
     1
 72
     1
  1
104
  7
SLDTEXTSTYLE0
 73
     1
 44
1.0
  0
ENDBLK
  5
19D
330
19B
100
AcDbEntity
  8
0
100
AcDbBlockEnd
  0
BLOCK
  5
1E1
330
1E0
100
AcDbEntity
  8
0
100
AcDbBlockBegin
  2
_D_2
 70
     0
 10
0.0
 20
0.0
 30
0.0
  3
_D_2
  1

  0
SOLID
  5
1E3
330
1E0
100
AcDbEntity
  8
VERMASSUNG
100
AcDbTrace
 10
103.6034935249
 20
146.7824472948
 30
0.0
 11
104.0534935249
 21
149.7824472948
 31
0.0
 12
103.1534935249
 22
149.7824472948
 32
0.0
 13
103.1534935249
 23
149.7824472948
 33
0.0
  0
SOLID
  5
1E4
330
1E0
100
AcDbEntity
  8
VERMASSUNG
100
AcDbTrace
 10
103.6034935249
 20
176.7824472948
 30
0.0
 11
103.1534935249
 21
173.7824472948
 31
0.0
 12
104.0534935249
 22
173.7824472948
 32
0.0
 13
104.0534935249
 23
173.7824472948
 33
0.0
  0
LINE
  5
1E5
330
1E0
100
AcDbEntity
  8
VERMASSUNG
100
AcDbLine
 10
49.9897866847
 20
146.7824472948
 30
0.0
 11
104.6034935249
 21
146.7824472948
 31
0.0
  0
LINE
  5
1E6
330
1E0
100
AcDbEntity
  8
VERMASSUNG
100
AcDbLine
 10
76.4472997953
 20
176.7824472948
 30
0.0
 11
104.6034935249
 21
176.7824472948
 31
0.0
  0
LINE
  5
1E7
330
1E0
100
AcDbEntity
  8
VERMASSUNG
100
AcDbLine
 10
103.6034935249
 20
146.7824472948
 30
0.0
 11
103.6034935249
 21
176.7824472948
 31
0.0
  0
MTEXT
  5
1E8
330
1E0
100
AcDbEntity
  8
VERMASSUNG
100
AcDbMText
 10
101.0253581618
 20
159.4824472438
 30
-29.1455939098
 40
2.0
 41
0.0
 71
     1
 72
     1
  1
30
  7
SLDTEXTSTYLE0
 11
6.123233995736766E-17
 21
1.0
 31
0.0
 73
     1
 44
1.0
  0
ENDBLK
  5
1E2
330
1E0
100
AcDbEntity
  8
0
100
AcDbBlockEnd
  0
BLOCK
  5
1EB
330
1EA
100
AcDbEntity
  8
0
100
AcDbBlockBegin
  2
_D_3
 70
     0
 10
0.0
 20
0.0
 30
0.0
  3
_D_3
  1

  0
SOLID
  5
1ED
330
1EA
100
AcDbEntity
  8
VERMASSUNG
100
AcDbTrace
 10
112.9897866847
 20
176.7824472948
 30
0.0
 11
112.5397866847
 21
173.7824472948
 31
0.0
 12
113.4397866847
 22
173.7824472948
 32
0.0
 13
113.4397866847
 23
173.7824472948
 33
0.0
  0
SOLID
  5
1EE
330
1EA
100
AcDbEntity
  8
VERMASSUNG
100
AcDbTrace
 10
112.9897866847
 20
116.7824472948
 30
0.0
 11
113.4397866847
 21
119.7824472948
 31
0.0
 12
112.5397866847
 22
119.7824472948
 32
0.0
 13
112.5397866847
 23
119.7824472948
 33
0.0
  0
LINE
  5
1EF
330
1EA
100
AcDbEntity
  8
VERMASSUNG
100
AcDbLine
 10
76.4472997953
 20
176.7824472948
 30
0.0
 11
113.9897866847
 21
176.7824472948
 31
0.0
  0
LINE
  5
1F0
330
1EA
100
AcDbEntity
  8
VERMASSUNG
100
AcDbLine
 10
76.4472997953
 20
116.7824472948
 30
0.0
 11
113.9897866847
 21
116.7824472948
 31
0.0
  0
LINE
  5
1F1
330
1EA
100
AcDbEntity
  8
VERMASSUNG
100
AcDbLine
 10
112.9897866847
 20
176.7824472948
 30
0.0
 11
112.9897866847
 21
116.7824472948
 31
0.0
  0
MTEXT
  5
1F2
330
1EA
100
AcDbEntity
  8
VERMASSUNG
100
AcDbMText
 10
110.4116513215
 20
144.4824472438
 30
-29.1455939098
 40
2.0
 41
0.0
 71
     1
 72
     1
  1
60
  7
SLDTEXTSTYLE0
 11
-6.156016597943509E-15
 21
1.0
 31
0.0
 73
     1
 44
1.0
  0
ENDBLK
  5
1EC
330
1EA
100
AcDbEntity
  8
0
100
AcDbBlockEnd
  0
BLOCK
  5
1F5
330
1F4
100
AcDbEntity
  8
0
100
AcDbBlockBegin
  2
_D_4
 70
     0
 10
0.0
 20
0.0
 30
0.0
  3
_D_4
  1

  0
SOLID
  5
1F7
330
1F4
100
AcDbEntity
  8
VERMASSUNG
100
AcDbTrace
 10
92.6758557462
 20
156.7824472948
 30
0.0
 11
93.1258557462
 21
159.7824472948
 31
0.0
 12
92.2258557462
 22
159.7824472948
 32
0.0
 13
92.2258557462
 23
159.7824472948
 33
0.0
  0
SOLID
  5
1F8
330
1F4
100
AcDbEntity
  8
VERMASSUNG
100
AcDbTrace
 10
92.6758557462
 20
176.7824472948
 30
0.0
 11
92.2258557462
 21
173.7824472948
 31
0.0
 12
93.1258557462
 22
173.7824472948
 32
0.0
 13
93.1258557462
 23
173.7824472948
 33
0.0
  0
LINE
  5
1F9
330
1F4
100
AcDbEntity
  8
VERMASSUNG
100
AcDbLine
 10
74.2397866847
 20
156.7824472948
 30
0.0
 11
93.6758557462
 21
156.7824472948
 31
0.0
  0
LINE
  5
1FA
330
1F4
100
AcDbEntity
  8
VERMASSUNG
100
AcDbLine
 10
76.4472997953
 20
176.7824472948
 30
0.0
 11
93.6758557462
 21
176.7824472948
 31
0.0
  0
LINE
  5
1FB
330
1F4
100
AcDbEntity
  8
VERMASSUNG
100
AcDbLine
 10
92.6758557462
 20
156.7824472948
 30
0.0
 11
92.6758557462
 21
176.7824472948
 31
0.0
  0
MTEXT
  5
1FC
330
1F4
100
AcDbEntity
  8
VERMASSUNG
100
AcDbMText
 10
90.0977203831
 20
164.4824472438
 30
-29.1455939098
 40
2.0
 41
0.0
 71
     1
 72
     1
  1
20
  7
SLDTEXTSTYLE0
 11
5.053215498074303E-16
 21
1.0
 31
0.0
 73
     1
 44
1.0
  0
ENDBLK
  5
1F6
330
1F4
100
AcDbEntity
  8
0
100
AcDbBlockEnd
  0
BLOCK
  5
1FF
330
1FE
100
AcDbEntity
  8
0
100
AcDbBlockBegin
  2
_D_5
 70
     0
 10
0.0
 20
0.0
 30
0.0
  3
_D_5
  1

  0
SOLID
  5
201
330
1FE
100
AcDbEntity
  8
VERMASSUNG
100
AcDbTrace
 10
49.9897866847
 20
185.3646982829
 30
0.0
 11
52.9897866847
 21
184.9146982829
 31
0.0
 12
52.9897866847
 22
185.8146982829
 32
0.0
 13
52.9897866847
 23
185.8146982829
 33
0.0
  0
SOLID
  5
202
330
1FE
100
AcDbEntity
  8
VERMASSUNG
100
AcDbTrace
 10
69.9897866847
 20
185.3646982829
 30
0.0
 11
66.9897866847
 21
185.8146982829
 31
0.0
 12
66.9897866847
 22
184.9146982829
 32
0.0
 13
66.9897866847
 23
184.9146982829
 33
0.0
  0
LINE
  5
203
330
1FE
100
AcDbEntity
  8
VERMASSUNG
100
AcDbLine
 10
49.9897866847
 20
146.7824472948
 30
0.0
 11
49.9897866847
 21
186.3646982829
 31
0.0
  0
LINE
  5
204
330
1FE
100
AcDbEntity
  8
VERMASSUNG
100
AcDbLine
 10
69.9897866847
 20
176.7824472948
 30
0.0
 11
69.9897866847
 21
186.3646982829
 31
0.0
  0
LINE
  5
205
330
1FE
100
AcDbEntity
  8
VERMASSUNG
100
AcDbLine
 10
49.9897866847
 20
185.3646982829
 30
0.0
 11
69.9897866847
 21
185.3646982829
 31
0.0
  0
MTEXT
  5
206
330
1FE
100
AcDbEntity
  8
VERMASSUNG
100
AcDbMText
 10
57.6897866336
 20
187.942833646
 30
-29.1455939098
 40
2.0
 41
0.0
 71
     1
 72
     1
  1
20
  7
SLDTEXTSTYLE0
 73
     1
 44
1.0
  0
ENDBLK
  5
200
330
1FE
100
AcDbEntity
  8
0
100
AcDbBlockEnd
  0
BLOCK
  5
209
330
208
100
AcDbEntity
  8
0
100
AcDbBlockBegin
  2
_D_6
 70
     0
 10
0.0
 20
0.0
 30
0.0
  3
_D_6
  1

  0
SOLID
  5
20B
330
208
100
AcDbEntity
  8
VERMASSUNG
100
AcDbTrace
 10
84.9897866847
 20
192.7824472948
 30
0.0
 11
81.9897866847
 21
193.2324472948
 31
0.0
 12
81.9897866847
 22
192.3324472948
 32
0.0
 13
81.9897866847
 23
192.3324472948
 33
0.0
  0
SOLID
  5
20C
330
208
100
AcDbEntity
  8
VERMASSUNG
100
AcDbTrace
 10
49.9897866847
 20
192.7824472948
 30
0.0
 11
52.9897866847
 21
192.3324472948
 31
0.0
 12
52.9897866847
 22
193.2324472948
 32
0.0
 13
52.9897866847
 23
193.2324472948
 33
0.0
  0
LINE
  5
20D
330
208
100
AcDbEntity
  8
VERMASSUNG
100
AcDbLine
 10
84.9897866847
 20
166.1473640259
 30
0.0
 11
84.9897866847
 21
193.7824472948
 31
0.0
  0
LINE
  5
20E
330
208
100
AcDbEntity
  8
VERMASSUNG
100
AcDbLine
 10
49.9897866847
 20
146.7824472948
 30
0.0
 11
49.9897866847
 21
193.7824472948
 31
0.0
  0
LINE
  5
20F
330
208
100
AcDbEntity
  8
VERMASSUNG
100
AcDbLine
 10
84.9897866847
 20
192.7824472948
 30
0.0
 11
49.9897866847
 21
192.7824472948
 31
0.0
  0
MTEXT
  5
210
330
208
100
AcDbEntity
  8
VERMASSUNG
100
AcDbMText
 10
65.1897866336
 20
195.360582658
 30
-29.1455939098
 40
2.0
 41
0.0
 71
     1
 72
     1
  1
35
  7
SLDTEXTSTYLE0
 73
     1
 44
1.0
  0
ENDBLK
  5
20A
330
208
100
AcDbEntity
  8
0
100
AcDbBlockEnd
  0
BLOCK
  5
213
330
212
100
AcDbEntity
  8
0
100
AcDbBlockBegin
  2
_D_7
 70
     0
 10
0.0
 20
0.0
 30
0.0
  3
_D_7
  1

  0
SOLID
  5
215
330
212
100
AcDbEntity
  8
VERMASSUNG
100
AcDbTrace
 10
28.9897866847
 20
198.7824472948
 30
0.0
 11
31.9897866847
 21
198.3324472948
 31
0.0
 12
31.9897866847
 22
199.2324472948
 32
0.0
 13
31.9897866847
 23
199.2324472948
 33
0.0
  0
SOLID
  5
216
330
212
100
AcDbEntity
  8
VERMASSUNG
100
AcDbTrace
 10
84.9897866847
 20
198.7824472948
 30
0.0
 11
81.9897866847
 21
199.2324472948
 31
0.0
 12
81.9897866847
 22
198.3324472948
 32
0.0
 13
81.9897866847
 23
198.3324472948
 33
0.0
  0
LINE
  5
217
330
212
100
AcDbEntity
  8
VERMASSUNG
100
AcDbLine
 10
28.9897866847
 20
175.7824472948
 30
0.0
 11
28.9897866847
 21
199.7824472948
 31
0.0
  0
LINE
  5
218
330
212
100
AcDbEntity
  8
VERMASSUNG
100
AcDbLine
 10
84.9897866847
 20
166.1473640259
 30
0.0
 11
84.9897866847
 21
199.7824472948
 31
0.0
  0
LINE
  5
219
330
212
100
AcDbEntity
  8
VERMASSUNG
100
AcDbLine
 10
28.9897866847
 20
198.7824472948
 30
0.0
 11
84.9897866847
 21
198.7824472948
 31
0.0
  0
MTEXT
  5
21A
330
212
100
AcDbEntity
  8
VERMASSUNG
100
AcDbMText
 10
54.6897866336
 20
201.360582658
 30
-29.1455939098
 40
2.0
 41
0.0
 71
     1
 72
     1
  1
56
  7
SLDTEXTSTYLE0
 73
     1
 44
1.0
  0
ENDBLK
  5
214
330
212
100
AcDbEntity
  8
0
100
AcDbBlockEnd
  0
BLOCK
  5
21E
330
21D
100
AcDbEntity
  8
0
100
AcDbBlockBegin
  2
_D_8
 70
     0
 10
0.0
 20
0.0
 30
0.0
  3
_D_8
  1

  0
SOLID
  5
220
330
21D
100
AcDbEntity
  8
VERMASSUNG
100
AcDbTrace
 10
80.1979782863
 20
173.0020041209
 30
0.0
 11
82.7585626708
 21
174.6286287274
 31
0.0
 12
82.1686226422
 22
175.3083130384
 32
0.0
 13
82.1686226422
 23
175.3083130384
 33
0.0
  0
LINE
  5
221
330
21D
100
AcDbEntity
  8
VERMASSUNG
100
AcDbLine
 10
80.1979782863
 20
173.0020041209
 30
0.0
 11
92.3017390558
 21
183.507606293
 31
0.0
  0
LINE
  5
222
330
21D
100
AcDbEntity
  8
VERMASSUNG
100
AcDbLine
 10
80.1979782863
 20
173.0020041209
 30
0.0
 11
49.9897866847
 21
146.7824472948
 31
0.0
  0
MTEXT
  5
223
330
21D
100
AcDbEntity
  8
VERMASSUNG
100
AcDbMText
 10
85.7792927165
 20
181.2585711998
 30
-29.1455939098
 40
2.0
 41
0.0
 71
     1
 72
     1
  1
R40
  7
SLDTEXTSTYLE0
 11
0.7552047900417448
 21
0.6554889206523663
 31
0.0
 73
     1
 44
1.0
  0
ENDBLK
  5
21F
330
21D
100
AcDbEntity
  8
0
100
AcDbBlockEnd
  0
BLOCK
  5
297
330
296
100
AcDbEntity
  8
0
100
AcDbBlockBegin
  2
_D_9
 70
     0
 10
0.0
 20
0.0
 30
0.0
  3
_D_9
  1

  0
SOLID
  5
299
330
296
100
AcDbEntity
  8
VERMASSUNG
100
AcDbTrace
 10
140.3578848455
 20
87.5592107573
 30
0.0
 11
139.9078848455
 21
84.5592107573
 31
0.0
 12
140.8078848455
 22
84.5592107573
 32
0.0
 13
140.8078848455
 23
84.5592107573
 33
0.0
  0
SOLID
  5
29A
330
296
100
AcDbEntity
  8
VERMASSUNG
100
AcDbTrace
 10
140.3578848455
 20
47.5592107573
 30
0.0
 11
140.8078848455
 21
50.5592107573
 31
0.0
 12
139.9078848455
 22
50.5592107573
 32
0.0
 13
139.9078848455
 23
50.5592107573
 33
0.0
  0
LINE
  5
29B
330
296
100
AcDbEntity
  8
VERMASSUNG
100
AcDbLine
 10
169.9944816636
 20
87.5592107573
 30
0.0
 11
139.3578848455
 21
87.5592107573
 31
0.0
  0
LINE
  5
29C
330
296
100
AcDbEntity
  8
VERMASSUNG
100
AcDbLine
 10
169.9944816636
 20
47.5592107573
 30
0.0
 11
139.3578848455
 21
47.5592107573
 31
0.0
  0
LINE
  5
29D
330
296
100
AcDbEntity
  8
VERMASSUNG
100
AcDbLine
 10
140.3578848455
 20
87.5592107573
 30
0.0
 11
140.3578848455
 21
47.5592107573
 31
0.0
  0
MTEXT
  5
29E
330
296
100
AcDbEntity
  8
VERMASSUNG
100
AcDbMText
 10
137.5797493565
 20
61.054210818
 30
0.1
 40
2.0
 41
0.0
 71
     1
 72
     1
  1
PSC
  7
SLDTEXTSTYLE0
 11
-7.044195017643634E-15
 21
1.0
 31
0.0
 73
     1
 44
1.0
  0
MTEXT
  5
29F
330
296
100
AcDbEntity
  8
VERMASSUNG
100
AcDbMText
 10
137.779749366
 20
65.6542109201
 30
0.1
 40
2.0
 41
0.0
 71
     1
 72
     1
  1
%%c
  7
SLDTEXTSTYLE0
 11
-7.044195017643634E-15
 21
1.0
 31
0.0
 73
     1
 44
1.0
  0
MTEXT
  5
2A0
330
296
100
AcDbEntity
  8
VERMASSUNG
100
AcDbMText
 10
137.5797493565
 20
69.2642114
 30
0.1
 40
2.0
 41
0.0
 71
     1
 72
     1
  1
40
  7
SLDTEXTSTYLE0
 11
-7.044195017643634E-15
 21
1.0
 31
0.0
 73
     1
 44
1.0
  0
ENDBLK
  5
298
330
296
100
AcDbEntity
  8
0
100
AcDbBlockEnd
  0
BLOCK
  5
2A3
330
2A2
100
AcDbEntity
  8
0
100
AcDbBlockBegin
  2
_D_10
 70
     0
 10
0.0
 20
0.0
 30
0.0
  3
_D_10
  1

  0
SOLID
  5
2A5
330
2A2
100
AcDbEntity
  8
VERMASSUNG
100
AcDbTrace
 10
194.6944816636
 20
36.5592107573
 30
0.0
 11
197.6944816636
 21
36.1092107573
 31
0.0
 12
197.6944816636
 22
37.0092107573
 32
0.0
 13
197.6944816636
 23
37.0092107573
 33
0.0
  0
SOLID
  5
2A6
330
2A2
100
AcDbEntity
  8
VERMASSUNG
100
AcDbTrace
 10
249.6944816636
 20
36.5592107573
 30
0.0
 11
246.6944816636
 21
37.0092107573
 31
0.0
 12
246.6944816636
 22
36.1092107573
 32
0.0
 13
246.6944816636
 23
36.1092107573
 33
0.0
  0
LINE
  5
2A7
330
2A2
100
AcDbEntity
  8
VERMASSUNG
100
AcDbLine
 10
194.6944816636
 20
66.5592107573
 30
0.0
 11
194.6944816636
 21
35.5592107573
 31
0.0
  0
LINE
  5
2A8
330
2A2
100
AcDbEntity
  8
VERMASSUNG
100
AcDbLine
 10
249.6944816636
 20
47.5592107573
 30
0.0
 11
249.6944816636
 21
35.5592107573
 31
0.0
  0
LINE
  5
2A9
330
2A2
100
AcDbEntity
  8
VERMASSUNG
100
AcDbLine
 10
194.6944816636
 20
36.5592107573
 30
0.0
 11
249.6944816636
 21
36.5592107573
 31
0.0
  0
MTEXT
  5
2AA
330
2A2
100
AcDbEntity
  8
VERMASSUNG
100
AcDbMText
 10
219.8944816126
 20
39.1373461205
 30
0.1
 40
2.0
 41
0.0
 71
     1
 72
     1
  1
55
  7
SLDTEXTSTYLE0
 73
     1
 44
1.0
  0
ENDBLK
  5
2A4
330
2A2
100
AcDbEntity
  8
0
100
AcDbBlockEnd
  0
ENDSEC
  0
SECTION
  2
ENTITIES
  0
MTEXT
  5
49
330
1F
100
AcDbEntity
  8
KOPF_DÜNN
100
AcDbMText
 10
13.8892156294
 20
23.8442973028
 30
0.0
 40
3.0
 41
0.0
 71
     1
 72
     1
  1
PS4.V20.R21.080
  7
SLDTEXTSTYLE0
 73
     1
 44
1.0
  0
MTEXT
  5
4A
330
1F
100
AcDbEntity
  8
VERMASSUNG
100
AcDbMText
 10
13.9329988022
 20
28.8834360957
 30
0.0
 40
3.0
 41
0.0
 71
     1
 72
     1
  1
Werkzeughalter axial doppelt_Tool holder axial double
  7
SLDTEXTSTYLE0
 73
     1
 44
1.0
  0
MTEXT
  5
4B
330
1F
100
AcDbEntity
  8
VERMASSUNG
100
AcDbMText
 10
98.8601118557
 20
13.8365368179
 30
0.0
 40
2.0
 41
0.0
 71
     1
 72
     1
  1
Datum: 08.05.2012
  7
SLDTEXTSTYLE0
 73
     1
 44
1.0
  0
MTEXT
  5
4D
330
1F
100
AcDbEntity
  8
VERMASSUNG
100
AcDbMText
 10
13.933048693
 20
18.0482802738
 30
0.0
 40
2.0
 41
0.0
 71
     1
 72
     1
  1
PSC ø 40 / 20x20
  7
SLDTEXTSTYLE1
 73
     1
 44
1.0
  0
MTEXT
  5
4E
330
1F
100
AcDbEntity
  8
VERMASSUNG
100
AcDbMText
 10
13.9808475933
 20
13.9090973692
 30
0.0
 40
2.0
 41
0.0
 71
     1
 72
     1
  1
Gewicht: 1366g
  7
SLDTEXTSTYLE0
 73
     1
 44
1.0
  0
LINE
  5
4F
330
1F
100
AcDbEntity
  8
0
  6
Continuous
 62
     7
370
    15
100
AcDbLine
 10
191.4856994729
 20
176.7824472948
 30
0.0
 11
190.6906763617
 21
167.6952915521
 31
0.0
  0
LINE
  5
50
330
1F
100
AcDbEntity
  8
0
  6
Continuous
 62
     7
370
    15
100
AcDbLine
 10
190.6906763617
 20
125.8696030376
 30
0.0
 11
191.4856994729
 21
116.7824472948
 31
0.0
  0
ARC
  5
51
330
1F
100
AcDbEntity
  8
0
  6
Continuous
 62
     7
370
    15
100
AcDbCircle
 10
189.6944816636
 20
125.7824472948
 30
0.0
 40
1.00000000000001
100
AcDbArc
 50
5.0
 51
90.0
  0
ARC
  5
52
330
1F
100
AcDbEntity
  8
0
  6
Continuous
 62
     7
370
    15
100
AcDbCircle
 10
189.6944816636
 20
167.7824472948
 30
0.0
 40
1.000000000000028
100
AcDbArc
 50
270.0
 51
355.0
  0
LINE
  5
53
330
1F
100
AcDbEntity
  8
0
  6
Continuous
 62
     7
370
    15
100
AcDbLine
 10
169.9944816636
 20
126.7824472948
 30
0.0
 11
189.6944816636
 21
126.7824472948
 31
0.0
  0
LINE
  5
54
330
1F
100
AcDbEntity
  8
0
  6
Continuous
 62
     7
370
    15
100
AcDbLine
 10
189.6944816636
 20
166.7824472948
 30
0.0
 11
169.9944816636
 21
166.7824472948
 31
0.0
  0
ARC
  5
55
330
1F
100
AcDbEntity
  8
0
  6
Continuous
 62
     7
370
    15
100
AcDbCircle
 10
169.9944816636
 20
127.0824472948
 30
0.0
 40
0.2999999999999972
100
AcDbArc
 50
180.0
 51
270.0
  0
ARC
  5
56
330
1F
100
AcDbEntity
  8
0
  6
Continuous
 62
     7
370
    15
100
AcDbCircle
 10
169.9944816636
 20
166.4824472948
 30
0.0
 40
0.2999999999999829
100
AcDbArc
 50
90.0
 51
180.0
  0
LWPOLYLINE
  5
57
330
1F
100
AcDbEntity
  8
0
  6
Continuous
 62
     7
370
    15
100
AcDbPolyline
 90
        3
 70
   128
 43
0.0
 10
169.4944816636
 20
132.692627016
 10
169.6199366071
 20
132.624324901
 10
169.6944816636
 20
132.5715871429
  0
LWPOLYLINE
  5
58
330
1F
100
AcDbEntity
  8
0
  6
Continuous
 62
     7
370
    15
100
AcDbPolyline
 90
        3
 70
   128
 43
0.0
 10
169.6944816636
 20
160.9933074468
 10
169.6199366071
 20
160.9405696887
 10
169.4944816636
 20
160.8722675737
  0
ARC
  5
59
330
1F
100
AcDbEntity
  8
0
  6
Continuous
 62
     7
370
    15
100
AcDbCircle
 10
247.6944816636
 20
154.7824472948
 30
0.0
 40
5.000000000000022
100
AcDbArc
 50
44.7464248226
 51
66.4218215218
  0
ARC
  5
5A
330
1F
100
AcDbEntity
  8
0
  6
Continuous
 62
     7
370
    15
100
AcDbCircle
 10
247.6944816636
 20
154.7824472948
 30
0.0
 40
5.000000000000042
100
AcDbArc
 50
293.5781784782
 51
324.396505774
  0
ARC
  5
5B
330
1F
100
AcDbEntity
  8
0
  6
Continuous
 62
     7
370
    15
100
AcDbCircle
 10
247.6944816636
 20
138.7824472948
 30
0.0
 40
5.000000000000012
100
AcDbArc
 50
34.8676403736
 51
66.4218215218
  0
ARC
  5
5C
330
1F
100
AcDbEntity
  8
0
  6
Continuous
 62
     7
370
    15
100
AcDbCircle
 10
247.6944816636
 20
138.7824472948
 30
0.0
 40
5.000000000000021
100
AcDbArc
 50
293.5781784782
 51
314.3485712347
  0
LINE
  5
5D
330
1F
100
AcDbEntity
  8
0
  6
Continuous
 62
     7
370
    15
100
AcDbLine
 10
211.3052385681
 20
169.6428359303
 30
0.0
 11
213.9770293389
 21
168.5497360215
 31
0.0
  0
LINE
  5
5E
330
1F
100
AcDbEntity
  8
0
  6
Continuous
 62
     7
370
    15
100
AcDbLine
 10
209.0226908929
 20
167.8755472036
 30
0.0
 11
209.4119339884
 21
165.0151585682
 31
0.0
  0
LINE
  5
5F
330
1F
100
AcDbEntity
  8
0
  6
Continuous
 62
     7
370
    15
100
AcDbLine
 10
212.0837247591
 20
163.9220586594
 30
0.0
 11
214.3662724344
 21
165.6893473861
 31
0.0
  0
CIRCLE
  5
60
330
1F
100
AcDbEntity
  8
0
  6
Continuous
 62
     7
370
    15
100
AcDbCircle
 10
211.6944816636
 20
166.7824472948
 30
0.0
 40
4.171999999999976
  0
LINE
  5
61
330
1F
100
AcDbEntity
  8
0
  6
Continuous
 62
     7
370
    15
100
AcDbLine
 10
212.0837247591
 20
163.9220586594
 30
0.0
 11
209.4119339884
 21
165.0151585682
 31
0.0
  0
LINE
  5
62
330
1F
100
AcDbEntity
  8
0
  6
Continuous
 62
     7
370
    15
100
AcDbLine
 10
209.0226908929
 20
167.8755472036
 30
0.0
 11
211.3052385681
 21
169.6428359303
 31
0.0
  0
LINE
  5
63
330
1F
100
AcDbEntity
  8
0
  6
Continuous
 62
     7
370
    15
100
AcDbLine
 10
214.3662724344
 20
165.6893473861
 30
0.0
 11
213.9770293389
 21
168.5497360215
 31
0.0
  0
LINE
  5
64
330
1F
100
AcDbEntity
  8
0
  6
Continuous
 62
     7
370
    15
100
AcDbLine
 10
239.2961582343
 20
164.3807883898
 30
0.0
 11
240.575217572
 21
166.9687104412
 31
0.0
  0
LINE
  5
65
330
1F
100
AcDbEntity
  8
0
  6
Continuous
 62
     7
370
    15
100
AcDbLine
 10
236.0928050929
 20
169.1841061999
 30
0.0
 11
238.9735410012
 21
169.3703693462
 31
0.0
  0
LINE
  5
66
330
1F
100
AcDbEntity
  8
0
  6
Continuous
 62
     7
370
    15
100
AcDbLine
 10
236.415422326
 20
164.1945252434
 30
0.0
 11
234.8137457553
 21
166.5961841485
 31
0.0
  0
CIRCLE
  5
67
330
1F
100
AcDbEntity
  8
0
  6
Continuous
 62
     7
370
    15
100
AcDbCircle
 10
237.6944816636
 20
166.7824472948
 30
0.0
 40
4.172000000000017
  0
LINE
  5
68
330
1F
100
AcDbEntity
  8
0
  6
Continuous
 62
     7
370
    15
100
AcDbLine
 10
236.0928050929
 20
169.1841061999
 30
0.0
 11
234.8137457553
 21
166.5961841485
 31
0.0
  0
LINE
  5
69
330
1F
100
AcDbEntity
  8
0
  6
Continuous
 62
     7
370
    15
100
AcDbLine
 10
236.415422326
 20
164.1945252434
 30
0.0
 11
239.2961582343
 21
164.3807883898
 31
0.0
  0
LINE
  5
6A
330
1F
100
AcDbEntity
  8
0
  6
Continuous
 62
     7
370
    15
100
AcDbLine
 10
238.9735410012
 20
169.3703693462
 30
0.0
 11
240.575217572
 21
166.9687104412
 31
0.0
  0
CIRCLE
  5
6B
330
1F
100
AcDbEntity
  8
0
  6
Continuous
 62
     7
370
    15
100
AcDbCircle
 10
237.6944816636
 20
126.7824472948
 30
0.0
 40
4.171999999999988
  0
LINE
  5
6C
330
1F
100
AcDbEntity
  8
0
  6
Continuous
 62
     7
370
    15
100
AcDbLine
 10
238.9735410012
 20
124.1945252434
 30
0.0
 11
236.0928050929
 21
124.3807883898
 31
0.0
  0
LINE
  5
6D
330
1F
100
AcDbEntity
  8
0
  6
Continuous
 62
     7
370
    15
100
AcDbLine
 10
238.9735410012
 20
124.1945252434
 30
0.0
 11
240.575217572
 21
126.5961841485
 31
0.0
  0
LINE
  5
6E
330
1F
100
AcDbEntity
  8
0
  6
Continuous
 62
     7
370
    15
100
AcDbLine
 10
239.2961582343
 20
129.1841061999
 30
0.0
 11
240.575217572
 21
126.5961841485
 31
0.0
  0
LINE
  5
6F
330
1F
100
AcDbEntity
  8
0
  6
Continuous
 62
     7
370
    15
100
AcDbLine
 10
239.2961582343
 20
129.1841061999
 30
0.0
 11
236.415422326
 21
129.3703693462
 31
0.0
  0
LINE
  5
70
330
1F
100
AcDbEntity
  8
0
  6
Continuous
 62
     7
370
    15
100
AcDbLine
 10
236.415422326
 20
129.3703693462
 30
0.0
 11
234.8137457553
 21
126.9687104412
 31
0.0
  0
LINE
  5
71
330
1F
100
AcDbEntity
  8
0
  6
Continuous
 62
     7
370
    15
100
AcDbLine
 10
236.0928050929
 20
124.3807883898
 30
0.0
 11
234.8137457553
 21
126.9687104412
 31
0.0
  0
CIRCLE
  5
72
330
1F
100
AcDbEntity
  8
0
  6
Continuous
 62
     7
370
    15
100
AcDbCircle
 10
211.6944816636
 20
126.7824472948
 30
0.0
 40
4.171999999999984
  0
LINE
  5
73
330
1F
100
AcDbEntity
  8
0
  6
Continuous
 62
     7
370
    15
100
AcDbLine
 10
211.3052385681
 20
123.9220586594
 30
0.0
 11
209.0226908929
 21
125.6893473861
 31
0.0
  0
LINE
  5
74
330
1F
100
AcDbEntity
  8
0
  6
Continuous
 62
     7
370
    15
100
AcDbLine
 10
211.3052385681
 20
123.9220586594
 30
0.0
 11
213.9770293389
 21
125.0151585682
 31
0.0
  0
LINE
  5
75
330
1F
100
AcDbEntity
  8
0
  6
Continuous
 62
     7
370
    15
100
AcDbLine
 10
214.3662724344
 20
127.8755472036
 30
0.0
 11
212.0837247591
 21
129.6428359303
 31
0.0
  0
LINE
  5
76
330
1F
100
AcDbEntity
  8
0
  6
Continuous
 62
     7
370
    15
100
AcDbLine
 10
212.0837247591
 20
129.6428359303
 30
0.0
 11
209.4119339884
 21
128.5497360215
 31
0.0
  0
LINE
  5
77
330
1F
100
AcDbEntity
  8
0
  6
Continuous
 62
     7
370
    15
100
AcDbLine
 10
209.0226908929
 20
125.6893473861
 30
0.0
 11
209.4119339884
 21
128.5497360215
 31
0.0
  0
LINE
  5
78
330
1F
100
AcDbEntity
  8
0
  6
Continuous
 62
     7
370
    15
100
AcDbLine
 10
214.3662724344
 20
127.8755472036
 30
0.0
 11
213.9770293389
 21
125.0151585682
 31
0.0
  0
CIRCLE
  5
79
330
1F
100
AcDbEntity
  8
0
  6
Continuous
 62
     7
370
    15
100
AcDbCircle
 10
237.6944816636
 20
166.7824472948
 30
0.0
 40
5.5
  0
CIRCLE
  5
7A
330
1F
100
AcDbEntity
  8
0
  6
Continuous
 62
     7
370
    15
100
AcDbCircle
 10
237.6944816636
 20
126.7824472948
 30
0.0
 40
5.5
  0
LINE
  5
7B
330
1F
100
AcDbEntity
  8
0
  6
Continuous
 62
     7
370
    15
100
AcDbLine
 10
191.9935735776
 20
117.7824472948
 30
0.0
 11
248.6944816636
 21
117.7824472948
 31
0.0
  0
SPLINE
  5
7C
330
1F
100
AcDbEntity
  8
0
  6
Continuous
 62
     7
370
    15
100
AcDbSpline
210
0.0
220
0.0
230
1.0
 70
     8
 71
     3
 72
    18
 73
    14
 74
     0
 42
0.00000001
 43
0.00000001
 12
1.0
 22
0.0
 32
0.0
 13
1.0
 23
0.0
 33
0.0
 40
0.0
 40
0.0
 40
0.0
 40
0.0
 40
0.2499999999999998
 40
0.2499999999999998
 40
0.3749999999999998
 40
0.3749999999999998
 40
0.4999999999999999
 40
0.4999999999999999
 40
0.6249999999999999
 40
0.6249999999999999
 40
0.7499999999999999
 40
0.7499999999999999
 40
1.0
 40
1.0
 40
1.0
 40
1.0
 10
191.9935735775969
 20
175.7824472948383
 30
0.0
 10
191.6514871108539
 20
170.9548601093597
 30
0.0
 10
191.3345991957362
 20
166.1255201429428
 30
0.0
 10
190.9741607962879
 20
158.8787584939144
 30
0.0
 10
190.874204462323
 20
156.4625775641556
 30
0.0
 10
190.7359629629654
 20
151.6284021650466
 30
0.0
 10
190.6983905719515
 20
149.2103867354229
 30
0.0
 10
190.6982127545979
 20
144.3721513523823
 30
0.0
 10
190.7356185524357
 20
141.9519310689004
 30
0.0
 10
190.8738988750492
 20
137.1096241022593
 30
0.0
 10
190.9739577592356
 20
134.690507334482
 30
0.0
 10
191.3346229099448
 20
127.438319931054
 30
0.0
 10
191.6515309400343
 20
122.6094159548546
 30
0.0
 10
191.9935735775969
 20
117.7824472948384
 30
0.0
  0
LINE
  5
7D
330
1F
100
AcDbEntity
  8
0
  6
Continuous
 62
     7
370
    15
100
AcDbLine
 10
248.6944816636
 20
175.7824472948
 30
0.0
 11
191.9935735776
 21
175.7824472948
 31
0.0
  0
LINE
  5
7E
330
1F
100
AcDbEntity
  8
0
  6
Continuous
 62
     7
370
    15
100
AcDbLine
 10
248.6944816636
 20
117.7824472948
 30
0.0
 11
248.6944816636
 21
175.7824472948
 31
0.0
  0
CIRCLE
  5
7F
330
1F
100
AcDbEntity
  8
0
  6
Continuous
 62
     7
370
    15
100
AcDbCircle
 10
211.6944816636
 20
166.7824472948
 30
0.0
 40
5.5
  0
CIRCLE
  5
80
330
1F
100
AcDbEntity
  8
0
  6
Continuous
 62
     7
370
    15
100
AcDbCircle
 10
211.6944816636
 20
126.7824472948
 30
0.0
 40
5.5
  0
SPLINE
  5
81
330
1F
100
AcDbEntity
  8
0
  6
Continuous
 62
     7
370
    15
100
AcDbSpline
210
0.0
220
0.0
230
1.0
 70
     8
 71
     3
 72
     8
 73
     4
 74
     0
 42
0.00000001
 43
0.00000001
 12
1.0
 22
0.0
 32
0.0
 13
1.0
 23
0.0
 33
0.0
 40
0.0
 40
0.0
 40
0.0
 40
0.0
 40
0.0014143833462928
 40
0.0014143833462928
 40
0.0014143833462928
 40
0.0014143833462928
 10
192.0154881907648
 20
116.7824472948384
 30
0.0
 10
192.0074000803747
 20
117.1157715857577
 30
0.0
 10
192.0000896688021
 20
117.4491057853329
 30
0.0
 10
191.9935735775969
 20
117.7824472948384
 30
0.0
  0
SPLINE
  5
82
330
1F
100
AcDbEntity
  8
0
  6
Continuous
 62
     7
370
    15
100
AcDbSpline
210
0.0
220
0.0
230
1.0
 70
    24
 71
     3
 72
    10
 73
     6
 74
     0
 42
0.00000001
 43
0.00000001
 12
1.0
 22
0.0
 32
0.0
 13
1.0
 23
0.0
 33
0.0
 40
0.0
 40
0.0
 40
0.0
 40
0.0
 40
0.3420078843490542
 40
0.8190364513272437
 40
1.0
 40
1.0
 40
1.0
 40
1.0
 10
192.0154881907648
 20
116.7824472948384
 30
0.0
 10
191.9145246953778
 20
116.7824472948384
 30
0.0
 10
191.6727385063467
 20
116.7824472948384
 30
0.0
 10
191.4799892824443
 20
116.7824472948384
 30
0.0
 10
191.5088439930412
 20
116.7824472948384
 30
0.0
 10
191.5167797276819
 20
116.7824472948384
 30
0.0
  0
SPLINE
  5
83
330
1F
100
AcDbEntity
  8
0
  6
Continuous
 62
     7
370
    15
100
AcDbSpline
210
0.0
220
0.0
230
1.0
 70
    24
 71
     3
 72
    10
 73
     6
 74
     0
 42
0.00000001
 43
0.00000001
 12
1.0
 22
0.0
 32
0.0
 13
1.0
 23
0.0
 33
0.0
 40
0.0
 40
0.0
 40
0.0
 40
0.0
 40
0.1795662628620003
 40
0.6579920684317044
 40
0.9999999999999999
 40
0.9999999999999999
 40
0.9999999999999999
 40
0.9999999999999999
 10
191.5167586933348
 20
176.7824472948384
 30
0.0
 10
191.5087827174116
 20
176.7824472948384
 30
0.0
 10
191.4795560196356
 20
176.7824472948384
 30
0.0
 10
191.6723712190582
 20
176.7824472948384
 30
0.0
 10
191.9145379848848
 20
176.7824472948384
 30
0.0
 10
192.0154881907648
 20
176.7824472948384
 30
0.0
  0
SPLINE
  5
84
330
1F
100
AcDbEntity
  8
0
  6
Continuous
 62
     7
370
    15
100
AcDbSpline
210
0.0
220
0.0
230
1.0
 70
     8
 71
     3
 72
     8
 73
     4
 74
     0
 42
0.00000001
 43
0.00000001
 12
1.0
 22
0.0
 32
0.0
 13
1.0
 23
0.0
 33
0.0
 40
0.0
 40
0.0
 40
0.0
 40
0.0
 40
0.0014143833462928
 40
0.0014143833462928
 40
0.0014143833462928
 40
0.0014143833462928
 10
191.9935735775957
 20
175.7824472948384
 30
0.0
 10
192.0000896688009
 20
176.1157888043439
 30
0.0
 10
192.0074000803747
 20
176.4491230039191
 30
0.0
 10
192.0154881907648
 20
176.7824472948384
 30
0.0
  0
LINE
  5
85
330
1F
100
AcDbEntity
  8
0
  6
Continuous
 62
     7
370
    15
100
AcDbLine
 10
248.6944816636
 20
117.7824472948
 30
0.0
 11
248.6944816636
 21
116.7824472948
 31
0.0
  0
LINE
  5
86
330
1F
100
AcDbEntity
  8
0
  6
Continuous
 62
     7
370
    15
100
AcDbLine
 10
248.6944816636
 20
116.7824472948
 30
0.0
 11
192.0154881908
 21
116.7824472948
 31
0.0
  0
LINE
  5
87
330
1F
100
AcDbEntity
  8
0
  6
Continuous
 62
     7
370
    15
100
AcDbLine
 10
248.6944816636
 20
117.7824472948
 30
0.0
 11
249.6944816636
 21
117.7824472948
 31
0.0
  0
LINE
  5
88
330
1F
100
AcDbEntity
  8
0
  6
Continuous
 62
     7
370
    15
100
AcDbLine
 10
248.6944816636
 20
116.7824472948
 30
0.0
 11
249.6944816636
 21
117.7824472948
 31
0.0
  0
LINE
  5
89
330
1F
100
AcDbEntity
  8
0
  6
Continuous
 62
     7
370
    15
100
AcDbLine
 10
248.6944816636
 20
175.7824472948
 30
0.0
 11
249.6944816636
 21
175.7824472948
 31
0.0
  0
LINE
  5
8A
330
1F
100
AcDbEntity
  8
0
  6
Continuous
 62
     7
370
    15
100
AcDbLine
 10
249.6944816636
 20
175.7824472948
 30
0.0
 11
249.6944816636
 21
117.7824472948
 31
0.0
  0
LINE
  5
8B
330
1F
100
AcDbEntity
  8
0
  6
Continuous
 62
     7
370
    15
100
AcDbLine
 10
248.6944816636
 20
176.7824472948
 30
0.0
 11
249.6944816636
 21
175.7824472948
 31
0.0
  0
LINE
  5
8C
330
1F
100
AcDbEntity
  8
0
  6
Continuous
 62
     7
370
    15
100
AcDbLine
 10
248.6944816636
 20
176.7824472948
 30
0.0
 11
248.6944816636
 21
175.7824472948
 31
0.0
  0
LINE
  5
8D
330
1F
100
AcDbEntity
  8
0
  6
Continuous
 62
     7
370
    15
100
AcDbLine
 10
192.0154881908
 20
176.7824472948
 30
0.0
 11
248.6944816636
 21
176.7824472948
 31
0.0
  0
SPLINE
  5
8E
330
1F
100
AcDbEntity
  8
0
  6
Continuous
 62
     7
370
    15
100
AcDbSpline
210
0.0
220
0.0
230
1.0
 70
     8
 71
     3
 72
    12
 73
     8
 74
     0
 42
0.00000001
 43
0.00000001
 12
1.0
 22
0.0
 32
0.0
 13
1.0
 23
0.0
 33
0.0
 40
0.0
 40
0.0
 40
0.0
 40
0.0
 40
0.2500000000000027
 40
0.2500000000000027
 40
0.5000000000000053
 40
0.5000000000000053
 40
1.0
 40
1.0
 40
1.0
 40
1.0
 10
176.6263836656198
 20
152.6116602904899
 30
0.0
 10
176.5888717795751
 20
152.6116602904899
 30
0.0
 10
176.5535844318704
 20
152.6264651047767
 30
0.0
 10
176.494654583632
 20
152.6700569779025
 30
0.0
 10
176.4711288571629
 20
152.6975704039885
 30
0.0
 10
176.4108700693948
 20
152.7867021361021
 30
0.0
 10
176.3852753071055
 20
152.8530879867199
 30
0.0
 10
176.3665760444844
 20
152.9206924218973
 30
0.0
  0
LINE
  5
8F
330
1F
100
AcDbEntity
  8
0
  6
Continuous
 62
     7
370
    15
100
AcDbLine
 10
178.7625796616
 20
152.6116602905
 30
0.0
 11
176.6263836656
 21
152.6116602905
 31
0.0
  0
SPLINE
  5
90
330
1F
100
AcDbEntity
  8
0
  6
Continuous
 62
     7
370
    15
100
AcDbSpline
210
0.0
220
0.0
230
1.0
 70
     8
 71
     3
 72
    12
 73
     8
 74
     0
 42
0.00000001
 43
0.00000001
 12
1.0
 22
0.0
 32
0.0
 13
1.0
 23
0.0
 33
0.0
 40
0.0
 40
0.0
 40
0.0
 40
0.0
 40
0.5000000000000061
 40
0.5000000000000061
 40
0.750000000000003
 40
0.750000000000003
 40
1.0
 40
1.0
 40
1.0
 40
1.0
 10
179.0223872827567
 20
152.9206924218973
 30
0.0
 10
179.0036940496263
 20
152.8531097854569
 30
0.0
 10
178.9780387522145
 20
152.7866272159795
 30
0.0
 10
178.917878129528
 20
152.697632133082
 30
0.0
 10
178.8938058177737
 20
152.6696302360828
 30
0.0
 10
178.8354242974232
 20
152.6265538354176
 30
0.0
 10
178.7999554697701
 20
152.6116602904899
 30
0.0
 10
178.7625796616214
 20
152.6116602904899
 30
0.0
  0
ELLIPSE
  5
91
330
1F
100
AcDbEntity
  8
0
  6
Continuous
 62
     7
370
    15
100
AcDbEllipse
 10
168.7455524912
 20
146.7824472948
 30
0.0
 11
9.367417879781698
 21
19.74174915274992
 31
0.0
210
0.0
220
0.0
230
1.0
 40
0.3419987131
 41
5.185211263708392
 42
6.132113578252555
  0
SPLINE
  5
92
330
1F
100
AcDbEntity
  8
0
  6
Continuous
 62
     7
370
    15
100
AcDbSpline
210
0.0
220
0.0
230
1.0
 70
     8
 71
     3
 72
    12
 73
     8
 74
     0
 42
0.00000001
 43
0.00000001
 12
1.0
 22
0.0
 32
0.0
 13
1.0
 23
0.0
 33
0.0
 40
0.0
 40
0.0
 40
0.0
 40
0.0
 40
0.249999999999999
 40
0.249999999999999
 40
0.499999999999998
 40
0.499999999999998
 40
1.0
 40
1.0
 40
1.0
 40
1.0
 10
178.7625796616214
 20
165.9141036750717
 30
0.0
 10
178.8000915476661
 20
165.9141036750717
 30
0.0
 10
178.8353788953708
 20
165.9096001308092
 30
0.0
 10
178.8943087436092
 20
165.8962269313559
 30
0.0
 10
178.9178344700783
 20
165.8877420287847
 30
0.0
 10
178.9780932578464
 20
165.8599942249502
 30
0.0
 10
179.0036880201357
 20
165.8390043612098
 30
0.0
 10
179.0223872827567
 20
165.8172035780203
 30
0.0
  0
LINE
  5
93
330
1F
100
AcDbEntity
  8
0
  6
Continuous
 62
     7
370
    15
100
AcDbLine
 10
176.6263836656
 20
165.9141036751
 30
0.0
 11
178.7625796616
 21
165.9141036751
 31
0.0
  0
SPLINE
  5
94
330
1F
100
AcDbEntity
  8
0
  6
Continuous
 62
     7
370
    15
100
AcDbSpline
210
0.0
220
0.0
230
1.0
 70
     8
 71
     3
 72
    12
 73
     8
 74
     0
 42
0.00000001
 43
0.00000001
 12
1.0
 22
0.0
 32
0.0
 13
1.0
 23
0.0
 33
0.0
 40
0.0
 40
0.0
 40
0.0
 40
0.0
 40
0.4999999999999956
 40
0.4999999999999956
 40
0.7499999999999978
 40
0.7499999999999978
 40
1.0
 40
1.0
 40
1.0
 40
1.0
 10
176.3665760444845
 20
165.8172035780203
 30
0.0
 10
176.3852692776149
 20
165.8389973316482
 30
0.0
 10
176.4109245750267
 20
165.8600174933578
 30
0.0
 10
176.4710851977131
 20
165.8877228393216
 30
0.0
 10
176.4951575094674
 20
165.896358055515
 30
0.0
 10
176.553539029818
 20
165.9095727007415
 30
0.0
 10
176.589007857471
 20
165.9141036750717
 30
0.0
 10
176.6263836656198
 20
165.9141036750717
 30
0.0
  0
ELLIPSE
  5
95
330
1F
100
AcDbEntity
  8
0
  6
Continuous
 62
     7
370
    15
100
AcDbEllipse
 10
186.6434108361
 20
146.7824472948
 30
0.0
 11
-9.367417879781556
 21
19.74174915274995
 31
0.0
210
0.0
220
0.0
230
1.0
 40
0.3419987131
 41
0.1510717289270765
 42
1.09797404347121
  0
SPLINE
  5
96
330
1F
100
AcDbEntity
  8
0
  6
Continuous
 62
     7
370
    15
100
AcDbSpline
210
0.0
220
0.0
230
1.0
 70
     8
 71
     3
 72
    12
 73
     8
 74
     0
 42
0.00000001
 43
0.00000001
 12
1.0
 22
0.0
 32
0.0
 13
1.0
 23
0.0
 33
0.0
 40
0.0
 40
0.0
 40
0.0
 40
0.0
 40
0.2499999999999996
 40
0.2499999999999996
 40
0.4999999999999992
 40
0.4999999999999992
 40
1.0
 40
1.0
 40
1.0
 40
1.0
 10
176.6263836656198
 20
127.650790914605
 30
0.0
 10
176.588882842742
 20
127.650790914605
 30
0.0
 10
176.5536044387061
 20
127.6552918824681
 30
0.0
 10
176.4946867186537
 20
127.6686584036855
 30
0.0
 10
176.4711633372553
 20
127.6771396639303
 30
0.0
 10
176.4109077527893
 20
127.7048770596082
 30
0.0
 10
176.3853861003782
 20
127.7257610586613
 30
0.0
 10
176.3665760444844
 20
127.7476910116564
 30
0.0
  0
LINE
  5
97
330
1F
100
AcDbEntity
  8
0
  6
Continuous
 62
     7
370
    15
100
AcDbLine
 10
178.7625796616
 20
127.6507909146
 30
0.0
 11
176.6263836656
 21
127.6507909146
 31
0.0
  0
SPLINE
  5
98
330
1F
100
AcDbEntity
  8
0
  6
Continuous
 62
     7
370
    15
100
AcDbSpline
210
0.0
220
0.0
230
1.0
 70
     8
 71
     3
 72
    12
 73
     8
 74
     0
 42
0.00000001
 43
0.00000001
 12
1.0
 22
0.0
 32
0.0
 13
1.0
 23
0.0
 33
0.0
 40
0.0
 40
0.0
 40
0.0
 40
0.0
 40
0.5000000000000032
 40
0.5000000000000032
 40
0.7500000000000016
 40
0.7500000000000016
 40
1.0
 40
1.0
 40
1.0
 40
1.0
 10
179.0223872827567
 20
127.7476910116565
 30
0.0
 10
179.0035840499051
 20
127.7257690133954
 30
0.0
 10
178.9780473908858
 20
127.7048752053854
 30
0.0
 10
178.9178212169374
 20
127.6771484792676
 30
0.0
 10
178.8938951395374
 20
127.6685753458922
 30
0.0
 10
178.8358342193561
 20
127.6553962400847
 30
0.0
 10
178.8000325207302
 20
127.650790914605
 30
0.0
 10
178.7625796616214
 20
127.650790914605
 30
0.0
  0
ELLIPSE
  5
99
330
1F
100
AcDbEntity
  8
0
  6
Continuous
 62
     7
370
    15
100
AcDbEllipse
 10
168.7455524912
 20
146.7824472948
 30
0.0
 11
-9.367417879781813
 21
19.74174915274992
 31
0.0
210
0.0
220
0.0
230
1.0
 40
0.3419987131
 41
3.292664382516889
 42
4.239566697060997
  0
SPLINE
  5
9A
330
1F
100
AcDbEntity
  8
0
  6
Continuous
 62
     7
370
    15
100
AcDbSpline
210
0.0
220
0.0
230
1.0
 70
     8
 71
     3
 72
    12
 73
     8
 74
     0
 42
0.00000001
 43
0.00000001
 12
1.0
 22
0.0
 32
0.0
 13
1.0
 23
0.0
 33
0.0
 40
0.0
 40
0.0
 40
0.0
 40
0.0
 40
0.2500000000000012
 40
0.2500000000000012
 40
0.5000000000000023
 40
0.5000000000000023
 40
1.0
 40
1.0
 40
1.0
 40
1.0
 10
178.7625796616214
 20
140.9532342991866
 30
0.0
 10
178.8000804844992
 20
140.9532342991866
 30
0.0
 10
178.8353588885351
 20
140.9384379614335
 30
0.0
 10
178.8942766085875
 20
140.8948677002744
 30
0.0
 10
178.9177999899859
 20
140.8673659017728
 30
0.0
 10
178.9780555744518
 20
140.7782667385298
 30
0.0
 10
179.0035772268629
 20
140.7122071597474
 30
0.0
 10
179.0223872827567
 20
140.6442021677792
 30
0.0
  0
LINE
  5
9B
330
1F
100
AcDbEntity
  8
0
  6
Continuous
 62
     7
370
    15
100
AcDbLine
 10
176.6263836656
 20
140.9532342992
 30
0.0
 11
178.7625796616
 21
140.9532342992
 31
0.0
  0
SPLINE
  5
9C
330
1F
100
AcDbEntity
  8
0
  6
Continuous
 62
     7
370
    15
100
AcDbSpline
210
0.0
220
0.0
230
1.0
 70
     8
 71
     3
 72
    12
 73
     8
 74
     0
 42
0.00000001
 43
0.00000001
 12
1.0
 22
0.0
 32
0.0
 13
1.0
 23
0.0
 33
0.0
 40
0.0
 40
0.0
 40
0.0
 40
0.0
 40
0.4999999999999993
 40
0.4999999999999993
 40
0.7499999999999997
 40
0.7499999999999997
 40
1.0
 40
1.0
 40
1.0
 40
1.0
 10
176.3665760444844
 20
140.6442021677792
 30
0.0
 10
176.3853792773361
 20
140.7121824920416
 30
0.0
 10
176.4109159363554
 20
140.7782728798384
 30
0.0
 10
176.4711421103038
 20
140.8673374922856
 30
0.0
 10
176.4950681877038
 20
140.8951385793055
 30
0.0
 10
176.5531291078851
 20
140.9380976525304
 30
0.0
 10
176.588930806511
 20
140.9532342991866
 30
0.0
 10
176.6263836656198
 20
140.9532342991866
 30
0.0
  0
ELLIPSE
  5
9D
330
1F
100
AcDbEntity
  8
0
  6
Continuous
 62
     7
370
    15
100
AcDbEllipse
 10
186.6434108361
 20
146.7824472948
 30
0.0
 11
9.367417879781669
 21
19.74174915274995
 31
0.0
210
0.0
220
0.0
230
1.0
 40
0.3419987131
 41
2.043618610118598
 42
2.990520924662731
  0
LINE
  5
9E
330
1F
100
AcDbEntity
  8
0
  6
Continuous
 62
     7
370
    15
100
AcDbLine
 10
169.6944816636
 20
127.0824472948
 30
0.0
 11
169.6944816636
 21
166.4824270995
 31
0.0
  0
SPLINE
  5
9F
330
1F
100
AcDbEntity
  8
0
  6
Continuous
 62
     7
370
    15
100
AcDbSpline
210
0.0
220
0.0
230
1.0
 70
     8
 71
     3
 72
    18
 73
    14
 74
     0
 42
0.00000001
 43
0.00000001
 12
1.0
 22
0.0
 32
0.0
 13
1.0
 23
0.0
 33
0.0
 40
0.0
 40
0.0
 40
0.0
 40
0.0
 40
0.2500000000000001
 40
0.2500000000000001
 40
0.5000000000000002
 40
0.5000000000000002
 40
0.6250000000000001
 40
0.6250000000000001
 40
0.7500000000000001
 40
0.7500000000000001
 40
0.875
 40
0.875
 40
1.0
 40
1.0
 40
1.0
 40
1.0
 10
168.4383973460566
 20
132.9512589121595
 30
0.0
 10
168.4726941655084
 20
132.9503972566777
 30
0.0
 10
168.5105054454855
 20
132.9506488597726
 30
0.0
 10
168.5970778126655
 20
132.9530473723845
 30
0.0
 10
168.6454169427485
 20
132.9552183571164
 30
0.0
 10
168.7346893000709
 20
132.9593132354116
 30
0.0
 10
168.7672307658468
 20
132.9608178533612
 30
0.0
 10
168.8434069657003
 20
132.9637809113293
 30
0.0
 10
168.8866230256948
 20
132.9652682495851
 30
0.0
 10
168.9923123276608
 20
132.9668936609088
 30
0.0
 10
169.0572833863753
 20
132.9668514198349
 30
0.0
 10
169.1909437747332
 20
132.9628292465139
 30
0.0
 10
169.2502502280694
 20
132.9592880196904
 30
0.0
 10
169.2995047747453
 20
132.9557213122543
 30
0.0
  0
SPLINE
  5
A0
330
1F
100
AcDbEntity
  8
0
  6
Continuous
 62
     7
370
    15
100
AcDbSpline
210
0.0
220
0.0
230
1.0
 70
     8
 71
     3
 72
    14
 73
    10
 74
     0
 42
0.00000001
 43
0.00000001
 12
1.0
 22
0.0
 32
0.0
 13
1.0
 23
0.0
 33
0.0
 40
0.0
 40
0.0
 40
0.0
 40
0.0
 40
0.125
 40
0.125
 40
0.25
 40
0.25
 40
0.5
 40
0.5
 40
1.0
 40
1.0
 40
1.0
 40
1.0
 10
169.2995047747145
 20
132.9557213122732
 30
0.0
 10
169.3110315524319
 20
132.9548866148392
 30
0.0
 10
169.3243843600843
 20
132.9531462005591
 30
0.0
 10
169.3545269326845
 20
132.9458986105587
 30
0.0
 10
169.369587458299
 20
132.9405515763308
 30
0.0
 10
169.4049338122273
 20
132.9248043061024
 30
0.0
 10
169.4186659119563
 20
132.9149660319411
 30
0.0
 10
169.4520371576473
 20
132.8887620459906
 30
0.0
 10
169.4629775255013
 20
132.87467414459
 30
0.0
 10
169.4716306505146
 20
132.8619005211017
 30
0.0
  0
LINE
  5
A1
330
1F
100
AcDbEntity
  8
0
  6
Continuous
 62
     7
370
    15
100
AcDbLine
 10
169.4944816636
 20
141.2770025279
 30
0.0
 11
169.4944816636
 21
132.692627016
 31
0.0
  0
SPLINE
  5
A2
330
1F
100
AcDbEntity
  8
0
  6
Continuous
 62
     7
370
    15
100
AcDbSpline
210
0.0
220
0.0
230
1.0
 70
     8
 71
     3
 72
    16
 73
    12
 74
     0
 42
0.00000001
 43
0.00000001
 12
1.0
 22
0.0
 32
0.0
 13
1.0
 23
0.0
 33
0.0
 40
0.0
 40
0.0
 40
0.0
 40
0.0
 40
0.4999999999999987
 40
0.4999999999999987
 40
0.7499999999999996
 40
0.7499999999999996
 40
0.8749999999999986
 40
0.8749999999999986
 40
0.9374999999999992
 40
0.9374999999999992
 40
1.0
 40
1.0
 40
1.0
 40
1.0
 10
169.4944816636206
 20
141.2770025278756
 30
0.0
 10
169.4944816636206
 20
141.3945779088951
 30
0.0
 10
169.4905982384617
 20
141.5132736619963
 30
0.0
 10
169.465782913187
 20
141.6940311399888
 30
0.0
 10
169.4549434654745
 20
141.7556752167617
 30
0.0
 10
169.4217276834257
 20
141.845012191103
 30
0.0
 10
169.4083459397969
 20
141.8752717225281
 30
0.0
 10
169.3728362899347
 20
141.9087879665155
 30
0.0
 10
169.3574193234339
 20
141.9169263123216
 30
0.0
 10
169.3257183012853
 20
141.9169109028903
 30
0.0
 10
169.3115720163345
 20
141.9098686655344
 30
0.0
 10
169.2995047747448
 20
141.9007276019248
 30
0.0
  0
SPLINE
  5
A3
330
1F
100
AcDbEntity
  8
0
  6
Continuous
 62
     7
370
    15
100
AcDbSpline
210
0.0
220
0.0
230
1.0
 70
     8
 71
     3
 72
    18
 73
    14
 74
     0
 42
0.00000001
 43
0.00000001
 12
1.0
 22
0.0
 32
0.0
 13
1.0
 23
0.0
 33
0.0
 40
0.0
 40
0.0
 40
0.0
 40
0.0
 40
0.1249999999999999
 40
0.1249999999999999
 40
0.2499999999999999
 40
0.2499999999999999
 40
0.3749999999999998
 40
0.3749999999999998
 40
0.4999999999999998
 40
0.4999999999999998
 40
0.7499999999999999
 40
0.7499999999999999
 40
1.0
 40
1.0
 40
1.0
 40
1.0
 10
169.299504774751
 20
141.9007276019176
 30
0.0
 10
169.250800191063
 20
141.863833362727
 30
0.0
 10
169.1922917082875
 20
141.8343020583011
 30
0.0
 10
169.0605648930177
 20
141.8250660850222
 30
0.0
 10
168.9958068215202
 20
141.8481292595791
 30
0.0
 10
168.8905962193695
 20
141.9156473812266
 30
0.0
 10
168.8473800708493
 20
141.9586584778771
 30
0.0
 10
168.7712017547655
 20
142.0489004998732
 30
0.0
 10
168.7383469224742
 20
142.0965313813485
 30
0.0
 10
168.6479790165132
 20
142.243595680698
 30
0.0
 10
168.5985563586736
 20
142.3475090060026
 30
0.0
 10
168.510905233082
 20
142.5586429696429
 30
0.0
 10
168.4728436856915
 20
142.6663657144017
 30
0.0
 10
168.4383973460576
 20
142.7756988303111
 30
0.0
  0
SPLINE
  5
A4
330
1F
100
AcDbEntity
  8
0
  6
Continuous
 62
     7
370
    15
100
AcDbSpline
210
0.0
220
0.0
230
1.0
 70
     8
 71
     3
 72
     8
 73
     4
 74
     0
 42
0.00000001
 43
0.00000001
 12
1.0
 22
0.0
 32
0.0
 13
1.0
 23
0.0
 33
0.0
 40
0.0
 40
0.0
 40
0.0
 40
0.0
 40
1.0
 40
1.0
 40
1.0
 40
1.0
 10
168.3731613200609
 20
143.01090260444
 30
0.0
 10
168.3925875253598
 20
142.9313103328672
 30
0.0
 10
168.4140843497883
 20
142.8528685867344
 30
0.0
 10
168.4383973460576
 20
142.7756988303111
 30
0.0
  0
SPLINE
  5
A5
330
1F
100
AcDbEntity
  8
0
  6
Continuous
 62
     7
370
    15
100
AcDbSpline
210
0.0
220
0.0
230
1.0
 70
     8
 71
     3
 72
     8
 73
     4
 74
     0
 42
0.00000001
 43
0.00000001
 12
1.0
 22
0.0
 32
0.0
 13
1.0
 23
0.0
 33
0.0
 40
0.0
 40
0.0
 40
0.0
 40
0.0
 40
1.0
 40
1.0
 40
1.0
 40
1.0
 10
168.4383973460576
 20
150.7891957593656
 30
0.0
 10
168.4140843497882
 20
150.7120260029423
 30
0.0
 10
168.3925875253598
 20
150.6335842568096
 30
0.0
 10
168.3731613200609
 20
150.5539919852368
 30
0.0
  0
SPLINE
  5
A6
330
1F
100
AcDbEntity
  8
0
  6
Continuous
 62
     7
370
    15
100
AcDbSpline
210
0.0
220
0.0
230
1.0
 70
     8
 71
     3
 72
    18
 73
    14
 74
     0
 42
0.00000001
 43
0.00000001
 12
1.0
 22
0.0
 32
0.0
 13
1.0
 23
0.0
 33
0.0
 40
0.0
 40
0.0
 40
0.0
 40
0.0
 40
0.2499999999999987
 40
0.2499999999999987
 40
0.4999999999999973
 40
0.4999999999999973
 40
0.624999999999998
 40
0.624999999999998
 40
0.7499999999999987
 40
0.7499999999999987
 40
0.8749999999999993
 40
0.8749999999999993
 40
1.0
 40
1.0
 40
1.0
 40
1.0
 10
168.4383973460576
 20
150.7891957593656
 30
0.0
 10
168.4726956650703
 20
150.8980590559587
 30
0.0
 10
168.5105100623822
 20
151.005066479195
 30
0.0
 10
168.5970981234558
 20
151.2141013033333
 30
0.0
 10
168.6454482291345
 20
151.3162713973228
 30
0.0
 10
168.7347648179343
 20
151.4629521688875
 30
0.0
 10
168.7673251734226
 20
151.5107538674231
 30
0.0
 10
168.8435708071515
 20
151.6023094054484
 30
0.0
 10
168.8867301769315
 20
151.6459887974404
 30
0.0
 10
168.9924590009495
 20
151.715343014767
 30
0.0
 10
169.0574561780042
 20
151.7394593284329
 30
0.0
 10
169.1909406679584
 20
151.7312551063947
 30
0.0
 10
169.2502680614039
 20
151.7014643208027
 30
0.0
 10
169.2995047747453
 20
151.6641669877517
 30
0.0
  0
SPLINE
  5
A7
330
1F
100
AcDbEntity
  8
0
  6
Continuous
 62
     7
370
    15
100
AcDbSpline
210
0.0
220
0.0
230
1.0
 70
     8
 71
     3
 72
    16
 73
    12
 74
     0
 42
0.00000001
 43
0.00000001
 12
1.0
 22
0.0
 32
0.0
 13
1.0
 23
0.0
 33
0.0
 40
0.0
 40
0.0
 40
0.0
 40
0.0
 40
0.0624999999999987
 40
0.0624999999999987
 40
0.1249999999999974
 40
0.1249999999999974
 40
0.2499999999999972
 40
0.2499999999999972
 40
0.4999999999999982
 40
0.4999999999999982
 40
1.0
 40
1.0
 40
1.0
 40
1.0
 10
169.2995047747145
 20
151.6641669877033
 30
0.0
 10
169.3115746079903
 20
151.6550239608575
 30
0.0
 10
169.3258502629237
 20
151.6479795131662
 30
0.0
 10
169.3573146750481
 20
151.6479724412676
 30
0.0
 10
169.3728151998585
 20
151.6561004100646
 30
0.0
 10
169.4082540964654
 20
151.6895088710718
 30
0.0
 10
169.4218467125687
 20
151.7201760375339
 30
0.0
 10
169.4548410309616
 20
151.8089970316157
 30
0.0
 10
169.4656284242803
 20
151.8698996771636
 30
0.0
 10
169.4906816715595
 20
152.0519077545419
 30
0.0
 10
169.4944816636207
 20
152.1705964695806
 30
0.0
 10
169.4944816636207
 20
152.2878920618011
 30
0.0
  0
LINE
  5
A8
330
1F
100
AcDbEntity
  8
0
  6
Continuous
 62
     7
370
    15
100
AcDbLine
 10
169.4944816636
 20
160.8722675737
 30
0.0
 11
169.4944816636
 21
152.2878920618
 31
0.0
  0
SPLINE
  5
A9
330
1F
100
AcDbEntity
  8
0
  6
Continuous
 62
     7
370
    15
100
AcDbSpline
210
0.0
220
0.0
230
1.0
 70
     8
 71
     3
 72
    12
 73
     8
 74
     0
 42
0.00000001
 43
0.00000001
 12
1.0
 22
0.0
 32
0.0
 13
1.0
 23
0.0
 33
0.0
 40
0.0
 40
0.0
 40
0.0
 40
0.0
 40
0.5000000000000031
 40
0.5000000000000031
 40
0.7500000000000016
 40
0.7500000000000016
 40
1.0
 40
1.0
 40
1.0
 40
1.0
 10
169.454142333753
 20
160.6810547977092
 30
0.0
 10
169.4440194816719
 20
160.6701210530715
 30
0.0
 10
169.4316566973258
 20
160.6580557662489
 30
0.0
 10
169.3968220941525
 20
160.6367064259047
 30
0.0
 10
169.3814648729095
 20
160.6284867496757
 30
0.0
 10
169.3387958307697
 20
160.6141474500461
 30
0.0
 10
169.3163716164099
 20
160.6103946690228
 30
0.0
 10
169.2995047747448
 20
160.6091732774224
 30
0.0
  0
SPLINE
  5
AA
330
1F
100
AcDbEntity
  8
0
  6
Continuous
 62
     7
370
    15
100
AcDbSpline
210
0.0
220
0.0
230
1.0
 70
     8
 71
     3
 72
    18
 73
    14
 74
     0
 42
0.00000001
 43
0.00000001
 12
1.0
 22
0.0
 32
0.0
 13
1.0
 23
0.0
 33
0.0
 40
0.0
 40
0.0
 40
0.0
 40
0.0
 40
0.125
 40
0.125
 40
0.25
 40
0.25
 40
0.375
 40
0.375
 40
0.5
 40
0.5
 40
0.75
 40
0.75
 40
1.0
 40
1.0
 40
1.0
 40
1.0
 10
169.299504774751
 20
160.6091732774223
 30
0.0
 10
169.2508006457342
 20
160.6056464278041
 30
0.0
 10
169.1922929765297
 20
160.6021461546065
 30
0.0
 10
169.0605673138988
 20
160.5981031707185
 30
0.0
 10
168.9958096752786
 20
160.5979915960879
 30
0.0
 10
168.8905992586594
 20
160.5995237808494
 30
0.0
 10
168.8473832237192
 20
160.6009789330645
 30
0.0
 10
168.7712050022383
 20
160.6039041945942
 30
0.0
 10
168.7383502345542
 20
160.6054145251025
 30
0.0
 10
168.6479825157123
 20
160.6095565177908
 30
0.0
 10
168.5985601465229
 20
160.6117946027773
 30
0.0
 10
168.5109076844349
 20
160.6142458858238
 30
0.0
 10
168.4728449482005
 20
160.6145011211849
 30
0.0
 10
168.4383973460571
 20
160.613635677517
 30
0.0
  0
SPLINE
  5
AB
330
1F
100
AcDbEntity
  8
0
  6
Continuous
 62
     7
370
    15
100
AcDbSpline
210
0.0
220
0.0
230
1.0
 70
     8
 71
     3
 72
     8
 73
     4
 74
     0
 42
0.00000001
 43
0.00000001
 12
1.0
 22
0.0
 32
0.0
 13
1.0
 23
0.0
 33
0.0
 40
0.0
 40
0.0
 40
0.0
 40
0.0
 40
1.0
 40
1.0
 40
1.0
 40
1.0
 10
168.1994416856813
 20
143.8359564904746
 30
0.0
 10
168.2501687684037
 20
143.5526053691555
 30
0.0
 10
168.3080560813908
 20
143.2776491850157
 30
0.0
 10
168.373161320061
 20
143.01090260444
 30
0.0
  0
SPLINE
  5
AC
330
1F
100
AcDbEntity
  8
0
  6
Continuous
 62
     7
370
    15
100
AcDbSpline
210
0.0
220
0.0
230
1.0
 70
     8
 71
     3
 72
    24
 73
    20
 74
     0
 42
0.00000001
 43
0.00000001
 12
1.0
 22
0.0
 32
0.0
 13
1.0
 23
0.0
 33
0.0
 40
0.0
 40
0.0
 40
0.0
 40
0.0
 40
0.2500000000000008
 40
0.2500000000000008
 40
0.3750000000000006
 40
0.3750000000000006
 40
0.4374999999999999
 40
0.4374999999999999
 40
0.4687499999999996
 40
0.4687499999999996
 40
0.4999999999999992
 40
0.4999999999999992
 40
0.5624999999999993
 40
0.5624999999999993
 40
0.6249999999999993
 40
0.6249999999999993
 40
0.7499999999999996
 40
0.7499999999999996
 40
1.0
 40
1.0
 40
1.0
 40
1.0
 10
167.9944816636123
 20
143.8362488987679
 30
0.0
 10
167.9948846929862
 20
143.9295171913975
 30
0.0
 10
167.9969144327013
 20
144.0232747502465
 30
0.0
 10
168.0062231441211
 20
144.1648646358859
 30
0.0
 10
168.0101491372357
 20
144.2120450544952
 30
0.0
 10
168.0210784971517
 20
144.2826411011806
 30
0.0
 10
168.025200125246
 20
144.3064210149454
 30
0.0
 10
168.0370946464284
 20
144.3398721619926
 30
0.0
 10
168.0423814583822
 20
144.3520271140622
 30
0.0
 10
168.0589493898971
 20
144.3599097530303
 30
0.0
 10
168.0668760986644
 20
144.3523461539284
 30
0.0
 10
168.0838684368896
 20
144.3285537227016
 30
0.0
 10
168.0912661376806
 20
144.3083652448571
 30
0.0
 10
168.1053685280224
 20
144.2679156202373
 30
0.0
 10
168.1115216853147
 20
144.2470599458398
 30
0.0
 10
168.1288354187758
 20
144.1839349105388
 30
0.0
 10
168.1388404596643
 20
144.1409557986373
 30
0.0
 10
168.167196915895
 20
144.0112301543484
 30
0.0
 10
168.1837454552413
 20
143.9236324272124
 30
0.0
 10
168.1994416856813
 20
143.8359564904747
 30
0.0
  0
SPLINE
  5
AD
330
1F
100
AcDbEntity
  8
0
  6
Continuous
 62
     7
370
    15
100
AcDbSpline
210
0.0
220
0.0
230
1.0
 70
     8
 71
     3
 72
    16
 73
    12
 74
     0
 42
0.00000001
 43
0.00000001
 12
1.0
 22
0.0
 32
0.0
 13
1.0
 23
0.0
 33
0.0
 40
0.0
 40
0.0
 40
0.0
 40
0.0
 40
0.2500000000000001
 40
0.2500000000000001
 40
0.375
 40
0.375
 40
0.5
 40
0.5
 40
0.75
 40
0.75
 40
1.0
 40
1.0
 40
1.0
 40
1.0
 10
167.9944816636206
 20
149.7286456909076
 30
0.0
 10
167.9139448542251
 20
149.2595728640445
 30
0.0
 10
167.8539074454229
 20
148.7792092138646
 30
0.0
 10
167.7931694981756
 20
148.0420249347237
 30
0.0
 10
167.7778470171327
 20
147.7935065314966
 30
0.0
 10
167.7572640653548
 20
147.2907230862829
 30
0.0
 10
167.7520645183183
 20
147.0358645332583
 30
0.0
 10
167.7520108077781
 20
146.2795871935376
 30
0.0
 10
167.7722081450472
 20
145.7809289942277
 30
0.0
 10
167.8528864521201
 20
144.7945060234835
 30
0.0
 10
167.9139328004614
 20
144.3053919307106
 30
0.0
 10
167.9944816636206
 20
143.8362488987692
 30
0.0
  0
SPLINE
  5
AE
330
1F
100
AcDbEntity
  8
0
  6
Continuous
 62
     7
370
    15
100
AcDbSpline
210
0.0
220
0.0
230
1.0
 70
     8
 71
     3
 72
    24
 73
    20
 74
     0
 42
0.00000001
 43
0.00000001
 12
1.0
 22
0.0
 32
0.0
 13
1.0
 23
0.0
 33
0.0
 40
0.0
 40
0.0
 40
0.0
 40
0.0
 40
0.2500000000000098
 40
0.2500000000000098
 40
0.3750000000000134
 40
0.3750000000000134
 40
0.4375000000000148
 40
0.4375000000000148
 40
0.5000000000000161
 40
0.5000000000000161
 40
0.531250000000015
 40
0.531250000000015
 40
0.5625000000000139
 40
0.5625000000000139
 40
0.6250000000000118
 40
0.6250000000000118
 40
0.7500000000000077
 40
0.7500000000000077
 40
1.0
 40
1.0
 40
1.0
 40
1.0
 10
168.1994416856814
 20
149.7289380992021
 30
0.0
 10
168.1836726407717
 20
149.6408554357112
 30
0.0
 10
168.1670584762111
 20
149.5529106192017
 30
0.0
 10
168.1385263487177
 20
149.4225632519387
 30
0.0
 10
168.1284387151638
 20
149.3793020741366
 30
0.0
 10
168.1109508923149
 20
149.3158662983012
 30
0.0
 10
168.1047410843886
 20
149.2949521747574
 30
0.0
 10
168.0904632248062
 20
149.2544773830723
 30
0.0
 10
168.0828920624544
 20
149.2339997396131
 30
0.0
 10
168.06547223728
 20
149.2111533600762
 30
0.0
 10
168.0569881548254
 20
149.2046015630325
 30
0.0
 10
168.0409520812079
 20
149.215172938259
 30
0.0
 10
168.03613170893
 20
149.227263978543
 30
0.0
 10
168.0247248083242
 20
149.2609072217629
 30
0.0
 10
168.0207038466148
 20
149.2843149010597
 30
0.0
 10
168.0099498348355
 20
149.3549035041208
 30
0.0
 10
168.0060779492128
 20
149.4018685316433
 30
0.0
 10
167.9969099844119
 20
149.5424453962494
 30
0.0
 10
167.9948816498988
 20
149.636081625869
 30
0.0
 10
167.9944816636206
 20
149.7286456909076
 30
0.0
  0
SPLINE
  5
AF
330
1F
100
AcDbEntity
  8
0
  6
Continuous
 62
     7
370
    15
100
AcDbSpline
210
0.0
220
0.0
230
1.0
 70
     8
 71
     3
 72
     8
 73
     4
 74
     0
 42
0.00000001
 43
0.00000001
 12
1.0
 22
0.0
 32
0.0
 13
1.0
 23
0.0
 33
0.0
 40
0.0
 40
0.0
 40
0.0
 40
0.0
 40
1.0
 40
1.0
 40
1.0
 40
1.0
 10
168.373161320061
 20
150.5539919852367
 30
0.0
 10
168.3080560813908
 20
150.2872454046611
 30
0.0
 10
168.2501687684037
 20
150.0122892205213
 30
0.0
 10
168.1994416856813
 20
149.7289380992021
 30
0.0
  0
LINE
  5
B0
330
1F
100
AcDbEntity
  8
0
  6
Continuous
 62
     7
370
    15
100
AcDbLine
 10
167.9944816636
 20
143.8362488988
 30
0.0
 11
167.9944816636
 21
142.6812436294
 31
0.0
  0
LINE
  5
B1
330
1F
100
AcDbEntity
  8
0
  6
Continuous
 62
     7
370
    15
100
AcDbLine
 10
147.1944816636
 20
150.6223667609
 30
0.0
 11
147.1944816636
 21
142.9425278287
 31
0.0
  0
LINE
  5
B2
330
1F
100
AcDbEntity
  8
0
  6
Continuous
 62
     7
370
    15
100
AcDbLine
 10
167.9944816636
 20
150.8836509603
 30
0.0
 11
167.9944816636
 21
149.7286456909
 31
0.0
  0
LINE
  5
B3
330
1F
100
AcDbEntity
  8
0
  6
Continuous
 62
     7
370
    15
100
AcDbLine
 10
145.6944816636
 20
150.1893540591
 30
0.0
 11
145.6944816636
 21
143.3755405306
 31
0.0
  0
LINE
  5
B4
330
1F
100
AcDbEntity
  8
0
  6
Continuous
 62
     7
370
    15
100
AcDbLine
 10
168.1994416857
 20
160.6076322796
 30
0.0
 11
168.4383973461
 21
160.6136356775
 31
0.0
  0
LINE
  5
B5
330
1F
100
AcDbEntity
  8
0
  6
Continuous
 62
     7
370
    15
100
AcDbLine
 10
167.9944816636
 20
150.8836509603
 30
0.0
 11
167.9944816636
 21
160.8025460794
 31
0.0
  0
ARC
  5
B6
330
1F
100
AcDbEntity
  8
0
  6
Continuous
 62
     7
370
    15
100
AcDbCircle
 10
168.1944185746
 20
160.8075691905
 30
0.0
 40
0.2000000000000066
100
AcDbArc
 50
181.4391666667
 51
271.4391666667
  0
LINE
  5
B7
330
1F
100
AcDbEntity
  8
0
  6
Continuous
 62
     7
370
    15
100
AcDbLine
 10
147.1944816636
 20
150.6223667609
 30
0.0
 11
147.1944816636
 21
160.2799776807
 31
0.0
  0
LINE
  5
B8
330
1F
100
AcDbEntity
  8
0
  6
Continuous
 62
     7
370
    15
100
AcDbLine
 10
147.1944816636
 20
160.2799776807
 30
0.0
 11
167.9944816636
 21
160.8025460794
 31
0.0
  0
LINE
  5
B9
330
1F
100
AcDbEntity
  8
0
  6
Continuous
 62
     7
370
    15
100
AcDbLine
 10
167.9944816636
 20
132.7623485103
 30
0.0
 11
167.9944816636
 21
142.6812436294
 31
0.0
  0
ARC
  5
BA
330
1F
100
AcDbEntity
  8
0
  6
Continuous
 62
     7
370
    15
100
AcDbCircle
 10
168.1944185746
 20
132.7573253991
 30
0.0
 40
0.2000000000000059
100
AcDbArc
 50
88.5608333333
 51
178.5608333333
  0
LINE
  5
BB
330
1F
100
AcDbEntity
  8
0
  6
Continuous
 62
     7
370
    15
100
AcDbLine
 10
147.1944816636
 20
133.284916909
 30
0.0
 11
147.1944816636
 21
142.9425278287
 31
0.0
  0
LINE
  5
BC
330
1F
100
AcDbEntity
  8
0
  6
Continuous
 62
     7
370
    15
100
AcDbLine
 10
147.1944816636
 20
133.284916909
 30
0.0
 11
167.9944816636
 21
132.7623485103
 31
0.0
  0
LINE
  5
BD
330
1F
100
AcDbEntity
  8
0
  6
Continuous
 62
     7
370
    15
100
AcDbLine
 10
168.1994416857
 20
132.9572623101
 30
0.0
 11
168.4383973461
 21
132.9512589122
 31
0.0
  0
LINE
  5
BE
330
1F
100
AcDbEntity
  8
0
  6
Continuous
 62
     7
370
    15
100
AcDbLine
 10
145.6944816636
 20
134.1509423128
 30
0.0
 11
147.1944816636
 21
133.284916909
 31
0.0
  0
LINE
  5
BF
330
1F
100
AcDbEntity
  8
0
  6
Continuous
 62
     7
370
    15
100
AcDbLine
 10
145.6944816636
 20
134.1509423128
 30
0.0
 11
145.6944816636
 21
143.3755405306
 31
0.0
  0
LINE
  5
C0
330
1F
100
AcDbEntity
  8
0
  6
Continuous
 62
     7
370
    15
100
AcDbLine
 10
145.6944816636
 20
159.4139522769
 30
0.0
 11
147.1944816636
 21
160.2799776807
 31
0.0
  0
LINE
  5
C1
330
1F
100
AcDbEntity
  8
0
  6
Continuous
 62
     7
370
    15
100
AcDbLine
 10
145.6944816636
 20
150.1893540591
 30
0.0
 11
145.6944816636
 21
159.4139522769
 31
0.0
  0
LWPOLYLINE
  5
C2
330
1F
100
AcDbEntity
  8
0
  6
Continuous
 62
     7
370
    15
100
AcDbPolyline
 90
       31
 70
   128
 43
0.0
 10
251.4130616459
 20
152.7383974957
 10
251.326333479
 20
153.2543621331
 10
251.2455137658
 20
153.8502753467
 10
251.1741347157
 20
154.5000928697
 10
251.1153159356
 20
155.1754145582
 10
251.0716280886
 20
155.8467256137
 10
251.044980543
 20
156.4846865219
 10
251.0365379247
 20
157.0614153299
 10
251.0466692164
 20
157.5517062211
 10
251.0749316321
 20
157.9341311311
 10
251.1200899687
 20
158.1919762561
 10
251.1801705901
 20
158.313972527
 10
251.2525476849
 20
158.2947881213
 10
251.3340580267
 20
158.1352614896
 10
251.4211392225
 20
157.8423647111
 10
251.5099854062
 20
157.4288987806
 10
251.5967135731
 20
156.9129341433
 10
251.6775332863
 20
156.3170209296
 10
251.7489123364
 20
155.6672034066
 10
251.8077311165
 20
154.9918817182
 10
251.8514189635
 20
154.3205706626
 10
251.8780665091
 20
153.6826097544
 10
251.8865091274
 20
153.1058809465
 10
251.8763778357
 20
152.6155900552
 10
251.84811542
 20
152.2331651452
 10
251.8029570834
 20
151.9753200202
 10
251.742876462
 20
151.8533237493
 10
251.6704993672
 20
151.872508155
 10
251.5889890254
 20
152.0320347868
 10
251.5019078296
 20
152.3249315652
 10
251.4130616459
 20
152.7383974957
  0
LWPOLYLINE
  5
C3
330
1F
100
AcDbEntity
  8
0
  6
Continuous
 62
     7
370
    15
100
AcDbPolyline
 90
       28
 70
   128
 43
0.0
 10
251.4242451567
 20
153.2796091824
 10
251.3503472084
 20
153.7247470491
 10
251.2824428041
 20
154.2431436251
 10
251.2241926879
 20
154.806852017
 10
251.1787371386
 20
155.3854825595
 10
251.1485266766
 20
155.9478411301
 10
251.1351899558
 20
156.4636108329
 10
251.1394459623
 20
156.9049863897
 10
251.1610652536
 20
157.2481731298
 10
251.1988823281
 20
157.4746697674
 10
251.2508584576
 20
157.57226581
 10
251.3141915954
 20
157.5356998298
 10
251.3854674358
 20
157.3669431083
 10
251.4608434797
 20
157.0750933638
 10
251.5362561851
 20
156.6758842918
 10
251.6076400334
 20
156.1908373567
 10
251.6711467031
 20
155.6461015641
 10
251.723352533
 20
155.0710437618
 10
251.7614430933
 20
154.4966654647
 10
251.7833649122
 20
153.9539315554
 10
251.7879361786
 20
153.4721009595
 10
251.7749104545
 20
153.0771492892
 10
251.7449899599
 20
152.7903684912
 10
251.6997877165
 20
152.6272189925
 10
251.6417405889
 20
152.5964962249
 10
251.5739779128
 20
152.6998564607
 10
251.5001527916
 20
152.9317275229
 10
251.4242451567
 20
153.2796091824
  0
ARC
  5
C4
330
1F
100
AcDbEntity
  8
0
  6
Continuous
 62
     7
370
    15
100
AcDbCircle
 10
234.0747155342
 20
153.6934535449
 30
0.0
 40
17.26518154542409
100
AcDbArc
 50
0.351174616
 51
8.7917559806
  0
LWPOLYLINE
  5
C5
330
1F
100
AcDbEntity
  8
0
  6
Continuous
 62
     7
370
    15
100
AcDbPolyline
 90
       31
 70
   128
 43
0.0
 10
251.4130616459
 20
135.9085163592
 10
251.326333479
 20
135.5411358944
 10
251.2455137658
 20
135.2998769363
 10
251.1741347157
 20
135.195283659
 10
251.1153159356
 20
135.2319272906
 10
251.0716280886
 20
135.4082063286
 10
251.044980543
 20
135.7164165331
 10
251.0365379247
 20
136.1430876392
 10
251.0466692164
 20
136.6695720723
 10
251.0749316321
 20
137.2728599362
 10
251.1200899687
 20
137.9265846564
 10
251.1801705901
 20
138.6021753257
 10
251.2525476849
 20
139.27010539
 10
251.3340580267
 20
139.9011831004
 10
251.4211392225
 20
140.4678273327
 10
251.5099854062
 20
140.945273015
 10
251.5967135731
 20
141.3126534797
 10
251.6775332863
 20
141.5539124379
 10
251.7489123364
 20
141.6585057152
 10
251.8077311165
 20
141.6218620836
 10
251.8514189635
 20
141.4455830456
 10
251.8780665091
 20
141.1373728411
 10
251.8865091274
 20
140.7107017349
 10
251.8763778357
 20
140.1842173018
 10
251.84811542
 20
139.5809294379
 10
251.8029570834
 20
138.9272047177
 10
251.742876462
 20
138.2516140484
 10
251.6704993672
 20
137.5836839841
 10
251.5889890254
 20
136.9526062737
 10
251.5019078296
 20
136.3859620414
 10
251.4130616459
 20
135.9085163592
  0
LWPOLYLINE
  5
C6
330
1F
100
AcDbEntity
  8
0
  6
Continuous
 62
     7
370
    15
100
AcDbPolyline
 90
       28
 70
   128
 43
0.0
 10
251.4242451567
 20
136.4896805887
 10
251.3503472084
 20
136.1814822648
 10
251.2824428041
 20
135.9943347059
 10
251.2241926879
 20
135.9383270851
 10
251.1787371386
 20
136.016478788
 10
251.1485266766
 20
136.2245766358
 10
251.1351899558
 20
136.5514020199
 10
251.1394459623
 20
136.9793356991
 10
251.1610652536
 20
137.485307658
 10
251.1988823281
 20
138.0420408174
 10
251.2508584576
 20
138.6195215485
 10
251.3141915954
 20
139.1866177156
 10
251.3854674358
 20
139.7127570177
 10
251.4608434797
 20
140.1695751486
 10
251.5362561851
 20
140.5324449248
 10
251.6076400334
 20
140.7818039427
 10
251.6711467031
 20
140.9042091931
 10
251.723352533
 20
140.8930617772
 10
251.7614430933
 20
140.7489626552
 10
251.7833649122
 20
140.4796802479
 10
251.7879361786
 20
140.0997316397
 10
251.7749104545
 20
139.6295999584
 10
251.7449899599
 20
139.0946301246
 10
251.6997877165
 20
138.5236625006
 10
251.6417405889
 20
137.9474780986
 10
251.5739779128
 20
137.3971391691
 10
251.5001527916
 20
136.902314626
 10
251.4242451567
 20
136.4896805887
  0
ARC
  5
C7
330
1F
100
AcDbEntity
  8
0
  6
Continuous
 62
     7
370
    15
100
AcDbCircle
 10
229.1788849254
 20
140.5300436702
 30
0.0
 40
22.17523443839531
100
AcDbArc
 50
352.7230694726
 51
356.4931421356
  0
CIRCLE
  5
C8
330
1F
100
AcDbEntity
  8
0
  6
HIDDEN
 62
     7
370
     0
100
AcDbCircle
 10
237.6944816636
 20
166.7824472948
 30
0.0
 40
4.25
  0
CIRCLE
  5
C9
330
1F
100
AcDbEntity
  8
0
  6
HIDDEN
 62
     7
370
     0
100
AcDbCircle
 10
237.6944816636
 20
126.7824472948
 30
0.0
 40
4.25
  0
CIRCLE
  5
CA
330
1F
100
AcDbEntity
  8
0
  6
HIDDEN
 62
     7
370
     0
100
AcDbCircle
 10
211.6944816636
 20
166.7824472948
 30
0.0
 40
4.25
  0
CIRCLE
  5
CB
330
1F
100
AcDbEntity
  8
0
  6
HIDDEN
 62
     7
370
     0
100
AcDbCircle
 10
211.6944816636
 20
126.7824472948
 30
0.0
 40
4.25
  0
SPLINE
  5
CC
330
1F
100
AcDbEntity
  8
0
  6
HIDDEN
 62
     7
370
     0
100
AcDbSpline
210
0.0
220
0.0
230
1.0
 70
    24
 71
     3
 72
    10
 73
     6
 74
     0
 42
0.00000001
 43
0.00000001
 12
1.0
 22
0.0
 32
0.0
 13
1.0
 23
0.0
 33
0.0
 40
0.0
 40
0.0
 40
0.0
 40
0.0
 40
0.2365323193382514
 40
0.6181843808377758
 40
1.0
 40
1.0
 40
1.0
 40
1.0
 10
191.5167797276819
 20
116.7824472948384
 30
0.0
 10
191.5147770872387
 20
116.7824472948384
 30
0.0
 10
191.5095431257832
 20
116.7824472948384
 30
0.0
 10
191.7851952333959
 20
116.7824472948384
 30
0.0
 10
192.1155232118018
 20
116.7824472948384
 30
0.0
 10
192.2807225840821
 20
116.7824472948384
 30
0.0
  0
SPLINE
  5
CD
330
1F
100
AcDbEntity
  8
0
  6
HIDDEN
 62
     7
370
     0
100
AcDbSpline
210
0.0
220
0.0
230
1.0
 70
     8
 71
     3
 72
    10
 73
     6
 74
     0
 42
0.00000001
 43
0.00000001
 12
1.0
 22
0.0
 32
0.0
 13
1.0
 23
0.0
 33
0.0
 40
0.0
 40
0.0
 40
0.0
 40
0.0
 40
0.5
 40
0.5
 40
1.0
 40
1.0
 40
1.0
 40
1.0
 10
192.2807225840821
 20
164.1837617296106
 30
0.0
 10
192.0548297610008
 20
158.3840999779723
 30
0.0
 10
191.923160611969
 20
152.5841143797112
 30
0.0
 10
191.9231249728603
 20
140.9832382123546
 30
0.0
 10
192.0547692729379
 20
135.1823476061735
 30
0.0
 10
192.2807225840821
 20
129.3811328600662
 30
0.0
  0
SPLINE
  5
CE
330
1F
100
AcDbEntity
  8
0
  6
HIDDEN
 62
     7
370
     0
100
AcDbSpline
210
0.0
220
0.0
230
1.0
 70
    24
 71
     3
 72
    10
 73
     6
 74
     0
 42
0.00000001
 43
0.00000001
 12
1.0
 22
0.0
 32
0.0
 13
1.0
 23
0.0
 33
0.0
 40
0.0
 40
0.0
 40
0.0
 40
0.0
 40
0.3808205939779332
 40
0.7617679139265832
 40
1.0
 40
1.0
 40
1.0
 40
1.0
 10
192.2807225840821
 20
176.7824472948384
 30
0.0
 10
192.1159130166655
 20
176.7824472948384
 30
0.0
 10
191.786239038022
 20
176.7824472948384
 30
0.0
 10
191.510067723458
 20
176.7824472948384
 30
0.0
 10
191.51489960499
 20
176.7824472948384
 30
0.0
 10
191.5167586933348
 20
176.7824472948384
 30
0.0
  0
SPLINE
  5
CF
330
1F
100
AcDbEntity
  8
0
  6
HIDDEN
 62
     7
370
     0
100
AcDbSpline
210
0.0
220
0.0
230
1.0
 70
     8
 71
     3
 72
    58
 73
    54
 74
     0
 42
0.00000001
 43
0.00000001
 12
1.0
 22
0.0
 32
0.0
 13
1.0
 23
0.0
 33
0.0
 40
-0.0624999999999997
 40
-0.0624999999999997
 40
0.0
 40
0.0
 40
0.0312500000000002
 40
0.0312500000000002
 40
0.0625000000000004
 40
0.0625000000000004
 40
0.0937500000000006
 40
0.0937500000000006
 40
0.1250000000000008
 40
0.1250000000000008
 40
0.1875000000000009
 40
0.1875000000000009
 40
0.2500000000000011
 40
0.2500000000000011
 40
0.2812500000000011
 40
0.2812500000000011
 40
0.3125000000000012
 40
0.3125000000000012
 40
0.3437500000000013
 40
0.3437500000000013
 40
0.3750000000000014
 40
0.3750000000000014
 40
0.4062500000000014
 40
0.4062500000000014
 40
0.4375000000000016
 40
0.4375000000000016
 40
0.4687500000000016
 40
0.4687500000000016
 40
0.5000000000000016
 40
0.5000000000000016
 40
0.5625000000000017
 40
0.5625000000000017
 40
0.6250000000000018
 40
0.6250000000000018
 40
0.6562500000000017
 40
0.6562500000000017
 40
0.6875000000000014
 40
0.6875000000000014
 40
0.7187500000000013
 40
0.7187500000000013
 40
0.7500000000000012
 40
0.7500000000000012
 40
0.7812500000000011
 40
0.7812500000000011
 40
0.8125000000000009
 40
0.8125000000000009
 40
0.8437500000000008
 40
0.8437500000000008
 40
0.8750000000000007
 40
0.8750000000000007
 40
0.9375000000000003
 40
0.9375000000000003
 40
1.0
 40
1.0
 40
1.03125
 40
1.03125
 10
179.6944816636206
 20
146.5180111803904
 30
0.0
 10
179.6944816636206
 20
146.9146653520624
 30
0.0
 10
179.7074637012928
 20
147.0446575129029
 30
0.0
 10
179.7583145035511
 20
147.3003771253551
 30
0.0
 10
179.796806407604
 20
147.4274358092163
 30
0.0
 10
179.8972216933305
 20
147.6695990068752
 30
0.0
 10
179.9586578326035
 20
147.7844407912598
 30
0.0
 10
180.1037913089143
 20
148.00178298883
 30
0.0
 10
180.1882129977654
 20
148.1046246366778
 30
0.0
 10
180.4648131719303
 20
148.3811681174294
 30
0.0
 10
180.6878120831974
 20
148.5301507535615
 30
0.0
 10
181.1690466007831
 20
148.7296938171162
 30
0.0
 10
181.4323460162921
 20
148.7823042901476
 30
0.0
 10
181.8239094563323
 20
148.7825183489001
 30
0.0
 10
181.956497066937
 20
148.7695194994945
 30
0.0
 10
182.2130627725363
 20
148.7184694154682
 30
0.0
 10
182.3377725387168
 20
148.680698176656
 30
0.0
 10
182.5800117237438
 20
148.5805062685435
 30
0.0
 10
182.6970283775175
 20
148.517920874719
 30
0.0
 10
182.9136715823638
 20
148.3732157890084
 30
0.0
 10
183.0146783388223
 20
148.2905964476282
 30
0.0
 10
183.2014844344789
 20
148.1039524128382
 30
0.0
 10
183.2841979700107
 20
148.0030065648783
 30
0.0
 10
183.429068099386
 20
147.7865253611966
 30
0.0
 10
183.4917383954827
 20
147.6696081961882
 30
0.0
 10
183.592166333519
 20
147.4274117269897
 30
0.0
 10
183.6300375124487
 20
147.3027507360862
 30
0.0
 10
183.6812999102244
 20
147.0463513870182
 30
0.0
 10
183.6944335508651
 20
146.9137404617204
 30
0.0
 10
183.6945774840039
 20
146.5220658493853
 30
0.0
 10
183.6422122267391
 20
146.2587818297247
 30
0.0
 10
183.4430515633885
 20
145.7772691158649
 30
0.0
 10
183.2942538900265
 20
145.55414802882
 30
0.0
 10
183.0179532314403
 20
145.2773158803124
 30
0.0
 10
182.9151881843806
 20
145.1928086660281
 30
0.0
 10
182.6979709105862
 20
145.0474877243422
 30
0.0
 10
182.5832012171484
 20
144.9859655010801
 30
0.0
 10
182.3412146800038
 20
144.8853690978081
 30
0.0
 10
182.2141321071123
 20
144.8467412097195
 30
0.0
 10
181.9584574071092
 20
144.7956630996533
 30
0.0
 10
181.828516889765
 20
144.7825739598862
 30
0.0
 10
181.5642535220036
 20
144.7823224415276
 30
0.0
 10
181.4340426283567
 20
144.795196911584
 30
0.0
 10
181.1782926829231
 20
144.845815808716
 30
0.0
 10
181.0512752985557
 20
144.8841636275118
 30
0.0
 10
180.808923570804
 20
144.9843977477052
 30
0.0
 10
180.6940207915177
 20
145.0457419346952
 30
0.0
 10
180.4765986263687
 20
145.1906469392243
 30
0.0
 10
180.373662228924
 20
145.2749858313463
 30
0.0
 10
180.0968250717671
 20
145.5513869443881
 30
0.0
 10
179.9476698307029
 20
145.7742305774306
 30
0.0
 10
179.7476992454677
 20
146.2552938586811
 30
0.0
 10
179.6944816636206
 20
146.5180111803904
 30
0.0
 10
179.6944816636206
 20
146.9146653520624
 30
0.0
  0
SPLINE
  5
D0
330
1F
100
AcDbEntity
  8
0
  6
HIDDEN
 62
     7
370
     0
100
AcDbSpline
210
0.0
220
0.0
230
1.0
 70
     8
 71
     3
 72
    12
 73
     8
 74
     0
 42
0.00000001
 43
0.00000001
 12
1.0
 22
0.0
 32
0.0
 13
1.0
 23
0.0
 33
0.0
 40
0.0
 40
0.0
 40
0.0
 40
0.0
 40
0.2500000000000027
 40
0.2500000000000027
 40
0.5000000000000053
 40
0.5000000000000053
 40
1.0
 40
1.0
 40
1.0
 40
1.0
 10
176.6263836656198
 20
140.9532342991867
 30
0.0
 10
176.5888717795751
 20
140.9532342991867
 30
0.0
 10
176.5535844318704
 20
140.9384294849
 30
0.0
 10
176.494654583632
 20
140.8948376117741
 30
0.0
 10
176.4711288571629
 20
140.8673241856881
 30
0.0
 10
176.4108700693948
 20
140.7781924535745
 30
0.0
 10
176.3852753071055
 20
140.7118066029567
 30
0.0
 10
176.3665760444844
 20
140.6442021677793
 30
0.0
  0
LINE
  5
D1
330
1F
100
AcDbEntity
  8
0
  6
HIDDEN
 62
     7
370
     0
100
AcDbLine
 10
178.7625796616
 20
140.9532342992
 30
0.0
 11
176.6263836656
 21
140.9532342992
 31
0.0
  0
SPLINE
  5
D2
330
1F
100
AcDbEntity
  8
0
  6
HIDDEN
 62
     7
370
     0
100
AcDbSpline
210
0.0
220
0.0
230
1.0
 70
     8
 71
     3
 72
    12
 73
     8
 74
     0
 42
0.00000001
 43
0.00000001
 12
1.0
 22
0.0
 32
0.0
 13
1.0
 23
0.0
 33
0.0
 40
0.0
 40
0.0
 40
0.0
 40
0.0
 40
0.4999999999999998
 40
0.4999999999999998
 40
0.7499999999999999
 40
0.7499999999999999
 40
1.0
 40
1.0
 40
1.0
 40
1.0
 10
179.0223872827567
 20
140.6442021677793
 30
0.0
 10
179.0036940496263
 20
140.7117848042197
 30
0.0
 10
178.9780387522145
 20
140.7782673736971
 30
0.0
 10
178.917878129528
 20
140.8672624565946
 30
0.0
 10
178.8938058177737
 20
140.8952643535938
 30
0.0
 10
178.8354242974232
 20
140.938340754259
 30
0.0
 10
178.7999554697701
 20
140.9532342991867
 30
0.0
 10
178.7625796616214
 20
140.9532342991867
 30
0.0
  0
ELLIPSE
  5
D3
330
1F
100
AcDbEntity
  8
0
  6
HIDDEN
 62
     7
370
     0
100
AcDbEllipse
 10
168.7455524912
 20
146.7824472948
 30
0.0
 11
-9.367417879781781
 21
19.74174915274992
 31
0.0
210
0.0
220
0.0
230
1.0
 40
0.3419987131
 41
3.292664382516894
 42
4.239566697061001
  0
SPLINE
  5
D4
330
1F
100
AcDbEntity
  8
0
  6
HIDDEN
 62
     7
370
     0
100
AcDbSpline
210
0.0
220
0.0
230
1.0
 70
     8
 71
     3
 72
    12
 73
     8
 74
     0
 42
0.00000001
 43
0.00000001
 12
1.0
 22
0.0
 32
0.0
 13
1.0
 23
0.0
 33
0.0
 40
0.0
 40
0.0
 40
0.0
 40
0.0
 40
0.2500000000000014
 40
0.2500000000000014
 40
0.5000000000000029
 40
0.5000000000000029
 40
1.0
 40
1.0
 40
1.0
 40
1.0
 10
178.7625796616214
 20
127.650790914605
 30
0.0
 10
178.8000915476661
 20
127.650790914605
 30
0.0
 10
178.8353788953708
 20
127.6552944588676
 30
0.0
 10
178.8943087436092
 20
127.6686676583209
 30
0.0
 10
178.9178344700783
 20
127.677152560892
 30
0.0
 10
178.9780932578464
 20
127.7049003647266
 30
0.0
 10
179.0036880201357
 20
127.725890228467
 30
0.0
 10
179.0223872827567
 20
127.7476910116565
 30
0.0
  0
LINE
  5
D5
330
1F
100
AcDbEntity
  8
0
  6
HIDDEN
 62
     7
370
     0
100
AcDbLine
 10
176.6263836656
 20
127.6507909146
 30
0.0
 11
178.7625796616
 21
127.6507909146
 31
0.0
  0
SPLINE
  5
D6
330
1F
100
AcDbEntity
  8
0
  6
HIDDEN
 62
     7
370
     0
100
AcDbSpline
210
0.0
220
0.0
230
1.0
 70
     8
 71
     3
 72
    12
 73
     8
 74
     0
 42
0.00000001
 43
0.00000001
 12
1.0
 22
0.0
 32
0.0
 13
1.0
 23
0.0
 33
0.0
 40
0.0
 40
0.0
 40
0.0
 40
0.0
 40
0.4999999999999978
 40
0.4999999999999978
 40
0.7499999999999989
 40
0.7499999999999989
 40
1.0
 40
1.0
 40
1.0
 40
1.0
 10
176.3665760444844
 20
127.7476910116565
 30
0.0
 10
176.3852692776149
 20
127.7258972580285
 30
0.0
 10
176.4109245750267
 20
127.7048770963189
 30
0.0
 10
176.4710851977131
 20
127.6771717503552
 30
0.0
 10
176.4951575094674
 20
127.6685365341618
 30
0.0
 10
176.553539029818
 20
127.6553218889352
 30
0.0
 10
176.589007857471
 20
127.650790914605
 30
0.0
 10
176.6263836656198
 20
127.650790914605
 30
0.0
  0
ELLIPSE
  5
D7
330
1F
100
AcDbEntity
  8
0
  6
HIDDEN
 62
     7
370
     0
100
AcDbEllipse
 10
186.6434108361
 20
146.7824472948
 30
0.0
 11
9.367417879781641
 21
19.74174915274995
 31
0.0
210
0.0
220
0.0
230
1.0
 40
0.3419987131
 41
2.043618610118593
 42
2.990520924662726
  0
SPLINE
  5
D8
330
1F
100
AcDbEntity
  8
0
  6
HIDDEN
 62
     7
370
     0
100
AcDbSpline
210
0.0
220
0.0
230
1.0
 70
     8
 71
     3
 72
    12
 73
     8
 74
     0
 42
0.00000001
 43
0.00000001
 12
1.0
 22
0.0
 32
0.0
 13
1.0
 23
0.0
 33
0.0
 40
0.0
 40
0.0
 40
0.0
 40
0.0
 40
0.2500000000000004
 40
0.2500000000000004
 40
0.5000000000000008
 40
0.5000000000000008
 40
1.0
 40
1.0
 40
1.0
 40
1.0
 10
176.6263836656198
 20
165.9141036750718
 30
0.0
 10
176.5888717795751
 20
165.9141036750718
 30
0.0
 10
176.5535844318704
 20
165.9096001308093
 30
0.0
 10
176.494654583632
 20
165.896226931356
 30
0.0
 10
176.4711288571629
 20
165.8877420287849
 30
0.0
 10
176.4108700693948
 20
165.8599942249503
 30
0.0
 10
176.3852753071055
 20
165.8390043612099
 30
0.0
 10
176.3665760444845
 20
165.8172035780204
 30
0.0
  0
LINE
  5
D9
330
1F
100
AcDbEntity
  8
0
  6
HIDDEN
 62
     7
370
     0
100
AcDbLine
 10
178.7625796616
 20
165.9141036751
 30
0.0
 11
176.6263836656
 21
165.9141036751
 31
0.0
  0
SPLINE
  5
DA
330
1F
100
AcDbEntity
  8
0
  6
HIDDEN
 62
     7
370
     0
100
AcDbSpline
210
0.0
220
0.0
230
1.0
 70
     8
 71
     3
 72
    12
 73
     8
 74
     0
 42
0.00000001
 43
0.00000001
 12
1.0
 22
0.0
 32
0.0
 13
1.0
 23
0.0
 33
0.0
 40
0.0
 40
0.0
 40
0.0
 40
0.0
 40
0.4999999999999916
 40
0.4999999999999916
 40
0.7499999999999958
 40
0.7499999999999958
 40
1.0
 40
1.0
 40
1.0
 40
1.0
 10
179.0223872827567
 20
165.8172035780204
 30
0.0
 10
179.0036940496263
 20
165.8389973316484
 30
0.0
 10
178.9780387522145
 20
165.860017493358
 30
0.0
 10
178.917878129528
 20
165.8877228393217
 30
0.0
 10
178.8938058177737
 20
165.8963580555151
 30
0.0
 10
178.8354242974232
 20
165.9095727007417
 30
0.0
 10
178.7999554697701
 20
165.9141036750718
 30
0.0
 10
178.7625796616214
 20
165.9141036750718
 30
0.0
  0
ELLIPSE
  5
DB
330
1F
100
AcDbEntity
  8
0
  6
HIDDEN
 62
     7
370
     0
100
AcDbEllipse
 10
168.7455524912
 20
146.7824472948
 30
0.0
 11
9.36741787978184
 21
19.74174915274992
 31
0.0
210
0.0
220
0.0
230
1.0
 40
0.3419987131
 41
5.185211263708413
 42
6.132113578252571
  0
SPLINE
  5
DC
330
1F
100
AcDbEntity
  8
0
  6
HIDDEN
 62
     7
370
     0
100
AcDbSpline
210
0.0
220
0.0
230
1.0
 70
     8
 71
     3
 72
    12
 73
     8
 74
     0
 42
0.00000001
 43
0.00000001
 12
1.0
 22
0.0
 32
0.0
 13
1.0
 23
0.0
 33
0.0
 40
0.0
 40
0.0
 40
0.0
 40
0.0
 40
0.2500000000000014
 40
0.2500000000000014
 40
0.5000000000000029
 40
0.5000000000000029
 40
1.0
 40
1.0
 40
1.0
 40
1.0
 10
178.7625796616214
 20
152.6116602904903
 30
0.0
 10
178.8000915476661
 20
152.6116602904903
 30
0.0
 10
178.8353788953708
 20
152.6264651047771
 30
0.0
 10
178.8943087436092
 20
152.6700569779029
 30
0.0
 10
178.9178344700783
 20
152.6975704039889
 30
0.0
 10
178.9780932578464
 20
152.7867021361025
 30
0.0
 10
179.0036880201357
 20
152.8530879867203
 30
0.0
 10
179.0223872827567
 20
152.9206924218977
 30
0.0
  0
LINE
  5
DD
330
1F
100
AcDbEntity
  8
0
  6
HIDDEN
 62
     7
370
     0
100
AcDbLine
 10
176.6263836656
 20
152.6116602905
 30
0.0
 11
178.7625796616
 21
152.6116602905
 31
0.0
  0
SPLINE
  5
DE
330
1F
100
AcDbEntity
  8
0
  6
HIDDEN
 62
     7
370
     0
100
AcDbSpline
210
0.0
220
0.0
230
1.0
 70
     8
 71
     3
 72
    12
 73
     8
 74
     0
 42
0.00000001
 43
0.00000001
 12
1.0
 22
0.0
 32
0.0
 13
1.0
 23
0.0
 33
0.0
 40
0.0
 40
0.0
 40
0.0
 40
0.0
 40
0.5000000000000029
 40
0.5000000000000029
 40
0.7500000000000014
 40
0.7500000000000014
 40
1.0
 40
1.0
 40
1.0
 40
1.0
 10
176.3665760444845
 20
152.9206924218977
 30
0.0
 10
176.3852692776149
 20
152.8531097854573
 30
0.0
 10
176.4109245750267
 20
152.7866272159799
 30
0.0
 10
176.4710851977131
 20
152.6976321330824
 30
0.0
 10
176.4951575094674
 20
152.6696302360832
 30
0.0
 10
176.553539029818
 20
152.626553835418
 30
0.0
 10
176.589007857471
 20
152.6116602904903
 30
0.0
 10
176.6263836656198
 20
152.6116602904903
 30
0.0
  0
ELLIPSE
  5
DF
330
1F
100
AcDbEntity
  8
0
  6
HIDDEN
 62
     7
370
     0
100
AcDbEllipse
 10
186.6434108361
 20
146.7824472948
 30
0.0
 11
-9.367417879781698
 21
19.74174915274995
 31
0.0
210
0.0
220
0.0
230
1.0
 40
0.3419987131
 41
0.151071728927058
 42
1.097974043471189
  0
LINE
  5
E0
330
1F
100
AcDbEntity
  8
0
  6
HIDDEN
 62
     7
370
     0
100
AcDbLine
 10
169.6944816636
 20
127.0824472948
 30
0.0
 11
169.6944816636
 21
166.4824472948
 31
0.0
  0
LINE
  5
E1
330
1F
100
AcDbEntity
  8
0
  6
HIDDEN
 62
     7
370
     0
100
AcDbLine
 10
241.6944816636
 20
148.7824472948
 30
0.0
 11
241.6944816636
 21
160.7824472948
 31
0.0
  0
LINE
  5
E2
330
1F
100
AcDbEntity
  8
0
  6
HIDDEN
 62
     7
370
     0
100
AcDbLine
 10
249.6944816636
 20
160.7824472948
 30
0.0
 11
249.6944816636
 21
148.8000524877
 31
0.0
  0
LINE
  5
E3
330
1F
100
AcDbEntity
  8
0
  6
HIDDEN
 62
     7
370
     0
100
AcDbLine
 10
241.6944816636
 20
144.7824472948
 30
0.0
 11
241.6944816636
 21
132.7824472948
 31
0.0
  0
LINE
  5
E4
330
1F
100
AcDbEntity
  8
0
  6
HIDDEN
 62
     7
370
     0
100
AcDbLine
 10
249.6944816636
 20
132.7824472948
 30
0.0
 11
249.6944816636
 21
144.7648421019
 31
0.0
  0
LINE
  5
E5
330
1F
100
AcDbEntity
  8
0
  6
HIDDEN
 62
     7
370
     0
100
AcDbLine
 10
169.6944816636
 20
130.9824472948
 30
0.0
 11
169.6944816636
 21
162.5824472948
 31
0.0
  0
SPLINE
  5
E6
330
1F
100
AcDbEntity
  8
0
  6
HIDDEN
 62
     7
370
     0
100
AcDbSpline
210
0.0
220
0.0
230
1.0
 70
     8
 71
     3
 72
    18
 73
    14
 74
     0
 42
0.00000001
 43
0.00000001
 12
1.0
 22
0.0
 32
0.0
 13
1.0
 23
0.0
 33
0.0
 40
0.0
 40
0.0
 40
0.0
 40
0.0
 40
0.2499999999999999
 40
0.2499999999999999
 40
0.4999999999999998
 40
0.4999999999999998
 40
0.6249999999999998
 40
0.6249999999999998
 40
0.7499999999999999
 40
0.7499999999999999
 40
0.8749999999999999
 40
0.8749999999999999
 40
1.0
 40
1.0
 40
1.0
 40
1.0
 10
168.4383973460576
 20
156.6068872129896
 30
0.0
 10
168.4726983905904
 20
156.4988770271921
 30
0.0
 10
168.5105186618871
 20
156.3915999391641
 30
0.0
 10
168.597136982348
 20
156.1801032418475
 30
0.0
 10
168.6455083170915
 20
156.0757168916779
 30
0.0
 10
168.7349112992099
 20
155.9248419690336
 30
0.0
 10
168.7675085830872
 20
155.8754969659981
 30
0.0
 10
168.843890487032
 20
155.7808913275278
 30
0.0
 10
168.8869289243729
 20
155.7358953927732
 30
0.0
 10
168.9927419572047
 20
155.6649676201153
 30
0.0
 10
169.0577803819358
 20
155.6410210762087
 30
0.0
 10
169.1909324537384
 20
155.6533017402796
 30
0.0
 10
169.2503016342016
 20
155.6866186982845
 30
0.0
 10
169.2995047747453
 20
155.7274535845092
 30
0.0
  0
SPLINE
  5
E7
330
1F
100
AcDbEntity
  8
0
  6
HIDDEN
 62
     7
370
     0
100
AcDbSpline
210
0.0
220
0.0
230
1.0
 70
     8
 71
     3
 72
    16
 73
    12
 74
     0
 42
0.00000001
 43
0.00000001
 12
1.0
 22
0.0
 32
0.0
 13
1.0
 23
0.0
 33
0.0
 40
0.0
 40
0.0
 40
0.0
 40
0.0
 40
0.062500000000001
 40
0.062500000000001
 40
0.1250000000000019
 40
0.1250000000000019
 40
0.2499999999999997
 40
0.2499999999999997
 40
0.5
 40
0.5
 40
1.0
 40
1.0
 40
1.0
 40
1.0
 10
169.2995047747145
 20
155.7274535845386
 30
0.0
 10
169.3115746079903
 20
155.7374706335189
 30
0.0
 10
169.3258502629237
 20
155.7464297405746
 30
0.0
 10
169.3573146750481
 20
155.7543001359688
 30
0.0
 10
169.3728151998585
 20
155.7519426453265
 30
0.0
 10
169.4082540964654
 20
155.7349669531485
 30
0.0
 10
169.4218467125687
 20
155.7144184619809
 30
0.0
 10
169.4548410309616
 20
155.6524761349672
 30
0.0
 10
169.4656284242803
 20
155.6060805847621
 30
0.0
 10
169.4906816715595
 20
155.4631445560676
 30
0.0
 10
169.4944816636207
 20
155.3635818391821
 30
0.0
 10
169.4944816636207
 20
155.2618144345356
 30
0.0
  0
LINE
  5
E8
330
1F
100
AcDbEntity
  8
0
  6
HIDDEN
 62
     7
370
     0
100
AcDbLine
 10
169.4944816636
 20
138.3030801551
 30
0.0
 11
169.4944816636
 21
155.2618144345
 31
0.0
  0
SPLINE
  5
E9
330
1F
100
AcDbEntity
  8
0
  6
HIDDEN
 62
     7
370
     0
100
AcDbSpline
210
0.0
220
0.0
230
1.0
 70
     8
 71
     3
 72
    16
 73
    12
 74
     0
 42
0.00000001
 43
0.00000001
 12
1.0
 22
0.0
 32
0.0
 13
1.0
 23
0.0
 33
0.0
 40
0.0
 40
0.0
 40
0.0
 40
0.0
 40
0.500000000000001
 40
0.500000000000001
 40
0.7500000000000018
 40
0.7500000000000018
 40
0.8750000000000021
 40
0.8750000000000021
 40
0.9375000000000011
 40
0.9375000000000011
 40
1.0
 40
1.0
 40
1.0
 40
1.0
 10
169.4944816636206
 20
138.3030801551411
 30
0.0
 10
169.4944816636206
 20
138.201070001561
 30
0.0
 10
169.4905982384617
 20
138.1015456263078
 30
0.0
 10
169.465782913187
 20
137.9595605302971
 30
0.0
 10
169.4549434654745
 20
137.9125672297267
 30
0.0
 10
169.4217276834257
 20
137.8502744993651
 30
0.0
 10
169.4083459397969
 20
137.82999306708
 30
0.0
 10
169.3728362899347
 20
137.8129513588795
 30
0.0
 10
169.3574193234339
 20
137.8105651038634
 30
0.0
 10
169.3257183012853
 20
137.8185010337214
 30
0.0
 10
169.3115720163345
 20
137.827426107096
 30
0.0
 10
169.2995047747449
 20
137.8374410051679
 30
0.0
  0
SPLINE
  5
EA
330
1F
100
AcDbEntity
  8
0
  6
HIDDEN
 62
     7
370
     0
100
AcDbSpline
210
0.0
220
0.0
230
1.0
 70
     8
 71
     3
 72
    18
 73
    14
 74
     0
 42
0.00000001
 43
0.00000001
 12
1.0
 22
0.0
 32
0.0
 13
1.0
 23
0.0
 33
0.0
 40
0.0
 40
0.0
 40
0.0
 40
0.0
 40
0.125
 40
0.125
 40
0.25
 40
0.25
 40
0.375
 40
0.375
 40
0.5
 40
0.5
 40
0.75
 40
0.75
 40
1.0
 40
1.0
 40
1.0
 40
1.0
 10
169.299504774751
 20
137.8374410051753
 30
0.0
 10
169.2507992826089
 20
137.8778628808568
 30
0.0
 10
169.1922891742821
 20
137.9108950023245
 30
0.0
 10
169.06056005599
 20
137.9241721542774
 30
0.0
 10
168.9958011196494
 20
137.9012185672972
 30
0.0
 10
168.8905901467898
 20
137.8321653703776
 30
0.0
 10
168.8473737713499
 20
137.7876977185367
 30
0.0
 10
168.7711952662379
 20
137.6945280591667
 30
0.0
 10
168.738340304858
 20
137.6453856896059
 30
0.0
 10
168.6479720250243
 20
137.4941759546661
 30
0.0
 10
168.5985487906542
 20
137.3880211851378
 30
0.0
 10
168.510900335606
 20
137.1744395694763
 30
0.0
 10
168.4728411634032
 20
137.0664671382411
 30
0.0
 10
168.4383973460576
 20
136.9580073766871
 30
0.0
  0
SPLINE
  5
EB
330
1F
100
AcDbEntity
  8
0
  6
HIDDEN
 62
     7
370
     0
100
AcDbSpline
210
0.0
220
0.0
230
1.0
 70
     8
 71
     3
 72
     8
 73
     4
 74
     0
 42
0.00000001
 43
0.00000001
 12
1.0
 22
0.0
 32
0.0
 13
1.0
 23
0.0
 33
0.0
 40
0.0
 40
0.0
 40
0.0
 40
0.0
 40
1.0
 40
1.0
 40
1.0
 40
1.0
 10
168.438397346057
 20
136.9580073766866
 30
0.0
 10
168.4140836421669
 20
136.8814462191365
 30
0.0
 10
168.3925870002108
 20
136.8050208480033
 30
0.0
 10
168.3731613200609
 20
136.7289279772316
 30
0.0
  0
SPLINE
  5
EC
330
1F
100
AcDbEntity
  8
0
  6
HIDDEN
 62
     7
370
     0
100
AcDbSpline
210
0.0
220
0.0
230
1.0
 70
     8
 71
     3
 72
     8
 73
     4
 74
     0
 42
0.00000001
 43
0.00000001
 12
1.0
 22
0.0
 32
0.0
 13
1.0
 23
0.0
 33
0.0
 40
0.0
 40
0.0
 40
0.0
 40
0.0
 40
1.0
 40
1.0
 40
1.0
 40
1.0
 10
168.3731613200609
 20
132.9573832868332
 30
0.0
 10
168.3925867469542
 20
132.9538860832459
 30
0.0
 10
168.4140833009232
 20
132.9518697656037
 30
0.0
 10
168.4383973460576
 20
132.9512589121598
 30
0.0
  0
SPLINE
  5
ED
330
1F
100
AcDbEntity
  8
0
  6
HIDDEN
 62
     7
370
     0
100
AcDbSpline
210
0.0
220
0.0
230
1.0
 70
     8
 71
     3
 72
     8
 73
     4
 74
     0
 42
0.00000001
 43
0.00000001
 12
1.0
 22
0.0
 32
0.0
 13
1.0
 23
0.0
 33
0.0
 40
0.0
 40
0.0
 40
0.0
 40
0.0
 40
1.0
 40
1.0
 40
1.0
 40
1.0
 10
169.4716306505146
 20
132.8619005211017
 30
0.0
 10
169.4905675826804
 20
132.8339460837002
 30
0.0
 10
169.4944816636207
 20
132.8138622323439
 30
0.0
 10
169.4944816636207
 20
132.7976353881785
 30
0.0
  0
LINE
  5
EE
330
1F
100
AcDbEntity
  8
0
  6
HIDDEN
 62
     7
370
     0
100
AcDbLine
 10
169.4944816636
 20
132.692627016
 30
0.0
 11
169.4944816636
 21
132.7976353882
 31
0.0
  0
LINE
  5
EF
330
1F
100
AcDbEntity
  8
0
  6
HIDDEN
 62
     7
370
     0
100
AcDbLine
 10
169.4944816636
 20
160.7672592015
 30
0.0
 11
169.4944816636
 21
160.8722675737
 31
0.0
  0
SPLINE
  5
F0
330
1F
100
AcDbEntity
  8
0
  6
HIDDEN
 62
     7
370
     0
100
AcDbSpline
210
0.0
220
0.0
230
1.0
 70
     8
 71
     3
 72
    10
 73
     6
 74
     0
 42
0.00000001
 43
0.00000001
 12
1.0
 22
0.0
 32
0.0
 13
1.0
 23
0.0
 33
0.0
 40
0.0
 40
0.0
 40
0.0
 40
0.0
 40
0.5000000000000007
 40
0.5000000000000007
 40
1.0
 40
1.0
 40
1.0
 40
1.0
 10
169.4944816636206
 20
160.7672592014985
 30
0.0
 10
169.4944816636206
 20
160.7571330013784
 30
0.0
 10
169.4924730845751
 20
160.7453724088247
 30
0.0
 10
169.4812898566697
 20
160.7173911940744
 30
0.0
 10
169.4729887229951
 20
160.7014108797367
 30
0.0
 10
169.454142333753
 20
160.6810547977092
 30
0.0
  0
SPLINE
  5
F1
330
1F
100
AcDbEntity
  8
0
  6
HIDDEN
 62
     7
370
     0
100
AcDbSpline
210
0.0
220
0.0
230
1.0
 70
     8
 71
     3
 72
     8
 73
     4
 74
     0
 42
0.00000001
 43
0.00000001
 12
1.0
 22
0.0
 32
0.0
 13
1.0
 23
0.0
 33
0.0
 40
0.0
 40
0.0
 40
0.0
 40
0.0
 40
1.0
 40
1.0
 40
1.0
 40
1.0
 10
168.4383973460573
 20
160.613635677517
 30
0.0
 10
168.414083300923
 20
160.6130248240731
 30
0.0
 10
168.3925867469541
 20
160.6110085064309
 30
0.0
 10
168.3731613200609
 20
160.6075113028436
 30
0.0
  0
SPLINE
  5
F2
330
1F
100
AcDbEntity
  8
0
  6
HIDDEN
 62
     7
370
     0
100
AcDbSpline
210
0.0
220
0.0
230
1.0
 70
     8
 71
     3
 72
     8
 73
     4
 74
     0
 42
0.00000001
 43
0.00000001
 12
1.0
 22
0.0
 32
0.0
 13
1.0
 23
0.0
 33
0.0
 40
0.0
 40
0.0
 40
0.0
 40
0.0
 40
1.0
 40
1.0
 40
1.0
 40
1.0
 10
168.3731613200609
 20
156.8359666124452
 30
0.0
 10
168.3925870002108
 20
156.7598737416735
 30
0.0
 10
168.4140836421669
 20
156.6834483705403
 30
0.0
 10
168.438397346057
 20
156.6068872129902
 30
0.0
  0
SPLINE
  5
F3
330
1F
100
AcDbEntity
  8
0
  6
HIDDEN
 62
     7
370
     0
100
AcDbSpline
210
0.0
220
0.0
230
1.0
 70
     8
 71
     3
 72
    32
 73
    28
 74
     0
 42
0.00000001
 43
0.00000001
 12
1.0
 22
0.0
 32
0.0
 13
1.0
 23
0.0
 33
0.0
 40
0.0
 40
0.0
 40
0.0
 40
0.0
 40
0.1250000000000017
 40
0.1250000000000017
 40
0.2500000000000034
 40
0.2500000000000034
 40
0.3125000000000031
 40
0.3125000000000031
 40
0.3750000000000027
 40
0.3750000000000027
 40
0.4375000000000023
 40
0.4375000000000023
 40
0.500000000000002
 40
0.500000000000002
 40
0.5625000000000017
 40
0.5625000000000017
 40
0.6250000000000013
 40
0.6250000000000013
 40
0.6875000000000011
 40
0.6875000000000011
 40
0.7500000000000009
 40
0.7500000000000009
 40
0.8125000000000007
 40
0.8125000000000007
 40
0.8750000000000003
 40
0.8750000000000003
 40
1.0
 40
1.0
 40
1.0
 40
1.0
 10
219.6944816636206
 20
150.5459283268604
 30
0.0
 10
219.3885217886953
 20
150.5261892555974
 30
0.0
 10
219.0882562311799
 20
150.4967682069305
 30
0.0
 10
218.50502443435
 20
150.4021327388988
 30
0.0
 10
218.2180238968095
 20
150.3360238259011
 30
0.0
 10
217.8333341478505
 20
150.1870357674779
 30
0.0
 10
217.7110845670626
 20
150.1281443093574
 30
0.0
 10
217.4916199303362
 20
149.9895401935981
 30
0.0
 10
217.3946294162422
 20
149.9104128576771
 30
0.0
 10
217.23072799181
 20
149.725519222171
 30
0.0
 10
217.1664080436549
 20
149.6221712987782
 30
0.0
 10
217.0787250080337
 20
149.3945884026302
 30
0.0
 10
217.0558661760787
 20
149.2702528930081
 30
0.0
 10
217.0553405508266
 20
149.0141580677544
 30
0.0
 10
217.0779058816632
 20
148.8792671568334
 30
0.0
 10
217.1644187342826
 20
148.61687764477
 30
0.0
 10
217.2294335862346
 20
148.4858551196771
 30
0.0
 10
217.3916482706572
 20
148.2419705426493
 30
0.0
 10
217.490498933072
 20
148.1263684203197
 30
0.0
 10
217.7094582346098
 20
147.9183303975681
 30
0.0
 10
217.829413438342
 20
147.8253213369822
 30
0.0
 10
218.0865374390265
 20
147.6582176849113
 30
0.0
 10
218.223234940891
 20
147.5847077135835
 30
0.0
 10
218.501909142766
 20
147.4577838009657
 30
0.0
 10
218.6450557464072
 20
147.4036189762057
 30
0.0
 10
219.0835386840031
 20
147.2635260867268
 30
0.0
 10
219.3880180170127
 20
147.1999748218848
 30
0.0
 10
219.6944816636206
 20
147.1575840632366
 30
0.0
  0
SPLINE
  5
F4
330
1F
100
AcDbEntity
  8
0
  6
HIDDEN
 62
     7
370
     0
100
AcDbSpline
210
0.0
220
0.0
230
1.0
 70
     8
 71
     3
 72
     8
 73
     4
 74
     0
 42
0.00000001
 43
0.00000001
 12
1.0
 22
0.0
 32
0.0
 13
1.0
 23
0.0
 33
0.0
 40
0.0
 40
0.0
 40
0.0
 40
0.0
 40
1.0
 40
1.0
 40
1.0
 40
1.0
 10
219.6944816636206
 20
147.1575840632366
 30
0.0
 10
219.7474829191306
 20
147.0090179630662
 30
0.0
 10
219.8036900599897
 20
146.8839496547859
 30
0.0
 10
219.8645954030861
 20
146.7824472948384
 30
0.0
  0
LINE
  5
F5
330
1F
100
AcDbEntity
  8
0
  6
HIDDEN
 62
     7
370
     0
100
AcDbLine
 10
219.8645954031
 20
146.7824472948
 30
0.0
 11
221.2964031919
 21
146.7824472948
 31
0.0
  0
SPLINE
  5
F6
330
1F
100
AcDbEntity
  8
0
  6
HIDDEN
 62
     7
370
     0
100
AcDbSpline
210
0.0
220
0.0
230
1.0
 70
     8
 71
     3
 72
    24
 73
    20
 74
     0
 42
0.00000001
 43
0.00000001
 12
1.0
 22
0.0
 32
0.0
 13
1.0
 23
0.0
 33
0.0
 40
0.0
 40
0.0
 40
0.0
 40
0.0
 40
0.1249999999999993
 40
0.1249999999999993
 40
0.1874999999999994
 40
0.1874999999999994
 40
0.2499999999999994
 40
0.2499999999999994
 40
0.3749999999999996
 40
0.3749999999999996
 40
0.4999999999999997
 40
0.4999999999999997
 40
0.6249999999999998
 40
0.6249999999999998
 40
0.7499999999999999
 40
0.7499999999999999
 40
0.875
 40
0.875
 40
1.0
 40
1.0
 40
1.0
 40
1.0
 10
220.5625391959844
 20
146.7824472948383
 30
0.0
 10
220.6236624720675
 20
146.8848730697812
 30
0.0
 10
220.6768635369384
 20
147.0122785105252
 30
0.0
 10
220.7291689091491
 20
147.2328405439386
 30
0.0
 10
220.7419305147564
 20
147.3121296116045
 30
0.0
 10
220.7548837538862
 20
147.4754611033796
 30
0.0
 10
220.7552378021044
 20
147.5600040567807
 30
0.0
 10
220.7379873194128
 20
147.8221560727023
 30
0.0
 10
220.7011629886859
 20
148.009342791571
 30
0.0
 10
220.6016006473371
 20
148.3880868342295
 30
0.0
 10
220.5384248443171
 20
148.5848733303017
 30
0.0
 10
220.4062791554595
 20
148.9706717220462
 30
0.0
 10
220.3351253963684
 20
149.1654072333898
 30
0.0
 10
220.1954330632417
 20
149.5309758098948
 30
0.0
 10
220.1253114110549
 20
149.7056284969966
 30
0.0
 10
219.9908354535358
 20
150.0184539047525
 30
0.0
 10
219.9262653068771
 20
150.1571244931273
 30
0.0
 10
219.8039953053724
 20
150.3890335354476
 30
0.0
 10
219.7476178786232
 20
150.4801092651736
 30
0.0
 10
219.6944816636206
 20
150.5459283268604
 30
0.0
  0
LINE
  5
F7
330
1F
100
AcDbEntity
  8
0
  6
HIDDEN
 62
     7
370
     0
100
AcDbLine
 10
241.6944816636
 20
156.3924308174
 30
0.0
 11
241.6944816636
 21
152.0630633799
 31
0.0
  0
SPLINE
  5
F8
330
1F
100
AcDbEntity
  8
0
  6
HIDDEN
 62
     7
370
     0
100
AcDbSpline
210
0.0
220
0.0
230
1.0
 70
     8
 71
     3
 72
    32
 73
    28
 74
     0
 42
0.00000001
 43
0.00000001
 12
1.0
 22
0.0
 32
0.0
 13
1.0
 23
0.0
 33
0.0
 40
0.0
 40
0.0
 40
0.0
 40
0.0
 40
0.1249999999999998
 40
0.1249999999999998
 40
0.2499999999999996
 40
0.2499999999999996
 40
0.3124999999999994
 40
0.3124999999999994
 40
0.3749999999999993
 40
0.3749999999999993
 40
0.4374999999999992
 40
0.4374999999999992
 40
0.4999999999999991
 40
0.4999999999999991
 40
0.5624999999999992
 40
0.5624999999999992
 40
0.6249999999999993
 40
0.6249999999999993
 40
0.6874999999999994
 40
0.6874999999999994
 40
0.7499999999999996
 40
0.7499999999999996
 40
0.8124999999999997
 40
0.8124999999999997
 40
0.8749999999999998
 40
0.8749999999999998
 40
1.0
 40
1.0
 40
1.0
 40
1.0
 10
219.6944816636206
 20
146.4073105264401
 30
0.0
 10
219.3885217886953
 20
146.3649894506534
 30
0.0
 10
219.0882562311799
 20
146.3024533445344
 30
0.0
 10
218.50502443435
 20
146.1169509788561
 30
0.0
 10
218.2180238968095
 20
145.9915637594111
 30
0.0
 10
217.8333341478505
 20
145.742398184956
 30
0.0
 10
217.7110845670626
 20
145.647931382046
 30
0.0
 10
217.4916199303362
 20
145.439767061575
 30
0.0
 10
217.3946294162422
 20
145.326828606168
 30
0.0
 10
217.23072799181
 20
145.0815481659181
 30
0.0
 10
217.1664080436549
 20
144.9526377962763
 30
0.0
 10
217.0787250080338
 20
144.689479678479
 30
0.0
 10
217.0558661760787
 20
144.5554124716576
 30
0.0
 10
217.0553405508266
 20
144.2990971182296
 30
0.0
 10
217.0779058816632
 20
144.1738135125437
 30
0.0
 10
217.1644187342826
 20
143.946549207293
 30
0.0
 10
217.2294335862346
 20
143.8413739832737
 30
0.0
 10
217.3916482706572
 20
143.6573202512718
 30
0.0
 10
217.490498933072
 20
143.5762145045206
 30
0.0
 10
217.7094582346098
 20
143.4376271590904
 30
0.0
 10
217.829413438342
 20
143.3795943118481
 30
0.0
 10
218.0865374390265
 20
143.2795836353661
 30
0.0
 10
218.223234940891
 20
143.2380024195029
 30
0.0
 10
218.501909142766
 20
143.1685040569446
 30
0.0
 10
218.6450557464071
 20
143.1401676547394
 30
0.0
 10
219.0835386840031
 20
143.0686441051702
 30
0.0
 10
219.3880180170127
 20
143.0387378350246
 30
0.0
 10
219.6944816636206
 20
143.0189662628164
 30
0.0
  0
SPLINE
  5
F9
330
1F
100
AcDbEntity
  8
0
  6
HIDDEN
 62
     7
370
     0
100
AcDbSpline
210
0.0
220
0.0
230
1.0
 70
     8
 71
     3
 72
    24
 73
    20
 74
     0
 42
0.00000001
 43
0.00000001
 12
1.0
 22
0.0
 32
0.0
 13
1.0
 23
0.0
 33
0.0
 40
0.0
 40
0.0
 40
0.0
 40
0.0
 40
0.1249999999999997
 40
0.1249999999999997
 40
0.2499999999999994
 40
0.2499999999999994
 40
0.3749999999999991
 40
0.3749999999999991
 40
0.4999999999999988
 40
0.4999999999999988
 40
0.6249999999999982
 40
0.6249999999999982
 40
0.6874999999999986
 40
0.6874999999999986
 40
0.7499999999999988
 40
0.7499999999999988
 40
0.8749999999999994
 40
0.8749999999999994
 40
1.0
 40
1.0
 40
1.0
 40
1.0
 10
219.6944816636206
 20
143.0189662628164
 30
0.0
 10
219.7476198838617
 20
143.0847878083631
 30
0.0
 10
219.8039800512457
 20
143.1758431889557
 30
0.0
 10
219.9261552891673
 20
143.4075503705535
 30
0.0
 10
219.9907875905162
 20
143.5463535480328
 30
0.0
 10
220.1249370273173
 20
143.8583710518785
 30
0.0
 10
220.1953089057906
 20
144.0336103202976
 30
0.0
 10
220.3348667316826
 20
144.398794032468
 30
0.0
 10
220.4061023802083
 20
144.5937197712028
 30
0.0
 10
220.5384132140056
 20
144.9799743256097
 30
0.0
 10
220.6015767973579
 20
145.1767526517312
 30
0.0
 10
220.6761956332287
 20
145.4605559669213
 30
0.0
 10
220.6977757563452
 20
145.553707123282
 30
0.0
 10
220.7315824811833
 20
145.7380056733597
 30
0.0
 10
220.7436779774818
 20
145.8294953613808
 30
0.0
 10
220.7610264292832
 20
146.0923068480631
 30
0.0
 10
220.7468174654749
 20
146.2573848574669
 30
0.0
 10
220.6769112431039
 20
146.5526624915695
 30
0.0
 10
220.623732715053
 20
146.6799038119995
 30
0.0
 10
220.5625391959845
 20
146.7824472948385
 30
0.0
  0
SPLINE
  5
FA
330
1F
100
AcDbEntity
  8
0
  6
HIDDEN
 62
     7
370
     0
100
AcDbSpline
210
0.0
220
0.0
230
1.0
 70
     8
 71
     3
 72
     8
 73
     4
 74
     0
 42
0.00000001
 43
0.00000001
 12
1.0
 22
0.0
 32
0.0
 13
1.0
 23
0.0
 33
0.0
 40
0.0
 40
0.0
 40
0.0
 40
0.0
 40
1.0
 40
1.0
 40
1.0
 40
1.0
 10
219.8645954030861
 20
146.7824472948385
 30
0.0
 10
219.8036670081912
 20
146.6809065177041
 30
0.0
 10
219.7474628702275
 20
146.5558204281807
 30
0.0
 10
219.6944816636206
 20
146.4073105264401
 30
0.0
  0
LINE
  5
FB
330
1F
100
AcDbEntity
  8
0
  6
HIDDEN
 62
     7
370
     0
100
AcDbLine
 10
241.6944816636
 20
141.5018312098
 30
0.0
 11
241.6944816636
 21
137.1724637723
 31
0.0
  0
LINE
  5
FC
330
1F
100
AcDbEntity
  8
0
  6
HIDDEN
 62
     7
370
     0
100
AcDbLine
 10
169.4944816636
 20
132.7976353882
 30
0.0
 11
169.4944816636
 21
141.2770025279
 31
0.0
  0
LINE
  5
FD
330
1F
100
AcDbEntity
  8
0
  6
HIDDEN
 62
     7
370
     0
100
AcDbLine
 10
169.4944816636
 20
152.2878920618
 30
0.0
 11
169.4944816636
 21
160.7672592015
 31
0.0
  0
CIRCLE
  5
FE
330
1F
100
AcDbEntity
  8
0
  6
HIDDEN
 62
     7
370
     0
100
AcDbCircle
 10
158.1944816636
 20
146.7824472948
 30
0.0
 40
2.299999999999983
  0
LINE
  5
FF
330
1F
100
AcDbEntity
  8
0
  6
HIDDEN
 62
     7
370
     0
100
AcDbLine
 10
146.7215136957
 20
156.3451405989
 30
0.0
 11
146.7215136957
 21
137.2197539907
 31
0.0
  0
LINE
  5
100
330
1F
100
AcDbEntity
  8
0
  6
HIDDEN
 62
     7
370
     0
100
AcDbLine
 10
145.6944816636
 20
136.6267967706
 30
0.0
 11
145.6944816636
 21
156.9380978191
 31
0.0
  0
LINE
  5
101
330
1F
100
AcDbEntity
  8
0
  6
HIDDEN
 62
     7
370
     0
100
AcDbLine
 10
150.2215136957
 20
156.0133874025
 30
0.0
 11
150.2215136957
 21
137.5515071872
 31
0.0
  0
LINE
  5
102
330
1F
100
AcDbEntity
  8
0
  6
HIDDEN
 62
     7
370
     0
100
AcDbLine
 10
153.6215136957
 20
155.7824472948
 30
0.0
 11
153.6215136957
 21
137.7824472948
 31
0.0
  0
LINE
  5
103
330
1F
100
AcDbEntity
  8
0
  6
HIDDEN
 62
     7
370
     0
100
AcDbLine
 10
148.8215136957
 20
155.7824472948
 30
0.0
 11
148.8215136957
 21
137.7824472948
 31
0.0
  0
LINE
  5
104
330
1F
100
AcDbEntity
  8
0
  6
HIDDEN
 62
     7
370
     0
100
AcDbLine
 10
149.8215136957
 20
155.7824472948
 30
0.0
 11
149.8215136957
 21
137.7824472948
 31
0.0
  0
SPLINE
  5
105
330
1F
100
AcDbEntity
  8
0
  6
HIDDEN
 62
     7
370
     0
100
AcDbSpline
210
0.0
220
0.0
230
1.0
 70
     8
 71
     3
 72
    14
 73
    10
 74
     0
 42
0.00000001
 43
0.00000001
 12
1.0
 22
0.0
 32
0.0
 13
1.0
 23
0.0
 33
0.0
 40
0.0
 40
0.0
 40
0.0
 40
0.0
 40
0.25
 40
0.25
 40
0.5
 40
0.5
 40
0.75
 40
0.75
 40
1.0
 40
1.0
 40
1.0
 40
1.0
 10
160.1944816636206
 20
147.9182289639984
 30
0.0
 10
160.2927060101235
 20
147.7452655341949
 30
0.0
 10
160.3680208481076
 20
147.5602329797705
 30
0.0
 10
160.468987558302
 20
147.1772207656361
 30
0.0
 10
160.4943631445921
 20
146.9825022121704
 30
0.0
 10
160.4945993698584
 20
146.5851269109048
 30
0.0
 10
160.4688963005229
 20
146.3876345764294
 30
0.0
 10
160.3685761870065
 20
146.0064627417984
 30
0.0
 10
160.2926843589188
 20
145.8195909298259
 30
0.0
 10
160.1944816636251
 20
145.646665625676
 30
0.0
  0
LINE
  5
106
330
1F
100
AcDbEntity
  8
0
  6
HIDDEN
 62
     7
370
     0
100
AcDbLine
 10
160.6944816636
 20
155.2824472942
 30
0.0
 11
160.6944816636
 21
138.2824472948
 31
0.0
  0
SPLINE
  5
107
330
1F
100
AcDbEntity
  8
0
  6
HIDDEN
 62
     7
370
     0
100
AcDbSpline
210
0.0
220
0.0
230
1.0
 70
     8
 71
     3
 72
    14
 73
    10
 74
     0
 42
0.00000001
 43
0.00000001
 12
1.0
 22
0.0
 32
0.0
 13
1.0
 23
0.0
 33
0.0
 40
0.0
 40
0.0
 40
0.0
 40
0.0
 40
0.25
 40
0.25
 40
0.5
 40
0.5
 40
0.75
 40
0.75
 40
1.0
 40
1.0
 40
1.0
 40
1.0
 10
160.1944816636206
 20
145.6466656256783
 30
0.0
 10
160.2927060101235
 20
145.8196290554818
 30
0.0
 10
160.3680208481076
 20
146.0046616099062
 30
0.0
 10
160.468987558302
 20
146.3876738240407
 30
0.0
 10
160.4943631445921
 20
146.5823923775064
 30
0.0
 10
160.4945993698584
 20
146.9797676787719
 30
0.0
 10
160.4688963005229
 20
147.1772600132473
 30
0.0
 10
160.3685761870065
 20
147.5584318478784
 30
0.0
 10
160.2926843589188
 20
147.7453036598509
 30
0.0
 10
160.1944816636251
 20
147.9182289640008
 30
0.0
  0
SPLINE
  5
108
330
1F
100
AcDbEntity
  8
0
  6
HIDDEN
 62
     7
370
     0
100
AcDbSpline
210
0.0
220
0.0
230
1.0
 70
     8
 71
     3
 72
    60
 73
    56
 74
     0
 42
0.00000001
 43
0.00000001
 12
1.0
 22
0.0
 32
0.0
 13
1.0
 23
0.0
 33
0.0
 40
0.0
 40
0.0
 40
0.0
 40
0.0
 40
0.0624999999999998
 40
0.0624999999999998
 40
0.1249999999999997
 40
0.1249999999999997
 40
0.1874999999999995
 40
0.1874999999999995
 40
0.2187499999999994
 40
0.2187499999999994
 40
0.2499999999999993
 40
0.2499999999999993
 40
0.3124999999999996
 40
0.3124999999999996
 40
0.3749999999999999
 40
0.3749999999999999
 40
0.4062499999999998
 40
0.4062499999999998
 40
0.4374999999999998
 40
0.4374999999999998
 40
0.4687499999999998
 40
0.4687499999999998
 40
0.4999999999999998
 40
0.4999999999999998
 40
0.5312499999999998
 40
0.5312499999999998
 40
0.5624999999999998
 40
0.5624999999999998
 40
0.5937499999999999
 40
0.5937499999999999
 40
0.6249999999999999
 40
0.6249999999999999
 40
0.6562499999999999
 40
0.6562499999999999
 40
0.6874999999999999
 40
0.6874999999999999
 40
0.71875
 40
0.71875
 40
0.75
 40
0.75
 40
0.78125
 40
0.78125
 40
0.8125
 40
0.8125
 40
0.8437500000000001
 40
0.8437500000000001
 40
0.8750000000000001
 40
0.8750000000000001
 40
0.9062500000000001
 40
0.9062500000000001
 40
0.9375
 40
0.9375
 40
0.96875
 40
0.96875
 40
1.0
 40
1.0
 40
1.0
 40
1.0
 10
160.1944816636206
 20
145.6466656256783
 30
0.0
 10
160.0692917620419
 20
145.4262185010628
 30
0.0
 10
159.9124244434737
 20
145.2324847722424
 30
0.0
 10
159.5353869236549
 20
144.89679507348
 30
0.0
 10
159.3236736172339
 20
144.7628177151672
 30
0.0
 10
158.8577836352852
 20
144.5656909704821
 30
0.0
 10
158.6119444042336
 20
144.5064735582602
 30
0.0
 10
158.232463351139
 20
144.4792668223696
 30
0.0
 10
158.104717622445
 20
144.4807600875114
 30
0.0
 10
157.8542513757769
 20
144.5042758933204
 30
0.0
 10
157.7304219929687
 20
144.5261951121246
 30
0.0
 10
157.3632023188701
 20
144.6230316769695
 30
0.0
 10
157.1324333007844
 20
144.7268327984213
 30
0.0
 10
156.7125443393649
 20
145.0055512793493
 30
0.0
 10
156.5282859644773
 20
145.177113570853
 30
0.0
 10
156.2975375769939
 20
145.4757609321198
 30
0.0
 10
156.228490727205
 20
145.5822284726221
 30
0.0
 10
156.1099260633995
 20
145.8025118210151
 30
0.0
 10
156.0597176946498
 20
145.9171733374165
 30
0.0
 10
155.977885842292
 20
146.1558539741933
 30
0.0
 10
155.9465349434093
 20
146.2798996010713
 30
0.0
 10
155.9051405653707
 20
146.5280146371797
 30
0.0
 10
155.8946347903065
 20
146.6532523396682
 30
0.0
 10
155.8943318379707
 20
146.9061313952592
 30
0.0
 10
155.9048163675873
 20
147.0340110814958
 30
0.0
 10
155.9459564450488
 20
147.2824331427013
 30
0.0
 10
155.9765345655973
 20
147.4042320694697
 30
0.0
 10
156.0578172739486
 20
147.643011598944
 30
0.0
 10
156.1088181605105
 20
147.7600531612507
 30
0.0
 10
156.2273852088736
 20
147.9808783591766
 30
0.0
 10
156.2952739621453
 20
148.0858167227393
 30
0.0
 10
156.448424399883
 20
148.2847940559687
 30
0.0
 10
156.5339805714555
 20
148.3788021811629
 30
0.0
 10
156.7166919424147
 20
148.5492948660996
 30
0.0
 10
156.8144992420966
 20
148.626733061149
 30
0.0
 10
157.0233023540135
 20
148.7658989570373
 30
0.0
 10
157.1348845293014
 20
148.8276807660442
 30
0.0
 10
157.3635303288004
 20
148.930759636645
 30
0.0
 10
157.4814851397716
 20
148.9727636718407
 30
0.0
 10
157.7248135847603
 20
149.0374997931375
 30
0.0
 10
157.8511574601033
 20
149.0601730557001
 30
0.0
 10
158.1022634411212
 20
149.0840558518813
 30
0.0
 10
158.2279454348441
 20
149.085659153148
 30
0.0
 10
158.4795675046359
 20
149.0681924143771
 30
0.0
 10
158.6064651249217
 20
149.0487565237372
 30
0.0
 10
158.8516556911829
 20
148.9901633524135
 30
0.0
 10
158.9708448482164
 20
148.9511005012568
 30
0.0
 10
159.2025298725712
 20
148.853590779133
 30
0.0
 10
159.3157046769217
 20
148.7945554248444
 30
0.0
 10
159.5277830938574
 20
148.660751708005
 30
0.0
 10
159.6275718725582
 20
148.5857564918602
 30
0.0
 10
159.8148300595472
 20
148.4195614273394
 30
0.0
 10
159.9027250964905
 20
148.3276672285978
 30
0.0
 10
160.0609461721224
 20
148.1323030308835
 30
0.0
 10
160.1318841284141
 20
148.028457077211
 30
0.0
 10
160.1944816636206
 20
147.9182289639984
 30
0.0
  0
SPLINE
  5
109
330
1F
100
AcDbEntity
  8
0
  6
HIDDEN
 62
     7
370
     0
100
AcDbSpline
210
0.0
220
0.0
230
1.0
 70
     8
 71
     3
 72
    60
 73
    56
 74
     0
 42
0.00000001
 43
0.00000001
 12
1.0
 22
0.0
 32
0.0
 13
1.0
 23
0.0
 33
0.0
 40
0.0
 40
0.0
 40
0.0
 40
0.0
 40
0.0624999999999998
 40
0.0624999999999998
 40
0.1249999999999997
 40
0.1249999999999997
 40
0.1874999999999995
 40
0.1874999999999995
 40
0.2187499999999994
 40
0.2187499999999994
 40
0.2499999999999993
 40
0.2499999999999993
 40
0.3124999999999996
 40
0.3124999999999996
 40
0.3749999999999999
 40
0.3749999999999999
 40
0.4062499999999998
 40
0.4062499999999998
 40
0.4374999999999998
 40
0.4374999999999998
 40
0.4687499999999998
 40
0.4687499999999998
 40
0.4999999999999998
 40
0.4999999999999998
 40
0.5312499999999998
 40
0.5312499999999998
 40
0.5624999999999998
 40
0.5624999999999998
 40
0.5937499999999999
 40
0.5937499999999999
 40
0.6249999999999999
 40
0.6249999999999999
 40
0.6562499999999999
 40
0.6562499999999999
 40
0.6874999999999999
 40
0.6874999999999999
 40
0.71875
 40
0.71875
 40
0.75
 40
0.75
 40
0.78125
 40
0.78125
 40
0.8125
 40
0.8125
 40
0.8437500000000001
 40
0.8437500000000001
 40
0.8750000000000001
 40
0.8750000000000001
 40
0.9062500000000001
 40
0.9062500000000001
 40
0.9375
 40
0.9375
 40
0.96875
 40
0.96875
 40
1.0
 40
1.0
 40
1.0
 40
1.0
 10
160.1944816636206
 20
147.9182289639984
 30
0.0
 10
160.0692917620419
 20
148.138676088614
 30
0.0
 10
159.9124244434737
 20
148.3324098174344
 30
0.0
 10
159.5353869236549
 20
148.6680995161968
 30
0.0
 10
159.3236736172339
 20
148.8020768745095
 30
0.0
 10
158.8577836352852
 20
148.9992036191947
 30
0.0
 10
158.6119444042336
 20
149.0584210314165
 30
0.0
 10
158.232463351139
 20
149.0856277673072
 30
0.0
 10
158.104717622445
 20
149.0841345021653
 30
0.0
 10
157.8542513757769
 20
149.0606186963564
 30
0.0
 10
157.7304219929687
 20
149.0386994775522
 30
0.0
 10
157.3632023188701
 20
148.9418629127073
 30
0.0
 10
157.1324333007844
 20
148.8380617912555
 30
0.0
 10
156.7125443393649
 20
148.5593433103274
 30
0.0
 10
156.5282859644773
 20
148.3877810188237
 30
0.0
 10
156.2975375769939
 20
148.0891336575569
 30
0.0
 10
156.228490727205
 20
147.9826661170547
 30
0.0
 10
156.1099260633995
 20
147.7623827686617
 30
0.0
 10
156.0597176946498
 20
147.6477212522603
 30
0.0
 10
155.977885842292
 20
147.4090406154835
 30
0.0
 10
155.9465349434093
 20
147.2849949886054
 30
0.0
 10
155.9051405653707
 20
147.0368799524971
 30
0.0
 10
155.8946347903065
 20
146.9116422500086
 30
0.0
 10
155.8943318379707
 20
146.6587631944176
 30
0.0
 10
155.9048163675873
 20
146.5308835081809
 30
0.0
 10
155.9459564450488
 20
146.2824614469755
 30
0.0
 10
155.9765345655973
 20
146.1606625202071
 30
0.0
 10
156.0578172739486
 20
145.9218829907328
 30
0.0
 10
156.1088181605105
 20
145.8048414284261
 30
0.0
 10
156.2273852088736
 20
145.5840162305002
 30
0.0
 10
156.2952739621453
 20
145.4790778669374
 30
0.0
 10
156.448424399883
 20
145.280100533708
 30
0.0
 10
156.5339805714555
 20
145.1860924085139
 30
0.0
 10
156.7166919424147
 20
145.0155997235771
 30
0.0
 10
156.8144992420966
 20
144.9381615285278
 30
0.0
 10
157.0233023540135
 20
144.7989956326395
 30
0.0
 10
157.1348845293014
 20
144.7372138236325
 30
0.0
 10
157.3635303288004
 20
144.6341349530317
 30
0.0
 10
157.4814851397716
 20
144.5921309178361
 30
0.0
 10
157.7248135847603
 20
144.5273947965393
 30
0.0
 10
157.8511574601033
 20
144.5047215339766
 30
0.0
 10
158.1022634411212
 20
144.4808387377955
 30
0.0
 10
158.2279454348441
 20
144.4792354365288
 30
0.0
 10
158.4795675046359
 20
144.4967021752997
 30
0.0
 10
158.6064651249217
 20
144.5161380659396
 30
0.0
 10
158.8516556911829
 20
144.5747312372633
 30
0.0
 10
158.9708448482164
 20
144.6137940884199
 30
0.0
 10
159.2025298725712
 20
144.7113038105437
 30
0.0
 10
159.3157046769217
 20
144.7703391648323
 30
0.0
 10
159.5277830938574
 20
144.9041428816718
 30
0.0
 10
159.6275718725582
 20
144.9791380978166
 30
0.0
 10
159.8148300595472
 20
145.1453331623374
 30
0.0
 10
159.9027250964905
 20
145.2372273610789
 30
0.0
 10
160.0609461721224
 20
145.4325915587933
 30
0.0
 10
160.1318841284141
 20
145.5364375124657
 30
0.0
 10
160.1944816636206
 20
145.6466656256783
 30
0.0
  0
LINE
  5
10A
330
1F
100
AcDbEntity
  8
0
  6
HIDDEN
 62
     7
370
     0
100
AcDbLine
 10
161.5944816636
 20
153.0324472948
 30
0.0
 11
161.5944816636
 21
140.5324472948
 31
0.0
  0
LINE
  5
10B
330
1F
100
AcDbEntity
  8
0
  6
HIDDEN
 62
     7
370
     0
100
AcDbLine
 10
160.6944816636
 20
139.6324472948
 30
0.0
 11
160.6944816636
 21
153.9150302542
 31
0.0
  0
LINE
  5
10C
330
1F
100
AcDbEntity
  8
0
  6
HIDDEN
 62
     7
370
     0
100
AcDbLine
 10
180.6944816636
 20
153.0324472948
 30
0.0
 11
180.6944816636
 21
140.5324472948
 31
0.0
  0
LINE
  5
10D
330
1F
100
AcDbEntity
  8
0
  6
HIDDEN
 62
     7
370
     0
100
AcDbLine
 10
181.8962029017
 20
151.0324472948
 30
0.0
 11
181.8962029017
 21
142.5324472948
 31
0.0
  0
LINE
  5
10E
330
1F
100
AcDbEntity
  8
0
  6
HIDDEN
 62
     7
370
     0
100
AcDbLine
 10
203.1944816636
 20
136.7824472948
 30
0.0
 11
203.1944816636
 21
116.7824472948
 31
0.0
  0
LINE
  5
10F
330
1F
100
AcDbEntity
  8
0
  6
HIDDEN
 62
     7
370
     0
100
AcDbLine
 10
194.6944816636
 20
136.7824472948
 30
0.0
 11
203.1944816636
 21
136.7824472948
 31
0.0
  0
LINE
  5
110
330
1F
100
AcDbEntity
  8
0
  6
HIDDEN
 62
     7
370
     0
100
AcDbLine
 10
194.6944816636
 20
136.7824472948
 30
0.0
 11
194.6944816636
 21
116.7824472948
 31
0.0
  0
LINE
  5
111
330
1F
100
AcDbEntity
  8
0
  6
HIDDEN
 62
     7
370
     0
100
AcDbLine
 10
194.6944816636
 20
116.7824472948
 30
0.0
 11
203.1944816636
 21
116.7824472948
 31
0.0
  0
LINE
  5
112
330
1F
100
AcDbEntity
  8
0
  6
HIDDEN
 62
     7
370
     0
100
AcDbLine
 10
194.6944816636
 20
156.7824472948
 30
0.0
 11
194.6944816636
 21
176.7824472948
 31
0.0
  0
LINE
  5
113
330
1F
100
AcDbEntity
  8
0
  6
HIDDEN
 62
     7
370
     0
100
AcDbLine
 10
194.6944816636
 20
156.7824472948
 30
0.0
 11
203.1944816636
 21
156.7824472948
 31
0.0
  0
LINE
  5
114
330
1F
100
AcDbEntity
  8
0
  6
HIDDEN
 62
     7
370
     0
100
AcDbLine
 10
203.1944816636
 20
156.7824472948
 30
0.0
 11
203.1944816636
 21
176.7824472948
 31
0.0
  0
LINE
  5
115
330
1F
100
AcDbEntity
  8
0
  6
HIDDEN
 62
     7
370
     0
100
AcDbLine
 10
194.6944816636
 20
176.7824472948
 30
0.0
 11
203.1944816636
 21
176.7824472948
 31
0.0
  0
LINE
  5
116
330
1F
100
AcDbEntity
  8
0
  6
HIDDEN
 62
     7
370
     0
100
AcDbLine
 10
219.6944816636
 20
142.5324472948
 30
0.0
 11
219.6944816636
 21
151.0324472948
 31
0.0
  0
LINE
  5
117
330
1F
100
AcDbEntity
  8
0
  6
HIDDEN
 62
     7
370
     0
100
AcDbLine
 10
219.6944816636
 20
146.4073105264
 30
0.0
 11
219.6944816636
 21
147.1575840632
 31
0.0
  0
LINE
  5
118
330
1F
100
AcDbEntity
  8
0
  6
HIDDEN
 62
     7
370
     0
100
AcDbLine
 10
247.7459245051
 20
147.7824472948
 30
0.0
 11
247.7459245051
 21
145.7824472948
 31
0.0
  0
LINE
  5
119
330
1F
100
AcDbEntity
  8
0
  6
HIDDEN
 62
     7
370
     0
100
AcDbLine
 10
249.6944816636
 20
144.6574472948
 30
0.0
 11
249.6944816636
 21
148.9074472948
 31
0.0
  0
LINE
  5
11A
330
1F
100
AcDbEntity
  8
0
  6
HIDDEN
 62
     7
370
     0
100
AcDbLine
 10
246.5944816636
 20
147.7824472948
 30
0.0
 11
246.5944816636
 21
145.7824472948
 31
0.0
  0
LINE
  5
11B
330
1F
100
AcDbEntity
  8
0
  6
HIDDEN
 62
     7
370
     0
100
AcDbLine
 10
203.1944816636
 20
136.7824472948
 30
0.0
 11
249.6944816636
 21
136.7824472948
 31
0.0
  0
CIRCLE
  5
11C
330
1F
100
AcDbEntity
  8
0
  6
HIDDEN
 62
     7
370
     0
100
AcDbCircle
 10
237.6944816636
 20
126.7824472948
 30
0.0
 40
4.25
  0
CIRCLE
  5
11D
330
1F
100
AcDbEntity
  8
0
  6
HIDDEN
 62
     7
370
     0
100
AcDbCircle
 10
211.6944816636
 20
126.7824472948
 30
0.0
 40
4.249999999999972
  0
LINE
  5
11E
330
1F
100
AcDbEntity
  8
0
  6
HIDDEN
 62
     7
370
     0
100
AcDbLine
 10
249.6944816636
 20
136.7824472948
 30
0.0
 11
249.6944816636
 21
117.7824472948
 31
0.0
  0
LINE
  5
11F
330
1F
100
AcDbEntity
  8
0
  6
HIDDEN
 62
     7
370
     0
100
AcDbLine
 10
249.6944816636
 20
117.7824472948
 30
0.0
 11
248.6944816636
 21
116.7824472948
 31
0.0
  0
LINE
  5
120
330
1F
100
AcDbEntity
  8
0
  6
HIDDEN
 62
     7
370
     0
100
AcDbLine
 10
203.1944816636
 20
116.7824472948
 30
0.0
 11
248.6944816636
 21
116.7824472948
 31
0.0
  0
LINE
  5
121
330
1F
100
AcDbEntity
  8
0
  6
HIDDEN
 62
     7
370
     0
100
AcDbLine
 10
203.1944816636
 20
156.7824472948
 30
0.0
 11
249.6944816636
 21
156.7824472948
 31
0.0
  0
CIRCLE
  5
122
330
1F
100
AcDbEntity
  8
0
  6
HIDDEN
 62
     7
370
     0
100
AcDbCircle
 10
237.6944816636
 20
166.7824472948
 30
0.0
 40
4.25
  0
CIRCLE
  5
123
330
1F
100
AcDbEntity
  8
0
  6
HIDDEN
 62
     7
370
     0
100
AcDbCircle
 10
211.6944816636
 20
166.7824472948
 30
0.0
 40
4.249999999999972
  0
LINE
  5
124
330
1F
100
AcDbEntity
  8
0
  6
HIDDEN
 62
     7
370
     0
100
AcDbLine
 10
203.1944816636
 20
176.7824472948
 30
0.0
 11
248.6944816636
 21
176.7824472948
 31
0.0
  0
LINE
  5
125
330
1F
100
AcDbEntity
  8
0
  6
HIDDEN
 62
     7
370
     0
100
AcDbLine
 10
248.6944816636
 20
176.7824472948
 30
0.0
 11
249.6944816636
 21
175.7824472948
 31
0.0
  0
LINE
  5
126
330
1F
100
AcDbEntity
  8
0
  6
HIDDEN
 62
     7
370
     0
100
AcDbLine
 10
249.6944816636
 20
156.7824472948
 30
0.0
 11
249.6944816636
 21
175.7824472948
 31
0.0
  0
LINE
  5
127
330
1F
100
AcDbEntity
  8
0
  6
HIDDEN
 62
     7
370
     0
100
AcDbLine
 10
167.9944816636
 20
160.8025460794
 30
0.0
 11
167.9944816636
 21
160.7026836832
 31
0.0
  0
LINE
  5
128
330
1F
100
AcDbEntity
  8
0
  6
HIDDEN
 62
     7
370
     0
100
AcDbLine
 10
147.1944816636
 20
160.2799776807
 30
0.0
 11
147.1944816636
 21
156.4400582146
 31
0.0
  0
LINE
  5
129
330
1F
100
AcDbEntity
  8
0
  6
HIDDEN
 62
     7
370
     0
100
AcDbLine
 10
167.9944816636
 20
157.7564852871
 30
0.0
 11
167.9944816636
 21
156.7013424139
 31
0.0
  0
SPLINE
  5
12A
330
1F
100
AcDbEntity
  8
0
  6
HIDDEN
 62
     7
370
     0
100
AcDbSpline
210
0.0
220
0.0
230
1.0
 70
     8
 71
     3
 72
    16
 73
    12
 74
     0
 42
0.00000001
 43
0.00000001
 12
1.0
 22
0.0
 32
0.0
 13
1.0
 23
0.0
 33
0.0
 40
0.0
 40
0.0
 40
0.0
 40
0.0
 40
0.2499999999999996
 40
0.2499999999999996
 40
0.3749999999999995
 40
0.3749999999999995
 40
0.4999999999999994
 40
0.4999999999999994
 40
0.7499999999999997
 40
0.7499999999999997
 40
1.0
 40
1.0
 40
1.0
 40
1.0
 10
167.9944816636204
 20
160.7026836831533
 30
0.0
 10
167.9139443317211
 20
160.6226149970009
 30
0.0
 10
167.8539069876938
 20
160.4987505055106
 30
0.0
 10
167.7931692805402
 20
160.2480696815785
 30
0.0
 10
167.7778469054273
 20
160.153631077269
 30
0.0
 10
167.7572640961231
 20
159.9423200096503
 30
0.0
 10
167.7520644990974
 20
159.8250305548967
 30
0.0
 10
167.7520108459173
 20
159.4469948831415
 30
0.0
 10
167.772208389395
 20
159.1582177293974
 30
0.0
 10
167.852886477753
 20
158.5083778662586
 30
0.0
 10
167.9139326423604
 20
158.1455489323659
 30
0.0
 10
167.9944816636185
 20
157.7564852870943
 30
0.0
  0
SPLINE
  5
12B
330
1F
100
AcDbEntity
  8
0
  6
HIDDEN
 62
     7
370
     0
100
AcDbSpline
210
0.0
220
0.0
230
1.0
 70
     8
 71
     3
 72
    24
 73
    20
 74
     0
 42
0.00000001
 43
0.00000001
 12
1.0
 22
0.0
 32
0.0
 13
1.0
 23
0.0
 33
0.0
 40
0.0
 40
0.0
 40
0.0
 40
0.0
 40
0.2500000000000086
 40
0.2500000000000086
 40
0.3750000000000132
 40
0.3750000000000132
 40
0.4375000000000152
 40
0.4375000000000152
 40
0.5000000000000172
 40
0.5000000000000172
 40
0.5312500000000187
 40
0.5312500000000187
 40
0.56250000000002
 40
0.56250000000002
 40
0.6250000000000183
 40
0.6250000000000183
 40
0.7500000000000128
 40
0.7500000000000128
 40
1.0
 40
1.0
 40
1.0
 40
1.0
 10
168.199441685681
 20
160.5215318259984
 30
0.0
 10
168.1836750973826
 20
160.5073108550101
 30
0.0
 10
168.167063564428
 20
160.4930805646753
 30
0.0
 10
168.13853721647
 20
160.4742835094538
 30
0.0
 10
168.12845178268
 20
160.4683950891125
 30
0.0
 10
168.1109690121451
 20
160.4618576943101
 30
0.0
 10
168.1047613556996
 20
160.460046480309
 30
0.0
 10
168.0904898554544
 20
160.4584406778025
 30
0.0
 10
168.0829197849513
 20
160.4578879004164
 30
0.0
 10
168.065523455516
 20
160.4650866451292
 30
0.0
 10
168.057064182556
 20
160.4701783938768
 30
0.0
 10
168.0410032180084
 20
160.487993326356
 30
0.0
 10
168.0361699821621
 20
160.4965157412183
 30
0.0
 10
168.0247440624268
 20
160.5184121778671
 30
0.0
 10
168.0207227065444
 20
160.530152700673
 30
0.0
 10
168.0099622115133
 20
160.5642029646264
 30
0.0
 10
168.0060879024524
 20
160.5837779536551
 30
0.0
 10
167.9969150303252
 20
160.6396262623363
 30
0.0
 10
167.9948826596105
 20
160.6724040233652
 30
0.0
 10
167.9944816636206
 20
160.7026836831531
 30
0.0
  0
LINE
  5
12C
330
1F
100
AcDbEntity
  8
0
  6
HIDDEN
 62
     7
370
     0
100
AcDbLine
 10
145.6944816636
 20
159.4139522769
 30
0.0
 11
145.6944816636
 21
156.0070455127
 31
0.0
  0
SPLINE
  5
12D
330
1F
100
AcDbEntity
  8
0
  6
HIDDEN
 62
     7
370
     0
100
AcDbSpline
210
0.0
220
0.0
230
1.0
 70
     8
 71
     3
 72
     8
 73
     4
 74
     0
 42
0.00000001
 43
0.00000001
 12
1.0
 22
0.0
 32
0.0
 13
1.0
 23
0.0
 33
0.0
 40
0.0
 40
0.0
 40
0.0
 40
0.0
 40
1.0
 40
1.0
 40
1.0
 40
1.0
 10
168.373161320061
 20
160.6075113028435
 30
0.0
 10
168.3080561584469
 20
160.5957902731849
 30
0.0
 10
168.2501688288869
 20
160.5672861273222
 30
0.0
 10
168.1994416856809
 20
160.5215318259984
 30
0.0
  0
LINE
  5
12E
330
1F
100
AcDbEntity
  8
0
  6
HIDDEN
 62
     7
370
     0
100
AcDbLine
 10
167.9944816636
 20
132.8622109065
 30
0.0
 11
167.9944816636
 21
132.7623485103
 31
0.0
  0
SPLINE
  5
12F
330
1F
100
AcDbEntity
  8
0
  6
HIDDEN
 62
     7
370
     0
100
AcDbSpline
210
0.0
220
0.0
230
1.0
 70
     8
 71
     3
 72
    24
 73
    20
 74
     0
 42
0.00000001
 43
0.00000001
 12
1.0
 22
0.0
 32
0.0
 13
1.0
 23
0.0
 33
0.0
 40
0.0
 40
0.0
 40
0.0
 40
0.0
 40
0.2499999999999952
 40
0.2499999999999952
 40
0.3749999999999937
 40
0.3749999999999937
 40
0.4374999999999939
 40
0.4374999999999939
 40
0.4687499999999932
 40
0.4687499999999932
 40
0.4999999999999923
 40
0.4999999999999923
 40
0.5624999999999925
 40
0.5624999999999925
 40
0.6249999999999926
 40
0.6249999999999926
 40
0.749999999999995
 40
0.749999999999995
 40
1.0
 40
1.0
 40
1.0
 40
1.0
 10
167.9944816636206
 20
132.862210906531
 30
0.0
 10
167.9948845742563
 20
132.892635143369
 30
0.0
 10
167.9969285535969
 20
132.9254932439231
 30
0.0
 10
168.006165796423
 20
132.9815186110768
 30
0.0
 10
168.0100528594036
 20
133.0011296642622
 30
0.0
 10
168.0209567508102
 20
133.0354039476917
 30
0.0
 10
168.0250987965607
 20
133.0474663731639
 30
0.0
 10
168.0369938703134
 20
133.0697855378635
 30
0.0
 10
168.0422409346222
 20
133.0787520502237
 30
0.0
 10
168.0591080010014
 20
133.09640161475
 30
0.0
 10
168.0669304085265
 20
133.1005458988897
 30
0.0
 10
168.083879209148
 20
133.1070334400638
 30
0.0
 10
168.091335560366
 20
133.1064365586921
 30
0.0
 10
168.1053954635584
 20
133.1046902947201
 30
0.0
 10
168.1115278486944
 20
133.1028596068216
 30
0.0
 10
168.1288226112176
 20
133.0962931972488
 30
0.0
 10
168.1388399296266
 20
133.0904279820901
 30
0.0
 10
168.1672112638693
 20
133.0716832980598
 30
0.0
 10
168.1837467015138
 20
133.0575191499731
 30
0.0
 10
168.1994416856783
 20
133.0433627636808
 30
0.0
  0
SPLINE
  5
130
330
1F
100
AcDbEntity
  8
0
  6
HIDDEN
 62
     7
370
     0
100
AcDbSpline
210
0.0
220
0.0
230
1.0
 70
     8
 71
     3
 72
     8
 73
     4
 74
     0
 42
0.00000001
 43
0.00000001
 12
1.0
 22
0.0
 32
0.0
 13
1.0
 23
0.0
 33
0.0
 40
0.0
 40
0.0
 40
0.0
 40
0.0
 40
1.0
 40
1.0
 40
1.0
 40
1.0
 10
168.1994416856782
 20
133.0433627636808
 30
0.0
 10
168.2501688288849
 20
132.9976084623556
 30
0.0
 10
168.3080561584458
 20
132.969104316492
 30
0.0
 10
168.373161320061
 20
132.9573832868332
 30
0.0
  0
LINE
  5
131
330
1F
100
AcDbEntity
  8
0
  6
HIDDEN
 62
     7
370
     0
100
AcDbLine
 10
167.9944816636
 20
136.8635521757
 30
0.0
 11
167.9944816636
 21
135.8084093026
 31
0.0
  0
LINE
  5
132
330
1F
100
AcDbEntity
  8
0
  6
HIDDEN
 62
     7
370
     0
100
AcDbLine
 10
147.1944816636
 20
137.1248363751
 30
0.0
 11
147.1944816636
 21
133.284916909
 31
0.0
  0
SPLINE
  5
133
330
1F
100
AcDbEntity
  8
0
  6
HIDDEN
 62
     7
370
     0
100
AcDbSpline
210
0.0
220
0.0
230
1.0
 70
     8
 71
     3
 72
    16
 73
    12
 74
     0
 42
0.00000001
 43
0.00000001
 12
1.0
 22
0.0
 32
0.0
 13
1.0
 23
0.0
 33
0.0
 40
0.0
 40
0.0
 40
0.0
 40
0.0
 40
0.2500000000000004
 40
0.2500000000000004
 40
0.3750000000000006
 40
0.3750000000000006
 40
0.5000000000000008
 40
0.5000000000000008
 40
0.7500000000000003
 40
0.7500000000000003
 40
1.0
 40
1.0
 40
1.0
 40
1.0
 10
167.9944816636204
 20
135.8084093025919
 30
0.0
 10
167.9139443317213
 20
135.4194021186479
 30
0.0
 10
167.8539069876941
 20
135.0629016770235
 30
0.0
 10
167.7931692805404
 20
134.5763992918363
 30
0.0
 10
167.7778469054275
 20
134.4223203509828
 30
0.0
 10
167.7572640961232
 20
134.1308507924902
 30
0.0
 10
167.7520644990975
 20
133.9932809085913
 30
0.0
 10
167.7520108459172
 20
133.6150360734021
 30
0.0
 10
167.7722083893946
 20
133.40515500485
 30
0.0
 10
167.852886477752
 20
133.0685757059382
 30
0.0
 10
167.9139326423591
 20
132.9422912140196
 30
0.0
 10
167.9944816636167
 20
132.8622109065272
 30
0.0
  0
LINE
  5
134
330
1F
100
AcDbEntity
  8
0
  6
HIDDEN
 62
     7
370
     0
100
AcDbLine
 10
145.6944816636
 20
137.557849077
 30
0.0
 11
145.6944816636
 21
134.1509423128
 31
0.0
  0
LINE
  5
135
330
1F
100
AcDbEntity
  8
0
  6
HIDDEN
 62
     7
370
     0
100
AcDbLine
 10
145.6944816636
 20
156.0070455127
 30
0.0
 11
145.6944816636
 21
148.6326611085
 31
0.0
  0
LINE
  5
136
330
1F
100
AcDbEntity
  8
0
  6
HIDDEN
 62
     7
370
     0
100
AcDbLine
 10
145.6944816636
 20
144.9322334812
 30
0.0
 11
145.6944816636
 21
137.557849077
 31
0.0
  0
SPLINE
  5
137
330
1F
100
AcDbEntity
  8
0
  6
HIDDEN
 62
     7
370
     0
100
AcDbSpline
210
0.0
220
0.0
230
1.0
 70
     8
 71
     3
 72
    24
 73
    20
 74
     0
 42
0.00000001
 43
0.00000001
 12
1.0
 22
0.0
 32
0.0
 13
1.0
 23
0.0
 33
0.0
 40
0.0
 40
0.0
 40
0.0
 40
0.0
 40
0.2499999999999717
 40
0.2499999999999717
 40
0.3749999999999608
 40
0.3749999999999608
 40
0.4374999999999583
 40
0.4374999999999583
 40
0.4999999999999559
 40
0.4999999999999559
 40
0.5312499999999571
 40
0.5312499999999571
 40
0.5624999999999584
 40
0.5624999999999584
 40
0.6249999999999649
 40
0.6249999999999649
 40
0.7499999999999779
 40
0.7499999999999779
 40
1.0
 40
1.0
 40
1.0
 40
1.0
 10
168.199441685681
 20
135.98985356804
 30
0.0
 10
168.1836728083236
 20
135.9159948761105
 30
0.0
 10
168.1670588264735
 20
135.8422834873747
 30
0.0
 10
168.1385271604684
 20
135.7307366637526
 30
0.0
 10
168.1284397456498
 20
135.6933650906242
 30
0.0
 10
168.1109521851955
 20
135.6364655929864
 30
0.0
 10
168.1047426234122
 20
135.6173624928412
 30
0.0
 10
168.0904650697595
 20
135.5784889786056
 30
0.0
 10
168.0828935219641
 20
135.5585643191722
 30
0.0
 10
168.0654759382859
 20
135.5284921011448
 30
0.0
 10
168.0569934416408
 20
135.5168107223417
 30
0.0
 10
168.040955129769
 20
135.5095492115931
 30
0.0
 10
168.0361345815655
 20
135.5131274586029
 30
0.0
 10
168.0247253570175
 20
135.5248883138345
 30
0.0
 10
168.02070487656
 20
135.5365539638851
 30
0.0
 10
168.0099510217397
 20
135.5730892939987
 30
0.0
 10
168.0060783404575
 20
135.6004850273222
 30
0.0
 10
167.9969101906199
 20
135.6852110190783
 30
0.0
 10
167.9948816852508
 20
135.7460431412503
 30
0.0
 10
167.9944816636206
 20
135.8084093025919
 30
0.0
  0
SPLINE
  5
138
330
1F
100
AcDbEntity
  8
0
  6
HIDDEN
 62
     7
370
     0
100
AcDbSpline
210
0.0
220
0.0
230
1.0
 70
     8
 71
     3
 72
    24
 73
    20
 74
     0
 42
0.00000001
 43
0.00000001
 12
1.0
 22
0.0
 32
0.0
 13
1.0
 23
0.0
 33
0.0
 40
0.0
 40
0.0
 40
0.0
 40
0.0
 40
0.2499999999999925
 40
0.2499999999999925
 40
0.3749999999999855
 40
0.3749999999999855
 40
0.4374999999999832
 40
0.4374999999999832
 40
0.468749999999982
 40
0.468749999999982
 40
0.4999999999999808
 40
0.4999999999999808
 40
0.5624999999999819
 40
0.5624999999999819
 40
0.624999999999983
 40
0.624999999999983
 40
0.7499999999999878
 40
0.7499999999999878
 40
1.0
 40
1.0
 40
1.0
 40
1.0
 10
167.994481663617
 20
157.7564852870957
 30
0.0
 10
167.9948863331928
 20
157.8195760955882
 30
0.0
 10
167.9969297800072
 20
157.8807618180907
 30
0.0
 10
168.0063293452614
 20
157.9662615505923
 30
0.0
 10
168.0102802387902
 20
157.9938419340334
 30
0.0
 10
168.021432547087
 20
158.0302960161449
 30
0.0
 10
168.0256540880136
 20
158.0421544378394
 30
0.0
 10
168.037861809577
 20
158.0527744892148
 30
0.0
 10
168.043652579829
 20
158.0556078564373
 30
0.0
 10
168.0605740929389
 20
158.0442932694395
 30
0.0
 10
168.0679802088888
 20
158.0325123836857
 30
0.0
 10
168.0844374621321
 20
158.0024715424559
 30
0.0
 10
168.0918939800431
 20
157.9827585888429
 30
0.0
 10
168.1058019093178
 20
157.9443565227828
 30
0.0
 10
168.1118938552128
 20
157.9254748728713
 30
0.0
 10
168.1290881475639
 20
157.8691739623397
 30
0.0
 10
168.1390730977674
 20
157.83209788453
 30
0.0
 10
168.1673191428664
 20
157.72143921364
 30
0.0
 10
168.1837986798275
 20
157.6483101532314
 30
0.0
 10
168.1994416856872
 20
157.5750410216075
 30
0.0
  0
SPLINE
  5
139
330
1F
100
AcDbEntity
  8
0
  6
HIDDEN
 62
     7
370
     0
100
AcDbSpline
210
0.0
220
0.0
230
1.0
 70
     8
 71
     3
 72
     8
 73
     4
 74
     0
 42
0.00000001
 43
0.00000001
 12
1.0
 22
0.0
 32
0.0
 13
1.0
 23
0.0
 33
0.0
 40
0.0
 40
0.0
 40
0.0
 40
0.0
 40
1.0
 40
1.0
 40
1.0
 40
1.0
 10
168.373161320061
 20
136.7289279772316
 30
0.0
 10
168.3080561584469
 20
136.4739027420259
 30
0.0
 10
168.2501688288869
 20
136.2274507258846
 30
0.0
 10
168.1994416856809
 20
135.98985356804
 30
0.0
  0
SPLINE
  5
13A
330
1F
100
AcDbEntity
  8
0
  6
HIDDEN
 62
     7
370
     0
100
AcDbSpline
210
0.0
220
0.0
230
1.0
 70
     8
 71
     3
 72
     8
 73
     4
 74
     0
 42
0.00000001
 43
0.00000001
 12
1.0
 22
0.0
 32
0.0
 13
1.0
 23
0.0
 33
0.0
 40
0.0
 40
0.0
 40
0.0
 40
0.0
 40
1.0
 40
1.0
 40
1.0
 40
1.0
 10
168.1994416856872
 20
157.5750410216075
 30
0.0
 10
168.2501688288917
 20
157.3374438637719
 30
0.0
 10
168.3080561584496
 20
157.0909918476404
 30
0.0
 10
168.373161320061
 20
156.8359666124452
 30
0.0
  0
LINE
  5
13B
330
1F
100
AcDbEntity
  8
0
  6
HIDDEN
 62
     7
370
     0
100
AcDbLine
 10
147.1944816636
 20
144.2274190578
 30
0.0
 11
147.1944816636
 21
137.1248363751
 31
0.0
  0
LINE
  5
13C
330
1F
100
AcDbEntity
  8
0
  6
HIDDEN
 62
     7
370
     0
100
AcDbLine
 10
147.1944816636
 20
156.4400582146
 30
0.0
 11
147.1944816636
 21
149.3374755319
 31
0.0
  0
LINE
  5
13D
330
1F
100
AcDbEntity
  8
0
  6
HIDDEN
 62
     7
370
     0
100
AcDbLine
 10
167.9944816636
 20
156.7013424139
 30
0.0
 11
167.9944816636
 21
136.8635521757
 31
0.0
  0
LINE
  5
13E
330
1F
100
AcDbEntity
  8
0
  6
HIDDEN
 62
     7
370
     0
100
AcDbLine
 10
169.4944816636
 20
155.2618144345
 30
0.0
 11
169.4944816636
 21
138.3030801551
 31
0.0
  0
SPLINE
  5
13F
330
1F
100
AcDbEntity
  8
0
  6
HIDDEN
 62
     7
370
     0
100
AcDbSpline
210
0.0
220
0.0
230
1.0
 70
     8
 71
     3
 72
     8
 73
     4
 74
     0
 42
0.00000001
 43
0.00000001
 12
1.0
 22
0.0
 32
0.0
 13
1.0
 23
0.0
 33
0.0
 40
0.0000137051794235
 40
0.0000137051794235
 40
0.0000137051794235
 40
0.0000137051794235
 40
0.0027147144718019
 40
0.0027147144718019
 40
0.0027147144718019
 40
0.0027147144718019
 10
147.1944816636206
 20
144.2274190577766
 30
0.0
 10
148.0944777991154
 20
144.2144474905783
 30
0.0
 10
148.9944779777107
 20
144.2018126332662
 30
0.0
 10
149.8944816636206
 20
144.1895026150104
 30
0.0
  0
SPLINE
  5
140
330
1F
100
AcDbEntity
  8
0
  6
HIDDEN
 62
     7
370
     0
100
AcDbSpline
210
0.0
220
0.0
230
1.0
 70
     8
 71
     3
 72
     8
 73
     4
 74
     0
 42
0.00000001
 43
0.00000001
 12
1.0
 22
0.0
 32
0.0
 13
1.0
 23
0.0
 33
0.0
 40
0.0000137050638847
 40
0.0000137050638847
 40
0.0000137050638847
 40
0.0000137050638847
 40
0.0027147143562631
 40
0.0027147143562631
 40
0.0027147143562631
 40
0.0027147143562631
 10
149.8944816636206
 20
149.3753919746663
 30
0.0
 10
148.9944779777107
 20
149.3630819564106
 30
0.0
 10
148.0944777991154
 20
149.3504470990985
 30
0.0
 10
147.1944816636206
 20
149.3374755319001
 30
0.0
  0
SPLINE
  5
141
330
1F
100
AcDbEntity
  8
0
  6
HIDDEN
 62
     7
370
     0
100
AcDbSpline
210
0.0
220
0.0
230
1.0
 70
     8
 71
     3
 72
    10
 73
     6
 74
     0
 42
0.00000001
 43
0.00000001
 12
1.0
 22
0.0
 32
0.0
 13
1.0
 23
0.0
 33
0.0
 40
0.0
 40
0.0
 40
0.0
 40
0.0
 40
0.5
 40
0.5
 40
1.0
 40
1.0
 40
1.0
 40
1.0
 10
145.6944816636197
 20
144.9322334811883
 30
0.0
 10
145.9316236243356
 20
144.7766186666594
 30
0.0
 10
146.176966383099
 20
144.6447096372401
 30
0.0
 10
146.6782299718321
 20
144.4130527606026
 30
0.0
 10
146.9342645410824
 20
144.3136071444797
 30
0.0
 10
147.1944816636206
 20
144.2274190577766
 30
0.0
  0
SPLINE
  5
142
330
1F
100
AcDbEntity
  8
0
  6
HIDDEN
 62
     7
370
     0
100
AcDbSpline
210
0.0
220
0.0
230
1.0
 70
     8
 71
     3
 72
    10
 73
     6
 74
     0
 42
0.00000001
 43
0.00000001
 12
1.0
 22
0.0
 32
0.0
 13
1.0
 23
0.0
 33
0.0
 40
0.0
 40
0.0
 40
0.0
 40
0.0
 40
0.5
 40
0.5
 40
1.0
 40
1.0
 40
1.0
 40
1.0
 10
147.1944816636206
 20
149.3374755319001
 30
0.0
 10
146.9342645410825
 20
149.2512874451971
 30
0.0
 10
146.6782299718324
 20
149.1518418290743
 30
0.0
 10
146.1769663830997
 20
148.920184952437
 30
0.0
 10
145.9316236243363
 20
148.7882759230178
 30
0.0
 10
145.6944816636206
 20
148.6326611084891
 30
0.0
  0
LINE
  5
143
330
1F
100
AcDbEntity
  8
0
  6
HIDDEN
 62
     7
370
     0
100
AcDbLine
 10
145.6944816636
 20
144.9322334812
 30
0.0
 11
145.6944816636
 21
148.6326611085
 31
0.0
  0
LINE
  5
144
330
1F
100
AcDbEntity
  8
0
  6
HIDDEN
 62
     7
370
     0
100
AcDbLine
 10
149.8944816636
 20
144.189502615
 30
0.0
 11
149.8944816636
 21
149.3753919747
 31
0.0
  0
SPLINE
  5
145
330
1F
100
AcDbEntity
  8
0
  6
HIDDEN
 62
     7
370
     0
100
AcDbSpline
210
0.0
220
0.0
230
1.0
 70
     8
 71
     3
 72
    22
 73
    18
 74
     0
 42
0.00000001
 43
0.00000001
 12
1.0
 22
0.0
 32
0.0
 13
1.0
 23
0.0
 33
0.0
 40
0.0
 40
0.0
 40
0.0
 40
0.0
 40
0.1250000000000001
 40
0.1250000000000001
 40
0.2500000000000001
 40
0.2500000000000001
 40
0.3750000000000001
 40
0.3750000000000001
 40
0.5000000000000001
 40
0.5000000000000001
 40
0.6250000000000001
 40
0.6250000000000001
 40
0.75
 40
0.75
 40
0.875
 40
0.875
 40
1.0
 40
1.0
 40
1.0
 40
1.0
 10
149.8944816636206
 20
144.1895026150104
 30
0.0
 10
150.0754180216967
 20
144.381122474317
 30
0.0
 10
150.2545134704736
 20
144.5747643387041
 30
0.0
 10
150.6053534589856
 20
144.9694195920884
 30
0.0
 10
150.7775465668903
 20
145.1704311227559
 30
0.0
 10
151.1032780725095
 20
145.5866422379897
 30
0.0
 10
151.2593543076779
 20
145.8026580782764
 30
0.0
 10
151.510733521567
 20
146.2679808414412
 30
0.0
 10
151.6045986518857
 20
146.523520034464
 30
0.0
 10
151.6008707350236
 20
147.0578506695646
 30
0.0
 10
151.5034980925363
 20
147.3132715355653
 30
0.0
 10
151.2516772835424
 20
147.773300251513
 30
0.0
 10
151.0967080280699
 20
147.9871372524416
 30
0.0
 10
150.7718952703446
 20
148.4011758351353
 30
0.0
 10
150.6010022062167
 20
148.6004683071711
 30
0.0
 10
150.2523679666891
 20
148.9924431996053
 30
0.0
 10
150.0743601161606
 20
149.1848924855947
 30
0.0
 10
149.8944816636206
 20
149.3753919746663
 30
0.0
  0
SPLINE
  5
146
330
1F
100
AcDbEntity
  8
0
  6
HIDDEN
 62
     7
370
     0
100
AcDbSpline
210
0.0
220
0.0
230
1.0
 70
     8
 71
     3
 72
    62
 73
    58
 74
     0
 42
0.00000001
 43
0.00000001
 12
1.0
 22
0.0
 32
0.0
 13
1.0
 23
0.0
 33
0.0
 40
-0.0312500000000001
 40
-0.0312500000000001
 40
0.0
 40
0.0
 40
0.03125
 40
0.03125
 40
0.0625
 40
0.0625
 40
0.0937499999999999
 40
0.0937499999999999
 40
0.1249999999999999
 40
0.1249999999999999
 40
0.1874999999999999
 40
0.1874999999999999
 40
0.2499999999999998
 40
0.2499999999999998
 40
0.2812499999999998
 40
0.2812499999999998
 40
0.3124999999999997
 40
0.3124999999999997
 40
0.3437499999999997
 40
0.3437499999999997
 40
0.3749999999999996
 40
0.3749999999999996
 40
0.4374999999999994
 40
0.4374999999999994
 40
0.4687499999999994
 40
0.4687499999999994
 40
0.4999999999999993
 40
0.4999999999999993
 40
0.5624999999999991
 40
0.5624999999999991
 40
0.5937499999999991
 40
0.5937499999999991
 40
0.6249999999999991
 40
0.6249999999999991
 40
0.6562499999999991
 40
0.6562499999999991
 40
0.6874999999999991
 40
0.6874999999999991
 40
0.7187499999999991
 40
0.7187499999999991
 40
0.7499999999999991
 40
0.7499999999999991
 40
0.7812499999999992
 40
0.7812499999999992
 40
0.8124999999999993
 40
0.8124999999999993
 40
0.8437499999999994
 40
0.8437499999999994
 40
0.8749999999999996
 40
0.8749999999999996
 40
0.9062499999999997
 40
0.9062499999999997
 40
0.9374999999999998
 40
0.9374999999999998
 40
0.9687499999999999
 40
0.9687499999999999
 40
1.0
 40
1.0
 40
1.03125
 40
1.03125
 10
156.1482537915489
 20
148.2704263334948
 30
0.0
 10
156.3757541381371
 20
148.5197728753554
 30
0.0
 10
156.5002166670546
 20
148.6313705528123
 30
0.0
 10
156.7693109332064
 20
148.8300213486307
 30
0.0
 10
156.9151240247957
 20
148.9173615934194
 30
0.0
 10
157.216290903085
 20
149.0615573460616
 30
0.0
 10
157.3726266301494
 20
149.1193770165758
 30
0.0
 10
157.6967499294838
 20
149.2066306286269
 30
0.0
 10
157.8634151411943
 20
149.2354326781087
 30
0.0
 10
158.3614314078262
 20
149.2762119833765
 30
0.0
 10
158.7021023566192
 20
149.2427687232353
 30
0.0
 10
159.3411132720406
 20
149.0603160787765
 30
0.0
 10
159.6475678791045
 20
148.9088915184637
 30
0.0
 10
160.0441237883669
 20
148.6083936128794
 30
0.0
 10
160.1684729792164
 20
148.494132427684
 30
0.0
 10
160.3909370732656
 20
148.2444725571115
 30
0.0
 10
160.4885024117428
 20
148.1103059491124
 30
0.0
 10
160.6557580153817
 20
147.8228368546137
 30
0.0
 10
160.7258436709008
 20
147.6675700047138
 30
0.0
 10
160.8298990316223
 20
147.3505905846268
 30
0.0
 10
160.8648747942897
 20
147.1879378331223
 30
0.0
 10
160.9167393138137
 20
146.6870008129197
 30
0.0
 10
160.8774332060423
 20
146.3468462116095
 30
0.0
 10
160.7147134135815
 20
145.8703515795123
 30
0.0
 10
160.6444329156952
 20
145.7192842196849
 30
0.0
 10
160.4730997705652
 20
145.431989649244
 30
0.0
 10
160.3717075293835
 20
145.2961318709466
 30
0.0
 10
160.0351079421603
 20
144.9273234759484
 30
0.0
 10
159.7598751759957
 20
144.7248983666173
 30
0.0
 10
159.3100919486498
 20
144.5078216400085
 30
0.0
 10
159.1512921501461
 20
144.4485193679343
 30
0.0
 10
158.8287304292664
 20
144.3605468501338
 30
0.0
 10
158.6648713172992
 20
144.3314270862875
 30
0.0
 10
158.3320385439453
 20
144.3025704711773
 30
0.0
 10
158.1619862525045
 20
144.3031939943913
 30
0.0
 10
157.8297105884848
 20
144.3344504381957
 30
0.0
 10
157.6659959767361
 20
144.3647691332475
 30
0.0
 10
157.3435304911617
 20
144.4554861722505
 30
0.0
 10
157.1850193926352
 20
144.5162550809523
 30
0.0
 10
156.8864656864373
 20
144.6637657557493
 30
0.0
 10
156.7446395572352
 20
144.7509007836132
 30
0.0
 10
156.4767178186769
 20
144.9534862501852
 30
0.0
 10
156.3526243882844
 20
145.0678244168274
 30
0.0
 10
156.1314902003662
 20
145.3160108547802
 30
0.0
 10
156.0330331982676
 20
145.451043471634
 30
0.0
 10
155.8636746845326
 20
145.7430478696887
 30
0.0
 10
155.7955078468267
 20
145.8951836161243
 30
0.0
 10
155.6917738805002
 20
146.2115925645643
 30
0.0
 10
155.6561053186311
 20
146.3780890339185
 30
0.0
 10
155.6218915539785
 20
146.7113509100291
 30
0.0
 10
155.6227499568076
 20
146.878013363851
 30
0.0
 10
155.6605467367572
 20
147.2114015630685
 30
0.0
 10
155.6978894922113
 20
147.377157135548
 30
0.0
 10
155.8051390752797
 20
147.6930484520107
 30
0.0
 10
155.8759002918188
 20
147.8463277850828
 30
0.0
 10
156.0480234419195
 20
148.1357048275693
 30
0.0
 10
156.1482537915489
 20
148.2704263334948
 30
0.0
 10
156.3757541381371
 20
148.5197728753554
 30
0.0
  0
SPLINE
  5
147
330
1F
100
AcDbEntity
  8
0
  6
HIDDEN
 62
     7
370
     0
100
AcDbSpline
210
0.0
220
0.0
230
1.0
 70
     8
 71
     3
 72
    62
 73
    58
 74
     0
 42
0.00000001
 43
0.00000001
 12
1.0
 22
0.0
 32
0.0
 13
1.0
 23
0.0
 33
0.0
 40
-0.0312500000000001
 40
-0.0312500000000001
 40
0.0
 40
0.0
 40
0.03125
 40
0.03125
 40
0.0625
 40
0.0625
 40
0.0937499999999999
 40
0.0937499999999999
 40
0.1249999999999999
 40
0.1249999999999999
 40
0.1874999999999999
 40
0.1874999999999999
 40
0.2499999999999998
 40
0.2499999999999998
 40
0.2812499999999998
 40
0.2812499999999998
 40
0.3124999999999997
 40
0.3124999999999997
 40
0.3437499999999997
 40
0.3437499999999997
 40
0.3749999999999996
 40
0.3749999999999996
 40
0.4374999999999994
 40
0.4374999999999994
 40
0.4687499999999994
 40
0.4687499999999994
 40
0.4999999999999993
 40
0.4999999999999993
 40
0.5624999999999991
 40
0.5624999999999991
 40
0.5937499999999991
 40
0.5937499999999991
 40
0.6249999999999991
 40
0.6249999999999991
 40
0.6562499999999991
 40
0.6562499999999991
 40
0.6874999999999991
 40
0.6874999999999991
 40
0.7187499999999991
 40
0.7187499999999991
 40
0.7499999999999991
 40
0.7499999999999991
 40
0.7812499999999992
 40
0.7812499999999992
 40
0.8124999999999993
 40
0.8124999999999993
 40
0.8437499999999994
 40
0.8437499999999994
 40
0.8749999999999996
 40
0.8749999999999996
 40
0.9062499999999997
 40
0.9062499999999997
 40
0.9374999999999998
 40
0.9374999999999998
 40
0.9687499999999999
 40
0.9687499999999999
 40
1.0
 40
1.0
 40
1.03125
 40
1.03125
 10
156.1482537915489
 20
148.2704263334948
 30
0.0
 10
156.3757541381371
 20
148.5197728753554
 30
0.0
 10
156.5002166670546
 20
148.6313705528123
 30
0.0
 10
156.7693109332064
 20
148.8300213486307
 30
0.0
 10
156.9151240247957
 20
148.9173615934194
 30
0.0
 10
157.216290903085
 20
149.0615573460616
 30
0.0
 10
157.3726266301494
 20
149.1193770165758
 30
0.0
 10
157.6967499294838
 20
149.2066306286269
 30
0.0
 10
157.8634151411943
 20
149.2354326781087
 30
0.0
 10
158.3614314078262
 20
149.2762119833765
 30
0.0
 10
158.7021023566192
 20
149.2427687232353
 30
0.0
 10
159.3411132720406
 20
149.0603160787765
 30
0.0
 10
159.6475678791045
 20
148.9088915184637
 30
0.0
 10
160.0441237883669
 20
148.6083936128794
 30
0.0
 10
160.1684729792164
 20
148.494132427684
 30
0.0
 10
160.3909370732656
 20
148.2444725571115
 30
0.0
 10
160.4885024117428
 20
148.1103059491124
 30
0.0
 10
160.6557580153817
 20
147.8228368546137
 30
0.0
 10
160.7258436709008
 20
147.6675700047138
 30
0.0
 10
160.8298990316223
 20
147.3505905846268
 30
0.0
 10
160.8648747942897
 20
147.1879378331223
 30
0.0
 10
160.9167393138137
 20
146.6870008129197
 30
0.0
 10
160.8774332060423
 20
146.3468462116095
 30
0.0
 10
160.7147134135815
 20
145.8703515795123
 30
0.0
 10
160.6444329156952
 20
145.7192842196849
 30
0.0
 10
160.4730997705652
 20
145.431989649244
 30
0.0
 10
160.3717075293835
 20
145.2961318709466
 30
0.0
 10
160.0351079421603
 20
144.9273234759484
 30
0.0
 10
159.7598751759957
 20
144.7248983666173
 30
0.0
 10
159.3100919486498
 20
144.5078216400085
 30
0.0
 10
159.1512921501461
 20
144.4485193679343
 30
0.0
 10
158.8287304292664
 20
144.3605468501338
 30
0.0
 10
158.6648713172992
 20
144.3314270862875
 30
0.0
 10
158.3320385439453
 20
144.3025704711773
 30
0.0
 10
158.1619862525045
 20
144.3031939943913
 30
0.0
 10
157.8297105884848
 20
144.3344504381957
 30
0.0
 10
157.6659959767361
 20
144.3647691332475
 30
0.0
 10
157.3435304911617
 20
144.4554861722505
 30
0.0
 10
157.1850193926352
 20
144.5162550809523
 30
0.0
 10
156.8864656864373
 20
144.6637657557493
 30
0.0
 10
156.7446395572352
 20
144.7509007836132
 30
0.0
 10
156.4767178186769
 20
144.9534862501852
 30
0.0
 10
156.3526243882844
 20
145.0678244168274
 30
0.0
 10
156.1314902003662
 20
145.3160108547802
 30
0.0
 10
156.0330331982676
 20
145.451043471634
 30
0.0
 10
155.8636746845326
 20
145.7430478696887
 30
0.0
 10
155.7955078468267
 20
145.8951836161243
 30
0.0
 10
155.6917738805002
 20
146.2115925645643
 30
0.0
 10
155.6561053186311
 20
146.3780890339185
 30
0.0
 10
155.6218915539785
 20
146.7113509100291
 30
0.0
 10
155.6227499568076
 20
146.878013363851
 30
0.0
 10
155.6605467367572
 20
147.2114015630685
 30
0.0
 10
155.6978894922113
 20
147.377157135548
 30
0.0
 10
155.8051390752797
 20
147.6930484520107
 30
0.0
 10
155.8759002918188
 20
147.8463277850828
 30
0.0
 10
156.0480234419195
 20
148.1357048275693
 30
0.0
 10
156.1482537915489
 20
148.2704263334948
 30
0.0
 10
156.3757541381371
 20
148.5197728753554
 30
0.0
  0
CIRCLE
  5
148
330
1F
100
AcDbEntity
  8
0
  6
HIDDEN
 62
     7
370
     0
100
AcDbCircle
 10
158.1944816636
 20
146.7824472948
 30
0.0
 40
2.299999999999983
  0
CIRCLE
  5
149
330
1F
100
AcDbEntity
  8
0
  6
HIDDEN
 62
     7
370
     0
100
AcDbCircle
 10
181.6944816636
 20
146.7824472948
 30
0.0
 40
2.0
  0
LINE
  5
14A
330
1F
100
AcDbEntity
  8
0
  6
HIDDEN
 62
     7
370
     0
100
AcDbLine
 10
203.1944816636
 20
136.7824472948
 30
0.0
 11
194.6944816636
 21
136.7824472948
 31
0.0
  0
LINE
  5
14B
330
1F
100
AcDbEntity
  8
0
  6
HIDDEN
 62
     7
370
     0
100
AcDbLine
 10
203.1944816636
 20
116.7824472948
 30
0.0
 11
194.6944816636
 21
116.7824472948
 31
0.0
  0
LINE
  5
14C
330
1F
100
AcDbEntity
  8
0
  6
HIDDEN
 62
     7
370
     0
100
AcDbLine
 10
203.1944816636
 20
156.7824472948
 30
0.0
 11
194.6944816636
 21
156.7824472948
 31
0.0
  0
LINE
  5
14D
330
1F
100
AcDbEntity
  8
0
  6
HIDDEN
 62
     7
370
     0
100
AcDbLine
 10
203.1944816636
 20
176.7824472948
 30
0.0
 11
194.6944816636
 21
176.7824472948
 31
0.0
  0
SPLINE
  5
14E
330
1F
100
AcDbEntity
  8
0
  6
HIDDEN
 62
     7
370
     0
100
AcDbSpline
210
0.0
220
0.0
230
1.0
 70
     8
 71
     3
 72
    18
 73
    14
 74
     0
 42
0.00000001
 43
0.00000001
 12
1.0
 22
0.0
 32
0.0
 13
1.0
 23
0.0
 33
0.0
 40
0.0
 40
0.0
 40
0.0
 40
0.0
 40
0.2500000000000008
 40
0.2500000000000008
 40
0.5000000000000016
 40
0.5000000000000016
 40
0.6250000000000011
 40
0.6250000000000011
 40
0.7500000000000008
 40
0.7500000000000008
 40
0.8750000000000003
 40
0.8750000000000003
 40
1.0
 40
1.0
 40
1.0
 40
1.0
 10
192.2807225840821
 20
164.1837617296106
 30
0.0
 10
192.2883573801617
 20
164.3797805061273
 30
0.0
 10
192.3073431492528
 20
164.575094792785
 30
0.0
 10
192.3740596191243
 20
164.9639393328856
 30
0.0
 10
192.4219267333683
 20
165.1580356603718
 30
0.0
 10
192.523720840997
 20
165.4353175923207
 30
0.0
 10
192.5627522011239
 20
165.5258020275551
 30
0.0
 10
192.6553807248946
 20
165.7012219584248
 30
0.0
 10
192.7091026646512
 20
165.7863060694832
 30
0.0
 10
192.835380884583
 20
165.94052839668
 30
0.0
 10
192.9081063354372
 20
166.0100896351174
 30
0.0
 10
193.0775898678201
 20
166.1141617974187
 30
0.0
 10
193.1767562219266
 20
166.1473640258754
 30
0.0
 10
193.2769172821738
 20
166.1473640258754
 30
0.0
  0
SPLINE
  5
14F
330
1F
100
AcDbEntity
  8
0
  6
HIDDEN
 62
     7
370
     0
100
AcDbSpline
210
0.0
220
0.0
230
1.0
 70
    24
 71
     3
 72
    14
 73
    10
 74
     0
 42
0.00000001
 43
0.00000001
 12
1.0
 22
0.0
 32
0.0
 13
1.0
 23
0.0
 33
0.0
 40
0.0
 40
0.0
 40
0.0
 40
0.0
 40
0.25
 40
0.25
 40
0.5
 40
0.5
 40
0.75
 40
0.75
 40
1.0
 40
1.0
 40
1.0
 40
1.0
 10
193.2769172821745
 20
176.7824472948384
 30
0.0
 10
193.1200131469506
 20
176.7824472948384
 30
0.0
 10
192.9641001819897
 20
176.7824472948384
 30
0.0
 10
192.7131058845701
 20
176.7824472948384
 30
0.0
 10
192.6111661215498
 20
176.7824472948384
 30
0.0
 10
192.4530899092201
 20
176.7824472948384
 30
0.0
 10
192.3947426881343
 20
176.7824472948384
 30
0.0
 10
192.3134774136596
 20
176.7824472948384
 30
0.0
 10
192.2894875353266
 20
176.7824472948384
 30
0.0
 10
192.2807225840821
 20
176.7824472948384
 30
0.0
  0
SPLINE
  5
150
330
1F
100
AcDbEntity
  8
0
  6
HIDDEN
 62
     7
370
     0
100
AcDbSpline
210
0.0
220
0.0
230
1.0
 70
     8
 71
     3
 72
    18
 73
    14
 74
     0
 42
0.00000001
 43
0.00000001
 12
1.0
 22
0.0
 32
0.0
 13
1.0
 23
0.0
 33
0.0
 40
0.0
 40
0.0
 40
0.0
 40
0.0
 40
0.1249999999999996
 40
0.1249999999999996
 40
0.2499999999999992
 40
0.2499999999999992
 40
0.3749999999999988
 40
0.3749999999999988
 40
0.4999999999999984
 40
0.4999999999999984
 40
0.7499999999999992
 40
0.7499999999999992
 40
1.0
 40
1.0
 40
1.0
 40
1.0
 10
193.2769172821738
 20
127.4175305638013
 30
0.0
 10
193.1748593674496
 20
127.4175305638013
 30
0.0
 10
193.0783039453625
 20
127.4504315293795
 30
0.0
 10
192.9087552743177
 20
127.554270349605
 30
0.0
 10
192.8353383406236
 20
127.6244663469243
 30
0.0
 10
192.7096080953996
 20
127.777923224384
 30
0.0
 10
192.6557474842272
 20
127.8630902210718
 30
0.0
 10
192.5633031766366
 20
128.0379380739856
 30
0.0
 10
192.5241195351722
 20
128.1285548939921
 30
0.0
 10
192.421725120681
 20
128.4072808300242
 30
0.0
 10
192.3740666013961
 20
128.6010891357905
 30
0.0
 10
192.3075383244543
 20
128.9884882105092
 30
0.0
 10
192.288398691707
 20
129.1840534345818
 30
0.0
 10
192.2807225840821
 20
129.3811328600662
 30
0.0
  0
SPLINE
  5
151
330
1F
100
AcDbEntity
  8
0
  6
HIDDEN
 62
     7
370
     0
100
AcDbSpline
210
0.0
220
0.0
230
1.0
 70
    24
 71
     3
 72
    14
 73
    10
 74
     0
 42
0.00000001
 43
0.00000001
 12
1.0
 22
0.0
 32
0.0
 13
1.0
 23
0.0
 33
0.0
 40
0.0
 40
0.0
 40
0.0
 40
0.0
 40
0.4999999999999978
 40
0.4999999999999978
 40
0.7499999999999967
 40
0.7499999999999967
 40
0.8749999999999983
 40
0.8749999999999983
 40
1.0
 40
1.0
 40
1.0
 40
1.0
 10
192.2807225840821
 20
116.7824472948384
 30
0.0
 10
192.2981287825114
 20
116.7824472948384
 30
0.0
 10
192.3723263746807
 20
116.7824472948384
 30
0.0
 10
192.610891224156
 20
116.7824472948384
 30
0.0
 10
192.7117922038528
 20
116.7824472948384
 30
0.0
 10
192.9013944150773
 20
116.7824472948384
 30
0.0
 10
192.9713448098586
 20
116.7824472948384
 30
0.0
 10
193.1192114172779
 20
116.7824472948384
 30
0.0
 10
193.1984519759043
 20
116.7824472948384
 30
0.0
 10
193.2769172821687
 20
116.7824472948384
 30
0.0
  0
LINE
  5
152
330
1F
100
AcDbEntity
  8
0
  6
HIDDEN
 62
     7
370
     0
100
AcDbLine
 10
249.6944816636
 20
117.7824472948
 30
0.0
 11
248.6944816636
 21
116.7824472948
 31
0.0
  0
LINE
  5
153
330
1F
100
AcDbEntity
  8
0
  6
HIDDEN
 62
     7
370
     0
100
AcDbLine
 10
249.6944816636
 20
127.4175305638
 30
0.0
 11
249.6944816636
 21
117.7824472948
 31
0.0
  0
LINE
  5
154
330
1F
100
AcDbEntity
  8
0
  6
HIDDEN
 62
     7
370
     0
100
AcDbLine
 10
193.2769172822
 20
116.7824472948
 30
0.0
 11
248.6944816636
 21
116.7824472948
 31
0.0
  0
LINE
  5
155
330
1F
100
AcDbEntity
  8
0
  6
HIDDEN
 62
     7
370
     0
100
AcDbLine
 10
248.6944816636
 20
176.7824472948
 30
0.0
 11
249.6944816636
 21
175.7824472948
 31
0.0
  0
LINE
  5
156
330
1F
100
AcDbEntity
  8
0
  6
HIDDEN
 62
     7
370
     0
100
AcDbLine
 10
248.6944816636
 20
176.7824472948
 30
0.0
 11
193.2769172822
 21
176.7824472948
 31
0.0
  0
LINE
  5
157
330
1F
100
AcDbEntity
  8
0
  6
HIDDEN
 62
     7
370
     0
100
AcDbLine
 10
249.6944816636
 20
175.7824472948
 30
0.0
 11
249.6944816636
 21
166.1473640259
 31
0.0
  0
LINE
  5
158
330
1F
100
AcDbEntity
  8
0
  6
HIDDEN
 62
     7
370
     0
100
AcDbLine
 10
193.2769172822
 20
166.1473640259
 30
0.0
 11
249.6944816636
 21
166.1473640259
 31
0.0
  0
LINE
  5
159
330
1F
100
AcDbEntity
  8
0
  6
HIDDEN
 62
     7
370
     0
100
AcDbLine
 10
249.6944816636
 20
127.4175305638
 30
0.0
 11
193.2769172822
 21
127.4175305638
 31
0.0
  0
LINE
  5
15A
330
1F
100
AcDbEntity
  8
0
  6
HIDDEN
 62
     7
370
     0
100
AcDbLine
 10
249.6944816636
 20
127.4175305638
 30
0.0
 11
249.6944816636
 21
166.1473640259
 31
0.0
  0
LINE
  5
15B
330
1F
100
AcDbEntity
  8
0
  6
HIDDEN
 62
     7
370
     0
100
AcDbLine
 10
249.6944816636
 20
160.7824472948
 30
0.0
 11
241.6944816636
 21
160.7824472948
 31
0.0
  0
LINE
  5
15C
330
1F
100
AcDbEntity
  8
0
  6
HIDDEN
 62
     7
370
     0
100
AcDbLine
 10
241.6944816636
 20
148.7824472948
 30
0.0
 11
249.6944816636
 21
148.7824472948
 31
0.0
  0
LINE
  5
15D
330
1F
100
AcDbEntity
  8
0
  6
HIDDEN
 62
     7
370
     0
100
AcDbLine
 10
249.6944816636
 20
144.7824472948
 30
0.0
 11
241.6944816636
 21
144.7824472948
 31
0.0
  0
LINE
  5
15E
330
1F
100
AcDbEntity
  8
0
  6
HIDDEN
 62
     7
370
     0
100
AcDbLine
 10
241.6944816636
 20
132.7824472948
 30
0.0
 11
249.6944816636
 21
132.7824472948
 31
0.0
  0
LINE
  5
15F
330
1F
100
AcDbEntity
  8
0
  6
HIDDEN
 62
     7
370
     0
100
AcDbLine
 10
169.6944816636
 20
130.9824472948
 30
0.0
 11
169.7873748824
 21
131.0753405137
 31
0.0
  0
LINE
  5
160
330
1F
100
AcDbEntity
  8
0
  6
HIDDEN
 62
     7
370
     0
100
AcDbLine
 10
169.7873748824
 20
162.489554076
 30
0.0
 11
169.6944816636
 21
162.5824472948
 31
0.0
  0
ARC
  5
161
330
1F
100
AcDbEntity
  8
0
  6
HIDDEN
 62
     7
370
     0
100
AcDbCircle
 10
169.0802681012
 20
131.7824472948
 30
0.0
 40
1.0
100
AcDbArc
 50
315.0
 51
0.0
  0
ARC
  5
162
330
1F
100
AcDbEntity
  8
0
  6
HIDDEN
 62
     7
370
     0
100
AcDbCircle
 10
169.0802681012
 20
131.7824472948
 30
0.0
 40
1.0
100
AcDbArc
 50
0.0
 51
52.1052014664
  0
ARC
  5
163
330
1F
100
AcDbEntity
  8
0
  6
HIDDEN
 62
     7
370
     0
100
AcDbCircle
 10
169.0802681012
 20
161.7824472948
 30
0.0
 40
0.999999999999988
100
AcDbArc
 50
351.8087250651
 51
45.0
  0
ARC
  5
164
330
1F
100
AcDbEntity
  8
0
  6
HIDDEN
 62
     7
370
     0
100
AcDbCircle
 10
169.0802681012
 20
161.7824472948
 30
0.0
 40
0.9999999999999776
100
AcDbArc
 50
307.8947985336
 51
351.8087250651
  0
LINE
  5
165
330
1F
100
AcDbEntity
  8
0
  6
HIDDEN
 62
     7
370
     0
100
AcDbLine
 10
170.0802681012
 20
131.7824472948
 30
0.0
 11
170.0802681012
 21
161.7824472948
 31
0.0
  0
LINE
  5
166
330
1F
100
AcDbEntity
  8
0
  6
HIDDEN
 62
     7
370
     0
100
AcDbLine
 10
170.0802681012
 20
131.7824472948
 30
0.0
 11
170.0802681012
 21
161.7824472948
 31
0.0
  0
LINE
  5
167
330
1F
100
AcDbEntity
  8
0
  6
HIDDEN
 62
     7
370
     0
100
AcDbLine
 10
241.6944816636
 20
156.3968605573
 30
0.0
 11
218.3272097241
 21
150.3526598107
 31
0.0
  0
LINE
  5
168
330
1F
100
AcDbEntity
  8
0
  6
HIDDEN
 62
     7
370
     0
100
AcDbLine
 10
221.2964031919
 20
146.7824472948
 30
0.0
 11
241.6944816636
 21
152.0586336399
 31
0.0
  0
LINE
  5
169
330
1F
100
AcDbEntity
  8
0
  6
HIDDEN
 62
     7
370
     0
100
AcDbLine
 10
241.6944816636
 20
141.5062609498
 30
0.0
 11
221.2964031919
 21
146.7824472948
 31
0.0
  0
LINE
  5
16A
330
1F
100
AcDbEntity
  8
0
  6
HIDDEN
 62
     7
370
     0
100
AcDbLine
 10
218.3391810617
 20
143.2091382614
 30
0.0
 11
241.6944816636
 21
137.1680340324
 31
0.0
  0
LINE
  5
16B
330
1F
100
AcDbEntity
  8
0
  6
HIDDEN
 62
     7
370
     0
100
AcDbLine
 10
145.6944816636
 20
136.6267967706
 30
0.0
 11
146.7215136957
 21
137.2197539907
 31
0.0
  0
LINE
  5
16C
330
1F
100
AcDbEntity
  8
0
  6
HIDDEN
 62
     7
370
     0
100
AcDbLine
 10
146.7215136957
 20
156.3451405989
 30
0.0
 11
145.6944816636
 21
156.9380978191
 31
0.0
  0
ARC
  5
16D
330
1F
100
AcDbEntity
  8
0
  6
HIDDEN
 62
     7
370
     0
100
AcDbCircle
 10
152.2073001333
 20
137.7824472948
 30
0.0
 40
1.000000000000028
100
AcDbArc
 50
270.0
 51
315.0
  0
ARC
  5
16E
330
1F
100
AcDbEntity
  8
0
  6
HIDDEN
 62
     7
370
     0
100
AcDbCircle
 10
152.2073001333
 20
155.7824472948
 30
0.0
 40
1.000000000000028
100
AcDbArc
 50
45.0
 51
90.0
  0
LINE
  5
16F
330
1F
100
AcDbEntity
  8
0
  6
HIDDEN
 62
     7
370
     0
100
AcDbLine
 10
151.1944816636
 20
136.7824472948
 30
0.0
 11
152.2073001333
 21
136.7824472948
 31
0.0
  0
LINE
  5
170
330
1F
100
AcDbEntity
  8
0
  6
HIDDEN
 62
     7
370
     0
100
AcDbLine
 10
152.2073001333
 20
156.7824472948
 30
0.0
 11
151.1944816636
 21
156.7824472948
 31
0.0
  0
ARC
  5
171
330
1F
100
AcDbEntity
  8
0
  6
HIDDEN
 62
     7
370
     0
100
AcDbCircle
 10
151.1944816636
 20
137.7824472948
 30
0.0
 40
1.000000000000011
100
AcDbArc
 50
193.3524261238
 51
270.0
  0
ARC
  5
172
330
1F
100
AcDbEntity
  8
0
  6
HIDDEN
 62
     7
370
     0
100
AcDbCircle
 10
151.1944816636
 20
155.7824472948
 30
0.0
 40
1.000000000000004
100
AcDbArc
 50
90.0
 51
166.6475738762
  0
LINE
  5
173
330
1F
100
AcDbEntity
  8
0
  6
HIDDEN
 62
     7
370
     0
100
AcDbLine
 10
152.9144069145
 20
137.0753405137
 30
0.0
 11
153.6215136957
 21
137.7824472948
 31
0.0
  0
LINE
  5
174
330
1F
100
AcDbEntity
  8
0
  6
HIDDEN
 62
     7
370
     0
100
AcDbLine
 10
153.6215136957
 20
155.7824472948
 30
0.0
 11
152.9144069145
 21
156.489554076
 31
0.0
  0
LINE
  5
175
330
1F
100
AcDbEntity
  8
0
  6
HIDDEN
 62
     7
370
     0
100
AcDbLine
 10
146.7215136957
 20
137.2197539907
 30
0.0
 11
148.8215136957
 21
137.7824472948
 31
0.0
  0
LINE
  5
176
330
1F
100
AcDbEntity
  8
0
  6
HIDDEN
 62
     7
370
     0
100
AcDbLine
 10
148.8215136957
 20
155.7824472948
 30
0.0
 11
146.7215136957
 21
156.3451405989
 31
0.0
  0
LINE
  5
177
330
1F
100
AcDbEntity
  8
0
  6
HIDDEN
 62
     7
370
     0
100
AcDbLine
 10
150.2215136957
 20
156.0133874025
 30
0.0
 11
149.8215136957
 21
155.7824472948
 31
0.0
  0
LINE
  5
178
330
1F
100
AcDbEntity
  8
0
  6
HIDDEN
 62
     7
370
     0
100
AcDbLine
 10
149.8215136957
 20
137.7824472948
 30
0.0
 11
150.2215136957
 21
137.5515071872
 31
0.0
  0
ARC
  5
179
330
1F
100
AcDbEntity
  8
0
  6
HIDDEN
 62
     7
370
     0
100
AcDbCircle
 10
160.1944816636
 20
138.2824472948
 30
0.0
 40
0.5
100
AcDbArc
 50
270.0
 51
0.0
  0
ARC
  5
17A
330
1F
100
AcDbEntity
  8
0
  6
HIDDEN
 62
     7
370
     0
100
AcDbCircle
 10
160.1944816636
 20
155.2824472948
 30
0.0
 40
0.5
100
AcDbArc
 50
0.0
 51
90.0
  0
LINE
  5
17B
330
1F
100
AcDbEntity
  8
0
  6
HIDDEN
 62
     7
370
     0
100
AcDbLine
 10
148.8215136957
 20
137.7824472948
 30
0.0
 11
149.8215136957
 21
137.7824472948
 31
0.0
  0
LINE
  5
17C
330
1F
100
AcDbEntity
  8
0
  6
HIDDEN
 62
     7
370
     0
100
AcDbLine
 10
149.8215136957
 20
155.7824472948
 30
0.0
 11
148.8215136957
 21
155.7824472948
 31
0.0
  0
LINE
  5
17D
330
1F
100
AcDbEntity
  8
0
  6
HIDDEN
 62
     7
370
     0
100
AcDbLine
 10
153.6215136957
 20
137.7824472948
 30
0.0
 11
160.1944816636
 21
137.7824472948
 31
0.0
  0
LINE
  5
17E
330
1F
100
AcDbEntity
  8
0
  6
HIDDEN
 62
     7
370
     0
100
AcDbLine
 10
160.1944816636
 20
155.7824472948
 30
0.0
 11
153.6215136957
 21
155.7824472948
 31
0.0
  0
LINE
  5
17F
330
1F
100
AcDbEntity
  8
0
  6
HIDDEN
 62
     7
370
     0
100
AcDbLine
 10
160.6944816636
 20
139.6324472948
 30
0.0
 11
161.5944816636
 21
140.5324472948
 31
0.0
  0
LINE
  5
180
330
1F
100
AcDbEntity
  8
0
  6
HIDDEN
 62
     7
370
     0
100
AcDbLine
 10
161.5944816636
 20
153.0324472948
 30
0.0
 11
160.6944816636
 21
153.9324472948
 31
0.0
  0
LINE
  5
181
330
1F
100
AcDbEntity
  8
0
  6
HIDDEN
 62
     7
370
     0
100
AcDbLine
 10
180.6944816636
 20
140.5324472948
 30
0.0
 11
181.8962029017
 21
142.5324472948
 31
0.0
  0
LINE
  5
182
330
1F
100
AcDbEntity
  8
0
  6
HIDDEN
 62
     7
370
     0
100
AcDbLine
 10
181.8962029017
 20
151.0324472948
 30
0.0
 11
180.6944816636
 21
153.0324472948
 31
0.0
  0
LINE
  5
183
330
1F
100
AcDbEntity
  8
0
  6
HIDDEN
 62
     7
370
     0
100
AcDbLine
 10
161.5944816636
 20
140.5324472948
 30
0.0
 11
180.6944816636
 21
140.5324472948
 31
0.0
  0
LINE
  5
184
330
1F
100
AcDbEntity
  8
0
  6
HIDDEN
 62
     7
370
     0
100
AcDbLine
 10
180.6944816636
 20
153.0324472948
 30
0.0
 11
161.5944816636
 21
153.0324472948
 31
0.0
  0
LINE
  5
185
330
1F
100
AcDbEntity
  8
0
  6
HIDDEN
 62
     7
370
     0
100
AcDbLine
 10
181.8962029017
 20
142.5324472948
 30
0.0
 11
219.6944816636
 21
142.5324472948
 31
0.0
  0
LINE
  5
186
330
1F
100
AcDbEntity
  8
0
  6
HIDDEN
 62
     7
370
     0
100
AcDbLine
 10
219.6944816636
 20
151.0324472948
 30
0.0
 11
181.8962029017
 21
151.0324472948
 31
0.0
  0
LINE
  5
187
330
1F
100
AcDbEntity
  8
0
  6
HIDDEN
 62
     7
370
     0
100
AcDbLine
 10
249.6944816636
 20
148.9074472948
 30
0.0
 11
247.7459245051
 21
147.7824472948
 31
0.0
  0
LINE
  5
188
330
1F
100
AcDbEntity
  8
0
  6
HIDDEN
 62
     7
370
     0
100
AcDbLine
 10
247.7459245051
 20
145.7824472948
 30
0.0
 11
249.6944816636
 21
144.6574472948
 31
0.0
  0
LINE
  5
189
330
1F
100
AcDbEntity
  8
0
  6
HIDDEN
 62
     7
370
     0
100
AcDbLine
 10
219.6944816636
 20
142.5324472948
 30
0.0
 11
221.2413551593
 21
146.7824472948
 31
0.0
  0
LINE
  5
18A
330
1F
100
AcDbEntity
  8
0
  6
HIDDEN
 62
     7
370
     0
100
AcDbLine
 10
221.2413551593
 20
146.7824472948
 30
0.0
 11
219.6944816636
 21
151.0324472948
 31
0.0
  0
LINE
  5
18B
330
1F
100
AcDbEntity
  8
0
  6
HIDDEN
 62
     7
370
     0
100
AcDbLine
 10
246.5944816636
 20
145.7824472948
 30
0.0
 11
247.7459245051
 21
145.7824472948
 31
0.0
  0
LINE
  5
18C
330
1F
100
AcDbEntity
  8
0
  6
HIDDEN
 62
     7
370
     0
100
AcDbLine
 10
247.7459245051
 20
147.7824472948
 30
0.0
 11
246.5944816636
 21
147.7824472948
 31
0.0
  0
LINE
  5
18D
330
1F
100
AcDbEntity
  8
0
  6
HIDDEN
 62
     7
370
     0
100
AcDbLine
 10
246.5944816636
 20
147.7824472948
 30
0.0
 11
245.9944816636
 21
146.7824472948
 31
0.0
  0
LINE
  5
18E
330
1F
100
AcDbEntity
  8
0
  6
HIDDEN
 62
     7
370
     0
100
AcDbLine
 10
245.9944816636
 20
146.7824472948
 30
0.0
 11
246.5944816636
 21
145.7824472948
 31
0.0
  0
DIMENSION
  5
18F
330
1F
100
AcDbEntity
  8
VERMASSUNG
100
AcDbDimension
  2
_D
 10
249.6944816636
 20
183.9097809545
 30
0.0
 11
209.6944816636
 21
183.9097809545
 31
0.0
 70
   160
  1
<>
 71
     2
 42
-1.0
  3
SLDDIMSTYLE0
100
AcDbAlignedDimension
 13
169.6944816636
 23
166.4824472948
 33
0.0
 14
249.6944816636
 24
175.7824472948
 34
0.0
100
AcDbRotatedDimension
  0
DIMENSION
  5
19A
330
1F
100
AcDbEntity
  8
VERMASSUNG
100
AcDbDimension
  2
_D_1
 10
249.6944816636
 20
190.4427910025
 30
0.0
 11
197.6944816636
 21
190.4427910025
 31
0.0
 70
   160
  1
<>
 71
     2
 42
-1.0
  3
SLDDIMSTYLE0
100
AcDbAlignedDimension
 13
145.6944816636
 23
159.4139522769
 33
0.0
 14
249.6944816636
 24
175.7824472948
 34
0.0
100
AcDbRotatedDimension
  0
LINE
  5
1A4
330
1F
100
AcDbEntity
  8
VERMASSUNG
  6
CENTERX2
370
     0
100
AcDbLine
 10
141.0152478459
 20
146.7824472948
 30
0.0
 11
252.5907061859
 21
146.7824472948
 31
0.0
  0
LINE
  5
1A5
330
1F
100
AcDbEntity
  8
0
  6
Continuous
 62
     7
370
    15
100
AcDbLine
 10
48.9897866372
 20
162.2824470415
 30
0.0
 11
49.9897866847
 21
163.2824472054
 31
0.0
  0
LINE
  5
1A6
330
1F
100
AcDbEntity
  8
0
  6
Continuous
 62
     7
370
    15
100
AcDbLine
 10
49.9897866847
 20
170.2824464902
 30
0.0
 11
48.9897866372
 21
171.2824466541
 31
0.0
  0
LINE
  5
1A7
330
1F
100
AcDbEntity
  8
0
  6
Continuous
 62
     7
370
    15
100
AcDbLine
 10
48.9897866372
 20
122.2824479356
 30
0.0
 11
49.9897866847
 21
123.2824480995
 31
0.0
  0
LINE
  5
1A8
330
1F
100
AcDbEntity
  8
0
  6
Continuous
 62
     7
370
    15
100
AcDbLine
 10
49.9897866847
 20
130.2824473842
 30
0.0
 11
48.9897866372
 21
131.2824475482
 31
0.0
  0
LINE
  5
1A9
330
1F
100
AcDbEntity
  8
0
  6
Continuous
 62
     7
370
    15
100
AcDbLine
 10
49.9897866847
 20
163.2824472054
 30
0.0
 11
49.9897866847
 21
170.2824464902
 31
0.0
  0
LINE
  5
1AA
330
1F
100
AcDbEntity
  8
0
  6
Continuous
 62
     7
370
    15
100
AcDbLine
 10
49.9897866847
 20
126.556615056
 30
0.0
 11
49.9897866847
 21
130.2824473842
 31
0.0
  0
LINE
  5
1AB
330
1F
100
AcDbEntity
  8
0
  6
Continuous
 62
     7
370
    15
100
AcDbLine
 10
49.9897866847
 20
123.2824480995
 30
0.0
 11
49.9897866847
 21
126.556615056
 31
0.0
  0
CIRCLE
  5
1AC
330
1F
100
AcDbEntity
  8
0
  6
Continuous
 62
     7
370
    15
100
AcDbCircle
 10
37.9897866847
 20
138.7824472948
 30
0.0
 40
6.000000000000028
  0
CIRCLE
  5
1AD
330
1F
100
AcDbEntity
  8
0
  6
Continuous
 62
     7
370
    15
100
AcDbCircle
 10
49.9897866847
 20
146.7824472948
 30
0.0
 40
2.125000000000028
  0
CIRCLE
  5
1AE
330
1F
100
AcDbEntity
  8
0
  6
Continuous
 62
     7
370
    15
100
AcDbCircle
 10
37.9897866847
 20
154.7824472948
 30
0.0
 40
6.0
  0
LINE
  5
1AF
330
1F
100
AcDbEntity
  8
0
  6
Continuous
 62
     7
370
    15
100
AcDbLine
 10
69.9897862376
 20
117.7824481293
 30
0.0
 11
77.5397408159
 21
117.7824481293
 31
0.0
  0
LINE
  5
1B0
330
1F
100
AcDbEntity
  8
0
  6
Continuous
 62
     7
370
    15
100
AcDbLine
 10
69.9897862376
 20
136.7824475184
 30
0.0
 11
69.9897862376
 21
117.7824481293
 31
0.0
  0
LINE
  5
1B1
330
1F
100
AcDbEntity
  8
0
  6
Continuous
 62
     7
370
    15
100
AcDbLine
 10
48.9897866372
 20
136.7824475184
 30
0.0
 11
69.9897862376
 21
136.7824475184
 31
0.0
  0
LINE
  5
1B2
330
1F
100
AcDbEntity
  8
0
  6
Continuous
 62
     7
370
    15
100
AcDbLine
 10
48.9897866372
 20
136.7824475184
 30
0.0
 11
48.9897866372
 21
117.7824481293
 31
0.0
  0
LINE
  5
1B3
330
1F
100
AcDbEntity
  8
0
  6
Continuous
 62
     7
370
    15
100
AcDbLine
 10
29.9897871317
 20
117.7824481293
 30
0.0
 11
48.9897866372
 21
117.7824481293
 31
0.0
  0
LINE
  5
1B4
330
1F
100
AcDbEntity
  8
0
  6
Continuous
 62
     7
370
    15
100
AcDbLine
 10
29.9897871317
 20
175.7824464604
 30
0.0
 11
29.9897871317
 21
117.7824481293
 31
0.0
  0
LINE
  5
1B5
330
1F
100
AcDbEntity
  8
0
  6
Continuous
 62
     7
370
    15
100
AcDbLine
 10
48.9897866372
 20
175.7824464604
 30
0.0
 11
29.9897871317
 21
175.7824464604
 31
0.0
  0
LINE
  5
1B6
330
1F
100
AcDbEntity
  8
0
  6
Continuous
 62
     7
370
    15
100
AcDbLine
 10
48.9897866372
 20
156.7824470713
 30
0.0
 11
48.9897866372
 21
175.7824464604
 31
0.0
  0
LINE
  5
1B7
330
1F
100
AcDbEntity
  8
0
  6
Continuous
 62
     7
370
    15
100
AcDbLine
 10
48.9897866372
 20
156.7824470713
 30
0.0
 11
69.9897862376
 21
156.7824470713
 31
0.0
  0
LINE
  5
1B8
330
1F
100
AcDbEntity
  8
0
  6
Continuous
 62
     7
370
    15
100
AcDbLine
 10
69.9897862376
 20
156.7824470713
 30
0.0
 11
69.9897862376
 21
175.7824464604
 31
0.0
  0
LINE
  5
1B9
330
1F
100
AcDbEntity
  8
0
  6
Continuous
 62
     7
370
    15
100
AcDbLine
 10
77.5397408159
 20
175.7824464604
 30
0.0
 11
69.9897862376
 21
175.7824464604
 31
0.0
  0
LINE
  5
1BA
330
1F
100
AcDbEntity
  8
0
  6
Continuous
 62
     7
370
    15
100
AcDbLine
 10
84.9897868337
 20
127.417529644
 30
0.0
 11
84.9897868337
 21
166.1473649457
 31
0.0
  0
ARC
  5
1BB
330
1F
100
AcDbEntity
  8
0
  6
Continuous
 62
     7
370
    15
100
AcDbCircle
 10
49.9897866847
 20
146.7824472948
 30
0.0
 40
40.0
100
AcDbArc
 50
313.5311521674
 51
331.0449756281
  0
ARC
  5
1BC
330
1F
100
AcDbEntity
  8
0
  6
Continuous
 62
     7
370
    15
100
AcDbCircle
 10
49.9897866847
 20
146.7824472948
 30
0.0
 40
39.99999999999999
100
AcDbArc
 50
28.9550243719
 51
46.4688478326
  0
LINE
  5
1BD
330
1F
100
AcDbEntity
  8
0
  6
Continuous
 62
     7
370
    15
100
AcDbLine
 10
76.4472994359
 20
116.7824479654
 30
0.0
 11
69.9897862376
 21
116.7824479654
 31
0.0
  0
LINE
  5
1BE
330
1F
100
AcDbEntity
  8
0
  6
Continuous
 62
     7
370
    15
100
AcDbLine
 10
69.9897862376
 20
116.7824479654
 30
0.0
 11
69.9897862376
 21
117.7824481293
 31
0.0
  0
ARC
  5
1BF
330
1F
100
AcDbEntity
  8
0
  6
Continuous
 62
     7
370
    15
100
AcDbCircle
 10
49.9897866847
 20
146.7824472948
 30
0.0
 40
40.0
100
AcDbArc
 50
311.4096221093
 51
313.5311521674
  0
LINE
  5
1C0
330
1F
100
AcDbEntity
  8
0
  6
Continuous
 62
     7
370
    15
100
AcDbLine
 10
69.9897862376
 20
175.7824464604
 30
0.0
 11
69.9897862376
 21
176.7824466243
 31
0.0
  0
LINE
  5
1C1
330
1F
100
AcDbEntity
  8
0
  6
Continuous
 62
     7
370
    15
100
AcDbLine
 10
69.9897862376
 20
176.7824466243
 30
0.0
 11
76.4472994359
 21
176.7824466243
 31
0.0
  0
ARC
  5
1C2
330
1F
100
AcDbEntity
  8
0
  6
Continuous
 62
     7
370
    15
100
AcDbCircle
 10
49.9897866847
 20
146.7824472948
 30
0.0
 40
39.99999999999999
100
AcDbArc
 50
46.4688478326
 51
48.5903778907
  0
CIRCLE
  5
1C3
330
1F
100
AcDbEntity
  8
0
  6
Continuous
 62
     7
370
    15
100
AcDbCircle
 10
49.9897866847
 20
146.7824472948
 30
0.0
 40
1.0
  0
LINE
  5
1C4
330
1F
100
AcDbEntity
  8
0
  6
Continuous
 62
     7
370
    15
100
AcDbLine
 10
48.9897866372
 20
116.7824479654
 30
0.0
 11
29.9897871317
 21
116.7824479654
 31
0.0
  0
LINE
  5
1C5
330
1F
100
AcDbEntity
  8
0
  6
Continuous
 62
     7
370
    15
100
AcDbLine
 10
29.9897871317
 20
116.7824479654
 30
0.0
 11
29.9897871317
 21
117.7824481293
 31
0.0
  0
LINE
  5
1C6
330
1F
100
AcDbEntity
  8
0
  6
Continuous
 62
     7
370
    15
100
AcDbLine
 10
48.9897866372
 20
117.7824481293
 30
0.0
 11
48.9897866372
 21
116.7824479654
 31
0.0
  0
LINE
  5
1C7
330
1F
100
AcDbEntity
  8
0
  6
Continuous
 62
     7
370
    15
100
AcDbLine
 10
29.9897871317
 20
176.7824466243
 30
0.0
 11
29.9897871317
 21
175.7824464604
 31
0.0
  0
LINE
  5
1C8
330
1F
100
AcDbEntity
  8
0
  6
Continuous
 62
     7
370
    15
100
AcDbLine
 10
29.9897871317
 20
176.7824466243
 30
0.0
 11
48.9897866372
 21
176.7824466243
 31
0.0
  0
LINE
  5
1C9
330
1F
100
AcDbEntity
  8
0
  6
Continuous
 62
     7
370
    15
100
AcDbLine
 10
48.9897866372
 20
176.7824466243
 30
0.0
 11
48.9897866372
 21
175.7824464604
 31
0.0
  0
LINE
  5
1CA
330
1F
100
AcDbEntity
  8
0
  6
Continuous
 62
     7
370
    15
100
AcDbLine
 10
28.9897869678
 20
117.7824481293
 30
0.0
 11
29.9897871317
 21
117.7824481293
 31
0.0
  0
LINE
  5
1CB
330
1F
100
AcDbEntity
  8
0
  6
Continuous
 62
     7
370
    15
100
AcDbLine
 10
28.9897869678
 20
117.7824481293
 30
0.0
 11
29.9897871317
 21
116.7824479654
 31
0.0
  0
LINE
  5
1CC
330
1F
100
AcDbEntity
  8
0
  6
Continuous
 62
     7
370
    15
100
AcDbLine
 10
28.9897869678
 20
175.7824464604
 30
0.0
 11
29.9897871317
 21
175.7824464604
 31
0.0
  0
LINE
  5
1CD
330
1F
100
AcDbEntity
  8
0
  6
Continuous
 62
     7
370
    15
100
AcDbLine
 10
29.9897871317
 20
176.7824466243
 30
0.0
 11
28.9897869678
 21
175.7824464604
 31
0.0
  0
LINE
  5
1CE
330
1F
100
AcDbEntity
  8
0
  6
Continuous
 62
     7
370
    15
100
AcDbLine
 10
28.9897869678
 20
117.7824481293
 30
0.0
 11
28.9897869678
 21
175.7824464604
 31
0.0
  0
ELLIPSE
  5
1CF
330
1F
100
AcDbEntity
  8
0
  6
Continuous
 62
     7
370
    15
100
AcDbEllipse
 10
38.821836979
 20
154.2277470986
 30
0.0
 11
-1.927938436701098
 21
1.285292291134084
 31
0.0
210
0.0
220
0.0
230
1.0
 40
0.906307787
 41
0.0
 42
1.216461332415993
  0
ELLIPSE
  5
1D0
330
1F
100
AcDbEntity
  8
0
  6
Continuous
 62
     7
370
    15
100
AcDbEllipse
 10
38.821836979
 20
154.2277470986
 30
0.0
 11
-1.927938436701098
 21
1.285292291134084
 31
0.0
210
0.0
220
0.0
230
1.0
 40
0.906307787
 41
5.027106021286283
 42
6.283185307179586
  0
ELLIPSE
  5
1D1
330
1F
100
AcDbEntity
  8
0
  6
Continuous
 62
     7
370
    15
100
AcDbEllipse
 10
38.821836979
 20
139.3371474911
 30
0.0
 11
-1.927938436701098
 21
-1.285292291134084
 31
0.0
210
0.0
220
0.0
230
1.0
 40
0.906307787
 41
0.0
 42
1.302403511312775
  0
ELLIPSE
  5
1D2
330
1F
100
AcDbEntity
  8
0
  6
Continuous
 62
     7
370
    15
100
AcDbEllipse
 10
38.821836979
 20
139.3371474911
 30
0.0
 11
-1.927938436701098
 21
-1.285292291134084
 31
0.0
210
0.0
220
0.0
230
1.0
 40
0.906307787
 41
5.111749946383322
 42
6.283185307179586
  0
LINE
  5
1D3
330
1F
100
AcDbEntity
  8
0
  6
Continuous
 62
     7
370
    15
100
AcDbLine
 10
69.9897862376
 20
116.7824479654
 30
0.0
 11
48.9897866372
 21
116.7824479654
 31
0.0
  0
LINE
  5
1D4
330
1F
100
AcDbEntity
  8
0
  6
Continuous
 62
     7
370
    15
100
AcDbLine
 10
69.9897862376
 20
176.7824466243
 30
0.0
 11
48.9897866372
 21
176.7824466243
 31
0.0
  0
CIRCLE
  5
1D5
330
1F
100
AcDbEntity
  8
0
  6
Continuous
 62
     7
370
    15
100
AcDbCircle
 10
37.5825210521
 20
155.0672468377
 30
0.0
 40
3.229442903992014
  0
CIRCLE
  5
1D6
330
1F
100
AcDbEntity
  8
0
  6
Continuous
 62
     7
370
    15
100
AcDbCircle
 10
37.5854011364
 20
155.0716741019
 30
0.0
 40
2.484714226376185
  0
CIRCLE
  5
1D7
330
1F
100
AcDbEntity
  8
0
  6
Continuous
 62
     7
370
    15
100
AcDbCircle
 10
37.6287045194
 20
155.0427618643
 30
0.0
 40
2.087953875960264
  0
ARC
  5
1D8
330
1F
100
AcDbEntity
  8
0
  6
Continuous
 62
     7
370
    15
100
AcDbCircle
 10
38.2295898868
 20
154.5996761562
 30
0.0
 40
2.102583895865472
100
AcDbArc
 50
63.1505026128
 51
222.2223060563
  0
CIRCLE
  5
1D9
330
1F
100
AcDbEntity
  8
0
  6
Continuous
 62
     7
370
    15
100
AcDbCircle
 10
37.6574964623
 20
138.4129101253
 30
0.0
 40
3.229442528233256
  0
CIRCLE
  5
1DA
330
1F
100
AcDbEntity
  8
0
  6
Continuous
 62
     7
370
    15
100
AcDbCircle
 10
37.6534525804
 20
138.416307443
 30
0.0
 40
2.484713976382829
  0
CIRCLE
  5
1DB
330
1F
100
AcDbEntity
  8
0
  6
Continuous
 62
     7
370
    15
100
AcDbCircle
 10
37.6874251337
 20
138.4557664829
 30
0.0
 40
2.087953433319978
  0
ARC
  5
1DC
330
1F
100
AcDbEntity
  8
0
  6
Continuous
 62
     7
370
    15
100
AcDbCircle
 10
38.200410023
 20
138.9981997181
 30
0.0
 40
2.102584274310514
100
AcDbArc
 50
146.1533814363
 51
305.2251410971
  0
CIRCLE
  5
1DD
330
1F
100
AcDbEntity
  8
0
  6
Continuous
 62
     7
370
    15
100
AcDbCircle
 10
37.9897866847
 20
154.7824472948
 30
0.0
 40
4.582575694955847
  0
CIRCLE
  5
1DE
330
1F
100
AcDbEntity
  8
0
  6
Continuous
 62
     7
370
    15
100
AcDbCircle
 10
37.9897866847
 20
138.7824472948
 30
0.0
 40
4.582575694955846
  0
DIMENSION
  5
1DF
330
1F
100
AcDbEntity
  8
VERMASSUNG
100
AcDbDimension
  2
_D_2
 10
103.6034935249
 20
176.7824472948
 30
0.0
 11
103.6034935249
 21
161.7824472948
 31
0.0
 70
   160
  1
<>
 71
     2
 42
-1.0
  3
SLDDIMSTYLE0
100
AcDbAlignedDimension
 13
49.9897866847
 23
146.7824472948
 33
0.0
 14
76.4472997953
 24
176.7824472948
 34
0.0
 50
90.0
100
AcDbRotatedDimension
  0
DIMENSION
  5
1E9
330
1F
100
AcDbEntity
  8
VERMASSUNG
100
AcDbDimension
  2
_D_3
 10
112.9897866847
 20
116.7824472948
 30
0.0
 11
112.9897866847
 21
146.7824472948
 31
0.0
 70
   160
  1
<>
 71
     2
 42
-1.0
  3
SLDDIMSTYLE0
100
AcDbAlignedDimension
 13
76.4472997953
 23
176.7824472948
 33
0.0
 14
76.4472997953
 24
116.7824472948
 34
0.0
 50
90.0
100
AcDbRotatedDimension
  0
DIMENSION
  5
1F3
330
1F
100
AcDbEntity
  8
VERMASSUNG
100
AcDbDimension
  2
_D_4
 10
92.6758557462
 20
176.7824472948
 30
0.0
 11
92.6758557462
 21
166.7824472948
 31
0.0
 70
   160
  1
<>
 71
     2
 42
-1.0
  3
SLDDIMSTYLE0
100
AcDbAlignedDimension
 13
74.2397866847
 23
156.7824472948
 33
0.0
 14
76.4472997953
 24
176.7824472948
 34
0.0
 50
90.0
100
AcDbRotatedDimension
  0
DIMENSION
  5
1FD
330
1F
100
AcDbEntity
  8
VERMASSUNG
100
AcDbDimension
  2
_D_5
 10
69.9897866847
 20
185.3646982829
 30
0.0
 11
59.9897866847
 21
185.3646982829
 31
0.0
 70
   160
  1
<>
 71
     2
 42
-1.0
  3
SLDDIMSTYLE0
100
AcDbAlignedDimension
 13
49.9897866847
 23
146.7824472948
 33
0.0
 14
69.9897866847
 24
176.7824472948
 34
0.0
100
AcDbRotatedDimension
  0
DIMENSION
  5
207
330
1F
100
AcDbEntity
  8
VERMASSUNG
100
AcDbDimension
  2
_D_6
 10
49.9897866847
 20
192.7824472948
 30
0.0
 11
67.4897866847
 21
192.7824472948
 31
0.0
 70
   160
  1
<>
 71
     2
 42
-1.0
  3
SLDDIMSTYLE0
100
AcDbAlignedDimension
 13
84.9897866847
 23
166.1473640259
 33
0.0
 14
49.9897866847
 24
146.7824472948
 34
0.0
100
AcDbRotatedDimension
  0
DIMENSION
  5
211
330
1F
100
AcDbEntity
  8
VERMASSUNG
100
AcDbDimension
  2
_D_7
 10
84.9897866847
 20
198.7824472948
 30
0.0
 11
56.9897866847
 21
198.7824472948
 31
0.0
 70
   160
  1
<>
 71
     2
 42
-1.0
  3
SLDDIMSTYLE0
100
AcDbAlignedDimension
 13
28.9897866847
 23
175.7824472948
 33
0.0
 14
84.9897866847
 24
166.1473640259
 34
0.0
100
AcDbRotatedDimension
  0
DIMENSION
  5
21B
330
1F
100
AcDbEntity
  8
VERMASSUNG
100
AcDbDimension
  2
_D_8
 10
49.9897866847
 20
146.7824472948
 30
0.0
 11
89.9108558803
 21
181.4324123116
 31
0.0
 70
   164
  1
<>
 71
     1
 42
-1.0
  3
SLDDIMSTYLE1
100
AcDbRadialDimension
 15
80.1979782863
 25
173.0020041209
 35
0.0
 40
0.0
  0
LINE
  5
224
330
1F
100
AcDbEntity
  8
0
  6
Continuous
 62
     7
370
    15
100
AcDbLine
 10
216.1944816636
 20
66.5592107573
 30
0.0
 11
215.1944816636
 21
67.5592107573
 31
0.0
  0
LINE
  5
225
330
1F
100
AcDbEntity
  8
0
  6
Continuous
 62
     7
370
    15
100
AcDbLine
 10
208.1944816636
 20
67.5592107573
 30
0.0
 11
207.1944816636
 21
66.5592107573
 31
0.0
  0
LINE
  5
226
330
1F
100
AcDbEntity
  8
0
  6
Continuous
 62
     7
370
    15
100
AcDbLine
 10
242.1944816636
 20
66.5592107573
 30
0.0
 11
241.1944816636
 21
67.5592107573
 31
0.0
  0
LINE
  5
227
330
1F
100
AcDbEntity
  8
0
  6
Continuous
 62
     7
370
    15
100
AcDbLine
 10
234.1944816636
 20
67.5592107573
 30
0.0
 11
233.1944816636
 21
66.5592107573
 31
0.0
  0
LINE
  5
228
330
1F
100
AcDbEntity
  8
0
  6
Continuous
 62
     7
370
    15
100
AcDbLine
 10
191.9231427905
 20
102.5592107573
 30
0.0
 11
190.6906763617
 21
88.4720550146
 31
0.0
  0
LINE
  5
229
330
1F
100
AcDbEntity
  8
0
  6
Continuous
 62
     7
370
    15
100
AcDbLine
 10
190.6906763617
 20
46.6463665001
 30
0.0
 11
190.6983015012
 21
46.5592107573
 31
0.0
  0
ARC
  5
22A
330
1F
100
AcDbEntity
  8
0
  6
Continuous
 62
     7
370
    15
100
AcDbCircle
 10
189.6944816636
 20
46.5592107573
 30
0.0
 40
1.000000000000009
100
AcDbArc
 50
5.0
 51
90.0
  0
ARC
  5
22B
330
1F
100
AcDbEntity
  8
0
  6
Continuous
 62
     7
370
    15
100
AcDbCircle
 10
189.6944816636
 20
88.5592107573
 30
0.0
 40
1.000000000000009
100
AcDbArc
 50
270.0
 51
355.0
  0
LINE
  5
22C
330
1F
100
AcDbEntity
  8
0
  6
Continuous
 62
     7
370
    15
100
AcDbLine
 10
169.9944816636
 20
47.5592107573
 30
0.0
 11
189.6944816636
 21
47.5592107573
 31
0.0
  0
LINE
  5
22D
330
1F
100
AcDbEntity
  8
0
  6
Continuous
 62
     7
370
    15
100
AcDbLine
 10
179.6944816636
 20
87.5592107573
 30
0.0
 11
169.9944816636
 21
87.5592107573
 31
0.0
  0
LINE
  5
22E
330
1F
100
AcDbEntity
  8
0
  6
Continuous
 62
     7
370
    15
100
AcDbLine
 10
189.6944816636
 20
87.5592107573
 30
0.0
 11
183.6883514341
 21
87.5592107573
 31
0.0
  0
ARC
  5
22F
330
1F
100
AcDbEntity
  8
0
  6
Continuous
 62
     7
370
    15
100
AcDbCircle
 10
169.9944816636
 20
47.8592107573
 30
0.0
 40
0.2999999999999901
100
AcDbArc
 50
180.0
 51
270.0
  0
ARC
  5
230
330
1F
100
AcDbEntity
  8
0
  6
Continuous
 62
     7
370
    15
100
AcDbCircle
 10
169.9944816636
 20
87.2592107573
 30
0.0
 40
0.2999999999999972
100
AcDbArc
 50
90.0
 51
180.0
  0
ARC
  5
231
330
1F
100
AcDbEntity
  8
0
  6
Continuous
 62
     7
370
    15
100
AcDbCircle
 10
169.0802681012
 20
52.5592107573
 30
0.0
 40
0.999999999999993
100
AcDbArc
 50
52.1052014664
 51
135.0
  0
LWPOLYLINE
  5
232
330
1F
100
AcDbEntity
  8
0
  6
Continuous
 62
     7
370
    15
100
AcDbPolyline
 90
        3
 70
   128
 43
0.0
 10
169.6944816636
 20
81.7700709093
 10
169.6199366071
 20
81.7173331512
 10
169.4944816636
 20
81.6490310362
  0
LINE
  5
233
330
1F
100
AcDbEntity
  8
0
  6
Continuous
 62
     7
370
    15
100
AcDbLine
 10
169.2995047747
 20
80.5120331559
 30
0.0
 11
168.1994416857
 21
80.4843957421
 31
0.0
  0
ARC
  5
234
330
1F
100
AcDbEntity
  8
0
  6
Continuous
 62
     7
370
    15
100
AcDbCircle
 10
168.1944185746
 20
80.684332653
 30
0.0
 40
0.2000000000000066
100
AcDbArc
 50
181.4391666667
 51
271.4391666667
  0
LINE
  5
235
330
1F
100
AcDbEntity
  8
0
  6
Continuous
 62
     7
370
    15
100
AcDbLine
 10
155.6354447072
 20
80.3688075154
 30
0.0
 11
151.6006383896
 21
80.2674391367
 31
0.0
  0
LINE
  5
236
330
1F
100
AcDbEntity
  8
0
  6
Continuous
 62
     7
370
    15
100
AcDbLine
 10
167.9944816636
 20
80.6793095419
 30
0.0
 11
160.8927083231
 21
80.5008882764
 31
0.0
  0
ARC
  5
237
330
1F
100
AcDbEntity
  8
0
  6
Continuous
 62
     7
370
    15
100
AcDbCircle
 10
169.2944816636
 20
80.7119700668
 30
0.0
 40
0.2000000000000059
100
AcDbArc
 50
271.4391666667
 51
0.0
  0
LINE
  5
238
330
1F
100
AcDbEntity
  8
0
  6
Continuous
 62
     7
370
    15
100
AcDbLine
 10
147.1944816636
 20
53.1616803715
 30
0.0
 11
167.7541166653
 21
52.6451507782
 31
0.0
  0
LINE
  5
239
330
1F
100
AcDbEntity
  8
0
  6
Continuous
 62
     7
370
    15
100
AcDbLine
 10
145.6944816636
 20
54.0277057753
 30
0.0
 11
147.1944816636
 21
53.1616803715
 31
0.0
  0
LINE
  5
23A
330
1F
100
AcDbEntity
  8
0
  6
Continuous
 62
     7
370
    15
100
AcDbLine
 10
167.7556156336
 20
52.6487718521
 30
0.0
 11
168.3731613201
 21
53.2663175385
 31
0.0
  0
ARC
  5
23B
330
1F
100
AcDbEntity
  8
0
  6
Continuous
 62
     7
370
    15
100
AcDbCircle
 10
247.6944816636
 20
55.5592107573
 30
0.0
 40
5.000000000000029
100
AcDbArc
 50
34.3408746466
 51
66.4218215218
  0
ARC
  5
23C
330
1F
100
AcDbEntity
  8
0
  6
Continuous
 62
     7
370
    15
100
AcDbCircle
 10
247.6944816636
 20
55.5592107573
 30
0.0
 40
5.000000000000012
100
AcDbArc
 50
293.5781784782
 51
313.6815083391
  0
LINE
  5
23D
330
1F
100
AcDbEntity
  8
0
  6
Continuous
 62
     7
370
    15
100
AcDbLine
 10
251.1477268857
 20
51.9432603379
 30
0.0
 11
251.1984102128
 21
51.9923515336
 31
0.0
  0
LINE
  5
23E
330
1F
100
AcDbEntity
  8
0
  6
Continuous
 62
     7
370
    15
100
AcDbLine
 10
215.1944816636
 20
67.5592107573
 30
0.0
 11
208.1944816636
 21
67.5592107573
 31
0.0
  0
LINE
  5
23F
330
1F
100
AcDbEntity
  8
0
  6
Continuous
 62
     7
370
    15
100
AcDbLine
 10
241.1944816636
 20
67.5592107573
 30
0.0
 11
234.1944816636
 21
67.5592107573
 31
0.0
  0
SPLINE
  5
240
330
1F
100
AcDbEntity
  8
0
  6
Continuous
 62
     7
370
    15
100
AcDbSpline
210
0.0
220
0.0
230
1.0
 70
    24
 71
     3
 72
     9
 73
     5
 74
     0
 42
0.00000001
 43
0.00000001
 12
1.0
 22
0.0
 32
0.0
 13
1.0
 23
0.0
 33
0.0
 40
0.0
 40
0.0
 40
0.0
 40
0.0
 40
0.4994995929658267
 40
1.0
 40
1.0
 40
1.0
 40
1.0
 10
191.9232914951671
 20
102.5592107573429
 30
0.0
 10
191.9400142264995
 20
102.5592107573429
 30
0.0
 10
191.9734931953873
 20
102.5592107573429
 30
0.0
 10
192.1782444818612
 20
102.5592107573429
 30
0.0
 10
192.2807225840821
 20
102.5592107573429
 30
0.0
  0
SPLINE
  5
241
330
1F
100
AcDbEntity
  8
0
  6
Continuous
 62
     7
370
    15
100
AcDbSpline
210
0.0
220
0.0
230
1.0
 70
     8
 71
     3
 72
    12
 73
     8
 74
     0
 42
0.00000001
 43
0.00000001
 12
1.0
 22
0.0
 32
0.0
 13
1.0
 23
0.0
 33
0.0
 40
0.0
 40
0.0
 40
0.0
 40
0.0
 40
0.5
 40
0.5
 40
0.75
 40
0.75
 40
1.0
 40
1.0
 40
1.0
 40
1.0
 10
192.2807225840821
 20
92.61526280186523
 30
0.0
 10
191.859906466492
 20
85.11179523350188
 30
0.0
 10
191.550441470222
 20
77.60637557973568
 30
0.0
 10
191.4673843422284
 20
66.34156436533375
 30
0.0
 10
191.5027400709428
 20
62.58552212070316
 30
0.0
 10
191.6864369564059
 20
55.07145689517108
 30
0.0
 10
191.8333047350699
 20
51.3132502212946
 30
0.0
 10
192.0154881907648
 20
47.5592107573429
 30
0.0
  0
SPLINE
  5
242
330
1F
100
AcDbEntity
  8
0
  6
Continuous
 62
     7
370
    15
100
AcDbSpline
210
0.0
220
0.0
230
1.0
 70
     8
 71
     3
 72
     8
 73
     4
 74
     0
 42
0.00000001
 43
0.00000001
 12
1.0
 22
0.0
 32
0.0
 13
1.0
 23
0.0
 33
0.0
 40
0.0
 40
0.0
 40
0.0
 40
0.0
 40
0.0014143833462928
 40
0.0014143833462928
 40
0.0014143833462928
 40
0.0014143833462928
 10
191.9935735775957
 20
46.5592107573429
 30
0.0
 10
192.0000896688009
 20
46.89255226684837
 30
0.0
 10
192.0074000803747
 20
47.22588646642361
 30
0.0
 10
192.0154881907648
 20
47.5592107573429
 30
0.0
  0
SPLINE
  5
243
330
1F
100
AcDbEntity
  8
0
  6
Continuous
 62
     7
370
    15
100
AcDbSpline
210
0.0
220
0.0
230
1.0
 70
    24
 71
     3
 72
    12
 73
     8
 74
     0
 42
0.00000001
 43
0.00000001
 12
1.0
 22
0.0
 32
0.0
 13
1.0
 23
0.0
 33
0.0
 40
0.0
 40
0.0
 40
0.0
 40
0.0
 40
0.0956873690967534
 40
0.3855516650703926
 40
0.6754763725131421
 40
0.965822979024615
 40
1.0
 40
1.0
 40
1.0
 40
1.0
 10
191.9935735775969
 20
46.5592107573429
 30
0.0
 10
191.9288552610813
 20
46.5592107573429
 30
0.0
 10
191.6680867298874
 20
46.55921075734291
 30
0.0
 10
191.245514436682
 20
46.5592107573429
 30
0.0
 10
190.8548888619205
 20
46.55921075734289
 30
0.0
 10
190.6622930837249
 20
46.55921075734291
 30
0.0
 10
190.7084299652863
 20
46.55921075734289
 30
0.0
 10
190.7132888446877
 20
46.5592107573429
 30
0.0
  0
SPLINE
  5
244
330
1F
100
AcDbEntity
  8
0
  6
Continuous
 62
     7
370
    15
100
AcDbSpline
210
0.0
220
0.0
230
1.0
 70
     8
 71
     3
 72
    14
 73
    10
 74
     0
 42
0.00000001
 43
0.00000001
 12
1.0
 22
0.0
 32
0.0
 13
1.0
 23
0.0
 33
0.0
 40
0.0
 40
0.0
 40
0.0
 40
0.0
 40
0.25
 40
0.25
 40
0.5
 40
0.5
 40
0.75
 40
0.75
 40
1.0
 40
1.0
 40
1.0
 40
1.0
 10
193.2769172821745
 20
94.01672386798892
 30
0.0
 10
193.1200131469506
 20
94.01672386798907
 30
0.0
 10
192.9641001819897
 20
93.9563346696695
 30
0.0
 10
192.7131058845701
 20
93.77067856277249
 30
0.0
 10
192.6111661215498
 20
93.64582528463471
 30
0.0
 10
192.4530899092201
 20
93.37614789906532
 30
0.0
 10
192.3947426881343
 20
93.22802186873116
 30
0.0
 10
192.3134774136596
 20
92.92759640856217
 30
0.0
 10
192.2894875353266
 20
92.77154846834104
 30
0.0
 10
192.2807225840821
 20
92.61526280186523
 30
0.0
  0
SPLINE
  5
245
330
1F
100
AcDbEntity
  8
0
  6
Continuous
 62
     7
370
    15
100
AcDbSpline
210
0.0
220
0.0
230
1.0
 70
    24
 71
     3
 72
    18
 73
    14
 74
     0
 42
0.00000001
 43
0.00000001
 12
1.0
 22
0.0
 32
0.0
 13
1.0
 23
0.0
 33
0.0
 40
0.0
 40
0.0
 40
0.0
 40
0.0
 40
0.2500000000000008
 40
0.2500000000000008
 40
0.5000000000000016
 40
0.5000000000000016
 40
0.6250000000000011
 40
0.6250000000000011
 40
0.7500000000000008
 40
0.7500000000000008
 40
0.8750000000000003
 40
0.8750000000000003
 40
1.0
 40
1.0
 40
1.0
 40
1.0
 10
192.2807225840821
 20
102.5592107573429
 30
0.0
 10
192.2883573801617
 20
102.5592107573429
 30
0.0
 10
192.3073431492528
 20
102.5592107573429
 30
0.0
 10
192.3740596191243
 20
102.5592107573429
 30
0.0
 10
192.4219267333683
 20
102.5592107573429
 30
0.0
 10
192.523720840997
 20
102.5592107573429
 30
0.0
 10
192.5627522011239
 20
102.5592107573429
 30
0.0
 10
192.6553807248946
 20
102.5592107573429
 30
0.0
 10
192.7091026646512
 20
102.5592107573429
 30
0.0
 10
192.835380884583
 20
102.5592107573429
 30
0.0
 10
192.9081063354372
 20
102.5592107573429
 30
0.0
 10
193.0775898678201
 20
102.5592107573429
 30
0.0
 10
193.1767562219266
 20
102.5592107573429
 30
0.0
 10
193.2769172821738
 20
102.5592107573429
 30
0.0
  0
LINE
  5
246
330
1F
100
AcDbEntity
  8
0
  6
Continuous
 62
     7
370
    15
100
AcDbLine
 10
193.2769172822
 20
102.5592107573
 30
0.0
 11
249.6944816636
 21
102.5592107573
 31
0.0
  0
LINE
  5
247
330
1F
100
AcDbEntity
  8
0
  6
Continuous
 62
     7
370
    15
100
AcDbLine
 10
249.6944816636
 20
95.1091653853
 30
0.0
 11
249.6944816636
 21
102.5592107573
 31
0.0
  0
ARC
  5
248
330
1F
100
AcDbEntity
  8
0
  6
Continuous
 62
     7
370
    15
100
AcDbCircle
 10
278.6944816636
 20
67.5592107573
 30
0.0
 40
40.0000000000002
100
AcDbArc
 50
136.4688478326
 51
138.5903778907
  0
LINE
  5
249
330
1F
100
AcDbEntity
  8
0
  6
Continuous
 62
     7
370
    15
100
AcDbLine
 10
248.6944816636
 20
94.016723868
 30
0.0
 11
193.2769172822
 21
94.016723868
 31
0.0
  0
ARC
  5
24A
330
1F
100
AcDbEntity
  8
0
  6
Continuous
 62
     7
370
    15
100
AcDbCircle
 10
198.9444816636
 20
87.5592107573
 30
0.0
 40
4.250000000000028
100
AcDbArc
 50
0.0
 51
180.0
  0
LINE
  5
24B
330
1F
100
AcDbEntity
  8
0
  6
Continuous
 62
     7
370
    15
100
AcDbLine
 10
194.6944816636
 20
87.5592107573
 30
0.0
 11
194.6944816636
 21
66.5592107573
 31
0.0
  0
ARC
  5
24C
330
1F
100
AcDbEntity
  8
0
  6
Continuous
 62
     7
370
    15
100
AcDbCircle
 10
198.9444816636
 20
66.5592107573
 30
0.0
 40
4.250000000000028
100
AcDbArc
 50
180.0
 51
0.0
  0
LINE
  5
24D
330
1F
100
AcDbEntity
  8
0
  6
Continuous
 62
     7
370
    15
100
AcDbLine
 10
203.1944816636
 20
66.5592107573
 30
0.0
 11
248.6944816636
 21
66.5592107573
 31
0.0
  0
LINE
  5
24E
330
1F
100
AcDbEntity
  8
0
  6
Continuous
 62
     7
370
    15
100
AcDbLine
 10
248.6944816636
 20
47.5592107573
 30
0.0
 11
248.6944816636
 21
66.5592107573
 31
0.0
  0
LINE
  5
24F
330
1F
100
AcDbEntity
  8
0
  6
Continuous
 62
     7
370
    15
100
AcDbLine
 10
192.0154881908
 20
47.5592107573
 30
0.0
 11
248.6944816636
 21
47.5592107573
 31
0.0
  0
LINE
  5
250
330
1F
100
AcDbEntity
  8
0
  6
Continuous
 62
     7
370
    15
100
AcDbLine
 10
248.6944816636
 20
87.5592107573
 30
0.0
 11
248.6944816636
 21
94.016723868
 31
0.0
  0
LINE
  5
251
330
1F
100
AcDbEntity
  8
0
  6
Continuous
 62
     7
370
    15
100
AcDbLine
 10
248.6944816636
 20
87.5592107573
 30
0.0
 11
203.1944816636
 21
87.5592107573
 31
0.0
  0
LINE
  5
252
330
1F
100
AcDbEntity
  8
0
  6
Continuous
 62
     7
370
    15
100
AcDbLine
 10
249.6944816636
 20
95.1091653853
 30
0.0
 11
249.6944816636
 21
87.5592107573
 31
0.0
  0
LINE
  5
253
330
1F
100
AcDbEntity
  8
0
  6
Continuous
 62
     7
370
    15
100
AcDbLine
 10
249.6944816636
 20
87.5592107573
 30
0.0
 11
248.6944816636
 21
87.5592107573
 31
0.0
  0
LINE
  5
254
330
1F
100
AcDbEntity
  8
0
  6
Continuous
 62
     7
370
    15
100
AcDbLine
 10
249.6944816636
 20
66.5592107573
 30
0.0
 11
249.6944816636
 21
47.5592107573
 31
0.0
  0
LINE
  5
255
330
1F
100
AcDbEntity
  8
0
  6
Continuous
 62
     7
370
    15
100
AcDbLine
 10
248.6944816636
 20
47.5592107573
 30
0.0
 11
249.6944816636
 21
47.5592107573
 31
0.0
  0
LINE
  5
256
330
1F
100
AcDbEntity
  8
0
  6
Continuous
 62
     7
370
    15
100
AcDbLine
 10
248.6944816636
 20
66.5592107573
 30
0.0
 11
249.6944816636
 21
66.5592107573
 31
0.0
  0
LINE
  5
257
330
1F
100
AcDbEntity
  8
0
  6
Continuous
 62
     7
370
    15
100
AcDbLine
 10
248.6944816636
 20
46.5592107573
 30
0.0
 11
249.6944816636
 21
47.5592107573
 31
0.0
  0
LINE
  5
258
330
1F
100
AcDbEntity
  8
0
  6
Continuous
 62
     7
370
    15
100
AcDbLine
 10
248.6944816636
 20
47.5592107573
 30
0.0
 11
248.6944816636
 21
46.5592107573
 31
0.0
  0
LINE
  5
259
330
1F
100
AcDbEntity
  8
0
  6
Continuous
 62
     7
370
    15
100
AcDbLine
 10
248.6944816636
 20
46.5592107573
 30
0.0
 11
191.9935735776
 21
46.5592107573
 31
0.0
  0
SPLINE
  5
25A
330
1F
100
AcDbEntity
  8
0
  6
Continuous
 62
     7
370
    15
100
AcDbSpline
210
0.0
220
0.0
230
1.0
 70
     8
 71
     3
 72
    26
 73
    22
 74
     0
 42
0.00000001
 43
0.00000001
 12
1.0
 22
0.0
 32
0.0
 13
1.0
 23
0.0
 33
0.0
 40
0.0
 40
0.0
 40
0.0
 40
0.0
 40
0.0527457210313843
 40
0.1070257172525085
 40
0.1597701171731969
 40
0.2140351488775744
 40
0.26694318357224
 40
0.3213787202150286
 40
0.374391356690388
 40
0.4289511817708757
 40
0.481783525865552
 40
0.5361592230128291
 40
0.5888075855785513
 40
0.6429778685254087
 40
0.6957255482187414
 40
0.7499897082110674
 40
0.8029646709366073
 40
0.8574748806625148
 40
0.9104514695259004
 40
0.9649772344144358
 40
1.0
 40
1.0
 40
1.0
 40
1.0
 10
179.6944816636206
 20
87.5592107573429
 30
0.0
 10
179.6997938800893
 20
87.55867596826013
 30
0.0
 10
179.7105728355506
 20
87.55759083407213
 30
0.0
 10
179.7972731913542
 20
87.54909019958293
 30
0.0
 10
179.9343838637917
 20
87.53643425285068
 30
0.0
 10
180.120802737458
 20
87.52071926614161
 30
0.0
 10
180.3534430694829
 20
87.50357003211548
 30
0.0
 10
180.6223247248957
 20
87.48713515061246
 30
0.0
 10
180.9245300965514
 20
87.4730294006036
 30
0.0
 10
181.2458386722153
 20
87.46310075324428
 30
0.0
 10
181.5826231168098
 20
87.45831669274178
 30
0.0
 10
181.9187721208162
 20
87.45927910784243
 30
0.0
 10
182.251137068028
 20
87.46586431081668
 30
0.0
 10
182.5645881498508
 20
87.47720284554313
 30
0.0
 10
182.8563380267063
 20
87.49221550443947
 30
0.0
 10
183.1134064694716
 20
87.50901055320514
 30
0.0
 10
183.3327199229605
 20
87.52595886996505
 30
0.0
 10
183.5047048266376
 20
87.5409541936576
 30
0.0
 10
183.6244354061113
 20
87.55225373957052
 30
0.0
 10
183.6885921195723
 20
87.55861975152624
 30
0.0
 10
183.6884191019424
 20
87.55860491614736
 30
0.0
 10
183.6883514340994
 20
87.55859911397515
 30
0.0
  0
SPLINE
  5
25B
330
1F
100
AcDbEntity
  8
0
  6
Continuous
 62
     7
370
    15
100
AcDbSpline
210
0.0
220
0.0
230
1.0
 70
     8
 71
     3
 72
    12
 73
     8
 74
     0
 42
0.00000001
 43
0.00000001
 12
1.0
 22
0.0
 32
0.0
 13
1.0
 23
0.0
 33
0.0
 40
0.0
 40
0.0
 40
0.0
 40
0.0
 40
0.2500000000000004
 40
0.2500000000000004
 40
0.5000000000000008
 40
0.5000000000000008
 40
1.0
 40
1.0
 40
1.0
 40
1.0
 10
176.6263836656198
 20
73.38842375299447
 30
0.0
 10
176.5888717795751
 20
73.38842375299447
 30
0.0
 10
176.5535844318704
 20
73.40322856728125
 30
0.0
 10
176.494654583632
 20
73.4468204404071
 30
0.0
 10
176.4711288571629
 20
73.47433386649308
 30
0.0
 10
176.4108700693948
 20
73.56346559860668
 30
0.0
 10
176.3852753071055
 20
73.62985144922449
 30
0.0
 10
176.3665760444845
 20
73.69745588440186
 30
0.0
  0
LINE
  5
25C
330
1F
100
AcDbEntity
  8
0
  6
Continuous
 62
     7
370
    15
100
AcDbLine
 10
178.7625796616
 20
73.388423753
 30
0.0
 11
176.6263836656
 21
73.388423753
 31
0.0
  0
SPLINE
  5
25D
330
1F
100
AcDbEntity
  8
0
  6
Continuous
 62
     7
370
    15
100
AcDbSpline
210
0.0
220
0.0
230
1.0
 70
     8
 71
     3
 72
    12
 73
     8
 74
     0
 42
0.00000001
 43
0.00000001
 12
1.0
 22
0.0
 32
0.0
 13
1.0
 23
0.0
 33
0.0
 40
0.0
 40
0.0
 40
0.0
 40
0.0
 40
0.4999999999999916
 40
0.4999999999999916
 40
0.7499999999999958
 40
0.7499999999999958
 40
1.0
 40
1.0
 40
1.0
 40
1.0
 10
179.0223872827567
 20
73.69745588440186
 30
0.0
 10
179.0036940496263
 20
73.6298732479615
 30
0.0
 10
178.9780387522145
 20
73.56339067848407
 30
0.0
 10
178.917878129528
 20
73.47439559558654
 30
0.0
 10
178.8938058177737
 20
73.44639369858739
 30
0.0
 10
178.8354242974232
 20
73.40331729792221
 30
0.0
 10
178.7999554697701
 20
73.38842375299446
 30
0.0
 10
178.7625796616214
 20
73.38842375299446
 30
0.0
  0
ELLIPSE
  5
25E
330
1F
100
AcDbEntity
  8
0
  6
Continuous
 62
     7
370
    15
100
AcDbEllipse
 10
168.7455524912
 20
67.5592107573
 30
0.0
 11
9.367417879781728
 21
19.74174915274992
 31
0.0
210
0.0
220
0.0
230
1.0
 40
0.3419987131
 41
5.185211263708396
 42
6.132113578252555
  0
SPLINE
  5
25F
330
1F
100
AcDbEntity
  8
0
  6
Continuous
 62
     7
370
    15
100
AcDbSpline
210
0.0
220
0.0
230
1.0
 70
     8
 71
     3
 72
    12
 73
     8
 74
     0
 42
0.00000001
 43
0.00000001
 12
1.0
 22
0.0
 32
0.0
 13
1.0
 23
0.0
 33
0.0
 40
0.0
 40
0.0
 40
0.0
 40
0.0
 40
0.2500000000000014
 40
0.2500000000000014
 40
0.5000000000000029
 40
0.5000000000000029
 40
1.0
 40
1.0
 40
1.0
 40
1.0
 10
178.7625796616214
 20
86.69086713757622
 30
0.0
 10
178.8000915476661
 20
86.69086713757623
 30
0.0
 10
178.8353788953708
 20
86.68636359331369
 30
0.0
 10
178.8943087436092
 20
86.6729903938604
 30
0.0
 10
178.9178344700783
 20
86.66450549128928
 30
0.0
 10
178.9780932578464
 20
86.63675768745469
 30
0.0
 10
179.0036880201357
 20
86.61576782371432
 30
0.0
 10
179.0223872827567
 20
86.59396704052479
 30
0.0
  0
LINE
  5
260
330
1F
100
AcDbEntity
  8
0
  6
Continuous
 62
     7
370
    15
100
AcDbLine
 10
176.6263836656
 20
86.6908671376
 30
0.0
 11
178.7625796616
 21
86.6908671376
 31
0.0
  0
SPLINE
  5
261
330
1F
100
AcDbEntity
  8
0
  6
Continuous
 62
     7
370
    15
100
AcDbSpline
210
0.0
220
0.0
230
1.0
 70
     8
 71
     3
 72
    12
 73
     8
 74
     0
 42
0.00000001
 43
0.00000001
 12
1.0
 22
0.0
 32
0.0
 13
1.0
 23
0.0
 33
0.0
 40
0.0
 40
0.0
 40
0.0
 40
0.0
 40
0.5000000000000029
 40
0.5000000000000029
 40
0.7500000000000014
 40
0.7500000000000014
 40
1.0
 40
1.0
 40
1.0
 40
1.0
 10
176.3665760444845
 20
86.59396704052479
 30
0.0
 10
176.3852692776149
 20
86.61576079415275
 30
0.0
 10
176.4109245750267
 20
86.63678095586239
 30
0.0
 10
176.4710851977131
 20
86.66448630182609
 30
0.0
 10
176.4951575094674
 20
86.67312151801949
 30
0.0
 10
176.553539029818
 20
86.68633616324605
 30
0.0
 10
176.589007857471
 20
86.69086713757623
 30
0.0
 10
176.6263836656198
 20
86.69086713757623
 30
0.0
  0
ELLIPSE
  5
262
330
1F
100
AcDbEntity
  8
0
  6
Continuous
 62
     7
370
    15
100
AcDbEllipse
 10
186.6434108361
 20
67.5592107573
 30
0.0
 11
-9.367417879781586
 21
19.74174915274995
 31
0.0
210
0.0
220
0.0
230
1.0
 40
0.3419987131
 41
0.1510717289270745
 42
1.097974043471206
  0
SPLINE
  5
263
330
1F
100
AcDbEntity
  8
0
  6
Continuous
 62
     7
370
    15
100
AcDbSpline
210
0.0
220
0.0
230
1.0
 70
     8
 71
     3
 72
    12
 73
     8
 74
     0
 42
0.00000001
 43
0.00000001
 12
1.0
 22
0.0
 32
0.0
 13
1.0
 23
0.0
 33
0.0
 40
0.0
 40
0.0
 40
0.0
 40
0.0
 40
0.2500000000000027
 40
0.2500000000000027
 40
0.5000000000000053
 40
0.5000000000000053
 40
1.0
 40
1.0
 40
1.0
 40
1.0
 10
176.6263836656198
 20
48.42755437710944
 30
0.0
 10
176.5888717795751
 20
48.42755437710944
 30
0.0
 10
176.5535844318704
 20
48.43205792137196
 30
0.0
 10
176.494654583632
 20
48.44543112082526
 30
0.0
 10
176.4711288571629
 20
48.45391602339639
 30
0.0
 10
176.4108700693948
 20
48.48166382723099
 30
0.0
 10
176.3852753071055
 20
48.50265369097134
 30
0.0
 10
176.3665760444844
 20
48.52445447416087
 30
0.0
  0
LINE
  5
264
330
1F
100
AcDbEntity
  8
0
  6
Continuous
 62
     7
370
    15
100
AcDbLine
 10
178.7625796616
 20
48.4275543771
 30
0.0
 11
176.6263836656
 21
48.4275543771
 31
0.0
  0
SPLINE
  5
265
330
1F
100
AcDbEntity
  8
0
  6
Continuous
 62
     7
370
    15
100
AcDbSpline
210
0.0
220
0.0
230
1.0
 70
     8
 71
     3
 72
    12
 73
     8
 74
     0
 42
0.00000001
 43
0.00000001
 12
1.0
 22
0.0
 32
0.0
 13
1.0
 23
0.0
 33
0.0
 40
0.0
 40
0.0
 40
0.0
 40
0.0
 40
0.5000000000000061
 40
0.5000000000000061
 40
0.750000000000003
 40
0.750000000000003
 40
1.0
 40
1.0
 40
1.0
 40
1.0
 10
179.0223872827567
 20
48.52445447416087
 30
0.0
 10
179.0036940496263
 20
48.50266072053292
 30
0.0
 10
178.9780387522145
 20
48.48164055882329
 30
0.0
 10
178.917878129528
 20
48.45393521285958
 30
0.0
 10
178.8938058177737
 20
48.44529999666619
 30
0.0
 10
178.8354242974232
 20
48.4320853514396
 30
0.0
 10
178.7999554697701
 20
48.42755437710944
 30
0.0
 10
178.7625796616214
 20
48.42755437710944
 30
0.0
  0
ELLIPSE
  5
266
330
1F
100
AcDbEntity
  8
0
  6
Continuous
 62
     7
370
    15
100
AcDbEllipse
 10
168.7455524912
 20
67.5592107573
 30
0.0
 11
-9.367417879781868
 21
19.74174915274993
 31
0.0
210
0.0
220
0.0
230
1.0
 40
0.3419987131
 41
3.292664382516881
 42
4.239566697060987
  0
SPLINE
  5
267
330
1F
100
AcDbEntity
  8
0
  6
Continuous
 62
     7
370
    15
100
AcDbSpline
210
0.0
220
0.0
230
1.0
 70
     8
 71
     3
 72
    12
 73
     8
 74
     0
 42
0.00000001
 43
0.00000001
 12
1.0
 22
0.0
 32
0.0
 13
1.0
 23
0.0
 33
0.0
 40
0.0
 40
0.0
 40
0.0
 40
0.0
 40
0.249999999999999
 40
0.249999999999999
 40
0.499999999999998
 40
0.499999999999998
 40
1.0
 40
1.0
 40
1.0
 40
1.0
 10
178.7625796616214
 20
61.72999776169092
 30
0.0
 10
178.8000915476661
 20
61.72999776169092
 30
0.0
 10
178.8353788953708
 20
61.71519294740413
 30
0.0
 10
178.8943087436092
 20
61.67160107427829
 30
0.0
 10
178.9178344700783
 20
61.64408764819229
 30
0.0
 10
178.9780932578464
 20
61.5549559160787
 30
0.0
 10
179.0036880201357
 20
61.48857006546089
 30
0.0
 10
179.0223872827567
 20
61.42096563028351
 30
0.0
  0
LINE
  5
268
330
1F
100
AcDbEntity
  8
0
  6
Continuous
 62
     7
370
    15
100
AcDbLine
 10
176.6263836656
 20
61.7299977617
 30
0.0
 11
178.7625796616
 21
61.7299977617
 31
0.0
  0
SPLINE
  5
269
330
1F
100
AcDbEntity
  8
0
  6
Continuous
 62
     7
370
    15
100
AcDbSpline
210
0.0
220
0.0
230
1.0
 70
     8
 71
     3
 72
    12
 73
     8
 74
     0
 42
0.00000001
 43
0.00000001
 12
1.0
 22
0.0
 32
0.0
 13
1.0
 23
0.0
 33
0.0
 40
0.0
 40
0.0
 40
0.0
 40
0.0
 40
0.4999999999999956
 40
0.4999999999999956
 40
0.7499999999999978
 40
0.7499999999999978
 40
1.0
 40
1.0
 40
1.0
 40
1.0
 10
176.3665760444845
 20
61.42096563028355
 30
0.0
 10
176.3852692776149
 20
61.48854826672391
 30
0.0
 10
176.4109245750267
 20
61.55503083620134
 30
0.0
 10
176.4710851977131
 20
61.64402591909884
 30
0.0
 10
176.4951575094674
 20
61.672027816098
 30
0.0
 10
176.553539029818
 20
61.71510421676317
 30
0.0
 10
176.589007857471
 20
61.72999776169092
 30
0.0
 10
176.6263836656198
 20
61.72999776169092
 30
0.0
  0
ELLIPSE
  5
26A
330
1F
100
AcDbEntity
  8
0
  6
Continuous
 62
     7
370
    15
100
AcDbEllipse
 10
186.6434108361
 20
67.5592107573
 30
0.0
 11
9.367417879781724
 21
19.74174915274994
 31
0.0
210
0.0
220
0.0
230
1.0
 40
0.3419987131
 41
2.043618610118606
 42
2.99052092466274
  0
LINE
  5
26B
330
1F
100
AcDbEntity
  8
0
  6
Continuous
 62
     7
370
    15
100
AcDbLine
 10
169.6944816636
 20
47.8592107573
 30
0.0
 11
169.6944816636
 21
87.2592107573
 31
0.0
  0
SPLINE
  5
26C
330
1F
100
AcDbEntity
  8
0
  6
Continuous
 62
     7
370
    15
100
AcDbSpline
210
0.0
220
0.0
230
1.0
 70
     8
 71
     3
 72
    18
 73
    14
 74
     0
 42
0.00000001
 43
0.00000001
 12
1.0
 22
0.0
 32
0.0
 13
1.0
 23
0.0
 33
0.0
 40
0.0
 40
0.0
 40
0.0
 40
0.0
 40
0.2499999999999999
 40
0.2499999999999999
 40
0.4999999999999998
 40
0.4999999999999998
 40
0.6249999999999998
 40
0.6249999999999998
 40
0.7499999999999999
 40
0.7499999999999999
 40
0.8749999999999999
 40
0.8749999999999999
 40
1.0
 40
1.0
 40
1.0
 40
1.0
 10
168.4383973460576
 20
77.85794839786475
 30
0.0
 10
168.4726983905904
 20
77.92130318432899
 30
0.0
 10
168.5105186618871
 20
77.98294907091294
 30
0.0
 10
168.597136982348
 20
78.1022847066271
 30
0.0
 10
168.6455083170915
 20
78.16004281037402
 30
0.0
 10
168.7349112992099
 20
78.24241536487934
 30
0.0
 10
168.7675085830872
 20
78.26916449991684
 30
0.0
 10
168.843890487032
 20
78.32035855009313
 30
0.0
 10
168.8869289243729
 20
78.34462886665028
 30
0.0
 10
168.9927419572047
 20
78.38370975141643
 30
0.0
 10
169.0577803819358
 20
78.39759923766617
 30
0.0
 10
169.1909324537384
 20
78.39514540694965
 30
0.0
 10
169.2503016342016
 20
78.3799987561547
 30
0.0
 10
169.2995047747453
 20
78.3605369042108
 30
0.0
  0
SPLINE
  5
26D
330
1F
100
AcDbEntity
  8
0
  6
Continuous
 62
     7
370
    15
100
AcDbSpline
210
0.0
220
0.0
230
1.0
 70
     8
 71
     3
 72
    16
 73
    12
 74
     0
 42
0.00000001
 43
0.00000001
 12
1.0
 22
0.0
 32
0.0
 13
1.0
 23
0.0
 33
0.0
 40
0.0
 40
0.0
 40
0.0
 40
0.0
 40
0.062500000000001
 40
0.062500000000001
 40
0.1250000000000019
 40
0.1250000000000019
 40
0.2499999999999997
 40
0.2499999999999997
 40
0.5
 40
0.5
 40
1.0
 40
1.0
 40
1.0
 40
1.0
 10
169.2995047747145
 20
78.36053690417192
 30
0.0
 10
169.3115746079903
 20
78.35576279207591
 30
0.0
 10
169.3258502629237
 20
78.35280110740455
 30
0.0
 10
169.3573146750481
 20
78.35733691637887
 30
0.0
 10
169.3728151998585
 20
78.36536118846772
 30
0.0
 10
169.4082540964654
 20
78.39413703593048
 30
0.0
 10
169.4218467125687
 20
78.41768475264784
 30
0.0
 10
169.4548410309616
 20
78.48448398315796
 30
0.0
 10
169.4656284242803
 20
78.52802181736062
 30
0.0
 10
169.4906816715595
 20
78.65566248765508
 30
0.0
 10
169.4944816636207
 20
78.73522984941467
 30
0.0
 10
169.4944816636207
 20
78.81191569443385
 30
0.0
  0
LINE
  5
26E
330
1F
100
AcDbEntity
  8
0
  6
Continuous
 62
     7
370
    15
100
AcDbLine
 10
169.4944816636
 20
81.6490310362
 30
0.0
 11
169.4944816636
 21
78.8119156944
 31
0.0
  0
SPLINE
  5
26F
330
1F
100
AcDbEntity
  8
0
  6
Continuous
 62
     7
370
    15
100
AcDbSpline
210
0.0
220
0.0
230
1.0
 70
     8
 71
     3
 72
     8
 73
     4
 74
     0
 42
0.00000001
 43
0.00000001
 12
1.0
 22
0.0
 32
0.0
 13
1.0
 23
0.0
 33
0.0
 40
0.0
 40
0.0
 40
0.0
 40
0.0
 40
1.0
 40
1.0
 40
1.0
 40
1.0
 10
168.4383973460576
 20
53.90162739000902
 30
0.0
 10
168.4140843497882
 20
53.85777873273754
 30
0.0
 10
168.3925875253598
 20
53.81481848116922
 30
0.0
 10
168.3731613200609
 20
53.77290424643389
 30
0.0
  0
SPLINE
  5
270
330
1F
100
AcDbEntity
  8
0
  6
Continuous
 62
     7
370
    15
100
AcDbSpline
210
0.0
220
0.0
230
1.0
 70
     8
 71
     3
 72
    18
 73
    14
 74
     0
 42
0.00000001
 43
0.00000001
 12
1.0
 22
0.0
 32
0.0
 13
1.0
 23
0.0
 33
0.0
 40
0.0
 40
0.0
 40
0.0
 40
0.0
 40
0.2499999999999987
 40
0.2499999999999987
 40
0.4999999999999973
 40
0.4999999999999973
 40
0.624999999999998
 40
0.624999999999998
 40
0.7499999999999987
 40
0.7499999999999987
 40
0.8749999999999993
 40
0.8749999999999993
 40
1.0
 40
1.0
 40
1.0
 40
1.0
 10
168.4383973460576
 20
53.901627390009
 30
0.0
 10
168.4726956650703
 20
53.96348464605069
 30
0.0
 10
168.5105100623822
 20
54.02555595502639
 30
0.0
 10
168.5970981234558
 20
54.1490126790688
 30
0.0
 10
168.6454482291345
 20
54.2105083163823
 30
0.0
 10
168.7347648179343
 20
54.29992514833133
 30
0.0
 10
168.7673251734226
 20
54.32926181236567
 30
0.0
 10
168.8435708071515
 20
54.38554458860725
 30
0.0
 10
168.8867301769315
 20
54.41247725658238
 30
0.0
 10
168.9924590009495
 20
54.45439312753749
 30
0.0
 10
169.0574561780042
 20
54.46826268290325
 30
0.0
 10
169.1909406679584
 20
54.45888429210166
 30
0.0
 10
169.2502680614039
 20
54.43759561316019
 30
0.0
 10
169.2995047747453
 20
54.41194500004243
 30
0.0
  0
SPLINE
  5
271
330
1F
100
AcDbEntity
  8
0
  6
Continuous
 62
     7
370
    15
100
AcDbSpline
210
0.0
220
0.0
230
1.0
 70
     8
 71
     3
 72
    16
 73
    12
 74
     0
 42
0.00000001
 43
0.00000001
 12
1.0
 22
0.0
 32
0.0
 13
1.0
 23
0.0
 33
0.0
 40
0.0
 40
0.0
 40
0.0
 40
0.0
 40
0.0624999999999987
 40
0.0624999999999987
 40
0.1249999999999974
 40
0.1249999999999974
 40
0.2499999999999972
 40
0.2499999999999972
 40
0.4999999999999982
 40
0.4999999999999982
 40
1.0
 40
1.0
 40
1.0
 40
1.0
 10
169.2995047747145
 20
54.41194500003639
 30
0.0
 10
169.3115746079903
 20
54.40565703719648
 30
0.0
 10
169.3258502629237
 20
54.39937906522675
 30
0.0
 10
169.3573146750481
 20
54.39029519839038
 30
0.0
 10
169.3728151998585
 20
54.38832470913137
 30
0.0
 10
169.4082540964654
 20
54.38863816607294
 30
0.0
 10
169.4218467125687
 20
54.39465982307484
 30
0.0
 10
169.4548410309616
 20
54.41490383658315
 30
0.0
 10
169.4656284242803
 20
54.43331464458203
 30
0.0
 10
169.4906816715595
 20
54.4932805414003
 30
0.0
 10
169.4944816636207
 20
54.53972070261312
 30
0.0
 10
169.4944816636207
 20
54.58951093780466
 30
0.0
  0
LINE
  5
272
330
1F
100
AcDbEntity
  8
0
  6
Continuous
 62
     7
370
    15
100
AcDbLine
 10
169.4944816636
 20
69.2762056398
 30
0.0
 11
169.4944816636
 21
54.5895109378
 31
0.0
  0
SPLINE
  5
273
330
1F
100
AcDbEntity
  8
0
  6
Continuous
 62
     7
370
    15
100
AcDbSpline
210
0.0
220
0.0
230
1.0
 70
     8
 71
     3
 72
    16
 73
    12
 74
     0
 42
0.00000001
 43
0.00000001
 12
1.0
 22
0.0
 32
0.0
 13
1.0
 23
0.0
 33
0.0
 40
0.0
 40
0.0
 40
0.0
 40
0.0
 40
0.500000000000001
 40
0.500000000000001
 40
0.7500000000000007
 40
0.7500000000000007
 40
0.8750000000000006
 40
0.8750000000000006
 40
0.9375000000000003
 40
0.9375000000000003
 40
1.0
 40
1.0
 40
1.0
 40
1.0
 10
169.4944816636206
 20
69.2762056397902
 30
0.0
 10
169.4944816636206
 20
69.4029834073014
 30
0.0
 10
169.4905982384617
 20
69.52897285714945
 30
0.0
 10
169.465782913187
 20
69.71530836912916
 30
0.0
 10
169.4549434654745
 20
69.77803018818246
 30
0.0
 10
169.4217276834257
 20
69.86557363900977
 30
0.0
 10
169.4083459397969
 20
69.89475347801297
 30
0.0
 10
169.3728362899346
 20
69.92394312531832
 30
0.0
 10
169.3574193234339
 20
69.93001950643611
 30
0.0
 10
169.3257183012853
 20
69.92542879855695
 30
0.0
 10
169.3115720163345
 20
69.91621006740849
 30
0.0
 10
169.2995047747448
 20
69.9051503677751
 30
0.0
  0
SPLINE
  5
274
330
1F
100
AcDbEntity
  8
0
  6
Continuous
 62
     7
370
    15
100
AcDbSpline
210
0.0
220
0.0
230
1.0
 70
     8
 71
     3
 72
    18
 73
    14
 74
     0
 42
0.00000001
 43
0.00000001
 12
1.0
 22
0.0
 32
0.0
 13
1.0
 23
0.0
 33
0.0
 40
0.0
 40
0.0
 40
0.0
 40
0.0
 40
0.125
 40
0.125
 40
0.25
 40
0.25
 40
0.375
 40
0.375
 40
0.5
 40
0.5
 40
0.75
 40
0.75
 40
1.0
 40
1.0
 40
1.0
 40
1.0
 10
169.299504774751
 20
69.90515036776665
 30
0.0
 10
169.2508006457342
 20
69.86051274003368
 30
0.0
 10
169.1922929765297
 20
69.82439229264317
 30
0.0
 10
169.0605673138988
 20
69.8113922959773
 30
0.0
 10
168.9958096752786
 20
69.83795787740985
 30
0.0
 10
168.8905992586594
 20
69.91680414810574
 30
0.0
 10
168.8473832237192
 20
69.9673084536616
 30
0.0
 10
168.7712050022383
 20
70.07319855243628
 30
0.0
 10
168.7383502345542
 20
70.12906929557566
 30
0.0
 10
168.6479825157123
 20
70.30127393370165
 30
0.0
 10
168.5985601465229
 20
70.42255289014808
 30
0.0
 10
168.5109076844349
 20
70.66776654335322
 30
0.0
 10
168.4728449482005
 20
70.79230451334759
 30
0.0
 10
168.4383973460571
 20
70.91805648415664
 30
0.0
  0
SPLINE
  5
275
330
1F
100
AcDbEntity
  8
0
  6
Continuous
 62
     7
370
    15
100
AcDbSpline
210
0.0
220
0.0
230
1.0
 70
     8
 71
     3
 72
     8
 73
     4
 74
     0
 42
0.00000001
 43
0.00000001
 12
1.0
 22
0.0
 32
0.0
 13
1.0
 23
0.0
 33
0.0
 40
0.0
 40
0.0
 40
0.0
 40
0.0
 40
1.0
 40
1.0
 40
1.0
 40
1.0
 10
168.4383973460573
 20
70.91805648415621
 30
0.0
 10
168.414083300923
 20
71.00681561117017
 30
0.0
 10
168.3925867469541
 20
71.0962280546324
 30
0.0
 10
168.3731613200609
 20
71.18611049940407
 30
0.0
  0
SPLINE
  5
276
330
1F
100
AcDbEntity
  8
0
  6
Continuous
 62
     7
370
    15
100
AcDbSpline
210
0.0
220
0.0
230
1.0
 70
     8
 71
     3
 72
     8
 73
     4
 74
     0
 42
0.00000001
 43
0.00000001
 12
1.0
 22
0.0
 32
0.0
 13
1.0
 23
0.0
 33
0.0
 40
0.0
 40
0.0
 40
0.0
 40
0.0
 40
1.0
 40
1.0
 40
1.0
 40
1.0
 10
168.3731613200609
 20
77.71861752619073
 30
0.0
 10
168.3925870002108
 20
77.76658804112708
 30
0.0
 10
168.4140836421669
 20
77.8130404500439
 30
0.0
 10
168.438397346057
 20
77.85794839786588
 30
0.0
  0
LINE
  5
277
330
1F
100
AcDbEntity
  8
0
  6
Continuous
 62
     7
370
    15
100
AcDbLine
 10
167.9944816636
 20
70.9180564842
 30
0.0
 11
167.9944816636
 21
72.1940861092
 31
0.0
  0
LINE
  5
278
330
1F
100
AcDbEntity
  8
0
  6
Continuous
 62
     7
370
    15
100
AcDbLine
 10
147.1944816636
 20
70.9180564842
 30
0.0
 11
147.1944816636
 21
77.5689920964
 31
0.0
  0
LINE
  5
279
330
1F
100
AcDbEntity
  8
0
  6
Continuous
 62
     7
370
    15
100
AcDbLine
 10
167.9944816636
 20
77.2970514204
 30
0.0
 11
167.9944816636
 21
78.0215496049
 31
0.0
  0
SPLINE
  5
27A
330
1F
100
AcDbEntity
  8
0
  6
Continuous
 62
     7
370
    15
100
AcDbSpline
210
0.0
220
0.0
230
1.0
 70
     8
 71
     3
 72
    16
 73
    12
 74
     0
 42
0.00000001
 43
0.00000001
 12
1.0
 22
0.0
 32
0.0
 13
1.0
 23
0.0
 33
0.0
 40
0.0
 40
0.0
 40
0.0
 40
0.0
 40
0.2499999999999996
 40
0.2499999999999996
 40
0.3749999999999995
 40
0.3749999999999995
 40
0.4999999999999994
 40
0.4999999999999994
 40
0.7499999999999997
 40
0.7499999999999997
 40
1.0
 40
1.0
 40
1.0
 40
1.0
 10
167.9944816636204
 20
72.1940861092075
 30
0.0
 10
167.9139443317211
 20
72.68950059144557
 30
0.0
 10
167.8539069876938
 20
73.17266504082725
 30
0.0
 10
167.7931692805402
 20
73.87916024810448
 30
0.0
 10
167.7778469054273
 20
74.11159943768108
 30
0.0
 10
167.7572640961231
 20
74.57015999556648
 30
0.0
 10
167.7520644990974
 20
74.79672911284452
 30
0.0
 10
167.7520108459173
 20
75.45174762452811
 30
0.0
 10
167.772208389395
 20
75.86082297483075
 30
0.0
 10
167.852886477753
 20
76.62465649240455
 30
0.0
 10
167.9139326423604
 20
76.97995664586416
 30
0.0
 10
167.9944816636185
 20
77.2970514203682
 30
0.0
  0
SPLINE
  5
27B
330
1F
100
AcDbEntity
  8
0
  6
Continuous
 62
     7
370
    15
100
AcDbSpline
210
0.0
220
0.0
230
1.0
 70
     8
 71
     3
 72
     8
 73
     4
 74
     0
 42
0.00000001
 43
0.00000001
 12
1.0
 22
0.0
 32
0.0
 13
1.0
 23
0.0
 33
0.0
 40
0.0
 40
0.0
 40
0.0
 40
0.0
 40
1.0
 40
1.0
 40
1.0
 40
1.0
 10
168.373161320061
 20
71.1861104994041
 30
0.0
 10
168.3080561584469
 20
71.48735541542499
 30
0.0
 10
168.2501688288869
 20
71.78839056743483
 30
0.0
 10
168.1994416856809
 20
72.08916039170124
 30
0.0
  0
SPLINE
  5
27C
330
1F
100
AcDbEntity
  8
0
  6
Continuous
 62
     7
370
    15
100
AcDbSpline
210
0.0
220
0.0
230
1.0
 70
     8
 71
     3
 72
    24
 73
    20
 74
     0
 42
0.00000001
 43
0.00000001
 12
1.0
 22
0.0
 32
0.0
 13
1.0
 23
0.0
 33
0.0
 40
0.0
 40
0.0
 40
0.0
 40
0.0
 40
0.2500000000000086
 40
0.2500000000000086
 40
0.3750000000000132
 40
0.3750000000000132
 40
0.4375000000000152
 40
0.4375000000000152
 40
0.5000000000000172
 40
0.5000000000000172
 40
0.5312500000000187
 40
0.5312500000000187
 40
0.56250000000002
 40
0.56250000000002
 40
0.6250000000000183
 40
0.6250000000000183
 40
0.7500000000000128
 40
0.7500000000000128
 40
1.0
 40
1.0
 40
1.0
 40
1.0
 10
168.199441685681
 20
72.08916039170124
 30
0.0
 10
168.1836750973826
 20
72.18264316427754
 30
0.0
 10
168.167063564428
 20
72.27596132594591
 30
0.0
 10
168.13853721647
 20
72.41559788691053
 30
0.0
 10
168.12845178268
 20
72.46214403114926
 30
0.0
 10
168.1109690121451
 20
72.53160985312645
 30
0.0
 10
168.1047613556996
 20
72.55471012908485
 30
0.0
 10
168.0904898554544
 20
72.60051665113359
 30
0.0
 10
168.0829197849513
 20
72.62383781016621
 30
0.0
 10
168.065523455516
 20
72.65440106276219
 30
0.0
 10
168.057064182556
 20
72.6649557828035
 30
0.0
 10
168.0410032180084
 20
72.66314549335905
 30
0.0
 10
168.0361699821621
 20
72.65410661645733
 30
0.0
 10
168.0247440624268
 20
72.62790894305935
 30
0.0
 10
168.0207227065444
 20
72.60766411258105
 30
0.0
 10
168.0099622115133
 20
72.54583445205714
 30
0.0
 10
168.0060879024524
 20
72.50290476400528
 30
0.0
 10
167.9969150303252
 20
72.37284882038817
 30
0.0
 10
167.9948826596105
 20
72.28375772895245
 30
0.0
 10
167.9944816636206
 20
72.19408610920748
 30
0.0
  0
SPLINE
  5
27D
330
1F
100
AcDbEntity
  8
0
  6
Continuous
 62
     7
370
    15
100
AcDbSpline
210
0.0
220
0.0
230
1.0
 70
     8
 71
     3
 72
    24
 73
    20
 74
     0
 42
0.00000001
 43
0.00000001
 12
1.0
 22
0.0
 32
0.0
 13
1.0
 23
0.0
 33
0.0
 40
0.0
 40
0.0
 40
0.0
 40
0.0
 40
0.2499999999999925
 40
0.2499999999999925
 40
0.3749999999999855
 40
0.3749999999999855
 40
0.4374999999999832
 40
0.4374999999999832
 40
0.468749999999982
 40
0.468749999999982
 40
0.4999999999999808
 40
0.4999999999999808
 40
0.5624999999999819
 40
0.5624999999999819
 40
0.624999999999983
 40
0.624999999999983
 40
0.7499999999999878
 40
0.7499999999999878
 40
1.0
 40
1.0
 40
1.0
 40
1.0
 10
167.994481663617
 20
77.29705142036893
 30
0.0
 10
167.9948863331928
 20
77.22534167560148
 30
0.0
 10
167.9969297800072
 20
77.15190035780616
 30
0.0
 10
168.0063293452614
 20
77.0371908113529
 30
0.0
 10
168.0102802387902
 20
76.9984129276457
 30
0.0
 10
168.021432547087
 20
76.93745148698385
 30
0.0
 10
168.0256540880136
 20
76.9166013110225
 30
0.0
 10
168.037861809577
 20
76.88465213278648
 30
0.0
 10
168.043652579829
 20
76.87213145139683
 30
0.0
 10
168.0605740929389
 20
76.85925839971533
 30
0.0
 10
168.0679802088888
 20
76.86189273714541
 30
0.0
 10
168.0844374621321
 20
76.87237036958278
 30
0.0
 10
168.0918939800431
 20
76.88442661011096
 30
0.0
 10
168.1058019093178
 20
76.90871378222978
 30
0.0
 10
168.1118938552128
 20
76.92174395044347
 30
0.0
 10
168.1290881475639
 20
76.96186338443084
 30
0.0
 10
168.1390730977674
 20
76.99003762848578
 30
0.0
 10
168.1673191428664
 20
77.07551882474795
 30
0.0
 10
168.1837986798275
 20
77.13403796477945
 30
0.0
 10
168.1994416856872
 20
77.19263216891345
 30
0.0
  0
SPLINE
  5
27E
330
1F
100
AcDbEntity
  8
0
  6
Continuous
 62
     7
370
    15
100
AcDbSpline
210
0.0
220
0.0
230
1.0
 70
     8
 71
     3
 72
     8
 73
     4
 74
     0
 42
0.00000001
 43
0.00000001
 12
1.0
 22
0.0
 32
0.0
 13
1.0
 23
0.0
 33
0.0
 40
0.0
 40
0.0
 40
0.0
 40
0.0
 40
1.0
 40
1.0
 40
1.0
 40
1.0
 10
168.1994416856872
 20
77.19263216891348
 30
0.0
 10
168.2501688288917
 20
77.38264146831649
 30
0.0
 10
168.3080561584496
 20
77.55784435874395
 30
0.0
 10
168.373161320061
 20
77.71861752619067
 30
0.0
  0
LINE
  5
27F
330
1F
100
AcDbEntity
  8
0
  6
Continuous
 62
     7
370
    15
100
AcDbLine
 10
147.1944816636
 20
54.1905836914
 30
0.0
 11
147.1944816636
 21
70.9180564842
 31
0.0
  0
LINE
  5
280
330
1F
100
AcDbEntity
  8
0
  6
Continuous
 62
     7
370
    15
100
AcDbLine
 10
167.9944816636
 20
53.7380261829
 30
0.0
 11
167.9944816636
 21
70.9180564842
 31
0.0
  0
LINE
  5
281
330
1F
100
AcDbEntity
  8
0
  6
Continuous
 62
     7
370
    15
100
AcDbLine
 10
145.6944816636
 20
70.9180564842
 30
0.0
 11
145.6944816636
 21
76.8189920964
 31
0.0
  0
LINE
  5
282
330
1F
100
AcDbEntity
  8
0
  6
Continuous
 62
     7
370
    15
100
AcDbLine
 10
145.6944816636
 20
54.9405836914
 30
0.0
 11
145.6944816636
 21
70.9180564842
 31
0.0
  0
LINE
  5
283
330
1F
100
AcDbEntity
  8
0
  6
Continuous
 62
     7
370
    15
100
AcDbLine
 10
249.6944816636
 20
66.5592107573
 30
0.0
 11
249.6944816636
 21
87.5592107573
 31
0.0
  0
LINE
  5
284
330
1F
100
AcDbEntity
  8
0
  6
Continuous
 62
     7
370
    15
100
AcDbLine
 10
167.9944816636
 20
78.0215496049
 30
0.0
 11
167.9944816636
 21
80.6793095419
 31
0.0
  0
LINE
  5
285
330
1F
100
AcDbEntity
  8
0
  6
Continuous
 62
     7
370
    15
100
AcDbLine
 10
147.1944816636
 20
77.5689920964
 30
0.0
 11
147.1944816636
 21
79.9870050749
 31
0.0
  0
SPLINE
  5
286
330
1F
100
AcDbEntity
  8
0
  6
Continuous
 62
     7
370
    15
100
AcDbSpline
210
0.0
220
0.0
230
1.0
 70
     8
 71
     3
 72
     8
 73
     4
 74
     0
 42
0.00000001
 43
0.00000001
 12
1.0
 22
0.0
 32
0.0
 13
1.0
 23
0.0
 33
0.0
 40
0.0000137050638847
 40
0.0000137050638847
 40
0.0000137050638847
 40
0.0000137050638847
 40
0.0027147143562631
 40
0.0027147143562631
 40
0.0027147143562631
 40
0.0027147143562631
 10
149.8944816636206
 20
80.05035758776282
 30
0.0
 10
148.9944779777107
 20
80.02920298041704
 30
0.0
 10
148.0944777991154
 20
80.00808547225883
 30
0.0
 10
147.1944816636206
 20
79.98700507492816
 30
0.0
  0
SPLINE
  5
287
330
1F
100
AcDbEntity
  8
0
  6
Continuous
 62
     7
370
    15
100
AcDbSpline
210
0.0
220
0.0
230
1.0
 70
     8
 71
     3
 72
    14
 73
    10
 74
     0
 42
0.00000001
 43
0.00000001
 12
1.0
 22
0.0
 32
0.0
 13
1.0
 23
0.0
 33
0.0
 40
0.0
 40
0.0
 40
0.0
 40
0.0
 40
0.0084183905355144
 40
0.0748860102021628
 40
0.1431989945385862
 40
0.2919890146519551
 40
0.4448981529985943
 40
0.7218327777855013
 40
1.0
 40
1.0
 40
1.0
 40
1.0
 10
151.6006416445893
 20
80.26730957528446
 30
0.0
 10
151.6013298208413
 20
80.26736892167195
 30
0.0
 10
151.6074515104455
 20
80.26789683899297
 30
0.0
 10
151.5823539883869
 20
80.26574314605354
 30
0.0
 10
151.5039313776249
 20
80.258862957364
 30
0.0
 10
151.3214063441574
 20
80.24195510193178
 30
0.0
 10
150.972810993497
 20
80.20506014705978
 30
0.0
 10
150.4912742718253
 20
80.14578689772681
 30
0.0
 10
150.0937067977284
 20
80.08221441174808
 30
0.0
 10
149.8944816636206
 20
80.05035758776255
 30
0.0
  0
SPLINE
  5
288
330
1F
100
AcDbEntity
  8
0
  6
Continuous
 62
     7
370
    15
100
AcDbSpline
210
0.0
220
0.0
230
1.0
 70
     8
 71
     3
 72
    30
 73
    26
 74
     0
 42
0.00000001
 43
0.00000001
 12
1.0
 22
0.0
 32
0.0
 13
1.0
 23
0.0
 33
0.0
 40
0.0
 40
0.0
 40
0.0
 40
0.0
 40
0.0294746451570063
 40
0.0891644128118438
 40
0.1194205405506357
 40
0.1537777334831088
 40
0.2235755464042156
 40
0.2590832782380087
 40
0.2948880645064883
 40
0.3676631685100436
 40
0.4047127443138652
 40
0.4413199602053932
 40
0.4781804981934836
 40
0.5158455287671491
 40
0.553791691411684
 40
0.59026616004738
 40
0.6645310272197917
 40
0.7024352355938592
 40
0.7375331026307204
 40
0.8090715848433099
 40
0.8456364855872178
 40
0.8783892246501606
 40
0.9451411648482742
 40
0.9792455963037963
 40
0.9999999999999999
 40
0.9999999999999999
 40
0.9999999999999999
 40
0.9999999999999999
 10
156.262003964843
 20
80.31789876585704
 30
0.0
 10
156.3043982983616
 20
80.3151900571065
 30
0.0
 10
156.4326463513781
 20
80.30699588126717
 30
0.0
 10
156.6271516224466
 20
80.29656672794034
 30
0.0
 10
156.8440015018468
 20
80.28718879227692
 30
0.0
 10
157.0897942210503
 20
80.2784976732971
 30
0.0
 10
157.3614349960249
 20
80.27245596315267
 30
0.0
 10
157.6459855717619
 20
80.27030070640046
 30
0.0
 10
157.9418571687375
 20
80.27099751558535
 30
0.0
 10
158.2466557792088
 20
80.2764155682352
 30
0.0
 10
158.5515284933443
 20
80.28664351634005
 30
0.0
 10
158.7796099101884
 20
80.29667170845251
 30
0.0
 10
159.00526610389
 20
80.30890984933777
 30
0.0
 10
159.228254014558
 20
80.32327035522975
 30
0.0
 10
159.4433816175188
 20
80.33927555572303
 30
0.0
 10
159.7171657092436
 20
80.36222092211857
 30
0.0
 10
159.97122865779
 20
80.38701510549211
 30
0.0
 10
160.1956782423034
 20
80.41149775578984
 30
0.0
 10
160.3968697779272
 20
80.43484886488784
 30
0.0
 10
160.5661510156395
 20
80.45616415365987
 30
0.0
 10
160.6965901986449
 20
80.47345336969322
 30
0.0
 10
160.7993899193667
 20
80.48746614796536
 30
0.0
 10
160.86445649098
 20
80.49665099748786
 30
0.0
 10
160.8926335160673
 20
80.50066852369042
 30
0.0
 10
160.8926915796913
 20
80.50067711650502
 30
0.0
 10
160.8927135465429
 20
80.5006803673714
 30
0.0
  0
SPLINE
  5
289
330
1F
100
AcDbEntity
  8
0
  6
Continuous
 62
     7
370
    15
100
AcDbSpline
210
0.0
220
0.0
230
1.0
 70
     8
 71
     3
 72
    15
 73
    11
 74
     0
 42
0.00000001
 43
0.00000001
 12
1.0
 22
0.0
 32
0.0
 13
1.0
 23
0.0
 33
0.0
 40
0.0
 40
0.0
 40
0.0
 40
0.0
 40
0.1086917144186449
 40
0.2240686452944091
 40
0.3324604774217166
 40
0.5528148435797356
 40
0.6649971788039227
 40
0.7480085531775215
 40
0.915472221904362
 40
1.0
 40
1.0
 40
1.0
 40
1.0
 10
155.6354705290299
 20
80.36777971694683
 30
0.0
 10
155.6333862908694
 20
80.3679746949674
 30
0.0
 10
155.6290896209382
 20
80.36837664336947
 30
0.0
 10
155.6580467733036
 20
80.36566803391791
 30
0.0
 10
155.7119533035865
 20
80.36071497264678
 30
0.0
 10
155.7988232650344
 20
80.3529668257674
 30
0.0
 10
155.9075272072973
 20
80.34390496867408
 30
0.0
 10
156.0160155565982
 20
80.33528691775871
 30
0.0
 10
156.1306751118871
 20
80.32669037121241
 30
0.0
 10
156.2290164404515
 20
80.3201070642589
 30
0.0
 10
156.262003964843
 20
80.31789876585704
 30
0.0
  0
SPLINE
  5
28A
330
1F
100
AcDbEntity
  8
0
  6
Continuous
 62
     7
370
    15
100
AcDbSpline
210
0.0
220
0.0
230
1.0
 70
     8
 71
     3
 72
    10
 73
     6
 74
     0
 42
0.00000001
 43
0.00000001
 12
1.0
 22
0.0
 32
0.0
 13
1.0
 23
0.0
 33
0.0
 40
0.0
 40
0.0
 40
0.0
 40
0.0
 40
0.5
 40
0.5
 40
1.0
 40
1.0
 40
1.0
 40
1.0
 10
147.1944816636206
 20
79.98700507492818
 30
0.0
 10
146.9342645410825
 20
79.8469387988119
 30
0.0
 10
146.6782299718324
 20
79.71076254505743
 30
0.0
 10
146.1769663830997
 20
79.44713382700789
 30
0.0
 10
145.9316236243363
 20
79.31962763054628
 30
0.0
 10
145.6944816636206
 20
79.19770512665382
 30
0.0
  0
LINE
  5
28B
330
1F
100
AcDbEntity
  8
0
  6
Continuous
 62
     7
370
    15
100
AcDbLine
 10
145.6944816636
 20
76.8189920964
 30
0.0
 11
145.6944816636
 21
79.1977051267
 31
0.0
  0
SPLINE
  5
28C
330
1F
100
AcDbEntity
  8
0
  6
Continuous
 62
     7
370
    15
100
AcDbSpline
210
0.0
220
0.0
230
1.0
 70
     8
 71
     3
 72
    12
 73
     8
 74
     0
 42
0.00000001
 43
0.00000001
 12
1.0
 22
0.0
 32
0.0
 13
1.0
 23
0.0
 33
0.0
 40
0.0
 40
0.0
 40
0.0
 40
0.0
 40
0.2090140355332798
 40
0.4194389151856184
 40
0.6343768665132334
 40
0.8509010630250686
 40
1.0
 40
1.0
 40
1.0
 40
1.0
 10
167.9944816636206
 20
53.18649474244569
 30
0.0
 10
167.9630230827959
 20
53.11668135956236
 30
0.0
 10
167.8998935758194
 20
52.97658335366859
 30
0.0
 10
167.8304699888005
 20
52.82131999152735
 30
0.0
 10
167.7813476191687
 20
52.71113267514547
 30
0.0
 10
167.754886600328
 20
52.6515950776888
 30
0.0
 10
167.7544287959071
 20
52.65056415107522
 30
0.0
 10
167.7542421059899
 20
52.65014374534018
 30
0.0
  0
LINE
  5
28D
330
1F
100
AcDbEntity
  8
0
  6
Continuous
 62
     7
370
    15
100
AcDbLine
 10
147.1944816636
 20
54.1905836914
 30
0.0
 11
147.1944816636
 21
53.1616803715
 31
0.0
  0
LINE
  5
28E
330
1F
100
AcDbEntity
  8
0
  6
Continuous
 62
     7
370
    15
100
AcDbLine
 10
167.9944816636
 20
53.7380261829
 30
0.0
 11
167.9944816636
 21
53.1864947424
 31
0.0
  0
SPLINE
  5
28F
330
1F
100
AcDbEntity
  8
0
  6
Continuous
 62
     7
370
    15
100
AcDbSpline
210
0.0
220
0.0
230
1.0
 70
     8
 71
     3
 72
    24
 73
    20
 74
     0
 42
0.00000001
 43
0.00000001
 12
1.0
 22
0.0
 32
0.0
 13
1.0
 23
0.0
 33
0.0
 40
0.0
 40
0.0
 40
0.0
 40
0.0
 40
0.2500000000000098
 40
0.2500000000000098
 40
0.3750000000000134
 40
0.3750000000000134
 40
0.4375000000000148
 40
0.4375000000000148
 40
0.5000000000000161
 40
0.5000000000000161
 40
0.531250000000015
 40
0.531250000000015
 40
0.5625000000000139
 40
0.5625000000000139
 40
0.6250000000000118
 40
0.6250000000000118
 40
0.7500000000000077
 40
0.7500000000000077
 40
1.0
 40
1.0
 40
1.0
 40
1.0
 10
168.1994416856814
 20
53.39583971143825
 30
0.0
 10
168.1836726407717
 20
53.36140868338757
 30
0.0
 10
168.1670584762111
 20
53.3270681317166
 30
0.0
 10
168.1385263487177
 20
53.27351934847038
 30
0.0
 10
168.1284387151638
 20
53.25534248893168
 30
0.0
 10
168.1109508923149
 20
53.22626488422453
 30
0.0
 10
168.1047410843886
 20
53.21628068342348
 30
0.0
 10
168.0904632248062
 20
53.19476145516722
 30
0.0
 10
168.0828920624544
 20
53.18357784372898
 30
0.0
 10
168.06547223728
 20
53.16204207023613
 30
0.0
 10
168.0569881548254
 20
53.15233721054948
 30
0.0
 10
168.0409520812079
 20
53.13785562269061
 30
0.0
 10
168.03613170893
 20
53.13500788534228
 30
0.0
 10
168.0247248083242
 20
53.12916456659851
 30
0.0
 10
168.0207038466148
 20
53.12912079232038
 30
0.0
 10
168.0099498348355
 20
53.13055738217268
 30
0.0
 10
168.0060779492128
 20
53.13507254044113
 30
0.0
 10
167.9969099844119
 20
53.15174457946605
 30
0.0
 10
167.9948816498988
 20
53.16792875451105
 30
0.0
 10
167.9944816636206
 20
53.18649474244569
 30
0.0
  0
SPLINE
  5
290
330
1F
100
AcDbEntity
  8
0
  6
Continuous
 62
     7
370
    15
100
AcDbSpline
210
0.0
220
0.0
230
1.0
 70
     8
 71
     3
 72
     8
 73
     4
 74
     0
 42
0.00000001
 43
0.00000001
 12
1.0
 22
0.0
 32
0.0
 13
1.0
 23
0.0
 33
0.0
 40
0.0
 40
0.0
 40
0.0
 40
0.0
 40
1.0
 40
1.0
 40
1.0
 40
1.0
 10
168.373161320061
 20
53.77290424643392
 30
0.0
 10
168.3080560813908
 20
53.63243233160901
 30
0.0
 10
168.2501687684037
 20
53.50660010422924
 30
0.0
 10
168.1994416856813
 20
53.39583971143816
 30
0.0
  0
LINE
  5
291
330
1F
100
AcDbEntity
  8
0
  6
Continuous
 62
     7
370
    15
100
AcDbLine
 10
145.6944816636
 20
54.9405836914
 30
0.0
 11
145.6944816636
 21
54.0277057753
 31
0.0
  0
LWPOLYLINE
  5
292
330
1F
100
AcDbEntity
  8
0
  6
Continuous
 62
     7
370
    15
100
AcDbPolyline
 90
       31
 70
   128
 43
0.0
 10
251.4130616459
 20
52.9145891712
 10
251.326333479
 20
52.4811256173
 10
251.2455137658
 20
52.1649175366
 10
251.1741347157
 20
51.9797847397
 10
251.1153159356
 20
51.9338184181
 10
251.0716280886
 20
52.0290275207
 10
251.044980543
 20
52.2612509527
 10
251.0365379247
 20
52.620339436
 10
251.0466692164
 20
53.0905990806
 10
251.0749316321
 20
53.6514772836
 10
251.1200899687
 20
54.2784609761
 10
251.1801705901
 20
54.9441479621
 10
251.2525476849
 20
55.619444526
 10
251.3340580267
 20
56.2748369675
 10
251.4211392225
 20
56.8816814921
 10
251.5099854062
 20
57.413456082
 10
251.5967135731
 20
57.8469196359
 10
251.6775332863
 20
58.1631277166
 10
251.7489123364
 20
58.3482605135
 10
251.8077311165
 20
58.3942268351
 10
251.8514189635
 20
58.2990177325
 10
251.8780665091
 20
58.0667943004
 10
251.8865091274
 20
57.7077058172
 10
251.8763778357
 20
57.2374461726
 10
251.84811542
 20
56.6765679696
 10
251.8029570834
 20
56.0495842771
 10
251.742876462
 20
55.3838972911
 10
251.6704993672
 20
54.7086007272
 10
251.5889890254
 20
54.0532082857
 10
251.5019078296
 20
53.4463637611
 10
251.4130616459
 20
52.9145891712
  0
LWPOLYLINE
  5
293
330
1F
100
AcDbEntity
  8
0
  6
Continuous
 62
     7
370
    15
100
AcDbPolyline
 90
       28
 70
   128
 43
0.0
 10
251.4242451567
 20
53.4336891994
 10
251.3503472084
 20
53.0685447201
 10
251.2824428041
 20
52.8163679973
 10
251.2241926879
 20
52.6907539431
 10
251.1787371386
 20
52.6984744439
 10
251.1485266766
 20
52.8391132854
 10
251.1351899558
 20
53.1050885912
 10
251.1394459623
 20
53.4820615639
 10
251.1610652536
 20
53.9497094927
 10
251.1988823281
 20
54.482821357
 10
251.2508584576
 20
55.052656958
 10
251.3141915954
 20
55.628496311
 10
251.3854674358
 20
56.1792957675
 10
251.4608434797
 20
56.6753615861
 10
251.5362561851
 20
57.0899507303
 10
251.6076400334
 20
57.4007125919
 10
251.6711467031
 20
57.5908939185
 10
251.723352533
 20
57.6502419855
 10
251.7614430933
 20
57.5755573235
 10
251.7833649122
 20
57.3708662017
 10
251.7879361786
 20
57.0472035715
 10
251.7749104545
 20
56.6220181692
 10
251.7449899599
 20
56.1182318497
 10
251.6997877165
 20
55.5630038641
 10
251.6417405889
 20
54.9862666967
 10
251.5739779128
 20
54.4191123975
 10
251.5001527916
 20
53.8921164015
 10
251.4242451567
 20
53.4336891994
  0
ARC
  5
294
330
1F
100
AcDbEntity
  8
0
  6
Continuous
 62
     7
370
    15
100
AcDbCircle
 10
232.8235631509
 20
57.0905756396
 30
0.0
 40
19.06900347648725
100
AcDbArc
 50
344.4929699595
 51
1.5342623349
  0
DIMENSION
  5
295
330
1F
100
AcDbEntity
  8
VERMASSUNG
100
AcDbDimension
  2
_D_9
 10
140.3578848455
 20
47.5592107573
 30
0.0
 11
140.3578848455
 21
67.5592107573
 31
0.0
 70
   160
  1
PSC%%c<>
 71
     2
 42
-1.0
  3
SLDDIMSTYLE0
100
AcDbAlignedDimension
 13
169.9944816636
 23
87.5592107573
 33
0.0
 14
169.9944816636
 24
47.5592107573
 34
0.0
 50
90.0
100
AcDbRotatedDimension
  0
DIMENSION
  5
2A1
330
1F
100
AcDbEntity
  8
VERMASSUNG
100
AcDbDimension
  2
_D_10
 10
249.6944816636
 20
36.5592107573
 30
0.0
 11
222.1944816636
 21
36.5592107573
 31
0.0
 70
   160
  1
<>
 71
     2
 42
-1.0
  3
SLDDIMSTYLE0
100
AcDbAlignedDimension
 13
194.6944816636
 23
66.5592107573
 33
0.0
 14
249.6944816636
 24
47.5592107573
 34
0.0
100
AcDbRotatedDimension
  0
LINE
  5
2AB
330
1F
100
AcDbEntity
  8
VERMASSUNG
  6
CENTERX2
370
     0
100
AcDbLine
 10
143.3815723676
 20
67.5592107573
 30
0.0
 11
252.6333242413
 21
67.5592107573
 31
0.0
  0
OLE2FRAME
  5
2AC
330
1F
100
AcDbEntity
  8
0
100
AcDbOle2Frame
 70
     2
  3
Paintbrush-Bild
 10
13.8511154363
 20
38.264191557
 30
0.0
 11
51.6290888628
 21
31.9806341108
 31
0.0
 71
     2
 72
     0
 73
     1
 90
    12928
310
80552BED0767C5B32B40DDAF6807D121434000000000000000006FFBDDFB85D0
310
4940DDAF6807D121434000000000000000006FFBDDFB85D04940416F4BD60AFB
310
3F4000000000000000002BED0767C5B32B40416F4BD60AFB3F40000000000000
310
0000000000000100000000010000010000000100000000000100000000320000
310
D0CF11E0A1B11AE1000000000000000000000000000000003E000300FEFF0900
310
0600000000000000000000000100000001000000000000000010000002000000
310
01000000FEFFFFFF0000000000000000FFFFFFFFFFFFFFFFFFFFFFFFFFFFFFFF
310
FFFFFFFFFFFFFFFFFFFFFFFFFFFFFFFFFFFFFFFFFFFFFFFFFFFFFFFFFFFFFFFF
310
FFFFFFFFFFFFFFFFFFFFFFFFFFFFFFFFFFFFFFFFFFFFFFFFFFFFFFFFFFFFFFFF
310
FFFFFFFFFFFFFFFFFFFFFFFFFFFFFFFFFFFFFFFFFFFFFFFFFFFFFFFFFFFFFFFF
310
FFFFFFFFFFFFFFFFFFFFFFFFFFFFFFFFFFFFFFFFFFFFFFFFFFFFFFFFFFFFFFFF
310
FFFFFFFFFFFFFFFFFFFFFFFFFFFFFFFFFFFFFFFFFFFFFFFFFFFFFFFFFFFFFFFF
310
FFFFFFFFFFFFFFFFFFFFFFFFFFFFFFFFFFFFFFFFFFFFFFFFFFFFFFFFFFFFFFFF
310
FFFFFFFFFFFFFFFFFFFFFFFFFFFFFFFFFFFFFFFFFFFFFFFFFFFFFFFFFFFFFFFF
310
FFFFFFFFFFFFFFFFFFFFFFFFFFFFFFFFFFFFFFFFFFFFFFFFFFFFFFFFFFFFFFFF
310
FFFFFFFFFFFFFFFFFFFFFFFFFFFFFFFFFFFFFFFFFFFFFFFFFFFFFFFFFFFFFFFF
310
FFFFFFFFFFFFFFFFFFFFFFFFFFFFFFFFFFFFFFFFFFFFFFFFFFFFFFFFFFFFFFFF
310
FFFFFFFFFFFFFFFFFFFFFFFFFFFFFFFFFFFFFFFFFFFFFFFFFFFFFFFFFFFFFFFF
310
FFFFFFFFFFFFFFFFFFFFFFFFFFFFFFFFFFFFFFFFFFFFFFFFFFFFFFFFFFFFFFFF
310
FFFFFFFFFFFFFFFFFFFFFFFFFFFFFFFFFFFFFFFFFFFFFFFFFFFFFFFFFFFFFFFF
310
FDFFFFFFFEFFFFFFFEFFFFFFFEFFFFFF05000000060000000700000008000000
310
090000000A0000000B0000000C0000000D0000000E0000000F00000010000000
310
11000000120000001300000014000000150000001600000017000000FEFFFFFF
310
FFFFFFFFFFFFFFFFFFFFFFFFFFFFFFFFFFFFFFFFFFFFFFFFFFFFFFFFFFFFFFFF
310
FFFFFFFFFFFFFFFFFFFFFFFFFFFFFFFFFFFFFFFFFFFFFFFFFFFFFFFFFFFFFFFF
310
FFFFFFFFFFFFFFFFFFFFFFFFFFFFFFFFFFFFFFFFFFFFFFFFFFFFFFFFFFFFFFFF
310
FFFFFFFFFFFFFFFFFFFFFFFFFFFFFFFFFFFFFFFFFFFFFFFFFFFFFFFFFFFFFFFF
310
FFFFFFFFFFFFFFFFFFFFFFFFFFFFFFFFFFFFFFFFFFFFFFFFFFFFFFFFFFFFFFFF
310
FFFFFFFFFFFFFFFFFFFFFFFFFFFFFFFFFFFFFFFFFFFFFFFFFFFFFFFFFFFFFFFF
310
FFFFFFFFFFFFFFFFFFFFFFFFFFFFFFFFFFFFFFFFFFFFFFFFFFFFFFFFFFFFFFFF
310
FFFFFFFFFFFFFFFFFFFFFFFFFFFFFFFFFFFFFFFFFFFFFFFFFFFFFFFFFFFFFFFF
310
FFFFFFFFFFFFFFFFFFFFFFFFFFFFFFFFFFFFFFFFFFFFFFFFFFFFFFFFFFFFFFFF
310
FFFFFFFFFFFFFFFFFFFFFFFFFFFFFFFFFFFFFFFFFFFFFFFFFFFFFFFFFFFFFFFF
310
FFFFFFFFFFFFFFFFFFFFFFFFFFFFFFFFFFFFFFFFFFFFFFFFFFFFFFFFFFFFFFFF
310
FFFFFFFFFFFFFFFFFFFFFFFFFFFFFFFFFFFFFFFFFFFFFFFFFFFFFFFFFFFFFFFF
310
FFFFFFFFFFFFFFFFFFFFFFFFFFFFFFFFFFFFFFFFFFFFFFFFFFFFFFFFFFFFFFFF
310
52006F006F007400200045006E00740072007900000000000000000000000000
310
0000000000000000000000000000000000000000000000000000000000000000
310
16000500FFFFFFFFFFFFFFFF020000000A00030000000000C000000000000046
310
0000000000000000000000009072CF8C0E2DCD0103000000C000000000000000
310
01004F006C006500000000000000000000000000000000000000000000000000
310
0000000000000000000000000000000000000000000000000000000000000000
310
0A000200FFFFFFFFFFFFFFFFFFFFFFFF00000000000000000000000000000000
310
0000000000000000000000000000000000000000000000001400000000000000
310
010043006F006D0070004F0062006A0000000000000000000000000000000000
310
0000000000000000000000000000000000000000000000000000000000000000
310
120002010100000003000000FFFFFFFF00000000000000000000000000000000
310
0000000000000000000000000000000000000000010000004D00000000000000
310
01004F006C006500310030004E00610074006900760065000000000000000000
310
0000000000000000000000000000000000000000000000000000000000000000
310
1A000200FFFFFFFFFFFFFFFFFFFFFFFF00000000000000000000000000000000
310
0000000000000000000000000000000000000000040000002426000000000000
310
FEFFFFFF02000000FEFFFFFFFFFFFFFFFFFFFFFFFFFFFFFFFFFFFFFFFFFFFFFF
310
FFFFFFFFFFFFFFFFFFFFFFFFFFFFFFFFFFFFFFFFFFFFFFFFFFFFFFFFFFFFFFFF
310
FFFFFFFFFFFFFFFFFFFFFFFFFFFFFFFFFFFFFFFFFFFFFFFFFFFFFFFFFFFFFFFF
310
FFFFFFFFFFFFFFFFFFFFFFFFFFFFFFFFFFFFFFFFFFFFFFFFFFFFFFFFFFFFFFFF
310
FFFFFFFFFFFFFFFFFFFFFFFFFFFFFFFFFFFFFFFFFFFFFFFFFFFFFFFFFFFFFFFF
310
FFFFFFFFFFFFFFFFFFFFFFFFFFFFFFFFFFFFFFFFFFFFFFFFFFFFFFFFFFFFFFFF
310
FFFFFFFFFFFFFFFFFFFFFFFFFFFFFFFFFFFFFFFFFFFFFFFFFFFFFFFFFFFFFFFF
310
FFFFFFFFFFFFFFFFFFFFFFFFFFFFFFFFFFFFFFFFFFFFFFFFFFFFFFFFFFFFFFFF
310
FFFFFFFFFFFFFFFFFFFFFFFFFFFFFFFFFFFFFFFFFFFFFFFFFFFFFFFFFFFFFFFF
310
FFFFFFFFFFFFFFFFFFFFFFFFFFFFFFFFFFFFFFFFFFFFFFFFFFFFFFFFFFFFFFFF
310
FFFFFFFFFFFFFFFFFFFFFFFFFFFFFFFFFFFFFFFFFFFFFFFFFFFFFFFFFFFFFFFF
310
FFFFFFFFFFFFFFFFFFFFFFFFFFFFFFFFFFFFFFFFFFFFFFFFFFFFFFFFFFFFFFFF
310
FFFFFFFFFFFFFFFFFFFFFFFFFFFFFFFFFFFFFFFFFFFFFFFFFFFFFFFFFFFFFFFF
310
FFFFFFFFFFFFFFFFFFFFFFFFFFFFFFFFFFFFFFFFFFFFFFFFFFFFFFFFFFFFFFFF
310
FFFFFFFFFFFFFFFFFFFFFFFFFFFFFFFFFFFFFFFFFFFFFFFFFFFFFFFFFFFFFFFF
310
FFFFFFFFFFFFFFFFFFFFFFFFFFFFFFFFFFFFFFFFFFFFFFFFFFFFFFFFFFFFFFFF
310
0100000200000000000000000000000000000000000000000000000000000000
310
0000000000000000000000000000000000000000000000000000000000000000
310
0100FEFF030A0000FFFFFFFF0A00030000000000C00000000000004607000000
310
5042727573680007000000504272757368000700000050427275736800F439B2
310
7100000000000000000000000000000000000000000000000000000000000000
310
0000000000000000000000000000000000000000000000000000000000000000
310
0000000000000000000000000000000000000000000000000000000000000000
310
0000000000000000000000000000000000000000000000000000000000000000
310
0000000000000000000000000000000000000000000000000000000000000000
310
0000000000000000000000000000000000000000000000000000000000000000
310
0000000000000000000000000000000000000000000000000000000000000000
310
0000000000000000000000000000000000000000000000000000000000000000
310
0000000000000000000000000000000000000000000000000000000000000000
310
0000000000000000000000000000000000000000000000000000000000000000
310
0000000000000000000000000000000000000000000000000000000000000000
310
0000000000000000000000000000000000000000000000000000000000000000
310
20260000424D0E260000000000003E00000028000000B40200006E0000000100
310
01000000000000000000130B0000130B00000200000002000000000000FFFFFF
310
FFFFFFFFFFFFFFFFFFFFFFFFFFFFFFFFFFFFFFFFFFFFFFFFFFFFFFFFFFFFFFFF
310
FFFFFFFFFFFFFFFFFFFFFFFFFFFFFFFFFFFFFFFFFFFFFFFFFFFFFFFFFFFFFFFF
310
FFFFFFFFFFFFFFFFFFFFFFFFFFFFFFFFFFFFFFFFFFFFFFFFF000FFFFFFFFFFFF
310
FFFFFFFFFFFFFFFFFFFFFFFFFFFFFFFFFFFFFFFFFFFFFFFFFFFFFFFFFFFFFFFF
310
FFFFFFFFFFFFFFFFFFFFFFFFFFFFFFFFFFFFFFFFFFFFFFFFFFFFFFFFFFFFFFFF
310
FFFFFFFFFFFFFFFFFFFFFFFFFFFFFFFFF000FFFFFFFFFFFFFFFFFFFFFFFFFFFF
310
FFFFFFFFFFFFFFFFFFFFFFFFFFFFFFFFFFFFFFFFFFFFFFFFFFFFFFFFFFFFFFFF
310
FFFFFFFFFFFFFFFFFFFFFFFFFFFFFFFFFFFFFFFFFFFFFFFFFFFFFFFFFFFFFFFF
310
FFFFFFFFFFFFFFFFF000FFFFFFFFFFFFFFFFFFFFFFFFFFFFFFFFFFFFFFFFFFFF
310
FFFFFFFFFFFFFFFFFFFFFFFFFFFFFFFFFFFFFFFFFFFFFFFFFFFFFFFFFFFFFFFF
310
FFFFFFFFFFFFFFFFFFFFFFFFFFFFFFFFFFFFFFFFFFFFFFFFFFFFFFFFFFFFFFFF
310
F000FFFFFFFFFFFFFFFFFFFFFFFFFFFFFFFFFFFFFFFFFFFFFFFFFFFFFFFFFFFF
310
FFFFFFFFFFFFFFFFFFFFFFFFFFFFFFFFFFFFFFFFFFFFFFFFFFFFFFFFFFFFFFFF
310
FFFFFFFFFFFFFFFFFFFFFFFFFFFFFFFFFFFFFFFFFFFFFFFFF000FFFFFFFFFFFF
310
FFFFFFFFFFFFFFFFFFFFFFFFFFFFFFFFFFFFFFFFFFFFFFFFFFFFFFFFFFFFFFFF
310
FFFFFFFFFFFFFFFFFFFFFFFFFFFFFFFFFFFFFFFFFFFFFFFFFFFFFFFFFFFFFFFF
310
FFFFFFFFFFFFFFFFFFFFFFFFFFFFFFFFF000FFFFFFFFFFFFFFFFFFFFFFFFFFFF
310
FFFFFFFFFFFFFFFFFFFFFFFFFFFFFFFFFFFFFFFFFFFFFFFFFFFFFFFFFFFFFFFF
310
FFFFFFFFFFFFFFFFFFFFFFFFFFFFFFFFFFFFFFFFFFFFFFFFFFFFFFFFFFFFFFFF
310
FFFFFFFFFFFFFFFFF000FFFFFFFFFFFFFFFFFFFFFFFFFFFFFFFFFFFFFFFFFFFF
310
FFFFFFFFFFFFFFFFFFFFFFFFFFFFFFFFFFFFFFFFFFFFFFFFFFFFFFFFFFFFFFFF
310
FFFFFFFFFFFFFFFFFFFFFFFFFFFFFFFFFFFFFFFFFFFFFFFFFFFFFFFFFFFFFFFF
310
F000FFFFFFFFFFFFFFFFFFFFFFFFFFFFFFFFFFFFFFFFFFFFFFFFFFFFFFFFFFFF
310
FFFFFFFFFFFFFFFFFFFFFFFFFFFFFFFFFFFFFFFFFFFFFFFFFFFFFFFFFFFFFFFF
310
FFFFFFFFFFFFFFFFFFFFFFFFFFFFFFFFFFFFFFFFFFFFFFFFF000FFFFFFFFFFFF
310
FFFFFFFFFFFFFFFFFFFFFFFFFFFFFFFFFFFFFFFFFFFFFFFFFFFFFFFFFFFFFFFF
310
FFFFFFFFFFFFFFFFFFFFFFFFFFFFFFFFFFFFFFFFFFFFFFFFFFFFFFFFFFFFFFFF
310
FFFFFFFFFFFFFFFFFFFFFFFFFFFFFFFFF000FFFFFFFFFFFFFFFFFFFFFFFFFFFF
310
FFFFFFFFFFFFFFFFFFFFFFFFFFFFFFFFFFFFFFFFFFFFFFFFFFFFFFFFFFFFFFFF
310
FFFFFFFFFFFFFFFFFFFFFFFFFFFFFFFFFFFFFFFFFFFFFFFFFFFFFFFFFFFFFFFF
310
FFFFFFFFFFFFFFFFF000FFFFFFFFFFFFFFFFFFFFFFFFFFFFFFFFFFFFFFFFFFFF
310
FFFFFFFFFFFFFFFFFFFFFFFFFFFFFFFFFFFFFFFFFFFFFFFFFFFFFFFFFFFFFFFF
310
FFFFFFFFFFFFFFFFFFFFFFFFFFFFFFFFFFFFFFFFFFFFFFFFFFFFFFFFFFFFFFFF
310
F000FFFFFFFFFFFFFFFFFFFFFFFFFFFFFFFFFFFFFFFFFFFFFFFFFFFFFFFFFFFF
310
FFFFFFFFFFFFFFFFFFFFFFFFFFFFFFFFFFFFFFFFFFFFFFFFFFFFFFFFFFFFFFFF
310
FFFFFFFFFFFFFFFFFFFFFFFFFFFFFFFFFFFFFFFFFFFFFFFFF000FFFFFFFFFFFF
310
FFFFFFFFFFFFFFFFFFFFFFFFFFFFFFFFFFFFFFFFFFFFFFFFFFFFFFFFFFFFFFFF
310
FFFFFFFFFFFFFFFFFFFFFFFFFFFFFFFFFFFFFFFFFFFFFFFFFFFFFFFFFFFFFFFF
310
FFFFFFFFFFFFFFFFFFFFFFFFFFFFFFFFF000FFFFFFFFFFFFFFFFFFFFFFFFFFFF
310
FFFFFFFFFFFFFFFFFFFFFFFFFFFFFFFFFFFFFFFFFFFFFFFFFFFFFFFFFFFFFFFF
310
FFFFFFFFFFFFFFFFFFFFFFFFFFFFFFFFFFFFFFFFFFFFFFFFFFFFFFFFFFFFFFFF
310
FFFFFFFFFFFFFFFFF000FFFFFFFFFFFFFFFFFFFFFFFFFFFFFFFFFFFFFFFFFFFF
310
FFFFFFFFFFFFFFFFFFFFFFFFFFFFFFFFFFFFFFFFFFFFFFFFFFFFFFFFFFFFFFFF
310
FFFFFFFFFFFFFFFFFFFFFFFFFFFFFFFFFFFFFFFFFFFFFFFFFFFFFFFFFFFFFFFF
310
F000FFFFFFFFFFFFFFFFFFFFFFFFFFFFFFFFFFFFFFFFFFFFFFFFFFFFFFFFFFFF
310
FFFFFFFFFFFFFFFFFFFFFFFFFFFFFFFFFFFFFFFFFFFFFFFFFFFFFFFFFFFFFFFF
310
FFFFFFFFFFFFFFFFFFFFFFFFFFFFFFFFFFFFFFFFFFFFFFFFF000FFFFFFFFFFFF
310
FFFFFFFFFFFFFFFFFFFFFFFFFFFFFFFFFFFFFFFFFFFFFFFFFFFFFFFFFFFFFFFF
310
FFFFFFFFFFFFFFFFFFFFFFFFFFFFFFFFFFFFFFFFFFFFFFFFFFFFFFFFFFFFFFFF
310
FFFFFFFFFFFFFFFFFFFFFFFFFFFFFFFFF000FFFFFFFFFFFFFFFFFFFFFFFFFFFF
310
FFFFFFFFFFFFFFFFFFFFFFFFFFFFFFFFFFFFFFFFFFFFFFFFFFFFFFFFFFFFFFFF
310
FFFFFFFFFFFFFFFFFFFFFFFFFFFFFFFFFFFFFFFFFFFFFFFFFFFFFFFFFFFFFFFF
310
FFFFFFFFFFFFFFFFF000FFFFF80003FFFFFFFFFFFFFFFFFFFFFFFFFFFFFFFFFF
310
FFFFF00007FFFFFFFFFF00007FFFFFF800000000000000007FFFFFFFFFFFFFFF
310
FFFFFFFC001FFFFFFFFFFFFFFC001FFFFFFFFFFFFFFFFFFFFFFFFFFE0007FFFF
310
F000FFFF8000007FFFFFFFF8000FFFFFC0007FFFFF80007FFFFF0000007FFFFF
310
FFF8000007FFFFF800000000000000007FFFFFF0001FFFFFFFFFFFC00001FFFF
310
FFFFFFFFC00001FFFFFFFF000000000003FFFFE000007FFFF000FFFE0000000F
310
FFFFFFF0000FFFFF80007FFFFF80007FFFFC0000001FFFFFFFC0000001FFFFF8
310
00000000000000007FFFFFF0001FFFFFFFFFFE0000003FFFFFFFFFFE0000003F
310
FFFFFF000000000003FFFF0000000FFFF000FFF800000003FFFFFFF00007FFFF
310
80007FFFFF80007FFFF000000007FFFFFF000000003FFFF80000000000000000
310
7FFFFFF0001FFFFFFFFFF80000000FFFFFFFFFF80000000FFFFFFF0000000000
310
03FFFC00000003FFF000FFE000000000FFFFFFF00007FFFF80003FFFFF80007F
310
FFC000000001FFFFFC000000001FFFF800000000000000007FFFFFF0001FFFFF
310
FFFFE000000003FFFFFFFFE000000003FFFFFF000000000003FFF000000000FF
310
F000FF80000000007FFFFFF00007FFFF80003FFFFF80007FFF8000000000FFFF
310
F80000000007FFF800000000000000007FFFFFF0001FFFFFFFFFC000000001FF
310
FFFFFFC000000001FFFFFF000000000003FFC0000000007FF000FF0000000000
310
3FFFFFE00007FFFF00003FFFFF80007FFE00000000003FFFF00000000003FFF8
310
00000000000000007FFFFFF0001FFFFFFFFF8000000000FFFFFFFF8000000000
310
FFFFFF000000000003FF80000000003FF000FE00000000001FFFFFE00003FFFF
310
00003FFFFF80007FFC00000000001FFFE00000000001FFF8000001FFFE000000
310
7FFFFFF0001FFFFFFFFE00000000003FFFFFFE00000000003FFFFF0000000000
310
03FF00000000001FF000FC00000000000FFFFFE00003FFFF00001FFFFF80007F
310
F800000000001FFFC00000000000FFF8000001FFFE0000007FFFFFF0001FFFFF
310
FFFC00000000001FFFFFFC00000000001FFFFF000000000003FE00000000000F
310
F000F8000000000007FFFFE00003FFFF00001FFFFF80007FF800000000000FFF
310
800000000000FFF8000001FFFE0000007FFFFFF0001FFFFFFFF800000000000F
310
FFFFF800000000000FFFFF000000000003FC000000000007F000F80000000000
310
03FFFFC00003FFFE00001FFFFF80007FF0000000000007FF0000000000007FF8
310
000001FFFE0000007FFFFFF0001FFFFFFFF0000000000007FFFFF00000000000
310
07FFFF000000000003F8000000000003F000F0000000000003FFFFC00001FFFE
310
00001FFFFF80007FE0000000000007FE0000000000003FF8000001FFFE000000
310
7FFFFFF0001FFFFFFFF0000000000007FFFFF0000000000007FFFF0000000000
310
03F800001F800003F000E00001FFF00001FFFFC00001FFFE00000FFFFF80007F
310
E00001FFE00003FE00001FFF00003FF8000001FFFE0000007FFFFFF0001FFFFF
310
FFE000003E000003FFFFE000003E000003FFFF000000000003F00001FFF80001
310
F000E00007FFFC0001FFFFC00001FFFE00000FFFFF80007FC0000FFFFC0003FC
310
0000FFFFC0001FF8000001FFFE0000007FFFFFF0001FFFFFFFC00003FFE00001
310
FFFFC00003FFE00001FFFF0001FFFFFFFFF00007FFFE0001F000E0000FFFFF00
310
00FFFF800001FFFC00000FFFFF80007FC0001FFFFE0001FC0001FFFFE0001FF8
310
000001FFFE0000007FFFFFF0001FFFFFFF80000FFFF80000FFFF80000FFFF800
310
00FFFF0003FFFFFFFFE0000FFFFF8000F000C0003FFFFF8000FFFF800000FFFC
310
000007FFFF80007F80003FFFFF0001FC0003FFFFF0001FF8000001FFFE000000
310
7FFFFFF0001FFFFFFF80003FFFFE0000FFFF80003FFFFE0000FFFF0003FFFFFF
310
FFE0003FFFFF8000F000C0003FFFFF8000FFFF800000FFFC000007FFFF80007F
310
80007FFFFF8001F80007FFFFF8000FF8000001FFFE0000007FFFFFF0001FFFFF
310
FF00007FFFFF00007FFF00007FFFFF00007FFF0003FFFFFFFFE0003FFFFFC000
310
F000C0007FFFFFC000FFFF000000FFFC000007FFFF80007F8000FFFFFF8000F8
310
000FFFFFF8000FF8000001FFFE0000007FFFFFF0001FFFFFFF0000FFFFFF8000
310
7FFF0000FFFFFF80007FFF0003FFFFFFFFC0007FFFFFC00070008000FFFFFFC0
310
00FFFF000000FFF8000007FFFF80007F8000FFFFFF8000F8000FFFFFF8000FF8
310
000001FFFE0000007FFFFFF0001FFFFFFE0001FFFFFFC0003FFE0001FFFFFFC0
310
003FFF0003FFFFFFFFC0007FFFFFE00070008000FFFFFFC0007FFF0000007FF8
310
000003FFFF80007F0001FFFFFF8000F8000FFFFFF8000FF8000001FFFE000000
310
7FFFFFF0001FFFFFFE0001FFFFFFC0003FFE0001FFFFFFC0003FFF0003FFFFFF
310
FFC000FFFFFFE00070008000FFFFFFC0007FFF0000007FF8000003FFFF80007F
310
0001FFFFFF8000F8001FFFFFF8000FF8000001FFFE0000007FFFFFF0001FFFFF
310
FE0003FFFFFFE0003FFE0003FFFFFFE0003FFF0003FFFFFFFFC000FFFFFFE000
310
70008000FFFFFFC0007FFE0000007FF8000003FFFF80007F0001FFFFFF8000F0
310
001FFFFFF8000FF8000001FFFE0000007FFFFFF0001FFFFFFC0003FFFFFFE000
310
1FFC0003FFFFFFE0001FFF0003FFFFFFFFC000FFFFFFC00070008000FFFFFF80
310
007FFE0000007FF0000003FFFF80007F0001FFFFFF0000F0001FFFFFF8000FF8
310
000001FFFE0000007FFFFFF0001FFFFFFC0007FFFFFFF0001FFC0007FFFFFFF0
310
001FFF0003FFFFFFFFC000FFFFFFC00070008001FFFFFF0000FFFE0000003FF0
310
000001FFFF80007F0001FFFFFF0000F8001FFFFFF0000FF8000001FFFE000000
310
7FFFFFF0001FFFFFFC0007FFFFFFF0001FFC0007FFFFFFF0001FFF0003FFFFFF
310
FFC001FFFFFF80007000FFFFFFFFFE0000FFFE0008003FF0008001FFFF80007F
310
FFFFFFFFFC0000FFFFFFFFFFE0000FF8000001FFFE0000007FFFFFF0001FFFFF
310
F8000FFFFFFFF8000FF8000FFFFFFFF8000FFF0003FFFFFFFFFFFFFFFFFF0000
310
7000FFFFFFFFFC0000FFFC0008003FF0008001FFFF80007FFFFFFFFFF80001FF
310
FFFFFFFF80000FF8000001FFFE0000007FFFFFF0001FFFFFF8000FFFFFFFF800
310
0FF8000FFFFFFFF8000FFF0003FFFFFFFFFFFFFFFFFE0000F000FFFFFFFFE000
310
00FFFC000C003FE000C001FFFF80007FFFFFFFFFC00001FFFFFFFFFE00001FF8
310
000001FFFE0000007FFFFFF0001FFFFFF8000FFFFFFFF8000FF8000FFFFFFFF8
310
000FFF0003FFFFFFFFFFFFFFFFF00000F000FFFFFFFE000001FFFC000C001FE0
310
00C000FFFF80007FFFFFFFFE000001FFFFFFFFE000001FF80FFFFFFFFFFFFFC0
310
7FFFFFF0001FFFFFF8000FFFFFFFF8000FF8000FFFFFFFF8000FFF0003FFFFFF
310
FFFFFFFFFF800000F000FFFFFFC0000001FFFC001C001FE001C000FFFF80007F
310
FFFFFF80000003FFFFFFF80000001FF80FFFFFFFFFFFFFC07FFFFFF0001FFFFF
310
F8001FFFFFFFFC000FF8001FFFFFFFFC000FFF0003FFFFFFFFFFFFFFF0000001
310
F000FFFFF800000001FFF8001C001FE001C000FFFF80007FFFFFF800000003FF
310
FFFF800000003FF80FFFFFFFFFFFFFC07FFFFFF0001FFFFFF8001FFFFFFFFC00
310
0FF8001FFFFFFFFC000FFF0003FFFFFFFFFFFFFE00000001F000FFFFC0000000
310
03FFF8001E001FC001E000FFFF80007FFFFF8000000007FFFFFC000000003FF8
310
0FFFFFFFFFFFFFC07FFFFFF0001FFFFFF8001FFFFFFFFC000FF8001FFFFFFFFC
310
000FFF0003FFFFFFFFFFFFE000000003F000FFFE0000000007FFF8001E000FC0
310
01E0007FFF80007FFFFE0000000007FFFFE0000000007FF80FFFFFFFFFFFFFC0
310
7FFFFFF0001FFFFFF0001FFFFFFFFC0007F0001FFFFFFFFC0007FF0003FFFFFF
310
FFFFFF0000000003F000FFF80000000007FFF8001E000FC003E0007FFF80007F
310
FFF0000000000FFFFF8000000000FFF80FFFFFFFFFFFFFC07FFFFFF0001FFFFF
310
F0001FFFFFFFFC0007F0001FFFFFFFFC0007FF0003FFFFFFFFFFFC0000000007
310
F000FFE0000000000FFFF0003E000FC003E0007FFF80007FFFC0000000001FFF
310
FE0000000001FFF80FFFFFFFFFFFFFC07FFFFFF0001FFFFFF0001FFFFFFFFC00
310
07F0001FFFFFFFFC0007FF0003FFFFFFFFFFF0000000000FF000FFC000000000
310
1FFFF0003F000F8003F0003FFF80007FFF80000000003FFFF80000000003FFF8
310
0FFFFFFFFFFFFFC07FFFFFF0001FFFFFF0001FFFFFFFFC0007F0001FFFFFFFFC
310
0007FF0003FFFFFFFFFFE0000000001FF000FF00000000007FFFF0003F000780
310
03F0003FFF80007FFF00000000007FFFF00000000007FFF80FFFFFFFFFFFFFC0
310
7FFFFFF0001FFFFFF0001FFFFFFFFC0007F0001FFFFFFFFC0007FF0003FFFFFF
310
FFFF80000000007FF000FE0000000000FFFFE0003F00078007F0003FFF80007F
310
FE0000000001FFFFE0000000001FFFF80FFFFFFFFFFFFFC07FFFFFF0001FFFFF
310
F0001FFFFFFFFC0007F0001FFFFFFFFC0007FF0003FFFFFFFFFF0000000000FF
310
F000FC0000000003FFFFE0007F00078007F0003FFF80007FFC0000000007FFFF
310
C0000000007FFFF80FFFFFFFFFFFFFC07FFFFFF0001FFFFFF8001FFFFFFFFC00
310
0FF8001FFFFFFFFC000FFF0003FFFFFFFFFE0000000003FFF000FC000000000F
310
FFFFE0007F80070007F8001FFF80007FF8000000001FFFFF8000000001FFFFF8
310
0FFFFFFFFFFFFFC07FFFFFF0001FFFFFF8001FFFFFFFFC000FF8001FFFFFFFFC
310
000FFF0003FFFFFFFFFC000000000FFFF000F8000000007FFFFFE0007F800700
310
07F8001FFF80007FF000000000FFFFFF800000000FFFFFF80FFFFFFFFFFFFFC0
310
7FFFFFF0001FFFFFF8000FFFFFFFF8000FF8000FFFFFFFF8000FFF0003FFFFFF
310
FFFC000000007FFFF000F800000007FFFFFFC0007F8003000FF8001FFF80007F
310
F000000007FFFFFF000000007FFFFFF80FFFFFFFFFFFFFC07FFFFFF0001FFFFF
310
F8000FFFFFFFF8000FF8000FFFFFFFF8000FFF0003FFFFFFFFF80000000FFFFF
310
F000F0000000FFFFFFFFC000FF8003000FF8001FFF80007FE0000000FFFFFFFF
310
0000000FFFFFFFF8000001FFFE0000007FFFFFF0001FFFFFF8000FFFFFFFF800
310
0FF8000FFFFFFFF8000FFF0003FFFFFFFFF8000000FFFFFFF000F000000FFFFF
310
FFFFC000FFC002000FF8000FFF80007FE000001FFFFFFFFE000001FFFFFFFFF8
310
000001FFFE0000007FFFFFF0001FFFFFF8000FFFFFFFF8000FF8000FFFFFFFF8
310
000FFF0003FFFFFFFFF000001FFFFFFFF000E00000FFFFFFFFFFC000FFC00200
310
0FFC000FFF80007FE00001FFFFFFFFFE00001FFFFFFFFFF8000001FFFE000000
310
7FFFFFF0001FFFFFFC000FFFFFFFF8001FFC000FFFFFFFF8001FFF0003FFFFFF
310
FFF00001FFFFFFFFF000E00007FFFFFFFFFF8000FFC000001FFC000FFF80007F
310
C0000FFFFFFFFFFE0000FFFFFFFFFFF8000001FFFE0000007FFFFFF0001FFFFF
310
FC0007FFFFFFF0001FFC0007FFFFFFF0001FFF0003FFFFFFFFF00007FFFFFFFF
310
F000E0001FFFFFFFFFFF8000FFC000001FFC000FFF80007FC0003FFFFFFFFFFE
310
0001FFFFFFFFFFF8000001FFFE0000007FFFFFF0001FFFFFFC0007FFFFFFF000
310
1FFC0007FFFFFFF0001FFF0003FFFFFFFFF0001FFFFFFFFFF000E0003FFFFF00
310
03FF8001FFE000001FFC0007FF80007FC0007FFFFF0007FC0003FFFFF0003FF8
310
000001FFFE0000007FFFFFF0001FFFFFFC0003FFFFFFE0001FFC0003FFFFFFE0
310
001FFF0003FFFFFFFFF0003FFFFFFFFFF000E0003FFFFF0001FF8001FFE00000
310
1FFE0007FF80007FC0007FFFFE0003FC0007FFFFE0003FF8000001FFFE000000
310
7FFFFFF0001FFFFFFE0003FFFFFFE0003FFE0003FFFFFFE0003FFF0003FFFFFF
310
FFF0003FFFFF8001F000E0003FFFFF0001FF0001FFE000001FFE0007FF80007F
310
C0007FFFFE0003FC0007FFFFE0003FF8000001FFFE0000007FFFFFF0001FFFFF
310
FE0001FFFFFFC0003FFE0001FFFFFFC0003FFF0003FFFFFFFFF0003FFFFF0001
310
F000E0003FFFFF0003FF0001FFE000003FFE0007FF80007FC0007FFFFE0003FC
310
0007FFFFE0003FF8000001FFFE0000007FFFFFF0001FFFFFFF0001FFFFFFC000
310
7FFF0001FFFFFFC0007FFF0003FFFFFFFFF0003FFFFF0001F000E0003FFFFE00
310
03FF0003FFF000003FFE0003FF80007FC0007FFFFC0003FE0007FFFFE0003FF8
310
000001FFFE0000007FFFFFF0001FFFFFFF0000FFFFFF80007FFF0000FFFFFF80
310
007FFF0003FFFFFFFFF0003FFFFF0001F000E0003FFFFE0003FF0003FFF00000
310
3FFF0003FF80007FC0007FFFFC0007FE0007FFFFC0003FF8000001FFFE000000
310
7FFFFFF0001FFFFFFF80007FFFFF0000FFFF80007FFFFF0000FFFF0003FFFFFF
310
FFF0003FFFFF0003F000E0003FFFFC0003FE0003FFF000003FFF0003FF80007F
310
E0003FFFF80007FE0003FFFFC0007FF8000001FFFE0000007FFFFFF0001FFFFF
310
FF80003FFFFE0000FFFF80003FFFFE0000FFFF0003FFFFFFFFF0001FFFFE0003
310
F000F0001FFFF80003FE0003FFF000007FFF0001FF80007FE0003FFFF00007FE
310
0001FFFF80007FF8000001FFFE0000007FFFFFF0001FFFFFFFC0000FFFF80001
310
FFFFC0000FFFF80001FFFF0003FFFFFFFFF0001FFFFC0003F000F0000FFFF000
310
07FE0007FFF800007FFF0001FF80007FE0001FFFE00007FF0000FFFE00007FF8
310
000001FFFE0000007FFFFFF0001FFFFFFFC00003FFE00001FFFFC00003FFE000
310
01FFFF0003FFFFFFFFF8000FFFF80003F000F00003FFC00007FC0007FFF80000
310
7FFF8001FF80007FF00007FF80000FFF00007FF80000FFF8000001FFFE000000
310
7F80000000000001FFE000003E000003FFFFE000003E000003FFFF0003FFFFFF
310
FFF80003FFE00007F000F800000000000FFC0007FFF800007FFF8001FF80007F
310
F000000000000FFF000000000000FFF8000001FFFE0000007F80000000000001
310
FFF0000000000007FFFFF0000000000007FFFF0003FFFFFFFFFC00007E000007
310
F000F800000000000FFC0007FFF80000FFFF8000FF80007FF800000000001FFF
310
800000000001FFF8000001FFFE0000007F80000000000001FFF800000000000F
310
FFFFF800000000000FFFFF0003FFFFFFFFFC00000000000FF000FC0000000000
310
1FFC0007FFFC0000FFFF8000FF80007FF800000000003FFFC00000000001FFF8
310
000001FFFE0000007F80000000000001FFF800000000000FFFFFF80000000000
310
0FFFFF0003FFFFFFFFFE00000000001FF000FE00000000003FF8000FFFFC0000
310
FFFF8000FF80007FFC00000000003FFFC00000000003FFF8000001FFFE000000
310
7F80000000000001FFFC00000000001FFFFFFC00000000001FFFFF0003FFFFFF
310
FFFF00000000001FF000FF00000000003FF8000FFFFC0000FFFFC000FF80007F
310
FE00000000007FFFE00000000007FFF8000001FFFE0000007F80000000000001
310
FFFE00000000003FFFFFFE00000000003FFFFF0003FFFFFFFFFF80000000003F
310
F000FF80000000007FF8000FFFFC0001FFFFC0007F80007FFF0000000000FFFF
310
F0000000000FFFF800000000000000007F80000000000001FFFF8000000000FF
310
FFFFFF8000000000FFFFFF0003FFFFFFFFFFC0000000007FF000FFC000000000
310
FFF8000FFFFE0001FFFFC0007F80007FFF8000000001FFFFF8000000001FFFF8
310
00000000000000007F80000000000001FFFFC000000001FFFFFFFFC000000001
310
FFFFFF0003FFFFFFFFFFE000000000FFF000FFE000000003FFF0001FFFFE0001
310
FFFFC0007F80007FFFC000000007FFFFFE000000003FFFF80000000000000000
310
7F80000000000001FFFFE000000003FFFFFFFFE000000003FFFFFF0003FFFFFF
310
FFFFF000000003FFF000FFF80000000FFFF0001FFFFE0001FFFFE0007F80007F
310
FFF00000000FFFFFFF00000000FFFFF800000000000000007F80000000000001
310
FFFFF80000000FFFFFFFFFF80000000FFFFFFF0003FFFFFFFFFFFC0000000FFF
310
F000FFFE0000003FFFF0001FFFFE0003FFFFE0003F80007FFFFC0000003FFFFF
310
FFC0000003FFFFF800000000000000007F80000000000001FFFFFE0000003FFF
310
FFFFFFFE0000003FFFFFFF0003FFFFFFFFFFFF0000003FFFF000FFFF800000FF
310
FFF0001FFFFF0003FFFFE0003F80007FFFFF000001FFFFFFFFF800001FFFFFF8
310
00000000000000007F80000000000001FFFFFFC00001FFFFFFFFFFFFC00001FF
310
FFFFFF0003FFFFFFFFFFFFC00000FFFFF000FFFFF8000FFFFFFFFFFFFFFFFFFF
310
FFFFFFFFFFFFFFFFFFFFF0001FFFFFFFFFFF0000FFFFFFF80000000000000000
310
7FFFFFFFFFFFFFFFFFFFFFFC001FFFFFFFFFFFFFFC001FFFFFFFFFFFFFFFFFFF
310
FFFFFFFC001FFFFFF000FFFFFFFFFFFFFFFFFFFFFFFFFFFFFFFFFFFFFFFFFFFF
310
FFFFFFFFFFFFFFFFFFFFFFFFFFFFFFFFFFFFFFFFFFFFFFFFFFFFFFFFFFFFFFFF
310
FFFFFFFFFFFFFFFFFFFFFFFFFFFFFFFFFFFFFFFFFFFFFFFFFFFFFFFFFFFFFFFF
310
F000FFFFFFFFFFFFFFFFFFFFFFFFFFFFFFFFFFFFFFFFFFFFFFFFFFFFFFFFFFFF
310
FFFFFFFFFFFFFFFFFFFFFFFFFFFFFFFFFFFFFFFFFFFFFFFFFFFFFFFFFFFFFFFF
310
FFFFFFFFFFFFFFFFFFFFFFFFFFFFFFFFFFFFFFFFFFFFFFFFF000FFFFFFFFFFFF
310
FFFFFFFFFFFFFFFFFFFFFFFFFFFFFFFFFFFFFFFFFFFFFFFFFFFFFFFFFFFFFFFF
310
FFFFFFFFFFFFFFFFFFFFFFFFFFFFFFFFFFFFFFFFFFFFFFFFFFFFFFFFFFFFFFFF
310
FFFFFFFFFFFFFFFFFFFFFFFFFFFFFFFFF000FFFFFFFFFFFFFFFFFFFFFFFFFFFF
310
FFFFFFFFFFFFFFFFFFFFFFFFFFFFFFFFFFFFFFFFFFFFFFFFFFFFFFFFFFFFFFFF
310
FFFFFFFFFFFFFFFFFFFFFFFFFFFFFFFFFFFFFFFFFFFFFFFFFFFFFFFFFFFFFFFF
310
FFFFFFFFFFFFFFFFF000FFFFFFFFFFFFFFFFFFFFFFFFFFFFFFFFFFFFFFFFFFFF
310
FFFFFFFFFFFFFFFFFFFFFFFFFFFFFFFFFFFFFFFFFFFFFFFFFFFFFFFFFFFFFFFF
310
FFFFFFFFFFFFFFFFFFFFFFFFFFFFFFFFFFFFFFFFFFFFFFFFFFFFFFFFFFFFFFFF
310
F000FFFFFFFFFFFFFFFFFFFFFFFFFFFFFFFFFFFFFFFFFFFFFFFFFFFFFFFFFFFF
310
FFFFFFFFFFFFFFFFFFFFFFFFFFFFFFFFFFFFFFFFFFFFFFFFFFFFFFFFFFFFFFFF
310
FFFFFFFFFFFFFFFFFFFFFFFFFFFFFFFFFFFFFFFFFFFFFFFFF000FFFFFFFFFFFF
310
FFFFFFFFFFFFFFFFFFFFFFFFFFFFFFFFFFFFFFFFFFFFFFFFFFFFFFFFFFFFFFFF
310
FFFFFFFFFFFFFFFFFFFFFFFFFFFFFFFFFFFFFFFFFFFFFFFFFFFFFFFFFFFFFFFF
310
FFFFFFFFFFFFFFFFFFFFFFFFFFFFFFFFF000FFFFFFFFFFFFFFFFFFFFFFFFFFFF
310
FFFFFFFFFFFFFFFFFFFFFFFFFFFFFFFFFFFFFFFFFFFFFFFFFFFFFFFFFFFFFFFF
310
FFFFFFFFFFFFFFFFFFFFFFFFFFFFFFFFFFFFFFFFFFFFFFFFFFFFFFFFFFFFFFFF
310
FFFFFFFFFFFFFFFFF000FFFFFFFFFFFFFFFFFFFFFFFFFFFFFFFFFFFFFFFFFFFF
310
FFFFFFFFFFFFFFFFFFFFFFFFFFFFFFFFFFFFFFFFFFFFFFFFFFFFFFFFFFFFFFFF
310
FFFFFFFFFFFFFFFFFFFFFFFFFFFFFFFFFFFFFFFFFFFFFFFFFFFFFFFFFFFFFFFF
310
F000FFFFFFFFFFFFFFFFFFFFFFFFFFFFFFFFFFFFFFFFFFFFFFFFFFFFFFFFFFFF
310
FFFFFFFFFFFFFFFFFFFFFFFFFFFFFFFFFFFFFFFFFFFFFFFFFFFFFFFFFFFFFFFF
310
FFFFFFFFFFFFFFFFFFFFFFFFFFFFFFFFFFFFFFFFFFFFFFFFF000FFFFFFFFFFFF
310
FFFFFFFFFFFFFFFFFFFFFFFFFFFFFFFFFFFFFFFFFFFFFFFFFFFFFFFFFFFFFFFF
310
FFFFFFFFFFFFFFFFFFFFFFFFFFFFFFFFFFFFFFFFFFFFFFFFFFFFFFFFFFFFFFFF
310
FFFFFFFFFFFFFFFFFFFFFFFFFFFFFFFFF000FFFFFFFFFFFFFFFFFFFFFFFFFFFF
310
FFFFFFFFFFFFFFFFFFFFFFFFFFFFFFFFFFFFFFFFFFFFFFFFFFFFFFFFFFFFFFFF
310
FFFFFFFFFFFFFFFFFFFFFFFFFFFFFFFFFFFFFFFFFFFFFFFFFFFFFFFFFFFFFFFF
310
FFFFFFFFFFFFFFFFF000FFFFFFFFFFFFFFFFFFFFFFFFFFFFFFFFFFFFFFFFFFFF
310
FFFFFFFFFFFFFFFFFFFFFFFFFFFFFFFFFFFFFFFFFFFFFFFFFFFFFFFFFFFFFFFF
310
FFFFFFFFFFFFFFFFFFFFFFFFFFFFFFFFFFFFFFFFFFFFFFFFFFFFFFFFFFFFFFFF
310
F000FFFFFFFFFFFFFFFFFFFFFFFFFFFFFFFFFFFFFFFFFFFFFFFFFFFFFFFFFFFF
310
FFFFFFFFFFFFFFFFFFFFFFFFFFFFFFFFFFFFFFFFFFFFFFFFFFFFFFFFFFFFFFFF
310
FFFFFFFFFFFFFFFFFFFFFFFFFFFFFFFFFFFFFFFFFFFFFFFFF000FFFFFFFFFFFF
310
FFFFFFFFFFFFFFFFFFFFFFFFFFFFFFFFFFFFFFFFFFFFFFFFFFFFFFFFFFFFFFFF
310
FFFFFFFFFFFFFFFFFFFFFFFFFFFFFFFFFFFFFFFFFFFFFFFFFFFFFFFFFFFFFFFF
310
FFFFFFFFFFFFFFFFFFFFFFFFFFFFFFFFF000FFFFFFFFFFFFFFFFFFFFFFFFFFFF
310
FFFFFFFFFFFFFFFFFFFFFFFFFFFFFFFFFFFFFFFFFFFFFFFFFFFFFFFFFFFFFFFF
310
FFFFFFFFFFFFFFFFFFFFFFFFFFFFFFFFFFFFFFFFFFFFFFFFFFFFFFFFFFFFFFFF
310
FFFFFFFFFFFFFFFFF000FFFFFFFFFFFFFFFFFFFFFFFFFFFFFFFFFFFFFFFFFFFF
310
FFFFFFFFFFFFFFFFFFFFFFFFFFFFFFFFFFFFFFFFFFFFFFFFFFFFFFFFFFFFFFFF
310
FFFFFFFFFFFFFFFFFFFFFFFFFFFFFFFFFFFFFFFFFFFFFFFFFFFFFFFFFFFFFFFF
310
F000FFFFFFFFFFFFFFFFFFFFFFFFFFFFFFFFFFFFFFFFFFFFFFFFFFFFFFFFFFFF
310
FFFFFFFFFFFFFFFFFFFFFFFFFFFFFFFFFFFFFFFFFFFFFFFFFFFFFFFFFFFFFFFF
310
FFFFFFFFFFFFFFFFFFFFFFFFFFFFFFFFFFFFFFFFFFFFFFFFF000FFFFFFFFFFFF
310
FFFFFFFFFFFFFFFFFFFFFFFFFFFFFFFFFFFFFFFFFFFFFFFFFFFFFFFFFFFFFFFF
310
FFFFFFFFFFFFFFFFFFFFFFFFFFFFFFFFFFFFFFFFFFFFFFFFFFFFFFFFFFFFFFFF
310
FFFFFFFFFFFFFFFFFFFFFFFFFFFFFFFFF000FFFFFFFFFFFFFFFFFFFFFFFFFFFF
310
FFFFFFFFFFFFFFFFFFFFFFFFFFFFFFFFFFFFFFFFFFFFFFFFFFFFFFFFFFFFFFFF
310
FFFFFFFFFFFFFFFFFFFFFFFFFFFFFFFFFFFFFFFFFFFFFFFFFFFFFFFFFFFFFFFF
310
FFFFFFFFFFFFFFFFF000FFFFFFFFFFFFFFFFFFFFFFFFFFFFFFFFFFFFFFFFFFFF
310
FFFFFFFFFFFFFFFFFFFFFFFFFFFFFFFFFFFFFFFFFFFFFFFFFFFFFFFFFFFFFFFF
310
FFFFFFFFFFFFFFFFFFFFFFFFFFFFFFFFFFFFFFFFFFFFFFFFFFFFFFFFFFFFFFFF
310
F000FFFFFFFFFFFFFFFFFFFFFFFFFFFFFFFFFFFFFFFFFFFFFFFFFFFFFFFFFFFF
310
FFFFFFFFFFFFFFFFFFFFFFFFFFFFFFFFFFFFFFFFFFFFFFFFFFFFFFFFFFFFFFFF
310
FFFFFFFFFFFFFFFFFFFFFFFFFFFFFFFFFFFFFFFFFFFFFFFFF000FFFFFFFFFFFF
310
FFFFFFFFFFFFFFFFFFFFFFFFFFFFFFFFFFFFFFFFFFFFFFFFFFFFFFFFFFFFFFFF
310
FFFFFFFFFFFFFFFFFFFFFFFFFFFFFFFFFFFFFFFFFFFFFFFFFFFFFFFFFFFFFFFF
310
FFFFFFFFFFFFFFFFFFFFFFFFFFFFFFFFF0000000000000000000000000000000
310
0000000000000000000000000000000000000000000000000000000000000000
310
0000000000000000000000000000000000000000000000000000000000000000
310
0000000000000000000000000000000000000000000000000000000000000000
310
0000000000000000000000000000000000000000000000000000000000000000
310
0000000000000000000000000000000000000000000000000000000000000000
310
0000000000000000000000000000000000000000000000000000000000000000
310
0000000000000000000000000000000000000000000000000000000000000000
310
0000000000000000000000000000000000000000000000000000000000000000
310
0000000000000000000000000000000000000000000000000000000000000000
310
0000000000000000000000000000000000000000000000000000000000000000
310
0000000000000000000000000000000000000000000000000000000000000000
310
0000000000000000000000000000000000000000000000000000000000000000
310
0000000000000000000000000000000000000000000000000000000000000000
310
0000000000000000000000000000000000000000000000000000000000000000
310
0000000000000000000000000000000000000000000000000000000000000000
  1
OLE
  0
ENDSEC
  0
SECTION
  2
OBJECTS
  0
DICTIONARY
  5
C
330
0
100
AcDbDictionary
281
     1
  3
ACAD_GROUP
350
D
  3
ACAD_LAYOUT
350
1A
  3
ACAD_MLINESTYLE
350
17
  3
ACAD_PLOTSETTINGS
350
19
  3
ACAD_PLOTSTYLENAME
350
E
  0
DICTIONARY
  5
D
102
{ACAD_REACTORS
330
C
102
}
330
C
100
AcDbDictionary
281
     1
  0
DICTIONARY
  5
1A
102
{ACAD_REACTORS
330
C
102
}
330
C
100
AcDbDictionary
281
     1
  3
Layout1
350
1E
  3
Layout2
350
26
  3
Model
350
22
  0
DICTIONARY
  5
17
102
{ACAD_REACTORS
330
C
102
}
330
C
100
AcDbDictionary
281
     1
  3
Standard
350
18
  0
DICTIONARY
  5
19
102
{ACAD_REACTORS
330
C
102
}
330
C
100
AcDbDictionary
281
     1
  0
ACDBDICTIONARYWDFLT
  5
E
102
{ACAD_REACTORS
330
C
102
}
330
C
100
AcDbDictionary
281
     1
  3
Normal
350
F
100
AcDbDictionaryWithDefault
340
F
  0
LAYOUT
  5
1E
102
{ACAD_REACTORS
330
1A
102
}
330
1A
100
AcDbPlotSettings
  1

  2
none_device
  4

  6

 40
0.0
 41
0.0
 42
0.0
 43
0.0
 44
0.0
 45
0.0
 46
0.0
 47
0.0
 48
0.0
 49
0.0
140
0.0
141
0.0
142
1.0
143
1.0
 70
   688
 72
     0
 73
     0
 74
     5
  7

 75
    16
147
1.0
148
0.0
149
0.0
100
AcDbLayout
  1
Layout1
 70
     1
 71
     1
 10
0.0
 20
0.0
 11
420.0
 21
297.0
 12
0.0
 22
0.0
 32
0.0
 14
1.0000000000E+20
 24
1.0000000000E+20
 34
1.0000000000E+20
 15
-1.0000000000E+20
 25
-1.0000000000E+20
 35
-1.0000000000E+20
146
0.0
 13
0.0
 23
0.0
 33
0.0
 16
1.0
 26
0.0
 36
0.0
 17
0.0
 27
1.0
 37
0.0
 76
     0
330
1B
  0
LAYOUT
  5
26
102
{ACAD_REACTORS
330
1A
102
}
330
1A
100
AcDbPlotSettings
  1

  2
none_device
  4

  6

 40
0.0
 41
0.0
 42
0.0
 43
0.0
 44
0.0
 45
0.0
 46
0.0
 47
0.0
 48
0.0
 49
0.0
140
0.0
141
0.0
142
1.0
143
1.0
 70
   688
 72
     0
 73
     0
 74
     5
  7

 75
    16
147
1.0
148
0.0
149
0.0
100
AcDbLayout
  1
Layout2
 70
     1
 71
     2
 10
0.0
 20
0.0
 11
0.0
 21
0.0
 12
0.0
 22
0.0
 32
0.0
 14
0.0
 24
0.0
 34
0.0
 15
0.0
 25
0.0
 35
0.0
146
0.0
 13
0.0
 23
0.0
 33
0.0
 16
1.0
 26
0.0
 36
0.0
 17
0.0
 27
1.0
 37
0.0
 76
     0
330
23
  0
LAYOUT
  5
22
102
{ACAD_REACTORS
330
1A
102
}
330
1A
100
AcDbPlotSettings
  1

  2
none_device
  4

  6

 40
0.0
 41
0.0
 42
0.0
 43
0.0
 44
0.0
 45
0.0
 46
0.0
 47
0.0
 48
0.0
 49
0.0
140
0.0
141
0.0
142
1.0
143
1.0
 70
  1712
 72
     0
 73
     0
 74
     0
  7

 75
     0
147
1.0
148
0.0
149
0.0
100
AcDbLayout
  1
Model
 70
     1
 71
     0
 10
0.0
 20
0.0
 11
297.0
 21
210.0
 12
0.0
 22
0.0
 32
0.0
 14
0.0
 24
0.0
 34
0.0
 15
297.0
 25
210.0
 35
0.0
146
0.0
 13
0.0
 23
0.0
 33
0.0
 16
1.0
 26
0.0
 36
0.0
 17
0.0
 27
1.0
 37
0.0
 76
     0
330
1F
331
29
  0
MLINESTYLE
  5
18
102
{ACAD_REACTORS
330
17
102
}
330
17
100
AcDbMlineStyle
  2
Standard
 70
     0
  3

 62
   256
 51
90.0
 52
90.0
 71
     2
 49
0.5
 62
   256
  6
BYLAYER
 49
-0.5
 62
   256
  6
BYLAYER
  0
ACDBPLACEHOLDER
  5
F
102
{ACAD_REACTORS
330
E
102
}
330
E
  0
ENDSEC
  0
EOF
