  0
SECTION
  2
HEADER
  9
$ACADVER
  1
AC1015
  9
$ACADMAINTVER
 70
     6
  9
$DWGCODEPAGE
  3
ANSI_1252
  9
$INSBASE
 10
0.0
 20
0.0
 30
0.0
  9
$EXTMIN
 10
0.0
 20
0.0
 30
0.0
  9
$EXTMAX
 10
297.0
 20
210.0
 30
0.0
  9
$LIMMIN
 10
0.0
 20
0.0
  9
$LIMMAX
 10
297.0
 20
210.0
  9
$ORTHOMODE
 70
     0
  9
$REGENMODE
 70
     1
  9
$FILLMODE
 70
     1
  9
$QTEXTMODE
 70
     0
  9
$MIRRTEXT
 70
     1
  9
$LTSCALE
 40
1.0
  9
$ATTMODE
 70
     1
  9
$TEXTSIZE
 40
2.0
  9
$TRACEWID
 40
1.0
  9
$TEXTSTYLE
  7
Standard
  9
$CLAYER
  8
0
  9
$CELTYPE
  6
ByLayer
  9
$CECOLOR
 62
   256
  9
$CELTSCALE
 40
1.0
  9
$DISPSILH
 70
     0
  9
$DIMSCALE
 40
1.0
  9
$DIMASZ
 40
3.0
  9
$DIMEXO
 40
0.0
  9
$DIMDLI
 40
3.75
  9
$DIMRND
 40
0.0
  9
$DIMDLE
 40
0.0
  9
$DIMEXE
 40
1.0
  9
$DIMTP
 40
0.0
  9
$DIMTM
 40
0.0
  9
$DIMTXT
 40
2.0
  9
$DIMCEN
 40
2.5
  9
$DIMTSZ
 40
0.0
  9
$DIMTOL
 70
     0
  9
$DIMLIM
 70
     0
  9
$DIMTIH
 70
     1
  9
$DIMTOH
 70
     1
  9
$DIMSE1
 70
     0
  9
$DIMSE2
 70
     0
  9
$DIMTAD
 70
     1
  9
$DIMZIN
 70
     0
  9
$DIMBLK
  1

  9
$DIMASO
 70
     1
  9
$DIMSHO
 70
     1
  9
$DIMPOST
  1

  9
$DIMAPOST
  1

  9
$DIMALT
 70
     0
  9
$DIMALTD
 70
     3
  9
$DIMALTF
 40
0.0393700787
  9
$DIMLFAC
 40
1.0
  9
$DIMTOFL
 70
     1
  9
$DIMTVP
 40
0.0
  9
$DIMTIX
 70
     0
  9
$DIMSOXD
 70
     0
  9
$DIMSAH
 70
     0
  9
$DIMBLK1
  1

  9
$DIMBLK2
  1

  9
$DIMSTYLE
  2
ISO-25
  9
$DIMCLRD
 70
     0
  9
$DIMCLRE
 70
     0
  9
$DIMCLRT
 70
     0
  9
$DIMTFAC
 40
1.0
  9
$DIMGAP
 40
1.524
  9
$DIMJUST
 70
     0
  9
$DIMSD1
 70
     0
  9
$DIMSD2
 70
     0
  9
$DIMTOLJ
 70
     0
  9
$DIMTZIN
 70
     0
  9
$DIMALTZ
 70
     0
  9
$DIMALTTZ
 70
     0
  9
$DIMUPT
 70
     0
  9
$DIMDEC
 70
     2
  9
$DIMTDEC
 70
     3
  9
$DIMALTU
 70
     2
  9
$DIMALTTD
 70
     3
  9
$DIMTXSTY
  7
Standard
  9
$DIMAUNIT
 70
     0
  9
$DIMADEC
 70
     2
  9
$DIMALTRND
 40
0.0
  9
$DIMAZIN
 70
     0
  9
$DIMDSEP
 70
    44
  9
$DIMATFIT
 70
     3
  9
$DIMFRAC
 70
     0
  9
$DIMLDRBLK
  1

  9
$DIMLUNIT
 70
     2
  9
$DIMLWD
 70
    -2
  9
$DIMLWE
 70
    -2
  9
$DIMTMOVE
 70
     0
  9
$LUNITS
 70
     2
  9
$LUPREC
 70
     2
  9
$SKETCHINC
 40
1.0
  9
$FILLETRAD
 40
10.0
  9
$AUNITS
 70
     0
  9
$AUPREC
 70
     2
  9
$MENU
  1
.
  9
$ELEVATION
 40
0.0
  9
$PELEVATION
 40
0.0
  9
$THICKNESS
 40
0.0
  9
$LIMCHECK
 70
     0
  9
$CHAMFERA
 40
10.0
  9
$CHAMFERB
 40
10.0
  9
$CHAMFERC
 40
20.0
  9
$CHAMFERD
 40
0.0
  9
$SKPOLY
 70
     0
  9
$TDCREATE
 40
2456098.401893842
  9
$TDUCREATE
 40
2456098.318560509
  9
$TDUPDATE
 40
2456098.401895289
  9
$TDUUPDATE
 40
2456098.318561956
  9
$TDINDWG
 40
0.0000000116
  9
$TDUSRTIMER
 40
0.0000000116
  9
$USRTIMER
 70
     1
  9
$ANGBASE
 50
0.0
  9
$ANGDIR
 70
     0
  9
$PDMODE
 70
     0
  9
$PDSIZE
 40
-1.0
  9
$PLINEWID
 40
0.0
  9
$SPLFRAME
 70
     0
  9
$SPLINETYPE
 70
     6
  9
$SPLINESEGS
 70
     8
  9
$HANDSEED
  5
25C
  9
$SURFTAB1
 70
     6
  9
$SURFTAB2
 70
     6
  9
$SURFTYPE
 70
     6
  9
$SURFU
 70
     6
  9
$SURFV
 70
     6
  9
$UCSBASE
  2

  9
$UCSNAME
  2

  9
$UCSORG
 10
0.0
 20
0.0
 30
0.0
  9
$UCSXDIR
 10
1.0
 20
0.0
 30
0.0
  9
$UCSYDIR
 10
0.0
 20
1.0
 30
0.0
  9
$UCSORTHOREF
  2

  9
$UCSORTHOVIEW
 70
     0
  9
$UCSORGTOP
 10
0.0
 20
0.0
 30
0.0
  9
$UCSORGBOTTOM
 10
0.0
 20
0.0
 30
0.0
  9
$UCSORGLEFT
 10
0.0
 20
0.0
 30
0.0
  9
$UCSORGRIGHT
 10
0.0
 20
0.0
 30
0.0
  9
$UCSORGFRONT
 10
0.0
 20
0.0
 30
0.0
  9
$UCSORGBACK
 10
0.0
 20
0.0
 30
0.0
  9
$PUCSBASE
  2

  9
$PUCSNAME
  2

  9
$PUCSORG
 10
0.0
 20
0.0
 30
0.0
  9
$PUCSXDIR
 10
1.0
 20
0.0
 30
0.0
  9
$PUCSYDIR
 10
0.0
 20
1.0
 30
0.0
  9
$PUCSORTHOREF
  2

  9
$PUCSORTHOVIEW
 70
     0
  9
$PUCSORGTOP
 10
0.0
 20
0.0
 30
0.0
  9
$PUCSORGBOTTOM
 10
0.0
 20
0.0
 30
0.0
  9
$PUCSORGLEFT
 10
0.0
 20
0.0
 30
0.0
  9
$PUCSORGRIGHT
 10
0.0
 20
0.0
 30
0.0
  9
$PUCSORGFRONT
 10
0.0
 20
0.0
 30
0.0
  9
$PUCSORGBACK
 10
0.0
 20
0.0
 30
0.0
  9
$USERI1
 70
     0
  9
$USERI2
 70
     0
  9
$USERI3
 70
     0
  9
$USERI4
 70
     0
  9
$USERI5
 70
     0
  9
$USERR1
 40
0.0
  9
$USERR2
 40
0.0
  9
$USERR3
 40
0.0
  9
$USERR4
 40
0.0
  9
$USERR5
 40
0.0
  9
$WORLDVIEW
 70
     1
  9
$SHADEDGE
 70
     3
  9
$SHADEDIF
 70
    70
  9
$TILEMODE
 70
     1
  9
$MAXACTVP
 70
    64
  9
$PINSBASE
 10
0.0
 20
0.0
 30
0.0
  9
$PLIMCHECK
 70
     0
  9
$PEXTMIN
 10
1.0000000000E+20
 20
1.0000000000E+20
 30
1.0000000000E+20
  9
$PEXTMAX
 10
-1.0000000000E+20
 20
-1.0000000000E+20
 30
-1.0000000000E+20
  9
$PLIMMIN
 10
0.0
 20
0.0
  9
$PLIMMAX
 10
420.0
 20
297.0
  9
$UNITMODE
 70
     0
  9
$VISRETAIN
 70
     1
  9
$PLINEGEN
 70
     0
  9
$PSLTSCALE
 70
     1
  9
$TREEDEPTH
 70
  3020
  9
$CMLSTYLE
  2
Standard
  9
$CMLJUST
 70
     0
  9
$CMLSCALE
 40
20.0
  9
$PROXYGRAPHICS
 70
     1
  9
$MEASUREMENT
 70
     1
  9
$CELWEIGHT
370
    -1
  9
$ENDCAPS
280
     0
  9
$JOINSTYLE
280
     0
  9
$LWDISPLAY
290
     1
  9
$INSUNITS
 70
     4
  9
$HYPERLINKBASE
  1

  9
$STYLESHEET
  1

  9
$XEDIT
290
     1
  9
$CEPSNTYPE
380
     0
  9
$PSTYLEMODE
290
     1
  9
$FINGERPRINTGUID
  2
{8B9C21E8-4F27-46D8-BA5F-9CA46AC14D34}
  9
$VERSIONGUID
  2
{FAEB1C32-E019-11D5-929B-00C0DF256EC4}
  9
$EXTNAMES
290
     1
  9
$PSVPSCALE
 40
0.0
  9
$OLESTARTUP
290
     0
  0
ENDSEC
  0
SECTION
  2
CLASSES
  0
CLASS
  1
ACDBDICTIONARYWDFLT
  2
AcDbDictionaryWithDefault
  3
ObjectDBX Classes
 90
        0
280
     0
281
     0
  0
CLASS
  1
VISUALSTYLE
  2
AcDbVisualStyle
  3
ObjectDBX Classes
 90
     4095
280
     0
281
     0
  0
CLASS
  1
MATERIAL
  2
AcDbMaterial
  3
ObjectDBX Classes
 90
     1153
280
     0
281
     0
  0
CLASS
  1
ACDBPLACEHOLDER
  2
AcDbPlaceHolder
  3
ObjectDBX Classes
 90
        0
280
     0
281
     0
  0
CLASS
  1
LAYOUT
  2
AcDbLayout
  3
ObjectDBX Classes
 90
        0
280
     0
281
     0
  0
ENDSEC
  0
SECTION
  2
TABLES
  0
TABLE
  2
VPORT
  5
8
330
0
100
AcDbSymbolTable
 70
     1
  0
VPORT
  5
29
330
8
100
AcDbSymbolTableRecord
100
AcDbViewportTableRecord
  2
*Active
 70
     0
 10
0.0
 20
0.0
 11
1.0
 21
1.0
 12
148.5
 22
105.0
 13
0.0
 23
0.0
 14
10.0
 24
10.0
 15
10.0
 25
10.0
 16
0.0
 26
0.0
 36
1.0
 17
0.0
 27
0.0
 37
0.0
 40
210.0
 41
1.4142857143
 42
50.0
 43
0.0
 44
0.0
 50
0.0
 51
0.0
 71
     0
 72
  2000
 73
     1
 74
     3
 75
     0
 76
     0
 77
     0
 78
     0
281
     0
 65
     1
110
0.0
120
0.0
130
0.0
111
1.0
121
0.0
131
0.0
112
0.0
122
1.0
132
0.0
 79
     0
146
0.0
  0
ENDTAB
  0
TABLE
  2
LTYPE
  5
5
330
0
100
AcDbSymbolTable
 70
     6
  0
LTYPE
  5
14
330
5
100
AcDbSymbolTableRecord
100
AcDbLinetypeTableRecord
  2
ByBlock
 70
     0
  3

 72
    65
 73
     0
 40
0.0
  0
LTYPE
  5
15
330
5
100
AcDbSymbolTableRecord
100
AcDbLinetypeTableRecord
  2
ByLayer
 70
     0
  3

 72
    65
 73
     0
 40
0.0
  0
LTYPE
  5
16
330
5
100
AcDbSymbolTableRecord
100
AcDbLinetypeTableRecord
  2
Continuous
 70
     0
  3
Solid line
 72
    65
 73
     0
 40
0.0
  0
LTYPE
  5
3F
330
5
100
AcDbSymbolTableRecord
100
AcDbLinetypeTableRecord
  2
HIDDEN
 70
     0
  3
Hidden __ __ __ __ __ __ __ __ __ __ __ __ __ __
 72
    65
 73
     2
 40
1.905
 49
1.27
 74
     0
 49
-0.635
 74
     0
  0
LTYPE
  5
40
330
5
100
AcDbSymbolTableRecord
100
AcDbLinetypeTableRecord
  2
PHANTOM
 70
     0
  3
Phantom ______  __  __  ______  __  __  ______
 72
    65
 73
     6
 40
12.7
 49
6.35
 74
     0
 49
-1.27
 74
     0
 49
1.27
 74
     0
 49
-1.27
 74
     0
 49
1.27
 74
     0
 49
-1.27
 74
     0
  0
LTYPE
  5
41
330
5
100
AcDbSymbolTableRecord
100
AcDbLinetypeTableRecord
  2
CENTER
 70
     0
  3
Center ____ _ ____ _ ____ _ ____ _ ____ _ ____
 72
    65
 73
     4
 40
10.16
 49
6.35
 74
     0
 49
-1.27
 74
     0
 49
1.27
 74
     0
 49
-1.27
 74
     0
  0
LTYPE
  5
42
330
5
100
AcDbSymbolTableRecord
100
AcDbLinetypeTableRecord
  2
CENTERX2
 70
     0
  3
Center (2x) ________  __  ________  __  _____
 72
    65
 73
     4
 40
20.32
 49
12.7
 74
     0
 49
-2.54
 74
     0
 49
2.54
 74
     0
 49
-2.54
 74
     0
  0
LTYPE
  5
43
330
5
100
AcDbSymbolTableRecord
100
AcDbLinetypeTableRecord
  2
DOT2
 70
     0
  3
Dot (.5x) ........................................
 72
    65
 73
     2
 40
0.635
 49
0.0
 74
     0
 49
-0.635
 74
     0
  0
ENDTAB
  0
TABLE
  2
LAYER
  5
2
330
0
100
AcDbSymbolTable
 70
     5
  0
LAYER
  5
10
330
2
100
AcDbSymbolTableRecord
100
AcDbLayerTableRecord
  2
0
 70
     0
 62
     7
  6
Continuous
370
    -3
390
F
  0
LAYER
  5
44
330
2
100
AcDbSymbolTableRecord
100
AcDbLayerTableRecord
  2
FORMAT
 70
     0
 62
     7
  6
Continuous
370
    -3
390
F
  0
LAYER
  5
45
330
2
100
AcDbSymbolTableRecord
100
AcDbLayerTableRecord
  2
VERMASSUNG
 70
     0
 62
     7
  6
Continuous
370
    -3
390
F
  0
LAYER
  5
46
330
2
100
AcDbSymbolTableRecord
100
AcDbLayerTableRecord
  2
KOPF_DÜNN
 70
     0
 62
     7
  6
Continuous
370
    -3
390
F
  0
LAYER
  5
47
330
2
100
AcDbSymbolTableRecord
100
AcDbLayerTableRecord
  2
KOPF_DICK
 70
     0
 62
     7
  6
Continuous
370
    15
390
F
  0
ENDTAB
  0
TABLE
  2
STYLE
  5
3
330
0
100
AcDbSymbolTable
 70
     3
  0
STYLE
  5
11
330
3
100
AcDbSymbolTableRecord
100
AcDbTextStyleTableRecord
  2
Standard
 70
     0
 40
0.0
 41
1.0
 50
0.0
 71
     0
 42
2.0
  3
txt
  4

  0
STYLE
  5
48
330
3
100
AcDbSymbolTableRecord
100
AcDbTextStyleTableRecord
  2
SLDTEXTSTYLE0
 70
     0
 40
0.0
 41
0.7
 50
0.0
 71
     0
 42
0.2
  3
TXT
  4

  0
STYLE
  5
4C
330
3
100
AcDbSymbolTableRecord
100
AcDbTextStyleTableRecord
  2
SLDTEXTSTYLE1
 70
     0
 40
0.0
 41
0.6538461538
 50
0.0
 71
     0
 42
0.2
  3
TXT
  4

  0
ENDTAB
  0
TABLE
  2
VIEW
  5
6
330
0
100
AcDbSymbolTable
 70
     0
  0
ENDTAB
  0
TABLE
  2
UCS
  5
7
330
0
100
AcDbSymbolTable
 70
     0
  0
ENDTAB
  0
TABLE
  2
APPID
  5
9
330
0
100
AcDbSymbolTable
 70
     1
  0
APPID
  5
12
330
9
100
AcDbSymbolTableRecord
100
AcDbRegAppTableRecord
  2
ACAD
 70
     0
  0
ENDTAB
  0
TABLE
  2
DIMSTYLE
  5
A
330
0
100
AcDbSymbolTable
 70
     2
100
AcDbDimStyleTable
  0
DIMSTYLE
105
27
330
A
100
AcDbSymbolTableRecord
100
AcDbDimStyleTableRecord
  2
ISO-25
 70
     0
 41
2.5
 42
0.625
 43
3.75
 44
1.25
 73
     0
 74
     0
 77
     1
 78
     8
140
2.5
141
2.5
143
0.0393700787
147
0.625
171
     3
172
     1
178
     0
271
     2
272
     2
274
     3
278
    44
283
     0
284
     8
340
11
  0
DIMSTYLE
105
18C
102
{ACAD_REACTORS
330
18B
330
197
330
1A3
330
1AD
330
1B7
102
}
330
A
100
AcDbSymbolTableRecord
100
AcDbDimStyleTableRecord
  2
SLDDIMSTYLE0
 70
     0
 41
3.0
 44
0.0
 45
0.000000001
 73
     0
 74
     0
 77
     1
 78
    12
 79
     3
140
2.0
147
0.5
173
     1
178
     0
271
     2
272
     3
276
     2
284
    12
340
48
  0
ENDTAB
  0
TABLE
  2
BLOCK_RECORD
  5
1
330
0
100
AcDbSymbolTable
 70
     7
  0
BLOCK_RECORD
  5
1F
330
1
100
AcDbSymbolTableRecord
100
AcDbBlockTableRecord
  2
*Model_Space
340
22
  0
BLOCK_RECORD
  5
1B
330
1
100
AcDbSymbolTableRecord
100
AcDbBlockTableRecord
  2
*Paper_Space
340
1E
  0
BLOCK_RECORD
  5
23
330
1
100
AcDbSymbolTableRecord
100
AcDbBlockTableRecord
  2
*Paper_Space0
340
26
  0
BLOCK_RECORD
  5
18D
330
1
100
AcDbSymbolTableRecord
100
AcDbBlockTableRecord
  2
_D
340
0
  0
BLOCK_RECORD
  5
198
330
1
100
AcDbSymbolTableRecord
100
AcDbBlockTableRecord
  2
_D_1
340
0
  0
BLOCK_RECORD
  5
1A4
330
1
100
AcDbSymbolTableRecord
100
AcDbBlockTableRecord
  2
_D_2
340
0
  0
BLOCK_RECORD
  5
1AE
330
1
100
AcDbSymbolTableRecord
100
AcDbBlockTableRecord
  2
_D_3
340
0
  0
BLOCK_RECORD
  5
1B8
330
1
100
AcDbSymbolTableRecord
100
AcDbBlockTableRecord
  2
_D_4
340
0
  0
BLOCK_RECORD
  5
24F
330
1
100
AcDbSymbolTableRecord
100
AcDbBlockTableRecord
  2
SW_CENTERMARKSYMBOL_0
340
0
102
{BLKREFS
331
25A
102
}
  0
ENDTAB
  0
ENDSEC
  0
SECTION
  2
BLOCKS
  0
BLOCK
  5
20
330
1F
100
AcDbEntity
  8
0
100
AcDbBlockBegin
  2
*Model_Space
 70
     0
 10
0.0
 20
0.0
 30
0.0
  3
*Model_Space
  1

  0
ENDBLK
  5
21
330
1F
100
AcDbEntity
  8
0
100
AcDbBlockEnd
  0
BLOCK
  5
1C
330
1B
100
AcDbEntity
 67
     1
  8
0
100
AcDbBlockBegin
  2
*Paper_Space
 70
     0
 10
0.0
 20
0.0
 30
0.0
  3
*Paper_Space
  1

  0
ENDBLK
  5
1D
330
1B
100
AcDbEntity
 67
     1
  8
0
100
AcDbBlockEnd
  0
BLOCK
  5
24
330
23
100
AcDbEntity
  8
0
100
AcDbBlockBegin
  2
*Paper_Space0
 70
     0
 10
0.0
 20
0.0
 30
0.0
  3
*Paper_Space0
  1

  0
ENDBLK
  5
25
330
23
100
AcDbEntity
  8
0
100
AcDbBlockEnd
  0
BLOCK
  5
18E
330
18D
100
AcDbEntity
  8
0
100
AcDbBlockBegin
  2
_D
 70
     0
 10
0.0
 20
0.0
 30
0.0
  3
_D
  1

  0
SOLID
  5
190
330
18D
100
AcDbEntity
  8
VERMASSUNG
100
AcDbTrace
 10
260.5376122996
 20
139.5286936521
 30
0.0
 11
260.0876122996
 21
136.5286936521
 31
0.0
 12
260.9876122996
 22
136.5286936521
 32
0.0
 13
260.9876122996
 23
136.5286936521
 33
0.0
  0
SOLID
  5
191
330
18D
100
AcDbEntity
  8
VERMASSUNG
100
AcDbTrace
 10
260.5376122996
 20
95.5286936521
 30
0.0
 11
260.9876122996
 21
98.5286936521
 31
0.0
 12
260.0876122996
 22
98.5286936521
 32
0.0
 13
260.0876122996
 23
98.5286936521
 33
0.0
  0
LINE
  5
192
330
18D
100
AcDbEntity
  8
VERMASSUNG
100
AcDbLine
 10
240.0591764902
 20
139.5286936521
 30
0.0
 11
261.5376122996
 21
139.5286936521
 31
0.0
  0
LINE
  5
193
330
18D
100
AcDbEntity
  8
VERMASSUNG
100
AcDbLine
 10
240.0591764902
 20
95.5286936521
 30
0.0
 11
261.5376122996
 21
95.5286936521
 31
0.0
  0
LINE
  5
194
330
18D
100
AcDbEntity
  8
VERMASSUNG
100
AcDbLine
 10
260.5376122996
 20
139.5286936521
 30
0.0
 11
260.5376122996
 21
95.5286936521
 31
0.0
  0
MTEXT
  5
195
330
18D
100
AcDbEntity
  8
VERMASSUNG
100
AcDbMText
 10
257.95947682
 20
112.4529736033
 30
0.1
 40
2.0
 41
0.0
 71
     1
 72
     1
  1
%%c
  7
SLDTEXTSTYLE0
 11
-7.044195017643634E-15
 21
1.0
 31
0.0
 73
     1
 44
1.0
  0
MTEXT
  5
196
330
18D
100
AcDbEntity
  8
VERMASSUNG
100
AcDbMText
 10
257.7594768105
 20
116.0629736176
 30
0.1
 40
2.0
 41
0.0
 71
     1
 72
     1
  1
44
  7
SLDTEXTSTYLE0
 11
-7.044195017643634E-15
 21
1.0
 31
0.0
 73
     1
 44
1.0
  0
ENDBLK
  5
18F
330
18D
100
AcDbEntity
  8
0
100
AcDbBlockEnd
  0
BLOCK
  5
199
330
198
100
AcDbEntity
  8
0
100
AcDbBlockBegin
  2
_D_1
 70
     0
 10
0.0
 20
0.0
 30
0.0
  3
_D_1
  1

  0
SOLID
  5
19B
330
198
100
AcDbEntity
  8
VERMASSUNG
100
AcDbTrace
 10
131.0591764902
 20
142.5286936521
 30
0.0
 11
130.6091764902
 21
139.5286936521
 31
0.0
 12
131.5091764902
 22
139.5286936521
 32
0.0
 13
131.5091764902
 23
139.5286936521
 33
0.0
  0
SOLID
  5
19C
330
198
100
AcDbEntity
  8
VERMASSUNG
100
AcDbTrace
 10
131.0591764902
 20
92.5286936521
 30
0.0
 11
131.5091764902
 21
95.5286936521
 31
0.0
 12
130.6091764902
 22
95.5286936521
 32
0.0
 13
130.6091764902
 23
95.5286936521
 33
0.0
  0
LINE
  5
19D
330
198
100
AcDbEntity
  8
VERMASSUNG
100
AcDbLine
 10
171.3591764902
 20
142.5286936521
 30
0.0
 11
130.0591764902
 21
142.5286936521
 31
0.0
  0
LINE
  5
19E
330
198
100
AcDbEntity
  8
VERMASSUNG
100
AcDbLine
 10
171.3591764902
 20
92.5286936521
 30
0.0
 11
130.0591764902
 21
92.5286936521
 31
0.0
  0
LINE
  5
19F
330
198
100
AcDbEntity
  8
VERMASSUNG
100
AcDbLine
 10
131.0591764902
 20
142.5286936521
 30
0.0
 11
131.0591764902
 21
92.5286936521
 31
0.0
  0
MTEXT
  5
1A0
330
198
100
AcDbEntity
  8
VERMASSUNG
100
AcDbMText
 10
128.2810410011
 20
110.3529734453
 30
0.1
 40
2.0
 41
0.0
 71
     1
 72
     1
  1
PSC
  7
SLDTEXTSTYLE0
 11
-7.044195017643634E-15
 21
1.0
 31
0.0
 73
     1
 44
1.0
  0
MTEXT
  5
1A1
330
198
100
AcDbEntity
  8
VERMASSUNG
100
AcDbMText
 10
128.4810410106
 20
114.9529735474
 30
0.1
 40
2.0
 41
0.0
 71
     1
 72
     1
  1
%%c
  7
SLDTEXTSTYLE0
 11
-7.044195017643634E-15
 21
1.0
 31
0.0
 73
     1
 44
1.0
  0
MTEXT
  5
1A2
330
198
100
AcDbEntity
  8
VERMASSUNG
100
AcDbMText
 10
128.2810410011
 20
118.5629740273
 30
0.1
 40
2.0
 41
0.0
 71
     1
 72
     1
  1
50
  7
SLDTEXTSTYLE0
 11
-7.044195017643634E-15
 21
1.0
 31
0.0
 73
     1
 44
1.0
  0
ENDBLK
  5
19A
330
198
100
AcDbEntity
  8
0
100
AcDbBlockEnd
  0
BLOCK
  5
1A5
330
1A4
100
AcDbEntity
  8
0
100
AcDbBlockBegin
  2
_D_2
 70
     0
 10
0.0
 20
0.0
 30
0.0
  3
_D_2
  1

  0
SOLID
  5
1A7
330
1A4
100
AcDbEntity
  8
VERMASSUNG
100
AcDbTrace
 10
171.0591764902
 20
152.5286936521
 30
0.0
 11
174.0591764902
 21
152.0786936521
 31
0.0
 12
174.0591764902
 22
152.9786936521
 32
0.0
 13
174.0591764902
 23
152.9786936521
 33
0.0
  0
SOLID
  5
1A8
330
1A4
100
AcDbEntity
  8
VERMASSUNG
100
AcDbTrace
 10
241.0591764902
 20
152.5286936521
 30
0.0
 11
238.0591764902
 21
152.9786936521
 31
0.0
 12
238.0591764902
 22
152.0786936521
 32
0.0
 13
238.0591764902
 23
152.0786936521
 33
0.0
  0
LINE
  5
1A9
330
1A4
100
AcDbEntity
  8
VERMASSUNG
100
AcDbLine
 10
171.0591764902
 20
142.2286936521
 30
0.0
 11
171.0591764902
 21
153.5286936521
 31
0.0
  0
LINE
  5
1AA
330
1A4
100
AcDbEntity
  8
VERMASSUNG
100
AcDbLine
 10
241.0591764902
 20
138.5286936521
 30
0.0
 11
241.0591764902
 21
153.5286936521
 31
0.0
  0
LINE
  5
1AB
330
1A4
100
AcDbEntity
  8
VERMASSUNG
100
AcDbLine
 10
171.0591764902
 20
152.5286936521
 30
0.0
 11
241.0591764902
 21
152.5286936521
 31
0.0
  0
MTEXT
  5
1AC
330
1A4
100
AcDbEntity
  8
VERMASSUNG
100
AcDbMText
 10
203.716529985
 20
155.1068290152
 30
0.1
 40
2.0
 41
0.0
 71
     1
 72
     1
  1
70
  7
SLDTEXTSTYLE0
 73
     1
 44
1.0
  0
ENDBLK
  5
1A6
330
1A4
100
AcDbEntity
  8
0
100
AcDbBlockEnd
  0
BLOCK
  5
1AF
330
1AE
100
AcDbEntity
  8
0
100
AcDbBlockBegin
  2
_D_3
 70
     0
 10
0.0
 20
0.0
 30
0.0
  3
_D_3
  1

  0
SOLID
  5
1B1
330
1AE
100
AcDbEntity
  8
VERMASSUNG
100
AcDbTrace
 10
141.0591764902
 20
158.5286936521
 30
0.0
 11
144.0591764902
 21
158.0786936521
 31
0.0
 12
144.0591764902
 22
158.9786936521
 32
0.0
 13
144.0591764902
 23
158.9786936521
 33
0.0
  0
SOLID
  5
1B2
330
1AE
100
AcDbEntity
  8
VERMASSUNG
100
AcDbTrace
 10
241.0591764902
 20
158.5286936521
 30
0.0
 11
238.0591764902
 21
158.9786936521
 31
0.0
 12
238.0591764902
 22
158.0786936521
 32
0.0
 13
238.0591764902
 23
158.0786936521
 33
0.0
  0
LINE
  5
1B3
330
1AE
100
AcDbEntity
  8
VERMASSUNG
100
AcDbLine
 10
141.0591764902
 20
133.4692685711
 30
0.0
 11
141.0591764902
 21
159.5286936521
 31
0.0
  0
LINE
  5
1B4
330
1AE
100
AcDbEntity
  8
VERMASSUNG
100
AcDbLine
 10
241.0591764902
 20
138.5286936521
 30
0.0
 11
241.0591764902
 21
159.5286936521
 31
0.0
  0
LINE
  5
1B5
330
1AE
100
AcDbEntity
  8
VERMASSUNG
100
AcDbLine
 10
141.0591764902
 20
158.5286936521
 30
0.0
 11
241.0591764902
 21
158.5286936521
 31
0.0
  0
MTEXT
  5
1B6
330
1AE
100
AcDbEntity
  8
VERMASSUNG
100
AcDbMText
 10
191.3751744597
 20
161.1068290152
 30
0.1
 40
2.0
 41
0.0
 71
     1
 72
     1
  1
100
  7
SLDTEXTSTYLE0
 73
     1
 44
1.0
  0
ENDBLK
  5
1B0
330
1AE
100
AcDbEntity
  8
0
100
AcDbBlockEnd
  0
BLOCK
  5
1B9
330
1B8
100
AcDbEntity
  8
0
100
AcDbBlockBegin
  2
_D_4
 70
     0
 10
0.0
 20
0.0
 30
0.0
  3
_D_4
  1

  0
SOLID
  5
1BB
330
1B8
100
AcDbEntity
  8
VERMASSUNG
100
AcDbTrace
 10
254.3782276036
 20
127.5286936521
 30
0.0
 11
253.9282276036
 21
124.5286936521
 31
0.0
 12
254.8282276036
 22
124.5286936521
 32
0.0
 13
254.8282276036
 23
124.5286936521
 33
0.0
  0
SOLID
  5
1BC
330
1B8
100
AcDbEntity
  8
VERMASSUNG
100
AcDbTrace
 10
254.3782276036
 20
107.5286936521
 30
0.0
 11
254.8282276036
 21
110.5286936521
 31
0.0
 12
253.9282276036
 22
110.5286936521
 32
0.0
 13
253.9282276036
 23
110.5286936521
 33
0.0
  0
LINE
  5
1BD
330
1B8
100
AcDbEntity
  8
VERMASSUNG
100
AcDbLine
 10
240.7591764902
 20
127.5286936521
 30
0.0
 11
255.3782276036
 21
127.5286936521
 31
0.0
  0
LINE
  5
1BE
330
1B8
100
AcDbEntity
  8
VERMASSUNG
100
AcDbLine
 10
240.7591764902
 20
107.5286936521
 30
0.0
 11
255.3782276036
 21
107.5286936521
 31
0.0
  0
LINE
  5
1BF
330
1B8
100
AcDbEntity
  8
VERMASSUNG
100
AcDbLine
 10
254.3782276036
 20
127.5286936521
 30
0.0
 11
254.3782276036
 21
107.5286936521
 31
0.0
  0
MTEXT
  5
1C0
330
1B8
100
AcDbEntity
  8
VERMASSUNG
100
AcDbMText
 10
251.800092124
 20
112.6529737292
 30
0.1
 40
2.0
 41
0.0
 71
     1
 72
     1
  1
%%c
  7
SLDTEXTSTYLE0
 11
-7.044195017643634E-15
 21
1.0
 31
0.0
 73
     1
 44
1.0
  0
MTEXT
  5
1C1
330
1B8
100
AcDbEntity
  8
VERMASSUNG
100
AcDbMText
 10
251.6000921145
 20
116.2629737435
 30
0.1
 40
2.0
 41
0.0
 71
     1
 72
     1
  1
20
  7
SLDTEXTSTYLE0
 11
-7.044195017643634E-15
 21
1.0
 31
0.0
 73
     1
 44
1.0
  0
ENDBLK
  5
1BA
330
1B8
100
AcDbEntity
  8
0
100
AcDbBlockEnd
  0
BLOCK
  5
250
330
24F
100
AcDbEntity
  8
0
100
AcDbBlockBegin
  2
SW_CENTERMARKSYMBOL_0
 70
     0
 10
0.0
 20
0.0
 30
0.0
  3
SW_CENTERMARKSYMBOL_0
  1

  0
LINE
  5
252
330
24F
100
AcDbEntity
  8
VERMASSUNG
 62
     0
100
AcDbLine
 10
0.0
 20
0.0
 30
0.0
 11
0.0
 21
2.5
 31
0.0
  0
LINE
  5
253
330
24F
100
AcDbEntity
  8
VERMASSUNG
 62
     0
100
AcDbLine
 10
0.0
 20
0.0
 30
0.0
 11
-2.5
 21
0.0
 31
0.0
  0
LINE
  5
254
330
24F
100
AcDbEntity
  8
VERMASSUNG
 62
     0
100
AcDbLine
 10
0.0
 20
0.0
 30
0.0
 11
0.0
 21
-2.5
 31
0.0
  0
LINE
  5
255
330
24F
100
AcDbEntity
  8
VERMASSUNG
 62
     0
100
AcDbLine
 10
0.0
 20
0.0
 30
0.0
 11
2.5
 21
0.0
 31
0.0
  0
LINE
  5
256
330
24F
100
AcDbEntity
  8
VERMASSUNG
 62
     0
100
AcDbLine
 10
0.0
 20
5.0
 30
0.0
 11
0.0
 21
27.5
 31
0.0
  0
LINE
  5
257
330
24F
100
AcDbEntity
  8
VERMASSUNG
 62
     0
100
AcDbLine
 10
-5.0
 20
0.0
 30
0.0
 11
-27.5
 21
0.0
 31
0.0
  0
LINE
  5
258
330
24F
100
AcDbEntity
  8
VERMASSUNG
 62
     0
100
AcDbLine
 10
0.0
 20
-5.0
 30
0.0
 11
0.0
 21
-27.5
 31
0.0
  0
LINE
  5
259
330
24F
100
AcDbEntity
  8
VERMASSUNG
 62
     0
100
AcDbLine
 10
5.0
 20
0.0
 30
0.0
 11
27.5
 21
0.0
 31
0.0
  0
ENDBLK
  5
251
330
24F
100
AcDbEntity
  8
0
100
AcDbBlockEnd
  0
ENDSEC
  0
SECTION
  2
ENTITIES
  0
MTEXT
  5
49
330
1F
100
AcDbEntity
  8
KOPF_DÜNN
100
AcDbMText
 10
13.8892156294
 20
23.8442973028
 30
0.0
 40
3.0
 41
0.0
 71
     1
 72
     1
  1
PS5.B20.K01.070
  7
SLDTEXTSTYLE0
 73
     1
 44
1.0
  0
MTEXT
  5
4A
330
1F
100
AcDbEntity
  8
VERMASSUNG
100
AcDbMText
 10
13.9329988022
 20
28.8834360957
 30
0.0
 40
3.0
 41
0.0
 71
     1
 72
     1
  1
Bohrstangenhalter_Boring bar holder
  7
SLDTEXTSTYLE0
 73
     1
 44
1.0
  0
MTEXT
  5
4B
330
1F
100
AcDbEntity
  8
VERMASSUNG
100
AcDbMText
 10
98.8601118557
 20
13.8365368179
 30
0.0
 40
2.0
 41
0.0
 71
     1
 72
     1
  1
Datum: 18.06.2012
  7
SLDTEXTSTYLE0
 73
     1
 44
1.0
  0
MTEXT
  5
4D
330
1F
100
AcDbEntity
  8
VERMASSUNG
100
AcDbMText
 10
13.933048693
 20
18.0482802738
 30
0.0
 40
2.0
 41
0.0
 71
     1
 72
     1
  1
PSC ø50 / ø20
  7
SLDTEXTSTYLE1
 73
     1
 44
1.0
  0
MTEXT
  5
4E
330
1F
100
AcDbEntity
  8
VERMASSUNG
100
AcDbMText
 10
13.9808475933
 20
13.9090973692
 30
0.0
 40
2.0
 41
0.0
 71
     1
 72
     1
  1
Gewicht: 877g
  7
SLDTEXTSTYLE0
 73
     1
 44
1.0
  0
LINE
  5
4F
330
1F
100
AcDbEntity
  8
0
  6
Continuous
 62
     7
370
    15
100
AcDbLine
 10
185.0344428574
 20
92.5286932795
 30
0.0
 11
190.4591770624
 21
92.5286932795
 31
0.0
  0
LINE
  5
50
330
1F
100
AcDbEntity
  8
0
  6
Continuous
 62
     7
370
    15
100
AcDbLine
 10
171.3591765044
 20
92.5286932795
 30
0.0
 11
181.0591762667
 21
92.5286932795
 31
0.0
  0
LINE
  5
51
330
1F
100
AcDbEntity
  8
0
  6
Continuous
 62
     7
370
    15
100
AcDbLine
 10
190.4591770624
 20
142.5286940246
 30
0.0
 11
171.3591765044
 21
142.5286940246
 31
0.0
  0
ARC
  5
52
330
1F
100
AcDbEntity
  8
0
  6
Continuous
 62
     7
370
    15
100
AcDbCircle
 10
171.3591764902
 20
92.8286936521
 30
0.0
 40
0.2999999999999829
100
AcDbArc
 50
180.0
 51
270.0
  0
ARC
  5
53
330
1F
100
AcDbEntity
  8
0
  6
Continuous
 62
     7
370
    15
100
AcDbCircle
 10
171.3591764902
 20
142.2286936521
 30
0.0
 40
0.3000000000000114
100
AcDbArc
 50
90.0
 51
180.0
  0
ARC
  5
54
330
1F
100
AcDbEntity
  8
0
  6
Continuous
 62
     7
370
    15
100
AcDbCircle
 10
190.4591764902
 20
93.1286936521
 30
0.0
 40
0.5999999999999943
100
AcDbArc
 50
270.0
 51
0.0
  0
ARC
  5
55
330
1F
100
AcDbEntity
  8
0
  6
Continuous
 62
     7
370
    15
100
AcDbCircle
 10
190.4591764902
 20
141.9286936521
 30
0.0
 40
0.6000000000000227
100
AcDbArc
 50
0.0
 51
90.0
  0
ARC
  5
56
330
1F
100
AcDbEntity
  8
0
  6
Continuous
 62
     7
370
    15
100
AcDbCircle
 10
192.0591764902
 20
94.5286936521
 30
0.0
 40
1.0
100
AcDbArc
 50
90.0
 51
180.0
  0
ARC
  5
57
330
1F
100
AcDbEntity
  8
0
  6
Continuous
 62
     7
370
    15
100
AcDbCircle
 10
192.0591764902
 20
140.5286936521
 30
0.0
 40
1.0
100
AcDbArc
 50
180.0
 51
270.0
  0
LINE
  5
58
330
1F
100
AcDbEntity
  8
0
  6
Continuous
 62
     7
370
    15
100
AcDbLine
 10
199.5702704196
 20
139.5286935328
 30
0.0
 11
192.059176207
 21
139.5286935328
 31
0.0
  0
LINE
  5
59
330
1F
100
AcDbEntity
  8
0
  6
Continuous
 62
     7
370
    15
100
AcDbLine
 10
212.5702688252
 20
139.5286935328
 30
0.0
 11
210.5507666026
 21
139.5286935328
 31
0.0
  0
LINE
  5
5A
330
1F
100
AcDbEntity
  8
0
  6
Continuous
 62
     7
370
    15
100
AcDbLine
 10
225.5702690934
 20
139.5286935328
 30
0.0
 11
223.5507668708
 21
139.5286935328
 31
0.0
  0
LINE
  5
5B
330
1F
100
AcDbEntity
  8
0
  6
Continuous
 62
     7
370
    15
100
AcDbLine
 10
240.0591747616
 20
139.5286935328
 30
0.0
 11
236.5507708643
 21
139.5286935328
 31
0.0
  0
LINE
  5
5C
330
1F
100
AcDbEntity
  8
0
  6
Continuous
 62
     7
370
    15
100
AcDbLine
 10
236.5507708643
 20
95.5286937713
 30
0.0
 11
240.0591747616
 21
95.5286937713
 31
0.0
  0
LINE
  5
5D
330
1F
100
AcDbEntity
  8
0
  6
Continuous
 62
     7
370
    15
100
AcDbLine
 10
223.5507668708
 20
95.5286937713
 30
0.0
 11
225.5702690934
 21
95.5286937713
 31
0.0
  0
LINE
  5
5E
330
1F
100
AcDbEntity
  8
0
  6
Continuous
 62
     7
370
    15
100
AcDbLine
 10
210.5507666026
 20
95.5286937713
 30
0.0
 11
212.5702688252
 21
95.5286937713
 31
0.0
  0
LINE
  5
5F
330
1F
100
AcDbEntity
  8
0
  6
Continuous
 62
     7
370
    15
100
AcDbLine
 10
192.059176207
 20
95.5286937713
 30
0.0
 11
199.5702704196
 21
95.5286937713
 31
0.0
  0
ARC
  5
60
330
1F
100
AcDbEntity
  8
0
  6
Continuous
 62
     7
370
    15
100
AcDbCircle
 10
240.0591764902
 20
138.5286936521
 30
0.0
 40
1.0
100
AcDbArc
 50
0.0
 51
90.0
  0
ARC
  5
61
330
1F
100
AcDbEntity
  8
0
  6
Continuous
 62
     7
370
    15
100
AcDbCircle
 10
240.0591764902
 20
96.5286936521
 30
0.0
 40
1.0
100
AcDbArc
 50
270.0
 51
0.0
  0
LWPOLYLINE
  5
62
330
1F
100
AcDbEntity
  8
0
  6
Continuous
 62
     7
370
    15
100
AcDbPolyline
 90
        3
 70
   128
 43
0.0
 10
170.8591764952
 20
99.6888725965
 10
170.9846314304
 20
99.6205712615
 10
171.0591764902
 20
99.5678341894
  0
ARC
  5
63
330
1F
100
AcDbEntity
  8
0
  6
Continuous
 62
     7
370
    15
100
AcDbCircle
 10
170.4449629278
 20
136.2786936521
 30
0.0
 40
1.000000000000028
100
AcDbArc
 50
225.0
 51
307.8947985336
  0
LINE
  5
64
330
1F
100
AcDbEntity
  8
0
  6
Continuous
 62
     7
370
    15
100
AcDbLine
 10
160.4858070393
 20
101.3389638572
 30
0.0
 11
168.8591765021
 21
101.1285948514
 31
0.0
  0
LINE
  5
65
330
1F
100
AcDbEntity
  8
0
  6
Continuous
 62
     7
370
    15
100
AcDbLine
 10
148.4162008171
 20
101.6421931743
 30
0.0
 11
153.8222284769
 21
101.5063746779
 31
0.0
  0
ARC
  5
66
330
1F
100
AcDbEntity
  8
0
  6
Continuous
 62
     7
370
    15
100
AcDbCircle
 10
169.0591134011
 20
101.1235717564
 30
0.0
 40
0.2000000000000052
100
AcDbArc
 50
88.5608333333
 51
178.5608333333
  0
LINE
  5
67
330
1F
100
AcDbEntity
  8
0
  6
Continuous
 62
     7
370
    15
100
AcDbLine
 10
169.0641366192
 20
101.3235094904
 30
0.0
 11
170.6641995886
 21
101.2833098828
 31
0.0
  0
ARC
  5
68
330
1F
100
AcDbEntity
  8
0
  6
Continuous
 62
     7
370
    15
100
AcDbCircle
 10
170.6591764902
 20
101.0833726022
 30
0.0
 40
0.2000000000000171
100
AcDbArc
 50
0.0
 51
88.5608333333
  0
LINE
  5
69
330
1F
100
AcDbEntity
  8
0
  6
Continuous
 62
     7
370
    15
100
AcDbLine
 10
168.8591765021
 20
136.1687927454
 30
0.0
 11
142.5591764753
 21
135.5080454557
 31
0.0
  0
ARC
  5
6A
330
1F
100
AcDbEntity
  8
0
  6
Continuous
 62
     7
370
    15
100
AcDbCircle
 10
169.0591134011
 20
136.1738155477
 30
0.0
 40
0.2000000000000052
100
AcDbArc
 50
181.4391666667
 51
271.4391666667
  0
LINE
  5
6B
330
1F
100
AcDbEntity
  8
0
  6
Continuous
 62
     7
370
    15
100
AcDbLine
 10
169.338450233
 20
135.9807698934
 30
0.0
 11
169.0641366192
 21
135.9738781064
 31
0.0
  0
LINE
  5
6C
330
1F
100
AcDbEntity
  8
0
  6
Continuous
 62
     7
370
    15
100
AcDbLine
 10
142.5591764753
 20
135.5080454557
 30
0.0
 11
141.0591771607
 21
134.6420197695
 31
0.0
  0
LINE
  5
6D
330
1F
100
AcDbEntity
  8
0
  6
Continuous
 62
     7
370
    15
100
AcDbLine
 10
169.7378561846
 20
135.5715877323
 30
0.0
 11
169.3452951047
 21
135.9641476481
 31
0.0
  0
LINE
  5
6E
330
1F
100
AcDbEntity
  8
0
  6
Continuous
 62
     7
370
    15
100
AcDbLine
 10
209.5490993713
 20
139.3451410293
 30
0.0
 11
209.2311756466
 21
139.5286935328
 31
0.0
  0
LINE
  5
6F
330
1F
100
AcDbEntity
  8
0
  6
Continuous
 62
     7
370
    15
100
AcDbLine
 10
200.8871773039
 20
139.5286935328
 30
0.0
 11
200.568840072
 21
139.3449026107
 31
0.0
  0
LINE
  5
70
330
1F
100
AcDbEntity
  8
0
  6
Continuous
 62
     7
370
    15
100
AcDbLine
 10
213.5690377806
 20
95.7123710721
 30
0.0
 11
213.8871775721
 21
95.5286937713
 31
0.0
  0
LINE
  5
71
330
1F
100
AcDbEntity
  8
0
  6
Continuous
 62
     7
370
    15
100
AcDbLine
 10
222.2311759149
 20
95.5286937713
 30
0.0
 11
222.5504966234
 21
95.7130528002
 31
0.0
  0
LINE
  5
72
330
1F
100
AcDbEntity
  8
0
  6
Continuous
 62
     7
370
    15
100
AcDbLine
 10
200.5690375124
 20
95.7123710721
 30
0.0
 11
200.8871773039
 21
95.5286937713
 31
0.0
  0
LINE
  5
73
330
1F
100
AcDbEntity
  8
0
  6
Continuous
 62
     7
370
    15
100
AcDbLine
 10
209.2311756466
 20
95.5286937713
 30
0.0
 11
209.5504963552
 21
95.7130528002
 31
0.0
  0
LINE
  5
74
330
1F
100
AcDbEntity
  8
0
  6
Continuous
 62
     7
370
    15
100
AcDbLine
 10
226.5690380488
 20
95.7123710721
 30
0.0
 11
226.8871778403
 21
95.5286937713
 31
0.0
  0
LINE
  5
75
330
1F
100
AcDbEntity
  8
0
  6
Continuous
 62
     7
370
    15
100
AcDbLine
 10
235.2311761831
 20
95.5286937713
 30
0.0
 11
235.5504931663
 21
95.7130528002
 31
0.0
  0
LINE
  5
76
330
1F
100
AcDbEntity
  8
0
  6
Continuous
 62
     7
370
    15
100
AcDbLine
 10
235.5490999077
 20
139.3451410293
 30
0.0
 11
235.2311761831
 21
139.5286935328
 31
0.0
  0
LINE
  5
77
330
1F
100
AcDbEntity
  8
0
  6
Continuous
 62
     7
370
    15
100
AcDbLine
 10
226.8871778403
 20
139.5286935328
 30
0.0
 11
226.5688406085
 21
139.3449026107
 31
0.0
  0
LINE
  5
78
330
1F
100
AcDbEntity
  8
0
  6
Continuous
 62
     7
370
    15
100
AcDbLine
 10
222.5490959142
 20
139.3451410293
 30
0.0
 11
222.2311759149
 21
139.5286935328
 31
0.0
  0
LINE
  5
79
330
1F
100
AcDbEntity
  8
0
  6
Continuous
 62
     7
370
    15
100
AcDbLine
 10
213.8871775721
 20
139.5286935328
 30
0.0
 11
213.5688403402
 21
139.3449026107
 31
0.0
  0
ARC
  5
7A
330
1F
100
AcDbEntity
  8
0
  6
Continuous
 62
     7
370
    15
100
AcDbCircle
 10
183.0591116673
 20
67.5722446721
 30
0.0
 40
25.0364547949486
100
AcDbArc
 50
85.4747630076
 51
94.581721871
  0
SPLINE
  5
7B
330
1F
100
AcDbEntity
  8
0
  6
Continuous
 62
     7
370
    15
100
AcDbSpline
210
0.0
220
0.0
230
1.0
 70
     8
 71
     3
 72
    12
 73
     8
 74
     0
 42
0.00000001
 43
0.00000001
 12
1.0
 22
0.0
 32
0.0
 13
1.0
 23
0.0
 33
0.0
 40
0.0
 40
0.0
 40
0.0
 40
0.0
 40
0.2500000000000016
 40
0.2500000000000016
 40
0.5000000000000032
 40
0.5000000000000032
 40
1.0
 40
1.0
 40
1.0
 40
1.0
 10
179.586933303736
 20
93.70196253655288
 30
0.0
 10
179.5232680672055
 20
93.70196253655287
 30
0.0
 10
179.4636618349821
 20
93.71022731221873
 30
0.0
 10
179.3650013100513
 20
93.73444609380188
 30
0.0
 10
179.326034320036
 20
93.74970341311104
 30
0.0
 10
179.2266474881116
 20
93.79933676737296
 30
0.0
 10
179.1845712406881
 20
93.83697647554708
 30
0.0
 10
179.1539206018438
 20
93.87605217482322
 30
0.0
  0
LINE
  5
7C
330
1F
100
AcDbEntity
  8
0
  6
Continuous
 62
     7
370
    15
100
AcDbLine
 10
182.5314193745
 20
93.7019622832
 30
0.0
 11
179.5869331588
 21
93.7019622832
 31
0.0
  0
SPLINE
  5
7D
330
1F
100
AcDbEntity
  8
0
  6
Continuous
 62
     7
370
    15
100
AcDbSpline
210
0.0
220
0.0
230
1.0
 70
     8
 71
     3
 72
    12
 73
     8
 74
     0
 42
0.00000001
 43
0.00000001
 12
1.0
 22
0.0
 32
0.0
 13
1.0
 23
0.0
 33
0.0
 40
0.0
 40
0.0
 40
0.0
 40
0.0
 40
0.4999999999999982
 40
0.4999999999999982
 40
0.7499999999999991
 40
0.7499999999999991
 40
1.0
 40
1.0
 40
1.0
 40
1.0
 10
182.9644323784953
 20
93.87605217482322
 30
0.0
 10
182.933732995128
 20
93.83691433242731
 30
0.0
 10
182.8923829270215
 20
93.79975454970182
 30
0.0
 10
182.7926269988021
 20
93.74981804407408
 30
0.0
 10
182.7529300810694
 20
93.73436517393031
 30
0.0
 10
182.6556719294217
 20
93.71044563033128
 30
0.0
 10
182.594895771431
 20
93.70196253655288
 30
0.0
 10
182.5314196766031
 20
93.70196253655288
 30
0.0
  0
ELLIPSE
  5
7E
330
1F
100
AcDbEntity
  8
0
  6
Continuous
 62
     7
370
    15
100
AcDbEllipse
 10
170.0029188352
 20
117.5286936521
 30
0.0
 11
-11.70927234972723
 21
24.67718644093744
 31
0.0
210
0.0
220
0.0
230
1.0
 40
0.3419987131
 41
3.310521928178947
 42
4.221709151398938
  0
SPLINE
  5
7F
330
1F
100
AcDbEntity
  8
0
  6
Continuous
 62
     7
370
    15
100
AcDbSpline
210
0.0
220
0.0
230
1.0
 70
     8
 71
     3
 72
    12
 73
     8
 74
     0
 42
0.00000001
 43
0.00000001
 12
1.0
 22
0.0
 32
0.0
 13
1.0
 23
0.0
 33
0.0
 40
0.0
 40
0.0
 40
0.0
 40
0.0
 40
0.25
 40
0.25
 40
0.5
 40
0.5
 40
1.0
 40
1.0
 40
1.0
 40
1.0
 10
182.5314196766031
 20
109.9598836828741
 30
0.0
 10
182.5950849131336
 20
109.9598836828741
 30
0.0
 10
182.654691145357
 20
109.9338115343944
 30
0.0
 10
182.7533516702878
 20
109.8582727835733
 30
0.0
 10
182.7923186603031
 20
109.8110218464771
 30
0.0
 10
182.8917054922275
 20
109.6591980285106
 30
0.0
 10
182.933781739651
 20
109.5463947787456
 30
0.0
 10
182.9644323784953
 20
109.4322406540105
 30
0.0
  0
LINE
  5
80
330
1F
100
AcDbEntity
  8
0
  6
Continuous
 62
     7
370
    15
100
AcDbLine
 10
179.5869331588
 20
109.9598835169
 30
0.0
 11
182.5314193745
 21
109.9598835169
 31
0.0
  0
SPLINE
  5
81
330
1F
100
AcDbEntity
  8
0
  6
Continuous
 62
     7
370
    15
100
AcDbSpline
210
0.0
220
0.0
230
1.0
 70
     8
 71
     3
 72
    12
 73
     8
 74
     0
 42
0.00000001
 43
0.00000001
 12
1.0
 22
0.0
 32
0.0
 13
1.0
 23
0.0
 33
0.0
 40
0.0
 40
0.0
 40
0.0
 40
0.0
 40
0.5000000000000004
 40
0.5000000000000004
 40
0.7500000000000002
 40
0.7500000000000002
 40
1.0
 40
1.0
 40
1.0
 40
1.0
 10
179.1539206018438
 20
109.4322406540105
 30
0.0
 10
179.1846199852111
 20
109.5465763210743
 30
0.0
 10
179.2259700533176
 20
109.6579296739157
 30
0.0
 10
179.325725981537
 20
109.8106664461644
 30
0.0
 10
179.3654228992697
 20
109.8585263320165
 30
0.0
 10
179.4626810509174
 20
109.933129445366
 30
0.0
 10
179.523457208908
 20
109.9598836828741
 30
0.0
 10
179.586933303736
 20
109.9598836828741
 30
0.0
  0
ELLIPSE
  5
82
330
1F
100
AcDbEntity
  8
0
  6
Continuous
 62
     7
370
    15
100
AcDbEllipse
 10
192.1154341452
 20
117.5286936521
 30
0.0
 11
11.70927234972711
 21
24.67718644093743
 31
0.0
210
0.0
220
0.0
230
1.0
 40
0.3419987131
 41
2.061476155780658
 42
2.972663379000677
  0
SPLINE
  5
83
330
1F
100
AcDbEntity
  8
0
  6
Continuous
 62
     7
370
    15
100
AcDbSpline
210
0.0
220
0.0
230
1.0
 70
     8
 71
     3
 72
    12
 73
     8
 74
     0
 42
0.00000001
 43
0.00000001
 12
1.0
 22
0.0
 32
0.0
 13
1.0
 23
0.0
 33
0.0
 40
0.0
 40
0.0
 40
0.0
 40
0.0
 40
0.2499999999999984
 40
0.2499999999999984
 40
0.4999999999999968
 40
0.4999999999999968
 40
1.0
 40
1.0
 40
1.0
 40
1.0
 10
179.586933303736
 20
125.0975036212356
 30
0.0
 10
179.5232967495223
 20
125.0975036212356
 30
0.0
 10
179.4637166226561
 20
125.1235505242935
 30
0.0
 10
179.3650798812897
 20
125.1990376831935
 30
0.0
 10
179.3261212569094
 20
125.2462567217242
 30
0.0
 10
179.2267423174015
 20
125.3979963728177
 30
0.0
 10
179.1847844122361
 20
125.5101985970019
 30
0.0
 10
179.1539206018436
 20
125.6251466500991
 30
0.0
  0
LINE
  5
84
330
1F
100
AcDbEntity
  8
0
  6
Continuous
 62
     7
370
    15
100
AcDbLine
 10
182.5314193745
 20
125.0975037872
 30
0.0
 11
179.5869331588
 21
125.0975037872
 31
0.0
  0
SPLINE
  5
85
330
1F
100
AcDbEntity
  8
0
  6
Continuous
 62
     7
370
    15
100
AcDbSpline
210
0.0
220
0.0
230
1.0
 70
     8
 71
     3
 72
    12
 73
     8
 74
     0
 42
0.00000001
 43
0.00000001
 12
1.0
 22
0.0
 32
0.0
 13
1.0
 23
0.0
 33
0.0
 40
0.0
 40
0.0
 40
0.0
 40
0.0
 40
0.4999999999999996
 40
0.4999999999999996
 40
0.7499999999999998
 40
0.7499999999999998
 40
1.0
 40
1.0
 40
1.0
 40
1.0
 10
182.9644323784953
 20
125.6251466500992
 30
0.0
 10
182.9335806679311
 20
125.5102436611624
 30
0.0
 10
182.8916878044705
 20
125.3981047651135
 30
0.0
 10
182.7921669266773
 20
125.2461624835126
 30
0.0
 10
182.752552761953
 20
125.1984978739877
 30
0.0
 10
182.6554497281735
 20
125.1241615433723
 30
0.0
 10
182.5949510555231
 20
125.0975036212352
 30
0.0
 10
182.5314196766032
 20
125.0975036212352
 30
0.0
  0
ELLIPSE
  5
86
330
1F
100
AcDbEntity
  8
0
  6
Continuous
 62
     7
370
    15
100
AcDbEllipse
 10
170.0029188352
 20
117.5286936521
 30
0.0
 11
11.70927234972717
 21
24.67718644093743
 31
0.0
210
0.0
220
0.0
230
1.0
 40
0.3419987131
 41
5.203068809370459
 42
6.114256032590505
  0
SPLINE
  5
87
330
1F
100
AcDbEntity
  8
0
  6
Continuous
 62
     7
370
    15
100
AcDbSpline
210
0.0
220
0.0
230
1.0
 70
     8
 71
     3
 72
    12
 73
     8
 74
     0
 42
0.00000001
 43
0.00000001
 12
1.0
 22
0.0
 32
0.0
 13
1.0
 23
0.0
 33
0.0
 40
0.0
 40
0.0
 40
0.0
 40
0.0
 40
0.2500000000000011
 40
0.2500000000000011
 40
0.5000000000000022
 40
0.5000000000000022
 40
1.0
 40
1.0
 40
1.0
 40
1.0
 10
182.5314196766031
 20
141.3554247675569
 30
0.0
 10
182.5950562308168
 20
141.3554247675569
 30
0.0
 10
182.654636357683
 20
141.3471679966251
 30
0.0
 10
182.7532730990494
 20
141.3229659346173
 30
0.0
 10
182.7922317234297
 20
141.3077191155832
 30
0.0
 10
182.8916106629376
 20
141.258114243523
 30
0.0
 10
182.933568568103
 20
141.2206825954042
 30
0.0
 10
182.9644323784955
 20
141.1813351292866
 30
0.0
  0
LINE
  5
88
330
1F
100
AcDbEntity
  8
0
  6
Continuous
 62
     7
370
    15
100
AcDbLine
 10
179.5869331588
 20
141.355425021
 30
0.0
 11
182.5314193745
 21
141.355425021
 31
0.0
  0
SPLINE
  5
89
330
1F
100
AcDbEntity
  8
0
  6
Continuous
 62
     7
370
    15
100
AcDbSpline
210
0.0
220
0.0
230
1.0
 70
     8
 71
     3
 72
    12
 73
     8
 74
     0
 42
0.00000001
 43
0.00000001
 12
1.0
 22
0.0
 32
0.0
 13
1.0
 23
0.0
 33
0.0
 40
0.0
 40
0.0
 40
0.0
 40
0.0
 40
0.4999999999999996
 40
0.4999999999999996
 40
0.7499999999999998
 40
0.7499999999999998
 40
1.0
 40
1.0
 40
1.0
 40
1.0
 10
179.1539206018438
 20
141.1813351292865
 30
0.0
 10
179.184772312408
 20
141.220667169649
 30
0.0
 10
179.2266651758686
 20
141.2580789351773
 30
0.0
 10
179.3261860536618
 20
141.3077498597932
 30
0.0
 10
179.3658002183861
 20
141.323138942401
 30
0.0
 10
179.4629032521656
 20
141.3469721580683
 30
0.0
 10
179.523401924816
 20
141.3554247675571
 30
0.0
 10
179.5869333037359
 20
141.3554247675571
 30
0.0
  0
ELLIPSE
  5
8A
330
1F
100
AcDbEntity
  8
0
  6
Continuous
 62
     7
370
    15
100
AcDbEllipse
 10
192.1154341452
 20
117.5286936521
 30
0.0
 11
-11.70927234972703
 21
24.67718644093743
 31
0.0
210
0.0
220
0.0
230
1.0
 40
0.3419987131
 41
0.1689292745891253
 42
1.080116497809141
  0
LINE
  5
8B
330
1F
100
AcDbEntity
  8
0
  6
Continuous
 62
     7
370
    15
100
AcDbLine
 10
171.0591764902
 20
117.5286936521
 30
0.0
 11
171.0591764902
 21
142.2286945342
 31
0.0
  0
LINE
  5
8C
330
1F
100
AcDbEntity
  8
0
  6
Continuous
 62
     7
370
    15
100
AcDbLine
 10
171.0591764902
 20
92.8286927699
 30
0.0
 11
171.0591764902
 21
117.5286936521
 31
0.0
  0
LINE
  5
8D
330
1F
100
AcDbEntity
  8
0
  6
Continuous
 62
     7
370
    15
100
AcDbLine
 10
191.0591760431
 20
117.5286936521
 30
0.0
 11
191.0591760431
 21
141.9286931812
 31
0.0
  0
LINE
  5
8E
330
1F
100
AcDbEntity
  8
0
  6
Continuous
 62
     7
370
    15
100
AcDbLine
 10
191.0591760431
 20
93.1286941229
 30
0.0
 11
191.0591760431
 21
117.5286936521
 31
0.0
  0
SPLINE
  5
8F
330
1F
100
AcDbEntity
  8
0
  6
Continuous
 62
     7
370
    15
100
AcDbSpline
210
0.0
220
0.0
230
1.0
 70
     8
 71
     3
 72
    13
 73
     9
 74
     0
 42
0.00000001
 43
0.00000001
 12
1.0
 22
0.0
 32
0.0
 13
1.0
 23
0.0
 33
0.0
 40
0.0
 40
0.0
 40
0.0
 40
0.0
 40
0.1811131174702805
 40
0.3662497963855063
 40
0.5702456753432166
 40
0.7816315117315105
 40
0.9638087801674763
 40
1.0
 40
1.0
 40
1.0
 40
1.0
 10
201.3585233841954
 20
95.83306488980973
 30
0.0
 10
201.169240437973
 20
95.80581963475416
 30
0.0
 10
200.7864694853137
 20
95.75072385121312
 30
0.0
 10
200.2982037643655
 20
95.66825591256006
 30
0.0
 10
199.8913161565515
 20
95.59396791729996
 30
0.0
 10
199.6471814321841
 20
95.54630359378895
 30
0.0
 10
199.5457621928439
 20
95.52602355666205
 30
0.0
 10
199.5667860401068
 20
95.53021076555464
 30
0.0
 10
199.5702704195795
 20
95.53090473105634
 30
0.0
  0
SPLINE
  5
90
330
1F
100
AcDbEntity
  8
0
  6
Continuous
 62
     7
370
    15
100
AcDbSpline
210
0.0
220
0.0
230
1.0
 70
     8
 71
     3
 72
    22
 73
    18
 74
     0
 42
0.00000001
 43
0.00000001
 12
1.0
 22
0.0
 32
0.0
 13
1.0
 23
0.0
 33
0.0
 40
0.0
 40
0.0
 40
0.0
 40
0.0
 40
0.0083119068911652
 40
0.0679106153498494
 40
0.1292465115425977
 40
0.1889825072525257
 40
0.250200955502439
 40
0.3150621548826335
 40
0.3814527902540746
 40
0.4535558735012222
 40
0.5274508932353138
 40
0.6053341219289632
 40
0.6853419683558306
 40
0.7655680367558215
 40
0.8481240875032792
 40
0.9230462059982657
 40
1.0
 40
1.0
 40
1.0
 40
1.0
 10
210.5507666026173
 20
95.53036828925336
 30
0.0
 10
210.5535145919326
 20
95.52982098259234
 30
0.0
 10
210.575966436957
 20
95.52534933335212
 30
0.0
 10
210.4913976287978
 20
95.54227736810999
 30
0.0
 10
210.3037388453944
 20
95.57903116793669
 30
0.0
 10
209.9884967964488
 20
95.63808444008536
 30
0.0
 10
209.5696435401969
 20
95.7112803776092
 30
0.0
 10
209.0407518074009
 20
95.79500882234434
 30
0.0
 10
208.3967549708525
 20
95.8835715075413
 30
0.0
 10
207.64852283025
 20
95.96764209214065
 30
0.0
 10
206.7975606631234
 20
96.03793698425783
 30
0.0
 10
205.8720873855772
 20
96.08345387236523
 30
0.0
 10
204.8994974415799
 20
96.09579209249019
 30
0.0
 10
203.9116871633859
 20
96.07131584870223
 30
0.0
 10
202.9777959934699
 20
96.0131857363025
 30
0.0
 10
202.1060738578598
 20
95.93053748725907
 30
0.0
 10
201.6099192629759
 20
95.86584422733416
 30
0.0
 10
201.3585233841954
 20
95.83306488980973
 30
0.0
  0
SPLINE
  5
91
330
1F
100
AcDbEntity
  8
0
  6
Continuous
 62
     7
370
    15
100
AcDbSpline
210
0.0
220
0.0
230
1.0
 70
     8
 71
     3
 72
    26
 73
    22
 74
     0
 42
0.00000001
 43
0.00000001
 12
1.0
 22
0.0
 32
0.0
 13
1.0
 23
0.0
 33
0.0
 40
0.0
 40
0.0
 40
0.0
 40
0.0
 40
0.0389802020397322
 40
0.0828141929076499
 40
0.1278413211622527
 40
0.1733082036774065
 40
0.2198683112731457
 40
0.2699937644858243
 40
0.3213113751499586
 40
0.3767370997138376
 40
0.4335872858906816
 40
0.4924228038498676
 40
0.5529066667562542
 40
0.6127096250113212
 40
0.6742848392386118
 40
0.7332981849530471
 40
0.7942425055118526
 40
0.8494963853841022
 40
0.9067878751888425
 40
0.9556213181171238
 40
1.0
 40
1.0
 40
1.0
 40
1.0
 10
199.5702704195795
 20
139.5264825730535
 30
0.0
 10
199.5747575439268
 20
139.5255747877516
 30
0.0
 10
199.5842905263603
 20
139.5236461803258
 30
0.0
 10
199.7528383075316
 20
139.4903138844634
 30
0.0
 10
200.0285629509668
 20
139.4379089102105
 30
0.0
 10
200.4186168839468
 20
139.3681978091896
 30
0.0
 10
200.9178294637278
 20
139.286640041584
 30
0.0
 10
201.5259641239197
 20
139.199134618772
 30
0.0
 10
202.2490927322624
 20
139.1124414892707
 30
0.0
 10
203.0696594474262
 20
139.0373192963785
 30
0.0
 10
203.9779393624787
 20
138.9838284650081
 30
0.0
 10
204.9417690103924
 20
138.9613506715653
 30
0.0
 10
205.9253096971114
 20
138.9753544279669
 30
0.0
 10
206.8993679810204
 20
139.0255940037537
 30
0.0
 10
207.8136617917262
 20
139.1055481943202
 30
0.0
 10
208.652728091208
 20
139.2061274481977
 30
0.0
 10
209.3569898301706
 20
139.3104969487418
 30
0.0
 10
209.9242833177806
 20
139.4072248790537
 30
0.0
 10
210.304085240467
 20
139.4782841307965
 30
0.0
 10
210.5250098012946
 20
139.5218214066412
 30
0.0
 10
210.5424589771321
 20
139.5253425728973
 30
0.0
 10
210.5507666026173
 20
139.5270190148565
 30
0.0
  0
SPLINE
  5
92
330
1F
100
AcDbEntity
  8
0
  6
Continuous
 62
     7
370
    15
100
AcDbSpline
210
0.0
220
0.0
230
1.0
 70
     8
 71
     3
 72
    13
 73
     9
 74
     0
 42
0.00000001
 43
0.00000001
 12
1.0
 22
0.0
 32
0.0
 13
1.0
 23
0.0
 33
0.0
 40
0.0
 40
0.0
 40
0.0
 40
0.0
 40
0.1811131077592925
 40
0.3662497767477936
 40
0.5702456447675797
 40
0.781631469821712
 40
0.9638087821079901
 40
1.0
 40
1.0
 40
1.0
 40
1.0
 10
227.3585239206372
 20
95.83306488980973
 30
0.0
 10
227.1692409697987
 20
95.80581963476462
 30
0.0
 10
226.7864700078046
 20
95.7507238512448
 30
0.0
 10
226.2982043604954
 20
95.66825591242458
 30
0.0
 10
225.8913164398971
 20
95.59396791787444
 30
0.0
 10
225.6471828690541
 20
95.54630358741863
 30
0.0
 10
225.5457607638663
 20
95.52602355616763
 30
0.0
 10
225.5667847000257
 20
95.53021076563053
 30
0.0
 10
225.5702690933762
 20
95.53090473105634
 30
0.0
  0
SPLINE
  5
93
330
1F
100
AcDbEntity
  8
0
  6
Continuous
 62
     7
370
    15
100
AcDbSpline
210
0.0
220
0.0
230
1.0
 70
     8
 71
     3
 72
    22
 73
    18
 74
     0
 42
0.00000001
 43
0.00000001
 12
1.0
 22
0.0
 32
0.0
 13
1.0
 23
0.0
 33
0.0
 40
0.0
 40
0.0
 40
0.0
 40
0.0
 40
0.008311907288417
 40
0.0679106828810702
 40
0.1292464187573333
 40
0.1889825447504414
 40
0.2502011640325554
 40
0.3150623665126676
 40
0.3814527690054697
 40
0.4535561182364396
 40
0.5274508581325541
 40
0.6053340905484842
 40
0.6853419407991743
 40
0.7655680130334176
 40
0.8481240677264846
 40
0.9230463274580993
 40
1.0
 40
1.0
 40
1.0
 40
1.0
 10
236.5507708643494
 20
95.53036828925336
 30
0.0
 10
236.5535188912256
 20
95.5298209828712
 30
0.0
 10
236.5759710643866
 20
95.5253493316764
 30
0.0
 10
236.4913884688463
 20
95.54227727560652
 30
0.0
 10
236.303746999329
 20
95.57903131268523
 30
0.0
 10
235.9884960819308
 20
95.6380844573817
 30
0.0
 10
235.5696405239583
 20
95.71128027935671
 30
0.0
 10
235.0407488073396
 20
95.79500859933093
 30
0.0
 10
234.3967547689064
 20
95.88357195389364
 30
0.0
 10
233.6485209218383
 20
95.96764165602194
 30
0.0
 10
232.7975604459293
 20
96.0379371965807
 30
0.0
 10
231.8720878119649
 20
96.08345382944363
 30
0.0
 10
230.8994980212002
 20
96.09579209921206
 30
0.0
 10
229.9116876376847
 20
96.07131586546652
 30
0.0
 10
228.9777961913534
 20
96.01318562902925
 30
0.0
 10
228.1060731714595
 20
95.93053767875911
 30
0.0
 10
227.6099191031055
 20
95.86584425456284
 30
0.0
 10
227.3585239206372
 20
95.83306488980973
 30
0.0
  0
SPLINE
  5
94
330
1F
100
AcDbEntity
  8
0
  6
Continuous
 62
     7
370
    15
100
AcDbSpline
210
0.0
220
0.0
230
1.0
 70
     8
 71
     3
 72
    26
 73
    22
 74
     0
 42
0.00000001
 43
0.00000001
 12
1.0
 22
0.0
 32
0.0
 13
1.0
 23
0.0
 33
0.0
 40
0.0
 40
0.0
 40
0.0
 40
0.0
 40
0.0389801993137681
 40
0.0828141871162864
 40
0.1278413122220514
 40
0.1733081915576145
 40
0.2198683682777895
 40
0.2699938179850941
 40
0.3213113300049387
 40
0.3767371540994746
 40
0.4335873363006704
 40
0.4924228501453701
 40
0.5529067088219982
 40
0.6127096628949238
 40
0.6742848728161357
 40
0.7332982144036487
 40
0.7942423654343035
 40
0.8494962414425379
 40
0.9067878245507196
 40
0.9556213212206145
 40
1.0
 40
1.0
 40
1.0
 40
1.0
 10
225.5702690933762
 20
139.5264825730535
 30
0.0
 10
225.5747562194223
 20
139.525574787942
 30
0.0
 10
225.5842892054649
 20
139.523646180921
 30
0.0
 10
225.7528369566979
 20
139.4903138817016
 30
0.0
 10
226.0285617199525
 20
139.4379089208842
 30
0.0
 10
226.4186154012717
 20
139.36819773173
 30
0.0
 10
226.9178301056523
 20
139.2866401167049
 30
0.0
 10
227.525964346971
 20
139.1991347258977
 30
0.0
 10
228.2490920695082
 20
139.112441284237
 30
0.0
 10
229.0696596205709
 20
139.0373194034908
 30
0.0
 10
229.9779398460163
 20
138.9838284441084
 30
0.0
 10
230.9417695645364
 20
138.9613506769416
 30
0.0
 10
231.9253102178271
 20
138.9753544283833
 30
0.0
 10
232.8993685625939
 20
139.0255939967569
 30
0.0
 10
233.8136621609885
 20
139.1055482223639
 30
0.0
 10
234.6527284655779
 20
139.2061272551498
 30
0.0
 10
235.3569868452823
 20
139.3104971263292
 30
0.0
 10
235.9242798953546
 20
139.4072249445145
 30
0.0
 10
236.3040851208899
 20
139.4782841070067
 30
0.0
 10
236.5250148912439
 20
139.5218213948411
 30
0.0
 10
236.5424635094492
 20
139.5253425697877
 30
0.0
 10
236.5507708643494
 20
139.5270190148565
 30
0.0
  0
SPLINE
  5
95
330
1F
100
AcDbEntity
  8
0
  6
Continuous
 62
     7
370
    15
100
AcDbSpline
210
0.0
220
0.0
230
1.0
 70
     8
 71
     3
 72
    13
 73
     9
 74
     0
 42
0.00000001
 43
0.00000001
 12
1.0
 22
0.0
 32
0.0
 13
1.0
 23
0.0
 33
0.0
 40
0.0
 40
0.0
 40
0.0
 40
0.0
 40
0.1811131077592925
 40
0.3662497767477936
 40
0.5702456447675797
 40
0.781631469821712
 40
0.9638087821079901
 40
1.0
 40
1.0
 40
1.0
 40
1.0
 10
214.3585236524163
 20
95.83306488980973
 30
0.0
 10
214.1692407015778
 20
95.80581963476462
 30
0.0
 10
213.7864697395837
 20
95.7507238512448
 30
0.0
 10
213.2982040922745
 20
95.66825591242458
 30
0.0
 10
212.8913161716761
 20
95.59396791787444
 30
0.0
 10
212.6471826008332
 20
95.54630358741863
 30
0.0
 10
212.5457604956454
 20
95.52602355616763
 30
0.0
 10
212.5667844318048
 20
95.53021076563053
 30
0.0
 10
212.5702688251553
 20
95.53090473105634
 30
0.0
  0
SPLINE
  5
96
330
1F
100
AcDbEntity
  8
0
  6
Continuous
 62
     7
370
    15
100
AcDbSpline
210
0.0
220
0.0
230
1.0
 70
     8
 71
     3
 72
    22
 73
    18
 74
     0
 42
0.00000001
 43
0.00000001
 12
1.0
 22
0.0
 32
0.0
 13
1.0
 23
0.0
 33
0.0
 40
0.0
 40
0.0
 40
0.0
 40
0.0
 40
0.0083119071683663
 40
0.0679106176146599
 40
0.1292465158529526
 40
0.1889825135550686
 40
0.2502009638466094
 40
0.3150621653899168
 40
0.3814528029754773
 40
0.4535561511650426
 40
0.5274508899938789
 40
0.6053341212849241
 40
0.6853419703800432
 40
0.7655680414555635
 40
0.848124094956255
 40
0.9230460782940759
 40
1.0
 40
1.0
 40
1.0
 40
1.0
 10
223.5507668708382
 20
95.53036828925336
 30
0.0
 10
223.5535148601546
 20
95.52982098259274
 30
0.0
 10
223.5759667051883
 20
95.52534933335582
 30
0.0
 10
223.4913978966173
 20
95.54227736796622
 30
0.0
 10
223.3037391150733
 20
95.57903116845895
 30
0.0
 10
222.9884970593539
 20
95.63808443818112
 30
0.0
 10
222.5696438293314
 20
95.71128038510098
 30
0.0
 10
222.040751991617
 20
95.79500879225169
 30
0.0
 10
221.3967547404669
 20
95.88357174110104
 30
0.0
 10
220.648520822358
 20
95.96764168979931
 30
0.0
 10
219.7975601275941
 20
96.03793718753498
 30
0.0
 10
218.8720875647997
 20
96.08345382942663
 30
0.0
 10
217.8994977206865
 20
96.09579210908866
 30
0.0
 10
216.9116874787356
 20
96.07131582546158
 30
0.0
 10
215.9777966038815
 20
96.01318584514284
 30
0.0
 10
215.1060753480233
 20
95.93053729537121
 30
0.0
 10
214.6099202272072
 20
95.86584419997489
 30
0.0
 10
214.3585236524163
 20
95.83306488980973
 30
0.0
  0
SPLINE
  5
97
330
1F
100
AcDbEntity
  8
0
  6
Continuous
 62
     7
370
    15
100
AcDbSpline
210
0.0
220
0.0
230
1.0
 70
     8
 71
     3
 72
    26
 73
    22
 74
     0
 42
0.00000001
 43
0.00000001
 12
1.0
 22
0.0
 32
0.0
 13
1.0
 23
0.0
 33
0.0
 40
0.0
 40
0.0
 40
0.0
 40
0.0
 40
0.0389802008891595
 40
0.0828142412731297
 40
0.127841282876178
 40
0.1733081640492926
 40
0.2198683426512051
 40
0.2699937943843383
 40
0.3213114985893625
 40
0.3767371181105944
 40
0.4335873026094
 40
0.4924228188319471
 40
0.5529066799530405
 40
0.6127096364429127
 40
0.674284848852697
 40
0.7332981928252443
 40
0.7942425115851655
 40
0.8494963898264946
 40
0.9067878779401707
 40
0.9556213194270426
 40
1.0
 40
1.0
 40
1.0
 40
1.0
 10
212.5702688251553
 20
139.5264825730535
 30
0.0
 10
212.5747555436988
 20
139.5255747809001
 30
0.0
 10
212.5842876698425
 20
139.5236461577348
 30
0.0
 10
212.7528426515304
 20
139.4903139729938
 30
0.0
 10
213.0285601272243
 20
139.4379088429963
 30
0.0
 10
213.4186155414071
 20
139.3681977338311
 30
0.0
 10
213.9178298105497
 20
139.2866401453089
 30
0.0
 10
214.5259644852576
 20
139.1991344852693
 30
0.0
 10
215.2490942645123
 20
139.1124417020811
 30
0.0
 10
216.0696600607084
 20
139.0373191870243
 30
0.0
 10
216.977939687999
 20
138.9838284866615
 30
0.0
 10
217.9417692625471
 20
138.9613506654939
 30
0.0
 10
218.9253099696291
 20
138.9753544295907
 30
0.0
 10
219.899368248056
 20
139.0255940033058
 30
0.0
 10
220.8136620602534
 20
139.105548194436
 30
0.0
 10
221.6527283593451
 20
139.2061274481661
 30
0.0
 10
222.356990098412
 20
139.3104969487495
 30
0.0
 10
222.9242835859961
 20
139.4072248790516
 30
0.0
 10
223.3040855086892
 20
139.478284130797
 30
0.0
 10
223.5250100695153
 20
139.5218214066411
 30
0.0
 10
223.5424592453529
 20
139.5253425728972
 30
0.0
 10
223.5507668708382
 20
139.5270190148565
 30
0.0
  0
LINE
  5
98
330
1F
100
AcDbEntity
  8
0
  6
Continuous
 62
     7
370
    15
100
AcDbLine
 10
241.0591767882
 20
138.5286933689
 30
0.0
 11
241.0591767882
 21
96.5286939352
 31
0.0
  0
LINE
  5
99
330
1F
100
AcDbEntity
  8
0
  6
Continuous
 62
     7
370
    15
100
AcDbLine
 10
170.8591764952
 20
103.9429287373
 30
0.0
 11
170.8591764952
 21
99.6888725965
 31
0.0
  0
SPLINE
  5
9A
330
1F
100
AcDbEntity
  8
0
  6
Continuous
 62
     7
370
    15
100
AcDbSpline
210
0.0
220
0.0
230
1.0
 70
     8
 71
     3
 72
    16
 73
    12
 74
     0
 42
0.00000001
 43
0.00000001
 12
1.0
 22
0.0
 32
0.0
 13
1.0
 23
0.0
 33
0.0
 40
0.0
 40
0.0
 40
0.0
 40
0.0
 40
0.5000000000000066
 40
0.5000000000000066
 40
0.7500000000000098
 40
0.7500000000000098
 40
0.8750000000000068
 40
0.8750000000000068
 40
0.9375000000000034
 40
0.9375000000000034
 40
1.0
 40
1.0
 40
1.0
 40
1.0
 10
170.8591764901695
 20
103.9429289646593
 30
0.0
 10
170.8591764901695
 20
104.0217231951159
 30
0.0
 10
170.8551191880545
 20
104.1027945435458
 30
0.0
 10
170.8294619452597
 20
104.2309114853624
 30
0.0
 10
170.8181464995176
 20
104.2755091329836
 30
0.0
 10
170.7841151322089
 20
104.3418283936792
 30
0.0
 10
170.7702361510052
 20
104.3647825915148
 30
0.0
 10
170.7343004692378
 20
104.3918209934791
 30
0.0
 10
170.719350149975
 20
104.3986307293826
 30
0.0
 10
170.6894516372331
 20
104.4019761909324
 30
0.0
 10
170.6759187768679
 20
104.3990181299589
 30
0.0
 10
170.6641996012939
 20
104.3942857892661
 30
0.0
  0
SPLINE
  5
9B
330
1F
100
AcDbEntity
  8
0
  6
Continuous
 62
     7
370
    15
100
AcDbSpline
210
0.0
220
0.0
230
1.0
 70
     8
 71
     3
 72
    14
 73
    10
 74
     0
 42
0.00000001
 43
0.00000001
 12
1.0
 22
0.0
 32
0.0
 13
1.0
 23
0.0
 33
0.0
 40
0.0
 40
0.0
 40
0.0
 40
0.0
 40
0.25
 40
0.25
 40
0.5
 40
0.5
 40
0.75
 40
0.75
 40
1.0
 40
1.0
 40
1.0
 40
1.0
 10
170.6641996013007
 20
104.394285789261
 30
0.0
 10
170.607743836692
 20
104.3714882886585
 30
0.0
 10
170.5368782104421
 20
104.3551296945637
 30
0.0
 10
170.3884211292695
 20
104.3605291361957
 30
0.0
 10
170.3192277699619
 20
104.3816203539837
 30
0.0
 10
170.2095123318277
 20
104.4325427543735
 30
0.0
 10
170.1642677524964
 20
104.4630431845069
 30
0.0
 10
170.0846410430726
 20
104.5263035819933
 30
0.0
 10
170.0500308945391
 20
104.5595496472428
 30
0.0
 10
170.0183154620399
 20
104.5938311645303
 30
0.0
  0
SPLINE
  5
9C
330
1F
100
AcDbEntity
  8
0
  6
Continuous
 62
     7
370
    15
100
AcDbSpline
210
0.0
220
0.0
230
1.0
 70
     8
 71
     3
 72
    10
 73
     6
 74
     0
 42
0.00000001
 43
0.00000001
 12
1.0
 22
0.0
 32
0.0
 13
1.0
 23
0.0
 33
0.0
 40
0.0
 40
0.0
 40
0.0
 40
0.0
 40
0.5
 40
0.5
 40
1.0
 40
1.0
 40
1.0
 40
1.0
 10
170.0183154620405
 20
104.5938311645297
 30
0.0
 10
169.946535674117
 20
104.671418630526
 30
0.0
 10
169.8940761598089
 20
104.7543806713581
 30
0.0
 10
169.8047330957078
 20
104.9289107200681
 30
0.0
 10
169.768737486208
 20
105.0205718617189
 30
0.0
 10
169.7378561466099
 20
105.1163712660545
 30
0.0
  0
SPLINE
  5
9D
330
1F
100
AcDbEntity
  8
0
  6
Continuous
 62
     7
370
    15
100
AcDbSpline
210
0.0
220
0.0
230
1.0
 70
     8
 71
     3
 72
    10
 73
     6
 74
     0
 42
0.00000001
 43
0.00000001
 12
1.0
 22
0.0
 32
0.0
 13
1.0
 23
0.0
 33
0.0
 40
0.0
 40
0.0
 40
0.0
 40
0.0
 40
0.5
 40
0.5
 40
1.0
 40
1.0
 40
1.0
 40
1.0
 10
169.7378561466099
 20
112.3942117187318
 30
0.0
 10
169.7687291784222
 20
112.5575557443993
 30
0.0
 10
169.8047160413351
 20
112.7196182134582
 30
0.0
 10
169.8940506272262
 20
113.0390498539622
 30
0.0
 10
169.9465064866488
 20
113.1966834955316
 30
0.0
 10
170.0183154620412
 20
113.3487967475777
 30
0.0
  0
SPLINE
  5
9E
330
1F
100
AcDbEntity
  8
0
  6
Continuous
 62
     7
370
    15
100
AcDbSpline
210
0.0
220
0.0
230
1.0
 70
     8
 71
     3
 72
    16
 73
    12
 74
     0
 42
0.00000001
 43
0.00000001
 12
1.0
 22
0.0
 32
0.0
 13
1.0
 23
0.0
 33
0.0
 40
0.0
 40
0.0
 40
0.0
 40
0.0
 40
0.2499999999999994
 40
0.2499999999999994
 40
0.4999999999999989
 40
0.4999999999999989
 40
0.6249999999999992
 40
0.6249999999999992
 40
0.7499999999999997
 40
0.7499999999999997
 40
1.0
 40
1.0
 40
1.0
 40
1.0
 10
170.0183154620405
 20
113.3487967475781
 30
0.0
 10
170.0500434232331
 20
113.4160062200911
 30
0.0
 10
170.0846710135837
 20
113.4815078521683
 30
0.0
 10
170.1643647756473
 20
113.606357680602
 30
0.0
 10
170.209406235651
 20
113.6664925427283
 30
0.0
 10
170.2922589625015
 20
113.7416419984844
 30
0.0
 10
170.3221734237013
 20
113.7637332844033
 30
0.0
 10
170.3881597542593
 20
113.7968947365761
 30
0.0
 10
170.4248933797211
 20
113.8077361472501
 30
0.0
 10
170.5373900992909
 20
113.8112602782859
 30
0.0
 10
170.6077314473891
 20
113.7741262234882
 30
0.0
 10
170.6641996012943
 20
113.7247569877779
 30
0.0
  0
SPLINE
  5
9F
330
1F
100
AcDbEntity
  8
0
  6
Continuous
 62
     7
370
    15
100
AcDbSpline
210
0.0
220
0.0
230
1.0
 70
     8
 71
     3
 72
    16
 73
    12
 74
     0
 42
0.00000001
 43
0.00000001
 12
1.0
 22
0.0
 32
0.0
 13
1.0
 23
0.0
 33
0.0
 40
0.0
 40
0.0
 40
0.0
 40
0.0
 40
0.0625000000000019
 40
0.0625000000000019
 40
0.1250000000000038
 40
0.1250000000000038
 40
0.2500000000000027
 40
0.2500000000000027
 40
0.5000000000000006
 40
0.5000000000000006
 40
1.0
 40
1.0
 40
1.0
 40
1.0
 10
170.6641996012627
 20
113.7247569877296
 30
0.0
 10
170.6759059167646
 20
113.7145223366972
 30
0.0
 10
170.6894018300938
 20
113.7060624186435
 30
0.0
 10
170.7193028217751
 20
113.7005674996985
 30
0.0
 10
170.7342789536625
 20
113.7047459484075
 30
0.0
 10
170.7700149952779
 20
113.7291231488449
 30
0.0
 10
170.7840312723076
 20
113.7558527947006
 30
0.0
 10
170.8181979258303
 20
113.8363023294825
 30
0.0
 10
170.8291791863742
 20
113.8937576777183
 30
0.0
 10
170.8550699737291
 20
114.0689340686617
 30
0.0
 10
170.8591764901693
 20
114.1884544273268
 30
0.0
 10
170.8591764901696
 20
114.3083527843706
 30
0.0
  0
LINE
  5
A0
330
1F
100
AcDbEntity
  8
0
  6
Continuous
 62
     7
370
    15
100
AcDbLine
 10
170.8591764952
 20
134.3347988038
 30
0.0
 11
170.8591764952
 21
114.3083527165
 31
0.0
  0
LINE
  5
A1
330
1F
100
AcDbEntity
  8
0
  6
Continuous
 62
     7
370
    15
100
AcDbLine
 10
170.8591764952
 20
134.3347988038
 30
0.0
 11
170.8424080905
 21
134.3941911071
 31
0.0
  0
SPLINE
  5
A2
330
1F
100
AcDbEntity
  8
0
  6
Continuous
 62
     7
370
    15
100
AcDbSpline
210
0.0
220
0.0
230
1.0
 70
     8
 71
     3
 72
    12
 73
     8
 74
     0
 42
0.00000001
 43
0.00000001
 12
1.0
 22
0.0
 32
0.0
 13
1.0
 23
0.0
 33
0.0
 40
0.0
 40
0.0
 40
0.0
 40
0.0
 40
0.5
 40
0.5
 40
0.75
 40
0.75
 40
1.0
 40
1.0
 40
1.0
 40
1.0
 10
170.8221903621657
 20
134.4658015730756
 30
0.0
 10
170.8120625918663
 20
134.4759863427117
 30
0.0
 10
170.7995696239068
 20
134.4850660712864
 30
0.0
 10
170.7641284437729
 20
134.4910897852536
 30
0.0
 10
170.7486572743084
 20
134.4918424487394
 30
0.0
 10
170.7052813824961
 20
134.483932168977
 30
0.0
 10
170.6818952432421
 20
134.4753634978642
 30
0.0
 10
170.6641996012939
 20
134.4670381791205
 30
0.0
  0
SPLINE
  5
A3
330
1F
100
AcDbEntity
  8
0
  6
Continuous
 62
     7
370
    15
100
AcDbSpline
210
0.0
220
0.0
230
1.0
 70
     8
 71
     3
 72
    14
 73
    10
 74
     0
 42
0.00000001
 43
0.00000001
 12
1.0
 22
0.0
 32
0.0
 13
1.0
 23
0.0
 33
0.0
 40
0.0
 40
0.0
 40
0.0
 40
0.0
 40
0.25
 40
0.25
 40
0.5
 40
0.5
 40
0.75
 40
0.75
 40
1.0
 40
1.0
 40
1.0
 40
1.0
 10
170.6641996013007
 20
134.4670381791156
 30
0.0
 10
170.607739935417
 20
134.440475440333
 30
0.0
 10
170.5368674605548
 20
134.4197883934535
 30
0.0
 10
170.3884011026728
 20
134.4188769484463
 30
0.0
 10
170.3192058994651
 20
134.4382967578432
 30
0.0
 10
170.2094887133955
 20
134.4870304408038
 30
0.0
 10
170.1642428244635
 20
134.5168369497867
 30
0.0
 10
170.0846256934966
 20
134.5783427482169
 30
0.0
 10
170.0500230740397
 20
134.6105597413605
 30
0.0
 10
170.0183154620409
 20
134.6434530440582
 30
0.0
  0
SPLINE
  5
A4
330
1F
100
AcDbEntity
  8
0
  6
Continuous
 62
     7
370
    15
100
AcDbSpline
210
0.0
220
0.0
230
1.0
 70
     8
 71
     3
 72
    10
 73
     6
 74
     0
 42
0.00000001
 43
0.00000001
 12
1.0
 22
0.0
 32
0.0
 13
1.0
 23
0.0
 33
0.0
 40
0.0
 40
0.0
 40
0.0
 40
0.0
 40
0.5
 40
0.5
 40
1.0
 40
1.0
 40
1.0
 40
1.0
 10
169.7378561466099
 20
135.0754979713784
 30
0.0
 10
169.7687347302219
 20
135.0079154268479
 30
0.0
 10
169.8047274379452
 20
134.9374905678787
 30
0.0
 10
169.8940676894423
 20
134.7925825289573
 30
0.0
 10
169.9465259922879
 20
134.7179270460482
 30
0.0
 10
170.018315462041
 20
134.6434530440581
 30
0.0
  0
SPLINE
  5
A5
330
1F
100
AcDbEntity
  8
0
  6
Continuous
 62
     7
370
    15
100
AcDbSpline
210
0.0
220
0.0
230
1.0
 70
     8
 71
     3
 72
    18
 73
    14
 74
     0
 42
0.00000001
 43
0.00000001
 12
1.0
 22
0.0
 32
0.0
 13
1.0
 23
0.0
 33
0.0
 40
0.0
 40
0.0
 40
0.0
 40
0.0
 40
0.2499999999999999
 40
0.2499999999999999
 40
0.3749999999999998
 40
0.3749999999999998
 40
0.4999999999999998
 40
0.4999999999999998
 40
0.6249999999999998
 40
0.6249999999999998
 40
0.7499999999999997
 40
0.7499999999999997
 40
1.0
 40
1.0
 40
1.0
 40
1.0
 10
169.7378561466099
 20
105.1163712660545
 30
0.0
 10
169.6025705403076
 20
105.5360512627003
 30
0.0
 10
169.5014027940646
 20
106.0123793800868
 30
0.0
 10
169.3985414511957
 20
106.8119120704952
 30
0.0
 10
169.3724386056724
 20
107.093513302548
 30
0.0
 10
169.3375486221275
 20
107.683366059173
 30
0.0
 10
169.3289623638376
 20
107.98733199957
 30
0.0
 10
169.3288626542719
 20
108.6127589601563
 30
0.0
 10
169.3373510254205
 20
108.9342215822904
 30
0.0
 10
169.3714944049411
 20
109.5946646017562
 30
0.0
 10
169.3972913867948
 20
109.9350330038485
 30
0.0
 10
169.5006925181828
 20
110.9738208232152
 30
0.0
 10
169.6025505103542
 20
111.6783323241871
 30
0.0
 10
169.7378561466099
 20
112.3942117187318
 30
0.0
  0
LINE
  5
A6
330
1F
100
AcDbEntity
  8
0
  6
Continuous
 62
     7
370
    15
100
AcDbLine
 10
142.5591764753
 20
105.0180158525
 30
0.0
 11
142.5591764753
 21
113.3487968652
 31
0.0
  0
LINE
  5
A7
330
1F
100
AcDbEntity
  8
0
  6
Continuous
 62
     7
370
    15
100
AcDbLine
 10
168.8591765021
 20
104.4457917049
 30
0.0
 11
168.8591765021
 21
113.3487968652
 31
0.0
  0
LINE
  5
A8
330
1F
100
AcDbEntity
  8
0
  6
Continuous
 62
     7
370
    15
100
AcDbLine
 10
168.8591765021
 20
113.3487968652
 30
0.0
 11
168.8591765021
 21
134.7914933174
 31
0.0
  0
LINE
  5
A9
330
1F
100
AcDbEntity
  8
0
  6
Continuous
 62
     7
370
    15
100
AcDbLine
 10
142.5591764753
 20
113.3487968652
 30
0.0
 11
142.5591764753
 21
134.2192682384
 31
0.0
  0
LINE
  5
AA
330
1F
100
AcDbEntity
  8
0
  6
Continuous
 62
     7
370
    15
100
AcDbLine
 10
141.0591771607
 20
113.3487968652
 30
0.0
 11
141.0591771607
 21
133.4692685812
 31
0.0
  0
LINE
  5
AB
330
1F
100
AcDbEntity
  8
0
  6
Continuous
 62
     7
370
    15
100
AcDbLine
 10
141.0591771607
 20
105.7680155097
 30
0.0
 11
141.0591771607
 21
113.3487968652
 31
0.0
  0
SPLINE
  5
AC
330
1F
100
AcDbEntity
  8
0
  6
Continuous
 62
     7
370
    15
100
AcDbSpline
210
0.0
220
0.0
230
1.0
 70
     8
 71
     3
 72
     8
 73
     4
 74
     0
 42
0.00000001
 43
0.00000001
 12
1.0
 22
0.0
 32
0.0
 13
1.0
 23
0.0
 33
0.0
 40
0.0000202085968836
 40
0.0000202085968836
 40
0.0000202085968836
 40
0.0000202085968836
 40
0.0040218806502652
 40
0.0040218806502652
 40
0.0040218806502652
 40
0.0040218806502652
 10
142.5591764901696
 20
101.9958968936445
 30
0.0
 10
143.8924996159602
 20
101.9652719818312
 30
0.0
 10
145.2258334891828
 20
101.9345829703475
 30
0.0
 10
146.5591764901696
 20
101.9038298936176
 30
0.0
  0
LINE
  5
AD
330
1F
100
AcDbEntity
  8
0
  6
Continuous
 62
     7
370
    15
100
AcDbLine
 10
142.5591764753
 20
101.9958964496
 30
0.0
 11
142.5591764753
 21
105.0180158525
 31
0.0
  0
LINE
  5
AE
330
1F
100
AcDbEntity
  8
0
  6
Continuous
 62
     7
370
    15
100
AcDbLine
 10
168.8591765021
 20
101.1285948514
 30
0.0
 11
168.8591765021
 21
104.4457917049
 31
0.0
  0
SPLINE
  5
AF
330
1F
100
AcDbEntity
  8
0
  6
Continuous
 62
     7
370
    15
100
AcDbSpline
210
0.0
220
0.0
230
1.0
 70
     8
 71
     3
 72
    11
 73
     7
 74
     0
 42
0.00000001
 43
0.00000001
 12
1.0
 22
0.0
 32
0.0
 13
1.0
 23
0.0
 33
0.0
 40
0.0
 40
0.0
 40
0.0
 40
0.0
 40
0.428224499852601
 40
0.6424796074349591
 40
0.8623811871476771
 40
1.0
 40
1.0
 40
1.0
 40
1.0
 10
146.5591771309195
 20
101.9038296251508
 30
0.0
 10
146.9177149448476
 20
101.8455314560715
 30
0.0
 10
147.4556412755981
 20
101.758064753916
 30
0.0
 10
148.0592584219931
 20
101.6832007707541
 30
0.0
 10
148.4042889734491
 20
101.6456621780471
 30
0.0
 10
148.4129330816996
 20
101.6448815638625
 30
0.0
 10
148.4162604217348
 20
101.6445810853454
 30
0.0
  0
SPLINE
  5
B0
330
1F
100
AcDbEntity
  8
0
  6
Continuous
 62
     7
370
    15
100
AcDbSpline
210
0.0
220
0.0
230
1.0
 70
     8
 71
     3
 72
    17
 73
    13
 74
     0
 42
0.00000001
 43
0.00000001
 12
1.0
 22
0.0
 32
0.0
 13
1.0
 23
0.0
 33
0.0
 40
0.0
 40
0.0
 40
0.0
 40
0.0
 40
0.0814507228376089
 40
0.1778665260594788
 40
0.2783615246888602
 40
0.3856835739379937
 40
0.4991426763638305
 40
0.615540371602487
 40
0.7313931026509092
 40
0.8436301830775871
 40
0.949650976219383
 40
1.0
 40
1.0
 40
1.0
 40
1.0
 10
160.4858759571729
 20
101.3417205720159
 30
0.0
 10
160.4720800801063
 20
101.3437857064055
 30
0.0
 10
160.4419535859233
 20
101.3482954058524
 30
0.0
 10
159.9987795610276
 20
101.410023598651
 30
0.0
 10
159.2782973994293
 20
101.4951309410871
 30
0.0
 10
158.2965368282718
 20
101.5813705178735
 30
0.0
 10
157.1460739908523
 20
101.6364413239572
 30
0.0
 10
155.9635384987967
 20
101.6405745566196
 30
0.0
 10
154.910419834967
 20
101.5987648326866
 30
0.0
 10
154.1643428771122
 20
101.5441064527588
 30
0.0
 10
153.7888358257439
 20
101.5085194335881
 30
0.0
 10
153.8141967147223
 20
101.5109239084749
 30
0.0
 10
153.8223625873146
 20
101.5116981177541
 30
0.0
  0
SPLINE
  5
B1
330
1F
100
AcDbEntity
  8
0
  6
Continuous
 62
     7
370
    15
100
AcDbSpline
210
0.0
220
0.0
230
1.0
 70
     8
 71
     3
 72
     8
 73
     4
 74
     0
 42
0.00000001
 43
0.00000001
 12
1.0
 22
0.0
 32
0.0
 13
1.0
 23
0.0
 33
0.0
 40
0.0
 40
0.0
 40
0.0
 40
0.0
 40
1.0
 40
1.0
 40
1.0
 40
1.0
 10
141.0591764901686
 20
102.773424668411
 30
0.0
 10
141.5333879006066
 20
102.5321137944519
 30
0.0
 10
142.0381242477085
 20
102.2709270203014
 30
0.0
 10
142.5591764901696
 20
101.9958968936445
 30
0.0
  0
LINE
  5
B2
330
1F
100
AcDbEntity
  8
0
  6
Continuous
 62
     7
370
    15
100
AcDbLine
 10
141.0591771607
 20
102.7734250708
 30
0.0
 11
141.0591771607
 21
105.7680155097
 31
0.0
  0
LINE
  5
B3
330
1F
100
AcDbEntity
  8
0
  6
Continuous
 62
     7
370
    15
100
AcDbLine
 10
168.8591765021
 20
136.1687927454
 30
0.0
 11
168.8591765021
 21
134.7914933174
 31
0.0
  0
LINE
  5
B4
330
1F
100
AcDbEntity
  8
0
  6
Continuous
 62
     7
370
    15
100
AcDbLine
 10
142.5591764753
 20
135.5080454557
 30
0.0
 11
142.5591764753
 21
134.2192682384
 31
0.0
  0
SPLINE
  5
B5
330
1F
100
AcDbEntity
  8
0
  6
Continuous
 62
     7
370
    15
100
AcDbSpline
210
0.0
220
0.0
230
1.0
 70
     8
 71
     3
 72
    11
 73
     7
 74
     0
 42
0.00000001
 43
0.00000001
 12
1.0
 22
0.0
 32
0.0
 13
1.0
 23
0.0
 33
0.0
 40
0.0
 40
0.0
 40
0.0
 40
0.0
 40
0.0902262665792518
 40
0.4609960999419443
 40
0.728442519376138
 40
1.0
 40
1.0
 40
1.0
 40
1.0
 10
169.3390242769314
 20
135.9579189627382
 30
0.0
 10
169.3359788973627
 20
135.9647272516529
 30
0.0
 10
169.3204190370554
 20
135.9995130713035
 30
0.0
 10
169.3952936985774
 20
135.8320808796353
 30
0.0
 10
169.5355360474559
 20
135.5199629332716
 30
0.0
 10
169.670074091798
 20
135.2244045825227
 30
0.0
 10
169.7378561845912
 20
135.0754982738706
 30
0.0
  0
LINE
  5
B6
330
1F
100
AcDbEntity
  8
0
  6
Continuous
 62
     7
370
    15
100
AcDbLine
 10
141.0591771607
 20
134.6420197695
 30
0.0
 11
141.0591771607
 21
133.4692685812
 31
0.0
  0
LINE
  5
B7
330
1F
100
AcDbEntity
  8
0
  6
Continuous
 62
     7
370
    15
100
AcDbLine
 10
202.9560470735
 20
139.0506475179
 30
0.0
 11
207.1361059104
 21
139.0506475179
 31
0.0
  0
LINE
  5
B8
330
1F
100
AcDbEntity
  8
0
  6
Continuous
 62
     7
370
    15
100
AcDbLine
 10
200.8871773039
 20
139.5286935328
 30
0.0
 11
209.2311756466
 21
139.5286935328
 31
0.0
  0
LINE
  5
B9
330
1F
100
AcDbEntity
  8
0
  6
Continuous
 62
     7
370
    15
100
AcDbLine
 10
220.1458887909
 20
96.0067397862
 30
0.0
 11
215.9321272527
 21
96.0067397862
 31
0.0
  0
LINE
  5
BA
330
1F
100
AcDbEntity
  8
0
  6
Continuous
 62
     7
370
    15
100
AcDbLine
 10
222.2311759149
 20
95.5286937713
 30
0.0
 11
213.8871775721
 21
95.5286937713
 31
0.0
  0
LINE
  5
BB
330
1F
100
AcDbEntity
  8
0
  6
Continuous
 62
     7
370
    15
100
AcDbLine
 10
207.1235293304
 20
96.0067397862
 30
0.0
 11
202.9588782941
 21
96.0067397862
 31
0.0
  0
LINE
  5
BC
330
1F
100
AcDbEntity
  8
0
  6
Continuous
 62
     7
370
    15
100
AcDbLine
 10
208.7031641756
 20
95.5286937713
 30
0.0
 11
200.8871773039
 21
95.5286937713
 31
0.0
  0
LINE
  5
BD
330
1F
100
AcDbEntity
  8
0
  6
Continuous
 62
     7
370
    15
100
AcDbLine
 10
209.2311756466
 20
95.5286937713
 30
0.0
 11
208.7031641756
 21
95.5286937713
 31
0.0
  0
LINE
  5
BE
330
1F
100
AcDbEntity
  8
0
  6
Continuous
 62
     7
370
    15
100
AcDbLine
 10
233.1458890592
 20
96.0067397862
 30
0.0
 11
228.9321275209
 21
96.0067397862
 31
0.0
  0
LINE
  5
BF
330
1F
100
AcDbEntity
  8
0
  6
Continuous
 62
     7
370
    15
100
AcDbLine
 10
235.2311761831
 20
95.5286937713
 30
0.0
 11
226.8871778403
 21
95.5286937713
 31
0.0
  0
LINE
  5
C0
330
1F
100
AcDbEntity
  8
0
  6
Continuous
 62
     7
370
    15
100
AcDbLine
 10
231.0591751491
 20
139.0506475179
 30
0.0
 11
233.1464143251
 21
139.0506475179
 31
0.0
  0
LINE
  5
C1
330
1F
100
AcDbEntity
  8
0
  6
Continuous
 62
     7
370
    15
100
AcDbLine
 10
228.9332115804
 20
139.0506475179
 30
0.0
 11
231.0591751491
 21
139.0506475179
 31
0.0
  0
LINE
  5
C2
330
1F
100
AcDbEntity
  8
0
  6
Continuous
 62
     7
370
    15
100
AcDbLine
 10
231.0591751491
 20
139.5286935328
 30
0.0
 11
235.2311761831
 21
139.5286935328
 31
0.0
  0
LINE
  5
C3
330
1F
100
AcDbEntity
  8
0
  6
Continuous
 62
     7
370
    15
100
AcDbLine
 10
226.8871778403
 20
139.5286935328
 30
0.0
 11
231.0591751491
 21
139.5286935328
 31
0.0
  0
LINE
  5
C4
330
1F
100
AcDbEntity
  8
0
  6
Continuous
 62
     7
370
    15
100
AcDbLine
 10
218.0591748808
 20
139.0506475179
 30
0.0
 11
220.1464177822
 21
139.0506475179
 31
0.0
  0
LINE
  5
C5
330
1F
100
AcDbEntity
  8
0
  6
Continuous
 62
     7
370
    15
100
AcDbLine
 10
215.9332113122
 20
139.0506475179
 30
0.0
 11
218.0591748808
 21
139.0506475179
 31
0.0
  0
LINE
  5
C6
330
1F
100
AcDbEntity
  8
0
  6
Continuous
 62
     7
370
    15
100
AcDbLine
 10
218.0591748808
 20
139.5286935328
 30
0.0
 11
222.2311759149
 21
139.5286935328
 31
0.0
  0
LINE
  5
C7
330
1F
100
AcDbEntity
  8
0
  6
Continuous
 62
     7
370
    15
100
AcDbLine
 10
213.8871775721
 20
139.5286935328
 30
0.0
 11
218.0591748808
 21
139.5286935328
 31
0.0
  0
SPLINE
  5
C8
330
1F
100
AcDbEntity
  8
0
  6
HIDDEN
 62
     7
370
     0
100
AcDbSpline
210
0.0
220
0.0
230
1.0
 70
     8
 71
     3
 72
    17
 73
    13
 74
     0
 42
0.00000001
 43
0.00000001
 12
1.0
 22
0.0
 32
0.0
 13
1.0
 23
0.0
 33
0.0
 40
0.0
 40
0.0
 40
0.0
 40
0.0
 40
0.10713733061689
 40
0.214266381017664
 40
0.3216098156908729
 40
0.4290956033398351
 40
0.5363476963701325
 40
0.6433543549574706
 40
0.7504869607540899
 40
0.857919952825008
 40
0.9653598706450023
 40
1.0
 40
1.0
 40
1.0
 40
1.0
 10
181.0591762666521
 20
92.52869327952588
 30
0.0
 10
181.0812170602139
 20
92.5305070029537
 30
0.0
 10
181.1252969438925
 20
92.53413430963387
 30
0.0
 10
181.4688241764214
 20
92.55935804407645
 30
0.0
 10
181.9753126080144
 20
92.58747815987996
 30
0.0
 10
182.6087522919328
 20
92.60777705501268
 30
0.0
 10
183.2917105288434
 20
92.61082612392015
 30
0.0
 10
183.9466964032644
 20
92.5955853331623
 30
0.0
 10
184.5062287309672
 20
92.56832098673048
 30
0.0
 10
184.8880581437923
 20
92.54239193302536
 30
0.0
 10
185.0698911178872
 20
92.52784886362477
 30
0.0
 10
185.0413913131341
 20
92.53010316697889
 30
0.0
 10
185.0344428573666
 20
92.53065278222287
 30
0.0
  0
SPLINE
  5
C9
330
1F
100
AcDbEntity
  8
0
  6
HIDDEN
 62
     7
370
     0
100
AcDbSpline
210
0.0
220
0.0
230
1.0
 70
     8
 71
     3
 72
    12
 73
     8
 74
     0
 42
0.00000001
 43
0.00000001
 12
1.0
 22
0.0
 32
0.0
 13
1.0
 23
0.0
 33
0.0
 40
0.0
 40
0.0
 40
0.0
 40
0.0
 40
0.2500000000000002
 40
0.2500000000000002
 40
0.5000000000000004
 40
0.5000000000000004
 40
1.0
 40
1.0
 40
1.0
 40
1.0
 10
179.586933303736
 20
109.9598836828744
 30
0.0
 10
179.5232680672055
 20
109.9598836828744
 30
0.0
 10
179.4636618349821
 20
109.9338115343947
 30
0.0
 10
179.3650013100513
 20
109.8582727835736
 30
0.0
 10
179.326034320036
 20
109.8110218464774
 30
0.0
 10
179.2266474881116
 20
109.6591980285109
 30
0.0
 10
179.1845712406881
 20
109.5463947787459
 30
0.0
 10
179.1539206018438
 20
109.4322406540108
 30
0.0
  0
LINE
  5
CA
330
1F
100
AcDbEntity
  8
0
  6
HIDDEN
 62
     7
370
     0
100
AcDbLine
 10
182.5314193745
 20
109.9598835169
 30
0.0
 11
179.5869331588
 21
109.9598835169
 31
0.0
  0
SPLINE
  5
CB
330
1F
100
AcDbEntity
  8
0
  6
HIDDEN
 62
     7
370
     0
100
AcDbSpline
210
0.0
220
0.0
230
1.0
 70
     8
 71
     3
 72
    12
 73
     8
 74
     0
 42
0.00000001
 43
0.00000001
 12
1.0
 22
0.0
 32
0.0
 13
1.0
 23
0.0
 33
0.0
 40
0.0
 40
0.0
 40
0.0
 40
0.0
 40
0.5000000000000018
 40
0.5000000000000018
 40
0.7500000000000009
 40
0.7500000000000009
 40
1.0
 40
1.0
 40
1.0
 40
1.0
 10
182.9644323784953
 20
109.4322406540108
 30
0.0
 10
182.933732995128
 20
109.5465763210746
 30
0.0
 10
182.8923829270215
 20
109.657929673916
 30
0.0
 10
182.7926269988021
 20
109.8106664461647
 30
0.0
 10
182.7529300810694
 20
109.8585263320169
 30
0.0
 10
182.6556719294217
 20
109.9331294453663
 30
0.0
 10
182.594895771431
 20
109.9598836828744
 30
0.0
 10
182.5314196766031
 20
109.9598836828744
 30
0.0
  0
ELLIPSE
  5
CC
330
1F
100
AcDbEntity
  8
0
  6
HIDDEN
 62
     7
370
     0
100
AcDbEllipse
 10
170.0029188352
 20
117.5286936521
 30
0.0
 11
-11.70927234972711
 21
24.67718644093743
 31
0.0
210
0.0
220
0.0
230
1.0
 40
0.3419987131
 41
3.310521928178961
 42
4.221709151398951
  0
SPLINE
  5
CD
330
1F
100
AcDbEntity
  8
0
  6
HIDDEN
 62
     7
370
     0
100
AcDbSpline
210
0.0
220
0.0
230
1.0
 70
     8
 71
     3
 72
    12
 73
     8
 74
     0
 42
0.00000001
 43
0.00000001
 12
1.0
 22
0.0
 32
0.0
 13
1.0
 23
0.0
 33
0.0
 40
0.0
 40
0.0
 40
0.0
 40
0.0
 40
0.2500000000000002
 40
0.2500000000000002
 40
0.5000000000000004
 40
0.5000000000000004
 40
1.0
 40
1.0
 40
1.0
 40
1.0
 10
182.5314196766031
 20
93.70196253655298
 30
0.0
 10
182.5950849131336
 20
93.70196253655297
 30
0.0
 10
182.654691145357
 20
93.71022731221885
 30
0.0
 10
182.7533516702878
 20
93.734446093802
 30
0.0
 10
182.7923186603031
 20
93.74970341311115
 30
0.0
 10
182.8917054922275
 20
93.79933676737306
 30
0.0
 10
182.933781739651
 20
93.83697647554719
 30
0.0
 10
182.9644323784953
 20
93.87605217482334
 30
0.0
  0
LINE
  5
CE
330
1F
100
AcDbEntity
  8
0
  6
HIDDEN
 62
     7
370
     0
100
AcDbLine
 10
179.5869331588
 20
93.7019622832
 30
0.0
 11
182.5314193745
 21
93.7019622832
 31
0.0
  0
SPLINE
  5
CF
330
1F
100
AcDbEntity
  8
0
  6
HIDDEN
 62
     7
370
     0
100
AcDbSpline
210
0.0
220
0.0
230
1.0
 70
     8
 71
     3
 72
    12
 73
     8
 74
     0
 42
0.00000001
 43
0.00000001
 12
1.0
 22
0.0
 32
0.0
 13
1.0
 23
0.0
 33
0.0
 40
0.0
 40
0.0
 40
0.0
 40
0.0
 40
0.5000000000000018
 40
0.5000000000000018
 40
0.7500000000000009
 40
0.7500000000000009
 40
1.0
 40
1.0
 40
1.0
 40
1.0
 10
179.1539206018438
 20
93.87605217482333
 30
0.0
 10
179.1846199852111
 20
93.83691433242743
 30
0.0
 10
179.2259700533176
 20
93.79975454970193
 30
0.0
 10
179.325725981537
 20
93.74981804407417
 30
0.0
 10
179.3654228992697
 20
93.73436517393043
 30
0.0
 10
179.4626810509174
 20
93.71044563033139
 30
0.0
 10
179.523457208908
 20
93.70196253655297
 30
0.0
 10
179.586933303736
 20
93.70196253655298
 30
0.0
  0
ELLIPSE
  5
D0
330
1F
100
AcDbEntity
  8
0
  6
HIDDEN
 62
     7
370
     0
100
AcDbEllipse
 10
192.1154341452
 20
117.5286936521
 30
0.0
 11
11.709272349727
 21
24.67718644093743
 31
0.0
210
0.0
220
0.0
230
1.0
 40
0.3419987131
 41
2.061476155780645
 42
2.972663379000664
  0
SPLINE
  5
D1
330
1F
100
AcDbEntity
  8
0
  6
HIDDEN
 62
     7
370
     0
100
AcDbSpline
210
0.0
220
0.0
230
1.0
 70
     8
 71
     3
 72
    12
 73
     8
 74
     0
 42
0.00000001
 43
0.00000001
 12
1.0
 22
0.0
 32
0.0
 13
1.0
 23
0.0
 33
0.0
 40
0.0
 40
0.0
 40
0.0
 40
0.0
 40
0.25
 40
0.25
 40
0.5
 40
0.5
 40
1.0
 40
1.0
 40
1.0
 40
1.0
 10
179.586933303736
 20
141.355424767557
 30
0.0
 10
179.5232680672055
 20
141.355424767557
 30
0.0
 10
179.4636618349821
 20
141.3471599918911
 30
0.0
 10
179.3650013100513
 20
141.322941210308
 30
0.0
 10
179.326034320036
 20
141.3076838909988
 30
0.0
 10
179.2266474881116
 20
141.2580505367369
 30
0.0
 10
179.1845712406881
 20
141.2204108285628
 30
0.0
 10
179.1539206018438
 20
141.1813351292867
 30
0.0
  0
LINE
  5
D2
330
1F
100
AcDbEntity
  8
0
  6
HIDDEN
 62
     7
370
     0
100
AcDbLine
 10
182.5314193745
 20
141.355425021
 30
0.0
 11
179.5869331588
 21
141.355425021
 31
0.0
  0
SPLINE
  5
D3
330
1F
100
AcDbEntity
  8
0
  6
HIDDEN
 62
     7
370
     0
100
AcDbSpline
210
0.0
220
0.0
230
1.0
 70
     8
 71
     3
 72
    12
 73
     8
 74
     0
 42
0.00000001
 43
0.00000001
 12
1.0
 22
0.0
 32
0.0
 13
1.0
 23
0.0
 33
0.0
 40
0.0
 40
0.0
 40
0.0
 40
0.0
 40
0.4999999999999972
 40
0.4999999999999972
 40
0.7499999999999986
 40
0.7499999999999986
 40
1.0
 40
1.0
 40
1.0
 40
1.0
 10
182.9644323784953
 20
141.1813351292867
 30
0.0
 10
182.933732995128
 20
141.2204729716825
 30
0.0
 10
182.8923829270215
 20
141.2576327544081
 30
0.0
 10
182.7926269988021
 20
141.3075692600358
 30
0.0
 10
182.7529300810694
 20
141.3230221301796
 30
0.0
 10
182.6556719294217
 20
141.3469416737786
 30
0.0
 10
182.594895771431
 20
141.355424767557
 30
0.0
 10
182.5314196766031
 20
141.355424767557
 30
0.0
  0
ELLIPSE
  5
D4
330
1F
100
AcDbEntity
  8
0
  6
HIDDEN
 62
     7
370
     0
100
AcDbEllipse
 10
170.0029188352
 20
117.5286936521
 30
0.0
 11
11.70927234972726
 21
24.67718644093744
 31
0.0
210
0.0
220
0.0
230
1.0
 40
0.3419987131
 41
5.203068809370473
 42
6.114256032590515
  0
SPLINE
  5
D5
330
1F
100
AcDbEntity
  8
0
  6
HIDDEN
 62
     7
370
     0
100
AcDbSpline
210
0.0
220
0.0
230
1.0
 70
     8
 71
     3
 72
    12
 73
     8
 74
     0
 42
0.00000001
 43
0.00000001
 12
1.0
 22
0.0
 32
0.0
 13
1.0
 23
0.0
 33
0.0
 40
0.0
 40
0.0
 40
0.0
 40
0.0
 40
0.2500000000000016
 40
0.2500000000000016
 40
0.5000000000000032
 40
0.5000000000000032
 40
1.0
 40
1.0
 40
1.0
 40
1.0
 10
182.5314196766031
 20
125.0975036212359
 30
0.0
 10
182.5950849131336
 20
125.0975036212359
 30
0.0
 10
182.654691145357
 20
125.1235757697156
 30
0.0
 10
182.7533516702878
 20
125.1991145205367
 30
0.0
 10
182.7923186603031
 20
125.2463654576329
 30
0.0
 10
182.8917054922275
 20
125.3981892755994
 30
0.0
 10
182.933781739651
 20
125.5109925253644
 30
0.0
 10
182.9644323784953
 20
125.6251466500995
 30
0.0
  0
LINE
  5
D6
330
1F
100
AcDbEntity
  8
0
  6
HIDDEN
 62
     7
370
     0
100
AcDbLine
 10
179.5869331588
 20
125.0975037872
 30
0.0
 11
182.5314193745
 21
125.0975037872
 31
0.0
  0
SPLINE
  5
D7
330
1F
100
AcDbEntity
  8
0
  6
HIDDEN
 62
     7
370
     0
100
AcDbSpline
210
0.0
220
0.0
230
1.0
 70
     8
 71
     3
 72
    12
 73
     8
 74
     0
 42
0.00000001
 43
0.00000001
 12
1.0
 22
0.0
 32
0.0
 13
1.0
 23
0.0
 33
0.0
 40
0.0
 40
0.0
 40
0.0
 40
0.0
 40
0.4999999999999982
 40
0.4999999999999982
 40
0.7499999999999991
 40
0.7499999999999991
 40
1.0
 40
1.0
 40
1.0
 40
1.0
 10
179.1539206018438
 20
125.6251466500995
 30
0.0
 10
179.1846199852111
 20
125.5108109830357
 30
0.0
 10
179.2259700533176
 20
125.3994576301943
 30
0.0
 10
179.325725981537
 20
125.2467208579456
 30
0.0
 10
179.3654228992697
 20
125.1988609720935
 30
0.0
 10
179.4626810509173
 20
125.124257858744
 30
0.0
 10
179.523457208908
 20
125.0975036212359
 30
0.0
 10
179.586933303736
 20
125.0975036212359
 30
0.0
  0
ELLIPSE
  5
D8
330
1F
100
AcDbEntity
  8
0
  6
HIDDEN
 62
     7
370
     0
100
AcDbEllipse
 10
192.1154341452
 20
117.5286936521
 30
0.0
 11
-11.70927234972717
 21
24.67718644093746
 31
0.0
210
0.0
220
0.0
230
1.0
 40
0.3419987131
 41
0.1689292745891111
 42
1.080116497809132
  0
LINE
  5
D9
330
1F
100
AcDbEntity
  8
0
  6
HIDDEN
 62
     7
370
     0
100
AcDbLine
 10
171.0591764902
 20
142.2286945342
 30
0.0
 11
171.0591764902
 21
92.8286927699
 31
0.0
  0
LINE
  5
DA
330
1F
100
AcDbEntity
  8
0
  6
HIDDEN
 62
     7
370
     0
100
AcDbLine
 10
191.0591760431
 20
141.9286931812
 30
0.0
 11
191.0591760431
 21
93.1286941229
 31
0.0
  0
LINE
  5
DB
330
1F
100
AcDbEntity
  8
0
  6
HIDDEN
 62
     7
370
     0
100
AcDbLine
 10
191.0591760431
 20
94.5440380781
 30
0.0
 11
191.0591760431
 21
140.513349226
 31
0.0
  0
SPLINE
  5
DC
330
1F
100
AcDbEntity
  8
0
  6
HIDDEN
 62
     7
370
     0
100
AcDbSpline
210
0.0
220
0.0
230
1.0
 70
    11
 71
     3
 72
    51
 73
    47
 74
     0
 42
0.00000001
 43
0.00000001
 12
1.0
 22
0.0
 32
0.0
 13
1.0
 23
0.0
 33
0.0
 40
0.0
 40
0.0
 40
0.0
 40
0.0
 40
0.0282341226577358
 40
0.0517134115666979
 40
0.0751836361945693
 40
0.1018146105392327
 40
0.1284281762697728
 40
0.1521681612905184
 40
0.1759069280223057
 40
0.1981164083733412
 40
0.2203333939952169
 40
0.243333688512774
 40
0.2663435354052145
 40
0.2916984612289102
 40
0.3170615746654901
 40
0.3451265621184499
 40
0.3527904095604852
 40
0.3731954323477174
 40
0.379961631681044
 40
0.4030227070354908
 40
0.4328501432334046
 40
0.4385413081271827
 40
0.4580226634547599
 40
0.4631945527163436
 40
0.4935340835308908
 40
0.5235290285003373
 40
0.5535073716812954
 40
0.5816516044735133
 40
0.609773330427509
 40
0.6346221889173909
 40
0.6594639831381764
 40
0.6819461722911058
 40
0.7044338098831407
 40
0.7269183887828897
 40
0.7494122145140575
 40
0.7738115677527275
 40
0.7982201326641079
 40
0.8253631353532146
 40
0.852511626881063
 40
0.8549385962998618
 40
0.881867641892562
 40
0.9112251194340352
 40
0.9414923217482278
 40
0.9585754645497099
 40
0.9717571332801597
 40
0.9999999999999999
 40
0.9999999999999999
 40
0.9999999999999999
 40
0.9999999999999999
 10
228.1196305309353
 20
113.3599131314966
 30
0.0
 10
227.8590111625422
 20
113.5248856866542
 30
0.0
 10
227.3816626426911
 20
113.8270482062938
 30
0.0
 10
226.7888795457831
 20
114.3979636064873
 30
0.0
 10
226.2914442852859
 20
115.0297144653163
 30
0.0
 10
225.8933765169297
 20
115.7717304958966
 30
0.0
 10
225.635599423945
 20
116.5786087823497
 30
0.0
 10
225.53954092201
 20
117.3885267443641
 30
0.0
 10
225.5815512384839
 20
118.1547577966087
 30
0.0
 10
225.7523397112112
 20
118.8842546959812
 30
0.0
 10
226.0316537275921
 20
119.5690963406992
 30
0.0
 10
226.4206904376597
 20
120.2070458809087
 30
0.0
 10
226.9220374125402
 20
120.8042732076265
 30
0.0
 10
227.5284436603611
 20
121.3369072078684
 30
0.0
 10
228.2570880362448
 20
121.7915581950927
 30
0.0
 10
228.863081363644
 20
122.087265835209
 30
0.0
 10
229.4611106595239
 20
122.2269780557103
 30
0.0
 10
229.8214727415697
 20
122.3641249012821
 30
0.0
 10
230.3718944863033
 20
122.4019019994136
 30
0.0
 10
231.0168843873091
 20
122.4975158744753
 30
0.0
 10
231.6688414931044
 20
122.4693630362431
 30
0.0
 10
232.2534753689566
 20
122.3274546961551
 30
0.0
 10
232.5767571070585
 20
122.252773566508
 30
0.0
 10
233.164863435307
 20
122.1242786043419
 30
0.0
 10
233.8206095142402
 20
121.8177805375485
 30
0.0
 10
234.656936724369
 20
121.2966640259229
 30
0.0
 10
235.3649469568312
 20
120.6387245483694
 30
0.0
 10
235.9252399915418
 20
119.8783843032315
 30
0.0
 10
236.3111295789762
 20
119.0745732119885
 30
0.0
 10
236.5244398160941
 20
118.2457093697834
 30
0.0
 10
236.5822340325005
 20
117.4526307202553
 30
0.0
 10
236.4983520171658
 20
116.689139717118
 30
0.0
 10
236.2995996012424
 20
115.9751470334203
 30
0.0
 10
235.9869934012858
 20
115.3047522971269
 30
0.0
 10
235.5660653274506
 20
114.6729221365413
 30
0.0
 10
235.0379592434984
 20
114.0999397772208
 30
0.0
 10
234.3920484716166
 20
113.5767724953518
 30
0.0
 10
233.6424746206118
 20
113.1586351226753
 30
0.0
 10
233.0708076592785
 20
112.902331559821
 30
0.0
 10
232.4654267018436
 20
112.7764306498848
 30
0.0
 10
231.843784082195
 20
112.603141929431
 30
0.0
 10
230.8911686318733
 20
112.5753583436249
 30
0.0
 10
230.0460914238631
 20
112.6386425060266
 30
0.0
 10
229.4164465291724
 20
112.8464788967169
 30
0.0
 10
228.7917964402299
 20
112.9945816211909
 30
0.0
 10
228.3921237142389
 20
113.211809300541
 30
0.0
 10
228.1196305309353
 20
113.3599131314966
 30
0.0
  0
SPLINE
  5
DD
330
1F
100
AcDbEntity
  8
0
  6
HIDDEN
 62
     7
370
     0
100
AcDbSpline
210
0.0
220
0.0
230
1.0
 70
    11
 71
     3
 72
    51
 73
    47
 74
     0
 42
0.00000001
 43
0.00000001
 12
1.0
 22
0.0
 32
0.0
 13
1.0
 23
0.0
 33
0.0
 40
0.0
 40
0.0
 40
0.0
 40
0.0
 40
0.028234122993625
 40
0.0517134121819101
 40
0.0751836370889966
 40
0.1018146117504773
 40
0.1284281777976276
 40
0.1521681631007975
 40
0.1759069301149947
 40
0.1981164107302468
 40
0.2203333966164285
 40
0.2433336914076101
 40
0.2663435385737888
 40
0.2916984646991212
 40
0.3170616735207054
 40
0.345126557838555
 40
0.3527904053717638
 40
0.3731954284017458
 40
0.3799616278155669
 40
0.4030227034443614
 40
0.4286466140817501
 40
0.4328501399971746
 40
0.4580226605178708
 40
0.4631945498409823
 40
0.4935340810164658
 40
0.5235290263427492
 40
0.5535074524404132
 40
0.5816515519145742
 40
0.6097733267618467
 40
0.6346221855473446
 40
0.6594639720528729
 40
0.6819461493062663
 40
0.7044338175706326
 40
0.7269183016728198
 40
0.7494121276715869
 40
0.7738115573694696
 40
0.7982201225712281
 40
0.8253630278743884
 40
0.8525116251264572
 40
0.8549385945741286
 40
0.8818676404871921
 40
0.9112251183779185
 40
0.9414923210521872
 40
0.9585754640569001
 40
0.9717571329441664
 40
1.0
 40
1.0
 40
1.0
 40
1.0
 10
215.1196302627144
 20
113.3599131314966
 30
0.0
 10
214.8590108943213
 20
113.5248856866533
 30
0.0
 10
214.3816623744702
 20
113.8270482062912
 30
0.0
 10
213.7888792775623
 20
114.3979636064957
 30
0.0
 10
213.2914440170643
 20
115.0297144652828
 30
0.0
 10
212.8933762487117
 20
115.7717304960406
 30
0.0
 10
212.6355991557139
 20
116.5786087818396
 30
0.0
 10
212.5395406538226
 20
117.38852674604
 30
0.0
 10
212.5815509701412
 20
118.1547577905016
 30
0.0
 10
212.7523394434126
 20
118.8842547171535
 30
0.0
 10
213.0316534577678
 20
119.5690962602958
 30
0.0
 10
213.4206901756603
 20
120.2070461928825
 30
0.0
 10
213.9220371201168
 20
120.8042719939846
 30
0.0
 10
214.5284442748286
 20
121.3369129411827
 30
0.0
 10
215.2570882323621
 20
121.7915389934142
 30
0.0
 10
215.863088067704
 20
122.0873150139319
 30
0.0
 10
216.4611017571021
 20
122.2269071238558
 30
0.0
 10
216.8215437700273
 20
122.3647075476932
 30
0.0
 10
217.371744472847
 20
122.4006783194188
 30
0.0
 10
217.973861041069
 20
122.5106000845187
 30
0.0
 10
218.5524332050974
 20
122.422751928072
 30
0.0
 10
219.1549889930397
 20
122.397691594577
 30
0.0
 10
219.515417918343
 20
122.2628952864951
 30
0.0
 10
220.165228557896
 20
122.1267157301305
 30
0.0
 10
220.8204606334064
 20
121.8167871919333
 30
0.0
 10
221.6569757009092
 20
121.296927753937
 30
0.0
 10
222.3649416900932
 20
120.6386621786881
 30
0.0
 10
222.9252367133365
 20
119.8783979535406
 30
0.0
 10
223.3111293512977
 20
119.0745704529491
 30
0.0
 10
223.5244412702214
 20
118.2457102912329
 30
0.0
 10
223.5822268178845
 20
117.4526308232577
 30
0.0
 10
223.4983551312349
 20
116.6891385780583
 30
0.0
 10
223.299592157673
 20
115.9751496920832
 30
0.0
 10
222.9869988638316
 20
115.3047504180955
 30
0.0
 10
222.5660681507235
 20
114.672921230735
 30
0.0
 10
222.0379591517324
 20
114.099940753924
 30
0.0
 10
221.3920488615375
 20
113.5767736011011
 30
0.0
 10
220.6424766486872
 20
113.1586329811909
 30
0.0
 10
220.0708084999252
 20
112.902331842783
 30
0.0
 10
219.4654264496011
 20
112.7764306121751
 30
0.0
 10
218.8437838063534
 20
112.6031419474163
 30
0.0
 10
217.8911683658821
 20
112.5753583383625
 30
0.0
 10
217.0460911553184
 20
112.6386425067905
 30
0.0
 10
216.4164462609986
 20
112.8464788966057
 30
0.0
 10
215.7917961719836
 20
112.9945816212509
 30
0.0
 10
215.3921234460077
 20
113.2118093005653
 30
0.0
 10
215.1196302627144
 20
113.3599131314966
 30
0.0
  0
SPLINE
  5
DE
330
1F
100
AcDbEntity
  8
0
  6
HIDDEN
 62
     7
370
     0
100
AcDbSpline
210
0.0
220
0.0
230
1.0
 70
    11
 71
     3
 72
    49
 73
    45
 74
     0
 42
0.00000001
 43
0.00000001
 12
1.0
 22
0.0
 32
0.0
 13
1.0
 23
0.0
 33
0.0
 40
0.0
 40
0.0
 40
0.0
 40
0.0
 40
0.0282341690595527
 40
0.051713457875328
 40
0.0751836824100484
 40
0.1018146566490163
 40
0.1284282222739299
 40
0.152168213942272
 40
0.1759069869363516
 40
0.1981164671992399
 40
0.2203334527329388
 40
0.243333688581582
 40
0.2663435715911506
 40
0.2916985396880149
 40
0.3170616530239312
 40
0.3451265886310016
 40
0.3731954587488497
 40
0.3750359371886081
 40
0.4030227333182195
 40
0.4328501693977514
 40
0.4470258866126451
 40
0.4631945787599664
 40
0.493534109454099
 40
0.523529149347696
 40
0.5535074924096731
 40
0.5816516582636031
 40
0.6097733841059866
 40
0.6346222424972457
 40
0.6594640286086475
 40
0.6819462055053507
 40
0.7044338734129396
 40
0.7269183571583999
 40
0.749412182800292
 40
0.7738116121110664
 40
0.7982201769255716
 40
0.8253630817980969
 40
0.8525116786194405
 40
0.8719871335509178
 40
0.8818676935144968
 40
0.9112251709394532
 40
0.9414923731335184
 40
0.9449434900280209
 40
0.9717571845453307
 40
1.0
 40
1.0
 40
1.0
 40
1.0
 10
202.1196318571387
 20
113.3599131314966
 30
0.0
 10
201.8590117947588
 20
113.5248855829105
 30
0.0
 10
201.3816623608541
 20
113.8270476865231
 30
0.0
 10
200.7888790197452
 20
114.3979636426377
 30
0.0
 10
200.2914438138824
 20
115.0297144731676
 30
0.0
 10
199.8933756650657
 20
115.7717304109797
 30
0.0
 10
199.6355999912493
 20
116.5786091659146
 30
0.0
 10
199.5395366640048
 20
117.3885259320405
 30
0.0
 10
199.5815533439427
 20
118.154760611925
 30
0.0
 10
199.7523428702056
 20
118.8842445339963
 30
0.0
 10
200.031646540615
 20
119.5691343838669
 30
0.0
 10
200.4207237205243
 20
120.2068952145051
 30
0.0
 10
200.9218956516674
 20
120.8048657222501
 30
0.0
 10
201.5290340848736
 20
121.3344422726941
 30
0.0
 10
202.2547967207147
 20
121.801142369667
 30
0.0
 10
203.0750594825193
 20
122.146004446818
 30
0.0
 10
203.6858959890576
 20
122.3425288670565
 30
0.0
 10
204.3172402840687
 20
122.401587463405
 30
0.0
 10
204.9632665944575
 20
122.497511351584
 30
0.0
 10
205.7619166356142
 20
122.4600753755142
 30
0.0
 10
206.3978861305665
 20
122.289614179538
 30
0.0
 10
207.0519921745464
 20
122.1666139348296
 30
0.0
 10
207.8215290655046
 20
121.820786404587
 30
0.0
 10
208.6566937041985
 20
121.2958620886214
 30
0.0
 10
209.3650117926175
 20
120.6389262099536
 30
0.0
 10
209.9252230725183
 20
119.8783305781248
 30
0.0
 10
210.3111323743925
 20
119.074585631522
 30
0.0
 10
210.5244402281971
 20
118.2457061906487
 30
0.0
 10
210.582226625252
 20
117.4526321881642
 30
0.0
 10
210.4983552068698
 20
116.6891369659107
 30
0.0
 10
210.2995904290182
 20
115.9751548771869
 30
0.0
 10
209.9870040934557
 20
115.3047312899085
 30
0.0
 10
209.5660466065866
 20
114.672995147255
 30
0.0
 10
209.0380458275289
 20
114.0996387275374
 30
0.0
 10
208.3917095173101
 20
113.5779514756227
 30
0.0
 10
207.6439004459338
 20
113.1536860978153
 30
0.0
 10
206.8943118743745
 20
112.8414938559197
 30
0.0
 10
206.2825239181379
 20
112.7406302379247
 30
0.0
 10
205.6578467056909
 20
112.5867047112907
 30
0.0
 10
204.8914165504417
 20
112.5841865936701
 30
0.0
 10
204.1940369198198
 20
112.6167932650925
 30
0.0
 10
203.5586247932653
 20
112.802551572788
 30
0.0
 10
202.9271218401363
 20
112.9333522875176
 30
0.0
 10
202.3934130727066
 20
113.2152867598545
 30
0.0
 10
202.1196318571387
 20
113.3599131314966
 30
0.0
  0
SPLINE
  5
DF
330
1F
100
AcDbEntity
  8
0
  6
HIDDEN
 62
     7
370
     0
100
AcDbSpline
210
0.0
220
0.0
230
1.0
 70
     8
 71
     3
 72
    28
 73
    24
 74
     0
 42
0.00000001
 43
0.00000001
 12
1.0
 22
0.0
 32
0.0
 13
1.0
 23
0.0
 33
0.0
 40
0.0
 40
0.0
 40
0.0
 40
0.0
 40
0.0389802020397218
 40
0.0828141929076277
 40
0.1278413211622186
 40
0.1733082036773602
 40
0.219868311273087
 40
0.2337314591377433
 40
0.2617391596565228
 40
0.2699937644860192
 40
0.3213113751501398
 40
0.3767370997140041
 40
0.4335872858908329
 40
0.4924228038500033
 40
0.5529066667563737
 40
0.6127096250114247
 40
0.6742848392386989
 40
0.7332981849531184
 40
0.7942425055119076
 40
0.8494963853841424
 40
0.9067878751888674
 40
0.9556213181171357
 40
1.0
 40
1.0
 40
1.0
 40
1.0
 10
199.5702704195795
 20
95.53090473105634
 30
0.0
 10
199.5747398465577
 20
95.53181264342491
 30
0.0
 10
199.5842352305881
 20
95.53374152080626
 30
0.0
 10
199.7530948991496
 20
95.56707157732511
 30
0.0
 10
200.0275712999149
 20
95.61948551392872
 30
0.0
 10
200.4223929377019
 20
95.68916238295019
 30
0.0
 10
200.7803220701714
 20
95.7500152810342
 30
0.0
 10
201.1478873616743
 20
95.80154620485195
 30
0.0
 10
201.3521901543135
 20
95.83064492428322
 30
0.0
 10
201.7072469454383
 20
95.881772414983
 30
0.0
 10
202.2543727137451
 20
95.94477483547446
 30
0.0
 10
203.0681589990442
 20
96.0201165961046
 30
0.0
 10
203.9783611507705
 20
96.0735451805132
 30
0.0
 10
204.9416507441892
 20
96.096040462308
 30
0.0
 10
205.9253413265709
 20
96.08203185189979
 30
0.0
 10
206.8993592561417
 20
96.03179358289013
 30
0.0
 10
207.8136640471284
 20
95.95183903675391
 30
0.0
 10
208.6527274741549
 20
95.85125987589385
 30
0.0
 10
209.356989980312
 20
95.74689035050612
 30
0.0
 10
209.9242832774353
 20
95.65016242636263
 30
0.0
 10
210.3040852496399
 20
95.57910317301629
 30
0.0
 10
210.5250097993831
 20
95.53556589753056
 30
0.0
 10
210.5424589765155
 20
95.5320447312325
 30
0.0
 10
210.5507666026173
 20
95.53036828925336
 30
0.0
  0
SPLINE
  5
E0
330
1F
100
AcDbEntity
  8
0
  6
HIDDEN
 62
     7
370
     0
100
AcDbSpline
210
0.0
220
0.0
230
1.0
 70
     8
 71
     3
 72
    14
 73
    10
 74
     0
 42
0.00000001
 43
0.00000001
 12
1.0
 22
0.0
 32
0.0
 13
1.0
 23
0.0
 33
0.0
 40
0.0
 40
0.0
 40
0.0
 40
0.0
 40
0.0886933547645324
 40
0.1811131174707727
 40
0.3662497963858873
 40
0.5702456753434748
 40
0.7816315117316417
 40
0.963808780167498
 40
1.0
 40
1.0
 40
1.0
 40
1.0
 10
201.3585233841954
 20
139.2243224143001
 30
0.0
 10
201.2690787954589
 20
139.2375643011955
 30
0.0
 10
201.0864316473163
 20
139.2646044263907
 30
0.0
 10
200.7047281390385
 20
139.3196693869234
 30
0.0
 10
200.3003924714347
 20
139.3890637328944
 30
0.0
 10
199.8906763340904
 20
139.4634391653942
 30
0.0
 10
199.6473357236051
 20
139.5110789407698
 30
0.0
 10
199.5457566568787
 20
139.5313639185789
 30
0.0
 10
199.5667852530485
 20
139.5271765628852
 30
0.0
 10
199.5702704195795
 20
139.5264825730535
 30
0.0
  0
SPLINE
  5
E1
330
1F
100
AcDbEntity
  8
0
  6
HIDDEN
 62
     7
370
     0
100
AcDbSpline
210
0.0
220
0.0
230
1.0
 70
     8
 71
     3
 72
    23
 73
    19
 74
     0
 42
0.00000001
 43
0.00000001
 12
1.0
 22
0.0
 32
0.0
 13
1.0
 23
0.0
 33
0.0
 40
0.0
 40
0.0
 40
0.0
 40
0.0
 40
0.0083119068911633
 40
0.0679106153498336
 40
0.1292465115425675
 40
0.1889825072524816
 40
0.2502009555023806
 40
0.31506215488256
 40
0.3814527902539857
 40
0.4535558735011164
 40
0.5274508932351909
 40
0.6053341219288221
 40
0.6853419683556707
 40
0.765568036755643
 40
0.8481240875030814
 40
0.9230462059980504
 40
0.9926508634720772
 40
1.0
 40
1.0
 40
1.0
 40
1.0
 10
210.5507666026173
 20
139.5270190148565
 30
0.0
 10
210.5535145919335
 20
139.5275663215176
 30
0.0
 10
210.5759664369656
 20
139.5320379707591
 30
0.0
 10
210.4913976284629
 20
139.5151099359453
 30
0.0
 10
210.3037388466106
 20
139.4783561363711
 30
0.0
 10
209.9884967920146
 20
139.4193028633026
 30
0.0
 10
209.5696435576418
 20
139.3461069293404
 30
0.0
 10
209.0407517373288
 20
139.2623784703587
 30
0.0
 10
208.3967552484671
 20
139.1738158417606
 30
0.0
 10
207.6485216835391
 20
139.0897450252996
 30
0.0
 10
206.7975651490645
 20
139.0194510501045
 30
0.0
 10
205.8720694480201
 20
138.973930511745
 30
0.0
 10
204.8995663733078
 20
138.9616064328029
 30
0.0
 10
203.9114262251572
 20
138.9860289780785
 30
0.0
 10
202.9787618010193
 20
139.0443587886383
 30
0.0
 10
202.1302646908413
 20
139.1237483175546
 30
0.0
 10
201.6406880897193
 20
139.1895131271637
 30
0.0
 10
201.3831211879873
 20
139.2212879029018
 30
0.0
 10
201.3585233841954
 20
139.2243224143001
 30
0.0
  0
SPLINE
  5
E2
330
1F
100
AcDbEntity
  8
0
  6
HIDDEN
 62
     7
370
     0
100
AcDbSpline
210
0.0
220
0.0
230
1.0
 70
     8
 71
     3
 72
    28
 73
    24
 74
     0
 42
0.00000001
 43
0.00000001
 12
1.0
 22
0.0
 32
0.0
 13
1.0
 23
0.0
 33
0.0
 40
0.0
 40
0.0
 40
0.0
 40
0.0
 40
0.0389801993137425
 40
0.082814187116232
 40
0.1278413122219673
 40
0.1733081915575005
 40
0.2198683682776449
 40
0.2337314305157105
 40
0.2617391290758442
 40
0.2699938179855744
 40
0.3213113300053852
 40
0.3767371540998846
 40
0.4335873363010431
 40
0.492422850145704
 40
0.5529067088222923
 40
0.6127096628951786
 40
0.6742848728163499
 40
0.7332982144038241
 40
0.7942423654344388
 40
0.8494962414426368
 40
0.9067878245507809
 40
0.9556213212206437
 40
1.0
 40
1.0
 40
1.0
 40
1.0
 10
225.5702690933762
 20
95.53090473105634
 30
0.0
 10
225.5747385239386
 20
95.53181264290235
 30
0.0
 10
225.5842339155841
 20
95.53374151917349
 30
0.0
 10
225.7530935209776
 20
95.56707158490184
 30
0.0
 10
226.027570174555
 20
95.61948548464687
 30
0.0
 10
226.4223910552292
 20
95.68916253124846
 30
0.0
 10
226.7803230105323
 20
95.75001501625897
 30
0.0
 10
227.1478859317501
 20
95.80154633068285
 30
0.0
 10
227.3521882927828
 20
95.83064513382494
 30
0.0
 10
227.7072485361049
 20
95.88177198244364
 30
0.0
 10
228.2543711633256
 20
95.94477520237889
 30
0.0
 10
229.0681594253048
 20
96.02011644296444
 30
0.0
 10
229.9783615628287
 20
96.07354521436231
 30
0.0
 10
230.9416513183755
 20
96.0960404533008
 30
0.0
 10
231.9253418419264
 20
96.08203185245438
 30
0.0
 10
232.8993598391937
 20
96.03179358961906
 30
0.0
 10
233.8136644160087
 20
95.95183900877943
 30
0.0
 10
234.6527278486311
 20
95.85126006892283
 30
0.0
 10
235.356986995398
 20
95.74689017292326
 30
0.0
 10
235.924279855016
 20
95.65016236090058
 30
0.0
 10
236.3040851300613
 20
95.57910319680634
 30
0.0
 10
236.5250148893327
 20
95.53556590933056
 30
0.0
 10
236.5424635088327
 20
95.53204473434207
 30
0.0
 10
236.5507708643494
 20
95.53036828925336
 30
0.0
  0
SPLINE
  5
E3
330
1F
100
AcDbEntity
  8
0
  6
HIDDEN
 62
     7
370
     0
100
AcDbSpline
210
0.0
220
0.0
230
1.0
 70
     8
 71
     3
 72
    14
 73
    10
 74
     0
 42
0.00000001
 43
0.00000001
 12
1.0
 22
0.0
 32
0.0
 13
1.0
 23
0.0
 33
0.0
 40
0.0
 40
0.0
 40
0.0
 40
0.0
 40
0.0886936694056917
 40
0.1811131077600695
 40
0.3662497767483949
 40
0.5702456447679874
 40
0.7816314698219193
 40
0.9638087821080245
 40
1.0
 40
1.0
 40
1.0
 40
1.0
 10
227.3585239206372
 20
139.2243224143001
 30
0.0
 10
227.2690785509413
 20
139.2375642749589
 30
0.0
 10
227.0864304658083
 20
139.2646042492041
 30
0.0
 10
226.7047292011254
 20
139.3196695654153
 30
0.0
 10
226.3003927669959
 20
139.3890636830297
 30
0.0
 10
225.8906767053066
 20
139.4634391794361
 30
0.0
 10
225.6473371393356
 20
139.5110789436139
 30
0.0
 10
225.5457552286606
 20
139.5313639191998
 30
0.0
 10
225.5667839130756
 20
139.5271765628273
 30
0.0
 10
225.5702690933762
 20
139.5264825730535
 30
0.0
  0
SPLINE
  5
E4
330
1F
100
AcDbEntity
  8
0
  6
HIDDEN
 62
     7
370
     0
100
AcDbSpline
210
0.0
220
0.0
230
1.0
 70
     8
 71
     3
 72
    23
 73
    19
 74
     0
 42
0.00000001
 43
0.00000001
 12
1.0
 22
0.0
 32
0.0
 13
1.0
 23
0.0
 33
0.0
 40
0.0
 40
0.0
 40
0.0
 40
0.0
 40
0.0083119072884068
 40
0.0679106828809867
 40
0.1292464187571744
 40
0.1889825447502091
 40
0.2502011640322478
 40
0.3150623665122803
 40
0.3814527690050007
 40
0.453556118235882
 40
0.5274508581319057
 40
0.60533409054774
 40
0.6853419407983319
 40
0.7655680130324765
 40
0.848124067725442
 40
0.9230463274569647
 40
0.9926509882575443
 40
0.9999999999999999
 40
0.9999999999999999
 40
0.9999999999999999
 40
0.9999999999999999
 10
236.5507708643494
 20
139.5270190148565
 30
0.0
 10
236.5535188912265
 20
139.5275663212388
 30
0.0
 10
236.5759710643951
 20
139.5320379724348
 30
0.0
 10
236.4913884685116
 20
139.5151100284488
 30
0.0
 10
236.3037470005448
 20
139.4783559916225
 30
0.0
 10
235.9884960774981
 20
139.4193028460066
 30
0.0
 10
235.5696405413977
 20
139.3461070275915
 30
0.0
 10
235.0407487372899
 20
139.2623786933777
 30
0.0
 10
234.396755046432
 20
139.173815395386
 30
0.0
 10
233.6485197754891
 20
139.0897454615094
 30
0.0
 10
232.7975649304245
 20
139.0194508374205
 30
0.0
 10
231.8720698801082
 20
138.9739305560975
 30
0.0
 10
230.8995669310142
 20
138.9616064205809
 30
0.0
 10
229.9114267824127
 20
138.9860289821353
 30
0.0
 10
228.9787616925658
 20
139.044358818962
 30
0.0
 10
228.1302645561549
 20
139.1237484289107
 30
0.0
 10
227.6406853364064
 20
139.1895126048229
 30
0.0
 10
227.3831210918344
 20
139.2212879000285
 30
0.0
 10
227.3585239206372
 20
139.2243224143001
 30
0.0
  0
SPLINE
  5
E5
330
1F
100
AcDbEntity
  8
0
  6
HIDDEN
 62
     7
370
     0
100
AcDbSpline
210
0.0
220
0.0
230
1.0
 70
     8
 71
     3
 72
    28
 73
    24
 74
     0
 42
0.00000001
 43
0.00000001
 12
1.0
 22
0.0
 32
0.0
 13
1.0
 23
0.0
 33
0.0
 40
0.0
 40
0.0
 40
0.0
 40
0.0
 40
0.038980200889139
 40
0.0828142412730861
 40
0.1278412828761107
 40
0.1733081640492014
 40
0.2198683426510893
 40
0.2337314054494348
 40
0.2617392744556906
 40
0.2699937943847228
 40
0.32131149858972
 40
0.3767371181109226
 40
0.4335873026096984
 40
0.4924228188322144
 40
0.552906679953276
 40
0.6127096364431165
 40
0.6742848488528685
 40
0.7332981928253847
 40
0.7942425115852738
 40
0.8494963898265738
 40
0.9067878779402198
 40
0.955621319427066
 40
1.0
 40
1.0
 40
1.0
 40
1.0
 10
212.5702688251553
 20
95.53090473105634
 30
0.0
 10
212.5747378488104
 20
95.53181264984049
 30
0.0
 10
212.5842323817987
 20
95.5337415420353
 30
0.0
 10
212.7530992072988
 20
95.5670714951146
 30
0.0
 10
213.0275686173336
 20
95.61948555669984
 30
0.0
 10
213.4223910685027
 20
95.6891625513063
 30
0.0
 10
213.7803231684598
 20
95.75001493478362
 30
0.0
 10
214.1478857537748
 20
95.80154654117442
 30
0.0
 10
214.3521923930387
 20
95.83064456986315
 30
0.0
 10
214.7072458875705
 20
95.88177289585238
 30
0.0
 10
215.2543751911206
 20
95.94477444681125
 30
0.0
 10
216.0681593428812
 20
96.02011675546008
 30
0.0
 10
216.9783615523606
 20
96.07354514479351
 30
0.0
 10
217.9416509750145
 20
96.09604047232351
 30
0.0
 10
218.925341604793
 20
96.08203184922121
 30
0.0
 10
219.8993595216037
 20
96.03179358362901
 30
0.0
 10
220.8136643160625
 20
95.9518390365629
 30
0.0
 10
221.6527277421807
 20
95.85125987594611
 30
0.0
 10
222.3569902485804
 20
95.7468903504934
 30
0.0
 10
222.9242835456435
 20
95.65016242636604
 30
0.0
 10
223.3040855178637
 20
95.57910317301551
 30
0.0
 10
223.5250100676033
 20
95.53556589753073
 30
0.0
 10
223.5424592447362
 20
95.53204473123256
 30
0.0
 10
223.5507668708382
 20
95.53036828925336
 30
0.0
  0
SPLINE
  5
E6
330
1F
100
AcDbEntity
  8
0
  6
HIDDEN
 62
     7
370
     0
100
AcDbSpline
210
0.0
220
0.0
230
1.0
 70
     8
 71
     3
 72
    14
 73
    10
 74
     0
 42
0.00000001
 43
0.00000001
 12
1.0
 22
0.0
 32
0.0
 13
1.0
 23
0.0
 33
0.0
 40
0.0
 40
0.0
 40
0.0
 40
0.0
 40
0.0886936694056917
 40
0.1811131077600695
 40
0.3662497767483949
 40
0.5702456447679874
 40
0.7816314698219193
 40
0.9638087821080245
 40
1.0
 40
1.0
 40
1.0
 40
1.0
 10
214.3585236524163
 20
139.2243224143001
 30
0.0
 10
214.2690782827204
 20
139.2375642749589
 30
0.0
 10
214.0864301975874
 20
139.2646042492041
 30
0.0
 10
213.7047289329045
 20
139.3196695654153
 30
0.0
 10
213.300392498775
 20
139.3890636830297
 30
0.0
 10
212.8906764370857
 20
139.4634391794361
 30
0.0
 10
212.6473368711146
 20
139.5110789436139
 30
0.0
 10
212.5457549604397
 20
139.5313639191998
 30
0.0
 10
212.5667836448547
 20
139.5271765628273
 30
0.0
 10
212.5702688251553
 20
139.5264825730535
 30
0.0
  0
SPLINE
  5
E7
330
1F
100
AcDbEntity
  8
0
  6
HIDDEN
 62
     7
370
     0
100
AcDbSpline
210
0.0
220
0.0
230
1.0
 70
     8
 71
     3
 72
    23
 73
    19
 74
     0
 42
0.00000001
 43
0.00000001
 12
1.0
 22
0.0
 32
0.0
 13
1.0
 23
0.0
 33
0.0
 40
0.0
 40
0.0
 40
0.0
 40
0.0
 40
0.0083119071683649
 40
0.0679106176146483
 40
0.1292465158529306
 40
0.1889825135550364
 40
0.2502009638465668
 40
0.3150621653898631
 40
0.3814528029754123
 40
0.4535561511649653
 40
0.5274508899937891
 40
0.6053341212848211
 40
0.6853419703799264
 40
0.765568041455433
 40
0.8481240949561105
 40
0.9230460782939187
 40
0.9926507380892565
 40
1.0
 40
1.0
 40
1.0
 40
1.0
 10
223.5507668708382
 20
139.5270190148565
 30
0.0
 10
223.5535148601556
 20
139.5275663215172
 30
0.0
 10
223.5759667051969
 20
139.5320379707554
 30
0.0
 10
223.4913978962824
 20
139.5151099360891
 30
0.0
 10
223.3037391162899
 20
139.4783561358489
 30
0.0
 10
222.9884970549184
 20
139.4193028652065
 30
0.0
 10
222.5696438467818
 20
139.3461069218501
 30
0.0
 10
222.0407519215227
 20
139.2623785004457
 30
0.0
 10
221.3967550181701
 20
139.173815608223
 30
0.0
 10
220.6485196752798
 20
139.0897454275491
 30
0.0
 10
219.7975646149417
 20
139.019450847182
 30
0.0
 10
218.8720696215371
 20
138.9739305532524
 30
0.0
 10
217.8995666743322
 20
138.9616064217032
 30
0.0
 10
216.9114264575405
 20
138.9860289805042
 30
0.0
 10
215.9787627178023
 20
139.044358756724
 30
0.0
 10
215.130265629323
 20
139.1237482066021
 30
0.0
 10
214.6406916476122
 20
139.1895136494847
 30
0.0
 10
214.3831220888045
 20
139.2212879057745
 30
0.0
 10
214.3585236524163
 20
139.2243224143001
 30
0.0
  0
LINE
  5
E8
330
1F
100
AcDbEntity
  8
0
  6
HIDDEN
 62
     7
370
     0
100
AcDbLine
 10
241.0591767882
 20
96.5286939352
 30
0.0
 11
241.0591767882
 21
138.5286933689
 31
0.0
  0
LINE
  5
E9
330
1F
100
AcDbEntity
  8
0
  6
HIDDEN
 62
     7
370
     0
100
AcDbLine
 10
171.0591764902
 20
97.982557392
 30
0.0
 11
171.0591764902
 21
137.0748299121
 31
0.0
  0
SPLINE
  5
EA
330
1F
100
AcDbEntity
  8
0
  6
HIDDEN
 62
     7
370
     0
100
AcDbSpline
210
0.0
220
0.0
230
1.0
 70
     8
 71
     3
 72
    14
 73
    10
 74
     0
 42
0.00000001
 43
0.00000001
 12
1.0
 22
0.0
 32
0.0
 13
1.0
 23
0.0
 33
0.0
 40
0.0
 40
0.0
 40
0.0
 40
0.0
 40
0.25
 40
0.25
 40
0.5
 40
0.5
 40
0.75
 40
0.75
 40
1.0
 40
1.0
 40
1.0
 40
1.0
 10
170.0183154620412
 20
104.593831164529
 30
0.0
 10
170.0500305963719
 20
104.5595499695348
 30
0.0
 10
170.0846451216723
 20
104.526297701167
 30
0.0
 10
170.1643163170876
 20
104.4630072440621
 30
0.0
 10
170.209372194118
 20
104.4325733352932
 30
0.0
 10
170.3199266066234
 20
104.3813306378429
 30
0.0
 10
170.3873120208276
 20
104.3605731373928
 30
0.0
 10
170.5379415407256
 20
104.355087359449
 30
0.0
 10
170.607768777491
 20
104.3714983600544
 30
0.0
 10
170.6641996012945
 20
104.3942857892661
 30
0.0
  0
SPLINE
  5
EB
330
1F
100
AcDbEntity
  8
0
  6
HIDDEN
 62
     7
370
     0
100
AcDbSpline
210
0.0
220
0.0
230
1.0
 70
     8
 71
     3
 72
    16
 73
    12
 74
     0
 42
0.00000001
 43
0.00000001
 12
1.0
 22
0.0
 32
0.0
 13
1.0
 23
0.0
 33
0.0
 40
0.0
 40
0.0
 40
0.0
 40
0.0
 40
0.0624999999999998
 40
0.0624999999999998
 40
0.1249999999999997
 40
0.1249999999999997
 40
0.2499999999999976
 40
0.2499999999999976
 40
0.4999999999999984
 40
0.4999999999999984
 40
1.0
 40
1.0
 40
1.0
 40
1.0
 10
170.6641996012627
 20
104.39428578931
 30
0.0
 10
170.6759338357096
 20
104.3990242109572
 30
0.0
 10
170.6894655911885
 20
104.4019864881039
 30
0.0
 10
170.7194530516183
 20
104.3986073104822
 30
0.0
 10
170.7344477580266
 20
104.3917275027466
 30
0.0
 10
170.7701881804214
 20
104.3647838431941
 30
0.0
 10
170.7842015174226
 20
104.3417093767398
 30
0.0
 10
170.818345606204
 20
104.2750216544654
 30
0.0
 10
170.8293175103223
 20
104.2315181783828
 30
0.0
 10
170.8551630505887
 20
104.1028029554342
 30
0.0
 10
170.8591764901695
 20
104.0214127748032
 30
0.0
 10
170.8591764901696
 20
103.9429289646593
 30
0.0
  0
LINE
  5
EC
330
1F
100
AcDbEntity
  8
0
  6
HIDDEN
 62
     7
370
     0
100
AcDbLine
 10
170.8591764952
 20
99.6888725965
 30
0.0
 11
170.8591764952
 21
103.9429287373
 31
0.0
  0
LINE
  5
ED
330
1F
100
AcDbEntity
  8
0
  6
HIDDEN
 62
     7
370
     0
100
AcDbLine
 10
170.8424080905
 20
134.3941911071
 30
0.0
 11
170.8221903579
 21
134.4658023625
 31
0.0
  0
SPLINE
  5
EE
330
1F
100
AcDbEntity
  8
0
  6
HIDDEN
 62
     7
370
     0
100
AcDbSpline
210
0.0
220
0.0
230
1.0
 70
     8
 71
     3
 72
    10
 73
     6
 74
     0
 42
0.00000001
 43
0.00000001
 12
1.0
 22
0.0
 32
0.0
 13
1.0
 23
0.0
 33
0.0
 40
0.0
 40
0.0
 40
0.0
 40
0.0
 40
0.5
 40
0.5
 40
1.0
 40
1.0
 40
1.0
 40
1.0
 10
170.0183154620403
 20
134.6434530440589
 30
0.0
 10
169.9465259922875
 20
134.7179270460488
 30
0.0
 10
169.894067689442
 20
134.7925825289578
 30
0.0
 10
169.8047274379451
 20
134.9374905678789
 30
0.0
 10
169.7687347302218
 20
135.007915426848
 30
0.0
 10
169.7378561466099
 20
135.0754979713784
 30
0.0
  0
SPLINE
  5
EF
330
1F
100
AcDbEntity
  8
0
  6
HIDDEN
 62
     7
370
     0
100
AcDbSpline
210
0.0
220
0.0
230
1.0
 70
     8
 71
     3
 72
    14
 73
    10
 74
     0
 42
0.00000001
 43
0.00000001
 12
1.0
 22
0.0
 32
0.0
 13
1.0
 23
0.0
 33
0.0
 40
0.0
 40
0.0
 40
0.0
 40
0.0
 40
0.25
 40
0.25
 40
0.5
 40
0.5
 40
0.75
 40
0.75
 40
1.0
 40
1.0
 40
1.0
 40
1.0
 10
170.0183154620397
 20
134.6434530440595
 30
0.0
 10
170.050024161525
 20
134.6105586132091
 30
0.0
 10
170.0846319801657
 20
134.5783353035516
 30
0.0
 10
170.164290390655
 20
134.5168027938092
 30
0.0
 10
170.2093526605499
 20
134.4870533479456
 30
0.0
 10
170.3199345061282
 20
134.438010854455
 30
0.0
 10
170.3875786269435
 20
134.418860243016
 30
0.0
 10
170.5378269173407
 20
134.4198059504514
 30
0.0
 10
170.607779315571
 20
134.4404939676341
 30
0.0
 10
170.6641996012945
 20
134.4670381791205
 30
0.0
  0
SPLINE
  5
F0
330
1F
100
AcDbEntity
  8
0
  6
HIDDEN
 62
     7
370
     0
100
AcDbSpline
210
0.0
220
0.0
230
1.0
 70
     8
 71
     3
 72
    16
 73
    12
 74
     0
 42
0.00000001
 43
0.00000001
 12
1.0
 22
0.0
 32
0.0
 13
1.0
 23
0.0
 33
0.0
 40
0.0
 40
0.0
 40
0.0
 40
0.0
 40
0.0624999999999986
 40
0.0624999999999986
 40
0.1249999999999971
 40
0.1249999999999971
 40
0.2499999999999967
 40
0.2499999999999967
 40
0.499999999999999
 40
0.499999999999999
 40
1.0
 40
1.0
 40
1.0
 40
1.0
 10
170.6641996012627
 20
134.4670381791251
 30
0.0
 10
170.6759338357096
 20
134.4725588176132
 30
0.0
 10
170.6894655911885
 20
134.4780728744848
 30
0.0
 10
170.7194530516184
 20
134.4869044376889
 30
0.0
 10
170.7344477580266
 20
134.4895412609685
 30
0.0
 10
170.7701881804214
 20
134.4919569605123
 30
0.0
 10
170.7842015174226
 20
134.4882100175191
 30
0.0
 10
170.818345606204
 20
134.4742230615179
 30
0.0
 10
170.8293175103223
 20
134.4601216356588
 30
0.0
 10
170.8551630505887
 20
134.4132038649434
 30
0.0
 10
170.8591764901695
 20
134.3754213893214
 30
0.0
 10
170.8591764901696
 20
134.3347992071353
 30
0.0
  0
LINE
  5
F1
330
1F
100
AcDbEntity
  8
0
  6
HIDDEN
 62
     7
370
     0
100
AcDbLine
 10
170.8591764952
 20
114.3083527165
 30
0.0
 11
170.8591764952
 21
134.3347988038
 31
0.0
  0
SPLINE
  5
F2
330
1F
100
AcDbEntity
  8
0
  6
HIDDEN
 62
     7
370
     0
100
AcDbSpline
210
0.0
220
0.0
230
1.0
 70
     8
 71
     3
 72
    16
 73
    12
 74
     0
 42
0.00000001
 43
0.00000001
 12
1.0
 22
0.0
 32
0.0
 13
1.0
 23
0.0
 33
0.0
 40
0.0
 40
0.0
 40
0.0
 40
0.0
 40
0.4999999999999989
 40
0.4999999999999989
 40
0.7500000000000001
 40
0.7500000000000001
 40
0.8749999999999999
 40
0.8749999999999999
 40
0.9374999999999999
 40
0.9374999999999999
 40
1.0
 40
1.0
 40
1.0
 40
1.0
 10
170.8591764901697
 20
114.3083527843705
 30
0.0
 10
170.8591764901694
 20
114.1883990057951
 30
0.0
 10
170.8550519473154
 20
114.0686676841412
 30
0.0
 10
170.8291355016823
 20
113.8935345379281
 30
0.0
 10
170.8178579206625
 20
113.8354428267893
 30
0.0
 10
170.7841225421212
 20
113.7560972634491
 30
0.0
 10
170.7697337268768
 20
113.7289569494732
 30
0.0
 10
170.7344870374377
 20
113.7048750953556
 30
0.0
 10
170.7192816129808
 20
113.7006001099105
 30
0.0
 10
170.6896350338114
 20
113.705991054597
 30
0.0
 10
170.675929697814
 20
113.7145015453659
 30
0.0
 10
170.6641996012902
 20
113.7247569877734
 30
0.0
  0
SPLINE
  5
F3
330
1F
100
AcDbEntity
  8
0
  6
HIDDEN
 62
     7
370
     0
100
AcDbSpline
210
0.0
220
0.0
230
1.0
 70
     8
 71
     3
 72
    14
 73
    10
 74
     0
 42
0.00000001
 43
0.00000001
 12
1.0
 22
0.0
 32
0.0
 13
1.0
 23
0.0
 33
0.0
 40
0.0
 40
0.0
 40
0.0
 40
0.0
 40
0.25
 40
0.25
 40
0.5
 40
0.5
 40
0.75
 40
0.75
 40
1.0
 40
1.0
 40
1.0
 40
1.0
 10
170.6641996013007
 20
113.7247569877881
 30
0.0
 10
170.6077525192422
 20
113.7741078007095
 30
0.0
 10
170.536902135199
 20
113.8111497725983
 30
0.0
 10
170.3884657003821
 20
113.8066898407781
 30
0.0
 10
170.3192764486951
 20
113.7662023071481
 30
0.0
 10
170.2095649004541
 20
113.6665814488368
 30
0.0
 10
170.1643232511117
 20
113.6062962909131
 30
0.0
 10
170.0846752329278
 20
113.4815107970877
 30
0.0
 10
170.0500483171617
 20
113.4160165869208
 30
0.0
 10
170.0183154620403
 20
113.3487967475782
 30
0.0
  0
SPLINE
  5
F4
330
1F
100
AcDbEntity
  8
0
  6
HIDDEN
 62
     7
370
     0
100
AcDbSpline
210
0.0
220
0.0
230
1.0
 70
     8
 71
     3
 72
    10
 73
     6
 74
     0
 42
0.00000001
 43
0.00000001
 12
1.0
 22
0.0
 32
0.0
 13
1.0
 23
0.0
 33
0.0
 40
0.0
 40
0.0
 40
0.0
 40
0.0
 40
0.5
 40
0.5
 40
1.0
 40
1.0
 40
1.0
 40
1.0
 10
170.0183154620411
 20
113.3487967475777
 30
0.0
 10
169.9465064866488
 20
113.1966834955316
 30
0.0
 10
169.8940506272262
 20
113.0390498539621
 30
0.0
 10
169.8047160413351
 20
112.7196182134582
 30
0.0
 10
169.7687291784222
 20
112.5575557443993
 30
0.0
 10
169.7378561466099
 20
112.3942117187318
 30
0.0
  0
SPLINE
  5
F5
330
1F
100
AcDbEntity
  8
0
  6
HIDDEN
 62
     7
370
     0
100
AcDbSpline
210
0.0
220
0.0
230
1.0
 70
     8
 71
     3
 72
    10
 73
     6
 74
     0
 42
0.00000001
 43
0.00000001
 12
1.0
 22
0.0
 32
0.0
 13
1.0
 23
0.0
 33
0.0
 40
0.0
 40
0.0
 40
0.0
 40
0.0
 40
0.5
 40
0.5
 40
1.0
 40
1.0
 40
1.0
 40
1.0
 10
169.7378561466099
 20
105.1163712660546
 30
0.0
 10
169.7687374862081
 20
105.0205718617188
 30
0.0
 10
169.8047330957079
 20
104.9289107200678
 30
0.0
 10
169.8940761598093
 20
104.7543806713576
 30
0.0
 10
169.9465356741175
 20
104.6714186305254
 30
0.0
 10
170.0183154620412
 20
104.593831164529
 30
0.0
  0
LINE
  5
F6
330
1F
100
AcDbEntity
  8
0
  6
HIDDEN
 62
     7
370
     0
100
AcDbLine
 10
170.8591764952
 20
114.3083527165
 30
0.0
 11
170.8591764952
 21
134.3347988038
 31
0.0
  0
LINE
  5
F7
330
1F
100
AcDbEntity
  8
0
  6
HIDDEN
 62
     7
370
     0
100
AcDbLine
 10
168.8591765021
 20
104.4457917049
 30
0.0
 11
168.8591765021
 21
101.1285948514
 31
0.0
  0
LINE
  5
F8
330
1F
100
AcDbEntity
  8
0
  6
HIDDEN
 62
     7
370
     0
100
AcDbLine
 10
142.5591764753
 20
105.0180158525
 30
0.0
 11
142.5591764753
 21
101.9958964496
 31
0.0
  0
SPLINE
  5
F9
330
1F
100
AcDbEntity
  8
0
  6
HIDDEN
 62
     7
370
     0
100
AcDbSpline
210
0.0
220
0.0
230
1.0
 70
     8
 71
     3
 72
     8
 73
     4
 74
     0
 42
0.00000001
 43
0.00000001
 12
1.0
 22
0.0
 32
0.0
 13
1.0
 23
0.0
 33
0.0
 40
0.0000202082942178
 40
0.0000202082942178
 40
0.0000202082942178
 40
0.0000202082942178
 40
0.0040218803475994
 40
0.0040218803475994
 40
0.0040218803475994
 40
0.0040218803475994
 10
146.5591764901696
 20
101.9038298936176
 30
0.0
 10
145.2258334891828
 20
101.9345829703475
 30
0.0
 10
143.8924996159602
 20
101.9652719818312
 30
0.0
 10
142.5591764901696
 20
101.9958968936445
 30
0.0
  0
SPLINE
  5
FA
330
1F
100
AcDbEntity
  8
0
  6
HIDDEN
 62
     7
370
     0
100
AcDbSpline
210
0.0
220
0.0
230
1.0
 70
     8
 71
     3
 72
    12
 73
     8
 74
     0
 42
0.00000001
 43
0.00000001
 12
1.0
 22
0.0
 32
0.0
 13
1.0
 23
0.0
 33
0.0
 40
0.0
 40
0.0
 40
0.0
 40
0.0
 40
0.0583245778705122
 40
0.2535553028598371
 40
0.5293292863279843
 40
0.8119597681484104
 40
0.9999999999999999
 40
0.9999999999999999
 40
0.9999999999999999
 40
0.9999999999999999
 10
148.4162604217348
 20
101.6445810853454
 30
0.0
 10
148.424894222238
 20
101.6436787360386
 30
0.0
 10
148.4624280712834
 20
101.6397559395071
 30
0.0
 10
148.1994472669912
 20
101.6670131965429
 30
0.0
 10
147.7063324469676
 20
101.7260389172758
 30
0.0
 10
147.109650220576
 20
101.8105230611936
 30
0.0
 10
146.716319027696
 20
101.8771936810557
 30
0.0
 10
146.5591771309195
 20
101.9038296251508
 30
0.0
  0
SPLINE
  5
FB
330
1F
100
AcDbEntity
  8
0
  6
HIDDEN
 62
     7
370
     0
100
AcDbSpline
210
0.0
220
0.0
230
1.0
 70
     8
 71
     3
 72
    15
 73
    11
 74
     0
 42
0.00000001
 43
0.00000001
 12
1.0
 22
0.0
 32
0.0
 13
1.0
 23
0.0
 33
0.0
 40
0.0
 40
0.0
 40
0.0
 40
0.0
 40
0.1194911902388236
 40
0.2591629481514984
 40
0.4048882018253529
 40
0.5540164354350036
 40
0.7027433663977015
 40
0.84590416810377
 40
0.9792778431130827
 40
1.0
 40
1.0
 40
1.0
 40
1.0
 10
154.5882357065497
 20
101.573904877803
 30
0.0
 10
154.8227506422948
 20
101.5882691536438
 30
0.0
 10
155.3313871535874
 20
101.6194236518754
 30
0.0
 10
156.3612446319076
 20
101.6443831091055
 30
0.0
 10
157.5296856078866
 20
101.6237905497392
 30
0.0
 10
158.6824710449152
 20
101.552868555007
 30
0.0
 10
159.6641042524516
 20
101.4525768934446
 30
0.0
 10
160.2859389497013
 20
101.3711081815047
 30
0.0
 10
160.5482885152555
 20
101.3327657647961
 30
0.0
 10
160.4932740677981
 20
101.3406591084823
 30
0.0
 10
160.4858759571729
 20
101.3417205720159
 30
0.0
  0
SPLINE
  5
FC
330
1F
100
AcDbEntity
  8
0
  6
HIDDEN
 62
     7
370
     0
100
AcDbSpline
210
0.0
220
0.0
230
1.0
 70
     8
 71
     3
 72
    10
 73
     6
 74
     0
 42
0.00000001
 43
0.00000001
 12
1.0
 22
0.0
 32
0.0
 13
1.0
 23
0.0
 33
0.0
 40
0.0
 40
0.0
 40
0.0
 40
0.0
 40
0.224112125627521
 40
0.6644880310366768
 40
1.0
 40
1.0
 40
1.0
 40
1.0
 10
153.8223625873146
 20
101.5116981177541
 30
0.0
 10
153.8139453457126
 20
101.5108754941634
 30
0.0
 10
153.7889883904243
 20
101.5084364314462
 30
0.0
 10
154.0751580365921
 20
101.5364298133234
 30
0.0
 10
154.4333466265207
 20
101.5625918181998
 30
0.0
 10
154.5882357065497
 20
101.573904877803
 30
0.0
  0
LINE
  5
FD
330
1F
100
AcDbEntity
  8
0
  6
HIDDEN
 62
     7
370
     0
100
AcDbLine
 10
170.8591764952
 20
103.9429287373
 30
0.0
 11
170.8591764952
 21
101.1006272345
 31
0.0
  0
LINE
  5
FE
330
1F
100
AcDbEntity
  8
0
  6
HIDDEN
 62
     7
370
     0
100
AcDbLine
 10
146.0872163777
 20
106.7400182544
 30
0.0
 11
146.0872163777
 21
128.3173690497
 31
0.0
  0
LINE
  5
FF
330
1F
100
AcDbEntity
  8
0
  6
HIDDEN
 62
     7
370
     0
100
AcDbLine
 10
142.0872157221
 20
106.358820474
 30
0.0
 11
142.0872157221
 21
128.6985668301
 31
0.0
  0
LINE
  5
100
330
1F
100
AcDbEntity
  8
0
  6
HIDDEN
 62
     7
370
     0
100
AcDbLine
 10
141.0591771607
 20
105.7691815256
 30
0.0
 11
141.0591771607
 21
129.2882057785
 31
0.0
  0
LINE
  5
101
330
1F
100
AcDbEntity
  8
0
  6
HIDDEN
 62
     7
370
     0
100
AcDbLine
 10
150.6872160141
 20
107.0286937936
 30
0.0
 11
150.6872160141
 21
128.0286935105
 31
0.0
  0
LINE
  5
102
330
1F
100
AcDbEntity
  8
0
  6
HIDDEN
 62
     7
370
     0
100
AcDbLine
 10
144.5872170632
 20
107.0286937936
 30
0.0
 11
144.5872170632
 21
128.0286935105
 31
0.0
  0
LINE
  5
103
330
1F
100
AcDbEntity
  8
0
  6
HIDDEN
 62
     7
370
     0
100
AcDbLine
 10
145.5872172271
 20
107.0286937936
 30
0.0
 11
145.5872172271
 21
128.0286935105
 31
0.0
  0
LINE
  5
104
330
1F
100
AcDbEntity
  8
0
  6
HIDDEN
 62
     7
370
     0
100
AcDbLine
 10
161.0591767137
 20
107.5286938756
 30
0.0
 11
161.0591767137
 21
127.5286934285
 31
0.0
  0
SPLINE
  5
105
330
1F
100
AcDbEntity
  8
0
  6
HIDDEN
 62
     7
370
     0
100
AcDbSpline
210
0.0
220
0.0
230
1.0
 70
     8
 71
     3
 72
    66
 73
    62
 74
     0
 42
0.00000001
 43
0.00000001
 12
1.0
 22
0.0
 32
0.0
 13
1.0
 23
0.0
 33
0.0
 40
-0.0312499999999996
 40
-0.0312499999999996
 40
0.0
 40
0.0
 40
0.03125
 40
0.03125
 40
0.0625000000000001
 40
0.0625000000000001
 40
0.0937500000000001
 40
0.0937500000000001
 40
0.1250000000000001
 40
0.1250000000000001
 40
0.1875000000000002
 40
0.1875000000000002
 40
0.2187500000000003
 40
0.2187500000000003
 40
0.2500000000000003
 40
0.2500000000000003
 40
0.2812500000000004
 40
0.2812500000000004
 40
0.3125000000000005
 40
0.3125000000000005
 40
0.3437500000000006
 40
0.3437500000000006
 40
0.3750000000000007
 40
0.3750000000000007
 40
0.4062500000000008
 40
0.4062500000000008
 40
0.4375000000000008
 40
0.4375000000000008
 40
0.4687500000000009
 40
0.4687500000000009
 40
0.500000000000001
 40
0.500000000000001
 40
0.5312500000000011
 40
0.5312500000000011
 40
0.5625000000000013
 40
0.5625000000000013
 40
0.5937500000000014
 40
0.5937500000000014
 40
0.6250000000000018
 40
0.6250000000000018
 40
0.6562500000000017
 40
0.6562500000000017
 40
0.6875000000000017
 40
0.6875000000000017
 40
0.7187500000000016
 40
0.7187500000000016
 40
0.7500000000000014
 40
0.7500000000000014
 40
0.7812500000000013
 40
0.7812500000000013
 40
0.8125000000000013
 40
0.8125000000000013
 40
0.8750000000000011
 40
0.8750000000000011
 40
0.906250000000001
 40
0.906250000000001
 40
0.9375000000000007
 40
0.9375000000000007
 40
0.9687500000000004
 40
0.9687500000000004
 40
1.0
 40
1.0
 40
1.03125
 40
1.03125
 10
156.8564978432217
 20
107.4814303430737
 30
0.0
 10
157.2618551371173
 20
107.4814303430737
 30
0.0
 10
157.4609150284532
 20
107.475298268444
 30
0.0
 10
157.8521690130329
 20
107.4520770558266
 30
0.0
 10
158.0464417717806
 20
107.4347027550891
 30
0.0
 10
158.4152051983318
 20
107.3919893873979
 30
0.0
 10
158.5899303567101
 20
107.3667977673422
 30
0.0
 10
158.9206076602439
 20
107.3117544541964
 30
0.0
 10
159.0762552042468
 20
107.2818688992975
 30
0.0
 10
159.4957225739154
 20
107.1938254517357
 30
0.0
 10
159.7226107154457
 20
107.1354357117463
 30
0.0
 10
159.9514073388304
 20
107.0736897559629
 30
0.0
 10
160.0105995936793
 20
107.0569711544482
 30
0.0
 10
160.0894070039399
 20
107.0344871219004
 30
0.0
 10
160.1090464202202
 20
107.0287314342711
 30
0.0
 10
160.1093052846418
 20
107.0286562403344
 30
0.0
 10
160.0892346000089
 20
107.0345360948002
 30
0.0
 10
160.0108969173789
 20
107.0568865411553
 30
0.0
 10
159.9529471493405
 20
107.0732684698916
 30
0.0
 10
159.7990040074605
 20
107.1148249215379
 30
0.0
 10
159.7040653937378
 20
107.1396838658493
 30
0.0
 10
159.4837079778607
 20
107.1935864943877
 30
0.0
 10
159.3564279519324
 20
107.2230693788034
 30
0.0
 10
159.0746723606018
 20
107.2821942016773
 30
0.0
 10
158.9218840311443
 20
107.3115119370628
 30
0.0
 10
158.5924569489874
 20
107.3664069123808
 30
0.0
 10
158.4139109458357
 20
107.3921517996815
 30
0.0
 10
158.0463386202855
 20
107.4347021546004
 30
0.0
 10
157.8561845935745
 20
107.4517823644999
 30
0.0
 10
157.4626441708721
 20
107.475251189409
 30
0.0
 10
157.2602100996109
 20
107.4814040366287
 30
0.0
 10
156.8607810242455
 20
107.4814564763421
 30
0.0
 10
156.6607620456896
 20
107.4754780035888
 30
0.0
 10
156.2646460982402
 20
107.4520032554667
 30
0.0
 10
156.0739132700484
 20
107.4348882870078
 30
0.0
 10
155.7062818294687
 20
107.3923981207731
 30
0.0
 10
155.5277953973009
 20
107.3666995174009
 30
0.0
 10
155.1975901383368
 20
107.3117224527965
 30
0.0
 10
155.0447015602749
 20
107.2823939683613
 30
0.0
 10
154.7631051657368
 20
107.2233313832276
 30
0.0
 10
154.6354742428613
 20
107.1937808577186
 30
0.0
 10
154.4151488078615
 20
107.1399029491992
 30
0.0
 10
154.3209223508962
 20
107.1152421801432
 30
0.0
 10
154.1659878302931
 20
107.0734329452026
 30
0.0
 10
154.1079755446908
 20
107.0570330991737
 30
0.0
 10
154.0295562904127
 20
107.0346626692081
 30
0.0
 10
154.0092422104462
 20
107.0287127422296
 30
0.0
 10
154.0091110941422
 20
107.0286746560669
 30
0.0
 10
154.0287357875015
 20
107.0344253245386
 30
0.0
 10
154.1069022379152
 20
107.0567301237548
 30
0.0
 10
154.1661896832551
 20
107.0734812377313
 30
0.0
 10
154.395270526338
 20
107.1353173556477
 30
0.0
 10
154.6221013772322
 20
107.1936984059455
 30
0.0
 10
155.0414400785528
 20
107.2817388295471
 30
0.0
 10
155.1967930743028
 20
107.3115831732379
 30
0.0
 10
155.52776090744
 20
107.366700332057
 30
0.0
 10
155.7023222076363
 20
107.3918681991126
 30
0.0
 10
156.0698955152112
 20
107.4344946463485
 30
0.0
 10
156.2645823768492
 20
107.4519627059431
 30
0.0
 10
156.6570583267857
 20
107.47529493457
 30
0.0
 10
156.8564978432217
 20
107.4814303430737
 30
0.0
 10
157.2618551371173
 20
107.4814303430737
 30
0.0
  0
SPLINE
  5
106
330
1F
100
AcDbEntity
  8
0
  6
HIDDEN
 62
     7
370
     0
100
AcDbSpline
210
0.0
220
0.0
230
1.0
 70
     8
 71
     3
 72
    66
 73
    62
 74
     0
 42
0.00000001
 43
0.00000001
 12
1.0
 22
0.0
 32
0.0
 13
1.0
 23
0.0
 33
0.0
 40
-0.03125
 40
-0.03125
 40
0.0
 40
0.0
 40
0.0312499999999999
 40
0.0312499999999999
 40
0.0624999999999998
 40
0.0624999999999998
 40
0.0937499999999997
 40
0.0937499999999997
 40
0.1249999999999996
 40
0.1249999999999996
 40
0.1874999999999993
 40
0.1874999999999993
 40
0.2187499999999992
 40
0.2187499999999992
 40
0.2499999999999991
 40
0.2499999999999991
 40
0.2812499999999989
 40
0.2812499999999989
 40
0.3124999999999988
 40
0.3124999999999988
 40
0.3437499999999987
 40
0.3437499999999987
 40
0.3749999999999986
 40
0.3749999999999986
 40
0.4062499999999985
 40
0.4062499999999985
 40
0.4374999999999986
 40
0.4374999999999986
 40
0.4687499999999987
 40
0.4687499999999987
 40
0.4999999999999988
 40
0.4999999999999988
 40
0.5312499999999989
 40
0.5312499999999989
 40
0.562499999999999
 40
0.562499999999999
 40
0.5937499999999991
 40
0.5937499999999991
 40
0.6249999999999992
 40
0.6249999999999992
 40
0.6562499999999993
 40
0.6562499999999993
 40
0.6874999999999994
 40
0.6874999999999994
 40
0.7187499999999996
 40
0.7187499999999996
 40
0.7499999999999997
 40
0.7499999999999997
 40
0.7812499999999998
 40
0.7812499999999998
 40
0.8124999999999999
 40
0.8124999999999999
 40
0.875
 40
0.875
 40
0.90625
 40
0.90625
 40
0.9375
 40
0.9375
 40
0.96875
 40
0.96875
 40
1.0
 40
1.0
 40
1.03125
 40
1.03125
 10
157.2618551371173
 20
127.5759569610361
 30
0.0
 10
156.8564978432217
 20
127.5759569610361
 30
0.0
 10
156.6574379518859
 20
127.5820890356658
 30
0.0
 10
156.2661839673062
 20
127.6053102482832
 30
0.0
 10
156.0719112085585
 20
127.6226845490207
 30
0.0
 10
155.7031477820072
 20
127.6653979167119
 30
0.0
 10
155.528422623629
 20
127.6905895367676
 30
0.0
 10
155.1977453200952
 20
127.7456328499134
 30
0.0
 10
155.0420977760923
 20
127.7755184048123
 30
0.0
 10
154.6226304064237
 20
127.8635618523741
 30
0.0
 10
154.3957422648934
 20
127.9219515923635
 30
0.0
 10
154.1669456415086
 20
127.9836975481469
 30
0.0
 10
154.1077533866598
 20
128.0004161496616
 30
0.0
 10
154.0289459763992
 20
128.0229001822094
 30
0.0
 10
154.0093065601189
 20
128.0286558698388
 30
0.0
 10
154.0090476956973
 20
128.0287310637754
 30
0.0
 10
154.0291183803302
 20
128.0228512093096
 30
0.0
 10
154.1074560629602
 20
128.0005007629545
 30
0.0
 10
154.1654058309986
 20
127.9841188342182
 30
0.0
 10
154.3193489728786
 20
127.9425623825719
 30
0.0
 10
154.4142875866013
 20
127.9177034382605
 30
0.0
 10
154.6346450024784
 20
127.8638008097221
 30
0.0
 10
154.7619250284067
 20
127.8343179253064
 30
0.0
 10
155.0436806197373
 20
127.7751931024325
 30
0.0
 10
155.1964689491948
 20
127.745875367047
 30
0.0
 10
155.5258960313517
 20
127.690980391729
 30
0.0
 10
155.7044420345034
 20
127.6652355044283
 30
0.0
 10
156.0720143600536
 20
127.6226851495094
 30
0.0
 10
156.2621683867646
 20
127.6056049396099
 30
0.0
 10
156.655708809467
 20
127.5821361147008
 30
0.0
 10
156.8581428807282
 20
127.5759832674811
 30
0.0
 10
157.2575719560936
 20
127.5759308277677
 30
0.0
 10
157.4575909346495
 20
127.581909300521
 30
0.0
 10
157.8537068820989
 20
127.6053840486431
 30
0.0
 10
158.0444397102907
 20
127.622499017102
 30
0.0
 10
158.4120711508704
 20
127.6649891833367
 30
0.0
 10
158.5905575830382
 20
127.6906877867089
 30
0.0
 10
158.9207628420022
 20
127.7456648513133
 30
0.0
 10
159.0736514200642
 20
127.7749933357485
 30
0.0
 10
159.3552478146023
 20
127.8340559208822
 30
0.0
 10
159.4828787374778
 20
127.8636064463912
 30
0.0
 10
159.7032041724776
 20
127.9174843549106
 30
0.0
 10
159.7974306294429
 20
127.9421451239667
 30
0.0
 10
159.952365150046
 20
127.9839543589073
 30
0.0
 10
160.0103774356483
 20
128.0003542049361
 30
0.0
 10
160.0887966899264
 20
128.0227246349017
 30
0.0
 10
160.109110769893
 20
128.0286745618803
 30
0.0
 10
160.1092418861969
 20
128.0287126480429
 30
0.0
 10
160.0896171928376
 20
128.0229619795712
 30
0.0
 10
160.0114507424239
 20
128.0006571803551
 30
0.0
 10
159.952163297084
 20
127.9839060663786
 30
0.0
 10
159.7230824540011
 20
127.9220699484622
 30
0.0
 10
159.496251603107
 20
127.8636888981644
 30
0.0
 10
159.0769129017863
 20
127.7756484745627
 30
0.0
 10
158.9215599060363
 20
127.7458041308719
 30
0.0
 10
158.5905920728991
 20
127.6906869720529
 30
0.0
 10
158.4160307727028
 20
127.6655191049972
 30
0.0
 10
158.0484574651279
 20
127.6228926577614
 30
0.0
 10
157.8537706034899
 20
127.6054245981667
 30
0.0
 10
157.4612946535534
 20
127.5820923695398
 30
0.0
 10
157.2618551371173
 20
127.5759569610361
 30
0.0
 10
156.8564978432217
 20
127.5759569610361
 30
0.0
  0
LINE
  5
107
330
1F
100
AcDbEntity
  8
0
  6
HIDDEN
 62
     7
370
     0
100
AcDbLine
 10
178.0591767062
 20
107.6286937057
 30
0.0
 11
178.0591767062
 21
127.4286935984
 31
0.0
  0
LINE
  5
108
330
1F
100
AcDbEntity
  8
0
  6
HIDDEN
 62
     7
370
     0
100
AcDbLine
 10
189.2349330489
 20
107.2286934539
 30
0.0
 11
189.2349330489
 21
127.8286938502
 31
0.0
  0
LINE
  5
109
330
1F
100
AcDbEntity
  8
0
  6
HIDDEN
 62
     7
370
     0
100
AcDbLine
 10
190.0591758792
 20
107.5286938756
 30
0.0
 11
190.0591758792
 21
127.5286934285
 31
0.0
  0
LINE
  5
10A
330
1F
100
AcDbEntity
  8
0
  6
HIDDEN
 62
     7
370
     0
100
AcDbLine
 10
241.0591767882
 20
127.8286938502
 30
0.0
 11
241.0591767882
 21
107.2443340852
 31
0.0
  0
SPLINE
  5
10B
330
1F
100
AcDbEntity
  8
0
  6
HIDDEN
 62
     7
370
     0
100
AcDbSpline
210
0.0
220
0.0
230
1.0
 70
     8
 71
     3
 72
    70
 73
    66
 74
     0
 42
0.00000001
 43
0.00000001
 12
1.0
 22
0.0
 32
0.0
 13
1.0
 23
0.0
 33
0.0
 40
-0.0312500000000007
 40
-0.0312500000000007
 40
0.0
 40
0.0
 40
0.0312499999999996
 40
0.0312499999999996
 40
0.0624999999999993
 40
0.0624999999999993
 40
0.0937499999999989
 40
0.0937499999999989
 40
0.1249999999999985
 40
0.1249999999999985
 40
0.1562499999999981
 40
0.1562499999999981
 40
0.1874999999999978
 40
0.1874999999999978
 40
0.2187499999999974
 40
0.2187499999999974
 40
0.249999999999997
 40
0.249999999999997
 40
0.2812499999999966
 40
0.2812499999999966
 40
0.3124999999999962
 40
0.3124999999999962
 40
0.3437499999999958
 40
0.3437499999999958
 40
0.3749999999999954
 40
0.3749999999999954
 40
0.4062499999999949
 40
0.4062499999999949
 40
0.4374999999999946
 40
0.4374999999999946
 40
0.4687499999999941
 40
0.4687499999999941
 40
0.4999999999999937
 40
0.4999999999999937
 40
0.5312499999999933
 40
0.5312499999999933
 40
0.562499999999993
 40
0.562499999999993
 40
0.5937499999999926
 40
0.5937499999999926
 40
0.6249999999999922
 40
0.6249999999999922
 40
0.6562499999999929
 40
0.6562499999999929
 40
0.6874999999999936
 40
0.6874999999999936
 40
0.7187499999999942
 40
0.7187499999999942
 40
0.7499999999999948
 40
0.7499999999999948
 40
0.7812499999999954
 40
0.7812499999999954
 40
0.8124999999999961
 40
0.8124999999999961
 40
0.8437499999999968
 40
0.8437499999999968
 40
0.8749999999999974
 40
0.8749999999999974
 40
0.9062499999999981
 40
0.9062499999999981
 40
0.9374999999999987
 40
0.9374999999999987
 40
0.9687499999999993
 40
0.9687499999999993
 40
1.0
 40
1.0
 40
1.03125
 40
1.03125
 10
231.3435713041409
 20
121.7786936520549
 30
0.0
 10
230.7747816761982
 20
121.7786936520549
 30
0.0
 10
230.4959132916884
 20
121.750443523493
 30
0.0
 10
229.9485020526215
 20
121.6404864120962
 30
0.0
 10
229.677137281604
 20
121.5572924567382
 30
0.0
 10
229.1645843226066
 20
121.3431610095922
 30
0.0
 10
228.9220264071219
 20
121.2126418418313
 30
0.0
 10
228.4629086288527
 20
120.9048272297915
 30
0.0
 10
228.2486153266055
 20
120.7284011770378
 30
0.0
 10
227.8614824710743
 20
120.3415454540183
 30
0.0
 10
227.6857680000915
 20
120.128634220394
 30
0.0
 10
227.376203855058
 20
119.6676860243754
 30
0.0
 10
227.2456344549455
 20
119.4249817930249
 30
0.0
 10
227.0320109258542
 20
118.9146767275636
 30
0.0
 10
226.9483870086306
 20
118.6434471537953
 30
0.0
 10
226.837495404882
 20
118.0932061366818
 30
0.0
 10
226.8095287567672
 20
117.8150995482256
 30
0.0
 10
226.8088307730197
 20
117.2528395600443
 30
0.0
 10
226.8370781095871
 20
116.9678125641862
 30
0.0
 10
226.9469729149091
 20
116.4194217802122
 30
0.0
 10
227.0286658314527
 20
116.1516719210338
 30
0.0
 10
227.2446450674851
 20
115.6338176552976
 30
0.0
 10
227.3758509329472
 20
115.3905919805791
 30
0.0
 10
227.6826395847517
 20
114.9330502935778
 30
0.0
 10
227.8602278540155
 20
114.7171920938301
 30
0.0
 10
228.2483770992892
 20
114.3291280295243
 30
0.0
 10
228.4595480775066
 20
114.1551714474892
 30
0.0
 10
228.9178413247146
 20
113.8471988934265
 30
0.0
 10
229.1642617732838
 20
113.7145079049415
 30
0.0
 10
229.6736249318906
 20
113.5014164605639
 30
0.0
 10
229.9389786063935
 20
113.4192363329819
 30
0.0
 10
230.4933643419648
 20
113.3070423911093
 30
0.0
 10
230.7733236463899
 20
113.2790866393451
 30
0.0
 10
231.3332217068855
 20
113.2783088659485
 30
0.0
 10
231.6175189722952
 20
113.3061727811138
 30
0.0
 10
232.1684842809917
 20
113.4164114319124
 30
0.0
 10
232.4346163442353
 20
113.4977722093555
 30
0.0
 10
232.9492049820221
 20
113.7118946307084
 30
0.0
 10
233.195694340264
 20
113.8444956194514
 30
0.0
 10
233.6523772813933
 20
114.1503311310089
 30
0.0
 10
233.8665560796036
 20
114.3259784872553
 30
0.0
 10
234.2574167691896
 20
114.716217215947
 30
0.0
 10
234.4315600869522
 20
114.927704108962
 30
0.0
 10
234.738620434673
 20
115.3839768907122
 30
0.0
 10
234.8725608132643
 20
115.6319054724973
 30
0.0
 10
235.087062798266
 20
116.1445559122389
 30
0.0
 10
235.1688455519114
 20
116.4098898213227
 30
0.0
 10
235.2802016964762
 20
116.9594414966591
 30
0.0
 10
235.3089224546146
 20
117.2444937896284
 30
0.0
 10
235.309427083856
 20
117.8052442170304
 30
0.0
 10
235.2821711382004
 20
118.0847221737501
 30
0.0
 10
235.1709226443732
 20
118.64062668854
 30
0.0
 10
235.0889246597815
 20
118.9073965877275
 30
0.0
 10
234.875135652325
 20
119.4202929140776
 30
0.0
 10
234.7415953432889
 20
119.6684140326748
 30
0.0
 10
234.434062216293
 20
120.1265308780291
 30
0.0
 10
234.2598198657773
 20
120.338421867773
 30
0.0
 10
233.8694953802466
 20
120.728818399639
 30
0.0
 10
233.6551228877488
 20
120.9049013886401
 30
0.0
 10
233.1996603024199
 20
121.2105471837936
 30
0.0
 10
232.9560383336938
 20
121.342206004736
 30
0.0
 10
232.4391214856669
 20
121.5581741554041
 30
0.0
 10
232.1733497793969
 20
121.6395094702392
 30
0.0
 10
231.6269176235706
 20
121.7498142159462
 30
0.0
 10
231.3435713041409
 20
121.7786936520549
 30
0.0
 10
230.7747816761982
 20
121.7786936520549
 30
0.0
  0
SPLINE
  5
10C
330
1F
100
AcDbEntity
  8
0
  6
HIDDEN
 62
     7
370
     0
100
AcDbSpline
210
0.0
220
0.0
230
1.0
 70
     8
 71
     3
 72
    70
 73
    66
 74
     0
 42
0.00000001
 43
0.00000001
 12
1.0
 22
0.0
 32
0.0
 13
1.0
 23
0.0
 33
0.0
 40
-0.03125
 40
-0.03125
 40
0.0
 40
0.0
 40
0.03125
 40
0.03125
 40
0.0625
 40
0.0625
 40
0.09375
 40
0.09375
 40
0.125
 40
0.125
 40
0.15625
 40
0.15625
 40
0.1875
 40
0.1875
 40
0.21875
 40
0.21875
 40
0.25
 40
0.25
 40
0.28125
 40
0.28125
 40
0.3125
 40
0.3125
 40
0.34375
 40
0.34375
 40
0.375
 40
0.375
 40
0.40625
 40
0.40625
 40
0.4375
 40
0.4375
 40
0.46875
 40
0.46875
 40
0.5
 40
0.5
 40
0.53125
 40
0.53125
 40
0.5625
 40
0.5625
 40
0.59375
 40
0.59375
 40
0.625
 40
0.625
 40
0.65625
 40
0.65625
 40
0.6875
 40
0.6875
 40
0.71875
 40
0.71875
 40
0.75
 40
0.75
 40
0.78125
 40
0.78125
 40
0.8125
 40
0.8125
 40
0.84375
 40
0.84375
 40
0.875
 40
0.875
 40
0.90625
 40
0.90625
 40
0.9375
 40
0.9375
 40
0.96875
 40
0.96875
 40
1.0
 40
1.0
 40
1.03125
 40
1.03125
 10
218.3435713041408
 20
121.7786936520549
 30
0.0
 10
217.7747816761983
 20
121.7786936520549
 30
0.0
 10
217.4959132916884
 20
121.750443523493
 30
0.0
 10
216.9485020526215
 20
121.6404864120962
 30
0.0
 10
216.677137281604
 20
121.5572924567382
 30
0.0
 10
216.1645843226066
 20
121.3431610095922
 30
0.0
 10
215.9220264071219
 20
121.2126418418313
 30
0.0
 10
215.4629086288527
 20
120.9048272297915
 30
0.0
 10
215.2486153266055
 20
120.7284011770378
 30
0.0
 10
214.8614824710743
 20
120.3415454540183
 30
0.0
 10
214.6857680000915
 20
120.128634220394
 30
0.0
 10
214.376203855058
 20
119.6676860243754
 30
0.0
 10
214.2456344549455
 20
119.4249817930249
 30
0.0
 10
214.0320109258542
 20
118.9146767275636
 30
0.0
 10
213.9483870086306
 20
118.6434471537953
 30
0.0
 10
213.837495404882
 20
118.0932061366817
 30
0.0
 10
213.8095287567672
 20
117.8150995482256
 30
0.0
 10
213.8088307730198
 20
117.2528395600443
 30
0.0
 10
213.8370781095871
 20
116.9678125641862
 30
0.0
 10
213.9469729149091
 20
116.4194217802122
 30
0.0
 10
214.0286658314527
 20
116.1516719210338
 30
0.0
 10
214.2446450674851
 20
115.6338176552976
 30
0.0
 10
214.3758509329472
 20
115.3905919805791
 30
0.0
 10
214.6826395847518
 20
114.9330502935777
 30
0.0
 10
214.8602278540154
 20
114.7171920938301
 30
0.0
 10
215.2483770992892
 20
114.3291280295243
 30
0.0
 10
215.4595480775066
 20
114.1551714474892
 30
0.0
 10
215.9178413247146
 20
113.8471988934264
 30
0.0
 10
216.1642617732838
 20
113.7145079049415
 30
0.0
 10
216.6736249318907
 20
113.5014164605639
 30
0.0
 10
216.9389786063936
 20
113.4192363329818
 30
0.0
 10
217.4933643419648
 20
113.3070423911093
 30
0.0
 10
217.7733236463899
 20
113.2790866393451
 30
0.0
 10
218.3332217068856
 20
113.2783088659485
 30
0.0
 10
218.6175189722951
 20
113.3061727811138
 30
0.0
 10
219.1684842809917
 20
113.4164114319124
 30
0.0
 10
219.4346163442352
 20
113.4977722093555
 30
0.0
 10
219.9492049820221
 20
113.7118946307084
 30
0.0
 10
220.195694340264
 20
113.8444956194514
 30
0.0
 10
220.6523772813933
 20
114.1503311310089
 30
0.0
 10
220.8665560796036
 20
114.3259784872553
 30
0.0
 10
221.2574167691896
 20
114.716217215947
 30
0.0
 10
221.4315600869521
 20
114.927704108962
 30
0.0
 10
221.738620434673
 20
115.3839768907122
 30
0.0
 10
221.8725608132643
 20
115.6319054724973
 30
0.0
 10
222.087062798266
 20
116.1445559122389
 30
0.0
 10
222.1688455519114
 20
116.4098898213227
 30
0.0
 10
222.2802016964763
 20
116.9594414966591
 30
0.0
 10
222.3089224546146
 20
117.2444937896284
 30
0.0
 10
222.309427083856
 20
117.8052442170304
 30
0.0
 10
222.2821711382004
 20
118.0847221737501
 30
0.0
 10
222.1709226443732
 20
118.64062668854
 30
0.0
 10
222.0889246597816
 20
118.9073965877275
 30
0.0
 10
221.875135652325
 20
119.4202929140776
 30
0.0
 10
221.7415953432889
 20
119.6684140326748
 30
0.0
 10
221.4340622162931
 20
120.1265308780291
 30
0.0
 10
221.2598198657773
 20
120.338421867773
 30
0.0
 10
220.8694953802466
 20
120.728818399639
 30
0.0
 10
220.6551228877488
 20
120.9049013886401
 30
0.0
 10
220.19966030242
 20
121.2105471837936
 30
0.0
 10
219.9560383336938
 20
121.342206004736
 30
0.0
 10
219.4391214856669
 20
121.5581741554041
 30
0.0
 10
219.1733497793969
 20
121.6395094702392
 30
0.0
 10
218.6269176235706
 20
121.7498142159462
 30
0.0
 10
218.3435713041408
 20
121.7786936520549
 30
0.0
 10
217.7747816761983
 20
121.7786936520549
 30
0.0
  0
SPLINE
  5
10D
330
1F
100
AcDbEntity
  8
0
  6
HIDDEN
 62
     7
370
     0
100
AcDbSpline
210
0.0
220
0.0
230
1.0
 70
     8
 71
     3
 72
    70
 73
    66
 74
     0
 42
0.00000001
 43
0.00000001
 12
1.0
 22
0.0
 32
0.0
 13
1.0
 23
0.0
 33
0.0
 40
-0.03125
 40
-0.03125
 40
0.0
 40
0.0
 40
0.03125
 40
0.03125
 40
0.0625
 40
0.0625
 40
0.09375
 40
0.09375
 40
0.125
 40
0.125
 40
0.15625
 40
0.15625
 40
0.1875
 40
0.1875
 40
0.21875
 40
0.21875
 40
0.25
 40
0.25
 40
0.28125
 40
0.28125
 40
0.3125
 40
0.3125
 40
0.34375
 40
0.34375
 40
0.375
 40
0.375
 40
0.40625
 40
0.40625
 40
0.4375
 40
0.4375
 40
0.46875
 40
0.46875
 40
0.5
 40
0.5
 40
0.53125
 40
0.53125
 40
0.5625
 40
0.5625
 40
0.59375
 40
0.59375
 40
0.625
 40
0.625
 40
0.65625
 40
0.65625
 40
0.6875
 40
0.6875
 40
0.71875
 40
0.71875
 40
0.75
 40
0.75
 40
0.78125
 40
0.78125
 40
0.8125
 40
0.8125
 40
0.84375
 40
0.84375
 40
0.875
 40
0.875
 40
0.90625
 40
0.90625
 40
0.9375
 40
0.9375
 40
0.96875
 40
0.96875
 40
1.0
 40
1.0
 40
1.03125
 40
1.03125
 10
205.3435713041409
 20
121.7786936520549
 30
0.0
 10
204.7747816761983
 20
121.7786936520549
 30
0.0
 10
204.4959132916884
 20
121.750443523493
 30
0.0
 10
203.9485020526215
 20
121.6404864120962
 30
0.0
 10
203.677137281604
 20
121.5572924567382
 30
0.0
 10
203.1645843226067
 20
121.3431610095922
 30
0.0
 10
202.9220264071219
 20
121.2126418418313
 30
0.0
 10
202.4629086288527
 20
120.9048272297915
 30
0.0
 10
202.2486153266055
 20
120.7284011770378
 30
0.0
 10
201.8614824710743
 20
120.3415454540183
 30
0.0
 10
201.6857680000915
 20
120.128634220394
 30
0.0
 10
201.376203855058
 20
119.6676860243754
 30
0.0
 10
201.2456344549455
 20
119.4249817930249
 30
0.0
 10
201.0320109258542
 20
118.9146767275636
 30
0.0
 10
200.9483870086306
 20
118.6434471537953
 30
0.0
 10
200.837495404882
 20
118.0932061366818
 30
0.0
 10
200.8095287567672
 20
117.8150995482256
 30
0.0
 10
200.8088307730198
 20
117.2528395600443
 30
0.0
 10
200.8370781095871
 20
116.9678125641862
 30
0.0
 10
200.9469729149091
 20
116.4194217802122
 30
0.0
 10
201.0286658314527
 20
116.1516719210338
 30
0.0
 10
201.2446450674851
 20
115.6338176552976
 30
0.0
 10
201.3758509329472
 20
115.3905919805791
 30
0.0
 10
201.6826395847518
 20
114.9330502935778
 30
0.0
 10
201.8602278540154
 20
114.7171920938301
 30
0.0
 10
202.2483770992892
 20
114.3291280295243
 30
0.0
 10
202.4595480775066
 20
114.1551714474892
 30
0.0
 10
202.9178413247146
 20
113.8471988934264
 30
0.0
 10
203.1642617732838
 20
113.7145079049415
 30
0.0
 10
203.6736249318907
 20
113.5014164605639
 30
0.0
 10
203.9389786063935
 20
113.4192363329818
 30
0.0
 10
204.4933643419648
 20
113.3070423911093
 30
0.0
 10
204.77332364639
 20
113.2790866393451
 30
0.0
 10
205.3332217068856
 20
113.2783088659485
 30
0.0
 10
205.6175189722951
 20
113.3061727811138
 30
0.0
 10
206.1684842809917
 20
113.4164114319124
 30
0.0
 10
206.4346163442353
 20
113.4977722093555
 30
0.0
 10
206.9492049820221
 20
113.7118946307084
 30
0.0
 10
207.195694340264
 20
113.8444956194514
 30
0.0
 10
207.6523772813933
 20
114.1503311310089
 30
0.0
 10
207.8665560796036
 20
114.3259784872553
 30
0.0
 10
208.2574167691896
 20
114.716217215947
 30
0.0
 10
208.4315600869521
 20
114.927704108962
 30
0.0
 10
208.738620434673
 20
115.3839768907122
 30
0.0
 10
208.8725608132643
 20
115.6319054724973
 30
0.0
 10
209.0870627982661
 20
116.1445559122389
 30
0.0
 10
209.1688455519114
 20
116.4098898213227
 30
0.0
 10
209.2802016964763
 20
116.9594414966591
 30
0.0
 10
209.3089224546146
 20
117.2444937896284
 30
0.0
 10
209.309427083856
 20
117.8052442170304
 30
0.0
 10
209.2821711382004
 20
118.0847221737501
 30
0.0
 10
209.1709226443732
 20
118.64062668854
 30
0.0
 10
209.0889246597815
 20
118.9073965877275
 30
0.0
 10
208.875135652325
 20
119.4202929140776
 30
0.0
 10
208.7415953432889
 20
119.6684140326748
 30
0.0
 10
208.434062216293
 20
120.1265308780291
 30
0.0
 10
208.2598198657773
 20
120.338421867773
 30
0.0
 10
207.8694953802466
 20
120.728818399639
 30
0.0
 10
207.6551228877488
 20
120.9049013886401
 30
0.0
 10
207.19966030242
 20
121.2105471837936
 30
0.0
 10
206.9560383336938
 20
121.342206004736
 30
0.0
 10
206.4391214856669
 20
121.5581741554041
 30
0.0
 10
206.1733497793969
 20
121.6395094702392
 30
0.0
 10
205.6269176235706
 20
121.7498142159462
 30
0.0
 10
205.3435713041409
 20
121.7786936520549
 30
0.0
 10
204.7747816761983
 20
121.7786936520549
 30
0.0
  0
SPLINE
  5
10E
330
1F
100
AcDbEntity
  8
0
  6
HIDDEN
 62
     7
370
     0
100
AcDbSpline
210
0.0
220
0.0
230
1.0
 70
     8
 71
     3
 72
    70
 73
    66
 74
     0
 42
0.00000001
 43
0.00000001
 12
1.0
 22
0.0
 32
0.0
 13
1.0
 23
0.0
 33
0.0
 40
-0.03125
 40
-0.03125
 40
0.0
 40
0.0
 40
0.0312499999999999
 40
0.0312499999999999
 40
0.0624999999999999
 40
0.0624999999999999
 40
0.0937499999999998
 40
0.0937499999999998
 40
0.1249999999999998
 40
0.1249999999999998
 40
0.1562499999999998
 40
0.1562499999999998
 40
0.1874999999999997
 40
0.1874999999999997
 40
0.2187499999999996
 40
0.2187499999999996
 40
0.2499999999999996
 40
0.2499999999999996
 40
0.2812499999999995
 40
0.2812499999999995
 40
0.3124999999999995
 40
0.3124999999999995
 40
0.3437499999999995
 40
0.3437499999999995
 40
0.3749999999999994
 40
0.3749999999999994
 40
0.4062499999999994
 40
0.4062499999999994
 40
0.4374999999999994
 40
0.4374999999999994
 40
0.4687499999999994
 40
0.4687499999999994
 40
0.4999999999999994
 40
0.4999999999999994
 40
0.5312499999999993
 40
0.5312499999999993
 40
0.5624999999999993
 40
0.5624999999999993
 40
0.5937499999999993
 40
0.5937499999999993
 40
0.6249999999999994
 40
0.6249999999999994
 40
0.6562499999999994
 40
0.6562499999999994
 40
0.6874999999999996
 40
0.6874999999999996
 40
0.7187499999999996
 40
0.7187499999999996
 40
0.7499999999999996
 40
0.7499999999999996
 40
0.7812499999999997
 40
0.7812499999999997
 40
0.8124999999999997
 40
0.8124999999999997
 40
0.8437499999999998
 40
0.8437499999999998
 40
0.8749999999999998
 40
0.8749999999999998
 40
0.9062499999999999
 40
0.9062499999999999
 40
0.9374999999999999
 40
0.9374999999999999
 40
0.96875
 40
0.96875
 40
1.0
 40
1.0
 40
1.03125
 40
1.03125
 10
205.3435713041409
 20
108.4767601569391
 30
0.0
 10
204.7747816761983
 20
108.4767601569391
 30
0.0
 10
204.4959132916884
 20
108.4633483353041
 30
0.0
 10
203.9485020526215
 20
108.4129480441853
 30
0.0
 10
203.677137281604
 20
108.3753370031036
 30
0.0
 10
203.1645843226067
 20
108.2840527693445
 30
0.0
 10
202.9220264071219
 20
108.2305440988283
 30
0.0
 10
202.4629086288527
 20
108.1144076225993
 30
0.0
 10
202.2486153266055
 20
108.0522489886049
 30
0.0
 10
201.8614824710743
 20
107.9303085563707
 30
0.0
 10
201.6857680000915
 20
107.8696778116687
 30
0.0
 10
201.376203855058
 20
107.7572562145598
 30
0.0
 10
201.2456344549455
 20
107.7067286722133
 30
0.0
 10
201.0320109258542
 20
107.6218295824705
 30
0.0
 10
200.9483870086306
 20
107.5871870597748
 30
0.0
 10
200.837495404882
 20
107.5408232910274
 30
0.0
 10
200.8095287567672
 20
107.5288433652649
 30
0.0
 10
200.8088307730198
 20
107.5285467223595
 30
0.0
 10
200.8370781095871
 20
107.540644618756
 30
0.0
 10
200.9469729149091
 20
107.5865999590418
 30
0.0
 10
201.0286658314527
 20
107.620479985995
 30
0.0
 10
201.2446450674851
 20
107.7063552412225
 30
0.0
 10
201.3758509329472
 20
107.7571040551709
 30
0.0
 10
201.6826395847518
 20
107.8685654146507
 30
0.0
 10
201.8602278540154
 20
107.929899665167
 30
0.0
 10
202.2483770992892
 20
108.0521876059566
 30
0.0
 10
202.4595480775066
 20
108.1134703641494
 30
0.0
 10
202.9178413247146
 20
108.2295712220615
 30
0.0
 10
203.1642617732838
 20
108.283943731299
 30
0.0
 10
203.6736249318907
 20
108.3747626694827
 30
0.0
 10
203.9389786063935
 20
108.4118867498005
 30
0.0
 10
204.4933643419648
 20
108.4632941472767
 30
0.0
 10
204.77332364639
 20
108.4765756445333
 30
0.0
 10
205.3332217068856
 20
108.4769408187852
 30
0.0
 10
205.6175189722951
 20
108.4637063839062
 30
0.0
 10
206.1684842809917
 20
108.4131677967282
 30
0.0
 10
206.4346163442352
 20
108.3763595030043
 30
0.0
 10
206.9492049820221
 20
108.2850150940488
 30
0.0
 10
207.195694340264
 20
108.2306615985788
 30
0.0
 10
207.6523772813932
 20
108.115225540498
 30
0.0
 10
207.8665560796036
 20
108.0532267269299
 30
0.0
 10
208.2574167691896
 20
107.9301607343475
 30
0.0
 10
208.4315600869521
 20
107.8700185422816
 30
0.0
 10
208.738620434673
 20
107.7585687043867
 30
0.0
 10
208.8725608132643
 20
107.7067939246988
 30
0.0
 10
209.0870627982661
 20
107.6215405610018
 30
0.0
 10
209.1688455519114
 20
107.5876513792177
 30
0.0
 10
209.2802016964763
 20
107.5411015766058
 30
0.0
 10
209.3089224546146
 20
107.5288016171301
 30
0.0
 10
209.309427083856
 20
107.5285871497736
 30
0.0
 10
209.2821711382004
 20
107.5402688088628
 30
0.0
 10
209.1709226443732
 20
107.5867922500389
 30
0.0
 10
209.0889246597815
 20
107.620780119401
 30
0.0
 10
208.875135652325
 20
107.705790588943
 30
0.0
 10
208.7415953432889
 20
107.7574509730564
 30
0.0
 10
208.434062216293
 20
107.8691476717065
 30
0.0
 10
208.2598198657773
 20
107.9293545238356
 30
0.0
 10
207.8694953802466
 20
108.0523501618334
 30
0.0
 10
207.6551228877488
 20
108.1144545136158
 30
0.0
 10
207.19966030242
 20
108.22973501105
 30
0.0
 10
206.9560383336938
 20
108.2836461593194
 30
0.0
 10
206.4391214856669
 20
108.375712362873
 30
0.0
 10
206.1733497793969
 20
108.4125061888507
 30
0.0
 10
205.6269176235706
 20
108.4630540309135
 30
0.0
 10
205.3435713041409
 20
108.4767601569391
 30
0.0
 10
204.7747816761983
 20
108.4767601569391
 30
0.0
  0
SPLINE
  5
10F
330
1F
100
AcDbEntity
  8
0
  6
HIDDEN
 62
     7
370
     0
100
AcDbSpline
210
0.0
220
0.0
230
1.0
 70
     8
 71
     3
 72
    70
 73
    66
 74
     0
 42
0.00000001
 43
0.00000001
 12
1.0
 22
0.0
 32
0.0
 13
1.0
 23
0.0
 33
0.0
 40
-0.03125
 40
-0.03125
 40
0.0
 40
0.0
 40
0.03125
 40
0.03125
 40
0.0625
 40
0.0625
 40
0.09375
 40
0.09375
 40
0.125
 40
0.125
 40
0.15625
 40
0.15625
 40
0.1875
 40
0.1875
 40
0.21875
 40
0.21875
 40
0.25
 40
0.25
 40
0.28125
 40
0.28125
 40
0.3125
 40
0.3125
 40
0.34375
 40
0.34375
 40
0.375
 40
0.375
 40
0.40625
 40
0.40625
 40
0.4375
 40
0.4375
 40
0.46875
 40
0.46875
 40
0.5
 40
0.5
 40
0.53125
 40
0.53125
 40
0.5625
 40
0.5625
 40
0.59375
 40
0.59375
 40
0.625
 40
0.625
 40
0.65625
 40
0.65625
 40
0.6875
 40
0.6875
 40
0.71875
 40
0.71875
 40
0.75
 40
0.75
 40
0.78125
 40
0.78125
 40
0.8125
 40
0.8125
 40
0.84375
 40
0.84375
 40
0.875
 40
0.875
 40
0.90625
 40
0.90625
 40
0.9375
 40
0.9375
 40
0.96875
 40
0.96875
 40
1.0
 40
1.0
 40
1.03125
 40
1.03125
 10
205.3435713041409
 20
126.5806271471708
 30
0.0
 10
204.7747816761983
 20
126.5806271471708
 30
0.0
 10
204.4959132916884
 20
126.5940389688057
 30
0.0
 10
203.9485020526215
 20
126.6444392599246
 30
0.0
 10
203.677137281604
 20
126.6820503010063
 30
0.0
 10
203.1645843226067
 20
126.7733345347653
 30
0.0
 10
202.9220264071219
 20
126.8268432052815
 30
0.0
 10
202.4629086288527
 20
126.9429796815106
 30
0.0
 10
202.2486153266055
 20
127.005138315505
 30
0.0
 10
201.8614824710743
 20
127.1270787477391
 30
0.0
 10
201.6857680000915
 20
127.1877094924412
 30
0.0
 10
201.376203855058
 20
127.3001310895501
 30
0.0
 10
201.2456344549455
 20
127.3506586318966
 30
0.0
 10
201.0320109258542
 20
127.4355577216393
 30
0.0
 10
200.9483870086306
 20
127.4702002443351
 30
0.0
 10
200.837495404882
 20
127.5165640130824
 30
0.0
 10
200.8095287567672
 20
127.528543938845
 30
0.0
 10
200.8088307730198
 20
127.5288405817504
 30
0.0
 10
200.8370781095871
 20
127.5167426853538
 30
0.0
 10
200.9469729149091
 20
127.470787345068
 30
0.0
 10
201.0286658314527
 20
127.4369073181148
 30
0.0
 10
201.2446450674851
 20
127.3510320628873
 30
0.0
 10
201.3758509329472
 20
127.3002832489389
 30
0.0
 10
201.6826395847518
 20
127.1888218894591
 30
0.0
 10
201.8602278540154
 20
127.1274876389428
 30
0.0
 10
202.2483770992892
 20
127.0051996981532
 30
0.0
 10
202.4595480775066
 20
126.9439169399603
 30
0.0
 10
202.9178413247146
 20
126.8278160820483
 30
0.0
 10
203.1642617732838
 20
126.7734435728108
 30
0.0
 10
203.6736249318907
 20
126.6826246346271
 30
0.0
 10
203.9389786063935
 20
126.6455005543093
 30
0.0
 10
204.4933643419648
 20
126.5940931568331
 30
0.0
 10
204.7733236463899
 20
126.5808116595766
 30
0.0
 10
205.3332217068856
 20
126.5804464853246
 30
0.0
 10
205.6175189722952
 20
126.5936809202036
 30
0.0
 10
206.1684842809917
 20
126.6442195073816
 30
0.0
 10
206.4346163442353
 20
126.6810278011055
 30
0.0
 10
206.9492049820221
 20
126.772372210061
 30
0.0
 10
207.195694340264
 20
126.826725705531
 30
0.0
 10
207.6523772813933
 20
126.9421617636119
 30
0.0
 10
207.8665560796036
 20
127.0041605771799
 30
0.0
 10
208.2574167691896
 20
127.1272265697623
 30
0.0
 10
208.4315600869521
 20
127.1873687618282
 30
0.0
 10
208.738620434673
 20
127.2988185997231
 30
0.0
 10
208.8725608132643
 20
127.350593379411
 30
0.0
 10
209.0870627982661
 20
127.4358467431081
 30
0.0
 10
209.1688455519114
 20
127.4697359248921
 30
0.0
 10
209.2802016964763
 20
127.516285727504
 30
0.0
 10
209.3089224546146
 20
127.5285856869798
 30
0.0
 10
209.309427083856
 20
127.5288001543362
 30
0.0
 10
209.2821711382004
 20
127.517118495247
 30
0.0
 10
209.1709226443732
 20
127.470595054071
 30
0.0
 10
209.0889246597815
 20
127.4366071847088
 30
0.0
 10
208.875135652325
 20
127.3515967151669
 30
0.0
 10
208.7415953432889
 20
127.2999363310534
 30
0.0
 10
208.434062216293
 20
127.1882396324033
 30
0.0
 10
208.2598198657773
 20
127.1280327802743
 30
0.0
 10
207.8694953802466
 20
127.0050371422765
 30
0.0
 10
207.6551228877488
 20
126.942932790494
 30
0.0
 10
207.19966030242
 20
126.8276522930598
 30
0.0
 10
206.9560383336938
 20
126.7737411447904
 30
0.0
 10
206.4391214856669
 20
126.6816749412369
 30
0.0
 10
206.1733497793969
 20
126.6448811152592
 30
0.0
 10
205.6269176235706
 20
126.5943332731964
 30
0.0
 10
205.3435713041409
 20
126.5806271471708
 30
0.0
 10
204.7747816761983
 20
126.5806271471708
 30
0.0
  0
SPLINE
  5
110
330
1F
100
AcDbEntity
  8
0
  6
HIDDEN
 62
     7
370
     0
100
AcDbSpline
210
0.0
220
0.0
230
1.0
 70
     8
 71
     3
 72
    70
 73
    66
 74
     0
 42
0.00000001
 43
0.00000001
 12
1.0
 22
0.0
 32
0.0
 13
1.0
 23
0.0
 33
0.0
 40
-0.0312500000000007
 40
-0.0312500000000007
 40
0.0
 40
0.0
 40
0.0312499999999996
 40
0.0312499999999996
 40
0.0624999999999992
 40
0.0624999999999992
 40
0.0937499999999988
 40
0.0937499999999988
 40
0.1249999999999983
 40
0.1249999999999983
 40
0.1562499999999979
 40
0.1562499999999979
 40
0.1874999999999975
 40
0.1874999999999975
 40
0.2187499999999971
 40
0.2187499999999971
 40
0.2499999999999967
 40
0.2499999999999967
 40
0.2812499999999962
 40
0.2812499999999962
 40
0.3124999999999958
 40
0.3124999999999958
 40
0.3437499999999954
 40
0.3437499999999954
 40
0.374999999999995
 40
0.374999999999995
 40
0.4062499999999946
 40
0.4062499999999946
 40
0.4374999999999942
 40
0.4374999999999942
 40
0.4687499999999938
 40
0.4687499999999938
 40
0.4999999999999933
 40
0.4999999999999933
 40
0.5312499999999929
 40
0.5312499999999929
 40
0.5624999999999925
 40
0.5624999999999925
 40
0.5937499999999921
 40
0.5937499999999921
 40
0.6249999999999917
 40
0.6249999999999917
 40
0.6562499999999923
 40
0.6562499999999923
 40
0.687499999999993
 40
0.687499999999993
 40
0.7187499999999938
 40
0.7187499999999938
 40
0.7499999999999944
 40
0.7499999999999944
 40
0.7812499999999951
 40
0.7812499999999951
 40
0.8124999999999958
 40
0.8124999999999958
 40
0.8437499999999966
 40
0.8437499999999966
 40
0.8749999999999972
 40
0.8749999999999972
 40
0.9062499999999979
 40
0.9062499999999979
 40
0.9374999999999986
 40
0.9374999999999986
 40
0.9687499999999993
 40
0.9687499999999993
 40
1.0
 40
1.0
 40
1.03125
 40
1.03125
 10
231.3435713041409
 20
108.4767601569391
 30
0.0
 10
230.7747816761982
 20
108.4767601569391
 30
0.0
 10
230.4959132916884
 20
108.4633483353041
 30
0.0
 10
229.9485020526215
 20
108.4129480441853
 30
0.0
 10
229.677137281604
 20
108.3753370031036
 30
0.0
 10
229.1645843226066
 20
108.2840527693446
 30
0.0
 10
228.922026407122
 20
108.2305440988283
 30
0.0
 10
228.4629086288527
 20
108.1144076225993
 30
0.0
 10
228.2486153266055
 20
108.0522489886049
 30
0.0
 10
227.8614824710743
 20
107.9303085563707
 30
0.0
 10
227.6857680000915
 20
107.8696778116687
 30
0.0
 10
227.376203855058
 20
107.7572562145598
 30
0.0
 10
227.2456344549455
 20
107.7067286722133
 30
0.0
 10
227.0320109258541
 20
107.6218295824705
 30
0.0
 10
226.9483870086306
 20
107.5871870597748
 30
0.0
 10
226.837495404882
 20
107.5408232910274
 30
0.0
 10
226.8095287567673
 20
107.5288433652648
 30
0.0
 10
226.8088307730197
 20
107.5285467223595
 30
0.0
 10
226.8370781095871
 20
107.540644618756
 30
0.0
 10
226.9469729149091
 20
107.5865999590418
 30
0.0
 10
227.0286658314527
 20
107.620479985995
 30
0.0
 10
227.244645067485
 20
107.7063552412225
 30
0.0
 10
227.3758509329472
 20
107.7571040551709
 30
0.0
 10
227.6826395847518
 20
107.8685654146507
 30
0.0
 10
227.8602278540154
 20
107.929899665167
 30
0.0
 10
228.2483770992892
 20
108.0521876059566
 30
0.0
 10
228.4595480775066
 20
108.1134703641494
 30
0.0
 10
228.9178413247146
 20
108.2295712220615
 30
0.0
 10
229.1642617732838
 20
108.283943731299
 30
0.0
 10
229.6736249318907
 20
108.3747626694827
 30
0.0
 10
229.9389786063936
 20
108.4118867498005
 30
0.0
 10
230.4933643419648
 20
108.4632941472767
 30
0.0
 10
230.77332364639
 20
108.4765756445333
 30
0.0
 10
231.3332217068856
 20
108.4769408187852
 30
0.0
 10
231.6175189722951
 20
108.4637063839062
 30
0.0
 10
232.1684842809917
 20
108.4131677967282
 30
0.0
 10
232.4346163442352
 20
108.3763595030043
 30
0.0
 10
232.9492049820221
 20
108.2850150940488
 30
0.0
 10
233.195694340264
 20
108.2306615985788
 30
0.0
 10
233.6523772813932
 20
108.115225540498
 30
0.0
 10
233.8665560796036
 20
108.0532267269299
 30
0.0
 10
234.2574167691896
 20
107.9301607343475
 30
0.0
 10
234.4315600869521
 20
107.8700185422816
 30
0.0
 10
234.738620434673
 20
107.7585687043867
 30
0.0
 10
234.8725608132643
 20
107.7067939246988
 30
0.0
 10
235.0870627982661
 20
107.6215405610018
 30
0.0
 10
235.1688455519114
 20
107.5876513792177
 30
0.0
 10
235.2802016964762
 20
107.5411015766058
 30
0.0
 10
235.3089224546146
 20
107.5288016171301
 30
0.0
 10
235.309427083856
 20
107.5285871497736
 30
0.0
 10
235.2821711382004
 20
107.5402688088628
 30
0.0
 10
235.1709226443732
 20
107.5867922500389
 30
0.0
 10
235.0889246597815
 20
107.620780119401
 30
0.0
 10
234.875135652325
 20
107.705790588943
 30
0.0
 10
234.741595343289
 20
107.7574509730564
 30
0.0
 10
234.434062216293
 20
107.8691476717065
 30
0.0
 10
234.2598198657773
 20
107.9293545238356
 30
0.0
 10
233.8694953802466
 20
108.0523501618334
 30
0.0
 10
233.6551228877488
 20
108.1144545136158
 30
0.0
 10
233.1996603024199
 20
108.22973501105
 30
0.0
 10
232.9560383336938
 20
108.2836461593194
 30
0.0
 10
232.4391214856669
 20
108.3757123628729
 30
0.0
 10
232.1733497793969
 20
108.4125061888507
 30
0.0
 10
231.6269176235706
 20
108.4630540309135
 30
0.0
 10
231.3435713041409
 20
108.4767601569391
 30
0.0
 10
230.7747816761982
 20
108.4767601569391
 30
0.0
  0
SPLINE
  5
111
330
1F
100
AcDbEntity
  8
0
  6
HIDDEN
 62
     7
370
     0
100
AcDbSpline
210
0.0
220
0.0
230
1.0
 70
     8
 71
     3
 72
    70
 73
    66
 74
     0
 42
0.00000001
 43
0.00000001
 12
1.0
 22
0.0
 32
0.0
 13
1.0
 23
0.0
 33
0.0
 40
-0.03125
 40
-0.03125
 40
0.0
 40
0.0
 40
0.03125
 40
0.03125
 40
0.0625
 40
0.0625
 40
0.09375
 40
0.09375
 40
0.125
 40
0.125
 40
0.15625
 40
0.15625
 40
0.1874999999999999
 40
0.1874999999999999
 40
0.2187499999999999
 40
0.2187499999999999
 40
0.2499999999999999
 40
0.2499999999999999
 40
0.2812499999999999
 40
0.2812499999999999
 40
0.3124999999999999
 40
0.3124999999999999
 40
0.3437499999999999
 40
0.3437499999999999
 40
0.3749999999999999
 40
0.3749999999999999
 40
0.4062499999999998
 40
0.4062499999999998
 40
0.4374999999999998
 40
0.4374999999999998
 40
0.4687499999999998
 40
0.4687499999999998
 40
0.4999999999999998
 40
0.4999999999999998
 40
0.5312499999999999
 40
0.5312499999999999
 40
0.5624999999999999
 40
0.5624999999999999
 40
0.5937499999999999
 40
0.5937499999999999
 40
0.6249999999999999
 40
0.6249999999999999
 40
0.6562499999999999
 40
0.6562499999999999
 40
0.6874999999999999
 40
0.6874999999999999
 40
0.7187499999999999
 40
0.7187499999999999
 40
0.7499999999999999
 40
0.7499999999999999
 40
0.78125
 40
0.78125
 40
0.8125
 40
0.8125
 40
0.84375
 40
0.84375
 40
0.875
 40
0.875
 40
0.90625
 40
0.90625
 40
0.9375
 40
0.9375
 40
0.96875
 40
0.96875
 40
1.0
 40
1.0
 40
1.03125
 40
1.03125
 10
231.3435713041409
 20
126.5806271471708
 30
0.0
 10
230.7747816761982
 20
126.5806271471708
 30
0.0
 10
230.4959132916885
 20
126.5940389688057
 30
0.0
 10
229.9485020526215
 20
126.6444392599246
 30
0.0
 10
229.677137281604
 20
126.6820503010063
 30
0.0
 10
229.1645843226066
 20
126.7733345347653
 30
0.0
 10
228.9220264071219
 20
126.8268432052815
 30
0.0
 10
228.4629086288527
 20
126.9429796815106
 30
0.0
 10
228.2486153266055
 20
127.005138315505
 30
0.0
 10
227.8614824710743
 20
127.1270787477391
 30
0.0
 10
227.6857680000915
 20
127.1877094924412
 30
0.0
 10
227.376203855058
 20
127.3001310895501
 30
0.0
 10
227.2456344549455
 20
127.3506586318966
 30
0.0
 10
227.0320109258542
 20
127.4355577216393
 30
0.0
 10
226.9483870086306
 20
127.4702002443351
 30
0.0
 10
226.837495404882
 20
127.5165640130824
 30
0.0
 10
226.8095287567673
 20
127.528543938845
 30
0.0
 10
226.8088307730197
 20
127.5288405817504
 30
0.0
 10
226.8370781095871
 20
127.5167426853538
 30
0.0
 10
226.9469729149091
 20
127.470787345068
 30
0.0
 10
227.0286658314527
 20
127.4369073181148
 30
0.0
 10
227.2446450674851
 20
127.3510320628873
 30
0.0
 10
227.3758509329472
 20
127.3002832489389
 30
0.0
 10
227.6826395847518
 20
127.1888218894591
 30
0.0
 10
227.8602278540154
 20
127.1274876389428
 30
0.0
 10
228.2483770992892
 20
127.0051996981532
 30
0.0
 10
228.4595480775066
 20
126.9439169399603
 30
0.0
 10
228.9178413247146
 20
126.8278160820483
 30
0.0
 10
229.1642617732838
 20
126.7734435728108
 30
0.0
 10
229.6736249318906
 20
126.6826246346271
 30
0.0
 10
229.9389786063936
 20
126.6455005543093
 30
0.0
 10
230.4933643419648
 20
126.5940931568331
 30
0.0
 10
230.7733236463899
 20
126.5808116595766
 30
0.0
 10
231.3332217068856
 20
126.5804464853246
 30
0.0
 10
231.6175189722951
 20
126.5936809202036
 30
0.0
 10
232.1684842809917
 20
126.6442195073816
 30
0.0
 10
232.4346163442352
 20
126.6810278011055
 30
0.0
 10
232.9492049820221
 20
126.772372210061
 30
0.0
 10
233.195694340264
 20
126.826725705531
 30
0.0
 10
233.6523772813932
 20
126.9421617636118
 30
0.0
 10
233.8665560796036
 20
127.0041605771799
 30
0.0
 10
234.2574167691896
 20
127.1272265697623
 30
0.0
 10
234.4315600869521
 20
127.1873687618282
 30
0.0
 10
234.738620434673
 20
127.2988185997231
 30
0.0
 10
234.8725608132643
 20
127.350593379411
 30
0.0
 10
235.0870627982661
 20
127.4358467431081
 30
0.0
 10
235.1688455519114
 20
127.4697359248921
 30
0.0
 10
235.2802016964762
 20
127.516285727504
 30
0.0
 10
235.3089224546146
 20
127.5285856869798
 30
0.0
 10
235.309427083856
 20
127.5288001543362
 30
0.0
 10
235.2821711382004
 20
127.517118495247
 30
0.0
 10
235.1709226443732
 20
127.470595054071
 30
0.0
 10
235.0889246597816
 20
127.4366071847088
 30
0.0
 10
234.875135652325
 20
127.3515967151669
 30
0.0
 10
234.7415953432889
 20
127.2999363310534
 30
0.0
 10
234.434062216293
 20
127.1882396324033
 30
0.0
 10
234.2598198657774
 20
127.1280327802743
 30
0.0
 10
233.8694953802466
 20
127.0050371422765
 30
0.0
 10
233.6551228877488
 20
126.942932790494
 30
0.0
 10
233.1996603024199
 20
126.8276522930599
 30
0.0
 10
232.9560383336938
 20
126.7737411447904
 30
0.0
 10
232.4391214856669
 20
126.6816749412369
 30
0.0
 10
232.1733497793969
 20
126.6448811152592
 30
0.0
 10
231.6269176235706
 20
126.5943332731964
 30
0.0
 10
231.3435713041409
 20
126.5806271471708
 30
0.0
 10
230.7747816761982
 20
126.5806271471708
 30
0.0
  0
SPLINE
  5
112
330
1F
100
AcDbEntity
  8
0
  6
HIDDEN
 62
     7
370
     0
100
AcDbSpline
210
0.0
220
0.0
230
1.0
 70
     8
 71
     3
 72
    70
 73
    66
 74
     0
 42
0.00000001
 43
0.00000001
 12
1.0
 22
0.0
 32
0.0
 13
1.0
 23
0.0
 33
0.0
 40
-0.0312499999999999
 40
-0.0312499999999999
 40
0.0
 40
0.0
 40
0.03125
 40
0.03125
 40
0.0625
 40
0.0625
 40
0.09375
 40
0.09375
 40
0.125
 40
0.125
 40
0.15625
 40
0.15625
 40
0.1875
 40
0.1875
 40
0.2187499999999999
 40
0.2187499999999999
 40
0.2499999999999999
 40
0.2499999999999999
 40
0.2812499999999999
 40
0.2812499999999999
 40
0.3124999999999998
 40
0.3124999999999998
 40
0.3437499999999999
 40
0.3437499999999999
 40
0.3749999999999999
 40
0.3749999999999999
 40
0.4062499999999999
 40
0.4062499999999999
 40
0.4374999999999999
 40
0.4374999999999999
 40
0.4687499999999999
 40
0.4687499999999999
 40
0.4999999999999999
 40
0.4999999999999999
 40
0.5312499999999999
 40
0.5312499999999999
 40
0.5624999999999999
 40
0.5624999999999999
 40
0.5937499999999999
 40
0.5937499999999999
 40
0.6249999999999999
 40
0.6249999999999999
 40
0.65625
 40
0.65625
 40
0.6875
 40
0.6875
 40
0.71875
 40
0.71875
 40
0.75
 40
0.75
 40
0.78125
 40
0.78125
 40
0.8125
 40
0.8125
 40
0.84375
 40
0.84375
 40
0.875
 40
0.875
 40
0.9062500000000001
 40
0.9062500000000001
 40
0.9375000000000001
 40
0.9375000000000001
 40
0.9687500000000001
 40
0.9687500000000001
 40
1.0
 40
1.0
 40
1.03125
 40
1.03125
 10
218.3435713041409
 20
108.4767601569391
 30
0.0
 10
217.7747816761983
 20
108.4767601569391
 30
0.0
 10
217.4959132916884
 20
108.4633483353041
 30
0.0
 10
216.9485020526215
 20
108.4129480441853
 30
0.0
 10
216.677137281604
 20
108.3753370031036
 30
0.0
 10
216.1645843226066
 20
108.2840527693446
 30
0.0
 10
215.9220264071219
 20
108.2305440988283
 30
0.0
 10
215.4629086288527
 20
108.1144076225993
 30
0.0
 10
215.2486153266055
 20
108.0522489886049
 30
0.0
 10
214.8614824710743
 20
107.9303085563707
 30
0.0
 10
214.6857680000915
 20
107.8696778116687
 30
0.0
 10
214.376203855058
 20
107.7572562145597
 30
0.0
 10
214.2456344549455
 20
107.7067286722133
 30
0.0
 10
214.0320109258542
 20
107.6218295824705
 30
0.0
 10
213.9483870086306
 20
107.5871870597748
 30
0.0
 10
213.837495404882
 20
107.5408232910274
 30
0.0
 10
213.8095287567672
 20
107.5288433652649
 30
0.0
 10
213.8088307730197
 20
107.5285467223595
 30
0.0
 10
213.8370781095871
 20
107.540644618756
 30
0.0
 10
213.9469729149091
 20
107.5865999590418
 30
0.0
 10
214.0286658314527
 20
107.620479985995
 30
0.0
 10
214.2446450674851
 20
107.7063552412225
 30
0.0
 10
214.3758509329472
 20
107.7571040551709
 30
0.0
 10
214.6826395847518
 20
107.8685654146507
 30
0.0
 10
214.8602278540154
 20
107.929899665167
 30
0.0
 10
215.2483770992892
 20
108.0521876059566
 30
0.0
 10
215.4595480775066
 20
108.1134703641494
 30
0.0
 10
215.9178413247146
 20
108.2295712220615
 30
0.0
 10
216.1642617732838
 20
108.283943731299
 30
0.0
 10
216.6736249318907
 20
108.3747626694827
 30
0.0
 10
216.9389786063936
 20
108.4118867498005
 30
0.0
 10
217.4933643419648
 20
108.4632941472767
 30
0.0
 10
217.77332364639
 20
108.4765756445333
 30
0.0
 10
218.3332217068856
 20
108.4769408187852
 30
0.0
 10
218.6175189722951
 20
108.4637063839062
 30
0.0
 10
219.1684842809917
 20
108.4131677967282
 30
0.0
 10
219.4346163442352
 20
108.3763595030043
 30
0.0
 10
219.9492049820221
 20
108.2850150940488
 30
0.0
 10
220.195694340264
 20
108.2306615985789
 30
0.0
 10
220.6523772813933
 20
108.115225540498
 30
0.0
 10
220.8665560796036
 20
108.0532267269299
 30
0.0
 10
221.2574167691895
 20
107.9301607343475
 30
0.0
 10
221.4315600869521
 20
107.8700185422816
 30
0.0
 10
221.738620434673
 20
107.7585687043867
 30
0.0
 10
221.8725608132643
 20
107.7067939246988
 30
0.0
 10
222.0870627982661
 20
107.6215405610018
 30
0.0
 10
222.1688455519114
 20
107.5876513792177
 30
0.0
 10
222.2802016964763
 20
107.5411015766058
 30
0.0
 10
222.3089224546146
 20
107.5288016171301
 30
0.0
 10
222.309427083856
 20
107.5285871497736
 30
0.0
 10
222.2821711382004
 20
107.5402688088628
 30
0.0
 10
222.1709226443732
 20
107.5867922500389
 30
0.0
 10
222.0889246597816
 20
107.620780119401
 30
0.0
 10
221.875135652325
 20
107.705790588943
 30
0.0
 10
221.7415953432889
 20
107.7574509730564
 30
0.0
 10
221.4340622162931
 20
107.8691476717065
 30
0.0
 10
221.2598198657773
 20
107.9293545238356
 30
0.0
 10
220.8694953802466
 20
108.0523501618334
 30
0.0
 10
220.6551228877488
 20
108.1144545136158
 30
0.0
 10
220.19966030242
 20
108.22973501105
 30
0.0
 10
219.9560383336938
 20
108.2836461593194
 30
0.0
 10
219.4391214856669
 20
108.375712362873
 30
0.0
 10
219.1733497793969
 20
108.4125061888507
 30
0.0
 10
218.6269176235706
 20
108.4630540309135
 30
0.0
 10
218.3435713041409
 20
108.4767601569391
 30
0.0
 10
217.7747816761983
 20
108.4767601569391
 30
0.0
  0
SPLINE
  5
113
330
1F
100
AcDbEntity
  8
0
  6
HIDDEN
 62
     7
370
     0
100
AcDbSpline
210
0.0
220
0.0
230
1.0
 70
     8
 71
     3
 72
    70
 73
    66
 74
     0
 42
0.00000001
 43
0.00000001
 12
1.0
 22
0.0
 32
0.0
 13
1.0
 23
0.0
 33
0.0
 40
-0.03125
 40
-0.03125
 40
0.0
 40
0.0
 40
0.03125
 40
0.03125
 40
0.0625
 40
0.0625
 40
0.09375
 40
0.09375
 40
0.125
 40
0.125
 40
0.15625
 40
0.15625
 40
0.1875
 40
0.1875
 40
0.21875
 40
0.21875
 40
0.25
 40
0.25
 40
0.28125
 40
0.28125
 40
0.3125
 40
0.3125
 40
0.34375
 40
0.34375
 40
0.375
 40
0.375
 40
0.40625
 40
0.40625
 40
0.4375
 40
0.4375
 40
0.46875
 40
0.46875
 40
0.5
 40
0.5
 40
0.53125
 40
0.53125
 40
0.5625
 40
0.5625
 40
0.59375
 40
0.59375
 40
0.625
 40
0.625
 40
0.65625
 40
0.65625
 40
0.6875
 40
0.6875
 40
0.71875
 40
0.71875
 40
0.75
 40
0.75
 40
0.78125
 40
0.78125
 40
0.8125
 40
0.8125
 40
0.84375
 40
0.84375
 40
0.875
 40
0.875
 40
0.90625
 40
0.90625
 40
0.9375
 40
0.9375
 40
0.96875
 40
0.96875
 40
1.0
 40
1.0
 40
1.03125
 40
1.03125
 10
218.3435713041408
 20
126.5806271471708
 30
0.0
 10
217.7747816761983
 20
126.5806271471708
 30
0.0
 10
217.4959132916884
 20
126.5940389688057
 30
0.0
 10
216.9485020526215
 20
126.6444392599246
 30
0.0
 10
216.677137281604
 20
126.6820503010063
 30
0.0
 10
216.1645843226066
 20
126.7733345347653
 30
0.0
 10
215.9220264071219
 20
126.8268432052815
 30
0.0
 10
215.4629086288527
 20
126.9429796815106
 30
0.0
 10
215.2486153266055
 20
127.005138315505
 30
0.0
 10
214.8614824710743
 20
127.1270787477391
 30
0.0
 10
214.6857680000915
 20
127.1877094924412
 30
0.0
 10
214.376203855058
 20
127.3001310895501
 30
0.0
 10
214.2456344549455
 20
127.3506586318966
 30
0.0
 10
214.0320109258542
 20
127.4355577216393
 30
0.0
 10
213.9483870086306
 20
127.4702002443351
 30
0.0
 10
213.837495404882
 20
127.5165640130824
 30
0.0
 10
213.8095287567672
 20
127.528543938845
 30
0.0
 10
213.8088307730198
 20
127.5288405817504
 30
0.0
 10
213.8370781095871
 20
127.5167426853538
 30
0.0
 10
213.9469729149091
 20
127.470787345068
 30
0.0
 10
214.0286658314527
 20
127.4369073181148
 30
0.0
 10
214.2446450674851
 20
127.3510320628873
 30
0.0
 10
214.3758509329472
 20
127.3002832489389
 30
0.0
 10
214.6826395847518
 20
127.1888218894591
 30
0.0
 10
214.8602278540154
 20
127.1274876389428
 30
0.0
 10
215.2483770992892
 20
127.0051996981532
 30
0.0
 10
215.4595480775066
 20
126.9439169399603
 30
0.0
 10
215.9178413247146
 20
126.8278160820483
 30
0.0
 10
216.1642617732838
 20
126.7734435728108
 30
0.0
 10
216.6736249318907
 20
126.6826246346271
 30
0.0
 10
216.9389786063936
 20
126.6455005543093
 30
0.0
 10
217.4933643419648
 20
126.5940931568331
 30
0.0
 10
217.7733236463899
 20
126.5808116595766
 30
0.0
 10
218.3332217068856
 20
126.5804464853246
 30
0.0
 10
218.6175189722951
 20
126.5936809202036
 30
0.0
 10
219.1684842809917
 20
126.6442195073816
 30
0.0
 10
219.4346163442352
 20
126.6810278011055
 30
0.0
 10
219.9492049820221
 20
126.772372210061
 30
0.0
 10
220.195694340264
 20
126.826725705531
 30
0.0
 10
220.6523772813933
 20
126.9421617636118
 30
0.0
 10
220.8665560796036
 20
127.0041605771799
 30
0.0
 10
221.2574167691896
 20
127.1272265697623
 30
0.0
 10
221.4315600869521
 20
127.1873687618282
 30
0.0
 10
221.738620434673
 20
127.2988185997231
 30
0.0
 10
221.8725608132643
 20
127.350593379411
 30
0.0
 10
222.087062798266
 20
127.4358467431081
 30
0.0
 10
222.1688455519114
 20
127.4697359248921
 30
0.0
 10
222.2802016964763
 20
127.516285727504
 30
0.0
 10
222.3089224546146
 20
127.5285856869798
 30
0.0
 10
222.309427083856
 20
127.5288001543362
 30
0.0
 10
222.2821711382004
 20
127.517118495247
 30
0.0
 10
222.1709226443732
 20
127.470595054071
 30
0.0
 10
222.0889246597816
 20
127.4366071847088
 30
0.0
 10
221.875135652325
 20
127.3515967151669
 30
0.0
 10
221.7415953432889
 20
127.2999363310534
 30
0.0
 10
221.4340622162931
 20
127.1882396324033
 30
0.0
 10
221.2598198657773
 20
127.1280327802743
 30
0.0
 10
220.8694953802466
 20
127.0050371422765
 30
0.0
 10
220.6551228877488
 20
126.942932790494
 30
0.0
 10
220.19966030242
 20
126.8276522930598
 30
0.0
 10
219.9560383336938
 20
126.7737411447904
 30
0.0
 10
219.4391214856669
 20
126.6816749412369
 30
0.0
 10
219.1733497793969
 20
126.6448811152592
 30
0.0
 10
218.6269176235706
 20
126.5943332731964
 30
0.0
 10
218.3435713041408
 20
126.5806271471708
 30
0.0
 10
217.7747816761983
 20
126.5806271471708
 30
0.0
  0
LINE
  5
114
330
1F
100
AcDbEntity
  8
0
  6
HIDDEN
 62
     7
370
     0
100
AcDbLine
 10
162.0591768776
 20
110.2786938607
 30
0.0
 11
162.0591768776
 21
124.7786934434
 31
0.0
  0
LINE
  5
115
330
1F
100
AcDbEntity
  8
0
  6
HIDDEN
 62
     7
370
     0
100
AcDbLine
 10
161.0591767137
 20
109.2826061829
 30
0.0
 11
161.0591767137
 21
125.7747811212
 31
0.0
  0
LINE
  5
116
330
1F
100
AcDbEntity
  8
0
  6
HIDDEN
 62
     7
370
     0
100
AcDbLine
 10
178.0591767062
 20
124.7786934434
 30
0.0
 11
178.0591767062
 21
110.2786938607
 31
0.0
  0
LINE
  5
117
330
1F
100
AcDbEntity
  8
0
  6
HIDDEN
 62
     7
370
     0
100
AcDbLine
 10
226.8091777121
 20
96.7786944418
 30
0.0
 11
235.3091763114
 21
96.7786944418
 31
0.0
  0
LINE
  5
118
330
1F
100
AcDbEntity
  8
0
  6
HIDDEN
 62
     7
370
     0
100
AcDbLine
 10
200.8091771756
 20
96.7786944418
 30
0.0
 11
209.3091757749
 21
96.7786944418
 31
0.0
  0
LINE
  5
119
330
1F
100
AcDbEntity
  8
0
  6
HIDDEN
 62
     7
370
     0
100
AcDbLine
 10
213.8091774438
 20
96.7786944418
 30
0.0
 11
222.3091760431
 21
96.7786944418
 31
0.0
  0
LINE
  5
11A
330
1F
100
AcDbEntity
  8
0
  6
HIDDEN
 62
     7
370
     0
100
AcDbLine
 10
226.8091777121
 20
138.2786928623
 30
0.0
 11
235.3091763114
 21
138.2786928623
 31
0.0
  0
LINE
  5
11B
330
1F
100
AcDbEntity
  8
0
  6
HIDDEN
 62
     7
370
     0
100
AcDbLine
 10
213.8091774438
 20
138.2786928623
 30
0.0
 11
222.3091760431
 21
138.2786928623
 31
0.0
  0
LINE
  5
11C
330
1F
100
AcDbEntity
  8
0
  6
HIDDEN
 62
     7
370
     0
100
AcDbLine
 10
200.8091771756
 20
138.2786928623
 30
0.0
 11
209.3091757749
 21
138.2786928623
 31
0.0
  0
LINE
  5
11D
330
1F
100
AcDbEntity
  8
0
  6
HIDDEN
 62
     7
370
     0
100
AcDbLine
 10
168.8591765021
 20
134.7914933174
 30
0.0
 11
168.8591765021
 21
136.1687927454
 31
0.0
  0
LINE
  5
11E
330
1F
100
AcDbEntity
  8
0
  6
HIDDEN
 62
     7
370
     0
100
AcDbLine
 10
142.5591764753
 20
134.2192682384
 30
0.0
 11
142.5591764753
 21
135.5080454557
 31
0.0
  0
SPLINE
  5
11F
330
1F
100
AcDbEntity
  8
0
  6
HIDDEN
 62
     7
370
     0
100
AcDbSpline
210
0.0
220
0.0
230
1.0
 70
     8
 71
     3
 72
    10
 73
     6
 74
     0
 42
0.00000001
 43
0.00000001
 12
1.0
 22
0.0
 32
0.0
 13
1.0
 23
0.0
 33
0.0
 40
0.0
 40
0.0
 40
0.0
 40
0.0
 40
0.359941185125859
 40
0.7301023657646475
 40
1.0
 40
1.0
 40
1.0
 40
1.0
 10
169.7378561845912
 20
135.0754982738706
 30
0.0
 10
169.6513926307368
 20
135.2656494634666
 30
0.0
 10
169.4760105187969
 20
135.6513509033518
 30
0.0
 10
169.3459727219938
 20
135.942442875
 30
0.0
 10
169.3410852204917
 20
135.9533286777066
 30
0.0
 10
169.3390242769314
 20
135.9579189627382
 30
0.0
  0
LINE
  5
120
330
1F
100
AcDbEntity
  8
0
  6
HIDDEN
 62
     7
370
     0
100
AcDbLine
 10
141.0591771607
 20
133.4692685812
 30
0.0
 11
141.0591771607
 21
134.6420197695
 31
0.0
  0
LINE
  5
121
330
1F
100
AcDbEntity
  8
0
  6
HIDDEN
 62
     7
370
     0
100
AcDbLine
 10
154.0091765826
 20
101.7383764445
 30
0.0
 11
160.1091764648
 21
101.7383764445
 31
0.0
  0
LINE
  5
122
330
1F
100
AcDbEntity
  8
0
  6
HIDDEN
 62
     7
370
     0
100
AcDbLine
 10
146.5591771309
 20
101.9038296252
 30
0.0
 11
146.5591771309
 21
103.5286932199
 31
0.0
  0
SPLINE
  5
123
330
1F
100
AcDbEntity
  8
0
  6
HIDDEN
 62
     7
370
     0
100
AcDbSpline
210
0.0
220
0.0
230
1.0
 70
     8
 71
     3
 72
     8
 73
     4
 74
     0
 42
0.00000001
 43
0.00000001
 12
1.0
 22
0.0
 32
0.0
 13
1.0
 23
0.0
 33
0.0
 40
0.0
 40
0.0
 40
0.0
 40
0.0
 40
1.0
 40
1.0
 40
1.0
 40
1.0
 10
142.5591764901696
 20
101.9958968936445
 30
0.0
 10
142.0381242477088
 20
102.2709270203012
 30
0.0
 10
141.5333879006072
 20
102.5321137944515
 30
0.0
 10
141.0591764901696
 20
102.7734246684105
 30
0.0
  0
LINE
  5
124
330
1F
100
AcDbEntity
  8
0
  6
HIDDEN
 62
     7
370
     0
100
AcDbLine
 10
141.0591771607
 20
102.7734250708
 30
0.0
 11
141.0591771607
 21
103.5286932199
 31
0.0
  0
LINE
  5
125
330
1F
100
AcDbEntity
  8
0
  6
HIDDEN
 62
     7
370
     0
100
AcDbLine
 10
154.0091765826
 20
131.5286940842
 30
0.0
 11
160.1091764648
 21
131.5286940842
 31
0.0
  0
LINE
  5
126
330
1F
100
AcDbEntity
  8
0
  6
HIDDEN
 62
     7
370
     0
100
AcDbLine
 10
181.0591762667
 20
93.0286942928
 30
0.0
 11
185.0591769223
 21
93.0286942928
 31
0.0
  0
LINE
  5
127
330
1F
100
AcDbEntity
  8
0
  6
HIDDEN
 62
     7
370
     0
100
AcDbLine
 10
141.0591771607
 20
105.7680155097
 30
0.0
 11
141.0591771607
 21
102.7734250708
 31
0.0
  0
LINE
  5
128
330
1F
100
AcDbEntity
  8
0
  6
HIDDEN
 62
     7
370
     0
100
AcDbLine
 10
141.0591771607
 20
133.4692685812
 30
0.0
 11
141.0591771607
 21
113.3487968652
 31
0.0
  0
LINE
  5
129
330
1F
100
AcDbEntity
  8
0
  6
HIDDEN
 62
     7
370
     0
100
AcDbLine
 10
142.5591764753
 20
134.2192682384
 30
0.0
 11
142.5591764753
 21
113.3487968652
 31
0.0
  0
LINE
  5
12A
330
1F
100
AcDbEntity
  8
0
  6
HIDDEN
 62
     7
370
     0
100
AcDbLine
 10
168.8591765021
 20
134.7914933174
 30
0.0
 11
168.8591765021
 21
113.3487968652
 31
0.0
  0
LINE
  5
12B
330
1F
100
AcDbEntity
  8
0
  6
HIDDEN
 62
     7
370
     0
100
AcDbLine
 10
170.8591764952
 20
134.3347988038
 30
0.0
 11
170.8591764952
 21
114.3083527165
 31
0.0
  0
LINE
  5
12C
330
1F
100
AcDbEntity
  8
0
  6
HIDDEN
 62
     7
370
     0
100
AcDbLine
 10
141.0591771607
 20
113.3487968652
 30
0.0
 11
141.0591771607
 21
105.7680155097
 31
0.0
  0
LINE
  5
12D
330
1F
100
AcDbEntity
  8
0
  6
HIDDEN
 62
     7
370
     0
100
AcDbLine
 10
142.5591764753
 20
113.3487968652
 30
0.0
 11
142.5591764753
 21
105.0180158525
 31
0.0
  0
LINE
  5
12E
330
1F
100
AcDbEntity
  8
0
  6
HIDDEN
 62
     7
370
     0
100
AcDbLine
 10
168.8591765021
 20
113.3487968652
 30
0.0
 11
168.8591765021
 21
104.4457917049
 31
0.0
  0
SPLINE
  5
12F
330
1F
100
AcDbEntity
  8
0
  6
HIDDEN
 62
     7
370
     0
100
AcDbSpline
210
0.0
220
0.0
230
1.0
 70
     8
 71
     3
 72
    18
 73
    14
 74
     0
 42
0.00000001
 43
0.00000001
 12
1.0
 22
0.0
 32
0.0
 13
1.0
 23
0.0
 33
0.0
 40
0.0
 40
0.0
 40
0.0
 40
0.0
 40
0.2500000000000008
 40
0.2500000000000008
 40
0.3750000000000012
 40
0.3750000000000012
 40
0.5000000000000016
 40
0.5000000000000016
 40
0.6250000000000012
 40
0.6250000000000012
 40
0.750000000000001
 40
0.750000000000001
 40
1.0
 40
1.0
 40
1.0
 40
1.0
 10
169.7378561466099
 20
112.3942117187318
 30
0.0
 10
169.6025705403076
 20
111.678438299306
 30
0.0
 10
169.5014027940646
 20
110.9776281523395
 30
0.0
 10
169.3985414511957
 20
109.9492167630208
 30
0.0
 10
169.3724386056724
 20
109.6093338047427
 30
0.0
 10
169.3375486221275
 20
108.9415220501134
 30
0.0
 10
169.3289623638376
 20
108.6183302695581
 30
0.0
 10
169.3288626542719
 20
107.9926802046982
 30
0.0
 10
169.3373510254205
 20
107.6902238276882
 30
0.0
 10
169.3714944049411
 20
107.1060739068882
 30
0.0
 10
169.3972913867949
 20
106.8233098101937
 30
0.0
 10
169.5006925181828
 20
106.0146150112679
 30
0.0
 10
169.6025505103542
 20
105.5361133991758
 30
0.0
 10
169.7378561466099
 20
105.1163712660546
 30
0.0
  0
CIRCLE
  5
130
330
1F
100
AcDbEntity
  8
0
  6
HIDDEN
 62
     7
370
     0
100
AcDbCircle
 10
205.0591764902
 20
117.5286936521
 30
0.0
 40
4.25
  0
CIRCLE
  5
131
330
1F
100
AcDbEntity
  8
0
  6
HIDDEN
 62
     7
370
     0
100
AcDbCircle
 10
218.0591764902
 20
117.5286936521
 30
0.0
 40
4.25
  0
CIRCLE
  5
132
330
1F
100
AcDbEntity
  8
0
  6
HIDDEN
 62
     7
370
     0
100
AcDbCircle
 10
231.0591764902
 20
117.5286936521
 30
0.0
 40
4.249999999999986
  0
LINE
  5
133
330
1F
100
AcDbEntity
  8
0
  6
HIDDEN
 62
     7
370
     0
100
AcDbLine
 10
171.0591764902
 20
97.978694266
 30
0.0
 11
171.1520697106
 21
98.0715862422
 31
0.0
  0
LINE
  5
134
330
1F
100
AcDbEntity
  8
0
  6
HIDDEN
 62
     7
370
     0
100
AcDbLine
 10
171.1520697106
 20
136.9858010619
 30
0.0
 11
171.0591764902
 21
137.0786930381
 31
0.0
  0
ARC
  5
135
330
1F
100
AcDbEntity
  8
0
  6
HIDDEN
 62
     7
370
     0
100
AcDbCircle
 10
170.4449629278
 20
98.7786936521
 30
0.0
 40
1.0
100
AcDbArc
 50
315.0
 51
0.0
  0
ARC
  5
136
330
1F
100
AcDbEntity
  8
0
  6
HIDDEN
 62
     7
370
     0
100
AcDbCircle
 10
170.4449629278
 20
98.7786936521
 30
0.0
 40
1.0
100
AcDbArc
 50
0.0
 51
52.1052014664
  0
ARC
  5
137
330
1F
100
AcDbEntity
  8
0
  6
HIDDEN
 62
     7
370
     0
100
AcDbCircle
 10
170.4449629278
 20
136.2786936521
 30
0.0
 40
0.9999999999999726
100
AcDbArc
 50
343.125
 51
45.0
  0
ARC
  5
138
330
1F
100
AcDbEntity
  8
0
  6
HIDDEN
 62
     7
370
     0
100
AcDbCircle
 10
170.4449629278
 20
136.2786936521
 30
0.0
 40
1.000000000000021
100
AcDbArc
 50
307.8947985336
 51
343.125
  0
LINE
  5
139
330
1F
100
AcDbEntity
  8
0
  6
HIDDEN
 62
     7
370
     0
100
AcDbLine
 10
171.444962926
 20
98.778692907
 30
0.0
 11
171.444962926
 21
136.2786943971
 31
0.0
  0
LINE
  5
13A
330
1F
100
AcDbEntity
  8
0
  6
HIDDEN
 62
     7
370
     0
100
AcDbLine
 10
171.444962926
 20
98.778692907
 30
0.0
 11
171.444962926
 21
136.2786943971
 31
0.0
  0
ARC
  5
13B
330
1F
100
AcDbEntity
  8
0
  6
HIDDEN
 62
     7
370
     0
100
AcDbCircle
 10
148.5658960022
 20
107.0286936521
 30
0.0
 40
1.500000000000002
100
AcDbArc
 50
270.0
 51
315.0
  0
ARC
  5
13C
330
1F
100
AcDbEntity
  8
0
  6
HIDDEN
 62
     7
370
     0
100
AcDbCircle
 10
148.5658960022
 20
128.0286936521
 30
0.0
 40
1.5
100
AcDbArc
 50
45.0
 51
90.0
  0
LINE
  5
13D
330
1F
100
AcDbEntity
  8
0
  6
HIDDEN
 62
     7
370
     0
100
AcDbLine
 10
147.5591772948
 20
105.5286935477
 30
0.0
 11
148.5658960198
 21
105.5286935477
 31
0.0
  0
LINE
  5
13E
330
1F
100
AcDbEntity
  8
0
  6
HIDDEN
 62
     7
370
     0
100
AcDbLine
 10
148.5658960198
 20
129.5286937564
 30
0.0
 11
147.5591772948
 21
129.5286937564
 31
0.0
  0
ARC
  5
13F
330
1F
100
AcDbEntity
  8
0
  6
HIDDEN
 62
     7
370
     0
100
AcDbCircle
 10
147.5591764902
 20
107.0286936521
 30
0.0
 40
1.5
100
AcDbArc
 50
191.0958032831
 51
270.0
  0
ARC
  5
140
330
1F
100
AcDbEntity
  8
0
  6
HIDDEN
 62
     7
370
     0
100
AcDbCircle
 10
147.5591764902
 20
128.0286936521
 30
0.0
 40
1.5
100
AcDbArc
 50
90.0
 51
168.9041967169
  0
LINE
  5
141
330
1F
100
AcDbEntity
  8
0
  6
HIDDEN
 62
     7
370
     0
100
AcDbLine
 10
141.0591771607
 20
105.7652811467
 30
0.0
 11
142.0872157221
 21
106.358820474
 31
0.0
  0
LINE
  5
142
330
1F
100
AcDbEntity
  8
0
  6
HIDDEN
 62
     7
370
     0
100
AcDbLine
 10
142.0872157221
 20
128.6985668301
 30
0.0
 11
141.0591771607
 21
129.2921061574
 31
0.0
  0
LINE
  5
143
330
1F
100
AcDbEntity
  8
0
  6
HIDDEN
 62
     7
370
     0
100
AcDbLine
 10
149.6265569483
 20
105.9680337965
 30
0.0
 11
150.6872160141
 21
107.0286937936
 31
0.0
  0
LINE
  5
144
330
1F
100
AcDbEntity
  8
0
  6
HIDDEN
 62
     7
370
     0
100
AcDbLine
 10
150.6872160141
 20
128.0286935105
 30
0.0
 11
149.6265569483
 21
129.0893535077
 31
0.0
  0
LINE
  5
145
330
1F
100
AcDbEntity
  8
0
  6
HIDDEN
 62
     7
370
     0
100
AcDbLine
 10
142.0872157221
 20
106.358820474
 30
0.0
 11
144.5872170632
 21
107.0286937936
 31
0.0
  0
LINE
  5
146
330
1F
100
AcDbEntity
  8
0
  6
HIDDEN
 62
     7
370
     0
100
AcDbLine
 10
144.5872170632
 20
128.0286935105
 30
0.0
 11
142.0872157221
 21
128.6985668301
 31
0.0
  0
LINE
  5
147
330
1F
100
AcDbEntity
  8
0
  6
HIDDEN
 62
     7
370
     0
100
AcDbLine
 10
146.0872163777
 20
128.3173690497
 30
0.0
 11
145.5872172271
 21
128.0286935105
 31
0.0
  0
LINE
  5
148
330
1F
100
AcDbEntity
  8
0
  6
HIDDEN
 62
     7
370
     0
100
AcDbLine
 10
145.5872172271
 20
107.0286937936
 30
0.0
 11
146.0872163777
 21
106.7400182544
 31
0.0
  0
LINE
  5
149
330
1F
100
AcDbEntity
  8
0
  6
HIDDEN
 62
     7
370
     0
100
AcDbLine
 10
144.5872170632
 20
107.0286937936
 30
0.0
 11
145.5872172271
 21
107.0286937936
 31
0.0
  0
LINE
  5
14A
330
1F
100
AcDbEntity
  8
0
  6
HIDDEN
 62
     7
370
     0
100
AcDbLine
 10
145.5872172271
 20
128.0286935105
 30
0.0
 11
144.5872170632
 21
128.0286935105
 31
0.0
  0
ARC
  5
14B
330
1F
100
AcDbEntity
  8
0
  6
HIDDEN
 62
     7
370
     0
100
AcDbCircle
 10
160.5591764902
 20
107.5286936521
 30
0.0
 40
0.5
100
AcDbArc
 50
270.0
 51
0.0
  0
ARC
  5
14C
330
1F
100
AcDbEntity
  8
0
  6
HIDDEN
 62
     7
370
     0
100
AcDbCircle
 10
160.5591764902
 20
127.5286936521
 30
0.0
 40
0.5
100
AcDbArc
 50
0.0
 51
90.0
  0
LINE
  5
14D
330
1F
100
AcDbEntity
  8
0
  6
HIDDEN
 62
     7
370
     0
100
AcDbLine
 10
160.0742239286
 20
107.0286937936
 30
0.0
 11
160.5591766317
 21
107.0286937936
 31
0.0
  0
LINE
  5
14E
330
1F
100
AcDbEntity
  8
0
  6
HIDDEN
 62
     7
370
     0
100
AcDbLine
 10
150.6872160141
 20
107.0286937936
 30
0.0
 11
154.0320163374
 21
107.0286937936
 31
0.0
  0
LINE
  5
14F
330
1F
100
AcDbEntity
  8
0
  6
HIDDEN
 62
     7
370
     0
100
AcDbLine
 10
154.0441291188
 20
128.0286935105
 30
0.0
 11
150.6872160141
 21
128.0286935105
 31
0.0
  0
LINE
  5
150
330
1F
100
AcDbEntity
  8
0
  6
HIDDEN
 62
     7
370
     0
100
AcDbLine
 10
160.5591766317
 20
128.0286935105
 30
0.0
 11
160.08633671
 21
128.0286935105
 31
0.0
  0
ARC
  5
151
330
1F
100
AcDbEntity
  8
0
  6
HIDDEN
 62
     7
370
     0
100
AcDbCircle
 10
178.4591764902
 20
127.4286936521
 30
0.0
 40
0.3999999999999915
100
AcDbArc
 50
90.0
 51
180.0
  0
ARC
  5
152
330
1F
100
AcDbEntity
  8
0
  6
HIDDEN
 62
     7
370
     0
100
AcDbCircle
 10
178.4591764902
 20
107.6286936521
 30
0.0
 40
0.3999999999999915
100
AcDbArc
 50
180.0
 51
270.0
  0
LINE
  5
153
330
1F
100
AcDbEntity
  8
0
  6
HIDDEN
 62
     7
370
     0
100
AcDbLine
 10
189.2349330489
 20
127.8286938502
 30
0.0
 11
178.4591764924
 21
127.8286938502
 31
0.0
  0
LINE
  5
154
330
1F
100
AcDbEntity
  8
0
  6
HIDDEN
 62
     7
370
     0
100
AcDbLine
 10
178.4591764924
 20
107.2286934539
 30
0.0
 11
189.2349330489
 21
107.2286934539
 31
0.0
  0
LINE
  5
155
330
1F
100
AcDbEntity
  8
0
  6
HIDDEN
 62
     7
370
     0
100
AcDbLine
 10
189.2349330489
 20
107.2286934539
 30
0.0
 11
190.0591758792
 21
107.5286938756
 31
0.0
  0
LINE
  5
156
330
1F
100
AcDbEntity
  8
0
  6
HIDDEN
 62
     7
370
     0
100
AcDbLine
 10
190.0591758792
 20
127.5286934285
 30
0.0
 11
189.2349330489
 21
127.8286938502
 31
0.0
  0
ARC
  5
157
330
1F
100
AcDbEntity
  8
0
  6
HIDDEN
 62
     7
370
     0
100
AcDbCircle
 10
240.7591764902
 20
127.8286936521
 30
0.0
 40
0.3000000000000114
100
AcDbArc
 50
270.0
 51
0.0
  0
ARC
  5
158
330
1F
100
AcDbEntity
  8
0
  6
HIDDEN
 62
     7
370
     0
100
AcDbCircle
 10
240.7591764902
 20
107.2286936521
 30
0.0
 40
0.3000000000000114
100
AcDbArc
 50
0.0
 51
90.0
  0
LINE
  5
159
330
1F
100
AcDbEntity
  8
0
  6
HIDDEN
 62
     7
370
     0
100
AcDbLine
 10
200.824234799
 20
127.5286934285
 30
0.0
 11
190.0591758792
 21
127.5286934285
 31
0.0
  0
LINE
  5
15A
330
1F
100
AcDbEntity
  8
0
  6
HIDDEN
 62
     7
370
     0
100
AcDbLine
 10
213.8242350672
 20
127.5286934285
 30
0.0
 11
209.3006523107
 21
127.5286934285
 31
0.0
  0
LINE
  5
15B
330
1F
100
AcDbEntity
  8
0
  6
HIDDEN
 62
     7
370
     0
100
AcDbLine
 10
226.8242353355
 20
127.5286934285
 30
0.0
 11
222.3006525789
 21
127.5286934285
 31
0.0
  0
LINE
  5
15C
330
1F
100
AcDbEntity
  8
0
  6
HIDDEN
 62
     7
370
     0
100
AcDbLine
 10
240.7591791605
 20
127.5286934285
 30
0.0
 11
235.3006528472
 21
127.5286934285
 31
0.0
  0
LINE
  5
15D
330
1F
100
AcDbEntity
  8
0
  6
HIDDEN
 62
     7
370
     0
100
AcDbLine
 10
235.3006528472
 20
107.5286938756
 30
0.0
 11
240.7591791605
 21
107.5286938756
 31
0.0
  0
LINE
  5
15E
330
1F
100
AcDbEntity
  8
0
  6
HIDDEN
 62
     7
370
     0
100
AcDbLine
 10
222.3006525789
 20
107.5286938756
 30
0.0
 11
226.8242353355
 21
107.5286938756
 31
0.0
  0
LINE
  5
15F
330
1F
100
AcDbEntity
  8
0
  6
HIDDEN
 62
     7
370
     0
100
AcDbLine
 10
209.3006523107
 20
107.5286938756
 30
0.0
 11
213.8242350672
 21
107.5286938756
 31
0.0
  0
LINE
  5
160
330
1F
100
AcDbEntity
  8
0
  6
HIDDEN
 62
     7
370
     0
100
AcDbLine
 10
190.0591758792
 20
107.5286938756
 30
0.0
 11
200.824234799
 21
107.5286938756
 31
0.0
  0
LINE
  5
161
330
1F
100
AcDbEntity
  8
0
  6
HIDDEN
 62
     7
370
     0
100
AcDbLine
 10
161.0591767137
 20
109.2786936968
 30
0.0
 11
162.0591768776
 21
110.2786938607
 31
0.0
  0
LINE
  5
162
330
1F
100
AcDbEntity
  8
0
  6
HIDDEN
 62
     7
370
     0
100
AcDbLine
 10
162.0591768776
 20
124.7786934434
 30
0.0
 11
161.0591767137
 21
125.7786936074
 31
0.0
  0
LINE
  5
163
330
1F
100
AcDbEntity
  8
0
  6
HIDDEN
 62
     7
370
     0
100
AcDbLine
 10
162.0591768776
 20
110.2786938607
 30
0.0
 11
178.0591767062
 21
110.2786938607
 31
0.0
  0
LINE
  5
164
330
1F
100
AcDbEntity
  8
0
  6
HIDDEN
 62
     7
370
     0
100
AcDbLine
 10
178.0591767062
 20
124.7786934434
 30
0.0
 11
162.0591768776
 21
124.7786934434
 31
0.0
  0
LINE
  5
165
330
1F
100
AcDbEntity
  8
0
  6
HIDDEN
 62
     7
370
     0
100
AcDbLine
 10
236.5591751193
 20
95.5286937713
 30
0.0
 11
235.3091763114
 21
96.7786944418
 31
0.0
  0
LINE
  5
166
330
1F
100
AcDbEntity
  8
0
  6
HIDDEN
 62
     7
370
     0
100
AcDbLine
 10
226.8091777121
 20
96.7786944418
 30
0.0
 11
225.5591751789
 21
95.5286937713
 31
0.0
  0
LINE
  5
167
330
1F
100
AcDbEntity
  8
0
  6
HIDDEN
 62
     7
370
     0
100
AcDbLine
 10
210.5591783081
 20
95.5286937713
 30
0.0
 11
209.3091757749
 21
96.7786944418
 31
0.0
  0
LINE
  5
168
330
1F
100
AcDbEntity
  8
0
  6
HIDDEN
 62
     7
370
     0
100
AcDbLine
 10
200.8091771756
 20
96.7786944418
 30
0.0
 11
199.5591765051
 21
95.5286937713
 31
0.0
  0
LINE
  5
169
330
1F
100
AcDbEntity
  8
0
  6
HIDDEN
 62
     7
370
     0
100
AcDbLine
 10
223.559174851
 20
95.5286937713
 30
0.0
 11
222.3091760431
 21
96.7786944418
 31
0.0
  0
LINE
  5
16A
330
1F
100
AcDbEntity
  8
0
  6
HIDDEN
 62
     7
370
     0
100
AcDbLine
 10
213.8091774438
 20
96.7786944418
 30
0.0
 11
212.5591749106
 21
95.5286937713
 31
0.0
  0
LINE
  5
16B
330
1F
100
AcDbEntity
  8
0
  6
HIDDEN
 62
     7
370
     0
100
AcDbLine
 10
225.5591751789
 20
139.5286935328
 30
0.0
 11
226.8091777121
 21
138.2786928623
 31
0.0
  0
LINE
  5
16C
330
1F
100
AcDbEntity
  8
0
  6
HIDDEN
 62
     7
370
     0
100
AcDbLine
 10
235.3091763114
 20
138.2786928623
 30
0.0
 11
236.5591751193
 21
139.5286935328
 31
0.0
  0
LINE
  5
16D
330
1F
100
AcDbEntity
  8
0
  6
HIDDEN
 62
     7
370
     0
100
AcDbLine
 10
212.5591749106
 20
139.5286935328
 30
0.0
 11
213.8091774438
 21
138.2786928623
 31
0.0
  0
LINE
  5
16E
330
1F
100
AcDbEntity
  8
0
  6
HIDDEN
 62
     7
370
     0
100
AcDbLine
 10
222.3091760431
 20
138.2786928623
 30
0.0
 11
223.559174851
 21
139.5286935328
 31
0.0
  0
LINE
  5
16F
330
1F
100
AcDbEntity
  8
0
  6
HIDDEN
 62
     7
370
     0
100
AcDbLine
 10
199.5591765051
 20
139.5286935328
 30
0.0
 11
200.8091771756
 21
138.2786928623
 31
0.0
  0
LINE
  5
170
330
1F
100
AcDbEntity
  8
0
  6
HIDDEN
 62
     7
370
     0
100
AcDbLine
 10
209.3091757749
 20
138.2786928623
 30
0.0
 11
210.5591783081
 21
139.5286935328
 31
0.0
  0
LINE
  5
171
330
1F
100
AcDbEntity
  8
0
  6
HIDDEN
 62
     7
370
     0
100
AcDbLine
 10
222.3091760431
 20
96.7786944418
 30
0.0
 11
222.3091760431
 21
107.5322999566
 31
0.0
  0
LINE
  5
172
330
1F
100
AcDbEntity
  8
0
  6
HIDDEN
 62
     7
370
     0
100
AcDbLine
 10
213.8091774438
 20
107.5350827484
 30
0.0
 11
213.8091774438
 21
96.7786944418
 31
0.0
  0
LINE
  5
173
330
1F
100
AcDbEntity
  8
0
  6
HIDDEN
 62
     7
370
     0
100
AcDbLine
 10
209.3091757749
 20
96.7786944418
 30
0.0
 11
209.3091757749
 21
107.5322999566
 31
0.0
  0
LINE
  5
174
330
1F
100
AcDbEntity
  8
0
  6
HIDDEN
 62
     7
370
     0
100
AcDbLine
 10
200.8091771756
 20
107.5350827484
 30
0.0
 11
200.8091771756
 21
96.7786944418
 31
0.0
  0
LINE
  5
175
330
1F
100
AcDbEntity
  8
0
  6
HIDDEN
 62
     7
370
     0
100
AcDbLine
 10
235.3091763114
 20
96.7786944418
 30
0.0
 11
235.3091763114
 21
107.5322999566
 31
0.0
  0
LINE
  5
176
330
1F
100
AcDbEntity
  8
0
  6
HIDDEN
 62
     7
370
     0
100
AcDbLine
 10
226.8091777121
 20
107.5350827484
 30
0.0
 11
226.8091777121
 21
96.7786944418
 31
0.0
  0
LINE
  5
177
330
1F
100
AcDbEntity
  8
0
  6
HIDDEN
 62
     7
370
     0
100
AcDbLine
 10
200.8091771756
 20
138.2786928623
 30
0.0
 11
200.8091771756
 21
127.5223045557
 31
0.0
  0
LINE
  5
178
330
1F
100
AcDbEntity
  8
0
  6
HIDDEN
 62
     7
370
     0
100
AcDbLine
 10
209.3091757749
 20
127.5250873475
 30
0.0
 11
209.3091757749
 21
138.2786928623
 31
0.0
  0
LINE
  5
179
330
1F
100
AcDbEntity
  8
0
  6
HIDDEN
 62
     7
370
     0
100
AcDbLine
 10
213.8091774438
 20
138.2786928623
 30
0.0
 11
213.8091774438
 21
127.5223045557
 31
0.0
  0
LINE
  5
17A
330
1F
100
AcDbEntity
  8
0
  6
HIDDEN
 62
     7
370
     0
100
AcDbLine
 10
222.3091760431
 20
127.5250873475
 30
0.0
 11
222.3091760431
 21
138.2786928623
 31
0.0
  0
LINE
  5
17B
330
1F
100
AcDbEntity
  8
0
  6
HIDDEN
 62
     7
370
     0
100
AcDbLine
 10
226.8091777121
 20
138.2786928623
 30
0.0
 11
226.8091777121
 21
127.5223045557
 31
0.0
  0
LINE
  5
17C
330
1F
100
AcDbEntity
  8
0
  6
HIDDEN
 62
     7
370
     0
100
AcDbLine
 10
235.3091763114
 20
127.5250873475
 30
0.0
 11
235.3091763114
 21
138.2786928623
 31
0.0
  0
LINE
  5
17D
330
1F
100
AcDbEntity
  8
0
  6
HIDDEN
 62
     7
370
     0
100
AcDbLine
 10
160.4959146832
 20
101.3516372948
 30
0.0
 11
160.1091764648
 21
101.7383764445
 31
0.0
  0
LINE
  5
17E
330
1F
100
AcDbEntity
  8
0
  6
HIDDEN
 62
     7
370
     0
100
AcDbLine
 10
154.0091765826
 20
101.7383764445
 30
0.0
 11
153.8024304216
 21
101.5316302835
 31
0.0
  0
LINE
  5
17F
330
1F
100
AcDbEntity
  8
0
  6
HIDDEN
 62
     7
370
     0
100
AcDbLine
 10
148.4298148905
 20
101.6580554604
 30
0.0
 11
146.5591771309
 21
103.5286932199
 31
0.0
  0
LINE
  5
180
330
1F
100
AcDbEntity
  8
0
  6
HIDDEN
 62
     7
370
     0
100
AcDbLine
 10
146.5591771309
 20
103.5286932199
 30
0.0
 11
141.0591771607
 21
103.5286932199
 31
0.0
  0
LINE
  5
181
330
1F
100
AcDbEntity
  8
0
  6
HIDDEN
 62
     7
370
     0
100
AcDbLine
 10
160.1091764648
 20
101.7383764445
 30
0.0
 11
160.1091764648
 21
107.038698992
 31
0.0
  0
LINE
  5
182
330
1F
100
AcDbEntity
  8
0
  6
HIDDEN
 62
     7
370
     0
100
AcDbLine
 10
154.0091765826
 20
107.0351618289
 30
0.0
 11
154.0091765826
 21
101.7383764445
 31
0.0
  0
LINE
  5
183
330
1F
100
AcDbEntity
  8
0
  6
HIDDEN
 62
     7
370
     0
100
AcDbLine
 10
160.1091764648
 20
128.0222254752
 30
0.0
 11
160.1091764648
 21
131.5286940842
 31
0.0
  0
LINE
  5
184
330
1F
100
AcDbEntity
  8
0
  6
HIDDEN
 62
     7
370
     0
100
AcDbLine
 10
154.0091765826
 20
131.5286940842
 30
0.0
 11
154.0091765826
 21
128.0186883121
 31
0.0
  0
LINE
  5
185
330
1F
100
AcDbEntity
  8
0
  6
HIDDEN
 62
     7
370
     0
100
AcDbLine
 10
160.1091764648
 20
131.5286940842
 30
0.0
 11
157.059176058
 21
133.3613189815
 31
0.0
  0
LINE
  5
186
330
1F
100
AcDbEntity
  8
0
  6
HIDDEN
 62
     7
370
     0
100
AcDbLine
 10
157.059176058
 20
133.3613189815
 30
0.0
 11
154.0091765826
 21
131.5286940842
 31
0.0
  0
LINE
  5
187
330
1F
100
AcDbEntity
  8
0
  6
HIDDEN
 62
     7
370
     0
100
AcDbLine
 10
181.0591762667
 20
93.0286942928
 30
0.0
 11
181.0591762667
 21
92.5286932795
 31
0.0
  0
LINE
  5
188
330
1F
100
AcDbEntity
  8
0
  6
HIDDEN
 62
     7
370
     0
100
AcDbLine
 10
185.0591769223
 20
92.5286932795
 30
0.0
 11
185.0591769223
 21
93.0286942928
 31
0.0
  0
LINE
  5
189
330
1F
100
AcDbEntity
  8
0
  6
HIDDEN
 62
     7
370
     0
100
AcDbLine
 10
185.0591769223
 20
93.0286942928
 30
0.0
 11
183.0591765945
 21
94.2304152011
 31
0.0
  0
LINE
  5
18A
330
1F
100
AcDbEntity
  8
0
  6
HIDDEN
 62
     7
370
     0
100
AcDbLine
 10
183.0591765945
 20
94.2304152011
 30
0.0
 11
181.0591762667
 21
93.0286942928
 31
0.0
  0
DIMENSION
  5
18B
330
1F
100
AcDbEntity
  8
VERMASSUNG
100
AcDbDimension
  2
_D
 10
260.5376122996
 20
95.5286936521
 30
0.0
 11
260.5376122996
 21
116.7579735545
 31
0.0
 70
   160
  1
%%c<>
 71
     2
 42
-1.0
  3
SLDDIMSTYLE0
100
AcDbAlignedDimension
 13
240.0591764902
 23
139.5286936521
 33
0.0
 14
240.0591764902
 24
95.5286936521
 34
0.0
 50
90.0
100
AcDbRotatedDimension
  0
DIMENSION
  5
197
330
1F
100
AcDbEntity
  8
VERMASSUNG
100
AcDbDimension
  2
_D_1
 10
131.0591764902
 20
92.5286936521
 30
0.0
 11
131.0591764902
 21
116.7579735545
 31
0.0
 70
   160
  1
PSC%%c<>
 71
     2
 42
-1.0
  3
SLDDIMSTYLE0
100
AcDbAlignedDimension
 13
171.3591764902
 23
142.5286936521
 33
0.0
 14
171.3591764902
 24
92.5286936521
 34
0.0
 50
90.0
100
AcDbRotatedDimension
  0
DIMENSION
  5
1A3
330
1F
100
AcDbEntity
  8
VERMASSUNG
100
AcDbDimension
  2
_D_2
 10
241.0591764902
 20
152.5286936521
 30
0.0
 11
206.0165300361
 21
152.5286936521
 31
0.0
 70
   160
  1
<>
 71
     2
 42
-1.0
  3
SLDDIMSTYLE0
100
AcDbAlignedDimension
 13
171.0591764902
 23
142.2286936521
 33
0.0
 14
241.0591764902
 24
138.5286936521
 34
0.0
100
AcDbRotatedDimension
  0
DIMENSION
  5
1AD
330
1F
100
AcDbEntity
  8
VERMASSUNG
100
AcDbDimension
  2
_D_3
 10
241.0591764902
 20
158.5286936521
 30
0.0
 11
194.1751745927
 21
158.5286936521
 31
0.0
 70
   160
  1
<>
 71
     2
 42
-1.0
  3
SLDDIMSTYLE0
100
AcDbAlignedDimension
 13
141.0591764902
 23
133.4692685711
 33
0.0
 14
241.0591764902
 24
138.5286936521
 34
0.0
100
AcDbRotatedDimension
  0
DIMENSION
  5
1B7
330
1F
100
AcDbEntity
  8
VERMASSUNG
100
AcDbDimension
  2
_D_4
 10
254.3782276036
 20
107.5286936521
 30
0.0
 11
254.3782276036
 21
116.7579735545
 31
0.0
 70
   160
  1
%%c<>
 71
     2
 42
-1.0
  3
SLDDIMSTYLE0
100
AcDbAlignedDimension
 13
240.7591764902
 23
127.5286936521
 33
0.0
 14
240.7591764902
 24
107.5286936521
 34
0.0
 50
90.0
100
AcDbRotatedDimension
  0
LINE
  5
1C2
330
1F
100
AcDbEntity
  8
VERMASSUNG
  6
CENTERX2
370
     0
100
AcDbLine
 10
137.5463295235
 20
117.5286936521
 30
0.0
 11
244.9536828328
 21
117.5286936521
 31
0.0
  0
LINE
  5
1C3
330
1F
100
AcDbEntity
  8
0
  6
Continuous
 62
     7
370
    15
100
AcDbLine
 10
85.6197257801
 20
96.0067397862
 30
0.0
 11
85.6197257801
 21
96.1044075846
 31
0.0
  0
LINE
  5
1C4
330
1F
100
AcDbEntity
  8
0
  6
Continuous
 62
     7
370
    15
100
AcDbLine
 10
75.6197260036
 20
96.1044075846
 30
0.0
 11
75.6197260036
 21
96.0067397862
 31
0.0
  0
LINE
  5
1C5
330
1F
100
AcDbEntity
  8
0
  6
Continuous
 62
     7
370
    15
100
AcDbLine
 10
75.6197260036
 20
96.0067397862
 30
0.0
 11
76.4477257892
 21
95.5286937713
 31
0.0
  0
LINE
  5
1C6
330
1F
100
AcDbEntity
  8
0
  6
Continuous
 62
     7
370
    15
100
AcDbLine
 10
84.7917259946
 20
95.5286937713
 30
0.0
 11
85.6197257801
 21
96.0067397862
 31
0.0
  0
LINE
  5
1C7
330
1F
100
AcDbEntity
  8
0
  6
Continuous
 62
     7
370
    15
100
AcDbLine
 10
102.1416797578
 20
122.5286935403
 30
0.0
 11
102.0440119594
 21
122.5286935403
 31
0.0
  0
LINE
  5
1C8
330
1F
100
AcDbEntity
  8
0
  6
Continuous
 62
     7
370
    15
100
AcDbLine
 10
102.0440119594
 20
112.5286937638
 30
0.0
 11
102.1416797578
 21
112.5286937638
 31
0.0
  0
LINE
  5
1C9
330
1F
100
AcDbEntity
  8
0
  6
Continuous
 62
     7
370
    15
100
AcDbLine
 10
102.1416797578
 20
112.5286937638
 30
0.0
 11
102.6197257727
 21
113.3566935494
 31
0.0
  0
LINE
  5
1CA
330
1F
100
AcDbEntity
  8
0
  6
Continuous
 62
     7
370
    15
100
AcDbLine
 10
102.6197257727
 20
121.7006937548
 30
0.0
 11
102.1416797578
 21
122.5286935403
 31
0.0
  0
LINE
  5
1CB
330
1F
100
AcDbEntity
  8
0
  6
Continuous
 62
     7
370
    15
100
AcDbLine
 10
75.6197260036
 20
139.0506475179
 30
0.0
 11
75.6197260036
 21
138.9529797195
 31
0.0
  0
LINE
  5
1CC
330
1F
100
AcDbEntity
  8
0
  6
Continuous
 62
     7
370
    15
100
AcDbLine
 10
85.6197257801
 20
138.9529797195
 30
0.0
 11
85.6197257801
 21
139.0506475179
 31
0.0
  0
LINE
  5
1CD
330
1F
100
AcDbEntity
  8
0
  6
Continuous
 62
     7
370
    15
100
AcDbLine
 10
85.6197257801
 20
139.0506475179
 30
0.0
 11
84.7917259946
 21
139.5286935328
 31
0.0
  0
LINE
  5
1CE
330
1F
100
AcDbEntity
  8
0
  6
Continuous
 62
     7
370
    15
100
AcDbLine
 10
76.4477257892
 20
139.5286935328
 30
0.0
 11
75.6197260036
 21
139.0506475179
 31
0.0
  0
CIRCLE
  5
1CF
330
1F
100
AcDbEntity
  8
0
  6
Continuous
 62
     7
370
    15
100
AcDbCircle
 10
80.6197258919
 20
117.5286936521
 30
0.0
 40
22.00000000000001
  0
CIRCLE
  5
1D0
330
1F
100
AcDbEntity
  8
0
  6
Continuous
 62
     7
370
    15
100
AcDbCircle
 10
80.6197258919
 20
117.5286936521
 30
0.0
 40
10.0
  0
CIRCLE
  5
1D1
330
1F
100
AcDbEntity
  8
0
  6
Continuous
 62
     7
370
    15
100
AcDbCircle
 10
80.6197258919
 20
117.5286936521
 30
0.0
 40
25.00000000000001
  0
CIRCLE
  5
1D2
330
1F
100
AcDbEntity
  8
0
  6
Continuous
 62
     7
370
    15
100
AcDbCircle
 10
80.6197258919
 20
117.5286936521
 30
0.0
 40
7.25
  0
LINE
  5
1D3
330
1F
100
AcDbEntity
  8
0
  6
Continuous
 62
     7
370
    15
100
AcDbLine
 10
85.6197257801
 20
96.0067397862
 30
0.0
 11
85.1810300066
 21
96.0067397862
 31
0.0
  0
LINE
  5
1D4
330
1F
100
AcDbEntity
  8
0
  6
Continuous
 62
     7
370
    15
100
AcDbLine
 10
76.0584217771
 20
96.0067397862
 30
0.0
 11
75.6197260036
 21
96.0067397862
 31
0.0
  0
LINE
  5
1D5
330
1F
100
AcDbEntity
  8
0
  6
Continuous
 62
     7
370
    15
100
AcDbLine
 10
84.7917259946
 20
95.5286937713
 30
0.0
 11
76.4477257892
 21
95.5286937713
 31
0.0
  0
LINE
  5
1D6
330
1F
100
AcDbEntity
  8
0
  6
Continuous
 62
     7
370
    15
100
AcDbLine
 10
102.1416797578
 20
122.5286935403
 30
0.0
 11
102.1416797578
 21
122.0899977668
 31
0.0
  0
LINE
  5
1D7
330
1F
100
AcDbEntity
  8
0
  6
Continuous
 62
     7
370
    15
100
AcDbLine
 10
102.1416797578
 20
112.9673895373
 30
0.0
 11
102.1416797578
 21
112.5286937638
 31
0.0
  0
LINE
  5
1D8
330
1F
100
AcDbEntity
  8
0
  6
Continuous
 62
     7
370
    15
100
AcDbLine
 10
102.6197257727
 20
121.7006937548
 30
0.0
 11
102.6197257727
 21
113.3566935494
 31
0.0
  0
LINE
  5
1D9
330
1F
100
AcDbEntity
  8
0
  6
Continuous
 62
     7
370
    15
100
AcDbLine
 10
75.6197260036
 20
139.0506475179
 30
0.0
 11
76.0584217771
 21
139.0506475179
 31
0.0
  0
LINE
  5
1DA
330
1F
100
AcDbEntity
  8
0
  6
Continuous
 62
     7
370
    15
100
AcDbLine
 10
85.1810300066
 20
139.0506475179
 30
0.0
 11
85.6197257801
 21
139.0506475179
 31
0.0
  0
LINE
  5
1DB
330
1F
100
AcDbEntity
  8
0
  6
Continuous
 62
     7
370
    15
100
AcDbLine
 10
76.4477257892
 20
139.5286935328
 30
0.0
 11
84.7917259946
 21
139.5286935328
 31
0.0
  0
LINE
  5
1DC
330
1F
100
AcDbEntity
  8
0
  6
HIDDEN
 62
     7
370
     0
100
AcDbLine
 10
101.3697251021
 20
113.2786934211
 30
0.0
 11
101.3697251021
 21
121.778693883
 31
0.0
  0
SPLINE
  5
1DD
330
1F
100
AcDbEntity
  8
0
  6
HIDDEN
 62
     7
370
     0
100
AcDbSpline
210
0.0
220
0.0
230
1.0
 70
     8
 71
     3
 72
    83
 73
    79
 74
     0
 42
0.00000001
 43
0.00000001
 12
1.0
 22
0.0
 32
0.0
 13
1.0
 23
0.0
 33
0.0
 40
-0.0312500000000001
 40
-0.0312500000000001
 40
0.0
 40
0.0
 40
0.0312500000000002
 40
0.0312500000000002
 40
0.0625000000000004
 40
0.0625000000000004
 40
0.0937500000000006
 40
0.0937500000000006
 40
0.1093750000000007
 40
0.1093750000000007
 40
0.1250000000000008
 40
0.1406250000000009
 40
0.1406250000000009
 40
0.1562500000000011
 40
0.1562500000000011
 40
0.1875000000000011
 40
0.1875000000000011
 40
0.2031250000000011
 40
0.2031250000000011
 40
0.2187500000000012
 40
0.2187500000000012
 40
0.2500000000000008
 40
0.2500000000000008
 40
0.2812500000000004
 40
0.2812500000000004
 40
0.3125000000000001
 40
0.3125000000000001
 40
0.3437499999999997
 40
0.3437499999999997
 40
0.3749999999999994
 40
0.3749999999999994
 40
0.4062499999999991
 40
0.4062499999999991
 40
0.4374999999999987
 40
0.4374999999999987
 40
0.4687499999999983
 40
0.4687499999999983
 40
0.499999999999998
 40
0.499999999999998
 40
0.5156249999999983
 40
0.5156249999999983
 40
0.5312499999999987
 40
0.5312499999999987
 40
0.5624999999999984
 40
0.5624999999999984
 40
0.5781249999999984
 40
0.5781249999999984
 40
0.5937499999999984
 40
0.5937499999999984
 40
0.6249999999999986
 40
0.6249999999999986
 40
0.6406249999999987
 40
0.6406249999999987
 40
0.6562499999999988
 40
0.6562499999999988
 40
0.6718749999999989
 40
0.6718749999999989
 40
0.687499999999999
 40
0.687499999999999
 40
0.7187499999999991
 40
0.7187499999999991
 40
0.7499999999999992
 40
0.7499999999999992
 40
0.7812499999999993
 40
0.7812499999999993
 40
0.8124999999999994
 40
0.8124999999999994
 40
0.8437499999999996
 40
0.8437499999999996
 40
0.8749999999999996
 40
0.8749999999999996
 40
0.9062499999999997
 40
0.9062499999999997
 40
0.9374999999999998
 40
0.9374999999999998
 40
0.9687499999999999
 40
0.9687499999999999
 40
1.0
 40
1.0
 40
1.03125
 40
1.03125
 10
102.2787713497563
 20
113.6641812224886
 30
0.0
 10
102.3519371024665
 20
114.0994514087767
 30
0.0
 10
102.3889157915181
 20
114.3392231584181
 30
0.0
 10
102.4594831935843
 20
114.8649834728238
 30
0.0
 10
102.4933032144167
 20
115.1541640407265
 30
0.0
 10
102.5503927385175
 20
115.7573587255493
 30
0.0
 10
102.5740518293371
 20
116.0733895567029
 30
0.0
 10
102.5994983748041
 20
116.5709953993881
 30
0.0
 10
102.6062904693169
 20
116.7414364818221
 30
0.0
 10
102.6158185304729
 20
117.0806890250035
 30
0.0
 10
102.621436935168
 20
117.4205952991254
 30
0.0
 10
102.6191552137336
 20
117.7617956880577
 30
0.0
 10
102.6128758451684
 20
118.103656414839
 30
0.0
 10
102.6076843995497
 20
118.275614128213
 30
0.0
 10
102.5867340884926
 20
118.7790492101915
 30
0.0
 10
102.5655992838586
 20
119.1023667077234
 30
0.0
 10
102.525399601591
 20
119.569749942105
 30
0.0
 10
102.5105841418362
 20
119.7223128617696
 30
0.0
 10
102.4792921578558
 20
120.0148559195498
 30
0.0
 10
102.4627398798465
 20
120.1557589556838
 30
0.0
 10
102.4111755096053
 20
120.5631050136271
 30
0.0
 10
102.373888471575
 20
120.8163620532271
 30
0.0
 10
102.300804323811
 20
121.2681041789062
 30
0.0
 10
102.2649102144642
 20
121.4679546489752
 30
0.0
 10
102.198229487588
 20
121.8182115889008
 30
0.0
 10
102.1677267798647
 20
121.9670041066506
 30
0.0
 10
102.1170772427435
 20
122.2061744759059
 30
0.0
 10
102.0966134543146
 20
122.2981385323262
 30
0.0
 10
102.0677869490908
 20
122.4261399990364
 30
0.0
 10
102.0598128586926
 20
122.4604992801187
 30
0.0
 10
102.0571234235159
 20
122.4721765303605
 30
0.0
 10
102.0624136813147
 20
122.4494672109679
 30
0.0
 10
102.0861328637342
 20
122.3449415455915
 30
0.0
 10
102.1042339770896
 20
122.264526694549
 30
0.0
 10
102.1507075480352
 20
122.0485422327182
 30
0.0
 10
102.1792796225525
 20
121.9120410603083
 30
0.0
 10
102.2435616639125
 20
121.5830515631632
 30
0.0
 10
102.2785821313834
 20
121.3940545708577
 30
0.0
 10
102.3325948220475
 20
121.0731385987488
 30
0.0
 10
102.3508469599981
 20
120.9598863004951
 30
0.0
 10
102.3873519317955
 20
120.7201137833296
 30
0.0
 10
102.4057162613829
 20
120.5927316725928
 30
0.0
 10
102.4589196504186
 20
120.1971084368073
 30
0.0
 10
102.4919739410066
 20
119.9153243650632
 30
0.0
 10
102.5349338295367
 20
119.4642739964798
 30
0.0
 10
102.5481492738113
 20
119.3091606657426
 30
0.0
 10
102.5718149726672
 20
118.9886935812483
 30
0.0
 10
102.5821845944896
 20
118.8239871862717
 30
0.0
 10
102.6076818841188
 20
118.3282570946962
 30
0.0
 10
102.6175457751181
 20
117.9913222341142
 30
0.0
 10
102.6203334304581
 20
117.4758340427482
 30
0.0
 10
102.6192196673352
 20
117.3017086979815
 30
0.0
 10
102.613032104158
 20
116.9597205431624
 30
0.0
 10
102.6079802629837
 20
116.7906922169328
 30
0.0
 10
102.5942173592247
 20
116.4564524673396
 30
0.0
 10
102.5855058014227
 20
116.2912412588856
 30
0.0
 10
102.5646687059133
 20
115.9646411118135
 30
0.0
 10
102.5525360292408
 20
115.8035390771953
 30
0.0
 10
102.5125461690254
 20
115.3374164837584
 30
0.0
 10
102.4808650498743
 20
115.0453195690276
 30
0.0
 10
102.411496910562
 20
114.4963236233844
 30
0.0
 10
102.3745714412417
 20
114.2455468421094
 30
0.0
 10
102.3015776325862
 20
113.7937688942749
 30
0.0
 10
102.265018851325
 20
113.5900368652567
 30
0.0
 10
102.1984102294006
 20
113.2400916833435
 30
0.0
 10
102.1682532475865
 20
113.0929150964696
 30
0.0
 10
102.1172496073718
 20
112.8519814847638
 30
0.0
 10
102.0964891382248
 20
112.7586975662155
 30
0.0
 10
102.0679376849362
 20
112.6319158259048
 30
0.0
 10
102.0598580895834
 20
112.5970844558701
 30
0.0
 10
102.0570939896305
 20
112.58508293109
 30
0.0
 10
102.0625640540045
 20
112.6085811127791
 30
0.0
 10
102.0860492834353
 20
112.7120790841901
 30
0.0
 10
102.1040313767035
 20
112.7919136214984
 30
0.0
 10
102.1510045616714
 20
113.0102308529516
 30
0.0
 10
102.1798386993575
 20
113.1481472154553
 30
0.0
 10
102.2435922663329
 20
113.4745532531333
 30
0.0
 10
102.2787713497563
 20
113.6641812224886
 30
0.0
 10
102.3519371024665
 20
114.0994514087767
 30
0.0
  0
LINE
  5
1DE
330
1F
100
AcDbEntity
  8
0
  6
HIDDEN
 62
     7
370
     0
100
AcDbLine
 10
76.3697256609
 20
96.7786944418
 30
0.0
 11
84.8697261228
 21
96.7786944418
 31
0.0
  0
SPLINE
  5
1DF
330
1F
100
AcDbEntity
  8
0
  6
HIDDEN
 62
     7
370
     0
100
AcDbSpline
210
0.0
220
0.0
230
1.0
 70
     8
 71
     3
 72
    83
 73
    79
 74
     0
 42
0.00000001
 43
0.00000001
 12
1.0
 22
0.0
 32
0.0
 13
1.0
 23
0.0
 33
0.0
 40
-0.03125
 40
-0.03125
 40
0.0
 40
0.0
 40
0.0312500000000002
 40
0.0312500000000002
 40
0.0625000000000003
 40
0.0625000000000003
 40
0.0937500000000005
 40
0.0937500000000005
 40
0.1093750000000006
 40
0.1093750000000006
 40
0.1250000000000006
 40
0.1406250000000007
 40
0.1406250000000007
 40
0.1562500000000008
 40
0.1562500000000008
 40
0.1875000000000008
 40
0.1875000000000008
 40
0.2031250000000009
 40
0.2031250000000009
 40
0.2187500000000009
 40
0.2187500000000009
 40
0.2500000000000007
 40
0.2500000000000007
 40
0.2812500000000004
 40
0.2812500000000004
 40
0.3125000000000001
 40
0.3125000000000001
 40
0.3437499999999998
 40
0.3437499999999998
 40
0.3749999999999995
 40
0.3749999999999995
 40
0.4062499999999992
 40
0.4062499999999992
 40
0.4374999999999989
 40
0.4374999999999989
 40
0.4687499999999987
 40
0.4687499999999987
 40
0.4999999999999984
 40
0.4999999999999984
 40
0.5156249999999982
 40
0.5156249999999982
 40
0.531249999999998
 40
0.531249999999998
 40
0.5624999999999984
 40
0.5624999999999984
 40
0.5781249999999987
 40
0.5781249999999987
 40
0.5937499999999988
 40
0.5937499999999988
 40
0.6249999999999992
 40
0.6249999999999992
 40
0.6406249999999993
 40
0.6406249999999993
 40
0.6562499999999996
 40
0.6562499999999996
 40
0.6718749999999998
 40
0.6718749999999998
 40
0.6875
 40
0.6875
 40
0.7187500000000003
 40
0.7187500000000003
 40
0.7500000000000007
 40
0.7500000000000007
 40
0.7812500000000002
 40
0.7812500000000002
 40
0.8124999999999997
 40
0.8124999999999997
 40
0.8437499999999998
 40
0.8437499999999998
 40
0.8749999999999998
 40
0.8749999999999998
 40
0.9062499999999999
 40
0.9062499999999999
 40
0.9374999999999999
 40
0.9374999999999999
 40
0.96875
 40
0.96875
 40
1.0
 40
1.0
 40
1.03125
 40
1.03125
 10
76.7552134623062
 20
95.86964819417115
 30
0.0
 10
77.19048364859428
 20
95.79648244146101
 30
0.0
 10
77.4302553982357
 20
95.75950375240939
 30
0.0
 10
77.9560157126414
 20
95.6889363503432
 30
0.0
 10
78.24519628054412
 20
95.65511632951083
 30
0.0
 10
78.84839096536689
 20
95.59802680540997
 30
0.0
 10
79.1644217965205
 20
95.57436771459034
 30
0.0
 10
79.66202763920569
 20
95.5489211691234
 30
0.0
 10
79.83246872163963
 20
95.5421290746106
 30
0.0
 10
80.17172126482107
 20
95.53260101345462
 30
0.0
 10
80.51162753894297
 20
95.52698260875952
 30
0.0
 10
80.85282792787531
 20
95.5292643301939
 30
0.0
 10
81.19468865465653
 20
95.53554369875904
 30
0.0
 10
81.3666463680306
 20
95.54073514437783
 30
0.0
 10
81.87008145000907
 20
95.56168545543493
 30
0.0
 10
82.19339894754094
 20
95.58282026006893
 30
0.0
 10
82.66078218192253
 20
95.62301994233644
 30
0.0
 10
82.8133451015872
 20
95.6378354020913
 30
0.0
 10
83.10588815936732
 20
95.66912738607162
 30
0.0
 10
83.24679119550137
 20
95.68567966408096
 30
0.0
 10
83.6541372534447
 20
95.73724403432219
 30
0.0
 10
83.90739429304469
 20
95.77453107235246
 30
0.0
 10
84.35913641872379
 20
95.84761522011648
 30
0.0
 10
84.55898688879279
 20
95.88350932946324
 30
0.0
 10
84.90924382871833
 20
95.95019005633947
 30
0.0
 10
85.05803634646816
 20
95.98069276406271
 30
0.0
 10
85.29720671572345
 20
96.03134230118398
 30
0.0
 10
85.38917077214377
 20
96.05180608961291
 30
0.0
 10
85.51717223885396
 20
96.0806325948367
 30
0.0
 10
85.55153151993626
 20
96.08860668523484
 30
0.0
 10
85.5632087701781
 20
96.09129612041154
 30
0.0
 10
85.54049945078546
 20
96.08600586261281
 30
0.0
 10
85.43597378540912
 20
96.06228668019327
 30
0.0
 10
85.35555893436658
 20
96.0441855668378
 30
0.0
 10
85.13957447253578
 20
95.99771199589225
 30
0.0
 10
85.00307330012583
 20
95.96913992137492
 30
0.0
 10
84.67408380298073
 20
95.904857880015
 30
0.0
 10
84.48508681067528
 20
95.86983741254411
 30
0.0
 10
84.16417083856633
 20
95.81582472187993
 30
0.0
 10
84.05091854031267
 20
95.7975725839294
 30
0.0
 10
83.81114602314722
 20
95.76106761213192
 30
0.0
 10
83.68376391241038
 20
95.74270328254454
 30
0.0
 10
83.28814067662493
 20
95.68949989350892
 30
0.0
 10
83.00635660488075
 20
95.65644560292091
 30
0.0
 10
82.55530623629743
 20
95.61348571439079
 30
0.0
 10
82.40019290556013
 20
95.6002702701162
 30
0.0
 10
82.07972582106586
 20
95.5766045712603
 30
0.0
 10
81.91501942608932
 20
95.5662349494379
 30
0.0
 10
81.41928933451379
 20
95.54073765980868
 30
0.0
 10
81.08235447393176
 20
95.53087376880941
 30
0.0
 10
80.56686628256583
 20
95.52808611346937
 30
0.0
 10
80.39274093779905
 20
95.52919987659229
 30
0.0
 10
80.05075278298001
 20
95.53538743976952
 30
0.0
 10
79.88172445675038
 20
95.54043928094373
 30
0.0
 10
79.54748470715721
 20
95.55420218470277
 30
0.0
 10
79.38227349870316
 20
95.56291374250483
 30
0.0
 10
79.05567335163107
 20
95.58375083801418
 30
0.0
 10
78.89457131701288
 20
95.59588351468665
 30
0.0
 10
78.42844872357594
 20
95.63587337490203
 30
0.0
 10
78.13635180884515
 20
95.66755449405314
 30
0.0
 10
77.587355863202
 20
95.7369226333655
 30
0.0
 10
77.33657908192694
 20
95.77384810268576
 30
0.0
 10
76.88480113409251
 20
95.84684191134134
 30
0.0
 10
76.68106910507427
 20
95.88340069260245
 30
0.0
 10
76.33112392316107
 20
95.95000931452685
 30
0.0
 10
76.18394733628715
 20
95.98016629634103
 30
0.0
 10
75.94301372458136
 20
96.0311699365557
 30
0.0
 10
75.84972980603304
 20
96.05193040570269
 30
0.0
 10
75.72294806572242
 20
96.08048185899128
 30
0.0
 10
75.68811669568767
 20
96.0885614543441
 30
0.0
 10
75.67611517090754
 20
96.09132555429694
 30
0.0
 10
75.69961335259667
 20
96.08585548992296
 30
0.0
 10
75.80311132400763
 20
96.06237026049219
 30
0.0
 10
75.88294586131599
 20
96.04438816722403
 30
0.0
 10
76.10126309276922
 20
95.99741498225612
 30
0.0
 10
76.23917945527282
 20
95.96858084456996
 30
0.0
 10
76.56558549295089
 20
95.9048272775946
 30
0.0
 10
76.7552134623062
 20
95.86964819417115
 30
0.0
 10
77.19048364859428
 20
95.79648244146101
 30
0.0
  0
LINE
  5
1E0
330
1F
100
AcDbEntity
  8
0
  6
HIDDEN
 62
     7
370
     0
100
AcDbLine
 10
84.8697261228
 20
138.2786928623
 30
0.0
 11
76.3697256609
 21
138.2786928623
 31
0.0
  0
SPLINE
  5
1E1
330
1F
100
AcDbEntity
  8
0
  6
HIDDEN
 62
     7
370
     0
100
AcDbSpline
210
0.0
220
0.0
230
1.0
 70
     8
 71
     3
 72
    83
 73
    79
 74
     0
 42
0.00000001
 43
0.00000001
 12
1.0
 22
0.0
 32
0.0
 13
1.0
 23
0.0
 33
0.0
 40
-0.0312499999999996
 40
-0.0312499999999996
 40
0.0
 40
0.0
 40
0.0312500000000002
 40
0.0312500000000002
 40
0.0625000000000003
 40
0.0625000000000003
 40
0.0937500000000005
 40
0.0937500000000005
 40
0.1093750000000006
 40
0.1093750000000006
 40
0.1250000000000006
 40
0.1406250000000007
 40
0.1406250000000007
 40
0.1562500000000008
 40
0.1562500000000008
 40
0.1875000000000008
 40
0.1875000000000008
 40
0.2031250000000009
 40
0.2031250000000009
 40
0.2187500000000009
 40
0.2187500000000009
 40
0.2500000000000007
 40
0.2500000000000007
 40
0.2812500000000004
 40
0.2812500000000004
 40
0.3125000000000002
 40
0.3125000000000002
 40
0.3437499999999999
 40
0.3437499999999999
 40
0.3749999999999996
 40
0.3749999999999996
 40
0.4062499999999993
 40
0.4062499999999993
 40
0.437499999999999
 40
0.437499999999999
 40
0.4687499999999987
 40
0.4687499999999987
 40
0.4999999999999984
 40
0.4999999999999984
 40
0.5156249999999983
 40
0.5156249999999983
 40
0.5312499999999981
 40
0.5312499999999981
 40
0.5624999999999988
 40
0.5624999999999988
 40
0.5781249999999991
 40
0.5781249999999991
 40
0.5937499999999993
 40
0.5937499999999993
 40
0.625
 40
0.625
 40
0.6406250000000002
 40
0.6406250000000002
 40
0.6562500000000006
 40
0.6562500000000006
 40
0.6718750000000009
 40
0.6718750000000009
 40
0.6875000000000012
 40
0.6875000000000012
 40
0.7187500000000018
 40
0.7187500000000018
 40
0.7500000000000023
 40
0.7500000000000023
 40
0.7812500000000021
 40
0.7812500000000021
 40
0.8125000000000018
 40
0.8125000000000018
 40
0.8437500000000016
 40
0.8437500000000016
 40
0.8750000000000012
 40
0.8750000000000012
 40
0.906250000000001
 40
0.906250000000001
 40
0.9375000000000007
 40
0.9375000000000007
 40
0.9687500000000004
 40
0.9687500000000004
 40
1.0
 40
1.0
 40
1.03125
 40
1.03125
 10
84.48423832143908
 20
139.1877391099386
 30
0.0
 10
84.048968135151
 20
139.2609048626488
 30
0.0
 10
83.80919638550958
 20
139.2978835517004
 30
0.0
 10
83.28343607110389
 20
139.3684509537666
 30
0.0
 10
82.99425550320117
 20
139.402270974599
 30
0.0
 10
82.39106081837839
 20
139.4593604986998
 30
0.0
 10
82.07502998722478
 20
139.4830195895195
 30
0.0
 10
81.57742414453959
 20
139.5084661349864
 30
0.0
 10
81.40698306210565
 20
139.5152582294992
 30
0.0
 10
81.06773051892421
 20
139.5247862906552
 30
0.0
 10
80.72782424480232
 20
139.5304046953503
 30
0.0
 10
80.38662385586997
 20
139.5281229739159
 30
0.0
 10
80.04476312908876
 20
139.5218436053508
 30
0.0
 10
79.87280541571468
 20
139.516652159732
 30
0.0
 10
79.36937033373621
 20
139.4957018486749
 30
0.0
 10
79.04605283620435
 20
139.4745670440409
 30
0.0
 10
78.57866960182275
 20
139.4343673617734
 30
0.0
 10
78.42610668215808
 20
139.4195519020186
 30
0.0
 10
78.13356362437796
 20
139.3882599180382
 30
0.0
 10
77.99266058824391
 20
139.3717076400289
 30
0.0
 10
77.58531453030058
 20
139.3201432697877
 30
0.0
 10
77.3320574907006
 20
139.2828562317574
 30
0.0
 10
76.88031536502149
 20
139.2097720839934
 30
0.0
 10
76.6804648949525
 20
139.1738779746466
 30
0.0
 10
76.33020795502696
 20
139.1071972477704
 30
0.0
 10
76.18141543727712
 20
139.0766945400472
 30
0.0
 10
75.94224506802183
 20
139.0260450029259
 30
0.0
 10
75.85028101160151
 20
139.005581214497
 30
0.0
 10
75.72227954489134
 20
138.9767547092731
 30
0.0
 10
75.68792026380902
 20
138.968780618875
 30
0.0
 10
75.67624301356719
 20
138.9660911836983
 30
0.0
 10
75.69895233295982
 20
138.9713814414971
 30
0.0
 10
75.80347799833616
 20
138.9951006239166
 30
0.0
 10
75.8838928493787
 20
139.0132017372721
 30
0.0
 10
76.0998773112095
 20
139.0596753082176
 30
0.0
 10
76.23637848361945
 20
139.0882473827349
 30
0.0
 10
76.56536798076455
 20
139.1525294240949
 30
0.0
 10
76.75436497307001
 20
139.1875498915658
 30
0.0
 10
77.07528094517895
 20
139.2415625822299
 30
0.0
 10
77.18853324343262
 20
139.2598147201805
 30
0.0
 10
77.42830576059808
 20
139.2963196919779
 30
0.0
 10
77.55568787133491
 20
139.3146840215653
 30
0.0
 10
77.95131110712036
 20
139.3678874106009
 30
0.0
 10
78.23309517886453
 20
139.400941701189
 30
0.0
 10
78.68414554744786
 20
139.443901589719
 30
0.0
 10
78.83925887818515
 20
139.4571170339937
 30
0.0
 10
79.15972596267942
 20
139.4807827328495
 30
0.0
 10
79.32443235765597
 20
139.4911523546719
 30
0.0
 10
79.8201624492315
 20
139.5166496443012
 30
0.0
 10
80.15709730981352
 20
139.5265135353004
 30
0.0
 10
80.67258550117947
 20
139.5293011906404
 30
0.0
 10
80.84671084594623
 20
139.5281874275175
 30
0.0
 10
81.18869900076527
 20
139.5219998643403
 30
0.0
 10
81.3577273269949
 20
139.5169480231661
 30
0.0
 10
81.69196707658807
 20
139.5031851194071
 30
0.0
 10
81.85717828504212
 20
139.494473561605
 30
0.0
 10
82.18377843211421
 20
139.4736364660957
 30
0.0
 10
82.3448804667324
 20
139.4615037894232
 30
0.0
 10
82.81100306016934
 20
139.4215139292078
 30
0.0
 10
83.10309997490013
 20
139.3898328100567
 30
0.0
 10
83.65209592054327
 20
139.3204646707443
 30
0.0
 10
83.90287270181834
 20
139.283539201424
 30
0.0
 10
84.35465064965277
 20
139.2105453927685
 30
0.0
 10
84.55838267867101
 20
139.1739866115074
 30
0.0
 10
84.90832786058421
 20
139.1073779895829
 30
0.0
 10
85.05550444745813
 20
139.0772210077688
 30
0.0
 10
85.29643805916393
 20
139.0262173675541
 30
0.0
 10
85.38972197771224
 20
139.0054568984071
 30
0.0
 10
85.51650371802286
 20
138.9769054451185
 30
0.0
 10
85.55133508805761
 20
138.9688258497657
 30
0.0
 10
85.56333661283774
 20
138.9660617498129
 30
0.0
 10
85.53983843114861
 20
138.9715318141868
 30
0.0
 10
85.43634045973765
 20
138.9950170436176
 30
0.0
 10
85.35650592242929
 20
139.0129991368858
 30
0.0
 10
85.13818869097607
 20
139.0599723218537
 30
0.0
 10
85.00027232847246
 20
139.0888064595399
 30
0.0
 10
84.6738662907944
 20
139.1525600265152
 30
0.0
 10
84.48423832143908
 20
139.1877391099386
 30
0.0
 10
84.048968135151
 20
139.2609048626488
 30
0.0
  0
SPLINE
  5
1E2
330
1F
100
AcDbEntity
  8
0
  6
HIDDEN
 62
     7
370
     0
100
AcDbSpline
210
0.0
220
0.0
230
1.0
 70
    11
 71
     3
 72
    70
 73
    66
 74
     0
 42
0.00000001
 43
0.00000001
 12
1.0
 22
0.0
 32
0.0
 13
1.0
 23
0.0
 33
0.0
 40
-0.0312500000000007
 40
-0.0312500000000007
 40
0.0
 40
0.0
 40
0.0312499999999996
 40
0.0312499999999996
 40
0.0624999999999993
 40
0.0624999999999993
 40
0.0937499999999989
 40
0.0937499999999989
 40
0.1249999999999985
 40
0.1249999999999985
 40
0.1562499999999981
 40
0.1562499999999981
 40
0.1874999999999978
 40
0.1874999999999978
 40
0.2187499999999974
 40
0.2187499999999974
 40
0.249999999999997
 40
0.249999999999997
 40
0.2812499999999966
 40
0.2812499999999966
 40
0.3124999999999962
 40
0.3124999999999962
 40
0.3437499999999958
 40
0.3437499999999958
 40
0.3749999999999954
 40
0.3749999999999954
 40
0.4062499999999949
 40
0.4062499999999949
 40
0.4374999999999946
 40
0.4374999999999946
 40
0.4687499999999941
 40
0.4687499999999941
 40
0.4999999999999937
 40
0.4999999999999937
 40
0.5312499999999933
 40
0.5312499999999933
 40
0.562499999999993
 40
0.562499999999993
 40
0.5937499999999926
 40
0.5937499999999926
 40
0.6249999999999922
 40
0.6249999999999922
 40
0.6562499999999929
 40
0.6562499999999929
 40
0.6874999999999936
 40
0.6874999999999936
 40
0.7187499999999942
 40
0.7187499999999942
 40
0.7499999999999948
 40
0.7499999999999948
 40
0.7812499999999954
 40
0.7812499999999954
 40
0.8124999999999961
 40
0.8124999999999961
 40
0.8437499999999968
 40
0.8437499999999968
 40
0.8749999999999974
 40
0.8749999999999974
 40
0.9062499999999981
 40
0.9062499999999981
 40
0.9374999999999987
 40
0.9374999999999987
 40
0.9687499999999993
 40
0.9687499999999993
 40
1.0
 40
1.0
 40
1.03125
 40
1.03125
 10
89.6716593869884
 20
121.7786936520549
 30
0.0
 10
89.6716593869884
 20
121.7786936520549
 30
0.0
 10
89.68507120862334
 20
121.750443523493
 30
0.0
 10
89.7354714997422
 20
121.6404864120962
 30
0.0
 10
89.77308254082389
 20
121.5572924567382
 30
0.0
 10
89.86436677458293
 20
121.3431610095922
 30
0.0
 10
89.91787544509914
 20
121.2126418418313
 30
0.0
 10
90.0340119213282
 20
120.9048272297915
 30
0.0
 10
90.09617055532254
 20
120.7284011770378
 30
0.0
 10
90.21811098755677
 20
120.3415454540183
 30
0.0
 10
90.27874173225878
 20
120.128634220394
 30
0.0
 10
90.39116332936773
 20
119.6676860243754
 30
0.0
 10
90.44169087171419
 20
119.4249817930249
 30
0.0
 10
90.52658996145695
 20
118.9146767275636
 30
0.0
 10
90.56123248415268
 20
118.6434471537953
 30
0.0
 10
90.6075962529001
 20
118.0932061366818
 30
0.0
 10
90.61957617866263
 20
117.8150995482256
 30
0.0
 10
90.61987282156802
 20
117.2528395600443
 30
0.0
 10
90.60777492517147
 20
116.9678125641862
 30
0.0
 10
90.56181958488565
 20
116.4194217802122
 30
0.0
 10
90.52793955793246
 20
116.1516719210338
 30
0.0
 10
90.44206430270495
 20
115.6338176552976
 30
0.0
 10
90.3913154887566
 20
115.3905919805791
 30
0.0
 10
90.27985412927673
 20
114.9330502935778
 30
0.0
 10
90.21851987876052
 20
114.7171920938301
 30
0.0
 10
90.09623193797086
 20
114.3291280295243
 30
0.0
 10
90.03494917977804
 20
114.1551714474892
 30
0.0
 10
89.91884832186601
 20
113.8471988934265
 30
0.0
 10
89.8644758126285
 20
113.7145079049415
 30
0.0
 10
89.77365687444478
 20
113.5014164605639
 30
0.0
 10
89.736532794127
 20
113.4192363329819
 30
0.0
 10
89.68512539665083
 20
113.3070423911093
 30
0.0
 10
89.67184389939425
 20
113.2790866393451
 30
0.0
 10
89.67147872514228
 20
113.2783088659485
 30
0.0
 10
89.68471316002126
 20
113.3061727811138
 30
0.0
 10
89.73525174719931
 20
113.4164114319124
 30
0.0
 10
89.77206004092325
 20
113.4977722093555
 30
0.0
 10
89.86340444987864
 20
113.7118946307084
 30
0.0
 10
89.91775794534865
 20
113.8444956194514
 30
0.0
 10
90.03319400342953
 20
114.1503311310089
 30
0.0
 10
90.09519281699755
 20
114.3259784872553
 30
0.0
 10
90.21825880957996
 20
114.716217215947
 30
0.0
 10
90.27840100164586
 20
114.927704108962
 30
0.0
 10
90.38985083954078
 20
115.3839768907122
 30
0.0
 10
90.44162561922866
 20
115.6319054724973
 30
0.0
 10
90.52687898292572
 20
116.1445559122389
 30
0.0
 10
90.56076816470974
 20
116.4098898213227
 30
0.0
 10
90.60731796732169
 20
116.9594414966591
 30
0.0
 10
90.61961792679743
 20
117.2444937896284
 30
0.0
 10
90.61983239415386
 20
117.8052442170304
 30
0.0
 10
90.60815073506465
 20
118.0847221737501
 30
0.0
 10
90.56162729388862
 20
118.64062668854
 30
0.0
 10
90.52763942452647
 20
118.9073965877275
 30
0.0
 10
90.4426289549845
 20
119.4202929140776
 30
0.0
 10
90.39096857087105
 20
119.6684140326748
 30
0.0
 10
90.27927187222095
 20
120.1265308780291
 30
0.0
 10
90.21906502009188
 20
120.338421867773
 30
0.0
 10
90.09606938209411
 20
120.728818399639
 30
0.0
 10
90.03396503031163
 20
120.9049013886401
 30
0.0
 10
89.91868453287746
 20
121.2105471837936
 30
0.0
 10
89.86477338460806
 20
121.342206004736
 30
0.0
 10
89.77270718105451
 20
121.5581741554041
 30
0.0
 10
89.73591335507679
 20
121.6395094702392
 30
0.0
 10
89.685365513014
 20
121.7498142159462
 30
0.0
 10
89.6716593869884
 20
121.7786936520549
 30
0.0
 10
89.6716593869884
 20
121.7786936520549
 30
0.0
  0
SPLINE
  5
1E3
330
1F
100
AcDbEntity
  8
0
  6
HIDDEN
 62
     7
370
     0
100
AcDbSpline
210
0.0
220
0.0
230
1.0
 70
    11
 71
     3
 72
    70
 73
    66
 74
     0
 42
0.00000001
 43
0.00000001
 12
1.0
 22
0.0
 32
0.0
 13
1.0
 23
0.0
 33
0.0
 40
-0.03125
 40
-0.03125
 40
0.0
 40
0.0
 40
0.03125
 40
0.03125
 40
0.0625
 40
0.0625
 40
0.09375
 40
0.09375
 40
0.125
 40
0.125
 40
0.15625
 40
0.15625
 40
0.1874999999999999
 40
0.1874999999999999
 40
0.2187499999999999
 40
0.2187499999999999
 40
0.2499999999999999
 40
0.2499999999999999
 40
0.2812499999999999
 40
0.2812499999999999
 40
0.3124999999999999
 40
0.3124999999999999
 40
0.3437499999999999
 40
0.3437499999999999
 40
0.3749999999999999
 40
0.3749999999999999
 40
0.4062499999999998
 40
0.4062499999999998
 40
0.4374999999999998
 40
0.4374999999999998
 40
0.4687499999999998
 40
0.4687499999999998
 40
0.4999999999999998
 40
0.4999999999999998
 40
0.5312499999999999
 40
0.5312499999999999
 40
0.5624999999999999
 40
0.5624999999999999
 40
0.5937499999999999
 40
0.5937499999999999
 40
0.6249999999999999
 40
0.6249999999999999
 40
0.6562499999999999
 40
0.6562499999999999
 40
0.6874999999999999
 40
0.6874999999999999
 40
0.7187499999999999
 40
0.7187499999999999
 40
0.7499999999999999
 40
0.7499999999999999
 40
0.78125
 40
0.78125
 40
0.8125
 40
0.8125
 40
0.84375
 40
0.84375
 40
0.875
 40
0.875
 40
0.90625
 40
0.90625
 40
0.9375
 40
0.9375
 40
0.96875
 40
0.96875
 40
1.0
 40
1.0
 40
1.03125
 40
1.03125
 10
76.36972589187268
 20
126.5806271471708
 30
0.0
 10
76.36972589187268
 20
126.5806271471708
 30
0.0
 10
76.39797602043457
 20
126.5940389688057
 30
0.0
 10
76.50793313183135
 20
126.6444392599246
 30
0.0
 10
76.59112708718934
 20
126.6820503010063
 30
0.0
 10
76.80525853433535
 20
126.7733345347653
 30
0.0
 10
76.93577770209632
 20
126.8268432052815
 30
0.0
 10
77.24359231413611
 20
126.9429796815106
 30
0.0
 10
77.42001836688983
 20
127.005138315505
 30
0.0
 10
77.8068740899093
 20
127.1270787477391
 30
0.0
 10
78.0197853235336
 20
127.1877094924412
 30
0.0
 10
78.48073351955219
 20
127.3001310895501
 30
0.0
 10
78.72343775090272
 20
127.3506586318966
 30
0.0
 10
79.233742816364
 20
127.4355577216393
 30
0.0
 10
79.50497239013228
 20
127.4702002443351
 30
0.0
 10
80.05521340724583
 20
127.5165640130824
 30
0.0
 10
80.33331999570197
 20
127.528543938845
 30
0.0
 10
80.89557998388328
 20
127.5288405817504
 30
0.0
 10
81.18060697974143
 20
127.5167426853538
 30
0.0
 10
81.72899776371538
 20
127.470787345068
 30
0.0
 10
81.9967476228938
 20
127.4369073181148
 30
0.0
 10
82.51460188863
 20
127.3510320628873
 30
0.0
 10
82.75782756334851
 20
127.3002832489389
 30
0.0
 10
83.21536925034984
 20
127.1888218894591
 30
0.0
 10
83.43122745009748
 20
127.1274876389428
 30
0.0
 10
83.81929151440325
 20
127.0051996981532
 30
0.0
 10
83.99324809643842
 20
126.9439169399603
 30
0.0
 10
84.30122065050114
 20
126.8278160820483
 30
0.0
 10
84.43391163898603
 20
126.7734435728108
 30
0.0
 10
84.64700308336371
 20
126.6826246346271
 30
0.0
 10
84.72918321094572
 20
126.6455005543093
 30
0.0
 10
84.84137715281824
 20
126.5940931568331
 30
0.0
 10
84.86933290458248
 20
126.5808116595766
 30
0.0
 10
84.87011067797903
 20
126.5804464853246
 30
0.0
 10
84.84224676281374
 20
126.5936809202036
 30
0.0
 10
84.7320081120152
 20
126.6442195073816
 30
0.0
 10
84.65064733457208
 20
126.6810278011055
 30
0.0
 10
84.43652491321919
 20
126.772372210061
 30
0.0
 10
84.30392392447621
 20
126.826725705531
 30
0.0
 10
83.99808841291872
 20
126.9421617636118
 30
0.0
 10
83.82244105667232
 20
127.0041605771799
 30
0.0
 10
83.43220232798062
 20
127.1272265697623
 30
0.0
 10
83.22071543496564
 20
127.1873687618282
 30
0.0
 10
82.76444265321538
 20
127.2988185997231
 30
0.0
 10
82.51651407143028
 20
127.350593379411
 30
0.0
 10
82.00386363168872
 20
127.4358467431081
 30
0.0
 10
81.73852972260491
 20
127.4697359248921
 30
0.0
 10
81.18897804726846
 20
127.516285727504
 30
0.0
 10
80.90392575429924
 20
127.5285856869798
 30
0.0
 10
80.34317532689717
 20
127.5288001543362
 30
0.0
 10
80.06369737017755
 20
127.517118495247
 30
0.0
 10
79.50779285538758
 20
127.470595054071
 30
0.0
 10
79.24102295620013
 20
127.4366071847088
 30
0.0
 10
78.72812662984997
 20
127.3515967151669
 30
0.0
 10
78.48000551125274
 20
127.2999363310534
 30
0.0
 10
78.0218886658985
 20
127.1882396324033
 30
0.0
 10
77.80999767615454
 20
127.1280327802743
 30
0.0
 10
77.41960114428855
 20
127.0050371422765
 30
0.0
 10
77.24351815528746
 20
126.942932790494
 30
0.0
 10
76.93787236013402
 20
126.8276522930599
 30
0.0
 10
76.80621353919159
 20
126.7737411447904
 30
0.0
 10
76.5902453885235
 20
126.6816749412369
 30
0.0
 10
76.5089100736884
 20
126.6448811152592
 30
0.0
 10
76.39860532798136
 20
126.5943332731964
 30
0.0
 10
76.36972589187268
 20
126.5806271471708
 30
0.0
 10
76.36972589187268
 20
126.5806271471708
 30
0.0
  0
SPLINE
  5
1E4
330
1F
100
AcDbEntity
  8
0
  6
HIDDEN
 62
     7
370
     0
100
AcDbSpline
210
0.0
220
0.0
230
1.0
 70
    11
 71
     3
 72
    70
 73
    66
 74
     0
 42
0.00000001
 43
0.00000001
 12
1.0
 22
0.0
 32
0.0
 13
1.0
 23
0.0
 33
0.0
 40
-0.0312500000000007
 40
-0.0312500000000007
 40
0.0
 40
0.0
 40
0.0312499999999996
 40
0.0312499999999996
 40
0.0624999999999992
 40
0.0624999999999992
 40
0.0937499999999988
 40
0.0937499999999988
 40
0.1249999999999983
 40
0.1249999999999983
 40
0.1562499999999979
 40
0.1562499999999979
 40
0.1874999999999975
 40
0.1874999999999975
 40
0.2187499999999971
 40
0.2187499999999971
 40
0.2499999999999967
 40
0.2499999999999967
 40
0.2812499999999962
 40
0.2812499999999962
 40
0.3124999999999958
 40
0.3124999999999958
 40
0.3437499999999954
 40
0.3437499999999954
 40
0.374999999999995
 40
0.374999999999995
 40
0.4062499999999946
 40
0.4062499999999946
 40
0.4374999999999942
 40
0.4374999999999942
 40
0.4687499999999938
 40
0.4687499999999938
 40
0.4999999999999933
 40
0.4999999999999933
 40
0.5312499999999929
 40
0.5312499999999929
 40
0.5624999999999925
 40
0.5624999999999925
 40
0.5937499999999921
 40
0.5937499999999921
 40
0.6249999999999917
 40
0.6249999999999917
 40
0.6562499999999923
 40
0.6562499999999923
 40
0.687499999999993
 40
0.687499999999993
 40
0.7187499999999938
 40
0.7187499999999938
 40
0.7499999999999944
 40
0.7499999999999944
 40
0.7812499999999951
 40
0.7812499999999951
 40
0.8124999999999958
 40
0.8124999999999958
 40
0.8437499999999966
 40
0.8437499999999966
 40
0.8749999999999972
 40
0.8749999999999972
 40
0.9062499999999979
 40
0.9062499999999979
 40
0.9374999999999986
 40
0.9374999999999986
 40
0.9687499999999993
 40
0.9687499999999993
 40
1.0
 40
1.0
 40
1.03125
 40
1.03125
 10
84.86972589187253
 20
108.4767601569391
 30
0.0
 10
84.86972589187253
 20
108.4767601569391
 30
0.0
 10
84.84147576331064
 20
108.4633483353041
 30
0.0
 10
84.73151865191385
 20
108.4129480441853
 30
0.0
 10
84.64832469655586
 20
108.3753370031036
 30
0.0
 10
84.43419324940984
 20
108.2840527693446
 30
0.0
 10
84.30367408164888
 20
108.2305440988283
 30
0.0
 10
83.99585946960909
 20
108.1144076225993
 30
0.0
 10
83.81943341685538
 20
108.0522489886049
 30
0.0
 10
83.4325776938359
 20
107.9303085563707
 30
0.0
 10
83.2196664602116
 20
107.8696778116687
 30
0.0
 10
82.758718264193
 20
107.7572562145598
 30
0.0
 10
82.51601403284248
 20
107.7067286722133
 30
0.0
 10
82.0057089673812
 20
107.6218295824705
 30
0.0
 10
81.73447939361292
 20
107.5871870597748
 30
0.0
 10
81.18423837649937
 20
107.5408232910274
 30
0.0
 10
80.90613178804324
 20
107.5288433652648
 30
0.0
 10
80.34387179986194
 20
107.5285467223595
 30
0.0
 10
80.05884480400377
 20
107.540644618756
 30
0.0
 10
79.51045402002983
 20
107.5865999590418
 30
0.0
 10
79.2427041608514
 20
107.620479985995
 30
0.0
 10
78.7248498951152
 20
107.7063552412225
 30
0.0
 10
78.48162422039668
 20
107.7571040551709
 30
0.0
 10
78.02408253339536
 20
107.8685654146507
 30
0.0
 10
77.8082243336477
 20
107.929899665167
 30
0.0
 10
77.42016026934195
 20
108.0521876059566
 30
0.0
 10
77.24620368730677
 20
108.1134703641494
 30
0.0
 10
76.93823113324406
 20
108.2295712220615
 30
0.0
 10
76.80554014475916
 20
108.283943731299
 30
0.0
 10
76.59244870038148
 20
108.3747626694827
 30
0.0
 10
76.51026857279946
 20
108.4118867498005
 30
0.0
 10
76.39807463092696
 20
108.4632941472767
 30
0.0
 10
76.3701188791627
 20
108.4765756445333
 30
0.0
 10
76.36934110576617
 20
108.4769408187852
 30
0.0
 10
76.39720502093147
 20
108.4637063839062
 30
0.0
 10
76.50744367173
 20
108.4131677967282
 30
0.0
 10
76.58880444917311
 20
108.3763595030043
 30
0.0
 10
76.80292687052601
 20
108.2850150940488
 30
0.0
 10
76.93552785926897
 20
108.2306615985788
 30
0.0
 10
77.24136337082648
 20
108.115225540498
 30
0.0
 10
77.41701072707289
 20
108.0532267269299
 30
0.0
 10
77.80724945576458
 20
107.9301607343475
 30
0.0
 10
78.01873634877958
 20
107.8700185422816
 30
0.0
 10
78.47500913052983
 20
107.7585687043867
 30
0.0
 10
78.72293771231493
 20
107.7067939246988
 30
0.0
 10
79.2355881520565
 20
107.6215405610018
 30
0.0
 10
79.50092206114029
 20
107.5876513792177
 30
0.0
 10
80.05047373647675
 20
107.5411015766058
 30
0.0
 10
80.33552602944596
 20
107.5288016171301
 30
0.0
 10
80.89627645684803
 20
107.5285871497736
 30
0.0
 10
81.17575441356766
 20
107.5402688088628
 30
0.0
 10
81.73165892835763
 20
107.5867922500389
 30
0.0
 10
81.99842882754508
 20
107.620780119401
 30
0.0
 10
82.51132515389523
 20
107.705790588943
 30
0.0
 10
82.75944627249245
 20
107.7574509730564
 30
0.0
 10
83.2175631178467
 20
107.8691476717065
 30
0.0
 10
83.42945410759064
 20
107.9293545238356
 30
0.0
 10
83.81985063945666
 20
108.0523501618334
 30
0.0
 10
83.99593362845772
 20
108.1144545136158
 30
0.0
 10
84.30157942361116
 20
108.22973501105
 30
0.0
 10
84.4332382445536
 20
108.2836461593194
 30
0.0
 10
84.64920639522171
 20
108.3757123628729
 30
0.0
 10
84.73054171005678
 20
108.4125061888507
 30
0.0
 10
84.84084645576384
 20
108.4630540309135
 30
0.0
 10
84.86972589187253
 20
108.4767601569391
 30
0.0
 10
84.86972589187253
 20
108.4767601569391
 30
0.0
  0
LINE
  5
1E5
330
1F
100
AcDbEntity
  8
0
  6
HIDDEN
 62
     7
370
     0
100
AcDbLine
 10
84.8697261228
 20
96.7786944418
 30
0.0
 11
76.3697256609
 21
96.7786944418
 31
0.0
  0
SPLINE
  5
1E6
330
1F
100
AcDbEntity
  8
0
  6
HIDDEN
 62
     7
370
     0
100
AcDbSpline
210
0.0
220
0.0
230
1.0
 70
     8
 71
     3
 72
    83
 73
    79
 74
     0
 42
0.00000001
 43
0.00000001
 12
1.0
 22
0.0
 32
0.0
 13
1.0
 23
0.0
 33
0.0
 40
-0.0312500000000001
 40
-0.0312500000000001
 40
0.0
 40
0.0
 40
0.0312499999999999
 40
0.0312499999999999
 40
0.0624999999999999
 40
0.0624999999999999
 40
0.0937499999999998
 40
0.0937499999999998
 40
0.1093749999999998
 40
0.1093749999999998
 40
0.1249999999999998
 40
0.1406249999999998
 40
0.1406249999999998
 40
0.1562499999999997
 40
0.1562499999999997
 40
0.1874999999999996
 40
0.1874999999999996
 40
0.2031249999999995
 40
0.2031249999999995
 40
0.2187499999999994
 40
0.2187499999999994
 40
0.2499999999999993
 40
0.2499999999999993
 40
0.2812499999999992
 40
0.2812499999999992
 40
0.3124999999999991
 40
0.3124999999999991
 40
0.3437499999999989
 40
0.3437499999999989
 40
0.3749999999999988
 40
0.3749999999999988
 40
0.4062499999999987
 40
0.4062499999999987
 40
0.4374999999999986
 40
0.4374999999999986
 40
0.4687499999999985
 40
0.4687499999999985
 40
0.4999999999999984
 40
0.4999999999999984
 40
0.5156249999999986
 40
0.5156249999999986
 40
0.5312499999999988
 40
0.5312499999999988
 40
0.562499999999999
 40
0.562499999999999
 40
0.578124999999999
 40
0.578124999999999
 40
0.5937499999999989
 40
0.5937499999999989
 40
0.6249999999999991
 40
0.6249999999999991
 40
0.6406249999999992
 40
0.6406249999999992
 40
0.6562499999999992
 40
0.6562499999999992
 40
0.6718749999999993
 40
0.6718749999999993
 40
0.6874999999999994
 40
0.6874999999999994
 40
0.7187499999999994
 40
0.7187499999999994
 40
0.7499999999999996
 40
0.7499999999999996
 40
0.7812499999999996
 40
0.7812499999999996
 40
0.8124999999999997
 40
0.8124999999999997
 40
0.8437499999999997
 40
0.8437499999999997
 40
0.8749999999999998
 40
0.8749999999999998
 40
0.9062499999999998
 40
0.9062499999999998
 40
0.9374999999999999
 40
0.9374999999999999
 40
0.9687499999999999
 40
0.9687499999999999
 40
1.0
 40
1.0
 40
1.03125
 40
1.03125
 10
76.7552134623062
 20
95.86964819417115
 30
0.0
 10
77.19048364859427
 20
95.79648244146101
 30
0.0
 10
77.43025539823569
 20
95.75950375240937
 30
0.0
 10
77.95601571264139
 20
95.6889363503432
 30
0.0
 10
78.24519628054412
 20
95.65511632951082
 30
0.0
 10
78.84839096536689
 20
95.59802680540999
 30
0.0
 10
79.1644217965205
 20
95.57436771459032
 30
0.0
 10
79.66202763920569
 20
95.54892116912339
 30
0.0
 10
79.83246872163963
 20
95.5421290746106
 30
0.0
 10
80.17172126482107
 20
95.53260101345464
 30
0.0
 10
80.51162753894296
 20
95.5269826087595
 30
0.0
 10
80.85282792787531
 20
95.5292643301939
 30
0.0
 10
81.19468865465653
 20
95.53554369875906
 30
0.0
 10
81.3666463680306
 20
95.54073514437783
 30
0.0
 10
81.87008145000907
 20
95.56168545543491
 30
0.0
 10
82.19339894754094
 20
95.58282026006893
 30
0.0
 10
82.66078218192253
 20
95.62301994233644
 30
0.0
 10
82.81334510158719
 20
95.6378354020913
 30
0.0
 10
83.10588815936732
 20
95.66912738607162
 30
0.0
 10
83.24679119550137
 20
95.68567966408096
 30
0.0
 10
83.6541372534447
 20
95.73724403432216
 30
0.0
 10
83.90739429304469
 20
95.77453107235247
 30
0.0
 10
84.35913641872379
 20
95.84761522011647
 30
0.0
 10
84.5589868887928
 20
95.88350932946322
 30
0.0
 10
84.90924382871835
 20
95.95019005633947
 30
0.0
 10
85.05803634646816
 20
95.98069276406271
 30
0.0
 10
85.29720671572345
 20
96.03134230118395
 30
0.0
 10
85.38917077214377
 20
96.05180608961292
 30
0.0
 10
85.51717223885396
 20
96.0806325948367
 30
0.0
 10
85.55153151993626
 20
96.08860668523484
 30
0.0
 10
85.5632087701781
 20
96.09129612041154
 30
0.0
 10
85.54049945078546
 20
96.08600586261282
 30
0.0
 10
85.43597378540912
 20
96.06228668019325
 30
0.0
 10
85.35555893436658
 20
96.0441855668378
 30
0.0
 10
85.13957447253578
 20
95.99771199589223
 30
0.0
 10
85.00307330012583
 20
95.96913992137492
 30
0.0
 10
84.67408380298073
 20
95.904857880015
 30
0.0
 10
84.48508681067528
 20
95.86983741254411
 30
0.0
 10
84.16417083856633
 20
95.81582472187993
 30
0.0
 10
84.05091854031267
 20
95.7975725839294
 30
0.0
 10
83.81114602314722
 20
95.76106761213194
 30
0.0
 10
83.68376391241038
 20
95.74270328254454
 30
0.0
 10
83.28814067662492
 20
95.68949989350892
 30
0.0
 10
83.00635660488075
 20
95.6564456029209
 30
0.0
 10
82.55530623629743
 20
95.61348571439079
 30
0.0
 10
82.40019290556013
 20
95.6002702701162
 30
0.0
 10
82.07972582106586
 20
95.5766045712603
 30
0.0
 10
81.91501942608932
 20
95.56623494943791
 30
0.0
 10
81.41928933451378
 20
95.54073765980868
 30
0.0
 10
81.08235447393176
 20
95.53087376880941
 30
0.0
 10
80.56686628256583
 20
95.52808611346939
 30
0.0
 10
80.39274093779905
 20
95.52919987659229
 30
0.0
 10
80.05075278298001
 20
95.53538743976952
 30
0.0
 10
79.88172445675038
 20
95.54043928094373
 30
0.0
 10
79.54748470715721
 20
95.55420218470276
 30
0.0
 10
79.38227349870316
 20
95.56291374250483
 30
0.0
 10
79.05567335163107
 20
95.58375083801418
 30
0.0
 10
78.89457131701288
 20
95.59588351468665
 30
0.0
 10
78.42844872357595
 20
95.63587337490203
 30
0.0
 10
78.13635180884515
 20
95.66755449405314
 30
0.0
 10
77.587355863202
 20
95.73692263336551
 30
0.0
 10
77.33657908192694
 20
95.77384810268576
 30
0.0
 10
76.88480113409251
 20
95.84684191134133
 30
0.0
 10
76.68106910507427
 20
95.88340069260245
 30
0.0
 10
76.33112392316107
 20
95.95000931452687
 30
0.0
 10
76.18394733628715
 20
95.98016629634104
 30
0.0
 10
75.94301372458136
 20
96.0311699365557
 30
0.0
 10
75.84972980603304
 20
96.05193040570269
 30
0.0
 10
75.72294806572242
 20
96.08048185899128
 30
0.0
 10
75.68811669568767
 20
96.0885614543441
 30
0.0
 10
75.67611517090754
 20
96.09132555429694
 30
0.0
 10
75.69961335259667
 20
96.08585548992298
 30
0.0
 10
75.80311132400763
 20
96.06237026049219
 30
0.0
 10
75.88294586131597
 20
96.04438816722404
 30
0.0
 10
76.10126309276922
 20
95.99741498225612
 30
0.0
 10
76.23917945527282
 20
95.96858084456996
 30
0.0
 10
76.56558549295089
 20
95.9048272775946
 30
0.0
 10
76.7552134623062
 20
95.86964819417115
 30
0.0
 10
77.19048364859427
 20
95.79648244146101
 30
0.0
  0
LINE
  5
1E7
330
1F
100
AcDbEntity
  8
0
  6
HIDDEN
 62
     7
370
     0
100
AcDbLine
 10
76.3697256609
 20
138.2786928623
 30
0.0
 11
84.8697261228
 21
138.2786928623
 31
0.0
  0
SPLINE
  5
1E8
330
1F
100
AcDbEntity
  8
0
  6
HIDDEN
 62
     7
370
     0
100
AcDbSpline
210
0.0
220
0.0
230
1.0
 70
     8
 71
     3
 72
    83
 73
    79
 74
     0
 42
0.00000001
 43
0.00000001
 12
1.0
 22
0.0
 32
0.0
 13
1.0
 23
0.0
 33
0.0
 40
-0.0312500000000003
 40
-0.0312500000000003
 40
0.0
 40
0.0
 40
0.0312499999999999
 40
0.0312499999999999
 40
0.0624999999999998
 40
0.0624999999999998
 40
0.0937499999999997
 40
0.0937499999999997
 40
0.1093749999999996
 40
0.1093749999999996
 40
0.1249999999999995
 40
0.1406249999999995
 40
0.1406249999999995
 40
0.1562499999999994
 40
0.1562499999999994
 40
0.1874999999999994
 40
0.1874999999999994
 40
0.2031249999999993
 40
0.2031249999999993
 40
0.2187499999999991
 40
0.2187499999999991
 40
0.2499999999999988
 40
0.2499999999999988
 40
0.2812499999999985
 40
0.2812499999999985
 40
0.3124999999999982
 40
0.3124999999999982
 40
0.3437499999999978
 40
0.3437499999999978
 40
0.3749999999999976
 40
0.3749999999999976
 40
0.4062499999999972
 40
0.4062499999999972
 40
0.4374999999999969
 40
0.4374999999999969
 40
0.4687499999999966
 40
0.4687499999999966
 40
0.4999999999999962
 40
0.4999999999999962
 40
0.5156249999999963
 40
0.5156249999999963
 40
0.5312499999999963
 40
0.5312499999999963
 40
0.5624999999999966
 40
0.5624999999999966
 40
0.5781249999999967
 40
0.5781249999999967
 40
0.5937499999999967
 40
0.5937499999999967
 40
0.6249999999999967
 40
0.6249999999999967
 40
0.6406249999999968
 40
0.6406249999999968
 40
0.6562499999999967
 40
0.6562499999999967
 40
0.6718749999999967
 40
0.6718749999999967
 40
0.6874999999999966
 40
0.6874999999999966
 40
0.7187499999999969
 40
0.7187499999999969
 40
0.7499999999999973
 40
0.7499999999999973
 40
0.7812499999999977
 40
0.7812499999999977
 40
0.812499999999998
 40
0.812499999999998
 40
0.8437499999999983
 40
0.8437499999999983
 40
0.8749999999999987
 40
0.8749999999999987
 40
0.906249999999999
 40
0.906249999999999
 40
0.9374999999999993
 40
0.9374999999999993
 40
0.9687499999999997
 40
0.9687499999999997
 40
1.0
 40
1.0
 40
1.03125
 40
1.03125
 10
84.4842383214391
 20
139.1877391099386
 30
0.0
 10
84.04896813515101
 20
139.2609048626488
 30
0.0
 10
83.80919638550958
 20
139.2978835517004
 30
0.0
 10
83.28343607110389
 20
139.3684509537666
 30
0.0
 10
82.99425550320116
 20
139.402270974599
 30
0.0
 10
82.39106081837839
 20
139.4593604986998
 30
0.0
 10
82.07502998722478
 20
139.4830195895195
 30
0.0
 10
81.57742414453959
 20
139.5084661349864
 30
0.0
 10
81.40698306210565
 20
139.5152582294992
 30
0.0
 10
81.06773051892421
 20
139.5247862906552
 30
0.0
 10
80.72782424480232
 20
139.5304046953503
 30
0.0
 10
80.38662385586998
 20
139.5281229739159
 30
0.0
 10
80.04476312908876
 20
139.5218436053508
 30
0.0
 10
79.8728054157147
 20
139.516652159732
 30
0.0
 10
79.36937033373621
 20
139.4957018486749
 30
0.0
 10
79.04605283620435
 20
139.4745670440409
 30
0.0
 10
78.57866960182277
 20
139.4343673617734
 30
0.0
 10
78.42610668215809
 20
139.4195519020186
 30
0.0
 10
78.13356362437796
 20
139.3882599180382
 30
0.0
 10
77.99266058824391
 20
139.3717076400289
 30
0.0
 10
77.5853145303006
 20
139.3201432697877
 30
0.0
 10
77.3320574907006
 20
139.2828562317574
 30
0.0
 10
76.88031536502149
 20
139.2097720839934
 30
0.0
 10
76.68046489495251
 20
139.1738779746466
 30
0.0
 10
76.33020795502696
 20
139.1071972477704
 30
0.0
 10
76.18141543727714
 20
139.0766945400472
 30
0.0
 10
75.94224506802185
 20
139.0260450029259
 30
0.0
 10
75.85028101160151
 20
139.005581214497
 30
0.0
 10
75.72227954489134
 20
138.9767547092731
 30
0.0
 10
75.68792026380902
 20
138.968780618875
 30
0.0
 10
75.67624301356719
 20
138.9660911836983
 30
0.0
 10
75.69895233295982
 20
138.9713814414971
 30
0.0
 10
75.80347799833616
 20
138.9951006239166
 30
0.0
 10
75.8838928493787
 20
139.0132017372721
 30
0.0
 10
76.0998773112095
 20
139.0596753082176
 30
0.0
 10
76.23637848361945
 20
139.0882473827349
 30
0.0
 10
76.56536798076455
 20
139.1525294240949
 30
0.0
 10
76.75436497307001
 20
139.1875498915658
 30
0.0
 10
77.07528094517893
 20
139.2415625822299
 30
0.0
 10
77.18853324343262
 20
139.2598147201805
 30
0.0
 10
77.42830576059808
 20
139.2963196919779
 30
0.0
 10
77.55568787133491
 20
139.3146840215653
 30
0.0
 10
77.95131110712036
 20
139.3678874106009
 30
0.0
 10
78.23309517886453
 20
139.400941701189
 30
0.0
 10
78.68414554744786
 20
139.443901589719
 30
0.0
 10
78.83925887818515
 20
139.4571170339937
 30
0.0
 10
79.15972596267942
 20
139.4807827328495
 30
0.0
 10
79.32443235765597
 20
139.4911523546719
 30
0.0
 10
79.82016244923149
 20
139.5166496443012
 30
0.0
 10
80.15709730981352
 20
139.5265135353004
 30
0.0
 10
80.67258550117947
 20
139.5293011906404
 30
0.0
 10
80.84671084594622
 20
139.5281874275175
 30
0.0
 10
81.18869900076527
 20
139.5219998643403
 30
0.0
 10
81.35772732699489
 20
139.5169480231661
 30
0.0
 10
81.69196707658807
 20
139.5031851194071
 30
0.0
 10
81.85717828504212
 20
139.494473561605
 30
0.0
 10
82.18377843211421
 20
139.4736364660957
 30
0.0
 10
82.3448804667324
 20
139.4615037894232
 30
0.0
 10
82.81100306016933
 20
139.4215139292078
 30
0.0
 10
83.10309997490013
 20
139.3898328100567
 30
0.0
 10
83.65209592054327
 20
139.3204646707443
 30
0.0
 10
83.90287270181834
 20
139.283539201424
 30
0.0
 10
84.35465064965277
 20
139.2105453927685
 30
0.0
 10
84.55838267867101
 20
139.1739866115073
 30
0.0
 10
84.90832786058421
 20
139.1073779895829
 30
0.0
 10
85.05550444745813
 20
139.0772210077688
 30
0.0
 10
85.29643805916393
 20
139.0262173675541
 30
0.0
 10
85.38972197771224
 20
139.0054568984071
 30
0.0
 10
85.51650371802286
 20
138.9769054451185
 30
0.0
 10
85.55133508805761
 20
138.9688258497657
 30
0.0
 10
85.56333661283774
 20
138.9660617498129
 30
0.0
 10
85.53983843114861
 20
138.9715318141868
 30
0.0
 10
85.43634045973765
 20
138.9950170436176
 30
0.0
 10
85.35650592242929
 20
139.0129991368858
 30
0.0
 10
85.13818869097607
 20
139.0599723218537
 30
0.0
 10
85.00027232847245
 20
139.0888064595399
 30
0.0
 10
84.6738662907944
 20
139.1525600265152
 30
0.0
 10
84.4842383214391
 20
139.1877391099386
 30
0.0
 10
84.04896813515101
 20
139.2609048626488
 30
0.0
  0
SPLINE
  5
1E9
330
1F
100
AcDbEntity
  8
0
  6
HIDDEN
 62
     7
370
     0
100
AcDbSpline
210
0.0
220
0.0
230
1.0
 70
    11
 71
     3
 72
    70
 73
    66
 74
     0
 42
0.00000001
 43
0.00000001
 12
1.0
 22
0.0
 32
0.0
 13
1.0
 23
0.0
 33
0.0
 40
-0.0312499999999999
 40
-0.0312499999999999
 40
0.0
 40
0.0
 40
0.03125
 40
0.03125
 40
0.0625
 40
0.0625
 40
0.09375
 40
0.09375
 40
0.125
 40
0.125
 40
0.15625
 40
0.15625
 40
0.1875
 40
0.1875
 40
0.2187499999999999
 40
0.2187499999999999
 40
0.2499999999999999
 40
0.2499999999999999
 40
0.2812499999999999
 40
0.2812499999999999
 40
0.3124999999999998
 40
0.3124999999999998
 40
0.3437499999999999
 40
0.3437499999999999
 40
0.3749999999999999
 40
0.3749999999999999
 40
0.4062499999999999
 40
0.4062499999999999
 40
0.4374999999999999
 40
0.4374999999999999
 40
0.4687499999999999
 40
0.4687499999999999
 40
0.4999999999999999
 40
0.4999999999999999
 40
0.5312499999999999
 40
0.5312499999999999
 40
0.5624999999999999
 40
0.5624999999999999
 40
0.5937499999999999
 40
0.5937499999999999
 40
0.6249999999999999
 40
0.6249999999999999
 40
0.65625
 40
0.65625
 40
0.6875
 40
0.6875
 40
0.71875
 40
0.71875
 40
0.75
 40
0.75
 40
0.78125
 40
0.78125
 40
0.8125
 40
0.8125
 40
0.84375
 40
0.84375
 40
0.875
 40
0.875
 40
0.9062500000000001
 40
0.9062500000000001
 40
0.9375000000000001
 40
0.9375000000000001
 40
0.9687500000000001
 40
0.9687500000000001
 40
1.0
 40
1.0
 40
1.03125
 40
1.03125
 10
84.86972589187255
 20
108.4767601569391
 30
0.0
 10
84.86972589187255
 20
108.4767601569391
 30
0.0
 10
84.84147576331064
 20
108.4633483353041
 30
0.0
 10
84.73151865191385
 20
108.4129480441853
 30
0.0
 10
84.64832469655586
 20
108.3753370031036
 30
0.0
 10
84.43419324940984
 20
108.2840527693446
 30
0.0
 10
84.30367408164888
 20
108.2305440988283
 30
0.0
 10
83.9958594696091
 20
108.1144076225993
 30
0.0
 10
83.81943341685538
 20
108.0522489886049
 30
0.0
 10
83.4325776938359
 20
107.9303085563707
 30
0.0
 10
83.2196664602116
 20
107.8696778116687
 30
0.0
 10
82.758718264193
 20
107.7572562145597
 30
0.0
 10
82.51601403284248
 20
107.7067286722133
 30
0.0
 10
82.0057089673812
 20
107.6218295824705
 30
0.0
 10
81.73447939361292
 20
107.5871870597748
 30
0.0
 10
81.18423837649937
 20
107.5408232910274
 30
0.0
 10
80.90613178804324
 20
107.5288433652649
 30
0.0
 10
80.34387179986193
 20
107.5285467223595
 30
0.0
 10
80.05884480400377
 20
107.540644618756
 30
0.0
 10
79.51045402002981
 20
107.5865999590418
 30
0.0
 10
79.2427041608514
 20
107.620479985995
 30
0.0
 10
78.7248498951152
 20
107.7063552412225
 30
0.0
 10
78.48162422039668
 20
107.7571040551709
 30
0.0
 10
78.02408253339536
 20
107.8685654146507
 30
0.0
 10
77.8082243336477
 20
107.929899665167
 30
0.0
 10
77.42016026934195
 20
108.0521876059566
 30
0.0
 10
77.24620368730676
 20
108.1134703641494
 30
0.0
 10
76.93823113324406
 20
108.2295712220615
 30
0.0
 10
76.80554014475915
 20
108.283943731299
 30
0.0
 10
76.59244870038147
 20
108.3747626694827
 30
0.0
 10
76.51026857279946
 20
108.4118867498005
 30
0.0
 10
76.39807463092694
 20
108.4632941472767
 30
0.0
 10
76.3701188791627
 20
108.4765756445333
 30
0.0
 10
76.36934110576615
 20
108.4769408187852
 30
0.0
 10
76.39720502093145
 20
108.4637063839062
 30
0.0
 10
76.50744367172999
 20
108.4131677967282
 30
0.0
 10
76.5888044491731
 20
108.3763595030043
 30
0.0
 10
76.80292687052601
 20
108.2850150940488
 30
0.0
 10
76.93552785926897
 20
108.2306615985789
 30
0.0
 10
77.24136337082648
 20
108.115225540498
 30
0.0
 10
77.41701072707288
 20
108.0532267269299
 30
0.0
 10
77.80724945576458
 20
107.9301607343475
 30
0.0
 10
78.01873634877957
 20
107.8700185422816
 30
0.0
 10
78.47500913052981
 20
107.7585687043867
 30
0.0
 10
78.72293771231493
 20
107.7067939246988
 30
0.0
 10
79.2355881520565
 20
107.6215405610018
 30
0.0
 10
79.50092206114029
 20
107.5876513792177
 30
0.0
 10
80.05047373647675
 20
107.5411015766058
 30
0.0
 10
80.33552602944596
 20
107.5288016171301
 30
0.0
 10
80.89627645684803
 20
107.5285871497736
 30
0.0
 10
81.17575441356766
 20
107.5402688088628
 30
0.0
 10
81.73165892835763
 20
107.5867922500389
 30
0.0
 10
81.99842882754507
 20
107.620780119401
 30
0.0
 10
82.51132515389523
 20
107.705790588943
 30
0.0
 10
82.75944627249244
 20
107.7574509730564
 30
0.0
 10
83.2175631178467
 20
107.8691476717065
 30
0.0
 10
83.42945410759064
 20
107.9293545238356
 30
0.0
 10
83.81985063945666
 20
108.0523501618334
 30
0.0
 10
83.99593362845772
 20
108.1144545136158
 30
0.0
 10
84.30157942361117
 20
108.22973501105
 30
0.0
 10
84.4332382445536
 20
108.2836461593194
 30
0.0
 10
84.64920639522173
 20
108.375712362873
 30
0.0
 10
84.7305417100568
 20
108.4125061888507
 30
0.0
 10
84.84084645576384
 20
108.4630540309135
 30
0.0
 10
84.86972589187255
 20
108.4767601569391
 30
0.0
 10
84.86972589187255
 20
108.4767601569391
 30
0.0
  0
SPLINE
  5
1EA
330
1F
100
AcDbEntity
  8
0
  6
HIDDEN
 62
     7
370
     0
100
AcDbSpline
210
0.0
220
0.0
230
1.0
 70
    11
 71
     3
 72
    70
 73
    66
 74
     0
 42
0.00000001
 43
0.00000001
 12
1.0
 22
0.0
 32
0.0
 13
1.0
 23
0.0
 33
0.0
 40
-0.03125
 40
-0.03125
 40
0.0
 40
0.0
 40
0.03125
 40
0.03125
 40
0.0625
 40
0.0625
 40
0.09375
 40
0.09375
 40
0.125
 40
0.125
 40
0.15625
 40
0.15625
 40
0.1875
 40
0.1875
 40
0.21875
 40
0.21875
 40
0.25
 40
0.25
 40
0.28125
 40
0.28125
 40
0.3125
 40
0.3125
 40
0.34375
 40
0.34375
 40
0.375
 40
0.375
 40
0.40625
 40
0.40625
 40
0.4375
 40
0.4375
 40
0.46875
 40
0.46875
 40
0.5
 40
0.5
 40
0.53125
 40
0.53125
 40
0.5625
 40
0.5625
 40
0.59375
 40
0.59375
 40
0.625
 40
0.625
 40
0.65625
 40
0.65625
 40
0.6875
 40
0.6875
 40
0.71875
 40
0.71875
 40
0.75
 40
0.75
 40
0.78125
 40
0.78125
 40
0.8125
 40
0.8125
 40
0.84375
 40
0.84375
 40
0.875
 40
0.875
 40
0.90625
 40
0.90625
 40
0.9375
 40
0.9375
 40
0.96875
 40
0.96875
 40
1.0
 40
1.0
 40
1.03125
 40
1.03125
 10
76.36972589187266
 20
126.5806271471708
 30
0.0
 10
76.36972589187266
 20
126.5806271471708
 30
0.0
 10
76.39797602043457
 20
126.5940389688057
 30
0.0
 10
76.50793313183135
 20
126.6444392599246
 30
0.0
 10
76.59112708718934
 20
126.6820503010063
 30
0.0
 10
76.80525853433535
 20
126.7733345347653
 30
0.0
 10
76.93577770209632
 20
126.8268432052815
 30
0.0
 10
77.2435923141361
 20
126.9429796815106
 30
0.0
 10
77.42001836688983
 20
127.005138315505
 30
0.0
 10
77.8068740899093
 20
127.1270787477391
 30
0.0
 10
78.0197853235336
 20
127.1877094924412
 30
0.0
 10
78.48073351955219
 20
127.3001310895501
 30
0.0
 10
78.72343775090272
 20
127.3506586318966
 30
0.0
 10
79.233742816364
 20
127.4355577216393
 30
0.0
 10
79.50497239013228
 20
127.4702002443351
 30
0.0
 10
80.05521340724583
 20
127.5165640130824
 30
0.0
 10
80.33331999570198
 20
127.528543938845
 30
0.0
 10
80.89557998388328
 20
127.5288405817504
 30
0.0
 10
81.18060697974143
 20
127.5167426853538
 30
0.0
 10
81.7289977637154
 20
127.470787345068
 30
0.0
 10
81.9967476228938
 20
127.4369073181148
 30
0.0
 10
82.51460188863
 20
127.3510320628873
 30
0.0
 10
82.75782756334851
 20
127.3002832489389
 30
0.0
 10
83.21536925034984
 20
127.1888218894591
 30
0.0
 10
83.4312274500975
 20
127.1274876389428
 30
0.0
 10
83.81929151440325
 20
127.0051996981532
 30
0.0
 10
83.99324809643844
 20
126.9439169399603
 30
0.0
 10
84.30122065050114
 20
126.8278160820483
 30
0.0
 10
84.43391163898605
 20
126.7734435728108
 30
0.0
 10
84.64700308336371
 20
126.6826246346271
 30
0.0
 10
84.72918321094573
 20
126.6455005543093
 30
0.0
 10
84.84137715281824
 20
126.5940931568331
 30
0.0
 10
84.86933290458249
 20
126.5808116595766
 30
0.0
 10
84.87011067797904
 20
126.5804464853246
 30
0.0
 10
84.84224676281374
 20
126.5936809202036
 30
0.0
 10
84.7320081120152
 20
126.6442195073816
 30
0.0
 10
84.65064733457208
 20
126.6810278011055
 30
0.0
 10
84.43652491321919
 20
126.772372210061
 30
0.0
 10
84.30392392447622
 20
126.826725705531
 30
0.0
 10
83.99808841291872
 20
126.9421617636118
 30
0.0
 10
83.8224410566723
 20
127.0041605771799
 30
0.0
 10
83.43220232798062
 20
127.1272265697623
 30
0.0
 10
83.22071543496564
 20
127.1873687618282
 30
0.0
 10
82.76444265321538
 20
127.2988185997231
 30
0.0
 10
82.51651407143027
 20
127.350593379411
 30
0.0
 10
82.00386363168872
 20
127.4358467431081
 30
0.0
 10
81.73852972260491
 20
127.4697359248921
 30
0.0
 10
81.18897804726845
 20
127.516285727504
 30
0.0
 10
80.90392575429924
 20
127.5285856869798
 30
0.0
 10
80.34317532689717
 20
127.5288001543362
 30
0.0
 10
80.06369737017755
 20
127.517118495247
 30
0.0
 10
79.50779285538758
 20
127.470595054071
 30
0.0
 10
79.24102295620013
 20
127.4366071847088
 30
0.0
 10
78.72812662984997
 20
127.3515967151669
 30
0.0
 10
78.48000551125274
 20
127.2999363310534
 30
0.0
 10
78.0218886658985
 20
127.1882396324033
 30
0.0
 10
77.80999767615454
 20
127.1280327802743
 30
0.0
 10
77.41960114428855
 20
127.0050371422765
 30
0.0
 10
77.24351815528746
 20
126.942932790494
 30
0.0
 10
76.93787236013402
 20
126.8276522930598
 30
0.0
 10
76.80621353919159
 20
126.7737411447904
 30
0.0
 10
76.59024538852348
 20
126.6816749412369
 30
0.0
 10
76.5089100736884
 20
126.6448811152592
 30
0.0
 10
76.39860532798134
 20
126.5943332731964
 30
0.0
 10
76.36972589187266
 20
126.5806271471708
 30
0.0
 10
76.36972589187266
 20
126.5806271471708
 30
0.0
  0
LINE
  5
1EB
330
1F
100
AcDbEntity
  8
0
  6
HIDDEN
 62
     7
370
     0
100
AcDbLine
 10
76.3697256609
 20
138.2786928623
 30
0.0
 11
84.8697261228
 21
138.2786928623
 31
0.0
  0
SPLINE
  5
1EC
330
1F
100
AcDbEntity
  8
0
  6
HIDDEN
 62
     7
370
     0
100
AcDbSpline
210
0.0
220
0.0
230
1.0
 70
     8
 71
     3
 72
    83
 73
    79
 74
     0
 42
0.00000001
 43
0.00000001
 12
1.0
 22
0.0
 32
0.0
 13
1.0
 23
0.0
 33
0.0
 40
-0.0312500000000001
 40
-0.0312500000000001
 40
0.0
 40
0.0
 40
0.0312499999999995
 40
0.0312499999999995
 40
0.062499999999999
 40
0.062499999999999
 40
0.0937499999999985
 40
0.0937499999999985
 40
0.1093749999999982
 40
0.1093749999999982
 40
0.1249999999999979
 40
0.1406249999999976
 40
0.1406249999999976
 40
0.1562499999999973
 40
0.1562499999999973
 40
0.1874999999999967
 40
0.1874999999999967
 40
0.2031249999999964
 40
0.2031249999999964
 40
0.2187499999999961
 40
0.2187499999999961
 40
0.2499999999999956
 40
0.2499999999999956
 40
0.2812499999999952
 40
0.2812499999999952
 40
0.3124999999999951
 40
0.3124999999999951
 40
0.343749999999995
 40
0.343749999999995
 40
0.3749999999999948
 40
0.3749999999999948
 40
0.4062499999999947
 40
0.4062499999999947
 40
0.4374999999999946
 40
0.4374999999999946
 40
0.4687499999999945
 40
0.4687499999999945
 40
0.4999999999999943
 40
0.4999999999999943
 40
0.5156249999999946
 40
0.5156249999999946
 40
0.5312499999999947
 40
0.5312499999999947
 40
0.562499999999995
 40
0.562499999999995
 40
0.5781249999999951
 40
0.5781249999999951
 40
0.5937499999999951
 40
0.5937499999999951
 40
0.6249999999999956
 40
0.6249999999999956
 40
0.6406249999999957
 40
0.6406249999999957
 40
0.6562499999999959
 40
0.6562499999999959
 40
0.6718749999999961
 40
0.6718749999999961
 40
0.6874999999999963
 40
0.6874999999999963
 40
0.7187499999999968
 40
0.7187499999999968
 40
0.7499999999999971
 40
0.7499999999999971
 40
0.7812499999999976
 40
0.7812499999999976
 40
0.8124999999999979
 40
0.8124999999999979
 40
0.8437499999999983
 40
0.8437499999999983
 40
0.8749999999999987
 40
0.8749999999999987
 40
0.9062499999999991
 40
0.9062499999999991
 40
0.9374999999999994
 40
0.9374999999999994
 40
0.9687499999999999
 40
0.9687499999999999
 40
1.0
 40
1.0
 40
1.03125
 40
1.03125
 10
84.4842383214391
 20
139.1877391099386
 30
0.0
 10
84.048968135151
 20
139.2609048626488
 30
0.0
 10
83.80919638550958
 20
139.2978835517004
 30
0.0
 10
83.28343607110389
 20
139.3684509537666
 30
0.0
 10
82.99425550320116
 20
139.402270974599
 30
0.0
 10
82.39106081837839
 20
139.4593604986998
 30
0.0
 10
82.07502998722478
 20
139.4830195895195
 30
0.0
 10
81.57742414453959
 20
139.5084661349864
 30
0.0
 10
81.40698306210565
 20
139.5152582294992
 30
0.0
 10
81.06773051892421
 20
139.5247862906552
 30
0.0
 10
80.72782424480232
 20
139.5304046953503
 30
0.0
 10
80.38662385586997
 20
139.5281229739159
 30
0.0
 10
80.04476312908876
 20
139.5218436053508
 30
0.0
 10
79.8728054157147
 20
139.516652159732
 30
0.0
 10
79.36937033373621
 20
139.4957018486749
 30
0.0
 10
79.04605283620435
 20
139.4745670440409
 30
0.0
 10
78.57866960182277
 20
139.4343673617734
 30
0.0
 10
78.42610668215808
 20
139.4195519020186
 30
0.0
 10
78.13356362437796
 20
139.3882599180382
 30
0.0
 10
77.99266058824391
 20
139.3717076400289
 30
0.0
 10
77.5853145303006
 20
139.3201432697877
 30
0.0
 10
77.3320574907006
 20
139.2828562317574
 30
0.0
 10
76.88031536502149
 20
139.2097720839934
 30
0.0
 10
76.6804648949525
 20
139.1738779746466
 30
0.0
 10
76.33020795502696
 20
139.1071972477704
 30
0.0
 10
76.18141543727714
 20
139.0766945400472
 30
0.0
 10
75.94224506802185
 20
139.0260450029259
 30
0.0
 10
75.85028101160151
 20
139.005581214497
 30
0.0
 10
75.72227954489134
 20
138.9767547092731
 30
0.0
 10
75.68792026380902
 20
138.968780618875
 30
0.0
 10
75.6762430135672
 20
138.9660911836983
 30
0.0
 10
75.69895233295982
 20
138.9713814414971
 30
0.0
 10
75.80347799833618
 20
138.9951006239166
 30
0.0
 10
75.88389284937871
 20
139.0132017372721
 30
0.0
 10
76.0998773112095
 20
139.0596753082176
 30
0.0
 10
76.23637848361945
 20
139.0882473827349
 30
0.0
 10
76.56536798076455
 20
139.1525294240949
 30
0.0
 10
76.75436497307003
 20
139.1875498915657
 30
0.0
 10
77.07528094517895
 20
139.2415625822299
 30
0.0
 10
77.18853324343263
 20
139.2598147201805
 30
0.0
 10
77.42830576059808
 20
139.2963196919779
 30
0.0
 10
77.55568787133491
 20
139.3146840215653
 30
0.0
 10
77.95131110712038
 20
139.3678874106009
 30
0.0
 10
78.23309517886453
 20
139.4009417011889
 30
0.0
 10
78.68414554744787
 20
139.443901589719
 30
0.0
 10
78.83925887818515
 20
139.4571170339937
 30
0.0
 10
79.15972596267942
 20
139.4807827328495
 30
0.0
 10
79.32443235765598
 20
139.4911523546719
 30
0.0
 10
79.8201624492315
 20
139.5166496443012
 30
0.0
 10
80.15709730981352
 20
139.5265135353004
 30
0.0
 10
80.67258550117947
 20
139.5293011906404
 30
0.0
 10
80.84671084594623
 20
139.5281874275175
 30
0.0
 10
81.18869900076527
 20
139.5219998643403
 30
0.0
 10
81.3577273269949
 20
139.5169480231661
 30
0.0
 10
81.69196707658807
 20
139.5031851194071
 30
0.0
 10
81.85717828504212
 20
139.494473561605
 30
0.0
 10
82.18377843211421
 20
139.4736364660957
 30
0.0
 10
82.3448804667324
 20
139.4615037894232
 30
0.0
 10
82.81100306016933
 20
139.4215139292078
 30
0.0
 10
83.10309997490013
 20
139.3898328100567
 30
0.0
 10
83.65209592054327
 20
139.3204646707443
 30
0.0
 10
83.90287270181834
 20
139.283539201424
 30
0.0
 10
84.35465064965277
 20
139.2105453927685
 30
0.0
 10
84.55838267867101
 20
139.1739866115073
 30
0.0
 10
84.90832786058421
 20
139.1073779895829
 30
0.0
 10
85.05550444745813
 20
139.0772210077688
 30
0.0
 10
85.29643805916393
 20
139.0262173675541
 30
0.0
 10
85.38972197771224
 20
139.0054568984071
 30
0.0
 10
85.51650371802286
 20
138.9769054451185
 30
0.0
 10
85.5513350880576
 20
138.9688258497657
 30
0.0
 10
85.56333661283774
 20
138.9660617498129
 30
0.0
 10
85.53983843114861
 20
138.9715318141868
 30
0.0
 10
85.43634045973765
 20
138.9950170436176
 30
0.0
 10
85.35650592242929
 20
139.0129991368858
 30
0.0
 10
85.13818869097607
 20
139.0599723218537
 30
0.0
 10
85.00027232847246
 20
139.0888064595399
 30
0.0
 10
84.6738662907944
 20
139.1525600265152
 30
0.0
 10
84.4842383214391
 20
139.1877391099386
 30
0.0
 10
84.048968135151
 20
139.2609048626488
 30
0.0
  0
LINE
  5
1ED
330
1F
100
AcDbEntity
  8
0
  6
HIDDEN
 62
     7
370
     0
100
AcDbLine
 10
84.8697261228
 20
96.7786944418
 30
0.0
 11
76.3697256609
 21
96.7786944418
 31
0.0
  0
SPLINE
  5
1EE
330
1F
100
AcDbEntity
  8
0
  6
HIDDEN
 62
     7
370
     0
100
AcDbSpline
210
0.0
220
0.0
230
1.0
 70
     8
 71
     3
 72
    83
 73
    79
 74
     0
 42
0.00000001
 43
0.00000001
 12
1.0
 22
0.0
 32
0.0
 13
1.0
 23
0.0
 33
0.0
 40
-0.0312499999999998
 40
-0.0312499999999998
 40
0.0
 40
0.0
 40
0.0312499999999999
 40
0.0312499999999999
 40
0.0624999999999997
 40
0.0624999999999997
 40
0.0937499999999996
 40
0.0937499999999996
 40
0.1093749999999996
 40
0.1093749999999996
 40
0.1249999999999996
 40
0.1406249999999996
 40
0.1406249999999996
 40
0.1562499999999996
 40
0.1562499999999996
 40
0.1874999999999996
 40
0.1874999999999996
 40
0.2031249999999997
 40
0.2031249999999997
 40
0.2187499999999998
 40
0.2187499999999998
 40
0.2499999999999997
 40
0.2499999999999997
 40
0.2812499999999997
 40
0.2812499999999997
 40
0.3124999999999997
 40
0.3124999999999997
 40
0.3437499999999997
 40
0.3437499999999997
 40
0.3749999999999996
 40
0.3749999999999996
 40
0.4062499999999996
 40
0.4062499999999996
 40
0.4374999999999996
 40
0.4374999999999996
 40
0.4687499999999996
 40
0.4687499999999996
 40
0.4999999999999996
 40
0.4999999999999996
 40
0.5156249999999996
 40
0.5156249999999996
 40
0.5312499999999997
 40
0.5312499999999997
 40
0.5624999999999998
 40
0.5624999999999998
 40
0.5781249999999998
 40
0.5781249999999998
 40
0.5937499999999998
 40
0.5937499999999998
 40
0.6249999999999997
 40
0.6249999999999997
 40
0.6406249999999997
 40
0.6406249999999997
 40
0.6562499999999996
 40
0.6562499999999996
 40
0.6718749999999994
 40
0.6718749999999994
 40
0.6874999999999994
 40
0.6874999999999994
 40
0.7187499999999996
 40
0.7187499999999996
 40
0.7499999999999996
 40
0.7499999999999996
 40
0.7812499999999997
 40
0.7812499999999997
 40
0.8124999999999998
 40
0.8124999999999998
 40
0.8437499999999999
 40
0.8437499999999999
 40
0.875
 40
0.875
 40
0.9062500000000001
 40
0.9062500000000001
 40
0.9375000000000001
 40
0.9375000000000001
 40
0.9687500000000002
 40
0.9687500000000002
 40
1.0
 40
1.0
 40
1.03125
 40
1.03125
 10
76.7552134623062
 20
95.86964819417115
 30
0.0
 10
77.19048364859427
 20
95.79648244146102
 30
0.0
 10
77.43025539823569
 20
95.75950375240939
 30
0.0
 10
77.95601571264139
 20
95.68893635034318
 30
0.0
 10
78.24519628054412
 20
95.65511632951082
 30
0.0
 10
78.84839096536689
 20
95.59802680540997
 30
0.0
 10
79.1644217965205
 20
95.57436771459032
 30
0.0
 10
79.66202763920569
 20
95.54892116912339
 30
0.0
 10
79.83246872163963
 20
95.54212907461059
 30
0.0
 10
80.1717212802368
 20
95.53260109819058
 30
0.0
 10
80.51162753894297
 20
95.5269826087595
 30
0.0
 10
80.85282792787531
 20
95.5292643301939
 30
0.0
 10
81.19468865465653
 20
95.53554369875904
 30
0.0
 10
81.3666463680306
 20
95.54073514437783
 30
0.0
 10
81.87008145000907
 20
95.56168545543491
 30
0.0
 10
82.19339894754094
 20
95.58282026006891
 30
0.0
 10
82.66078218192253
 20
95.62301994233644
 30
0.0
 10
82.8133451015872
 20
95.6378354020913
 30
0.0
 10
83.10588815936732
 20
95.66912738607161
 30
0.0
 10
83.24679119550137
 20
95.68567966408096
 30
0.0
 10
83.6541372534447
 20
95.73724403432219
 30
0.0
 10
83.90739429304469
 20
95.77453107235247
 30
0.0
 10
84.35913641872379
 20
95.84761522011647
 30
0.0
 10
84.55898688879279
 20
95.88350932946322
 30
0.0
 10
84.90924382871833
 20
95.95019005633948
 30
0.0
 10
85.05803634646816
 20
95.98069276406271
 30
0.0
 10
85.29720671572345
 20
96.03134230118398
 30
0.0
 10
85.38917077214377
 20
96.05180608961291
 30
0.0
 10
85.51717223885396
 20
96.08063259483671
 30
0.0
 10
85.55153151993626
 20
96.08860668523485
 30
0.0
 10
85.5632087701781
 20
96.09129612041156
 30
0.0
 10
85.54049945078546
 20
96.08600586261282
 30
0.0
 10
85.43597378540912
 20
96.06228668019327
 30
0.0
 10
85.35555893436658
 20
96.0441855668378
 30
0.0
 10
85.13957447253578
 20
95.99771199589225
 30
0.0
 10
85.00307330012583
 20
95.96913992137492
 30
0.0
 10
84.67408380298073
 20
95.90485788001499
 30
0.0
 10
84.48508681067528
 20
95.8698374125441
 30
0.0
 10
84.16417083856633
 20
95.81582472187993
 30
0.0
 10
84.05091854031267
 20
95.7975725839294
 30
0.0
 10
83.81114602314722
 20
95.76106761213194
 30
0.0
 10
83.68376391241038
 20
95.74270328254454
 30
0.0
 10
83.28814067662492
 20
95.68949989350892
 30
0.0
 10
83.00635660488075
 20
95.65644560292088
 30
0.0
 10
82.55530623629741
 20
95.61348571439078
 30
0.0
 10
82.40019290556013
 20
95.60027027011618
 30
0.0
 10
82.07972582106586
 20
95.5766045712603
 30
0.0
 10
81.91501942608932
 20
95.5662349494379
 30
0.0
 10
81.41928933451378
 20
95.54073765980867
 30
0.0
 10
81.08235447393176
 20
95.53087376880941
 30
0.0
 10
80.56686628256583
 20
95.52808611346939
 30
0.0
 10
80.39274093779905
 20
95.52919987659229
 30
0.0
 10
80.05075278298001
 20
95.53538743976952
 30
0.0
 10
79.88172445675038
 20
95.54043928094373
 30
0.0
 10
79.54748470715721
 20
95.55420218470276
 30
0.0
 10
79.38227349870316
 20
95.56291374250483
 30
0.0
 10
79.05567335163107
 20
95.58375083801417
 30
0.0
 10
78.89457131701288
 20
95.59588351468665
 30
0.0
 10
78.42844872357595
 20
95.63587337490203
 30
0.0
 10
78.13635180884515
 20
95.66755449405312
 30
0.0
 10
77.587355863202
 20
95.7369226333655
 30
0.0
 10
77.33657908192693
 20
95.77384810268576
 30
0.0
 10
76.88480113409251
 20
95.84684191134134
 30
0.0
 10
76.68106910507426
 20
95.88340069260245
 30
0.0
 10
76.33112392316107
 20
95.95000931452685
 30
0.0
 10
76.18394733628715
 20
95.98016629634101
 30
0.0
 10
75.94301372458136
 20
96.0311699365557
 30
0.0
 10
75.84972980603304
 20
96.05193040570269
 30
0.0
 10
75.72294806572242
 20
96.08048185899128
 30
0.0
 10
75.68811669568767
 20
96.08856145434409
 30
0.0
 10
75.67611517090754
 20
96.09132555429694
 30
0.0
 10
75.69961335259667
 20
96.08585548992298
 30
0.0
 10
75.80311132400762
 20
96.06237026049217
 30
0.0
 10
75.88294586131599
 20
96.04438816722403
 30
0.0
 10
76.10126309276922
 20
95.99741498225612
 30
0.0
 10
76.23917945527282
 20
95.96858084456994
 30
0.0
 10
76.56558549295089
 20
95.9048272775946
 30
0.0
 10
76.7552134623062
 20
95.86964819417115
 30
0.0
 10
77.19048364859427
 20
95.79648244146102
 30
0.0
  0
SPLINE
  5
1EF
330
1F
100
AcDbEntity
  8
0
  6
HIDDEN
 62
     7
370
     0
100
AcDbSpline
210
0.0
220
0.0
230
1.0
 70
    11
 71
     3
 72
    70
 73
    66
 74
     0
 42
0.00000001
 43
0.00000001
 12
1.0
 22
0.0
 32
0.0
 13
1.0
 23
0.0
 33
0.0
 40
-0.03125
 40
-0.03125
 40
0.0
 40
0.0
 40
0.0312499999999999
 40
0.0312499999999999
 40
0.0624999999999999
 40
0.0624999999999999
 40
0.0937499999999998
 40
0.0937499999999998
 40
0.1249999999999998
 40
0.1249999999999998
 40
0.1562499999999998
 40
0.1562499999999998
 40
0.1874999999999997
 40
0.1874999999999997
 40
0.2187499999999996
 40
0.2187499999999996
 40
0.2499999999999996
 40
0.2499999999999996
 40
0.2812499999999995
 40
0.2812499999999995
 40
0.3124999999999995
 40
0.3124999999999995
 40
0.3437499999999995
 40
0.3437499999999995
 40
0.3749999999999994
 40
0.3749999999999994
 40
0.4062499999999994
 40
0.4062499999999994
 40
0.4374999999999994
 40
0.4374999999999994
 40
0.4687499999999994
 40
0.4687499999999994
 40
0.4999999999999994
 40
0.4999999999999994
 40
0.5312499999999993
 40
0.5312499999999993
 40
0.5624999999999993
 40
0.5624999999999993
 40
0.5937499999999993
 40
0.5937499999999993
 40
0.6249999999999994
 40
0.6249999999999994
 40
0.6562499999999994
 40
0.6562499999999994
 40
0.6874999999999996
 40
0.6874999999999996
 40
0.7187499999999996
 40
0.7187499999999996
 40
0.7499999999999996
 40
0.7499999999999996
 40
0.7812499999999997
 40
0.7812499999999997
 40
0.8124999999999997
 40
0.8124999999999997
 40
0.8437499999999998
 40
0.8437499999999998
 40
0.8749999999999998
 40
0.8749999999999998
 40
0.9062499999999999
 40
0.9062499999999999
 40
0.9374999999999999
 40
0.9374999999999999
 40
0.96875
 40
0.96875
 40
1.0
 40
1.0
 40
1.03125
 40
1.03125
 10
84.86972589187253
 20
108.4767601569391
 30
0.0
 10
84.86972589187253
 20
108.4767601569391
 30
0.0
 10
84.84147576331064
 20
108.4633483353041
 30
0.0
 10
84.73151865191385
 20
108.4129480441853
 30
0.0
 10
84.64832469655585
 20
108.3753370031036
 30
0.0
 10
84.43419324940984
 20
108.2840527693445
 30
0.0
 10
84.30367408164888
 20
108.2305440988283
 30
0.0
 10
83.9958594696091
 20
108.1144076225993
 30
0.0
 10
83.81943341685538
 20
108.0522489886049
 30
0.0
 10
83.4325776938359
 20
107.9303085563707
 30
0.0
 10
83.2196664602116
 20
107.8696778116687
 30
0.0
 10
82.758718264193
 20
107.7572562145598
 30
0.0
 10
82.51601403284248
 20
107.7067286722133
 30
0.0
 10
82.0057089673812
 20
107.6218295824705
 30
0.0
 10
81.73447939361292
 20
107.5871870597748
 30
0.0
 10
81.18423837649937
 20
107.5408232910274
 30
0.0
 10
80.90613178804324
 20
107.5288433652649
 30
0.0
 10
80.34387179986194
 20
107.5285467223595
 30
0.0
 10
80.05884480400377
 20
107.540644618756
 30
0.0
 10
79.51045402002983
 20
107.5865999590418
 30
0.0
 10
79.2427041608514
 20
107.620479985995
 30
0.0
 10
78.7248498951152
 20
107.7063552412225
 30
0.0
 10
78.48162422039668
 20
107.7571040551709
 30
0.0
 10
78.02408253339536
 20
107.8685654146507
 30
0.0
 10
77.8082243336477
 20
107.929899665167
 30
0.0
 10
77.42016026934195
 20
108.0521876059566
 30
0.0
 10
77.24620368730676
 20
108.1134703641494
 30
0.0
 10
76.93823113324406
 20
108.2295712220615
 30
0.0
 10
76.80554014475915
 20
108.283943731299
 30
0.0
 10
76.59244870038148
 20
108.3747626694827
 30
0.0
 10
76.51026857279946
 20
108.4118867498005
 30
0.0
 10
76.39807463092696
 20
108.4632941472767
 30
0.0
 10
76.3701188791627
 20
108.4765756445333
 30
0.0
 10
76.36934110576615
 20
108.4769408187852
 30
0.0
 10
76.39720502093145
 20
108.4637063839062
 30
0.0
 10
76.50744367173
 20
108.4131677967282
 30
0.0
 10
76.5888044491731
 20
108.3763595030043
 30
0.0
 10
76.80292687052601
 20
108.2850150940488
 30
0.0
 10
76.93552785926897
 20
108.2306615985788
 30
0.0
 10
77.24136337082648
 20
108.115225540498
 30
0.0
 10
77.41701072707289
 20
108.0532267269299
 30
0.0
 10
77.80724945576458
 20
107.9301607343475
 30
0.0
 10
78.01873634877957
 20
107.8700185422816
 30
0.0
 10
78.47500913052983
 20
107.7585687043867
 30
0.0
 10
78.72293771231493
 20
107.7067939246988
 30
0.0
 10
79.2355881520565
 20
107.6215405610018
 30
0.0
 10
79.50092206114029
 20
107.5876513792177
 30
0.0
 10
80.05047373647675
 20
107.5411015766058
 30
0.0
 10
80.33552602944596
 20
107.5288016171301
 30
0.0
 10
80.89627645684803
 20
107.5285871497736
 30
0.0
 10
81.17575441356766
 20
107.5402688088628
 30
0.0
 10
81.73165892835763
 20
107.5867922500389
 30
0.0
 10
81.99842882754508
 20
107.620780119401
 30
0.0
 10
82.51132515389523
 20
107.705790588943
 30
0.0
 10
82.75944627249245
 20
107.7574509730564
 30
0.0
 10
83.2175631178467
 20
107.8691476717065
 30
0.0
 10
83.42945410759064
 20
107.9293545238356
 30
0.0
 10
83.81985063945666
 20
108.0523501618334
 30
0.0
 10
83.99593362845772
 20
108.1144545136158
 30
0.0
 10
84.30157942361117
 20
108.22973501105
 30
0.0
 10
84.4332382445536
 20
108.2836461593194
 30
0.0
 10
84.64920639522171
 20
108.375712362873
 30
0.0
 10
84.73054171005678
 20
108.4125061888507
 30
0.0
 10
84.84084645576384
 20
108.4630540309135
 30
0.0
 10
84.86972589187253
 20
108.4767601569391
 30
0.0
 10
84.86972589187253
 20
108.4767601569391
 30
0.0
  0
SPLINE
  5
1F0
330
1F
100
AcDbEntity
  8
0
  6
HIDDEN
 62
     7
370
     0
100
AcDbSpline
210
0.0
220
0.0
230
1.0
 70
    11
 71
     3
 72
    70
 73
    66
 74
     0
 42
0.00000001
 43
0.00000001
 12
1.0
 22
0.0
 32
0.0
 13
1.0
 23
0.0
 33
0.0
 40
-0.03125
 40
-0.03125
 40
0.0
 40
0.0
 40
0.03125
 40
0.03125
 40
0.0625
 40
0.0625
 40
0.09375
 40
0.09375
 40
0.125
 40
0.125
 40
0.15625
 40
0.15625
 40
0.1875
 40
0.1875
 40
0.21875
 40
0.21875
 40
0.25
 40
0.25
 40
0.28125
 40
0.28125
 40
0.3125
 40
0.3125
 40
0.34375
 40
0.34375
 40
0.375
 40
0.375
 40
0.40625
 40
0.40625
 40
0.4375
 40
0.4375
 40
0.46875
 40
0.46875
 40
0.5
 40
0.5
 40
0.53125
 40
0.53125
 40
0.5625
 40
0.5625
 40
0.59375
 40
0.59375
 40
0.625
 40
0.625
 40
0.65625
 40
0.65625
 40
0.6875
 40
0.6875
 40
0.71875
 40
0.71875
 40
0.75
 40
0.75
 40
0.78125
 40
0.78125
 40
0.8125
 40
0.8125
 40
0.84375
 40
0.84375
 40
0.875
 40
0.875
 40
0.90625
 40
0.90625
 40
0.9375
 40
0.9375
 40
0.96875
 40
0.96875
 40
1.0
 40
1.0
 40
1.03125
 40
1.03125
 10
76.36972589187266
 20
126.5806271471708
 30
0.0
 10
76.36972589187266
 20
126.5806271471708
 30
0.0
 10
76.39797602043457
 20
126.5940389688057
 30
0.0
 10
76.50793313183135
 20
126.6444392599246
 30
0.0
 10
76.59112708718934
 20
126.6820503010063
 30
0.0
 10
76.80525853433535
 20
126.7733345347653
 30
0.0
 10
76.93577770209632
 20
126.8268432052815
 30
0.0
 10
77.2435923141361
 20
126.9429796815106
 30
0.0
 10
77.42001836688983
 20
127.005138315505
 30
0.0
 10
77.8068740899093
 20
127.1270787477391
 30
0.0
 10
78.0197853235336
 20
127.1877094924412
 30
0.0
 10
78.48073351955219
 20
127.3001310895501
 30
0.0
 10
78.72343775090272
 20
127.3506586318966
 30
0.0
 10
79.233742816364
 20
127.4355577216393
 30
0.0
 10
79.50497239013228
 20
127.4702002443351
 30
0.0
 10
80.05521340724583
 20
127.5165640130824
 30
0.0
 10
80.33331999570197
 20
127.528543938845
 30
0.0
 10
80.89557998388328
 20
127.5288405817504
 30
0.0
 10
81.18060697974143
 20
127.5167426853538
 30
0.0
 10
81.7289977637154
 20
127.470787345068
 30
0.0
 10
81.9967476228938
 20
127.4369073181148
 30
0.0
 10
82.51460188863
 20
127.3510320628873
 30
0.0
 10
82.75782756334851
 20
127.3002832489389
 30
0.0
 10
83.21536925034984
 20
127.1888218894591
 30
0.0
 10
83.4312274500975
 20
127.1274876389428
 30
0.0
 10
83.81929151440325
 20
127.0051996981532
 30
0.0
 10
83.99324809643842
 20
126.9439169399603
 30
0.0
 10
84.30122065050114
 20
126.8278160820483
 30
0.0
 10
84.43391163898603
 20
126.7734435728108
 30
0.0
 10
84.64700308336371
 20
126.6826246346271
 30
0.0
 10
84.72918321094573
 20
126.6455005543093
 30
0.0
 10
84.84137715281824
 20
126.5940931568331
 30
0.0
 10
84.86933290458249
 20
126.5808116595766
 30
0.0
 10
84.87011067797903
 20
126.5804464853246
 30
0.0
 10
84.84224676281374
 20
126.5936809202036
 30
0.0
 10
84.7320081120152
 20
126.6442195073816
 30
0.0
 10
84.65064733457208
 20
126.6810278011055
 30
0.0
 10
84.43652491321919
 20
126.772372210061
 30
0.0
 10
84.30392392447622
 20
126.826725705531
 30
0.0
 10
83.99808841291872
 20
126.9421617636119
 30
0.0
 10
83.8224410566723
 20
127.0041605771799
 30
0.0
 10
83.43220232798062
 20
127.1272265697623
 30
0.0
 10
83.22071543496564
 20
127.1873687618282
 30
0.0
 10
82.76444265321538
 20
127.2988185997231
 30
0.0
 10
82.51651407143028
 20
127.350593379411
 30
0.0
 10
82.00386363168872
 20
127.4358467431081
 30
0.0
 10
81.73852972260491
 20
127.4697359248921
 30
0.0
 10
81.18897804726845
 20
127.516285727504
 30
0.0
 10
80.90392575429924
 20
127.5285856869798
 30
0.0
 10
80.34317532689717
 20
127.5288001543362
 30
0.0
 10
80.06369737017754
 20
127.517118495247
 30
0.0
 10
79.50779285538758
 20
127.470595054071
 30
0.0
 10
79.24102295620013
 20
127.4366071847088
 30
0.0
 10
78.72812662984997
 20
127.3515967151669
 30
0.0
 10
78.48000551125276
 20
127.2999363310534
 30
0.0
 10
78.0218886658985
 20
127.1882396324033
 30
0.0
 10
77.80999767615455
 20
127.1280327802743
 30
0.0
 10
77.41960114428855
 20
127.0050371422765
 30
0.0
 10
77.24351815528746
 20
126.942932790494
 30
0.0
 10
76.93787236013402
 20
126.8276522930598
 30
0.0
 10
76.80621353919159
 20
126.7737411447904
 30
0.0
 10
76.5902453885235
 20
126.6816749412369
 30
0.0
 10
76.5089100736884
 20
126.6448811152592
 30
0.0
 10
76.39860532798136
 20
126.5943332731964
 30
0.0
 10
76.36972589187266
 20
126.5806271471708
 30
0.0
 10
76.36972589187266
 20
126.5806271471708
 30
0.0
  0
LINE
  5
1F1
330
1F
100
AcDbEntity
  8
0
  6
HIDDEN
 62
     7
370
     0
100
AcDbLine
 10
76.4481965727
 20
139.5286935328
 30
0.0
 11
84.791255211
 21
139.5286935328
 31
0.0
  0
LINE
  5
1F2
330
1F
100
AcDbEntity
  8
0
  6
HIDDEN
 62
     7
370
     0
100
AcDbLine
 10
75.623210547
 20
139.0506475179
 30
0.0
 11
85.6162412367
 21
139.0506475179
 31
0.0
  0
LINE
  5
1F3
330
1F
100
AcDbEntity
  8
0
  6
HIDDEN
 62
     7
370
     0
100
AcDbLine
 10
75.623210547
 20
129.0286936744
 30
0.0
 11
85.6162412367
 21
129.0286936744
 31
0.0
  0
LINE
  5
1F4
330
1F
100
AcDbEntity
  8
0
  6
HIDDEN
 62
     7
370
     0
100
AcDbLine
 10
77.1201208974
 20
127.5286934285
 30
0.0
 11
84.1084826081
 21
127.5286934285
 31
0.0
  0
LINE
  5
1F5
330
1F
100
AcDbEntity
  8
0
  6
HIDDEN
 62
     7
370
     0
100
AcDbLine
 10
79.1389539647
 20
139.5286935328
 30
0.0
 11
82.0253795521
 21
139.5286935328
 31
0.0
  0
LINE
  5
1F6
330
1F
100
AcDbEntity
  8
0
  6
HIDDEN
 62
     7
370
     0
100
AcDbLine
 10
79.1389539647
 20
133.528694412
 30
0.0
 11
82.0253795521
 21
133.528694412
 31
0.0
  0
LINE
  5
1F7
330
1F
100
AcDbEntity
  8
0
  6
HIDDEN
 62
     7
370
     0
100
AcDbLine
 10
83.5061513628
 20
133.528694412
 30
0.0
 11
82.0253795521
 21
133.528694412
 31
0.0
  0
LINE
  5
1F8
330
1F
100
AcDbEntity
  8
0
  6
HIDDEN
 62
     7
370
     0
100
AcDbLine
 10
82.0253795521
 20
133.528694412
 30
0.0
 11
82.0253795521
 21
139.5286935328
 31
0.0
  0
LINE
  5
1F9
330
1F
100
AcDbEntity
  8
0
  6
HIDDEN
 62
     7
370
     0
100
AcDbLine
 10
83.5061513628
 20
139.5286935328
 30
0.0
 11
82.0253795521
 21
139.5286935328
 31
0.0
  0
LINE
  5
1FA
330
1F
100
AcDbEntity
  8
0
  6
HIDDEN
 62
     7
370
     0
100
AcDbLine
 10
79.1389539647
 20
133.528694412
 30
0.0
 11
77.7333004209
 21
133.528694412
 31
0.0
  0
LINE
  5
1FB
330
1F
100
AcDbEntity
  8
0
  6
HIDDEN
 62
     7
370
     0
100
AcDbLine
 10
79.1389539647
 20
133.528694412
 30
0.0
 11
79.1389539647
 21
139.5286935328
 31
0.0
  0
LINE
  5
1FC
330
1F
100
AcDbEntity
  8
0
  6
HIDDEN
 62
     7
370
     0
100
AcDbLine
 10
79.1389539647
 20
139.5286935328
 30
0.0
 11
77.7333004209
 21
139.5286935328
 31
0.0
  0
LINE
  5
1FD
330
1F
100
AcDbEntity
  8
0
  6
HIDDEN
 62
     7
370
     0
100
AcDbLine
 10
82.100497819
 20
133.528694412
 30
0.0
 11
82.100497819
 21
139.5286935328
 31
0.0
  0
LINE
  5
1FE
330
1F
100
AcDbEntity
  8
0
  6
HIDDEN
 62
     7
370
     0
100
AcDbLine
 10
83.5061513628
 20
133.528694412
 30
0.0
 11
83.5061513628
 21
139.5286935328
 31
0.0
  0
LINE
  5
1FF
330
1F
100
AcDbEntity
  8
0
  6
HIDDEN
 62
     7
370
     0
100
AcDbLine
 10
83.5061513628
 20
133.528694412
 30
0.0
 11
82.100497819
 21
133.528694412
 31
0.0
  0
LINE
  5
200
330
1F
100
AcDbEntity
  8
0
  6
HIDDEN
 62
     7
370
     0
100
AcDbLine
 10
83.5061513628
 20
139.5286935328
 30
0.0
 11
82.100497819
 21
139.5286935328
 31
0.0
  0
LINE
  5
201
330
1F
100
AcDbEntity
  8
0
  6
HIDDEN
 62
     7
370
     0
100
AcDbLine
 10
79.2140722317
 20
133.528694412
 30
0.0
 11
79.2140722317
 21
139.5286935328
 31
0.0
  0
LINE
  5
202
330
1F
100
AcDbEntity
  8
0
  6
HIDDEN
 62
     7
370
     0
100
AcDbLine
 10
77.7333004209
 20
133.528694412
 30
0.0
 11
77.7333004209
 21
139.5286935328
 31
0.0
  0
LINE
  5
203
330
1F
100
AcDbEntity
  8
0
  6
HIDDEN
 62
     7
370
     0
100
AcDbLine
 10
77.7333004209
 20
133.528694412
 30
0.0
 11
79.2140722317
 21
133.528694412
 31
0.0
  0
LINE
  5
204
330
1F
100
AcDbEntity
  8
0
  6
HIDDEN
 62
     7
370
     0
100
AcDbLine
 10
77.7333004209
 20
139.5286935328
 30
0.0
 11
79.2140722317
 21
139.5286935328
 31
0.0
  0
LINE
  5
205
330
1F
100
AcDbEntity
  8
0
  6
HIDDEN
 62
     7
370
     0
100
AcDbLine
 10
82.100497819
 20
133.528694412
 30
0.0
 11
79.2140722317
 21
133.528694412
 31
0.0
  0
LINE
  5
206
330
1F
100
AcDbEntity
  8
0
  6
HIDDEN
 62
     7
370
     0
100
AcDbLine
 10
82.100497819
 20
139.5286935328
 30
0.0
 11
79.2140722317
 21
139.5286935328
 31
0.0
  0
LINE
  5
207
330
1F
100
AcDbEntity
  8
0
  6
HIDDEN
 62
     7
370
     0
100
AcDbLine
 10
85.1810300066
 20
96.0067397862
 30
0.0
 11
76.0584217771
 21
96.0067397862
 31
0.0
  0
LINE
  5
208
330
1F
100
AcDbEntity
  8
0
  6
HIDDEN
 62
     7
370
     0
100
AcDbLine
 10
75.6197260036
 20
96.0067397862
 30
0.0
 11
85.6197257801
 21
96.0067397862
 31
0.0
  0
LINE
  5
209
330
1F
100
AcDbEntity
  8
0
  6
HIDDEN
 62
     7
370
     0
100
AcDbLine
 10
75.6197260036
 20
106.0286936297
 30
0.0
 11
85.6197257801
 21
106.0286936297
 31
0.0
  0
LINE
  5
20A
330
1F
100
AcDbEntity
  8
0
  6
HIDDEN
 62
     7
370
     0
100
AcDbLine
 10
76.4477257892
 20
95.5286937713
 30
0.0
 11
84.7917259946
 21
95.5286937713
 31
0.0
  0
LINE
  5
20B
330
1F
100
AcDbEntity
  8
0
  6
HIDDEN
 62
     7
370
     0
100
AcDbLine
 10
77.1197257838
 20
107.5286938756
 30
0.0
 11
84.1197259999
 21
107.5286938756
 31
0.0
  0
LINE
  5
20C
330
1F
100
AcDbEntity
  8
0
  6
HIDDEN
 62
     7
370
     0
100
AcDbLine
 10
79.176350175
 20
95.5286937713
 30
0.0
 11
77.732974458
 21
95.5286937713
 31
0.0
  0
LINE
  5
20D
330
1F
100
AcDbEntity
  8
0
  6
HIDDEN
 62
     7
370
     0
100
AcDbLine
 10
79.176350175
 20
101.5286928921
 30
0.0
 11
79.176350175
 21
95.5286937713
 31
0.0
  0
LINE
  5
20E
330
1F
100
AcDbEntity
  8
0
  6
HIDDEN
 62
     7
370
     0
100
AcDbLine
 10
82.0631016088
 20
95.5286937713
 30
0.0
 11
79.176350175
 21
95.5286937713
 31
0.0
  0
LINE
  5
20F
330
1F
100
AcDbEntity
  8
0
  6
HIDDEN
 62
     7
370
     0
100
AcDbLine
 10
82.0631016088
 20
101.5286928921
 30
0.0
 11
79.176350175
 21
101.5286928921
 31
0.0
  0
LINE
  5
210
330
1F
100
AcDbEntity
  8
0
  6
HIDDEN
 62
     7
370
     0
100
AcDbLine
 10
79.176350175
 20
101.5286928921
 30
0.0
 11
77.732974458
 21
101.5286928921
 31
0.0
  0
LINE
  5
211
330
1F
100
AcDbEntity
  8
0
  6
HIDDEN
 62
     7
370
     0
100
AcDbLine
 10
82.0631016088
 20
101.5286928921
 30
0.0
 11
83.5064773257
 21
101.5286928921
 31
0.0
  0
LINE
  5
212
330
1F
100
AcDbEntity
  8
0
  6
HIDDEN
 62
     7
370
     0
100
AcDbLine
 10
82.0631016088
 20
101.5286928921
 30
0.0
 11
82.0631016088
 21
95.5286937713
 31
0.0
  0
LINE
  5
213
330
1F
100
AcDbEntity
  8
0
  6
HIDDEN
 62
     7
370
     0
100
AcDbLine
 10
82.0631016088
 20
95.5286937713
 30
0.0
 11
83.5064773257
 21
95.5286937713
 31
0.0
  0
LINE
  5
214
330
1F
100
AcDbEntity
  8
0
  6
HIDDEN
 62
     7
370
     0
100
AcDbLine
 10
77.732974458
 20
101.5286928921
 30
0.0
 11
77.732974458
 21
95.5286937713
 31
0.0
  0
LINE
  5
215
330
1F
100
AcDbEntity
  8
0
  6
HIDDEN
 62
     7
370
     0
100
AcDbLine
 10
83.5064773257
 20
101.5286928921
 30
0.0
 11
83.5064773257
 21
95.5286937713
 31
0.0
  0
LINE
  5
216
330
1F
100
AcDbEntity
  8
0
  6
HIDDEN
 62
     7
370
     0
100
AcDbLine
 10
102.1416797578
 20
122.0899977668
 30
0.0
 11
102.1416797578
 21
112.9673895373
 31
0.0
  0
LINE
  5
217
330
1F
100
AcDbEntity
  8
0
  6
HIDDEN
 62
     7
370
     0
100
AcDbLine
 10
102.1416797578
 20
112.5286937638
 30
0.0
 11
102.1416797578
 21
122.5286935403
 31
0.0
  0
LINE
  5
218
330
1F
100
AcDbEntity
  8
0
  6
HIDDEN
 62
     7
370
     0
100
AcDbLine
 10
92.1197259142
 20
112.5286937638
 30
0.0
 11
92.1197259142
 21
122.5286935403
 31
0.0
  0
LINE
  5
219
330
1F
100
AcDbEntity
  8
0
  6
HIDDEN
 62
     7
370
     0
100
AcDbLine
 10
102.6197257727
 20
113.3566935494
 30
0.0
 11
102.6197257727
 21
121.7006937548
 31
0.0
  0
LINE
  5
21A
330
1F
100
AcDbEntity
  8
0
  6
HIDDEN
 62
     7
370
     0
100
AcDbLine
 10
90.6197256684
 20
114.028693544
 30
0.0
 11
90.6197256684
 21
121.0286937601
 31
0.0
  0
LINE
  5
21B
330
1F
100
AcDbEntity
  8
0
  6
HIDDEN
 62
     7
370
     0
100
AcDbLine
 10
102.6197257727
 20
116.0853179351
 30
0.0
 11
102.6197257727
 21
114.6419422182
 31
0.0
  0
LINE
  5
21C
330
1F
100
AcDbEntity
  8
0
  6
HIDDEN
 62
     7
370
     0
100
AcDbLine
 10
96.6197266518
 20
116.0853179351
 30
0.0
 11
102.6197257727
 21
116.0853179351
 31
0.0
  0
LINE
  5
21D
330
1F
100
AcDbEntity
  8
0
  6
HIDDEN
 62
     7
370
     0
100
AcDbLine
 10
102.6197257727
 20
118.972069369
 30
0.0
 11
102.6197257727
 21
116.0853179351
 31
0.0
  0
LINE
  5
21E
330
1F
100
AcDbEntity
  8
0
  6
HIDDEN
 62
     7
370
     0
100
AcDbLine
 10
96.6197266518
 20
118.972069369
 30
0.0
 11
96.6197266518
 21
116.0853179351
 31
0.0
  0
LINE
  5
21F
330
1F
100
AcDbEntity
  8
0
  6
HIDDEN
 62
     7
370
     0
100
AcDbLine
 10
96.6197266518
 20
116.0853179351
 30
0.0
 11
96.6197266518
 21
114.6419422182
 31
0.0
  0
LINE
  5
220
330
1F
100
AcDbEntity
  8
0
  6
HIDDEN
 62
     7
370
     0
100
AcDbLine
 10
96.6197266518
 20
118.972069369
 30
0.0
 11
96.6197266518
 21
120.4154450859
 31
0.0
  0
LINE
  5
221
330
1F
100
AcDbEntity
  8
0
  6
HIDDEN
 62
     7
370
     0
100
AcDbLine
 10
96.6197266518
 20
118.972069369
 30
0.0
 11
102.6197257727
 21
118.972069369
 31
0.0
  0
LINE
  5
222
330
1F
100
AcDbEntity
  8
0
  6
HIDDEN
 62
     7
370
     0
100
AcDbLine
 10
102.6197257727
 20
118.972069369
 30
0.0
 11
102.6197257727
 21
120.4154450859
 31
0.0
  0
LINE
  5
223
330
1F
100
AcDbEntity
  8
0
  6
HIDDEN
 62
     7
370
     0
100
AcDbLine
 10
96.6197266518
 20
114.6419422182
 30
0.0
 11
102.6197257727
 21
114.6419422182
 31
0.0
  0
LINE
  5
224
330
1F
100
AcDbEntity
  8
0
  6
HIDDEN
 62
     7
370
     0
100
AcDbLine
 10
96.6197266518
 20
120.4154450859
 30
0.0
 11
102.6197257727
 21
120.4154450859
 31
0.0
  0
LINE
  5
225
330
1F
100
AcDbEntity
  8
0
  6
HIDDEN
 62
     7
370
     0
100
AcDbLine
 10
102.0550779342
 20
122.4640467151
 30
0.0
 11
101.3697251021
 21
121.778693883
 31
0.0
  0
LINE
  5
226
330
1F
100
AcDbEntity
  8
0
  6
HIDDEN
 62
     7
370
     0
100
AcDbLine
 10
101.3697251021
 20
113.2786934211
 30
0.0
 11
102.0541987657
 21
112.5942197575
 31
0.0
  0
LINE
  5
227
330
1F
100
AcDbEntity
  8
0
  6
HIDDEN
 62
     7
370
     0
100
AcDbLine
 10
85.5550789549
 20
96.0933416097
 30
0.0
 11
84.8697261228
 21
96.7786944418
 31
0.0
  0
LINE
  5
228
330
1F
100
AcDbEntity
  8
0
  6
HIDDEN
 62
     7
370
     0
100
AcDbLine
 10
76.3697256609
 20
96.7786944418
 30
0.0
 11
75.6852519973
 21
96.0942207782
 31
0.0
  0
LINE
  5
229
330
1F
100
AcDbEntity
  8
0
  6
HIDDEN
 62
     7
370
     0
100
AcDbLine
 10
75.6843728288
 20
138.9640456944
 30
0.0
 11
76.3697256609
 21
138.2786928623
 31
0.0
  0
LINE
  5
22A
330
1F
100
AcDbEntity
  8
0
  6
HIDDEN
 62
     7
370
     0
100
AcDbLine
 10
84.8697261228
 20
138.2786928623
 30
0.0
 11
85.5541997864
 21
138.9631665259
 31
0.0
  0
LINE
  5
22B
330
1F
100
AcDbEntity
  8
0
  6
HIDDEN
 62
     7
370
     0
100
AcDbLine
 10
101.3697251021
 20
121.778693883
 30
0.0
 11
89.6716597765
 21
121.778693883
 31
0.0
  0
LINE
  5
22C
330
1F
100
AcDbEntity
  8
0
  6
HIDDEN
 62
     7
370
     0
100
AcDbLine
 10
89.6756905406
 20
113.2786934211
 30
0.0
 11
101.3697251021
 21
113.2786934211
 31
0.0
  0
LINE
  5
22D
330
1F
100
AcDbEntity
  8
0
  6
HIDDEN
 62
     7
370
     0
100
AcDbLine
 10
76.3697256609
 20
138.2786928623
 30
0.0
 11
76.3697256609
 21
126.5806275367
 31
0.0
  0
LINE
  5
22E
330
1F
100
AcDbEntity
  8
0
  6
HIDDEN
 62
     7
370
     0
100
AcDbLine
 10
84.8697261228
 20
126.5846583008
 30
0.0
 11
84.8697261228
 21
138.2786928623
 31
0.0
  0
LINE
  5
22F
330
1F
100
AcDbEntity
  8
0
  6
HIDDEN
 62
     7
370
     0
100
AcDbLine
 10
84.8697261228
 20
96.7786944418
 30
0.0
 11
84.8697261228
 21
108.4767597674
 31
0.0
  0
LINE
  5
230
330
1F
100
AcDbEntity
  8
0
  6
HIDDEN
 62
     7
370
     0
100
AcDbLine
 10
76.3697256609
 20
108.4727290033
 30
0.0
 11
76.3697256609
 21
96.7786944418
 31
0.0
  0
LINE
  5
231
330
1F
100
AcDbEntity
  8
0
  6
HIDDEN
 62
     7
370
     0
100
AcDbLine
 10
85.5550789549
 20
96.0933416097
 30
0.0
 11
84.8697261228
 21
96.7786944418
 31
0.0
  0
LINE
  5
232
330
1F
100
AcDbEntity
  8
0
  6
HIDDEN
 62
     7
370
     0
100
AcDbLine
 10
76.3697256609
 20
96.7786944418
 30
0.0
 11
75.6852519973
 21
96.0942207782
 31
0.0
  0
LINE
  5
233
330
1F
100
AcDbEntity
  8
0
  6
HIDDEN
 62
     7
370
     0
100
AcDbLine
 10
75.6843728288
 20
138.9640456944
 30
0.0
 11
76.3697256609
 21
138.2786928623
 31
0.0
  0
LINE
  5
234
330
1F
100
AcDbEntity
  8
0
  6
HIDDEN
 62
     7
370
     0
100
AcDbLine
 10
84.8697261228
 20
138.2786928623
 30
0.0
 11
85.5541997864
 21
138.9631665259
 31
0.0
  0
LINE
  5
235
330
1F
100
AcDbEntity
  8
0
  6
HIDDEN
 62
     7
370
     0
100
AcDbLine
 10
84.8697261228
 20
96.7786944418
 30
0.0
 11
84.8697261228
 21
108.4767597674
 31
0.0
  0
LINE
  5
236
330
1F
100
AcDbEntity
  8
0
  6
HIDDEN
 62
     7
370
     0
100
AcDbLine
 10
76.3697256609
 20
108.4727290033
 30
0.0
 11
76.3697256609
 21
96.7786944418
 31
0.0
  0
LINE
  5
237
330
1F
100
AcDbEntity
  8
0
  6
HIDDEN
 62
     7
370
     0
100
AcDbLine
 10
76.3697256609
 20
138.2786928623
 30
0.0
 11
76.3697256609
 21
126.5806275367
 31
0.0
  0
LINE
  5
238
330
1F
100
AcDbEntity
  8
0
  6
HIDDEN
 62
     7
370
     0
100
AcDbLine
 10
84.8697261228
 20
126.5846583008
 30
0.0
 11
84.8697261228
 21
138.2786928623
 31
0.0
  0
LINE
  5
239
330
1F
100
AcDbEntity
  8
0
  6
HIDDEN
 62
     7
370
     0
100
AcDbLine
 10
75.6843728288
 20
138.9640456944
 30
0.0
 11
76.3697256609
 21
138.2786928623
 31
0.0
  0
LINE
  5
23A
330
1F
100
AcDbEntity
  8
0
  6
HIDDEN
 62
     7
370
     0
100
AcDbLine
 10
84.8697261228
 20
138.2786928623
 30
0.0
 11
85.5541997864
 21
138.9631665259
 31
0.0
  0
LINE
  5
23B
330
1F
100
AcDbEntity
  8
0
  6
HIDDEN
 62
     7
370
     0
100
AcDbLine
 10
85.5550789549
 20
96.0933416097
 30
0.0
 11
84.8697261228
 21
96.7786944418
 31
0.0
  0
LINE
  5
23C
330
1F
100
AcDbEntity
  8
0
  6
HIDDEN
 62
     7
370
     0
100
AcDbLine
 10
76.3697256609
 20
96.7786944418
 30
0.0
 11
75.6852519973
 21
96.0942207782
 31
0.0
  0
LINE
  5
23D
330
1F
100
AcDbEntity
  8
0
  6
HIDDEN
 62
     7
370
     0
100
AcDbLine
 10
84.8697261228
 20
96.7786944418
 30
0.0
 11
84.8697261228
 21
108.4767597674
 31
0.0
  0
LINE
  5
23E
330
1F
100
AcDbEntity
  8
0
  6
HIDDEN
 62
     7
370
     0
100
AcDbLine
 10
76.3697256609
 20
108.4727290033
 30
0.0
 11
76.3697256609
 21
96.7786944418
 31
0.0
  0
LINE
  5
23F
330
1F
100
AcDbEntity
  8
0
  6
HIDDEN
 62
     7
370
     0
100
AcDbLine
 10
76.3697256609
 20
138.2786928623
 30
0.0
 11
76.3697256609
 21
126.5806275367
 31
0.0
  0
LINE
  5
240
330
1F
100
AcDbEntity
  8
0
  6
HIDDEN
 62
     7
370
     0
100
AcDbLine
 10
84.8697261228
 20
126.5846583008
 30
0.0
 11
84.8697261228
 21
138.2786928623
 31
0.0
  0
LINE
  5
241
330
1F
100
AcDbEntity
  8
0
  6
HIDDEN
 62
     7
370
     0
100
AcDbLine
 10
85.6197257801
 20
139.0506475179
 30
0.0
 11
84.7917259946
 21
139.5286935328
 31
0.0
  0
LINE
  5
242
330
1F
100
AcDbEntity
  8
0
  6
HIDDEN
 62
     7
370
     0
100
AcDbLine
 10
76.4477257892
 20
139.5286935328
 30
0.0
 11
75.6197260036
 21
139.0506475179
 31
0.0
  0
LINE
  5
243
330
1F
100
AcDbEntity
  8
0
  6
HIDDEN
 62
     7
370
     0
100
AcDbLine
 10
75.6197260036
 20
139.0506475179
 30
0.0
 11
75.6197260036
 21
129.0286936744
 31
0.0
  0
LINE
  5
244
330
1F
100
AcDbEntity
  8
0
  6
HIDDEN
 62
     7
370
     0
100
AcDbLine
 10
85.6197257801
 20
129.0286936744
 30
0.0
 11
85.6197257801
 21
139.0506475179
 31
0.0
  0
LINE
  5
245
330
1F
100
AcDbEntity
  8
0
  6
HIDDEN
 62
     7
370
     0
100
AcDbLine
 10
75.6197260036
 20
129.0286936744
 30
0.0
 11
77.1197257838
 21
127.5286934285
 31
0.0
  0
LINE
  5
246
330
1F
100
AcDbEntity
  8
0
  6
HIDDEN
 62
     7
370
     0
100
AcDbLine
 10
84.1197259999
 20
127.5286934285
 30
0.0
 11
85.6197257801
 21
129.0286936744
 31
0.0
  0
LINE
  5
247
330
1F
100
AcDbEntity
  8
0
  6
HIDDEN
 62
     7
370
     0
100
AcDbLine
 10
85.6197257801
 20
96.1044075846
 30
0.0
 11
85.6197257801
 21
106.0286936297
 31
0.0
  0
LINE
  5
248
330
1F
100
AcDbEntity
  8
0
  6
HIDDEN
 62
     7
370
     0
100
AcDbLine
 10
75.6197260036
 20
106.0286936297
 30
0.0
 11
75.6197260036
 21
96.1044075846
 31
0.0
  0
LINE
  5
249
330
1F
100
AcDbEntity
  8
0
  6
HIDDEN
 62
     7
370
     0
100
AcDbLine
 10
85.6197257801
 20
106.0286936297
 30
0.0
 11
84.1197259999
 21
107.5286938756
 31
0.0
  0
LINE
  5
24A
330
1F
100
AcDbEntity
  8
0
  6
HIDDEN
 62
     7
370
     0
100
AcDbLine
 10
77.1197257838
 20
107.5286938756
 30
0.0
 11
75.6197260036
 21
106.0286936297
 31
0.0
  0
LINE
  5
24B
330
1F
100
AcDbEntity
  8
0
  6
HIDDEN
 62
     7
370
     0
100
AcDbLine
 10
102.0440119594
 20
122.5286935403
 30
0.0
 11
92.1197259142
 21
122.5286935403
 31
0.0
  0
LINE
  5
24C
330
1F
100
AcDbEntity
  8
0
  6
HIDDEN
 62
     7
370
     0
100
AcDbLine
 10
92.1197259142
 20
112.5286937638
 30
0.0
 11
102.0440119594
 21
112.5286937638
 31
0.0
  0
LINE
  5
24D
330
1F
100
AcDbEntity
  8
0
  6
HIDDEN
 62
     7
370
     0
100
AcDbLine
 10
92.1197259142
 20
122.5286935403
 30
0.0
 11
90.6197256684
 21
121.0286937601
 31
0.0
  0
LINE
  5
24E
330
1F
100
AcDbEntity
  8
0
  6
HIDDEN
 62
     7
370
     0
100
AcDbLine
 10
90.6197256684
 20
114.028693544
 30
0.0
 11
92.1197259142
 21
112.5286937638
 31
0.0
  0
INSERT
  5
25A
330
1F
100
AcDbEntity
  8
VERMASSUNG
100
AcDbBlockReference
  2
SW_CENTERMARKSYMBOL_0
 10
80.6197258919
 20
117.5286936521
 30
0.0
  0
OLE2FRAME
  5
25B
330
1F
100
AcDbEntity
  8
0
100
AcDbOle2Frame
 70
     2
  3
Paintbrush-Bild
 10
13.8511154363
 20
38.264191557
 30
0.0
 11
51.6290888628
 21
31.9806341108
 31
0.0
 71
     2
 72
     0
 73
     1
 90
    12928
310
80552BED0767C5B32B40DDAF6807D121434000000000000000006FFBDDFB85D0
310
4940DDAF6807D121434000000000000000006FFBDDFB85D04940416F4BD60AFB
310
3F4000000000000000002BED0767C5B32B40416F4BD60AFB3F40000000000000
310
0000000000000100000000010000010000000100000000000100000000320000
310
D0CF11E0A1B11AE1000000000000000000000000000000003E000300FEFF0900
310
0600000000000000000000000100000001000000000000000010000002000000
310
01000000FEFFFFFF0000000000000000FFFFFFFFFFFFFFFFFFFFFFFFFFFFFFFF
310
FFFFFFFFFFFFFFFFFFFFFFFFFFFFFFFFFFFFFFFFFFFFFFFFFFFFFFFFFFFFFFFF
310
FFFFFFFFFFFFFFFFFFFFFFFFFFFFFFFFFFFFFFFFFFFFFFFFFFFFFFFFFFFFFFFF
310
FFFFFFFFFFFFFFFFFFFFFFFFFFFFFFFFFFFFFFFFFFFFFFFFFFFFFFFFFFFFFFFF
310
FFFFFFFFFFFFFFFFFFFFFFFFFFFFFFFFFFFFFFFFFFFFFFFFFFFFFFFFFFFFFFFF
310
FFFFFFFFFFFFFFFFFFFFFFFFFFFFFFFFFFFFFFFFFFFFFFFFFFFFFFFFFFFFFFFF
310
FFFFFFFFFFFFFFFFFFFFFFFFFFFFFFFFFFFFFFFFFFFFFFFFFFFFFFFFFFFFFFFF
310
FFFFFFFFFFFFFFFFFFFFFFFFFFFFFFFFFFFFFFFFFFFFFFFFFFFFFFFFFFFFFFFF
310
FFFFFFFFFFFFFFFFFFFFFFFFFFFFFFFFFFFFFFFFFFFFFFFFFFFFFFFFFFFFFFFF
310
FFFFFFFFFFFFFFFFFFFFFFFFFFFFFFFFFFFFFFFFFFFFFFFFFFFFFFFFFFFFFFFF
310
FFFFFFFFFFFFFFFFFFFFFFFFFFFFFFFFFFFFFFFFFFFFFFFFFFFFFFFFFFFFFFFF
310
FFFFFFFFFFFFFFFFFFFFFFFFFFFFFFFFFFFFFFFFFFFFFFFFFFFFFFFFFFFFFFFF
310
FFFFFFFFFFFFFFFFFFFFFFFFFFFFFFFFFFFFFFFFFFFFFFFFFFFFFFFFFFFFFFFF
310
FFFFFFFFFFFFFFFFFFFFFFFFFFFFFFFFFFFFFFFFFFFFFFFFFFFFFFFFFFFFFFFF
310
FDFFFFFFFEFFFFFFFEFFFFFFFEFFFFFF05000000060000000700000008000000
310
090000000A0000000B0000000C0000000D0000000E0000000F00000010000000
310
11000000120000001300000014000000150000001600000017000000FEFFFFFF
310
FFFFFFFFFFFFFFFFFFFFFFFFFFFFFFFFFFFFFFFFFFFFFFFFFFFFFFFFFFFFFFFF
310
FFFFFFFFFFFFFFFFFFFFFFFFFFFFFFFFFFFFFFFFFFFFFFFFFFFFFFFFFFFFFFFF
310
FFFFFFFFFFFFFFFFFFFFFFFFFFFFFFFFFFFFFFFFFFFFFFFFFFFFFFFFFFFFFFFF
310
FFFFFFFFFFFFFFFFFFFFFFFFFFFFFFFFFFFFFFFFFFFFFFFFFFFFFFFFFFFFFFFF
310
FFFFFFFFFFFFFFFFFFFFFFFFFFFFFFFFFFFFFFFFFFFFFFFFFFFFFFFFFFFFFFFF
310
FFFFFFFFFFFFFFFFFFFFFFFFFFFFFFFFFFFFFFFFFFFFFFFFFFFFFFFFFFFFFFFF
310
FFFFFFFFFFFFFFFFFFFFFFFFFFFFFFFFFFFFFFFFFFFFFFFFFFFFFFFFFFFFFFFF
310
FFFFFFFFFFFFFFFFFFFFFFFFFFFFFFFFFFFFFFFFFFFFFFFFFFFFFFFFFFFFFFFF
310
FFFFFFFFFFFFFFFFFFFFFFFFFFFFFFFFFFFFFFFFFFFFFFFFFFFFFFFFFFFFFFFF
310
FFFFFFFFFFFFFFFFFFFFFFFFFFFFFFFFFFFFFFFFFFFFFFFFFFFFFFFFFFFFFFFF
310
FFFFFFFFFFFFFFFFFFFFFFFFFFFFFFFFFFFFFFFFFFFFFFFFFFFFFFFFFFFFFFFF
310
FFFFFFFFFFFFFFFFFFFFFFFFFFFFFFFFFFFFFFFFFFFFFFFFFFFFFFFFFFFFFFFF
310
FFFFFFFFFFFFFFFFFFFFFFFFFFFFFFFFFFFFFFFFFFFFFFFFFFFFFFFFFFFFFFFF
310
52006F006F007400200045006E00740072007900000000000000000000000000
310
0000000000000000000000000000000000000000000000000000000000000000
310
16000500FFFFFFFFFFFFFFFF020000000A00030000000000C000000000000046
310
0000000000000000000000009069A48DEE4DCD0103000000C000000000000000
310
01004F006C006500000000000000000000000000000000000000000000000000
310
0000000000000000000000000000000000000000000000000000000000000000
310
0A000200FFFFFFFFFFFFFFFFFFFFFFFF00000000000000000000000000000000
310
0000000000000000000000000000000000000000000000001400000000000000
310
010043006F006D0070004F0062006A0000000000000000000000000000000000
310
0000000000000000000000000000000000000000000000000000000000000000
310
120002010100000003000000FFFFFFFF00000000000000000000000000000000
310
0000000000000000000000000000000000000000010000004D00000000000000
310
01004F006C006500310030004E00610074006900760065000000000000000000
310
0000000000000000000000000000000000000000000000000000000000000000
310
1A000200FFFFFFFFFFFFFFFFFFFFFFFF00000000000000000000000000000000
310
0000000000000000000000000000000000000000040000002426000000000000
310
FEFFFFFF02000000FEFFFFFFFFFFFFFFFFFFFFFFFFFFFFFFFFFFFFFFFFFFFFFF
310
FFFFFFFFFFFFFFFFFFFFFFFFFFFFFFFFFFFFFFFFFFFFFFFFFFFFFFFFFFFFFFFF
310
FFFFFFFFFFFFFFFFFFFFFFFFFFFFFFFFFFFFFFFFFFFFFFFFFFFFFFFFFFFFFFFF
310
FFFFFFFFFFFFFFFFFFFFFFFFFFFFFFFFFFFFFFFFFFFFFFFFFFFFFFFFFFFFFFFF
310
FFFFFFFFFFFFFFFFFFFFFFFFFFFFFFFFFFFFFFFFFFFFFFFFFFFFFFFFFFFFFFFF
310
FFFFFFFFFFFFFFFFFFFFFFFFFFFFFFFFFFFFFFFFFFFFFFFFFFFFFFFFFFFFFFFF
310
FFFFFFFFFFFFFFFFFFFFFFFFFFFFFFFFFFFFFFFFFFFFFFFFFFFFFFFFFFFFFFFF
310
FFFFFFFFFFFFFFFFFFFFFFFFFFFFFFFFFFFFFFFFFFFFFFFFFFFFFFFFFFFFFFFF
310
FFFFFFFFFFFFFFFFFFFFFFFFFFFFFFFFFFFFFFFFFFFFFFFFFFFFFFFFFFFFFFFF
310
FFFFFFFFFFFFFFFFFFFFFFFFFFFFFFFFFFFFFFFFFFFFFFFFFFFFFFFFFFFFFFFF
310
FFFFFFFFFFFFFFFFFFFFFFFFFFFFFFFFFFFFFFFFFFFFFFFFFFFFFFFFFFFFFFFF
310
FFFFFFFFFFFFFFFFFFFFFFFFFFFFFFFFFFFFFFFFFFFFFFFFFFFFFFFFFFFFFFFF
310
FFFFFFFFFFFFFFFFFFFFFFFFFFFFFFFFFFFFFFFFFFFFFFFFFFFFFFFFFFFFFFFF
310
FFFFFFFFFFFFFFFFFFFFFFFFFFFFFFFFFFFFFFFFFFFFFFFFFFFFFFFFFFFFFFFF
310
FFFFFFFFFFFFFFFFFFFFFFFFFFFFFFFFFFFFFFFFFFFFFFFFFFFFFFFFFFFFFFFF
310
FFFFFFFFFFFFFFFFFFFFFFFFFFFFFFFFFFFFFFFFFFFFFFFFFFFFFFFFFFFFFFFF
310
0100000200000000000000000000000000000000000000000000000000000000
310
0000000000000000000000000000000000000000000000000000000000000000
310
0100FEFF030A0000FFFFFFFF0A00030000000000C00000000000004607000000
310
5042727573680007000000504272757368000700000050427275736800F439B2
310
7100000000000000000000000000000000000000000000000000000000000000
310
0000000000000000000000000000000000000000000000000000000000000000
310
0000000000000000000000000000000000000000000000000000000000000000
310
0000000000000000000000000000000000000000000000000000000000000000
310
0000000000000000000000000000000000000000000000000000000000000000
310
0000000000000000000000000000000000000000000000000000000000000000
310
0000000000000000000000000000000000000000000000000000000000000000
310
0000000000000000000000000000000000000000000000000000000000000000
310
0000000000000000000000000000000000000000000000000000000000000000
310
0000000000000000000000000000000000000000000000000000000000000000
310
0000000000000000000000000000000000000000000000000000000000000000
310
0000000000000000000000000000000000000000000000000000000000000000
310
20260000424D0E260000000000003E00000028000000B40200006E0000000100
310
01000000000000000000130B0000130B00000200000002000000000000FFFFFF
310
FFFFFFFFFFFFFFFFFFFFFFFFFFFFFFFFFFFFFFFFFFFFFFFFFFFFFFFFFFFFFFFF
310
FFFFFFFFFFFFFFFFFFFFFFFFFFFFFFFFFFFFFFFFFFFFFFFFFFFFFFFFFFFFFFFF
310
FFFFFFFFFFFFFFFFFFFFFFFFFFFFFFFFFFFFFFFFFFFFFFFFF000FFFFFFFFFFFF
310
FFFFFFFFFFFFFFFFFFFFFFFFFFFFFFFFFFFFFFFFFFFFFFFFFFFFFFFFFFFFFFFF
310
FFFFFFFFFFFFFFFFFFFFFFFFFFFFFFFFFFFFFFFFFFFFFFFFFFFFFFFFFFFFFFFF
310
FFFFFFFFFFFFFFFFFFFFFFFFFFFFFFFFF000FFFFFFFFFFFFFFFFFFFFFFFFFFFF
310
FFFFFFFFFFFFFFFFFFFFFFFFFFFFFFFFFFFFFFFFFFFFFFFFFFFFFFFFFFFFFFFF
310
FFFFFFFFFFFFFFFFFFFFFFFFFFFFFFFFFFFFFFFFFFFFFFFFFFFFFFFFFFFFFFFF
310
FFFFFFFFFFFFFFFFF000FFFFFFFFFFFFFFFFFFFFFFFFFFFFFFFFFFFFFFFFFFFF
310
FFFFFFFFFFFFFFFFFFFFFFFFFFFFFFFFFFFFFFFFFFFFFFFFFFFFFFFFFFFFFFFF
310
FFFFFFFFFFFFFFFFFFFFFFFFFFFFFFFFFFFFFFFFFFFFFFFFFFFFFFFFFFFFFFFF
310
F000FFFFFFFFFFFFFFFFFFFFFFFFFFFFFFFFFFFFFFFFFFFFFFFFFFFFFFFFFFFF
310
FFFFFFFFFFFFFFFFFFFFFFFFFFFFFFFFFFFFFFFFFFFFFFFFFFFFFFFFFFFFFFFF
310
FFFFFFFFFFFFFFFFFFFFFFFFFFFFFFFFFFFFFFFFFFFFFFFFF000FFFFFFFFFFFF
310
FFFFFFFFFFFFFFFFFFFFFFFFFFFFFFFFFFFFFFFFFFFFFFFFFFFFFFFFFFFFFFFF
310
FFFFFFFFFFFFFFFFFFFFFFFFFFFFFFFFFFFFFFFFFFFFFFFFFFFFFFFFFFFFFFFF
310
FFFFFFFFFFFFFFFFFFFFFFFFFFFFFFFFF000FFFFFFFFFFFFFFFFFFFFFFFFFFFF
310
FFFFFFFFFFFFFFFFFFFFFFFFFFFFFFFFFFFFFFFFFFFFFFFFFFFFFFFFFFFFFFFF
310
FFFFFFFFFFFFFFFFFFFFFFFFFFFFFFFFFFFFFFFFFFFFFFFFFFFFFFFFFFFFFFFF
310
FFFFFFFFFFFFFFFFF000FFFFFFFFFFFFFFFFFFFFFFFFFFFFFFFFFFFFFFFFFFFF
310
FFFFFFFFFFFFFFFFFFFFFFFFFFFFFFFFFFFFFFFFFFFFFFFFFFFFFFFFFFFFFFFF
310
FFFFFFFFFFFFFFFFFFFFFFFFFFFFFFFFFFFFFFFFFFFFFFFFFFFFFFFFFFFFFFFF
310
F000FFFFFFFFFFFFFFFFFFFFFFFFFFFFFFFFFFFFFFFFFFFFFFFFFFFFFFFFFFFF
310
FFFFFFFFFFFFFFFFFFFFFFFFFFFFFFFFFFFFFFFFFFFFFFFFFFFFFFFFFFFFFFFF
310
FFFFFFFFFFFFFFFFFFFFFFFFFFFFFFFFFFFFFFFFFFFFFFFFF000FFFFFFFFFFFF
310
FFFFFFFFFFFFFFFFFFFFFFFFFFFFFFFFFFFFFFFFFFFFFFFFFFFFFFFFFFFFFFFF
310
FFFFFFFFFFFFFFFFFFFFFFFFFFFFFFFFFFFFFFFFFFFFFFFFFFFFFFFFFFFFFFFF
310
FFFFFFFFFFFFFFFFFFFFFFFFFFFFFFFFF000FFFFFFFFFFFFFFFFFFFFFFFFFFFF
310
FFFFFFFFFFFFFFFFFFFFFFFFFFFFFFFFFFFFFFFFFFFFFFFFFFFFFFFFFFFFFFFF
310
FFFFFFFFFFFFFFFFFFFFFFFFFFFFFFFFFFFFFFFFFFFFFFFFFFFFFFFFFFFFFFFF
310
FFFFFFFFFFFFFFFFF000FFFFFFFFFFFFFFFFFFFFFFFFFFFFFFFFFFFFFFFFFFFF
310
FFFFFFFFFFFFFFFFFFFFFFFFFFFFFFFFFFFFFFFFFFFFFFFFFFFFFFFFFFFFFFFF
310
FFFFFFFFFFFFFFFFFFFFFFFFFFFFFFFFFFFFFFFFFFFFFFFFFFFFFFFFFFFFFFFF
310
F000FFFFFFFFFFFFFFFFFFFFFFFFFFFFFFFFFFFFFFFFFFFFFFFFFFFFFFFFFFFF
310
FFFFFFFFFFFFFFFFFFFFFFFFFFFFFFFFFFFFFFFFFFFFFFFFFFFFFFFFFFFFFFFF
310
FFFFFFFFFFFFFFFFFFFFFFFFFFFFFFFFFFFFFFFFFFFFFFFFF000FFFFFFFFFFFF
310
FFFFFFFFFFFFFFFFFFFFFFFFFFFFFFFFFFFFFFFFFFFFFFFFFFFFFFFFFFFFFFFF
310
FFFFFFFFFFFFFFFFFFFFFFFFFFFFFFFFFFFFFFFFFFFFFFFFFFFFFFFFFFFFFFFF
310
FFFFFFFFFFFFFFFFFFFFFFFFFFFFFFFFF000FFFFFFFFFFFFFFFFFFFFFFFFFFFF
310
FFFFFFFFFFFFFFFFFFFFFFFFFFFFFFFFFFFFFFFFFFFFFFFFFFFFFFFFFFFFFFFF
310
FFFFFFFFFFFFFFFFFFFFFFFFFFFFFFFFFFFFFFFFFFFFFFFFFFFFFFFFFFFFFFFF
310
FFFFFFFFFFFFFFFFF000FFFFFFFFFFFFFFFFFFFFFFFFFFFFFFFFFFFFFFFFFFFF
310
FFFFFFFFFFFFFFFFFFFFFFFFFFFFFFFFFFFFFFFFFFFFFFFFFFFFFFFFFFFFFFFF
310
FFFFFFFFFFFFFFFFFFFFFFFFFFFFFFFFFFFFFFFFFFFFFFFFFFFFFFFFFFFFFFFF
310
F000FFFFFFFFFFFFFFFFFFFFFFFFFFFFFFFFFFFFFFFFFFFFFFFFFFFFFFFFFFFF
310
FFFFFFFFFFFFFFFFFFFFFFFFFFFFFFFFFFFFFFFFFFFFFFFFFFFFFFFFFFFFFFFF
310
FFFFFFFFFFFFFFFFFFFFFFFFFFFFFFFFFFFFFFFFFFFFFFFFF000FFFFFFFFFFFF
310
FFFFFFFFFFFFFFFFFFFFFFFFFFFFFFFFFFFFFFFFFFFFFFFFFFFFFFFFFFFFFFFF
310
FFFFFFFFFFFFFFFFFFFFFFFFFFFFFFFFFFFFFFFFFFFFFFFFFFFFFFFFFFFFFFFF
310
FFFFFFFFFFFFFFFFFFFFFFFFFFFFFFFFF000FFFFFFFFFFFFFFFFFFFFFFFFFFFF
310
FFFFFFFFFFFFFFFFFFFFFFFFFFFFFFFFFFFFFFFFFFFFFFFFFFFFFFFFFFFFFFFF
310
FFFFFFFFFFFFFFFFFFFFFFFFFFFFFFFFFFFFFFFFFFFFFFFFFFFFFFFFFFFFFFFF
310
FFFFFFFFFFFFFFFFF000FFFFF80003FFFFFFFFFFFFFFFFFFFFFFFFFFFFFFFFFF
310
FFFFF00007FFFFFFFFFF00007FFFFFF800000000000000007FFFFFFFFFFFFFFF
310
FFFFFFFC001FFFFFFFFFFFFFFC001FFFFFFFFFFFFFFFFFFFFFFFFFFE0007FFFF
310
F000FFFF8000007FFFFFFFF8000FFFFFC0007FFFFF80007FFFFF0000007FFFFF
310
FFF8000007FFFFF800000000000000007FFFFFF0001FFFFFFFFFFFC00001FFFF
310
FFFFFFFFC00001FFFFFFFF000000000003FFFFE000007FFFF000FFFE0000000F
310
FFFFFFF0000FFFFF80007FFFFF80007FFFFC0000001FFFFFFFC0000001FFFFF8
310
00000000000000007FFFFFF0001FFFFFFFFFFE0000003FFFFFFFFFFE0000003F
310
FFFFFF000000000003FFFF0000000FFFF000FFF800000003FFFFFFF00007FFFF
310
80007FFFFF80007FFFF000000007FFFFFF000000003FFFF80000000000000000
310
7FFFFFF0001FFFFFFFFFF80000000FFFFFFFFFF80000000FFFFFFF0000000000
310
03FFFC00000003FFF000FFE000000000FFFFFFF00007FFFF80003FFFFF80007F
310
FFC000000001FFFFFC000000001FFFF800000000000000007FFFFFF0001FFFFF
310
FFFFE000000003FFFFFFFFE000000003FFFFFF000000000003FFF000000000FF
310
F000FF80000000007FFFFFF00007FFFF80003FFFFF80007FFF8000000000FFFF
310
F80000000007FFF800000000000000007FFFFFF0001FFFFFFFFFC000000001FF
310
FFFFFFC000000001FFFFFF000000000003FFC0000000007FF000FF0000000000
310
3FFFFFE00007FFFF00003FFFFF80007FFE00000000003FFFF00000000003FFF8
310
00000000000000007FFFFFF0001FFFFFFFFF8000000000FFFFFFFF8000000000
310
FFFFFF000000000003FF80000000003FF000FE00000000001FFFFFE00003FFFF
310
00003FFFFF80007FFC00000000001FFFE00000000001FFF8000001FFFE000000
310
7FFFFFF0001FFFFFFFFE00000000003FFFFFFE00000000003FFFFF0000000000
310
03FF00000000001FF000FC00000000000FFFFFE00003FFFF00001FFFFF80007F
310
F800000000001FFFC00000000000FFF8000001FFFE0000007FFFFFF0001FFFFF
310
FFFC00000000001FFFFFFC00000000001FFFFF000000000003FE00000000000F
310
F000F8000000000007FFFFE00003FFFF00001FFFFF80007FF800000000000FFF
310
800000000000FFF8000001FFFE0000007FFFFFF0001FFFFFFFF800000000000F
310
FFFFF800000000000FFFFF000000000003FC000000000007F000F80000000000
310
03FFFFC00003FFFE00001FFFFF80007FF0000000000007FF0000000000007FF8
310
000001FFFE0000007FFFFFF0001FFFFFFFF0000000000007FFFFF00000000000
310
07FFFF000000000003F8000000000003F000F0000000000003FFFFC00001FFFE
310
00001FFFFF80007FE0000000000007FE0000000000003FF8000001FFFE000000
310
7FFFFFF0001FFFFFFFF0000000000007FFFFF0000000000007FFFF0000000000
310
03F800001F800003F000E00001FFF00001FFFFC00001FFFE00000FFFFF80007F
310
E00001FFE00003FE00001FFF00003FF8000001FFFE0000007FFFFFF0001FFFFF
310
FFE000003E000003FFFFE000003E000003FFFF000000000003F00001FFF80001
310
F000E00007FFFC0001FFFFC00001FFFE00000FFFFF80007FC0000FFFFC0003FC
310
0000FFFFC0001FF8000001FFFE0000007FFFFFF0001FFFFFFFC00003FFE00001
310
FFFFC00003FFE00001FFFF0001FFFFFFFFF00007FFFE0001F000E0000FFFFF00
310
00FFFF800001FFFC00000FFFFF80007FC0001FFFFE0001FC0001FFFFE0001FF8
310
000001FFFE0000007FFFFFF0001FFFFFFF80000FFFF80000FFFF80000FFFF800
310
00FFFF0003FFFFFFFFE0000FFFFF8000F000C0003FFFFF8000FFFF800000FFFC
310
000007FFFF80007F80003FFFFF0001FC0003FFFFF0001FF8000001FFFE000000
310
7FFFFFF0001FFFFFFF80003FFFFE0000FFFF80003FFFFE0000FFFF0003FFFFFF
310
FFE0003FFFFF8000F000C0003FFFFF8000FFFF800000FFFC000007FFFF80007F
310
80007FFFFF8001F80007FFFFF8000FF8000001FFFE0000007FFFFFF0001FFFFF
310
FF00007FFFFF00007FFF00007FFFFF00007FFF0003FFFFFFFFE0003FFFFFC000
310
F000C0007FFFFFC000FFFF000000FFFC000007FFFF80007F8000FFFFFF8000F8
310
000FFFFFF8000FF8000001FFFE0000007FFFFFF0001FFFFFFF0000FFFFFF8000
310
7FFF0000FFFFFF80007FFF0003FFFFFFFFC0007FFFFFC00070008000FFFFFFC0
310
00FFFF000000FFF8000007FFFF80007F8000FFFFFF8000F8000FFFFFF8000FF8
310
000001FFFE0000007FFFFFF0001FFFFFFE0001FFFFFFC0003FFE0001FFFFFFC0
310
003FFF0003FFFFFFFFC0007FFFFFE00070008000FFFFFFC0007FFF0000007FF8
310
000003FFFF80007F0001FFFFFF8000F8000FFFFFF8000FF8000001FFFE000000
310
7FFFFFF0001FFFFFFE0001FFFFFFC0003FFE0001FFFFFFC0003FFF0003FFFFFF
310
FFC000FFFFFFE00070008000FFFFFFC0007FFF0000007FF8000003FFFF80007F
310
0001FFFFFF8000F8001FFFFFF8000FF8000001FFFE0000007FFFFFF0001FFFFF
310
FE0003FFFFFFE0003FFE0003FFFFFFE0003FFF0003FFFFFFFFC000FFFFFFE000
310
70008000FFFFFFC0007FFE0000007FF8000003FFFF80007F0001FFFFFF8000F0
310
001FFFFFF8000FF8000001FFFE0000007FFFFFF0001FFFFFFC0003FFFFFFE000
310
1FFC0003FFFFFFE0001FFF0003FFFFFFFFC000FFFFFFC00070008000FFFFFF80
310
007FFE0000007FF0000003FFFF80007F0001FFFFFF0000F0001FFFFFF8000FF8
310
000001FFFE0000007FFFFFF0001FFFFFFC0007FFFFFFF0001FFC0007FFFFFFF0
310
001FFF0003FFFFFFFFC000FFFFFFC00070008001FFFFFF0000FFFE0000003FF0
310
000001FFFF80007F0001FFFFFF0000F8001FFFFFF0000FF8000001FFFE000000
310
7FFFFFF0001FFFFFFC0007FFFFFFF0001FFC0007FFFFFFF0001FFF0003FFFFFF
310
FFC001FFFFFF80007000FFFFFFFFFE0000FFFE0008003FF0008001FFFF80007F
310
FFFFFFFFFC0000FFFFFFFFFFE0000FF8000001FFFE0000007FFFFFF0001FFFFF
310
F8000FFFFFFFF8000FF8000FFFFFFFF8000FFF0003FFFFFFFFFFFFFFFFFF0000
310
7000FFFFFFFFFC0000FFFC0008003FF0008001FFFF80007FFFFFFFFFF80001FF
310
FFFFFFFF80000FF8000001FFFE0000007FFFFFF0001FFFFFF8000FFFFFFFF800
310
0FF8000FFFFFFFF8000FFF0003FFFFFFFFFFFFFFFFFE0000F000FFFFFFFFE000
310
00FFFC000C003FE000C001FFFF80007FFFFFFFFFC00001FFFFFFFFFE00001FF8
310
000001FFFE0000007FFFFFF0001FFFFFF8000FFFFFFFF8000FF8000FFFFFFFF8
310
000FFF0003FFFFFFFFFFFFFFFFF00000F000FFFFFFFE000001FFFC000C001FE0
310
00C000FFFF80007FFFFFFFFE000001FFFFFFFFE000001FF80FFFFFFFFFFFFFC0
310
7FFFFFF0001FFFFFF8000FFFFFFFF8000FF8000FFFFFFFF8000FFF0003FFFFFF
310
FFFFFFFFFF800000F000FFFFFFC0000001FFFC001C001FE001C000FFFF80007F
310
FFFFFF80000003FFFFFFF80000001FF80FFFFFFFFFFFFFC07FFFFFF0001FFFFF
310
F8001FFFFFFFFC000FF8001FFFFFFFFC000FFF0003FFFFFFFFFFFFFFF0000001
310
F000FFFFF800000001FFF8001C001FE001C000FFFF80007FFFFFF800000003FF
310
FFFF800000003FF80FFFFFFFFFFFFFC07FFFFFF0001FFFFFF8001FFFFFFFFC00
310
0FF8001FFFFFFFFC000FFF0003FFFFFFFFFFFFFE00000001F000FFFFC0000000
310
03FFF8001E001FC001E000FFFF80007FFFFF8000000007FFFFFC000000003FF8
310
0FFFFFFFFFFFFFC07FFFFFF0001FFFFFF8001FFFFFFFFC000FF8001FFFFFFFFC
310
000FFF0003FFFFFFFFFFFFE000000003F000FFFE0000000007FFF8001E000FC0
310
01E0007FFF80007FFFFE0000000007FFFFE0000000007FF80FFFFFFFFFFFFFC0
310
7FFFFFF0001FFFFFF0001FFFFFFFFC0007F0001FFFFFFFFC0007FF0003FFFFFF
310
FFFFFF0000000003F000FFF80000000007FFF8001E000FC003E0007FFF80007F
310
FFF0000000000FFFFF8000000000FFF80FFFFFFFFFFFFFC07FFFFFF0001FFFFF
310
F0001FFFFFFFFC0007F0001FFFFFFFFC0007FF0003FFFFFFFFFFFC0000000007
310
F000FFE0000000000FFFF0003E000FC003E0007FFF80007FFFC0000000001FFF
310
FE0000000001FFF80FFFFFFFFFFFFFC07FFFFFF0001FFFFFF0001FFFFFFFFC00
310
07F0001FFFFFFFFC0007FF0003FFFFFFFFFFF0000000000FF000FFC000000000
310
1FFFF0003F000F8003F0003FFF80007FFF80000000003FFFF80000000003FFF8
310
0FFFFFFFFFFFFFC07FFFFFF0001FFFFFF0001FFFFFFFFC0007F0001FFFFFFFFC
310
0007FF0003FFFFFFFFFFE0000000001FF000FF00000000007FFFF0003F000780
310
03F0003FFF80007FFF00000000007FFFF00000000007FFF80FFFFFFFFFFFFFC0
310
7FFFFFF0001FFFFFF0001FFFFFFFFC0007F0001FFFFFFFFC0007FF0003FFFFFF
310
FFFF80000000007FF000FE0000000000FFFFE0003F00078007F0003FFF80007F
310
FE0000000001FFFFE0000000001FFFF80FFFFFFFFFFFFFC07FFFFFF0001FFFFF
310
F0001FFFFFFFFC0007F0001FFFFFFFFC0007FF0003FFFFFFFFFF0000000000FF
310
F000FC0000000003FFFFE0007F00078007F0003FFF80007FFC0000000007FFFF
310
C0000000007FFFF80FFFFFFFFFFFFFC07FFFFFF0001FFFFFF8001FFFFFFFFC00
310
0FF8001FFFFFFFFC000FFF0003FFFFFFFFFE0000000003FFF000FC000000000F
310
FFFFE0007F80070007F8001FFF80007FF8000000001FFFFF8000000001FFFFF8
310
0FFFFFFFFFFFFFC07FFFFFF0001FFFFFF8001FFFFFFFFC000FF8001FFFFFFFFC
310
000FFF0003FFFFFFFFFC000000000FFFF000F8000000007FFFFFE0007F800700
310
07F8001FFF80007FF000000000FFFFFF800000000FFFFFF80FFFFFFFFFFFFFC0
310
7FFFFFF0001FFFFFF8000FFFFFFFF8000FF8000FFFFFFFF8000FFF0003FFFFFF
310
FFFC000000007FFFF000F800000007FFFFFFC0007F8003000FF8001FFF80007F
310
F000000007FFFFFF000000007FFFFFF80FFFFFFFFFFFFFC07FFFFFF0001FFFFF
310
F8000FFFFFFFF8000FF8000FFFFFFFF8000FFF0003FFFFFFFFF80000000FFFFF
310
F000F0000000FFFFFFFFC000FF8003000FF8001FFF80007FE0000000FFFFFFFF
310
0000000FFFFFFFF8000001FFFE0000007FFFFFF0001FFFFFF8000FFFFFFFF800
310
0FF8000FFFFFFFF8000FFF0003FFFFFFFFF8000000FFFFFFF000F000000FFFFF
310
FFFFC000FFC002000FF8000FFF80007FE000001FFFFFFFFE000001FFFFFFFFF8
310
000001FFFE0000007FFFFFF0001FFFFFF8000FFFFFFFF8000FF8000FFFFFFFF8
310
000FFF0003FFFFFFFFF000001FFFFFFFF000E00000FFFFFFFFFFC000FFC00200
310
0FFC000FFF80007FE00001FFFFFFFFFE00001FFFFFFFFFF8000001FFFE000000
310
7FFFFFF0001FFFFFFC000FFFFFFFF8001FFC000FFFFFFFF8001FFF0003FFFFFF
310
FFF00001FFFFFFFFF000E00007FFFFFFFFFF8000FFC000001FFC000FFF80007F
310
C0000FFFFFFFFFFE0000FFFFFFFFFFF8000001FFFE0000007FFFFFF0001FFFFF
310
FC0007FFFFFFF0001FFC0007FFFFFFF0001FFF0003FFFFFFFFF00007FFFFFFFF
310
F000E0001FFFFFFFFFFF8000FFC000001FFC000FFF80007FC0003FFFFFFFFFFE
310
0001FFFFFFFFFFF8000001FFFE0000007FFFFFF0001FFFFFFC0007FFFFFFF000
310
1FFC0007FFFFFFF0001FFF0003FFFFFFFFF0001FFFFFFFFFF000E0003FFFFF00
310
03FF8001FFE000001FFC0007FF80007FC0007FFFFF0007FC0003FFFFF0003FF8
310
000001FFFE0000007FFFFFF0001FFFFFFC0003FFFFFFE0001FFC0003FFFFFFE0
310
001FFF0003FFFFFFFFF0003FFFFFFFFFF000E0003FFFFF0001FF8001FFE00000
310
1FFE0007FF80007FC0007FFFFE0003FC0007FFFFE0003FF8000001FFFE000000
310
7FFFFFF0001FFFFFFE0003FFFFFFE0003FFE0003FFFFFFE0003FFF0003FFFFFF
310
FFF0003FFFFF8001F000E0003FFFFF0001FF0001FFE000001FFE0007FF80007F
310
C0007FFFFE0003FC0007FFFFE0003FF8000001FFFE0000007FFFFFF0001FFFFF
310
FE0001FFFFFFC0003FFE0001FFFFFFC0003FFF0003FFFFFFFFF0003FFFFF0001
310
F000E0003FFFFF0003FF0001FFE000003FFE0007FF80007FC0007FFFFE0003FC
310
0007FFFFE0003FF8000001FFFE0000007FFFFFF0001FFFFFFF0001FFFFFFC000
310
7FFF0001FFFFFFC0007FFF0003FFFFFFFFF0003FFFFF0001F000E0003FFFFE00
310
03FF0003FFF000003FFE0003FF80007FC0007FFFFC0003FE0007FFFFE0003FF8
310
000001FFFE0000007FFFFFF0001FFFFFFF0000FFFFFF80007FFF0000FFFFFF80
310
007FFF0003FFFFFFFFF0003FFFFF0001F000E0003FFFFE0003FF0003FFF00000
310
3FFF0003FF80007FC0007FFFFC0007FE0007FFFFC0003FF8000001FFFE000000
310
7FFFFFF0001FFFFFFF80007FFFFF0000FFFF80007FFFFF0000FFFF0003FFFFFF
310
FFF0003FFFFF0003F000E0003FFFFC0003FE0003FFF000003FFF0003FF80007F
310
E0003FFFF80007FE0003FFFFC0007FF8000001FFFE0000007FFFFFF0001FFFFF
310
FF80003FFFFE0000FFFF80003FFFFE0000FFFF0003FFFFFFFFF0001FFFFE0003
310
F000F0001FFFF80003FE0003FFF000007FFF0001FF80007FE0003FFFF00007FE
310
0001FFFF80007FF8000001FFFE0000007FFFFFF0001FFFFFFFC0000FFFF80001
310
FFFFC0000FFFF80001FFFF0003FFFFFFFFF0001FFFFC0003F000F0000FFFF000
310
07FE0007FFF800007FFF0001FF80007FE0001FFFE00007FF0000FFFE00007FF8
310
000001FFFE0000007FFFFFF0001FFFFFFFC00003FFE00001FFFFC00003FFE000
310
01FFFF0003FFFFFFFFF8000FFFF80003F000F00003FFC00007FC0007FFF80000
310
7FFF8001FF80007FF00007FF80000FFF00007FF80000FFF8000001FFFE000000
310
7F80000000000001FFE000003E000003FFFFE000003E000003FFFF0003FFFFFF
310
FFF80003FFE00007F000F800000000000FFC0007FFF800007FFF8001FF80007F
310
F000000000000FFF000000000000FFF8000001FFFE0000007F80000000000001
310
FFF0000000000007FFFFF0000000000007FFFF0003FFFFFFFFFC00007E000007
310
F000F800000000000FFC0007FFF80000FFFF8000FF80007FF800000000001FFF
310
800000000001FFF8000001FFFE0000007F80000000000001FFF800000000000F
310
FFFFF800000000000FFFFF0003FFFFFFFFFC00000000000FF000FC0000000000
310
1FFC0007FFFC0000FFFF8000FF80007FF800000000003FFFC00000000001FFF8
310
000001FFFE0000007F80000000000001FFF800000000000FFFFFF80000000000
310
0FFFFF0003FFFFFFFFFE00000000001FF000FE00000000003FF8000FFFFC0000
310
FFFF8000FF80007FFC00000000003FFFC00000000003FFF8000001FFFE000000
310
7F80000000000001FFFC00000000001FFFFFFC00000000001FFFFF0003FFFFFF
310
FFFF00000000001FF000FF00000000003FF8000FFFFC0000FFFFC000FF80007F
310
FE00000000007FFFE00000000007FFF8000001FFFE0000007F80000000000001
310
FFFE00000000003FFFFFFE00000000003FFFFF0003FFFFFFFFFF80000000003F
310
F000FF80000000007FF8000FFFFC0001FFFFC0007F80007FFF0000000000FFFF
310
F0000000000FFFF800000000000000007F80000000000001FFFF8000000000FF
310
FFFFFF8000000000FFFFFF0003FFFFFFFFFFC0000000007FF000FFC000000000
310
FFF8000FFFFE0001FFFFC0007F80007FFF8000000001FFFFF8000000001FFFF8
310
00000000000000007F80000000000001FFFFC000000001FFFFFFFFC000000001
310
FFFFFF0003FFFFFFFFFFE000000000FFF000FFE000000003FFF0001FFFFE0001
310
FFFFC0007F80007FFFC000000007FFFFFE000000003FFFF80000000000000000
310
7F80000000000001FFFFE000000003FFFFFFFFE000000003FFFFFF0003FFFFFF
310
FFFFF000000003FFF000FFF80000000FFFF0001FFFFE0001FFFFE0007F80007F
310
FFF00000000FFFFFFF00000000FFFFF800000000000000007F80000000000001
310
FFFFF80000000FFFFFFFFFF80000000FFFFFFF0003FFFFFFFFFFFC0000000FFF
310
F000FFFE0000003FFFF0001FFFFE0003FFFFE0003F80007FFFFC0000003FFFFF
310
FFC0000003FFFFF800000000000000007F80000000000001FFFFFE0000003FFF
310
FFFFFFFE0000003FFFFFFF0003FFFFFFFFFFFF0000003FFFF000FFFF800000FF
310
FFF0001FFFFF0003FFFFE0003F80007FFFFF000001FFFFFFFFF800001FFFFFF8
310
00000000000000007F80000000000001FFFFFFC00001FFFFFFFFFFFFC00001FF
310
FFFFFF0003FFFFFFFFFFFFC00000FFFFF000FFFFF8000FFFFFFFFFFFFFFFFFFF
310
FFFFFFFFFFFFFFFFFFFFF0001FFFFFFFFFFF0000FFFFFFF80000000000000000
310
7FFFFFFFFFFFFFFFFFFFFFFC001FFFFFFFFFFFFFFC001FFFFFFFFFFFFFFFFFFF
310
FFFFFFFC001FFFFFF000FFFFFFFFFFFFFFFFFFFFFFFFFFFFFFFFFFFFFFFFFFFF
310
FFFFFFFFFFFFFFFFFFFFFFFFFFFFFFFFFFFFFFFFFFFFFFFFFFFFFFFFFFFFFFFF
310
FFFFFFFFFFFFFFFFFFFFFFFFFFFFFFFFFFFFFFFFFFFFFFFFFFFFFFFFFFFFFFFF
310
F000FFFFFFFFFFFFFFFFFFFFFFFFFFFFFFFFFFFFFFFFFFFFFFFFFFFFFFFFFFFF
310
FFFFFFFFFFFFFFFFFFFFFFFFFFFFFFFFFFFFFFFFFFFFFFFFFFFFFFFFFFFFFFFF
310
FFFFFFFFFFFFFFFFFFFFFFFFFFFFFFFFFFFFFFFFFFFFFFFFF000FFFFFFFFFFFF
310
FFFFFFFFFFFFFFFFFFFFFFFFFFFFFFFFFFFFFFFFFFFFFFFFFFFFFFFFFFFFFFFF
310
FFFFFFFFFFFFFFFFFFFFFFFFFFFFFFFFFFFFFFFFFFFFFFFFFFFFFFFFFFFFFFFF
310
FFFFFFFFFFFFFFFFFFFFFFFFFFFFFFFFF000FFFFFFFFFFFFFFFFFFFFFFFFFFFF
310
FFFFFFFFFFFFFFFFFFFFFFFFFFFFFFFFFFFFFFFFFFFFFFFFFFFFFFFFFFFFFFFF
310
FFFFFFFFFFFFFFFFFFFFFFFFFFFFFFFFFFFFFFFFFFFFFFFFFFFFFFFFFFFFFFFF
310
FFFFFFFFFFFFFFFFF000FFFFFFFFFFFFFFFFFFFFFFFFFFFFFFFFFFFFFFFFFFFF
310
FFFFFFFFFFFFFFFFFFFFFFFFFFFFFFFFFFFFFFFFFFFFFFFFFFFFFFFFFFFFFFFF
310
FFFFFFFFFFFFFFFFFFFFFFFFFFFFFFFFFFFFFFFFFFFFFFFFFFFFFFFFFFFFFFFF
310
F000FFFFFFFFFFFFFFFFFFFFFFFFFFFFFFFFFFFFFFFFFFFFFFFFFFFFFFFFFFFF
310
FFFFFFFFFFFFFFFFFFFFFFFFFFFFFFFFFFFFFFFFFFFFFFFFFFFFFFFFFFFFFFFF
310
FFFFFFFFFFFFFFFFFFFFFFFFFFFFFFFFFFFFFFFFFFFFFFFFF000FFFFFFFFFFFF
310
FFFFFFFFFFFFFFFFFFFFFFFFFFFFFFFFFFFFFFFFFFFFFFFFFFFFFFFFFFFFFFFF
310
FFFFFFFFFFFFFFFFFFFFFFFFFFFFFFFFFFFFFFFFFFFFFFFFFFFFFFFFFFFFFFFF
310
FFFFFFFFFFFFFFFFFFFFFFFFFFFFFFFFF000FFFFFFFFFFFFFFFFFFFFFFFFFFFF
310
FFFFFFFFFFFFFFFFFFFFFFFFFFFFFFFFFFFFFFFFFFFFFFFFFFFFFFFFFFFFFFFF
310
FFFFFFFFFFFFFFFFFFFFFFFFFFFFFFFFFFFFFFFFFFFFFFFFFFFFFFFFFFFFFFFF
310
FFFFFFFFFFFFFFFFF000FFFFFFFFFFFFFFFFFFFFFFFFFFFFFFFFFFFFFFFFFFFF
310
FFFFFFFFFFFFFFFFFFFFFFFFFFFFFFFFFFFFFFFFFFFFFFFFFFFFFFFFFFFFFFFF
310
FFFFFFFFFFFFFFFFFFFFFFFFFFFFFFFFFFFFFFFFFFFFFFFFFFFFFFFFFFFFFFFF
310
F000FFFFFFFFFFFFFFFFFFFFFFFFFFFFFFFFFFFFFFFFFFFFFFFFFFFFFFFFFFFF
310
FFFFFFFFFFFFFFFFFFFFFFFFFFFFFFFFFFFFFFFFFFFFFFFFFFFFFFFFFFFFFFFF
310
FFFFFFFFFFFFFFFFFFFFFFFFFFFFFFFFFFFFFFFFFFFFFFFFF000FFFFFFFFFFFF
310
FFFFFFFFFFFFFFFFFFFFFFFFFFFFFFFFFFFFFFFFFFFFFFFFFFFFFFFFFFFFFFFF
310
FFFFFFFFFFFFFFFFFFFFFFFFFFFFFFFFFFFFFFFFFFFFFFFFFFFFFFFFFFFFFFFF
310
FFFFFFFFFFFFFFFFFFFFFFFFFFFFFFFFF000FFFFFFFFFFFFFFFFFFFFFFFFFFFF
310
FFFFFFFFFFFFFFFFFFFFFFFFFFFFFFFFFFFFFFFFFFFFFFFFFFFFFFFFFFFFFFFF
310
FFFFFFFFFFFFFFFFFFFFFFFFFFFFFFFFFFFFFFFFFFFFFFFFFFFFFFFFFFFFFFFF
310
FFFFFFFFFFFFFFFFF000FFFFFFFFFFFFFFFFFFFFFFFFFFFFFFFFFFFFFFFFFFFF
310
FFFFFFFFFFFFFFFFFFFFFFFFFFFFFFFFFFFFFFFFFFFFFFFFFFFFFFFFFFFFFFFF
310
FFFFFFFFFFFFFFFFFFFFFFFFFFFFFFFFFFFFFFFFFFFFFFFFFFFFFFFFFFFFFFFF
310
F000FFFFFFFFFFFFFFFFFFFFFFFFFFFFFFFFFFFFFFFFFFFFFFFFFFFFFFFFFFFF
310
FFFFFFFFFFFFFFFFFFFFFFFFFFFFFFFFFFFFFFFFFFFFFFFFFFFFFFFFFFFFFFFF
310
FFFFFFFFFFFFFFFFFFFFFFFFFFFFFFFFFFFFFFFFFFFFFFFFF000FFFFFFFFFFFF
310
FFFFFFFFFFFFFFFFFFFFFFFFFFFFFFFFFFFFFFFFFFFFFFFFFFFFFFFFFFFFFFFF
310
FFFFFFFFFFFFFFFFFFFFFFFFFFFFFFFFFFFFFFFFFFFFFFFFFFFFFFFFFFFFFFFF
310
FFFFFFFFFFFFFFFFFFFFFFFFFFFFFFFFF000FFFFFFFFFFFFFFFFFFFFFFFFFFFF
310
FFFFFFFFFFFFFFFFFFFFFFFFFFFFFFFFFFFFFFFFFFFFFFFFFFFFFFFFFFFFFFFF
310
FFFFFFFFFFFFFFFFFFFFFFFFFFFFFFFFFFFFFFFFFFFFFFFFFFFFFFFFFFFFFFFF
310
FFFFFFFFFFFFFFFFF000FFFFFFFFFFFFFFFFFFFFFFFFFFFFFFFFFFFFFFFFFFFF
310
FFFFFFFFFFFFFFFFFFFFFFFFFFFFFFFFFFFFFFFFFFFFFFFFFFFFFFFFFFFFFFFF
310
FFFFFFFFFFFFFFFFFFFFFFFFFFFFFFFFFFFFFFFFFFFFFFFFFFFFFFFFFFFFFFFF
310
F000FFFFFFFFFFFFFFFFFFFFFFFFFFFFFFFFFFFFFFFFFFFFFFFFFFFFFFFFFFFF
310
FFFFFFFFFFFFFFFFFFFFFFFFFFFFFFFFFFFFFFFFFFFFFFFFFFFFFFFFFFFFFFFF
310
FFFFFFFFFFFFFFFFFFFFFFFFFFFFFFFFFFFFFFFFFFFFFFFFF000FFFFFFFFFFFF
310
FFFFFFFFFFFFFFFFFFFFFFFFFFFFFFFFFFFFFFFFFFFFFFFFFFFFFFFFFFFFFFFF
310
FFFFFFFFFFFFFFFFFFFFFFFFFFFFFFFFFFFFFFFFFFFFFFFFFFFFFFFFFFFFFFFF
310
FFFFFFFFFFFFFFFFFFFFFFFFFFFFFFFFF000FFFFFFFFFFFFFFFFFFFFFFFFFFFF
310
FFFFFFFFFFFFFFFFFFFFFFFFFFFFFFFFFFFFFFFFFFFFFFFFFFFFFFFFFFFFFFFF
310
FFFFFFFFFFFFFFFFFFFFFFFFFFFFFFFFFFFFFFFFFFFFFFFFFFFFFFFFFFFFFFFF
310
FFFFFFFFFFFFFFFFF000FFFFFFFFFFFFFFFFFFFFFFFFFFFFFFFFFFFFFFFFFFFF
310
FFFFFFFFFFFFFFFFFFFFFFFFFFFFFFFFFFFFFFFFFFFFFFFFFFFFFFFFFFFFFFFF
310
FFFFFFFFFFFFFFFFFFFFFFFFFFFFFFFFFFFFFFFFFFFFFFFFFFFFFFFFFFFFFFFF
310
F000FFFFFFFFFFFFFFFFFFFFFFFFFFFFFFFFFFFFFFFFFFFFFFFFFFFFFFFFFFFF
310
FFFFFFFFFFFFFFFFFFFFFFFFFFFFFFFFFFFFFFFFFFFFFFFFFFFFFFFFFFFFFFFF
310
FFFFFFFFFFFFFFFFFFFFFFFFFFFFFFFFFFFFFFFFFFFFFFFFF000FFFFFFFFFFFF
310
FFFFFFFFFFFFFFFFFFFFFFFFFFFFFFFFFFFFFFFFFFFFFFFFFFFFFFFFFFFFFFFF
310
FFFFFFFFFFFFFFFFFFFFFFFFFFFFFFFFFFFFFFFFFFFFFFFFFFFFFFFFFFFFFFFF
310
FFFFFFFFFFFFFFFFFFFFFFFFFFFFFFFFF0000000000000000000000000000000
310
0000000000000000000000000000000000000000000000000000000000000000
310
0000000000000000000000000000000000000000000000000000000000000000
310
0000000000000000000000000000000000000000000000000000000000000000
310
0000000000000000000000000000000000000000000000000000000000000000
310
0000000000000000000000000000000000000000000000000000000000000000
310
0000000000000000000000000000000000000000000000000000000000000000
310
0000000000000000000000000000000000000000000000000000000000000000
310
0000000000000000000000000000000000000000000000000000000000000000
310
0000000000000000000000000000000000000000000000000000000000000000
310
0000000000000000000000000000000000000000000000000000000000000000
310
0000000000000000000000000000000000000000000000000000000000000000
310
0000000000000000000000000000000000000000000000000000000000000000
310
0000000000000000000000000000000000000000000000000000000000000000
310
0000000000000000000000000000000000000000000000000000000000000000
310
0000000000000000000000000000000000000000000000000000000000000000
  1
OLE
  0
ENDSEC
  0
SECTION
  2
OBJECTS
  0
DICTIONARY
  5
C
330
0
100
AcDbDictionary
281
     1
  3
ACAD_GROUP
350
D
  3
ACAD_LAYOUT
350
1A
  3
ACAD_MLINESTYLE
350
17
  3
ACAD_PLOTSETTINGS
350
19
  3
ACAD_PLOTSTYLENAME
350
E
  0
DICTIONARY
  5
D
102
{ACAD_REACTORS
330
C
102
}
330
C
100
AcDbDictionary
281
     1
  0
DICTIONARY
  5
1A
102
{ACAD_REACTORS
330
C
102
}
330
C
100
AcDbDictionary
281
     1
  3
Layout1
350
1E
  3
Layout2
350
26
  3
Model
350
22
  0
DICTIONARY
  5
17
102
{ACAD_REACTORS
330
C
102
}
330
C
100
AcDbDictionary
281
     1
  3
Standard
350
18
  0
DICTIONARY
  5
19
102
{ACAD_REACTORS
330
C
102
}
330
C
100
AcDbDictionary
281
     1
  0
ACDBDICTIONARYWDFLT
  5
E
102
{ACAD_REACTORS
330
C
102
}
330
C
100
AcDbDictionary
281
     1
  3
Normal
350
F
100
AcDbDictionaryWithDefault
340
F
  0
LAYOUT
  5
1E
102
{ACAD_REACTORS
330
1A
102
}
330
1A
100
AcDbPlotSettings
  1

  2
none_device
  4

  6

 40
0.0
 41
0.0
 42
0.0
 43
0.0
 44
0.0
 45
0.0
 46
0.0
 47
0.0
 48
0.0
 49
0.0
140
0.0
141
0.0
142
1.0
143
1.0
 70
   688
 72
     0
 73
     0
 74
     5
  7

 75
    16
147
1.0
148
0.0
149
0.0
100
AcDbLayout
  1
Layout1
 70
     1
 71
     1
 10
0.0
 20
0.0
 11
420.0
 21
297.0
 12
0.0
 22
0.0
 32
0.0
 14
1.0000000000E+20
 24
1.0000000000E+20
 34
1.0000000000E+20
 15
-1.0000000000E+20
 25
-1.0000000000E+20
 35
-1.0000000000E+20
146
0.0
 13
0.0
 23
0.0
 33
0.0
 16
1.0
 26
0.0
 36
0.0
 17
0.0
 27
1.0
 37
0.0
 76
     0
330
1B
  0
LAYOUT
  5
26
102
{ACAD_REACTORS
330
1A
102
}
330
1A
100
AcDbPlotSettings
  1

  2
none_device
  4

  6

 40
0.0
 41
0.0
 42
0.0
 43
0.0
 44
0.0
 45
0.0
 46
0.0
 47
0.0
 48
0.0
 49
0.0
140
0.0
141
0.0
142
1.0
143
1.0
 70
   688
 72
     0
 73
     0
 74
     5
  7

 75
    16
147
1.0
148
0.0
149
0.0
100
AcDbLayout
  1
Layout2
 70
     1
 71
     2
 10
0.0
 20
0.0
 11
0.0
 21
0.0
 12
0.0
 22
0.0
 32
0.0
 14
0.0
 24
0.0
 34
0.0
 15
0.0
 25
0.0
 35
0.0
146
0.0
 13
0.0
 23
0.0
 33
0.0
 16
1.0
 26
0.0
 36
0.0
 17
0.0
 27
1.0
 37
0.0
 76
     0
330
23
  0
LAYOUT
  5
22
102
{ACAD_REACTORS
330
1A
102
}
330
1A
100
AcDbPlotSettings
  1

  2
none_device
  4

  6

 40
0.0
 41
0.0
 42
0.0
 43
0.0
 44
0.0
 45
0.0
 46
0.0
 47
0.0
 48
0.0
 49
0.0
140
0.0
141
0.0
142
1.0
143
1.0
 70
  1712
 72
     0
 73
     0
 74
     0
  7

 75
     0
147
1.0
148
0.0
149
0.0
100
AcDbLayout
  1
Model
 70
     1
 71
     0
 10
0.0
 20
0.0
 11
297.0
 21
210.0
 12
0.0
 22
0.0
 32
0.0
 14
0.0
 24
0.0
 34
0.0
 15
297.0
 25
210.0
 35
0.0
146
0.0
 13
0.0
 23
0.0
 33
0.0
 16
1.0
 26
0.0
 36
0.0
 17
0.0
 27
1.0
 37
0.0
 76
     0
330
1F
331
29
  0
MLINESTYLE
  5
18
102
{ACAD_REACTORS
330
17
102
}
330
17
100
AcDbMlineStyle
  2
Standard
 70
     0
  3

 62
   256
 51
90.0
 52
90.0
 71
     2
 49
0.5
 62
   256
  6
BYLAYER
 49
-0.5
 62
   256
  6
BYLAYER
  0
ACDBPLACEHOLDER
  5
F
102
{ACAD_REACTORS
330
E
102
}
330
E
  0
ENDSEC
  0
EOF
