  0
SECTION
  2
HEADER
  9
$ACADVER
  1
AC1015
  9
$ACADMAINTVER
 70
     6
  9
$DWGCODEPAGE
  3
ANSI_1252
  9
$INSBASE
 10
0.0
 20
0.0
 30
0.0
  9
$EXTMIN
 10
0.0
 20
0.0
 30
0.0
  9
$EXTMAX
 10
297.0
 20
210.0
 30
0.0
  9
$LIMMIN
 10
0.0
 20
0.0
  9
$LIMMAX
 10
297.0
 20
210.0
  9
$ORTHOMODE
 70
     0
  9
$REGENMODE
 70
     1
  9
$FILLMODE
 70
     1
  9
$QTEXTMODE
 70
     0
  9
$MIRRTEXT
 70
     1
  9
$LTSCALE
 40
1.0
  9
$ATTMODE
 70
     1
  9
$TEXTSIZE
 40
2.0
  9
$TRACEWID
 40
1.0
  9
$TEXTSTYLE
  7
Standard
  9
$CLAYER
  8
0
  9
$CELTYPE
  6
ByLayer
  9
$CECOLOR
 62
   256
  9
$CELTSCALE
 40
1.0
  9
$DISPSILH
 70
     0
  9
$DIMSCALE
 40
1.0
  9
$DIMASZ
 40
3.0
  9
$DIMEXO
 40
0.0
  9
$DIMDLI
 40
3.75
  9
$DIMRND
 40
0.0
  9
$DIMDLE
 40
0.0
  9
$DIMEXE
 40
1.0
  9
$DIMTP
 40
0.0
  9
$DIMTM
 40
0.0
  9
$DIMTXT
 40
2.0
  9
$DIMCEN
 40
2.5
  9
$DIMTSZ
 40
0.0
  9
$DIMTOL
 70
     0
  9
$DIMLIM
 70
     0
  9
$DIMTIH
 70
     1
  9
$DIMTOH
 70
     1
  9
$DIMSE1
 70
     0
  9
$DIMSE2
 70
     0
  9
$DIMTAD
 70
     1
  9
$DIMZIN
 70
     0
  9
$DIMBLK
  1

  9
$DIMASO
 70
     1
  9
$DIMSHO
 70
     1
  9
$DIMPOST
  1

  9
$DIMAPOST
  1

  9
$DIMALT
 70
     0
  9
$DIMALTD
 70
     3
  9
$DIMALTF
 40
0.0393700787
  9
$DIMLFAC
 40
1.0
  9
$DIMTOFL
 70
     1
  9
$DIMTVP
 40
0.0
  9
$DIMTIX
 70
     0
  9
$DIMSOXD
 70
     0
  9
$DIMSAH
 70
     0
  9
$DIMBLK1
  1

  9
$DIMBLK2
  1

  9
$DIMSTYLE
  2
ISO-25
  9
$DIMCLRD
 70
     0
  9
$DIMCLRE
 70
     0
  9
$DIMCLRT
 70
     0
  9
$DIMTFAC
 40
1.0
  9
$DIMGAP
 40
1.524
  9
$DIMJUST
 70
     0
  9
$DIMSD1
 70
     0
  9
$DIMSD2
 70
     0
  9
$DIMTOLJ
 70
     0
  9
$DIMTZIN
 70
     0
  9
$DIMALTZ
 70
     0
  9
$DIMALTTZ
 70
     0
  9
$DIMUPT
 70
     0
  9
$DIMDEC
 70
     2
  9
$DIMTDEC
 70
     3
  9
$DIMALTU
 70
     2
  9
$DIMALTTD
 70
     3
  9
$DIMTXSTY
  7
Standard
  9
$DIMAUNIT
 70
     0
  9
$DIMADEC
 70
     2
  9
$DIMALTRND
 40
0.0
  9
$DIMAZIN
 70
     0
  9
$DIMDSEP
 70
    44
  9
$DIMATFIT
 70
     3
  9
$DIMFRAC
 70
     0
  9
$DIMLDRBLK
  1

  9
$DIMLUNIT
 70
     2
  9
$DIMLWD
 70
    -2
  9
$DIMLWE
 70
    -2
  9
$DIMTMOVE
 70
     0
  9
$LUNITS
 70
     2
  9
$LUPREC
 70
     2
  9
$SKETCHINC
 40
1.0
  9
$FILLETRAD
 40
10.0
  9
$AUNITS
 70
     0
  9
$AUPREC
 70
     2
  9
$MENU
  1
.
  9
$ELEVATION
 40
0.0
  9
$PELEVATION
 40
0.0
  9
$THICKNESS
 40
0.0
  9
$LIMCHECK
 70
     0
  9
$CHAMFERA
 40
10.0
  9
$CHAMFERB
 40
10.0
  9
$CHAMFERC
 40
20.0
  9
$CHAMFERD
 40
0.0
  9
$SKPOLY
 70
     0
  9
$TDCREATE
 40
2456083.641187743
  9
$TDUCREATE
 40
2456083.55785441
  9
$TDUPDATE
 40
2456083.641189375
  9
$TDUUPDATE
 40
2456083.557856041
  9
$TDINDWG
 40
0.0000000116
  9
$TDUSRTIMER
 40
0.0000000116
  9
$USRTIMER
 70
     1
  9
$ANGBASE
 50
0.0
  9
$ANGDIR
 70
     0
  9
$PDMODE
 70
     0
  9
$PDSIZE
 40
-1.0
  9
$PLINEWID
 40
0.0
  9
$SPLFRAME
 70
     0
  9
$SPLINETYPE
 70
     6
  9
$SPLINESEGS
 70
     8
  9
$HANDSEED
  5
21D
  9
$SURFTAB1
 70
     6
  9
$SURFTAB2
 70
     6
  9
$SURFTYPE
 70
     6
  9
$SURFU
 70
     6
  9
$SURFV
 70
     6
  9
$UCSBASE
  2

  9
$UCSNAME
  2

  9
$UCSORG
 10
0.0
 20
0.0
 30
0.0
  9
$UCSXDIR
 10
1.0
 20
0.0
 30
0.0
  9
$UCSYDIR
 10
0.0
 20
1.0
 30
0.0
  9
$UCSORTHOREF
  2

  9
$UCSORTHOVIEW
 70
     0
  9
$UCSORGTOP
 10
0.0
 20
0.0
 30
0.0
  9
$UCSORGBOTTOM
 10
0.0
 20
0.0
 30
0.0
  9
$UCSORGLEFT
 10
0.0
 20
0.0
 30
0.0
  9
$UCSORGRIGHT
 10
0.0
 20
0.0
 30
0.0
  9
$UCSORGFRONT
 10
0.0
 20
0.0
 30
0.0
  9
$UCSORGBACK
 10
0.0
 20
0.0
 30
0.0
  9
$PUCSBASE
  2

  9
$PUCSNAME
  2

  9
$PUCSORG
 10
0.0
 20
0.0
 30
0.0
  9
$PUCSXDIR
 10
1.0
 20
0.0
 30
0.0
  9
$PUCSYDIR
 10
0.0
 20
1.0
 30
0.0
  9
$PUCSORTHOREF
  2

  9
$PUCSORTHOVIEW
 70
     0
  9
$PUCSORGTOP
 10
0.0
 20
0.0
 30
0.0
  9
$PUCSORGBOTTOM
 10
0.0
 20
0.0
 30
0.0
  9
$PUCSORGLEFT
 10
0.0
 20
0.0
 30
0.0
  9
$PUCSORGRIGHT
 10
0.0
 20
0.0
 30
0.0
  9
$PUCSORGFRONT
 10
0.0
 20
0.0
 30
0.0
  9
$PUCSORGBACK
 10
0.0
 20
0.0
 30
0.0
  9
$USERI1
 70
     0
  9
$USERI2
 70
     0
  9
$USERI3
 70
     0
  9
$USERI4
 70
     0
  9
$USERI5
 70
     0
  9
$USERR1
 40
0.0
  9
$USERR2
 40
0.0
  9
$USERR3
 40
0.0
  9
$USERR4
 40
0.0
  9
$USERR5
 40
0.0
  9
$WORLDVIEW
 70
     1
  9
$SHADEDGE
 70
     3
  9
$SHADEDIF
 70
    70
  9
$TILEMODE
 70
     1
  9
$MAXACTVP
 70
    64
  9
$PINSBASE
 10
0.0
 20
0.0
 30
0.0
  9
$PLIMCHECK
 70
     0
  9
$PEXTMIN
 10
1.0000000000E+20
 20
1.0000000000E+20
 30
1.0000000000E+20
  9
$PEXTMAX
 10
-1.0000000000E+20
 20
-1.0000000000E+20
 30
-1.0000000000E+20
  9
$PLIMMIN
 10
0.0
 20
0.0
  9
$PLIMMAX
 10
420.0
 20
297.0
  9
$UNITMODE
 70
     0
  9
$VISRETAIN
 70
     1
  9
$PLINEGEN
 70
     0
  9
$PSLTSCALE
 70
     1
  9
$TREEDEPTH
 70
  3020
  9
$CMLSTYLE
  2
Standard
  9
$CMLJUST
 70
     0
  9
$CMLSCALE
 40
20.0
  9
$PROXYGRAPHICS
 70
     1
  9
$MEASUREMENT
 70
     1
  9
$CELWEIGHT
370
    -1
  9
$ENDCAPS
280
     0
  9
$JOINSTYLE
280
     0
  9
$LWDISPLAY
290
     1
  9
$INSUNITS
 70
     4
  9
$HYPERLINKBASE
  1

  9
$STYLESHEET
  1

  9
$XEDIT
290
     1
  9
$CEPSNTYPE
380
     0
  9
$PSTYLEMODE
290
     1
  9
$FINGERPRINTGUID
  2
{7CBAE962-1A49-4FE9-8AF3-15E763FC3902}
  9
$VERSIONGUID
  2
{FAEB1C32-E019-11D5-929B-00C0DF256EC4}
  9
$EXTNAMES
290
     1
  9
$PSVPSCALE
 40
0.0
  9
$OLESTARTUP
290
     0
  0
ENDSEC
  0
SECTION
  2
CLASSES
  0
CLASS
  1
ACDBDICTIONARYWDFLT
  2
AcDbDictionaryWithDefault
  3
ObjectDBX Classes
 90
        0
280
     0
281
     0
  0
CLASS
  1
VISUALSTYLE
  2
AcDbVisualStyle
  3
ObjectDBX Classes
 90
     4095
280
     0
281
     0
  0
CLASS
  1
MATERIAL
  2
AcDbMaterial
  3
ObjectDBX Classes
 90
     1153
280
     0
281
     0
  0
CLASS
  1
ACDBPLACEHOLDER
  2
AcDbPlaceHolder
  3
ObjectDBX Classes
 90
        0
280
     0
281
     0
  0
CLASS
  1
LAYOUT
  2
AcDbLayout
  3
ObjectDBX Classes
 90
        0
280
     0
281
     0
  0
ENDSEC
  0
SECTION
  2
TABLES
  0
TABLE
  2
VPORT
  5
8
330
0
100
AcDbSymbolTable
 70
     1
  0
VPORT
  5
29
330
8
100
AcDbSymbolTableRecord
100
AcDbViewportTableRecord
  2
*Active
 70
     0
 10
0.0
 20
0.0
 11
1.0
 21
1.0
 12
148.5
 22
105.0
 13
0.0
 23
0.0
 14
10.0
 24
10.0
 15
10.0
 25
10.0
 16
0.0
 26
0.0
 36
1.0
 17
0.0
 27
0.0
 37
0.0
 40
210.0
 41
1.4142857143
 42
50.0
 43
0.0
 44
0.0
 50
0.0
 51
0.0
 71
     0
 72
  2000
 73
     1
 74
     3
 75
     0
 76
     0
 77
     0
 78
     0
281
     0
 65
     1
110
0.0
120
0.0
130
0.0
111
1.0
121
0.0
131
0.0
112
0.0
122
1.0
132
0.0
 79
     0
146
0.0
  0
ENDTAB
  0
TABLE
  2
LTYPE
  5
5
330
0
100
AcDbSymbolTable
 70
     6
  0
LTYPE
  5
14
330
5
100
AcDbSymbolTableRecord
100
AcDbLinetypeTableRecord
  2
ByBlock
 70
     0
  3

 72
    65
 73
     0
 40
0.0
  0
LTYPE
  5
15
330
5
100
AcDbSymbolTableRecord
100
AcDbLinetypeTableRecord
  2
ByLayer
 70
     0
  3

 72
    65
 73
     0
 40
0.0
  0
LTYPE
  5
16
330
5
100
AcDbSymbolTableRecord
100
AcDbLinetypeTableRecord
  2
Continuous
 70
     0
  3
Solid line
 72
    65
 73
     0
 40
0.0
  0
LTYPE
  5
3F
330
5
100
AcDbSymbolTableRecord
100
AcDbLinetypeTableRecord
  2
HIDDEN
 70
     0
  3
Hidden __ __ __ __ __ __ __ __ __ __ __ __ __ __
 72
    65
 73
     2
 40
1.905
 49
1.27
 74
     0
 49
-0.635
 74
     0
  0
LTYPE
  5
40
330
5
100
AcDbSymbolTableRecord
100
AcDbLinetypeTableRecord
  2
PHANTOM
 70
     0
  3
Phantom ______  __  __  ______  __  __  ______
 72
    65
 73
     6
 40
12.7
 49
6.35
 74
     0
 49
-1.27
 74
     0
 49
1.27
 74
     0
 49
-1.27
 74
     0
 49
1.27
 74
     0
 49
-1.27
 74
     0
  0
LTYPE
  5
41
330
5
100
AcDbSymbolTableRecord
100
AcDbLinetypeTableRecord
  2
CENTER
 70
     0
  3
Center ____ _ ____ _ ____ _ ____ _ ____ _ ____
 72
    65
 73
     4
 40
10.16
 49
6.35
 74
     0
 49
-1.27
 74
     0
 49
1.27
 74
     0
 49
-1.27
 74
     0
  0
LTYPE
  5
42
330
5
100
AcDbSymbolTableRecord
100
AcDbLinetypeTableRecord
  2
CENTERX2
 70
     0
  3
Center (2x) ________  __  ________  __  _____
 72
    65
 73
     4
 40
20.32
 49
12.7
 74
     0
 49
-2.54
 74
     0
 49
2.54
 74
     0
 49
-2.54
 74
     0
  0
LTYPE
  5
43
330
5
100
AcDbSymbolTableRecord
100
AcDbLinetypeTableRecord
  2
DOT2
 70
     0
  3
Dot (.5x) ........................................
 72
    65
 73
     2
 40
0.635
 49
0.0
 74
     0
 49
-0.635
 74
     0
  0
ENDTAB
  0
TABLE
  2
LAYER
  5
2
330
0
100
AcDbSymbolTable
 70
     5
  0
LAYER
  5
10
330
2
100
AcDbSymbolTableRecord
100
AcDbLayerTableRecord
  2
0
 70
     0
 62
     7
  6
Continuous
370
    -3
390
F
  0
LAYER
  5
44
330
2
100
AcDbSymbolTableRecord
100
AcDbLayerTableRecord
  2
FORMAT
 70
     0
 62
     7
  6
Continuous
370
    -3
390
F
  0
LAYER
  5
45
330
2
100
AcDbSymbolTableRecord
100
AcDbLayerTableRecord
  2
VERMASSUNG
 70
     0
 62
     7
  6
Continuous
370
    -3
390
F
  0
LAYER
  5
46
330
2
100
AcDbSymbolTableRecord
100
AcDbLayerTableRecord
  2
KOPF_DÜNN
 70
     0
 62
     7
  6
Continuous
370
    -3
390
F
  0
LAYER
  5
47
330
2
100
AcDbSymbolTableRecord
100
AcDbLayerTableRecord
  2
KOPF_DICK
 70
     0
 62
     7
  6
Continuous
370
    15
390
F
  0
ENDTAB
  0
TABLE
  2
STYLE
  5
3
330
0
100
AcDbSymbolTable
 70
     2
  0
STYLE
  5
11
330
3
100
AcDbSymbolTableRecord
100
AcDbTextStyleTableRecord
  2
Standard
 70
     0
 40
0.0
 41
1.0
 50
0.0
 71
     0
 42
2.0
  3
txt
  4

  0
STYLE
  5
48
330
3
100
AcDbSymbolTableRecord
100
AcDbTextStyleTableRecord
  2
SLDTEXTSTYLE0
 70
     0
 40
0.0
 41
0.7
 50
0.0
 71
     0
 42
0.2
  3
TXT
  4

  0
ENDTAB
  0
TABLE
  2
VIEW
  5
6
330
0
100
AcDbSymbolTable
 70
     0
  0
ENDTAB
  0
TABLE
  2
UCS
  5
7
330
0
100
AcDbSymbolTable
 70
     0
  0
ENDTAB
  0
TABLE
  2
APPID
  5
9
330
0
100
AcDbSymbolTable
 70
     1
  0
APPID
  5
12
330
9
100
AcDbSymbolTableRecord
100
AcDbRegAppTableRecord
  2
ACAD
 70
     0
  0
ENDTAB
  0
TABLE
  2
DIMSTYLE
  5
A
330
0
100
AcDbSymbolTable
 70
     5
100
AcDbDimStyleTable
  0
DIMSTYLE
105
27
330
A
100
AcDbSymbolTableRecord
100
AcDbDimStyleTableRecord
  2
ISO-25
 70
     0
 41
2.5
 42
0.625
 43
3.75
 44
1.25
 73
     0
 74
     0
 77
     1
 78
     8
140
2.5
141
2.5
143
0.0393700787
147
0.625
171
     3
172
     1
178
     0
271
     2
272
     2
274
     3
278
    44
283
     0
284
     8
340
11
  0
DIMSTYLE
105
195
102
{ACAD_REACTORS
330
194
330
19F
330
1A9
330
1BC
330
1C5
102
}
330
A
100
AcDbSymbolTableRecord
100
AcDbDimStyleTableRecord
  2
SLDDIMSTYLE0
 70
     0
 41
3.0
 44
0.0
 45
0.000000001
 73
     0
 74
     0
 77
     1
 78
    12
 79
     3
140
2.0
147
0.5
173
     1
178
     0
271
     2
272
     3
276
     2
284
    12
340
48
  0
DIMSTYLE
105
1B4
102
{ACAD_REACTORS
330
1B3
102
}
330
A
100
AcDbSymbolTableRecord
100
AcDbDimStyleTableRecord
  2
SLDDIMSTYLE1
 70
     0
 41
3.0
 44
0.0
 73
     0
 74
     0
 77
     1
 78
    12
 79
     3
140
2.0
147
0.5
173
     1
178
     0
179
     1
272
     3
276
     2
284
    12
340
48
  0
DIMSTYLE
105
1F5
102
{ACAD_REACTORS
330
1F4
102
}
330
A
100
AcDbSymbolTableRecord
100
AcDbDimStyleTableRecord
  2
SLDDIMSTYLE2
 70
     0
 41
3.0
 44
0.0
 45
0.000000001
 73
     0
 74
     0
 77
     1
 78
    12
 79
     3
140
2.0
147
0.5
172
     1
173
     1
178
     0
271
     2
272
     3
276
     2
284
    12
289
     0
340
48
  0
DIMSTYLE
105
204
102
{ACAD_REACTORS
330
203
102
}
330
A
100
AcDbSymbolTableRecord
100
AcDbDimStyleTableRecord
  2
SLDDIMSTYLE3
 70
     0
 41
3.0
 44
0.0
 73
     0
 74
     0
 77
     1
 78
    12
 79
     3
140
2.0
147
0.5
173
     1
178
     0
179
     2
272
     3
276
     2
284
    12
340
48
  0
ENDTAB
  0
TABLE
  2
BLOCK_RECORD
  5
1
330
0
100
AcDbSymbolTable
 70
    10
  0
BLOCK_RECORD
  5
1F
330
1
100
AcDbSymbolTableRecord
100
AcDbBlockTableRecord
  2
*Model_Space
340
22
  0
BLOCK_RECORD
  5
1B
330
1
100
AcDbSymbolTableRecord
100
AcDbBlockTableRecord
  2
*Paper_Space
340
1E
  0
BLOCK_RECORD
  5
23
330
1
100
AcDbSymbolTableRecord
100
AcDbBlockTableRecord
  2
*Paper_Space0
340
26
  0
BLOCK_RECORD
  5
196
330
1
100
AcDbSymbolTableRecord
100
AcDbBlockTableRecord
  2
_D
340
0
  0
BLOCK_RECORD
  5
1A0
330
1
100
AcDbSymbolTableRecord
100
AcDbBlockTableRecord
  2
_D_1
340
0
  0
BLOCK_RECORD
  5
1AA
330
1
100
AcDbSymbolTableRecord
100
AcDbBlockTableRecord
  2
_D_2
340
0
  0
BLOCK_RECORD
  5
1B5
330
1
100
AcDbSymbolTableRecord
100
AcDbBlockTableRecord
  2
_D_3
340
0
  0
BLOCK_RECORD
  5
1BD
330
1
100
AcDbSymbolTableRecord
100
AcDbBlockTableRecord
  2
_D_4
340
0
  0
BLOCK_RECORD
  5
1C6
330
1
100
AcDbSymbolTableRecord
100
AcDbBlockTableRecord
  2
_D_5
340
0
  0
BLOCK_RECORD
  5
1F6
330
1
100
AcDbSymbolTableRecord
100
AcDbBlockTableRecord
  2
_D_6
340
0
  0
BLOCK_RECORD
  5
205
330
1
100
AcDbSymbolTableRecord
100
AcDbBlockTableRecord
  2
_D_7
340
0
  0
BLOCK_RECORD
  5
210
330
1
100
AcDbSymbolTableRecord
100
AcDbBlockTableRecord
  2
SW_CENTERMARKSYMBOL_0
340
0
102
{BLKREFS
331
21B
102
}
  0
ENDTAB
  0
ENDSEC
  0
SECTION
  2
BLOCKS
  0
BLOCK
  5
20
330
1F
100
AcDbEntity
  8
0
100
AcDbBlockBegin
  2
*Model_Space
 70
     0
 10
0.0
 20
0.0
 30
0.0
  3
*Model_Space
  1

  0
ENDBLK
  5
21
330
1F
100
AcDbEntity
  8
0
100
AcDbBlockEnd
  0
BLOCK
  5
1C
330
1B
100
AcDbEntity
 67
     1
  8
0
100
AcDbBlockBegin
  2
*Paper_Space
 70
     0
 10
0.0
 20
0.0
 30
0.0
  3
*Paper_Space
  1

  0
ENDBLK
  5
1D
330
1B
100
AcDbEntity
 67
     1
  8
0
100
AcDbBlockEnd
  0
BLOCK
  5
24
330
23
100
AcDbEntity
  8
0
100
AcDbBlockBegin
  2
*Paper_Space0
 70
     0
 10
0.0
 20
0.0
 30
0.0
  3
*Paper_Space0
  1

  0
ENDBLK
  5
25
330
23
100
AcDbEntity
  8
0
100
AcDbBlockEnd
  0
BLOCK
  5
197
330
196
100
AcDbEntity
  8
0
100
AcDbBlockBegin
  2
_D
 70
     0
 10
0.0
 20
0.0
 30
0.0
  3
_D
  1

  0
SOLID
  5
199
330
196
100
AcDbEntity
  8
VERMASSUNG
100
AcDbTrace
 10
166.5527564442
 20
87.0979632741
 30
0.0
 11
169.5527564442
 21
86.6479632741
 31
0.0
 12
169.5527564442
 22
87.5479632741
 32
0.0
 13
169.5527564442
 23
87.5479632741
 33
0.0
  0
SOLID
  5
19A
330
196
100
AcDbEntity
  8
VERMASSUNG
100
AcDbTrace
 10
256.5527564442
 20
87.0979632741
 30
0.0
 11
253.5527564442
 21
87.5479632741
 31
0.0
 12
253.5527564442
 22
86.6479632741
 32
0.0
 13
253.5527564442
 23
86.6479632741
 33
0.0
  0
LINE
  5
19B
330
196
100
AcDbEntity
  8
VERMASSUNG
100
AcDbLine
 10
166.5527564442
 20
94.403095474
 30
0.0
 11
166.5527564442
 21
86.0979632741
 31
0.0
  0
LINE
  5
19C
330
196
100
AcDbEntity
  8
VERMASSUNG
100
AcDbLine
 10
256.5527564442
 20
102.103095474
 30
0.0
 11
256.5527564442
 21
86.0979632741
 31
0.0
  0
LINE
  5
19D
330
196
100
AcDbEntity
  8
VERMASSUNG
100
AcDbLine
 10
166.5527564442
 20
87.0979632741
 30
0.0
 11
256.5527564442
 21
87.0979632741
 31
0.0
  0
MTEXT
  5
19E
330
196
100
AcDbEntity
  8
VERMASSUNG
100
AcDbMText
 10
209.2527563931
 20
89.6760986372
 30
0.1
 40
2.0
 41
0.0
 71
     1
 72
     1
  1
90
  7
SLDTEXTSTYLE0
 73
     1
 44
1.0
  0
ENDBLK
  5
198
330
196
100
AcDbEntity
  8
0
100
AcDbBlockEnd
  0
BLOCK
  5
1A1
330
1A0
100
AcDbEntity
  8
0
100
AcDbBlockBegin
  2
_D_1
 70
     0
 10
0.0
 20
0.0
 30
0.0
  3
_D_1
  1

  0
SOLID
  5
1A3
330
1A0
100
AcDbEntity
  8
VERMASSUNG
100
AcDbTrace
 10
256.5527564442
 20
78.103095474
 30
0.0
 11
253.5527564442
 21
78.553095474
 31
0.0
 12
253.5527564442
 22
77.653095474
 32
0.0
 13
253.5527564442
 23
77.653095474
 33
0.0
  0
SOLID
  5
1A4
330
1A0
100
AcDbEntity
  8
VERMASSUNG
100
AcDbTrace
 10
136.5527564442
 20
78.103095474
 30
0.0
 11
139.5527564442
 21
77.653095474
 31
0.0
 12
139.5527564442
 22
78.553095474
 32
0.0
 13
139.5527564442
 23
78.553095474
 33
0.0
  0
LINE
  5
1A5
330
1A0
100
AcDbEntity
  8
VERMASSUNG
100
AcDbLine
 10
256.5527564442
 20
102.103095474
 30
0.0
 11
256.5527564442
 21
77.103095474
 31
0.0
  0
LINE
  5
1A6
330
1A0
100
AcDbEntity
  8
VERMASSUNG
100
AcDbLine
 10
136.5527564442
 20
103.1097696359
 30
0.0
 11
136.5527564442
 21
77.103095474
 31
0.0
  0
LINE
  5
1A7
330
1A0
100
AcDbEntity
  8
VERMASSUNG
100
AcDbLine
 10
256.5527564442
 20
78.103095474
 30
0.0
 11
136.5527564442
 21
78.103095474
 31
0.0
  0
MTEXT
  5
1A8
330
1A0
100
AcDbEntity
  8
VERMASSUNG
100
AcDbMText
 10
193.7527563112
 20
80.6812308371
 30
0.1
 40
2.0
 41
0.0
 71
     1
 72
     1
  1
120
  7
SLDTEXTSTYLE0
 73
     1
 44
1.0
  0
ENDBLK
  5
1A2
330
1A0
100
AcDbEntity
  8
0
100
AcDbBlockEnd
  0
BLOCK
  5
1AB
330
1AA
100
AcDbEntity
  8
0
100
AcDbBlockBegin
  2
_D_2
 70
     0
 10
0.0
 20
0.0
 30
0.0
  3
_D_2
  1

  0
SOLID
  5
1AD
330
1AA
100
AcDbEntity
  8
VERMASSUNG
100
AcDbTrace
 10
273.6232499592
 20
102.103095474
 30
0.0
 11
274.0732499592
 21
105.103095474
 31
0.0
 12
273.1732499592
 22
105.103095474
 32
0.0
 13
273.1732499592
 23
105.103095474
 33
0.0
  0
SOLID
  5
1AE
330
1AA
100
AcDbEntity
  8
VERMASSUNG
100
AcDbTrace
 10
273.6232499592
 20
119.103095474
 30
0.0
 11
273.1732499592
 21
116.103095474
 31
0.0
 12
274.0732499592
 22
116.103095474
 32
0.0
 13
274.0732499592
 23
116.103095474
 33
0.0
  0
LINE
  5
1AF
330
1AA
100
AcDbEntity
  8
VERMASSUNG
100
AcDbLine
 10
256.5527564442
 20
102.103095474
 30
0.0
 11
274.6232499592
 21
102.103095474
 31
0.0
  0
LINE
  5
1B0
330
1AA
100
AcDbEntity
  8
VERMASSUNG
100
AcDbLine
 10
256.5527564442
 20
119.103095474
 30
0.0
 11
274.6232499592
 21
119.103095474
 31
0.0
  0
LINE
  5
1B1
330
1AA
100
AcDbEntity
  8
VERMASSUNG
100
AcDbLine
 10
273.6232499592
 20
102.103095474
 30
0.0
 11
273.6232499592
 21
119.103095474
 31
0.0
  0
MTEXT
  5
1B2
330
1AA
100
AcDbEntity
  8
VERMASSUNG
100
AcDbMText
 10
271.0451145961
 20
108.5030953161
 30
0.1
 40
2.0
 41
0.0
 71
     1
 72
     1
  1
17
  7
SLDTEXTSTYLE0
 11
6.123233995736766E-17
 21
1.0
 31
0.0
 73
     1
 44
1.0
  0
ENDBLK
  5
1AC
330
1AA
100
AcDbEntity
  8
0
100
AcDbBlockEnd
  0
BLOCK
  5
1B6
330
1B5
100
AcDbEntity
  8
0
100
AcDbBlockBegin
  2
_D_3
 70
     0
 10
0.0
 20
0.0
 30
0.0
  3
_D_3
  1

  0
ARC
  5
1B8
330
1B5
100
AcDbEntity
  8
VERMASSUNG
100
AcDbCircle
 10
256.5892798446
 20
102.103095474
 30
0.0
 40
10.32028660071364
100
AcDbArc
 50
0.0
 51
95.0121473722
  0
SOLID
  5
1B9
330
1B5
100
AcDbEntity
  8
VERMASSUNG
100
AcDbTrace
 10
266.9095664453
 20
102.103095474
 30
0.0
 11
266.9321457772
 21
105.1365737043
 31
0.0
 12
266.041134003
 22
105.0096957378
 32
0.0
 13
266.041134003
 23
105.0096957378
 33
0.0
  0
SOLID
  5
1BA
330
1B5
100
AcDbEntity
  8
VERMASSUNG
100
AcDbTrace
 10
255.687627926
 20
112.3839193388
 30
0.0
 11
258.6589862148
 21
111.7727483978
 31
0.0
 12
258.7075340479
 22
112.6714380595
 32
0.0
 13
258.7075340479
 23
112.6714380595
 33
0.0
  0
MTEXT
  5
1BB
330
1B5
100
AcDbEntity
  8
VERMASSUNG
100
AcDbMText
 10
263.164007186
 20
113.5727184268
 30
0.1
 40
2.0
 41
0.0
 71
     1
 72
     1
  1
95°
  7
SLDTEXTSTYLE0
 11
0.7373489491615023
 21
-0.6755120481312146
 31
0.0
 73
     1
 44
1.0
  0
ENDBLK
  5
1B7
330
1B5
100
AcDbEntity
  8
0
100
AcDbBlockEnd
  0
BLOCK
  5
1BE
330
1BD
100
AcDbEntity
  8
0
100
AcDbBlockBegin
  2
_D_4
 70
     0
 10
0.0
 20
0.0
 30
0.0
  3
_D_4
  1

  0
SOLID
  5
1C0
330
1BD
100
AcDbEntity
  8
VERMASSUNG
100
AcDbTrace
 10
202.0923537397
 20
106.603095474
 30
0.0
 11
202.5423537397
 21
109.603095474
 31
0.0
 12
201.6423537397
 22
109.603095474
 32
0.0
 13
201.6423537397
 23
109.603095474
 33
0.0
  0
SOLID
  5
1C1
330
1BD
100
AcDbEntity
  8
VERMASSUNG
100
AcDbTrace
 10
202.0923537397
 20
131.603095474
 30
0.0
 11
201.6423537397
 21
128.603095474
 31
0.0
 12
202.5423537397
 22
128.603095474
 32
0.0
 13
202.5423537397
 23
128.603095474
 33
0.0
  0
LINE
  5
1C2
330
1BD
100
AcDbEntity
  8
VERMASSUNG
100
AcDbLine
 10
202.0923537397
 20
106.603095474
 30
0.0
 11
202.0923537397
 21
131.603095474
 31
0.0
  0
MTEXT
  5
1C3
330
1BD
100
AcDbEntity
  8
VERMASSUNG
100
AcDbMText
 10
199.5142182602
 20
107.9672186734
 30
0.1
 40
2.0
 41
0.0
 71
     1
 72
     1
  1
%%c
  7
SLDTEXTSTYLE0
 11
6.123233995736766E-17
 21
1.0
 31
0.0
 73
     1
 44
1.0
  0
MTEXT
  5
1C4
330
1BD
100
AcDbEntity
  8
VERMASSUNG
100
AcDbMText
 10
199.3142182507
 20
111.5772186878
 30
0.1
 40
2.0
 41
0.0
 71
     1
 72
     1
  1
25
  7
SLDTEXTSTYLE0
 11
6.123233995736766E-17
 21
1.0
 31
0.0
 73
     1
 44
1.0
  0
ENDBLK
  5
1BF
330
1BD
100
AcDbEntity
  8
0
100
AcDbBlockEnd
  0
BLOCK
  5
1C7
330
1C6
100
AcDbEntity
  8
0
100
AcDbBlockBegin
  2
_D_5
 70
     0
 10
0.0
 20
0.0
 30
0.0
  3
_D_5
  1

  0
SOLID
  5
1C9
330
1C6
100
AcDbEntity
  8
VERMASSUNG
100
AcDbTrace
 10
126.5527564442
 20
144.103095474
 30
0.0
 11
126.1027564442
 21
141.103095474
 31
0.0
 12
127.0027564442
 22
141.103095474
 32
0.0
 13
127.0027564442
 23
141.103095474
 33
0.0
  0
SOLID
  5
1CA
330
1C6
100
AcDbEntity
  8
VERMASSUNG
100
AcDbTrace
 10
126.5527564442
 20
94.103095474
 30
0.0
 11
127.0027564442
 21
97.103095474
 31
0.0
 12
126.1027564442
 22
97.103095474
 32
0.0
 13
126.1027564442
 23
97.103095474
 33
0.0
  0
LINE
  5
1CB
330
1C6
100
AcDbEntity
  8
VERMASSUNG
100
AcDbLine
 10
166.8527564442
 20
144.103095474
 30
0.0
 11
125.5527564442
 21
144.103095474
 31
0.0
  0
LINE
  5
1CC
330
1C6
100
AcDbEntity
  8
VERMASSUNG
100
AcDbLine
 10
166.8527564442
 20
94.103095474
 30
0.0
 11
125.5527564442
 21
94.103095474
 31
0.0
  0
LINE
  5
1CD
330
1C6
100
AcDbEntity
  8
VERMASSUNG
100
AcDbLine
 10
126.5527564442
 20
144.103095474
 30
0.0
 11
126.5527564442
 21
94.103095474
 31
0.0
  0
MTEXT
  5
1CE
330
1C6
100
AcDbEntity
  8
VERMASSUNG
100
AcDbMText
 10
123.7746209551
 20
112.6980953648
 30
0.1
 40
2.0
 41
0.0
 71
     1
 72
     1
  1
PSC
  7
SLDTEXTSTYLE0
 11
-7.044195017643634E-15
 21
1.0
 31
0.0
 73
     1
 44
1.0
  0
MTEXT
  5
1CF
330
1C6
100
AcDbEntity
  8
VERMASSUNG
100
AcDbMText
 10
123.9746209646
 20
117.2980954669
 30
0.1
 40
2.0
 41
0.0
 71
     1
 72
     1
  1
%%c
  7
SLDTEXTSTYLE0
 11
-7.044195017643634E-15
 21
1.0
 31
0.0
 73
     1
 44
1.0
  0
MTEXT
  5
1D0
330
1C6
100
AcDbEntity
  8
VERMASSUNG
100
AcDbMText
 10
123.7746209551
 20
120.9080959468
 30
0.1
 40
2.0
 41
0.0
 71
     1
 72
     1
  1
50
  7
SLDTEXTSTYLE0
 11
-7.044195017643634E-15
 21
1.0
 31
0.0
 73
     1
 44
1.0
  0
ENDBLK
  5
1C8
330
1C6
100
AcDbEntity
  8
0
100
AcDbBlockEnd
  0
BLOCK
  5
1F7
330
1F6
100
AcDbEntity
  8
0
100
AcDbBlockBegin
  2
_D_6
 70
     0
 10
0.0
 20
0.0
 30
0.0
  3
_D_6
  1

  0
SOLID
  5
1F9
330
1F6
100
AcDbEntity
  8
VERMASSUNG
100
AcDbTrace
 10
79.2400007339
 20
129.4676446923
 30
0.0
 11
81.679519129
 21
131.2707669843
 31
0.0
 12
81.0431230259
 22
131.9071630874
 32
0.0
 13
81.0431230259
 23
131.9071630874
 33
0.0
  0
SOLID
  5
1FA
330
1F6
100
AcDbEntity
  8
VERMASSUNG
100
AcDbTrace
 10
56.612583736
 20
106.8402276943
 30
0.0
 11
54.1730653409
 21
105.0371054023
 31
0.0
 12
54.8094614439
 22
104.4007092992
 32
0.0
 13
54.8094614439
 23
104.4007092992
 33
0.0
  0
LINE
  5
1FB
330
1F6
100
AcDbEntity
  8
VERMASSUNG
100
AcDbLine
 10
79.2400007339
 20
129.4676446923
 30
0.0
 11
79.9471075151
 21
128.7605379111
 31
0.0
  0
LINE
  5
1FC
330
1F6
100
AcDbEntity
  8
VERMASSUNG
100
AcDbLine
 10
56.612583736
 20
106.8402276943
 30
0.0
 11
57.3196905171
 21
106.1331209132
 31
0.0
  0
LINE
  5
1FD
330
1F6
100
AcDbEntity
  8
VERMASSUNG
100
AcDbLine
 10
79.2400007339
 20
129.4676446923
 30
0.0
 11
83.482641421
 21
133.7102853794
 31
0.0
  0
LINE
  5
1FE
330
1F6
100
AcDbEntity
  8
VERMASSUNG
100
AcDbLine
 10
79.2400007339
 20
129.4676446923
 30
0.0
 11
56.612583736
 21
106.8402276943
 31
0.0
  0
LINE
  5
1FF
330
1F6
100
AcDbEntity
  8
VERMASSUNG
100
AcDbLine
 10
56.612583736
 20
106.8402276943
 30
0.0
 11
39.8579113574
 21
90.0855553158
 31
0.0
  0
MTEXT
  5
200
330
1F6
100
AcDbEntity
  8
VERMASSUNG
100
AcDbMText
 10
38.034894277
 20
91.9085723962
 30
0.1
 40
2.0
 41
0.0
 71
     1
 72
     1
  1
%%c
  7
SLDTEXTSTYLE0
 11
0.7071067811865466
 21
0.7071067811865485
 31
0.0
 73
     1
 44
1.0
  0
MTEXT
  5
201
330
1F6
100
AcDbEntity
  8
VERMASSUNG
100
AcDbMText
 10
40.4461284043
 20
94.6026492494
 30
0.1
 40
2.0
 41
0.0
 71
     1
 72
     1
  1
32
  7
SLDTEXTSTYLE0
 11
0.7071067811865466
 21
0.7071067811865485
 31
0.0
 73
     1
 44
1.0
  0
MTEXT
  5
202
330
1F6
100
AcDbEntity
  8
VERMASSUNG
100
AcDbMText
 10
44.5385093018
 20
98.6950301469
 30
0.1
 40
2.0
 41
0.0
 71
     1
 72
     1
  1
min.
  7
SLDTEXTSTYLE0
 11
0.7071067811865466
 21
0.7071067811865485
 31
0.0
 73
     1
 44
1.0
  0
ENDBLK
  5
1F8
330
1F6
100
AcDbEntity
  8
0
100
AcDbBlockEnd
  0
BLOCK
  5
206
330
205
100
AcDbEntity
  8
0
100
AcDbBlockBegin
  2
_D_7
 70
     0
 10
0.0
 20
0.0
 30
0.0
  3
_D_7
  1

  0
ARC
  5
208
330
205
100
AcDbEntity
  8
VERMASSUNG
100
AcDbCircle
 10
67.9262922349
 20
106.4037715819
 30
0.0
 40
43.53373659353087
100
AcDbArc
 50
90.0
 51
94.0
  0
ARC
  5
209
330
205
100
AcDbEntity
  8
VERMASSUNG
100
AcDbCircle
 10
67.9262922349
 20
106.4037715819
 30
0.0
 40
43.53373659353086
100
AcDbArc
 50
82.120395175
 51
90.0
  0
ARC
  5
20A
330
205
100
AcDbEntity
  8
VERMASSUNG
100
AcDbCircle
 10
67.9262922349
 20
106.4037715819
 30
0.0
 40
43.53373659353088
100
AcDbArc
 50
94.0
 51
105.4321592526
  0
SOLID
  5
20B
330
205
100
AcDbEntity
  8
VERMASSUNG
100
AcDbTrace
 10
67.9262922349
 20
149.9375081754
 30
0.0
 11
70.9090395114
 21
149.3845898406
 31
0.0
 12
70.9399948884
 22
150.2840573301
 32
0.0
 13
70.9399948884
 23
150.2840573301
 33
0.0
  0
SOLID
  5
20C
330
205
100
AcDbEntity
  8
VERMASSUNG
100
AcDbTrace
 10
64.8895322813
 20
149.8314621811
 30
0.0
 11
61.858996809
 21
149.9669418894
 31
0.0
 12
61.9526204606
 22
149.0718247954
 32
0.0
 13
61.9526204606
 23
149.0718247954
 33
0.0
  0
LINE
  5
20D
330
205
100
AcDbEntity
  8
VERMASSUNG
100
AcDbLine
 10
67.9262922349
 20
146.603095474
 30
0.0
 11
67.9262922349
 21
150.9375081754
 31
0.0
  0
LINE
  5
20E
330
205
100
AcDbEntity
  8
VERMASSUNG
100
AcDbLine
 10
67.2346747485
 20
116.2943624329
 30
0.0
 11
64.8197758075
 21
150.8290262313
 31
0.0
  0
MTEXT
  5
20F
330
205
100
AcDbEntity
  8
VERMASSUNG
100
AcDbMText
 10
55.771967024
 20
150.944394773
 30
-30.4352467575
 40
2.0
 41
0.0
 71
     1
 72
     1
  1
4°
  7
SLDTEXTSTYLE0
 11
0.9766427113517507
 21
0.2148697613986222
 31
0.0
 73
     1
 44
1.0
  0
ENDBLK
  5
207
330
205
100
AcDbEntity
  8
0
100
AcDbBlockEnd
  0
BLOCK
  5
211
330
210
100
AcDbEntity
  8
0
100
AcDbBlockBegin
  2
SW_CENTERMARKSYMBOL_0
 70
     0
 10
0.0
 20
0.0
 30
0.0
  3
SW_CENTERMARKSYMBOL_0
  1

  0
LINE
  5
213
330
210
100
AcDbEntity
  8
VERMASSUNG
 62
     0
100
AcDbLine
 10
0.0
 20
0.0
 30
0.0
 11
0.0
 21
2.5
 31
0.0
  0
LINE
  5
214
330
210
100
AcDbEntity
  8
VERMASSUNG
 62
     0
100
AcDbLine
 10
0.0
 20
0.0
 30
0.0
 11
-2.5
 21
0.0
 31
0.0
  0
LINE
  5
215
330
210
100
AcDbEntity
  8
VERMASSUNG
 62
     0
100
AcDbLine
 10
0.0
 20
0.0
 30
0.0
 11
0.0
 21
-2.5
 31
0.0
  0
LINE
  5
216
330
210
100
AcDbEntity
  8
VERMASSUNG
 62
     0
100
AcDbLine
 10
0.0
 20
0.0
 30
0.0
 11
2.5
 21
0.0
 31
0.0
  0
LINE
  5
217
330
210
100
AcDbEntity
  8
VERMASSUNG
 62
     0
100
AcDbLine
 10
0.0
 20
5.0
 30
0.0
 11
0.0
 21
27.5
 31
0.0
  0
LINE
  5
218
330
210
100
AcDbEntity
  8
VERMASSUNG
 62
     0
100
AcDbLine
 10
-5.0
 20
0.0
 30
0.0
 11
-27.5
 21
0.0
 31
0.0
  0
LINE
  5
219
330
210
100
AcDbEntity
  8
VERMASSUNG
 62
     0
100
AcDbLine
 10
0.0
 20
-5.0
 30
0.0
 11
0.0
 21
-27.5
 31
0.0
  0
LINE
  5
21A
330
210
100
AcDbEntity
  8
VERMASSUNG
 62
     0
100
AcDbLine
 10
5.0
 20
0.0
 30
0.0
 11
27.5
 21
0.0
 31
0.0
  0
ENDBLK
  5
212
330
210
100
AcDbEntity
  8
0
100
AcDbBlockEnd
  0
ENDSEC
  0
SECTION
  2
ENTITIES
  0
MTEXT
  5
49
330
1F
100
AcDbEntity
  8
KOPF_DÜNN
100
AcDbMText
 10
13.8892156294
 20
23.8442973028
 30
0.0
 40
3.0
 41
0.0
 71
     1
 72
     1
  1
PS5.BCC.LLA.090
  7
SLDTEXTSTYLE0
 73
     1
 44
1.0
  0
MTEXT
  5
4A
330
1F
100
AcDbEntity
  8
VERMASSUNG
100
AcDbMText
 10
13.9329988022
 20
28.8834360957
 30
0.0
 40
3.0
 41
0.0
 71
     1
 72
     1
  1
Bohrstange links_Boring bar left
  7
SLDTEXTSTYLE0
 73
     1
 44
1.0
  0
MTEXT
  5
4B
330
1F
100
AcDbEntity
  8
VERMASSUNG
100
AcDbMText
 10
98.8601118557
 20
13.8365368179
 30
0.0
 40
2.0
 41
0.0
 71
     1
 72
     1
  1
Datum: 04.06.2012
  7
SLDTEXTSTYLE0
 73
     1
 44
1.0
  0
MTEXT
  5
4C
330
1F
100
AcDbEntity
  8
VERMASSUNG
100
AcDbMText
 10
13.933048693
 20
18.0482802738
 30
0.0
 40
2.0
 41
0.0
 71
     1
 72
     1
  1
PSC ø50 / Wp.: CC..12 04..
  7
SLDTEXTSTYLE0
 73
     1
 44
1.0
  0
MTEXT
  5
4D
330
1F
100
AcDbEntity
  8
VERMASSUNG
100
AcDbMText
 10
13.9808475933
 20
13.9090973692
 30
0.0
 40
2.0
 41
0.0
 71
     1
 72
     1
  1
Gewicht: 626g
  7
SLDTEXTSTYLE0
 73
     1
 44
1.0
  0
ARC
  5
4E
330
1F
100
AcDbEntity
  8
0
  6
Continuous
 62
     7
370
    15
100
AcDbCircle
 10
166.8527564442
 20
94.403095474
 30
0.0
 40
0.2999999999999972
100
AcDbArc
 50
180.0
 51
270.0
  0
ARC
  5
4F
330
1F
100
AcDbEntity
  8
0
  6
Continuous
 62
     7
370
    15
100
AcDbCircle
 10
166.8527564442
 20
143.803095474
 30
0.0
 40
0.2999999999999829
100
AcDbArc
 50
90.0
 51
180.0
  0
ARC
  5
50
330
1F
100
AcDbEntity
  8
0
  6
Continuous
 62
     7
370
    15
100
AcDbCircle
 10
185.9527564442
 20
94.703095474
 30
0.0
 40
0.6000000000000227
100
AcDbArc
 50
270.0
 51
0.0
  0
ARC
  5
51
330
1F
100
AcDbEntity
  8
0
  6
Continuous
 62
     7
370
    15
100
AcDbCircle
 10
185.9527564442
 20
143.503095474
 30
0.0
 40
0.6000000000000227
100
AcDbArc
 50
0.0
 51
90.0
  0
LINE
  5
52
330
1F
100
AcDbEntity
  8
0
  6
Continuous
 62
     7
370
    15
100
AcDbLine
 10
166.8527564442
 20
94.103095474
 30
0.0
 11
185.9527564442
 21
94.103095474
 31
0.0
  0
LINE
  5
53
330
1F
100
AcDbEntity
  8
0
  6
Continuous
 62
     7
370
    15
100
AcDbLine
 10
185.9527564442
 20
144.103095474
 30
0.0
 11
166.8527564442
 21
144.103095474
 31
0.0
  0
LWPOLYLINE
  5
54
330
1F
100
AcDbEntity
  8
0
  6
Continuous
 62
     7
370
    15
100
AcDbPolyline
 90
        3
 70
   128
 43
0.0
 10
166.3527564442
 20
101.2632751951
 10
166.4782113876
 20
101.1949730802
 10
166.5527564442
 20
101.1422353221
  0
LWPOLYLINE
  5
55
330
1F
100
AcDbEntity
  8
0
  6
Continuous
 62
     7
370
    15
100
AcDbPolyline
 90
        3
 70
   128
 43
0.0
 10
166.5527564442
 20
137.063955626
 10
166.4782113876
 20
137.0112178678
 10
166.3527564442
 20
136.9429157529
  0
ARC
  5
56
330
1F
100
AcDbEntity
  8
0
  6
Continuous
 62
     7
370
    15
100
AcDbCircle
 10
190.5527564442
 20
102.603095474
 30
0.0
 40
4.0
100
AcDbArc
 50
90.0
 51
180.0
  0
ARC
  5
57
330
1F
100
AcDbEntity
  8
0
  6
Continuous
 62
     7
370
    15
100
AcDbCircle
 10
190.5527564442
 20
135.603095474
 30
0.0
 40
4.0
100
AcDbArc
 50
180.0
 51
270.0
  0
LINE
  5
58
330
1F
100
AcDbEntity
  8
0
  6
Continuous
 62
     7
370
    15
100
AcDbLine
 10
230.1385428818
 20
131.603095474
 30
0.0
 11
190.5527564442
 21
131.603095474
 31
0.0
  0
LINE
  5
59
330
1F
100
AcDbEntity
  8
0
  6
Continuous
 62
     7
370
    15
100
AcDbLine
 10
190.5527564442
 20
106.603095474
 30
0.0
 11
230.1385428818
 21
106.603095474
 31
0.0
  0
ARC
  5
5A
330
1F
100
AcDbEntity
  8
0
  6
Continuous
 62
     7
370
    15
100
AcDbCircle
 10
230.1385428818
 20
132.603095474
 30
0.0
 40
1.0
100
AcDbArc
 50
270.0
 51
315.0
  0
ARC
  5
5B
330
1F
100
AcDbEntity
  8
0
  6
Continuous
 62
     7
370
    15
100
AcDbCircle
 10
230.1385428818
 20
105.603095474
 30
0.0
 40
1.000000000000003
100
AcDbArc
 50
50.5675581036
 51
64.6825126226
  0
LINE
  5
5C
330
1F
100
AcDbEntity
  8
0
  6
Continuous
 62
     7
370
    15
100
AcDbLine
 10
243.7314798593
 20
132.103095474
 30
0.0
 11
231.0527564442
 21
132.103095474
 31
0.0
  0
LINE
  5
5D
330
1F
100
AcDbEntity
  8
0
  6
Continuous
 62
     7
370
    15
100
AcDbLine
 10
231.0527564442
 20
132.103095474
 30
0.0
 11
230.845649663
 21
131.8959886928
 31
0.0
  0
LINE
  5
5E
330
1F
100
AcDbEntity
  8
0
  6
Continuous
 62
     7
370
    15
100
AcDbLine
 10
250.992691843
 20
109.2386154642
 30
0.0
 11
250.992691843
 21
109.1269713659
 31
0.0
  0
LINE
  5
5F
330
1F
100
AcDbEntity
  8
0
  6
Continuous
 62
     7
370
    15
100
AcDbLine
 10
248.154434803
 20
109.0155897095
 30
0.0
 11
248.154434803
 21
109.1271984767
 31
0.0
  0
LINE
  5
60
330
1F
100
AcDbEntity
  8
0
  6
Continuous
 62
     7
370
    15
100
AcDbLine
 10
253.0720270427
 20
109.1016984064
 30
0.0
 11
253.0720270427
 21
109.1156497011
 31
0.0
  0
LINE
  5
61
330
1F
100
AcDbEntity
  8
0
  6
Continuous
 62
     7
370
    15
100
AcDbLine
 10
246.0720270427
 20
109.1156497011
 30
0.0
 11
246.0720270427
 21
109.1016984064
 31
0.0
  0
LINE
  5
62
330
1F
100
AcDbEntity
  8
0
  6
Continuous
 62
     7
370
    15
100
AcDbLine
 10
166.5527564442
 20
94.403095474
 30
0.0
 11
166.5527564442
 21
143.8030954658
 31
0.0
  0
LINE
  5
63
330
1F
100
AcDbEntity
  8
0
  6
Continuous
 62
     7
370
    15
100
AcDbLine
 10
186.5527564442
 20
143.503095466
 30
0.0
 11
186.5527564442
 21
94.703095474
 31
0.0
  0
SPLINE
  5
64
330
1F
100
AcDbEntity
  8
0
  6
Continuous
 62
     7
370
    15
100
AcDbSpline
210
0.0
220
0.0
230
1.0
 70
     8
 71
     3
 72
    12
 73
     8
 74
     0
 42
0.00000001
 43
0.00000001
 12
1.0
 22
0.0
 32
0.0
 13
1.0
 23
0.0
 33
0.0
 40
0.0
 40
0.0
 40
0.0
 40
0.0
 40
0.2499999999999993
 40
0.2499999999999993
 40
0.4999999999999987
 40
0.4999999999999987
 40
1.0
 40
1.0
 40
1.0
 40
1.0
 10
175.0805132577248
 20
126.6719054432016
 30
0.0
 10
175.0168480211943
 20
126.6719054432016
 30
0.0
 10
174.957241788971
 20
126.6979775916813
 30
0.0
 10
174.8585812640401
 20
126.7735163425024
 30
0.0
 10
174.8196142740249
 20
126.8207672795986
 30
0.0
 10
174.7202274421004
 20
126.9725910975651
 30
0.0
 10
174.678151194677
 20
127.0853943473302
 30
0.0
 10
174.6475005558326
 20
127.1995484720653
 30
0.0
  0
LINE
  5
65
330
1F
100
AcDbEntity
  8
0
  6
Continuous
 62
     7
370
    15
100
AcDbLine
 10
178.0249996306
 20
126.6719054432
 30
0.0
 11
175.0805132577
 21
126.6719054432
 31
0.0
  0
SPLINE
  5
66
330
1F
100
AcDbEntity
  8
0
  6
Continuous
 62
     7
370
    15
100
AcDbSpline
210
0.0
220
0.0
230
1.0
 70
     8
 71
     3
 72
    12
 73
     8
 74
     0
 42
0.00000001
 43
0.00000001
 12
1.0
 22
0.0
 32
0.0
 13
1.0
 23
0.0
 33
0.0
 40
0.0
 40
0.0
 40
0.0
 40
0.0
 40
0.4999999999999996
 40
0.4999999999999996
 40
0.7499999999999998
 40
0.7499999999999998
 40
1.0
 40
1.0
 40
1.0
 40
1.0
 10
178.4580123324841
 20
127.1995484720652
 30
0.0
 10
178.4273129491169
 20
127.0852128050014
 30
0.0
 10
178.3859628810103
 20
126.97385945216
 30
0.0
 10
178.2862069527909
 20
126.8211226799113
 30
0.0
 10
178.2465100350582
 20
126.7732627940591
 30
0.0
 10
178.1492518834106
 20
126.6986596807097
 30
0.0
 10
178.0884757254199
 20
126.6719054432016
 30
0.0
 10
178.0249996305919
 20
126.6719054432016
 30
0.0
  0
ELLIPSE
  5
67
330
1F
100
AcDbEntity
  8
0
  6
Continuous
 62
     7
370
    15
100
AcDbEllipse
 10
165.4964987892
 20
119.103095474
 30
0.0
 11
11.70927234972708
 21
24.67718644093742
 31
0.0
210
0.0
220
0.0
230
1.0
 40
0.3419987131
 41
5.203068809370451
 42
6.114256032590497
  0
SPLINE
  5
68
330
1F
100
AcDbEntity
  8
0
  6
Continuous
 62
     7
370
    15
100
AcDbSpline
210
0.0
220
0.0
230
1.0
 70
     8
 71
     3
 72
    12
 73
     8
 74
     0
 42
0.00000001
 43
0.00000001
 12
1.0
 22
0.0
 32
0.0
 13
1.0
 23
0.0
 33
0.0
 40
0.0
 40
0.0
 40
0.0
 40
0.0
 40
0.2500000000000026
 40
0.2500000000000026
 40
0.5000000000000051
 40
0.5000000000000051
 40
1.0
 40
1.0
 40
1.0
 40
1.0
 10
178.0249996305919
 20
142.9298265895231
 30
0.0
 10
178.0886648671224
 20
142.9298265895231
 30
0.0
 10
178.1482710993458
 20
142.9215618138572
 30
0.0
 10
178.2469316242767
 20
142.8973430322741
 30
0.0
 10
178.2858986142919
 20
142.8820857129649
 30
0.0
 10
178.3852854462164
 20
142.832452358703
 30
0.0
 10
178.4273616936398
 20
142.7948126505289
 30
0.0
 10
178.4580123324841
 20
142.7557369512527
 30
0.0
  0
LINE
  5
69
330
1F
100
AcDbEntity
  8
0
  6
Continuous
 62
     7
370
    15
100
AcDbLine
 10
175.0805132577
 20
142.9298265895
 30
0.0
 11
178.0249996306
 21
142.9298265895
 31
0.0
  0
SPLINE
  5
6A
330
1F
100
AcDbEntity
  8
0
  6
Continuous
 62
     7
370
    15
100
AcDbSpline
210
0.0
220
0.0
230
1.0
 70
     8
 71
     3
 72
    12
 73
     8
 74
     0
 42
0.00000001
 43
0.00000001
 12
1.0
 22
0.0
 32
0.0
 13
1.0
 23
0.0
 33
0.0
 40
0.0
 40
0.0
 40
0.0
 40
0.0
 40
0.5000000000000018
 40
0.5000000000000018
 40
0.7500000000000009
 40
0.7500000000000009
 40
1.0
 40
1.0
 40
1.0
 40
1.0
 10
174.6475005558326
 20
142.7557369512527
 30
0.0
 10
174.6781999391999
 20
142.7948747936486
 30
0.0
 10
174.7195500073064
 20
142.8320345763741
 30
0.0
 10
174.8193059355258
 20
142.8819710820019
 30
0.0
 10
174.8590028532586
 20
142.8974239521457
 30
0.0
 10
174.9562610049062
 20
142.9213434957447
 30
0.0
 10
175.0170371628969
 20
142.9298265895231
 30
0.0
 10
175.0805132577248
 20
142.9298265895231
 30
0.0
  0
ELLIPSE
  5
6B
330
1F
100
AcDbEntity
  8
0
  6
Continuous
 62
     7
370
    15
100
AcDbEllipse
 10
187.6090140991
 20
119.103095474
 30
0.0
 11
-11.70927234972698
 21
24.67718644093743
 31
0.0
210
0.0
220
0.0
230
1.0
 40
0.3419987131
 41
0.168929274589132
 42
1.080116497809149
  0
SPLINE
  5
6C
330
1F
100
AcDbEntity
  8
0
  6
Continuous
 62
     7
370
    15
100
AcDbSpline
210
0.0
220
0.0
230
1.0
 70
     8
 71
     3
 72
    12
 73
     8
 74
     0
 42
0.00000001
 43
0.00000001
 12
1.0
 22
0.0
 32
0.0
 13
1.0
 23
0.0
 33
0.0
 40
0.0
 40
0.0
 40
0.0
 40
0.0
 40
0.2500000000000007
 40
0.2500000000000007
 40
0.5000000000000013
 40
0.5000000000000013
 40
1.0
 40
1.0
 40
1.0
 40
1.0
 10
175.0805132577248
 20
95.27636435851919
 30
0.0
 10
175.0168767035111
 20
95.27636435851919
 30
0.0
 10
174.9572965766449
 20
95.28462112945095
 30
0.0
 10
174.8586598352785
 20
95.30882319145879
 30
0.0
 10
174.8197012108982
 20
95.32407001049289
 30
0.0
 10
174.7203222713903
 20
95.37367488255302
 30
0.0
 10
174.6783643662249
 20
95.41110653067183
 30
0.0
 10
174.6475005558324
 20
95.4504539967895
 30
0.0
  0
LINE
  5
6D
330
1F
100
AcDbEntity
  8
0
  6
Continuous
 62
     7
370
    15
100
AcDbLine
 10
178.0249996306
 20
95.2763643585
 30
0.0
 11
175.0805132577
 21
95.2763643585
 31
0.0
  0
SPLINE
  5
6E
330
1F
100
AcDbEntity
  8
0
  6
Continuous
 62
     7
370
    15
100
AcDbSpline
210
0.0
220
0.0
230
1.0
 70
     8
 71
     3
 72
    12
 73
     8
 74
     0
 42
0.00000001
 43
0.00000001
 12
1.0
 22
0.0
 32
0.0
 13
1.0
 23
0.0
 33
0.0
 40
0.0
 40
0.0
 40
0.0
 40
0.0
 40
0.5000000000000004
 40
0.5000000000000004
 40
0.7500000000000002
 40
0.7500000000000002
 40
1.0
 40
1.0
 40
1.0
 40
1.0
 10
178.4580123324841
 20
95.45045399678953
 30
0.0
 10
178.42716062192
 20
95.41112195642704
 30
0.0
 10
178.3852677584593
 20
95.37371019089876
 30
0.0
 10
178.2857468806661
 20
95.32403926628287
 30
0.0
 10
178.2461327159418
 20
95.30865018367503
 30
0.0
 10
178.1490296821623
 20
95.28481696800777
 30
0.0
 10
178.088531009512
 20
95.27636435851899
 30
0.0
 10
178.024999630592
 20
95.27636435851898
 30
0.0
  0
ELLIPSE
  5
6F
330
1F
100
AcDbEntity
  8
0
  6
Continuous
 62
     7
370
    15
100
AcDbEllipse
 10
165.4964987892
 20
119.103095474
 30
0.0
 11
-11.70927234972723
 21
24.67718644093742
 31
0.0
210
0.0
220
0.0
230
1.0
 40
0.3419987131
 41
3.310521928178945
 42
4.221709151398942
  0
SPLINE
  5
70
330
1F
100
AcDbEntity
  8
0
  6
Continuous
 62
     7
370
    15
100
AcDbSpline
210
0.0
220
0.0
230
1.0
 70
     8
 71
     3
 72
    12
 73
     8
 74
     0
 42
0.00000001
 43
0.00000001
 12
1.0
 22
0.0
 32
0.0
 13
1.0
 23
0.0
 33
0.0
 40
0.0
 40
0.0
 40
0.0
 40
0.0
 40
0.2500000000000005
 40
0.2500000000000005
 40
0.500000000000001
 40
0.500000000000001
 40
1.0
 40
1.0
 40
1.0
 40
1.0
 10
178.0249996305919
 20
111.5342855048404
 30
0.0
 10
178.0886361848056
 20
111.5342855048404
 30
0.0
 10
178.1482163116719
 20
111.5082386017825
 30
0.0
 10
178.2468530530383
 20
111.4327514428825
 30
0.0
 10
178.2858116774185
 20
111.3855324043518
 30
0.0
 10
178.3851906169264
 20
111.2337927532583
 30
0.0
 10
178.4271485220919
 20
111.1215905290741
 30
0.0
 10
178.4580123324843
 20
111.0066424759769
 30
0.0
  0
LINE
  5
71
330
1F
100
AcDbEntity
  8
0
  6
Continuous
 62
     7
370
    15
100
AcDbLine
 10
175.0805132577
 20
111.5342855048
 30
0.0
 11
178.0249996306
 21
111.5342855048
 31
0.0
  0
SPLINE
  5
72
330
1F
100
AcDbEntity
  8
0
  6
Continuous
 62
     7
370
    15
100
AcDbSpline
210
0.0
220
0.0
230
1.0
 70
     8
 71
     3
 72
    12
 73
     8
 74
     0
 42
0.00000001
 43
0.00000001
 12
1.0
 22
0.0
 32
0.0
 13
1.0
 23
0.0
 33
0.0
 40
0.0
 40
0.0
 40
0.0
 40
0.0
 40
0.5000000000000004
 40
0.5000000000000004
 40
0.7500000000000002
 40
0.7500000000000002
 40
1.0
 40
1.0
 40
1.0
 40
1.0
 10
174.6475005558326
 20
111.0066424759768
 30
0.0
 10
174.6783522663968
 20
111.1215454649137
 30
0.0
 10
174.7202451298575
 20
111.2336843609625
 30
0.0
 10
174.8197660076507
 20
111.3856266425634
 30
0.0
 10
174.859380172375
 20
111.4332912520883
 30
0.0
 10
174.9564832061544
 20
111.5076275827037
 30
0.0
 10
175.0169818788048
 20
111.5342855048408
 30
0.0
 10
175.0805132577248
 20
111.5342855048408
 30
0.0
  0
ELLIPSE
  5
73
330
1F
100
AcDbEntity
  8
0
  6
Continuous
 62
     7
370
    15
100
AcDbEllipse
 10
187.6090140991
 20
119.103095474
 30
0.0
 11
11.70927234972706
 21
24.67718644093742
 31
0.0
210
0.0
220
0.0
230
1.0
 40
0.3419987131
 41
2.061476155780653
 42
2.972663379000668
  0
SPLINE
  5
74
330
1F
100
AcDbEntity
  8
0
  6
Continuous
 62
     7
370
    15
100
AcDbSpline
210
0.0
220
0.0
230
1.0
 70
     8
 71
     3
 72
    16
 73
    12
 74
     0
 42
0.00000001
 43
0.00000001
 12
1.0
 22
0.0
 32
0.0
 13
1.0
 23
0.0
 33
0.0
 40
0.0
 40
0.0
 40
0.0
 40
0.0
 40
0.2499999999999997
 40
0.2499999999999997
 40
0.4999999999999993
 40
0.4999999999999993
 40
0.6249999999999996
 40
0.6249999999999996
 40
0.7499999999999999
 40
0.7499999999999999
 40
1.0
 40
1.0
 40
1.0
 40
1.0
 10
165.5118954160293
 20
101.7539381928286
 30
0.0
 10
165.543623377222
 20
101.7531410760077
 30
0.0
 10
165.5782509675725
 20
101.7525500011524
 30
0.0
 10
165.6579447296362
 20
101.751538475718
 30
0.0
 10
165.7029861896399
 20
101.7511383675431
 30
0.0
 10
165.7858389164903
 20
101.7501804956392
 30
0.0
 10
165.8157533776902
 20
101.7497988143788
 30
0.0
 10
165.8817397082481
 20
101.7487226003203
 30
0.0
 10
165.9184733337099
 20
101.7480050344261
 30
0.0
 10
166.0309700532797
 20
101.7452441567445
 30
0.0
 10
166.101311401378
 20
101.7427570648729
 30
0.0
 10
166.1577795552832
 20
101.7405837864658
 30
0.0
  0
SPLINE
  5
75
330
1F
100
AcDbEntity
  8
0
  6
Continuous
 62
     7
370
    15
100
AcDbSpline
210
0.0
220
0.0
230
1.0
 70
     8
 71
     3
 72
    14
 73
    10
 74
     0
 42
0.00000001
 43
0.00000001
 12
1.0
 22
0.0
 32
0.0
 13
1.0
 23
0.0
 33
0.0
 40
0.0
 40
0.0
 40
0.0
 40
0.0
 40
0.1250000000000054
 40
0.1250000000000054
 40
0.2500000000000107
 40
0.2500000000000107
 40
0.5000000000000099
 40
0.5000000000000099
 40
1.0
 40
1.0
 40
1.0
 40
1.0
 10
166.1577795552515
 20
101.7405837864885
 30
0.0
 10
166.1703713491963
 20
101.7400991686661
 30
0.0
 10
166.1852424574904
 20
101.7383889907338
 30
0.0
 10
166.2174265489235
 20
101.7302734419829
 30
0.0
 10
166.2330306803994
 20
101.7240576537216
 30
0.0
 10
166.2689178201114
 20
101.70583854202
 30
0.0
 10
166.2827698613801
 20
101.6940735136864
 30
0.0
 10
166.3162596033127
 20
101.6622783772691
 30
0.0
 10
166.3269218638885
 20
101.644484945426
 30
0.0
 10
166.3350598207834
 20
101.6280538145816
 30
0.0
  0
LINE
  5
76
330
1F
100
AcDbEntity
  8
0
  6
Continuous
 62
     7
370
    15
100
AcDbLine
 10
166.3527564442
 20
113.1186152414
 30
0.0
 11
166.3527564442
 21
101.2632751951
 31
0.0
  0
SPLINE
  5
77
330
1F
100
AcDbEntity
  8
0
  6
Continuous
 62
     7
370
    15
100
AcDbSpline
210
0.0
220
0.0
230
1.0
 70
     8
 71
     3
 72
    16
 73
    12
 74
     0
 42
0.00000001
 43
0.00000001
 12
1.0
 22
0.0
 32
0.0
 13
1.0
 23
0.0
 33
0.0
 40
0.0
 40
0.0
 40
0.0
 40
0.0
 40
0.5
 40
0.5
 40
0.75
 40
0.75
 40
0.875
 40
0.875
 40
0.9375
 40
0.9375
 40
1.0
 40
1.0
 40
1.0
 40
1.0
 10
166.3527564441584
 20
113.1186152414466
 30
0.0
 10
166.3527564441584
 20
113.2331449721455
 30
0.0
 10
166.3486991420433
 20
113.348461047335
 30
0.0
 10
166.3230418992485
 20
113.5233841371626
 30
0.0
 10
166.3117264535064
 20
113.5832134401575
 30
0.0
 10
166.2776950861978
 20
113.6678046264057
 30
0.0
 10
166.263816104994
 20
113.6964742125497
 30
0.0
 10
166.2278804232266
 20
113.726281999496
 30
0.0
 10
166.2129301039639
 20
113.7326171528557
 30
0.0
 10
166.183031591222
 20
113.7313916899854
 30
0.0
 10
166.1694987308567
 20
113.7247931039506
 30
0.0
 10
166.1577795552827
 20
113.7161454158942
 30
0.0
  0
SPLINE
  5
78
330
1F
100
AcDbEntity
  8
0
  6
Continuous
 62
     7
370
    15
100
AcDbSpline
210
0.0
220
0.0
230
1.0
 70
     8
 71
     3
 72
    14
 73
    10
 74
     0
 42
0.00000001
 43
0.00000001
 12
1.0
 22
0.0
 32
0.0
 13
1.0
 23
0.0
 33
0.0
 40
0.0
 40
0.0
 40
0.0
 40
0.0
 40
0.25
 40
0.25
 40
0.5
 40
0.5
 40
0.75
 40
0.75
 40
1.0
 40
1.0
 40
1.0
 40
1.0
 10
166.1577795552896
 20
113.7161454158855
 30
0.0
 10
166.1013198894058
 20
113.6744833061867
 30
0.0
 10
166.0304474145437
 20
113.6436498255985
 30
0.0
 10
165.8819810566617
 20
113.6493643342117
 30
0.0
 10
165.8127858534539
 20
113.6849352616446
 30
0.0
 10
165.7030686673843
 20
113.7718791741185
 30
0.0
 10
165.6578227784523
 20
113.8243114874836
 30
0.0
 10
165.5782056474854
 20
113.9328645690021
 30
0.0
 10
165.5436030280286
 20
113.9898476552446
 30
0.0
 10
165.5118954160298
 20
114.0484137379025
 30
0.0
  0
SPLINE
  5
79
330
1F
100
AcDbEntity
  8
0
  6
Continuous
 62
     7
370
    15
100
AcDbSpline
210
0.0
220
0.0
230
1.0
 70
     8
 71
     3
 72
    10
 73
     6
 74
     0
 42
0.00000001
 43
0.00000001
 12
1.0
 22
0.0
 32
0.0
 13
1.0
 23
0.0
 33
0.0
 40
0.0
 40
0.0
 40
0.0
 40
0.0
 40
0.5
 40
0.5
 40
1.0
 40
1.0
 40
1.0
 40
1.0
 10
165.2314361005988
 20
114.9012323295488
 30
0.0
 10
165.2623146842107
 20
114.7516037776891
 30
0.0
 10
165.2983073919341
 20
114.6051083601655
 30
0.0
 10
165.3876476434312
 20
114.3199167216247
 30
0.0
 10
165.4401059462768
 20
114.1810136959088
 30
0.0
 10
165.5118954160299
 20
114.0484137379023
 30
0.0
  0
SPLINE
  5
7A
330
1F
100
AcDbEntity
  8
0
  6
Continuous
 62
     7
370
    15
100
AcDbSpline
210
0.0
220
0.0
230
1.0
 70
     8
 71
     3
 72
    10
 73
     6
 74
     0
 42
0.00000001
 43
0.00000001
 12
1.0
 22
0.0
 32
0.0
 13
1.0
 23
0.0
 33
0.0
 40
0.0
 40
0.0
 40
0.0
 40
0.0
 40
0.5
 40
0.5
 40
1.0
 40
1.0
 40
1.0
 40
1.0
 10
165.5118954160292
 20
124.1577772101388
 30
0.0
 10
165.4401059462763
 20
124.0251772521324
 30
0.0
 10
165.3876476434308
 20
123.8862742264167
 30
0.0
 10
165.298307391934
 20
123.6010825878764
 30
0.0
 10
165.2623146842107
 20
123.4545871703531
 30
0.0
 10
165.2314361005988
 20
123.3049586184936
 30
0.0
  0
SPLINE
  5
7B
330
1F
100
AcDbEntity
  8
0
  6
Continuous
 62
     7
370
    15
100
AcDbSpline
210
0.0
220
0.0
230
1.0
 70
     8
 71
     3
 72
    14
 73
    10
 74
     0
 42
0.00000001
 43
0.00000001
 12
1.0
 22
0.0
 32
0.0
 13
1.0
 23
0.0
 33
0.0
 40
0.0
 40
0.0
 40
0.0
 40
0.0
 40
0.25
 40
0.25
 40
0.5
 40
0.5
 40
0.75
 40
0.75
 40
1.0
 40
1.0
 40
1.0
 40
1.0
 10
165.5118954160285
 20
124.1577772101376
 30
0.0
 10
165.5436041155139
 20
124.2163453014562
 30
0.0
 10
165.5782119341545
 20
124.2733395633962
 30
0.0
 10
165.6578703446438
 20
124.3819396981601
 30
0.0
 10
165.7029326145387
 20
124.4342678335387
 30
0.0
 10
165.8135144601171
 20
124.521768844901
 30
0.0
 10
165.8811585809324
 20
124.5568143011552
 30
0.0
 10
166.0314068713295
 20
124.5625586899113
 30
0.0
 10
166.1013592695598
 20
124.5316785828612
 30
0.0
 10
166.1577795552834
 20
124.4900455321482
 30
0.0
  0
SPLINE
  5
7C
330
1F
100
AcDbEntity
  8
0
  6
Continuous
 62
     7
370
    15
100
AcDbSpline
210
0.0
220
0.0
230
1.0
 70
     8
 71
     3
 72
    16
 73
    12
 74
     0
 42
0.00000001
 43
0.00000001
 12
1.0
 22
0.0
 32
0.0
 13
1.0
 23
0.0
 33
0.0
 40
0.0
 40
0.0
 40
0.0
 40
0.0
 40
0.0625000000000013
 40
0.0625000000000013
 40
0.1250000000000026
 40
0.1250000000000026
 40
0.2500000000000028
 40
0.2500000000000028
 40
0.500000000000003
 40
0.500000000000003
 40
1.0
 40
1.0
 40
1.0
 40
1.0
 10
166.1577795552515
 20
124.4900455320948
 30
0.0
 10
166.1695137896984
 20
124.4813867319506
 30
0.0
 10
166.1830455451774
 20
124.4747826467153
 30
0.0
 10
166.2130330056072
 20
124.4735856795411
 30
0.0
 10
166.2280277120155
 20
124.480007426607
 30
0.0
 10
166.2637681344102
 20
124.5097245800163
 30
0.0
 10
166.2777814714115
 20
124.5385319773997
 30
0.0
 10
166.3119255601928
 20
124.6236116990256
 30
0.0
 10
166.3228974643112
 20
124.6819866482953
 30
0.0
 10
166.3487430045775
 20
124.8577021730839
 30
0.0
 10
166.3527564441584
 20
124.9734971809484
 30
0.0
 10
166.3527564441584
 20
125.0875757065958
 30
0.0
  0
LINE
  5
7D
330
1F
100
AcDbEntity
  8
0
  6
Continuous
 62
     7
370
    15
100
AcDbLine
 10
166.3527564442
 20
136.9429157529
 30
0.0
 11
166.3527564442
 21
125.0875757066
 31
0.0
  0
SPLINE
  5
7E
330
1F
100
AcDbEntity
  8
0
  6
Continuous
 62
     7
370
    15
100
AcDbSpline
210
0.0
220
0.0
230
1.0
 70
     8
 71
     3
 72
    14
 73
    10
 74
     0
 42
0.00000001
 43
0.00000001
 12
1.0
 22
0.0
 32
0.0
 13
1.0
 23
0.0
 33
0.0
 40
0.0
 40
0.0
 40
0.0
 40
0.0
 40
0.5000000000000033
 40
0.5000000000000033
 40
0.750000000000005
 40
0.750000000000005
 40
0.8750000000000024
 40
0.8750000000000024
 40
1.0
 40
1.0
 40
1.0
 40
1.0
 10
166.3401566632051
 20
136.5893577557061
 30
0.0
 10
166.332922057827
 20
136.5718822344332
 30
0.0
 10
166.3227161055899
 20
136.5525329309134
 30
0.0
 10
166.2903222131938
 20
136.5185634013227
 30
0.0
 10
166.2771669636003
 20
136.5061108397938
 30
0.0
 10
166.2408850648324
 20
136.4856659192378
 30
0.0
 10
166.2250525667037
 20
136.4784701444298
 30
0.0
 10
166.1890768757159
 20
136.468311623282
 30
0.0
 10
166.1718794723942
 20
136.4661498222293
 30
0.0
 10
166.1577795552791
 20
136.4656071615742
 30
0.0
  0
SPLINE
  5
7F
330
1F
100
AcDbEntity
  8
0
  6
Continuous
 62
     7
370
    15
100
AcDbSpline
210
0.0
220
0.0
230
1.0
 70
     8
 71
     3
 72
    14
 73
    10
 74
     0
 42
0.00000001
 43
0.00000001
 12
1.0
 22
0.0
 32
0.0
 13
1.0
 23
0.0
 33
0.0
 40
0.0
 40
0.0
 40
0.0
 40
0.0
 40
0.2500000000000005
 40
0.2500000000000005
 40
0.500000000000001
 40
0.500000000000001
 40
0.7500000000000004
 40
0.7500000000000004
 40
1.0
 40
1.0
 40
1.0
 40
1.0
 10
166.1577795552896
 20
136.4656071615767
 30
0.0
 10
166.1013324732313
 20
136.4634346941575
 30
0.0
 10
166.0304820891885
 20
136.46093659624
 30
0.0
 10
165.8820456543721
 20
136.4572901374518
 30
0.0
 10
165.8128564026852
 20
136.4563223906005
 30
0.0
 10
165.7031448544442
 20
136.4550548312378
 30
0.0
 10
165.6579032051019
 20
136.4546519903095
 30
0.0
 10
165.578255186918
 20
136.4536409553819
 30
0.0
 10
165.543628271152
 20
136.4530499949873
 30
0.0
 10
165.5118954160306
 20
136.4522527552138
 30
0.0
  0
SPLINE
  5
80
330
1F
100
AcDbEntity
  8
0
  6
Continuous
 62
     7
370
    15
100
AcDbSpline
210
0.0
220
0.0
230
1.0
 70
     8
 71
     3
 72
    18
 73
    14
 74
     0
 42
0.00000001
 43
0.00000001
 12
1.0
 22
0.0
 32
0.0
 13
1.0
 23
0.0
 33
0.0
 40
0.0
 40
0.0
 40
0.0
 40
0.0
 40
0.2499999999999998
 40
0.2499999999999998
 40
0.3749999999999998
 40
0.3749999999999998
 40
0.4999999999999999
 40
0.4999999999999999
 40
0.6249999999999999
 40
0.6249999999999999
 40
0.7499999999999999
 40
0.7499999999999999
 40
1.0
 40
1.0
 40
1.0
 40
1.0
 10
165.2314361005988
 20
123.3049586184936
 30
0.0
 10
165.0961504942964
 20
122.6494042830724
 30
0.0
 10
164.9949827480535
 20
121.9697831892748
 30
0.0
 10
164.8921214051845
 20
120.9144191827807
 30
0.0
 10
164.8660185596612
 20
120.5556051181961
 30
0.0
 10
164.8311285761164
 20
119.8294921740732
 30
0.0
 10
164.8225423178264
 20
119.4674024950571
 30
0.0
 10
164.8224426082608
 20
118.7450928376387
 30
0.0
 10
164.8309309794093
 20
118.3848730355303
 30
0.0
 10
164.8650743589299
 20
117.6663069664364
 30
0.0
 10
164.8908713407837
 20
117.306541250521
 30
0.0
 10
164.9942724721717
 20
116.2398966635266
 30
0.0
 10
165.096130464343
 20
115.5568837242442
 30
0.0
 10
165.2314361005988
 20
114.9012323295488
 30
0.0
  0
LINE
  5
81
330
1F
100
AcDbEntity
  8
0
  6
Continuous
 62
     7
370
    15
100
AcDbLine
 10
164.3527564442
 20
124.2432479618
 30
0.0
 11
164.3527564442
 21
113.9629429862
 31
0.0
  0
LINE
  5
82
330
1F
100
AcDbEntity
  8
0
  6
Continuous
 62
     7
370
    15
100
AcDbLine
 10
138.0527564442
 20
123.9128741905
 30
0.0
 11
138.0527564442
 21
114.2933167575
 31
0.0
  0
LINE
  5
83
330
1F
100
AcDbEntity
  8
0
  6
Continuous
 62
     7
370
    15
100
AcDbLine
 10
136.5527564442
 20
123.4798614886
 30
0.0
 11
136.5527564442
 21
114.7263294594
 31
0.0
  0
LINE
  5
84
330
1F
100
AcDbEntity
  8
0
  6
Continuous
 62
     7
370
    15
100
AcDbLine
 10
138.0527564442
 20
123.9128741905
 30
0.0
 11
138.0527564442
 21
135.962446716
 31
0.0
  0
LINE
  5
85
330
1F
100
AcDbEntity
  8
0
  6
Continuous
 62
     7
370
    15
100
AcDbLine
 10
138.0527564442
 20
135.962446716
 30
0.0
 11
164.3527564442
 21
136.6231942586
 31
0.0
  0
LINE
  5
86
330
1F
100
AcDbEntity
  8
0
  6
Continuous
 62
     7
370
    15
100
AcDbLine
 10
164.3527564442
 20
124.2432479618
 30
0.0
 11
164.3527564442
 21
136.6231942586
 31
0.0
  0
LINE
  5
87
330
1F
100
AcDbEntity
  8
0
  6
Continuous
 62
     7
370
    15
100
AcDbLine
 10
138.0527564442
 20
102.2437442321
 30
0.0
 11
138.0527564442
 21
114.2933167575
 31
0.0
  0
LINE
  5
88
330
1F
100
AcDbEntity
  8
0
  6
Continuous
 62
     7
370
    15
100
AcDbLine
 10
164.3527564442
 20
101.5829966895
 30
0.0
 11
164.3527564442
 21
113.9629429862
 31
0.0
  0
LINE
  5
89
330
1F
100
AcDbEntity
  8
0
  6
Continuous
 62
     7
370
    15
100
AcDbLine
 10
138.0527564442
 20
102.2437442321
 30
0.0
 11
164.3527564442
 21
101.5829966895
 31
0.0
  0
ARC
  5
8A
330
1F
100
AcDbEntity
  8
0
  6
Continuous
 62
     7
370
    15
100
AcDbCircle
 10
164.5526933551
 20
101.5779735783
 30
0.0
 40
0.2000000000000066
100
AcDbArc
 50
88.5608333333
 51
178.5608333333
  0
ARC
  5
8B
330
1F
100
AcDbEntity
  8
0
  6
Continuous
 62
     7
370
    15
100
AcDbCircle
 10
164.5526933551
 20
136.6282173697
 30
0.0
 40
0.2000000000000052
100
AcDbArc
 50
181.4391666667
 51
271.4391666667
  0
LINE
  5
8C
330
1F
100
AcDbEntity
  8
0
  6
Continuous
 62
     7
370
    15
100
AcDbLine
 10
164.5577164662
 20
101.7779104893
 30
0.0
 11
165.511895416
 21
101.7539381928
 31
0.0
  0
LINE
  5
8D
330
1F
100
AcDbEntity
  8
0
  6
Continuous
 62
     7
370
    15
100
AcDbLine
 10
164.5577164662
 20
136.4282804588
 30
0.0
 11
165.511895416
 21
136.4522527552
 31
0.0
  0
LINE
  5
8E
330
1F
100
AcDbEntity
  8
0
  6
Continuous
 62
     7
370
    15
100
AcDbLine
 10
136.5527564442
 20
135.0964213122
 30
0.0
 11
138.0527564442
 21
135.962446716
 31
0.0
  0
LINE
  5
8F
330
1F
100
AcDbEntity
  8
0
  6
Continuous
 62
     7
370
    15
100
AcDbLine
 10
136.5527564442
 20
123.4798614886
 30
0.0
 11
136.5527564442
 21
135.0964213122
 31
0.0
  0
LINE
  5
90
330
1F
100
AcDbEntity
  8
0
  6
Continuous
 62
     7
370
    15
100
AcDbLine
 10
136.5527564442
 20
103.1097696359
 30
0.0
 11
138.0527564442
 21
102.2437442321
 31
0.0
  0
LINE
  5
91
330
1F
100
AcDbEntity
  8
0
  6
Continuous
 62
     7
370
    15
100
AcDbLine
 10
136.5527564442
 20
103.1097696359
 30
0.0
 11
136.5527564442
 21
114.7263294594
 31
0.0
  0
ELLIPSE
  5
92
330
1F
100
AcDbEntity
  8
0
  6
Continuous
 62
     7
370
    15
100
AcDbEllipse
 10
228.7901219301
 20
119.103095474
 30
0.0
 11
0.2516063682710126
 21
12.499819213438
 31
0.0
210
0.0
220
0.0
230
1.0
 40
0.2671959542
 41
0.3265832336788514
 42
2.965392324511988
  0
ELLIPSE
  5
93
330
1F
100
AcDbEntity
  8
0
  6
Continuous
 62
     7
370
    15
100
AcDbEllipse
 10
226.8328100678
 20
115.5302407639
 30
0.0
 11
-0.08291753437345051
 21
2.335796540899949
 31
0.0
210
0.0
220
0.0
230
1.0
 40
0.2540400005
 41
0.0
 42
6.283185307179586
  0
SPLINE
  5
94
330
1F
100
AcDbEntity
  8
0
  6
Continuous
 62
     7
370
    15
100
AcDbSpline
210
0.0
220
0.0
230
1.0
 70
     8
 71
     3
 72
    16
 73
    12
 74
     0
 42
0.00000001
 43
0.00000001
 12
1.0
 22
0.0
 32
0.0
 13
1.0
 23
0.0
 33
0.0
 40
0.0
 40
0.0
 40
0.0
 40
0.0
 40
0.2499999999999977
 40
0.2499999999999977
 40
0.3749999999999981
 40
0.3749999999999981
 40
0.4999999999999984
 40
0.4999999999999984
 40
0.7499999999999992
 40
0.7499999999999992
 40
1.0
 40
1.0
 40
1.0
 40
1.0
 10
227.956959929228
 20
130.963791619485
 30
0.0
 10
228.0251812549072
 20
131.0467817527235
 30
0.0
 10
228.1255615971723
 20
131.1173280230932
 30
0.0
 10
228.3250897874535
 20
131.2081050904653
 30
0.0
 10
228.4004179352071
 20
131.2359533338546
 30
0.0
 10
228.5636835782645
 20
131.2856672558115
 30
0.0
 10
228.6519445934217
 20
131.3077484092861
 30
0.0
 10
228.9364681016759
 20
131.3670073196681
 30
0.0
 10
229.1553938602337
 20
131.3973842924032
 30
0.0
 10
229.6223861248051
 20
131.4422366389482
 30
0.0
 10
229.8748163756971
 20
131.4574270232642
 30
0.0
 10
230.1385428817853
 20
131.4669973195395
 30
0.0
  0
SPLINE
  5
95
330
1F
100
AcDbEntity
  8
0
  6
Continuous
 62
     7
370
    15
100
AcDbSpline
210
0.0
220
0.0
230
1.0
 70
     8
 71
     3
 72
    16
 73
    12
 74
     0
 42
0.00000001
 43
0.00000001
 12
1.0
 22
0.0
 32
0.0
 13
1.0
 23
0.0
 33
0.0
 40
0.0
 40
0.0
 40
0.0
 40
0.0
 40
0.2499999999999959
 40
0.2499999999999959
 40
0.3749999999999938
 40
0.3749999999999938
 40
0.4999999999999969
 40
0.4999999999999969
 40
0.7499999999999984
 40
0.7499999999999984
 40
1.0
 40
1.0
 40
1.0
 40
1.0
 10
230.1385428817853
 20
106.6035028870632
 30
0.0
 10
229.8748215964735
 20
106.6040279241181
 30
0.0
 10
229.6257963374581
 20
106.6052048751992
 30
0.0
 10
229.2737701936371
 20
106.6114791511713
 30
0.0
 10
229.1595124063998
 20
106.6143821496943
 30
0.0
 10
228.944970769822
 20
106.622416253944
 30
0.0
 10
228.8439074252049
 20
106.6275499236744
 30
0.0
 10
228.559065087915
 20
106.6475418954022
 30
0.0
 10
228.3924380995242
 20
106.6673974828375
 30
0.0
 10
228.1272405955739
 20
106.7239637114588
 30
0.0
 10
228.0251867089105
 20
106.7611241915563
 30
0.0
 10
227.956959929228
 20
106.8085973624909
 30
0.0
  0
SPLINE
  5
96
330
1F
100
AcDbEntity
  8
0
  6
Continuous
 62
     7
370
    15
100
AcDbSpline
210
0.0
220
0.0
230
1.0
 70
     8
 71
     3
 72
     8
 73
     4
 74
     0
 42
0.00000001
 43
0.00000001
 12
1.0
 22
0.0
 32
0.0
 13
1.0
 23
0.0
 33
0.0
 40
0.0
 40
0.0
 40
0.0
 40
0.0
 40
1.0
 40
1.0
 40
1.0
 40
1.0
 10
230.8547374080952
 20
106.3011165226081
 30
0.0
 10
230.8517079944111
 20
106.3041458179915
 30
0.0
 10
230.8486787459359
 20
106.307174950764
 30
0.0
 10
230.8456496629718
 20
106.3102039213288
 30
0.0
  0
SPLINE
  5
97
330
1F
100
AcDbEntity
  8
0
  6
Continuous
 62
     7
370
    15
100
AcDbSpline
210
0.0
220
0.0
230
1.0
 70
     8
 71
     3
 72
    10
 73
     6
 74
     0
 42
0.00000001
 43
0.00000001
 12
1.0
 22
0.0
 32
0.0
 13
1.0
 23
0.0
 33
0.0
 40
0.0
 40
0.0
 40
0.0
 40
0.0
 40
0.5
 40
0.5
 40
1.0
 40
1.0
 40
1.0
 40
1.0
 10
230.8456496629718
 20
106.3102039213289
 30
0.0
 10
230.7514243164916
 20
106.4044257714172
 30
0.0
 10
230.6401553556384
 20
106.4780634523006
 30
0.0
 10
230.3975883856395
 20
106.5778905631367
 30
0.0
 10
230.2680829960468
 20
106.6032449884262
 30
0.0
 10
230.1385428817853
 20
106.6035028870635
 30
0.0
  0
SPLINE
  5
98
330
1F
100
AcDbEntity
  8
0
  6
Continuous
 62
     7
370
    15
100
AcDbSpline
210
0.0
220
0.0
230
1.0
 70
     8
 71
     3
 72
    10
 73
     6
 74
     0
 42
0.00000001
 43
0.00000001
 12
1.0
 22
0.0
 32
0.0
 13
1.0
 23
0.0
 33
0.0
 40
0.0
 40
0.0
 40
0.0
 40
0.0
 40
0.5
 40
0.5
 40
1.0
 40
1.0
 40
1.0
 40
1.0
 10
230.1385428817853
 20
131.4669973195395
 30
0.0
 10
230.2680732962785
 20
131.4716978119615
 30
0.0
 10
230.3971877618265
 20
131.5000544466482
 30
0.0
 10
230.6398543250928
 20
131.6036334065676
 30
0.0
 10
230.7514061248633
 20
131.6781162888639
 30
0.0
 10
230.8456496629722
 20
131.7723961592334
 30
0.0
  0
SPLINE
  5
99
330
1F
100
AcDbEntity
  8
0
  6
Continuous
 62
     7
370
    15
100
AcDbSpline
210
0.0
220
0.0
230
1.0
 70
     8
 71
     3
 72
     8
 73
     4
 74
     0
 42
0.00000001
 43
0.00000001
 12
1.0
 22
0.0
 32
0.0
 13
1.0
 23
0.0
 33
0.0
 40
0.0
 40
0.0
 40
0.0
 40
0.0
 40
1.0
 40
1.0
 40
1.0
 40
1.0
 10
230.8456496629718
 20
131.7723961592338
 30
0.0
 10
230.8486787459359
 20
131.7754264099537
 30
0.0
 10
230.8517079944111
 20
131.7784561829041
 30
0.0
 10
230.8547374080952
 20
131.7814854782875
 30
0.0
  0
ELLIPSE
  5
9A
330
1F
100
AcDbEntity
  8
0
  6
Continuous
 62
     7
370
    15
100
AcDbEllipse
 10
252.9479315734
 20
119.103095474
 30
0.0
 11
-9.268362359823442
 21
12.98522500655778
 31
0.0
210
0.0
220
0.0
230
1.0
 40
0.0668534593
 41
6.097494906114696
 42
6.235504004580372
  0
LINE
  5
9B
330
1F
100
AcDbEntity
  8
0
  6
Continuous
 62
     7
370
    15
100
AcDbLine
 10
231.0527564442
 20
131.9794895263
 30
0.0
 11
243.9991758395
 21
131.9794895263
 31
0.0
  0
LINE
  5
9C
330
1F
100
AcDbEntity
  8
0
  6
Continuous
 62
     7
370
    15
100
AcDbLine
 10
231.0527564442
 20
132.103095474
 30
0.0
 11
231.0527564442
 21
131.9794895263
 31
0.0
  0
LINE
  5
9D
330
1F
100
AcDbEntity
  8
0
  6
Continuous
 62
     7
370
    15
100
AcDbLine
 10
230.8547374081
 20
131.7814854783
 30
0.0
 11
231.0527564442
 21
131.9794895263
 31
0.0
  0
LINE
  5
9E
330
1F
100
AcDbEntity
  8
0
  6
Continuous
 62
     7
370
    15
100
AcDbLine
 10
255.0088390544
 20
116.2943624329
 30
0.0
 11
255.1304038809
 21
114.9082548411
 31
0.0
  0
ARC
  5
9F
330
1F
100
AcDbEntity
  8
0
  6
Continuous
 62
     7
370
    15
100
AcDbCircle
 10
243.888147122
 20
114.7599369163
 30
0.0
 40
2.097489449136605
100
AcDbArc
 50
26.9417987195
 51
241.6657892896
  0
ELLIPSE
  5
A0
330
1F
100
AcDbEntity
  8
0
  6
Continuous
 62
     7
370
    15
100
AcDbEllipse
 10
217.5966456202
 20
120.7044378386
 30
0.0
 11
2457.89307116488
 21
-213.9913749490268
 31
0.0
210
0.0
220
0.0
230
1.0
 40
0.0060650906
 41
4.719100695824311
 42
4.723563986705
  0
LINE
  5
A1
330
1F
100
AcDbEntity
  8
0
  6
Continuous
 62
     7
370
    15
100
AcDbLine
 10
232.7953527986
 20
104.3611910335
 30
0.0
 11
230.8547374081
 21
106.3011165226
 31
0.0
  0
LINE
  5
A2
330
1F
100
AcDbEntity
  8
0
  6
Continuous
 62
     7
370
    15
100
AcDbLine
 10
243.9991758395
 20
131.9794895263
 30
0.0
 11
255.0088390544
 21
116.2943624329
 31
0.0
  0
ARC
  5
A3
330
1F
100
AcDbEntity
  8
0
  6
Continuous
 62
     7
370
    15
100
AcDbCircle
 10
243.882057853
 20
115.0953668209
 30
0.0
 40
2.095119437968512
100
AcDbArc
 50
184.6289336544
 51
240.858580245
  0
CIRCLE
  5
A4
330
1F
100
AcDbEntity
  8
0
  6
Continuous
 62
     7
370
    15
100
AcDbCircle
 10
249.5779341653
 20
109.1025348733
 30
0.0
 40
3.494067993537722
  0
CIRCLE
  5
A5
330
1F
100
AcDbEntity
  8
0
  6
Continuous
 62
     7
370
    15
100
AcDbCircle
 10
249.5764884033
 20
109.0675701815
 30
0.0
 40
2.629491469608425
  0
CIRCLE
  5
A6
330
1F
100
AcDbEntity
  8
0
  6
Continuous
 62
     7
370
    15
100
AcDbCircle
 10
249.5754278263
 20
109.0675110749
 30
0.0
 40
1.996579632851379
  0
SPLINE
  5
A7
330
1F
100
AcDbEntity
  8
0
  6
Continuous
 62
     7
370
    15
100
AcDbSpline
210
0.0
220
0.0
230
1.0
 70
     8
 71
     3
 72
    15
 73
    11
 74
     0
 42
0.00000001
 43
0.00000001
 12
1.0
 22
0.0
 32
0.0
 13
1.0
 23
0.0
 33
0.0
 40
0.0
 40
0.0
 40
0.0
 40
0.0
 40
0.126247080373083
 40
0.2533633350512832
 40
0.3794185517356752
 40
0.5042689738351218
 40
0.6284502821606869
 40
0.752636129223124
 40
0.8774891912114174
 40
1.0
 40
1.0
 40
1.0
 40
1.0
 10
249.9127694450706
 20
110.7421730330658
 30
0.0
 10
249.8973539515594
 20
110.7831864926656
 30
0.0
 10
249.8664168333631
 20
110.8654957775655
 30
0.0
 10
249.770385867088
 20
110.9613926676668
 30
0.0
 10
249.6502395495612
 20
111.0217899067469
 30
0.0
 10
249.5167165700914
 20
111.0389448285902
 30
0.0
 10
249.3855821876567
 20
111.0119932453488
 30
0.0
 10
249.2716739704011
 20
110.9441018168023
 30
0.0
 10
249.1842671798259
 20
110.8443276091025
 30
0.0
 10
249.158671899122
 20
110.7624664973025
 30
0.0
 10
249.1459954378006
 20
110.7219235069966
 30
0.0
  0
SPLINE
  5
A8
330
1F
100
AcDbEntity
  8
0
  6
Continuous
 62
     7
370
    15
100
AcDbSpline
210
0.0
220
0.0
230
1.0
 70
     8
 71
     3
 72
    17
 73
    13
 74
     0
 42
0.00000001
 43
0.00000001
 12
1.0
 22
0.0
 32
0.0
 13
1.0
 23
0.0
 33
0.0
 40
0.0
 40
0.0
 40
0.0
 40
0.0
 40
0.1015021851812593
 40
0.2058851588162204
 40
0.3074937179049174
 40
0.4121649835730309
 40
0.5117335401580746
 40
0.6142795520906063
 40
0.7124580058480472
 40
0.8133988273150512
 40
0.9056223946751947
 40
1.0
 40
1.0
 40
1.0
 40
1.0
 10
249.1459954378006
 20
110.7219235069966
 30
0.0
 10
249.1365431081663
 20
110.6857459593288
 30
0.0
 10
249.1173701772144
 20
110.6123640894324
 30
0.0
 10
249.0656644629559
 20
110.5100872612676
 30
0.0
 10
248.9977724822338
 20
110.4159573821712
 30
0.0
 10
248.9155142698485
 20
110.335339242551
 30
0.0
 10
248.820555675253
 20
110.2688901538464
 30
0.0
 10
248.7180544948982
 20
110.2197313994037
 30
0.0
 10
248.6086681882223
 20
110.1875107641435
 30
0.0
 10
248.4998438361957
 20
110.1739551316805
 30
0.0
 10
248.3918854711451
 20
110.1762047630204
 30
0.0
 10
248.3239901254613
 20
110.1907344456289
 30
0.0
 10
248.2896505763249
 20
110.198083148914
 30
0.0
  0
SPLINE
  5
A9
330
1F
100
AcDbEntity
  8
0
  6
Continuous
 62
     7
370
    15
100
AcDbSpline
210
0.0
220
0.0
230
1.0
 70
     8
 71
     3
 72
    23
 73
    19
 74
     0
 42
0.00000001
 43
0.00000001
 12
1.0
 22
0.0
 32
0.0
 13
1.0
 23
0.0
 33
0.0
 40
0.0
 40
0.0
 40
0.0
 40
0.0
 40
0.0625415897567735
 40
0.126876634257727
 40
0.1895183544881298
 40
0.2540059658422444
 40
0.3161227144820737
 40
0.3800751997670845
 40
0.4416034412086485
 40
0.504935325590294
 40
0.5661404248701809
 40
0.6291209679675701
 40
0.6903347836860196
 40
0.7533059380537852
 40
0.8148536299082452
 40
0.8781541077289937
 40
0.9382805140941617
 40
1.0
 40
1.0
 40
1.0
 40
1.0
 10
248.2896505763249
 20
110.198083148914
 30
0.0
 10
248.2682900791759
 20
110.2025637676184
 30
0.0
 10
248.2249565471233
 20
110.2116534921172
 30
0.0
 10
248.1581500587959
 20
110.2113324739944
 30
0.0
 10
248.091561723938
 20
110.2005005895006
 30
0.0
 10
248.0282230445234
 20
110.1786512714009
 30
0.0
 10
247.9689335309354
 20
110.1463210757592
 30
0.0
 10
247.9166091410414
 20
110.1051369390369
 30
0.0
 10
247.8716054922347
 20
110.0555311976686
 30
0.0
 10
247.8360187701532
 20
109.9999874731773
 30
0.0
 10
247.810027615518
 20
109.9389640205877
 30
0.0
 10
247.7947645021121
 20
109.8753265659778
 30
0.0
 10
247.7903089930109
 20
109.8096259755357
 30
0.0
 10
247.7968458122631
 20
109.7447929373901
 30
0.0
 10
247.8142723782639
 20
109.6814390833016
 30
0.0
 10
247.8417551044743
 20
109.6231154169209
 30
0.0
 10
247.8780032989335
 20
109.5696743719229
 30
0.0
 10
247.9084351641665
 20
109.5403645526346
 30
0.0
 10
247.9238500381711
 20
109.5255180367221
 30
0.0
  0
SPLINE
  5
AA
330
1F
100
AcDbEntity
  8
0
  6
Continuous
 62
     7
370
    15
100
AcDbSpline
210
0.0
220
0.0
230
1.0
 70
     8
 71
     3
 72
    12
 73
     8
 74
     0
 42
0.00000001
 43
0.00000001
 12
1.0
 22
0.0
 32
0.0
 13
1.0
 23
0.0
 33
0.0
 40
0.0
 40
0.0
 40
0.0
 40
0.0
 40
0.2057949882087333
 40
0.4120010155283117
 40
0.6140549927930052
 40
0.8131810826683993
 40
1.0
 40
1.0
 40
1.0
 40
1.0
 10
247.9238500381711
 20
109.5255180367221
 30
0.0
 10
247.9761767221571
 20
109.469828144353
 30
0.0
 10
248.0809346034306
 20
109.3583371288989
 30
0.0
 10
248.1565390779355
 20
109.1357121790303
 30
0.0
 10
248.157650696559
 20
108.9053054932604
 30
0.0
 10
248.0886972462112
 20
108.6891898302633
 30
0.0
 10
247.9955384900349
 20
108.5777248723949
 30
0.0
 10
247.9504444542426
 20
108.5237696135872
 30
0.0
  0
SPLINE
  5
AB
330
1F
100
AcDbEntity
  8
0
  6
Continuous
 62
     7
370
    15
100
AcDbSpline
210
0.0
220
0.0
230
1.0
 70
     8
 71
     3
 72
    23
 73
    19
 74
     0
 42
0.00000001
 43
0.00000001
 12
1.0
 22
0.0
 32
0.0
 13
1.0
 23
0.0
 33
0.0
 40
0.0
 40
0.0
 40
0.0
 40
0.0
 40
0.0625065224134681
 40
0.1268032294228737
 40
0.1894476925803496
 40
0.2539381432713816
 40
0.3160572949799559
 40
0.3800123143127843
 40
0.4415418845481462
 40
0.5048752096397461
 40
0.5660803612052097
 40
0.6290610219317123
 40
0.6902737759322519
 40
0.7532438799216952
 40
0.8147897755419533
 40
0.8780884206728564
 40
0.9382463322173203
 40
1.0
 40
1.0
 40
1.0
 40
1.0
 10
247.9504444542426
 20
108.5237696135872
 30
0.0
 10
247.9356774820916
 20
108.5074478537811
 30
0.0
 10
247.9057206122284
 20
108.474336879544
 30
0.0
 10
247.8720498559131
 20
108.4161717293244
 30
0.0
 10
247.8476613966221
 20
108.3529627360565
 30
0.0
 10
247.8345415579957
 20
108.2870850673958
 30
0.0
 10
247.8326279600893
 20
108.2195102212384
 30
0.0
 10
247.8419785972885
 20
108.1535782121101
 30
0.0
 10
247.8623936586143
 20
108.0898111097653
 30
0.0
 10
247.8927691608146
 20
108.0312646689921
 30
0.0
 10
247.9327955157908
 20
107.9783213966776
 30
0.0
 10
247.9805485475128
 20
107.9333917324411
 30
0.0
 10
248.0355903254822
 20
107.8968196463821
 30
0.0
 10
248.0954611671669
 20
107.8702260777452
 30
0.0
 10
248.1595797619269
 20
107.853828331424
 30
0.0
 10
248.2244417361841
 20
107.8486718392461
 30
0.0
 10
248.2895245059734
 20
107.8535700626663
 30
0.0
 10
248.330607532742
 20
107.8654409271505
 30
0.0
 10
248.3514179233593
 20
107.871454050971
 30
0.0
  0
SPLINE
  5
AC
330
1F
100
AcDbEntity
  8
0
  6
Continuous
 62
     7
370
    15
100
AcDbSpline
210
0.0
220
0.0
230
1.0
 70
     8
 71
     3
 72
    17
 73
    13
 74
     0
 42
0.00000001
 43
0.00000001
 12
1.0
 22
0.0
 32
0.0
 13
1.0
 23
0.0
 33
0.0
 40
0.0
 40
0.0
 40
0.0
 40
0.0
 40
0.1014898822866322
 40
0.205860117258159
 40
0.3074578824584697
 40
0.4121178416800673
 40
0.5116797789145612
 40
0.614218146659636
 40
0.7124037419662317
 40
0.8133516758228854
 40
0.9055981370557352
 40
0.9999999999999999
 40
0.9999999999999999
 40
0.9999999999999999
 40
0.9999999999999999
 10
248.3514179233593
 20
107.871454050971
 30
0.0
 10
248.3879002518361
 20
107.8819847539199
 30
0.0
 10
248.461900302372
 20
107.9033450284124
 30
0.0
 10
248.5774198626769
 20
107.9113458175698
 30
0.0
 10
248.693762865188
 20
107.9009507922298
 30
0.0
 10
248.8052855326593
 20
107.8709151768254
 30
0.0
 10
248.9105619886462
 20
107.8223121395628
 30
0.0
 10
249.0043035140225
 20
107.7580235690438
 30
0.0
 10
249.0865060917213
 20
107.6788274867244
 30
0.0
 10
249.1520117122608
 20
107.5903953941318
 30
0.0
 10
249.2032027410459
 20
107.4945217205407
 30
0.0
 10
249.2238927387405
 20
107.4274627151064
 30
0.0
 10
249.2343572009065
 20
107.3935460160517
 30
0.0
  0
SPLINE
  5
AD
330
1F
100
AcDbEntity
  8
0
  6
Continuous
 62
     7
370
    15
100
AcDbSpline
210
0.0
220
0.0
230
1.0
 70
     8
 71
     3
 72
    23
 73
    19
 74
     0
 42
0.00000001
 43
0.00000001
 12
1.0
 22
0.0
 32
0.0
 13
1.0
 23
0.0
 33
0.0
 40
0.0
 40
0.0
 40
0.0
 40
0.0
 40
0.062242649204804
 40
0.1262521514661657
 40
0.1888981177529201
 40
0.2533901296441771
 40
0.3155105033804702
 40
0.3794668212466342
 40
0.4409968994993947
 40
0.5043307901200706
 40
0.5655357116527606
 40
0.6285161663438769
 40
0.6897281621782941
 40
0.7526974991099522
 40
0.8142424170098891
 40
0.8775400527690232
 40
0.9379613017252681
 40
1.0
 40
1.0
 40
1.0
 40
1.0
 10
249.2343572009065
 20
107.3935460160517
 30
0.0
 10
249.2409062202414
 20
107.3725974132165
 30
0.0
 10
249.2541901628689
 20
107.3301055493266
 30
0.0
 10
249.2871354193507
 20
107.2717535062348
 30
0.0
 10
249.3291853570777
 20
107.2188134266354
 30
0.0
 10
249.3793459487015
 20
107.1742316015403
 30
0.0
 10
249.4366788616693
 20
107.1385195799818
 30
0.0
 10
249.4983272948322
 20
107.1134088141861
 30
0.0
 10
249.5637360258203
 20
107.0989870736178
 30
0.0
 10
249.6297045682926
 20
107.0958353736935
 30
0.0
 10
249.6957450487314
 20
107.1038774302122
 30
0.0
 10
249.7587994174699
 20
107.1226590019464
 30
0.0
 10
249.8183503786803
 20
107.1519746247809
 30
0.0
 10
249.8717512089507
 20
107.1905090614019
 30
0.0
 10
249.9185230459649
 20
107.2378700173942
 30
0.0
 10
249.956038813119
 20
107.2916232335293
 30
0.0
 10
249.9850223833245
 20
107.3507541476089
 30
0.0
 10
249.9957145260007
 20
107.3925975372805
 30
0.0
 10
250.0011312081765
 20
107.4137955655773
 30
0.0
  0
SPLINE
  5
AE
330
1F
100
AcDbEntity
  8
0
  6
Continuous
 62
     7
370
    15
100
AcDbSpline
210
0.0
220
0.0
230
1.0
 70
     8
 71
     3
 72
    17
 73
    13
 74
     0
 42
0.00000001
 43
0.00000001
 12
1.0
 22
0.0
 32
0.0
 13
1.0
 23
0.0
 33
0.0
 40
0.0
 40
0.0
 40
0.0
 40
0.0
 40
0.1015004730475955
 40
0.2058817751692892
 40
0.3074885968904135
 40
0.4121578043088594
 40
0.5117295539132233
 40
0.6142784881921238
 40
0.7124655806084902
 40
0.8134156189213155
 40
0.905631019075594
 40
1.0
 40
1.0
 40
1.0
 40
1.0
 10
250.0011312081765
 20
107.4137955655773
 30
0.0
 10
250.0105833992605
 20
107.4507848554445
 30
0.0
 10
250.0297560574875
 20
107.5258132807458
 30
0.0
 10
250.0814608942844
 20
107.6301305679635
 30
0.0
 10
250.1493513326789
 20
107.7258453523691
 30
0.0
 10
250.2316083167487
 20
107.8074148204782
 30
0.0
 10
250.3265667730542
 20
107.8741315915383
 30
0.0
 10
250.4290719048379
 20
107.9228618926298
 30
0.0
 10
250.5384655921465
 20
107.95400361984
 30
0.0
 10
250.6472941551341
 20
107.9659728145393
 30
0.0
 10
250.7552500770072
 20
107.9617651443412
 30
0.0
 10
250.8231395424752
 20
107.9457406494762
 30
0.0
 10
250.8574760696521
 20
107.9376359236599
 30
0.0
  0
SPLINE
  5
AF
330
1F
100
AcDbEntity
  8
0
  6
Continuous
 62
     7
370
    15
100
AcDbSpline
210
0.0
220
0.0
230
1.0
 70
     8
 71
     3
 72
    23
 73
    19
 74
     0
 42
0.00000001
 43
0.00000001
 12
1.0
 22
0.0
 32
0.0
 13
1.0
 23
0.0
 33
0.0
 40
0.0
 40
0.0
 40
0.0
 40
0.0
 40
0.0625384906973396
 40
0.1268703322465827
 40
0.1895089567155799
 40
0.2539934004621762
 40
0.3161067687093572
 40
0.380055757959864
 40
0.4415809685727328
 40
0.5049096679479907
 40
0.5661129323448262
 40
0.6290914837166125
 40
0.690305323255215
 40
0.7532763836340686
 40
0.8148262267669715
 40
0.8781288171895878
 40
0.9382674905199274
 40
1.0
 40
1.0
 40
1.0
 40
1.0
 10
250.8574760696521
 20
107.9376359236599
 30
0.0
 10
250.8788358723698
 20
107.932683321121
 30
0.0
 10
250.9221679905148
 20
107.922636095443
 30
0.0
 10
250.9889725045262
 20
107.9216883415126
 30
0.0
 10
251.0555590878962
 20
107.9313910527335
 30
0.0
 10
251.1188962422929
 20
107.9523048017106
 30
0.0
 10
251.1781845062651
 20
107.9838889391953
 30
0.0
 10
251.2305081706519
 20
108.0245437257962
 30
0.0
 10
251.2755117901921
 20
108.0738316503772
 30
0.0
 10
251.3110995317363
 20
108.1292784862447
 30
0.0
 10
251.337092658892
 20
108.1904234692732
 30
0.0
 10
251.3523587748264
 20
108.2543960617465
 30
0.0
 10
251.356817978743
 20
108.3206458370987
 30
0.0
 10
251.350285135441
 20
108.3862253405602
 30
0.0
 10
251.3328624801888
 20
108.4505237152857
 30
0.0
 10
251.3053815279885
 20
108.5099550208371
 30
0.0
 10
251.2691314073427
 20
108.5646496596992
 30
0.0
 10
251.2386942272001
 20
108.5948854200069
 30
0.0
 10
251.2232766078058
 20
108.6102010123954
 30
0.0
  0
SPLINE
  5
B0
330
1F
100
AcDbEntity
  8
0
  6
Continuous
 62
     7
370
    15
100
AcDbSpline
210
0.0
220
0.0
230
1.0
 70
     8
 71
     3
 72
    12
 73
     8
 74
     0
 42
0.00000001
 43
0.00000001
 12
1.0
 22
0.0
 32
0.0
 13
1.0
 23
0.0
 33
0.0
 40
0.0
 40
0.0
 40
0.0
 40
0.0
 40
0.2058321750920678
 40
0.4120750343576718
 40
0.6141697879284359
 40
0.8133029339857448
 40
1.0
 40
1.0
 40
1.0
 40
1.0
 10
251.2232766078059
 20
108.6102010123954
 30
0.0
 10
251.1709433065978
 20
108.6675018186558
 30
0.0
 10
251.0661722867914
 20
108.7822177599215
 30
0.0
 10
250.9905724730125
 20
109.0074562544439
 30
0.0
 10
250.9894875942273
 20
109.2377064196969
 30
0.0
 10
251.0584733433672
 20
109.4510728297998
 30
0.0
 10
251.151613271047
 20
109.5594887003722
 30
0.0
 10
251.1966821917343
 20
109.6119494053973
 30
0.0
  0
SPLINE
  5
B1
330
1F
100
AcDbEntity
  8
0
  6
Continuous
 62
     7
370
    15
100
AcDbSpline
210
0.0
220
0.0
230
1.0
 70
     8
 71
     3
 72
    23
 73
    19
 74
     0
 42
0.00000001
 43
0.00000001
 12
1.0
 22
0.0
 32
0.0
 13
1.0
 23
0.0
 33
0.0
 40
0.0
 40
0.0
 40
0.0
 40
0.0
 40
0.0624988066048025
 40
0.1267875659926342
 40
0.189424311729361
 40
0.2539068068159543
 40
0.3160185992639495
 40
0.3799659197983626
 40
0.4414903780363506
 40
0.5048182513711762
 40
0.5660216610165848
 40
0.6290003214446713
 40
0.6902150064542154
 40
0.7531869152440201
 40
0.8147379738801579
 40
0.8780418128574021
 40
0.9382223043076068
 40
1.0
 40
1.0
 40
1.0
 40
1.0
 10
251.1966821917343
 20
109.6119494053973
 30
0.0
 10
251.211448031509
 20
109.6277979767983
 30
0.0
 10
251.2414026016295
 20
109.6599490193791
 30
0.0
 10
251.2750720105152
 20
109.7168412708115
 30
0.0
 10
251.2994606486074
 20
109.7789167109001
 30
0.0
 10
251.3125824456569
 20
109.8438546184453
 30
0.0
 10
251.3144998504562
 20
109.9106798075443
 30
0.0
 10
251.3051547988847
 20
109.9760806162509
 30
0.0
 10
251.2847469095117
 20
110.039529823929
 30
0.0
 10
251.2543790966182
 20
110.0979820100069
 30
0.0
 10
251.2143607849616
 20
110.151051396774
 30
0.0
 10
251.1666143904435
 20
110.1963226756213
 30
0.0
 10
251.1115781451826
 20
110.2334513729038
 30
0.0
 10
251.0517099807889
 20
110.2607987530843
 30
0.0
 10
250.9875920249027
 20
110.2781477434018
 30
0.0
 10
250.9227222297592
 20
110.2844145893559
 30
0.0
 10
250.8576236912173
 20
110.2807666450461
 30
0.0
 10
250.816526453101
 20
110.2698133430309
 30
0.0
 10
250.7957087226179
 20
110.2642649680134
 30
0.0
  0
SPLINE
  5
B2
330
1F
100
AcDbEntity
  8
0
  6
Continuous
 62
     7
370
    15
100
AcDbSpline
210
0.0
220
0.0
230
1.0
 70
     8
 71
     3
 72
    17
 73
    13
 74
     0
 42
0.00000001
 43
0.00000001
 12
1.0
 22
0.0
 32
0.0
 13
1.0
 23
0.0
 33
0.0
 40
0.0
 40
0.0
 40
0.0
 40
0.0
 40
0.1015098469729143
 40
0.2059006998423966
 40
0.3075184015869734
 40
0.4121990015724594
 40
0.5117774950832331
 40
0.6143342058937931
 40
0.7125142060557961
 40
0.8134571906890271
 40
0.9056523878265488
 40
1.0
 40
1.0
 40
1.0
 40
1.0
 10
250.7957087226179
 20
110.2642649680134
 30
0.0
 10
250.7592205886724
 20
110.2545451308211
 30
0.0
 10
250.6852087313073
 20
110.2348295924774
 30
0.0
 10
250.5696719735027
 20
110.2288738284415
 30
0.0
 10
250.4533122752306
 20
110.2408638247328
 30
0.0
 10
250.3417748664819
 20
110.2718652432724
 30
0.0
 10
250.2364854460126
 20
110.32075556159
 30
0.0
 10
250.1427419463099
 20
110.3846344747113
 30
0.0
 10
250.0605468497284
 20
110.4627681706506
 30
0.0
 10
249.9950661070931
 20
110.5496111980173
 30
0.0
 10
249.9439048320996
 20
110.6435025031754
 30
0.0
 10
249.9232274357872
 20
110.7090308246635
 30
0.0
 10
249.9127694450706
 20
110.7421730330658
 30
0.0
  0
LWPOLYLINE
  5
B3
330
1F
100
AcDbEntity
  8
0
  6
Continuous
 62
     7
370
    15
100
AcDbPolyline
 90
        3
 70
   128
 43
0.0
 10
251.3091230202
 20
109.9493588759
 10
251.2732214787
 20
109.8334776961
 10
251.1966821917
 20
109.7270049626
  0
ARC
  5
B4
330
1F
100
AcDbEntity
  8
0
  6
Continuous
 62
     7
370
    15
100
AcDbCircle
 10
248.1847214459
 20
109.9339936115
 30
0.0
 40
0.3926442253855569
100
AcDbArc
 50
186.8658130177
 51
228.3639649205
  0
ARC
  5
B5
330
1F
100
AcDbEntity
  8
0
  6
Continuous
 62
     7
370
    15
100
AcDbCircle
 10
251.6796728946
 20
109.2384735242
 30
0.0
 40
0.6869810662748294
100
AcDbArc
 50
134.6732371703
 51
179.9881618794
  0
ARC
  5
B6
330
1F
100
AcDbEntity
  8
0
  6
Continuous
 62
     7
370
    15
100
AcDbCircle
 10
247.4673759643
 20
109.1270399535
 30
0.0
 40
0.6870588570077261
100
AcDbArc
 50
0.0132197031
 51
48.3645622672
  0
ARC
  5
B7
330
1F
100
AcDbEntity
  8
0
  6
Continuous
 62
     7
370
    15
100
AcDbCircle
 10
250.9612849256
 20
108.4326010881
 30
0.0
 40
0.3938115076686425
100
AcDbArc
 50
254.7161973502
 51
354.3291909951
  0
ARC
  5
B8
330
1F
100
AcDbEntity
  8
0
  6
Continuous
 62
     7
370
    15
100
AcDbCircle
 10
248.2276874428
 20
108.3604410574
 30
0.0
 40
0.3938704870292042
100
AcDbArc
 50
185.6756058455
 51
288.3089050775
  0
ARC
  5
B9
330
1F
100
AcDbEntity
  8
0
  6
Continuous
 62
     7
370
    15
100
AcDbCircle
 10
250.6760154634
 20
107.3874870713
 30
0.0
 40
0.6895360957958313
100
AcDbArc
 50
74.7421546754
 51
168.1674797951
  0
ARC
  5
BA
330
1F
100
AcDbEntity
  8
0
  6
Continuous
 62
     7
370
    15
100
AcDbCircle
 10
248.5677476849
 20
107.3316009004
 30
0.0
 40
0.6897129701929529
100
AcDbArc
 50
14.8717374618
 51
108.2794474723
  0
ARC
  5
BB
330
1F
100
AcDbEntity
  8
0
  6
Continuous
 62
     7
370
    15
100
AcDbCircle
 10
249.61533867
 20
107.6098009013
 30
0.0
 40
0.394188368861104
100
AcDbArc
 50
194.8732623077
 51
348.1534626332
  0
ARC
  5
BC
330
1F
100
AcDbEntity
  8
0
  6
Continuous
 62
     7
370
    15
100
AcDbCircle
 10
249.5720270427
 20
109.1093302632
 30
0.0
 40
3.500005705037526
100
AcDbArc
 50
0.1034504933
 51
179.8965495067
  0
LINE
  5
BD
330
1F
100
AcDbEntity
  8
0
  6
Continuous
 62
     7
370
    15
100
AcDbLine
 10
256.5512343234
 20
102.5368984684
 30
0.0
 11
255.4980812227
 21
114.545170516
 31
0.0
  0
ARC
  5
BE
330
1F
100
AcDbEntity
  8
0
  6
Continuous
 62
     7
370
    15
100
AcDbCircle
 10
256.1531987794
 20
102.5025645095
 30
0.0
 40
0.3995135980504884
100
AcDbArc
 50
264.9302140244
 51
4.9300462061
  0
LINE
  5
BF
330
1F
100
AcDbEntity
  8
0
  6
Continuous
 62
     7
370
    15
100
AcDbLine
 10
244.080299123
 20
103.1552015597
 30
0.0
 11
256.1178941471
 21
102.104613887
 31
0.0
  0
ARC
  5
C0
330
1F
100
AcDbEntity
  8
0
  6
Continuous
 62
     7
370
    15
100
AcDbCircle
 10
244.1146342655
 20
103.5532372087
 30
0.0
 40
0.3995138043829968
100
AcDbArc
 50
185.0699537939
 51
265.0697859756
  0
LINE
  5
C1
330
1F
100
AcDbEntity
  8
0
  6
Continuous
 62
     7
370
    15
100
AcDbLine
 10
242.6635304402
 20
115.5262034401
 30
0.0
 11
243.7166835409
 21
103.5179313925
 31
0.0
  0
ARC
  5
C2
330
1F
100
AcDbEntity
  8
0
  6
Continuous
 62
     7
370
    15
100
AcDbCircle
 10
243.0615659842
 20
115.560537399
 30
0.0
 40
0.3995135980502572
100
AcDbArc
 50
84.9302140243
 51
184.9300462061
  0
LINE
  5
C3
330
1F
100
AcDbEntity
  8
0
  6
Continuous
 62
     7
370
    15
100
AcDbLine
 10
255.1344656405
 20
114.9079003488
 30
0.0
 11
243.0968706165
 21
115.9584880215
 31
0.0
  0
ARC
  5
C4
330
1F
100
AcDbEntity
  8
0
  6
Continuous
 62
     7
370
    15
100
AcDbCircle
 10
255.100130498
 20
114.5098646998
 30
0.0
 40
0.3995138043827748
100
AcDbArc
 50
5.0699537939
 51
85.0697859756
  0
ARC
  5
C5
330
1F
100
AcDbEntity
  8
0
  6
Continuous
 62
     7
370
    15
100
AcDbCircle
 10
243.0615881009
 20
115.5605595698
 30
0.0
 40
0.3795379181477064
100
AcDbArc
 50
84.9302140244
 51
184.9300462061
  0
LINE
  5
C6
330
1F
100
AcDbEntity
  8
0
  6
Continuous
 62
     7
370
    15
100
AcDbLine
 10
242.6834543341
 20
115.5279423088
 30
0.0
 11
243.7366074351
 21
103.5196702613
 31
0.0
  0
ARC
  5
C7
330
1F
100
AcDbEntity
  8
0
  6
Continuous
 62
     7
370
    15
100
AcDbCircle
 10
244.114660624
 20
103.553210787
 30
0.0
 40
0.3795381146289332
100
AcDbArc
 50
185.0699538432
 51
265.0697858713
  0
LINE
  5
C8
330
1F
100
AcDbEntity
  8
0
  6
Continuous
 62
     7
370
    15
100
AcDbLine
 10
244.0820422379
 20
103.17507692
 30
0.0
 11
256.1196372619
 21
102.1244892473
 31
0.0
  0
ARC
  5
C9
330
1F
100
AcDbEntity
  8
0
  6
Continuous
 62
     7
370
    15
100
AcDbCircle
 10
256.1531766626
 20
102.5025423387
 30
0.0
 40
0.3795379181480017
100
AcDbArc
 50
264.9302140244
 51
4.9300462061
  0
LINE
  5
CA
330
1F
100
AcDbEntity
  8
0
  6
Continuous
 62
     7
370
    15
100
AcDbLine
 10
256.5313104294
 20
102.5351595997
 30
0.0
 11
255.4781573287
 21
114.5434316473
 31
0.0
  0
ARC
  5
CB
330
1F
100
AcDbEntity
  8
0
  6
Continuous
 62
     7
370
    15
100
AcDbCircle
 10
255.1001041403
 20
114.5098911219
 30
0.0
 40
0.3795381141639637
100
AcDbArc
 50
5.0699537939
 51
85.0697859756
  0
LINE
  5
CC
330
1F
100
AcDbEntity
  8
0
  6
Continuous
 62
     7
370
    15
100
AcDbLine
 10
255.1327225257
 20
114.8880249885
 30
0.0
 11
243.0951275016
 21
115.9386126612
 31
0.0
  0
LINE
  5
CD
330
1F
100
AcDbEntity
  8
0
  6
Continuous
 62
     7
370
    15
100
AcDbLine
 10
243.0620083194
 20
115.5762849036
 30
0.0
 11
242.6834543341
 21
115.5279423088
 31
0.0
  0
LINE
  5
CE
330
1F
100
AcDbEntity
  8
0
  6
Continuous
 62
     7
370
    15
100
AcDbLine
 10
243.0620083194
 20
115.5762849036
 30
0.0
 11
243.0951275016
 21
115.9386126612
 31
0.0
  0
LINE
  5
CF
330
1F
100
AcDbEntity
  8
0
  6
Continuous
 62
     7
370
    15
100
AcDbLine
 10
255.0996033434
 20
114.5256972309
 30
0.0
 11
255.1327225257
 21
114.8880249885
 31
0.0
  0
LINE
  5
D0
330
1F
100
AcDbEntity
  8
0
  6
Continuous
 62
     7
370
    15
100
AcDbLine
 10
254.5259090142
 20
113.9784311162
 30
0.0
 11
255.0996033434
 21
114.5256972309
 31
0.0
  0
LINE
  5
D1
330
1F
100
AcDbEntity
  8
0
  6
Continuous
 62
     7
370
    15
100
AcDbLine
 10
243.9810086639
 20
114.693168316
 30
0.0
 11
243.0620083194
 21
115.5762849036
 31
0.0
  0
LINE
  5
D2
330
1F
100
AcDbEntity
  8
0
  6
Continuous
 62
     7
370
    15
100
AcDbLine
 10
244.1151614201
 20
103.568012856
 30
0.0
 11
243.7366074351
 21
103.5196702613
 31
0.0
  0
LINE
  5
D3
330
1F
100
AcDbEntity
  8
0
  6
Continuous
 62
     7
370
    15
100
AcDbLine
 10
244.6888557494
 20
104.1653404187
 30
0.0
 11
244.1151614201
 21
103.568012856
 31
0.0
  0
LINE
  5
D4
330
1F
100
AcDbEntity
  8
0
  6
Continuous
 62
     7
370
    15
100
AcDbLine
 10
255.0996033434
 20
114.5256972309
 30
0.0
 11
255.4781573287
 21
114.5434316473
 31
0.0
  0
LINE
  5
D5
330
1F
100
AcDbEntity
  8
0
  6
Continuous
 62
     7
370
    15
100
AcDbLine
 10
256.1527564442
 20
102.5174251833
 30
0.0
 11
256.5313104294
 21
102.5351595997
 31
0.0
  0
LINE
  5
D6
330
1F
100
AcDbEntity
  8
0
  6
Continuous
 62
     7
370
    15
100
AcDbLine
 10
255.2337560997
 20
103.4678320075
 30
0.0
 11
256.1527564442
 21
102.5174251833
 31
0.0
  0
ARC
  5
D7
330
1F
100
AcDbEntity
  8
0
  6
Continuous
 62
     7
370
    15
100
AcDbCircle
 10
245.9430671943
 20
112.6847283717
 30
0.0
 40
0.9987839949519325
100
AcDbArc
 50
84.9302140094
 51
184.9300462358
  0
LINE
  5
D8
330
1F
100
AcDbEntity
  8
0
  6
Continuous
 62
     7
370
    15
100
AcDbLine
 10
252.7683357384
 20
113.0916289695
 30
0.0
 11
246.0313287754
 21
113.6796049278
 31
0.0
  0
ARC
  5
D9
330
1F
100
AcDbEntity
  8
0
  6
Continuous
 62
     7
370
    15
100
AcDbCircle
 10
252.6824978821
 20
112.0965398469
 30
0.0
 40
0.998784510957026
100
AcDbArc
 50
5.0699537939
 51
85.0697859757
  0
LINE
  5
DA
330
1F
100
AcDbEntity
  8
0
  6
Continuous
 62
     7
370
    15
100
AcDbLine
 10
254.2667864291
 20
105.4642084346
 30
0.0
 11
253.6773746937
 21
112.1848043873
 31
0.0
  0
ARC
  5
DB
330
1F
100
AcDbEntity
  8
0
  6
Continuous
 62
     7
370
    15
100
AcDbCircle
 10
253.2716975691
 20
105.3783735373
 30
0.0
 40
0.998783995126275
100
AcDbArc
 50
264.9302140244
 51
4.9300462061
  0
LINE
  5
DC
330
1F
100
AcDbEntity
  8
0
  6
Continuous
 62
     7
370
    15
100
AcDbLine
 10
246.4464290252
 20
104.971472939
 30
0.0
 11
253.1834359882
 21
104.383496981
 31
0.0
  0
ARC
  5
DD
330
1F
100
AcDbEntity
  8
0
  6
Continuous
 62
     7
370
    15
100
AcDbCircle
 10
246.5322668814
 20
105.9665620616
 30
0.0
 40
0.9987845109570778
100
AcDbArc
 50
185.0699537939
 51
265.0697859757
  0
LINE
  5
DE
330
1F
100
AcDbEntity
  8
0
  6
Continuous
 62
     7
370
    15
100
AcDbLine
 10
244.9479783345
 20
112.5988934738
 30
0.0
 11
245.5373900699
 21
105.8782975212
 31
0.0
  0
CIRCLE
  5
DF
330
1F
100
AcDbEntity
  8
0
  6
Continuous
 62
     7
370
    15
100
AcDbCircle
 10
249.6096260507
 20
109.0254099342
 30
0.0
 40
3.796736317635597
  0
ARC
  5
E0
330
1F
100
AcDbEntity
  8
0
  6
Continuous
 62
     7
370
    15
100
AcDbCircle
 10
249.6073823818
 20
109.1187612746
 30
0.0
 40
3.800006429645991
100
AcDbArc
 50
180.1053996227
 51
359.8946003773
  0
SPLINE
  5
E1
330
1F
100
AcDbEntity
  8
0
  6
Continuous
 62
     7
370
    15
100
AcDbSpline
210
0.0
220
0.0
230
1.0
 70
     8
 71
     3
 72
    14
 73
    10
 74
     0
 42
0.00000001
 43
0.00000001
 12
1.0
 22
0.0
 32
0.0
 13
1.0
 23
0.0
 33
0.0
 40
0.0
 40
0.0
 40
0.0
 40
0.0
 40
0.0076078452722865
 40
0.162987463162133
 40
0.3207220632346235
 40
0.4900060525182091
 40
0.6629673458730138
 40
0.8292185822132991
 40
1.0
 40
1.0
 40
1.0
 40
1.0
 10
244.4699362414952
 20
114.2001751311844
 30
0.0
 10
244.4688206918255
 20
114.2013512197934
 30
0.0
 10
244.4449215976423
 20
114.2265472762294
 30
0.0
 10
244.3961192399731
 20
114.2776021866808
 30
0.0
 10
244.3189014564456
 20
114.3572888479007
 30
0.0
 10
244.2357611327444
 20
114.4419141592721
 30
0.0
 10
244.1496282946203
 20
114.528283080752
 30
0.0
 10
244.063163185182
 20
114.6137557428441
 30
0.0
 10
244.0086378029889
 20
114.6664613132263
 30
0.0
 10
243.9810086639062
 20
114.6931683160194
 30
0.0
  0
SPLINE
  5
E2
330
1F
100
AcDbEntity
  8
0
  6
Continuous
 62
     7
370
    15
100
AcDbSpline
210
0.0
220
0.0
230
1.0
 70
     8
 71
     3
 72
    11
 73
     7
 74
     0
 42
0.00000001
 43
0.00000001
 12
1.0
 22
0.0
 32
0.0
 13
1.0
 23
0.0
 33
0.0
 40
0.0
 40
0.0
 40
0.0
 40
0.0
 40
0.0081164391030255
 40
0.3263678516927058
 40
0.662768581347811
 40
1.0
 40
1.0
 40
1.0
 40
1.0
 10
254.0352531807515
 20
113.4854842507327
 30
0.0
 10
254.0364458031083
 20
113.4867415437539
 30
0.0
 10
254.0844020055169
 20
113.5372982000736
 30
0.0
 10
254.1898806497136
 20
113.6466356008589
 30
0.0
 10
254.3613328187664
 20
113.8195052466043
 30
0.0
 10
254.4710052015863
 20
113.9254122932933
 30
0.0
 10
254.525909014206
 20
113.9784311162369
 30
0.0
  0
LINE
  5
E3
330
1F
100
AcDbEntity
  8
0
  6
Continuous
 62
     7
370
    15
100
AcDbLine
 10
256.1527564442
 20
102.5174251833
 30
0.0
 11
256.1196372619
 21
102.1244892473
 31
0.0
  0
LINE
  5
E4
330
1F
100
AcDbEntity
  8
0
  6
Continuous
 62
     7
370
    15
100
AcDbLine
 10
244.1151614201
 20
103.568012856
 30
0.0
 11
244.0820422379
 21
103.17507692
 31
0.0
  0
SPLINE
  5
E5
330
1F
100
AcDbEntity
  8
0
  6
Continuous
 62
     7
370
    15
100
AcDbSpline
210
0.0
220
0.0
230
1.0
 70
     8
 71
     3
 72
    11
 73
     7
 74
     0
 42
0.00000001
 43
0.00000001
 12
1.0
 22
0.0
 32
0.0
 13
1.0
 23
0.0
 33
0.0
 40
0.0
 40
0.0
 40
0.0
 40
0.0
 40
0.3372314186522485
 40
0.6736321483073507
 40
0.9918835608970104
 40
0.9999999999999999
 40
0.9999999999999999
 40
0.9999999999999999
 40
0.9999999999999999
 10
244.6888557493553
 20
104.1653404187308
 30
0.0
 10
244.7437595619752
 20
104.2218617351704
 30
0.0
 10
244.8534319447953
 20
104.3347651412959
 30
0.0
 10
245.0248841138475
 20
104.503964535925
 30
0.0
 10
245.1303627580454
 20
104.6050705421754
 30
0.0
 10
245.1783189604533
 20
104.6501926528796
 30
0.0
 10
245.1795115828101
 20
104.6513147942359
 30
0.0
  0
SPLINE
  5
E6
330
1F
100
AcDbEntity
  8
0
  6
Continuous
 62
     7
370
    15
100
AcDbSpline
210
0.0
220
0.0
230
1.0
 70
     8
 71
     3
 72
    11
 73
     7
 74
     0
 42
0.00000001
 43
0.00000001
 12
1.0
 22
0.0
 32
0.0
 13
1.0
 23
0.0
 33
0.0
 40
0.0
 40
0.0
 40
0.0
 40
0.0
 40
0.3367831131415049
 40
0.679011134768817
 40
0.9923717339918793
 40
1.0
 40
1.0
 40
1.0
 40
1.0
 10
255.2337560996556
 20
103.4678320074628
 30
0.0
 10
255.1782662618586
 20
103.5246023430249
 30
0.0
 10
255.0663894596662
 20
103.6390608430716
 30
0.0
 10
254.8969415955769
 20
103.8055541454406
 30
0.0
 10
254.7928856228671
 20
103.9050971233335
 30
0.0
 10
254.7459440827406
 20
103.9492623889859
 30
0.0
 10
254.7448285220663
 20
103.9503119717946
 30
0.0
  0
LINE
  5
E7
330
1F
100
AcDbEntity
  8
0
  6
HIDDEN
 62
     7
370
     0
100
AcDbLine
 10
166.5527564442
 20
143.8030954658
 30
0.0
 11
166.5527564442
 21
94.403095474
 31
0.0
  0
LINE
  5
E8
330
1F
100
AcDbEntity
  8
0
  6
HIDDEN
 62
     7
370
     0
100
AcDbLine
 10
186.5527564442
 20
94.703095474
 30
0.0
 11
186.5527564442
 21
143.503095474
 31
0.0
  0
SPLINE
  5
E9
330
1F
100
AcDbEntity
  8
0
  6
HIDDEN
 62
     7
370
     0
100
AcDbSpline
210
0.0
220
0.0
230
1.0
 70
     8
 71
     3
 72
    58
 73
    54
 74
     0
 42
0.00000001
 43
0.00000001
 12
1.0
 22
0.0
 32
0.0
 13
1.0
 23
0.0
 33
0.0
 40
-0.0624999999999997
 40
-0.0624999999999997
 40
0.0
 40
0.0
 40
0.03125
 40
0.03125
 40
0.0625000000000001
 40
0.0625000000000001
 40
0.0937500000000001
 40
0.0937500000000001
 40
0.1250000000000001
 40
0.1250000000000001
 40
0.1875000000000003
 40
0.1875000000000003
 40
0.2500000000000004
 40
0.2500000000000004
 40
0.2812500000000006
 40
0.2812500000000006
 40
0.3125000000000006
 40
0.3125000000000006
 40
0.3437500000000007
 40
0.3437500000000007
 40
0.3750000000000007
 40
0.3750000000000007
 40
0.4062500000000007
 40
0.4062500000000007
 40
0.4375000000000008
 40
0.4375000000000008
 40
0.4687500000000008
 40
0.4687500000000008
 40
0.5000000000000009
 40
0.5000000000000009
 40
0.562500000000001
 40
0.562500000000001
 40
0.6250000000000011
 40
0.6250000000000011
 40
0.656250000000001
 40
0.656250000000001
 40
0.687500000000001
 40
0.687500000000001
 40
0.7187500000000009
 40
0.7187500000000009
 40
0.7500000000000008
 40
0.7500000000000008
 40
0.7812500000000008
 40
0.7812500000000008
 40
0.8125000000000007
 40
0.8125000000000007
 40
0.8437500000000007
 40
0.8437500000000007
 40
0.8750000000000006
 40
0.8750000000000006
 40
0.9375000000000003
 40
0.9375000000000003
 40
1.0
 40
1.0
 40
1.03125
 40
1.03125
 10
176.5527564441584
 20
118.8387231034777
 30
0.0
 10
176.5527564441584
 20
119.2352816592929
 30
0.0
 10
176.5657323361689
 20
119.3652483988377
 30
0.0
 10
176.6165646382748
 20
119.6209277369698
 30
0.0
 10
176.6550417095962
 20
119.7479688288113
 30
0.0
 10
176.7554466707525
 20
119.9901470147518
 30
0.0
 10
176.8168809130719
 20
120.1050006733413
 30
0.0
 10
176.9620151792536
 20
120.3223657951471
 30
0.0
 10
177.0464571004009
 20
120.4252412672314
 30
0.0
 10
177.3231291300108
 20
120.7018592196485
 30
0.0
 10
177.5461752849789
 20
120.8508513394814
 30
0.0
 10
178.0274392835234
 20
121.0503751344727
 30
0.0
 10
178.2906971388432
 20
121.1029539989749
 30
0.0
 10
178.682163170128
 20
121.1031657725624
 30
0.0
 10
178.8147119137415
 20
121.090174800973
 30
0.0
 10
179.0712562227568
 20
121.0391385776832
 30
0.0
 10
179.1959521091285
 20
121.0013770362804
 30
0.0
 10
179.4381550795622
 20
120.901217496987
 30
0.0
 10
179.5552184428129
 20
120.8386196872365
 30
0.0
 10
179.771904762059
 20
120.6938977032009
 30
0.0
 10
179.8729187301267
 20
120.6112735980326
 30
0.0
 10
180.0597119244122
 20
120.4246532274216
 30
0.0
 10
180.1425122883665
 20
120.3236048595304
 30
0.0
 10
180.2873907272611
 20
120.1070928386565
 30
0.0
 10
180.3500415105884
 20
119.9902034834576
 30
0.0
 10
180.4504819049623
 20
119.7479460813986
 30
0.0
 10
180.4883409167323
 20
119.6232834165833
 30
0.0
 10
180.5395786211958
 20
119.3669522209285
 30
0.0
 10
180.5527089959689
 20
119.2343642815781
 30
0.0
 10
180.5528509464078
 20
118.8427326130087
 30
0.0
 10
180.5005100301597
 20
118.5795197799745
 30
0.0
 10
180.3013798034216
 20
118.0980124492832
 30
0.0
 10
180.1525427157793
 20
117.8748119680076
 30
0.0
 10
179.8762306792399
 20
117.5979658880458
 30
0.0
 10
179.7734651419886
 20
117.5134537938271
 30
0.0
 10
179.5561482096348
 20
117.3680751970956
 30
0.0
 10
179.441361299098
 20
117.3065597654938
 30
0.0
 10
179.1994418089921
 20
117.2060037052482
 30
0.0
 10
179.0723149064921
 20
117.1673649794136
 30
0.0
 10
178.8166460708559
 20
117.1163001125262
 30
0.0
 10
178.6867508654779
 20
117.1032256321499
 30
0.0
 10
178.4226760830535
 20
117.1029672308763
 30
0.0
 10
178.2923469435682
 20
117.1158432988393
 30
0.0
 10
178.0366576294244
 20
117.1664420901672
 30
0.0
 10
177.9097297630367
 20
117.2047474360049
 30
0.0
 10
177.6672774741946
 20
117.3050032684248
 30
0.0
 10
177.552360780213
 20
117.3663542873368
 30
0.0
 10
177.3349699884425
 20
117.5112231229071
 30
0.0
 10
177.231984708761
 20
117.5955870761764
 30
0.0
 10
176.9550203411037
 20
117.8721131299625
 30
0.0
 10
176.8058880627452
 20
118.0949729719582
 30
0.0
 10
176.6059359440308
 20
118.576075492019
 30
0.0
 10
176.5527564441584
 20
118.8387231034777
 30
0.0
 10
176.5527564441584
 20
119.2352816592929
 30
0.0
  0
SPLINE
  5
EA
330
1F
100
AcDbEntity
  8
0
  6
HIDDEN
 62
     7
370
     0
100
AcDbSpline
210
0.0
220
0.0
230
1.0
 70
     8
 71
     3
 72
    12
 73
     8
 74
     0
 42
0.00000001
 43
0.00000001
 12
1.0
 22
0.0
 32
0.0
 13
1.0
 23
0.0
 33
0.0
 40
0.0
 40
0.0
 40
0.0
 40
0.0
 40
0.2500000000000002
 40
0.2500000000000002
 40
0.5000000000000004
 40
0.5000000000000004
 40
1.0
 40
1.0
 40
1.0
 40
1.0
 10
175.0805132577248
 20
111.5342855048406
 30
0.0
 10
175.0168480211943
 20
111.5342855048406
 30
0.0
 10
174.9572417889709
 20
111.5082133563609
 30
0.0
 10
174.8585812640401
 20
111.4326746055398
 30
0.0
 10
174.8196142740249
 20
111.3854236684436
 30
0.0
 10
174.7202274421004
 20
111.2335998504771
 30
0.0
 10
174.678151194677
 20
111.1207966007121
 30
0.0
 10
174.6475005558326
 20
111.006642475977
 30
0.0
  0
LINE
  5
EB
330
1F
100
AcDbEntity
  8
0
  6
HIDDEN
 62
     7
370
     0
100
AcDbLine
 10
178.0249996306
 20
111.5342855048
 30
0.0
 11
175.0805132577
 21
111.5342855048
 31
0.0
  0
SPLINE
  5
EC
330
1F
100
AcDbEntity
  8
0
  6
HIDDEN
 62
     7
370
     0
100
AcDbSpline
210
0.0
220
0.0
230
1.0
 70
     8
 71
     3
 72
    12
 73
     8
 74
     0
 42
0.00000001
 43
0.00000001
 12
1.0
 22
0.0
 32
0.0
 13
1.0
 23
0.0
 33
0.0
 40
0.0
 40
0.0
 40
0.0
 40
0.0
 40
0.5000000000000018
 40
0.5000000000000018
 40
0.7500000000000009
 40
0.7500000000000009
 40
1.0
 40
1.0
 40
1.0
 40
1.0
 10
178.4580123324841
 20
111.006642475977
 30
0.0
 10
178.4273129491168
 20
111.1209781430408
 30
0.0
 10
178.3859628810103
 20
111.2323314958822
 30
0.0
 10
178.2862069527909
 20
111.3850682681309
 30
0.0
 10
178.2465100350582
 20
111.4329281539831
 30
0.0
 10
178.1492518834105
 20
111.5075312673325
 30
0.0
 10
178.0884757254199
 20
111.5342855048406
 30
0.0
 10
178.0249996305919
 20
111.5342855048406
 30
0.0
  0
ELLIPSE
  5
ED
330
1F
100
AcDbEntity
  8
0
  6
HIDDEN
 62
     7
370
     0
100
AcDbEllipse
 10
165.4964987892
 20
119.103095474
 30
0.0
 11
-11.70927234972715
 21
24.67718644093742
 31
0.0
210
0.0
220
0.0
230
1.0
 40
0.3419987131
 41
3.310521928178957
 42
4.221709151398949
  0
SPLINE
  5
EE
330
1F
100
AcDbEntity
  8
0
  6
HIDDEN
 62
     7
370
     0
100
AcDbSpline
210
0.0
220
0.0
230
1.0
 70
     8
 71
     3
 72
    12
 73
     8
 74
     0
 42
0.00000001
 43
0.00000001
 12
1.0
 22
0.0
 32
0.0
 13
1.0
 23
0.0
 33
0.0
 40
0.0
 40
0.0
 40
0.0
 40
0.0
 40
0.25
 40
0.25
 40
0.5
 40
0.5
 40
1.0
 40
1.0
 40
1.0
 40
1.0
 10
178.0249996305919
 20
95.27636435851925
 30
0.0
 10
178.0886648671224
 20
95.27636435851926
 30
0.0
 10
178.1482710993458
 20
95.28462913418511
 30
0.0
 10
178.2469316242767
 20
95.30884791576827
 30
0.0
 10
178.2858986142919
 20
95.32410523507741
 30
0.0
 10
178.3852854462164
 20
95.37373858933934
 30
0.0
 10
178.4273616936398
 20
95.41137829751345
 30
0.0
 10
178.4580123324841
 20
95.45045399678959
 30
0.0
  0
LINE
  5
EF
330
1F
100
AcDbEntity
  8
0
  6
HIDDEN
 62
     7
370
     0
100
AcDbLine
 10
175.0805132577
 20
95.2763643585
 30
0.0
 11
178.0249996306
 21
95.2763643585
 31
0.0
  0
SPLINE
  5
F0
330
1F
100
AcDbEntity
  8
0
  6
HIDDEN
 62
     7
370
     0
100
AcDbSpline
210
0.0
220
0.0
230
1.0
 70
     8
 71
     3
 72
    12
 73
     8
 74
     0
 42
0.00000001
 43
0.00000001
 12
1.0
 22
0.0
 32
0.0
 13
1.0
 23
0.0
 33
0.0
 40
0.0
 40
0.0
 40
0.0
 40
0.0
 40
0.5000000000000013
 40
0.5000000000000013
 40
0.7500000000000007
 40
0.7500000000000007
 40
1.0
 40
1.0
 40
1.0
 40
1.0
 10
174.6475005558326
 20
95.45045399678959
 30
0.0
 10
174.6781999391999
 20
95.41131615439369
 30
0.0
 10
174.7195500073064
 20
95.37415637166818
 30
0.0
 10
174.8193059355258
 20
95.32421986604045
 30
0.0
 10
174.8590028532586
 20
95.30876699589668
 30
0.0
 10
174.9562610049062
 20
95.28484745229764
 30
0.0
 10
175.0170371628969
 20
95.27636435851923
 30
0.0
 10
175.0805132577248
 20
95.27636435851925
 30
0.0
  0
ELLIPSE
  5
F1
330
1F
100
AcDbEntity
  8
0
  6
HIDDEN
 62
     7
370
     0
100
AcDbEllipse
 10
187.6090140991
 20
119.103095474
 30
0.0
 11
11.709272349727
 21
24.67718644093742
 31
0.0
210
0.0
220
0.0
230
1.0
 40
0.3419987131
 41
2.061476155780649
 42
2.972663379000663
  0
SPLINE
  5
F2
330
1F
100
AcDbEntity
  8
0
  6
HIDDEN
 62
     7
370
     0
100
AcDbSpline
210
0.0
220
0.0
230
1.0
 70
     8
 71
     3
 72
    12
 73
     8
 74
     0
 42
0.00000001
 43
0.00000001
 12
1.0
 22
0.0
 32
0.0
 13
1.0
 23
0.0
 33
0.0
 40
0.0
 40
0.0
 40
0.0
 40
0.0
 40
0.2500000000000002
 40
0.2500000000000002
 40
0.5000000000000004
 40
0.5000000000000004
 40
1.0
 40
1.0
 40
1.0
 40
1.0
 10
175.0805132577248
 20
142.9298265895233
 30
0.0
 10
175.0168480211943
 20
142.9298265895233
 30
0.0
 10
174.9572417889709
 20
142.9215618138574
 30
0.0
 10
174.8585812640401
 20
142.8973430322743
 30
0.0
 10
174.8196142740249
 20
142.8820857129651
 30
0.0
 10
174.7202274421004
 20
142.8324523587032
 30
0.0
 10
174.678151194677
 20
142.7948126505291
 30
0.0
 10
174.6475005558326
 20
142.7557369512529
 30
0.0
  0
LINE
  5
F3
330
1F
100
AcDbEntity
  8
0
  6
HIDDEN
 62
     7
370
     0
100
AcDbLine
 10
178.0249996306
 20
142.9298265895
 30
0.0
 11
175.0805132577
 21
142.9298265895
 31
0.0
  0
SPLINE
  5
F4
330
1F
100
AcDbEntity
  8
0
  6
HIDDEN
 62
     7
370
     0
100
AcDbSpline
210
0.0
220
0.0
230
1.0
 70
     8
 71
     3
 72
    12
 73
     8
 74
     0
 42
0.00000001
 43
0.00000001
 12
1.0
 22
0.0
 32
0.0
 13
1.0
 23
0.0
 33
0.0
 40
0.0
 40
0.0
 40
0.0
 40
0.0
 40
0.4999999999999991
 40
0.4999999999999991
 40
0.7499999999999996
 40
0.7499999999999996
 40
1.0
 40
1.0
 40
1.0
 40
1.0
 10
178.4580123324841
 20
142.7557369512529
 30
0.0
 10
178.4273129491168
 20
142.7948747936488
 30
0.0
 10
178.3859628810104
 20
142.8320345763743
 30
0.0
 10
178.2862069527909
 20
142.8819710820021
 30
0.0
 10
178.2465100350582
 20
142.8974239521458
 30
0.0
 10
178.1492518834106
 20
142.9213434957449
 30
0.0
 10
178.0884757254199
 20
142.9298265895233
 30
0.0
 10
178.0249996305919
 20
142.9298265895233
 30
0.0
  0
ELLIPSE
  5
F5
330
1F
100
AcDbEntity
  8
0
  6
HIDDEN
 62
     7
370
     0
100
AcDbEllipse
 10
165.4964987892
 20
119.103095474
 30
0.0
 11
11.70927234972723
 21
24.67718644093742
 31
0.0
210
0.0
220
0.0
230
1.0
 40
0.3419987131
 41
5.20306880937047
 42
6.114256032590515
  0
SPLINE
  5
F6
330
1F
100
AcDbEntity
  8
0
  6
HIDDEN
 62
     7
370
     0
100
AcDbSpline
210
0.0
220
0.0
230
1.0
 70
     8
 71
     3
 72
    12
 73
     8
 74
     0
 42
0.00000001
 43
0.00000001
 12
1.0
 22
0.0
 32
0.0
 13
1.0
 23
0.0
 33
0.0
 40
0.0
 40
0.0
 40
0.0
 40
0.0
 40
0.2499999999999984
 40
0.2499999999999984
 40
0.4999999999999968
 40
0.4999999999999968
 40
1.0
 40
1.0
 40
1.0
 40
1.0
 10
178.0249996305919
 20
126.6719054432021
 30
0.0
 10
178.0886648671224
 20
126.6719054432021
 30
0.0
 10
178.1482710993458
 20
126.6979775916818
 30
0.0
 10
178.2469316242767
 20
126.7735163425029
 30
0.0
 10
178.2858986142919
 20
126.8207672795992
 30
0.0
 10
178.3852854462164
 20
126.9725910975656
 30
0.0
 10
178.4273616936398
 20
127.0853943473306
 30
0.0
 10
178.4580123324841
 20
127.1995484720657
 30
0.0
  0
LINE
  5
F7
330
1F
100
AcDbEntity
  8
0
  6
HIDDEN
 62
     7
370
     0
100
AcDbLine
 10
175.0805132577
 20
126.6719054432
 30
0.0
 11
178.0249996306
 21
126.6719054432
 31
0.0
  0
SPLINE
  5
F8
330
1F
100
AcDbEntity
  8
0
  6
HIDDEN
 62
     7
370
     0
100
AcDbSpline
210
0.0
220
0.0
230
1.0
 70
     8
 71
     3
 72
    12
 73
     8
 74
     0
 42
0.00000001
 43
0.00000001
 12
1.0
 22
0.0
 32
0.0
 13
1.0
 23
0.0
 33
0.0
 40
0.0
 40
0.0
 40
0.0
 40
0.0
 40
0.5000000000000046
 40
0.5000000000000046
 40
0.7500000000000022
 40
0.7500000000000022
 40
1.0
 40
1.0
 40
1.0
 40
1.0
 10
174.6475005558326
 20
127.1995484720657
 30
0.0
 10
174.6781999391999
 20
127.0852128050019
 30
0.0
 10
174.7195500073064
 20
126.9738594521605
 30
0.0
 10
174.8193059355258
 20
126.8211226799118
 30
0.0
 10
174.8590028532586
 20
126.7732627940596
 30
0.0
 10
174.9562610049062
 20
126.6986596807102
 30
0.0
 10
175.0170371628969
 20
126.6719054432021
 30
0.0
 10
175.0805132577248
 20
126.6719054432021
 30
0.0
  0
ELLIPSE
  5
F9
330
1F
100
AcDbEntity
  8
0
  6
HIDDEN
 62
     7
370
     0
100
AcDbEllipse
 10
187.6090140991
 20
119.103095474
 30
0.0
 11
-11.70927234972715
 21
24.67718644093742
 31
0.0
210
0.0
220
0.0
230
1.0
 40
0.3419987131
 41
0.1689292745891136
 42
1.080116497809131
  0
LINE
  5
FA
330
1F
100
AcDbEntity
  8
0
  6
HIDDEN
 62
     7
370
     0
100
AcDbLine
 10
166.5527564442
 20
99.553095474
 30
0.0
 11
166.5527564442
 21
138.653095474
 31
0.0
  0
SPLINE
  5
FB
330
1F
100
AcDbEntity
  8
0
  6
HIDDEN
 62
     7
370
     0
100
AcDbSpline
210
0.0
220
0.0
230
1.0
 70
     8
 71
     3
 72
    14
 73
    10
 74
     0
 42
0.00000001
 43
0.00000001
 12
1.0
 22
0.0
 32
0.0
 13
1.0
 23
0.0
 33
0.0
 40
0.0
 40
0.0
 40
0.0
 40
0.0
 40
0.25
 40
0.25
 40
0.5
 40
0.5
 40
0.75
 40
0.75
 40
1.0
 40
1.0
 40
1.0
 40
1.0
 10
165.51189541603
 20
131.3975710190946
 30
0.0
 10
165.5436105503607
 20
131.3397878367514
 30
0.0
 10
165.5782250756611
 20
131.2833751756765
 30
0.0
 10
165.6578962710764
 20
131.1757757256611
 30
0.0
 10
165.7029521481068
 20
131.12386309874
 30
0.0
 10
165.8135065606122
 20
131.0376644740427
 30
0.0
 10
165.8808919748164
 20
131.0035750540711
 30
0.0
 10
166.0315214947144
 20
131.0014726620543
 30
0.0
 10
166.1013487314798
 20
131.034844434899
 30
0.0
 10
166.1577795552833
 20
131.0786571034496
 30
0.0
  0
SPLINE
  5
FC
330
1F
100
AcDbEntity
  8
0
  6
HIDDEN
 62
     7
370
     0
100
AcDbSpline
210
0.0
220
0.0
230
1.0
 70
     8
 71
     3
 72
    16
 73
    12
 74
     0
 42
0.00000001
 43
0.00000001
 12
1.0
 22
0.0
 32
0.0
 13
1.0
 23
0.0
 33
0.0
 40
0.0
 40
0.0
 40
0.0
 40
0.0
 40
0.0625000000000014
 40
0.0625000000000014
 40
0.1250000000000029
 40
0.1250000000000029
 40
0.25
 40
0.25
 40
0.4999999999999983
 40
0.4999999999999983
 40
1.0
 40
1.0
 40
1.0
 40
1.0
 10
166.1577795552515
 20
131.0786571034803
 30
0.0
 10
166.1695137896984
 20
131.0877675167282
 30
0.0
 10
166.1830455451774
 20
131.0958448726745
 30
0.0
 10
166.2130330056072
 20
131.1040917143515
 30
0.0
 10
166.2280277120155
 20
131.103164396764
 30
0.0
 10
166.2637681344102
 20
131.0903978772322
 30
0.0
 10
166.2777814714115
 20
131.0727492307219
 30
0.0
 10
166.3119255601928
 20
131.0180963106903
 30
0.0
 10
166.3228974643112
 20
130.9766966430318
 30
0.0
 10
166.3487430045775
 20
130.848206899309
 30
0.0
 10
166.3527564441584
 20
130.7575888116703
 30
0.0
 10
166.3527564441584
 20
130.6653697071162
 30
0.0
  0
LINE
  5
FD
330
1F
100
AcDbEntity
  8
0
  6
HIDDEN
 62
     7
370
     0
100
AcDbLine
 10
166.3527564442
 20
107.5408212409
 30
0.0
 11
166.3527564442
 21
130.6653697071
 31
0.0
  0
SPLINE
  5
FE
330
1F
100
AcDbEntity
  8
0
  6
HIDDEN
 62
     7
370
     0
100
AcDbSpline
210
0.0
220
0.0
230
1.0
 70
     8
 71
     3
 72
    16
 73
    12
 74
     0
 42
0.00000001
 43
0.00000001
 12
1.0
 22
0.0
 32
0.0
 13
1.0
 23
0.0
 33
0.0
 40
0.0
 40
0.0
 40
0.0
 40
0.0
 40
0.4999999999999969
 40
0.4999999999999969
 40
0.7499999999999929
 40
0.7499999999999929
 40
0.8749999999999956
 40
0.8749999999999956
 40
0.9374999999999978
 40
0.9374999999999978
 40
1.0
 40
1.0
 40
1.0
 40
1.0
 10
166.3527564441584
 20
107.5408212409261
 30
0.0
 10
166.3527564441584
 20
107.4482373900222
 30
0.0
 10
166.3486991420433
 20
107.358024934162
 30
0.0
 10
166.3230418992485
 20
107.2300838070436
 30
0.0
 10
166.3117264535064
 20
107.1876705926317
 30
0.0
 10
166.2776950861978
 20
107.1333565491805
 30
0.0
 10
166.263816104994
 20
107.1157752137906
 30
0.0
 10
166.2278804232266
 20
107.1029915258557
 30
0.0
 10
166.2129301039639
 20
107.1021160277076
 30
0.0
 10
166.183031591222
 20
107.110361462827
 30
0.0
 10
166.1694987308567
 20
107.1184351229987
 30
0.0
 10
166.1577795552827
 20
107.1275338445928
 30
0.0
  0
SPLINE
  5
FF
330
1F
100
AcDbEntity
  8
0
  6
HIDDEN
 62
     7
370
     0
100
AcDbSpline
210
0.0
220
0.0
230
1.0
 70
     8
 71
     3
 72
    14
 73
    10
 74
     0
 42
0.00000001
 43
0.00000001
 12
1.0
 22
0.0
 32
0.0
 13
1.0
 23
0.0
 33
0.0
 40
0.0
 40
0.0
 40
0.0
 40
0.0
 40
0.25
 40
0.25
 40
0.5
 40
0.5
 40
0.75
 40
0.75
 40
1.0
 40
1.0
 40
1.0
 40
1.0
 10
166.1577795552896
 20
107.1275338446014
 30
0.0
 10
166.1013237906808
 20
107.1713658770961
 30
0.0
 10
166.0304581644309
 20
107.2046969135179
 30
0.0
 10
165.8820010832583
 20
107.2026379033705
 30
0.0
 10
165.8128077239507
 20
107.1680418789688
 30
0.0
 10
165.7030922858166
 20
107.0823765223059
 30
0.0
 10
165.6578477064852
 20
107.0303540775979
 30
0.0
 10
165.5782209970614
 20
106.922805817268
 30
0.0
 10
165.543610848528
 20
106.866403654535
 30
0.0
 10
165.5118954160288
 20
106.8086199289455
 30
0.0
  0
SPLINE
  5
100
330
1F
100
AcDbEntity
  8
0
  6
HIDDEN
 62
     7
370
     0
100
AcDbSpline
210
0.0
220
0.0
230
1.0
 70
     8
 71
     3
 72
    10
 73
     6
 74
     0
 42
0.00000001
 43
0.00000001
 12
1.0
 22
0.0
 32
0.0
 13
1.0
 23
0.0
 33
0.0
 40
0.0
 40
0.0
 40
0.0
 40
0.0
 40
0.5
 40
0.5
 40
1.0
 40
1.0
 40
1.0
 40
1.0
 10
165.5118954160293
 20
106.8086199289465
 30
0.0
 10
165.4401156281058
 20
106.6778412120447
 30
0.0
 10
165.3876561137978
 20
106.5437410625415
 30
0.0
 10
165.2983130496966
 20
106.2756484995527
 30
0.0
 10
165.2623174401969
 20
106.1414031279638
 30
0.0
 10
165.2314361005988
 20
106.0080487504888
 30
0.0
  0
SPLINE
  5
101
330
1F
100
AcDbEntity
  8
0
  6
HIDDEN
 62
     7
370
     0
100
AcDbSpline
210
0.0
220
0.0
230
1.0
 70
     8
 71
     3
 72
    10
 73
     6
 74
     0
 42
0.00000001
 43
0.00000001
 12
1.0
 22
0.0
 32
0.0
 13
1.0
 23
0.0
 33
0.0
 40
0.0
 40
0.0
 40
0.0
 40
0.0
 40
0.5
 40
0.5
 40
1.0
 40
1.0
 40
1.0
 40
1.0
 10
165.2314361005988
 20
101.8061856060164
 30
0.0
 10
165.262309132411
 20
101.7899024586492
 30
0.0
 10
165.2982959953239
 20
101.7776448689237
 30
0.0
 10
165.3876305812151
 20
101.7605418800949
 30
0.0
 10
165.4400864406377
 20
101.7557422842366
 30
0.0
 10
165.51189541603
 20
101.7539381928286
 30
0.0
  0
SPLINE
  5
102
330
1F
100
AcDbEntity
  8
0
  6
HIDDEN
 62
     7
370
     0
100
AcDbSpline
210
0.0
220
0.0
230
1.0
 70
     8
 71
     3
 72
     8
 73
     4
 74
     0
 42
0.00000001
 43
0.00000001
 12
1.0
 22
0.0
 32
0.0
 13
1.0
 23
0.0
 33
0.0
 40
0.0
 40
0.0
 40
0.0
 40
0.0
 40
1.0
 40
1.0
 40
1.0
 40
1.0
 10
166.3350598207834
 20
101.6280538145816
 30
0.0
 10
166.3490466293255
 20
101.5998134239999
 30
0.0
 10
166.3527564441582
 20
101.5766813811891
 30
0.0
 10
166.3527564441584
 20
101.556341008354
 30
0.0
  0
LINE
  5
103
330
1F
100
AcDbEntity
  8
0
  6
HIDDEN
 62
     7
370
     0
100
AcDbLine
 10
166.3527564442
 20
101.2632751951
 30
0.0
 11
166.3527564442
 21
101.5563410084
 31
0.0
  0
LINE
  5
104
330
1F
100
AcDbEntity
  8
0
  6
HIDDEN
 62
     7
370
     0
100
AcDbLine
 10
166.3527564442
 20
136.6498499397
 30
0.0
 11
166.3527564442
 21
136.9429157529
 31
0.0
  0
SPLINE
  5
105
330
1F
100
AcDbEntity
  8
0
  6
HIDDEN
 62
     7
370
     0
100
AcDbSpline
210
0.0
220
0.0
230
1.0
 70
     8
 71
     3
 72
     8
 73
     4
 74
     0
 42
0.00000001
 43
0.00000001
 12
1.0
 22
0.0
 32
0.0
 13
1.0
 23
0.0
 33
0.0
 40
0.0
 40
0.0
 40
0.0
 40
0.0
 40
1.0
 40
1.0
 40
1.0
 40
1.0
 10
166.3527564441585
 20
136.6498499396887
 30
0.0
 10
166.3527564441583
 20
136.6322825982178
 30
0.0
 10
166.3497620959247
 20
136.6125601192156
 30
0.0
 10
166.3401566632051
 20
136.5893577557061
 30
0.0
  0
SPLINE
  5
106
330
1F
100
AcDbEntity
  8
0
  6
HIDDEN
 62
     7
370
     0
100
AcDbSpline
210
0.0
220
0.0
230
1.0
 70
     8
 71
     3
 72
    10
 73
     6
 74
     0
 42
0.00000001
 43
0.00000001
 12
1.0
 22
0.0
 32
0.0
 13
1.0
 23
0.0
 33
0.0
 40
0.0
 40
0.0
 40
0.0
 40
0.0
 40
0.5
 40
0.5
 40
1.0
 40
1.0
 40
1.0
 40
1.0
 10
165.5118954160308
 20
136.4522527552137
 30
0.0
 10
165.4400864406382
 20
136.4504486638058
 30
0.0
 10
165.3876305812155
 20
136.4456490679475
 30
0.0
 10
165.2982959953241
 20
136.4285460791188
 30
0.0
 10
165.2623091324111
 20
136.4162884893932
 30
0.0
 10
165.2314361005988
 20
136.400005342026
 30
0.0
  0
SPLINE
  5
107
330
1F
100
AcDbEntity
  8
0
  6
HIDDEN
 62
     7
370
     0
100
AcDbSpline
210
0.0
220
0.0
230
1.0
 70
     8
 71
     3
 72
    10
 73
     6
 74
     0
 42
0.00000001
 43
0.00000001
 12
1.0
 22
0.0
 32
0.0
 13
1.0
 23
0.0
 33
0.0
 40
0.0
 40
0.0
 40
0.0
 40
0.0
 40
0.5
 40
0.5
 40
1.0
 40
1.0
 40
1.0
 40
1.0
 10
165.2314361005988
 20
132.1981421975536
 30
0.0
 10
165.2623174401969
 20
132.0647878200783
 30
0.0
 10
165.2983130496968
 20
131.9305424484892
 30
0.0
 10
165.3876561137981
 20
131.6624498855001
 30
0.0
 10
165.4401156281063
 20
131.5283497359966
 30
0.0
 10
165.51189541603
 20
131.3975710190946
 30
0.0
  0
LINE
  5
108
330
1F
100
AcDbEntity
  8
0
  6
HIDDEN
 62
     7
370
     0
100
AcDbLine
 10
166.3527564442
 20
101.5563410084
 30
0.0
 11
166.3527564442
 21
113.1186152414
 31
0.0
  0
LINE
  5
109
330
1F
100
AcDbEntity
  8
0
  6
HIDDEN
 62
     7
370
     0
100
AcDbLine
 10
166.3527564442
 20
125.0875757066
 30
0.0
 11
166.3527564442
 21
136.6498499397
 31
0.0
  0
LINE
  5
10A
330
1F
100
AcDbEntity
  8
0
  6
HIDDEN
 62
     7
370
     0
100
AcDbLine
 10
186.5527564442
 20
102.603095474
 30
0.0
 11
186.5527564442
 21
135.603095474
 31
0.0
  0
CIRCLE
  5
10B
330
1F
100
AcDbEntity
  8
0
  6
HIDDEN
 62
     7
370
     0
100
AcDbCircle
 10
152.5527564442
 20
119.103095474
 30
0.0
 40
3.049999999999997
  0
SPLINE
  5
10C
330
1F
100
AcDbEntity
  8
0
  6
HIDDEN
 62
     7
370
     0
100
AcDbSpline
210
0.0
220
0.0
230
1.0
 70
     8
 71
     3
 72
    62
 73
    58
 74
     0
 42
0.00000001
 43
0.00000001
 12
1.0
 22
0.0
 32
0.0
 13
1.0
 23
0.0
 33
0.0
 40
-0.0312499999999998
 40
-0.0312499999999998
 40
0.0
 40
0.0
 40
0.0312500000000004
 40
0.0312500000000004
 40
0.0625000000000009
 40
0.0625000000000009
 40
0.0937500000000014
 40
0.0937500000000014
 40
0.1250000000000018
 40
0.1250000000000018
 40
0.1875000000000028
 40
0.1875000000000028
 40
0.2187500000000027
 40
0.2187500000000027
 40
0.2500000000000026
 40
0.2500000000000026
 40
0.2812500000000025
 40
0.2812500000000025
 40
0.3125000000000024
 40
0.3125000000000024
 40
0.3437500000000023
 40
0.3437500000000023
 40
0.3750000000000022
 40
0.3750000000000022
 40
0.4062500000000021
 40
0.4062500000000021
 40
0.4375000000000019
 40
0.4375000000000019
 40
0.4687500000000018
 40
0.4687500000000018
 40
0.5000000000000017
 40
0.5000000000000017
 40
0.5625000000000016
 40
0.5625000000000016
 40
0.5937500000000014
 40
0.5937500000000014
 40
0.6250000000000013
 40
0.6250000000000013
 40
0.6562500000000012
 40
0.6562500000000012
 40
0.6875000000000011
 40
0.6875000000000011
 40
0.750000000000001
 40
0.750000000000001
 40
0.7812500000000009
 40
0.7812500000000009
 40
0.8125000000000008
 40
0.8125000000000008
 40
0.8437500000000007
 40
0.8437500000000007
 40
0.8750000000000006
 40
0.8750000000000006
 40
0.9375000000000003
 40
0.9375000000000003
 40
0.9687500000000002
 40
0.9687500000000002
 40
1.0
 40
1.0
 40
1.03125
 40
1.03125
 10
217.0527564441584
 20
119.2687046062702
 30
0.0
 10
217.0527564441584
 20
118.9374863417722
 30
0.0
 10
217.0690489681982
 20
118.7747268107809
 30
0.0
 10
217.1328089621094
 20
118.4546488769422
 30
0.0
 10
217.1810795724885
 20
118.295642889704
 30
0.0
 10
217.306712573031
 20
117.9930874612097
 30
0.0
 10
217.3835309442651
 20
117.8496569670761
 30
0.0
 10
217.564944031444
 20
117.5782187013151
 30
0.0
 10
217.6702507668406
 20
117.4500326724351
 30
0.0
 10
218.0152651877318
 20
117.1051220905907
 30
0.0
 10
218.2934904694179
 20
116.9190170479033
 30
0.0
 10
218.7444155944676
 20
116.7317936348694
 30
0.0
 10
218.9023998423859
 20
116.6835630272852
 30
0.0
 10
219.2252897878806
 20
116.6191738650923
 30
0.0
 10
219.387770499267
 20
116.6031932449113
 30
0.0
 10
219.7147659588548
 20
116.6029985890449
 30
0.0
 10
219.8808936888015
 20
116.619327995041
 30
0.0
 10
220.2018433639058
 20
116.6832894670086
 30
0.0
 10
220.3578822363819
 20
116.7306081809488
 30
0.0
 10
220.6610690096834
 20
116.856193884233
 30
0.0
 10
220.8068045970868
 20
116.9342697644981
 30
0.0
 10
221.0771864388912
 20
117.1149921267803
 30
0.0
 10
221.2039293656464
 20
117.2187862353938
 30
0.0
 10
221.4363312859607
 20
117.4510848388371
 30
0.0
 10
221.5394711675349
 20
117.5768494640491
 30
0.0
 10
221.7205036761277
 20
117.8471758056801
 30
0.0
 10
221.7990044380821
 20
117.9935343510126
 30
0.0
 10
221.92443022361
 20
118.2956802030734
 30
0.0
 10
221.9719042890851
 20
118.4515105806137
 30
0.0
 10
222.0362486162371
 20
118.772783802786
 30
0.0
 10
222.0526900365033
 20
118.9387117948626
 30
0.0
 10
222.0528886436811
 20
119.4288236204006
 30
0.0
 10
221.9871896062662
 20
119.7586144612787
 30
0.0
 10
221.8001795663562
 20
120.2101780367359
 30
0.0
 10
221.7222194689379
 20
120.3561834891138
 30
0.0
 10
221.5402850848058
 20
120.6283919344054
 30
0.0
 10
221.4371826721484
 20
120.7540021070682
 30
0.0
 10
221.2069267544872
 20
120.9846574592351
 30
0.0
 10
221.0786686899039
 20
121.0900770278811
 30
0.0
 10
220.8080898244678
 20
121.2711918697971
 30
0.0
 10
220.6647589760384
 20
121.3481856706774
 30
0.0
 10
220.209802162599
 20
121.5374761780189
 30
0.0
 10
219.8846879043935
 20
121.6028617998859
 30
0.0
 10
219.3894376860256
 20
121.603211376894
 30
0.0
 10
219.2268278635268
 20
121.5871344586408
 30
0.0
 10
218.9063890237593
 20
121.5236095257526
 30
0.0
 10
218.7469737942361
 20
121.4753179136555
 30
0.0
 10
218.4449119466398
 20
121.3501837124618
 30
0.0
 10
218.3013611670111
 20
121.2735290680123
 30
0.0
 10
218.0291436535673
 20
121.0919082329151
 30
0.0
 10
217.9012936054492
 20
120.9869941839772
 30
0.0
 10
217.5563377040172
 20
120.6425524049088
 30
0.0
 10
217.3698522917215
 20
120.3644401847687
 30
0.0
 10
217.18213352399
 20
119.9134424521031
 30
0.0
 10
217.1336048320318
 20
119.7548458176885
 30
0.0
 10
217.069051860729
 20
119.4321616910314
 30
0.0
 10
217.0527564441584
 20
119.2687046062702
 30
0.0
 10
217.0527564441584
 20
118.9374863417722
 30
0.0
  0
LINE
  5
10D
330
1F
100
AcDbEntity
  8
0
  6
HIDDEN
 62
     7
370
     0
100
AcDbLine
 10
141.5807962998
 20
129.8917706086
 30
0.0
 11
141.5807962998
 21
108.3144203394
 31
0.0
  0
LINE
  5
10E
330
1F
100
AcDbEntity
  8
0
  6
HIDDEN
 62
     7
370
     0
100
AcDbLine
 10
137.5807962998
 20
130.2729684551
 30
0.0
 11
137.5807962998
 21
107.9332224929
 31
0.0
  0
LINE
  5
10F
330
1F
100
AcDbEntity
  8
0
  6
HIDDEN
 62
     7
370
     0
100
AcDbLine
 10
136.5527564442
 20
107.3396834056
 30
0.0
 11
136.5527564442
 21
130.8486449946
 31
0.0
  0
LINE
  5
110
330
1F
100
AcDbEntity
  8
0
  6
HIDDEN
 62
     7
370
     0
100
AcDbLine
 10
146.1807962998
 20
129.603095474
 30
0.0
 11
146.1807962998
 21
108.603095474
 31
0.0
  0
LINE
  5
111
330
1F
100
AcDbEntity
  8
0
  6
HIDDEN
 62
     7
370
     0
100
AcDbLine
 10
140.0807962998
 20
129.603095474
 30
0.0
 11
140.0807962998
 21
108.603095474
 31
0.0
  0
SPLINE
  5
112
330
1F
100
AcDbEntity
  8
0
  6
HIDDEN
 62
     7
370
     0
100
AcDbSpline
210
0.0
220
0.0
230
1.0
 70
     8
 71
     3
 72
    10
 73
     6
 74
     0
 42
0.00000001
 43
0.00000001
 12
1.0
 22
0.0
 32
0.0
 13
1.0
 23
0.0
 33
0.0
 40
0.0
 40
0.0
 40
0.0
 40
0.0
 40
0.5
 40
0.5
 40
1.0
 40
1.0
 40
1.0
 40
1.0
 10
219.5863771200258
 20
121.2028263258578
 30
0.0
 10
219.8427009254866
 20
121.098257955458
 30
0.0
 10
220.0958718388925
 20
120.9824829836962
 30
0.0
 10
220.6058051332806
 20
120.7450952369763
 30
0.0
 10
220.8629212690142
 20
120.6241675438458
 30
0.0
 10
221.1137953359045
 20
120.5077867491601
 30
0.0
  0
SPLINE
  5
113
330
1F
100
AcDbEntity
  8
0
  6
HIDDEN
 62
     7
370
     0
100
AcDbSpline
210
0.0
220
0.0
230
1.0
 70
     8
 71
     3
 72
    12
 73
     8
 74
     0
 42
0.00000001
 43
0.00000001
 12
1.0
 22
0.0
 32
0.0
 13
1.0
 23
0.0
 33
0.0
 40
0.0
 40
0.0
 40
0.0
 40
0.0
 40
0.5000000000000038
 40
0.5000000000000038
 40
0.7500000000000019
 40
0.7500000000000019
 40
1.0
 40
1.0
 40
1.0
 40
1.0
 10
218.5131561706732
 20
120.9277135906061
 30
0.0
 10
218.7198362246814
 20
121.0454722814345
 30
0.0
 10
218.9267650599994
 20
121.117494765774
 30
0.0
 10
219.2191621955666
 20
121.1788199998725
 30
0.0
 10
219.3116384049807
 20
121.1908029959146
 30
0.0
 10
219.474390555894
 20
121.203219135462
 30
0.0
 10
219.5451159787187
 20
121.2034869950367
 30
0.0
 10
219.586377120026
 20
121.2028263258577
 30
0.0
  0
LWPOLYLINE
  5
114
330
1F
100
AcDbEntity
  8
0
  6
HIDDEN
 62
     7
370
     0
100
AcDbPolyline
 90
       20
 70
   128
 43
0.0
 10
218.5131561707
 20
120.9277135906
 10
218.7393530979
 20
121.2291306019
 10
218.9267728122
 20
121.4111527203
 10
219.0620792342
 20
121.4608279391
 10
219.1356444698
 20
121.3746215572
 10
219.1422338944
 20
121.1586676953
 10
219.0813786296
 20
120.828332815
 10
218.9574089061
 20
120.4071222994
 10
218.7791459417
 20
119.9250078986
 10
218.5592742557
 20
119.4162950533
 10
218.3134390875
 20
118.9171818493
 10
218.0591331394
 20
118.4631832979
 10
217.8144518628
 20
118.0866042221
 10
217.5968058536
 20
117.8142405675
 10
217.4216819802
 20
117.6654727034
 10
217.3015413963
 20
117.6508863895
 10
217.2449328524
 20
117.7715195328
 10
217.2558843986
 20
118.0187883342
 10
217.3336167644
 20
118.3750980792
 10
217.472598808
 20
118.8150951116
  0
SPLINE
  5
115
330
1F
100
AcDbEntity
  8
0
  6
HIDDEN
 62
     7
370
     0
100
AcDbSpline
210
0.0
220
0.0
230
1.0
 70
     8
 71
     3
 72
    42
 73
    38
 74
     0
 42
0.00000001
 43
0.00000001
 12
1.0
 22
0.0
 32
0.0
 13
1.0
 23
0.0
 33
0.0
 40
0.0
 40
0.0
 40
0.0
 40
0.0
 40
0.0624999999999999
 40
0.0624999999999999
 40
0.1249999999999996
 40
0.1249999999999996
 40
0.1874999999999992
 40
0.1874999999999992
 40
0.2499999999999989
 40
0.2499999999999989
 40
0.3124999999999985
 40
0.3124999999999985
 40
0.3749999999999982
 40
0.3749999999999982
 40
0.4062499999999985
 40
0.4062499999999985
 40
0.4374999999999988
 40
0.4374999999999988
 40
0.4687499999999991
 40
0.4687499999999991
 40
0.4999999999999993
 40
0.4999999999999993
 40
0.6249999999999987
 40
0.6249999999999987
 40
0.6874999999999984
 40
0.6874999999999984
 40
0.7499999999999983
 40
0.7499999999999983
 40
0.7812499999999991
 40
0.7812499999999991
 40
0.8125
 40
0.8125
 40
0.875
 40
0.875
 40
0.9375
 40
0.9375
 40
1.0
 40
1.0
 40
1.0
 40
1.0
 10
221.1137953359071
 20
120.5077867491589
 30
0.0
 10
221.1042613410226
 20
120.5183819148525
 30
0.0
 10
221.1483012689165
 20
120.4713006042324
 30
0.0
 10
221.2572054548542
 20
120.3329743851693
 30
0.0
 10
221.3223527090274
 20
120.2403139685799
 30
0.0
 10
221.4416064676884
 20
120.0288289311325
 30
0.0
 10
221.4968563870313
 20
119.9094981467273
 30
0.0
 10
221.5870796228529
 20
119.6428538116618
 30
0.0
 10
221.6224900404194
 20
119.493450096443
 30
0.0
 10
221.6578575273894
 20
119.1718218890112
 30
0.0
 10
221.6581088728191
 20
118.9957256178145
 30
0.0
 10
221.6071377812517
 20
118.630280016689
 30
0.0
 10
221.5542685378483
 20
118.4368447338219
 30
0.0
 10
221.4330670367533
 20
118.1626608655151
 30
0.0
 10
221.3851805501309
 20
118.0722898905599
 30
0.0
 10
221.2770241742091
 20
117.9000829844144
 30
0.0
 10
221.2178200180371
 20
117.819613711047
 30
0.0
 10
221.0899575071827
 20
117.6689493751937
 30
0.0
 10
221.0211796640474
 20
117.5988979841952
 30
0.0
 10
220.8805787897293
 20
117.4734437751265
 30
0.0
 10
220.8080469659489
 20
117.4171607582085
 30
0.0
 10
220.4352195063344
 20
117.1636776476733
 30
0.0
 10
220.1210584609976
 20
117.057306467924
 30
0.0
 10
219.6544986844513
 20
116.9997164124888
 30
0.0
 10
219.4998023070686
 20
116.9976086375457
 30
0.0
 10
219.1797227046879
 20
117.0302412127614
 30
0.0
 10
219.0130080320938
 20
117.0647240224621
 30
0.0
 10
218.7445290352778
 20
117.1625182180871
 30
0.0
 10
218.6535255415059
 20
117.2026136592767
 30
0.0
 10
218.4732108815042
 20
117.298925658673
 30
0.0
 10
218.3873736940311
 20
117.3532876638573
 30
0.0
 10
218.1465246990824
 20
117.530743863738
 30
0.0
 10
218.0141266424967
 20
117.662160978549
 30
0.0
 10
217.7875276748982
 20
117.9508623036171
 30
0.0
 10
217.6958432009646
 20
118.1053967379764
 30
0.0
 10
217.5511896079604
 20
118.4418392748923
 30
0.0
 10
217.4990739048248
 20
118.6238718285883
 30
0.0
 10
217.4725988080097
 20
118.8150951115697
 30
0.0
  0
SPLINE
  5
116
330
1F
100
AcDbEntity
  8
0
  6
HIDDEN
 62
     7
370
     0
100
AcDbSpline
210
0.0
220
0.0
230
1.0
 70
     8
 71
     3
 72
    22
 73
    18
 74
     0
 42
0.00000001
 43
0.00000001
 12
1.0
 22
0.0
 32
0.0
 13
1.0
 23
0.0
 33
0.0
 40
0.0
 40
0.0
 40
0.0
 40
0.0
 40
0.125
 40
0.125
 40
0.25
 40
0.25
 40
0.3750000000000001
 40
0.3750000000000001
 40
0.5
 40
0.5
 40
0.625
 40
0.625
 40
0.75
 40
0.75
 40
0.875
 40
0.875
 40
1.0
 40
1.0
 40
1.0
 40
1.0
 10
217.4725988080096
 20
118.8150951115697
 30
0.0
 10
217.4617362975659
 20
118.8935524227171
 30
0.0
 10
217.4542613604889
 20
118.9791501770174
 30
0.0
 10
217.451648001851
 20
119.1693326727786
 30
0.0
 10
217.4567225374203
 20
119.2699585600575
 30
0.0
 10
217.4841201160733
 20
119.4798515885086
 30
0.0
 10
217.506855556828
 20
119.5895758312517
 30
0.0
 10
217.5696975515247
 20
119.8029890424279
 30
0.0
 10
217.6097826583927
 20
119.9079156400798
 30
0.0
 10
217.7078464614812
 20
120.1126447733055
 30
0.0
 10
217.7658442221854
 20
120.2121824625821
 30
0.0
 10
217.897124041624
 20
120.400018981754
 30
0.0
 10
217.9722720639113
 20
120.4905733100572
 30
0.0
 10
218.1319488769618
 20
120.6536861610476
 30
0.0
 10
218.2172310171426
 20
120.726665154948
 30
0.0
 10
218.3742617914071
 20
120.8440024297391
 30
0.0
 10
218.4470201795507
 20
120.8900317360672
 30
0.0
 10
218.5131561706732
 20
120.927713590606
 30
0.0
  0
LINE
  5
117
330
1F
100
AcDbEntity
  8
0
  6
HIDDEN
 62
     7
370
     0
100
AcDbLine
 10
141.0807962998
 20
129.603095474
 30
0.0
 11
141.0807962998
 21
108.603095474
 31
0.0
  0
SPLINE
  5
118
330
1F
100
AcDbEntity
  8
0
  6
HIDDEN
 62
     7
370
     0
100
AcDbSpline
210
0.0
220
0.0
230
1.0
 70
     8
 71
     3
 72
    66
 73
    62
 74
     0
 42
0.00000001
 43
0.00000001
 12
1.0
 22
0.0
 32
0.0
 13
1.0
 23
0.0
 33
0.0
 40
-0.0312499999999999
 40
-0.0312499999999999
 40
0.0
 40
0.0
 40
0.03125
 40
0.03125
 40
0.0625000000000001
 40
0.0625000000000001
 40
0.0937500000000001
 40
0.0937500000000001
 40
0.1250000000000002
 40
0.1250000000000002
 40
0.1875000000000001
 40
0.1875000000000001
 40
0.21875
 40
0.21875
 40
0.2499999999999999
 40
0.2499999999999999
 40
0.2812499999999999
 40
0.2812499999999999
 40
0.3124999999999998
 40
0.3124999999999998
 40
0.3437499999999997
 40
0.3437499999999997
 40
0.3749999999999997
 40
0.3749999999999997
 40
0.4062499999999996
 40
0.4062499999999996
 40
0.4374999999999994
 40
0.4374999999999994
 40
0.4687499999999993
 40
0.4687499999999993
 40
0.4999999999999992
 40
0.4999999999999992
 40
0.531249999999999
 40
0.531249999999999
 40
0.562499999999999
 40
0.562499999999999
 40
0.5937499999999989
 40
0.5937499999999989
 40
0.624999999999999
 40
0.624999999999999
 40
0.6562499999999991
 40
0.6562499999999991
 40
0.6874999999999991
 40
0.6874999999999991
 40
0.7187499999999992
 40
0.7187499999999992
 40
0.7499999999999992
 40
0.7499999999999992
 40
0.7812499999999993
 40
0.7812499999999993
 40
0.8124999999999996
 40
0.8124999999999996
 40
0.8749999999999997
 40
0.8749999999999997
 40
0.90625
 40
0.90625
 40
0.9375
 40
0.9375
 40
0.9687500000000001
 40
0.9687500000000001
 40
1.0
 40
1.0
 40
1.03125
 40
1.03125
 10
152.3500777972106
 20
122.1530954740212
 30
0.0
 10
152.7554350911062
 20
122.1530954740212
 30
0.0
 10
152.954494982442
 20
122.1330959144046
 30
0.0
 10
153.3457489670217
 20
122.0549524117044
 30
0.0
 10
153.5400217257693
 20
121.9957913101837
 30
0.0
 10
153.9087851523207
 20
121.8423596232894
 30
0.0
 10
154.083510310699
 20
121.7486328134471
 30
0.0
 10
154.4141876142328
 20
121.5273787110423
 30
0.0
 10
154.5698351582356
 20
121.3993973440477
 30
0.0
 10
154.9893025279042
 20
120.9798422470476
 30
0.0
 10
155.2161906694346
 20
120.6413636883443
 30
0.0
 10
155.4449872928193
 20
120.091484800626
 30
0.0
 10
155.5041795476681
 20
119.8980849548826
 30
0.0
 10
155.5829869579287
 20
119.5038568045247
 30
0.0
 10
155.6026263742091
 20
119.3052179770924
 30
0.0
 10
155.6028852386307
 20
118.904917691194
 30
0.0
 10
155.5828145539977
 20
118.7015783644729
 30
0.0
 10
155.5044768713678
 20
118.3094868438653
 30
0.0
 10
155.4465271033293
 20
118.1187809755501
 30
0.0
 10
155.2925839614493
 20
117.7480571589635
 30
0.0
 10
155.1976453477266
 20
117.5713304991547
 30
0.0
 10
154.9772879318495
 20
117.2420773882303
 30
0.0
 10
154.8500079059212
 20
117.0869561646339
 30
0.0
 10
154.5682523145906
 20
116.8052794697035
 30
0.0
 10
154.4154639851332
 20
116.6798462847991
 30
0.0
 10
154.0860369029762
 20
116.459070691445
 30
0.0
 10
153.9074908998245
 20
116.3632394387448
 30
0.0
 10
153.5399185742743
 20
116.2104103082497
 30
0.0
 10
153.3497645475634
 20
116.1522385503055
 30
0.0
 10
152.9562241248609
 20
116.0732452579606
 30
0.0
 10
152.7537900535997
 20
116.0531821323183
 30
0.0
 10
152.3543609782344
 20
116.0530093861996
 30
0.0
 10
152.1543419996785
 20
116.0724927602889
 30
0.0
 10
151.7582260522291
 20
116.1514843318901
 30
0.0
 10
151.5674932240372
 20
116.2097645517421
 30
0.0
 10
151.1998617834575
 20
116.3623321723501
 30
0.0
 10
151.0213753512897
 20
116.4579409591233
 30
0.0
 10
150.6911700923257
 20
116.6789530042083
 30
0.0
 10
150.5382815142638
 20
116.8044029029785
 30
0.0
 10
150.2566851197257
 20
117.0856333919838
 30
0.0
 10
150.1290541968501
 20
117.2410162698978
 30
0.0
 10
149.9087287618503
 20
117.5698671279407
 30
0.0
 10
149.814502304885
 20
117.7447552343547
 30
0.0
 10
149.6595677842819
 20
118.1168990857155
 30
0.0
 10
149.6015554986797
 20
118.3077051275244
 30
0.0
 10
149.5231362444015
 20
118.6985781454432
 30
0.0
 10
149.502822164435
 20
118.9010357068255
 30
0.0
 10
149.502691048131
 20
119.3031663117449
 30
0.0
 10
149.5223157414904
 20
119.50189035692
 30
0.0
 10
149.600482191904
 20
119.8947298280567
 30
0.0
 10
149.6597696372439
 20
120.0893741054593
 30
0.0
 10
149.8888504803268
 20
120.6408138588735
 30
0.0
 10
150.115681331221
 20
120.9791534245727
 30
0.0
 10
150.5350200325417
 20
121.3988190872242
 30
0.0
 10
150.6903730282916
 20
121.5266650929974
 30
0.0
 10
151.0213408614288
 20
121.7482661676992
 30
0.0
 10
151.1959021616252
 20
121.8419069016762
 30
0.0
 10
151.5634754692
 20
121.9950610223754
 30
0.0
 10
151.758162330838
 20
122.0545647680215
 30
0.0
 10
152.1506382807745
 20
122.1330875170844
 30
0.0
 10
152.3500777972106
 20
122.1530954740212
 30
0.0
 10
152.7554350911062
 20
122.1530954740212
 30
0.0
  0
SPLINE
  5
119
330
1F
100
AcDbEntity
  8
0
  6
HIDDEN
 62
     7
370
     0
100
AcDbSpline
210
0.0
220
0.0
230
1.0
 70
     8
 71
     3
 72
    66
 73
    62
 74
     0
 42
0.00000001
 43
0.00000001
 12
1.0
 22
0.0
 32
0.0
 13
1.0
 23
0.0
 33
0.0
 40
-0.0312500000000001
 40
-0.0312500000000001
 40
0.0
 40
0.0
 40
0.0312499999999999
 40
0.0312499999999999
 40
0.0624999999999998
 40
0.0624999999999998
 40
0.0937499999999996
 40
0.0937499999999996
 40
0.1249999999999995
 40
0.1249999999999995
 40
0.1874999999999993
 40
0.1874999999999993
 40
0.2187499999999991
 40
0.2187499999999991
 40
0.249999999999999
 40
0.249999999999999
 40
0.2812499999999989
 40
0.2812499999999989
 40
0.3124999999999988
 40
0.3124999999999988
 40
0.3437499999999987
 40
0.3437499999999987
 40
0.3749999999999986
 40
0.3749999999999986
 40
0.4062499999999984
 40
0.4062499999999984
 40
0.4374999999999986
 40
0.4374999999999986
 40
0.4687499999999987
 40
0.4687499999999987
 40
0.4999999999999988
 40
0.4999999999999988
 40
0.5312499999999989
 40
0.5312499999999989
 40
0.562499999999999
 40
0.562499999999999
 40
0.5937499999999991
 40
0.5937499999999991
 40
0.6249999999999992
 40
0.6249999999999992
 40
0.6562499999999993
 40
0.6562499999999993
 40
0.6874999999999994
 40
0.6874999999999994
 40
0.7187499999999996
 40
0.7187499999999996
 40
0.7499999999999996
 40
0.7499999999999996
 40
0.7812499999999997
 40
0.7812499999999997
 40
0.8124999999999998
 40
0.8124999999999998
 40
0.8749999999999999
 40
0.8749999999999999
 40
0.9062499999999999
 40
0.9062499999999999
 40
0.9374999999999999
 40
0.9374999999999999
 40
0.9687499999999999
 40
0.9687499999999999
 40
1.0
 40
1.0
 40
1.03125
 40
1.03125
 10
152.7554350911062
 20
122.1530954740212
 30
0.0
 10
152.3500777972106
 20
122.1530954740212
 30
0.0
 10
152.1510179058747
 20
122.1330959144046
 30
0.0
 10
151.759763921295
 20
122.0549524117044
 30
0.0
 10
151.5654911625474
 20
121.9957913101837
 30
0.0
 10
151.1967277359961
 20
121.8423596232894
 30
0.0
 10
151.0220025776178
 20
121.7486328134471
 30
0.0
 10
150.691325274084
 20
121.5273787110423
 30
0.0
 10
150.5356777300811
 20
121.3993973440477
 30
0.0
 10
150.1162103604125
 20
120.9798422470476
 30
0.0
 10
149.8893222188822
 20
120.6413636883442
 30
0.0
 10
149.6605255954975
 20
120.091484800626
 30
0.0
 10
149.6013333406486
 20
119.8980849548826
 30
0.0
 10
149.5225259303881
 20
119.5038568045247
 30
0.0
 10
149.5028865141076
 20
119.3052179770924
 30
0.0
 10
149.5026276496861
 20
118.904917691194
 30
0.0
 10
149.522698334319
 20
118.7015783644729
 30
0.0
 10
149.601036016949
 20
118.3094868438653
 30
0.0
 10
149.6589857849874
 20
118.1187809755501
 30
0.0
 10
149.8129289268674
 20
117.7480571589635
 30
0.0
 10
149.9078675405901
 20
117.5713304991547
 30
0.0
 10
150.1282249564673
 20
117.2420773882303
 30
0.0
 10
150.2555049823956
 20
117.0869561646339
 30
0.0
 10
150.5372605737261
 20
116.8052794697035
 30
0.0
 10
150.6900489031836
 20
116.6798462847991
 30
0.0
 10
151.0194759853405
 20
116.459070691445
 30
0.0
 10
151.1980219884923
 20
116.3632394387448
 30
0.0
 10
151.5655943140424
 20
116.2104103082497
 30
0.0
 10
151.7557483407534
 20
116.1522385503055
 30
0.0
 10
152.1492887634558
 20
116.0732452579606
 30
0.0
 10
152.351722834717
 20
116.0531821323183
 30
0.0
 10
152.7511519100824
 20
116.0530093861996
 30
0.0
 10
152.9511708886383
 20
116.0724927602889
 30
0.0
 10
153.3472868360877
 20
116.1514843318901
 30
0.0
 10
153.5380196642795
 20
116.2097645517421
 30
0.0
 10
153.9056511048593
 20
116.3623321723501
 30
0.0
 10
154.084137537027
 20
116.4579409591233
 30
0.0
 10
154.414342795991
 20
116.6789530042083
 30
0.0
 10
154.567231374053
 20
116.8044029029785
 30
0.0
 10
154.8488277685911
 20
117.0856333919838
 30
0.0
 10
154.9764586914666
 20
117.2410162698978
 30
0.0
 10
155.1967841264664
 20
117.5698671279407
 30
0.0
 10
155.2910105834318
 20
117.7447552343547
 30
0.0
 10
155.4459451040349
 20
118.1168990857155
 30
0.0
 10
155.5039573896371
 20
118.3077051275244
 30
0.0
 10
155.5823766439152
 20
118.6985781454432
 30
0.0
 10
155.6026907238818
 20
118.9010357068255
 30
0.0
 10
155.6028218401858
 20
119.3031663117449
 30
0.0
 10
155.5831971468264
 20
119.50189035692
 30
0.0
 10
155.5050306964127
 20
119.8947298280567
 30
0.0
 10
155.4457432510729
 20
120.0893741054593
 30
0.0
 10
155.21666240799
 20
120.6408138588735
 30
0.0
 10
154.9898315570958
 20
120.9791534245727
 30
0.0
 10
154.5704928557751
 20
121.3988190872242
 30
0.0
 10
154.4151398600251
 20
121.5266650929974
 30
0.0
 10
154.084172026888
 20
121.7482661676992
 30
0.0
 10
153.9096107266916
 20
121.8419069016762
 30
0.0
 10
153.5420374191168
 20
121.9950610223754
 30
0.0
 10
153.3473505574787
 20
122.0545647680215
 30
0.0
 10
152.9548746075422
 20
122.1330875170844
 30
0.0
 10
152.7554350911062
 20
122.1530954740212
 30
0.0
 10
152.3500777972106
 20
122.1530954740212
 30
0.0
  0
LINE
  5
11A
330
1F
100
AcDbEntity
  8
0
  6
HIDDEN
 62
     7
370
     0
100
AcDbLine
 10
156.5527564442
 20
129.1030954211
 30
0.0
 11
156.5527564442
 21
109.103095474
 31
0.0
  0
ARC
  5
11B
330
1F
100
AcDbEntity
  8
0
  6
HIDDEN
 62
     7
370
     0
100
AcDbCircle
 10
219.5527564442
 20
119.103095474
 30
0.0
 40
2.100000000000011
100
AcDbArc
 50
41.9822697479
 51
89.0826642228
  0
LINE
  5
11C
330
1F
100
AcDbEntity
  8
0
  6
HIDDEN
 62
     7
370
     0
100
AcDbLine
 10
157.5527564442
 20
126.353095474
 30
0.0
 11
157.5527564442
 21
111.853095474
 31
0.0
  0
LINE
  5
11D
330
1F
100
AcDbEntity
  8
0
  6
HIDDEN
 62
     7
370
     0
100
AcDbLine
 10
156.5527564442
 20
110.853095474
 30
0.0
 11
156.5527564442
 21
127.353095474
 31
0.0
  0
LINE
  5
11E
330
1F
100
AcDbEntity
  8
0
  6
HIDDEN
 62
     7
370
     0
100
AcDbLine
 10
181.5527564442
 20
126.353095474
 30
0.0
 11
181.5527564442
 21
111.853095474
 31
0.0
  0
LINE
  5
11F
330
1F
100
AcDbEntity
  8
0
  6
HIDDEN
 62
     7
370
     0
100
AcDbLine
 10
183.9561989203
 20
122.353095474
 30
0.0
 11
183.9561989203
 21
115.853095474
 31
0.0
  0
SPLINE
  5
120
330
1F
100
AcDbEntity
  8
0
  6
HIDDEN
 62
     7
370
     0
100
AcDbSpline
210
0.0
220
0.0
230
1.0
 70
    11
 71
     3
 72
    35
 73
    31
 74
     0
 42
0.00000001
 43
0.00000001
 12
1.0
 22
0.0
 32
0.0
 13
1.0
 23
0.0
 33
0.0
 40
0.0
 40
0.0
 40
0.0
 40
0.0
 40
0.0352368409300571
 40
0.0819612703217995
 40
0.1285321382242412
 40
0.1789967329370641
 40
0.1806405135402703
 40
0.2349132085815555
 40
0.2367745055159311
 40
0.2786580792705996
 40
0.2788128309222897
 40
0.2990378123178928
 40
0.3206499214248235
 40
0.361340614679777
 40
0.4100366914938607
 40
0.4150371463994982
 40
0.4655248921669641
 40
0.4678894123396729
 40
0.5142546878672426
 40
0.5607422456747969
 40
0.6046283606721324
 40
0.6516904262629656
 40
0.7060210266143602
 40
0.7534499257063157
 40
0.8012211687814079
 40
0.8417063669487923
 40
0.8961527818844672
 40
0.9513458207759283
 40
0.9997132155218176
 40
1.0
 40
1.0
 40
1.0
 40
1.0
 10
217.5073131664987
 20
118.6294796482716
 30
0.0
 10
217.4816886003006
 20
118.7866566941699
 30
0.0
 10
217.422085584207
 20
119.1522521904526
 30
0.0
 10
217.5179642738139
 20
119.7432687075774
 30
0.0
 10
217.8062683897134
 20
120.29952291116
 30
0.0
 10
218.0648214528843
 20
120.6529462359198
 30
0.0
 10
218.470465227966
 20
120.8667526765898
 30
0.0
 10
218.690223029582
 20
120.9837710091215
 30
0.0
 10
219.0611680559413
 20
121.1841712009407
 30
0.0
 10
219.2761972773144
 20
121.2187506819506
 30
0.0
 10
219.5556818701602
 20
121.1925616077347
 30
0.0
 10
219.7430583782248
 20
121.1716472337273
 30
0.0
 10
220.1206339860275
 20
121.1577433836972
 30
0.0
 10
220.5646307394016
 20
120.95271118774
 30
0.0
 10
220.9261339204109
 20
120.7510641040752
 30
0.0
 10
221.1785620957319
 20
120.3789410877081
 30
0.0
 10
221.3221850248769
 20
120.1762533584421
 30
0.0
 10
221.5697153574063
 20
119.8283465246921
 30
0.0
 10
221.6526164189056
 20
119.3843274560831
 30
0.0
 10
221.658613658171
 20
118.7638148160895
 30
0.0
 10
221.4655085947747
 20
118.1701792335298
 30
0.0
 10
221.1122716096484
 20
117.6471449667845
 30
0.0
 10
220.611096255988
 20
117.249835040016
 30
0.0
 10
219.9919542543804
 20
117.015527591361
 30
0.0
 10
219.3615276034316
 20
116.982350975436
 30
0.0
 10
218.7375759227608
 20
117.1343915406327
 30
0.0
 10
218.1731976112401
 20
117.4649469197964
 30
0.0
 10
217.7456251607975
 20
117.9868464362456
 30
0.0
 10
217.5324232960174
 20
118.4101700843938
 30
0.0
 10
217.5074603069481
 20
118.6281945371075
 30
0.0
 10
217.5073131664987
 20
118.6294796482716
 30
0.0
  0
LINE
  5
121
330
1F
100
AcDbEntity
  8
0
  6
HIDDEN
 62
     7
370
     0
100
AcDbLine
 10
222.5527564442
 20
115.853095474
 30
0.0
 11
222.5527564442
 21
122.353095474
 31
0.0
  0
SPLINE
  5
122
330
1F
100
AcDbEntity
  8
0
  6
HIDDEN
 62
     7
370
     0
100
AcDbSpline
210
0.0
220
0.0
230
1.0
 70
     8
 71
     3
 72
    62
 73
    58
 74
     0
 42
0.00000001
 43
0.00000001
 12
1.0
 22
0.0
 32
0.0
 13
1.0
 23
0.0
 33
0.0
 40
-0.0624999999999997
 40
-0.0624999999999997
 40
0.0
 40
0.0
 40
0.0312500000000003
 40
0.0312500000000003
 40
0.0625000000000005
 40
0.0625000000000005
 40
0.1250000000000005
 40
0.1250000000000005
 40
0.1562500000000005
 40
0.1562500000000005
 40
0.1875000000000005
 40
0.1875000000000005
 40
0.2187500000000005
 40
0.2187500000000005
 40
0.2500000000000004
 40
0.2500000000000004
 40
0.2812500000000004
 40
0.2812500000000004
 40
0.3125000000000004
 40
0.3125000000000004
 40
0.3437500000000004
 40
0.3437500000000004
 40
0.3750000000000004
 40
0.3750000000000004
 40
0.4062500000000004
 40
0.4062500000000004
 40
0.4375000000000004
 40
0.4375000000000004
 40
0.4687500000000004
 40
0.4687500000000004
 40
0.5000000000000003
 40
0.5000000000000003
 40
0.5312500000000003
 40
0.5312500000000003
 40
0.5625000000000003
 40
0.5625000000000003
 40
0.6250000000000003
 40
0.6250000000000003
 40
0.6562500000000002
 40
0.6562500000000002
 40
0.6875000000000002
 40
0.6875000000000002
 40
0.7500000000000013
 40
0.7500000000000013
 40
0.7812500000000012
 40
0.7812500000000012
 40
0.812500000000001
 40
0.812500000000001
 40
0.8437500000000009
 40
0.8437500000000009
 40
0.8750000000000007
 40
0.8750000000000007
 40
0.9062500000000006
 40
0.9062500000000006
 40
0.9375000000000003
 40
0.9375000000000003
 40
1.0
 40
1.0
 40
1.03125
 40
1.03125
 10
217.4527564441584
 20
119.3894918207189
 30
0.0
 10
217.4527564441584
 20
118.9598973006723
 30
0.0
 10
217.4672440954607
 20
118.8198126494062
 30
0.0
 10
217.523324481055
 20
118.5454066518034
 30
0.0
 10
217.5656628027894
 20
118.4100021554312
 30
0.0
 10
217.7267374456399
 20
118.0300938111977
 30
0.0
 10
217.8819825163845
 20
117.8034098912385
 30
0.0
 10
218.164403758179
 20
117.5219111545032
 30
0.0
 10
218.2684812048033
 20
117.4362414308471
 30
0.0
 10
218.4895275776961
 20
117.2872459017306
 30
0.0
 10
218.606641414978
 20
117.2233952327226
 30
0.0
 10
218.8563740709404
 20
117.1172812239338
 30
0.0
 10
218.9904097436221
 20
117.0749847242997
 30
0.0
 10
219.2636641408929
 20
117.0184150033177
 30
0.0
 10
219.4060159035041
 20
117.0034023118547
 30
0.0
 10
219.6905792198558
 20
117.0027981036426
 30
0.0
 10
219.8305727149495
 20
117.016806439828
 30
0.0
 10
220.106316272911
 20
117.0724908028696
 30
0.0
 10
220.2394206838396
 20
117.1138494313894
 30
0.0
 10
220.4909953922329
 20
117.2193982391931
 30
0.0
 10
220.6111133311037
 20
117.284380742307
 30
0.0
 10
220.8330198317103
 20
117.4331349253874
 30
0.0
 10
220.9359446662317
 20
117.5172674524552
 30
0.0
 10
221.1268020461139
 20
117.7065137132098
 30
0.0
 10
221.2120472214574
 20
117.8089839931596
 30
0.0
 10
221.3631281393606
 20
118.0304703140804
 30
0.0
 10
221.4294176768504
 20
118.1505426144717
 30
0.0
 10
221.5383411905606
 20
118.4054798582414
 30
0.0
 10
221.5801606424189
 20
118.5379084366398
 30
0.0
 10
221.6374440536419
 20
118.8134720267413
 30
0.0
 10
221.6524088958787
 20
118.9568576648565
 30
0.0
 10
221.6530917083053
 20
119.2391752044198
 30
0.0
 10
221.6390264862837
 20
119.3814639537305
 30
0.0
 10
221.5828436977743
 20
119.658754939766
 30
0.0
 10
221.5415081794268
 20
119.7915965166685
 30
0.0
 10
221.3801073615306
 20
120.1742897728375
 30
0.0
 10
221.2249488933809
 20
120.4012575062813
 30
0.0
 10
220.9410472980133
 20
120.6843960676505
 30
0.0
 10
220.838712221539
 20
120.7686757507269
 30
0.0
 10
220.6173319540521
 20
120.918176437302
 30
0.0
 10
220.4972583280557
 20
120.9836339273448
 30
0.0
 10
220.1214563905116
 20
121.14285406353
 30
0.0
 10
219.8393598448962
 20
121.2024723829797
 30
0.0
 10
219.4163584268137
 20
121.2033994543203
 30
0.0
 10
219.2723932190083
 20
121.1890039618551
 30
0.0
 10
218.9978617474494
 20
121.1332948812712
 30
0.0
 10
218.8644629488121
 20
121.0918180858623
 30
0.0
 10
218.6119380060265
 20
120.985547659086
 30
0.0
 10
218.4941092993054
 20
120.9216308544979
 30
0.0
 10
218.2724524973755
 20
120.7730135891404
 30
0.0
 10
218.1679046800506
 20
120.6873743311729
 30
0.0
 10
217.9787732923098
 20
120.4996379701406
 30
0.0
 10
217.8934415122095
 20
120.3972945557796
 30
0.0
 10
217.7411909870917
 20
120.1738465661876
 30
0.0
 10
217.6745835220148
 20
120.0525040493335
 30
0.0
 10
217.5129273418841
 20
119.6729532693653
 30
0.0
 10
217.4527564441584
 20
119.3894918207189
 30
0.0
 10
217.4527564441584
 20
118.9598973006723
 30
0.0
  0
ELLIPSE
  5
123
330
1F
100
AcDbEntity
  8
0
  6
HIDDEN
 62
     7
370
     0
100
AcDbEllipse
 10
252.9479315734
 20
119.103095474
 30
0.0
 11
-9.268362359823442
 21
12.98522500655778
 31
0.0
210
0.0
220
0.0
230
1.0
 40
0.0668534593
 41
6.235504004580372
 42
7.806300331375069
  0
LINE
  5
124
330
1F
100
AcDbEntity
  8
0
  6
HIDDEN
 62
     7
370
     0
100
AcDbLine
 10
231.0527564442
 20
119.103095474
 30
0.0
 11
231.0527564442
 21
132.103095474
 31
0.0
  0
LINE
  5
125
330
1F
100
AcDbEntity
  8
0
  6
HIDDEN
 62
     7
370
     0
100
AcDbLine
 10
255.1304038809
 20
114.9082548411
 30
0.0
 11
255.131814323
 21
114.8921726846
 31
0.0
  0
LINE
  5
126
330
1F
100
AcDbEntity
  8
0
  6
HIDDEN
 62
     7
370
     0
100
AcDbLine
 10
255.131814323
 20
114.8921726846
 30
0.0
 11
245.7579902307
 21
115.7102782961
 31
0.0
  0
LINE
  5
127
330
1F
100
AcDbEntity
  8
0
  6
HIDDEN
 62
     7
370
     0
100
AcDbLine
 10
242.8926495827
 20
112.9137390291
 30
0.0
 11
242.9333243121
 21
112.8924931217
 31
0.0
  0
LINE
  5
128
330
1F
100
AcDbEntity
  8
0
  6
HIDDEN
 62
     7
370
     0
100
AcDbLine
 10
242.9333243121
 20
112.8924931217
 30
0.0
 11
243.7652485104
 21
103.4067193155
 31
0.0
  0
SPLINE
  5
129
330
1F
100
AcDbEntity
  8
0
  6
HIDDEN
 62
     7
370
     0
100
AcDbSpline
210
0.0
220
0.0
230
1.0
 70
     8
 71
     3
 72
    26
 73
    22
 74
     0
 42
0.00000001
 43
0.00000001
 12
1.0
 22
0.0
 32
0.0
 13
1.0
 23
0.0
 33
0.0
 40
0.0
 40
0.0
 40
0.0
 40
0.0
 40
0.2499999999999998
 40
0.2499999999999998
 40
0.3124999999999996
 40
0.3124999999999996
 40
0.3749999999999994
 40
0.3749999999999994
 40
0.4999999999999992
 40
0.4999999999999992
 40
0.5624999999999993
 40
0.5624999999999993
 40
0.6249999999999993
 40
0.6249999999999993
 40
0.7499999999999994
 40
0.7499999999999994
 40
0.8749999999999996
 40
0.8749999999999996
 40
0.9374999999999997
 40
0.9374999999999997
 40
1.0
 40
1.0
 40
1.0
 40
1.0
 10
232.0045826935352
 20
114.0381714180456
 30
0.0
 10
232.0128189699697
 20
112.704057915679
 30
0.0
 10
232.0379204400809
 20
111.4725152681233
 30
0.0
 10
232.0900368193594
 20
110.0578312885245
 30
0.0
 10
232.1015535252456
 20
109.7803632149599
 30
0.0
 10
232.1265345612553
 20
109.2428118152604
 30
0.0
 10
232.1399410478986
 20
108.9837495153031
 30
0.0
 10
232.182802697322
 20
108.2349650147137
 30
0.0
 10
232.2148909452071
 20
107.7735090988566
 30
0.0
 10
232.2680511485403
 20
107.1375743978993
 30
0.0
 10
232.2866115157789
 20
106.9350052888798
 30
0.0
 10
232.3254003333686
 20
106.5490509776282
 30
0.0
 10
232.345713216307
 20
106.3650289221459
 30
0.0
 10
232.4083163905865
 20
105.8493779479657
 30
0.0
 10
232.4523317174243
 20
105.5526591325031
 30
0.0
 10
232.5443701376361
 20
105.0506625894091
 30
0.0
 10
232.5923942397417
 20
104.8453838648374
 30
0.0
 10
232.6672007660284
 20
104.6082149062152
 30
0.0
 10
232.6926465104861
 20
104.54098153626
 30
0.0
 10
232.7437425832834
 20
104.4322670149675
 30
0.0
 10
232.7694705261847
 20
104.3904893362701
 30
0.0
 10
232.7953527985794
 20
104.3611910335104
 30
0.0
  0
SPLINE
  5
12A
330
1F
100
AcDbEntity
  8
0
  6
HIDDEN
 62
     7
370
     0
100
AcDbSpline
210
0.0
220
0.0
230
1.0
 70
     8
 71
     3
 72
    10
 73
     6
 74
     0
 42
0.00000001
 43
0.00000001
 12
1.0
 22
0.0
 32
0.0
 13
1.0
 23
0.0
 33
0.0
 40
0.0
 40
0.0
 40
0.0
 40
0.0
 40
0.5
 40
0.5
 40
1.0
 40
1.0
 40
1.0
 40
1.0
 10
232.0045826935352
 20
114.0381714180456
 30
0.0
 10
231.7111001551093
 20
114.8465976329486
 30
0.0
 10
231.4689619762078
 20
115.6837394805943
 30
0.0
 10
231.1390130247698
 20
117.3862565691772
 30
0.0
 10
231.0527564441584
 20
118.244191041738
 30
0.0
 10
231.0527564441584
 20
119.1030954740212
 30
0.0
  0
ELLIPSE
  5
12B
330
1F
100
AcDbEntity
  8
0
  6
HIDDEN
 62
     7
370
     0
100
AcDbEllipse
 10
243.8870554701
 20
115.391282458
 30
0.0
 11
1.616902374425223
 21
2.318196838028342
 31
0.0
210
0.0
220
0.0
230
1.0
 40
0.57803977
 41
3.548934393834051
 42
3.686857627939792
  0
ELLIPSE
  5
12C
330
1F
100
AcDbEntity
  8
0
  6
HIDDEN
 62
     7
370
     0
100
AcDbEllipse
 10
243.8870554701
 20
115.391282458
 30
0.0
 11
2.099281448397704
 21
-0.127654356355535
 31
0.0
210
0.0
220
0.0
230
1.0
 40
0.4303093993
 41
0.3596638604384906
 42
0.4975870945442206
  0
LINE
  5
12D
330
1F
100
AcDbEntity
  8
0
  6
HIDDEN
 62
     7
370
     0
100
AcDbLine
 10
245.8713482295
 20
115.5897354363
 30
0.0
 11
245.8713482295
 21
115.7557558438
 31
0.0
  0
ARC
  5
12E
330
1F
100
AcDbEntity
  8
0
  6
HIDDEN
 62
     7
370
     0
100
AcDbCircle
 10
243.8886330728
 20
115.0715657072
 30
0.0
 40
2.097445001810094
100
AcDbArc
 50
250.8218643824
 51
19.038395848
  0
LINE
  5
12F
330
1F
100
AcDbEntity
  8
0
  6
HIDDEN
 62
     7
370
     0
100
AcDbLine
 10
243.1996092941
 20
113.0905251301
 30
0.0
 11
243.1996092941
 21
112.9245047226
 31
0.0
  0
ARC
  5
130
330
1F
100
AcDbEntity
  8
0
  6
HIDDEN
 62
     7
370
     0
100
AcDbCircle
 10
243.8839879216
 20
115.0959010637
 30
0.0
 40
2.097086359677335
100
AcDbArc
 50
270.0838103998
 51
184.63922678
  0
LWPOLYLINE
  5
131
330
1F
100
AcDbEntity
  8
0
  6
HIDDEN
 62
     7
370
     0
100
AcDbPolyline
 90
        3
 70
   128
 43
0.0
 10
242.861804008
 20
113.2654467267
 10
243.3435354754
 20
113.0701984062
 10
243.8870554701
 20
112.9988169476
  0
LINE
  5
132
330
1F
100
AcDbEntity
  8
0
  6
HIDDEN
 62
     7
370
     0
100
AcDbLine
 10
253.3743521371
 20
116.6554163115
 30
0.0
 11
255.0088390544
 21
116.2943624329
 31
0.0
  0
LINE
  5
133
330
1F
100
AcDbEntity
  8
0
  6
HIDDEN
 62
     7
370
     0
100
AcDbLine
 10
254.8960716888
 20
114.802097773
 30
0.0
 11
245.8713482295
 21
115.5897354363
 31
0.0
  0
LINE
  5
134
330
1F
100
AcDbEntity
  8
0
  6
HIDDEN
 62
     7
370
     0
100
AcDbLine
 10
254.8960716888
 20
114.802097773
 30
0.0
 11
255.131814323
 21
114.8921726846
 31
0.0
  0
LINE
  5
135
330
1F
100
AcDbEntity
  8
0
  6
HIDDEN
 62
     7
370
     0
100
AcDbLine
 10
243.1996092941
 20
112.9245047226
 30
0.0
 11
244.0086658257
 21
103.6994728384
 31
0.0
  0
ELLIPSE
  5
136
330
1F
100
AcDbEntity
  8
0
  6
HIDDEN
 62
     7
370
     0
100
AcDbEllipse
 10
242.4190618069
 20
118.5327578209
 30
0.0
 11
-1.234662209537134
 21
15.16181196135365
 31
0.0
210
0.0
220
0.0
230
1.0
 40
0.1268365588
 41
3.200742838064811
 42
3.340067302980178
  0
LINE
  5
137
330
1F
100
AcDbEntity
  8
0
  6
HIDDEN
 62
     7
370
     0
100
AcDbLine
 10
254.600465525
 20
114.9939173697
 30
0.0
 11
254.8960716888
 21
114.802097773
 31
0.0
  0
LINE
  5
138
330
1F
100
AcDbEntity
  8
0
  6
HIDDEN
 62
     7
370
     0
100
AcDbLine
 10
243.1996092941
 20
113.0905251301
 30
0.0
 11
243.958898983
 21
104.4329452004
 31
0.0
  0
ELLIPSE
  5
139
330
1F
100
AcDbEntity
  8
0
  6
HIDDEN
 62
     7
370
     0
100
AcDbEllipse
 10
242.6962170306
 20
118.5085098808
 30
0.0
 11
-1.324341834637125
 21
15.17315408843659
 31
0.0
210
0.0
220
0.0
230
1.0
 40
0.0059876405
 41
3.360588539337886
 42
3.523763302745905
  0
LINE
  5
13A
330
1F
100
AcDbEntity
  8
0
  6
HIDDEN
 62
     7
370
     0
100
AcDbLine
 10
255.0657973826
 20
103.4881425382
 30
0.0
 11
255.5635240081
 21
104.0129208819
 31
0.0
  0
CIRCLE
  5
13B
330
1F
100
AcDbEntity
  8
0
  6
HIDDEN
 62
     7
370
     0
100
AcDbCircle
 10
249.5710077776
 20
109.4039285927
 30
0.0
 40
2.997759932247842
  0
LINE
  5
13C
330
1F
100
AcDbEntity
  8
0
  6
HIDDEN
 62
     7
370
     0
100
AcDbLine
 10
254.600465525
 20
114.9939173697
 30
0.0
 11
245.8713482295
 21
115.7557558438
 31
0.0
  0
ELLIPSE
  5
13D
330
1F
100
AcDbEntity
  8
0
  6
HIDDEN
 62
     7
370
     0
100
AcDbEllipse
 10
-513.2033867512
 20
184.6411559755
 30
0.0
 11
2457.89307116488
 21
-213.9913749490268
 31
0.0
210
0.0
220
0.0
230
1.0
 40
0.0060650906
 41
5.026063215028929
 42
5.030816750079952
  0
LINE
  5
13E
330
1F
100
AcDbEntity
  8
0
  6
HIDDEN
 62
     7
370
     0
100
AcDbLine
 10
254.600465525
 20
114.9939173697
 30
0.0
 11
255.5635242311
 21
104.012920463
 31
0.0
  0
CIRCLE
  5
13F
330
1F
100
AcDbEntity
  8
0
  6
HIDDEN
 62
     7
370
     0
100
AcDbCircle
 10
249.5694864068
 20
109.4648759738
 30
0.0
 40
2.097694540357555
  0
LINE
  5
140
330
1F
100
AcDbEntity
  8
0
  6
HIDDEN
 62
     7
370
     0
100
AcDbLine
 10
138.0527564442
 20
135.962446716
 30
0.0
 11
138.0527564442
 21
131.1526679995
 31
0.0
  0
LINE
  5
141
330
1F
100
AcDbEntity
  8
0
  6
HIDDEN
 62
     7
370
     0
100
AcDbLine
 10
136.5527564442
 20
135.0964213122
 30
0.0
 11
136.5527564442
 21
130.7196552976
 31
0.0
  0
SPLINE
  5
142
330
1F
100
AcDbEntity
  8
0
  6
HIDDEN
 62
     7
370
     0
100
AcDbSpline
210
0.0
220
0.0
230
1.0
 70
     8
 71
     3
 72
    18
 73
    14
 74
     0
 42
0.00000001
 43
0.00000001
 12
1.0
 22
0.0
 32
0.0
 13
1.0
 23
0.0
 33
0.0
 40
0.0
 40
0.0
 40
0.0
 40
0.0
 40
0.2500000000000002
 40
0.2500000000000002
 40
0.375
 40
0.375
 40
0.4999999999999999
 40
0.4999999999999999
 40
0.6249999999999998
 40
0.6249999999999998
 40
0.7499999999999996
 40
0.7499999999999996
 40
1.0
 40
1.0
 40
1.0
 40
1.0
 10
165.2314361005988
 20
106.0080487504888
 30
0.0
 10
165.0961504942964
 20
105.4238471567571
 30
0.0
 10
164.9949827480535
 20
104.8896294695489
 30
0.0
 10
164.8921214051845
 20
104.1637326986605
 30
0.0
 10
164.8660185596612
 20
103.9338522108806
 30
0.0
 10
164.8311285761164
 20
103.5032812660938
 30
0.0
 10
164.8225423178264
 20
103.3055863605996
 30
0.0
 10
164.8224426082608
 20
102.9442383179218
 30
0.0
 10
164.8309309794093
 20
102.7805883079757
 30
0.0
 10
164.8650743589299
 20
102.4873770350067
 30
0.0
 10
164.8908713407837
 20
102.3573809688909
 30
0.0
 10
164.9942724721717
 20
102.023325076329
 30
0.0
 10
165.096130464343
 20
101.8775489119642
 30
0.0
 10
165.2314361005988
 20
101.8061856060164
 30
0.0
  0
LINE
  5
143
330
1F
100
AcDbEntity
  8
0
  6
HIDDEN
 62
     7
370
     0
100
AcDbLine
 10
164.3527564442
 20
106.7231491773
 30
0.0
 11
164.3527564442
 21
101.5829966895
 31
0.0
  0
LINE
  5
144
330
1F
100
AcDbEntity
  8
0
  6
HIDDEN
 62
     7
370
     0
100
AcDbLine
 10
164.3527564442
 20
136.6231942586
 30
0.0
 11
164.3527564442
 21
131.4830417708
 31
0.0
  0
SPLINE
  5
145
330
1F
100
AcDbEntity
  8
0
  6
HIDDEN
 62
     7
370
     0
100
AcDbSpline
210
0.0
220
0.0
230
1.0
 70
     8
 71
     3
 72
    18
 73
    14
 74
     0
 42
0.00000001
 43
0.00000001
 12
1.0
 22
0.0
 32
0.0
 13
1.0
 23
0.0
 33
0.0
 40
0.0
 40
0.0
 40
0.0
 40
0.0
 40
0.2499999999999998
 40
0.2499999999999998
 40
0.3749999999999999
 40
0.3749999999999999
 40
0.5
 40
0.5
 40
0.6250000000000001
 40
0.6250000000000001
 40
0.7500000000000002
 40
0.7500000000000002
 40
1.0
 40
1.0
 40
1.0
 40
1.0
 10
165.2314361005988
 20
136.400005342026
 30
0.0
 10
165.0961504942964
 20
136.3286526003365
 30
0.0
 10
164.9949827480535
 20
136.1832491937471
 30
0.0
 10
164.8921214051845
 20
135.8537819581414
 30
0.0
 10
164.8660185596612
 20
135.7248483813367
 30
0.0
 10
164.8311285761164
 20
135.4293063820005
 30
0.0
 10
164.8225423178264
 20
135.2649116084786
 30
0.0
 10
164.8224426082608
 20
134.903949993738
 30
0.0
 10
164.8309309794093
 20
134.7073802015758
 30
0.0
 10
164.8650743589299
 20
134.2820254054508
 30
0.0
 10
164.8908713407837
 20
134.0522557556512
 30
0.0
 10
164.9942724721717
 20
133.3196670612188
 30
0.0
 10
165.096130464343
 20
132.7824302863012
 30
0.0
 10
165.2314361005988
 20
132.1981421975536
 30
0.0
  0
LINE
  5
146
330
1F
100
AcDbEntity
  8
0
  6
HIDDEN
 62
     7
370
     0
100
AcDbLine
 10
138.0527564442
 20
107.0535229486
 30
0.0
 11
138.0527564442
 21
102.2437442321
 31
0.0
  0
LINE
  5
147
330
1F
100
AcDbEntity
  8
0
  6
HIDDEN
 62
     7
370
     0
100
AcDbLine
 10
136.5527564442
 20
107.4865356505
 30
0.0
 11
136.5527564442
 21
103.1097696359
 31
0.0
  0
SPLINE
  5
148
330
1F
100
AcDbEntity
  8
0
  6
HIDDEN
 62
     7
370
     0
100
AcDbSpline
210
0.0
220
0.0
230
1.0
 70
     8
 71
     3
 72
    24
 73
    20
 74
     0
 42
0.00000001
 43
0.00000001
 12
1.0
 22
0.0
 32
0.0
 13
1.0
 23
0.0
 33
0.0
 40
0.0
 40
0.0
 40
0.0
 40
0.0
 40
0.0286682667509563
 40
0.0590911712900892
 40
0.0912687191179827
 40
0.1252009117442185
 40
0.1547219349454755
 40
0.1878253215606092
 40
0.2504516099146176
 40
0.3130776304561454
 40
0.3756963431334006
 40
0.5008452984244719
 40
0.6258839544939834
 40
0.6897807065949054
 40
0.7508024788770525
 40
0.8142448367885737
 40
0.875519280665288
 40
0.9386200713462618
 40
1.0
 40
1.0
 40
1.0
 40
1.0
 10
253.3410624062644
 20
112.171471325488
 30
0.0
 10
253.3558402363636
 20
112.061073340667
 30
0.0
 10
253.3863003718602
 20
111.8335204757586
 30
0.0
 10
253.434142030698
 20
111.4863228938061
 30
0.0
 10
253.4853494788457
 20
111.1229122863391
 30
0.0
 10
253.5367553520967
 20
110.7674499957267
 30
0.0
 10
253.5892754673257
 20
110.41312589345
 30
0.0
 10
253.6581334385039
 20
109.9596626581617
 30
0.0
 10
253.7465484016965
 20
109.3987323753972
 30
0.0
 10
253.8532589666623
 20
108.7542600825183
 30
0.0
 10
253.9975445489702
 20
107.9254807198338
 30
0.0
 10
254.1810957715369
 20
106.9499517755527
 30
0.0
 10
254.3678820161136
 20
106.0611742052118
 30
0.0
 10
254.5168136084766
 20
105.4141478355112
 30
0.0
 10
254.6289654851083
 20
104.9577612747892
 30
0.0
 10
254.7391687366114
 20
104.5393582653737
 30
0.0
 10
254.8499275982573
 20
104.1503720470134
 30
0.0
 10
254.9586323294812
 20
103.797067550287
 30
0.0
 10
255.0304064468347
 20
103.5901611785985
 30
0.0
 10
255.0657973911183
 20
103.4881381633065
 30
0.0
  0
SPLINE
  5
149
330
1F
100
AcDbEntity
  8
0
  6
HIDDEN
 62
     7
370
     0
100
AcDbSpline
210
0.0
220
0.0
230
1.0
 70
     8
 71
     3
 72
    27
 73
    23
 74
     0
 42
0.00000001
 43
0.00000001
 12
1.0
 22
0.0
 32
0.0
 13
1.0
 23
0.0
 33
0.0
 40
0.0
 40
0.0
 40
0.0
 40
0.0
 40
0.0248910711758264
 40
0.0497710169134841
 40
0.0746519850335767
 40
0.099546121860003
 40
0.1244655544604479
 40
0.1867825004813453
 40
0.2491872669684201
 40
0.3116351069526904
 40
0.3741320588044376
 40
0.436670657921845
 40
0.4992429614797854
 40
0.5618406067139852
 40
0.6244549237456938
 40
0.6870770669115629
 40
0.7496980510927238
 40
0.812308956816804
 40
0.8435903517789203
 40
0.874906760742238
 40
0.9374336672396937
 40
1.0
 40
1.0
 40
1.0
 40
1.0
 10
255.5635244339547
 20
104.0129203650681
 30
0.0
 10
255.5476834830719
 20
104.0567209304567
 30
0.0
 10
255.5160086616574
 20
104.1443024839132
 30
0.0
 10
255.4681458178779
 20
104.2840531618637
 30
0.0
 10
255.4200516718115
 20
104.429869191581
 30
0.0
 10
255.3716987798871
 20
104.5823583468161
 30
0.0
 10
255.2988112094822
 20
104.8207926859579
 30
0.0
 10
255.200892752147
 20
105.1611412133917
 30
0.0
 10
255.0776727260313
 20
105.6249905252542
 30
0.0
 10
254.9539528989264
 20
106.1259387059597
 30
0.0
 10
254.8301377656689
 20
106.662377225071
 30
0.0
 10
254.7066044898331
 20
107.2326889583063
 30
0.0
 10
254.5837370795331
 20
107.8350520939755
 30
0.0
 10
254.4619202376958
 20
108.4676473081643
 30
0.0
 10
254.3415307527217
 20
109.1284403341799
 30
0.0
 10
254.2229470542669
 20
109.8154356467424
 30
0.0
 10
254.1065354687068
 20
110.5264246170326
 30
0.0
 10
254.0116432886825
 20
111.1371275294705
 30
0.0
 10
253.9371617090493
 20
111.6354509537587
 30
0.0
 10
253.8637689753943
 20
112.139756012916
 30
0.0
 10
253.7737741710693
 20
112.7804174352988
 30
0.0
 10
253.7048450308316
 20
113.3053034761945
 30
0.0
 10
253.6703695983414
 20
113.5678292121237
 30
0.0
  0
SPLINE
  5
14A
330
1F
100
AcDbEntity
  8
0
  6
HIDDEN
 62
     7
370
     0
100
AcDbSpline
210
0.0
220
0.0
230
1.0
 70
     8
 71
     3
 72
    64
 73
    60
 74
     0
 42
0.00000001
 43
0.00000001
 12
1.0
 22
0.0
 32
0.0
 13
1.0
 23
0.0
 33
0.0
 40
-0.0312499999999991
 40
-0.0312499999999991
 40
0.0
 40
0.0
 40
0.0312500000000008
 40
0.0312500000000008
 40
0.0625000000000016
 40
0.0625000000000016
 40
0.0937500000000025
 40
0.0937500000000025
 40
0.1250000000000033
 40
0.1250000000000033
 40
0.1562500000000041
 40
0.1562500000000041
 40
0.1875000000000049
 40
0.1875000000000049
 40
0.2187500000000057
 40
0.2187500000000057
 40
0.2500000000000066
 40
0.2500000000000066
 40
0.3125000000000075
 40
0.3125000000000075
 40
0.3750000000000086
 40
0.3750000000000086
 40
0.4062500000000083
 40
0.4062500000000083
 40
0.437500000000008
 40
0.437500000000008
 40
0.4687500000000077
 40
0.4687500000000077
 40
0.5000000000000074
 40
0.5000000000000074
 40
0.5312500000000071
 40
0.5312500000000071
 40
0.5625000000000069
 40
0.5625000000000069
 40
0.5937500000000066
 40
0.5937500000000066
 40
0.6250000000000062
 40
0.6250000000000062
 40
0.656250000000006
 40
0.656250000000006
 40
0.6875000000000057
 40
0.6875000000000057
 40
0.7187500000000054
 40
0.7187500000000054
 40
0.7500000000000051
 40
0.7500000000000051
 40
0.7812500000000048
 40
0.7812500000000048
 40
0.8125000000000046
 40
0.8125000000000046
 40
0.875000000000003
 40
0.875000000000003
 40
0.9062500000000023
 40
0.9062500000000023
 40
0.9375000000000016
 40
0.9375000000000016
 40
0.9687500000000009
 40
0.9687500000000009
 40
1.0
 40
1.0
 40
1.031250000000001
 40
1.031250000000001
 10
249.4154717750827
 20
107.695795531869
 30
0.0
 10
249.7285823103604
 20
107.697677013967
 30
0.0
 10
249.8786671993756
 20
107.7170337521181
 30
0.0
 10
250.1682023375332
 20
107.7869328429325
 30
0.0
 10
250.3066280121565
 20
107.8377776350759
 30
0.0
 10
250.5608066890082
 20
107.9613386464494
 30
0.0
 10
250.6794993944412
 20
108.0353870615723
 30
0.0
 10
250.8940081263214
 20
108.198511118609
 30
0.0
 10
250.9907918076224
 20
108.2878864482343
 30
0.0
 10
251.1665427411584
 20
108.4809190474427
 30
0.0
 10
251.2458031178033
 20
108.5853156631471
 30
0.0
 10
251.3835846596832
 20
108.8027657190183
 30
0.0
 10
251.4426503279911
 20
108.9162543557881
 30
0.0
 10
251.5418098213572
 20
109.1528643257595
 30
0.0
 10
251.5820082925558
 20
109.276862100939
 30
0.0
 10
251.6407651738265
 20
109.5284851899609
 30
0.0
 10
251.6596660606056
 20
109.6565674778033
 30
0.0
 10
251.6837151155781
 20
110.0477581197132
 30
0.0
 10
251.6550884532997
 20
110.3217696659833
 30
0.0
 10
251.4954856202388
 20
110.8497860258154
 30
0.0
 10
251.3617157642802
 20
111.1103637956737
 30
0.0
 10
251.0858438219405
 20
111.4488381164383
 30
0.0
 10
250.9793397860455
 20
111.5555470296632
 30
0.0
 10
250.7439426804249
 20
111.7443968580747
 30
0.0
 10
250.6167347454237
 20
111.8257906955139
 30
0.0
 10
250.3424843670328
 20
111.9608646058494
 30
0.0
 10
250.1941556752893
 20
112.0143517903706
 30
0.0
 10
249.8937752271139
 20
112.0850953433489
 30
0.0
 10
249.7382816901901
 20
112.1035758554932
 30
0.0
 10
249.4261812273213
 20
112.1043236156948
 30
0.0
 10
249.2729262438679
 20
112.0869504193129
 30
0.0
 10
248.971876853029
 20
112.0179779654714
 30
0.0
 10
248.8257508125909
 20
111.9662696514588
 30
0.0
 10
248.5534314569642
 20
111.8350881850463
 30
0.0
 10
248.4241951089267
 20
111.7540366777574
 30
0.0
 10
248.191289141295
 20
111.5714143463508
 30
0.0
 10
248.0866916285339
 20
111.4697800377901
 30
0.0
 10
247.8997583474452
 20
111.2478973489024
 30
0.0
 10
247.8198789051887
 20
111.1304938451954
 30
0.0
 10
247.6849827888556
 20
110.8863279970164
 30
0.0
 10
247.6295462112815
 20
110.7582441315507
 30
0.0
 10
247.5443162548448
 20
110.500159178246
 30
0.0
 10
247.5141317745546
 20
110.3699027950251
 30
0.0
 10
247.4765104707185
 20
110.1075063181694
 30
0.0
 10
247.469248026372
 20
109.9748654798625
 30
0.0
 10
247.4767230634951
 20
109.7151277053025
 30
0.0
 10
247.4912511596277
 20
109.5871396753482
 30
0.0
 10
247.5412494506442
 20
109.3347156647689
 30
0.0
 10
247.5771133375952
 20
109.2094692455936
 30
0.0
 10
247.7142560442105
 20
108.8484516661961
 30
0.0
 10
247.843684568003
 20
108.6243632509077
 30
0.0
 10
248.1086491164083
 20
108.3166190860663
 30
0.0
 10
248.2068179604967
 20
108.2215589383416
 30
0.0
 10
248.4264652984592
 20
108.0480118988982
 30
0.0
 10
248.5495847579936
 20
107.9688463102772
 30
0.0
 10
248.8140416366406
 20
107.8380028862382
 30
0.0
 10
248.9585089136336
 20
107.7848701570073
 30
0.0
 10
249.2591549927504
 20
107.7138487567755
 30
0.0
 10
249.4154717750827
 20
107.695795531869
 30
0.0
 10
249.7285823103604
 20
107.697677013967
 30
0.0
  0
CIRCLE
  5
14B
330
1F
100
AcDbEntity
  8
0
  6
HIDDEN
 62
     7
370
     0
100
AcDbCircle
 10
219.5527564442
 20
119.103095474
 30
0.0
 40
2.100000000000023
  0
CIRCLE
  5
14C
330
1F
100
AcDbEntity
  8
0
  6
HIDDEN
 62
     7
370
     0
100
AcDbCircle
 10
219.5527564442
 20
119.103095474
 30
0.0
 40
2.500000000000028
  0
LINE
  5
14D
330
1F
100
AcDbEntity
  8
0
  6
HIDDEN
 62
     7
370
     0
100
AcDbLine
 10
136.5527564442
 20
130.7196552976
 30
0.0
 11
136.5527564442
 21
121.4422664023
 31
0.0
  0
LINE
  5
14E
330
1F
100
AcDbEntity
  8
0
  6
HIDDEN
 62
     7
370
     0
100
AcDbLine
 10
136.5527564442
 20
116.7639245458
 30
0.0
 11
136.5527564442
 21
107.4865356505
 31
0.0
  0
LINE
  5
14F
330
1F
100
AcDbEntity
  8
0
  6
HIDDEN
 62
     7
370
     0
100
AcDbLine
 10
138.0527564442
 20
115.9546183557
 30
0.0
 11
138.0527564442
 21
107.0535229486
 31
0.0
  0
LINE
  5
150
330
1F
100
AcDbEntity
  8
0
  6
HIDDEN
 62
     7
370
     0
100
AcDbLine
 10
138.0527564442
 20
131.1526679995
 30
0.0
 11
138.0527564442
 21
122.2515725924
 31
0.0
  0
LINE
  5
151
330
1F
100
AcDbEntity
  8
0
  6
HIDDEN
 62
     7
370
     0
100
AcDbLine
 10
164.3527564442
 20
131.4830417708
 30
0.0
 11
164.3527564442
 21
106.7231491773
 31
0.0
  0
SPLINE
  5
152
330
1F
100
AcDbEntity
  8
0
  6
HIDDEN
 62
     7
370
     0
100
AcDbSpline
210
0.0
220
0.0
230
1.0
 70
     8
 71
     3
 72
    11
 73
     7
 74
     0
 42
0.00000001
 43
0.00000001
 12
1.0
 22
0.0
 32
0.0
 13
1.0
 23
0.0
 33
0.0
 40
0.0
 40
0.0
 40
0.0
 40
0.0
 40
0.2487727000497885
 40
0.4999689821164492
 40
0.7482489460457985
 40
1.0
 40
1.0
 40
1.0
 40
1.0
 10
253.6703663079654
 20
113.5678298370607
 30
0.0
 10
253.6473938938802
 20
113.451059993919
 30
0.0
 10
253.6012252649086
 20
113.2163827178121
 30
0.0
 10
253.5221211396208
 20
112.8672616619632
 30
0.0
 10
253.4362364904003
 20
112.5182856817917
 30
0.0
 10
253.3729334375416
 20
112.2876099718436
 30
0.0
 10
253.3410621941473
 20
112.1714714703825
 30
0.0
  0
LINE
  5
153
330
1F
100
AcDbEntity
  8
0
  6
HIDDEN
 62
     7
370
     0
100
AcDbLine
 10
232.0045826935
 20
114.038171418
 30
0.0
 11
253.341062183
 21
112.1714713432
 31
0.0
  0
LINE
  5
154
330
1F
100
AcDbEntity
  8
0
  6
HIDDEN
 62
     7
370
     0
100
AcDbLine
 10
253.6703691551
 20
113.56783011
 30
0.0
 11
253.3743521371
 21
116.6554163115
 31
0.0
  0
LINE
  5
155
330
1F
100
AcDbEntity
  8
0
  6
HIDDEN
 62
     7
370
     0
100
AcDbLine
 10
253.3743521371
 20
116.6554163115
 30
0.0
 11
251.6390508438
 21
119.103095474
 31
0.0
  0
LINE
  5
156
330
1F
100
AcDbEntity
  8
0
  6
HIDDEN
 62
     7
370
     0
100
AcDbLine
 10
166.3527564442
 20
130.6653697071
 30
0.0
 11
166.3527564442
 21
107.5408212409
 31
0.0
  0
SPLINE
  5
157
330
1F
100
AcDbEntity
  8
0
  6
HIDDEN
 62
     7
370
     0
100
AcDbSpline
210
0.0
220
0.0
230
1.0
 70
     8
 71
     3
 72
     8
 73
     4
 74
     0
 42
0.00000001
 43
0.00000001
 12
1.0
 22
0.0
 32
0.0
 13
1.0
 23
0.0
 33
0.0
 40
0.0000202085968836
 40
0.0000202085968836
 40
0.0000202085968836
 40
0.0000202085968836
 40
0.0040218806502652
 40
0.0040218806502652
 40
0.0040218806502652
 40
0.0040218806502652
 10
138.0527564441584
 20
115.9546183556845
 30
0.0
 10
139.386079569949
 20
115.9306201245208
 30
0.0
 10
140.7194134431716
 20
115.9072923843525
 30
0.0
 10
142.0527564441584
 20
115.8845977135721
 30
0.0
  0
SPLINE
  5
158
330
1F
100
AcDbEntity
  8
0
  6
HIDDEN
 62
     7
370
     0
100
AcDbSpline
210
0.0
220
0.0
230
1.0
 70
     8
 71
     3
 72
     8
 73
     4
 74
     0
 42
0.00000001
 43
0.00000001
 12
1.0
 22
0.0
 32
0.0
 13
1.0
 23
0.0
 33
0.0
 40
0.0000202082942178
 40
0.0000202082942178
 40
0.0000202082942178
 40
0.0000202082942178
 40
0.0040218803475994
 40
0.0040218803475994
 40
0.0040218803475994
 40
0.0040218803475994
 10
142.0527564441584
 20
122.3215932344703
 30
0.0
 10
140.7194134431716
 20
122.2988985636898
 30
0.0
 10
139.386079569949
 20
122.2755708235215
 30
0.0
 10
138.0527564441584
 20
122.2515725923579
 30
0.0
  0
SPLINE
  5
159
330
1F
100
AcDbEntity
  8
0
  6
HIDDEN
 62
     7
370
     0
100
AcDbSpline
210
0.0
220
0.0
230
1.0
 70
     8
 71
     3
 72
     8
 73
     4
 74
     0
 42
0.00000001
 43
0.00000001
 12
1.0
 22
0.0
 32
0.0
 13
1.0
 23
0.0
 33
0.0
 40
0.0
 40
0.0
 40
0.0
 40
0.0
 40
1.0
 40
1.0
 40
1.0
 40
1.0
 10
136.5527564441575
 20
116.7639245457868
 30
0.0
 10
137.0269678545954
 20
116.4291953184917
 30
0.0
 10
137.5317042016973
 20
116.1701369046588
 30
0.0
 10
138.0527564441584
 20
115.9546183556845
 30
0.0
  0
SPLINE
  5
15A
330
1F
100
AcDbEntity
  8
0
  6
HIDDEN
 62
     7
370
     0
100
AcDbSpline
210
0.0
220
0.0
230
1.0
 70
     8
 71
     3
 72
     8
 73
     4
 74
     0
 42
0.00000001
 43
0.00000001
 12
1.0
 22
0.0
 32
0.0
 13
1.0
 23
0.0
 33
0.0
 40
0.0
 40
0.0
 40
0.0
 40
0.0
 40
1.0
 40
1.0
 40
1.0
 40
1.0
 10
138.0527564441584
 20
122.2515725923579
 30
0.0
 10
137.5317042016977
 20
122.0360540433837
 30
0.0
 10
137.0269678545961
 20
121.776995629551
 30
0.0
 10
136.5527564441584
 20
121.4422664022562
 30
0.0
  0
LINE
  5
15B
330
1F
100
AcDbEntity
  8
0
  6
HIDDEN
 62
     7
370
     0
100
AcDbLine
 10
136.5527564442
 20
116.7639245458
 30
0.0
 11
136.5527564442
 21
121.4422664023
 31
0.0
  0
LINE
  5
15C
330
1F
100
AcDbEntity
  8
0
  6
HIDDEN
 62
     7
370
     0
100
AcDbLine
 10
142.0527564442
 20
115.8845977136
 30
0.0
 11
142.0527564442
 21
122.3215932345
 31
0.0
  0
SPLINE
  5
15D
330
1F
100
AcDbEntity
  8
0
  6
HIDDEN
 62
     7
370
     0
100
AcDbSpline
210
0.0
220
0.0
230
1.0
 70
     8
 71
     3
 72
    26
 73
    22
 74
     0
 42
0.00000001
 43
0.00000001
 12
1.0
 22
0.0
 32
0.0
 13
1.0
 23
0.0
 33
0.0
 40
0.0
 40
0.0
 40
0.0
 40
0.0
 40
0.1250000000000003
 40
0.1250000000000003
 40
0.2500000000000006
 40
0.2500000000000006
 40
0.3750000000000008
 40
0.3750000000000008
 40
0.4375000000000008
 40
0.4375000000000008
 40
0.5000000000000009
 40
0.5000000000000009
 40
0.562500000000001
 40
0.562500000000001
 40
0.625000000000001
 40
0.625000000000001
 40
0.7500000000000007
 40
0.7500000000000007
 40
0.8750000000000003
 40
0.8750000000000003
 40
1.0
 40
1.0
 40
1.0
 40
1.0
 10
142.0527564441584
 20
115.8845977135721
 30
0.0
 10
142.2633998061583
 20
116.1192147445172
 30
0.0
 10
142.4705962439153
 20
116.3570978804766
 30
0.0
 10
142.8720953785477
 20
116.8444121867455
 30
0.0
 10
143.0673717975937
 20
117.0945374115345
 30
0.0
 10
143.4271522902891
 20
117.6131275569855
 30
0.0
 10
143.5924111504385
 20
117.8805585408723
 30
0.0
 10
143.7850690598647
 20
118.3119736732708
 30
0.0
 10
143.8400338000747
 20
118.4619925551952
 30
0.0
 10
143.9177695850389
 20
118.7747297339252
 30
0.0
 10
143.9390357233472
 20
118.9324839807324
 30
0.0
 10
143.9409296526329
 20
119.2511892605782
 30
0.0
 10
143.9207039155659
 20
119.4136260607588
 30
0.0
 10
143.8462395052801
 20
119.7245780603414
 30
0.0
 10
143.7926003795341
 20
119.8752492986691
 30
0.0
 10
143.5978560741334
 20
120.3173330566377
 30
0.0
 10
143.4308059609552
 20
120.5873770698054
 30
0.0
 10
143.0705498422515
 20
121.1074846980868
 30
0.0
 10
142.8757974672311
 20
121.3571459108965
 30
0.0
 10
142.4727882427589
 20
121.8465700227393
 30
0.0
 10
142.2643517243954
 20
122.0859159459032
 30
0.0
 10
142.0527564441593
 20
122.3215932344711
 30
0.0
  0
SPLINE
  5
15E
330
1F
100
AcDbEntity
  8
0
  6
HIDDEN
 62
     7
370
     0
100
AcDbSpline
210
0.0
220
0.0
230
1.0
 70
     8
 71
     3
 72
    68
 73
    64
 74
     0
 42
0.00000001
 43
0.00000001
 12
1.0
 22
0.0
 32
0.0
 13
1.0
 23
0.0
 33
0.0
 40
-0.0312499999999998
 40
-0.0312499999999998
 40
0.0
 40
0.0
 40
0.0312500000000004
 40
0.0312500000000004
 40
0.0625000000000008
 40
0.0625000000000008
 40
0.0937500000000007
 40
0.0937500000000007
 40
0.1250000000000006
 40
0.1250000000000006
 40
0.1875000000000007
 40
0.1875000000000007
 40
0.2187500000000007
 40
0.2187500000000007
 40
0.2500000000000008
 40
0.2500000000000008
 40
0.2812500000000009
 40
0.2812500000000009
 40
0.3125000000000009
 40
0.3125000000000009
 40
0.343750000000001
 40
0.343750000000001
 40
0.375000000000001
 40
0.375000000000001
 40
0.4062500000000011
 40
0.4062500000000011
 40
0.4375000000000011
 40
0.4375000000000011
 40
0.4687500000000012
 40
0.4687500000000012
 40
0.5000000000000012
 40
0.5000000000000012
 40
0.5312500000000012
 40
0.5312500000000012
 40
0.5625000000000013
 40
0.5625000000000013
 40
0.5937500000000013
 40
0.5937500000000013
 40
0.6250000000000014
 40
0.6250000000000014
 40
0.6562500000000014
 40
0.6562500000000014
 40
0.6875000000000016
 40
0.6875000000000016
 40
0.7187500000000016
 40
0.7187500000000016
 40
0.7500000000000013
 40
0.7500000000000013
 40
0.7812500000000012
 40
0.7812500000000012
 40
0.812500000000001
 40
0.812500000000001
 40
0.8437500000000009
 40
0.8437500000000009
 40
0.8750000000000007
 40
0.8750000000000007
 40
0.9062500000000006
 40
0.9062500000000006
 40
0.9375000000000003
 40
0.9375000000000003
 40
0.9687500000000002
 40
0.9687500000000002
 40
1.0
 40
1.0
 40
1.03125
 40
1.03125
 10
149.9365827314948
 20
120.9999130506378
 30
0.0
 10
150.2270472137866
 20
121.3183452916383
 30
0.0
 10
150.3859635121682
 20
121.460862817342
 30
0.0
 10
150.729544197806
 20
121.7145773544317
 30
0.0
 10
150.9157155507117
 20
121.8261411809407
 30
0.0
 10
151.3002456232974
 20
122.0103902176097
 30
0.0
 10
151.4998561254621
 20
122.0843044836985
 30
0.0
 10
151.9136957104356
 20
122.1959463732587
 30
0.0
 10
152.1265055201069
 20
122.2328704275475
 30
0.0
 10
152.7624369944476
 20
122.285472248123
 30
0.0
 10
153.1975032150754
 20
122.2432638574628
 30
0.0
 10
153.809746082063
 20
122.0694292522674
 30
0.0
 10
154.009591170175
 20
121.9928110244553
 30
0.0
 10
154.3939684789032
 20
121.8026361561124
 30
0.0
 10
154.5745168697657
 20
121.6912767218939
 30
0.0
 10
154.9125767974753
 20
121.4361714531715
 30
0.0
 10
155.0716086138866
 20
121.2906656649788
 30
0.0
 10
155.3564052941089
 20
120.9724270108059
 30
0.0
 10
155.4813508229838
 20
120.8013746922868
 30
0.0
 10
155.6956529633975
 20
120.4348141061737
 30
0.0
 10
155.7855517425723
 20
120.2367453723711
 30
0.0
 10
155.9192040317013
 20
119.8321626191616
 30
0.0
 10
155.9642119670153
 20
119.6245474391445
 30
0.0
 10
156.0089914476327
 20
119.1982576827157
 30
0.0
 10
156.0079177866169
 20
118.9816193847674
 30
0.0
 10
155.9598979929014
 20
118.55865935781
 30
0.0
 10
155.9124850156766
 20
118.3476626725506
 30
0.0
 10
155.7741697668599
 20
117.9418739571188
 30
0.0
 10
155.6844889086377
 20
117.7489272984563
 30
0.0
 10
155.4658061983105
 20
117.3820206754728
 30
0.0
 10
155.3363584804818
 20
117.2085155272508
 30
0.0
 10
155.0498528764523
 20
116.8945134292601
 30
0.0
 10
154.8909940582143
 20
116.7514105028058
 30
0.0
 10
154.5459962362615
 20
116.4960795869528
 30
0.0
 10
154.3637791321411
 20
116.3865474093523
 30
0.0
 10
153.9809390555021
 20
116.2016205825641
 30
0.0
 10
153.7781948304289
 20
116.1258047557226
 30
0.0
 10
153.3663662559656
 20
116.0132242634805
 30
0.0
 10
153.1571474793661
 20
115.9758840438958
 30
0.0
 10
152.7321546451316
 20
115.9386530243657
 30
0.0
 10
152.5149973680585
 20
115.9392189882973
 30
0.0
 10
152.0906195289053
 20
115.9786166921867
 30
0.0
 10
151.8815028810556
 20
116.017045926821
 30
0.0
 10
151.4695618921616
 20
116.1322509613584
 30
0.0
 10
151.2669937872685
 20
116.2095158918628
 30
0.0
 10
150.8853933448012
 20
116.3971981619947
 30
0.0
 10
150.704082408922
 20
116.5081115138067
 30
0.0
 10
150.3614905119879
 20
116.7660649525375
 30
0.0
 10
150.2026668950338
 20
116.9117806481469
 30
0.0
 10
149.9196221159334
 20
117.2281018058564
 30
0.0
 10
149.7936121839476
 20
117.4001355172555
 30
0.0
 10
149.5765051401327
 20
117.7726780952446
 30
0.0
 10
149.4890698438588
 20
117.9667998805186
 30
0.0
 10
149.3558765633112
 20
118.3705746095982
 30
0.0
 10
149.3099759812066
 20
118.5830715362057
 30
0.0
 10
149.2656594402728
 20
119.0086673970638
 30
0.0
 10
149.2665016277552
 20
119.2215012353331
 30
0.0
 10
149.3143403221762
 20
119.6472409651629
 30
0.0
 10
149.3618761776453
 20
119.8590031305761
 30
0.0
 10
149.4986147728733
 20
120.2624926650334
 30
0.0
 10
149.5888983181489
 20
120.4582512859864
 30
0.0
 10
149.8086092104139
 20
120.8278515127346
 30
0.0
 10
149.9365827314948
 20
120.9999130506378
 30
0.0
 10
150.2270472137866
 20
121.3183452916383
 30
0.0
  0
CIRCLE
  5
15F
330
1F
100
AcDbEntity
  8
0
  6
HIDDEN
 62
     7
370
     0
100
AcDbCircle
 10
152.5527564442
 20
119.103095474
 30
0.0
 40
3.049999999999997
  0
CIRCLE
  5
160
330
1F
100
AcDbEntity
  8
0
  6
HIDDEN
 62
     7
370
     0
100
AcDbCircle
 10
178.5527564442
 20
119.103095474
 30
0.0
 40
2.0
  0
LINE
  5
161
330
1F
100
AcDbEntity
  8
0
  6
HIDDEN
 62
     7
370
     0
100
AcDbLine
 10
166.5527564442
 20
99.553095474
 30
0.0
 11
166.645649663
 21
99.6459886928
 31
0.0
  0
LINE
  5
162
330
1F
100
AcDbEntity
  8
0
  6
HIDDEN
 62
     7
370
     0
100
AcDbLine
 10
166.645649663
 20
138.5602022552
 30
0.0
 11
166.5527564442
 21
138.653095474
 31
0.0
  0
ARC
  5
163
330
1F
100
AcDbEntity
  8
0
  6
HIDDEN
 62
     7
370
     0
100
AcDbCircle
 10
165.9385428818
 20
100.353095474
 30
0.0
 40
1.000000000000018
100
AcDbArc
 50
315.0
 51
0.0
  0
ARC
  5
164
330
1F
100
AcDbEntity
  8
0
  6
HIDDEN
 62
     7
370
     0
100
AcDbCircle
 10
165.9385428818
 20
100.353095474
 30
0.0
 40
1.0
100
AcDbArc
 50
0.0
 51
52.1052014664
  0
ARC
  5
165
330
1F
100
AcDbEntity
  8
0
  6
HIDDEN
 62
     7
370
     0
100
AcDbCircle
 10
165.9385428818
 20
137.853095474
 30
0.0
 40
1.000000000000028
100
AcDbArc
 50
351.8087250651
 51
45.0
  0
ARC
  5
166
330
1F
100
AcDbEntity
  8
0
  6
HIDDEN
 62
     7
370
     0
100
AcDbCircle
 10
165.9385428818
 20
137.853095474
 30
0.0
 40
1.000000000000006
100
AcDbArc
 50
307.8947985336
 51
351.8087250651
  0
LINE
  5
167
330
1F
100
AcDbEntity
  8
0
  6
HIDDEN
 62
     7
370
     0
100
AcDbLine
 10
166.9385428818
 20
100.353095474
 30
0.0
 11
166.9385428818
 21
137.853095474
 31
0.0
  0
LINE
  5
168
330
1F
100
AcDbEntity
  8
0
  6
HIDDEN
 62
     7
370
     0
100
AcDbLine
 10
166.9385428818
 20
100.353095474
 30
0.0
 11
166.9385428818
 21
137.853095474
 31
0.0
  0
ARC
  5
169
330
1F
100
AcDbEntity
  8
0
  6
HIDDEN
 62
     7
370
     0
100
AcDbCircle
 10
143.0527564442
 20
108.603095474
 30
0.0
 40
1.5
100
AcDbArc
 50
191.0958032831
 51
270.0
  0
ARC
  5
16A
330
1F
100
AcDbEntity
  8
0
  6
HIDDEN
 62
     7
370
     0
100
AcDbCircle
 10
143.0527564442
 20
129.603095474
 30
0.0
 40
1.5
100
AcDbArc
 50
90.0
 51
168.9041967169
  0
LINE
  5
16B
330
1F
100
AcDbEntity
  8
0
  6
HIDDEN
 62
     7
370
     0
100
AcDbLine
 10
143.0527564442
 20
107.103095474
 30
0.0
 11
144.0594759562
 21
107.103095474
 31
0.0
  0
LINE
  5
16C
330
1F
100
AcDbEntity
  8
0
  6
HIDDEN
 62
     7
370
     0
100
AcDbLine
 10
144.0594759562
 20
131.103095474
 30
0.0
 11
143.0527564442
 21
131.103095474
 31
0.0
  0
ARC
  5
16D
330
1F
100
AcDbEntity
  8
0
  6
HIDDEN
 62
     7
370
     0
100
AcDbCircle
 10
144.0594759562
 20
108.603095474
 30
0.0
 40
1.500000000000002
100
AcDbArc
 50
270.0
 51
315.0
  0
ARC
  5
16E
330
1F
100
AcDbEntity
  8
0
  6
HIDDEN
 62
     7
370
     0
100
AcDbCircle
 10
144.0594759562
 20
129.603095474
 30
0.0
 40
1.500000000000012
100
AcDbArc
 50
45.0
 51
90.0
  0
LINE
  5
16F
330
1F
100
AcDbEntity
  8
0
  6
HIDDEN
 62
     7
370
     0
100
AcDbLine
 10
136.5527564442
 20
107.3396834056
 30
0.0
 11
137.5807962998
 21
107.9332224929
 31
0.0
  0
LINE
  5
170
330
1F
100
AcDbEntity
  8
0
  6
HIDDEN
 62
     7
370
     0
100
AcDbLine
 10
137.5807962998
 20
130.2729684551
 30
0.0
 11
136.5527564442
 21
130.8665075425
 31
0.0
  0
LINE
  5
171
330
1F
100
AcDbEntity
  8
0
  6
HIDDEN
 62
     7
370
     0
100
AcDbLine
 10
145.120136128
 20
107.5424353022
 30
0.0
 11
146.1807962998
 21
108.603095474
 31
0.0
  0
LINE
  5
172
330
1F
100
AcDbEntity
  8
0
  6
HIDDEN
 62
     7
370
     0
100
AcDbLine
 10
146.1807962998
 20
129.603095474
 30
0.0
 11
145.120136128
 21
130.6637556458
 31
0.0
  0
LINE
  5
173
330
1F
100
AcDbEntity
  8
0
  6
HIDDEN
 62
     7
370
     0
100
AcDbLine
 10
137.5807962998
 20
107.9332224929
 30
0.0
 11
140.0807962998
 21
108.603095474
 31
0.0
  0
LINE
  5
174
330
1F
100
AcDbEntity
  8
0
  6
HIDDEN
 62
     7
370
     0
100
AcDbLine
 10
140.0807962998
 20
129.603095474
 30
0.0
 11
137.5807962998
 21
130.2729684551
 31
0.0
  0
LINE
  5
175
330
1F
100
AcDbEntity
  8
0
  6
HIDDEN
 62
     7
370
     0
100
AcDbLine
 10
220.4082677655
 20
120.8370572951
 30
0.0
 11
219.0805897583
 21
121.455057764
 31
0.0
  0
LINE
  5
176
330
1F
100
AcDbEntity
  8
0
  6
HIDDEN
 62
     7
370
     0
100
AcDbLine
 10
226.82673061
 20
117.8494254853
 30
0.0
 11
221.1160393619
 21
120.507607552
 31
0.0
  0
LINE
  5
177
330
1F
100
AcDbEntity
  8
0
  6
HIDDEN
 62
     7
370
     0
100
AcDbLine
 10
217.3081987822
 20
117.6473510753
 30
0.0
 11
226.8388895255
 21
113.2110560425
 31
0.0
  0
LINE
  5
178
330
1F
100
AcDbEntity
  8
0
  6
HIDDEN
 62
     7
370
     0
100
AcDbLine
 10
218.9262212751
 20
121.4107562068
 30
0.0
 11
217.0701157337
 21
120.0745275891
 31
0.0
  0
LINE
  5
179
330
1F
100
AcDbEntity
  8
0
  6
HIDDEN
 62
     7
370
     0
100
AcDbLine
 10
217.0701157337
 20
120.0745275891
 30
0.0
 11
217.2427088022
 21
117.7939911759
 31
0.0
  0
LINE
  5
17A
330
1F
100
AcDbEntity
  8
0
  6
HIDDEN
 62
     7
370
     0
100
AcDbLine
 10
141.5807962998
 20
129.8917706086
 30
0.0
 11
141.0807962998
 21
129.603095474
 31
0.0
  0
LINE
  5
17B
330
1F
100
AcDbEntity
  8
0
  6
HIDDEN
 62
     7
370
     0
100
AcDbLine
 10
141.0807962998
 20
108.603095474
 30
0.0
 11
141.5807962998
 21
108.3144203394
 31
0.0
  0
LINE
  5
17C
330
1F
100
AcDbEntity
  8
0
  6
HIDDEN
 62
     7
370
     0
100
AcDbLine
 10
146.1807962998
 20
108.603095474
 30
0.0
 11
156.0527564442
 21
108.603095474
 31
0.0
  0
LINE
  5
17D
330
1F
100
AcDbEntity
  8
0
  6
HIDDEN
 62
     7
370
     0
100
AcDbLine
 10
156.0527564442
 20
129.603095474
 30
0.0
 11
146.1807962998
 21
129.603095474
 31
0.0
  0
ARC
  5
17E
330
1F
100
AcDbEntity
  8
0
  6
HIDDEN
 62
     7
370
     0
100
AcDbCircle
 10
156.0527564442
 20
109.103095474
 30
0.0
 40
0.5
100
AcDbArc
 50
270.0
 51
0.0
  0
ARC
  5
17F
330
1F
100
AcDbEntity
  8
0
  6
HIDDEN
 62
     7
370
     0
100
AcDbCircle
 10
156.0527564442
 20
129.103095474
 30
0.0
 40
0.5
100
AcDbArc
 50
0.0
 51
90.0
  0
LINE
  5
180
330
1F
100
AcDbEntity
  8
0
  6
HIDDEN
 62
     7
370
     0
100
AcDbLine
 10
140.0807962998
 20
108.603095474
 30
0.0
 11
141.0807962998
 21
108.603095474
 31
0.0
  0
LINE
  5
181
330
1F
100
AcDbEntity
  8
0
  6
HIDDEN
 62
     7
370
     0
100
AcDbLine
 10
141.0807962998
 20
129.603095474
 30
0.0
 11
140.0807962998
 21
129.603095474
 31
0.0
  0
LINE
  5
182
330
1F
100
AcDbEntity
  8
0
  6
HIDDEN
 62
     7
370
     0
100
AcDbLine
 10
156.5527564442
 20
110.853095474
 30
0.0
 11
157.5527564442
 21
111.853095474
 31
0.0
  0
LINE
  5
183
330
1F
100
AcDbEntity
  8
0
  6
HIDDEN
 62
     7
370
     0
100
AcDbLine
 10
157.5527564442
 20
126.353095474
 30
0.0
 11
156.5527564442
 21
127.353095474
 31
0.0
  0
LINE
  5
184
330
1F
100
AcDbEntity
  8
0
  6
HIDDEN
 62
     7
370
     0
100
AcDbLine
 10
157.5527564442
 20
111.853095474
 30
0.0
 11
181.5527564442
 21
111.853095474
 31
0.0
  0
LINE
  5
185
330
1F
100
AcDbEntity
  8
0
  6
HIDDEN
 62
     7
370
     0
100
AcDbLine
 10
181.5527564442
 20
126.353095474
 30
0.0
 11
157.5527564442
 21
126.353095474
 31
0.0
  0
LINE
  5
186
330
1F
100
AcDbEntity
  8
0
  6
HIDDEN
 62
     7
370
     0
100
AcDbLine
 10
181.5527564442
 20
111.853095474
 30
0.0
 11
183.9561989203
 21
115.853095474
 31
0.0
  0
LINE
  5
187
330
1F
100
AcDbEntity
  8
0
  6
HIDDEN
 62
     7
370
     0
100
AcDbLine
 10
183.9561989203
 20
122.353095474
 30
0.0
 11
181.5527564442
 21
126.353095474
 31
0.0
  0
LINE
  5
188
330
1F
100
AcDbEntity
  8
0
  6
HIDDEN
 62
     7
370
     0
100
AcDbLine
 10
222.5527564442
 20
122.353095474
 30
0.0
 11
183.9561989203
 21
122.353095474
 31
0.0
  0
LINE
  5
189
330
1F
100
AcDbEntity
  8
0
  6
HIDDEN
 62
     7
370
     0
100
AcDbLine
 10
183.9561989203
 20
115.853095474
 30
0.0
 11
222.5527564442
 21
115.853095474
 31
0.0
  0
LINE
  5
18A
330
1F
100
AcDbEntity
  8
0
  6
HIDDEN
 62
     7
370
     0
100
AcDbLine
 10
222.5527564442
 20
115.853095474
 30
0.0
 11
224.505553456
 21
119.103095474
 31
0.0
  0
LINE
  5
18B
330
1F
100
AcDbEntity
  8
0
  6
HIDDEN
 62
     7
370
     0
100
AcDbLine
 10
224.505553456
 20
119.103095474
 30
0.0
 11
222.5527564442
 21
122.353095474
 31
0.0
  0
ARC
  5
18C
330
1F
100
AcDbEntity
  8
0
  6
HIDDEN
 62
     7
370
     0
100
AcDbCircle
 10
230.1385428818
 20
105.603095474
 30
0.0
 40
1.000000000000014
100
AcDbArc
 50
64.6825126226
 51
90.0
  0
LINE
  5
18D
330
1F
100
AcDbEntity
  8
0
  6
HIDDEN
 62
     7
370
     0
100
AcDbLine
 10
245.9870554701
 20
115.0699842521
 30
0.0
 11
245.9870554701
 21
115.0937014532
 31
0.0
  0
LINE
  5
18E
330
1F
100
AcDbEntity
  8
0
  6
HIDDEN
 62
     7
370
     0
100
AcDbLine
 10
241.7870554701
 20
115.0937014532
 30
0.0
 11
241.7870554701
 21
114.7588703792
 31
0.0
  0
LINE
  5
18F
330
1F
100
AcDbEntity
  8
0
  6
HIDDEN
 62
     7
370
     0
100
AcDbLine
 10
251.6720270427
 20
109.4616418109
 30
0.0
 11
251.6720270427
 21
109.9283544063
 31
0.0
  0
LINE
  5
190
330
1F
100
AcDbEntity
  8
0
  6
HIDDEN
 62
     7
370
     0
100
AcDbLine
 10
247.4720270427
 20
109.9115807683
 30
0.0
 11
247.4720270427
 21
109.4616418109
 31
0.0
  0
LINE
  5
191
330
1F
100
AcDbEntity
  8
VERMASSUNG
  6
CENTERX2
100
AcDbLine
 10
132.7075294126
 20
119.103095474
 30
0.0
 11
256.5527564442
 21
119.103095474
 31
0.0
  0
LINE
  5
192
330
1F
100
AcDbEntity
  8
VERMASSUNG
  6
CENTERX2
100
AcDbLine
 10
256.5527564442
 20
102.103095474
 30
0.0
 11
256.5527564442
 21
119.103095474
 31
0.0
  0
LINE
  5
193
330
1F
100
AcDbEntity
  8
VERMASSUNG
  6
CENTERX2
100
AcDbLine
 10
256.5527564442
 20
102.103095474
 30
0.0
 11
268.2013061621
 21
102.103095474
 31
0.0
  0
DIMENSION
  5
194
330
1F
100
AcDbEntity
  8
VERMASSUNG
100
AcDbDimension
  2
_D
 10
256.5527564442
 20
87.0979632741
 30
0.0
 11
211.5527564442
 21
87.0979632741
 31
0.0
 70
   160
  1
<>
 71
     2
 42
-1.0
  3
SLDDIMSTYLE0
100
AcDbAlignedDimension
 13
166.5527564442
 23
94.403095474
 33
0.0
 14
256.5527564442
 24
102.103095474
 34
0.0
100
AcDbRotatedDimension
  0
DIMENSION
  5
19F
330
1F
100
AcDbEntity
  8
VERMASSUNG
100
AcDbDimension
  2
_D_1
 10
136.5527564442
 20
78.103095474
 30
0.0
 11
196.5527564442
 21
78.103095474
 31
0.0
 70
   160
  1
<>
 71
     2
 42
-1.0
  3
SLDDIMSTYLE0
100
AcDbAlignedDimension
 13
256.5527564442
 23
102.103095474
 33
0.0
 14
136.5527564442
 24
103.1097696359
 34
0.0
100
AcDbRotatedDimension
  0
DIMENSION
  5
1A9
330
1F
100
AcDbEntity
  8
VERMASSUNG
100
AcDbDimension
  2
_D_2
 10
273.6232499592
 20
119.103095474
 30
0.0
 11
273.6232499592
 21
110.603095474
 31
0.0
 70
   160
  1
<>
 71
     2
 42
-1.0
  3
SLDDIMSTYLE0
100
AcDbAlignedDimension
 13
256.5527564442
 23
102.103095474
 33
0.0
 14
256.5527564442
 24
119.103095474
 34
0.0
 50
90.0
100
AcDbRotatedDimension
  0
DIMENSION
  5
1B3
330
1F
100
AcDbEntity
  8
VERMASSUNG
100
AcDbDimension
  2
_D_3
 10
256.5512343234
 20
102.5368984684
 30
0.0
 11
263.5607577835
 21
109.7127479541
 31
0.0
 70
   162
  1
<>
 71
     1
 42
-1.0
  3
SLDDIMSTYLE1
100
AcDb2LineAngularDimension
 13
268.2013061621
 23
102.103095474
 33
0.0
 14
256.5527564442
 24
102.103095474
 34
0.0
 15
255.4980812227
 25
114.545170516
 35
0.0
 16
263.5607577835
 26
109.7127479541
 36
0.0
  0
DIMENSION
  5
1BC
330
1F
100
AcDbEntity
  8
VERMASSUNG
100
AcDbDimension
  2
_D_4
 10
202.0923537397
 20
131.603095474
 30
0.0
 11
202.0923537397
 21
112.0722184988
 31
0.0
 70
   160
  1
%%c<>
 71
     2
 42
-1.0
  3
SLDDIMSTYLE0
100
AcDbAlignedDimension
 13
190.5527564442
 23
106.603095474
 33
0.0
 14
190.5527564442
 24
131.603095474
 34
0.0
 50
90.0
100
AcDbRotatedDimension
  0
DIMENSION
  5
1C5
330
1F
100
AcDbEntity
  8
VERMASSUNG
100
AcDbDimension
  2
_D_5
 10
126.5527564442
 20
94.103095474
 30
0.0
 11
126.5527564442
 21
119.103095474
 31
0.0
 70
   160
  1
PSC%%c<>
 71
     2
 42
-1.0
  3
SLDDIMSTYLE0
100
AcDbAlignedDimension
 13
166.8527564442
 23
144.103095474
 33
0.0
 14
166.8527564442
 24
94.103095474
 34
0.0
 50
90.0
100
AcDbRotatedDimension
  0
LINE
  5
1D1
330
1F
100
AcDbEntity
  8
0
  6
Continuous
 62
     7
370
    15
100
AcDbLine
 10
67.9262922349
 20
102.103095474
 30
0.0
 11
71.1481925292
 21
102.7293694492
 31
0.0
  0
LINE
  5
1D2
330
1F
100
AcDbEntity
  8
0
  6
Continuous
 62
     7
370
    15
100
AcDbLine
 10
67.2591613486
 20
115.9441877374
 30
0.0
 11
66.9573226281
 21
115.9600064345
 31
0.0
  0
SPLINE
  5
1D3
330
1F
100
AcDbEntity
  8
0
  6
Continuous
 62
     7
370
    15
100
AcDbSpline
210
0.0
220
0.0
230
1.0
 70
     8
 71
     3
 72
    27
 73
    23
 74
     0
 42
0.00000001
 43
0.00000001
 12
1.0
 22
0.0
 32
0.0
 13
1.0
 23
0.0
 33
0.0
 40
0.0
 40
0.0
 40
0.0
 40
0.0
 40
0.0248910711758264
 40
0.0497710169134841
 40
0.0746519850335767
 40
0.099546121860003
 40
0.1244655544604479
 40
0.1867825004813453
 40
0.2491872669684201
 40
0.3116351069526904
 40
0.3741320588044376
 40
0.436670657921845
 40
0.4992429614797854
 40
0.5618406067139852
 40
0.6244549237456938
 40
0.6870770669115629
 40
0.7496980510927238
 40
0.812308956816804
 40
0.8435903517789203
 40
0.874906760742238
 40
0.9374336672396937
 40
1.0
 40
1.0
 40
1.0
 40
1.0
 10
72.56436604140517
 20
104.0129203650681
 30
0.0
 10
72.6639946539291
 20
104.0567209304567
 30
0.0
 10
72.86320734847202
 20
104.1443024839132
 30
0.0
 10
73.1581526518879
 20
104.2840531618637
 30
0.0
 10
73.45010093713897
 20
104.429869191581
 30
0.0
 10
73.73878839954924
 20
104.5823583468161
 30
0.0
 10
74.1669261889081
 20
104.8207926859579
 30
0.0
 10
74.72565860551283
 20
105.1611412133917
 30
0.0
 10
75.39959079102832
 20
105.6249905252542
 30
0.0
 10
76.04736142055863
 20
106.1259387059597
 30
0.0
 10
76.6668286129843
 20
106.662377225071
 30
0.0
 10
77.25609143777551
 20
107.2326889583063
 30
0.0
 10
77.81335833082217
 20
107.8350520939755
 30
0.0
 10
78.33682974067077
 20
108.4676473081643
 30
0.0
 10
78.82495020392244
 20
109.1284403341799
 30
0.0
 10
79.27611842489875
 20
109.8154356467424
 30
0.0
 10
79.68901153405692
 20
110.5264246170326
 30
0.0
 10
80.00002524589245
 20
111.1371275294705
 30
0.0
 10
80.22857105789605
 20
111.6354509537587
 30
0.0
 10
80.44289077911837
 20
112.139756012916
 30
0.0
 10
80.68741268764076
 20
112.7804174352988
 30
0.0
 10
80.84664695283885
 20
113.3053034761945
 30
0.0
 10
80.92628917876841
 20
113.5678292121237
 30
0.0
  0
SPLINE
  5
1D4
330
1F
100
AcDbEntity
  8
0
  6
Continuous
 62
     7
370
    15
100
AcDbSpline
210
0.0
220
0.0
230
1.0
 70
    24
 71
     3
 72
    11
 73
     7
 74
     0
 42
0.00000001
 43
0.00000001
 12
1.0
 22
0.0
 32
0.0
 13
1.0
 23
0.0
 33
0.0
 40
0.0
 40
0.0
 40
0.0
 40
0.0
 40
0.2487727000497885
 40
0.4999689821164492
 40
0.7482489460457985
 40
1.0
 40
1.0
 40
1.0
 40
1.0
 10
80.92629223493643
 20
113.5678298370607
 30
0.0
 10
80.92629223493643
 20
113.451059993919
 30
0.0
 10
80.92629223493643
 20
113.2163827178121
 30
0.0
 10
80.92629223493643
 20
112.8672616619632
 30
0.0
 10
80.92629223493643
 20
112.5182856817917
 30
0.0
 10
80.92629223493643
 20
112.2876099718436
 30
0.0
 10
80.92629223493643
 20
112.1714714703825
 30
0.0
  0
SPLINE
  5
1D5
330
1F
100
AcDbEntity
  8
0
  6
Continuous
 62
     7
370
    15
100
AcDbSpline
210
0.0
220
0.0
230
1.0
 70
     8
 71
     3
 72
    24
 73
    20
 74
     0
 42
0.00000001
 43
0.00000001
 12
1.0
 22
0.0
 32
0.0
 13
1.0
 23
0.0
 33
0.0
 40
0.0
 40
0.0
 40
0.0
 40
0.0
 40
0.0286682667509563
 40
0.0590911712900892
 40
0.0912687191179827
 40
0.1252009117442185
 40
0.1547219349454755
 40
0.1878253215606092
 40
0.2504516099146176
 40
0.3130776304561454
 40
0.3756963431334006
 40
0.5008452984244719
 40
0.6258839544939834
 40
0.6897807065949054
 40
0.7508024788770525
 40
0.8142448367885737
 40
0.875519280665288
 40
0.9386200713462618
 40
1.0
 40
1.0
 40
1.0
 40
1.0
 10
80.92629223564809
 20
112.171471325488
 30
0.0
 10
80.8836368840436
 20
112.061073340667
 30
0.0
 10
80.79571546521501
 20
111.8335204757586
 30
0.0
 10
80.64950818264882
 20
111.4863228938061
 30
0.0
 10
80.48635913730752
 20
111.1229122863391
 30
0.0
 10
80.31511104752381
 20
110.7674499957267
 30
0.0
 10
80.13322109026618
 20
110.41312589345
 30
0.0
 10
79.88584040849811
 20
109.9596626581617
 30
0.0
 10
79.55127773914248
 20
109.3987323753972
 30
0.0
 10
79.12156058007376
 20
108.7542600825183
 30
0.0
 10
78.50659962451438
 20
107.9254807198338
 30
0.0
 10
77.66153295151308
 20
106.9499517755527
 30
0.0
 10
76.7188829206885
 20
106.0611742052118
 30
0.0
 10
75.91805413084327
 20
105.4141478355112
 30
0.0
 10
75.29061168900449
 20
104.9577612747892
 30
0.0
 10
74.64995401730452
 20
104.5393582653737
 30
0.0
 10
73.98113244554101
 20
104.1503720470134
 30
0.0
 10
73.301913917224
 20
103.797067550287
 30
0.0
 10
72.83251758928009
 20
103.5901611785985
 30
0.0
 10
72.60106396920534
 20
103.4881381633065
 30
0.0
  0
LINE
  5
1D6
330
1F
100
AcDbEntity
  8
0
  6
Continuous
 62
     7
370
    15
100
AcDbLine
 10
71.7965015913
 20
114.9939173697
 30
0.0
 11
69.4241032067
 21
114.802097773
 31
0.0
  0
LINE
  5
1D7
330
1F
100
AcDbEntity
  8
0
  6
Continuous
 62
     7
370
    15
100
AcDbLine
 10
69.4241032067
 20
114.802097773
 30
0.0
 11
67.3327254073
 21
114.8921726846
 31
0.0
  0
LINE
  5
1D8
330
1F
100
AcDbEntity
  8
0
  6
Continuous
 62
     7
370
    15
100
AcDbLine
 10
67.2346747485
 20
116.2943624329
 30
0.0
 11
67.3327254073
 21
114.8921726846
 31
0.0
  0
LINE
  5
1D9
330
1F
100
AcDbEntity
  8
0
  6
Continuous
 62
     7
370
    15
100
AcDbLine
 10
80.9262922349
 20
116.6554163115
 30
0.0
 11
67.2346747485
 21
116.2943624329
 31
0.0
  0
LINE
  5
1DA
330
1F
100
AcDbEntity
  8
0
  6
Continuous
 62
     7
370
    15
100
AcDbLine
 10
80.9262922349
 20
113.56783011
 30
0.0
 11
80.9262922349
 21
116.6554163115
 31
0.0
  0
LINE
  5
1DB
330
1F
100
AcDbEntity
  8
0
  6
Continuous
 62
     7
370
    15
100
AcDbLine
 10
71.7965015913
 20
114.9939173697
 30
0.0
 11
71.8189712908
 21
114.6725856961
 31
0.0
  0
ARC
  5
1DC
330
1F
100
AcDbEntity
  8
0
  6
Continuous
 62
     7
370
    15
100
AcDbCircle
 10
67.9262922349
 20
119.103095474
 30
0.0
 40
13.00000000000003
100
AcDbArc
 50
0.0
 51
97.9073388765
  0
LINE
  5
1DD
330
1F
100
AcDbEntity
  8
0
  6
Continuous
 62
     7
370
    15
100
AcDbLine
 10
80.9262922349
 20
116.6554163115
 30
0.0
 11
80.9262922349
 21
119.103095474
 31
0.0
  0
LINE
  5
1DE
330
1F
100
AcDbEntity
  8
0
  6
Continuous
 62
     7
370
    15
100
AcDbLine
 10
66.1378638159
 20
131.9794895263
 30
0.0
 11
67.2346747485
 21
116.2943624329
 31
0.0
  0
SPLINE
  5
1DF
330
1F
100
AcDbEntity
  8
0
  6
Continuous
 62
     7
370
    15
100
AcDbSpline
210
0.0
220
0.0
230
1.0
 70
     8
 71
     3
 72
    11
 73
     7
 74
     0
 42
0.00000001
 43
0.00000001
 12
1.0
 22
0.0
 32
0.0
 13
1.0
 23
0.0
 33
0.0
 40
0.0
 40
0.0
 40
0.0
 40
0.0
 40
0.1725480375975026
 40
0.5457888128412816
 40
0.9170393711984199
 40
1.0
 40
1.0
 40
1.0
 40
1.0
 10
67.61123347425931
 20
106.6086456592729
 30
0.0
 10
67.55609494696216
 20
106.6095071125966
 30
0.0
 10
67.3816855953732
 20
106.6122319861646
 30
0.0
 10
66.77325113482128
 20
106.6477235202223
 30
0.0
 10
66.12387643392235
 20
106.727670771669
 30
0.0
 10
65.7392607069953
 20
106.7960990878945
 30
0.0
 10
65.66901152895886
 20
106.8085973624909
 30
0.0
  0
SPLINE
  5
1E0
330
1F
100
AcDbEntity
  8
0
  6
Continuous
 62
     7
370
    15
100
AcDbSpline
210
0.0
220
0.0
230
1.0
 70
     8
 71
     3
 72
    16
 73
    12
 74
     0
 42
0.00000001
 43
0.00000001
 12
1.0
 22
0.0
 32
0.0
 13
1.0
 23
0.0
 33
0.0
 40
0.0
 40
0.0
 40
0.0
 40
0.0
 40
0.2499999999999977
 40
0.2499999999999977
 40
0.3749999999999981
 40
0.3749999999999981
 40
0.4999999999999984
 40
0.4999999999999984
 40
0.7499999999999992
 40
0.7499999999999992
 40
1.0
 40
1.0
 40
1.0
 40
1.0
 10
63.97991580269139
 20
130.963791619485
 30
0.0
 10
64.22933974141417
 20
131.0467817527235
 30
0.0
 10
64.46753878302549
 20
131.1173280230932
 30
0.0
 10
64.80660763839984
 20
131.2081050904653
 30
0.0
 10
64.91710649565573
 20
131.2359533338546
 30
0.0
 10
65.12515256652709
 20
131.2856672558115
 30
0.0
 10
65.22344300323101
 20
131.3077484092861
 30
0.0
 10
65.50095613439062
 20
131.3670073196681
 30
0.0
 10
65.66405018680636
 20
131.3973842924032
 30
0.0
 10
65.9230768331074
 20
131.4422366389482
 30
0.0
 10
66.02242220675298
 20
131.4574270232642
 30
0.0
 10
66.08674578148963
 20
131.4669973195395
 30
0.0
  0
SPLINE
  5
1E1
330
1F
100
AcDbEntity
  8
0
  6
Continuous
 62
     7
370
    15
100
AcDbSpline
210
0.0
220
0.0
230
1.0
 70
     8
 71
     3
 72
    10
 73
     6
 74
     0
 42
0.00000001
 43
0.00000001
 12
1.0
 22
0.0
 32
0.0
 13
1.0
 23
0.0
 33
0.0
 40
0.0
 40
0.0
 40
0.0
 40
0.0
 40
0.5
 40
0.5
 40
1.0
 40
1.0
 40
1.0
 40
1.0
 10
66.08674578148963
 20
131.4669973195395
 30
0.0
 10
66.11833858352121
 20
131.4716978119615
 30
0.0
 10
66.13872555311961
 20
131.5000544466482
 30
0.0
 10
66.15891801448839
 20
131.6036334065676
 30
0.0
 10
66.15863790192653
 20
131.6781162888639
 30
0.0
 10
66.15233139668919
 20
131.7723961592334
 30
0.0
  0
ELLIPSE
  5
1E2
330
1F
100
AcDbEntity
  8
0
  6
Continuous
 62
     7
370
    15
100
AcDbEllipse
 10
60.8535057116
 20
115.5302407639
 30
0.0
 11
-1.650444768084881
 21
1.909937113548338
 31
0.0
210
0.0
220
0.0
230
1.0
 40
0.8148202105
 41
0.0
 42
6.283185307179586
  0
ARC
  5
1E3
330
1F
100
AcDbEntity
  8
0
  6
Continuous
 62
     7
370
    15
100
AcDbCircle
 10
67.9262922349
 20
119.103095474
 30
0.0
 40
12.49999999999999
100
AcDbArc
 50
108.4036880773
 51
259.5963119227
  0
SPLINE
  5
1E4
330
1F
100
AcDbEntity
  8
0
  6
Continuous
 62
     7
370
    15
100
AcDbSpline
210
0.0
220
0.0
230
1.0
 70
     8
 71
     3
 72
    15
 73
    11
 74
     0
 42
0.00000001
 43
0.00000001
 12
1.0
 22
0.0
 32
0.0
 13
1.0
 23
0.0
 33
0.0
 40
0.0
 40
0.0
 40
0.0
 40
0.0
 40
0.0743720020132712
 40
0.2956057724478828
 40
0.5899424588596608
 40
0.6900077167286687
 40
0.7666223229658268
 40
0.8432081857744491
 40
0.9802399913518839
 40
1.0
 40
1.0
 40
1.0
 40
1.0
 10
61.66253049293589
 20
117.4875542848062
 30
0.0
 10
61.62732885243516
 20
117.4293526433074
 30
0.0
 10
61.48741318726594
 20
117.1980190671327
 30
0.0
 10
61.02243456004706
 20
117.0041244184287
 30
0.0
 10
60.50038577332453
 20
116.9780815190202
 30
0.0
 10
60.19981413230121
 20
117.1210291212346
 30
0.0
 10
60.1331951697872
 20
117.2542474952903
 30
0.0
 10
60.1843864072552
 20
117.4601612217928
 30
0.0
 10
60.30246267117509
 20
117.635523396339
 30
0.0
 10
60.38880602037435
 20
117.7945953891865
 30
0.0
 10
60.39968761732066
 20
117.8146427620029
 30
0.0
  0
CIRCLE
  5
1E5
330
1F
100
AcDbEntity
  8
0
  6
Continuous
 62
     7
370
    15
100
AcDbCircle
 10
67.9262922349
 20
119.103095474
 30
0.0
 40
25.0
  0
LINE
  5
1E6
330
1F
100
AcDbEntity
  8
0
  6
Continuous
 62
     7
370
    15
100
AcDbLine
 10
70.308492348
 20
114.7376414968
 30
0.0
 11
67.0562575933
 21
114.545170516
 31
0.0
  0
LINE
  5
1E7
330
1F
100
AcDbEntity
  8
0
  6
Continuous
 62
     7
370
    15
100
AcDbLine
 10
71.8189712908
 20
114.6725856961
 30
0.0
 11
70.308492348
 21
114.7376414968
 31
0.0
  0
LINE
  5
1E8
330
1F
100
AcDbEntity
  8
0
  6
Continuous
 62
     7
370
    15
100
AcDbLine
 10
72.63264013
 20
103.0365791839
 30
0.0
 11
71.8189712908
 21
114.6725856961
 31
0.0
  0
LINE
  5
1E9
330
1F
100
AcDbEntity
  8
0
  6
Continuous
 62
     7
370
    15
100
AcDbLine
 10
72.63264013
 20
103.0365791839
 30
0.0
 11
71.1481925292
 21
102.7293694492
 31
0.0
  0
LINE
  5
1EA
330
1F
100
AcDbEntity
  8
0
  6
Continuous
 62
     7
370
    15
100
AcDbLine
 10
71.1481925292
 20
102.7293694492
 30
0.0
 11
67.8959577745
 21
102.5368984684
 31
0.0
  0
LINE
  5
1EB
330
1F
100
AcDbEntity
  8
0
  6
Continuous
 62
     7
370
    15
100
AcDbLine
 10
67.8959577745
 20
102.5368984684
 30
0.0
 11
67.0562575933
 21
114.545170516
 31
0.0
  0
LINE
  5
1EC
330
1F
100
AcDbEntity
  8
0
  6
Continuous
 62
     7
370
    15
100
AcDbLine
 10
67.9262922349
 20
102.103095474
 30
0.0
 11
67.8959577745
 21
102.5368984684
 31
0.0
  0
LINE
  5
1ED
330
1F
100
AcDbEntity
  8
0
  6
Continuous
 62
     7
370
    15
100
AcDbLine
 10
70.308492348
 20
114.7376414968
 30
0.0
 11
67.3382025532
 21
114.8919367858
 31
0.0
  0
LINE
  5
1EE
330
1F
100
AcDbEntity
  8
0
  6
Continuous
 62
     7
370
    15
100
AcDbLine
 10
67.3327219952
 20
114.89222148
 30
0.0
 11
67.0308930525
 21
114.9079003488
 31
0.0
  0
LINE
  5
1EF
330
1F
100
AcDbEntity
  8
0
  6
Continuous
 62
     7
370
    15
100
AcDbLine
 10
67.0562575933
 20
114.545170516
 30
0.0
 11
67.0308930525
 21
114.9079003488
 31
0.0
  0
LINE
  5
1F0
330
1F
100
AcDbEntity
  8
0
  6
Continuous
 62
     7
370
    15
100
AcDbLine
 10
67.2592577486
 20
115.9428091527
 30
0.0
 11
66.9574288059
 21
115.9584880215
 31
0.0
  0
LINE
  5
1F1
330
1F
100
AcDbEntity
  8
0
  6
Continuous
 62
     7
370
    15
100
AcDbLine
 10
67.0308930525
 20
114.9079003488
 30
0.0
 11
66.9574288059
 21
115.9584880215
 31
0.0
  0
LINE
  5
1F2
330
1F
100
AcDbEntity
  8
0
  6
Continuous
 62
     7
370
    15
100
AcDbLine
 10
66.9574288059
 20
115.9584880215
 30
0.0
 11
66.9573226281
 21
115.9600064345
 31
0.0
  0
CIRCLE
  5
1F3
330
1F
100
AcDbEntity
  8
VERMASSUNG
  6
CENTERX2
100
AcDbCircle
 10
67.9262922349
 20
118.1539361933
 30
0.0
 40
15.99999999999999
  0
DIMENSION
  5
1F4
330
1F
100
AcDbEntity
  8
VERMASSUNG
100
AcDbDimension
  2
_D_6
 10
56.612583736
 20
106.8402276943
 30
0.0
 11
44.7404834874
 21
94.9681274458
 31
0.0
 70
   160
  1
%%c<> min. 
 71
     2
 42
-1.0
  3
SLDDIMSTYLE2
100
AcDbAlignedDimension
 13
79.2400007339
 23
129.4676446923
 33
0.0
 14
56.612583736
 24
106.8402276943
 34
0.0
 50
45.0
100
AcDbRotatedDimension
  0
DIMENSION
  5
203
330
1F
100
AcDbEntity
  8
VERMASSUNG
100
AcDbDimension
  2
_D_7
 10
67.9262922349
 20
91.603095474
 30
0.0
 11
58.5722086403
 21
148.9206781239
 31
0.0
 70
   162
  1
<>
 71
     1
 42
-1.0
  3
SLDDIMSTYLE3
100
AcDb2LineAngularDimension
 13
67.2346747485
 23
116.2943624329
 33
0.0
 14
67.3327254073
 24
114.8921726846
 34
0.0
 15
67.9262922349
 25
146.603095474
 35
0.0
 16
66.4069867382
 26
149.9109885993
 36
0.0
  0
INSERT
  5
21B
330
1F
100
AcDbEntity
  8
VERMASSUNG
100
AcDbBlockReference
  2
SW_CENTERMARKSYMBOL_0
 10
67.9262922349
 20
119.103095474
 30
0.0
  0
OLE2FRAME
  5
21C
330
1F
100
AcDbEntity
  8
0
100
AcDbOle2Frame
 70
     2
  3
Paintbrush-Bild
 10
13.8511154363
 20
38.264191557
 30
0.0
 11
51.6290888628
 21
31.9806341108
 31
0.0
 71
     2
 72
     0
 73
     1
 90
    12928
310
80552BED0767C5B32B40DDAF6807D121434000000000000000006FFBDDFB85D0
310
4940DDAF6807D121434000000000000000006FFBDDFB85D04940416F4BD60AFB
310
3F4000000000000000002BED0767C5B32B40416F4BD60AFB3F40000000000000
310
0000000000000100000000010000010000000100000000000100000000320000
310
D0CF11E0A1B11AE1000000000000000000000000000000003E000300FEFF0900
310
0600000000000000000000000100000001000000000000000010000002000000
310
01000000FEFFFFFF0000000000000000FFFFFFFFFFFFFFFFFFFFFFFFFFFFFFFF
310
FFFFFFFFFFFFFFFFFFFFFFFFFFFFFFFFFFFFFFFFFFFFFFFFFFFFFFFFFFFFFFFF
310
FFFFFFFFFFFFFFFFFFFFFFFFFFFFFFFFFFFFFFFFFFFFFFFFFFFFFFFFFFFFFFFF
310
FFFFFFFFFFFFFFFFFFFFFFFFFFFFFFFFFFFFFFFFFFFFFFFFFFFFFFFFFFFFFFFF
310
FFFFFFFFFFFFFFFFFFFFFFFFFFFFFFFFFFFFFFFFFFFFFFFFFFFFFFFFFFFFFFFF
310
FFFFFFFFFFFFFFFFFFFFFFFFFFFFFFFFFFFFFFFFFFFFFFFFFFFFFFFFFFFFFFFF
310
FFFFFFFFFFFFFFFFFFFFFFFFFFFFFFFFFFFFFFFFFFFFFFFFFFFFFFFFFFFFFFFF
310
FFFFFFFFFFFFFFFFFFFFFFFFFFFFFFFFFFFFFFFFFFFFFFFFFFFFFFFFFFFFFFFF
310
FFFFFFFFFFFFFFFFFFFFFFFFFFFFFFFFFFFFFFFFFFFFFFFFFFFFFFFFFFFFFFFF
310
FFFFFFFFFFFFFFFFFFFFFFFFFFFFFFFFFFFFFFFFFFFFFFFFFFFFFFFFFFFFFFFF
310
FFFFFFFFFFFFFFFFFFFFFFFFFFFFFFFFFFFFFFFFFFFFFFFFFFFFFFFFFFFFFFFF
310
FFFFFFFFFFFFFFFFFFFFFFFFFFFFFFFFFFFFFFFFFFFFFFFFFFFFFFFFFFFFFFFF
310
FFFFFFFFFFFFFFFFFFFFFFFFFFFFFFFFFFFFFFFFFFFFFFFFFFFFFFFFFFFFFFFF
310
FFFFFFFFFFFFFFFFFFFFFFFFFFFFFFFFFFFFFFFFFFFFFFFFFFFFFFFFFFFFFFFF
310
FDFFFFFFFEFFFFFFFEFFFFFFFEFFFFFF05000000060000000700000008000000
310
090000000A0000000B0000000C0000000D0000000E0000000F00000010000000
310
11000000120000001300000014000000150000001600000017000000FEFFFFFF
310
FFFFFFFFFFFFFFFFFFFFFFFFFFFFFFFFFFFFFFFFFFFFFFFFFFFFFFFFFFFFFFFF
310
FFFFFFFFFFFFFFFFFFFFFFFFFFFFFFFFFFFFFFFFFFFFFFFFFFFFFFFFFFFFFFFF
310
FFFFFFFFFFFFFFFFFFFFFFFFFFFFFFFFFFFFFFFFFFFFFFFFFFFFFFFFFFFFFFFF
310
FFFFFFFFFFFFFFFFFFFFFFFFFFFFFFFFFFFFFFFFFFFFFFFFFFFFFFFFFFFFFFFF
310
FFFFFFFFFFFFFFFFFFFFFFFFFFFFFFFFFFFFFFFFFFFFFFFFFFFFFFFFFFFFFFFF
310
FFFFFFFFFFFFFFFFFFFFFFFFFFFFFFFFFFFFFFFFFFFFFFFFFFFFFFFFFFFFFFFF
310
FFFFFFFFFFFFFFFFFFFFFFFFFFFFFFFFFFFFFFFFFFFFFFFFFFFFFFFFFFFFFFFF
310
FFFFFFFFFFFFFFFFFFFFFFFFFFFFFFFFFFFFFFFFFFFFFFFFFFFFFFFFFFFFFFFF
310
FFFFFFFFFFFFFFFFFFFFFFFFFFFFFFFFFFFFFFFFFFFFFFFFFFFFFFFFFFFFFFFF
310
FFFFFFFFFFFFFFFFFFFFFFFFFFFFFFFFFFFFFFFFFFFFFFFFFFFFFFFFFFFFFFFF
310
FFFFFFFFFFFFFFFFFFFFFFFFFFFFFFFFFFFFFFFFFFFFFFFFFFFFFFFFFFFFFFFF
310
FFFFFFFFFFFFFFFFFFFFFFFFFFFFFFFFFFFFFFFFFFFFFFFFFFFFFFFFFFFFFFFF
310
FFFFFFFFFFFFFFFFFFFFFFFFFFFFFFFFFFFFFFFFFFFFFFFFFFFFFFFFFFFFFFFF
310
52006F006F007400200045006E00740072007900000000000000000000000000
310
0000000000000000000000000000000000000000000000000000000000000000
310
16000500FFFFFFFFFFFFFFFF020000000A00030000000000C000000000000046
310
000000000000000000000000A02CB6345542CD0103000000C000000000000000
310
01004F006C006500000000000000000000000000000000000000000000000000
310
0000000000000000000000000000000000000000000000000000000000000000
310
0A000200FFFFFFFFFFFFFFFFFFFFFFFF00000000000000000000000000000000
310
0000000000000000000000000000000000000000000000001400000000000000
310
010043006F006D0070004F0062006A0000000000000000000000000000000000
310
0000000000000000000000000000000000000000000000000000000000000000
310
120002010100000003000000FFFFFFFF00000000000000000000000000000000
310
0000000000000000000000000000000000000000010000004D00000000000000
310
01004F006C006500310030004E00610074006900760065000000000000000000
310
0000000000000000000000000000000000000000000000000000000000000000
310
1A000200FFFFFFFFFFFFFFFFFFFFFFFF00000000000000000000000000000000
310
0000000000000000000000000000000000000000040000002426000000000000
310
FEFFFFFF02000000FEFFFFFFFFFFFFFFFFFFFFFFFFFFFFFFFFFFFFFFFFFFFFFF
310
FFFFFFFFFFFFFFFFFFFFFFFFFFFFFFFFFFFFFFFFFFFFFFFFFFFFFFFFFFFFFFFF
310
FFFFFFFFFFFFFFFFFFFFFFFFFFFFFFFFFFFFFFFFFFFFFFFFFFFFFFFFFFFFFFFF
310
FFFFFFFFFFFFFFFFFFFFFFFFFFFFFFFFFFFFFFFFFFFFFFFFFFFFFFFFFFFFFFFF
310
FFFFFFFFFFFFFFFFFFFFFFFFFFFFFFFFFFFFFFFFFFFFFFFFFFFFFFFFFFFFFFFF
310
FFFFFFFFFFFFFFFFFFFFFFFFFFFFFFFFFFFFFFFFFFFFFFFFFFFFFFFFFFFFFFFF
310
FFFFFFFFFFFFFFFFFFFFFFFFFFFFFFFFFFFFFFFFFFFFFFFFFFFFFFFFFFFFFFFF
310
FFFFFFFFFFFFFFFFFFFFFFFFFFFFFFFFFFFFFFFFFFFFFFFFFFFFFFFFFFFFFFFF
310
FFFFFFFFFFFFFFFFFFFFFFFFFFFFFFFFFFFFFFFFFFFFFFFFFFFFFFFFFFFFFFFF
310
FFFFFFFFFFFFFFFFFFFFFFFFFFFFFFFFFFFFFFFFFFFFFFFFFFFFFFFFFFFFFFFF
310
FFFFFFFFFFFFFFFFFFFFFFFFFFFFFFFFFFFFFFFFFFFFFFFFFFFFFFFFFFFFFFFF
310
FFFFFFFFFFFFFFFFFFFFFFFFFFFFFFFFFFFFFFFFFFFFFFFFFFFFFFFFFFFFFFFF
310
FFFFFFFFFFFFFFFFFFFFFFFFFFFFFFFFFFFFFFFFFFFFFFFFFFFFFFFFFFFFFFFF
310
FFFFFFFFFFFFFFFFFFFFFFFFFFFFFFFFFFFFFFFFFFFFFFFFFFFFFFFFFFFFFFFF
310
FFFFFFFFFFFFFFFFFFFFFFFFFFFFFFFFFFFFFFFFFFFFFFFFFFFFFFFFFFFFFFFF
310
FFFFFFFFFFFFFFFFFFFFFFFFFFFFFFFFFFFFFFFFFFFFFFFFFFFFFFFFFFFFFFFF
310
0100000200000000000000000000000000000000000000000000000000000000
310
0000000000000000000000000000000000000000000000000000000000000000
310
0100FEFF030A0000FFFFFFFF0A00030000000000C00000000000004607000000
310
5042727573680007000000504272757368000700000050427275736800F439B2
310
7100000000000000000000000000000000000000000000000000000000000000
310
0000000000000000000000000000000000000000000000000000000000000000
310
0000000000000000000000000000000000000000000000000000000000000000
310
0000000000000000000000000000000000000000000000000000000000000000
310
0000000000000000000000000000000000000000000000000000000000000000
310
0000000000000000000000000000000000000000000000000000000000000000
310
0000000000000000000000000000000000000000000000000000000000000000
310
0000000000000000000000000000000000000000000000000000000000000000
310
0000000000000000000000000000000000000000000000000000000000000000
310
0000000000000000000000000000000000000000000000000000000000000000
310
0000000000000000000000000000000000000000000000000000000000000000
310
0000000000000000000000000000000000000000000000000000000000000000
310
20260000424D0E260000000000003E00000028000000B40200006E0000000100
310
01000000000000000000130B0000130B00000200000002000000000000FFFFFF
310
FFFFFFFFFFFFFFFFFFFFFFFFFFFFFFFFFFFFFFFFFFFFFFFFFFFFFFFFFFFFFFFF
310
FFFFFFFFFFFFFFFFFFFFFFFFFFFFFFFFFFFFFFFFFFFFFFFFFFFFFFFFFFFFFFFF
310
FFFFFFFFFFFFFFFFFFFFFFFFFFFFFFFFFFFFFFFFFFFFFFFFF000FFFFFFFFFFFF
310
FFFFFFFFFFFFFFFFFFFFFFFFFFFFFFFFFFFFFFFFFFFFFFFFFFFFFFFFFFFFFFFF
310
FFFFFFFFFFFFFFFFFFFFFFFFFFFFFFFFFFFFFFFFFFFFFFFFFFFFFFFFFFFFFFFF
310
FFFFFFFFFFFFFFFFFFFFFFFFFFFFFFFFF000FFFFFFFFFFFFFFFFFFFFFFFFFFFF
310
FFFFFFFFFFFFFFFFFFFFFFFFFFFFFFFFFFFFFFFFFFFFFFFFFFFFFFFFFFFFFFFF
310
FFFFFFFFFFFFFFFFFFFFFFFFFFFFFFFFFFFFFFFFFFFFFFFFFFFFFFFFFFFFFFFF
310
FFFFFFFFFFFFFFFFF000FFFFFFFFFFFFFFFFFFFFFFFFFFFFFFFFFFFFFFFFFFFF
310
FFFFFFFFFFFFFFFFFFFFFFFFFFFFFFFFFFFFFFFFFFFFFFFFFFFFFFFFFFFFFFFF
310
FFFFFFFFFFFFFFFFFFFFFFFFFFFFFFFFFFFFFFFFFFFFFFFFFFFFFFFFFFFFFFFF
310
F000FFFFFFFFFFFFFFFFFFFFFFFFFFFFFFFFFFFFFFFFFFFFFFFFFFFFFFFFFFFF
310
FFFFFFFFFFFFFFFFFFFFFFFFFFFFFFFFFFFFFFFFFFFFFFFFFFFFFFFFFFFFFFFF
310
FFFFFFFFFFFFFFFFFFFFFFFFFFFFFFFFFFFFFFFFFFFFFFFFF000FFFFFFFFFFFF
310
FFFFFFFFFFFFFFFFFFFFFFFFFFFFFFFFFFFFFFFFFFFFFFFFFFFFFFFFFFFFFFFF
310
FFFFFFFFFFFFFFFFFFFFFFFFFFFFFFFFFFFFFFFFFFFFFFFFFFFFFFFFFFFFFFFF
310
FFFFFFFFFFFFFFFFFFFFFFFFFFFFFFFFF000FFFFFFFFFFFFFFFFFFFFFFFFFFFF
310
FFFFFFFFFFFFFFFFFFFFFFFFFFFFFFFFFFFFFFFFFFFFFFFFFFFFFFFFFFFFFFFF
310
FFFFFFFFFFFFFFFFFFFFFFFFFFFFFFFFFFFFFFFFFFFFFFFFFFFFFFFFFFFFFFFF
310
FFFFFFFFFFFFFFFFF000FFFFFFFFFFFFFFFFFFFFFFFFFFFFFFFFFFFFFFFFFFFF
310
FFFFFFFFFFFFFFFFFFFFFFFFFFFFFFFFFFFFFFFFFFFFFFFFFFFFFFFFFFFFFFFF
310
FFFFFFFFFFFFFFFFFFFFFFFFFFFFFFFFFFFFFFFFFFFFFFFFFFFFFFFFFFFFFFFF
310
F000FFFFFFFFFFFFFFFFFFFFFFFFFFFFFFFFFFFFFFFFFFFFFFFFFFFFFFFFFFFF
310
FFFFFFFFFFFFFFFFFFFFFFFFFFFFFFFFFFFFFFFFFFFFFFFFFFFFFFFFFFFFFFFF
310
FFFFFFFFFFFFFFFFFFFFFFFFFFFFFFFFFFFFFFFFFFFFFFFFF000FFFFFFFFFFFF
310
FFFFFFFFFFFFFFFFFFFFFFFFFFFFFFFFFFFFFFFFFFFFFFFFFFFFFFFFFFFFFFFF
310
FFFFFFFFFFFFFFFFFFFFFFFFFFFFFFFFFFFFFFFFFFFFFFFFFFFFFFFFFFFFFFFF
310
FFFFFFFFFFFFFFFFFFFFFFFFFFFFFFFFF000FFFFFFFFFFFFFFFFFFFFFFFFFFFF
310
FFFFFFFFFFFFFFFFFFFFFFFFFFFFFFFFFFFFFFFFFFFFFFFFFFFFFFFFFFFFFFFF
310
FFFFFFFFFFFFFFFFFFFFFFFFFFFFFFFFFFFFFFFFFFFFFFFFFFFFFFFFFFFFFFFF
310
FFFFFFFFFFFFFFFFF000FFFFFFFFFFFFFFFFFFFFFFFFFFFFFFFFFFFFFFFFFFFF
310
FFFFFFFFFFFFFFFFFFFFFFFFFFFFFFFFFFFFFFFFFFFFFFFFFFFFFFFFFFFFFFFF
310
FFFFFFFFFFFFFFFFFFFFFFFFFFFFFFFFFFFFFFFFFFFFFFFFFFFFFFFFFFFFFFFF
310
F000FFFFFFFFFFFFFFFFFFFFFFFFFFFFFFFFFFFFFFFFFFFFFFFFFFFFFFFFFFFF
310
FFFFFFFFFFFFFFFFFFFFFFFFFFFFFFFFFFFFFFFFFFFFFFFFFFFFFFFFFFFFFFFF
310
FFFFFFFFFFFFFFFFFFFFFFFFFFFFFFFFFFFFFFFFFFFFFFFFF000FFFFFFFFFFFF
310
FFFFFFFFFFFFFFFFFFFFFFFFFFFFFFFFFFFFFFFFFFFFFFFFFFFFFFFFFFFFFFFF
310
FFFFFFFFFFFFFFFFFFFFFFFFFFFFFFFFFFFFFFFFFFFFFFFFFFFFFFFFFFFFFFFF
310
FFFFFFFFFFFFFFFFFFFFFFFFFFFFFFFFF000FFFFFFFFFFFFFFFFFFFFFFFFFFFF
310
FFFFFFFFFFFFFFFFFFFFFFFFFFFFFFFFFFFFFFFFFFFFFFFFFFFFFFFFFFFFFFFF
310
FFFFFFFFFFFFFFFFFFFFFFFFFFFFFFFFFFFFFFFFFFFFFFFFFFFFFFFFFFFFFFFF
310
FFFFFFFFFFFFFFFFF000FFFFFFFFFFFFFFFFFFFFFFFFFFFFFFFFFFFFFFFFFFFF
310
FFFFFFFFFFFFFFFFFFFFFFFFFFFFFFFFFFFFFFFFFFFFFFFFFFFFFFFFFFFFFFFF
310
FFFFFFFFFFFFFFFFFFFFFFFFFFFFFFFFFFFFFFFFFFFFFFFFFFFFFFFFFFFFFFFF
310
F000FFFFFFFFFFFFFFFFFFFFFFFFFFFFFFFFFFFFFFFFFFFFFFFFFFFFFFFFFFFF
310
FFFFFFFFFFFFFFFFFFFFFFFFFFFFFFFFFFFFFFFFFFFFFFFFFFFFFFFFFFFFFFFF
310
FFFFFFFFFFFFFFFFFFFFFFFFFFFFFFFFFFFFFFFFFFFFFFFFF000FFFFFFFFFFFF
310
FFFFFFFFFFFFFFFFFFFFFFFFFFFFFFFFFFFFFFFFFFFFFFFFFFFFFFFFFFFFFFFF
310
FFFFFFFFFFFFFFFFFFFFFFFFFFFFFFFFFFFFFFFFFFFFFFFFFFFFFFFFFFFFFFFF
310
FFFFFFFFFFFFFFFFFFFFFFFFFFFFFFFFF000FFFFFFFFFFFFFFFFFFFFFFFFFFFF
310
FFFFFFFFFFFFFFFFFFFFFFFFFFFFFFFFFFFFFFFFFFFFFFFFFFFFFFFFFFFFFFFF
310
FFFFFFFFFFFFFFFFFFFFFFFFFFFFFFFFFFFFFFFFFFFFFFFFFFFFFFFFFFFFFFFF
310
FFFFFFFFFFFFFFFFF000FFFFF80003FFFFFFFFFFFFFFFFFFFFFFFFFFFFFFFFFF
310
FFFFF00007FFFFFFFFFF00007FFFFFF800000000000000007FFFFFFFFFFFFFFF
310
FFFFFFFC001FFFFFFFFFFFFFFC001FFFFFFFFFFFFFFFFFFFFFFFFFFE0007FFFF
310
F000FFFF8000007FFFFFFFF8000FFFFFC0007FFFFF80007FFFFF0000007FFFFF
310
FFF8000007FFFFF800000000000000007FFFFFF0001FFFFFFFFFFFC00001FFFF
310
FFFFFFFFC00001FFFFFFFF000000000003FFFFE000007FFFF000FFFE0000000F
310
FFFFFFF0000FFFFF80007FFFFF80007FFFFC0000001FFFFFFFC0000001FFFFF8
310
00000000000000007FFFFFF0001FFFFFFFFFFE0000003FFFFFFFFFFE0000003F
310
FFFFFF000000000003FFFF0000000FFFF000FFF800000003FFFFFFF00007FFFF
310
80007FFFFF80007FFFF000000007FFFFFF000000003FFFF80000000000000000
310
7FFFFFF0001FFFFFFFFFF80000000FFFFFFFFFF80000000FFFFFFF0000000000
310
03FFFC00000003FFF000FFE000000000FFFFFFF00007FFFF80003FFFFF80007F
310
FFC000000001FFFFFC000000001FFFF800000000000000007FFFFFF0001FFFFF
310
FFFFE000000003FFFFFFFFE000000003FFFFFF000000000003FFF000000000FF
310
F000FF80000000007FFFFFF00007FFFF80003FFFFF80007FFF8000000000FFFF
310
F80000000007FFF800000000000000007FFFFFF0001FFFFFFFFFC000000001FF
310
FFFFFFC000000001FFFFFF000000000003FFC0000000007FF000FF0000000000
310
3FFFFFE00007FFFF00003FFFFF80007FFE00000000003FFFF00000000003FFF8
310
00000000000000007FFFFFF0001FFFFFFFFF8000000000FFFFFFFF8000000000
310
FFFFFF000000000003FF80000000003FF000FE00000000001FFFFFE00003FFFF
310
00003FFFFF80007FFC00000000001FFFE00000000001FFF8000001FFFE000000
310
7FFFFFF0001FFFFFFFFE00000000003FFFFFFE00000000003FFFFF0000000000
310
03FF00000000001FF000FC00000000000FFFFFE00003FFFF00001FFFFF80007F
310
F800000000001FFFC00000000000FFF8000001FFFE0000007FFFFFF0001FFFFF
310
FFFC00000000001FFFFFFC00000000001FFFFF000000000003FE00000000000F
310
F000F8000000000007FFFFE00003FFFF00001FFFFF80007FF800000000000FFF
310
800000000000FFF8000001FFFE0000007FFFFFF0001FFFFFFFF800000000000F
310
FFFFF800000000000FFFFF000000000003FC000000000007F000F80000000000
310
03FFFFC00003FFFE00001FFFFF80007FF0000000000007FF0000000000007FF8
310
000001FFFE0000007FFFFFF0001FFFFFFFF0000000000007FFFFF00000000000
310
07FFFF000000000003F8000000000003F000F0000000000003FFFFC00001FFFE
310
00001FFFFF80007FE0000000000007FE0000000000003FF8000001FFFE000000
310
7FFFFFF0001FFFFFFFF0000000000007FFFFF0000000000007FFFF0000000000
310
03F800001F800003F000E00001FFF00001FFFFC00001FFFE00000FFFFF80007F
310
E00001FFE00003FE00001FFF00003FF8000001FFFE0000007FFFFFF0001FFFFF
310
FFE000003E000003FFFFE000003E000003FFFF000000000003F00001FFF80001
310
F000E00007FFFC0001FFFFC00001FFFE00000FFFFF80007FC0000FFFFC0003FC
310
0000FFFFC0001FF8000001FFFE0000007FFFFFF0001FFFFFFFC00003FFE00001
310
FFFFC00003FFE00001FFFF0001FFFFFFFFF00007FFFE0001F000E0000FFFFF00
310
00FFFF800001FFFC00000FFFFF80007FC0001FFFFE0001FC0001FFFFE0001FF8
310
000001FFFE0000007FFFFFF0001FFFFFFF80000FFFF80000FFFF80000FFFF800
310
00FFFF0003FFFFFFFFE0000FFFFF8000F000C0003FFFFF8000FFFF800000FFFC
310
000007FFFF80007F80003FFFFF0001FC0003FFFFF0001FF8000001FFFE000000
310
7FFFFFF0001FFFFFFF80003FFFFE0000FFFF80003FFFFE0000FFFF0003FFFFFF
310
FFE0003FFFFF8000F000C0003FFFFF8000FFFF800000FFFC000007FFFF80007F
310
80007FFFFF8001F80007FFFFF8000FF8000001FFFE0000007FFFFFF0001FFFFF
310
FF00007FFFFF00007FFF00007FFFFF00007FFF0003FFFFFFFFE0003FFFFFC000
310
F000C0007FFFFFC000FFFF000000FFFC000007FFFF80007F8000FFFFFF8000F8
310
000FFFFFF8000FF8000001FFFE0000007FFFFFF0001FFFFFFF0000FFFFFF8000
310
7FFF0000FFFFFF80007FFF0003FFFFFFFFC0007FFFFFC00070008000FFFFFFC0
310
00FFFF000000FFF8000007FFFF80007F8000FFFFFF8000F8000FFFFFF8000FF8
310
000001FFFE0000007FFFFFF0001FFFFFFE0001FFFFFFC0003FFE0001FFFFFFC0
310
003FFF0003FFFFFFFFC0007FFFFFE00070008000FFFFFFC0007FFF0000007FF8
310
000003FFFF80007F0001FFFFFF8000F8000FFFFFF8000FF8000001FFFE000000
310
7FFFFFF0001FFFFFFE0001FFFFFFC0003FFE0001FFFFFFC0003FFF0003FFFFFF
310
FFC000FFFFFFE00070008000FFFFFFC0007FFF0000007FF8000003FFFF80007F
310
0001FFFFFF8000F8001FFFFFF8000FF8000001FFFE0000007FFFFFF0001FFFFF
310
FE0003FFFFFFE0003FFE0003FFFFFFE0003FFF0003FFFFFFFFC000FFFFFFE000
310
70008000FFFFFFC0007FFE0000007FF8000003FFFF80007F0001FFFFFF8000F0
310
001FFFFFF8000FF8000001FFFE0000007FFFFFF0001FFFFFFC0003FFFFFFE000
310
1FFC0003FFFFFFE0001FFF0003FFFFFFFFC000FFFFFFC00070008000FFFFFF80
310
007FFE0000007FF0000003FFFF80007F0001FFFFFF0000F0001FFFFFF8000FF8
310
000001FFFE0000007FFFFFF0001FFFFFFC0007FFFFFFF0001FFC0007FFFFFFF0
310
001FFF0003FFFFFFFFC000FFFFFFC00070008001FFFFFF0000FFFE0000003FF0
310
000001FFFF80007F0001FFFFFF0000F8001FFFFFF0000FF8000001FFFE000000
310
7FFFFFF0001FFFFFFC0007FFFFFFF0001FFC0007FFFFFFF0001FFF0003FFFFFF
310
FFC001FFFFFF80007000FFFFFFFFFE0000FFFE0008003FF0008001FFFF80007F
310
FFFFFFFFFC0000FFFFFFFFFFE0000FF8000001FFFE0000007FFFFFF0001FFFFF
310
F8000FFFFFFFF8000FF8000FFFFFFFF8000FFF0003FFFFFFFFFFFFFFFFFF0000
310
7000FFFFFFFFFC0000FFFC0008003FF0008001FFFF80007FFFFFFFFFF80001FF
310
FFFFFFFF80000FF8000001FFFE0000007FFFFFF0001FFFFFF8000FFFFFFFF800
310
0FF8000FFFFFFFF8000FFF0003FFFFFFFFFFFFFFFFFE0000F000FFFFFFFFE000
310
00FFFC000C003FE000C001FFFF80007FFFFFFFFFC00001FFFFFFFFFE00001FF8
310
000001FFFE0000007FFFFFF0001FFFFFF8000FFFFFFFF8000FF8000FFFFFFFF8
310
000FFF0003FFFFFFFFFFFFFFFFF00000F000FFFFFFFE000001FFFC000C001FE0
310
00C000FFFF80007FFFFFFFFE000001FFFFFFFFE000001FF80FFFFFFFFFFFFFC0
310
7FFFFFF0001FFFFFF8000FFFFFFFF8000FF8000FFFFFFFF8000FFF0003FFFFFF
310
FFFFFFFFFF800000F000FFFFFFC0000001FFFC001C001FE001C000FFFF80007F
310
FFFFFF80000003FFFFFFF80000001FF80FFFFFFFFFFFFFC07FFFFFF0001FFFFF
310
F8001FFFFFFFFC000FF8001FFFFFFFFC000FFF0003FFFFFFFFFFFFFFF0000001
310
F000FFFFF800000001FFF8001C001FE001C000FFFF80007FFFFFF800000003FF
310
FFFF800000003FF80FFFFFFFFFFFFFC07FFFFFF0001FFFFFF8001FFFFFFFFC00
310
0FF8001FFFFFFFFC000FFF0003FFFFFFFFFFFFFE00000001F000FFFFC0000000
310
03FFF8001E001FC001E000FFFF80007FFFFF8000000007FFFFFC000000003FF8
310
0FFFFFFFFFFFFFC07FFFFFF0001FFFFFF8001FFFFFFFFC000FF8001FFFFFFFFC
310
000FFF0003FFFFFFFFFFFFE000000003F000FFFE0000000007FFF8001E000FC0
310
01E0007FFF80007FFFFE0000000007FFFFE0000000007FF80FFFFFFFFFFFFFC0
310
7FFFFFF0001FFFFFF0001FFFFFFFFC0007F0001FFFFFFFFC0007FF0003FFFFFF
310
FFFFFF0000000003F000FFF80000000007FFF8001E000FC003E0007FFF80007F
310
FFF0000000000FFFFF8000000000FFF80FFFFFFFFFFFFFC07FFFFFF0001FFFFF
310
F0001FFFFFFFFC0007F0001FFFFFFFFC0007FF0003FFFFFFFFFFFC0000000007
310
F000FFE0000000000FFFF0003E000FC003E0007FFF80007FFFC0000000001FFF
310
FE0000000001FFF80FFFFFFFFFFFFFC07FFFFFF0001FFFFFF0001FFFFFFFFC00
310
07F0001FFFFFFFFC0007FF0003FFFFFFFFFFF0000000000FF000FFC000000000
310
1FFFF0003F000F8003F0003FFF80007FFF80000000003FFFF80000000003FFF8
310
0FFFFFFFFFFFFFC07FFFFFF0001FFFFFF0001FFFFFFFFC0007F0001FFFFFFFFC
310
0007FF0003FFFFFFFFFFE0000000001FF000FF00000000007FFFF0003F000780
310
03F0003FFF80007FFF00000000007FFFF00000000007FFF80FFFFFFFFFFFFFC0
310
7FFFFFF0001FFFFFF0001FFFFFFFFC0007F0001FFFFFFFFC0007FF0003FFFFFF
310
FFFF80000000007FF000FE0000000000FFFFE0003F00078007F0003FFF80007F
310
FE0000000001FFFFE0000000001FFFF80FFFFFFFFFFFFFC07FFFFFF0001FFFFF
310
F0001FFFFFFFFC0007F0001FFFFFFFFC0007FF0003FFFFFFFFFF0000000000FF
310
F000FC0000000003FFFFE0007F00078007F0003FFF80007FFC0000000007FFFF
310
C0000000007FFFF80FFFFFFFFFFFFFC07FFFFFF0001FFFFFF8001FFFFFFFFC00
310
0FF8001FFFFFFFFC000FFF0003FFFFFFFFFE0000000003FFF000FC000000000F
310
FFFFE0007F80070007F8001FFF80007FF8000000001FFFFF8000000001FFFFF8
310
0FFFFFFFFFFFFFC07FFFFFF0001FFFFFF8001FFFFFFFFC000FF8001FFFFFFFFC
310
000FFF0003FFFFFFFFFC000000000FFFF000F8000000007FFFFFE0007F800700
310
07F8001FFF80007FF000000000FFFFFF800000000FFFFFF80FFFFFFFFFFFFFC0
310
7FFFFFF0001FFFFFF8000FFFFFFFF8000FF8000FFFFFFFF8000FFF0003FFFFFF
310
FFFC000000007FFFF000F800000007FFFFFFC0007F8003000FF8001FFF80007F
310
F000000007FFFFFF000000007FFFFFF80FFFFFFFFFFFFFC07FFFFFF0001FFFFF
310
F8000FFFFFFFF8000FF8000FFFFFFFF8000FFF0003FFFFFFFFF80000000FFFFF
310
F000F0000000FFFFFFFFC000FF8003000FF8001FFF80007FE0000000FFFFFFFF
310
0000000FFFFFFFF8000001FFFE0000007FFFFFF0001FFFFFF8000FFFFFFFF800
310
0FF8000FFFFFFFF8000FFF0003FFFFFFFFF8000000FFFFFFF000F000000FFFFF
310
FFFFC000FFC002000FF8000FFF80007FE000001FFFFFFFFE000001FFFFFFFFF8
310
000001FFFE0000007FFFFFF0001FFFFFF8000FFFFFFFF8000FF8000FFFFFFFF8
310
000FFF0003FFFFFFFFF000001FFFFFFFF000E00000FFFFFFFFFFC000FFC00200
310
0FFC000FFF80007FE00001FFFFFFFFFE00001FFFFFFFFFF8000001FFFE000000
310
7FFFFFF0001FFFFFFC000FFFFFFFF8001FFC000FFFFFFFF8001FFF0003FFFFFF
310
FFF00001FFFFFFFFF000E00007FFFFFFFFFF8000FFC000001FFC000FFF80007F
310
C0000FFFFFFFFFFE0000FFFFFFFFFFF8000001FFFE0000007FFFFFF0001FFFFF
310
FC0007FFFFFFF0001FFC0007FFFFFFF0001FFF0003FFFFFFFFF00007FFFFFFFF
310
F000E0001FFFFFFFFFFF8000FFC000001FFC000FFF80007FC0003FFFFFFFFFFE
310
0001FFFFFFFFFFF8000001FFFE0000007FFFFFF0001FFFFFFC0007FFFFFFF000
310
1FFC0007FFFFFFF0001FFF0003FFFFFFFFF0001FFFFFFFFFF000E0003FFFFF00
310
03FF8001FFE000001FFC0007FF80007FC0007FFFFF0007FC0003FFFFF0003FF8
310
000001FFFE0000007FFFFFF0001FFFFFFC0003FFFFFFE0001FFC0003FFFFFFE0
310
001FFF0003FFFFFFFFF0003FFFFFFFFFF000E0003FFFFF0001FF8001FFE00000
310
1FFE0007FF80007FC0007FFFFE0003FC0007FFFFE0003FF8000001FFFE000000
310
7FFFFFF0001FFFFFFE0003FFFFFFE0003FFE0003FFFFFFE0003FFF0003FFFFFF
310
FFF0003FFFFF8001F000E0003FFFFF0001FF0001FFE000001FFE0007FF80007F
310
C0007FFFFE0003FC0007FFFFE0003FF8000001FFFE0000007FFFFFF0001FFFFF
310
FE0001FFFFFFC0003FFE0001FFFFFFC0003FFF0003FFFFFFFFF0003FFFFF0001
310
F000E0003FFFFF0003FF0001FFE000003FFE0007FF80007FC0007FFFFE0003FC
310
0007FFFFE0003FF8000001FFFE0000007FFFFFF0001FFFFFFF0001FFFFFFC000
310
7FFF0001FFFFFFC0007FFF0003FFFFFFFFF0003FFFFF0001F000E0003FFFFE00
310
03FF0003FFF000003FFE0003FF80007FC0007FFFFC0003FE0007FFFFE0003FF8
310
000001FFFE0000007FFFFFF0001FFFFFFF0000FFFFFF80007FFF0000FFFFFF80
310
007FFF0003FFFFFFFFF0003FFFFF0001F000E0003FFFFE0003FF0003FFF00000
310
3FFF0003FF80007FC0007FFFFC0007FE0007FFFFC0003FF8000001FFFE000000
310
7FFFFFF0001FFFFFFF80007FFFFF0000FFFF80007FFFFF0000FFFF0003FFFFFF
310
FFF0003FFFFF0003F000E0003FFFFC0003FE0003FFF000003FFF0003FF80007F
310
E0003FFFF80007FE0003FFFFC0007FF8000001FFFE0000007FFFFFF0001FFFFF
310
FF80003FFFFE0000FFFF80003FFFFE0000FFFF0003FFFFFFFFF0001FFFFE0003
310
F000F0001FFFF80003FE0003FFF000007FFF0001FF80007FE0003FFFF00007FE
310
0001FFFF80007FF8000001FFFE0000007FFFFFF0001FFFFFFFC0000FFFF80001
310
FFFFC0000FFFF80001FFFF0003FFFFFFFFF0001FFFFC0003F000F0000FFFF000
310
07FE0007FFF800007FFF0001FF80007FE0001FFFE00007FF0000FFFE00007FF8
310
000001FFFE0000007FFFFFF0001FFFFFFFC00003FFE00001FFFFC00003FFE000
310
01FFFF0003FFFFFFFFF8000FFFF80003F000F00003FFC00007FC0007FFF80000
310
7FFF8001FF80007FF00007FF80000FFF00007FF80000FFF8000001FFFE000000
310
7F80000000000001FFE000003E000003FFFFE000003E000003FFFF0003FFFFFF
310
FFF80003FFE00007F000F800000000000FFC0007FFF800007FFF8001FF80007F
310
F000000000000FFF000000000000FFF8000001FFFE0000007F80000000000001
310
FFF0000000000007FFFFF0000000000007FFFF0003FFFFFFFFFC00007E000007
310
F000F800000000000FFC0007FFF80000FFFF8000FF80007FF800000000001FFF
310
800000000001FFF8000001FFFE0000007F80000000000001FFF800000000000F
310
FFFFF800000000000FFFFF0003FFFFFFFFFC00000000000FF000FC0000000000
310
1FFC0007FFFC0000FFFF8000FF80007FF800000000003FFFC00000000001FFF8
310
000001FFFE0000007F80000000000001FFF800000000000FFFFFF80000000000
310
0FFFFF0003FFFFFFFFFE00000000001FF000FE00000000003FF8000FFFFC0000
310
FFFF8000FF80007FFC00000000003FFFC00000000003FFF8000001FFFE000000
310
7F80000000000001FFFC00000000001FFFFFFC00000000001FFFFF0003FFFFFF
310
FFFF00000000001FF000FF00000000003FF8000FFFFC0000FFFFC000FF80007F
310
FE00000000007FFFE00000000007FFF8000001FFFE0000007F80000000000001
310
FFFE00000000003FFFFFFE00000000003FFFFF0003FFFFFFFFFF80000000003F
310
F000FF80000000007FF8000FFFFC0001FFFFC0007F80007FFF0000000000FFFF
310
F0000000000FFFF800000000000000007F80000000000001FFFF8000000000FF
310
FFFFFF8000000000FFFFFF0003FFFFFFFFFFC0000000007FF000FFC000000000
310
FFF8000FFFFE0001FFFFC0007F80007FFF8000000001FFFFF8000000001FFFF8
310
00000000000000007F80000000000001FFFFC000000001FFFFFFFFC000000001
310
FFFFFF0003FFFFFFFFFFE000000000FFF000FFE000000003FFF0001FFFFE0001
310
FFFFC0007F80007FFFC000000007FFFFFE000000003FFFF80000000000000000
310
7F80000000000001FFFFE000000003FFFFFFFFE000000003FFFFFF0003FFFFFF
310
FFFFF000000003FFF000FFF80000000FFFF0001FFFFE0001FFFFE0007F80007F
310
FFF00000000FFFFFFF00000000FFFFF800000000000000007F80000000000001
310
FFFFF80000000FFFFFFFFFF80000000FFFFFFF0003FFFFFFFFFFFC0000000FFF
310
F000FFFE0000003FFFF0001FFFFE0003FFFFE0003F80007FFFFC0000003FFFFF
310
FFC0000003FFFFF800000000000000007F80000000000001FFFFFE0000003FFF
310
FFFFFFFE0000003FFFFFFF0003FFFFFFFFFFFF0000003FFFF000FFFF800000FF
310
FFF0001FFFFF0003FFFFE0003F80007FFFFF000001FFFFFFFFF800001FFFFFF8
310
00000000000000007F80000000000001FFFFFFC00001FFFFFFFFFFFFC00001FF
310
FFFFFF0003FFFFFFFFFFFFC00000FFFFF000FFFFF8000FFFFFFFFFFFFFFFFFFF
310
FFFFFFFFFFFFFFFFFFFFF0001FFFFFFFFFFF0000FFFFFFF80000000000000000
310
7FFFFFFFFFFFFFFFFFFFFFFC001FFFFFFFFFFFFFFC001FFFFFFFFFFFFFFFFFFF
310
FFFFFFFC001FFFFFF000FFFFFFFFFFFFFFFFFFFFFFFFFFFFFFFFFFFFFFFFFFFF
310
FFFFFFFFFFFFFFFFFFFFFFFFFFFFFFFFFFFFFFFFFFFFFFFFFFFFFFFFFFFFFFFF
310
FFFFFFFFFFFFFFFFFFFFFFFFFFFFFFFFFFFFFFFFFFFFFFFFFFFFFFFFFFFFFFFF
310
F000FFFFFFFFFFFFFFFFFFFFFFFFFFFFFFFFFFFFFFFFFFFFFFFFFFFFFFFFFFFF
310
FFFFFFFFFFFFFFFFFFFFFFFFFFFFFFFFFFFFFFFFFFFFFFFFFFFFFFFFFFFFFFFF
310
FFFFFFFFFFFFFFFFFFFFFFFFFFFFFFFFFFFFFFFFFFFFFFFFF000FFFFFFFFFFFF
310
FFFFFFFFFFFFFFFFFFFFFFFFFFFFFFFFFFFFFFFFFFFFFFFFFFFFFFFFFFFFFFFF
310
FFFFFFFFFFFFFFFFFFFFFFFFFFFFFFFFFFFFFFFFFFFFFFFFFFFFFFFFFFFFFFFF
310
FFFFFFFFFFFFFFFFFFFFFFFFFFFFFFFFF000FFFFFFFFFFFFFFFFFFFFFFFFFFFF
310
FFFFFFFFFFFFFFFFFFFFFFFFFFFFFFFFFFFFFFFFFFFFFFFFFFFFFFFFFFFFFFFF
310
FFFFFFFFFFFFFFFFFFFFFFFFFFFFFFFFFFFFFFFFFFFFFFFFFFFFFFFFFFFFFFFF
310
FFFFFFFFFFFFFFFFF000FFFFFFFFFFFFFFFFFFFFFFFFFFFFFFFFFFFFFFFFFFFF
310
FFFFFFFFFFFFFFFFFFFFFFFFFFFFFFFFFFFFFFFFFFFFFFFFFFFFFFFFFFFFFFFF
310
FFFFFFFFFFFFFFFFFFFFFFFFFFFFFFFFFFFFFFFFFFFFFFFFFFFFFFFFFFFFFFFF
310
F000FFFFFFFFFFFFFFFFFFFFFFFFFFFFFFFFFFFFFFFFFFFFFFFFFFFFFFFFFFFF
310
FFFFFFFFFFFFFFFFFFFFFFFFFFFFFFFFFFFFFFFFFFFFFFFFFFFFFFFFFFFFFFFF
310
FFFFFFFFFFFFFFFFFFFFFFFFFFFFFFFFFFFFFFFFFFFFFFFFF000FFFFFFFFFFFF
310
FFFFFFFFFFFFFFFFFFFFFFFFFFFFFFFFFFFFFFFFFFFFFFFFFFFFFFFFFFFFFFFF
310
FFFFFFFFFFFFFFFFFFFFFFFFFFFFFFFFFFFFFFFFFFFFFFFFFFFFFFFFFFFFFFFF
310
FFFFFFFFFFFFFFFFFFFFFFFFFFFFFFFFF000FFFFFFFFFFFFFFFFFFFFFFFFFFFF
310
FFFFFFFFFFFFFFFFFFFFFFFFFFFFFFFFFFFFFFFFFFFFFFFFFFFFFFFFFFFFFFFF
310
FFFFFFFFFFFFFFFFFFFFFFFFFFFFFFFFFFFFFFFFFFFFFFFFFFFFFFFFFFFFFFFF
310
FFFFFFFFFFFFFFFFF000FFFFFFFFFFFFFFFFFFFFFFFFFFFFFFFFFFFFFFFFFFFF
310
FFFFFFFFFFFFFFFFFFFFFFFFFFFFFFFFFFFFFFFFFFFFFFFFFFFFFFFFFFFFFFFF
310
FFFFFFFFFFFFFFFFFFFFFFFFFFFFFFFFFFFFFFFFFFFFFFFFFFFFFFFFFFFFFFFF
310
F000FFFFFFFFFFFFFFFFFFFFFFFFFFFFFFFFFFFFFFFFFFFFFFFFFFFFFFFFFFFF
310
FFFFFFFFFFFFFFFFFFFFFFFFFFFFFFFFFFFFFFFFFFFFFFFFFFFFFFFFFFFFFFFF
310
FFFFFFFFFFFFFFFFFFFFFFFFFFFFFFFFFFFFFFFFFFFFFFFFF000FFFFFFFFFFFF
310
FFFFFFFFFFFFFFFFFFFFFFFFFFFFFFFFFFFFFFFFFFFFFFFFFFFFFFFFFFFFFFFF
310
FFFFFFFFFFFFFFFFFFFFFFFFFFFFFFFFFFFFFFFFFFFFFFFFFFFFFFFFFFFFFFFF
310
FFFFFFFFFFFFFFFFFFFFFFFFFFFFFFFFF000FFFFFFFFFFFFFFFFFFFFFFFFFFFF
310
FFFFFFFFFFFFFFFFFFFFFFFFFFFFFFFFFFFFFFFFFFFFFFFFFFFFFFFFFFFFFFFF
310
FFFFFFFFFFFFFFFFFFFFFFFFFFFFFFFFFFFFFFFFFFFFFFFFFFFFFFFFFFFFFFFF
310
FFFFFFFFFFFFFFFFF000FFFFFFFFFFFFFFFFFFFFFFFFFFFFFFFFFFFFFFFFFFFF
310
FFFFFFFFFFFFFFFFFFFFFFFFFFFFFFFFFFFFFFFFFFFFFFFFFFFFFFFFFFFFFFFF
310
FFFFFFFFFFFFFFFFFFFFFFFFFFFFFFFFFFFFFFFFFFFFFFFFFFFFFFFFFFFFFFFF
310
F000FFFFFFFFFFFFFFFFFFFFFFFFFFFFFFFFFFFFFFFFFFFFFFFFFFFFFFFFFFFF
310
FFFFFFFFFFFFFFFFFFFFFFFFFFFFFFFFFFFFFFFFFFFFFFFFFFFFFFFFFFFFFFFF
310
FFFFFFFFFFFFFFFFFFFFFFFFFFFFFFFFFFFFFFFFFFFFFFFFF000FFFFFFFFFFFF
310
FFFFFFFFFFFFFFFFFFFFFFFFFFFFFFFFFFFFFFFFFFFFFFFFFFFFFFFFFFFFFFFF
310
FFFFFFFFFFFFFFFFFFFFFFFFFFFFFFFFFFFFFFFFFFFFFFFFFFFFFFFFFFFFFFFF
310
FFFFFFFFFFFFFFFFFFFFFFFFFFFFFFFFF000FFFFFFFFFFFFFFFFFFFFFFFFFFFF
310
FFFFFFFFFFFFFFFFFFFFFFFFFFFFFFFFFFFFFFFFFFFFFFFFFFFFFFFFFFFFFFFF
310
FFFFFFFFFFFFFFFFFFFFFFFFFFFFFFFFFFFFFFFFFFFFFFFFFFFFFFFFFFFFFFFF
310
FFFFFFFFFFFFFFFFF000FFFFFFFFFFFFFFFFFFFFFFFFFFFFFFFFFFFFFFFFFFFF
310
FFFFFFFFFFFFFFFFFFFFFFFFFFFFFFFFFFFFFFFFFFFFFFFFFFFFFFFFFFFFFFFF
310
FFFFFFFFFFFFFFFFFFFFFFFFFFFFFFFFFFFFFFFFFFFFFFFFFFFFFFFFFFFFFFFF
310
F000FFFFFFFFFFFFFFFFFFFFFFFFFFFFFFFFFFFFFFFFFFFFFFFFFFFFFFFFFFFF
310
FFFFFFFFFFFFFFFFFFFFFFFFFFFFFFFFFFFFFFFFFFFFFFFFFFFFFFFFFFFFFFFF
310
FFFFFFFFFFFFFFFFFFFFFFFFFFFFFFFFFFFFFFFFFFFFFFFFF000FFFFFFFFFFFF
310
FFFFFFFFFFFFFFFFFFFFFFFFFFFFFFFFFFFFFFFFFFFFFFFFFFFFFFFFFFFFFFFF
310
FFFFFFFFFFFFFFFFFFFFFFFFFFFFFFFFFFFFFFFFFFFFFFFFFFFFFFFFFFFFFFFF
310
FFFFFFFFFFFFFFFFFFFFFFFFFFFFFFFFF000FFFFFFFFFFFFFFFFFFFFFFFFFFFF
310
FFFFFFFFFFFFFFFFFFFFFFFFFFFFFFFFFFFFFFFFFFFFFFFFFFFFFFFFFFFFFFFF
310
FFFFFFFFFFFFFFFFFFFFFFFFFFFFFFFFFFFFFFFFFFFFFFFFFFFFFFFFFFFFFFFF
310
FFFFFFFFFFFFFFFFF000FFFFFFFFFFFFFFFFFFFFFFFFFFFFFFFFFFFFFFFFFFFF
310
FFFFFFFFFFFFFFFFFFFFFFFFFFFFFFFFFFFFFFFFFFFFFFFFFFFFFFFFFFFFFFFF
310
FFFFFFFFFFFFFFFFFFFFFFFFFFFFFFFFFFFFFFFFFFFFFFFFFFFFFFFFFFFFFFFF
310
F000FFFFFFFFFFFFFFFFFFFFFFFFFFFFFFFFFFFFFFFFFFFFFFFFFFFFFFFFFFFF
310
FFFFFFFFFFFFFFFFFFFFFFFFFFFFFFFFFFFFFFFFFFFFFFFFFFFFFFFFFFFFFFFF
310
FFFFFFFFFFFFFFFFFFFFFFFFFFFFFFFFFFFFFFFFFFFFFFFFF000FFFFFFFFFFFF
310
FFFFFFFFFFFFFFFFFFFFFFFFFFFFFFFFFFFFFFFFFFFFFFFFFFFFFFFFFFFFFFFF
310
FFFFFFFFFFFFFFFFFFFFFFFFFFFFFFFFFFFFFFFFFFFFFFFFFFFFFFFFFFFFFFFF
310
FFFFFFFFFFFFFFFFFFFFFFFFFFFFFFFFF0000000000000000000000000000000
310
0000000000000000000000000000000000000000000000000000000000000000
310
0000000000000000000000000000000000000000000000000000000000000000
310
0000000000000000000000000000000000000000000000000000000000000000
310
0000000000000000000000000000000000000000000000000000000000000000
310
0000000000000000000000000000000000000000000000000000000000000000
310
0000000000000000000000000000000000000000000000000000000000000000
310
0000000000000000000000000000000000000000000000000000000000000000
310
0000000000000000000000000000000000000000000000000000000000000000
310
0000000000000000000000000000000000000000000000000000000000000000
310
0000000000000000000000000000000000000000000000000000000000000000
310
0000000000000000000000000000000000000000000000000000000000000000
310
0000000000000000000000000000000000000000000000000000000000000000
310
0000000000000000000000000000000000000000000000000000000000000000
310
0000000000000000000000000000000000000000000000000000000000000000
310
0000000000000000000000000000000000000000000000000000000000000000
  1
OLE
  0
ENDSEC
  0
SECTION
  2
OBJECTS
  0
DICTIONARY
  5
C
330
0
100
AcDbDictionary
281
     1
  3
ACAD_GROUP
350
D
  3
ACAD_LAYOUT
350
1A
  3
ACAD_MLINESTYLE
350
17
  3
ACAD_PLOTSETTINGS
350
19
  3
ACAD_PLOTSTYLENAME
350
E
  0
DICTIONARY
  5
D
102
{ACAD_REACTORS
330
C
102
}
330
C
100
AcDbDictionary
281
     1
  0
DICTIONARY
  5
1A
102
{ACAD_REACTORS
330
C
102
}
330
C
100
AcDbDictionary
281
     1
  3
Layout1
350
1E
  3
Layout2
350
26
  3
Model
350
22
  0
DICTIONARY
  5
17
102
{ACAD_REACTORS
330
C
102
}
330
C
100
AcDbDictionary
281
     1
  3
Standard
350
18
  0
DICTIONARY
  5
19
102
{ACAD_REACTORS
330
C
102
}
330
C
100
AcDbDictionary
281
     1
  0
ACDBDICTIONARYWDFLT
  5
E
102
{ACAD_REACTORS
330
C
102
}
330
C
100
AcDbDictionary
281
     1
  3
Normal
350
F
100
AcDbDictionaryWithDefault
340
F
  0
LAYOUT
  5
1E
102
{ACAD_REACTORS
330
1A
102
}
330
1A
100
AcDbPlotSettings
  1

  2
none_device
  4

  6

 40
0.0
 41
0.0
 42
0.0
 43
0.0
 44
0.0
 45
0.0
 46
0.0
 47
0.0
 48
0.0
 49
0.0
140
0.0
141
0.0
142
1.0
143
1.0
 70
   688
 72
     0
 73
     0
 74
     5
  7

 75
    16
147
1.0
148
0.0
149
0.0
100
AcDbLayout
  1
Layout1
 70
     1
 71
     1
 10
0.0
 20
0.0
 11
420.0
 21
297.0
 12
0.0
 22
0.0
 32
0.0
 14
1.0000000000E+20
 24
1.0000000000E+20
 34
1.0000000000E+20
 15
-1.0000000000E+20
 25
-1.0000000000E+20
 35
-1.0000000000E+20
146
0.0
 13
0.0
 23
0.0
 33
0.0
 16
1.0
 26
0.0
 36
0.0
 17
0.0
 27
1.0
 37
0.0
 76
     0
330
1B
  0
LAYOUT
  5
26
102
{ACAD_REACTORS
330
1A
102
}
330
1A
100
AcDbPlotSettings
  1

  2
none_device
  4

  6

 40
0.0
 41
0.0
 42
0.0
 43
0.0
 44
0.0
 45
0.0
 46
0.0
 47
0.0
 48
0.0
 49
0.0
140
0.0
141
0.0
142
1.0
143
1.0
 70
   688
 72
     0
 73
     0
 74
     5
  7

 75
    16
147
1.0
148
0.0
149
0.0
100
AcDbLayout
  1
Layout2
 70
     1
 71
     2
 10
0.0
 20
0.0
 11
0.0
 21
0.0
 12
0.0
 22
0.0
 32
0.0
 14
0.0
 24
0.0
 34
0.0
 15
0.0
 25
0.0
 35
0.0
146
0.0
 13
0.0
 23
0.0
 33
0.0
 16
1.0
 26
0.0
 36
0.0
 17
0.0
 27
1.0
 37
0.0
 76
     0
330
23
  0
LAYOUT
  5
22
102
{ACAD_REACTORS
330
1A
102
}
330
1A
100
AcDbPlotSettings
  1

  2
none_device
  4

  6

 40
0.0
 41
0.0
 42
0.0
 43
0.0
 44
0.0
 45
0.0
 46
0.0
 47
0.0
 48
0.0
 49
0.0
140
0.0
141
0.0
142
1.0
143
1.0
 70
  1712
 72
     0
 73
     0
 74
     0
  7

 75
     0
147
1.0
148
0.0
149
0.0
100
AcDbLayout
  1
Model
 70
     1
 71
     0
 10
0.0
 20
0.0
 11
297.0
 21
210.0
 12
0.0
 22
0.0
 32
0.0
 14
0.0
 24
0.0
 34
0.0
 15
297.0
 25
210.0
 35
0.0
146
0.0
 13
0.0
 23
0.0
 33
0.0
 16
1.0
 26
0.0
 36
0.0
 17
0.0
 27
1.0
 37
0.0
 76
     0
330
1F
331
29
  0
MLINESTYLE
  5
18
102
{ACAD_REACTORS
330
17
102
}
330
17
100
AcDbMlineStyle
  2
Standard
 70
     0
  3

 62
   256
 51
90.0
 52
90.0
 71
     2
 49
0.5
 62
   256
  6
BYLAYER
 49
-0.5
 62
   256
  6
BYLAYER
  0
ACDBPLACEHOLDER
  5
F
102
{ACAD_REACTORS
330
E
102
}
330
E
  0
ENDSEC
  0
EOF
