  0
SECTION
  2
HEADER
  9
$ACADVER
  1
AC1015
  9
$ACADMAINTVER
 70
     6
  9
$DWGCODEPAGE
  3
ANSI_1252
  9
$INSBASE
 10
0.0
 20
0.0
 30
0.0
  9
$EXTMIN
 10
0.0
 20
0.0
 30
0.0
  9
$EXTMAX
 10
297.0
 20
210.0
 30
0.0
  9
$LIMMIN
 10
0.0
 20
0.0
  9
$LIMMAX
 10
297.0
 20
210.0
  9
$ORTHOMODE
 70
     0
  9
$REGENMODE
 70
     1
  9
$FILLMODE
 70
     1
  9
$QTEXTMODE
 70
     0
  9
$MIRRTEXT
 70
     1
  9
$LTSCALE
 40
1.0
  9
$ATTMODE
 70
     1
  9
$TEXTSIZE
 40
2.0
  9
$TRACEWID
 40
1.0
  9
$TEXTSTYLE
  7
Standard
  9
$CLAYER
  8
0
  9
$CELTYPE
  6
ByLayer
  9
$CECOLOR
 62
   256
  9
$CELTSCALE
 40
1.0
  9
$DISPSILH
 70
     0
  9
$DIMSCALE
 40
1.0
  9
$DIMASZ
 40
3.0
  9
$DIMEXO
 40
0.0
  9
$DIMDLI
 40
3.75
  9
$DIMRND
 40
0.0
  9
$DIMDLE
 40
0.0
  9
$DIMEXE
 40
1.0
  9
$DIMTP
 40
0.0
  9
$DIMTM
 40
0.0
  9
$DIMTXT
 40
2.0
  9
$DIMCEN
 40
2.5
  9
$DIMTSZ
 40
0.0
  9
$DIMTOL
 70
     0
  9
$DIMLIM
 70
     0
  9
$DIMTIH
 70
     1
  9
$DIMTOH
 70
     1
  9
$DIMSE1
 70
     0
  9
$DIMSE2
 70
     0
  9
$DIMTAD
 70
     1
  9
$DIMZIN
 70
     0
  9
$DIMBLK
  1

  9
$DIMASO
 70
     1
  9
$DIMSHO
 70
     1
  9
$DIMPOST
  1

  9
$DIMAPOST
  1

  9
$DIMALT
 70
     0
  9
$DIMALTD
 70
     3
  9
$DIMALTF
 40
0.0393700787
  9
$DIMLFAC
 40
1.0
  9
$DIMTOFL
 70
     1
  9
$DIMTVP
 40
0.0
  9
$DIMTIX
 70
     0
  9
$DIMSOXD
 70
     0
  9
$DIMSAH
 70
     0
  9
$DIMBLK1
  1

  9
$DIMBLK2
  1

  9
$DIMSTYLE
  2
ISO-25
  9
$DIMCLRD
 70
     0
  9
$DIMCLRE
 70
     0
  9
$DIMCLRT
 70
     0
  9
$DIMTFAC
 40
1.0
  9
$DIMGAP
 40
1.524
  9
$DIMJUST
 70
     0
  9
$DIMSD1
 70
     0
  9
$DIMSD2
 70
     0
  9
$DIMTOLJ
 70
     0
  9
$DIMTZIN
 70
     0
  9
$DIMALTZ
 70
     0
  9
$DIMALTTZ
 70
     0
  9
$DIMUPT
 70
     0
  9
$DIMDEC
 70
     2
  9
$DIMTDEC
 70
     3
  9
$DIMALTU
 70
     2
  9
$DIMALTTD
 70
     3
  9
$DIMTXSTY
  7
Standard
  9
$DIMAUNIT
 70
     0
  9
$DIMADEC
 70
     2
  9
$DIMALTRND
 40
0.0
  9
$DIMAZIN
 70
     0
  9
$DIMDSEP
 70
    44
  9
$DIMATFIT
 70
     3
  9
$DIMFRAC
 70
     0
  9
$DIMLDRBLK
  1

  9
$DIMLUNIT
 70
     2
  9
$DIMLWD
 70
    -2
  9
$DIMLWE
 70
    -2
  9
$DIMTMOVE
 70
     0
  9
$LUNITS
 70
     2
  9
$LUPREC
 70
     2
  9
$SKETCHINC
 40
1.0
  9
$FILLETRAD
 40
10.0
  9
$AUNITS
 70
     0
  9
$AUPREC
 70
     2
  9
$MENU
  1
.
  9
$ELEVATION
 40
0.0
  9
$PELEVATION
 40
0.0
  9
$THICKNESS
 40
0.0
  9
$LIMCHECK
 70
     0
  9
$CHAMFERA
 40
10.0
  9
$CHAMFERB
 40
10.0
  9
$CHAMFERC
 40
20.0
  9
$CHAMFERD
 40
0.0
  9
$SKPOLY
 70
     0
  9
$TDCREATE
 40
2456080.663539572
  9
$TDUCREATE
 40
2456080.580206238
  9
$TDUPDATE
 40
2456080.663541007
  9
$TDUUPDATE
 40
2456080.580207674
  9
$TDINDWG
 40
0.0000000116
  9
$TDUSRTIMER
 40
0.0000000116
  9
$USRTIMER
 70
     1
  9
$ANGBASE
 50
0.0
  9
$ANGDIR
 70
     0
  9
$PDMODE
 70
     0
  9
$PDSIZE
 40
-1.0
  9
$PLINEWID
 40
0.0
  9
$SPLFRAME
 70
     0
  9
$SPLINETYPE
 70
     6
  9
$SPLINESEGS
 70
     8
  9
$HANDSEED
  5
21C
  9
$SURFTAB1
 70
     6
  9
$SURFTAB2
 70
     6
  9
$SURFTYPE
 70
     6
  9
$SURFU
 70
     6
  9
$SURFV
 70
     6
  9
$UCSBASE
  2

  9
$UCSNAME
  2

  9
$UCSORG
 10
0.0
 20
0.0
 30
0.0
  9
$UCSXDIR
 10
1.0
 20
0.0
 30
0.0
  9
$UCSYDIR
 10
0.0
 20
1.0
 30
0.0
  9
$UCSORTHOREF
  2

  9
$UCSORTHOVIEW
 70
     0
  9
$UCSORGTOP
 10
0.0
 20
0.0
 30
0.0
  9
$UCSORGBOTTOM
 10
0.0
 20
0.0
 30
0.0
  9
$UCSORGLEFT
 10
0.0
 20
0.0
 30
0.0
  9
$UCSORGRIGHT
 10
0.0
 20
0.0
 30
0.0
  9
$UCSORGFRONT
 10
0.0
 20
0.0
 30
0.0
  9
$UCSORGBACK
 10
0.0
 20
0.0
 30
0.0
  9
$PUCSBASE
  2

  9
$PUCSNAME
  2

  9
$PUCSORG
 10
0.0
 20
0.0
 30
0.0
  9
$PUCSXDIR
 10
1.0
 20
0.0
 30
0.0
  9
$PUCSYDIR
 10
0.0
 20
1.0
 30
0.0
  9
$PUCSORTHOREF
  2

  9
$PUCSORTHOVIEW
 70
     0
  9
$PUCSORGTOP
 10
0.0
 20
0.0
 30
0.0
  9
$PUCSORGBOTTOM
 10
0.0
 20
0.0
 30
0.0
  9
$PUCSORGLEFT
 10
0.0
 20
0.0
 30
0.0
  9
$PUCSORGRIGHT
 10
0.0
 20
0.0
 30
0.0
  9
$PUCSORGFRONT
 10
0.0
 20
0.0
 30
0.0
  9
$PUCSORGBACK
 10
0.0
 20
0.0
 30
0.0
  9
$USERI1
 70
     0
  9
$USERI2
 70
     0
  9
$USERI3
 70
     0
  9
$USERI4
 70
     0
  9
$USERI5
 70
     0
  9
$USERR1
 40
0.0
  9
$USERR2
 40
0.0
  9
$USERR3
 40
0.0
  9
$USERR4
 40
0.0
  9
$USERR5
 40
0.0
  9
$WORLDVIEW
 70
     1
  9
$SHADEDGE
 70
     3
  9
$SHADEDIF
 70
    70
  9
$TILEMODE
 70
     1
  9
$MAXACTVP
 70
    64
  9
$PINSBASE
 10
0.0
 20
0.0
 30
0.0
  9
$PLIMCHECK
 70
     0
  9
$PEXTMIN
 10
1.0000000000E+20
 20
1.0000000000E+20
 30
1.0000000000E+20
  9
$PEXTMAX
 10
-1.0000000000E+20
 20
-1.0000000000E+20
 30
-1.0000000000E+20
  9
$PLIMMIN
 10
0.0
 20
0.0
  9
$PLIMMAX
 10
420.0
 20
297.0
  9
$UNITMODE
 70
     0
  9
$VISRETAIN
 70
     1
  9
$PLINEGEN
 70
     0
  9
$PSLTSCALE
 70
     1
  9
$TREEDEPTH
 70
  3020
  9
$CMLSTYLE
  2
Standard
  9
$CMLJUST
 70
     0
  9
$CMLSCALE
 40
20.0
  9
$PROXYGRAPHICS
 70
     1
  9
$MEASUREMENT
 70
     1
  9
$CELWEIGHT
370
    -1
  9
$ENDCAPS
280
     0
  9
$JOINSTYLE
280
     0
  9
$LWDISPLAY
290
     1
  9
$INSUNITS
 70
     4
  9
$HYPERLINKBASE
  1

  9
$STYLESHEET
  1

  9
$XEDIT
290
     1
  9
$CEPSNTYPE
380
     0
  9
$PSTYLEMODE
290
     1
  9
$FINGERPRINTGUID
  2
{EB673B7C-24BA-4233-A240-CEECD9BC1DEE}
  9
$VERSIONGUID
  2
{FAEB1C32-E019-11D5-929B-00C0DF256EC4}
  9
$EXTNAMES
290
     1
  9
$PSVPSCALE
 40
0.0
  9
$OLESTARTUP
290
     0
  0
ENDSEC
  0
SECTION
  2
CLASSES
  0
CLASS
  1
ACDBDICTIONARYWDFLT
  2
AcDbDictionaryWithDefault
  3
ObjectDBX Classes
 90
        0
280
     0
281
     0
  0
CLASS
  1
VISUALSTYLE
  2
AcDbVisualStyle
  3
ObjectDBX Classes
 90
     4095
280
     0
281
     0
  0
CLASS
  1
MATERIAL
  2
AcDbMaterial
  3
ObjectDBX Classes
 90
     1153
280
     0
281
     0
  0
CLASS
  1
ACDBPLACEHOLDER
  2
AcDbPlaceHolder
  3
ObjectDBX Classes
 90
        0
280
     0
281
     0
  0
CLASS
  1
LAYOUT
  2
AcDbLayout
  3
ObjectDBX Classes
 90
        0
280
     0
281
     0
  0
ENDSEC
  0
SECTION
  2
TABLES
  0
TABLE
  2
VPORT
  5
8
330
0
100
AcDbSymbolTable
 70
     1
  0
VPORT
  5
29
330
8
100
AcDbSymbolTableRecord
100
AcDbViewportTableRecord
  2
*Active
 70
     0
 10
0.0
 20
0.0
 11
1.0
 21
1.0
 12
148.5
 22
105.0
 13
0.0
 23
0.0
 14
10.0
 24
10.0
 15
10.0
 25
10.0
 16
0.0
 26
0.0
 36
1.0
 17
0.0
 27
0.0
 37
0.0
 40
210.0
 41
1.4142857143
 42
50.0
 43
0.0
 44
0.0
 50
0.0
 51
0.0
 71
     0
 72
  2000
 73
     1
 74
     3
 75
     0
 76
     0
 77
     0
 78
     0
281
     0
 65
     1
110
0.0
120
0.0
130
0.0
111
1.0
121
0.0
131
0.0
112
0.0
122
1.0
132
0.0
 79
     0
146
0.0
  0
ENDTAB
  0
TABLE
  2
LTYPE
  5
5
330
0
100
AcDbSymbolTable
 70
     6
  0
LTYPE
  5
14
330
5
100
AcDbSymbolTableRecord
100
AcDbLinetypeTableRecord
  2
ByBlock
 70
     0
  3

 72
    65
 73
     0
 40
0.0
  0
LTYPE
  5
15
330
5
100
AcDbSymbolTableRecord
100
AcDbLinetypeTableRecord
  2
ByLayer
 70
     0
  3

 72
    65
 73
     0
 40
0.0
  0
LTYPE
  5
16
330
5
100
AcDbSymbolTableRecord
100
AcDbLinetypeTableRecord
  2
Continuous
 70
     0
  3
Solid line
 72
    65
 73
     0
 40
0.0
  0
LTYPE
  5
3F
330
5
100
AcDbSymbolTableRecord
100
AcDbLinetypeTableRecord
  2
HIDDEN
 70
     0
  3
Hidden __ __ __ __ __ __ __ __ __ __ __ __ __ __
 72
    65
 73
     2
 40
1.905
 49
1.27
 74
     0
 49
-0.635
 74
     0
  0
LTYPE
  5
40
330
5
100
AcDbSymbolTableRecord
100
AcDbLinetypeTableRecord
  2
PHANTOM
 70
     0
  3
Phantom ______  __  __  ______  __  __  ______
 72
    65
 73
     6
 40
12.7
 49
6.35
 74
     0
 49
-1.27
 74
     0
 49
1.27
 74
     0
 49
-1.27
 74
     0
 49
1.27
 74
     0
 49
-1.27
 74
     0
  0
LTYPE
  5
41
330
5
100
AcDbSymbolTableRecord
100
AcDbLinetypeTableRecord
  2
CENTER
 70
     0
  3
Center ____ _ ____ _ ____ _ ____ _ ____ _ ____
 72
    65
 73
     4
 40
10.16
 49
6.35
 74
     0
 49
-1.27
 74
     0
 49
1.27
 74
     0
 49
-1.27
 74
     0
  0
LTYPE
  5
42
330
5
100
AcDbSymbolTableRecord
100
AcDbLinetypeTableRecord
  2
CENTERX2
 70
     0
  3
Center (2x) ________  __  ________  __  _____
 72
    65
 73
     4
 40
20.32
 49
12.7
 74
     0
 49
-2.54
 74
     0
 49
2.54
 74
     0
 49
-2.54
 74
     0
  0
LTYPE
  5
43
330
5
100
AcDbSymbolTableRecord
100
AcDbLinetypeTableRecord
  2
DOT2
 70
     0
  3
Dot (.5x) ........................................
 72
    65
 73
     2
 40
0.635
 49
0.0
 74
     0
 49
-0.635
 74
     0
  0
ENDTAB
  0
TABLE
  2
LAYER
  5
2
330
0
100
AcDbSymbolTable
 70
     5
  0
LAYER
  5
10
330
2
100
AcDbSymbolTableRecord
100
AcDbLayerTableRecord
  2
0
 70
     0
 62
     7
  6
Continuous
370
    -3
390
F
  0
LAYER
  5
44
330
2
100
AcDbSymbolTableRecord
100
AcDbLayerTableRecord
  2
FORMAT
 70
     0
 62
     7
  6
Continuous
370
    -3
390
F
  0
LAYER
  5
45
330
2
100
AcDbSymbolTableRecord
100
AcDbLayerTableRecord
  2
VERMASSUNG
 70
     0
 62
     7
  6
Continuous
370
    -3
390
F
  0
LAYER
  5
46
330
2
100
AcDbSymbolTableRecord
100
AcDbLayerTableRecord
  2
KOPF_DÜNN
 70
     0
 62
     7
  6
Continuous
370
    -3
390
F
  0
LAYER
  5
47
330
2
100
AcDbSymbolTableRecord
100
AcDbLayerTableRecord
  2
KOPF_DICK
 70
     0
 62
     7
  6
Continuous
370
    15
390
F
  0
ENDTAB
  0
TABLE
  2
STYLE
  5
3
330
0
100
AcDbSymbolTable
 70
     2
  0
STYLE
  5
11
330
3
100
AcDbSymbolTableRecord
100
AcDbTextStyleTableRecord
  2
Standard
 70
     0
 40
0.0
 41
1.0
 50
0.0
 71
     0
 42
2.0
  3
txt
  4

  0
STYLE
  5
48
330
3
100
AcDbSymbolTableRecord
100
AcDbTextStyleTableRecord
  2
SLDTEXTSTYLE0
 70
     0
 40
0.0
 41
0.7
 50
0.0
 71
     0
 42
0.2
  3
TXT
  4

  0
ENDTAB
  0
TABLE
  2
VIEW
  5
6
330
0
100
AcDbSymbolTable
 70
     0
  0
ENDTAB
  0
TABLE
  2
UCS
  5
7
330
0
100
AcDbSymbolTable
 70
     0
  0
ENDTAB
  0
TABLE
  2
APPID
  5
9
330
0
100
AcDbSymbolTable
 70
     1
  0
APPID
  5
12
330
9
100
AcDbSymbolTableRecord
100
AcDbRegAppTableRecord
  2
ACAD
 70
     0
  0
ENDTAB
  0
TABLE
  2
DIMSTYLE
  5
A
330
0
100
AcDbSymbolTable
 70
     5
100
AcDbDimStyleTable
  0
DIMSTYLE
105
27
330
A
100
AcDbSymbolTableRecord
100
AcDbDimStyleTableRecord
  2
ISO-25
 70
     0
 41
2.5
 42
0.625
 43
3.75
 44
1.25
 73
     0
 74
     0
 77
     1
 78
     8
140
2.5
141
2.5
143
0.0393700787
147
0.625
171
     3
172
     1
178
     0
271
     2
272
     2
274
     3
278
    44
283
     0
284
     8
340
11
  0
DIMSTYLE
105
194
102
{ACAD_REACTORS
330
193
330
19E
330
1A8
330
1BC
330
1C8
102
}
330
A
100
AcDbSymbolTableRecord
100
AcDbDimStyleTableRecord
  2
SLDDIMSTYLE0
 70
     0
 41
3.0
 44
0.0
 45
0.000000001
 73
     0
 74
     0
 77
     1
 78
    12
 79
     3
140
2.0
147
0.5
173
     1
178
     0
271
     2
272
     3
276
     2
284
    12
340
48
  0
DIMSTYLE
105
1B3
102
{ACAD_REACTORS
330
1B2
102
}
330
A
100
AcDbSymbolTableRecord
100
AcDbDimStyleTableRecord
  2
SLDDIMSTYLE1
 70
     0
 41
3.0
 44
0.0
 73
     0
 74
     0
 77
     1
 78
    12
 79
     3
140
2.0
147
0.5
173
     1
178
     0
179
     1
272
     3
276
     2
284
    12
340
48
  0
DIMSTYLE
105
1F4
102
{ACAD_REACTORS
330
1F3
102
}
330
A
100
AcDbSymbolTableRecord
100
AcDbDimStyleTableRecord
  2
SLDDIMSTYLE2
 70
     0
 41
3.0
 44
0.0
 45
0.000000001
 73
     0
 74
     0
 77
     1
 78
    12
 79
     3
140
2.0
147
0.5
172
     1
173
     1
178
     0
271
     2
272
     3
276
     2
284
    12
289
     0
340
48
  0
DIMSTYLE
105
203
102
{ACAD_REACTORS
330
202
102
}
330
A
100
AcDbSymbolTableRecord
100
AcDbDimStyleTableRecord
  2
SLDDIMSTYLE3
 70
     0
 41
3.0
 44
0.0
 73
     0
 74
     0
 77
     1
 78
    12
 79
     3
140
2.0
147
0.5
173
     1
178
     0
179
     2
272
     3
276
     2
284
    12
340
48
  0
ENDTAB
  0
TABLE
  2
BLOCK_RECORD
  5
1
330
0
100
AcDbSymbolTable
 70
    10
  0
BLOCK_RECORD
  5
1F
330
1
100
AcDbSymbolTableRecord
100
AcDbBlockTableRecord
  2
*Model_Space
340
22
  0
BLOCK_RECORD
  5
1B
330
1
100
AcDbSymbolTableRecord
100
AcDbBlockTableRecord
  2
*Paper_Space
340
1E
  0
BLOCK_RECORD
  5
23
330
1
100
AcDbSymbolTableRecord
100
AcDbBlockTableRecord
  2
*Paper_Space0
340
26
  0
BLOCK_RECORD
  5
195
330
1
100
AcDbSymbolTableRecord
100
AcDbBlockTableRecord
  2
_D
340
0
  0
BLOCK_RECORD
  5
19F
330
1
100
AcDbSymbolTableRecord
100
AcDbBlockTableRecord
  2
_D_1
340
0
  0
BLOCK_RECORD
  5
1A9
330
1
100
AcDbSymbolTableRecord
100
AcDbBlockTableRecord
  2
_D_2
340
0
  0
BLOCK_RECORD
  5
1B4
330
1
100
AcDbSymbolTableRecord
100
AcDbBlockTableRecord
  2
_D_3
340
0
  0
BLOCK_RECORD
  5
1BD
330
1
100
AcDbSymbolTableRecord
100
AcDbBlockTableRecord
  2
_D_4
340
0
  0
BLOCK_RECORD
  5
1C9
330
1
100
AcDbSymbolTableRecord
100
AcDbBlockTableRecord
  2
_D_5
340
0
  0
BLOCK_RECORD
  5
1F5
330
1
100
AcDbSymbolTableRecord
100
AcDbBlockTableRecord
  2
_D_6
340
0
  0
BLOCK_RECORD
  5
204
330
1
100
AcDbSymbolTableRecord
100
AcDbBlockTableRecord
  2
_D_7
340
0
  0
BLOCK_RECORD
  5
20F
330
1
100
AcDbSymbolTableRecord
100
AcDbBlockTableRecord
  2
SW_CENTERMARKSYMBOL_0
340
0
102
{BLKREFS
331
21A
102
}
  0
ENDTAB
  0
ENDSEC
  0
SECTION
  2
BLOCKS
  0
BLOCK
  5
20
330
1F
100
AcDbEntity
  8
0
100
AcDbBlockBegin
  2
*Model_Space
 70
     0
 10
0.0
 20
0.0
 30
0.0
  3
*Model_Space
  1

  0
ENDBLK
  5
21
330
1F
100
AcDbEntity
  8
0
100
AcDbBlockEnd
  0
BLOCK
  5
1C
330
1B
100
AcDbEntity
 67
     1
  8
0
100
AcDbBlockBegin
  2
*Paper_Space
 70
     0
 10
0.0
 20
0.0
 30
0.0
  3
*Paper_Space
  1

  0
ENDBLK
  5
1D
330
1B
100
AcDbEntity
 67
     1
  8
0
100
AcDbBlockEnd
  0
BLOCK
  5
24
330
23
100
AcDbEntity
  8
0
100
AcDbBlockBegin
  2
*Paper_Space0
 70
     0
 10
0.0
 20
0.0
 30
0.0
  3
*Paper_Space0
  1

  0
ENDBLK
  5
25
330
23
100
AcDbEntity
  8
0
100
AcDbBlockEnd
  0
BLOCK
  5
196
330
195
100
AcDbEntity
  8
0
100
AcDbBlockBegin
  2
_D
 70
     0
 10
0.0
 20
0.0
 30
0.0
  3
_D
  1

  0
SOLID
  5
198
330
195
100
AcDbEntity
  8
VERMASSUNG
100
AcDbTrace
 10
162.8765248663
 20
146.3650736814
 30
0.0
 11
165.8765248663
 21
145.9150736814
 31
0.0
 12
165.8765248663
 22
146.8150736814
 32
0.0
 13
165.8765248663
 23
146.8150736814
 33
0.0
  0
SOLID
  5
199
330
195
100
AcDbEntity
  8
VERMASSUNG
100
AcDbTrace
 10
252.8765248663
 20
146.3650736814
 30
0.0
 11
249.8765248663
 21
146.8150736814
 31
0.0
 12
249.8765248663
 22
145.9150736814
 32
0.0
 13
249.8765248663
 23
145.9150736814
 33
0.0
  0
LINE
  5
19A
330
195
100
AcDbEntity
  8
VERMASSUNG
100
AcDbLine
 10
162.8765248663
 20
136.0650736814
 30
0.0
 11
162.8765248663
 21
147.3650736814
 31
0.0
  0
LINE
  5
19B
330
195
100
AcDbEntity
  8
VERMASSUNG
100
AcDbLine
 10
252.8765248663
 20
128.3650736814
 30
0.0
 11
252.8765248663
 21
147.3650736814
 31
0.0
  0
LINE
  5
19C
330
195
100
AcDbEntity
  8
VERMASSUNG
100
AcDbLine
 10
162.8765248663
 20
146.3650736814
 30
0.0
 11
252.8765248663
 21
146.3650736814
 31
0.0
  0
MTEXT
  5
19D
330
195
100
AcDbEntity
  8
VERMASSUNG
100
AcDbMText
 10
205.5765248152
 20
148.9432090445
 30
0.1
 40
2.0
 41
0.0
 71
     1
 72
     1
  1
90
  7
SLDTEXTSTYLE0
 73
     1
 44
1.0
  0
ENDBLK
  5
197
330
195
100
AcDbEntity
  8
0
100
AcDbBlockEnd
  0
BLOCK
  5
1A0
330
19F
100
AcDbEntity
  8
0
100
AcDbBlockBegin
  2
_D_1
 70
     0
 10
0.0
 20
0.0
 30
0.0
  3
_D_1
  1

  0
SOLID
  5
1A2
330
19F
100
AcDbEntity
  8
VERMASSUNG
100
AcDbTrace
 10
252.8765248663
 20
152.3650736814
 30
0.0
 11
249.8765248663
 21
152.8150736814
 31
0.0
 12
249.8765248663
 22
151.9150736814
 32
0.0
 13
249.8765248663
 23
151.9150736814
 33
0.0
  0
SOLID
  5
1A3
330
19F
100
AcDbEntity
  8
VERMASSUNG
100
AcDbTrace
 10
132.8765248663
 20
152.3650736814
 30
0.0
 11
135.8765248663
 21
151.9150736814
 31
0.0
 12
135.8765248663
 22
152.8150736814
 32
0.0
 13
135.8765248663
 23
152.8150736814
 33
0.0
  0
LINE
  5
1A4
330
19F
100
AcDbEntity
  8
VERMASSUNG
100
AcDbLine
 10
252.8765248663
 20
128.3650736814
 30
0.0
 11
252.8765248663
 21
153.3650736814
 31
0.0
  0
LINE
  5
1A5
330
19F
100
AcDbEntity
  8
VERMASSUNG
100
AcDbLine
 10
132.8765248663
 20
127.3583995195
 30
0.0
 11
132.8765248663
 21
153.3650736814
 31
0.0
  0
LINE
  5
1A6
330
19F
100
AcDbEntity
  8
VERMASSUNG
100
AcDbLine
 10
252.8765248663
 20
152.3650736814
 30
0.0
 11
132.8765248663
 21
152.3650736814
 31
0.0
  0
MTEXT
  5
1A7
330
19F
100
AcDbEntity
  8
VERMASSUNG
100
AcDbMText
 10
190.0765247333
 20
154.9432090445
 30
0.1
 40
2.0
 41
0.0
 71
     1
 72
     1
  1
120
  7
SLDTEXTSTYLE0
 73
     1
 44
1.0
  0
ENDBLK
  5
1A1
330
19F
100
AcDbEntity
  8
0
100
AcDbBlockEnd
  0
BLOCK
  5
1AA
330
1A9
100
AcDbEntity
  8
0
100
AcDbBlockBegin
  2
_D_2
 70
     0
 10
0.0
 20
0.0
 30
0.0
  3
_D_2
  1

  0
SOLID
  5
1AC
330
1A9
100
AcDbEntity
  8
VERMASSUNG
100
AcDbTrace
 10
268.9098650426
 20
128.3650736814
 30
0.0
 11
268.4598650426
 21
125.3650736814
 31
0.0
 12
269.3598650426
 22
125.3650736814
 32
0.0
 13
269.3598650426
 23
125.3650736814
 33
0.0
  0
SOLID
  5
1AD
330
1A9
100
AcDbEntity
  8
VERMASSUNG
100
AcDbTrace
 10
268.9098650426
 20
111.3650736814
 30
0.0
 11
269.3598650426
 21
114.3650736814
 31
0.0
 12
268.4598650426
 22
114.3650736814
 32
0.0
 13
268.4598650426
 23
114.3650736814
 33
0.0
  0
LINE
  5
1AE
330
1A9
100
AcDbEntity
  8
VERMASSUNG
100
AcDbLine
 10
252.8765248663
 20
128.3650736814
 30
0.0
 11
269.9098650426
 21
128.3650736814
 31
0.0
  0
LINE
  5
1AF
330
1A9
100
AcDbEntity
  8
VERMASSUNG
100
AcDbLine
 10
252.8765248663
 20
111.3650736814
 30
0.0
 11
269.9098650426
 21
111.3650736814
 31
0.0
  0
LINE
  5
1B0
330
1A9
100
AcDbEntity
  8
VERMASSUNG
100
AcDbLine
 10
268.9098650426
 20
128.3650736814
 30
0.0
 11
268.9098650426
 21
111.3650736814
 31
0.0
  0
MTEXT
  5
1B1
330
1A9
100
AcDbEntity
  8
VERMASSUNG
100
AcDbMText
 10
266.3317296795
 20
117.7650735234
 30
0.1
 40
2.0
 41
0.0
 71
     1
 72
     1
  1
17
  7
SLDTEXTSTYLE0
 11
-7.044195017643634E-15
 21
1.0
 31
0.0
 73
     1
 44
1.0
  0
ENDBLK
  5
1AB
330
1A9
100
AcDbEntity
  8
0
100
AcDbBlockEnd
  0
BLOCK
  5
1B5
330
1B4
100
AcDbEntity
  8
0
100
AcDbBlockBegin
  2
_D_3
 70
     0
 10
0.0
 20
0.0
 30
0.0
  3
_D_3
  1

  0
ARC
  5
1B7
330
1B4
100
AcDbEntity
  8
VERMASSUNG
100
AcDbCircle
 10
252.9130482667
 20
128.3650736814
 30
0.0
 40
10.56692992435657
100
AcDbArc
 50
264.9878526278
 51
0.0
  0
SOLID
  5
1B8
330
1B4
100
AcDbEntity
  8
VERMASSUNG
100
AcDbTrace
 10
251.9898478742
 20
117.8385496083
 30
0.0
 11
255.0088381343
 21
117.5415684484
 31
0.0
 12
254.963106874
 22
118.4404058373
 32
0.0
 13
254.963106874
 23
118.4404058373
 33
0.0
  0
SOLID
  5
1B9
330
1B4
100
AcDbEntity
  8
VERMASSUNG
100
AcDbTrace
 10
263.4799781911
 20
128.3650736814
 30
0.0
 11
262.6206587838
 21
125.4557661768
 31
0.0
 12
263.5120637957
 22
125.3316811064
 32
0.0
 13
263.5120637957
 23
125.3316811064
 33
0.0
  0
LINE
  5
1BA
330
1B4
100
AcDbEntity
  8
VERMASSUNG
100
AcDbLine
 10
261.8859266718
 20
128.3650736814
 30
0.0
 11
264.4799781911
 21
128.3650736814
 31
0.0
  0
MTEXT
  5
1BB
330
1B4
100
AcDbEntity
  8
VERMASSUNG
100
AcDbMText
 10
256.1712631458
 20
120.5155593346
 30
0.1
 40
2.0
 41
0.0
 71
     1
 72
     1
  1
95°
  7
SLDTEXTSTYLE0
 11
0.7373489491615024
 21
0.6755120481312145
 31
0.0
 73
     1
 44
1.0
  0
ENDBLK
  5
1B6
330
1B4
100
AcDbEntity
  8
0
100
AcDbBlockEnd
  0
BLOCK
  5
1BE
330
1BD
100
AcDbEntity
  8
0
100
AcDbBlockBegin
  2
_D_4
 70
     0
 10
0.0
 20
0.0
 30
0.0
  3
_D_4
  1

  0
SOLID
  5
1C0
330
1BD
100
AcDbEntity
  8
VERMASSUNG
100
AcDbTrace
 10
125.2414076291
 20
136.3650736814
 30
0.0
 11
124.7914076291
 21
133.3650736814
 31
0.0
 12
125.6914076291
 22
133.3650736814
 32
0.0
 13
125.6914076291
 23
133.3650736814
 33
0.0
  0
SOLID
  5
1C1
330
1BD
100
AcDbEntity
  8
VERMASSUNG
100
AcDbTrace
 10
125.2414076291
 20
86.3650736814
 30
0.0
 11
125.6914076291
 21
89.3650736814
 31
0.0
 12
124.7914076291
 22
89.3650736814
 32
0.0
 13
124.7914076291
 23
89.3650736814
 33
0.0
  0
LINE
  5
1C2
330
1BD
100
AcDbEntity
  8
VERMASSUNG
100
AcDbLine
 10
163.1765248663
 20
136.3650736814
 30
0.0
 11
124.2414076291
 21
136.3650736814
 31
0.0
  0
LINE
  5
1C3
330
1BD
100
AcDbEntity
  8
VERMASSUNG
100
AcDbLine
 10
163.1765248663
 20
86.3650736814
 30
0.0
 11
124.2414076291
 21
86.3650736814
 31
0.0
  0
LINE
  5
1C4
330
1BD
100
AcDbEntity
  8
VERMASSUNG
100
AcDbLine
 10
125.2414076291
 20
136.3650736814
 30
0.0
 11
125.2414076291
 21
86.3650736814
 31
0.0
  0
MTEXT
  5
1C5
330
1BD
100
AcDbEntity
  8
VERMASSUNG
100
AcDbMText
 10
122.46327214
 20
104.9600735721
 30
0.1
 40
2.0
 41
0.0
 71
     1
 72
     1
  1
PSC
  7
SLDTEXTSTYLE0
 11
-7.044195017643634E-15
 21
1.0
 31
0.0
 73
     1
 44
1.0
  0
MTEXT
  5
1C6
330
1BD
100
AcDbEntity
  8
VERMASSUNG
100
AcDbMText
 10
122.6632721495
 20
109.5600736742
 30
0.1
 40
2.0
 41
0.0
 71
     1
 72
     1
  1
%%c
  7
SLDTEXTSTYLE0
 11
-7.044195017643634E-15
 21
1.0
 31
0.0
 73
     1
 44
1.0
  0
MTEXT
  5
1C7
330
1BD
100
AcDbEntity
  8
VERMASSUNG
100
AcDbMText
 10
122.46327214
 20
113.1700741542
 30
0.1
 40
2.0
 41
0.0
 71
     1
 72
     1
  1
50
  7
SLDTEXTSTYLE0
 11
-7.044195017643634E-15
 21
1.0
 31
0.0
 73
     1
 44
1.0
  0
ENDBLK
  5
1BF
330
1BD
100
AcDbEntity
  8
0
100
AcDbBlockEnd
  0
BLOCK
  5
1CA
330
1C9
100
AcDbEntity
  8
0
100
AcDbBlockBegin
  2
_D_5
 70
     0
 10
0.0
 20
0.0
 30
0.0
  3
_D_5
  1

  0
SOLID
  5
1CC
330
1C9
100
AcDbEntity
  8
VERMASSUNG
100
AcDbTrace
 10
198.3131874336
 20
123.8650736814
 30
0.0
 11
197.8631874336
 21
120.8650736814
 31
0.0
 12
198.7631874336
 22
120.8650736814
 32
0.0
 13
198.7631874336
 23
120.8650736814
 33
0.0
  0
SOLID
  5
1CD
330
1C9
100
AcDbEntity
  8
VERMASSUNG
100
AcDbTrace
 10
198.3131874336
 20
98.8650736814
 30
0.0
 11
198.7631874336
 21
101.8650736814
 31
0.0
 12
197.8631874336
 22
101.8650736814
 32
0.0
 13
197.8631874336
 23
101.8650736814
 33
0.0
  0
LINE
  5
1CE
330
1C9
100
AcDbEntity
  8
VERMASSUNG
100
AcDbLine
 10
198.3131874336
 20
123.8650736814
 30
0.0
 11
198.3131874336
 21
98.8650736814
 31
0.0
  0
MTEXT
  5
1CF
330
1C9
100
AcDbEntity
  8
VERMASSUNG
100
AcDbMText
 10
195.7350519541
 20
99.7282000491
 30
0.1
 40
2.0
 41
0.0
 71
     1
 72
     1
  1
%%c
  7
SLDTEXTSTYLE0
 11
-7.044195017643634E-15
 21
1.0
 31
0.0
 73
     1
 44
1.0
  0
MTEXT
  5
1D0
330
1C9
100
AcDbEntity
  8
VERMASSUNG
100
AcDbMText
 10
195.5350519446
 20
103.3382000634
 30
0.1
 40
2.0
 41
0.0
 71
     1
 72
     1
  1
25
  7
SLDTEXTSTYLE0
 11
-7.044195017643634E-15
 21
1.0
 31
0.0
 73
     1
 44
1.0
  0
ENDBLK
  5
1CB
330
1C9
100
AcDbEntity
  8
0
100
AcDbBlockEnd
  0
BLOCK
  5
1F6
330
1F5
100
AcDbEntity
  8
0
100
AcDbBlockBegin
  2
_D_6
 70
     0
 10
0.0
 20
0.0
 30
0.0
  3
_D_6
  1

  0
SOLID
  5
1F8
330
1F5
100
AcDbEntity
  8
VERMASSUNG
100
AcDbTrace
 10
82.3539054968
 20
101.0005244631
 30
0.0
 11
84.1570277888
 21
98.561006068
 31
0.0
 12
84.7934238919
 22
99.197402171
 32
0.0
 13
84.7934238919
 23
99.197402171
 33
0.0
  0
SOLID
  5
1F9
330
1F5
100
AcDbEntity
  8
VERMASSUNG
100
AcDbTrace
 10
59.7264884988
 20
123.627941461
 30
0.0
 11
57.9233662068
 21
126.0674598561
 31
0.0
 12
57.2869701037
 22
125.4310637531
 32
0.0
 13
57.2869701037
 23
125.4310637531
 33
0.0
  0
LINE
  5
1FA
330
1F5
100
AcDbEntity
  8
VERMASSUNG
100
AcDbLine
 10
82.3539054968
 20
101.0005244631
 30
0.0
 11
83.061012278
 21
101.7076312443
 31
0.0
  0
LINE
  5
1FB
330
1F5
100
AcDbEntity
  8
VERMASSUNG
100
AcDbLine
 10
59.7264884988
 20
123.627941461
 30
0.0
 11
60.43359528
 21
124.3350482422
 31
0.0
  0
LINE
  5
1FC
330
1F5
100
AcDbEntity
  8
VERMASSUNG
100
AcDbLine
 10
82.3539054968
 20
101.0005244631
 30
0.0
 11
86.5965461839
 21
96.7578837759
 31
0.0
  0
LINE
  5
1FD
330
1F5
100
AcDbEntity
  8
VERMASSUNG
100
AcDbLine
 10
82.3539054968
 20
101.0005244631
 30
0.0
 11
59.7264884988
 21
123.627941461
 31
0.0
  0
LINE
  5
1FE
330
1F5
100
AcDbEntity
  8
VERMASSUNG
100
AcDbLine
 10
59.7264884988
 20
123.627941461
 30
0.0
 11
43.1555780975
 21
140.1988518624
 31
0.0
  0
MTEXT
  5
1FF
330
1F5
100
AcDbEntity
  8
VERMASSUNG
100
AcDbMText
 10
44.9785951779
 20
142.0218689428
 30
0.1
 40
2.0
 41
0.0
 71
     1
 72
     1
  1
%%c
  7
SLDTEXTSTYLE0
 11
0.7071067811865464
 21
-0.7071067811865488
 31
0.0
 73
     1
 44
1.0
  0
MTEXT
  5
200
330
1F5
100
AcDbEntity
  8
VERMASSUNG
100
AcDbMText
 10
47.6726720311
 20
139.6106348155
 30
0.1
 40
2.0
 41
0.0
 71
     1
 72
     1
  1
32
  7
SLDTEXTSTYLE0
 11
0.7071067811865464
 21
-0.7071067811865488
 31
0.0
 73
     1
 44
1.0
  0
MTEXT
  5
201
330
1F5
100
AcDbEntity
  8
VERMASSUNG
100
AcDbMText
 10
51.7650529286
 20
135.518253918
 30
0.1
 40
2.0
 41
0.0
 71
     1
 72
     1
  1
min.
  7
SLDTEXTSTYLE0
 11
0.7071067811865464
 21
-0.7071067811865488
 31
0.0
 73
     1
 44
1.0
  0
ENDBLK
  5
1F7
330
1F5
100
AcDbEntity
  8
0
100
AcDbBlockEnd
  0
BLOCK
  5
205
330
204
100
AcDbEntity
  8
0
100
AcDbBlockBegin
  2
_D_7
 70
     0
 10
0.0
 20
0.0
 30
0.0
  3
_D_7
  1

  0
ARC
  5
207
330
204
100
AcDbEntity
  8
VERMASSUNG
100
AcDbCircle
 10
71.0401969978
 20
124.0643975735
 30
0.0
 40
48.54161894721094
100
AcDbArc
 50
266.0
 51
270.0
  0
ARC
  5
208
330
204
100
AcDbEntity
  8
VERMASSUNG
100
AcDbCircle
 10
71.0401969978
 20
124.0643975735
 30
0.0
 40
48.54161894721094
100
AcDbArc
 50
256.5981024528
 51
266.0
  0
ARC
  5
209
330
204
100
AcDbEntity
  8
VERMASSUNG
100
AcDbCircle
 10
71.0401969978
 20
124.0643975735
 30
0.0
 40
48.54161894721092
100
AcDbArc
 50
270.0
 51
277.0696917946
  0
SOLID
  5
20A
330
204
100
AcDbEntity
  8
VERMASSUNG
100
AcDbTrace
 10
67.6541048302
 20
75.6410235704
 30
0.0
 11
64.7145226127
 21
76.3902607733
 31
0.0
 12
64.624067883
 22
75.4948178986
 32
0.0
 13
64.624067883
 23
75.4948178986
 33
0.0
  0
SOLID
  5
20B
330
204
100
AcDbEntity
  8
VERMASSUNG
100
AcDbTrace
 10
71.0401969978
 20
75.5227786263
 30
0.0
 11
74.0526541352
 21
75.1655644114
 31
0.0
 12
74.0248826861
 22
76.0651358353
 32
0.0
 13
74.0248826861
 23
76.0651358353
 33
0.0
  0
LINE
  5
20C
330
204
100
AcDbEntity
  8
VERMASSUNG
100
AcDbLine
 10
69.2517685788
 20
98.4886796291
 30
0.0
 11
67.5843483565
 21
74.6434595201
 31
0.0
  0
LINE
  5
20D
330
204
100
AcDbEntity
  8
VERMASSUNG
100
AcDbLine
 10
71.0401969978
 20
83.8650736814
 30
0.0
 11
71.0401969978
 21
74.5227786263
 31
0.0
  0
MTEXT
  5
20E
330
204
100
AcDbEntity
  8
VERMASSUNG
100
AcDbMText
 10
60.2547855974
 20
79.3250779056
 30
-29.9166700882
 40
2.0
 41
0.0
 71
     1
 72
     1
  1
4°
  7
SLDTEXTSTYLE0
 11
0.9826479818074353
 21
-0.1854803058272612
 31
0.0
 73
     1
 44
1.0
  0
ENDBLK
  5
206
330
204
100
AcDbEntity
  8
0
100
AcDbBlockEnd
  0
BLOCK
  5
210
330
20F
100
AcDbEntity
  8
0
100
AcDbBlockBegin
  2
SW_CENTERMARKSYMBOL_0
 70
     0
 10
0.0
 20
0.0
 30
0.0
  3
SW_CENTERMARKSYMBOL_0
  1

  0
LINE
  5
212
330
20F
100
AcDbEntity
  8
VERMASSUNG
 62
     0
100
AcDbLine
 10
0.0
 20
0.0
 30
0.0
 11
0.0
 21
2.5
 31
0.0
  0
LINE
  5
213
330
20F
100
AcDbEntity
  8
VERMASSUNG
 62
     0
100
AcDbLine
 10
0.0
 20
0.0
 30
0.0
 11
-2.5
 21
0.0
 31
0.0
  0
LINE
  5
214
330
20F
100
AcDbEntity
  8
VERMASSUNG
 62
     0
100
AcDbLine
 10
0.0
 20
0.0
 30
0.0
 11
0.0
 21
-2.5
 31
0.0
  0
LINE
  5
215
330
20F
100
AcDbEntity
  8
VERMASSUNG
 62
     0
100
AcDbLine
 10
0.0
 20
0.0
 30
0.0
 11
2.5
 21
0.0
 31
0.0
  0
LINE
  5
216
330
20F
100
AcDbEntity
  8
VERMASSUNG
 62
     0
100
AcDbLine
 10
0.0
 20
5.0
 30
0.0
 11
0.0
 21
27.5
 31
0.0
  0
LINE
  5
217
330
20F
100
AcDbEntity
  8
VERMASSUNG
 62
     0
100
AcDbLine
 10
-5.0
 20
0.0
 30
0.0
 11
-27.5
 21
0.0
 31
0.0
  0
LINE
  5
218
330
20F
100
AcDbEntity
  8
VERMASSUNG
 62
     0
100
AcDbLine
 10
0.0
 20
-5.0
 30
0.0
 11
0.0
 21
-27.5
 31
0.0
  0
LINE
  5
219
330
20F
100
AcDbEntity
  8
VERMASSUNG
 62
     0
100
AcDbLine
 10
5.0
 20
0.0
 30
0.0
 11
27.5
 21
0.0
 31
0.0
  0
ENDBLK
  5
211
330
20F
100
AcDbEntity
  8
0
100
AcDbBlockEnd
  0
ENDSEC
  0
SECTION
  2
ENTITIES
  0
MTEXT
  5
49
330
1F
100
AcDbEntity
  8
KOPF_DÜNN
100
AcDbMText
 10
13.8892156294
 20
23.8442973028
 30
0.0
 40
3.0
 41
0.0
 71
     1
 72
     1
  1
PS5.BCC.RLA.090
  7
SLDTEXTSTYLE0
 73
     1
 44
1.0
  0
MTEXT
  5
4A
330
1F
100
AcDbEntity
  8
VERMASSUNG
100
AcDbMText
 10
13.9329988022
 20
28.8834360957
 30
0.0
 40
3.0
 41
0.0
 71
     1
 72
     1
  1
Bohrstange_Boring bar
  7
SLDTEXTSTYLE0
 73
     1
 44
1.0
  0
MTEXT
  5
4B
330
1F
100
AcDbEntity
  8
VERMASSUNG
100
AcDbMText
 10
98.8601118557
 20
13.8365368179
 30
0.0
 40
2.0
 41
0.0
 71
     1
 72
     1
  1
Datum: 01.06.2012
  7
SLDTEXTSTYLE0
 73
     1
 44
1.0
  0
MTEXT
  5
4C
330
1F
100
AcDbEntity
  8
VERMASSUNG
100
AcDbMText
 10
13.933048693
 20
18.0482802738
 30
0.0
 40
2.0
 41
0.0
 71
     1
 72
     1
  1
PSC ø50 / Wp.: CC..12 04..
  7
SLDTEXTSTYLE0
 73
     1
 44
1.0
  0
MTEXT
  5
4D
330
1F
100
AcDbEntity
  8
VERMASSUNG
100
AcDbMText
 10
13.9808475933
 20
13.9090973692
 30
0.0
 40
2.0
 41
0.0
 71
     1
 72
     1
  1
Gewicht: 626g
  7
SLDTEXTSTYLE0
 73
     1
 44
1.0
  0
LINE
  5
4E
330
1F
100
AcDbEntity
  8
0
  6
Continuous
 62
     7
370
    15
100
AcDbLine
 10
244.5135571963
 20
121.2598246937
 30
0.0
 11
244.5135571963
 21
121.3714334597
 31
0.0
  0
LINE
  5
4F
330
1F
100
AcDbEntity
  8
0
  6
Continuous
 62
     7
370
    15
100
AcDbLine
 10
247.3518186218
 20
121.4827209194
 30
0.0
 11
247.3518186218
 21
121.3712416073
 31
0.0
  0
LINE
  5
50
330
1F
100
AcDbEntity
  8
0
  6
Continuous
 62
     7
370
    15
100
AcDbLine
 10
242.4311497218
 20
121.4017396276
 30
0.0
 11
242.4311497218
 21
121.3877884154
 31
0.0
  0
LINE
  5
51
330
1F
100
AcDbEntity
  8
0
  6
Continuous
 62
     7
370
    15
100
AcDbLine
 10
249.4311490065
 20
121.3877884154
 30
0.0
 11
249.4311490065
 21
121.4017396276
 31
0.0
  0
LINE
  5
52
330
1F
100
AcDbEntity
  8
0
  6
Continuous
 62
     7
370
    15
100
AcDbLine
 10
163.1765248805
 20
86.3650733088
 30
0.0
 11
182.2765254385
 21
86.3650733088
 31
0.0
  0
LINE
  5
53
330
1F
100
AcDbEntity
  8
0
  6
Continuous
 62
     7
370
    15
100
AcDbLine
 10
182.2765254385
 20
136.3650740539
 30
0.0
 11
163.1765248805
 21
136.3650740539
 31
0.0
  0
ARC
  5
54
330
1F
100
AcDbEntity
  8
0
  6
Continuous
 62
     7
370
    15
100
AcDbCircle
 10
163.1765248663
 20
86.6650736814
 30
0.0
 40
0.3000000000000114
100
AcDbArc
 50
180.0
 51
270.0
  0
ARC
  5
55
330
1F
100
AcDbEntity
  8
0
  6
Continuous
 62
     7
370
    15
100
AcDbCircle
 10
163.1765248663
 20
136.0650736814
 30
0.0
 40
0.3000000000000114
100
AcDbArc
 50
90.0
 51
180.0
  0
ARC
  5
56
330
1F
100
AcDbEntity
  8
0
  6
Continuous
 62
     7
370
    15
100
AcDbCircle
 10
182.2765248663
 20
86.9650736814
 30
0.0
 40
0.6000000000000227
100
AcDbArc
 50
270.0
 51
0.0
  0
ARC
  5
57
330
1F
100
AcDbEntity
  8
0
  6
Continuous
 62
     7
370
    15
100
AcDbCircle
 10
182.2765248663
 20
135.7650736814
 30
0.0
 40
0.6000000000000227
100
AcDbArc
 50
0.0
 51
90.0
  0
LWPOLYLINE
  5
58
330
1F
100
AcDbEntity
  8
0
  6
Continuous
 62
     7
370
    15
100
AcDbPolyline
 90
        3
 70
   128
 43
0.0
 10
162.6765248713
 20
93.5252526258
 10
162.8019798065
 20
93.4569512908
 10
162.8765248663
 20
93.4042142187
  0
LWPOLYLINE
  5
59
330
1F
100
AcDbEntity
  8
0
  6
Continuous
 62
     7
370
    15
100
AcDbPolyline
 90
        3
 70
   128
 43
0.0
 10
162.8765248663
 20
129.325933144
 10
162.8019798065
 20
129.2731960719
 10
162.6765248713
 20
129.2048947369
  0
ARC
  5
5A
330
1F
100
AcDbEntity
  8
0
  6
Continuous
 62
     7
370
    15
100
AcDbCircle
 10
186.8765248663
 20
94.8650736814
 30
0.0
 40
4.0
100
AcDbArc
 50
90.0
 51
180.0
  0
ARC
  5
5B
330
1F
100
AcDbEntity
  8
0
  6
Continuous
 62
     7
370
    15
100
AcDbCircle
 10
186.8765248663
 20
127.8650736814
 30
0.0
 40
4.0
100
AcDbArc
 50
180.0
 51
270.0
  0
LINE
  5
5C
330
1F
100
AcDbEntity
  8
0
  6
Continuous
 62
     7
370
    15
100
AcDbLine
 10
226.4623128778
 20
123.8650738676
 30
0.0
 11
186.8765250749
 21
123.8650738676
 31
0.0
  0
LINE
  5
5D
330
1F
100
AcDbEntity
  8
0
  6
Continuous
 62
     7
370
    15
100
AcDbLine
 10
186.8765250749
 20
98.8650734951
 30
0.0
 11
226.4623128778
 21
98.8650734951
 31
0.0
  0
ARC
  5
5E
330
1F
100
AcDbEntity
  8
0
  6
Continuous
 62
     7
370
    15
100
AcDbCircle
 10
226.4623113039
 20
124.8650736814
 30
0.0
 40
0.9999999999999992
100
AcDbArc
 50
290.1029878206
 51
304.4282891726
  0
ARC
  5
5F
330
1F
100
AcDbEntity
  8
0
  6
Continuous
 62
     7
370
    15
100
AcDbCircle
 10
226.4623113039
 20
97.8650736814
 30
0.0
 40
1.0
100
AcDbArc
 50
45.0
 51
90.0
  0
LINE
  5
60
330
1F
100
AcDbEntity
  8
0
  6
Continuous
 62
     7
370
    15
100
AcDbLine
 10
227.16941768
 20
98.5721809273
 30
0.0
 11
227.3765214688
 21
98.3650734131
 31
0.0
  0
LINE
  5
61
330
1F
100
AcDbEntity
  8
0
  6
Continuous
 62
     7
370
    15
100
AcDbLine
 10
227.3765214688
 20
98.3650734131
 30
0.0
 11
240.0552489764
 21
98.3650734131
 31
0.0
  0
CIRCLE
  5
62
330
1F
100
AcDbEntity
  8
0
  6
Continuous
 62
     7
370
    15
100
AcDbCircle
 10
245.9370550118
 20
121.4025924778
 30
0.0
 40
3.494070692223973
  0
CIRCLE
  5
63
330
1F
100
AcDbEntity
  8
0
  6
Continuous
 62
     7
370
    15
100
AcDbCircle
 10
245.9356105299
 20
121.437375248
 30
0.0
 40
2.629493394386415
  0
CIRCLE
  5
64
330
1F
100
AcDbEntity
  8
0
  6
Continuous
 62
     7
370
    15
100
AcDbCircle
 10
245.9345520234
 20
121.4373038273
 30
0.0
 40
1.99657881658111
  0
SPLINE
  5
65
330
1F
100
AcDbEntity
  8
0
  6
Continuous
 62
     7
370
    15
100
AcDbSpline
210
0.0
220
0.0
230
1.0
 70
     8
 71
     3
 72
    15
 73
    11
 74
     0
 42
0.00000001
 43
0.00000001
 12
1.0
 22
0.0
 32
0.0
 13
1.0
 23
0.0
 33
0.0
 40
0.0
 40
0.0
 40
0.0
 40
0.0
 40
0.1262470904329871
 40
0.2533638281941962
 40
0.3794193773252263
 40
0.5042720961925188
 40
0.6284498648986139
 40
0.7526377485209447
 40
0.8774879842752847
 40
1.0
 40
1.0
 40
1.0
 40
1.0
 10
246.2718942171966
 20
123.1048408379
 30
0.0
 10
246.2564791841581
 20
123.1467860128055
 30
0.0
 10
246.2255429323285
 20
123.2309653000421
 30
0.0
 10
246.1295099171251
 20
123.3289070696538
 30
0.0
 10
246.0093625283326
 20
123.3905878963469
 30
0.0
 10
245.8758393647563
 20
123.4081506653781
 30
0.0
 10
245.7447060402453
 20
123.3807286909504
 30
0.0
 10
245.6307952732378
 20
123.3115253271461
 30
0.0
 10
245.5433958119268
 20
123.2097106604903
 30
0.0
 10
245.5177964202907
 20
123.1260233713841
 30
0.0
 10
245.5051177150642
 20
123.0845752586763
 30
0.0
  0
SPLINE
  5
66
330
1F
100
AcDbEntity
  8
0
  6
Continuous
 62
     7
370
    15
100
AcDbSpline
210
0.0
220
0.0
230
1.0
 70
     8
 71
     3
 72
    12
 73
     8
 74
     0
 42
0.00000001
 43
0.00000001
 12
1.0
 22
0.0
 32
0.0
 13
1.0
 23
0.0
 33
0.0
 40
0.0
 40
0.0
 40
0.0
 40
0.0
 40
0.2058755433235115
 40
0.4121016904038584
 40
0.6141724591228672
 40
0.8132893336141097
 40
0.9999999999999999
 40
0.9999999999999999
 40
0.9999999999999999
 40
0.9999999999999999
 10
245.5051177150642
 20
123.0845752586763
 30
0.0
 10
245.4822291540229
 20
123.0102960022697
 30
0.0
 10
245.4364130529758
 20
122.8616109927102
 30
0.0
 10
245.2797783846087
 20
122.6830438829072
 30
0.0
 10
245.0803673889601
 20
122.5670523829477
 30
0.0
 10
244.8594836399364
 20
122.5206522927632
 30
0.0
 10
244.717491155633
 20
122.5476637344085
 30
0.0
 10
244.6487777835762
 20
122.5607351814549
 30
0.0
  0
SPLINE
  5
67
330
1F
100
AcDbEntity
  8
0
  6
Continuous
 62
     7
370
    15
100
AcDbSpline
210
0.0
220
0.0
230
1.0
 70
     8
 71
     3
 72
    23
 73
    19
 74
     0
 42
0.00000001
 43
0.00000001
 12
1.0
 22
0.0
 32
0.0
 13
1.0
 23
0.0
 33
0.0
 40
0.0
 40
0.0
 40
0.0
 40
0.0
 40
0.0625464034143674
 40
0.1268817904132187
 40
0.1895199351312168
 40
0.2540055846293717
 40
0.3161221558307324
 40
0.3800788897962821
 40
0.4416036864299752
 40
0.5049363359609409
 40
0.5661398548641543
 40
0.6291210280513856
 40
0.69033418654853
 40
0.7533046637871627
 40
0.814853417351185
 40
0.8781529948095812
 40
0.9382777631041852
 40
1.0
 40
1.0
 40
1.0
 40
1.0
 10
244.6487777835762
 20
122.5607351814549
 30
0.0
 10
244.6274154010471
 20
122.5656879375867
 30
0.0
 10
244.584079618415
 20
122.575735111064
 30
0.0
 10
244.5172723586904
 20
122.5766828614111
 30
0.0
 10
244.4506856136818
 20
122.5669802913357
 30
0.0
 10
244.3873484375138
 20
122.5460655868881
 30
0.0
 10
244.3280599573298
 20
122.5144771386358
 30
0.0
 10
244.2757290344572
 20
122.4738269302265
 30
0.0
 10
244.2307322078993
 20
122.4245295551013
 30
0.0
 10
244.1951388960325
 20
122.3690856559019
 30
0.0
 10
244.1691592896847
 20
122.3079338065707
 30
0.0
 10
244.1538799919586
 20
122.2439638517955
 30
0.0
 10
244.1494408076159
 20
122.177712271247
 30
0.0
 10
244.1559635931383
 20
122.1121328412862
 30
0.0
 10
244.1734004166295
 20
122.0478386785828
 30
0.0
 10
244.2008781292536
 20
121.9884127485117
 30
0.0
 10
244.2371253433863
 20
121.9337258126138
 30
0.0
 10
244.2675598630908
 20
121.9034981516663
 30
0.0
 10
244.282976628009
 20
121.8881861721318
 30
0.0
  0
SPLINE
  5
68
330
1F
100
AcDbEntity
  8
0
  6
Continuous
 62
     7
370
    15
100
AcDbSpline
210
0.0
220
0.0
230
1.0
 70
     8
 71
     3
 72
    12
 73
     8
 74
     0
 42
0.00000001
 43
0.00000001
 12
1.0
 22
0.0
 32
0.0
 13
1.0
 23
0.0
 33
0.0
 40
0.0
 40
0.0
 40
0.0
 40
0.0
 40
0.2057942953040784
 40
0.4120008544306931
 40
0.6140545362079275
 40
0.8131803612976112
 40
1.0
 40
1.0
 40
1.0
 40
1.0
 10
244.282976628009
 20
121.8881861721318
 30
0.0
 10
244.3353027930169
 20
121.8308954747289
 30
0.0
 10
244.4400599470503
 20
121.7161993105518
 30
0.0
 10
244.5156657462745
 20
121.4910067097371
 30
0.0
 10
244.516775660581
 20
121.2607998415307
 30
0.0
 10
244.4478211956523
 20
121.0474143502006
 30
0.0
 10
244.3546620804946
 20
120.9389683114401
 30
0.0
 10
244.3095677501594
 20
120.8864742373269
 30
0.0
  0
SPLINE
  5
69
330
1F
100
AcDbEntity
  8
0
  6
Continuous
 62
     7
370
    15
100
AcDbSpline
210
0.0
220
0.0
230
1.0
 70
     8
 71
     3
 72
    15
 73
    11
 74
     0
 42
0.00000001
 43
0.00000001
 12
1.0
 22
0.0
 32
0.0
 13
1.0
 23
0.0
 33
0.0
 40
0.0
 40
0.0
 40
0.0
 40
0.0
 40
0.1268020198983011
 40
0.253925245003197
 40
0.3799864901929074
 40
0.5048416237820031
 40
0.6290206471211515
 40
0.7532062294451458
 40
0.8780567481915449
 40
1.0
 40
1.0
 40
1.0
 40
1.0
 10
244.3095677501594
 20
120.8864742373269
 30
0.0
 10
244.2811548566524
 20
120.8527214281597
 30
0.0
 10
244.2242570962633
 20
120.7851303097832
 30
0.0
 10
244.1882737626235
 20
120.654482352954
 30
0.0
 10
244.1955570504231
 20
120.5208160397297
 30
0.0
 10
244.2474455505876
 20
120.3970678503662
 30
0.0
 10
244.3367600991004
 20
120.2972691082872
 30
0.0
 10
244.4533265318317
 20
120.2326583432291
 30
0.0
 10
244.5843654299739
 20
120.2067683977677
 30
0.0
 10
244.6688154858366
 20
120.2251220737422
 30
0.0
 10
244.7105430967247
 20
120.2341908072274
 30
0.0
  0
SPLINE
  5
6A
330
1F
100
AcDbEntity
  8
0
  6
Continuous
 62
     7
370
    15
100
AcDbSpline
210
0.0
220
0.0
230
1.0
 70
     8
 71
     3
 72
    12
 73
     8
 74
     0
 42
0.00000001
 43
0.00000001
 12
1.0
 22
0.0
 32
0.0
 13
1.0
 23
0.0
 33
0.0
 40
0.0
 40
0.0
 40
0.0
 40
0.0
 40
0.2058506771397521
 40
0.4120529162018707
 40
0.6141074080058725
 40
0.813243607888735
 40
1.0
 40
1.0
 40
1.0
 40
1.0
 10
244.7105430967247
 20
120.2341908072274
 30
0.0
 10
244.7857692941245
 20
120.2503539565683
 30
0.0
 10
244.936350163928
 20
120.2827078594724
 30
0.0
 10
245.1685530461243
 20
120.2347619150816
 30
0.0
 10
245.3690370513191
 20
120.1206499789618
 30
0.0
 10
245.520966121941
 20
119.9550710130219
 30
0.0
 10
245.569832333056
 20
119.821138025032
 30
0.0
 10
245.5934816009437
 20
119.7563198809665
 30
0.0
  0
SPLINE
  5
6B
330
1F
100
AcDbEntity
  8
0
  6
Continuous
 62
     7
370
    15
100
AcDbSpline
210
0.0
220
0.0
230
1.0
 70
     8
 71
     3
 72
    15
 73
    11
 74
     0
 42
0.00000001
 43
0.00000001
 12
1.0
 22
0.0
 32
0.0
 13
1.0
 23
0.0
 33
0.0
 40
0.0
 40
0.0
 40
0.0
 40
0.0
 40
0.1262578209945241
 40
0.2533795941640156
 40
0.3794426190033745
 40
0.5043015520409521
 40
0.6284794520963706
 40
0.7526624217530381
 40
0.8775110221737981
 40
1.0
 40
1.0
 40
1.0
 40
1.0
 10
245.5934816009437
 20
119.7563198809665
 30
0.0
 10
245.6088994909244
 20
119.715305355347
 30
0.0
 10
245.6398407718318
 20
119.6329956514854
 30
0.0
 10
245.7358722052725
 20
119.5370951055796
 30
0.0
 10
245.8560279506918
 20
119.4767035750508
 30
0.0
 10
245.9895565073157
 20
119.4595589400382
 30
0.0
 10
246.1206917176836
 20
119.4865208342313
 30
0.0
 10
246.2345940973038
 20
119.5544210346527
 30
0.0
 10
246.3219928521081
 20
119.654193554635
 30
0.0
 10
246.3475844013087
 20
119.7360484593732
 30
0.0
 10
246.3602581030761
 20
119.7765854601901
 30
0.0
  0
SPLINE
  5
6C
330
1F
100
AcDbEntity
  8
0
  6
Continuous
 62
     7
370
    15
100
AcDbSpline
210
0.0
220
0.0
230
1.0
 70
     8
 71
     3
 72
    12
 73
     8
 74
     0
 42
0.00000001
 43
0.00000001
 12
1.0
 22
0.0
 32
0.0
 13
1.0
 23
0.0
 33
0.0
 40
0.0
 40
0.0
 40
0.0
 40
0.0
 40
0.2058725118130407
 40
0.4120931386417535
 40
0.6141671323122506
 40
0.813310165409564
 40
1.0
 40
1.0
 40
1.0
 40
1.0
 10
246.3602581030761
 20
119.7765854601901
 30
0.0
 10
246.383147093326
 20
119.8492613226526
 30
0.0
 10
246.4289637773958
 20
119.994735937024
 30
0.0
 10
246.5855924525646
 20
120.1707283669525
 30
0.0
 10
246.7850076178316
 20
120.2869177647502
 30
0.0
 10
247.0058974271204
 20
120.3360342296753
 30
0.0
 10
247.14789217994
 20
120.3120369212785
 30
0.0
 10
247.2165980345642
 20
120.3004255374115
 30
0.0
  0
SPLINE
  5
6D
330
1F
100
AcDbEntity
  8
0
  6
Continuous
 62
     7
370
    15
100
AcDbSpline
210
0.0
220
0.0
230
1.0
 70
     8
 71
     3
 72
    15
 73
    11
 74
     0
 42
0.00000001
 43
0.00000001
 12
1.0
 22
0.0
 32
0.0
 13
1.0
 23
0.0
 33
0.0
 40
0.0
 40
0.0
 40
0.0
 40
0.0
 40
0.1268726397812187
 40
0.2539810393863164
 40
0.3800307314755259
 40
0.5048771439266273
 40
0.6290536663967657
 40
0.7532389748446804
 40
0.8780966960711148
 40
1.0
 40
1.0
 40
1.0
 40
1.0
 10
247.2165980345642
 20
120.3004255374115
 30
0.0
 10
247.2605402391744
 20
120.2934549004151
 30
0.0
 10
247.3485063035607
 20
120.2795006733053
 30
0.0
 10
247.4808234262304
 20
120.3153092329731
 30
0.0
 10
247.5937591183251
 20
120.3894114493777
 30
0.0
 10
247.6754165314419
 20
120.496414673584
 30
0.0
 10
247.7171674194418
 20
120.6231275617299
 30
0.0
 10
247.714393553253
 20
120.7551434935897
 30
0.0
 10
247.6704577378915
 20
120.8797482918802
 30
0.0
 10
247.6115168103194
 20
120.9421481619094
 30
0.0
 10
247.5823991901314
 20
120.9729745467346
 30
0.0
  0
SPLINE
  5
6E
330
1F
100
AcDbEntity
  8
0
  6
Continuous
 62
     7
370
    15
100
AcDbSpline
210
0.0
220
0.0
230
1.0
 70
     8
 71
     3
 72
    17
 73
    13
 74
     0
 42
0.00000001
 43
0.00000001
 12
1.0
 22
0.0
 32
0.0
 13
1.0
 23
0.0
 33
0.0
 40
0.0
 40
0.0
 40
0.0
 40
0.0
 40
0.1014802202996699
 40
0.2058410569104932
 40
0.3074600836975235
 40
0.4121390285394146
 40
0.5117196752580868
 40
0.6142782709003989
 40
0.7124643139751643
 40
0.813410599564039
 40
0.9056264233291029
 40
1.0
 40
1.0
 40
1.0
 40
1.0
 10
247.5823991901314
 20
120.9729745467346
 30
0.0
 10
247.5553721071881
 20
120.9990203180788
 30
0.0
 10
247.5005507508507
 20
121.0518511957189
 30
0.0
 10
247.4367304364093
 20
121.1471308152984
 30
0.0
 10
247.3882552638473
 20
121.252440125908
 30
0.0
 10
247.358986549983
 20
121.3635836492041
 30
0.0
 10
247.3486506638596
 20
121.4787841188974
 30
0.0
 10
247.3574047864788
 20
121.5920352480314
 30
0.0
 10
247.3846082190991
 20
121.7029226663268
 30
0.0
 10
247.4279380616146
 20
121.8041153281749
 30
0.0
 10
247.4847172116685
 20
121.8967475924057
 30
0.0
 10
247.531929126891
 20
121.9485073322258
 30
0.0
 10
247.5558080679809
 20
121.9746864815395
 30
0.0
  0
SPLINE
  5
6F
330
1F
100
AcDbEntity
  8
0
  6
Continuous
 62
     7
370
    15
100
AcDbSpline
210
0.0
220
0.0
230
1.0
 70
     8
 71
     3
 72
    23
 73
    19
 74
     0
 42
0.00000001
 43
0.00000001
 12
1.0
 22
0.0
 32
0.0
 13
1.0
 23
0.0
 33
0.0
 40
0.0
 40
0.0
 40
0.0
 40
0.0
 40
0.0624966534469968
 40
0.1267848995988264
 40
0.1894220645863216
 40
0.253904544257685
 40
0.3160165926654435
 40
0.3799637821834997
 40
0.4414898708299907
 40
0.5048171945454408
 40
0.5660187826206912
 40
0.6289969137433364
 40
0.690214702677021
 40
0.7531864868338891
 40
0.8147369722678485
 40
0.8780413806845758
 40
0.9382209897350058
 40
1.0
 40
1.0
 40
1.0
 40
1.0
 10
247.5558080679809
 20
121.9746864815395
 30
0.0
 10
247.5705723926939
 20
121.991006654617
 30
0.0
 10
247.6005242912857
 20
122.0241148514713
 30
0.0
 10
247.6341917950324
 20
122.0822728947483
 30
0.0
 10
247.6585826648551
 20
122.1454731204287
 30
0.0
 10
247.6717049020294
 20
122.2113435639236
 30
0.0
 10
247.6736164595391
 20
122.2789094978316
 30
0.0
 10
247.6642866989934
 20
122.3448376942753
 30
0.0
 10
247.6438645659373
 20
122.4085951971788
 30
0.0
 10
247.6135028428075
 20
122.467140295216
 30
0.0
 10
247.573486125741
 20
122.5200826945011
 30
0.0
 10
247.5257407841825
 20
122.5650156361476
 30
0.0
 10
247.4707017685459
 20
122.6015886148587
 30
0.0
 10
247.4108338465992
 20
122.6281889788243
 30
0.0
 10
247.3467161968827
 20
122.6445936092602
 30
0.0
 10
247.281846805977
 20
122.6497545822029
 30
0.0
 10
247.2167481202274
 20
122.644860647865
 30
0.0
 10
247.1756508416205
 20
122.6329854022028
 30
0.0
 10
247.1548327214157
 20
122.626969911639
 30
0.0
  0
SPLINE
  5
70
330
1F
100
AcDbEntity
  8
0
  6
Continuous
 62
     7
370
    15
100
AcDbSpline
210
0.0
220
0.0
230
1.0
 70
     8
 71
     3
 72
    12
 73
     8
 74
     0
 42
0.00000001
 43
0.00000001
 12
1.0
 22
0.0
 32
0.0
 13
1.0
 23
0.0
 33
0.0
 40
0.0
 40
0.0
 40
0.0
 40
0.0
 40
0.2058931976817518
 40
0.4121334845726507
 40
0.614224189650469
 40
0.8133489598577383
 40
1.0
 40
1.0
 40
1.0
 40
1.0
 10
247.1548327214157
 20
122.626969911639
 30
0.0
 10
247.0795939350626
 20
122.6092027053992
 30
0.0
 10
246.9289895268362
 20
122.5736383414418
 30
0.0
 10
246.6967560502088
 20
122.6190330161184
 30
0.0
 10
246.4962608253289
 20
122.7333730828214
 30
0.0
 10
246.3443736251251
 20
122.9016839214123
 30
0.0
 10
246.2955275545691
 20
123.0385975270875
 30
0.0
 10
246.2718942171966
 20
123.1048408379
 30
0.0
  0
LWPOLYLINE
  5
71
330
1F
100
AcDbEntity
  8
0
  6
Continuous
 62
     7
370
    15
100
AcDbPolyline
 90
        3
 70
   128
 43
0.0
 10
244.1980772621
 20
120.5552288746
 10
244.2330279357
 20
120.6649619569
 10
244.3095677502
 20
120.7714354103
  0
ARC
  5
72
330
1F
100
AcDbEntity
  8
0
  6
Continuous
 62
     7
370
    15
100
AcDbCircle
 10
247.3215138441
 20
120.5644400965
 30
0.0
 40
0.3926583995125258
100
AcDbArc
 50
7.1888107583
 51
48.363082217
  0
ARC
  5
73
330
1F
100
AcDbEntity
  8
0
  6
Continuous
 62
     7
370
    15
100
AcDbCircle
 10
243.8266110659
 20
121.2599513704
 30
0.0
 40
0.6869461420887552
100
AcDbArc
 50
314.672127086
 51
359.9894343401
  0
ARC
  5
74
330
1F
100
AcDbEntity
  8
0
  6
Continuous
 62
     7
370
    15
100
AcDbCircle
 10
248.0387725483
 20
121.371349473
 30
0.0
 40
0.6869539349731355
100
AcDbArc
 50
180.0089966061
 51
228.3680224034
  0
ARC
  5
75
330
1F
100
AcDbEntity
  8
0
  6
Continuous
 62
     7
370
    15
100
AcDbCircle
 10
244.5449750854
 20
122.0658246527
 30
0.0
 40
0.3938239739515124
100
AcDbArc
 50
74.7176216615
 51
174.3331883737
  0
ARC
  5
76
330
1F
100
AcDbEntity
  8
0
  6
Continuous
 62
     7
370
    15
100
AcDbCircle
 10
247.2785697201
 20
122.1380085906
 30
0.0
 40
0.3938631486673428
100
AcDbArc
 50
5.675243668
 51
108.3102570805
  0
ARC
  5
77
330
1F
100
AcDbEntity
  8
0
  6
Continuous
 62
     7
370
    15
100
AcDbCircle
 10
244.8302365083
 20
123.1109500756
 30
0.0
 40
0.6895325136260049
100
AcDbArc
 50
254.7422355405
 51
348.1676652461
  0
ARC
  5
78
330
1F
100
AcDbEntity
  8
0
  6
Continuous
 62
     7
370
    15
100
AcDbCircle
 10
246.938501455
 20
123.166835051
 30
0.0
 40
0.6897098243865712
100
AcDbArc
 50
194.8714907554
 51
288.2796654539
  0
ARC
  5
79
330
1F
100
AcDbEntity
  8
0
  6
Continuous
 62
     7
370
    15
100
AcDbCircle
 10
245.8909115071
 20
122.8886364449
 30
0.0
 40
0.3941901542898727
100
AcDbArc
 50
14.8735366995
 51
168.1531131713
  0
ARC
  5
7A
330
1F
100
AcDbEntity
  8
0
  6
Continuous
 62
     7
370
    15
100
AcDbCircle
 10
245.9311493642
 20
121.3945506109
 30
0.0
 40
3.500006174836398
100
AcDbArc
 50
180.1106985198
 51
359.8893014802
  0
LINE
  5
7B
330
1F
100
AcDbEntity
  8
0
  6
Continuous
 62
     7
370
    15
100
AcDbLine
 10
252.4416604049
 20
128.3635546868
 30
0.0
 11
240.4040702588
 21
127.3129669433
 31
0.0
  0
ARC
  5
7C
330
1F
100
AcDbEntity
  8
0
  6
Continuous
 62
     7
370
    15
100
AcDbCircle
 10
252.4769691574
 20
127.9656077438
 30
0.0
 40
0.3995102970457203
100
AcDbArc
 50
355.0693879873
 51
95.0704211956
  0
LINE
  5
7D
330
1F
100
AcDbEntity
  8
0
  6
Continuous
 62
     7
370
    15
100
AcDbLine
 10
251.821846605
 20
115.9229984922
 30
0.0
 11
252.8750010735
 21
127.9312701379
 31
0.0
  0
ARC
  5
7E
330
1F
100
AcDbEntity
  8
0
  6
Continuous
 62
     7
370
    15
100
AcDbCircle
 10
251.423906237
 20
115.9582936595
 30
0.0
 40
0.3995025473127676
100
AcDbArc
 50
274.9295674102
 51
354.9314362009
  0
LINE
  5
7F
330
1F
100
AcDbEntity
  8
0
  6
Continuous
 62
     7
370
    15
100
AcDbLine
 10
239.4206383235
 20
114.5096810949
 30
0.0
 11
251.4582359201
 21
115.5602688384
 31
0.0
  0
ARC
  5
80
330
1F
100
AcDbEntity
  8
0
  6
Continuous
 62
     7
370
    15
100
AcDbCircle
 10
239.3853366389
 20
114.9076351231
 30
0.0
 40
0.399516729955361
100
AcDbArc
 50
175.0704874603
 51
275.0693217226
  0
LINE
  5
81
330
1F
100
AcDbEntity
  8
0
  6
Continuous
 62
     7
370
    15
100
AcDbLine
 10
240.0404521233
 20
126.9502382209
 30
0.0
 11
238.9872976548
 21
114.9419656438
 31
0.0
  0
ARC
  5
82
330
1F
100
AcDbEntity
  8
0
  6
Continuous
 62
     7
370
    15
100
AcDbCircle
 10
240.4384039324
 20
126.9149298575
 30
0.0
 40
0.3995151096232649
100
AcDbArc
 50
94.9299864286
 51
174.9296960675
  0
ARC
  5
83
330
1F
100
AcDbEntity
  8
0
  6
Continuous
 62
     7
370
    15
100
AcDbCircle
 10
239.3853593313
 20
114.9076145167
 30
0.0
 40
0.3795425343584334
100
AcDbArc
 50
175.0707583519
 51
275.0691415324
  0
LINE
  5
84
330
1F
100
AcDbEntity
  8
0
  6
Continuous
 62
     7
370
    15
100
AcDbLine
 10
239.4188948876
 20
114.52955645
 30
0.0
 11
251.4564924843
 21
115.5801441935
 31
0.0
  0
ARC
  5
85
330
1F
100
AcDbEntity
  8
0
  6
Continuous
 62
     7
370
    15
100
AcDbCircle
 10
251.42387553
 20
115.9582727277
 30
0.0
 40
0.3795326785854647
100
AcDbArc
 50
274.9300679591
 51
354.9308122215
  0
LINE
  5
86
330
1F
100
AcDbEntity
  8
0
  6
Continuous
 62
     7
370
    15
100
AcDbLine
 10
251.8019237525
 20
115.9247377371
 30
0.0
 11
252.855078221
 21
127.9330098485
 31
0.0
  0
ARC
  5
87
330
1F
100
AcDbEntity
  8
0
  6
Continuous
 62
     7
370
    15
100
AcDbCircle
 10
252.4769422915
 20
127.9656250978
 30
0.0
 40
0.3795398999531748
100
AcDbArc
 50
355.0702844112
 51
95.0696154731
  0
LINE
  5
88
330
1F
100
AcDbEntity
  8
0
  6
Continuous
 62
     7
370
    15
100
AcDbLine
 10
252.4434038407
 20
128.343680263
 30
0.0
 11
240.4058136947
 21
127.2930925195
 31
0.0
  0
ARC
  5
89
330
1F
100
AcDbEntity
  8
0
  6
Continuous
 62
     7
370
    15
100
AcDbCircle
 10
240.4384311032
 20
126.9149554012
 30
0.0
 40
0.3795412699032029
100
AcDbArc
 50
94.9300249147
 51
174.9296969001
  0
LINE
  5
8A
330
1F
100
AcDbEntity
  8
0
  6
Continuous
 62
     7
370
    15
100
AcDbLine
 10
240.0603749759
 20
126.9484985103
 30
0.0
 11
239.0072205073
 21
114.9402268646
 31
0.0
  0
LINE
  5
8B
330
1F
100
AcDbEntity
  8
0
  6
Continuous
 62
     7
370
    15
100
AcDbLine
 10
251.4233746535
 20
115.9424719815
 30
0.0
 11
251.4564924843
 21
115.5801441935
 31
0.0
  0
LINE
  5
8C
330
1F
100
AcDbEntity
  8
0
  6
Continuous
 62
     7
370
    15
100
AcDbLine
 10
239.3857770569
 20
114.891884238
 30
0.0
 11
239.4188948876
 21
114.52955645
 31
0.0
  0
LINE
  5
8D
330
1F
100
AcDbEntity
  8
0
  6
Continuous
 62
     7
370
    15
100
AcDbLine
 10
240.3047763712
 20
115.7750006248
 30
0.0
 11
239.3857770569
 21
114.891884238
 31
0.0
  0
LINE
  5
8E
330
1F
100
AcDbEntity
  8
0
  6
Continuous
 62
     7
370
    15
100
AcDbLine
 10
250.8496799476
 20
116.4897380811
 30
0.0
 11
251.4233746535
 21
115.9424719815
 31
0.0
  0
LINE
  5
8F
330
1F
100
AcDbEntity
  8
0
  6
Continuous
 62
     7
370
    15
100
AcDbLine
 10
239.3857770569
 20
114.891884238
 30
0.0
 11
239.0072205073
 21
114.9402268646
 31
0.0
  0
LINE
  5
90
330
1F
100
AcDbEntity
  8
0
  6
Continuous
 62
     7
370
    15
100
AcDbLine
 10
240.4389315254
 20
126.9001563494
 30
0.0
 11
240.0603749759
 21
126.9484985103
 31
0.0
  0
LINE
  5
91
330
1F
100
AcDbEntity
  8
0
  6
Continuous
 62
     7
370
    15
100
AcDbLine
 10
241.0126262314
 20
126.3028284018
 30
0.0
 11
240.4389315254
 21
126.9001563494
 31
0.0
  0
LINE
  5
92
330
1F
100
AcDbEntity
  8
0
  6
Continuous
 62
     7
370
    15
100
AcDbLine
 10
251.4233746535
 20
115.9424719815
 30
0.0
 11
251.8019237525
 21
115.9247377371
 31
0.0
  0
LINE
  5
93
330
1F
100
AcDbEntity
  8
0
  6
Continuous
 62
     7
370
    15
100
AcDbLine
 10
242.3550941951
 20
116.7885641051
 30
0.0
 11
249.0921028859
 21
117.3765401771
 31
0.0
  0
LINE
  5
94
330
1F
100
AcDbEntity
  8
0
  6
Continuous
 62
     7
370
    15
100
AcDbLine
 10
252.4765216715
 20
127.9507440929
 30
0.0
 11
252.855078221
 21
127.9330098485
 31
0.0
  0
LINE
  5
95
330
1F
100
AcDbEntity
  8
0
  6
Continuous
 62
     7
370
    15
100
AcDbLine
 10
251.5575223572
 20
127.0003368561
 30
0.0
 11
252.4765216715
 21
127.9507440929
 31
0.0
  0
ARC
  5
96
330
1F
100
AcDbEntity
  8
0
  6
Continuous
 62
     7
370
    15
100
AcDbCircle
 10
242.2668301463
 20
117.783432454
 30
0.0
 40
0.9987760379598761
100
AcDbArc
 50
175.0694465348
 51
275.0699686051
  0
LINE
  5
97
330
1F
100
AcDbEntity
  8
0
  6
Continuous
 62
     7
370
    15
100
AcDbLine
 10
249.5072045333
 20
126.084672608
 30
0.0
 11
242.7701958424
 21
125.4966960703
 31
0.0
  0
ARC
  5
98
330
1F
100
AcDbEntity
  8
0
  6
Continuous
 62
     7
370
    15
100
AcDbCircle
 10
249.5954627256
 20
125.089791454
 30
0.0
 40
0.9987882753419027
100
AcDbArc
 50
355.0701907615
 51
95.0695690459
  0
LINE
  5
99
330
1F
100
AcDbEntity
  8
0
  6
Continuous
 62
     7
370
    15
100
AcDbLine
 10
250.001140774
 20
118.283364777
 30
0.0
 11
250.590556205
 21
125.0039603044
 31
0.0
  0
ARC
  5
9A
330
1F
100
AcDbEntity
  8
0
  6
Continuous
 62
     7
370
    15
100
AcDbCircle
 10
249.0062721713
 20
118.3716209679
 30
0.0
 40
0.9987755963487119
100
AcDbArc
 50
274.9298469317
 51
354.9304816946
  0
LINE
  5
9B
330
1F
100
AcDbEntity
  8
0
  6
Continuous
 62
     7
370
    15
100
AcDbLine
 10
241.8611579544
 20
124.589871936
 30
0.0
 11
241.271749974
 21
117.8692754773
 31
0.0
  0
ARC
  5
9C
330
1F
100
AcDbEntity
  8
0
  6
Continuous
 62
     7
370
    15
100
AcDbCircle
 10
242.856031577
 20
124.501610202
 30
0.0
 40
0.9987810864425566
100
AcDbArc
 50
94.9301088058
 51
174.9301903987
  0
CIRCLE
  5
9D
330
1F
100
AcDbEntity
  8
0
  6
Continuous
 62
     7
370
    15
100
AcDbCircle
 10
245.9250281482
 20
121.4344008603
 30
0.0
 40
3.794021381957575
  0
LINE
  5
9E
330
1F
100
AcDbEntity
  8
0
  6
Continuous
 62
     7
370
    15
100
AcDbLine
 10
242.145613671
 20
121.6867830088
 30
0.0
 11
242.1311520941
 21
121.3563981881
 31
0.0
  0
ARC
  5
9F
330
1F
100
AcDbEntity
  8
0
  6
Continuous
 62
     7
370
    15
100
AcDbCircle
 10
245.9308496252
 20
121.3486063229
 30
0.0
 40
3.8003124476196
100
AcDbArc
 50
0.1174748935
 51
174.8946933719
  0
SPLINE
  5
A0
330
1F
100
AcDbEntity
  8
0
  6
Continuous
 62
     7
370
    15
100
AcDbSpline
210
0.0
220
0.0
230
1.0
 70
     8
 71
     3
 72
    11
 73
     7
 74
     0
 42
0.00000001
 43
0.00000001
 12
1.0
 22
0.0
 32
0.0
 13
1.0
 23
0.0
 33
0.0
 40
0.0
 40
0.0
 40
0.0
 40
0.0
 40
0.0076316477638101
 40
0.320988859389263
 40
0.6632197122899385
 40
0.9999999999999999
 40
0.9999999999999999
 40
0.9999999999999999
 40
0.9999999999999999
 10
240.7937058216964
 20
116.2679939014059
 30
0.0
 10
240.7925888666746
 20
116.2668178685795
 30
0.0
 10
240.7456094816782
 20
116.2173536575454
 30
0.0
 10
240.6416107743462
 20
116.1092520801663
 30
0.0
 10
240.4721352228386
 20
115.9376953745089
 30
0.0
 10
240.3602633152948
 20
115.8289412105493
 30
0.0
 10
240.3047763711845
 20
115.7750006248396
 30
0.0
  0
SPLINE
  5
A1
330
1F
100
AcDbEntity
  8
0
  6
Continuous
 62
     7
370
    15
100
AcDbSpline
210
0.0
220
0.0
230
1.0
 70
     8
 71
     3
 72
    11
 73
     7
 74
     0
 42
0.00000001
 43
0.00000001
 12
1.0
 22
0.0
 32
0.0
 13
1.0
 23
0.0
 33
0.0
 40
0.0
 40
0.0
 40
0.0
 40
0.0
 40
0.3372314729317372
 40
0.6736306626329919
 40
0.9918871962722605
 40
1.0
 40
1.0
 40
1.0
 40
1.0
 10
250.8496799475586
 20
116.4897380811315
 30
0.0
 10
250.7947742017094
 20
116.5427557800149
 30
0.0
 10
250.6850982167333
 20
116.6486603307367
 30
0.0
 10
250.5136679525307
 20
116.821545731485
 30
0.0
 10
250.4081363229108
 20
116.9308502508716
 30
0.0
 10
250.3602132222646
 20
116.9814275541763
 30
0.0
 10
250.3590219623482
 20
116.982684791569
 30
0.0
  0
LINE
  5
A2
330
1F
100
AcDbEntity
  8
0
  6
Continuous
 62
     7
370
    15
100
AcDbLine
 10
240.4389315254
 20
126.9001563494
 30
0.0
 11
240.4058136947
 21
127.2930925195
 31
0.0
  0
LINE
  5
A3
330
1F
100
AcDbEntity
  8
0
  6
Continuous
 62
     7
370
    15
100
AcDbLine
 10
252.4765216715
 20
127.9507440929
 30
0.0
 11
252.4434038407
 21
128.343680263
 31
0.0
  0
SPLINE
  5
A4
330
1F
100
AcDbEntity
  8
0
  6
Continuous
 62
     7
370
    15
100
AcDbSpline
210
0.0
220
0.0
230
1.0
 70
     8
 71
     3
 72
    11
 73
     7
 74
     0
 42
0.00000001
 43
0.00000001
 12
1.0
 22
0.0
 32
0.0
 13
1.0
 23
0.0
 33
0.0
 40
0.0
 40
0.0
 40
0.0
 40
0.0
 40
0.0081132105036013
 40
0.3263649451508393
 40
0.662766142056659
 40
1.0
 40
1.0
 40
1.0
 40
1.0
 10
241.5032767660057
 20
125.8168540378254
 30
0.0
 10
241.5020855062762
 20
125.8179762591915
 30
0.0
 10
241.4541654608039
 20
125.8631191424472
 30
0.0
 10
241.3486381959322
 20
125.9641945284108
 30
0.0
 10
241.1772075635283
 20
126.133406903302
 30
0.0
 10
241.0675318644257
 20
126.2463080510121
 30
0.0
 10
241.0126262313759
 20
126.3028284018081
 30
0.0
  0
SPLINE
  5
A5
330
1F
100
AcDbEntity
  8
0
  6
Continuous
 62
     7
370
    15
100
AcDbSpline
210
0.0
220
0.0
230
1.0
 70
     8
 71
     3
 72
    11
 73
     7
 74
     0
 42
0.00000001
 43
0.00000001
 12
1.0
 22
0.0
 32
0.0
 13
1.0
 23
0.0
 33
0.0
 40
0.0
 40
0.0
 40
0.0
 40
0.0
 40
0.336781373175937
 40
0.6790155770847792
 40
0.9923740515445354
 40
1.0
 40
1.0
 40
1.0
 40
1.0
 10
251.5575223571693
 20
127.0003368561309
 30
0.0
 10
251.5020324793774
 20
126.9435673463289
 30
0.0
 10
251.3901542866023
 20
126.8291091709985
 30
0.0
 10
251.2207219306566
 20
126.6626065445476
 30
0.0
 10
251.1166232170269
 20
126.5630931344096
 30
0.0
 10
251.0697148073143
 20
126.5189065982481
 30
0.0
 10
251.068600357238
 20
126.5178568144482
 30
0.0
  0
SPLINE
  5
A6
330
1F
100
AcDbEntity
  8
0
  6
Continuous
 62
     7
370
    15
100
AcDbSpline
210
0.0
220
0.0
230
1.0
 70
     8
 71
     3
 72
    12
 73
     8
 74
     0
 42
0.00000001
 43
0.00000001
 12
1.0
 22
0.0
 32
0.0
 13
1.0
 23
0.0
 33
0.0
 40
0.0
 40
0.0
 40
0.0
 40
0.0
 40
0.2500000000000009
 40
0.2500000000000009
 40
0.5000000000000019
 40
0.5000000000000019
 40
1.0
 40
1.0
 40
1.0
 40
1.0
 10
171.4042816798529
 20
118.9338836505391
 30
0.0
 10
171.3406164433224
 20
118.9338836505391
 30
0.0
 10
171.2810102110991
 20
118.9599557990187
 30
0.0
 10
171.1823496861682
 20
119.0354945498398
 30
0.0
 10
171.1433826961529
 20
119.0827454869361
 30
0.0
 10
171.0439958642285
 20
119.2345693049025
 30
0.0
 10
171.001919616805
 20
119.3473725546676
 30
0.0
 10
170.9712689779607
 20
119.4615266794027
 30
0.0
  0
LINE
  5
A7
330
1F
100
AcDbEntity
  8
0
  6
Continuous
 62
     7
370
    15
100
AcDbLine
 10
174.3487677506
 20
118.9338838165
 30
0.0
 11
171.4042815349
 21
118.9338838165
 31
0.0
  0
SPLINE
  5
A8
330
1F
100
AcDbEntity
  8
0
  6
Continuous
 62
     7
370
    15
100
AcDbSpline
210
0.0
220
0.0
230
1.0
 70
     8
 71
     3
 72
    12
 73
     8
 74
     0
 42
0.00000001
 43
0.00000001
 12
1.0
 22
0.0
 32
0.0
 13
1.0
 23
0.0
 33
0.0
 40
0.0
 40
0.0
 40
0.0
 40
0.0
 40
0.5000000000000018
 40
0.5000000000000018
 40
0.7500000000000009
 40
0.7500000000000009
 40
1.0
 40
1.0
 40
1.0
 40
1.0
 10
174.7817807546122
 20
119.4615266794027
 30
0.0
 10
174.7510813712449
 20
119.3471910123388
 30
0.0
 10
174.7097313031383
 20
119.2358376594974
 30
0.0
 10
174.6099753749189
 20
119.0831008872487
 30
0.0
 10
174.5702784571862
 20
119.0352410013966
 30
0.0
 10
174.4730203055386
 20
118.9606378880471
 30
0.0
 10
174.4122441475479
 20
118.9338836505391
 30
0.0
 10
174.34876805272
 20
118.9338836505391
 30
0.0
  0
ELLIPSE
  5
A9
330
1F
100
AcDbEntity
  8
0
  6
Continuous
 62
     7
370
    15
100
AcDbEllipse
 10
161.8202672113
 20
111.3650736814
 30
0.0
 11
11.70927234972709
 21
24.6771864409374
 31
0.0
210
0.0
220
0.0
230
1.0
 40
0.3419987131
 41
5.20306880937045
 42
6.114256032590499
  0
SPLINE
  5
AA
330
1F
100
AcDbEntity
  8
0
  6
Continuous
 62
     7
370
    15
100
AcDbSpline
210
0.0
220
0.0
230
1.0
 70
     8
 71
     3
 72
    12
 73
     8
 74
     0
 42
0.00000001
 43
0.00000001
 12
1.0
 22
0.0
 32
0.0
 13
1.0
 23
0.0
 33
0.0
 40
0.0
 40
0.0
 40
0.0
 40
0.0
 40
0.2499999999999998
 40
0.2499999999999998
 40
0.4999999999999996
 40
0.4999999999999996
 40
1.0
 40
1.0
 40
1.0
 40
1.0
 10
174.34876805272
 20
135.1918047968605
 30
0.0
 10
174.4124332892505
 20
135.1918047968605
 30
0.0
 10
174.4720395214739
 20
135.1835400211947
 30
0.0
 10
174.5707000464047
 20
135.1593212396115
 30
0.0
 10
174.6096670364199
 20
135.1440639203023
 30
0.0
 10
174.7090538683444
 20
135.0944305660404
 30
0.0
 10
174.7511301157679
 20
135.0567908578663
 30
0.0
 10
174.7817807546122
 20
135.0177151585902
 30
0.0
  0
LINE
  5
AB
330
1F
100
AcDbEntity
  8
0
  6
Continuous
 62
     7
370
    15
100
AcDbLine
 10
171.4042815349
 20
135.1918050503
 30
0.0
 11
174.3487677506
 21
135.1918050503
 31
0.0
  0
SPLINE
  5
AC
330
1F
100
AcDbEntity
  8
0
  6
Continuous
 62
     7
370
    15
100
AcDbSpline
210
0.0
220
0.0
230
1.0
 70
     8
 71
     3
 72
    12
 73
     8
 74
     0
 42
0.00000001
 43
0.00000001
 12
1.0
 22
0.0
 32
0.0
 13
1.0
 23
0.0
 33
0.0
 40
0.0
 40
0.0
 40
0.0
 40
0.0
 40
0.4999999999999972
 40
0.4999999999999972
 40
0.7499999999999986
 40
0.7499999999999986
 40
1.0
 40
1.0
 40
1.0
 40
1.0
 10
170.9712689779607
 20
135.0177151585902
 30
0.0
 10
171.001968361328
 20
135.0568530009861
 30
0.0
 10
171.0433184294345
 20
135.0940127837115
 30
0.0
 10
171.1430743576539
 20
135.1439492893393
 30
0.0
 10
171.1827712753866
 20
135.1594021594831
 30
0.0
 10
171.2800294270343
 20
135.1833217030821
 30
0.0
 10
171.340805585025
 20
135.1918047968605
 30
0.0
 10
171.4042816798529
 20
135.1918047968605
 30
0.0
  0
ELLIPSE
  5
AD
330
1F
100
AcDbEntity
  8
0
  6
Continuous
 62
     7
370
    15
100
AcDbEllipse
 10
183.9327825213
 20
111.3650736814
 30
0.0
 11
-11.70927234972695
 21
24.67718644093741
 31
0.0
210
0.0
220
0.0
230
1.0
 40
0.3419987131
 41
0.1689292745891329
 42
1.080116497809151
  0
SPLINE
  5
AE
330
1F
100
AcDbEntity
  8
0
  6
Continuous
 62
     7
370
    15
100
AcDbSpline
210
0.0
220
0.0
230
1.0
 70
     8
 71
     3
 72
    12
 73
     8
 74
     0
 42
0.00000001
 43
0.00000001
 12
1.0
 22
0.0
 32
0.0
 13
1.0
 23
0.0
 33
0.0
 40
0.0
 40
0.0
 40
0.0
 40
0.0
 40
0.2499999999999984
 40
0.2499999999999984
 40
0.4999999999999968
 40
0.4999999999999968
 40
1.0
 40
1.0
 40
1.0
 40
1.0
 10
171.4042816798529
 20
87.53834256585661
 30
0.0
 10
171.3406451256392
 20
87.53834256585661
 30
0.0
 10
171.281064998773
 20
87.54659933678838
 30
0.0
 10
171.1824282574066
 20
87.5708013987962
 30
0.0
 10
171.1434696330263
 20
87.58604821783034
 30
0.0
 10
171.0440906935184
 20
87.63565308989047
 30
0.0
 10
171.002132788353
 20
87.67308473800925
 30
0.0
 10
170.9712689779605
 20
87.71243220412691
 30
0.0
  0
LINE
  5
AF
330
1F
100
AcDbEntity
  8
0
  6
Continuous
 62
     7
370
    15
100
AcDbLine
 10
174.3487677506
 20
87.5383423125
 30
0.0
 11
171.4042815349
 21
87.5383423125
 31
0.0
  0
SPLINE
  5
B0
330
1F
100
AcDbEntity
  8
0
  6
Continuous
 62
     7
370
    15
100
AcDbSpline
210
0.0
220
0.0
230
1.0
 70
     8
 71
     3
 72
    12
 73
     8
 74
     0
 42
0.00000001
 43
0.00000001
 12
1.0
 22
0.0
 32
0.0
 13
1.0
 23
0.0
 33
0.0
 40
0.0
 40
0.0
 40
0.0
 40
0.0
 40
0.4999999999999996
 40
0.4999999999999996
 40
0.7499999999999998
 40
0.7499999999999998
 40
1.0
 40
1.0
 40
1.0
 40
1.0
 10
174.7817807546122
 20
87.71243220412694
 30
0.0
 10
174.750929044048
 20
87.67310016376445
 30
0.0
 10
174.7090361805874
 20
87.63568839823621
 30
0.0
 10
174.6095153027941
 20
87.5860174736203
 30
0.0
 10
174.5699011380698
 20
87.57062839101249
 30
0.0
 10
174.4727981042904
 20
87.54679517534522
 30
0.0
 10
174.41229943164
 20
87.53834256585641
 30
0.0
 10
174.3487680527201
 20
87.5383425658564
 30
0.0
  0
ELLIPSE
  5
B1
330
1F
100
AcDbEntity
  8
0
  6
Continuous
 62
     7
370
    15
100
AcDbEllipse
 10
161.8202672113
 20
111.3650736814
 30
0.0
 11
-11.7092723497272
 21
24.67718644093743
 31
0.0
210
0.0
220
0.0
230
1.0
 40
0.3419987131
 41
3.31052192817895
 42
4.22170915139894
  0
SPLINE
  5
B2
330
1F
100
AcDbEntity
  8
0
  6
Continuous
 62
     7
370
    15
100
AcDbSpline
210
0.0
220
0.0
230
1.0
 70
     8
 71
     3
 72
    12
 73
     8
 74
     0
 42
0.00000001
 43
0.00000001
 12
1.0
 22
0.0
 32
0.0
 13
1.0
 23
0.0
 33
0.0
 40
0.0
 40
0.0
 40
0.0
 40
0.0
 40
0.2499999999999977
 40
0.2499999999999977
 40
0.4999999999999953
 40
0.4999999999999953
 40
1.0
 40
1.0
 40
1.0
 40
1.0
 10
174.34876805272
 20
103.7962637121778
 30
0.0
 10
174.4124046069337
 20
103.7962637121778
 30
0.0
 10
174.4719847337999
 20
103.7702168091199
 30
0.0
 10
174.5706214751663
 20
103.6947296502199
 30
0.0
 10
174.6095800995466
 20
103.6475106116892
 30
0.0
 10
174.7089590390545
 20
103.4957709605957
 30
0.0
 10
174.7509169442199
 20
103.3835687364115
 30
0.0
 10
174.7817807546124
 20
103.2686206833143
 30
0.0
  0
LINE
  5
B3
330
1F
100
AcDbEntity
  8
0
  6
Continuous
 62
     7
370
    15
100
AcDbLine
 10
171.4042815349
 20
103.7962635462
 30
0.0
 11
174.3487677506
 21
103.7962635462
 31
0.0
  0
SPLINE
  5
B4
330
1F
100
AcDbEntity
  8
0
  6
Continuous
 62
     7
370
    15
100
AcDbSpline
210
0.0
220
0.0
230
1.0
 70
     8
 71
     3
 72
    12
 73
     8
 74
     0
 42
0.00000001
 43
0.00000001
 12
1.0
 22
0.0
 32
0.0
 13
1.0
 23
0.0
 33
0.0
 40
0.0
 40
0.0
 40
0.0
 40
0.0
 40
0.500000000000001
 40
0.500000000000001
 40
0.7500000000000004
 40
0.7500000000000004
 40
1.0
 40
1.0
 40
1.0
 40
1.0
 10
170.9712689779607
 20
103.2686206833142
 30
0.0
 10
171.0021206885249
 20
103.3835236722511
 30
0.0
 10
171.0440135519855
 20
103.4956625682999
 30
0.0
 10
171.1435344297787
 20
103.6476048499008
 30
0.0
 10
171.183148594503
 20
103.6952694594257
 30
0.0
 10
171.2802516282825
 20
103.7696057900411
 30
0.0
 10
171.3407503009329
 20
103.7962637121782
 30
0.0
 10
171.4042816798528
 20
103.7962637121782
 30
0.0
  0
ELLIPSE
  5
B5
330
1F
100
AcDbEntity
  8
0
  6
Continuous
 62
     7
370
    15
100
AcDbEllipse
 10
183.9327825213
 20
111.3650736814
 30
0.0
 11
11.70927234972708
 21
24.67718644093743
 31
0.0
210
0.0
220
0.0
230
1.0
 40
0.3419987131
 41
2.061476155780657
 42
2.972663379000674
  0
LINE
  5
B6
330
1F
100
AcDbEntity
  8
0
  6
Continuous
 62
     7
370
    15
100
AcDbLine
 10
162.8765248663
 20
86.6650727992
 30
0.0
 11
162.8765248663
 21
136.0650745635
 31
0.0
  0
LINE
  5
B7
330
1F
100
AcDbEntity
  8
0
  6
Continuous
 62
     7
370
    15
100
AcDbLine
 10
182.8765244193
 20
135.7650732105
 30
0.0
 11
182.8765244193
 21
86.9650741522
 31
0.0
  0
SPLINE
  5
B8
330
1F
100
AcDbEntity
  8
0
  6
Continuous
 62
     7
370
    15
100
AcDbSpline
210
0.0
220
0.0
230
1.0
 70
     8
 71
     3
 72
    16
 73
    12
 74
     0
 42
0.00000001
 43
0.00000001
 12
1.0
 22
0.0
 32
0.0
 13
1.0
 23
0.0
 33
0.0
 40
0.0
 40
0.0
 40
0.0
 40
0.0
 40
0.2500000000000001
 40
0.2500000000000001
 40
0.5000000000000002
 40
0.5000000000000002
 40
0.6250000000000001
 40
0.6250000000000001
 40
0.7500000000000001
 40
0.7500000000000001
 40
1.0
 40
1.0
 40
1.0
 40
1.0
 10
161.8356638381574
 20
94.01591640016605
 30
0.0
 10
161.8673917993501
 20
94.01511928334511
 30
0.0
 10
161.9020193897006
 20
94.01452820848985
 30
0.0
 10
161.9817131517643
 20
94.01351668305539
 30
0.0
 10
162.026754611768
 20
94.01311657488051
 30
0.0
 10
162.1096073386184
 20
94.01215870297666
 30
0.0
 10
162.1395217998183
 20
94.01177702171623
 30
0.0
 10
162.2055081303762
 20
94.0107008076577
 30
0.0
 10
162.242241755838
 20
94.00998324176358
 30
0.0
 10
162.3547384754078
 20
94.00722236408191
 30
0.0
 10
162.4250798235061
 20
94.00473527221031
 30
0.0
 10
162.4815479774112
 20
94.00256199380321
 30
0.0
  0
SPLINE
  5
B9
330
1F
100
AcDbEntity
  8
0
  6
Continuous
 62
     7
370
    15
100
AcDbSpline
210
0.0
220
0.0
230
1.0
 70
     8
 71
     3
 72
    14
 73
    10
 74
     0
 42
0.00000001
 43
0.00000001
 12
1.0
 22
0.0
 32
0.0
 13
1.0
 23
0.0
 33
0.0
 40
0.0
 40
0.0
 40
0.0
 40
0.0
 40
0.1249999999999965
 40
0.1249999999999965
 40
0.249999999999993
 40
0.249999999999993
 40
0.4999999999999953
 40
0.4999999999999953
 40
1.0
 40
1.0
 40
1.0
 40
1.0
 10
162.4815479773796
 20
94.00256199382592
 30
0.0
 10
162.4941397713243
 20
94.00207737600358
 30
0.0
 10
162.5090108796184
 20
94.00036719807123
 30
0.0
 10
162.5411949710516
 20
93.99225164932038
 30
0.0
 10
162.5567991025275
 20
93.98603586105905
 30
0.0
 10
162.5926862422395
 20
93.96781674935747
 30
0.0
 10
162.6065382835082
 20
93.95605172102384
 30
0.0
 10
162.6400280254408
 20
93.92425658460655
 30
0.0
 10
162.6506902860165
 20
93.90646315276341
 30
0.0
 10
162.6588282429115
 20
93.89003202191901
 30
0.0
  0
LINE
  5
BA
330
1F
100
AcDbEntity
  8
0
  6
Continuous
 62
     7
370
    15
100
AcDbLine
 10
162.6765248713
 20
105.3805936542
 30
0.0
 11
162.6765248713
 21
93.5252526258
 31
0.0
  0
SPLINE
  5
BB
330
1F
100
AcDbEntity
  8
0
  6
Continuous
 62
     7
370
    15
100
AcDbSpline
210
0.0
220
0.0
230
1.0
 70
     8
 71
     3
 72
    16
 73
    12
 74
     0
 42
0.00000001
 43
0.00000001
 12
1.0
 22
0.0
 32
0.0
 13
1.0
 23
0.0
 33
0.0
 40
0.0
 40
0.0
 40
0.0
 40
0.0
 40
0.500000000000001
 40
0.500000000000001
 40
0.7500000000000013
 40
0.7500000000000013
 40
0.8750000000000017
 40
0.8750000000000017
 40
0.9375000000000009
 40
0.9375000000000009
 40
1.0
 40
1.0
 40
1.0
 40
1.0
 10
162.6765248662865
 20
105.380593448784
 30
0.0
 10
162.6765248662865
 20
105.495123179483
 30
0.0
 10
162.6724675641714
 20
105.6104392546725
 30
0.0
 10
162.6468103213766
 20
105.7853623445
 30
0.0
 10
162.6354948756345
 20
105.845191647495
 30
0.0
 10
162.6014635083258
 20
105.9297828337431
 30
0.0
 10
162.587584527122
 20
105.9584524198872
 30
0.0
 10
162.5516488453547
 20
105.9882602068335
 30
0.0
 10
162.5366985260919
 20
105.9945953601931
 30
0.0
 10
162.50680001335
 20
105.9933698973228
 30
0.0
 10
162.4932671529848
 20
105.986771311288
 30
0.0
 10
162.4815479774108
 20
105.9781236232316
 30
0.0
  0
SPLINE
  5
BC
330
1F
100
AcDbEntity
  8
0
  6
Continuous
 62
     7
370
    15
100
AcDbSpline
210
0.0
220
0.0
230
1.0
 70
     8
 71
     3
 72
    14
 73
    10
 74
     0
 42
0.00000001
 43
0.00000001
 12
1.0
 22
0.0
 32
0.0
 13
1.0
 23
0.0
 33
0.0
 40
0.0
 40
0.0
 40
0.0
 40
0.0
 40
0.25
 40
0.25
 40
0.5
 40
0.5
 40
0.75
 40
0.75
 40
1.0
 40
1.0
 40
1.0
 40
1.0
 10
162.4815479774176
 20
105.978123623223
 30
0.0
 10
162.4250883115339
 20
105.9364615135242
 30
0.0
 10
162.3542158366717
 20
105.905628032936
 30
0.0
 10
162.2057494787897
 20
105.9113425415491
 30
0.0
 10
162.136554275582
 20
105.946913468982
 30
0.0
 10
162.0268370895124
 20
106.0338573814559
 30
0.0
 10
161.9815912005804
 20
106.086289694821
 30
0.0
 10
161.9019740696135
 20
106.1948427763395
 30
0.0
 10
161.8673714501566
 20
106.251825862582
 30
0.0
 10
161.8356638381578
 20
106.3103919452399
 30
0.0
  0
SPLINE
  5
BD
330
1F
100
AcDbEntity
  8
0
  6
Continuous
 62
     7
370
    15
100
AcDbSpline
210
0.0
220
0.0
230
1.0
 70
     8
 71
     3
 72
    10
 73
     6
 74
     0
 42
0.00000001
 43
0.00000001
 12
1.0
 22
0.0
 32
0.0
 13
1.0
 23
0.0
 33
0.0
 40
0.0
 40
0.0
 40
0.0
 40
0.0
 40
0.5
 40
0.5
 40
1.0
 40
1.0
 40
1.0
 40
1.0
 10
161.5552045227269
 20
107.1632105368862
 30
0.0
 10
161.5860831063388
 20
107.0135819850265
 30
0.0
 10
161.6220758140621
 20
106.8670865675029
 30
0.0
 10
161.7114160655592
 20
106.5818949289622
 30
0.0
 10
161.7638743684048
 20
106.4429919032462
 30
0.0
 10
161.835663838158
 20
106.3103919452397
 30
0.0
  0
SPLINE
  5
BE
330
1F
100
AcDbEntity
  8
0
  6
Continuous
 62
     7
370
    15
100
AcDbSpline
210
0.0
220
0.0
230
1.0
 70
     8
 71
     3
 72
    10
 73
     6
 74
     0
 42
0.00000001
 43
0.00000001
 12
1.0
 22
0.0
 32
0.0
 13
1.0
 23
0.0
 33
0.0
 40
0.0
 40
0.0
 40
0.0
 40
0.0
 40
0.5
 40
0.5
 40
1.0
 40
1.0
 40
1.0
 40
1.0
 10
161.8356638381572
 20
116.4197554174762
 30
0.0
 10
161.7638743684044
 20
116.2871554594699
 30
0.0
 10
161.7114160655589
 20
116.1482524337541
 30
0.0
 10
161.622075814062
 20
115.8630607952138
 30
0.0
 10
161.5860831063387
 20
115.7165653776905
 30
0.0
 10
161.5552045227269
 20
115.566936825831
 30
0.0
  0
SPLINE
  5
BF
330
1F
100
AcDbEntity
  8
0
  6
Continuous
 62
     7
370
    15
100
AcDbSpline
210
0.0
220
0.0
230
1.0
 70
     8
 71
     3
 72
    14
 73
    10
 74
     0
 42
0.00000001
 43
0.00000001
 12
1.0
 22
0.0
 32
0.0
 13
1.0
 23
0.0
 33
0.0
 40
0.0
 40
0.0
 40
0.0
 40
0.0
 40
0.25
 40
0.25
 40
0.5
 40
0.5
 40
0.75
 40
0.75
 40
1.0
 40
1.0
 40
1.0
 40
1.0
 10
161.8356638381566
 20
116.419755417475
 30
0.0
 10
161.8673725376419
 20
116.4783235087936
 30
0.0
 10
161.9019803562826
 20
116.5353177707336
 30
0.0
 10
161.9816387667719
 20
116.6439179054975
 30
0.0
 10
162.0267010366668
 20
116.6962460408761
 30
0.0
 10
162.1372828822452
 20
116.7837470522384
 30
0.0
 10
162.2049270030604
 20
116.8187925084926
 30
0.0
 10
162.3551752934576
 20
116.8245368972487
 30
0.0
 10
162.4251276916879
 20
116.7936567901987
 30
0.0
 10
162.4815479774114
 20
116.7520237394856
 30
0.0
  0
SPLINE
  5
C0
330
1F
100
AcDbEntity
  8
0
  6
Continuous
 62
     7
370
    15
100
AcDbSpline
210
0.0
220
0.0
230
1.0
 70
     8
 71
     3
 72
    16
 73
    12
 74
     0
 42
0.00000001
 43
0.00000001
 12
1.0
 22
0.0
 32
0.0
 13
1.0
 23
0.0
 33
0.0
 40
0.0
 40
0.0
 40
0.0
 40
0.0
 40
0.0624999999999994
 40
0.0624999999999994
 40
0.1249999999999988
 40
0.1249999999999988
 40
0.2499999999999976
 40
0.2499999999999976
 40
0.4999999999999983
 40
0.4999999999999983
 40
1.0
 40
1.0
 40
1.0
 40
1.0
 10
162.4815479773796
 20
116.7520237394322
 30
0.0
 10
162.4932822118265
 20
116.743364939288
 30
0.0
 10
162.5068139673054
 20
116.7367608540527
 30
0.0
 10
162.5368014277352
 20
116.7355638868785
 30
0.0
 10
162.5517961341436
 20
116.7419856339444
 30
0.0
 10
162.5875365565383
 20
116.7717027873537
 30
0.0
 10
162.6015498935395
 20
116.8005101847371
 30
0.0
 10
162.6356939823209
 20
116.885589906363
 30
0.0
 10
162.6466658864392
 20
116.9439648556327
 30
0.0
 10
162.6725114267055
 20
117.1196803804213
 30
0.0
 10
162.6765248662865
 20
117.2354753882858
 30
0.0
 10
162.6765248662865
 20
117.3495539139332
 30
0.0
  0
LINE
  5
C1
330
1F
100
AcDbEntity
  8
0
  6
Continuous
 62
     7
370
    15
100
AcDbLine
 10
162.6765248713
 20
129.2048947369
 30
0.0
 11
162.6765248713
 21
117.3495537085
 31
0.0
  0
SPLINE
  5
C2
330
1F
100
AcDbEntity
  8
0
  6
Continuous
 62
     7
370
    15
100
AcDbSpline
210
0.0
220
0.0
230
1.0
 70
     8
 71
     3
 72
    14
 73
    10
 74
     0
 42
0.00000001
 43
0.00000001
 12
1.0
 22
0.0
 32
0.0
 13
1.0
 23
0.0
 33
0.0
 40
0.0
 40
0.0
 40
0.0
 40
0.0
 40
0.4999999999999944
 40
0.4999999999999944
 40
0.749999999999993
 40
0.749999999999993
 40
0.8749999999999964
 40
0.8749999999999964
 40
1.0
 40
1.0
 40
1.0
 40
1.0
 10
162.6639250853331
 20
128.8513359630436
 30
0.0
 10
162.6566904799551
 20
128.8338604417706
 30
0.0
 10
162.6464845277179
 20
128.8145111382509
 30
0.0
 10
162.6140906353218
 20
128.7805416086601
 30
0.0
 10
162.6009353857284
 20
128.7680890471312
 30
0.0
 10
162.5646534869605
 20
128.7476441265752
 30
0.0
 10
162.5488209888318
 20
128.7404483517673
 30
0.0
 10
162.512845297844
 20
128.7302898306195
 30
0.0
 10
162.4956478945222
 20
128.7281280295668
 30
0.0
 10
162.4815479774072
 20
128.7275853689116
 30
0.0
  0
SPLINE
  5
C3
330
1F
100
AcDbEntity
  8
0
  6
Continuous
 62
     7
370
    15
100
AcDbSpline
210
0.0
220
0.0
230
1.0
 70
     8
 71
     3
 72
    14
 73
    10
 74
     0
 42
0.00000001
 43
0.00000001
 12
1.0
 22
0.0
 32
0.0
 13
1.0
 23
0.0
 33
0.0
 40
0.0
 40
0.0
 40
0.0
 40
0.0
 40
0.25
 40
0.25
 40
0.5
 40
0.5
 40
0.75
 40
0.75
 40
1.0
 40
1.0
 40
1.0
 40
1.0
 10
162.4815479774176
 20
128.7275853689141
 30
0.0
 10
162.4251008953593
 20
128.7254129014949
 30
0.0
 10
162.3542505113165
 20
128.7229148035774
 30
0.0
 10
162.2058140765001
 20
128.7192683447892
 30
0.0
 10
162.1366248248133
 20
128.718300597938
 30
0.0
 10
162.0269132765723
 20
128.7170330385753
 30
0.0
 10
161.98167162723
 20
128.716630197647
 30
0.0
 10
161.9020236090461
 20
128.7156191627193
 30
0.0
 10
161.8673966932801
 20
128.7150282023247
 30
0.0
 10
161.8356638381587
 20
128.7142309625513
 30
0.0
  0
SPLINE
  5
C4
330
1F
100
AcDbEntity
  8
0
  6
Continuous
 62
     7
370
    15
100
AcDbSpline
210
0.0
220
0.0
230
1.0
 70
     8
 71
     3
 72
    18
 73
    14
 74
     0
 42
0.00000001
 43
0.00000001
 12
1.0
 22
0.0
 32
0.0
 13
1.0
 23
0.0
 33
0.0
 40
0.0
 40
0.0
 40
0.0
 40
0.0
 40
0.25
 40
0.25
 40
0.375
 40
0.375
 40
0.5
 40
0.5
 40
0.625
 40
0.625
 40
0.75
 40
0.75
 40
1.0
 40
1.0
 40
1.0
 40
1.0
 10
161.5552045227268
 20
115.566936825831
 30
0.0
 10
161.4199189164245
 20
114.9113824904098
 30
0.0
 10
161.3187511701815
 20
114.2317613966122
 30
0.0
 10
161.2158898273126
 20
113.1763973901182
 30
0.0
 10
161.1897869817893
 20
112.8175833255335
 30
0.0
 10
161.1548969982445
 20
112.0914703814106
 30
0.0
 10
161.1463107399545
 20
111.7293807023945
 30
0.0
 10
161.1462110303889
 20
111.0070710449761
 30
0.0
 10
161.1546994015374
 20
110.6468512428677
 30
0.0
 10
161.188842781058
 20
109.9282851737738
 30
0.0
 10
161.2146397629118
 20
109.5685194578584
 30
0.0
 10
161.3180408942997
 20
108.501874870864
 30
0.0
 10
161.4198988864711
 20
107.8188619315817
 30
0.0
 10
161.5552045227268
 20
107.1632105368862
 30
0.0
  0
LINE
  5
C5
330
1F
100
AcDbEntity
  8
0
  6
Continuous
 62
     7
370
    15
100
AcDbLine
 10
160.6765248782
 20
116.5052259755
 30
0.0
 11
160.6765248782
 21
106.2249213872
 31
0.0
  0
LINE
  5
C6
330
1F
100
AcDbEntity
  8
0
  6
Continuous
 62
     7
370
    15
100
AcDbLine
 10
134.3765248514
 20
116.1748523307
 30
0.0
 11
134.3765248514
 21
106.555295032
 31
0.0
  0
LINE
  5
C7
330
1F
100
AcDbEntity
  8
0
  6
Continuous
 62
     7
370
    15
100
AcDbLine
 10
132.8765255368
 20
115.7418394876
 30
0.0
 11
132.8765255368
 21
106.9883078751
 31
0.0
  0
LINE
  5
C8
330
1F
100
AcDbEntity
  8
0
  6
Continuous
 62
     7
370
    15
100
AcDbLine
 10
134.3765248514
 20
94.5057229554
 30
0.0
 11
134.3765248514
 21
106.555295032
 31
0.0
  0
LINE
  5
C9
330
1F
100
AcDbEntity
  8
0
  6
Continuous
 62
     7
370
    15
100
AcDbLine
 10
160.6765248782
 20
93.8449756657
 30
0.0
 11
160.6765248782
 21
106.2249213872
 31
0.0
  0
LINE
  5
CA
330
1F
100
AcDbEntity
  8
0
  6
Continuous
 62
     7
370
    15
100
AcDbLine
 10
134.3765248514
 20
94.5057229554
 30
0.0
 11
160.6765248782
 21
93.8449756657
 31
0.0
  0
ARC
  5
CB
330
1F
100
AcDbEntity
  8
0
  6
Continuous
 62
     7
370
    15
100
AcDbCircle
 10
160.8764617772
 20
93.8399517857
 30
0.0
 40
0.2000000000000059
100
AcDbArc
 50
88.5608333333
 51
178.5608333333
  0
LINE
  5
CC
330
1F
100
AcDbEntity
  8
0
  6
Continuous
 62
     7
370
    15
100
AcDbLine
 10
134.3765248514
 20
116.1748523307
 30
0.0
 11
134.3765248514
 21
128.2244244074
 31
0.0
  0
LINE
  5
CD
330
1F
100
AcDbEntity
  8
0
  6
Continuous
 62
     7
370
    15
100
AcDbLine
 10
134.3765248514
 20
128.2244244074
 30
0.0
 11
160.6765248782
 21
128.885171697
 31
0.0
  0
LINE
  5
CE
330
1F
100
AcDbEntity
  8
0
  6
Continuous
 62
     7
370
    15
100
AcDbLine
 10
160.6765248782
 20
116.5052259755
 30
0.0
 11
160.6765248782
 21
128.885171697
 31
0.0
  0
ARC
  5
CF
330
1F
100
AcDbEntity
  8
0
  6
Continuous
 62
     7
370
    15
100
AcDbCircle
 10
160.8764617772
 20
128.890195577
 30
0.0
 40
0.2000000000000059
100
AcDbArc
 50
181.4391666667
 51
271.4391666667
  0
LINE
  5
D0
330
1F
100
AcDbEntity
  8
0
  6
Continuous
 62
     7
370
    15
100
AcDbLine
 10
160.8814849953
 20
94.039888442
 30
0.0
 11
161.8356638557
 21
94.015916199
 31
0.0
  0
LINE
  5
D1
330
1F
100
AcDbEntity
  8
0
  6
Continuous
 62
     7
370
    15
100
AcDbLine
 10
160.8814849953
 20
128.6902589207
 30
0.0
 11
161.8356638557
 21
128.7142311637
 31
0.0
  0
LINE
  5
D2
330
1F
100
AcDbEntity
  8
0
  6
Continuous
 62
     7
370
    15
100
AcDbLine
 10
132.8765255368
 20
127.3583987211
 30
0.0
 11
134.3765248514
 21
128.2244244074
 31
0.0
  0
LINE
  5
D3
330
1F
100
AcDbEntity
  8
0
  6
Continuous
 62
     7
370
    15
100
AcDbLine
 10
132.8765255368
 20
115.7418394876
 30
0.0
 11
132.8765255368
 21
127.3583987211
 31
0.0
  0
LINE
  5
D4
330
1F
100
AcDbEntity
  8
0
  6
Continuous
 62
     7
370
    15
100
AcDbLine
 10
132.8765255368
 20
95.3717486416
 30
0.0
 11
134.3765248514
 21
94.5057229554
 31
0.0
  0
LINE
  5
D5
330
1F
100
AcDbEntity
  8
0
  6
Continuous
 62
     7
370
    15
100
AcDbLine
 10
132.8765255368
 20
95.3717486416
 30
0.0
 11
132.8765255368
 21
106.9883078751
 31
0.0
  0
ELLIPSE
  5
D6
330
1F
100
AcDbEntity
  8
0
  6
Continuous
 62
     7
370
    15
100
AcDbEllipse
 10
225.1138903523
 20
111.3650736814
 30
0.0
 11
-0.2516063682710126
 21
12.49981921343797
 31
0.0
210
0.0
220
0.0
230
1.0
 40
0.2671959542
 41
0.1762003290778134
 42
2.815009419910934
  0
ELLIPSE
  5
D7
330
1F
100
AcDbEntity
  8
0
  6
Continuous
 62
     7
370
    15
100
AcDbEllipse
 10
223.1565784899
 20
114.9379283915
 30
0.0
 11
0.08291753437345051
 21
2.335796540899963
 31
0.0
210
0.0
220
0.0
230
1.0
 40
0.2540400005
 41
0.0
 42
6.283185307179586
  0
SPLINE
  5
D8
330
1F
100
AcDbEntity
  8
0
  6
Continuous
 62
     7
370
    15
100
AcDbSpline
210
0.0
220
0.0
230
1.0
 70
     8
 71
     3
 72
    16
 73
    12
 74
     0
 42
0.00000001
 43
0.00000001
 12
1.0
 22
0.0
 32
0.0
 13
1.0
 23
0.0
 33
0.0
 40
0.0
 40
0.0
 40
0.0
 40
0.0
 40
0.2499999999999975
 40
0.2499999999999975
 40
0.3749999999999979
 40
0.3749999999999979
 40
0.4999999999999983
 40
0.4999999999999983
 40
0.7499999999999991
 40
0.7499999999999991
 40
1.0
 40
1.0
 40
1.0
 40
1.0
 10
224.2807283513561
 20
123.6595717928889
 30
0.0
 10
224.3489496770353
 20
123.7070411688499
 30
0.0
 10
224.4493300193003
 20
123.743749988499
 30
0.0
 10
224.6488582095815
 20
123.7864543556502
 30
0.0
 10
224.7241863573352
 20
123.7986531132322
 30
0.0
 10
224.8874520003925
 20
123.8189288058924
 30
0.0
 10
224.9757130155497
 20
123.8271156822286
 30
0.0
 10
225.2602365238039
 20
123.8471755259476
 30
0.0
 10
225.4791622823618
 20
123.8545585670494
 30
0.0
 10
225.9461545469331
 20
123.862924872044
 30
0.0
 10
226.1985847978251
 20
123.8641412208678
 30
0.0
 10
226.4623113039133
 20
123.8646662683167
 30
0.0
  0
SPLINE
  5
D9
330
1F
100
AcDbEntity
  8
0
  6
Continuous
 62
     7
370
    15
100
AcDbSpline
210
0.0
220
0.0
230
1.0
 70
     8
 71
     3
 72
    16
 73
    12
 74
     0
 42
0.00000001
 43
0.00000001
 12
1.0
 22
0.0
 32
0.0
 13
1.0
 23
0.0
 33
0.0
 40
0.0
 40
0.0
 40
0.0
 40
0.0
 40
0.2499999999999959
 40
0.2499999999999959
 40
0.3749999999999937
 40
0.3749999999999937
 40
0.4999999999999967
 40
0.4999999999999967
 40
0.7499999999999983
 40
0.7499999999999983
 40
1.0
 40
1.0
 40
1.0
 40
1.0
 10
226.4623113039133
 20
99.0011718358403
 30
0.0
 10
226.1985900186015
 20
99.01074194266029
 30
0.0
 10
225.9495647595862
 20
99.02566333093199
 30
0.0
 10
225.5975386157652
 20
99.05938662729262
 30
0.0
 10
225.4832808285278
 20
99.07266990820017
 30
0.0
 10
225.26873919195
 20
99.10320120642075
 30
0.0
 10
225.167675847333
 20
99.12049721416003
 30
0.0
 10
224.8828335100431
 20
99.17965234956398
 30
0.0
 10
224.7162065216522
 20
99.22958224766896
 30
0.0
 10
224.4510090177019
 20
99.34991988307088
 30
0.0
 10
224.3489551310386
 20
99.42138076794993
 30
0.0
 10
224.2807283513561
 20
99.50437753589478
 30
0.0
  0
SPLINE
  5
DA
330
1F
100
AcDbEntity
  8
0
  6
Continuous
 62
     7
370
    15
100
AcDbSpline
210
0.0
220
0.0
230
1.0
 70
     8
 71
     3
 72
     8
 73
     4
 74
     0
 42
0.00000001
 43
0.00000001
 12
1.0
 22
0.0
 32
0.0
 13
1.0
 23
0.0
 33
0.0
 40
0.0
 40
0.0
 40
0.0
 40
0.0
 40
1.0
 40
1.0
 40
1.0
 40
1.0
 10
227.1785058302233
 20
98.68668367709229
 30
0.0
 10
227.1754764165391
 20
98.68971297247568
 30
0.0
 10
227.1724471680639
 20
98.69274274542612
 30
0.0
 10
227.1694180850998
 20
98.69577299614598
 30
0.0
  0
SPLINE
  5
DB
330
1F
100
AcDbEntity
  8
0
  6
Continuous
 62
     7
370
    15
100
AcDbSpline
210
0.0
220
0.0
230
1.0
 70
     8
 71
     3
 72
    10
 73
     6
 74
     0
 42
0.00000001
 43
0.00000001
 12
1.0
 22
0.0
 32
0.0
 13
1.0
 23
0.0
 33
0.0
 40
0.0
 40
0.0
 40
0.0
 40
0.0
 40
0.5
 40
0.5
 40
1.0
 40
1.0
 40
1.0
 40
1.0
 10
227.1694180850999
 20
98.69577299614603
 30
0.0
 10
227.0751927386197
 20
98.7900346678736
 30
0.0
 10
226.9639237777664
 20
98.86435551748252
 30
0.0
 10
226.7213568077675
 20
98.96799529889468
 30
0.0
 10
226.5918514181748
 20
98.99647099142642
 30
0.0
 10
226.4623113039133
 20
99.0011718358406
 30
0.0
  0
SPLINE
  5
DC
330
1F
100
AcDbEntity
  8
0
  6
Continuous
 62
     7
370
    15
100
AcDbSpline
210
0.0
220
0.0
230
1.0
 70
     8
 71
     3
 72
    10
 73
     6
 74
     0
 42
0.00000001
 43
0.00000001
 12
1.0
 22
0.0
 32
0.0
 13
1.0
 23
0.0
 33
0.0
 40
0.0
 40
0.0
 40
0.0
 40
0.0
 40
0.5
 40
0.5
 40
1.0
 40
1.0
 40
1.0
 40
1.0
 10
226.4623113039133
 20
123.8646662683166
 30
0.0
 10
226.5918417184066
 20
123.8649241476428
 30
0.0
 10
226.7209561839546
 20
123.8901674997318
 30
0.0
 10
226.9636227472209
 20
123.9899281888687
 30
0.0
 10
227.0751745469913
 20
124.0637251930085
 30
0.0
 10
227.1694180851003
 20
124.1579652340505
 30
0.0
  0
SPLINE
  5
DD
330
1F
100
AcDbEntity
  8
0
  6
Continuous
 62
     7
370
    15
100
AcDbSpline
210
0.0
220
0.0
230
1.0
 70
     8
 71
     3
 72
     8
 73
     4
 74
     0
 42
0.00000001
 43
0.00000001
 12
1.0
 22
0.0
 32
0.0
 13
1.0
 23
0.0
 33
0.0
 40
0.0
 40
0.0
 40
0.0
 40
0.0
 40
1.0
 40
1.0
 40
1.0
 40
1.0
 10
227.1694180850998
 20
124.157965234051
 30
0.0
 10
227.1724471680639
 20
124.1609942046158
 30
0.0
 10
227.1754764165391
 20
124.1640233373884
 30
0.0
 10
227.1785058302233
 20
124.1670526327717
 30
0.0
  0
LINE
  5
DE
330
1F
100
AcDbEntity
  8
0
  6
Continuous
 62
     7
370
    15
100
AcDbLine
 10
227.3765214688
 20
98.4886794766
 30
0.0
 11
227.1785073883
 21
98.6866833125
 31
0.0
  0
LINE
  5
DF
330
1F
100
AcDbEntity
  8
0
  6
Continuous
 62
     7
370
    15
100
AcDbLine
 10
227.3765214688
 20
98.4886794766
 30
0.0
 11
227.3765214688
 21
98.3650734131
 31
0.0
  0
SPLINE
  5
E0
330
1F
100
AcDbEntity
  8
0
  6
Continuous
 62
     7
370
    15
100
AcDbSpline
210
0.0
220
0.0
230
1.0
 70
     8
 71
     3
 72
     8
 73
     4
 74
     0
 42
0.00000001
 43
0.00000001
 12
1.0
 22
0.0
 32
0.0
 13
1.0
 23
0.0
 33
0.0
 40
0.0
 40
0.0
 40
0.0
 40
0.0
 40
1.0
 40
1.0
 40
1.0
 40
1.0
 10
227.1785058302233
 20
124.1670526327716
 30
0.0
 10
227.8252751002384
 20
124.8137966459871
 30
0.0
 10
228.4721604192791
 20
125.4604249987518
 30
0.0
 10
229.1191212207086
 20
126.1069781218706
 30
0.0
  0
LINE
  5
E1
330
1F
100
AcDbEntity
  8
0
  6
Continuous
 62
     7
370
    15
100
AcDbLine
 10
240.3229408867
 20
98.4886794766
 30
0.0
 11
227.3765214688
 21
98.4886794766
 31
0.0
  0
ELLIPSE
  5
E2
330
1F
100
AcDbEntity
  8
0
  6
Continuous
 62
     7
370
    15
100
AcDbEllipse
 10
249.2716999956
 20
111.3650736814
 30
0.0
 11
9.2683623598233
 21
12.98522500655783
 31
0.0
210
0.0
220
0.0
230
1.0
 40
0.0668534593
 41
3.189273956189445
 42
3.327283054655075
  0
ARC
  5
E3
330
1F
100
AcDbEntity
  8
0
  6
Continuous
 62
     7
370
    15
100
AcDbCircle
 10
240.2125342102
 20
115.7088638808
 30
0.0
 40
2.097227424144503
100
AcDbArc
 50
118.3572785049
 51
333.0352047491
  0
LINE
  5
E4
330
1F
100
AcDbEntity
  8
0
  6
Continuous
 62
     7
370
    15
100
AcDbLine
 10
251.4541753537
 20
115.5599144702
 30
0.0
 11
251.3326042301
 21
114.1738068261
 31
0.0
  0
LINE
  5
E5
330
1F
100
AcDbEntity
  8
0
  6
Continuous
 62
     7
370
    15
100
AcDbLine
 10
251.3326042301
 20
114.1738068261
 30
0.0
 11
240.3229408867
 21
98.4886794766
 31
0.0
  0
ELLIPSE
  5
E6
330
1F
100
AcDbEntity
  8
0
  6
Continuous
 62
     7
370
    15
100
AcDbEllipse
 10
213.9204140423
 20
109.7637313168
 30
0.0
 11
2457.893071165327
 21
213.9913749490316
 31
0.0
210
0.0
220
0.0
230
1.0
 40
0.0060650906
 41
1.559621320474586
 42
1.564084611355274
  0
ARC
  5
E7
330
1F
100
AcDbEntity
  8
0
  6
Continuous
 62
     7
370
    15
100
AcDbCircle
 10
240.205422552
 20
115.373060092
 30
0.0
 40
2.094697590425452
100
AcDbArc
 50
119.1352075326
 51
175.3772084258
  0
SPLINE
  5
E8
330
1F
100
AcDbEntity
  8
0
  6
HIDDEN
 62
     7
370
     0
100
AcDbSpline
210
0.0
220
0.0
230
1.0
 70
     8
 71
     3
 72
    58
 73
    54
 74
     0
 42
0.00000001
 43
0.00000001
 12
1.0
 22
0.0
 32
0.0
 13
1.0
 23
0.0
 33
0.0
 40
-0.0624999999999999
 40
-0.0624999999999999
 40
0.0
 40
0.0
 40
0.03125
 40
0.03125
 40
0.0625
 40
0.0625
 40
0.09375
 40
0.09375
 40
0.125
 40
0.125
 40
0.1874999999999999
 40
0.1874999999999999
 40
0.2499999999999999
 40
0.2499999999999999
 40
0.2812499999999999
 40
0.2812499999999999
 40
0.3124999999999999
 40
0.3124999999999999
 40
0.3437499999999999
 40
0.3437499999999999
 40
0.3749999999999999
 40
0.3749999999999999
 40
0.40625
 40
0.40625
 40
0.4375
 40
0.4375
 40
0.46875
 40
0.46875
 40
0.5
 40
0.5
 40
0.5625
 40
0.5625
 40
0.625
 40
0.625
 40
0.65625
 40
0.65625
 40
0.6875
 40
0.6875
 40
0.71875
 40
0.71875
 40
0.75
 40
0.75
 40
0.7812500000000001
 40
0.7812500000000001
 40
0.8125000000000001
 40
0.8125000000000001
 40
0.8437500000000001
 40
0.8437500000000001
 40
0.8750000000000001
 40
0.8750000000000001
 40
0.9375000000000001
 40
0.9375000000000001
 40
1.0
 40
1.0
 40
1.03125
 40
1.03125
 10
172.8765248662864
 20
111.1007013108152
 30
0.0
 10
172.8765248662864
 20
111.4972598666303
 30
0.0
 10
172.8895007582969
 20
111.6272266061751
 30
0.0
 10
172.9403330604028
 20
111.8829059443072
 30
0.0
 10
172.9788101317243
 20
112.0099470361487
 30
0.0
 10
173.0792150928806
 20
112.2521252220892
 30
0.0
 10
173.1406493352
 20
112.3669788806787
 30
0.0
 10
173.2857836013816
 20
112.5843440024845
 30
0.0
 10
173.370225522529
 20
112.6872194745688
 30
0.0
 10
173.6468975521389
 20
112.963837426986
 30
0.0
 10
173.869943707107
 20
113.1128295468189
 30
0.0
 10
174.3512077056515
 20
113.3123533418101
 30
0.0
 10
174.6144655609713
 20
113.3649322063124
 30
0.0
 10
175.0059315922561
 20
113.3651439798999
 30
0.0
 10
175.1384803358696
 20
113.3521530083105
 30
0.0
 10
175.3950246448848
 20
113.3011167850207
 30
0.0
 10
175.5197205312565
 20
113.2633552436178
 30
0.0
 10
175.7619235016903
 20
113.1631957043244
 30
0.0
 10
175.8789868649409
 20
113.1005978945739
 30
0.0
 10
176.095673184187
 20
112.9558759105383
 30
0.0
 10
176.1966871522548
 20
112.87325180537
 30
0.0
 10
176.3834803465402
 20
112.686631434759
 30
0.0
 10
176.4662807104945
 20
112.5855830668678
 30
0.0
 10
176.6111591493891
 20
112.3690710459939
 30
0.0
 10
176.6738099327165
 20
112.252181690795
 30
0.0
 10
176.7742503270904
 20
112.0099242887361
 30
0.0
 10
176.8121093388604
 20
111.8852616239207
 30
0.0
 10
176.8633470433238
 20
111.6289304282659
 30
0.0
 10
176.8764774180969
 20
111.4963424889155
 30
0.0
 10
176.8766193685358
 20
111.1047108203461
 30
0.0
 10
176.8242784522878
 20
110.8414979873119
 30
0.0
 10
176.6251482255497
 20
110.3599906566206
 30
0.0
 10
176.4763111379073
 20
110.136790175345
 30
0.0
 10
176.199999101368
 20
109.8599440953833
 30
0.0
 10
176.0972335641167
 20
109.7754320011645
 30
0.0
 10
175.8799166317629
 20
109.630053404433
 30
0.0
 10
175.765129721226
 20
109.5685379728312
 30
0.0
 10
175.5232102311202
 20
109.4679819125856
 30
0.0
 10
175.3960833286201
 20
109.429343186751
 30
0.0
 10
175.140414492984
 20
109.3782783198637
 30
0.0
 10
175.010519287606
 20
109.3652038394874
 30
0.0
 10
174.7464445051816
 20
109.3649454382138
 30
0.0
 10
174.6161153656963
 20
109.3778215061767
 30
0.0
 10
174.3604260515524
 20
109.4284202975047
 30
0.0
 10
174.2334981851648
 20
109.4667256433423
 30
0.0
 10
173.9910458963226
 20
109.5669814757622
 30
0.0
 10
173.876129202341
 20
109.6283324946743
 30
0.0
 10
173.6587384105705
 20
109.7732013302445
 30
0.0
 10
173.5557531308891
 20
109.8575652835138
 30
0.0
 10
173.2787887632317
 20
110.1340913372999
 30
0.0
 10
173.1296564848732
 20
110.3569511792957
 30
0.0
 10
172.9297043661588
 20
110.8380536993564
 30
0.0
 10
172.8765248662864
 20
111.1007013108152
 30
0.0
 10
172.8765248662864
 20
111.4972598666303
 30
0.0
  0
SPLINE
  5
E9
330
1F
100
AcDbEntity
  8
0
  6
HIDDEN
 62
     7
370
     0
100
AcDbSpline
210
0.0
220
0.0
230
1.0
 70
     8
 71
     3
 72
    12
 73
     8
 74
     0
 42
0.00000001
 43
0.00000001
 12
1.0
 22
0.0
 32
0.0
 13
1.0
 23
0.0
 33
0.0
 40
0.0
 40
0.0
 40
0.0
 40
0.0
 40
0.2499999999999982
 40
0.2499999999999982
 40
0.4999999999999963
 40
0.4999999999999963
 40
1.0
 40
1.0
 40
1.0
 40
1.0
 10
171.4042816798529
 20
103.796263712178
 30
0.0
 10
171.3406164433224
 20
103.796263712178
 30
0.0
 10
171.281010211099
 20
103.7701915636983
 30
0.0
 10
171.1823496861682
 20
103.6946528128772
 30
0.0
 10
171.1433826961529
 20
103.647401875781
 30
0.0
 10
171.0439958642285
 20
103.4955780578146
 30
0.0
 10
171.001919616805
 20
103.3827748080495
 30
0.0
 10
170.9712689779607
 20
103.2686206833144
 30
0.0
  0
LINE
  5
EA
330
1F
100
AcDbEntity
  8
0
  6
HIDDEN
 62
     7
370
     0
100
AcDbLine
 10
174.3487677506
 20
103.7962635462
 30
0.0
 11
171.4042815349
 21
103.7962635462
 31
0.0
  0
SPLINE
  5
EB
330
1F
100
AcDbEntity
  8
0
  6
HIDDEN
 62
     7
370
     0
100
AcDbSpline
210
0.0
220
0.0
230
1.0
 70
     8
 71
     3
 72
    12
 73
     8
 74
     0
 42
0.00000001
 43
0.00000001
 12
1.0
 22
0.0
 32
0.0
 13
1.0
 23
0.0
 33
0.0
 40
0.0
 40
0.0
 40
0.0
 40
0.0
 40
0.5
 40
0.5
 40
0.75
 40
0.75
 40
1.0
 40
1.0
 40
1.0
 40
1.0
 10
174.7817807546122
 20
103.2686206833144
 30
0.0
 10
174.7510813712449
 20
103.3829563503783
 30
0.0
 10
174.7097313031384
 20
103.4943097032196
 30
0.0
 10
174.6099753749189
 20
103.6470464754684
 30
0.0
 10
174.5702784571862
 20
103.6949063613205
 30
0.0
 10
174.4730203055386
 20
103.7695094746699
 30
0.0
 10
174.4122441475479
 20
103.796263712178
 30
0.0
 10
174.34876805272
 20
103.796263712178
 30
0.0
  0
ELLIPSE
  5
EC
330
1F
100
AcDbEntity
  8
0
  6
HIDDEN
 62
     7
370
     0
100
AcDbEllipse
 10
161.8202672113
 20
111.3650736814
 30
0.0
 11
-11.70927234972711
 21
24.67718644093743
 31
0.0
210
0.0
220
0.0
230
1.0
 40
0.3419987131
 41
3.310521928178963
 42
4.221709151398951
  0
SPLINE
  5
ED
330
1F
100
AcDbEntity
  8
0
  6
HIDDEN
 62
     7
370
     0
100
AcDbSpline
210
0.0
220
0.0
230
1.0
 70
     8
 71
     3
 72
    12
 73
     8
 74
     0
 42
0.00000001
 43
0.00000001
 12
1.0
 22
0.0
 32
0.0
 13
1.0
 23
0.0
 33
0.0
 40
0.0
 40
0.0
 40
0.0
 40
0.0
 40
0.2500000000000009
 40
0.2500000000000009
 40
0.5000000000000019
 40
0.5000000000000019
 40
1.0
 40
1.0
 40
1.0
 40
1.0
 10
174.34876805272
 20
87.53834256585665
 30
0.0
 10
174.4124332892505
 20
87.53834256585665
 30
0.0
 10
174.4720395214739
 20
87.54660734152255
 30
0.0
 10
174.5707000464047
 20
87.5708261231057
 30
0.0
 10
174.60966703642
 20
87.58608344241483
 30
0.0
 10
174.7090538683445
 20
87.63571679667677
 30
0.0
 10
174.7511301157679
 20
87.67335650485087
 30
0.0
 10
174.7817807546122
 20
87.71243220412701
 30
0.0
  0
LINE
  5
EE
330
1F
100
AcDbEntity
  8
0
  6
HIDDEN
 62
     7
370
     0
100
AcDbLine
 10
171.4042815349
 20
87.5383423125
 30
0.0
 11
174.3487677506
 21
87.5383423125
 31
0.0
  0
SPLINE
  5
EF
330
1F
100
AcDbEntity
  8
0
  6
HIDDEN
 62
     7
370
     0
100
AcDbSpline
210
0.0
220
0.0
230
1.0
 70
     8
 71
     3
 72
    12
 73
     8
 74
     0
 42
0.00000001
 43
0.00000001
 12
1.0
 22
0.0
 32
0.0
 13
1.0
 23
0.0
 33
0.0
 40
0.0
 40
0.0
 40
0.0
 40
0.0
 40
0.5000000000000009
 40
0.5000000000000009
 40
0.7500000000000004
 40
0.7500000000000004
 40
1.0
 40
1.0
 40
1.0
 40
1.0
 10
170.9712689779607
 20
87.71243220412701
 30
0.0
 10
171.001968361328
 20
87.67329436173111
 30
0.0
 10
171.0433184294345
 20
87.63613457900563
 30
0.0
 10
171.1430743576539
 20
87.58619807337789
 30
0.0
 10
171.1827712753866
 20
87.57074520323411
 30
0.0
 10
171.2800294270343
 20
87.54682565963506
 30
0.0
 10
171.340805585025
 20
87.53834256585664
 30
0.0
 10
171.4042816798529
 20
87.53834256585664
 30
0.0
  0
ELLIPSE
  5
F0
330
1F
100
AcDbEntity
  8
0
  6
HIDDEN
 62
     7
370
     0
100
AcDbEllipse
 10
183.9327825213
 20
111.3650736814
 30
0.0
 11
11.70927234972703
 21
24.67718644093743
 31
0.0
210
0.0
220
0.0
230
1.0
 40
0.3419987131
 41
2.06147615578065
 42
2.972663379000668
  0
SPLINE
  5
F1
330
1F
100
AcDbEntity
  8
0
  6
HIDDEN
 62
     7
370
     0
100
AcDbSpline
210
0.0
220
0.0
230
1.0
 70
     8
 71
     3
 72
    12
 73
     8
 74
     0
 42
0.00000001
 43
0.00000001
 12
1.0
 22
0.0
 32
0.0
 13
1.0
 23
0.0
 33
0.0
 40
0.0
 40
0.0
 40
0.0
 40
0.0
 40
0.2499999999999998
 40
0.2499999999999998
 40
0.4999999999999996
 40
0.4999999999999996
 40
1.0
 40
1.0
 40
1.0
 40
1.0
 10
171.4042816798529
 20
135.1918047968607
 30
0.0
 10
171.3406164433224
 20
135.1918047968607
 30
0.0
 10
171.281010211099
 20
135.1835400211948
 30
0.0
 10
171.1823496861682
 20
135.1593212396117
 30
0.0
 10
171.1433826961529
 20
135.1440639203025
 30
0.0
 10
171.0439958642285
 20
135.0944305660406
 30
0.0
 10
171.001919616805
 20
135.0567908578665
 30
0.0
 10
170.9712689779607
 20
135.0177151585903
 30
0.0
  0
LINE
  5
F2
330
1F
100
AcDbEntity
  8
0
  6
HIDDEN
 62
     7
370
     0
100
AcDbLine
 10
174.3487677506
 20
135.1918050503
 30
0.0
 11
171.4042815349
 21
135.1918050503
 31
0.0
  0
SPLINE
  5
F3
330
1F
100
AcDbEntity
  8
0
  6
HIDDEN
 62
     7
370
     0
100
AcDbSpline
210
0.0
220
0.0
230
1.0
 70
     8
 71
     3
 72
    12
 73
     8
 74
     0
 42
0.00000001
 43
0.00000001
 12
1.0
 22
0.0
 32
0.0
 13
1.0
 23
0.0
 33
0.0
 40
0.0
 40
0.0
 40
0.0
 40
0.0
 40
0.4999999999999982
 40
0.4999999999999982
 40
0.7499999999999991
 40
0.7499999999999991
 40
1.0
 40
1.0
 40
1.0
 40
1.0
 10
174.7817807546122
 20
135.0177151585903
 30
0.0
 10
174.7510813712449
 20
135.0568530009863
 30
0.0
 10
174.7097313031384
 20
135.0940127837117
 30
0.0
 10
174.6099753749189
 20
135.1439492893395
 30
0.0
 10
174.5702784571862
 20
135.1594021594832
 30
0.0
 10
174.4730203055386
 20
135.1833217030823
 30
0.0
 10
174.4122441475479
 20
135.1918047968607
 30
0.0
 10
174.34876805272
 20
135.1918047968607
 30
0.0
  0
ELLIPSE
  5
F4
330
1F
100
AcDbEntity
  8
0
  6
HIDDEN
 62
     7
370
     0
100
AcDbEllipse
 10
161.8202672113
 20
111.3650736814
 30
0.0
 11
11.70927234972726
 21
24.67718644093744
 31
0.0
210
0.0
220
0.0
230
1.0
 40
0.3419987131
 41
5.203068809370468
 42
6.114256032590515
  0
SPLINE
  5
F5
330
1F
100
AcDbEntity
  8
0
  6
HIDDEN
 62
     7
370
     0
100
AcDbSpline
210
0.0
220
0.0
230
1.0
 70
     8
 71
     3
 72
    12
 73
     8
 74
     0
 42
0.00000001
 43
0.00000001
 12
1.0
 22
0.0
 32
0.0
 13
1.0
 23
0.0
 33
0.0
 40
0.0
 40
0.0
 40
0.0
 40
0.0
 40
0.2500000000000009
 40
0.2500000000000009
 40
0.5000000000000018
 40
0.5000000000000018
 40
1.0
 40
1.0
 40
1.0
 40
1.0
 10
174.34876805272
 20
118.9338836505395
 30
0.0
 10
174.4124332892505
 20
118.9338836505395
 30
0.0
 10
174.4720395214739
 20
118.9599557990193
 30
0.0
 10
174.5707000464047
 20
119.0354945498404
 30
0.0
 10
174.60966703642
 20
119.0827454869366
 30
0.0
 10
174.7090538683445
 20
119.234569304903
 30
0.0
 10
174.7511301157679
 20
119.3473725546681
 30
0.0
 10
174.7817807546122
 20
119.4615266794032
 30
0.0
  0
LINE
  5
F6
330
1F
100
AcDbEntity
  8
0
  6
HIDDEN
 62
     7
370
     0
100
AcDbLine
 10
171.4042815349
 20
118.9338838165
 30
0.0
 11
174.3487677506
 21
118.9338838165
 31
0.0
  0
SPLINE
  5
F7
330
1F
100
AcDbEntity
  8
0
  6
HIDDEN
 62
     7
370
     0
100
AcDbSpline
210
0.0
220
0.0
230
1.0
 70
     8
 71
     3
 72
    12
 73
     8
 74
     0
 42
0.00000001
 43
0.00000001
 12
1.0
 22
0.0
 32
0.0
 13
1.0
 23
0.0
 33
0.0
 40
0.0
 40
0.0
 40
0.0
 40
0.0
 40
0.4999999999999996
 40
0.4999999999999996
 40
0.7499999999999998
 40
0.7499999999999998
 40
1.0
 40
1.0
 40
1.0
 40
1.0
 10
170.9712689779607
 20
119.4615266794032
 30
0.0
 10
171.001968361328
 20
119.3471910123393
 30
0.0
 10
171.0433184294345
 20
119.235837659498
 30
0.0
 10
171.1430743576539
 20
119.0831008872492
 30
0.0
 10
171.1827712753866
 20
119.0352410013971
 30
0.0
 10
171.2800294270342
 20
118.9606378880476
 30
0.0
 10
171.340805585025
 20
118.9338836505395
 30
0.0
 10
171.4042816798529
 20
118.9338836505396
 30
0.0
  0
ELLIPSE
  5
F8
330
1F
100
AcDbEntity
  8
0
  6
HIDDEN
 62
     7
370
     0
100
AcDbEllipse
 10
183.9327825213
 20
111.3650736814
 30
0.0
 11
-11.70927234972711
 21
24.67718644093743
 31
0.0
210
0.0
220
0.0
230
1.0
 40
0.3419987131
 41
0.1689292745891161
 42
1.080116497809134
  0
LINE
  5
F9
330
1F
100
AcDbEntity
  8
0
  6
HIDDEN
 62
     7
370
     0
100
AcDbLine
 10
162.8765248663
 20
136.0650745635
 30
0.0
 11
162.8765248663
 21
86.6650727992
 31
0.0
  0
LINE
  5
FA
330
1F
100
AcDbEntity
  8
0
  6
HIDDEN
 62
     7
370
     0
100
AcDbLine
 10
182.8765244193
 20
86.9650741522
 30
0.0
 11
182.8765244193
 21
135.7650732105
 31
0.0
  0
LINE
  5
FB
330
1F
100
AcDbEntity
  8
0
  6
HIDDEN
 62
     7
370
     0
100
AcDbLine
 10
162.8765248663
 20
91.8150742953
 30
0.0
 11
162.8765248663
 21
130.9150730674
 31
0.0
  0
SPLINE
  5
FC
330
1F
100
AcDbEntity
  8
0
  6
HIDDEN
 62
     7
370
     0
100
AcDbSpline
210
0.0
220
0.0
230
1.0
 70
     8
 71
     3
 72
    14
 73
    10
 74
     0
 42
0.00000001
 43
0.00000001
 12
1.0
 22
0.0
 32
0.0
 13
1.0
 23
0.0
 33
0.0
 40
0.0
 40
0.0
 40
0.0
 40
0.0
 40
0.25
 40
0.25
 40
0.5
 40
0.5
 40
0.75
 40
0.75
 40
1.0
 40
1.0
 40
1.0
 40
1.0
 10
161.8356638381581
 20
123.659549226432
 30
0.0
 10
161.8673789724888
 20
123.6017660440889
 30
0.0
 10
161.9019934977892
 20
123.5453533830139
 30
0.0
 10
161.9816646932045
 20
123.4377539329985
 30
0.0
 10
162.0267205702349
 20
123.3858413060775
 30
0.0
 10
162.1372749827403
 20
123.2996426813802
 30
0.0
 10
162.2046603969445
 20
123.2655532614085
 30
0.0
 10
162.3552899168425
 20
123.2634508693917
 30
0.0
 10
162.4251171536079
 20
123.2968226422364
 30
0.0
 10
162.4815479774113
 20
123.3406353107871
 30
0.0
  0
SPLINE
  5
FD
330
1F
100
AcDbEntity
  8
0
  6
HIDDEN
 62
     7
370
     0
100
AcDbSpline
210
0.0
220
0.0
230
1.0
 70
     8
 71
     3
 72
    16
 73
    12
 74
     0
 42
0.00000001
 43
0.00000001
 12
1.0
 22
0.0
 32
0.0
 13
1.0
 23
0.0
 33
0.0
 40
0.0
 40
0.0
 40
0.0
 40
0.0
 40
0.0624999999999993
 40
0.0624999999999993
 40
0.1249999999999987
 40
0.1249999999999987
 40
0.2499999999999995
 40
0.2499999999999995
 40
0.5000000000000013
 40
0.5000000000000013
 40
1.0
 40
1.0
 40
1.0
 40
1.0
 10
162.4815479773796
 20
123.3406353108177
 30
0.0
 10
162.4932822118265
 20
123.3497457240656
 30
0.0
 10
162.5068139673054
 20
123.357823080012
 30
0.0
 10
162.5368014277353
 20
123.366069921689
 30
0.0
 10
162.5517961341436
 20
123.3651426041014
 30
0.0
 10
162.5875365565383
 20
123.3523760845696
 30
0.0
 10
162.6015498935395
 20
123.3347274380593
 30
0.0
 10
162.6356939823209
 20
123.2800745180277
 30
0.0
 10
162.6466658864392
 20
123.2386748503692
 30
0.0
 10
162.6725114267055
 20
123.1101851066465
 30
0.0
 10
162.6765248662865
 20
123.0195670190077
 30
0.0
 10
162.6765248662865
 20
122.9273479144537
 30
0.0
  0
LINE
  5
FE
330
1F
100
AcDbEntity
  8
0
  6
HIDDEN
 62
     7
370
     0
100
AcDbLine
 10
162.6765248713
 20
99.8027998437
 30
0.0
 11
162.6765248713
 21
122.927347519
 31
0.0
  0
SPLINE
  5
FF
330
1F
100
AcDbEntity
  8
0
  6
HIDDEN
 62
     7
370
     0
100
AcDbSpline
210
0.0
220
0.0
230
1.0
 70
     8
 71
     3
 72
    16
 73
    12
 74
     0
 42
0.00000001
 43
0.00000001
 12
1.0
 22
0.0
 32
0.0
 13
1.0
 23
0.0
 33
0.0
 40
0.0
 40
0.0
 40
0.0
 40
0.0
 40
0.4999999999999974
 40
0.4999999999999974
 40
0.7499999999999962
 40
0.7499999999999962
 40
0.8749999999999981
 40
0.8749999999999981
 40
0.9374999999999991
 40
0.9374999999999991
 40
1.0
 40
1.0
 40
1.0
 40
1.0
 10
162.6765248662865
 20
99.80279944826356
 30
0.0
 10
162.6765248662865
 20
99.71021559735965
 30
0.0
 10
162.6724675641714
 20
99.6200031414994
 30
0.0
 10
162.6468103213766
 20
99.492062014381
 30
0.0
 10
162.6354948756345
 20
99.4496487999691
 30
0.0
 10
162.6014635083258
 20
99.39533475651795
 30
0.0
 10
162.587584527122
 20
99.37775342112806
 30
0.0
 10
162.5516488453547
 20
99.3649697331931
 30
0.0
 10
162.5366985260919
 20
99.36409423504502
 30
0.0
 10
162.50680001335
 20
99.3723396701644
 30
0.0
 10
162.4932671529848
 20
99.38041333033613
 30
0.0
 10
162.4815479774108
 20
99.38951205193025
 30
0.0
  0
SPLINE
  5
100
330
1F
100
AcDbEntity
  8
0
  6
HIDDEN
 62
     7
370
     0
100
AcDbSpline
210
0.0
220
0.0
230
1.0
 70
     8
 71
     3
 72
    14
 73
    10
 74
     0
 42
0.00000001
 43
0.00000001
 12
1.0
 22
0.0
 32
0.0
 13
1.0
 23
0.0
 33
0.0
 40
0.0
 40
0.0
 40
0.0
 40
0.0
 40
0.25
 40
0.25
 40
0.5
 40
0.5
 40
0.75
 40
0.75
 40
1.0
 40
1.0
 40
1.0
 40
1.0
 10
162.4815479774176
 20
99.38951205193878
 30
0.0
 10
162.4250922128088
 20
99.43334408443351
 30
0.0
 10
162.354226586559
 20
99.46667512085536
 30
0.0
 10
162.2057695053863
 20
99.46461611070792
 30
0.0
 10
162.1365761460788
 20
99.43002008630624
 30
0.0
 10
162.0268607079446
 20
99.34435472964338
 30
0.0
 10
161.9816161286133
 20
99.29233228493537
 30
0.0
 10
161.9019894191895
 20
99.18478402460545
 30
0.0
 10
161.867379270656
 20
99.12838186187243
 30
0.0
 10
161.8356638381568
 20
99.07059813628294
 30
0.0
  0
SPLINE
  5
101
330
1F
100
AcDbEntity
  8
0
  6
HIDDEN
 62
     7
370
     0
100
AcDbSpline
210
0.0
220
0.0
230
1.0
 70
     8
 71
     3
 72
    10
 73
     6
 74
     0
 42
0.00000001
 43
0.00000001
 12
1.0
 22
0.0
 32
0.0
 13
1.0
 23
0.0
 33
0.0
 40
0.0
 40
0.0
 40
0.0
 40
0.0
 40
0.5
 40
0.5
 40
1.0
 40
1.0
 40
1.0
 40
1.0
 10
161.8356638381574
 20
99.07059813628393
 30
0.0
 10
161.7638840502339
 20
98.93981941938208
 30
0.0
 10
161.7114245359259
 20
98.80571926987888
 30
0.0
 10
161.6220814718247
 20
98.53762670689014
 30
0.0
 10
161.5860858623249
 20
98.40338133530126
 30
0.0
 10
161.5552045227269
 20
98.27002695782622
 30
0.0
  0
SPLINE
  5
102
330
1F
100
AcDbEntity
  8
0
  6
HIDDEN
 62
     7
370
     0
100
AcDbSpline
210
0.0
220
0.0
230
1.0
 70
     8
 71
     3
 72
    10
 73
     6
 74
     0
 42
0.00000001
 43
0.00000001
 12
1.0
 22
0.0
 32
0.0
 13
1.0
 23
0.0
 33
0.0
 40
0.0
 40
0.0
 40
0.0
 40
0.0
 40
0.5
 40
0.5
 40
1.0
 40
1.0
 40
1.0
 40
1.0
 10
161.5552045227268
 20
94.06816381335378
 30
0.0
 10
161.5860775545391
 20
94.05188066598666
 30
0.0
 10
161.622064417452
 20
94.03962307626107
 30
0.0
 10
161.7113990033432
 20
94.02252008743234
 30
0.0
 10
161.7638548627657
 20
94.01772049157398
 30
0.0
 10
161.835663838158
 20
94.01591640016608
 30
0.0
  0
SPLINE
  5
103
330
1F
100
AcDbEntity
  8
0
  6
HIDDEN
 62
     7
370
     0
100
AcDbSpline
210
0.0
220
0.0
230
1.0
 70
     8
 71
     3
 72
     8
 73
     4
 74
     0
 42
0.00000001
 43
0.00000001
 12
1.0
 22
0.0
 32
0.0
 13
1.0
 23
0.0
 33
0.0
 40
0.0
 40
0.0
 40
0.0
 40
0.0
 40
1.0
 40
1.0
 40
1.0
 40
1.0
 10
162.6588282429115
 20
93.89003202191901
 30
0.0
 10
162.6728150514535
 20
93.86179163133728
 30
0.0
 10
162.6765248662862
 20
93.83865958852654
 30
0.0
 10
162.6765248662865
 20
93.81831921569137
 30
0.0
  0
LINE
  5
104
330
1F
100
AcDbEntity
  8
0
  6
HIDDEN
 62
     7
370
     0
100
AcDbLine
 10
162.6765248713
 20
93.5252526258
 30
0.0
 11
162.6765248713
 21
93.818319351
 31
0.0
  0
LINE
  5
105
330
1F
100
AcDbEntity
  8
0
  6
HIDDEN
 62
     7
370
     0
100
AcDbLine
 10
162.6765248713
 20
128.9118280118
 30
0.0
 11
162.6765248713
 21
129.2048947369
 31
0.0
  0
SPLINE
  5
106
330
1F
100
AcDbEntity
  8
0
  6
HIDDEN
 62
     7
370
     0
100
AcDbSpline
210
0.0
220
0.0
230
1.0
 70
     8
 71
     3
 72
     8
 73
     4
 74
     0
 42
0.00000001
 43
0.00000001
 12
1.0
 22
0.0
 32
0.0
 13
1.0
 23
0.0
 33
0.0
 40
0.0
 40
0.0
 40
0.0
 40
0.0
 40
1.0
 40
1.0
 40
1.0
 40
1.0
 10
162.6765248662866
 20
128.9118281470262
 30
0.0
 10
162.6765248662864
 20
128.8942608055553
 30
0.0
 10
162.6735305180528
 20
128.8745383265531
 30
0.0
 10
162.6639250853331
 20
128.8513359630436
 30
0.0
  0
SPLINE
  5
107
330
1F
100
AcDbEntity
  8
0
  6
HIDDEN
 62
     7
370
     0
100
AcDbSpline
210
0.0
220
0.0
230
1.0
 70
     8
 71
     3
 72
    10
 73
     6
 74
     0
 42
0.00000001
 43
0.00000001
 12
1.0
 22
0.0
 32
0.0
 13
1.0
 23
0.0
 33
0.0
 40
0.0
 40
0.0
 40
0.0
 40
0.0
 40
0.5
 40
0.5
 40
1.0
 40
1.0
 40
1.0
 40
1.0
 10
161.8356638381589
 20
128.7142309625512
 30
0.0
 10
161.7638548627663
 20
128.7124268711433
 30
0.0
 10
161.7113990033436
 20
128.7076272752849
 30
0.0
 10
161.6220644174522
 20
128.6905242864562
 30
0.0
 10
161.5860775545391
 20
128.6782666967306
 30
0.0
 10
161.5552045227269
 20
128.6619835493634
 30
0.0
  0
SPLINE
  5
108
330
1F
100
AcDbEntity
  8
0
  6
HIDDEN
 62
     7
370
     0
100
AcDbSpline
210
0.0
220
0.0
230
1.0
 70
     8
 71
     3
 72
    10
 73
     6
 74
     0
 42
0.00000001
 43
0.00000001
 12
1.0
 22
0.0
 32
0.0
 13
1.0
 23
0.0
 33
0.0
 40
0.0
 40
0.0
 40
0.0
 40
0.0
 40
0.5
 40
0.5
 40
1.0
 40
1.0
 40
1.0
 40
1.0
 10
161.5552045227269
 20
124.460120404891
 30
0.0
 10
161.586085862325
 20
124.3267660274158
 30
0.0
 10
161.6220814718248
 20
124.1925206558267
 30
0.0
 10
161.7114245359262
 20
123.9244280928375
 30
0.0
 10
161.7638840502344
 20
123.7903279433341
 30
0.0
 10
161.8356638381581
 20
123.659549226432
 30
0.0
  0
LINE
  5
109
330
1F
100
AcDbEntity
  8
0
  6
HIDDEN
 62
     7
370
     0
100
AcDbLine
 10
162.6765248713
 20
93.818319351
 30
0.0
 11
162.6765248713
 21
105.3805936542
 31
0.0
  0
LINE
  5
10A
330
1F
100
AcDbEntity
  8
0
  6
HIDDEN
 62
     7
370
     0
100
AcDbLine
 10
162.6765248713
 20
117.3495537085
 30
0.0
 11
162.6765248713
 21
128.9118280118
 31
0.0
  0
LINE
  5
10B
330
1F
100
AcDbEntity
  8
0
  6
HIDDEN
 62
     7
370
     0
100
AcDbLine
 10
182.8765244193
 20
94.8650737708
 30
0.0
 11
182.8765244193
 21
127.865073592
 31
0.0
  0
CIRCLE
  5
10C
330
1F
100
AcDbEntity
  8
0
  6
HIDDEN
 62
     7
370
     0
100
AcDbCircle
 10
148.8765248663
 20
111.3650736814
 30
0.0
 40
3.049999999999997
  0
SPLINE
  5
10D
330
1F
100
AcDbEntity
  8
0
  6
HIDDEN
 62
     7
370
     0
100
AcDbSpline
210
0.0
220
0.0
230
1.0
 70
     8
 71
     3
 72
    62
 73
    58
 74
     0
 42
0.00000001
 43
0.00000001
 12
1.0
 22
0.0
 32
0.0
 13
1.0
 23
0.0
 33
0.0
 40
-0.0312499999999996
 40
-0.0312499999999996
 40
0.0
 40
0.0
 40
0.0312500000000002
 40
0.0312500000000002
 40
0.0625000000000003
 40
0.0625000000000003
 40
0.0937500000000005
 40
0.0937500000000005
 40
0.1250000000000007
 40
0.1250000000000007
 40
0.187500000000001
 40
0.187500000000001
 40
0.2187500000000012
 40
0.2187500000000012
 40
0.2500000000000013
 40
0.2500000000000013
 40
0.2812500000000015
 40
0.2812500000000015
 40
0.3125000000000017
 40
0.3125000000000017
 40
0.3437500000000018
 40
0.3437500000000018
 40
0.375000000000002
 40
0.375000000000002
 40
0.4062500000000022
 40
0.4062500000000022
 40
0.4375000000000023
 40
0.4375000000000023
 40
0.4687500000000025
 40
0.4687500000000025
 40
0.5000000000000027
 40
0.5000000000000027
 40
0.562500000000003
 40
0.562500000000003
 40
0.5937500000000031
 40
0.5937500000000031
 40
0.6250000000000033
 40
0.6250000000000033
 40
0.6562500000000036
 40
0.6562500000000036
 40
0.6875000000000037
 40
0.6875000000000037
 40
0.750000000000004
 40
0.750000000000004
 40
0.7812500000000034
 40
0.7812500000000034
 40
0.812500000000003
 40
0.812500000000003
 40
0.8437500000000024
 40
0.8437500000000024
 40
0.875000000000002
 40
0.875000000000002
 40
0.937500000000001
 40
0.937500000000001
 40
0.9687500000000004
 40
0.9687500000000004
 40
1.0
 40
1.0
 40
1.03125
 40
1.03125
 10
213.3765248662864
 20
111.5306828136076
 30
0.0
 10
213.3765248662864
 20
111.1994645491096
 30
0.0
 10
213.3928173903263
 20
111.0367050181183
 30
0.0
 10
213.4565773842374
 20
110.7166270842796
 30
0.0
 10
213.5048479946165
 20
110.5576210970414
 30
0.0
 10
213.6304809951591
 20
110.2550656685472
 30
0.0
 10
213.7072993663932
 20
110.1116351744136
 30
0.0
 10
213.8887124535721
 20
109.8401969086525
 30
0.0
 10
213.9940191889687
 20
109.7120108797726
 30
0.0
 10
214.3390336098599
 20
109.3671002979281
 30
0.0
 10
214.6172588915459
 20
109.1809952552407
 30
0.0
 10
215.0681840165957
 20
108.9937718422069
 30
0.0
 10
215.226168264514
 20
108.9455412346226
 30
0.0
 10
215.5490582100086
 20
108.8811520724298
 30
0.0
 10
215.7115389213951
 20
108.8651714522487
 30
0.0
 10
216.0385343809828
 20
108.8649767963823
 30
0.0
 10
216.2046621109296
 20
108.8813062023784
 30
0.0
 10
216.5256117860339
 20
108.945267674346
 30
0.0
 10
216.68165065851
 20
108.9925863882862
 30
0.0
 10
216.9848374318115
 20
109.1181720915704
 30
0.0
 10
217.1305730192148
 20
109.1962479718355
 30
0.0
 10
217.4009548610193
 20
109.3769703341177
 30
0.0
 10
217.5276977877744
 20
109.4807644427312
 30
0.0
 10
217.7600997080887
 20
109.7130630461745
 30
0.0
 10
217.863239589663
 20
109.8388276713866
 30
0.0
 10
218.0442720982558
 20
110.1091540130175
 30
0.0
 10
218.1227728602101
 20
110.2555125583501
 30
0.0
 10
218.2481986457381
 20
110.5576584104109
 30
0.0
 10
218.2956727112132
 20
110.7134887879512
 30
0.0
 10
218.3600170383652
 20
111.0347620101235
 30
0.0
 10
218.3764584586314
 20
111.2006900022
 30
0.0
 10
218.3766570658092
 20
111.6908018277381
 30
0.0
 10
218.3109580283942
 20
112.0205926686161
 30
0.0
 10
218.1239479884842
 20
112.4721562440733
 30
0.0
 10
218.045987891066
 20
112.6181616964512
 30
0.0
 10
217.8640535069338
 20
112.8903701417429
 30
0.0
 10
217.7609510942765
 20
113.0159803144056
 30
0.0
 10
217.5306951766152
 20
113.2466356665725
 30
0.0
 10
217.4024371120321
 20
113.3520552352185
 30
0.0
 10
217.1318582465959
 20
113.5331700771346
 30
0.0
 10
216.9885273981665
 20
113.6101638780148
 30
0.0
 10
216.5335705847271
 20
113.7994543853563
 30
0.0
 10
216.2084563265215
 20
113.8648400072234
 30
0.0
 10
215.7132061081537
 20
113.8651895842314
 30
0.0
 10
215.5505962856548
 20
113.8491126659782
 30
0.0
 10
215.2301574458873
 20
113.78558773309
 30
0.0
 10
215.0707422163642
 20
113.737296120993
 30
0.0
 10
214.7686803687679
 20
113.6121619197992
 30
0.0
 10
214.6251295891392
 20
113.5355072753498
 30
0.0
 10
214.3529120756954
 20
113.3538864402525
 30
0.0
 10
214.2250620275773
 20
113.2489723913146
 30
0.0
 10
213.8801061261453
 20
112.9045306122462
 30
0.0
 10
213.6936207138495
 20
112.6264183921061
 30
0.0
 10
213.5059019461181
 20
112.1754206594406
 30
0.0
 10
213.4573732541598
 20
112.0168240250259
 30
0.0
 10
213.3928202828571
 20
111.6941398983688
 30
0.0
 10
213.3765248662864
 20
111.5306828136076
 30
0.0
 10
213.3765248662864
 20
111.1994645491096
 30
0.0
  0
LINE
  5
10E
330
1F
100
AcDbEntity
  8
0
  6
HIDDEN
 62
     7
370
     0
100
AcDbLine
 10
137.9045647538
 20
122.153749079
 30
0.0
 11
137.9045647538
 21
100.5763982837
 31
0.0
  0
LINE
  5
10F
330
1F
100
AcDbEntity
  8
0
  6
HIDDEN
 62
     7
370
     0
100
AcDbLine
 10
133.9045640982
 20
122.5349468594
 30
0.0
 11
133.9045640982
 21
100.1952005034
 31
0.0
  0
LINE
  5
110
330
1F
100
AcDbEntity
  8
0
  6
HIDDEN
 62
     7
370
     0
100
AcDbLine
 10
132.8765255368
 20
99.601661176
 30
0.0
 11
132.8765255368
 21
123.1106234198
 31
0.0
  0
LINE
  5
111
330
1F
100
AcDbEntity
  8
0
  6
HIDDEN
 62
     7
370
     0
100
AcDbLine
 10
142.5045643902
 20
121.8650735398
 30
0.0
 11
142.5045643902
 21
100.8650738229
 31
0.0
  0
LINE
  5
112
330
1F
100
AcDbEntity
  8
0
  6
HIDDEN
 62
     7
370
     0
100
AcDbLine
 10
136.4045654393
 20
121.8650735398
 30
0.0
 11
136.4045654393
 21
100.8650738229
 31
0.0
  0
LWPOLYLINE
  5
113
330
1F
100
AcDbEntity
  8
0
  6
HIDDEN
 62
     7
370
     0
100
AcDbPolyline
 90
       20
 70
   128
 43
0.0
 10
213.7963668413
 20
111.6530740408
 10
213.6573837108
 20
112.0930710756
 10
213.5796518034
 20
112.4493807736
 10
213.56869945
 20
112.6966495947
 10
213.6253089613
 20
112.8172827601
 10
213.7454495735
 20
112.8026965023
 10
213.9205754704
 20
112.6539285476
 10
214.1382218308
 20
112.3815648905
 10
214.3829026229
 20
112.0049858298
 10
214.6372058398
 20
111.5509873059
 10
214.8830414719
 20
111.0518740905
 10
215.1029155559
 20
110.543161253
 10
215.2811781473
 20
110.0610468718
 10
215.4051483578
 20
109.6398363304
 10
215.4660009748
 20
109.3095015683
 10
215.4594146616
 20
109.0935476539
 10
215.3858476288
 20
109.0073411768
 10
215.2505413598
 20
109.0570165259
 10
215.0631220049
 20
109.2390386337
 10
214.8369261033
 20
109.540455597
  0
SPLINE
  5
114
330
1F
100
AcDbEntity
  8
0
  6
HIDDEN
 62
     7
370
     0
100
AcDbSpline
210
0.0
220
0.0
230
1.0
 70
     8
 71
     3
 72
    20
 73
    16
 74
     0
 42
0.00000001
 43
0.00000001
 12
1.0
 22
0.0
 32
0.0
 13
1.0
 23
0.0
 33
0.0
 40
0.0
 40
0.0
 40
0.0
 40
0.0
 40
0.1250000000000008
 40
0.1250000000000008
 40
0.2500000000000016
 40
0.2500000000000016
 40
0.3750000000000023
 40
0.3750000000000023
 40
0.5000000000000031
 40
0.5000000000000031
 40
0.7500000000000016
 40
0.7500000000000016
 40
0.8750000000000008
 40
0.8750000000000008
 40
1.0
 40
1.0
 40
1.0
 40
1.0
 10
214.8369245928016
 20
109.5404555647736
 30
0.0
 10
214.7707043524232
 20
109.5781854214388
 30
0.0
 10
214.6982319343749
 20
109.6240225523869
 30
0.0
 10
214.5409776884957
 20
109.7415137031067
 30
0.0
 10
214.456395063433
 20
109.8137516272097
 30
0.0
 10
214.2946677338213
 20
109.9790373235705
 30
0.0
 10
214.221231988607
 20
110.0676561510934
 30
0.0
 10
214.0891747138271
 20
110.2566215212546
 30
0.0
 10
214.0317303414136
 20
110.3554045881014
 30
0.0
 10
213.8855484518062
 20
110.6602283192394
 30
0.0
 10
213.8219131504268
 20
110.881995129219
 30
0.0
 10
213.7806071450569
 20
111.196766065793
 30
0.0
 10
213.7754403846958
 20
111.2999148260191
 30
0.0
 10
213.7780002245679
 20
111.4875318509942
 30
0.0
 10
213.7853448960578
 20
111.5734623648196
 30
0.0
 10
213.7963672301377
 20
111.6530740438103
 30
0.0
  0
SPLINE
  5
115
330
1F
100
AcDbEntity
  8
0
  6
HIDDEN
 62
     7
370
     0
100
AcDbSpline
210
0.0
220
0.0
230
1.0
 70
     8
 71
     3
 72
    10
 73
     6
 74
     0
 42
0.00000001
 43
0.00000001
 12
1.0
 22
0.0
 32
0.0
 13
1.0
 23
0.0
 33
0.0
 40
0.0
 40
0.0
 40
0.0
 40
0.0
 40
0.5
 40
0.5
 40
1.0
 40
1.0
 40
1.0
 40
1.0
 10
217.4375637580344
 20
109.9603824062207
 30
0.0
 10
217.1870065136446
 20
109.8441485858909
 30
0.0
 10
216.9351006621687
 20
109.7256798241158
 30
0.0
 10
216.4253056817531
 20
109.4882914079984
 30
0.0
 10
216.1671964514829
 20
109.3702078249914
 30
0.0
 10
215.9101455421489
 20
109.2653428295202
 30
0.0
  0
SPLINE
  5
116
330
1F
100
AcDbEntity
  8
0
  6
HIDDEN
 62
     7
370
     0
100
AcDbSpline
210
0.0
220
0.0
230
1.0
 70
     8
 71
     3
 72
    46
 73
    42
 74
     0
 42
0.00000001
 43
0.00000001
 12
1.0
 22
0.0
 32
0.0
 13
1.0
 23
0.0
 33
0.0
 40
0.0
 40
0.0
 40
0.0
 40
0.0
 40
0.0624999999999986
 40
0.0624999999999986
 40
0.1249999999999971
 40
0.1249999999999971
 40
0.1562499999999964
 40
0.1562499999999964
 40
0.1874999999999957
 40
0.1874999999999957
 40
0.2187499999999949
 40
0.2187499999999949
 40
0.2499999999999942
 40
0.2499999999999942
 40
0.2812499999999934
 40
0.2812499999999934
 40
0.3124999999999927
 40
0.3124999999999927
 40
0.374999999999993
 40
0.374999999999993
 40
0.4374999999999932
 40
0.4374999999999932
 40
0.4999999999999934
 40
0.4999999999999934
 40
0.5624999999999937
 40
0.5624999999999937
 40
0.6249999999999939
 40
0.6249999999999939
 40
0.6562499999999944
 40
0.6562499999999944
 40
0.6874999999999949
 40
0.6874999999999949
 40
0.7499999999999957
 40
0.7499999999999957
 40
0.8749999999999978
 40
0.8749999999999978
 40
0.9374999999999989
 40
0.9374999999999989
 40
0.9687499999999993
 40
0.9687499999999993
 40
1.0
 40
1.0
 40
1.0
 40
1.0
 10
213.7963672301377
 20
111.6530740438103
 30
0.0
 10
213.8228203036055
 20
111.8441382574281
 30
0.0
 10
213.8735455808298
 20
112.0219156924733
 30
0.0
 10
214.0170404253323
 20
112.3578904113664
 30
0.0
 10
214.1103724683929
 20
112.5155868835253
 30
0.0
 10
214.2781567517639
 20
112.7301608949511
 30
0.0
 10
214.3390086646059
 20
112.7985556864047
 30
0.0
 10
214.4731583471798
 20
112.9301261221003
 30
0.0
 10
214.5467030024681
 20
112.9933552422155
 30
0.0
 10
214.705163066938
 20
113.1108223934999
 30
0.0
 10
214.7919858177946
 20
113.1661793307024
 30
0.0
 10
214.9698901668194
 20
113.2619711560588
 30
0.0
 10
215.0624971693978
 20
113.303205207372
 30
0.0
 10
215.2405168765273
 20
113.3686925923273
 30
0.0
 10
215.3277638073453
 20
113.3939234176494
 30
0.0
 10
215.49519774003
 20
113.4319456113626
 30
0.0
 10
215.5765639618554
 20
113.4451225500633
 30
0.0
 10
215.8185822162944
 20
113.4705337286781
 30
0.0
 10
215.9749974584321
 20
113.4685619516529
 30
0.0
 10
216.2848686759199
 20
113.4308943627837
 30
0.0
 10
216.4388518559097
 20
113.3951618300382
 30
0.0
 10
216.7503495217857
 20
113.2818157104564
 30
0.0
 10
216.9031695930343
 20
113.2058563976896
 30
0.0
 10
217.2018013497052
 20
113.0040131696251
 30
0.0
 10
217.3450731918063
 20
112.8792677304156
 30
0.0
 10
217.6028279922638
 20
112.5772186066162
 30
0.0
 10
217.711837086356
 20
112.4057796238861
 30
0.0
 10
217.8361245040302
 20
112.1268670987244
 30
0.0
 10
217.8697623443633
 20
112.0333215958997
 30
0.0
 10
217.9232101262465
 20
111.8453135859488
 30
0.0
 10
217.9429589781299
 20
111.750306278094
 30
0.0
 10
217.9817582275859
 20
111.4755674059935
 30
0.0
 10
217.9817525795982
 20
111.2996647932214
 30
0.0
 10
217.929311576506
 20
110.8163342964792
 30
0.0
 10
217.8250230356077
 20
110.5453727774011
 30
0.0
 10
217.646900817874
 20
110.2291125631905
 30
0.0
 10
217.5824445946011
 20
110.1371521773016
 30
0.0
 10
217.4997589187991
 20
110.0319947093326
 30
0.0
 10
217.4752265728096
 20
110.003157513726
 30
0.0
 10
217.4413585020355
 20
109.964374396527
 30
0.0
 10
217.4328032282708
 20
109.9550920109297
 30
0.0
 10
217.4375637580354
 20
109.9603824062212
 30
0.0
  0
SPLINE
  5
117
330
1F
100
AcDbEntity
  8
0
  6
HIDDEN
 62
     7
370
     0
100
AcDbSpline
210
0.0
220
0.0
230
1.0
 70
     8
 71
     3
 72
    12
 73
     8
 74
     0
 42
0.00000001
 43
0.00000001
 12
1.0
 22
0.0
 32
0.0
 13
1.0
 23
0.0
 33
0.0
 40
0.0
 40
0.0
 40
0.0
 40
0.0
 40
0.2500000000000028
 40
0.2500000000000028
 40
0.5000000000000056
 40
0.5000000000000056
 40
1.0
 40
1.0
 40
1.0
 40
1.0
 10
215.9101455421547
 20
109.2653428295221
 30
0.0
 10
215.8686815525187
 20
109.2646789123564
 30
0.0
 10
215.7995509079695
 20
109.2648975999709
 30
0.0
 10
215.6367423616872
 20
109.2772113981655
 30
0.0
 10
215.5437185450256
 20
109.2892793599601
 30
0.0
 10
215.2547543563586
 20
109.3496010613832
 30
0.0
 10
215.0433466355769
 20
109.4228438792532
 30
0.0
 10
214.8369245928016
 20
109.5404555647736
 30
0.0
  0
LINE
  5
118
330
1F
100
AcDbEntity
  8
0
  6
HIDDEN
 62
     7
370
     0
100
AcDbLine
 10
137.4045656032
 20
121.8650735398
 30
0.0
 11
137.4045656032
 21
100.8650738229
 31
0.0
  0
SPLINE
  5
119
330
1F
100
AcDbEntity
  8
0
  6
HIDDEN
 62
     7
370
     0
100
AcDbSpline
210
0.0
220
0.0
230
1.0
 70
     8
 71
     3
 72
    66
 73
    62
 74
     0
 42
0.00000001
 43
0.00000001
 12
1.0
 22
0.0
 32
0.0
 13
1.0
 23
0.0
 33
0.0
 40
-0.0312500000000001
 40
-0.0312500000000001
 40
0.0
 40
0.0
 40
0.0312499999999999
 40
0.0312499999999999
 40
0.0624999999999998
 40
0.0624999999999998
 40
0.0937499999999996
 40
0.0937499999999996
 40
0.1249999999999995
 40
0.1249999999999995
 40
0.1874999999999995
 40
0.1874999999999995
 40
0.2187499999999994
 40
0.2187499999999994
 40
0.2499999999999993
 40
0.2499999999999993
 40
0.2812499999999993
 40
0.2812499999999993
 40
0.3124999999999992
 40
0.3124999999999992
 40
0.3437499999999991
 40
0.3437499999999991
 40
0.3749999999999991
 40
0.3749999999999991
 40
0.406249999999999
 40
0.406249999999999
 40
0.4374999999999989
 40
0.4374999999999989
 40
0.4687499999999988
 40
0.4687499999999988
 40
0.4999999999999988
 40
0.4999999999999988
 40
0.5312499999999987
 40
0.5312499999999987
 40
0.5624999999999986
 40
0.5624999999999986
 40
0.5937499999999984
 40
0.5937499999999984
 40
0.6249999999999984
 40
0.6249999999999984
 40
0.6562499999999986
 40
0.6562499999999986
 40
0.6874999999999987
 40
0.6874999999999987
 40
0.7187499999999988
 40
0.7187499999999988
 40
0.7499999999999989
 40
0.7499999999999989
 40
0.781249999999999
 40
0.781249999999999
 40
0.8124999999999991
 40
0.8124999999999991
 40
0.8749999999999993
 40
0.8749999999999993
 40
0.9062499999999997
 40
0.9062499999999997
 40
0.9374999999999998
 40
0.9374999999999998
 40
0.9687499999999999
 40
0.9687499999999999
 40
1.0
 40
1.0
 40
1.03125
 40
1.03125
 10
148.6738462193387
 20
114.4150736813586
 30
0.0
 10
149.0792035132342
 20
114.4150736813586
 30
0.0
 10
149.2782634045701
 20
114.395074121742
 30
0.0
 10
149.6695173891498
 20
114.3169306190419
 30
0.0
 10
149.8637901478974
 20
114.2577695175211
 30
0.0
 10
150.2325535744488
 20
114.1043378306268
 30
0.0
 10
150.407278732827
 20
114.0106110207846
 30
0.0
 10
150.7379560363608
 20
113.7893569183797
 30
0.0
 10
150.8936035803637
 20
113.6613755513851
 30
0.0
 10
151.3130709500323
 20
113.241820454385
 30
0.0
 10
151.5399590915626
 20
112.9033418956817
 30
0.0
 10
151.7687557149474
 20
112.3534630079635
 30
0.0
 10
151.8279479697962
 20
112.1600631622201
 30
0.0
 10
151.9067553800568
 20
111.7658350118622
 30
0.0
 10
151.9263947963371
 20
111.5671961844298
 30
0.0
 10
151.9266536607587
 20
111.1668958985314
 30
0.0
 10
151.9065829761258
 20
110.9635565718103
 30
0.0
 10
151.8282452934958
 20
110.5714650512027
 30
0.0
 10
151.7702955254574
 20
110.3807591828875
 30
0.0
 10
151.6163523835774
 20
110.0100353663009
 30
0.0
 10
151.5214137698547
 20
109.8333087064921
 30
0.0
 10
151.3010563539775
 20
109.5040555955677
 30
0.0
 10
151.1737763280492
 20
109.3489343719713
 30
0.0
 10
150.8920207367187
 20
109.0672576770409
 30
0.0
 10
150.7392324072612
 20
108.9418244921365
 30
0.0
 10
150.4098053251043
 20
108.7210488987824
 30
0.0
 10
150.2312593219526
 20
108.6252176460822
 30
0.0
 10
149.8636869964024
 20
108.4723885155871
 30
0.0
 10
149.6735329696915
 20
108.4142167576429
 30
0.0
 10
149.279992546989
 20
108.335223465298
 30
0.0
 10
149.0775584757278
 20
108.3151603396558
 30
0.0
 10
148.6781294003624
 20
108.314987593537
 30
0.0
 10
148.4781104218065
 20
108.3344709676263
 30
0.0
 10
148.0819944743571
 20
108.4134625392275
 30
0.0
 10
147.8912616461653
 20
108.4717427590795
 30
0.0
 10
147.5236302055856
 20
108.6243103796875
 30
0.0
 10
147.3451437734178
 20
108.7199191664608
 30
0.0
 10
147.0149385144537
 20
108.9409312115458
 30
0.0
 10
146.8620499363918
 20
109.0663811103159
 30
0.0
 10
146.5804535418537
 20
109.3476115993213
 30
0.0
 10
146.4528226189782
 20
109.5029944772352
 30
0.0
 10
146.2324971839784
 20
109.8318453352781
 30
0.0
 10
146.1382707270131
 20
110.0067334416921
 30
0.0
 10
145.98333620641
 20
110.3788772930529
 30
0.0
 10
145.9253239208077
 20
110.5696833348619
 30
0.0
 10
145.8469046665296
 20
110.9605563527806
 30
0.0
 10
145.826590586563
 20
111.1630139141629
 30
0.0
 10
145.8264594702591
 20
111.5651445190823
 30
0.0
 10
145.8460841636184
 20
111.7638685642575
 30
0.0
 10
145.9242506140321
 20
112.1567080353941
 30
0.0
 10
145.983538059372
 20
112.3513523127967
 30
0.0
 10
146.2126189024548
 20
112.9027920662109
 30
0.0
 10
146.439449753349
 20
113.2411316319101
 30
0.0
 10
146.8587884546697
 20
113.6607972945616
 30
0.0
 10
147.0141414504197
 20
113.7886433003349
 30
0.0
 10
147.3451092835569
 20
114.0102443750367
 30
0.0
 10
147.5196705837532
 20
114.1038851090136
 30
0.0
 10
147.8872438913281
 20
114.2570392297128
 30
0.0
 10
148.0819307529661
 20
114.3165429753589
 30
0.0
 10
148.4744067029026
 20
114.3950657244218
 30
0.0
 10
148.6738462193387
 20
114.4150736813586
 30
0.0
 10
149.0792035132342
 20
114.4150736813586
 30
0.0
  0
SPLINE
  5
11A
330
1F
100
AcDbEntity
  8
0
  6
HIDDEN
 62
     7
370
     0
100
AcDbSpline
210
0.0
220
0.0
230
1.0
 70
     8
 71
     3
 72
    66
 73
    62
 74
     0
 42
0.00000001
 43
0.00000001
 12
1.0
 22
0.0
 32
0.0
 13
1.0
 23
0.0
 33
0.0
 40
-0.0312500000000001
 40
-0.0312500000000001
 40
0.0
 40
0.0
 40
0.0312499999999999
 40
0.0312499999999999
 40
0.0624999999999998
 40
0.0624999999999998
 40
0.0937499999999996
 40
0.0937499999999996
 40
0.1249999999999995
 40
0.1249999999999995
 40
0.1874999999999993
 40
0.1874999999999993
 40
0.2187499999999991
 40
0.2187499999999991
 40
0.2499999999999989
 40
0.2499999999999989
 40
0.2812499999999988
 40
0.2812499999999988
 40
0.3124999999999987
 40
0.3124999999999987
 40
0.3437499999999986
 40
0.3437499999999986
 40
0.3749999999999984
 40
0.3749999999999984
 40
0.4062499999999983
 40
0.4062499999999983
 40
0.4374999999999984
 40
0.4374999999999984
 40
0.4687499999999985
 40
0.4687499999999985
 40
0.4999999999999986
 40
0.4999999999999986
 40
0.5312499999999987
 40
0.5312499999999987
 40
0.5624999999999988
 40
0.5624999999999988
 40
0.5937499999999989
 40
0.5937499999999989
 40
0.624999999999999
 40
0.624999999999999
 40
0.6562499999999991
 40
0.6562499999999991
 40
0.6874999999999992
 40
0.6874999999999992
 40
0.7187499999999993
 40
0.7187499999999993
 40
0.7499999999999993
 40
0.7499999999999993
 40
0.7812499999999994
 40
0.7812499999999994
 40
0.8124999999999996
 40
0.8124999999999996
 40
0.8749999999999999
 40
0.8749999999999999
 40
0.9062499999999999
 40
0.9062499999999999
 40
0.9374999999999999
 40
0.9374999999999999
 40
0.9687499999999999
 40
0.9687499999999999
 40
1.0
 40
1.0
 40
1.03125
 40
1.03125
 10
149.0792035132342
 20
114.4150736813586
 30
0.0
 10
148.6738462193387
 20
114.4150736813586
 30
0.0
 10
148.4747863280028
 20
114.395074121742
 30
0.0
 10
148.0835323434231
 20
114.3169306190419
 30
0.0
 10
147.8892595846754
 20
114.2577695175211
 30
0.0
 10
147.5204961581241
 20
114.1043378306268
 30
0.0
 10
147.3457709997459
 20
114.0106110207846
 30
0.0
 10
147.0150936962121
 20
113.7893569183797
 30
0.0
 10
146.8594461522092
 20
113.6613755513851
 30
0.0
 10
146.4399787825405
 20
113.241820454385
 30
0.0
 10
146.2130906410103
 20
112.9033418956817
 30
0.0
 10
145.9842940176255
 20
112.3534630079635
 30
0.0
 10
145.9251017627766
 20
112.1600631622201
 30
0.0
 10
145.8462943525161
 20
111.7658350118622
 30
0.0
 10
145.8266549362357
 20
111.5671961844298
 30
0.0
 10
145.8263960718141
 20
111.1668958985314
 30
0.0
 10
145.8464667564471
 20
110.9635565718103
 30
0.0
 10
145.924804439077
 20
110.5714650512027
 30
0.0
 10
145.9827542071155
 20
110.3807591828875
 30
0.0
 10
146.1366973489955
 20
110.0100353663009
 30
0.0
 10
146.2316359627182
 20
109.8333087064921
 30
0.0
 10
146.4519933785953
 20
109.5040555955677
 30
0.0
 10
146.5792734045236
 20
109.3489343719713
 30
0.0
 10
146.8610289958542
 20
109.0672576770409
 30
0.0
 10
147.0138173253117
 20
108.9418244921365
 30
0.0
 10
147.3432444074686
 20
108.7210488987824
 30
0.0
 10
147.5217904106203
 20
108.6252176460822
 30
0.0
 10
147.8893627361705
 20
108.4723885155871
 30
0.0
 10
148.0795167628814
 20
108.4142167576429
 30
0.0
 10
148.4730571855839
 20
108.335223465298
 30
0.0
 10
148.6754912568451
 20
108.3151603396558
 30
0.0
 10
149.0749203322105
 20
108.314987593537
 30
0.0
 10
149.2749393107664
 20
108.3344709676263
 30
0.0
 10
149.6710552582157
 20
108.4134625392275
 30
0.0
 10
149.8617880864076
 20
108.4717427590795
 30
0.0
 10
150.2294195269873
 20
108.6243103796875
 30
0.0
 10
150.4079059591551
 20
108.7199191664608
 30
0.0
 10
150.7381112181191
 20
108.9409312115458
 30
0.0
 10
150.8909997961811
 20
109.0663811103159
 30
0.0
 10
151.1725961907192
 20
109.3476115993213
 30
0.0
 10
151.3002271135947
 20
109.5029944772352
 30
0.0
 10
151.5205525485945
 20
109.8318453352781
 30
0.0
 10
151.6147790055598
 20
110.0067334416921
 30
0.0
 10
151.7697135261629
 20
110.3788772930529
 30
0.0
 10
151.8277258117652
 20
110.5696833348619
 30
0.0
 10
151.9061450660433
 20
110.9605563527806
 30
0.0
 10
151.9264591460098
 20
111.1630139141629
 30
0.0
 10
151.9265902623138
 20
111.5651445190823
 30
0.0
 10
151.9069655689544
 20
111.7638685642575
 30
0.0
 10
151.8287991185408
 20
112.1567080353941
 30
0.0
 10
151.7695116732009
 20
112.3513523127967
 30
0.0
 10
151.540430830118
 20
112.9027920662109
 30
0.0
 10
151.3135999792238
 20
113.2411316319101
 30
0.0
 10
150.8942612779032
 20
113.6607972945616
 30
0.0
 10
150.7389082821532
 20
113.7886433003349
 30
0.0
 10
150.407940449016
 20
114.0102443750366
 30
0.0
 10
150.2333791488197
 20
114.1038851090136
 30
0.0
 10
149.8658058412448
 20
114.2570392297128
 30
0.0
 10
149.6711189796068
 20
114.3165429753589
 30
0.0
 10
149.2786430296703
 20
114.3950657244218
 30
0.0
 10
149.0792035132342
 20
114.4150736813586
 30
0.0
 10
148.6738462193387
 20
114.4150736813586
 30
0.0
  0
LINE
  5
11B
330
1F
100
AcDbEntity
  8
0
  6
HIDDEN
 62
     7
370
     0
100
AcDbLine
 10
152.8765250898
 20
121.3650734578
 30
0.0
 11
152.8765250898
 21
101.3650739049
 31
0.0
  0
ARC
  5
11C
330
1F
100
AcDbEntity
  8
0
  6
HIDDEN
 62
     7
370
     0
100
AcDbCircle
 10
215.8765248663
 20
111.3650736814
 30
0.0
 40
2.100000000001834
100
AcDbArc
 50
270.917335777
 51
318.0177302522
  0
LINE
  5
11D
330
1F
100
AcDbEntity
  8
0
  6
HIDDEN
 62
     7
370
     0
100
AcDbLine
 10
153.8765252537
 20
118.6150734727
 30
0.0
 11
153.8765252537
 21
104.11507389
 31
0.0
  0
LINE
  5
11E
330
1F
100
AcDbEntity
  8
0
  6
HIDDEN
 62
     7
370
     0
100
AcDbLine
 10
152.8765250898
 20
103.1150737261
 30
0.0
 11
152.8765250898
 21
119.6150736367
 31
0.0
  0
LINE
  5
11F
330
1F
100
AcDbEntity
  8
0
  6
HIDDEN
 62
     7
370
     0
100
AcDbLine
 10
177.876524531
 20
118.6150734727
 30
0.0
 11
177.876524531
 21
104.11507389
 31
0.0
  0
LINE
  5
120
330
1F
100
AcDbEntity
  8
0
  6
HIDDEN
 62
     7
370
     0
100
AcDbLine
 10
180.2799672789
 20
114.6150737484
 30
0.0
 11
180.2799672789
 21
108.1150736143
 31
0.0
  0
LINE
  5
121
330
1F
100
AcDbEntity
  8
0
  6
HIDDEN
 62
     7
370
     0
100
AcDbLine
 10
218.8765265948
 20
108.1150736143
 30
0.0
 11
218.8765265948
 21
114.6150737484
 31
0.0
  0
SPLINE
  5
122
330
1F
100
AcDbEntity
  8
0
  6
HIDDEN
 62
     7
370
     0
100
AcDbSpline
210
0.0
220
0.0
230
1.0
 70
    11
 71
     3
 72
    57
 73
    53
 74
     0
 42
0.00000001
 43
0.00000001
 12
1.0
 22
0.0
 32
0.0
 13
1.0
 23
0.0
 33
0.0
 40
0.0
 40
0.0
 40
0.0
 40
0.0
 40
0.0058947182115902
 40
0.0229480405454528
 40
0.0288997211449978
 40
0.0526446388153858
 40
0.0756339443515081
 40
0.0991991788991327
 40
0.1241379331093542
 40
0.1496301923060713
 40
0.1780868502259913
 40
0.2074468664436172
 40
0.2281090700835378
 40
0.2493350473092585
 40
0.2700157254627899
 40
0.2913455250699842
 40
0.3114653602200582
 40
0.3319993729427561
 40
0.3560791644087465
 40
0.3806534030481133
 40
0.4091510051307262
 40
0.4385392031332086
 40
0.4614069247688618
 40
0.484911065796517
 40
0.5077958990138199
 40
0.5314291886793924
 40
0.5530898782304495
 40
0.5753030461896236
 40
0.5985618363465511
 40
0.6042814620914531
 40
0.6222765904718591
 40
0.6223314803713006
 40
0.6491560493585432
 40
0.6766463649456798
 40
0.7000555338869505
 40
0.7240742861097035
 40
0.7475243527687517
 40
0.751981680364512
 40
0.771378091462224
 40
0.7719262895771553
 40
0.7919110968847757
 40
0.8123965998866053
 40
0.81299848927036
 40
0.8390403400264075
 40
0.8392354179129418
 40
0.8668458324277234
 40
0.8940801784573787
 40
0.92203630005887
 40
0.9458947995139623
 40
0.9704090918329874
 40
0.9879907597640216
 40
1.0
 40
1.0
 40
1.0
 40
1.0
 10
213.781175107423
 20
111.2850268844202
 30
0.0
 10
213.7790771706508
 20
111.3117186236188
 30
0.0
 10
213.7709099374801
 20
111.4156291230477
 30
0.0
 10
213.7920141197606
 20
111.5459468572915
 30
0.0
 10
213.8027497702575
 20
111.7578001983379
 30
0.0
 10
213.8657639245584
 20
111.9884913802911
 30
0.0
 10
213.9769518531044
 20
112.2793898545394
 30
0.0
 10
214.1334321155544
 20
112.5499386753498
 30
0.0
 10
214.3312106651735
 20
112.7993344101901
 30
0.0
 10
214.5787388833815
 20
113.0280373262151
 30
0.0
 10
214.8773035440094
 20
113.2247462864898
 30
0.0
 10
215.1932567442255
 20
113.3601568878667
 30
0.0
 10
215.501961351848
 20
113.4378539127902
 30
0.0
 10
215.7843272521642
 20
113.4695594970493
 30
0.0
 10
216.0725841552697
 20
113.4624328069428
 30
0.0
 10
216.3497480712765
 20
113.4173626499802
 30
0.0
 10
216.6130258632857
 20
113.3377585187029
 30
0.0
 10
216.8704767675027
 20
113.2224934295973
 30
0.0
 10
217.1226077450616
 20
113.0649780101064
 30
0.0
 10
217.3731956008073
 20
112.8511847167301
 30
0.0
 10
217.6023668604649
 20
112.580984500098
 30
0.0
 10
217.7795158242526
 20
112.2754120631085
 30
0.0
 10
217.8985103536557
 20
111.9600511333472
 30
0.0
 10
217.9645200551804
 20
111.6540681095753
 30
0.0
 10
217.9843727591789
 20
111.3355562827192
 30
0.0
 10
217.9565004772751
 20
111.0263554699554
 30
0.0
 10
217.8859551484318
 20
110.7300820070124
 30
0.0
 10
217.7744669284075
 20
110.4545795999124
 30
0.0
 10
217.6696416040804
 20
110.2550375047271
 30
0.0
 10
217.5432100590121
 20
110.0979899968698
 30
0.0
 10
217.4811776845875
 20
110.0168700770058
 30
0.0
 10
217.3624182729442
 20
109.8650501925717
 30
0.0
 10
217.1840500180382
 20
109.7144801078843
 30
0.0
 10
216.910124990249
 20
109.5264320661328
 30
0.0
 10
216.613078147499
 20
109.389668520345
 30
0.0
 10
216.3104326042905
 20
109.3049687128949
 30
0.0
 10
216.0767003949985
 20
109.264284981267
 30
0.0
 10
215.8620790462565
 20
109.2722706565229
 30
0.0
 10
215.7514831999778
 20
109.274270831038
 30
0.0
 10
215.5703514262073
 20
109.2784295933421
 30
0.0
 10
215.3906681287764
 20
109.3229980361342
 30
0.0
 10
215.2106913770406
 20
109.3637940568745
 30
0.0
 10
215.026455448544
 20
109.4522211984867
 30
0.0
 10
214.9213391071299
 20
109.5021870862962
 30
0.0
 10
214.7104691060231
 20
109.6025781300059
 30
0.0
 10
214.5256364992223
 20
109.7503900657789
 30
0.0
 10
214.2706829345531
 20
109.9945205873022
 30
0.0
 10
214.0722056077519
 20
110.2735906200585
 30
0.0
 10
213.9221228913785
 20
110.5737382697265
 30
0.0
 10
213.8336025148194
 20
110.8554298429779
 30
0.0
 10
213.7883805064582
 20
111.0962312079576
 30
0.0
 10
213.7832551809643
 20
111.2305248520671
 30
0.0
 10
213.781175107423
 20
111.2850268844202
 30
0.0
  0
SPLINE
  5
123
330
1F
100
AcDbEntity
  8
0
  6
HIDDEN
 62
     7
370
     0
100
AcDbSpline
210
0.0
220
0.0
230
1.0
 70
     8
 71
     3
 72
    62
 73
    58
 74
     0
 42
0.00000001
 43
0.00000001
 12
1.0
 22
0.0
 32
0.0
 13
1.0
 23
0.0
 33
0.0
 40
-0.0624999999999979
 40
-0.0624999999999979
 40
0.0
 40
0.0
 40
0.0312500000000007
 40
0.0312500000000007
 40
0.0625000000000014
 40
0.0625000000000014
 40
0.1250000000000022
 40
0.1250000000000022
 40
0.1562500000000026
 40
0.1562500000000026
 40
0.187500000000003
 40
0.187500000000003
 40
0.2187500000000034
 40
0.2187500000000034
 40
0.2500000000000038
 40
0.2500000000000038
 40
0.2812500000000042
 40
0.2812500000000042
 40
0.3125000000000045
 40
0.3125000000000045
 40
0.3437500000000049
 40
0.3437500000000049
 40
0.3750000000000053
 40
0.3750000000000053
 40
0.4062500000000057
 40
0.4062500000000057
 40
0.437500000000006
 40
0.437500000000006
 40
0.4687500000000064
 40
0.4687500000000064
 40
0.5000000000000068
 40
0.5000000000000068
 40
0.5312500000000072
 40
0.5312500000000072
 40
0.5625000000000077
 40
0.5625000000000077
 40
0.6250000000000083
 40
0.6250000000000083
 40
0.6562500000000088
 40
0.6562500000000088
 40
0.6875000000000091
 40
0.6875000000000091
 40
0.7500000000000085
 40
0.7500000000000085
 40
0.7812500000000074
 40
0.7812500000000074
 40
0.8125000000000064
 40
0.8125000000000064
 40
0.8437500000000053
 40
0.8437500000000053
 40
0.8750000000000042
 40
0.8750000000000042
 40
0.9062500000000032
 40
0.9062500000000032
 40
0.9375000000000021
 40
0.9375000000000021
 40
1.0
 40
1.0
 40
1.031250000000001
 40
1.031250000000001
 10
213.7765248662864
 20
111.6514700280563
 30
0.0
 10
213.7765248662865
 20
111.2218755080098
 30
0.0
 10
213.7910125175887
 20
111.0817908567437
 30
0.0
 10
213.8470929031831
 20
110.8073848591409
 30
0.0
 10
213.8894312249175
 20
110.6719803627686
 30
0.0
 10
214.050505867768
 20
110.2920720185351
 30
0.0
 10
214.2057509385125
 20
110.0653880985759
 30
0.0
 10
214.4881721803071
 20
109.7838893618406
 30
0.0
 10
214.5922496269314
 20
109.6982196381845
 30
0.0
 10
214.8132959998242
 20
109.549224109068
 30
0.0
 10
214.9304098371061
 20
109.4853734400601
 30
0.0
 10
215.1801424930685
 20
109.3792594312712
 30
0.0
 10
215.3141781657502
 20
109.3369629316371
 30
0.0
 10
215.5874325630209
 20
109.2803932106551
 30
0.0
 10
215.7297843256321
 20
109.2653805191921
 30
0.0
 10
216.0143476419838
 20
109.26477631098
 30
0.0
 10
216.1543411370776
 20
109.2787846471654
 30
0.0
 10
216.4300846950391
 20
109.3344690102071
 30
0.0
 10
216.5631891059676
 20
109.3758276387269
 30
0.0
 10
216.814763814361
 20
109.4813764465305
 30
0.0
 10
216.9348817532318
 20
109.5463589496444
 30
0.0
 10
217.1567882538383
 20
109.6951131327249
 30
0.0
 10
217.2597130883598
 20
109.7792456597926
 30
0.0
 10
217.4505704682419
 20
109.9684919205473
 30
0.0
 10
217.5358156435855
 20
110.070962200497
 30
0.0
 10
217.6868965614887
 20
110.2924485214178
 30
0.0
 10
217.7531860989785
 20
110.4125208218092
 30
0.0
 10
217.8621096126887
 20
110.6674580655788
 30
0.0
 10
217.903929064547
 20
110.7998866439772
 30
0.0
 10
217.96121247577
 20
111.0754502340787
 30
0.0
 10
217.9761773180067
 20
111.218835872194
 30
0.0
 10
217.9768601304334
 20
111.5011534117572
 30
0.0
 10
217.9627949084118
 20
111.6434421610679
 30
0.0
 10
217.9066121199023
 20
111.9207331471034
 30
0.0
 10
217.8652766015549
 20
112.0535747240059
 30
0.0
 10
217.7038757836586
 20
112.436267980175
 30
0.0
 10
217.5487173155089
 20
112.6632357136187
 30
0.0
 10
217.2648157201414
 20
112.9463742749879
 30
0.0
 10
217.1624806436671
 20
113.0306539580643
 30
0.0
 10
216.9411003761801
 20
113.1801546446394
 30
0.0
 10
216.8210267501837
 20
113.2456121346822
 30
0.0
 10
216.4452248126397
 20
113.4048322708674
 30
0.0
 10
216.1631282670243
 20
113.4644505903172
 30
0.0
 10
215.7401268489417
 20
113.4653776616577
 30
0.0
 10
215.5961616411364
 20
113.4509821691925
 30
0.0
 10
215.3216301695775
 20
113.3952730886086
 30
0.0
 10
215.1882313709402
 20
113.3537962931997
 30
0.0
 10
214.9357064281545
 20
113.2475258664234
 30
0.0
 10
214.8178777214335
 20
113.1836090618354
 30
0.0
 10
214.5962209195036
 20
113.0349917964778
 30
0.0
 10
214.4916731021787
 20
112.9493525385104
 30
0.0
 10
214.3025417144379
 20
112.761616177478
 30
0.0
 10
214.2172099343376
 20
112.659272763117
 30
0.0
 10
214.0649594092197
 20
112.435824773525
 30
0.0
 10
213.9983519441428
 20
112.3144822566709
 30
0.0
 10
213.8366957640121
 20
111.9349314767027
 30
0.0
 10
213.7765248662864
 20
111.6514700280563
 30
0.0
 10
213.7765248662865
 20
111.2218755080098
 30
0.0
  0
LINE
  5
124
330
1F
100
AcDbEntity
  8
0
  6
HIDDEN
 62
     7
370
     0
100
AcDbLine
 10
227.3765214688
 20
98.3650734131
 30
0.0
 11
227.3765214688
 21
111.3650736814
 31
0.0
  0
SPLINE
  5
125
330
1F
100
AcDbEntity
  8
0
  6
HIDDEN
 62
     7
370
     0
100
AcDbSpline
210
0.0
220
0.0
230
1.0
 70
     8
 71
     3
 72
    12
 73
     8
 74
     0
 42
0.00000001
 43
0.00000001
 12
1.0
 22
0.0
 32
0.0
 13
1.0
 23
0.0
 33
0.0
 40
0.0
 40
0.0
 40
0.0
 40
0.0
 40
0.2499999999999999
 40
0.2499999999999999
 40
0.4999999999999996
 40
0.4999999999999996
 40
1.0
 40
1.0
 40
1.0
 40
1.0
 10
228.3283511156633
 20
116.4299977373345
 30
0.0
 10
228.1812699191263
 20
116.0248482669859
 30
0.0
 10
228.0473256820004
 20
115.6137982057777
 30
0.0
 10
227.8109603083867
 20
114.7775391814675
 30
0.0
 10
227.7092751104819
 20
114.3542242428286
 30
0.0
 10
227.4631797262667
 20
113.0831259053643
 30
0.0
 10
227.3765248662864
 20
112.228272342648
 30
0.0
 10
227.3765248662864
 20
111.3650736813586
 30
0.0
  0
SPLINE
  5
126
330
1F
100
AcDbEntity
  8
0
  6
HIDDEN
 62
     7
370
     0
100
AcDbSpline
210
0.0
220
0.0
230
1.0
 70
     8
 71
     3
 72
    20
 73
    16
 74
     0
 42
0.00000001
 43
0.00000001
 12
1.0
 22
0.0
 32
0.0
 13
1.0
 23
0.0
 33
0.0
 40
0.0
 40
0.0
 40
0.0
 40
0.0
 40
0.1250000000000003
 40
0.1250000000000003
 40
0.1875000000000003
 40
0.1875000000000003
 40
0.2500000000000003
 40
0.2500000000000003
 40
0.3750000000000004
 40
0.3750000000000004
 40
0.5000000000000004
 40
0.5000000000000004
 40
0.7500000000000003
 40
0.7500000000000003
 40
1.0
 40
1.0
 40
1.0
 40
1.0
 10
229.1191212207083
 20
126.1069781218704
 30
0.0
 10
229.0675636101895
 20
126.0486157625109
 30
0.0
 10
229.0167106728429
 20
125.9410310166504
 30
0.0
 10
228.941812088381
 20
125.7043665206619
 30
0.0
 10
228.9170786961177
 20
125.612753092039
 30
0.0
 10
228.8688600543965
 20
125.407092387217
 30
0.0
 10
228.8452797864082
 20
125.2927777904163
 30
0.0
 10
228.7761775540145
 20
124.916036442057
 30
0.0
 10
228.7322864294835
 20
124.6199764554527
 30
0.0
 10
228.6493132544981
 20
123.9374872153094
 30
0.0
 10
228.6099968939261
 20
123.5475874483875
 30
0.0
 10
228.5032297482184
 20
122.2717345194461
 30
0.0
 10
228.4458585148709
 20
121.2768646543833
 30
0.0
 10
228.3616919737815
 20
118.9992552975955
 30
0.0
 10
228.3365830216719
 20
117.7634033173261
 30
0.0
 10
228.3283511156634
 20
116.4299977373345
 30
0.0
  0
ELLIPSE
  5
127
330
1F
100
AcDbEntity
  8
0
  6
HIDDEN
 62
     7
370
     0
100
AcDbEllipse
 10
249.2716999956
 20
111.3650736814
 30
0.0
 11
9.2683623598233
 21
12.98522500655783
 31
0.0
210
0.0
220
0.0
230
1.0
 40
0.0668534593
 41
1.618477629394294
 42
3.189273956189445
  0
LINE
  5
128
330
1F
100
AcDbEntity
  8
0
  6
HIDDEN
 62
     7
370
     0
100
AcDbLine
 10
239.2570906288
 20
117.5756760356
 30
0.0
 11
239.2164179093
 21
117.5544302394
 31
0.0
  0
LINE
  5
129
330
1F
100
AcDbEntity
  8
0
  6
HIDDEN
 62
     7
370
     0
100
AcDbLine
 10
242.0817621953
 20
114.7578909011
 30
0.0
 11
251.4555835134
 21
115.5759965484
 31
0.0
  0
LINE
  5
12A
330
1F
100
AcDbEntity
  8
0
  6
HIDDEN
 62
     7
370
     0
100
AcDbLine
 10
251.4555835134
 20
115.5759965484
 30
0.0
 11
251.4541753537
 21
115.5599144702
 31
0.0
  0
LINE
  5
12B
330
1F
100
AcDbEntity
  8
0
  6
HIDDEN
 62
     7
370
     0
100
AcDbLine
 10
240.0890150077
 20
127.0614502435
 30
0.0
 11
239.2570906288
 21
117.5756760356
 31
0.0
  0
ELLIPSE
  5
12C
330
1F
100
AcDbEntity
  8
0
  6
HIDDEN
 62
     7
370
     0
100
AcDbEllipse
 10
240.2108238923
 20
115.0768866974
 30
0.0
 11
2.099281448397733
 21
0.127654356355535
 31
0.0
210
0.0
220
0.0
230
1.0
 40
0.4303093993
 41
5.785598212635373
 42
5.923521446741117
  0
ELLIPSE
  5
12D
330
1F
100
AcDbEntity
  8
0
  6
HIDDEN
 62
     7
370
     0
100
AcDbEllipse
 10
240.2108238923
 20
115.0768866974
 30
0.0
 11
-1.616902374425194
 21
2.318196838028342
 31
0.0
210
0.0
220
0.0
230
1.0
 40
0.57803977
 41
5.737920332829635
 42
5.875843566935377
  0
LINE
  5
12E
330
1F
100
AcDbEntity
  8
0
  6
HIDDEN
 62
     7
370
     0
100
AcDbLine
 10
239.5233743793
 20
117.5436646161
 30
0.0
 11
239.5233743793
 21
117.3776437943
 31
0.0
  0
ARC
  5
12F
330
1F
100
AcDbEntity
  8
0
  6
HIDDEN
 62
     7
370
     0
100
AcDbCircle
 10
240.2124005072
 20
115.396604119
 30
0.0
 40
2.09744492182319
100
AcDbArc
 50
340.9615823964
 51
109.1782043189
  0
LINE
  5
130
330
1F
100
AcDbEntity
  8
0
  6
HIDDEN
 62
     7
370
     0
100
AcDbLine
 10
242.1951153285
 20
114.7124132556
 30
0.0
 11
242.1951153285
 21
114.8784336117
 31
0.0
  0
ARC
  5
131
330
1F
100
AcDbEntity
  8
0
  6
HIDDEN
 62
     7
370
     0
100
AcDbCircle
 10
240.2124420971
 20
115.3755424341
 30
0.0
 40
2.095959804770089
100
AcDbArc
 50
269.9557822442
 51
119.3358554867
  0
ARC
  5
132
330
1F
100
AcDbEntity
  8
0
  6
HIDDEN
 62
     7
370
     0
100
AcDbCircle
 10
240.2081456211
 20
115.3767032566
 30
0.0
 40
2.097121714187139
100
AcDbArc
 50
175.4824162247
 51
270.0731914376
  0
LINE
  5
133
330
1F
100
AcDbEntity
  8
0
  6
HIDDEN
 62
     7
370
     0
100
AcDbLine
 10
249.6981182105
 20
113.8127528546
 30
0.0
 11
251.3326042301
 21
114.1738068261
 31
0.0
  0
LINE
  5
134
330
1F
100
AcDbEntity
  8
0
  6
HIDDEN
 62
     7
370
     0
100
AcDbLine
 10
242.1951153285
 20
114.8784336117
 30
0.0
 11
251.2198396928
 21
115.6660712739
 31
0.0
  0
LINE
  5
135
330
1F
100
AcDbEntity
  8
0
  6
HIDDEN
 62
     7
370
     0
100
AcDbLine
 10
251.4555835134
 20
115.5759965484
 30
0.0
 11
251.2198396928
 21
115.6660712739
 31
0.0
  0
LINE
  5
136
330
1F
100
AcDbEntity
  8
0
  6
HIDDEN
 62
     7
370
     0
100
AcDbLine
 10
240.3324329264
 20
126.7686964427
 30
0.0
 11
239.5233743793
 21
117.5436646161
 31
0.0
  0
ELLIPSE
  5
137
330
1F
100
AcDbEntity
  8
0
  6
HIDDEN
 62
     7
370
     0
100
AcDbEllipse
 10
238.7428302291
 20
111.9354113344
 30
0.0
 11
1.234662209537078
 21
15.16181196135362
 31
0.0
210
0.0
220
0.0
230
1.0
 40
0.1268365588
 41
6.084710657789438
 42
6.224035122704785
  0
ELLIPSE
  5
138
330
1F
100
AcDbEntity
  8
0
  6
HIDDEN
 62
     7
370
     0
100
AcDbEllipse
 10
251.2590234398
 20
113.0304363509
 30
0.0
 11
1.493340349571781
 21
15.18449154118255
 31
0.0
210
0.0
220
0.0
230
1.0
 40
0.1143262497
 41
0.4096402931574745
 42
1.225015244222551
  0
LINE
  5
139
330
1F
100
AcDbEntity
  8
0
  6
HIDDEN
 62
     7
370
     0
100
AcDbLine
 10
251.2198396928
 20
115.6660712739
 30
0.0
 11
250.924230457
 21
115.4742518854
 31
0.0
  0
LINE
  5
13A
330
1F
100
AcDbEntity
  8
0
  6
HIDDEN
 62
     7
370
     0
100
AcDbLine
 10
240.2826704986
 20
126.0352240359
 30
0.0
 11
239.5233743793
 21
117.3776437943
 31
0.0
  0
ELLIPSE
  5
13B
330
1F
100
AcDbEntity
  8
0
  6
HIDDEN
 62
     7
370
     0
100
AcDbEllipse
 10
239.0199854527
 20
111.9596592745
 30
0.0
 11
1.324341834637039
 21
15.17315408843625
 31
0.0
210
0.0
220
0.0
230
1.0
 40
0.0059876405
 41
5.90101465802694
 42
6.064189421435891
  0
CIRCLE
  5
13C
330
1F
100
AcDbEntity
  8
0
  6
HIDDEN
 62
     7
370
     0
100
AcDbCircle
 10
245.9301360661
 20
121.1096441385
 30
0.0
 40
2.997759301803776
  0
LINE
  5
13D
330
1F
100
AcDbEntity
  8
0
  6
HIDDEN
 62
     7
370
     0
100
AcDbLine
 10
242.1951153285
 20
114.7124132556
 30
0.0
 11
250.924230457
 21
115.4742518854
 31
0.0
  0
ELLIPSE
  5
13E
330
1F
100
AcDbEntity
  8
0
  6
HIDDEN
 62
     7
370
     0
100
AcDbEllipse
 10
-516.8796183292
 20
45.8270131799
 30
0.0
 11
2457.893071165375
 21
213.9913749490359
 31
0.0
210
0.0
220
0.0
230
1.0
 40
0.0060650906
 41
1.252133901559149
 42
1.257122092150884
  0
LINE
  5
13F
330
1F
100
AcDbEntity
  8
0
  6
HIDDEN
 62
     7
370
     0
100
AcDbLine
 10
251.9374051101
 20
127.0266243671
 30
0.0
 11
250.924230457
 21
115.4742518854
 31
0.0
  0
CIRCLE
  5
140
330
1F
100
AcDbEntity
  8
0
  6
HIDDEN
 62
     7
370
     0
100
AcDbCircle
 10
245.9302465286
 20
121.0460229006
 30
0.0
 40
2.099076114676105
  0
SPLINE
  5
141
330
1F
100
AcDbEntity
  8
0
  6
HIDDEN
 62
     7
370
     0
100
AcDbSpline
210
0.0
220
0.0
230
1.0
 70
     8
 71
     3
 72
    18
 73
    14
 74
     0
 42
0.00000001
 43
0.00000001
 12
1.0
 22
0.0
 32
0.0
 13
1.0
 23
0.0
 33
0.0
 40
0.0
 40
0.0
 40
0.0
 40
0.0
 40
0.2500000000000002
 40
0.2500000000000002
 40
0.3750000000000001
 40
0.3750000000000001
 40
0.5
 40
0.5
 40
0.6249999999999999
 40
0.6249999999999999
 40
0.7499999999999998
 40
0.7499999999999998
 40
1.0
 40
1.0
 40
1.0
 40
1.0
 10
161.5552045227268
 20
98.27002695782622
 30
0.0
 10
161.4199189164245
 20
97.68582536409455
 30
0.0
 10
161.3187511701815
 20
97.15160767688636
 30
0.0
 10
161.2158898273126
 20
96.42571090599797
 30
0.0
 10
161.1897869817893
 20
96.19583041821802
 30
0.0
 10
161.1548969982445
 20
95.76525947343123
 30
0.0
 10
161.1463107399545
 20
95.56756456793707
 30
0.0
 10
161.1462110303888
 20
95.20621652525925
 30
0.0
 10
161.1546994015374
 20
95.04256651531313
 30
0.0
 10
161.188842781058
 20
94.74935524234415
 30
0.0
 10
161.2146397629118
 20
94.61935917622834
 30
0.0
 10
161.3180408942997
 20
94.28530328366641
 30
0.0
 10
161.4198988864711
 20
94.13952711930162
 30
0.0
 10
161.5552045227268
 20
94.06816381335378
 30
0.0
  0
LINE
  5
142
330
1F
100
AcDbEntity
  8
0
  6
HIDDEN
 62
     7
370
     0
100
AcDbLine
 10
134.3765248514
 20
128.2244244074
 30
0.0
 11
134.3765248514
 21
123.4146462237
 31
0.0
  0
LINE
  5
143
330
1F
100
AcDbEntity
  8
0
  6
HIDDEN
 62
     7
370
     0
100
AcDbLine
 10
132.8765255368
 20
127.3583987211
 30
0.0
 11
132.8765255368
 21
122.9816333805
 31
0.0
  0
LINE
  5
144
330
1F
100
AcDbEntity
  8
0
  6
HIDDEN
 62
     7
370
     0
100
AcDbLine
 10
160.6765248782
 20
98.9851274942
 30
0.0
 11
160.6765248782
 21
93.8449756657
 31
0.0
  0
LINE
  5
145
330
1F
100
AcDbEntity
  8
0
  6
HIDDEN
 62
     7
370
     0
100
AcDbLine
 10
160.6765248782
 20
128.885171697
 30
0.0
 11
160.6765248782
 21
123.7450198685
 31
0.0
  0
SPLINE
  5
146
330
1F
100
AcDbEntity
  8
0
  6
HIDDEN
 62
     7
370
     0
100
AcDbSpline
210
0.0
220
0.0
230
1.0
 70
     8
 71
     3
 72
    18
 73
    14
 74
     0
 42
0.00000001
 43
0.00000001
 12
1.0
 22
0.0
 32
0.0
 13
1.0
 23
0.0
 33
0.0
 40
0.0
 40
0.0
 40
0.0
 40
0.0
 40
0.2499999999999996
 40
0.2499999999999996
 40
0.3749999999999993
 40
0.3749999999999993
 40
0.4999999999999991
 40
0.4999999999999991
 40
0.6249999999999996
 40
0.6249999999999996
 40
0.75
 40
0.75
 40
1.0
 40
1.0
 40
1.0
 40
1.0
 10
161.5552045227268
 20
128.6619835493634
 30
0.0
 10
161.4199189164245
 20
128.5906308076739
 30
0.0
 10
161.3187511701815
 20
128.4452274010845
 30
0.0
 10
161.2158898273126
 20
128.1157601654788
 30
0.0
 10
161.1897869817893
 20
127.9868265886741
 30
0.0
 10
161.1548969982445
 20
127.691284589338
 30
0.0
 10
161.1463107399545
 20
127.526889815816
 30
0.0
 10
161.1462110303888
 20
127.1659282010754
 30
0.0
 10
161.1546994015374
 20
126.9693584089132
 30
0.0
 10
161.188842781058
 20
126.5440036127883
 30
0.0
 10
161.2146397629118
 20
126.3142339629887
 30
0.0
 10
161.3180408942997
 20
125.5816452685562
 30
0.0
 10
161.4198988864711
 20
125.0444084936387
 30
0.0
 10
161.5552045227268
 20
124.460120404891
 30
0.0
  0
LINE
  5
147
330
1F
100
AcDbEntity
  8
0
  6
HIDDEN
 62
     7
370
     0
100
AcDbLine
 10
134.3765248514
 20
99.315501139
 30
0.0
 11
134.3765248514
 21
94.5057229554
 31
0.0
  0
LINE
  5
148
330
1F
100
AcDbEntity
  8
0
  6
HIDDEN
 62
     7
370
     0
100
AcDbLine
 10
132.8765255368
 20
99.7485139822
 30
0.0
 11
132.8765255368
 21
95.3717486416
 31
0.0
  0
SPLINE
  5
149
330
1F
100
AcDbEntity
  8
0
  6
HIDDEN
 62
     7
370
     0
100
AcDbSpline
210
0.0
220
0.0
230
1.0
 70
     8
 71
     3
 72
    58
 73
    54
 74
     0
 42
0.00000001
 43
0.00000001
 12
1.0
 22
0.0
 32
0.0
 13
1.0
 23
0.0
 33
0.0
 40
-0.0312500000000007
 40
-0.0312500000000007
 40
0.0
 40
0.0
 40
0.0312499999999985
 40
0.0312499999999985
 40
0.0624999999999971
 40
0.0624999999999971
 40
0.0937499999999956
 40
0.0937499999999956
 40
0.1249999999999942
 40
0.1249999999999942
 40
0.1874999999999929
 40
0.1874999999999929
 40
0.2187499999999922
 40
0.2187499999999922
 40
0.2499999999999915
 40
0.2499999999999915
 40
0.2812499999999908
 40
0.2812499999999908
 40
0.3124999999999901
 40
0.3124999999999901
 40
0.3437499999999894
 40
0.3437499999999894
 40
0.3749999999999887
 40
0.3749999999999887
 40
0.4062499999999881
 40
0.4062499999999881
 40
0.4374999999999873
 40
0.4374999999999873
 40
0.4999999999999882
 40
0.4999999999999882
 40
0.53124999999999
 40
0.53124999999999
 40
0.5624999999999918
 40
0.5624999999999918
 40
0.6249999999999928
 40
0.6249999999999928
 40
0.6874999999999939
 40
0.6874999999999939
 40
0.749999999999995
 40
0.749999999999995
 40
0.8124999999999961
 40
0.8124999999999961
 40
0.8437499999999968
 40
0.8437499999999968
 40
0.8749999999999973
 40
0.8749999999999973
 40
0.906249999999998
 40
0.906249999999998
 40
0.9374999999999987
 40
0.9374999999999987
 40
0.9687499999999993
 40
0.9687499999999993
 40
1.0
 40
1.0
 40
1.031249999999998
 40
1.031249999999998
 10
245.7742659492691
 20
118.4010491448415
 30
0.0
 10
246.0880356585486
 20
118.4002208097624
 30
0.0
 10
246.2418966242431
 20
118.4177427102915
 30
0.0
 10
246.5438109857851
 20
118.4872163941726
 30
0.0
 10
246.6921814888314
 20
118.5399424445271
 30
0.0
 10
246.967385915439
 20
118.6738593498584
 30
0.0
 10
247.0977385472756
 20
118.7565524922681
 30
0.0
 10
247.3340565040259
 20
118.9450237228384
 30
0.0
 10
247.439507648665
 20
119.0498176013651
 30
0.0
 10
247.7204555477263
 20
119.3926371988279
 30
0.0
 10
247.8535630343524
 20
119.6520599238136
 30
0.0
 10
247.9743372658061
 20
120.0509746054692
 30
0.0
 10
248.001419743217
 20
120.1846467078515
 30
0.0
 10
248.0317948283865
 20
120.4527842383704
 30
0.0
 10
248.0348685863565
 20
120.587640494946
 30
0.0
 10
248.0186493694282
 20
120.8501147494374
 30
0.0
 10
247.9995396001778
 20
120.9787396183817
 30
0.0
 10
247.9403930134566
 20
121.2309316752622
 30
0.0
 10
247.90005372472
 20
121.3548268391789
 30
0.0
 10
247.8008432913593
 20
121.5909609239396
 30
0.0
 10
247.7418455256272
 20
121.7040914879528
 30
0.0
 10
247.6045214017756
 20
121.9206447713666
 30
0.0
 10
247.5255007151115
 20
122.0248232505044
 30
0.0
 10
247.3489091402704
 20
122.2186997973123
 30
0.0
 10
247.2518488423017
 20
122.3081798984199
 30
0.0
 10
247.0374375037439
 20
122.4710535237587
 30
0.0
 10
246.9186391295784
 20
122.545111782089
 30
0.0
 10
246.5367083921263
 20
122.7304785342238
 30
0.0
 10
246.24001084256
 20
122.8078890275068
 30
0.0
 10
245.7705406793841
 20
122.8097421054815
 30
0.0
 10
245.615853105309
 20
122.7916448422903
 30
0.0
 10
245.3146421759808
 20
122.7200221449409
 30
0.0
 10
245.170989200296
 20
122.6669747607064
 30
0.0
 10
244.7725994438153
 20
122.4690501583746
 30
0.0
 10
244.5533616010904
 20
122.2888269338685
 30
0.0
 10
244.2030065010057
 20
121.8810343528335
 30
0.0
 10
244.0728619046838
 20
121.6562866482957
 30
0.0
 10
243.8895971038167
 20
121.1724159922071
 30
0.0
 10
243.8396366969893
 20
120.921415018665
 30
0.0
 10
243.824587489004
 20
120.3991070521802
 30
0.0
 10
243.8602093522373
 20
120.1381217982482
 30
0.0
 10
243.9861191222267
 20
119.7532617426421
 30
0.0
 10
244.0411787364294
 20
119.6247997833766
 30
0.0
 10
244.1751572791484
 20
119.3804001000672
 30
0.0
 10
244.2541300885194
 20
119.2635230045774
 30
0.0
 10
244.4387950034386
 20
119.0423793813748
 30
0.0
 10
244.5445343208337
 20
118.9387524844489
 30
0.0
 10
244.7748160317069
 20
118.7565235016902
 30
0.0
 10
244.9003769369926
 20
118.6764854308743
 30
0.0
 10
245.1749420834374
 20
118.5421739454874
 30
0.0
 10
245.3192283917973
 20
118.4904132137884
 30
0.0
 10
245.6175993156573
 20
118.4199629988218
 30
0.0
 10
245.7742659492691
 20
118.4010491448415
 30
0.0
 10
246.0880356585486
 20
118.4002208097624
 30
0.0
  0
SPLINE
  5
14A
330
1F
100
AcDbEntity
  8
0
  6
HIDDEN
 62
     7
370
     0
100
AcDbSpline
210
0.0
220
0.0
230
1.0
 70
     8
 71
     3
 72
    58
 73
    54
 74
     0
 42
0.00000001
 43
0.00000001
 12
1.0
 22
0.0
 32
0.0
 13
1.0
 23
0.0
 33
0.0
 40
-0.0312500000000007
 40
-0.0312500000000007
 40
0.0
 40
0.0
 40
0.0312499999999985
 40
0.0312499999999985
 40
0.0624999999999971
 40
0.0624999999999971
 40
0.0937499999999956
 40
0.0937499999999956
 40
0.1249999999999942
 40
0.1249999999999942
 40
0.1874999999999929
 40
0.1874999999999929
 40
0.2187499999999922
 40
0.2187499999999922
 40
0.2499999999999915
 40
0.2499999999999915
 40
0.2812499999999908
 40
0.2812499999999908
 40
0.3124999999999901
 40
0.3124999999999901
 40
0.3437499999999894
 40
0.3437499999999894
 40
0.3749999999999887
 40
0.3749999999999887
 40
0.4062499999999881
 40
0.4062499999999881
 40
0.4374999999999873
 40
0.4374999999999873
 40
0.4999999999999882
 40
0.4999999999999882
 40
0.53124999999999
 40
0.53124999999999
 40
0.5624999999999918
 40
0.5624999999999918
 40
0.6249999999999928
 40
0.6249999999999928
 40
0.6874999999999939
 40
0.6874999999999939
 40
0.749999999999995
 40
0.749999999999995
 40
0.8124999999999961
 40
0.8124999999999961
 40
0.8437499999999968
 40
0.8437499999999968
 40
0.8749999999999973
 40
0.8749999999999973
 40
0.906249999999998
 40
0.906249999999998
 40
0.9374999999999987
 40
0.9374999999999987
 40
0.9687499999999993
 40
0.9687499999999993
 40
1.0
 40
1.0
 40
1.031249999999998
 40
1.031249999999998
 10
245.7742659492691
 20
118.4010491448415
 30
0.0
 10
246.0880356585486
 20
118.4002208097624
 30
0.0
 10
246.2418966242431
 20
118.4177427102915
 30
0.0
 10
246.5438109857851
 20
118.4872163941726
 30
0.0
 10
246.6921814888314
 20
118.5399424445271
 30
0.0
 10
246.967385915439
 20
118.6738593498584
 30
0.0
 10
247.0977385472756
 20
118.7565524922681
 30
0.0
 10
247.3340565040259
 20
118.9450237228384
 30
0.0
 10
247.439507648665
 20
119.0498176013651
 30
0.0
 10
247.7204555477263
 20
119.3926371988279
 30
0.0
 10
247.8535630343524
 20
119.6520599238136
 30
0.0
 10
247.9743372658061
 20
120.0509746054692
 30
0.0
 10
248.001419743217
 20
120.1846467078515
 30
0.0
 10
248.0317948283865
 20
120.4527842383704
 30
0.0
 10
248.0348685863565
 20
120.587640494946
 30
0.0
 10
248.0186493694282
 20
120.8501147494374
 30
0.0
 10
247.9995396001778
 20
120.9787396183817
 30
0.0
 10
247.9403930134566
 20
121.2309316752622
 30
0.0
 10
247.90005372472
 20
121.3548268391789
 30
0.0
 10
247.8008432913593
 20
121.5909609239396
 30
0.0
 10
247.7418455256272
 20
121.7040914879528
 30
0.0
 10
247.6045214017756
 20
121.9206447713666
 30
0.0
 10
247.5255007151115
 20
122.0248232505044
 30
0.0
 10
247.3489091402704
 20
122.2186997973123
 30
0.0
 10
247.2518488423017
 20
122.3081798984199
 30
0.0
 10
247.0374375037439
 20
122.4710535237587
 30
0.0
 10
246.9186391295784
 20
122.545111782089
 30
0.0
 10
246.5367083921263
 20
122.7304785342238
 30
0.0
 10
246.24001084256
 20
122.8078890275068
 30
0.0
 10
245.7705406793841
 20
122.8097421054815
 30
0.0
 10
245.615853105309
 20
122.7916448422903
 30
0.0
 10
245.3146421759808
 20
122.7200221449409
 30
0.0
 10
245.170989200296
 20
122.6669747607064
 30
0.0
 10
244.7725994438153
 20
122.4690501583746
 30
0.0
 10
244.5533616010904
 20
122.2888269338685
 30
0.0
 10
244.2030065010057
 20
121.8810343528335
 30
0.0
 10
244.0728619046838
 20
121.6562866482957
 30
0.0
 10
243.8895971038167
 20
121.1724159922071
 30
0.0
 10
243.8396366969893
 20
120.921415018665
 30
0.0
 10
243.824587489004
 20
120.3991070521802
 30
0.0
 10
243.8602093522373
 20
120.1381217982482
 30
0.0
 10
243.9861191222267
 20
119.7532617426421
 30
0.0
 10
244.0411787364294
 20
119.6247997833766
 30
0.0
 10
244.1751572791484
 20
119.3804001000672
 30
0.0
 10
244.2541300885194
 20
119.2635230045774
 30
0.0
 10
244.4387950034386
 20
119.0423793813748
 30
0.0
 10
244.5445343208337
 20
118.9387524844489
 30
0.0
 10
244.7748160317069
 20
118.7565235016902
 30
0.0
 10
244.9003769369926
 20
118.6764854308743
 30
0.0
 10
245.1749420834374
 20
118.5421739454874
 30
0.0
 10
245.3192283917973
 20
118.4904132137884
 30
0.0
 10
245.6175993156573
 20
118.4199629988218
 30
0.0
 10
245.7742659492691
 20
118.4010491448415
 30
0.0
 10
246.0880356585486
 20
118.4002208097624
 30
0.0
  0
CIRCLE
  5
14B
330
1F
100
AcDbEntity
  8
0
  6
HIDDEN
 62
     7
370
     0
100
AcDbCircle
 10
215.8765248663
 20
111.3650736814
 30
0.0
 40
2.100000000000023
  0
CIRCLE
  5
14C
330
1F
100
AcDbEntity
  8
0
  6
HIDDEN
 62
     7
370
     0
100
AcDbCircle
 10
215.8765248663
 20
111.3650736814
 30
0.0
 40
2.5
  0
LINE
  5
14D
330
1F
100
AcDbEntity
  8
0
  6
HIDDEN
 62
     7
370
     0
100
AcDbLine
 10
132.8765255368
 20
122.9816333805
 30
0.0
 11
132.8765255368
 21
113.7042446942
 31
0.0
  0
LINE
  5
14E
330
1F
100
AcDbEntity
  8
0
  6
HIDDEN
 62
     7
370
     0
100
AcDbLine
 10
132.8765255368
 20
109.0259026685
 30
0.0
 11
132.8765255368
 21
99.7485139822
 31
0.0
  0
LINE
  5
14F
330
1F
100
AcDbEntity
  8
0
  6
HIDDEN
 62
     7
370
     0
100
AcDbLine
 10
134.3765248514
 20
108.2165966225
 30
0.0
 11
134.3765248514
 21
99.315501139
 31
0.0
  0
LINE
  5
150
330
1F
100
AcDbEntity
  8
0
  6
HIDDEN
 62
     7
370
     0
100
AcDbLine
 10
134.3765248514
 20
123.4146462237
 30
0.0
 11
134.3765248514
 21
114.5135507402
 31
0.0
  0
LINE
  5
151
330
1F
100
AcDbEntity
  8
0
  6
HIDDEN
 62
     7
370
     0
100
AcDbLine
 10
160.6765248782
 20
123.7450198685
 30
0.0
 11
160.6765248782
 21
98.9851274942
 31
0.0
  0
LINE
  5
152
330
1F
100
AcDbEntity
  8
0
  6
HIDDEN
 62
     7
370
     0
100
AcDbLine
 10
250.1319282658
 20
118.3375635599
 30
0.0
 11
228.3283480412
 21
116.4299979289
 31
0.0
  0
LINE
  5
153
330
1F
100
AcDbEntity
  8
0
  6
HIDDEN
 62
     7
370
     0
100
AcDbLine
 10
249.6981182105
 20
113.8127528546
 30
0.0
 11
250.1319282658
 21
118.3375635599
 31
0.0
  0
LINE
  5
154
330
1F
100
AcDbEntity
  8
0
  6
HIDDEN
 62
     7
370
     0
100
AcDbLine
 10
247.9628183848
 20
111.3650736814
 30
0.0
 11
249.6981182105
 21
113.8127528546
 31
0.0
  0
LINE
  5
155
330
1F
100
AcDbEntity
  8
0
  6
HIDDEN
 62
     7
370
     0
100
AcDbLine
 10
162.6765248713
 20
122.927347519
 30
0.0
 11
162.6765248713
 21
99.8027998437
 31
0.0
  0
SPLINE
  5
156
330
1F
100
AcDbEntity
  8
0
  6
HIDDEN
 62
     7
370
     0
100
AcDbSpline
210
0.0
220
0.0
230
1.0
 70
     8
 71
     3
 72
     8
 73
     4
 74
     0
 42
0.00000001
 43
0.00000001
 12
1.0
 22
0.0
 32
0.0
 13
1.0
 23
0.0
 33
0.0
 40
0.0000202085968836
 40
0.0000202085968836
 40
0.0000202085968836
 40
0.0000202085968836
 40
0.0040218806502652
 40
0.0040218806502652
 40
0.0040218806502652
 40
0.0040218806502652
 10
134.3765248662864
 20
108.2165965630219
 30
0.0
 10
135.7098479920771
 20
108.1925983318583
 30
0.0
 10
137.0431818652997
 20
108.16927059169
 30
0.0
 10
138.3765248662864
 20
108.1465759209096
 30
0.0
  0
SPLINE
  5
157
330
1F
100
AcDbEntity
  8
0
  6
HIDDEN
 62
     7
370
     0
100
AcDbSpline
210
0.0
220
0.0
230
1.0
 70
     8
 71
     3
 72
     8
 73
     4
 74
     0
 42
0.00000001
 43
0.00000001
 12
1.0
 22
0.0
 32
0.0
 13
1.0
 23
0.0
 33
0.0
 40
0.0000202082942178
 40
0.0000202082942178
 40
0.0000202082942178
 40
0.0000202082942178
 40
0.0040218803475994
 40
0.0040218803475994
 40
0.0040218803475994
 40
0.0040218803475994
 10
138.3765248662864
 20
114.5835714418077
 30
0.0
 10
137.0431818652997
 20
114.5608767710273
 30
0.0
 10
135.7098479920771
 20
114.537549030859
 30
0.0
 10
134.3765248662864
 20
114.5135507996953
 30
0.0
  0
SPLINE
  5
158
330
1F
100
AcDbEntity
  8
0
  6
HIDDEN
 62
     7
370
     0
100
AcDbSpline
210
0.0
220
0.0
230
1.0
 70
     8
 71
     3
 72
     8
 73
     4
 74
     0
 42
0.00000001
 43
0.00000001
 12
1.0
 22
0.0
 32
0.0
 13
1.0
 23
0.0
 33
0.0
 40
0.0
 40
0.0
 40
0.0
 40
0.0
 40
1.0
 40
1.0
 40
1.0
 40
1.0
 10
132.8765248662855
 20
109.0259027531242
 30
0.0
 10
133.3507362767235
 20
108.6911735258291
 30
0.0
 10
133.8554726238254
 20
108.4321151119962
 30
0.0
 10
134.3765248662864
 20
108.2165965630219
 30
0.0
  0
SPLINE
  5
159
330
1F
100
AcDbEntity
  8
0
  6
HIDDEN
 62
     7
370
     0
100
AcDbSpline
210
0.0
220
0.0
230
1.0
 70
     8
 71
     3
 72
     8
 73
     4
 74
     0
 42
0.00000001
 43
0.00000001
 12
1.0
 22
0.0
 32
0.0
 13
1.0
 23
0.0
 33
0.0
 40
0.0
 40
0.0
 40
0.0
 40
0.0
 40
1.0
 40
1.0
 40
1.0
 40
1.0
 10
134.3765248662864
 20
114.5135507996953
 30
0.0
 10
133.8554726238257
 20
114.2980322507212
 30
0.0
 10
133.3507362767241
 20
114.0389738368884
 30
0.0
 10
132.8765248662864
 20
113.7042446095936
 30
0.0
  0
LINE
  5
15A
330
1F
100
AcDbEntity
  8
0
  6
HIDDEN
 62
     7
370
     0
100
AcDbLine
 10
132.8765255368
 20
109.0259026685
 30
0.0
 11
132.8765255368
 21
113.7042446942
 31
0.0
  0
LINE
  5
15B
330
1F
100
AcDbEntity
  8
0
  6
HIDDEN
 62
     7
370
     0
100
AcDbLine
 10
138.376525507
 20
108.1465758332
 30
0.0
 11
138.376525507
 21
114.5835715295
 31
0.0
  0
SPLINE
  5
15C
330
1F
100
AcDbEntity
  8
0
  6
HIDDEN
 62
     7
370
     0
100
AcDbSpline
210
0.0
220
0.0
230
1.0
 70
     8
 71
     3
 72
    26
 73
    22
 74
     0
 42
0.00000001
 43
0.00000001
 12
1.0
 22
0.0
 32
0.0
 13
1.0
 23
0.0
 33
0.0
 40
0.0
 40
0.0
 40
0.0
 40
0.0
 40
0.1250000000000003
 40
0.1250000000000003
 40
0.2500000000000006
 40
0.2500000000000006
 40
0.3750000000000007
 40
0.3750000000000007
 40
0.4375000000000004
 40
0.4375000000000004
 40
0.5000000000000002
 40
0.5000000000000002
 40
0.5625
 40
0.5625
 40
0.6249999999999998
 40
0.6249999999999998
 40
0.7499999999999999
 40
0.7499999999999999
 40
0.8749999999999999
 40
0.8749999999999999
 40
1.0
 40
1.0
 40
1.0
 40
1.0
 10
138.3765248662864
 20
108.1465759209096
 30
0.0
 10
138.5871682282864
 20
108.3811929518546
 30
0.0
 10
138.7943646660434
 20
108.6190760878141
 30
0.0
 10
139.1958638006757
 20
109.1063903940829
 30
0.0
 10
139.3911402197218
 20
109.356515618872
 30
0.0
 10
139.7509207124172
 20
109.8751057643229
 30
0.0
 10
139.9161795725666
 20
110.1425367482097
 30
0.0
 10
140.1088374819927
 20
110.5739518806082
 30
0.0
 10
140.1638022222027
 20
110.7239707625326
 30
0.0
 10
140.2415380071669
 20
111.0367079412626
 30
0.0
 10
140.2628041454752
 20
111.1944621880699
 30
0.0
 10
140.264698074761
 20
111.5131674679157
 30
0.0
 10
140.2444723376939
 20
111.6756042680962
 30
0.0
 10
140.1700079274081
 20
111.9865562676789
 30
0.0
 10
140.1163688016621
 20
112.1372275060065
 30
0.0
 10
139.9216244962615
 20
112.5793112639751
 30
0.0
 10
139.7545743830832
 20
112.8493552771429
 30
0.0
 10
139.3943182643796
 20
113.3694629054243
 30
0.0
 10
139.1995658893592
 20
113.6191241182339
 30
0.0
 10
138.7965566648869
 20
114.1085482300767
 30
0.0
 10
138.5881201465234
 20
114.3478941532406
 30
0.0
 10
138.3765248662874
 20
114.5835714418085
 30
0.0
  0
SPLINE
  5
15D
330
1F
100
AcDbEntity
  8
0
  6
HIDDEN
 62
     7
370
     0
100
AcDbSpline
210
0.0
220
0.0
230
1.0
 70
     8
 71
     3
 72
    68
 73
    64
 74
     0
 42
0.00000001
 43
0.00000001
 12
1.0
 22
0.0
 32
0.0
 13
1.0
 23
0.0
 33
0.0
 40
-0.0312499999999999
 40
-0.0312499999999999
 40
0.0
 40
0.0
 40
0.0312500000000001
 40
0.0312500000000001
 40
0.0625000000000001
 40
0.0625000000000001
 40
0.0937500000000002
 40
0.0937500000000002
 40
0.1250000000000003
 40
0.1250000000000003
 40
0.1875000000000001
 40
0.1875000000000001
 40
0.2187500000000002
 40
0.2187500000000002
 40
0.2500000000000003
 40
0.2500000000000003
 40
0.2812500000000003
 40
0.2812500000000003
 40
0.3125000000000004
 40
0.3125000000000004
 40
0.3437500000000005
 40
0.3437500000000005
 40
0.3750000000000006
 40
0.3750000000000006
 40
0.4062500000000006
 40
0.4062500000000006
 40
0.4375000000000007
 40
0.4375000000000007
 40
0.4687500000000008
 40
0.4687500000000008
 40
0.5000000000000008
 40
0.5000000000000008
 40
0.531250000000001
 40
0.531250000000001
 40
0.562500000000001
 40
0.562500000000001
 40
0.5937500000000011
 40
0.5937500000000011
 40
0.6250000000000011
 40
0.6250000000000011
 40
0.6562500000000012
 40
0.6562500000000012
 40
0.6875000000000013
 40
0.6875000000000013
 40
0.7187500000000013
 40
0.7187500000000013
 40
0.7500000000000012
 40
0.7500000000000012
 40
0.7812500000000011
 40
0.7812500000000011
 40
0.8125000000000009
 40
0.8125000000000009
 40
0.8437500000000008
 40
0.8437500000000008
 40
0.8750000000000006
 40
0.8750000000000006
 40
0.9062500000000004
 40
0.9062500000000004
 40
0.9375000000000003
 40
0.9375000000000003
 40
0.9687500000000001
 40
0.9687500000000001
 40
1.0
 40
1.0
 40
1.03125
 40
1.03125
 10
146.2603511536229
 20
113.2618912579752
 30
0.0
 10
146.5508156359147
 20
113.5803234989758
 30
0.0
 10
146.7097319342962
 20
113.7228410246794
 30
0.0
 10
147.0533126199341
 20
113.9765555617691
 30
0.0
 10
147.2394839728397
 20
114.0881193882781
 30
0.0
 10
147.6240140454255
 20
114.2723684249472
 30
0.0
 10
147.8236245475902
 20
114.3462826910359
 30
0.0
 10
148.2374641325637
 20
114.4579245805961
 30
0.0
 10
148.450273942235
 20
114.4948486348849
 30
0.0
 10
149.0862054165757
 20
114.5474504554604
 30
0.0
 10
149.5212716372034
 20
114.5052420648002
 30
0.0
 10
150.1335145041911
 20
114.3314074596048
 30
0.0
 10
150.3333595923031
 20
114.2547892317928
 30
0.0
 10
150.7177369010312
 20
114.0646143634498
 30
0.0
 10
150.8982852918938
 20
113.9532549292313
 30
0.0
 10
151.2363452196033
 20
113.6981496605089
 30
0.0
 10
151.3953770360146
 20
113.5526438723162
 30
0.0
 10
151.680173716237
 20
113.2344052181434
 30
0.0
 10
151.8051192451119
 20
113.0633528996242
 30
0.0
 10
152.0194213855256
 20
112.6967923135111
 30
0.0
 10
152.1093201647004
 20
112.4987235797085
 30
0.0
 10
152.2429724538293
 20
112.0941408264991
 30
0.0
 10
152.2879803891433
 20
111.886525646482
 30
0.0
 10
152.3327598697607
 20
111.4602358900531
 30
0.0
 10
152.3316862087449
 20
111.2435975921048
 30
0.0
 10
152.2836664150294
 20
110.8206375651474
 30
0.0
 10
152.2362534378046
 20
110.6096408798881
 30
0.0
 10
152.0979381889879
 20
110.2038521644563
 30
0.0
 10
152.0082573307658
 20
110.0109055057937
 30
0.0
 10
151.7895746204385
 20
109.6439988828103
 30
0.0
 10
151.6601269026099
 20
109.4704937345882
 30
0.0
 10
151.3736212985804
 20
109.1564916365976
 30
0.0
 10
151.2147624803424
 20
109.0133887101432
 30
0.0
 10
150.8697646583895
 20
108.7580577942902
 30
0.0
 10
150.6875475542692
 20
108.6485256166897
 30
0.0
 10
150.3047074776302
 20
108.4635987899015
 30
0.0
 10
150.101963252557
 20
108.38778296306
 30
0.0
 10
149.6901346780937
 20
108.275202470818
 30
0.0
 10
149.4809159014941
 20
108.2378622512332
 30
0.0
 10
149.0559230672597
 20
108.2006312317031
 30
0.0
 10
148.8387657901865
 20
108.2011971956348
 30
0.0
 10
148.4143879510333
 20
108.2405948995242
 30
0.0
 10
148.2052713031837
 20
108.2790241341584
 30
0.0
 10
147.7933303142896
 20
108.3942291686958
 30
0.0
 10
147.5907622093965
 20
108.4714940992002
 30
0.0
 10
147.2091617669292
 20
108.6591763693321
 30
0.0
 10
147.02785083105
 20
108.7700897211441
 30
0.0
 10
146.685258934116
 20
109.028043159875
 30
0.0
 10
146.5264353171618
 20
109.1737588554844
 30
0.0
 10
146.2433905380615
 20
109.4900800131938
 30
0.0
 10
146.1173806060756
 20
109.662113724593
 30
0.0
 10
145.9002735622607
 20
110.034656302582
 30
0.0
 10
145.8128382659868
 20
110.228778087856
 30
0.0
 10
145.6796449854393
 20
110.6325528169356
 30
0.0
 10
145.6337444033347
 20
110.8450497435431
 30
0.0
 10
145.5894278624009
 20
111.2706456044013
 30
0.0
 10
145.5902700498833
 20
111.4834794426705
 30
0.0
 10
145.6381087443043
 20
111.9092191725004
 30
0.0
 10
145.6856445997734
 20
112.1209813379135
 30
0.0
 10
145.8223831950014
 20
112.5244708723708
 30
0.0
 10
145.912666740277
 20
112.7202294933239
 30
0.0
 10
146.132377632542
 20
113.089829720072
 30
0.0
 10
146.2603511536229
 20
113.2618912579752
 30
0.0
 10
146.5508156359147
 20
113.5803234989758
 30
0.0
  0
CIRCLE
  5
15E
330
1F
100
AcDbEntity
  8
0
  6
HIDDEN
 62
     7
370
     0
100
AcDbCircle
 10
148.8765248663
 20
111.3650736814
 30
0.0
 40
3.049999999999997
  0
CIRCLE
  5
15F
330
1F
100
AcDbEntity
  8
0
  6
HIDDEN
 62
     7
370
     0
100
AcDbCircle
 10
174.8765248663
 20
111.3650736814
 30
0.0
 40
2.000000000000014
  0
LINE
  5
160
330
1F
100
AcDbEntity
  8
0
  6
HIDDEN
 62
     7
370
     0
100
AcDbLine
 10
162.8765248663
 20
91.8150742953
 30
0.0
 11
162.9694180867
 21
91.9079662715
 31
0.0
  0
LINE
  5
161
330
1F
100
AcDbEntity
  8
0
  6
HIDDEN
 62
     7
370
     0
100
AcDbLine
 10
162.9694180867
 20
130.8221810912
 30
0.0
 11
162.8765248663
 21
130.9150730674
 31
0.0
  0
ARC
  5
162
330
1F
100
AcDbEntity
  8
0
  6
HIDDEN
 62
     7
370
     0
100
AcDbCircle
 10
162.2623113039
 20
92.6150736814
 30
0.0
 40
1.0
100
AcDbArc
 50
315.0
 51
0.0
  0
ARC
  5
163
330
1F
100
AcDbEntity
  8
0
  6
HIDDEN
 62
     7
370
     0
100
AcDbCircle
 10
162.2623113039
 20
92.6150736814
 30
0.0
 40
1.00000000000001
100
AcDbArc
 50
0.0
 51
52.1052014664
  0
ARC
  5
164
330
1F
100
AcDbEntity
  8
0
  6
HIDDEN
 62
     7
370
     0
100
AcDbCircle
 10
162.2623113039
 20
130.1150736814
 30
0.0
 40
1.000000000000008
100
AcDbArc
 50
351.8087250651
 51
45.0
  0
ARC
  5
165
330
1F
100
AcDbEntity
  8
0
  6
HIDDEN
 62
     7
370
     0
100
AcDbCircle
 10
162.2623113039
 20
130.1150736814
 30
0.0
 40
1.000000000000002
100
AcDbArc
 50
307.8947985336
 51
351.8087250651
  0
LINE
  5
166
330
1F
100
AcDbEntity
  8
0
  6
HIDDEN
 62
     7
370
     0
100
AcDbLine
 10
163.2623113021
 20
92.6150729363
 30
0.0
 11
163.2623113021
 21
130.1150744264
 31
0.0
  0
LINE
  5
167
330
1F
100
AcDbEntity
  8
0
  6
HIDDEN
 62
     7
370
     0
100
AcDbLine
 10
163.2623113021
 20
92.6150729363
 30
0.0
 11
163.2623113021
 21
130.1150744264
 31
0.0
  0
ARC
  5
168
330
1F
100
AcDbEntity
  8
0
  6
HIDDEN
 62
     7
370
     0
100
AcDbCircle
 10
139.3765248663
 20
100.8650736814
 30
0.0
 40
1.50000000000002
100
AcDbArc
 50
191.0958032831
 51
270.0
  0
ARC
  5
169
330
1F
100
AcDbEntity
  8
0
  6
HIDDEN
 62
     7
370
     0
100
AcDbCircle
 10
139.3765248663
 20
121.8650736814
 30
0.0
 40
1.50000000000002
100
AcDbArc
 50
90.0
 51
168.9041967169
  0
LINE
  5
16A
330
1F
100
AcDbEntity
  8
0
  6
HIDDEN
 62
     7
370
     0
100
AcDbLine
 10
139.3765256709
 20
99.3650735771
 30
0.0
 11
140.3832443959
 21
99.3650735771
 31
0.0
  0
LINE
  5
16B
330
1F
100
AcDbEntity
  8
0
  6
HIDDEN
 62
     7
370
     0
100
AcDbLine
 10
140.3832443959
 20
123.3650737857
 30
0.0
 11
139.3765256709
 21
123.3650737857
 31
0.0
  0
ARC
  5
16C
330
1F
100
AcDbEntity
  8
0
  6
HIDDEN
 62
     7
370
     0
100
AcDbCircle
 10
140.3832443783
 20
100.8650736814
 30
0.0
 40
1.500000000000014
100
AcDbArc
 50
270.0
 51
315.0
  0
ARC
  5
16D
330
1F
100
AcDbEntity
  8
0
  6
HIDDEN
 62
     7
370
     0
100
AcDbCircle
 10
140.3832443783
 20
121.8650736814
 30
0.0
 40
1.500000000000014
100
AcDbArc
 50
45.0
 51
90.0
  0
LINE
  5
16E
330
1F
100
AcDbEntity
  8
0
  6
HIDDEN
 62
     7
370
     0
100
AcDbLine
 10
132.8765255368
 20
99.601661176
 30
0.0
 11
133.9045640982
 21
100.1952005034
 31
0.0
  0
LINE
  5
16F
330
1F
100
AcDbEntity
  8
0
  6
HIDDEN
 62
     7
370
     0
100
AcDbLine
 10
133.9045640982
 20
122.5349468594
 30
0.0
 11
132.8765255368
 21
123.1284861867
 31
0.0
  0
LINE
  5
170
330
1F
100
AcDbEntity
  8
0
  6
HIDDEN
 62
     7
370
     0
100
AcDbLine
 10
141.4439053244
 20
99.8044138258
 30
0.0
 11
142.5045643902
 21
100.8650738229
 31
0.0
  0
LINE
  5
171
330
1F
100
AcDbEntity
  8
0
  6
HIDDEN
 62
     7
370
     0
100
AcDbLine
 10
142.5045643902
 20
121.8650735398
 30
0.0
 11
141.4439053244
 21
122.925733537
 31
0.0
  0
LINE
  5
172
330
1F
100
AcDbEntity
  8
0
  6
HIDDEN
 62
     7
370
     0
100
AcDbLine
 10
133.9045640982
 20
100.1952005034
 30
0.0
 11
136.4045654393
 21
100.8650738229
 31
0.0
  0
LINE
  5
173
330
1F
100
AcDbEntity
  8
0
  6
HIDDEN
 62
     7
370
     0
100
AcDbLine
 10
136.4045654393
 20
121.8650735398
 30
0.0
 11
133.9045640982
 21
122.5349468594
 31
0.0
  0
LINE
  5
174
330
1F
100
AcDbEntity
  8
0
  6
HIDDEN
 62
     7
370
     0
100
AcDbLine
 10
213.5664754517
 20
112.6741779451
 30
0.0
 11
213.3938827521
 21
110.3936415464
 31
0.0
  0
LINE
  5
175
330
1F
100
AcDbEntity
  8
0
  6
HIDDEN
 62
     7
370
     0
100
AcDbLine
 10
213.3938827521
 20
110.3936415464
 30
0.0
 11
215.2499900169
 21
109.0574130365
 31
0.0
  0
LINE
  5
176
330
1F
100
AcDbEntity
  8
0
  6
HIDDEN
 62
     7
370
     0
100
AcDbLine
 10
223.1626593477
 20
117.257112958
 30
0.0
 11
213.6319660551
 21
112.8208180606
 31
0.0
  0
LINE
  5
177
330
1F
100
AcDbEntity
  8
0
  6
HIDDEN
 62
     7
370
     0
100
AcDbLine
 10
217.4380131967
 20
109.959725495
 30
0.0
 11
223.1505000002
 21
112.6187436464
 31
0.0
  0
LINE
  5
178
330
1F
100
AcDbEntity
  8
0
  6
HIDDEN
 62
     7
370
     0
100
AcDbLine
 10
215.4043585963
 20
109.0131114186
 30
0.0
 11
216.730748207
 21
109.6305128602
 31
0.0
  0
LINE
  5
179
330
1F
100
AcDbEntity
  8
0
  6
HIDDEN
 62
     7
370
     0
100
AcDbLine
 10
137.9045647538
 20
122.153749079
 30
0.0
 11
137.4045656032
 21
121.8650735398
 31
0.0
  0
LINE
  5
17A
330
1F
100
AcDbEntity
  8
0
  6
HIDDEN
 62
     7
370
     0
100
AcDbLine
 10
137.4045656032
 20
100.8650738229
 30
0.0
 11
137.9045647538
 21
100.5763982837
 31
0.0
  0
LINE
  5
17B
330
1F
100
AcDbEntity
  8
0
  6
HIDDEN
 62
     7
370
     0
100
AcDbLine
 10
142.5045643902
 20
100.8650738229
 30
0.0
 11
152.3765250078
 21
100.8650738229
 31
0.0
  0
LINE
  5
17C
330
1F
100
AcDbEntity
  8
0
  6
HIDDEN
 62
     7
370
     0
100
AcDbLine
 10
152.3765250078
 20
121.8650735398
 30
0.0
 11
142.5045643902
 21
121.8650735398
 31
0.0
  0
ARC
  5
17D
330
1F
100
AcDbEntity
  8
0
  6
HIDDEN
 62
     7
370
     0
100
AcDbCircle
 10
152.3765248663
 20
101.3650736814
 30
0.0
 40
0.5
100
AcDbArc
 50
270.0
 51
0.0
  0
ARC
  5
17E
330
1F
100
AcDbEntity
  8
0
  6
HIDDEN
 62
     7
370
     0
100
AcDbCircle
 10
152.3765248663
 20
121.3650736814
 30
0.0
 40
0.5
100
AcDbArc
 50
0.0
 51
90.0
  0
LINE
  5
17F
330
1F
100
AcDbEntity
  8
0
  6
HIDDEN
 62
     7
370
     0
100
AcDbLine
 10
136.4045654393
 20
100.8650738229
 30
0.0
 11
137.4045656032
 21
100.8650738229
 31
0.0
  0
LINE
  5
180
330
1F
100
AcDbEntity
  8
0
  6
HIDDEN
 62
     7
370
     0
100
AcDbLine
 10
137.4045656032
 20
121.8650735398
 30
0.0
 11
136.4045654393
 21
121.8650735398
 31
0.0
  0
LINE
  5
181
330
1F
100
AcDbEntity
  8
0
  6
HIDDEN
 62
     7
370
     0
100
AcDbLine
 10
152.8765250898
 20
103.1150737261
 30
0.0
 11
153.8765252537
 21
104.11507389
 31
0.0
  0
LINE
  5
182
330
1F
100
AcDbEntity
  8
0
  6
HIDDEN
 62
     7
370
     0
100
AcDbLine
 10
153.8765252537
 20
118.6150734727
 30
0.0
 11
152.8765250898
 21
119.6150736367
 31
0.0
  0
LINE
  5
183
330
1F
100
AcDbEntity
  8
0
  6
HIDDEN
 62
     7
370
     0
100
AcDbLine
 10
153.8765252537
 20
104.11507389
 30
0.0
 11
177.876524531
 21
104.11507389
 31
0.0
  0
LINE
  5
184
330
1F
100
AcDbEntity
  8
0
  6
HIDDEN
 62
     7
370
     0
100
AcDbLine
 10
177.876524531
 20
118.6150734727
 30
0.0
 11
153.8765252537
 21
118.6150734727
 31
0.0
  0
LINE
  5
185
330
1F
100
AcDbEntity
  8
0
  6
HIDDEN
 62
     7
370
     0
100
AcDbLine
 10
177.876524531
 20
104.11507389
 30
0.0
 11
180.2799672789
 21
108.1150736143
 31
0.0
  0
LINE
  5
186
330
1F
100
AcDbEntity
  8
0
  6
HIDDEN
 62
     7
370
     0
100
AcDbLine
 10
180.2799672789
 20
114.6150737484
 30
0.0
 11
177.876524531
 21
118.6150734727
 31
0.0
  0
LINE
  5
187
330
1F
100
AcDbEntity
  8
0
  6
HIDDEN
 62
     7
370
     0
100
AcDbLine
 10
218.8765265948
 20
108.1150736143
 30
0.0
 11
220.829320044
 21
111.3650736814
 31
0.0
  0
LINE
  5
188
330
1F
100
AcDbEntity
  8
0
  6
HIDDEN
 62
     7
370
     0
100
AcDbLine
 10
220.829320044
 20
111.3650736814
 30
0.0
 11
218.8765265948
 21
114.6150737484
 31
0.0
  0
LINE
  5
189
330
1F
100
AcDbEntity
  8
0
  6
HIDDEN
 62
     7
370
     0
100
AcDbLine
 10
218.8765265948
 20
114.6150737484
 30
0.0
 11
180.2799672789
 21
114.6150737484
 31
0.0
  0
LINE
  5
18A
330
1F
100
AcDbEntity
  8
0
  6
HIDDEN
 62
     7
370
     0
100
AcDbLine
 10
180.2799672789
 20
108.1150736143
 30
0.0
 11
218.8765265948
 21
108.1150736143
 31
0.0
  0
ARC
  5
18B
330
1F
100
AcDbEntity
  8
0
  6
HIDDEN
 62
     7
370
     0
100
AcDbCircle
 10
226.4623113039
 20
124.8650736814
 30
0.0
 40
1.0
100
AcDbArc
 50
270.0
 51
290.1029878206
  0
LINE
  5
18C
330
1F
100
AcDbEntity
  8
0
  6
HIDDEN
 62
     7
370
     0
100
AcDbLine
 10
238.1108262546
 20
115.7092986112
 30
0.0
 11
238.1108262546
 21
115.3744676565
 31
0.0
  0
LINE
  5
18D
330
1F
100
AcDbEntity
  8
0
  6
HIDDEN
 62
     7
370
     0
100
AcDbLine
 10
242.3108228452
 20
115.3744676565
 30
0.0
 11
242.3108228452
 21
115.3981847172
 31
0.0
  0
LINE
  5
18E
330
1F
100
AcDbEntity
  8
0
  6
HIDDEN
 62
     7
370
     0
100
AcDbLine
 10
243.8311510689
 20
121.041796491
 30
0.0
 11
243.8311510689
 21
120.5935593178
 31
0.0
  0
LINE
  5
18F
330
1F
100
AcDbEntity
  8
0
  6
HIDDEN
 62
     7
370
     0
100
AcDbLine
 10
248.0311476595
 20
120.5767265936
 30
0.0
 11
248.0311476595
 21
121.041796491
 31
0.0
  0
LINE
  5
190
330
1F
100
AcDbEntity
  8
VERMASSUNG
  6
CENTERX2
100
AcDbLine
 10
128.4743588331
 20
111.3650736814
 30
0.0
 11
252.8765248663
 21
111.3650736814
 31
0.0
  0
LINE
  5
191
330
1F
100
AcDbEntity
  8
VERMASSUNG
  6
CENTERX2
100
AcDbLine
 10
252.8765248663
 20
128.3650736814
 30
0.0
 11
252.8765248663
 21
111.3650736814
 31
0.0
  0
LINE
  5
192
330
1F
100
AcDbEntity
  8
VERMASSUNG
  6
CENTERX2
100
AcDbLine
 10
252.8765248663
 20
128.3650736814
 30
0.0
 11
261.8859266718
 21
128.3650736814
 31
0.0
  0
DIMENSION
  5
193
330
1F
100
AcDbEntity
  8
VERMASSUNG
100
AcDbDimension
  2
_D
 10
252.8765248663
 20
146.3650736814
 30
0.0
 11
207.8765248663
 21
146.3650736814
 31
0.0
 70
   160
  1
<>
 71
     2
 42
-1.0
  3
SLDDIMSTYLE0
100
AcDbAlignedDimension
 13
162.8765248663
 23
136.0650736814
 33
0.0
 14
252.8765248663
 24
128.3650736814
 34
0.0
100
AcDbRotatedDimension
  0
DIMENSION
  5
19E
330
1F
100
AcDbEntity
  8
VERMASSUNG
100
AcDbDimension
  2
_D_1
 10
132.8765248663
 20
152.3650736814
 30
0.0
 11
192.8765248663
 21
152.3650736814
 31
0.0
 70
   160
  1
<>
 71
     2
 42
-1.0
  3
SLDDIMSTYLE0
100
AcDbAlignedDimension
 13
252.8765248663
 23
128.3650736814
 33
0.0
 14
132.8765248663
 24
127.3583995195
 34
0.0
100
AcDbRotatedDimension
  0
DIMENSION
  5
1A8
330
1F
100
AcDbEntity
  8
VERMASSUNG
100
AcDbDimension
  2
_D_2
 10
268.9098650426
 20
111.3650736814
 30
0.0
 11
268.9098650426
 21
119.8650736814
 31
0.0
 70
   160
  1
<>
 71
     2
 42
-1.0
  3
SLDDIMSTYLE0
100
AcDbAlignedDimension
 13
252.8765248663
 23
128.3650736814
 33
0.0
 14
252.8765248663
 24
111.3650736814
 34
0.0
 50
90.0
100
AcDbRotatedDimension
  0
DIMENSION
  5
1B2
330
1F
100
AcDbEntity
  8
VERMASSUNG
100
AcDbDimension
  2
_D_3
 10
261.8859266718
 20
128.3650736814
 30
0.0
 11
260.0511367424
 21
120.5735590058
 31
0.0
 70
   162
  1
<>
 71
     1
 42
-1.0
  3
SLDDIMSTYLE1
100
AcDb2LineAngularDimension
 13
251.8218496448
 23
115.9229986394
 33
0.0
 14
252.8750027455
 24
127.931270687
 34
0.0
 15
252.8765248663
 25
128.3650736814
 35
0.0
 16
260.0511367424
 26
120.5735590058
 36
0.0
  0
DIMENSION
  5
1BC
330
1F
100
AcDbEntity
  8
VERMASSUNG
100
AcDbDimension
  2
_D_4
 10
125.2414076291
 20
86.3650736814
 30
0.0
 11
125.2414076291
 21
111.3650736814
 31
0.0
 70
   160
  1
PSC%%c<>
 71
     2
 42
-1.0
  3
SLDDIMSTYLE0
100
AcDbAlignedDimension
 13
163.1765248663
 23
136.3650736814
 33
0.0
 14
163.1765248663
 24
86.3650736814
 34
0.0
 50
90.0
100
AcDbRotatedDimension
  0
DIMENSION
  5
1C8
330
1F
100
AcDbEntity
  8
VERMASSUNG
100
AcDbDimension
  2
_D_5
 10
198.3131874336
 20
98.8650736814
 30
0.0
 11
198.3131874336
 21
103.8331998745
 31
0.0
 70
   160
  1
%%c<>
 71
     2
 42
-1.0
  3
SLDDIMSTYLE0
100
AcDbAlignedDimension
 13
186.8765248663
 23
123.8650736814
 33
0.0
 14
186.8765248663
 24
98.8650736814
 34
0.0
 50
90.0
100
AcDbRotatedDimension
  0
LINE
  5
1D1
330
1F
100
AcDbEntity
  8
0
  6
Continuous
 62
     7
370
    15
100
AcDbLine
 10
74.2620972001
 20
127.7387992893
 30
0.0
 11
71.0401969978
 21
128.3650746052
 31
0.0
  0
LINE
  5
1D2
330
1F
100
AcDbEntity
  8
0
  6
Continuous
 62
     7
370
    15
100
AcDbLine
 10
70.0712273961
 20
114.5081628063
 30
0.0
 11
70.3730661322
 21
114.5239813202
 31
0.0
  0
LWPOLYLINE
  5
1D3
330
1F
100
AcDbEntity
  8
0
  6
Continuous
 62
     7
370
    15
100
AcDbPolyline
 90
        9
 70
   128
 43
0.0
 10
71.0098625374
 20
127.9312701379
 10
71.0159364267
 20
128.0181308692
 10
71.0218376558
 20
128.1025235956
 10
71.0272864586
 20
128.1804436301
 10
71.0320245185
 20
128.2482010727
 10
71.0358272136
 20
128.3025828605
 10
71.0385142657
 20
128.3410092299
 10
71.0399582873
 20
128.3616603767
 10
71.0401969978
 20
128.3650746052
  0
LINE
  5
1D4
330
1F
100
AcDbEntity
  8
0
  6
Continuous
 62
     7
370
    15
100
AcDbLine
 10
74.2620972001
 20
127.7387992893
 30
0.0
 11
71.0098625374
 21
127.9312701379
 31
0.0
  0
LINE
  5
1D5
330
1F
100
AcDbEntity
  8
0
  6
Continuous
 62
     7
370
    15
100
AcDbLine
 10
75.7465448247
 20
127.4315894996
 30
0.0
 11
74.2620972001
 21
127.7387992893
 31
0.0
  0
LINE
  5
1D6
330
1F
100
AcDbEntity
  8
0
  6
Continuous
 62
     7
370
    15
100
AcDbLine
 10
74.9328759981
 20
115.7955833194
 30
0.0
 11
75.7465448247
 21
127.4315894996
 31
0.0
  0
LINE
  5
1D7
330
1F
100
AcDbEntity
  8
0
  6
Continuous
 62
     7
370
    15
100
AcDbLine
 10
74.9328759981
 20
115.7955833194
 30
0.0
 11
73.4223972091
 21
115.7305276436
 31
0.0
  0
LINE
  5
1D8
330
1F
100
AcDbEntity
  8
0
  6
Continuous
 62
     7
370
    15
100
AcDbLine
 10
73.4223972091
 20
115.7305276436
 30
0.0
 11
70.1701623753
 21
115.9229984922
 31
0.0
  0
LINE
  5
1D9
330
1F
100
AcDbEntity
  8
0
  6
Continuous
 62
     7
370
    15
100
AcDbLine
 10
70.1701623753
 20
115.9229984922
 30
0.0
 11
71.0098625374
 21
127.9312701379
 31
0.0
  0
LINE
  5
1DA
330
1F
100
AcDbEntity
  8
0
  6
Continuous
 62
     7
370
    15
100
AcDbLine
 10
73.4223972091
 20
115.7305276436
 30
0.0
 11
70.4521073045
 21
115.576232173
 31
0.0
  0
LINE
  5
1DB
330
1F
100
AcDbEntity
  8
0
  6
Continuous
 62
     7
370
    15
100
AcDbLine
 10
70.4466267622
 20
115.575947654
 30
0.0
 11
70.144797805
 21
115.5602688384
 31
0.0
  0
LWPOLYLINE
  5
1DC
330
1F
100
AcDbEntity
  8
0
  6
Continuous
 62
     7
370
    15
100
AcDbPolyline
 90
        9
 70
   128
 43
0.0
 10
70.144797805
 20
115.5602688384
 10
70.1456423982
 20
115.5723466952
 10
70.1473059149
 20
115.5961359334
 10
70.1497377728
 20
115.630913381
 10
70.1528641062
 20
115.6756224525
 10
70.1565899786
 20
115.7289043483
 10
70.1608020596
 20
115.7891404298
 10
70.1653725251
 20
115.8545006481
 10
70.1701623753
 20
115.9229984922
  0
LINE
  5
1DD
330
1F
100
AcDbEntity
  8
0
  6
Continuous
 62
     7
370
    15
100
AcDbLine
 10
70.3731625241
 20
114.5253599105
 30
0.0
 11
70.0713335669
 21
114.5096810949
 31
0.0
  0
LINE
  5
1DE
330
1F
100
AcDbEntity
  8
0
  6
Continuous
 62
     7
370
    15
100
AcDbLine
 10
74.9310268571
 20
115.7691379492
 30
0.0
 11
74.9328759981
 21
115.7955833194
 31
0.0
  0
LINE
  5
1DF
330
1F
100
AcDbEntity
  8
0
  6
Continuous
 62
     7
370
    15
100
AcDbLine
 10
70.0713335669
 20
114.5096810949
 30
0.0
 11
70.144797805
 21
115.5602688384
 31
0.0
  0
LINE
  5
1E0
330
1F
100
AcDbEntity
  8
0
  6
Continuous
 62
     7
370
    15
100
AcDbLine
 10
70.0712273961
 20
114.5081628063
 30
0.0
 11
70.0713335669
 21
114.5096810949
 31
0.0
  0
LINE
  5
1E1
330
1F
100
AcDbEntity
  8
0
  6
Continuous
 62
     7
370
    15
100
AcDbLine
 10
84.040197266
 20
113.8127528546
 30
0.0
 11
84.040197266
 21
118.3375635599
 31
0.0
  0
LINE
  5
1E2
330
1F
100
AcDbEntity
  8
0
  6
Continuous
 62
     7
370
    15
100
AcDbLine
 10
84.040197266
 20
113.8127528546
 30
0.0
 11
70.348579508
 21
114.1738068261
 31
0.0
  0
LINE
  5
1E3
330
1F
100
AcDbEntity
  8
0
  6
Continuous
 62
     7
370
    15
100
AcDbLine
 10
70.4466301964
 20
115.5759965484
 30
0.0
 11
70.348579508
 21
114.1738068261
 31
0.0
  0
LINE
  5
1E4
330
1F
100
AcDbEntity
  8
0
  6
Continuous
 62
     7
370
    15
100
AcDbLine
 10
70.4466301964
 20
115.5759965484
 30
0.0
 11
72.5380079371
 21
115.6660712739
 31
0.0
  0
LINE
  5
1E5
330
1F
100
AcDbEntity
  8
0
  6
Continuous
 62
     7
370
    15
100
AcDbLine
 10
72.5380079371
 20
115.6660712739
 30
0.0
 11
74.910406444
 21
115.4742518854
 31
0.0
  0
LINE
  5
1E6
330
1F
100
AcDbEntity
  8
0
  6
Continuous
 62
     7
370
    15
100
AcDbLine
 10
74.9310268571
 20
115.7691379492
 30
0.0
 11
74.910406444
 21
115.4742518854
 31
0.0
  0
ELLIPSE
  5
1E7
330
1F
100
AcDbEntity
  8
0
  6
Continuous
 62
     7
370
    15
100
AcDbEllipse
 10
70.0401969978
 20
113.0304363509
 30
0.0
 11
-5.159495705827524
 21
14.31131765444442
 31
0.0
210
0.0
220
0.0
230
1.0
 40
0.9841672027
 41
4.728459225600309
 42
5.543834176665376
  0
LINE
  5
1E8
330
1F
100
AcDbEntity
  8
0
  6
Continuous
 62
     7
370
    15
100
AcDbLine
 10
84.040197266
 20
111.3650736814
 30
0.0
 11
84.040197266
 21
113.8127528546
 31
0.0
  0
ARC
  5
1E9
330
1F
100
AcDbEntity
  8
0
  6
Continuous
 62
     7
370
    15
100
AcDbCircle
 10
71.0401969978
 20
111.3650736814
 30
0.0
 40
13.00000000000003
100
AcDbArc
 50
262.0926611235
 51
0.0
  0
LINE
  5
1EA
330
1F
100
AcDbEntity
  8
0
  6
Continuous
 62
     7
370
    15
100
AcDbLine
 10
70.348579508
 20
114.1738068261
 30
0.0
 11
69.2517685953
 21
98.4886794766
 31
0.0
  0
SPLINE
  5
1EB
330
1F
100
AcDbEntity
  8
0
  6
Continuous
 62
     7
370
    15
100
AcDbSpline
210
0.0
220
0.0
230
1.0
 70
     8
 71
     3
 72
    10
 73
     6
 74
     0
 42
0.00000001
 43
0.00000001
 12
1.0
 22
0.0
 32
0.0
 13
1.0
 23
0.0
 33
0.0
 40
0.0
 40
0.0
 40
0.0
 40
0.0
 40
0.5
 40
0.5
 40
1.0
 40
1.0
 40
1.0
 40
1.0
 10
69.26623615956642
 20
98.69577299614603
 30
0.0
 10
69.27254144747252
 20
98.7900346678736
 30
0.0
 10
69.27282969767079
 20
98.86435551748252
 30
0.0
 10
69.25268172849869
 20
98.96799529889468
 30
0.0
 10
69.23224571219717
 20
98.99647099142642
 30
0.0
 10
69.20065054436711
 20
99.0011718358406
 30
0.0
  0
SPLINE
  5
1EC
330
1F
100
AcDbEntity
  8
0
  6
Continuous
 62
     7
370
    15
100
AcDbSpline
210
0.0
220
0.0
230
1.0
 70
     8
 71
     3
 72
    16
 73
    12
 74
     0
 42
0.00000001
 43
0.00000001
 12
1.0
 22
0.0
 32
0.0
 13
1.0
 23
0.0
 33
0.0
 40
0.0
 40
0.0
 40
0.0
 40
0.0
 40
0.2499999999999959
 40
0.2499999999999959
 40
0.3749999999999937
 40
0.3749999999999937
 40
0.4999999999999967
 40
0.4999999999999967
 40
0.7499999999999983
 40
0.7499999999999983
 40
1.0
 40
1.0
 40
1.0
 40
1.0
 10
69.20065054436698
 20
99.0011718358403
 30
0.0
 10
69.13632824299117
 20
99.01074194266029
 30
0.0
 10
69.03861379119115
 20
99.02566333093199
 30
0.0
 10
68.84374260272502
 20
99.05938662729262
 30
0.0
 10
68.77008605316809
 20
99.07266990820017
 30
0.0
 10
68.61057199964615
 20
99.10320120642075
 30
0.0
 10
68.52439144918257
 20
99.12049721416003
 30
0.0
 10
68.24712903497553
 20
99.17965234956398
 30
0.0
 10
68.03452763334374
 20
99.22958224766896
 30
0.0
 10
67.58472599241365
 20
99.34991988307088
 30
0.0
 10
67.34326444466909
 20
99.42138076794993
 30
0.0
 10
67.09382056556875
 20
99.50437753589478
 30
0.0
  0
SPLINE
  5
1ED
330
1F
100
AcDbEntity
  8
0
  6
Continuous
 62
     7
370
    15
100
AcDbSpline
210
0.0
220
0.0
230
1.0
 70
     8
 71
     3
 72
    13
 73
     9
 74
     0
 42
0.00000001
 43
0.00000001
 12
1.0
 22
0.0
 32
0.0
 13
1.0
 23
0.0
 33
0.0
 40
0.0
 40
0.0
 40
0.0
 40
0.0
 40
0.1895973794049222
 40
0.3846269587814288
 40
0.5742534393267777
 40
0.7694750520976816
 40
0.9576151427347224
 40
1.0
 40
1.0
 40
1.0
 40
1.0
 10
68.78291624761364
 20
123.6595719535988
 30
0.0
 10
68.9387652666601
 20
123.6863614436518
 30
0.0
 10
69.25492857236111
 20
123.7407079758598
 30
0.0
 10
69.69172935076455
 20
123.7942776199311
 30
0.0
 10
70.0906886214505
 20
123.8308444424662
 30
0.0
 10
70.42140659049858
 20
123.8508903450893
 30
0.0
 10
70.63561665661396
 20
123.8591379750646
 30
0.0
 10
70.7113126150867
 20
123.8605749401141
 30
0.0
 10
70.72523025144069
 20
123.8608391438764
 30
0.0
  0
ELLIPSE
  5
1EE
330
1F
100
AcDbEntity
  8
0
  6
Continuous
 62
     7
370
    15
100
AcDbEllipse
 10
63.9674104744
 20
114.9379283915
 30
0.0
 11
1.650444768084909
 21
1.909937113548324
 31
0.0
210
0.0
220
0.0
230
1.0
 40
0.8148202105
 41
0.0
 42
6.283185307179586
  0
ARC
  5
1EF
330
1F
100
AcDbEntity
  8
0
  6
Continuous
 62
     7
370
    15
100
AcDbCircle
 10
71.0401969978
 20
111.3650736814
 30
0.0
 40
12.50000000000001
100
AcDbArc
 50
100.4036880773
 51
251.5963119227
  0
SPLINE
  5
1F0
330
1F
100
AcDbEntity
  8
0
  6
Continuous
 62
     7
370
    15
100
AcDbSpline
210
0.0
220
0.0
230
1.0
 70
     8
 71
     3
 72
    21
 73
    17
 74
     0
 42
0.00000001
 43
0.00000001
 12
1.0
 22
0.0
 32
0.0
 13
1.0
 23
0.0
 33
0.0
 40
0.0
 40
0.0
 40
0.0
 40
0.0
 40
0.1058977710655304
 40
0.1510915321705012
 40
0.1970649788477031
 40
0.2349577047388829
 40
0.2739431935774851
 40
0.3118412197060035
 40
0.350597267019161
 40
0.4259424735032096
 40
0.5030116942082763
 40
0.6523045086617657
 40
0.8059659106207969
 40
0.8961707907210922
 40
0.9882495929655098
 40
0.9999999999999999
 40
0.9999999999999999
 40
0.9999999999999999
 40
0.9999999999999999
 10
63.51289078756412
 20
112.6603281307187
 30
0.0
 10
63.45655591818823
 20
112.7526309415892
 30
0.0
 10
63.37617913931004
 20
112.884325622013
 30
0.0
 10
63.30022914115574
 20
113.0349841610316
 30
0.0
 10
63.26787437598422
 20
113.1273075179622
 30
0.0
 10
63.25991688986043
 20
113.2068378763381
 30
0.0
 10
63.27583426413824
 20
113.2720531535342
 30
0.0
 10
63.31473683876065
 20
113.3269116871198
 30
0.0
 10
63.38983712369907
 20
113.3848495622472
 30
0.0
 10
63.51549392902501
 20
113.434072039755
 30
0.0
 10
63.74226392983921
 20
113.4729006452325
 30
0.0
 10
64.04812255784591
 20
113.4603443236761
 30
0.0
 10
64.35545565660517
 20
113.3678640428114
 30
0.0
 10
64.58805576292379
 20
113.2202397213132
 30
0.0
 10
64.7129051831425
 20
113.113244713182
 30
0.0
 10
64.76277965883547
 20
113.0349793962306
 30
0.0
 10
64.76842397987089
 20
113.0261220685359
 30
0.0
  0
CIRCLE
  5
1F1
330
1F
100
AcDbEntity
  8
0
  6
Continuous
 62
     7
370
    15
100
AcDbCircle
 10
71.0401969978
 20
111.3650736814
 30
0.0
 40
25.00000000000003
  0
CIRCLE
  5
1F2
330
1F
100
AcDbEntity
  8
VERMASSUNG
  6
CENTERX2
100
AcDbCircle
 10
71.0401969978
 20
112.3142329621
 30
0.0
 40
16.0
  0
DIMENSION
  5
1F3
330
1F
100
AcDbEntity
  8
VERMASSUNG
100
AcDbDimension
  2
_D_6
 10
59.7264884988
 20
123.627941461
 30
0.0
 11
48.0381502275
 21
135.3162797324
 31
0.0
 70
   160
  1
%%c<> min. 
 71
     2
 42
-1.0
  3
SLDDIMSTYLE2
100
AcDbAlignedDimension
 13
82.3539054968
 23
101.0005244631
 33
0.0
 14
59.7264884988
 24
123.627941461
 34
0.0
 50
-45.0
100
AcDbRotatedDimension
  0
DIMENSION
  5
202
330
1F
100
AcDbEntity
  8
VERMASSUNG
100
AcDbDimension
  2
_D_7
 10
71.0401969978
 20
138.8650736814
 30
0.0
 11
62.0366826701
 21
76.3650736814
 31
0.0
 70
   162
  1
<>
 71
     1
 42
-1.0
  3
SLDDIMSTYLE3
100
AcDb2LineAngularDimension
 13
69.2517685788
 23
98.4886796291
 33
0.0
 14
70.3485795114
 24
114.1738067225
 34
0.0
 15
71.0401969978
 25
83.8650736814
 35
0.0
 16
69.3461189274
 26
75.552348869
 36
0.0
  0
INSERT
  5
21A
330
1F
100
AcDbEntity
  8
VERMASSUNG
100
AcDbBlockReference
  2
SW_CENTERMARKSYMBOL_0
 10
71.0401969978
 20
111.3650736814
 30
0.0
  0
OLE2FRAME
  5
21B
330
1F
100
AcDbEntity
  8
0
100
AcDbOle2Frame
 70
     2
  3
Paintbrush-Bild
 10
13.8511154363
 20
38.264191557
 30
0.0
 11
51.6290888628
 21
31.9806341108
 31
0.0
 71
     2
 72
     0
 73
     1
 90
    12928
310
80552BED0767C5B32B40DDAF6807D121434000000000000000006FFBDDFB85D0
310
4940DDAF6807D121434000000000000000006FFBDDFB85D04940416F4BD60AFB
310
3F4000000000000000002BED0767C5B32B40416F4BD60AFB3F40000000000000
310
0000000000000100000000010000010000000100000000000100000000320000
310
D0CF11E0A1B11AE1000000000000000000000000000000003E000300FEFF0900
310
0600000000000000000000000100000001000000000000000010000002000000
310
01000000FEFFFFFF0000000000000000FFFFFFFFFFFFFFFFFFFFFFFFFFFFFFFF
310
FFFFFFFFFFFFFFFFFFFFFFFFFFFFFFFFFFFFFFFFFFFFFFFFFFFFFFFFFFFFFFFF
310
FFFFFFFFFFFFFFFFFFFFFFFFFFFFFFFFFFFFFFFFFFFFFFFFFFFFFFFFFFFFFFFF
310
FFFFFFFFFFFFFFFFFFFFFFFFFFFFFFFFFFFFFFFFFFFFFFFFFFFFFFFFFFFFFFFF
310
FFFFFFFFFFFFFFFFFFFFFFFFFFFFFFFFFFFFFFFFFFFFFFFFFFFFFFFFFFFFFFFF
310
FFFFFFFFFFFFFFFFFFFFFFFFFFFFFFFFFFFFFFFFFFFFFFFFFFFFFFFFFFFFFFFF
310
FFFFFFFFFFFFFFFFFFFFFFFFFFFFFFFFFFFFFFFFFFFFFFFFFFFFFFFFFFFFFFFF
310
FFFFFFFFFFFFFFFFFFFFFFFFFFFFFFFFFFFFFFFFFFFFFFFFFFFFFFFFFFFFFFFF
310
FFFFFFFFFFFFFFFFFFFFFFFFFFFFFFFFFFFFFFFFFFFFFFFFFFFFFFFFFFFFFFFF
310
FFFFFFFFFFFFFFFFFFFFFFFFFFFFFFFFFFFFFFFFFFFFFFFFFFFFFFFFFFFFFFFF
310
FFFFFFFFFFFFFFFFFFFFFFFFFFFFFFFFFFFFFFFFFFFFFFFFFFFFFFFFFFFFFFFF
310
FFFFFFFFFFFFFFFFFFFFFFFFFFFFFFFFFFFFFFFFFFFFFFFFFFFFFFFFFFFFFFFF
310
FFFFFFFFFFFFFFFFFFFFFFFFFFFFFFFFFFFFFFFFFFFFFFFFFFFFFFFFFFFFFFFF
310
FFFFFFFFFFFFFFFFFFFFFFFFFFFFFFFFFFFFFFFFFFFFFFFFFFFFFFFFFFFFFFFF
310
FDFFFFFFFEFFFFFFFEFFFFFFFEFFFFFF05000000060000000700000008000000
310
090000000A0000000B0000000C0000000D0000000E0000000F00000010000000
310
11000000120000001300000014000000150000001600000017000000FEFFFFFF
310
FFFFFFFFFFFFFFFFFFFFFFFFFFFFFFFFFFFFFFFFFFFFFFFFFFFFFFFFFFFFFFFF
310
FFFFFFFFFFFFFFFFFFFFFFFFFFFFFFFFFFFFFFFFFFFFFFFFFFFFFFFFFFFFFFFF
310
FFFFFFFFFFFFFFFFFFFFFFFFFFFFFFFFFFFFFFFFFFFFFFFFFFFFFFFFFFFFFFFF
310
FFFFFFFFFFFFFFFFFFFFFFFFFFFFFFFFFFFFFFFFFFFFFFFFFFFFFFFFFFFFFFFF
310
FFFFFFFFFFFFFFFFFFFFFFFFFFFFFFFFFFFFFFFFFFFFFFFFFFFFFFFFFFFFFFFF
310
FFFFFFFFFFFFFFFFFFFFFFFFFFFFFFFFFFFFFFFFFFFFFFFFFFFFFFFFFFFFFFFF
310
FFFFFFFFFFFFFFFFFFFFFFFFFFFFFFFFFFFFFFFFFFFFFFFFFFFFFFFFFFFFFFFF
310
FFFFFFFFFFFFFFFFFFFFFFFFFFFFFFFFFFFFFFFFFFFFFFFFFFFFFFFFFFFFFFFF
310
FFFFFFFFFFFFFFFFFFFFFFFFFFFFFFFFFFFFFFFFFFFFFFFFFFFFFFFFFFFFFFFF
310
FFFFFFFFFFFFFFFFFFFFFFFFFFFFFFFFFFFFFFFFFFFFFFFFFFFFFFFFFFFFFFFF
310
FFFFFFFFFFFFFFFFFFFFFFFFFFFFFFFFFFFFFFFFFFFFFFFFFFFFFFFFFFFFFFFF
310
FFFFFFFFFFFFFFFFFFFFFFFFFFFFFFFFFFFFFFFFFFFFFFFFFFFFFFFFFFFFFFFF
310
FFFFFFFFFFFFFFFFFFFFFFFFFFFFFFFFFFFFFFFFFFFFFFFFFFFFFFFFFFFFFFFF
310
52006F006F007400200045006E00740072007900000000000000000000000000
310
0000000000000000000000000000000000000000000000000000000000000000
310
16000500FFFFFFFFFFFFFFFF020000000A00030000000000C000000000000046
310
00000000000000000000000080788934FE3FCD0103000000C000000000000000
310
01004F006C006500000000000000000000000000000000000000000000000000
310
0000000000000000000000000000000000000000000000000000000000000000
310
0A000200FFFFFFFFFFFFFFFFFFFFFFFF00000000000000000000000000000000
310
0000000000000000000000000000000000000000000000001400000000000000
310
010043006F006D0070004F0062006A0000000000000000000000000000000000
310
0000000000000000000000000000000000000000000000000000000000000000
310
120002010100000003000000FFFFFFFF00000000000000000000000000000000
310
0000000000000000000000000000000000000000010000004D00000000000000
310
01004F006C006500310030004E00610074006900760065000000000000000000
310
0000000000000000000000000000000000000000000000000000000000000000
310
1A000200FFFFFFFFFFFFFFFFFFFFFFFF00000000000000000000000000000000
310
0000000000000000000000000000000000000000040000002426000000000000
310
FEFFFFFF02000000FEFFFFFFFFFFFFFFFFFFFFFFFFFFFFFFFFFFFFFFFFFFFFFF
310
FFFFFFFFFFFFFFFFFFFFFFFFFFFFFFFFFFFFFFFFFFFFFFFFFFFFFFFFFFFFFFFF
310
FFFFFFFFFFFFFFFFFFFFFFFFFFFFFFFFFFFFFFFFFFFFFFFFFFFFFFFFFFFFFFFF
310
FFFFFFFFFFFFFFFFFFFFFFFFFFFFFFFFFFFFFFFFFFFFFFFFFFFFFFFFFFFFFFFF
310
FFFFFFFFFFFFFFFFFFFFFFFFFFFFFFFFFFFFFFFFFFFFFFFFFFFFFFFFFFFFFFFF
310
FFFFFFFFFFFFFFFFFFFFFFFFFFFFFFFFFFFFFFFFFFFFFFFFFFFFFFFFFFFFFFFF
310
FFFFFFFFFFFFFFFFFFFFFFFFFFFFFFFFFFFFFFFFFFFFFFFFFFFFFFFFFFFFFFFF
310
FFFFFFFFFFFFFFFFFFFFFFFFFFFFFFFFFFFFFFFFFFFFFFFFFFFFFFFFFFFFFFFF
310
FFFFFFFFFFFFFFFFFFFFFFFFFFFFFFFFFFFFFFFFFFFFFFFFFFFFFFFFFFFFFFFF
310
FFFFFFFFFFFFFFFFFFFFFFFFFFFFFFFFFFFFFFFFFFFFFFFFFFFFFFFFFFFFFFFF
310
FFFFFFFFFFFFFFFFFFFFFFFFFFFFFFFFFFFFFFFFFFFFFFFFFFFFFFFFFFFFFFFF
310
FFFFFFFFFFFFFFFFFFFFFFFFFFFFFFFFFFFFFFFFFFFFFFFFFFFFFFFFFFFFFFFF
310
FFFFFFFFFFFFFFFFFFFFFFFFFFFFFFFFFFFFFFFFFFFFFFFFFFFFFFFFFFFFFFFF
310
FFFFFFFFFFFFFFFFFFFFFFFFFFFFFFFFFFFFFFFFFFFFFFFFFFFFFFFFFFFFFFFF
310
FFFFFFFFFFFFFFFFFFFFFFFFFFFFFFFFFFFFFFFFFFFFFFFFFFFFFFFFFFFFFFFF
310
FFFFFFFFFFFFFFFFFFFFFFFFFFFFFFFFFFFFFFFFFFFFFFFFFFFFFFFFFFFFFFFF
310
0100000200000000000000000000000000000000000000000000000000000000
310
0000000000000000000000000000000000000000000000000000000000000000
310
0100FEFF030A0000FFFFFFFF0A00030000000000C00000000000004607000000
310
5042727573680007000000504272757368000700000050427275736800F439B2
310
7100000000000000000000000000000000000000000000000000000000000000
310
0000000000000000000000000000000000000000000000000000000000000000
310
0000000000000000000000000000000000000000000000000000000000000000
310
0000000000000000000000000000000000000000000000000000000000000000
310
0000000000000000000000000000000000000000000000000000000000000000
310
0000000000000000000000000000000000000000000000000000000000000000
310
0000000000000000000000000000000000000000000000000000000000000000
310
0000000000000000000000000000000000000000000000000000000000000000
310
0000000000000000000000000000000000000000000000000000000000000000
310
0000000000000000000000000000000000000000000000000000000000000000
310
0000000000000000000000000000000000000000000000000000000000000000
310
0000000000000000000000000000000000000000000000000000000000000000
310
20260000424D0E260000000000003E00000028000000B40200006E0000000100
310
01000000000000000000130B0000130B00000200000002000000000000FFFFFF
310
FFFFFFFFFFFFFFFFFFFFFFFFFFFFFFFFFFFFFFFFFFFFFFFFFFFFFFFFFFFFFFFF
310
FFFFFFFFFFFFFFFFFFFFFFFFFFFFFFFFFFFFFFFFFFFFFFFFFFFFFFFFFFFFFFFF
310
FFFFFFFFFFFFFFFFFFFFFFFFFFFFFFFFFFFFFFFFFFFFFFFFF000FFFFFFFFFFFF
310
FFFFFFFFFFFFFFFFFFFFFFFFFFFFFFFFFFFFFFFFFFFFFFFFFFFFFFFFFFFFFFFF
310
FFFFFFFFFFFFFFFFFFFFFFFFFFFFFFFFFFFFFFFFFFFFFFFFFFFFFFFFFFFFFFFF
310
FFFFFFFFFFFFFFFFFFFFFFFFFFFFFFFFF000FFFFFFFFFFFFFFFFFFFFFFFFFFFF
310
FFFFFFFFFFFFFFFFFFFFFFFFFFFFFFFFFFFFFFFFFFFFFFFFFFFFFFFFFFFFFFFF
310
FFFFFFFFFFFFFFFFFFFFFFFFFFFFFFFFFFFFFFFFFFFFFFFFFFFFFFFFFFFFFFFF
310
FFFFFFFFFFFFFFFFF000FFFFFFFFFFFFFFFFFFFFFFFFFFFFFFFFFFFFFFFFFFFF
310
FFFFFFFFFFFFFFFFFFFFFFFFFFFFFFFFFFFFFFFFFFFFFFFFFFFFFFFFFFFFFFFF
310
FFFFFFFFFFFFFFFFFFFFFFFFFFFFFFFFFFFFFFFFFFFFFFFFFFFFFFFFFFFFFFFF
310
F000FFFFFFFFFFFFFFFFFFFFFFFFFFFFFFFFFFFFFFFFFFFFFFFFFFFFFFFFFFFF
310
FFFFFFFFFFFFFFFFFFFFFFFFFFFFFFFFFFFFFFFFFFFFFFFFFFFFFFFFFFFFFFFF
310
FFFFFFFFFFFFFFFFFFFFFFFFFFFFFFFFFFFFFFFFFFFFFFFFF000FFFFFFFFFFFF
310
FFFFFFFFFFFFFFFFFFFFFFFFFFFFFFFFFFFFFFFFFFFFFFFFFFFFFFFFFFFFFFFF
310
FFFFFFFFFFFFFFFFFFFFFFFFFFFFFFFFFFFFFFFFFFFFFFFFFFFFFFFFFFFFFFFF
310
FFFFFFFFFFFFFFFFFFFFFFFFFFFFFFFFF000FFFFFFFFFFFFFFFFFFFFFFFFFFFF
310
FFFFFFFFFFFFFFFFFFFFFFFFFFFFFFFFFFFFFFFFFFFFFFFFFFFFFFFFFFFFFFFF
310
FFFFFFFFFFFFFFFFFFFFFFFFFFFFFFFFFFFFFFFFFFFFFFFFFFFFFFFFFFFFFFFF
310
FFFFFFFFFFFFFFFFF000FFFFFFFFFFFFFFFFFFFFFFFFFFFFFFFFFFFFFFFFFFFF
310
FFFFFFFFFFFFFFFFFFFFFFFFFFFFFFFFFFFFFFFFFFFFFFFFFFFFFFFFFFFFFFFF
310
FFFFFFFFFFFFFFFFFFFFFFFFFFFFFFFFFFFFFFFFFFFFFFFFFFFFFFFFFFFFFFFF
310
F000FFFFFFFFFFFFFFFFFFFFFFFFFFFFFFFFFFFFFFFFFFFFFFFFFFFFFFFFFFFF
310
FFFFFFFFFFFFFFFFFFFFFFFFFFFFFFFFFFFFFFFFFFFFFFFFFFFFFFFFFFFFFFFF
310
FFFFFFFFFFFFFFFFFFFFFFFFFFFFFFFFFFFFFFFFFFFFFFFFF000FFFFFFFFFFFF
310
FFFFFFFFFFFFFFFFFFFFFFFFFFFFFFFFFFFFFFFFFFFFFFFFFFFFFFFFFFFFFFFF
310
FFFFFFFFFFFFFFFFFFFFFFFFFFFFFFFFFFFFFFFFFFFFFFFFFFFFFFFFFFFFFFFF
310
FFFFFFFFFFFFFFFFFFFFFFFFFFFFFFFFF000FFFFFFFFFFFFFFFFFFFFFFFFFFFF
310
FFFFFFFFFFFFFFFFFFFFFFFFFFFFFFFFFFFFFFFFFFFFFFFFFFFFFFFFFFFFFFFF
310
FFFFFFFFFFFFFFFFFFFFFFFFFFFFFFFFFFFFFFFFFFFFFFFFFFFFFFFFFFFFFFFF
310
FFFFFFFFFFFFFFFFF000FFFFFFFFFFFFFFFFFFFFFFFFFFFFFFFFFFFFFFFFFFFF
310
FFFFFFFFFFFFFFFFFFFFFFFFFFFFFFFFFFFFFFFFFFFFFFFFFFFFFFFFFFFFFFFF
310
FFFFFFFFFFFFFFFFFFFFFFFFFFFFFFFFFFFFFFFFFFFFFFFFFFFFFFFFFFFFFFFF
310
F000FFFFFFFFFFFFFFFFFFFFFFFFFFFFFFFFFFFFFFFFFFFFFFFFFFFFFFFFFFFF
310
FFFFFFFFFFFFFFFFFFFFFFFFFFFFFFFFFFFFFFFFFFFFFFFFFFFFFFFFFFFFFFFF
310
FFFFFFFFFFFFFFFFFFFFFFFFFFFFFFFFFFFFFFFFFFFFFFFFF000FFFFFFFFFFFF
310
FFFFFFFFFFFFFFFFFFFFFFFFFFFFFFFFFFFFFFFFFFFFFFFFFFFFFFFFFFFFFFFF
310
FFFFFFFFFFFFFFFFFFFFFFFFFFFFFFFFFFFFFFFFFFFFFFFFFFFFFFFFFFFFFFFF
310
FFFFFFFFFFFFFFFFFFFFFFFFFFFFFFFFF000FFFFFFFFFFFFFFFFFFFFFFFFFFFF
310
FFFFFFFFFFFFFFFFFFFFFFFFFFFFFFFFFFFFFFFFFFFFFFFFFFFFFFFFFFFFFFFF
310
FFFFFFFFFFFFFFFFFFFFFFFFFFFFFFFFFFFFFFFFFFFFFFFFFFFFFFFFFFFFFFFF
310
FFFFFFFFFFFFFFFFF000FFFFFFFFFFFFFFFFFFFFFFFFFFFFFFFFFFFFFFFFFFFF
310
FFFFFFFFFFFFFFFFFFFFFFFFFFFFFFFFFFFFFFFFFFFFFFFFFFFFFFFFFFFFFFFF
310
FFFFFFFFFFFFFFFFFFFFFFFFFFFFFFFFFFFFFFFFFFFFFFFFFFFFFFFFFFFFFFFF
310
F000FFFFFFFFFFFFFFFFFFFFFFFFFFFFFFFFFFFFFFFFFFFFFFFFFFFFFFFFFFFF
310
FFFFFFFFFFFFFFFFFFFFFFFFFFFFFFFFFFFFFFFFFFFFFFFFFFFFFFFFFFFFFFFF
310
FFFFFFFFFFFFFFFFFFFFFFFFFFFFFFFFFFFFFFFFFFFFFFFFF000FFFFFFFFFFFF
310
FFFFFFFFFFFFFFFFFFFFFFFFFFFFFFFFFFFFFFFFFFFFFFFFFFFFFFFFFFFFFFFF
310
FFFFFFFFFFFFFFFFFFFFFFFFFFFFFFFFFFFFFFFFFFFFFFFFFFFFFFFFFFFFFFFF
310
FFFFFFFFFFFFFFFFFFFFFFFFFFFFFFFFF000FFFFFFFFFFFFFFFFFFFFFFFFFFFF
310
FFFFFFFFFFFFFFFFFFFFFFFFFFFFFFFFFFFFFFFFFFFFFFFFFFFFFFFFFFFFFFFF
310
FFFFFFFFFFFFFFFFFFFFFFFFFFFFFFFFFFFFFFFFFFFFFFFFFFFFFFFFFFFFFFFF
310
FFFFFFFFFFFFFFFFF000FFFFF80003FFFFFFFFFFFFFFFFFFFFFFFFFFFFFFFFFF
310
FFFFF00007FFFFFFFFFF00007FFFFFF800000000000000007FFFFFFFFFFFFFFF
310
FFFFFFFC001FFFFFFFFFFFFFFC001FFFFFFFFFFFFFFFFFFFFFFFFFFE0007FFFF
310
F000FFFF8000007FFFFFFFF8000FFFFFC0007FFFFF80007FFFFF0000007FFFFF
310
FFF8000007FFFFF800000000000000007FFFFFF0001FFFFFFFFFFFC00001FFFF
310
FFFFFFFFC00001FFFFFFFF000000000003FFFFE000007FFFF000FFFE0000000F
310
FFFFFFF0000FFFFF80007FFFFF80007FFFFC0000001FFFFFFFC0000001FFFFF8
310
00000000000000007FFFFFF0001FFFFFFFFFFE0000003FFFFFFFFFFE0000003F
310
FFFFFF000000000003FFFF0000000FFFF000FFF800000003FFFFFFF00007FFFF
310
80007FFFFF80007FFFF000000007FFFFFF000000003FFFF80000000000000000
310
7FFFFFF0001FFFFFFFFFF80000000FFFFFFFFFF80000000FFFFFFF0000000000
310
03FFFC00000003FFF000FFE000000000FFFFFFF00007FFFF80003FFFFF80007F
310
FFC000000001FFFFFC000000001FFFF800000000000000007FFFFFF0001FFFFF
310
FFFFE000000003FFFFFFFFE000000003FFFFFF000000000003FFF000000000FF
310
F000FF80000000007FFFFFF00007FFFF80003FFFFF80007FFF8000000000FFFF
310
F80000000007FFF800000000000000007FFFFFF0001FFFFFFFFFC000000001FF
310
FFFFFFC000000001FFFFFF000000000003FFC0000000007FF000FF0000000000
310
3FFFFFE00007FFFF00003FFFFF80007FFE00000000003FFFF00000000003FFF8
310
00000000000000007FFFFFF0001FFFFFFFFF8000000000FFFFFFFF8000000000
310
FFFFFF000000000003FF80000000003FF000FE00000000001FFFFFE00003FFFF
310
00003FFFFF80007FFC00000000001FFFE00000000001FFF8000001FFFE000000
310
7FFFFFF0001FFFFFFFFE00000000003FFFFFFE00000000003FFFFF0000000000
310
03FF00000000001FF000FC00000000000FFFFFE00003FFFF00001FFFFF80007F
310
F800000000001FFFC00000000000FFF8000001FFFE0000007FFFFFF0001FFFFF
310
FFFC00000000001FFFFFFC00000000001FFFFF000000000003FE00000000000F
310
F000F8000000000007FFFFE00003FFFF00001FFFFF80007FF800000000000FFF
310
800000000000FFF8000001FFFE0000007FFFFFF0001FFFFFFFF800000000000F
310
FFFFF800000000000FFFFF000000000003FC000000000007F000F80000000000
310
03FFFFC00003FFFE00001FFFFF80007FF0000000000007FF0000000000007FF8
310
000001FFFE0000007FFFFFF0001FFFFFFFF0000000000007FFFFF00000000000
310
07FFFF000000000003F8000000000003F000F0000000000003FFFFC00001FFFE
310
00001FFFFF80007FE0000000000007FE0000000000003FF8000001FFFE000000
310
7FFFFFF0001FFFFFFFF0000000000007FFFFF0000000000007FFFF0000000000
310
03F800001F800003F000E00001FFF00001FFFFC00001FFFE00000FFFFF80007F
310
E00001FFE00003FE00001FFF00003FF8000001FFFE0000007FFFFFF0001FFFFF
310
FFE000003E000003FFFFE000003E000003FFFF000000000003F00001FFF80001
310
F000E00007FFFC0001FFFFC00001FFFE00000FFFFF80007FC0000FFFFC0003FC
310
0000FFFFC0001FF8000001FFFE0000007FFFFFF0001FFFFFFFC00003FFE00001
310
FFFFC00003FFE00001FFFF0001FFFFFFFFF00007FFFE0001F000E0000FFFFF00
310
00FFFF800001FFFC00000FFFFF80007FC0001FFFFE0001FC0001FFFFE0001FF8
310
000001FFFE0000007FFFFFF0001FFFFFFF80000FFFF80000FFFF80000FFFF800
310
00FFFF0003FFFFFFFFE0000FFFFF8000F000C0003FFFFF8000FFFF800000FFFC
310
000007FFFF80007F80003FFFFF0001FC0003FFFFF0001FF8000001FFFE000000
310
7FFFFFF0001FFFFFFF80003FFFFE0000FFFF80003FFFFE0000FFFF0003FFFFFF
310
FFE0003FFFFF8000F000C0003FFFFF8000FFFF800000FFFC000007FFFF80007F
310
80007FFFFF8001F80007FFFFF8000FF8000001FFFE0000007FFFFFF0001FFFFF
310
FF00007FFFFF00007FFF00007FFFFF00007FFF0003FFFFFFFFE0003FFFFFC000
310
F000C0007FFFFFC000FFFF000000FFFC000007FFFF80007F8000FFFFFF8000F8
310
000FFFFFF8000FF8000001FFFE0000007FFFFFF0001FFFFFFF0000FFFFFF8000
310
7FFF0000FFFFFF80007FFF0003FFFFFFFFC0007FFFFFC00070008000FFFFFFC0
310
00FFFF000000FFF8000007FFFF80007F8000FFFFFF8000F8000FFFFFF8000FF8
310
000001FFFE0000007FFFFFF0001FFFFFFE0001FFFFFFC0003FFE0001FFFFFFC0
310
003FFF0003FFFFFFFFC0007FFFFFE00070008000FFFFFFC0007FFF0000007FF8
310
000003FFFF80007F0001FFFFFF8000F8000FFFFFF8000FF8000001FFFE000000
310
7FFFFFF0001FFFFFFE0001FFFFFFC0003FFE0001FFFFFFC0003FFF0003FFFFFF
310
FFC000FFFFFFE00070008000FFFFFFC0007FFF0000007FF8000003FFFF80007F
310
0001FFFFFF8000F8001FFFFFF8000FF8000001FFFE0000007FFFFFF0001FFFFF
310
FE0003FFFFFFE0003FFE0003FFFFFFE0003FFF0003FFFFFFFFC000FFFFFFE000
310
70008000FFFFFFC0007FFE0000007FF8000003FFFF80007F0001FFFFFF8000F0
310
001FFFFFF8000FF8000001FFFE0000007FFFFFF0001FFFFFFC0003FFFFFFE000
310
1FFC0003FFFFFFE0001FFF0003FFFFFFFFC000FFFFFFC00070008000FFFFFF80
310
007FFE0000007FF0000003FFFF80007F0001FFFFFF0000F0001FFFFFF8000FF8
310
000001FFFE0000007FFFFFF0001FFFFFFC0007FFFFFFF0001FFC0007FFFFFFF0
310
001FFF0003FFFFFFFFC000FFFFFFC00070008001FFFFFF0000FFFE0000003FF0
310
000001FFFF80007F0001FFFFFF0000F8001FFFFFF0000FF8000001FFFE000000
310
7FFFFFF0001FFFFFFC0007FFFFFFF0001FFC0007FFFFFFF0001FFF0003FFFFFF
310
FFC001FFFFFF80007000FFFFFFFFFE0000FFFE0008003FF0008001FFFF80007F
310
FFFFFFFFFC0000FFFFFFFFFFE0000FF8000001FFFE0000007FFFFFF0001FFFFF
310
F8000FFFFFFFF8000FF8000FFFFFFFF8000FFF0003FFFFFFFFFFFFFFFFFF0000
310
7000FFFFFFFFFC0000FFFC0008003FF0008001FFFF80007FFFFFFFFFF80001FF
310
FFFFFFFF80000FF8000001FFFE0000007FFFFFF0001FFFFFF8000FFFFFFFF800
310
0FF8000FFFFFFFF8000FFF0003FFFFFFFFFFFFFFFFFE0000F000FFFFFFFFE000
310
00FFFC000C003FE000C001FFFF80007FFFFFFFFFC00001FFFFFFFFFE00001FF8
310
000001FFFE0000007FFFFFF0001FFFFFF8000FFFFFFFF8000FF8000FFFFFFFF8
310
000FFF0003FFFFFFFFFFFFFFFFF00000F000FFFFFFFE000001FFFC000C001FE0
310
00C000FFFF80007FFFFFFFFE000001FFFFFFFFE000001FF80FFFFFFFFFFFFFC0
310
7FFFFFF0001FFFFFF8000FFFFFFFF8000FF8000FFFFFFFF8000FFF0003FFFFFF
310
FFFFFFFFFF800000F000FFFFFFC0000001FFFC001C001FE001C000FFFF80007F
310
FFFFFF80000003FFFFFFF80000001FF80FFFFFFFFFFFFFC07FFFFFF0001FFFFF
310
F8001FFFFFFFFC000FF8001FFFFFFFFC000FFF0003FFFFFFFFFFFFFFF0000001
310
F000FFFFF800000001FFF8001C001FE001C000FFFF80007FFFFFF800000003FF
310
FFFF800000003FF80FFFFFFFFFFFFFC07FFFFFF0001FFFFFF8001FFFFFFFFC00
310
0FF8001FFFFFFFFC000FFF0003FFFFFFFFFFFFFE00000001F000FFFFC0000000
310
03FFF8001E001FC001E000FFFF80007FFFFF8000000007FFFFFC000000003FF8
310
0FFFFFFFFFFFFFC07FFFFFF0001FFFFFF8001FFFFFFFFC000FF8001FFFFFFFFC
310
000FFF0003FFFFFFFFFFFFE000000003F000FFFE0000000007FFF8001E000FC0
310
01E0007FFF80007FFFFE0000000007FFFFE0000000007FF80FFFFFFFFFFFFFC0
310
7FFFFFF0001FFFFFF0001FFFFFFFFC0007F0001FFFFFFFFC0007FF0003FFFFFF
310
FFFFFF0000000003F000FFF80000000007FFF8001E000FC003E0007FFF80007F
310
FFF0000000000FFFFF8000000000FFF80FFFFFFFFFFFFFC07FFFFFF0001FFFFF
310
F0001FFFFFFFFC0007F0001FFFFFFFFC0007FF0003FFFFFFFFFFFC0000000007
310
F000FFE0000000000FFFF0003E000FC003E0007FFF80007FFFC0000000001FFF
310
FE0000000001FFF80FFFFFFFFFFFFFC07FFFFFF0001FFFFFF0001FFFFFFFFC00
310
07F0001FFFFFFFFC0007FF0003FFFFFFFFFFF0000000000FF000FFC000000000
310
1FFFF0003F000F8003F0003FFF80007FFF80000000003FFFF80000000003FFF8
310
0FFFFFFFFFFFFFC07FFFFFF0001FFFFFF0001FFFFFFFFC0007F0001FFFFFFFFC
310
0007FF0003FFFFFFFFFFE0000000001FF000FF00000000007FFFF0003F000780
310
03F0003FFF80007FFF00000000007FFFF00000000007FFF80FFFFFFFFFFFFFC0
310
7FFFFFF0001FFFFFF0001FFFFFFFFC0007F0001FFFFFFFFC0007FF0003FFFFFF
310
FFFF80000000007FF000FE0000000000FFFFE0003F00078007F0003FFF80007F
310
FE0000000001FFFFE0000000001FFFF80FFFFFFFFFFFFFC07FFFFFF0001FFFFF
310
F0001FFFFFFFFC0007F0001FFFFFFFFC0007FF0003FFFFFFFFFF0000000000FF
310
F000FC0000000003FFFFE0007F00078007F0003FFF80007FFC0000000007FFFF
310
C0000000007FFFF80FFFFFFFFFFFFFC07FFFFFF0001FFFFFF8001FFFFFFFFC00
310
0FF8001FFFFFFFFC000FFF0003FFFFFFFFFE0000000003FFF000FC000000000F
310
FFFFE0007F80070007F8001FFF80007FF8000000001FFFFF8000000001FFFFF8
310
0FFFFFFFFFFFFFC07FFFFFF0001FFFFFF8001FFFFFFFFC000FF8001FFFFFFFFC
310
000FFF0003FFFFFFFFFC000000000FFFF000F8000000007FFFFFE0007F800700
310
07F8001FFF80007FF000000000FFFFFF800000000FFFFFF80FFFFFFFFFFFFFC0
310
7FFFFFF0001FFFFFF8000FFFFFFFF8000FF8000FFFFFFFF8000FFF0003FFFFFF
310
FFFC000000007FFFF000F800000007FFFFFFC0007F8003000FF8001FFF80007F
310
F000000007FFFFFF000000007FFFFFF80FFFFFFFFFFFFFC07FFFFFF0001FFFFF
310
F8000FFFFFFFF8000FF8000FFFFFFFF8000FFF0003FFFFFFFFF80000000FFFFF
310
F000F0000000FFFFFFFFC000FF8003000FF8001FFF80007FE0000000FFFFFFFF
310
0000000FFFFFFFF8000001FFFE0000007FFFFFF0001FFFFFF8000FFFFFFFF800
310
0FF8000FFFFFFFF8000FFF0003FFFFFFFFF8000000FFFFFFF000F000000FFFFF
310
FFFFC000FFC002000FF8000FFF80007FE000001FFFFFFFFE000001FFFFFFFFF8
310
000001FFFE0000007FFFFFF0001FFFFFF8000FFFFFFFF8000FF8000FFFFFFFF8
310
000FFF0003FFFFFFFFF000001FFFFFFFF000E00000FFFFFFFFFFC000FFC00200
310
0FFC000FFF80007FE00001FFFFFFFFFE00001FFFFFFFFFF8000001FFFE000000
310
7FFFFFF0001FFFFFFC000FFFFFFFF8001FFC000FFFFFFFF8001FFF0003FFFFFF
310
FFF00001FFFFFFFFF000E00007FFFFFFFFFF8000FFC000001FFC000FFF80007F
310
C0000FFFFFFFFFFE0000FFFFFFFFFFF8000001FFFE0000007FFFFFF0001FFFFF
310
FC0007FFFFFFF0001FFC0007FFFFFFF0001FFF0003FFFFFFFFF00007FFFFFFFF
310
F000E0001FFFFFFFFFFF8000FFC000001FFC000FFF80007FC0003FFFFFFFFFFE
310
0001FFFFFFFFFFF8000001FFFE0000007FFFFFF0001FFFFFFC0007FFFFFFF000
310
1FFC0007FFFFFFF0001FFF0003FFFFFFFFF0001FFFFFFFFFF000E0003FFFFF00
310
03FF8001FFE000001FFC0007FF80007FC0007FFFFF0007FC0003FFFFF0003FF8
310
000001FFFE0000007FFFFFF0001FFFFFFC0003FFFFFFE0001FFC0003FFFFFFE0
310
001FFF0003FFFFFFFFF0003FFFFFFFFFF000E0003FFFFF0001FF8001FFE00000
310
1FFE0007FF80007FC0007FFFFE0003FC0007FFFFE0003FF8000001FFFE000000
310
7FFFFFF0001FFFFFFE0003FFFFFFE0003FFE0003FFFFFFE0003FFF0003FFFFFF
310
FFF0003FFFFF8001F000E0003FFFFF0001FF0001FFE000001FFE0007FF80007F
310
C0007FFFFE0003FC0007FFFFE0003FF8000001FFFE0000007FFFFFF0001FFFFF
310
FE0001FFFFFFC0003FFE0001FFFFFFC0003FFF0003FFFFFFFFF0003FFFFF0001
310
F000E0003FFFFF0003FF0001FFE000003FFE0007FF80007FC0007FFFFE0003FC
310
0007FFFFE0003FF8000001FFFE0000007FFFFFF0001FFFFFFF0001FFFFFFC000
310
7FFF0001FFFFFFC0007FFF0003FFFFFFFFF0003FFFFF0001F000E0003FFFFE00
310
03FF0003FFF000003FFE0003FF80007FC0007FFFFC0003FE0007FFFFE0003FF8
310
000001FFFE0000007FFFFFF0001FFFFFFF0000FFFFFF80007FFF0000FFFFFF80
310
007FFF0003FFFFFFFFF0003FFFFF0001F000E0003FFFFE0003FF0003FFF00000
310
3FFF0003FF80007FC0007FFFFC0007FE0007FFFFC0003FF8000001FFFE000000
310
7FFFFFF0001FFFFFFF80007FFFFF0000FFFF80007FFFFF0000FFFF0003FFFFFF
310
FFF0003FFFFF0003F000E0003FFFFC0003FE0003FFF000003FFF0003FF80007F
310
E0003FFFF80007FE0003FFFFC0007FF8000001FFFE0000007FFFFFF0001FFFFF
310
FF80003FFFFE0000FFFF80003FFFFE0000FFFF0003FFFFFFFFF0001FFFFE0003
310
F000F0001FFFF80003FE0003FFF000007FFF0001FF80007FE0003FFFF00007FE
310
0001FFFF80007FF8000001FFFE0000007FFFFFF0001FFFFFFFC0000FFFF80001
310
FFFFC0000FFFF80001FFFF0003FFFFFFFFF0001FFFFC0003F000F0000FFFF000
310
07FE0007FFF800007FFF0001FF80007FE0001FFFE00007FF0000FFFE00007FF8
310
000001FFFE0000007FFFFFF0001FFFFFFFC00003FFE00001FFFFC00003FFE000
310
01FFFF0003FFFFFFFFF8000FFFF80003F000F00003FFC00007FC0007FFF80000
310
7FFF8001FF80007FF00007FF80000FFF00007FF80000FFF8000001FFFE000000
310
7F80000000000001FFE000003E000003FFFFE000003E000003FFFF0003FFFFFF
310
FFF80003FFE00007F000F800000000000FFC0007FFF800007FFF8001FF80007F
310
F000000000000FFF000000000000FFF8000001FFFE0000007F80000000000001
310
FFF0000000000007FFFFF0000000000007FFFF0003FFFFFFFFFC00007E000007
310
F000F800000000000FFC0007FFF80000FFFF8000FF80007FF800000000001FFF
310
800000000001FFF8000001FFFE0000007F80000000000001FFF800000000000F
310
FFFFF800000000000FFFFF0003FFFFFFFFFC00000000000FF000FC0000000000
310
1FFC0007FFFC0000FFFF8000FF80007FF800000000003FFFC00000000001FFF8
310
000001FFFE0000007F80000000000001FFF800000000000FFFFFF80000000000
310
0FFFFF0003FFFFFFFFFE00000000001FF000FE00000000003FF8000FFFFC0000
310
FFFF8000FF80007FFC00000000003FFFC00000000003FFF8000001FFFE000000
310
7F80000000000001FFFC00000000001FFFFFFC00000000001FFFFF0003FFFFFF
310
FFFF00000000001FF000FF00000000003FF8000FFFFC0000FFFFC000FF80007F
310
FE00000000007FFFE00000000007FFF8000001FFFE0000007F80000000000001
310
FFFE00000000003FFFFFFE00000000003FFFFF0003FFFFFFFFFF80000000003F
310
F000FF80000000007FF8000FFFFC0001FFFFC0007F80007FFF0000000000FFFF
310
F0000000000FFFF800000000000000007F80000000000001FFFF8000000000FF
310
FFFFFF8000000000FFFFFF0003FFFFFFFFFFC0000000007FF000FFC000000000
310
FFF8000FFFFE0001FFFFC0007F80007FFF8000000001FFFFF8000000001FFFF8
310
00000000000000007F80000000000001FFFFC000000001FFFFFFFFC000000001
310
FFFFFF0003FFFFFFFFFFE000000000FFF000FFE000000003FFF0001FFFFE0001
310
FFFFC0007F80007FFFC000000007FFFFFE000000003FFFF80000000000000000
310
7F80000000000001FFFFE000000003FFFFFFFFE000000003FFFFFF0003FFFFFF
310
FFFFF000000003FFF000FFF80000000FFFF0001FFFFE0001FFFFE0007F80007F
310
FFF00000000FFFFFFF00000000FFFFF800000000000000007F80000000000001
310
FFFFF80000000FFFFFFFFFF80000000FFFFFFF0003FFFFFFFFFFFC0000000FFF
310
F000FFFE0000003FFFF0001FFFFE0003FFFFE0003F80007FFFFC0000003FFFFF
310
FFC0000003FFFFF800000000000000007F80000000000001FFFFFE0000003FFF
310
FFFFFFFE0000003FFFFFFF0003FFFFFFFFFFFF0000003FFFF000FFFF800000FF
310
FFF0001FFFFF0003FFFFE0003F80007FFFFF000001FFFFFFFFF800001FFFFFF8
310
00000000000000007F80000000000001FFFFFFC00001FFFFFFFFFFFFC00001FF
310
FFFFFF0003FFFFFFFFFFFFC00000FFFFF000FFFFF8000FFFFFFFFFFFFFFFFFFF
310
FFFFFFFFFFFFFFFFFFFFF0001FFFFFFFFFFF0000FFFFFFF80000000000000000
310
7FFFFFFFFFFFFFFFFFFFFFFC001FFFFFFFFFFFFFFC001FFFFFFFFFFFFFFFFFFF
310
FFFFFFFC001FFFFFF000FFFFFFFFFFFFFFFFFFFFFFFFFFFFFFFFFFFFFFFFFFFF
310
FFFFFFFFFFFFFFFFFFFFFFFFFFFFFFFFFFFFFFFFFFFFFFFFFFFFFFFFFFFFFFFF
310
FFFFFFFFFFFFFFFFFFFFFFFFFFFFFFFFFFFFFFFFFFFFFFFFFFFFFFFFFFFFFFFF
310
F000FFFFFFFFFFFFFFFFFFFFFFFFFFFFFFFFFFFFFFFFFFFFFFFFFFFFFFFFFFFF
310
FFFFFFFFFFFFFFFFFFFFFFFFFFFFFFFFFFFFFFFFFFFFFFFFFFFFFFFFFFFFFFFF
310
FFFFFFFFFFFFFFFFFFFFFFFFFFFFFFFFFFFFFFFFFFFFFFFFF000FFFFFFFFFFFF
310
FFFFFFFFFFFFFFFFFFFFFFFFFFFFFFFFFFFFFFFFFFFFFFFFFFFFFFFFFFFFFFFF
310
FFFFFFFFFFFFFFFFFFFFFFFFFFFFFFFFFFFFFFFFFFFFFFFFFFFFFFFFFFFFFFFF
310
FFFFFFFFFFFFFFFFFFFFFFFFFFFFFFFFF000FFFFFFFFFFFFFFFFFFFFFFFFFFFF
310
FFFFFFFFFFFFFFFFFFFFFFFFFFFFFFFFFFFFFFFFFFFFFFFFFFFFFFFFFFFFFFFF
310
FFFFFFFFFFFFFFFFFFFFFFFFFFFFFFFFFFFFFFFFFFFFFFFFFFFFFFFFFFFFFFFF
310
FFFFFFFFFFFFFFFFF000FFFFFFFFFFFFFFFFFFFFFFFFFFFFFFFFFFFFFFFFFFFF
310
FFFFFFFFFFFFFFFFFFFFFFFFFFFFFFFFFFFFFFFFFFFFFFFFFFFFFFFFFFFFFFFF
310
FFFFFFFFFFFFFFFFFFFFFFFFFFFFFFFFFFFFFFFFFFFFFFFFFFFFFFFFFFFFFFFF
310
F000FFFFFFFFFFFFFFFFFFFFFFFFFFFFFFFFFFFFFFFFFFFFFFFFFFFFFFFFFFFF
310
FFFFFFFFFFFFFFFFFFFFFFFFFFFFFFFFFFFFFFFFFFFFFFFFFFFFFFFFFFFFFFFF
310
FFFFFFFFFFFFFFFFFFFFFFFFFFFFFFFFFFFFFFFFFFFFFFFFF000FFFFFFFFFFFF
310
FFFFFFFFFFFFFFFFFFFFFFFFFFFFFFFFFFFFFFFFFFFFFFFFFFFFFFFFFFFFFFFF
310
FFFFFFFFFFFFFFFFFFFFFFFFFFFFFFFFFFFFFFFFFFFFFFFFFFFFFFFFFFFFFFFF
310
FFFFFFFFFFFFFFFFFFFFFFFFFFFFFFFFF000FFFFFFFFFFFFFFFFFFFFFFFFFFFF
310
FFFFFFFFFFFFFFFFFFFFFFFFFFFFFFFFFFFFFFFFFFFFFFFFFFFFFFFFFFFFFFFF
310
FFFFFFFFFFFFFFFFFFFFFFFFFFFFFFFFFFFFFFFFFFFFFFFFFFFFFFFFFFFFFFFF
310
FFFFFFFFFFFFFFFFF000FFFFFFFFFFFFFFFFFFFFFFFFFFFFFFFFFFFFFFFFFFFF
310
FFFFFFFFFFFFFFFFFFFFFFFFFFFFFFFFFFFFFFFFFFFFFFFFFFFFFFFFFFFFFFFF
310
FFFFFFFFFFFFFFFFFFFFFFFFFFFFFFFFFFFFFFFFFFFFFFFFFFFFFFFFFFFFFFFF
310
F000FFFFFFFFFFFFFFFFFFFFFFFFFFFFFFFFFFFFFFFFFFFFFFFFFFFFFFFFFFFF
310
FFFFFFFFFFFFFFFFFFFFFFFFFFFFFFFFFFFFFFFFFFFFFFFFFFFFFFFFFFFFFFFF
310
FFFFFFFFFFFFFFFFFFFFFFFFFFFFFFFFFFFFFFFFFFFFFFFFF000FFFFFFFFFFFF
310
FFFFFFFFFFFFFFFFFFFFFFFFFFFFFFFFFFFFFFFFFFFFFFFFFFFFFFFFFFFFFFFF
310
FFFFFFFFFFFFFFFFFFFFFFFFFFFFFFFFFFFFFFFFFFFFFFFFFFFFFFFFFFFFFFFF
310
FFFFFFFFFFFFFFFFFFFFFFFFFFFFFFFFF000FFFFFFFFFFFFFFFFFFFFFFFFFFFF
310
FFFFFFFFFFFFFFFFFFFFFFFFFFFFFFFFFFFFFFFFFFFFFFFFFFFFFFFFFFFFFFFF
310
FFFFFFFFFFFFFFFFFFFFFFFFFFFFFFFFFFFFFFFFFFFFFFFFFFFFFFFFFFFFFFFF
310
FFFFFFFFFFFFFFFFF000FFFFFFFFFFFFFFFFFFFFFFFFFFFFFFFFFFFFFFFFFFFF
310
FFFFFFFFFFFFFFFFFFFFFFFFFFFFFFFFFFFFFFFFFFFFFFFFFFFFFFFFFFFFFFFF
310
FFFFFFFFFFFFFFFFFFFFFFFFFFFFFFFFFFFFFFFFFFFFFFFFFFFFFFFFFFFFFFFF
310
F000FFFFFFFFFFFFFFFFFFFFFFFFFFFFFFFFFFFFFFFFFFFFFFFFFFFFFFFFFFFF
310
FFFFFFFFFFFFFFFFFFFFFFFFFFFFFFFFFFFFFFFFFFFFFFFFFFFFFFFFFFFFFFFF
310
FFFFFFFFFFFFFFFFFFFFFFFFFFFFFFFFFFFFFFFFFFFFFFFFF000FFFFFFFFFFFF
310
FFFFFFFFFFFFFFFFFFFFFFFFFFFFFFFFFFFFFFFFFFFFFFFFFFFFFFFFFFFFFFFF
310
FFFFFFFFFFFFFFFFFFFFFFFFFFFFFFFFFFFFFFFFFFFFFFFFFFFFFFFFFFFFFFFF
310
FFFFFFFFFFFFFFFFFFFFFFFFFFFFFFFFF000FFFFFFFFFFFFFFFFFFFFFFFFFFFF
310
FFFFFFFFFFFFFFFFFFFFFFFFFFFFFFFFFFFFFFFFFFFFFFFFFFFFFFFFFFFFFFFF
310
FFFFFFFFFFFFFFFFFFFFFFFFFFFFFFFFFFFFFFFFFFFFFFFFFFFFFFFFFFFFFFFF
310
FFFFFFFFFFFFFFFFF000FFFFFFFFFFFFFFFFFFFFFFFFFFFFFFFFFFFFFFFFFFFF
310
FFFFFFFFFFFFFFFFFFFFFFFFFFFFFFFFFFFFFFFFFFFFFFFFFFFFFFFFFFFFFFFF
310
FFFFFFFFFFFFFFFFFFFFFFFFFFFFFFFFFFFFFFFFFFFFFFFFFFFFFFFFFFFFFFFF
310
F000FFFFFFFFFFFFFFFFFFFFFFFFFFFFFFFFFFFFFFFFFFFFFFFFFFFFFFFFFFFF
310
FFFFFFFFFFFFFFFFFFFFFFFFFFFFFFFFFFFFFFFFFFFFFFFFFFFFFFFFFFFFFFFF
310
FFFFFFFFFFFFFFFFFFFFFFFFFFFFFFFFFFFFFFFFFFFFFFFFF000FFFFFFFFFFFF
310
FFFFFFFFFFFFFFFFFFFFFFFFFFFFFFFFFFFFFFFFFFFFFFFFFFFFFFFFFFFFFFFF
310
FFFFFFFFFFFFFFFFFFFFFFFFFFFFFFFFFFFFFFFFFFFFFFFFFFFFFFFFFFFFFFFF
310
FFFFFFFFFFFFFFFFFFFFFFFFFFFFFFFFF000FFFFFFFFFFFFFFFFFFFFFFFFFFFF
310
FFFFFFFFFFFFFFFFFFFFFFFFFFFFFFFFFFFFFFFFFFFFFFFFFFFFFFFFFFFFFFFF
310
FFFFFFFFFFFFFFFFFFFFFFFFFFFFFFFFFFFFFFFFFFFFFFFFFFFFFFFFFFFFFFFF
310
FFFFFFFFFFFFFFFFF000FFFFFFFFFFFFFFFFFFFFFFFFFFFFFFFFFFFFFFFFFFFF
310
FFFFFFFFFFFFFFFFFFFFFFFFFFFFFFFFFFFFFFFFFFFFFFFFFFFFFFFFFFFFFFFF
310
FFFFFFFFFFFFFFFFFFFFFFFFFFFFFFFFFFFFFFFFFFFFFFFFFFFFFFFFFFFFFFFF
310
F000FFFFFFFFFFFFFFFFFFFFFFFFFFFFFFFFFFFFFFFFFFFFFFFFFFFFFFFFFFFF
310
FFFFFFFFFFFFFFFFFFFFFFFFFFFFFFFFFFFFFFFFFFFFFFFFFFFFFFFFFFFFFFFF
310
FFFFFFFFFFFFFFFFFFFFFFFFFFFFFFFFFFFFFFFFFFFFFFFFF000FFFFFFFFFFFF
310
FFFFFFFFFFFFFFFFFFFFFFFFFFFFFFFFFFFFFFFFFFFFFFFFFFFFFFFFFFFFFFFF
310
FFFFFFFFFFFFFFFFFFFFFFFFFFFFFFFFFFFFFFFFFFFFFFFFFFFFFFFFFFFFFFFF
310
FFFFFFFFFFFFFFFFFFFFFFFFFFFFFFFFF0000000000000000000000000000000
310
0000000000000000000000000000000000000000000000000000000000000000
310
0000000000000000000000000000000000000000000000000000000000000000
310
0000000000000000000000000000000000000000000000000000000000000000
310
0000000000000000000000000000000000000000000000000000000000000000
310
0000000000000000000000000000000000000000000000000000000000000000
310
0000000000000000000000000000000000000000000000000000000000000000
310
0000000000000000000000000000000000000000000000000000000000000000
310
0000000000000000000000000000000000000000000000000000000000000000
310
0000000000000000000000000000000000000000000000000000000000000000
310
0000000000000000000000000000000000000000000000000000000000000000
310
0000000000000000000000000000000000000000000000000000000000000000
310
0000000000000000000000000000000000000000000000000000000000000000
310
0000000000000000000000000000000000000000000000000000000000000000
310
0000000000000000000000000000000000000000000000000000000000000000
310
0000000000000000000000000000000000000000000000000000000000000000
  1
OLE
  0
ENDSEC
  0
SECTION
  2
OBJECTS
  0
DICTIONARY
  5
C
330
0
100
AcDbDictionary
281
     1
  3
ACAD_GROUP
350
D
  3
ACAD_LAYOUT
350
1A
  3
ACAD_MLINESTYLE
350
17
  3
ACAD_PLOTSETTINGS
350
19
  3
ACAD_PLOTSTYLENAME
350
E
  0
DICTIONARY
  5
D
102
{ACAD_REACTORS
330
C
102
}
330
C
100
AcDbDictionary
281
     1
  0
DICTIONARY
  5
1A
102
{ACAD_REACTORS
330
C
102
}
330
C
100
AcDbDictionary
281
     1
  3
Layout1
350
1E
  3
Layout2
350
26
  3
Model
350
22
  0
DICTIONARY
  5
17
102
{ACAD_REACTORS
330
C
102
}
330
C
100
AcDbDictionary
281
     1
  3
Standard
350
18
  0
DICTIONARY
  5
19
102
{ACAD_REACTORS
330
C
102
}
330
C
100
AcDbDictionary
281
     1
  0
ACDBDICTIONARYWDFLT
  5
E
102
{ACAD_REACTORS
330
C
102
}
330
C
100
AcDbDictionary
281
     1
  3
Normal
350
F
100
AcDbDictionaryWithDefault
340
F
  0
LAYOUT
  5
1E
102
{ACAD_REACTORS
330
1A
102
}
330
1A
100
AcDbPlotSettings
  1

  2
none_device
  4

  6

 40
0.0
 41
0.0
 42
0.0
 43
0.0
 44
0.0
 45
0.0
 46
0.0
 47
0.0
 48
0.0
 49
0.0
140
0.0
141
0.0
142
1.0
143
1.0
 70
   688
 72
     0
 73
     0
 74
     5
  7

 75
    16
147
1.0
148
0.0
149
0.0
100
AcDbLayout
  1
Layout1
 70
     1
 71
     1
 10
0.0
 20
0.0
 11
420.0
 21
297.0
 12
0.0
 22
0.0
 32
0.0
 14
1.0000000000E+20
 24
1.0000000000E+20
 34
1.0000000000E+20
 15
-1.0000000000E+20
 25
-1.0000000000E+20
 35
-1.0000000000E+20
146
0.0
 13
0.0
 23
0.0
 33
0.0
 16
1.0
 26
0.0
 36
0.0
 17
0.0
 27
1.0
 37
0.0
 76
     0
330
1B
  0
LAYOUT
  5
26
102
{ACAD_REACTORS
330
1A
102
}
330
1A
100
AcDbPlotSettings
  1

  2
none_device
  4

  6

 40
0.0
 41
0.0
 42
0.0
 43
0.0
 44
0.0
 45
0.0
 46
0.0
 47
0.0
 48
0.0
 49
0.0
140
0.0
141
0.0
142
1.0
143
1.0
 70
   688
 72
     0
 73
     0
 74
     5
  7

 75
    16
147
1.0
148
0.0
149
0.0
100
AcDbLayout
  1
Layout2
 70
     1
 71
     2
 10
0.0
 20
0.0
 11
0.0
 21
0.0
 12
0.0
 22
0.0
 32
0.0
 14
0.0
 24
0.0
 34
0.0
 15
0.0
 25
0.0
 35
0.0
146
0.0
 13
0.0
 23
0.0
 33
0.0
 16
1.0
 26
0.0
 36
0.0
 17
0.0
 27
1.0
 37
0.0
 76
     0
330
23
  0
LAYOUT
  5
22
102
{ACAD_REACTORS
330
1A
102
}
330
1A
100
AcDbPlotSettings
  1

  2
none_device
  4

  6

 40
0.0
 41
0.0
 42
0.0
 43
0.0
 44
0.0
 45
0.0
 46
0.0
 47
0.0
 48
0.0
 49
0.0
140
0.0
141
0.0
142
1.0
143
1.0
 70
  1712
 72
     0
 73
     0
 74
     0
  7

 75
     0
147
1.0
148
0.0
149
0.0
100
AcDbLayout
  1
Model
 70
     1
 71
     0
 10
0.0
 20
0.0
 11
297.0
 21
210.0
 12
0.0
 22
0.0
 32
0.0
 14
0.0
 24
0.0
 34
0.0
 15
297.0
 25
210.0
 35
0.0
146
0.0
 13
0.0
 23
0.0
 33
0.0
 16
1.0
 26
0.0
 36
0.0
 17
0.0
 27
1.0
 37
0.0
 76
     0
330
1F
331
29
  0
MLINESTYLE
  5
18
102
{ACAD_REACTORS
330
17
102
}
330
17
100
AcDbMlineStyle
  2
Standard
 70
     0
  3

 62
   256
 51
90.0
 52
90.0
 71
     2
 49
0.5
 62
   256
  6
BYLAYER
 49
-0.5
 62
   256
  6
BYLAYER
  0
ACDBPLACEHOLDER
  5
F
102
{ACAD_REACTORS
330
E
102
}
330
E
  0
ENDSEC
  0
EOF
