  0
SECTION
  2
HEADER
  9
$ACADVER
  1
AC1015
  9
$ACADMAINTVER
 70
     6
  9
$DWGCODEPAGE
  3
ANSI_1252
  9
$INSBASE
 10
0.0
 20
0.0
 30
0.0
  9
$EXTMIN
 10
0.0
 20
0.0
 30
0.0
  9
$EXTMAX
 10
297.0
 20
210.0
 30
0.0
  9
$LIMMIN
 10
0.0
 20
0.0
  9
$LIMMAX
 10
297.0
 20
210.0
  9
$ORTHOMODE
 70
     0
  9
$REGENMODE
 70
     1
  9
$FILLMODE
 70
     1
  9
$QTEXTMODE
 70
     0
  9
$MIRRTEXT
 70
     1
  9
$LTSCALE
 40
1.0
  9
$ATTMODE
 70
     1
  9
$TEXTSIZE
 40
2.0
  9
$TRACEWID
 40
1.0
  9
$TEXTSTYLE
  7
Standard
  9
$CLAYER
  8
0
  9
$CELTYPE
  6
ByLayer
  9
$CECOLOR
 62
   256
  9
$CELTSCALE
 40
1.0
  9
$DISPSILH
 70
     0
  9
$DIMSCALE
 40
1.0
  9
$DIMASZ
 40
3.0
  9
$DIMEXO
 40
0.0
  9
$DIMDLI
 40
3.75
  9
$DIMRND
 40
0.0
  9
$DIMDLE
 40
0.0
  9
$DIMEXE
 40
1.0
  9
$DIMTP
 40
0.0
  9
$DIMTM
 40
0.0
  9
$DIMTXT
 40
2.0
  9
$DIMCEN
 40
2.5
  9
$DIMTSZ
 40
0.0
  9
$DIMTOL
 70
     0
  9
$DIMLIM
 70
     0
  9
$DIMTIH
 70
     1
  9
$DIMTOH
 70
     1
  9
$DIMSE1
 70
     0
  9
$DIMSE2
 70
     0
  9
$DIMTAD
 70
     1
  9
$DIMZIN
 70
     0
  9
$DIMBLK
  1

  9
$DIMASO
 70
     1
  9
$DIMSHO
 70
     1
  9
$DIMPOST
  1

  9
$DIMAPOST
  1

  9
$DIMALT
 70
     0
  9
$DIMALTD
 70
     3
  9
$DIMALTF
 40
0.0393700787
  9
$DIMLFAC
 40
1.0
  9
$DIMTOFL
 70
     1
  9
$DIMTVP
 40
0.0
  9
$DIMTIX
 70
     0
  9
$DIMSOXD
 70
     0
  9
$DIMSAH
 70
     0
  9
$DIMBLK1
  1

  9
$DIMBLK2
  1

  9
$DIMSTYLE
  2
ISO-25
  9
$DIMCLRD
 70
     0
  9
$DIMCLRE
 70
     0
  9
$DIMCLRT
 70
     0
  9
$DIMTFAC
 40
1.0
  9
$DIMGAP
 40
1.524
  9
$DIMJUST
 70
     0
  9
$DIMSD1
 70
     0
  9
$DIMSD2
 70
     0
  9
$DIMTOLJ
 70
     0
  9
$DIMTZIN
 70
     0
  9
$DIMALTZ
 70
     0
  9
$DIMALTTZ
 70
     0
  9
$DIMUPT
 70
     0
  9
$DIMDEC
 70
     2
  9
$DIMTDEC
 70
     3
  9
$DIMALTU
 70
     2
  9
$DIMALTTD
 70
     3
  9
$DIMTXSTY
  7
Standard
  9
$DIMAUNIT
 70
     0
  9
$DIMADEC
 70
     2
  9
$DIMALTRND
 40
0.0
  9
$DIMAZIN
 70
     0
  9
$DIMDSEP
 70
    44
  9
$DIMATFIT
 70
     3
  9
$DIMFRAC
 70
     0
  9
$DIMLDRBLK
  1

  9
$DIMLUNIT
 70
     2
  9
$DIMLWD
 70
    -2
  9
$DIMLWE
 70
    -2
  9
$DIMTMOVE
 70
     0
  9
$LUNITS
 70
     2
  9
$LUPREC
 70
     2
  9
$SKETCHINC
 40
1.0
  9
$FILLETRAD
 40
10.0
  9
$AUNITS
 70
     0
  9
$AUPREC
 70
     2
  9
$MENU
  1
.
  9
$ELEVATION
 40
0.0
  9
$PELEVATION
 40
0.0
  9
$THICKNESS
 40
0.0
  9
$LIMCHECK
 70
     0
  9
$CHAMFERA
 40
10.0
  9
$CHAMFERB
 40
10.0
  9
$CHAMFERC
 40
20.0
  9
$CHAMFERD
 40
0.0
  9
$SKPOLY
 70
     0
  9
$TDCREATE
 40
2456080.661820949
  9
$TDUCREATE
 40
2456080.578487616
  9
$TDUPDATE
 40
2456080.66182257
  9
$TDUUPDATE
 40
2456080.578489236
  9
$TDINDWG
 40
0.0000000116
  9
$TDUSRTIMER
 40
0.0000000116
  9
$USRTIMER
 70
     1
  9
$ANGBASE
 50
0.0
  9
$ANGDIR
 70
     0
  9
$PDMODE
 70
     0
  9
$PDSIZE
 40
-1.0
  9
$PLINEWID
 40
0.0
  9
$SPLFRAME
 70
     0
  9
$SPLINETYPE
 70
     6
  9
$SPLINESEGS
 70
     8
  9
$HANDSEED
  5
21F
  9
$SURFTAB1
 70
     6
  9
$SURFTAB2
 70
     6
  9
$SURFTYPE
 70
     6
  9
$SURFU
 70
     6
  9
$SURFV
 70
     6
  9
$UCSBASE
  2

  9
$UCSNAME
  2

  9
$UCSORG
 10
0.0
 20
0.0
 30
0.0
  9
$UCSXDIR
 10
1.0
 20
0.0
 30
0.0
  9
$UCSYDIR
 10
0.0
 20
1.0
 30
0.0
  9
$UCSORTHOREF
  2

  9
$UCSORTHOVIEW
 70
     0
  9
$UCSORGTOP
 10
0.0
 20
0.0
 30
0.0
  9
$UCSORGBOTTOM
 10
0.0
 20
0.0
 30
0.0
  9
$UCSORGLEFT
 10
0.0
 20
0.0
 30
0.0
  9
$UCSORGRIGHT
 10
0.0
 20
0.0
 30
0.0
  9
$UCSORGFRONT
 10
0.0
 20
0.0
 30
0.0
  9
$UCSORGBACK
 10
0.0
 20
0.0
 30
0.0
  9
$PUCSBASE
  2

  9
$PUCSNAME
  2

  9
$PUCSORG
 10
0.0
 20
0.0
 30
0.0
  9
$PUCSXDIR
 10
1.0
 20
0.0
 30
0.0
  9
$PUCSYDIR
 10
0.0
 20
1.0
 30
0.0
  9
$PUCSORTHOREF
  2

  9
$PUCSORTHOVIEW
 70
     0
  9
$PUCSORGTOP
 10
0.0
 20
0.0
 30
0.0
  9
$PUCSORGBOTTOM
 10
0.0
 20
0.0
 30
0.0
  9
$PUCSORGLEFT
 10
0.0
 20
0.0
 30
0.0
  9
$PUCSORGRIGHT
 10
0.0
 20
0.0
 30
0.0
  9
$PUCSORGFRONT
 10
0.0
 20
0.0
 30
0.0
  9
$PUCSORGBACK
 10
0.0
 20
0.0
 30
0.0
  9
$USERI1
 70
     0
  9
$USERI2
 70
     0
  9
$USERI3
 70
     0
  9
$USERI4
 70
     0
  9
$USERI5
 70
     0
  9
$USERR1
 40
0.0
  9
$USERR2
 40
0.0
  9
$USERR3
 40
0.0
  9
$USERR4
 40
0.0
  9
$USERR5
 40
0.0
  9
$WORLDVIEW
 70
     1
  9
$SHADEDGE
 70
     3
  9
$SHADEDIF
 70
    70
  9
$TILEMODE
 70
     1
  9
$MAXACTVP
 70
    64
  9
$PINSBASE
 10
0.0
 20
0.0
 30
0.0
  9
$PLIMCHECK
 70
     0
  9
$PEXTMIN
 10
1.0000000000E+20
 20
1.0000000000E+20
 30
1.0000000000E+20
  9
$PEXTMAX
 10
-1.0000000000E+20
 20
-1.0000000000E+20
 30
-1.0000000000E+20
  9
$PLIMMIN
 10
0.0
 20
0.0
  9
$PLIMMAX
 10
420.0
 20
297.0
  9
$UNITMODE
 70
     0
  9
$VISRETAIN
 70
     1
  9
$PLINEGEN
 70
     0
  9
$PSLTSCALE
 70
     1
  9
$TREEDEPTH
 70
  3020
  9
$CMLSTYLE
  2
Standard
  9
$CMLJUST
 70
     0
  9
$CMLSCALE
 40
20.0
  9
$PROXYGRAPHICS
 70
     1
  9
$MEASUREMENT
 70
     1
  9
$CELWEIGHT
370
    -1
  9
$ENDCAPS
280
     0
  9
$JOINSTYLE
280
     0
  9
$LWDISPLAY
290
     1
  9
$INSUNITS
 70
     4
  9
$HYPERLINKBASE
  1

  9
$STYLESHEET
  1

  9
$XEDIT
290
     1
  9
$CEPSNTYPE
380
     0
  9
$PSTYLEMODE
290
     1
  9
$FINGERPRINTGUID
  2
{40BBFB5E-C380-43E1-8BF6-B65FBE4356C1}
  9
$VERSIONGUID
  2
{FAEB1C32-E019-11D5-929B-00C0DF256EC4}
  9
$EXTNAMES
290
     1
  9
$PSVPSCALE
 40
0.0
  9
$OLESTARTUP
290
     0
  0
ENDSEC
  0
SECTION
  2
CLASSES
  0
CLASS
  1
ACDBDICTIONARYWDFLT
  2
AcDbDictionaryWithDefault
  3
ObjectDBX Classes
 90
        0
280
     0
281
     0
  0
CLASS
  1
VISUALSTYLE
  2
AcDbVisualStyle
  3
ObjectDBX Classes
 90
     4095
280
     0
281
     0
  0
CLASS
  1
MATERIAL
  2
AcDbMaterial
  3
ObjectDBX Classes
 90
     1153
280
     0
281
     0
  0
CLASS
  1
ACDBPLACEHOLDER
  2
AcDbPlaceHolder
  3
ObjectDBX Classes
 90
        0
280
     0
281
     0
  0
CLASS
  1
LAYOUT
  2
AcDbLayout
  3
ObjectDBX Classes
 90
        0
280
     0
281
     0
  0
ENDSEC
  0
SECTION
  2
TABLES
  0
TABLE
  2
VPORT
  5
8
330
0
100
AcDbSymbolTable
 70
     1
  0
VPORT
  5
29
330
8
100
AcDbSymbolTableRecord
100
AcDbViewportTableRecord
  2
*Active
 70
     0
 10
0.0
 20
0.0
 11
1.0
 21
1.0
 12
148.5
 22
105.0
 13
0.0
 23
0.0
 14
10.0
 24
10.0
 15
10.0
 25
10.0
 16
0.0
 26
0.0
 36
1.0
 17
0.0
 27
0.0
 37
0.0
 40
210.0
 41
1.4142857143
 42
50.0
 43
0.0
 44
0.0
 50
0.0
 51
0.0
 71
     0
 72
  2000
 73
     1
 74
     3
 75
     0
 76
     0
 77
     0
 78
     0
281
     0
 65
     1
110
0.0
120
0.0
130
0.0
111
1.0
121
0.0
131
0.0
112
0.0
122
1.0
132
0.0
 79
     0
146
0.0
  0
ENDTAB
  0
TABLE
  2
LTYPE
  5
5
330
0
100
AcDbSymbolTable
 70
     6
  0
LTYPE
  5
14
330
5
100
AcDbSymbolTableRecord
100
AcDbLinetypeTableRecord
  2
ByBlock
 70
     0
  3

 72
    65
 73
     0
 40
0.0
  0
LTYPE
  5
15
330
5
100
AcDbSymbolTableRecord
100
AcDbLinetypeTableRecord
  2
ByLayer
 70
     0
  3

 72
    65
 73
     0
 40
0.0
  0
LTYPE
  5
16
330
5
100
AcDbSymbolTableRecord
100
AcDbLinetypeTableRecord
  2
Continuous
 70
     0
  3
Solid line
 72
    65
 73
     0
 40
0.0
  0
LTYPE
  5
3F
330
5
100
AcDbSymbolTableRecord
100
AcDbLinetypeTableRecord
  2
HIDDEN
 70
     0
  3
Hidden __ __ __ __ __ __ __ __ __ __ __ __ __ __
 72
    65
 73
     2
 40
1.905
 49
1.27
 74
     0
 49
-0.635
 74
     0
  0
LTYPE
  5
40
330
5
100
AcDbSymbolTableRecord
100
AcDbLinetypeTableRecord
  2
PHANTOM
 70
     0
  3
Phantom ______  __  __  ______  __  __  ______
 72
    65
 73
     6
 40
12.7
 49
6.35
 74
     0
 49
-1.27
 74
     0
 49
1.27
 74
     0
 49
-1.27
 74
     0
 49
1.27
 74
     0
 49
-1.27
 74
     0
  0
LTYPE
  5
41
330
5
100
AcDbSymbolTableRecord
100
AcDbLinetypeTableRecord
  2
CENTER
 70
     0
  3
Center ____ _ ____ _ ____ _ ____ _ ____ _ ____
 72
    65
 73
     4
 40
10.16
 49
6.35
 74
     0
 49
-1.27
 74
     0
 49
1.27
 74
     0
 49
-1.27
 74
     0
  0
LTYPE
  5
42
330
5
100
AcDbSymbolTableRecord
100
AcDbLinetypeTableRecord
  2
CENTERX2
 70
     0
  3
Center (2x) ________  __  ________  __  _____
 72
    65
 73
     4
 40
20.32
 49
12.7
 74
     0
 49
-2.54
 74
     0
 49
2.54
 74
     0
 49
-2.54
 74
     0
  0
LTYPE
  5
43
330
5
100
AcDbSymbolTableRecord
100
AcDbLinetypeTableRecord
  2
DOT2
 70
     0
  3
Dot (.5x) ........................................
 72
    65
 73
     2
 40
0.635
 49
0.0
 74
     0
 49
-0.635
 74
     0
  0
ENDTAB
  0
TABLE
  2
LAYER
  5
2
330
0
100
AcDbSymbolTable
 70
     5
  0
LAYER
  5
10
330
2
100
AcDbSymbolTableRecord
100
AcDbLayerTableRecord
  2
0
 70
     0
 62
     7
  6
Continuous
370
    -3
390
F
  0
LAYER
  5
44
330
2
100
AcDbSymbolTableRecord
100
AcDbLayerTableRecord
  2
FORMAT
 70
     0
 62
     7
  6
Continuous
370
    -3
390
F
  0
LAYER
  5
45
330
2
100
AcDbSymbolTableRecord
100
AcDbLayerTableRecord
  2
VERMASSUNG
 70
     0
 62
     7
  6
Continuous
370
    -3
390
F
  0
LAYER
  5
46
330
2
100
AcDbSymbolTableRecord
100
AcDbLayerTableRecord
  2
KOPF_DÜNN
 70
     0
 62
     7
  6
Continuous
370
    -3
390
F
  0
LAYER
  5
47
330
2
100
AcDbSymbolTableRecord
100
AcDbLayerTableRecord
  2
KOPF_DICK
 70
     0
 62
     7
  6
Continuous
370
    15
390
F
  0
ENDTAB
  0
TABLE
  2
STYLE
  5
3
330
0
100
AcDbSymbolTable
 70
     2
  0
STYLE
  5
11
330
3
100
AcDbSymbolTableRecord
100
AcDbTextStyleTableRecord
  2
Standard
 70
     0
 40
0.0
 41
1.0
 50
0.0
 71
     0
 42
2.0
  3
txt
  4

  0
STYLE
  5
48
330
3
100
AcDbSymbolTableRecord
100
AcDbTextStyleTableRecord
  2
SLDTEXTSTYLE0
 70
     0
 40
0.0
 41
0.7
 50
0.0
 71
     0
 42
0.2
  3
TXT
  4

  0
ENDTAB
  0
TABLE
  2
VIEW
  5
6
330
0
100
AcDbSymbolTable
 70
     0
  0
ENDTAB
  0
TABLE
  2
UCS
  5
7
330
0
100
AcDbSymbolTable
 70
     0
  0
ENDTAB
  0
TABLE
  2
APPID
  5
9
330
0
100
AcDbSymbolTable
 70
     1
  0
APPID
  5
12
330
9
100
AcDbSymbolTableRecord
100
AcDbRegAppTableRecord
  2
ACAD
 70
     0
  0
ENDTAB
  0
TABLE
  2
DIMSTYLE
  5
A
330
0
100
AcDbSymbolTable
 70
     5
100
AcDbDimStyleTable
  0
DIMSTYLE
105
27
330
A
100
AcDbSymbolTableRecord
100
AcDbDimStyleTableRecord
  2
ISO-25
 70
     0
 41
2.5
 42
0.625
 43
3.75
 44
1.25
 73
     0
 74
     0
 77
     1
 78
     8
140
2.5
141
2.5
143
0.0393700787
147
0.625
171
     3
172
     1
178
     0
271
     2
272
     2
274
     3
278
    44
283
     0
284
     8
340
11
  0
DIMSTYLE
105
198
102
{ACAD_REACTORS
330
197
330
1AB
330
1B5
330
1BF
330
1CB
102
}
330
A
100
AcDbSymbolTableRecord
100
AcDbDimStyleTableRecord
  2
SLDDIMSTYLE0
 70
     0
 41
3.0
 44
0.0
 45
0.000000001
 73
     0
 74
     0
 77
     1
 78
    12
 79
     3
140
2.0
147
0.5
173
     1
178
     0
271
     2
272
     3
276
     2
284
    12
340
48
  0
DIMSTYLE
105
1A3
102
{ACAD_REACTORS
330
1A2
102
}
330
A
100
AcDbSymbolTableRecord
100
AcDbDimStyleTableRecord
  2
SLDDIMSTYLE1
 70
     0
 41
3.0
 44
0.0
 73
     0
 74
     0
 77
     1
 78
    12
 79
     3
140
2.0
147
0.5
173
     1
178
     0
179
     1
272
     3
276
     2
284
    12
340
48
  0
DIMSTYLE
105
1F7
102
{ACAD_REACTORS
330
1F6
102
}
330
A
100
AcDbSymbolTableRecord
100
AcDbDimStyleTableRecord
  2
SLDDIMSTYLE2
 70
     0
 41
3.0
 44
0.0
 45
0.000000001
 73
     0
 74
     0
 77
     1
 78
    12
 79
     3
140
2.0
147
0.5
172
     1
173
     1
178
     0
271
     2
272
     3
276
     2
284
    12
289
     0
340
48
  0
DIMSTYLE
105
206
102
{ACAD_REACTORS
330
205
102
}
330
A
100
AcDbSymbolTableRecord
100
AcDbDimStyleTableRecord
  2
SLDDIMSTYLE3
 70
     0
 41
3.0
 44
0.0
 73
     0
 74
     0
 77
     1
 78
    12
 79
     3
140
2.0
147
0.5
173
     1
178
     0
179
     2
272
     3
276
     2
284
    12
340
48
  0
ENDTAB
  0
TABLE
  2
BLOCK_RECORD
  5
1
330
0
100
AcDbSymbolTable
 70
    10
  0
BLOCK_RECORD
  5
1F
330
1
100
AcDbSymbolTableRecord
100
AcDbBlockTableRecord
  2
*Model_Space
340
22
  0
BLOCK_RECORD
  5
1B
330
1
100
AcDbSymbolTableRecord
100
AcDbBlockTableRecord
  2
*Paper_Space
340
1E
  0
BLOCK_RECORD
  5
23
330
1
100
AcDbSymbolTableRecord
100
AcDbBlockTableRecord
  2
*Paper_Space0
340
26
  0
BLOCK_RECORD
  5
199
330
1
100
AcDbSymbolTableRecord
100
AcDbBlockTableRecord
  2
_D
340
0
  0
BLOCK_RECORD
  5
1A4
330
1
100
AcDbSymbolTableRecord
100
AcDbBlockTableRecord
  2
_D_1
340
0
  0
BLOCK_RECORD
  5
1AC
330
1
100
AcDbSymbolTableRecord
100
AcDbBlockTableRecord
  2
_D_2
340
0
  0
BLOCK_RECORD
  5
1B6
330
1
100
AcDbSymbolTableRecord
100
AcDbBlockTableRecord
  2
_D_3
340
0
  0
BLOCK_RECORD
  5
1C0
330
1
100
AcDbSymbolTableRecord
100
AcDbBlockTableRecord
  2
_D_4
340
0
  0
BLOCK_RECORD
  5
1CC
330
1
100
AcDbSymbolTableRecord
100
AcDbBlockTableRecord
  2
_D_5
340
0
  0
BLOCK_RECORD
  5
1F8
330
1
100
AcDbSymbolTableRecord
100
AcDbBlockTableRecord
  2
_D_6
340
0
  0
BLOCK_RECORD
  5
207
330
1
100
AcDbSymbolTableRecord
100
AcDbBlockTableRecord
  2
_D_7
340
0
  0
BLOCK_RECORD
  5
212
330
1
100
AcDbSymbolTableRecord
100
AcDbBlockTableRecord
  2
SW_CENTERMARKSYMBOL_0
340
0
102
{BLKREFS
331
21D
102
}
  0
ENDTAB
  0
ENDSEC
  0
SECTION
  2
BLOCKS
  0
BLOCK
  5
20
330
1F
100
AcDbEntity
  8
0
100
AcDbBlockBegin
  2
*Model_Space
 70
     0
 10
0.0
 20
0.0
 30
0.0
  3
*Model_Space
  1

  0
ENDBLK
  5
21
330
1F
100
AcDbEntity
  8
0
100
AcDbBlockEnd
  0
BLOCK
  5
1C
330
1B
100
AcDbEntity
 67
     1
  8
0
100
AcDbBlockBegin
  2
*Paper_Space
 70
     0
 10
0.0
 20
0.0
 30
0.0
  3
*Paper_Space
  1

  0
ENDBLK
  5
1D
330
1B
100
AcDbEntity
 67
     1
  8
0
100
AcDbBlockEnd
  0
BLOCK
  5
24
330
23
100
AcDbEntity
  8
0
100
AcDbBlockBegin
  2
*Paper_Space0
 70
     0
 10
0.0
 20
0.0
 30
0.0
  3
*Paper_Space0
  1

  0
ENDBLK
  5
25
330
23
100
AcDbEntity
  8
0
100
AcDbBlockEnd
  0
BLOCK
  5
19A
330
199
100
AcDbEntity
  8
0
100
AcDbBlockBegin
  2
_D
 70
     0
 10
0.0
 20
0.0
 30
0.0
  3
_D
  1

  0
SOLID
  5
19C
330
199
100
AcDbEntity
  8
VERMASSUNG
100
AcDbTrace
 10
276.0914555561
 20
133.3363626376
 30
0.0
 11
275.6414555561
 21
130.3363626376
 31
0.0
 12
276.5414555561
 22
130.3363626376
 32
0.0
 13
276.5414555561
 23
130.3363626376
 33
0.0
  0
SOLID
  5
19D
330
199
100
AcDbEntity
  8
VERMASSUNG
100
AcDbTrace
 10
276.0914555561
 20
111.3363626376
 30
0.0
 11
276.5414555561
 21
114.3363626376
 31
0.0
 12
275.6414555561
 22
114.3363626376
 32
0.0
 13
275.6414555561
 23
114.3363626376
 33
0.0
  0
LINE
  5
19E
330
199
100
AcDbEntity
  8
VERMASSUNG
100
AcDbLine
 10
260.0581153798
 20
133.3363626376
 30
0.0
 11
277.0914555561
 21
133.3363626376
 31
0.0
  0
LINE
  5
19F
330
199
100
AcDbEntity
  8
VERMASSUNG
100
AcDbLine
 10
260.0581153798
 20
111.3363626376
 30
0.0
 11
277.0914555561
 21
111.3363626376
 31
0.0
  0
LINE
  5
1A0
330
199
100
AcDbEntity
  8
VERMASSUNG
100
AcDbLine
 10
276.0914555561
 20
133.3363626376
 30
0.0
 11
276.0914555561
 21
111.3363626376
 31
0.0
  0
MTEXT
  5
1A1
330
199
100
AcDbEntity
  8
VERMASSUNG
100
AcDbMText
 10
273.513320193
 20
120.0363625866
 30
0.1
 40
2.0
 41
0.0
 71
     1
 72
     1
  1
22
  7
SLDTEXTSTYLE0
 11
-7.044195017643634E-15
 21
1.0
 31
0.0
 73
     1
 44
1.0
  0
ENDBLK
  5
19B
330
199
100
AcDbEntity
  8
0
100
AcDbBlockEnd
  0
BLOCK
  5
1A5
330
1A4
100
AcDbEntity
  8
0
100
AcDbBlockBegin
  2
_D_1
 70
     0
 10
0.0
 20
0.0
 30
0.0
  3
_D_1
  1

  0
ARC
  5
1A7
330
1A4
100
AcDbEntity
  8
VERMASSUNG
100
AcDbCircle
 10
260.0946387802
 20
133.3363626376
 30
0.0
 40
10.44518484989471
100
AcDbArc
 50
264.9878526278
 51
0.0
  0
SOLID
  5
1A8
330
1A4
100
AcDbEntity
  8
VERMASSUNG
100
AcDbTrace
 10
259.182074883
 20
122.9311181099
 30
0.0
 11
262.2015159306
 21
122.638755732
 31
0.0
 12
262.1544096873
 22
123.5375221098
 32
0.0
 13
262.1544096873
 23
123.5375221098
 33
0.0
  0
SOLID
  5
1A9
330
1A4
100
AcDbEntity
  8
VERMASSUNG
100
AcDbTrace
 10
270.5398236301
 20
133.3363626376
 30
0.0
 11
269.6760545859
 21
130.4283731194
 31
0.0
 12
270.5672687301
 22
130.3029245278
 32
0.0
 13
270.5672687301
 23
130.3029245278
 33
0.0
  0
MTEXT
  5
1AA
330
1A4
100
AcDbEntity
  8
VERMASSUNG
100
AcDbMText
 10
263.2706133947
 20
125.5766168936
 30
0.1
 40
2.0
 41
0.0
 71
     1
 72
     1
  1
95°
  7
SLDTEXTSTYLE0
 11
0.7373489491615084
 21
0.6755120481312078
 31
0.0
 73
     1
 44
1.0
  0
ENDBLK
  5
1A6
330
1A4
100
AcDbEntity
  8
0
100
AcDbBlockEnd
  0
BLOCK
  5
1AD
330
1AC
100
AcDbEntity
  8
0
100
AcDbBlockBegin
  2
_D_2
 70
     0
 10
0.0
 20
0.0
 30
0.0
  3
_D_2
  1

  0
SOLID
  5
1AF
330
1AC
100
AcDbEntity
  8
VERMASSUNG
100
AcDbTrace
 10
150.0581153798
 20
146.3363626376
 30
0.0
 11
153.0581153798
 21
145.8863626376
 31
0.0
 12
153.0581153798
 22
146.7863626376
 32
0.0
 13
153.0581153798
 23
146.7863626376
 33
0.0
  0
SOLID
  5
1B0
330
1AC
100
AcDbEntity
  8
VERMASSUNG
100
AcDbTrace
 10
260.0581153798
 20
146.3363626376
 30
0.0
 11
257.0581153798
 21
146.7863626376
 31
0.0
 12
257.0581153798
 22
145.8863626376
 32
0.0
 13
257.0581153798
 23
145.8863626376
 33
0.0
  0
LINE
  5
1B1
330
1AC
100
AcDbEntity
  8
VERMASSUNG
100
AcDbLine
 10
150.0581153798
 20
136.0363626376
 30
0.0
 11
150.0581153798
 21
147.3363626376
 31
0.0
  0
LINE
  5
1B2
330
1AC
100
AcDbEntity
  8
VERMASSUNG
100
AcDbLine
 10
260.0581153798
 20
133.3363626376
 30
0.0
 11
260.0581153798
 21
147.3363626376
 31
0.0
  0
LINE
  5
1B3
330
1AC
100
AcDbEntity
  8
VERMASSUNG
100
AcDbLine
 10
150.0581153798
 20
146.3363626376
 30
0.0
 11
260.0581153798
 21
146.3363626376
 31
0.0
  0
MTEXT
  5
1B4
330
1AC
100
AcDbEntity
  8
VERMASSUNG
100
AcDbMText
 10
202.4581151399
 20
148.9144980008
 30
0.1
 40
2.0
 41
0.0
 71
     1
 72
     1
  1
110
  7
SLDTEXTSTYLE0
 73
     1
 44
1.0
  0
ENDBLK
  5
1AE
330
1AC
100
AcDbEntity
  8
0
100
AcDbBlockEnd
  0
BLOCK
  5
1B7
330
1B6
100
AcDbEntity
  8
0
100
AcDbBlockBegin
  2
_D_3
 70
     0
 10
0.0
 20
0.0
 30
0.0
  3
_D_3
  1

  0
SOLID
  5
1B9
330
1B6
100
AcDbEntity
  8
VERMASSUNG
100
AcDbTrace
 10
260.0581153798
 20
152.3363626376
 30
0.0
 11
257.0581153798
 21
152.7863626376
 31
0.0
 12
257.0581153798
 22
151.8863626376
 32
0.0
 13
257.0581153798
 23
151.8863626376
 33
0.0
  0
SOLID
  5
1BA
330
1B6
100
AcDbEntity
  8
VERMASSUNG
100
AcDbTrace
 10
120.0581153798
 20
152.3363626376
 30
0.0
 11
123.0581153798
 21
151.8863626376
 31
0.0
 12
123.0581153798
 22
152.7863626376
 32
0.0
 13
123.0581153798
 23
152.7863626376
 33
0.0
  0
LINE
  5
1BB
330
1B6
100
AcDbEntity
  8
VERMASSUNG
100
AcDbLine
 10
260.0581153798
 20
133.3363626376
 30
0.0
 11
260.0581153798
 21
153.3363626376
 31
0.0
  0
LINE
  5
1BC
330
1B6
100
AcDbEntity
  8
VERMASSUNG
100
AcDbLine
 10
120.0581153798
 20
127.3296884758
 30
0.0
 11
120.0581153798
 21
153.3363626376
 31
0.0
  0
LINE
  5
1BD
330
1B6
100
AcDbEntity
  8
VERMASSUNG
100
AcDbLine
 10
260.0581153798
 20
152.3363626376
 30
0.0
 11
120.0581153798
 21
152.3363626376
 31
0.0
  0
MTEXT
  5
1BE
330
1B6
100
AcDbEntity
  8
VERMASSUNG
100
AcDbMText
 10
187.1581151838
 20
154.9144980008
 30
0.1
 40
2.0
 41
0.0
 71
     1
 72
     1
  1
140
  7
SLDTEXTSTYLE0
 73
     1
 44
1.0
  0
ENDBLK
  5
1B8
330
1B6
100
AcDbEntity
  8
0
100
AcDbBlockEnd
  0
BLOCK
  5
1C1
330
1C0
100
AcDbEntity
  8
0
100
AcDbBlockBegin
  2
_D_4
 70
     0
 10
0.0
 20
0.0
 30
0.0
  3
_D_4
  1

  0
SOLID
  5
1C3
330
1C0
100
AcDbEntity
  8
VERMASSUNG
100
AcDbTrace
 10
110.0581153798
 20
136.3363626376
 30
0.0
 11
109.6081153798
 21
133.3363626376
 31
0.0
 12
110.5081153798
 22
133.3363626376
 32
0.0
 13
110.5081153798
 23
133.3363626376
 33
0.0
  0
SOLID
  5
1C4
330
1C0
100
AcDbEntity
  8
VERMASSUNG
100
AcDbTrace
 10
110.0581153798
 20
86.3363626376
 30
0.0
 11
110.5081153798
 21
89.3363626376
 31
0.0
 12
109.6081153798
 22
89.3363626376
 32
0.0
 13
109.6081153798
 23
89.3363626376
 33
0.0
  0
LINE
  5
1C5
330
1C0
100
AcDbEntity
  8
VERMASSUNG
100
AcDbLine
 10
150.3581153798
 20
136.3363626376
 30
0.0
 11
109.0581153798
 21
136.3363626376
 31
0.0
  0
LINE
  5
1C6
330
1C0
100
AcDbEntity
  8
VERMASSUNG
100
AcDbLine
 10
150.3581153798
 20
86.3363626376
 30
0.0
 11
109.0581153798
 21
86.3363626376
 31
0.0
  0
LINE
  5
1C7
330
1C0
100
AcDbEntity
  8
VERMASSUNG
100
AcDbLine
 10
110.0581153798
 20
136.3363626376
 30
0.0
 11
110.0581153798
 21
86.3363626376
 31
0.0
  0
MTEXT
  5
1C8
330
1C0
100
AcDbEntity
  8
VERMASSUNG
100
AcDbMText
 10
107.2799798907
 20
104.9313625284
 30
0.1
 40
2.0
 41
0.0
 71
     1
 72
     1
  1
PSC
  7
SLDTEXTSTYLE0
 11
-7.044195017643634E-15
 21
1.0
 31
0.0
 73
     1
 44
1.0
  0
MTEXT
  5
1C9
330
1C0
100
AcDbEntity
  8
VERMASSUNG
100
AcDbMText
 10
107.4799799002
 20
109.5313626305
 30
0.1
 40
2.0
 41
0.0
 71
     1
 72
     1
  1
%%c
  7
SLDTEXTSTYLE0
 11
-7.044195017643634E-15
 21
1.0
 31
0.0
 73
     1
 44
1.0
  0
MTEXT
  5
1CA
330
1C0
100
AcDbEntity
  8
VERMASSUNG
100
AcDbMText
 10
107.2799798907
 20
113.1413631104
 30
0.1
 40
2.0
 41
0.0
 71
     1
 72
     1
  1
50
  7
SLDTEXTSTYLE0
 11
-7.044195017643634E-15
 21
1.0
 31
0.0
 73
     1
 44
1.0
  0
ENDBLK
  5
1C2
330
1C0
100
AcDbEntity
  8
0
100
AcDbBlockEnd
  0
BLOCK
  5
1CD
330
1CC
100
AcDbEntity
  8
0
100
AcDbBlockBegin
  2
_D_5
 70
     0
 10
0.0
 20
0.0
 30
0.0
  3
_D_5
  1

  0
SOLID
  5
1CF
330
1CC
100
AcDbEntity
  8
VERMASSUNG
100
AcDbTrace
 10
191.8850979965
 20
127.3363626376
 30
0.0
 11
191.4350979965
 21
124.3363626376
 31
0.0
 12
192.3350979965
 22
124.3363626376
 32
0.0
 13
192.3350979965
 23
124.3363626376
 33
0.0
  0
SOLID
  5
1D0
330
1CC
100
AcDbEntity
  8
VERMASSUNG
100
AcDbTrace
 10
191.8850979965
 20
95.3363626376
 30
0.0
 11
192.3350979965
 21
98.3363626376
 31
0.0
 12
191.4350979965
 22
98.3363626376
 32
0.0
 13
191.4350979965
 23
98.3363626376
 33
0.0
  0
LINE
  5
1D1
330
1CC
100
AcDbEntity
  8
VERMASSUNG
100
AcDbLine
 10
191.8850979965
 20
127.3363626376
 30
0.0
 11
191.8850979965
 21
95.3363626376
 31
0.0
  0
MTEXT
  5
1D2
330
1CC
100
AcDbEntity
  8
VERMASSUNG
100
AcDbMText
 10
189.306962517
 20
98.3753905206
 30
0.1
 40
2.0
 41
0.0
 71
     1
 72
     1
  1
%%c
  7
SLDTEXTSTYLE0
 11
-7.044195017643634E-15
 21
1.0
 31
0.0
 73
     1
 44
1.0
  0
MTEXT
  5
1D3
330
1CC
100
AcDbEntity
  8
VERMASSUNG
100
AcDbMText
 10
189.1069625075
 20
101.9853905349
 30
0.1
 40
2.0
 41
0.0
 71
     1
 72
     1
  1
32
  7
SLDTEXTSTYLE0
 11
-7.044195017643634E-15
 21
1.0
 31
0.0
 73
     1
 44
1.0
  0
ENDBLK
  5
1CE
330
1CC
100
AcDbEntity
  8
0
100
AcDbBlockEnd
  0
BLOCK
  5
1F9
330
1F8
100
AcDbEntity
  8
0
100
AcDbBlockBegin
  2
_D_6
 70
     0
 10
0.0
 20
0.0
 30
0.0
  3
_D_6
  1

  0
SOLID
  5
1FB
330
1F8
100
AcDbEntity
  8
VERMASSUNG
100
AcDbTrace
 10
76.6731706056
 20
97.7520670059
 30
0.0
 11
78.2133808318
 21
95.1385918369
 31
0.0
 12
78.9123862993
 22
95.7055057249
 32
0.0
 13
78.9123862993
 23
95.7055057249
 33
0.0
  0
SOLID
  5
1FC
330
1F8
100
AcDbEntity
  8
VERMASSUNG
100
AcDbTrace
 10
51.476997806
 20
128.8189766728
 30
0.0
 11
49.9367875797
 21
131.4324518418
 31
0.0
 12
49.2377821122
 22
130.8655379538
 32
0.0
 13
49.2377821122
 23
130.8655379538
 33
0.0
  0
LINE
  5
1FD
330
1F8
100
AcDbEntity
  8
VERMASSUNG
100
AcDbLine
 10
76.6731706056
 20
97.7520670059
 30
0.0
 11
77.4498433473
 21
98.3819713259
 31
0.0
  0
LINE
  5
1FE
330
1F8
100
AcDbEntity
  8
VERMASSUNG
100
AcDbLine
 10
51.476997806
 20
128.8189766728
 30
0.0
 11
52.2536705476
 21
129.4488809928
 31
0.0
  0
LINE
  5
1FF
330
1F8
100
AcDbEntity
  8
VERMASSUNG
100
AcDbLine
 10
76.6731706056
 20
97.7520670059
 30
0.0
 11
80.4525965255
 21
93.0920305558
 31
0.0
  0
LINE
  5
200
330
1F8
100
AcDbEntity
  8
VERMASSUNG
100
AcDbLine
 10
76.6731706056
 20
97.7520670059
 30
0.0
 11
51.476997806
 21
128.8189766728
 31
0.0
  0
LINE
  5
201
330
1F8
100
AcDbEntity
  8
VERMASSUNG
100
AcDbLine
 10
51.476997806
 20
128.8189766728
 30
0.0
 11
40.1672091018
 21
142.7639589849
 31
0.0
  0
MTEXT
  5
202
330
1F8
100
AcDbEntity
  8
VERMASSUNG
100
AcDbMText
 10
42.1695766531
 20
144.387937661
 30
0.1
 40
2.0
 41
0.0
 71
     1
 72
     1
  1
%%c
  7
SLDTEXTSTYLE0
 11
0.6299043199906356
 21
-0.7766727416725367
 31
0.0
 73
     1
 44
1.0
  0
MTEXT
  5
203
330
1F8
100
AcDbEntity
  8
VERMASSUNG
100
AcDbMText
 10
44.598865813
 20
141.7101299225
 30
0.1
 40
2.0
 41
0.0
 71
     1
 72
     1
  1
40
  7
SLDTEXTSTYLE0
 11
0.6299043199906356
 21
-0.7766727416725367
 31
0.0
 73
     1
 44
1.0
  0
MTEXT
  5
204
330
1F8
100
AcDbEntity
  8
VERMASSUNG
100
AcDbMText
 10
48.3704180725
 20
137.0598017046
 30
0.1
 40
2.0
 41
0.0
 71
     1
 72
     1
  1
min.
  7
SLDTEXTSTYLE0
 11
0.6299043199906356
 21
-0.7766727416725367
 31
0.0
 73
     1
 44
1.0
  0
ENDBLK
  5
1FA
330
1F8
100
AcDbEntity
  8
0
100
AcDbBlockEnd
  0
BLOCK
  5
208
330
207
100
AcDbEntity
  8
0
100
AcDbBlockBegin
  2
_D_7
 70
     0
 10
0.0
 20
0.0
 30
0.0
  3
_D_7
  1

  0
ARC
  5
20A
330
207
100
AcDbEntity
  8
VERMASSUNG
100
AcDbCircle
 10
64.0750842058
 20
129.0356865298
 30
0.0
 40
53.56720571521147
100
AcDbArc
 50
266.0
 51
270.0
  0
ARC
  5
20B
330
207
100
AcDbEntity
  8
VERMASSUNG
100
AcDbCircle
 10
64.0750842058
 20
129.0356865298
 30
0.0
 40
53.56720571521148
100
AcDbArc
 50
256.8278239442
 51
266.0
  0
ARC
  5
20C
330
207
100
AcDbEntity
  8
VERMASSUNG
100
AcDbCircle
 10
64.0750842058
 20
129.0356865298
 30
0.0
 40
53.56720571521147
100
AcDbArc
 50
270.0
 51
276.4084254827
  0
SOLID
  5
20D
330
207
100
AcDbEntity
  8
VERMASSUNG
100
AcDbTrace
 10
60.3384248268
 20
75.5989678354
 30
0.0
 11
57.3966902751
 21
76.3397092392
 31
0.0
 12
57.3088229241
 22
75.4440087711
 32
0.0
 13
57.3088229241
 23
75.4440087711
 33
0.0
  0
SOLID
  5
20E
330
207
100
AcDbEntity
  8
VERMASSUNG
100
AcDbTrace
 10
64.0750842058
 20
75.4684808146
 30
0.0
 11
67.0864967525
 21
75.1025648771
 31
0.0
 12
67.0613243482
 22
76.0022127805
 32
0.0
 13
67.0613243482
 23
76.0022127805
 33
0.0
  0
LINE
  5
20F
330
207
100
AcDbEntity
  8
VERMASSUNG
100
AcDbLine
 10
61.69569422
 20
95.0088244492
 30
0.0
 11
60.268668353
 21
74.6014037851
 31
0.0
  0
LINE
  5
210
330
207
100
AcDbEntity
  8
VERMASSUNG
100
AcDbLine
 10
64.0750842058
 20
83.8363626376
 30
0.0
 11
64.0750842058
 21
74.4684808146
 31
0.0
  0
MTEXT
  5
211
330
207
100
AcDbEntity
  8
VERMASSUNG
100
AcDbMText
 10
52.3363214635
 20
79.3629903589
 30
-39.9166700882
 40
2.0
 41
0.0
 71
     1
 72
     1
  1
4°
  7
SLDTEXTSTYLE0
 11
0.9825687196021499
 21
-0.185899734425286
 31
0.0
 73
     1
 44
1.0
  0
ENDBLK
  5
209
330
207
100
AcDbEntity
  8
0
100
AcDbBlockEnd
  0
BLOCK
  5
213
330
212
100
AcDbEntity
  8
0
100
AcDbBlockBegin
  2
SW_CENTERMARKSYMBOL_0
 70
     0
 10
0.0
 20
0.0
 30
0.0
  3
SW_CENTERMARKSYMBOL_0
  1

  0
LINE
  5
215
330
212
100
AcDbEntity
  8
VERMASSUNG
 62
     0
100
AcDbLine
 10
0.0
 20
0.0
 30
0.0
 11
0.0
 21
2.5
 31
0.0
  0
LINE
  5
216
330
212
100
AcDbEntity
  8
VERMASSUNG
 62
     0
100
AcDbLine
 10
0.0
 20
0.0
 30
0.0
 11
-2.5
 21
0.0
 31
0.0
  0
LINE
  5
217
330
212
100
AcDbEntity
  8
VERMASSUNG
 62
     0
100
AcDbLine
 10
0.0
 20
0.0
 30
0.0
 11
0.0
 21
-2.5
 31
0.0
  0
LINE
  5
218
330
212
100
AcDbEntity
  8
VERMASSUNG
 62
     0
100
AcDbLine
 10
0.0
 20
0.0
 30
0.0
 11
2.5
 21
0.0
 31
0.0
  0
LINE
  5
219
330
212
100
AcDbEntity
  8
VERMASSUNG
 62
     0
100
AcDbLine
 10
0.0
 20
5.0
 30
0.0
 11
0.0
 21
27.5
 31
0.0
  0
LINE
  5
21A
330
212
100
AcDbEntity
  8
VERMASSUNG
 62
     0
100
AcDbLine
 10
-5.0
 20
0.0
 30
0.0
 11
-27.5
 21
0.0
 31
0.0
  0
LINE
  5
21B
330
212
100
AcDbEntity
  8
VERMASSUNG
 62
     0
100
AcDbLine
 10
0.0
 20
-5.0
 30
0.0
 11
0.0
 21
-27.5
 31
0.0
  0
LINE
  5
21C
330
212
100
AcDbEntity
  8
VERMASSUNG
 62
     0
100
AcDbLine
 10
5.0
 20
0.0
 30
0.0
 11
27.5
 21
0.0
 31
0.0
  0
ENDBLK
  5
214
330
212
100
AcDbEntity
  8
0
100
AcDbBlockEnd
  0
ENDSEC
  0
SECTION
  2
ENTITIES
  0
MTEXT
  5
49
330
1F
100
AcDbEntity
  8
KOPF_DÜNN
100
AcDbMText
 10
13.8892156294
 20
23.8442973028
 30
0.0
 40
3.0
 41
0.0
 71
     1
 72
     1
  1
PS5.BCC.RLB.110
  7
SLDTEXTSTYLE0
 73
     1
 44
1.0
  0
MTEXT
  5
4A
330
1F
100
AcDbEntity
  8
VERMASSUNG
100
AcDbMText
 10
13.9329988022
 20
28.8834360957
 30
0.0
 40
3.0
 41
0.0
 71
     1
 72
     1
  1
Bohrstange_Boring bar
  7
SLDTEXTSTYLE0
 73
     1
 44
1.0
  0
MTEXT
  5
4B
330
1F
100
AcDbEntity
  8
VERMASSUNG
100
AcDbMText
 10
98.8601118557
 20
13.8365368179
 30
0.0
 40
2.0
 41
0.0
 71
     1
 72
     1
  1
Datum: 01.06.2012
  7
SLDTEXTSTYLE0
 73
     1
 44
1.0
  0
MTEXT
  5
4C
330
1F
100
AcDbEntity
  8
VERMASSUNG
100
AcDbMText
 10
13.933048693
 20
18.0482802738
 30
0.0
 40
2.0
 41
0.0
 71
     1
 72
     1
  1
PSC ø50 / Wp.: CC..12 04..
  7
SLDTEXTSTYLE0
 73
     1
 44
1.0
  0
MTEXT
  5
4D
330
1F
100
AcDbEntity
  8
VERMASSUNG
100
AcDbMText
 10
13.9808475933
 20
13.9090973692
 30
0.0
 40
2.0
 41
0.0
 71
     1
 72
     1
  1
Gewicht: 858g
  7
SLDTEXTSTYLE0
 73
     1
 44
1.0
  0
LINE
  5
4E
330
1F
100
AcDbEntity
  8
0
  6
Continuous
 62
     7
370
    15
100
AcDbLine
 10
251.6951509881
 20
126.2311135382
 30
0.0
 11
251.6951509881
 21
126.3427223042
 31
0.0
  0
LINE
  5
4F
330
1F
100
AcDbEntity
  8
0
  6
Continuous
 62
     7
370
    15
100
AcDbLine
 10
254.533404963
 20
126.454174608
 30
0.0
 11
254.533404963
 21
126.3425304518
 31
0.0
  0
LINE
  5
50
330
1F
100
AcDbEntity
  8
0
  6
Continuous
 62
     7
370
    15
100
AcDbLine
 10
249.6127435135
 20
126.3730284721
 30
0.0
 11
249.6127435135
 21
126.35907726
 31
0.0
  0
LINE
  5
51
330
1F
100
AcDbEntity
  8
0
  6
Continuous
 62
     7
370
    15
100
AcDbLine
 10
256.6127427983
 20
126.35907726
 30
0.0
 11
256.6127427983
 21
126.3730284721
 31
0.0
  0
LINE
  5
52
330
1F
100
AcDbEntity
  8
0
  6
Continuous
 62
     7
370
    15
100
AcDbLine
 10
150.358115394
 20
86.3363622651
 30
0.0
 11
169.458115952
 21
86.3363622651
 31
0.0
  0
LINE
  5
53
330
1F
100
AcDbEntity
  8
0
  6
Continuous
 62
     7
370
    15
100
AcDbLine
 10
169.458115952
 20
136.3363630102
 30
0.0
 11
150.358115394
 21
136.3363630102
 31
0.0
  0
ARC
  5
54
330
1F
100
AcDbEntity
  8
0
  6
Continuous
 62
     7
370
    15
100
AcDbCircle
 10
150.3581153798
 20
86.6363626376
 30
0.0
 40
0.3000000000000398
100
AcDbArc
 50
180.0
 51
270.0
  0
ARC
  5
55
330
1F
100
AcDbEntity
  8
0
  6
Continuous
 62
     7
370
    15
100
AcDbCircle
 10
150.3581153798
 20
136.0363626376
 30
0.0
 40
0.3000000000000398
100
AcDbArc
 50
90.0
 51
180.0
  0
ARC
  5
56
330
1F
100
AcDbEntity
  8
0
  6
Continuous
 62
     7
370
    15
100
AcDbCircle
 10
169.4581153798
 20
86.9363626376
 30
0.0
 40
0.6000000000000227
100
AcDbArc
 50
270.0
 51
360.0
  0
ARC
  5
57
330
1F
100
AcDbEntity
  8
0
  6
Continuous
 62
     7
370
    15
100
AcDbCircle
 10
169.4581153798
 20
135.7363626376
 30
0.0
 40
0.6000000000000227
100
AcDbArc
 50
0.0
 51
90.0
  0
ARC
  5
58
330
1F
100
AcDbEntity
  8
0
  6
Continuous
 62
     7
370
    15
100
AcDbCircle
 10
174.0581153798
 20
91.3363626376
 30
0.0
 40
4.0
100
AcDbArc
 50
90.0
 51
180.0
  0
ARC
  5
59
330
1F
100
AcDbEntity
  8
0
  6
Continuous
 62
     7
370
    15
100
AcDbCircle
 10
174.0581153798
 20
131.3363626376
 30
0.0
 40
4.000000000000014
100
AcDbArc
 50
180.0
 51
270.0
  0
LWPOLYLINE
  5
5A
330
1F
100
AcDbEntity
  8
0
  6
Continuous
 62
     7
370
    15
100
AcDbPolyline
 90
        3
 70
   128
 43
0.0
 10
149.8581153848
 20
93.4965415821
 10
149.98357032
 20
93.4282402471
 10
150.0581153798
 20
93.375503175
  0
LWPOLYLINE
  5
5B
330
1F
100
AcDbEntity
  8
0
  6
Continuous
 62
     7
370
    15
100
AcDbPolyline
 90
        3
 70
   128
 43
0.0
 10
150.0581153798
 20
129.2972221003
 10
149.98357032
 20
129.2444850281
 10
149.8581153848
 20
129.1761836932
  0
LINE
  5
5C
330
1F
100
AcDbEntity
  8
0
  6
Continuous
 62
     7
370
    15
100
AcDbLine
 10
233.643899219
 20
127.3363633976
 30
0.0
 11
174.0581155884
 21
127.3363633976
 31
0.0
  0
LINE
  5
5D
330
1F
100
AcDbEntity
  8
0
  6
Continuous
 62
     7
370
    15
100
AcDbLine
 10
174.0581155884
 20
95.3363618777
 30
0.0
 11
233.643899219
 21
95.3363618777
 31
0.0
  0
ARC
  5
5E
330
1F
100
AcDbEntity
  8
0
  6
Continuous
 62
     7
370
    15
100
AcDbCircle
 10
233.6439018174
 20
94.3363626376
 30
0.0
 40
0.9999999999999858
100
AcDbArc
 50
45.0
 51
90.0
  0
LINE
  5
5F
330
1F
100
AcDbEntity
  8
0
  6
Continuous
 62
     7
370
    15
100
AcDbLine
 10
234.6343868541
 20
127.9126360044
 30
0.0
 11
234.3510114717
 21
127.6292550341
 31
0.0
  0
LINE
  5
60
330
1F
100
AcDbEntity
  8
0
  6
Continuous
 62
     7
370
    15
100
AcDbLine
 10
234.3510114717
 20
95.0434702412
 30
0.0
 11
234.5581152605
 21
94.836362727
 31
0.0
  0
LINE
  5
61
330
1F
100
AcDbEntity
  8
0
  6
Continuous
 62
     7
370
    15
100
AcDbLine
 10
234.5581152605
 20
94.836362727
 30
0.0
 11
241.2106939721
 21
94.836362727
 31
0.0
  0
CIRCLE
  5
62
330
1F
100
AcDbEntity
  8
0
  6
Continuous
 62
     7
370
    15
100
AcDbCircle
 10
253.1186604237
 20
126.3739474093
 30
0.0
 40
3.4940574057565
  0
CIRCLE
  5
63
330
1F
100
AcDbEntity
  8
0
  6
Continuous
 62
     7
370
    15
100
AcDbCircle
 10
253.1172097276
 20
126.4087197395
 30
0.0
 40
2.629479138213993
  0
CIRCLE
  5
64
330
1F
100
AcDbEntity
  8
0
  6
Continuous
 62
     7
370
    15
100
AcDbCircle
 10
253.1163772839
 20
126.408626055
 30
0.0
 40
1.996346580818221
  0
SPLINE
  5
65
330
1F
100
AcDbEntity
  8
0
  6
Continuous
 62
     7
370
    15
100
AcDbSpline
210
0.0
220
0.0
230
1.0
 70
     8
 71
     3
 72
    15
 73
    11
 74
     0
 42
0.00000001
 43
0.00000001
 12
1.0
 22
0.0
 32
0.0
 13
1.0
 23
0.0
 33
0.0
 40
0.0
 40
0.0
 40
0.0
 40
0.0
 40
0.1262467304939741
 40
0.2533651897720217
 40
0.3794144947814543
 40
0.5042675354108007
 40
0.6284524646827184
 40
0.7526347420372598
 40
0.8774892450635458
 40
1.0
 40
1.0
 40
1.0
 40
1.0
 10
253.4534805583438
 20
128.0761296824149
 30
0.0
 10
253.4380653727542
 20
128.1180744778287
 30
0.0
 10
253.4071285603155
 20
128.2022536958438
 30
0.0
 10
253.3110984001276
 20
128.3001943619782
 30
0.0
 10
253.1909542879587
 20
128.3618788012658
 30
0.0
 10
253.0574311694776
 20
128.37943666046
 30
0.0
 10
252.9262950389544
 20
128.3520218864467
 30
0.0
 10
252.8123894586654
 20
128.2828088238165
 30
0.0
 10
252.7249793806943
 20
128.1810045029473
 30
0.0
 10
252.6993866356408
 20
128.0973132491551
 30
0.0
 10
252.686711506792
 20
128.0558641031913
 30
0.0
  0
SPLINE
  5
66
330
1F
100
AcDbEntity
  8
0
  6
Continuous
 62
     7
370
    15
100
AcDbSpline
210
0.0
220
0.0
230
1.0
 70
     8
 71
     3
 72
    12
 73
     8
 74
     0
 42
0.00000001
 43
0.00000001
 12
1.0
 22
0.0
 32
0.0
 13
1.0
 23
0.0
 33
0.0
 40
0.0
 40
0.0
 40
0.0
 40
0.0
 40
0.2058742340194084
 40
0.4120990695659217
 40
0.6141685531780046
 40
0.8132906223534494
 40
1.0
 40
1.0
 40
1.0
 40
1.0
 10
252.686711506792
 20
128.0558641031913
 30
0.0
 10
252.6638229467709
 20
127.9815848391615
 30
0.0
 10
252.6180068477659
 20
127.8328998143427
 30
0.0
 10
252.4613721641658
 20
127.6543328183635
 30
0.0
 10
252.2619591038957
 20
127.538339662365
 30
0.0
 10
252.0410723134073
 20
127.4919416478494
 30
0.0
 10
251.8990774689827
 20
127.5189522677875
 30
0.0
 10
251.8303641247234
 20
127.5320230946473
 30
0.0
  0
SPLINE
  5
67
330
1F
100
AcDbEntity
  8
0
  6
Continuous
 62
     7
370
    15
100
AcDbSpline
210
0.0
220
0.0
230
1.0
 70
     8
 71
     3
 72
    15
 73
    11
 74
     0
 42
0.00000001
 43
0.00000001
 12
1.0
 22
0.0
 32
0.0
 13
1.0
 23
0.0
 33
0.0
 40
0.0
 40
0.0
 40
0.0
 40
0.0
 40
0.1268759677996977
 40
0.2539954004587964
 40
0.3800508843652158
 40
0.5048998814143096
 40
0.6290839200713836
 40
0.7532701053505562
 40
0.8781226284772512
 40
1.0
 40
1.0
 40
1.0
 40
1.0
 10
251.8303641247234
 20
127.5320230946473
 30
0.0
 10
251.7864218861895
 20
127.5399310057998
 30
0.0
 10
251.6984530874718
 20
127.5557620027553
 30
0.0
 10
251.5661329066347
 20
127.521997832613
 30
0.0
 10
251.4531944752967
 20
127.4491738439323
 30
0.0
 10
251.3715470809254
 20
127.3425635955063
 30
0.0
 10
251.3297931341648
 20
127.2153794783986
 30
0.0
 10
251.3325754241768
 20
127.0820402795675
 30
0.0
 10
251.3765183159175
 20
126.9554144100763
 30
0.0
 10
251.4354516306175
 20
126.8911966948929
 30
0.0
 10
251.4645629691562
 20
126.8594750166468
 30
0.0
  0
SPLINE
  5
68
330
1F
100
AcDbEntity
  8
0
  6
Continuous
 62
     7
370
    15
100
AcDbSpline
210
0.0
220
0.0
230
1.0
 70
     8
 71
     3
 72
    12
 73
     8
 74
     0
 42
0.00000001
 43
0.00000001
 12
1.0
 22
0.0
 32
0.0
 13
1.0
 23
0.0
 33
0.0
 40
0.0
 40
0.0
 40
0.0
 40
0.0
 40
0.2057947174548589
 40
0.4120009194659309
 40
0.6140558403876856
 40
0.8131799780699995
 40
1.0
 40
1.0
 40
1.0
 40
1.0
 10
251.4645629691562
 20
126.8594750166468
 30
0.0
 10
251.5168890587657
 20
126.8021843312912
 30
0.0
 10
251.621645863497
 20
126.6874884084062
 30
0.0
 10
251.6972529469107
 20
126.4622957140161
 30
0.0
 10
251.6983596463456
 20
126.2320905601088
 30
0.0
 10
251.6294166834298
 20
126.0187018710253
 30
0.0
 10
251.5362565904381
 20
125.9102569162916
 30
0.0
 10
251.4911615418872
 20
125.8577630818419
 30
0.0
  0
SPLINE
  5
69
330
1F
100
AcDbEntity
  8
0
  6
Continuous
 62
     7
370
    15
100
AcDbSpline
210
0.0
220
0.0
230
1.0
 70
     8
 71
     3
 72
    15
 73
    11
 74
     0
 42
0.00000001
 43
0.00000001
 12
1.0
 22
0.0
 32
0.0
 13
1.0
 23
0.0
 33
0.0
 40
0.0
 40
0.0
 40
0.0
 40
0.0
 40
0.1268063254689145
 40
0.2539278462562806
 40
0.3799893342049357
 40
0.5048419921831557
 40
0.629025960840522
 40
0.7532056272939963
 40
0.8780563864678171
 40
1.0
 40
1.0
 40
1.0
 40
1.0
 10
251.4911615418872
 20
125.8577630818419
 30
0.0
 10
251.4627448504625
 20
125.8240109153111
 30
0.0
 10
251.4058408338488
 20
125.7564226863962
 30
0.0
 10
251.3698695678867
 20
125.6257692442118
 30
0.0
 10
251.3771527381755
 20
125.4921074393949
 30
0.0
 10
251.429029464188
 20
125.3683518346106
 30
0.0
 10
251.5183536920918
 20
125.268563133781
 30
0.0
 10
251.634913695107
 20
125.2039449900384
 30
0.0
 10
251.7659521788197
 20
125.1780574346253
 30
0.0
 10
251.8504019471097
 20
125.1964116019999
 30
0.0
 10
251.8921294378719
 20
125.205480583065
 30
0.0
  0
SPLINE
  5
6A
330
1F
100
AcDbEntity
  8
0
  6
Continuous
 62
     7
370
    15
100
AcDbSpline
210
0.0
220
0.0
230
1.0
 70
     8
 71
     3
 72
    12
 73
     8
 74
     0
 42
0.00000001
 43
0.00000001
 12
1.0
 22
0.0
 32
0.0
 13
1.0
 23
0.0
 33
0.0
 40
0.0
 40
0.0
 40
0.0
 40
0.0
 40
0.2058503608063962
 40
0.4120524381974079
 40
0.6141123652871638
 40
0.8132438948796601
 40
1.0
 40
1.0
 40
1.0
 40
1.0
 10
251.8921294378719
 20
125.205480583065
 30
0.0
 10
251.9673557584394
 20
125.2216439817919
 30
0.0
 10
252.1179369315063
 20
125.2539983960806
 30
0.0
 10
252.3501402087743
 20
125.2060482309778
 30
0.0
 10
252.550630136749
 20
125.0919437731454
 30
0.0
 10
252.7025517080587
 20
124.9263570425661
 30
0.0
 10
252.7514182477281
 20
124.7924264454984
 30
0.0
 10
252.7750679420909
 20
124.7276087254814
 30
0.0
  0
SPLINE
  5
6B
330
1F
100
AcDbEntity
  8
0
  6
Continuous
 62
     7
370
    15
100
AcDbSpline
210
0.0
220
0.0
230
1.0
 70
     8
 71
     3
 72
    15
 73
    11
 74
     0
 42
0.00000001
 43
0.00000001
 12
1.0
 22
0.0
 32
0.0
 13
1.0
 23
0.0
 33
0.0
 40
0.0
 40
0.0
 40
0.0
 40
0.0
 40
0.1262570244779148
 40
0.2533842629259112
 40
0.3794472754655353
 40
0.5042992006414952
 40
0.6284839951117821
 40
0.7526669526521483
 40
0.8775110341248198
 40
0.9999999999999999
 40
0.9999999999999999
 40
0.9999999999999999
 40
0.9999999999999999
 10
252.7750679420909
 20
124.7276087254814
 30
0.0
 10
252.7904855594559
 20
124.6865942248939
 30
0.0
 10
252.8214270585785
 20
124.6042825353574
 30
0.0
 10
252.9174656190612
 20
124.5083861238241
 30
0.0
 10
253.0376191484751
 20
124.4479931046827
 30
0.0
 10
253.17114778136
 20
124.4308481573425
 30
0.0
 10
253.3022829697061
 20
124.4578086395076
 30
0.0
 10
253.4161882075944
 20
124.5257077033056
 30
0.0
 10
253.5035783484192
 20
124.6254849823937
 30
0.0
 10
253.5291703081916
 20
124.7073376654892
 30
0.0
 10
253.5418444442233
 20
124.7478743047051
 30
0.0
  0
SPLINE
  5
6C
330
1F
100
AcDbEntity
  8
0
  6
Continuous
 62
     7
370
    15
100
AcDbSpline
210
0.0
220
0.0
230
1.0
 70
     8
 71
     3
 72
    12
 73
     8
 74
     0
 42
0.00000001
 43
0.00000001
 12
1.0
 22
0.0
 32
0.0
 13
1.0
 23
0.0
 33
0.0
 40
0.0
 40
0.0
 40
0.0
 40
0.0
 40
0.2058712920629633
 40
0.4120906970790925
 40
0.6141696237965912
 40
0.8133048477771505
 40
1.0
 40
1.0
 40
1.0
 40
1.0
 10
253.5418444442233
 20
124.7478743047051
 30
0.0
 10
253.5647334701716
 20
124.8205501094239
 30
0.0
 10
253.6105502256986
 20
124.9660246082103
 30
0.0
 10
253.7671799312313
 20
125.1420196570114
 30
0.0
 10
253.9665975783543
 20
125.2582048917692
 30
0.0
 10
254.1874883079149
 20
125.3073231527732
 30
0.0
 10
254.3294834045986
 20
125.2833266924631
 30
0.0
 10
254.398191826292
 20
125.271715313249
 30
0.0
  0
SPLINE
  5
6D
330
1F
100
AcDbEntity
  8
0
  6
Continuous
 62
     7
370
    15
100
AcDbSpline
210
0.0
220
0.0
230
1.0
 70
     8
 71
     3
 72
    15
 73
    11
 74
     0
 42
0.00000001
 43
0.00000001
 12
1.0
 22
0.0
 32
0.0
 13
1.0
 23
0.0
 33
0.0
 40
0.0
 40
0.0
 40
0.0
 40
0.0
 40
0.1268663234144562
 40
0.253982092858441
 40
0.3800323404956997
 40
0.5048750229020261
 40
0.629052092664456
 40
0.7532387015848737
 40
0.878096158797746
 40
1.0
 40
1.0
 40
1.0
 40
1.0
 10
254.398191826292
 20
125.271715313249
 30
0.0
 10
254.442131496959
 20
125.2647447370155
 30
0.0
 10
254.5300972329807
 20
125.2507898789211
 30
0.0
 10
254.6624148575974
 20
125.2865969344459
 30
0.0
 10
254.7753532547727
 20
125.3606980631019
 30
0.0
 10
254.857002536516
 20
125.4677061963439
 30
0.0
 10
254.8987514733053
 20
125.594416273046
 30
0.0
 10
254.8959901717433
 20
125.7264329229796
 30
0.0
 10
254.8520506331081
 20
125.8510372797496
 30
0.0
 10
254.7931103699193
 20
125.913436985737
 30
0.0
 10
254.7639929818591
 20
125.9442633912496
 30
0.0
  0
SPLINE
  5
6E
330
1F
100
AcDbEntity
  8
0
  6
Continuous
 62
     7
370
    15
100
AcDbSpline
210
0.0
220
0.0
230
1.0
 70
     8
 71
     3
 72
    12
 73
     8
 74
     0
 42
0.00000001
 43
0.00000001
 12
1.0
 22
0.0
 32
0.0
 13
1.0
 23
0.0
 33
0.0
 40
0.0
 40
0.0
 40
0.0
 40
0.0
 40
0.2058350540556286
 40
0.4120769665582438
 40
0.614170895414312
 40
0.8133026989808061
 40
1.0
 40
1.0
 40
1.0
 40
1.0
 10
254.7639929818591
 20
125.9442633912496
 30
0.0
 10
254.7116572944482
 20
125.999960485535
 30
0.0
 10
254.6068824716661
 20
126.1114647663026
 30
0.0
 10
254.5312849625974
 20
126.3341214357186
 30
0.0
 10
254.530204570743
 20
126.5645499567104
 30
0.0
 10
254.5991832496954
 20
126.7806306126038
 30
0.0
 10
254.692324609405
 20
126.8920574430768
 30
0.0
 10
254.7373944091281
 20
126.9459753260545
 30
0.0
  0
SPLINE
  5
6F
330
1F
100
AcDbEntity
  8
0
  6
Continuous
 62
     7
370
    15
100
AcDbSpline
210
0.0
220
0.0
230
1.0
 70
     8
 71
     3
 72
    15
 73
    11
 74
     0
 42
0.00000001
 43
0.00000001
 12
1.0
 22
0.0
 32
0.0
 13
1.0
 23
0.0
 33
0.0
 40
0.0
 40
0.0
 40
0.0
 40
0.0
 40
0.1267893670770436
 40
0.2538963664144558
 40
0.3799423340172271
 40
0.5047843403924874
 40
0.6289656820024384
 40
0.7531498597637432
 40
0.8780087662579144
 40
1.0
 40
1.0
 40
1.0
 40
1.0
 10
254.7373944091281
 20
126.9459753260545
 30
0.0
 10
254.7658072917279
 20
126.9806609727091
 30
0.0
 10
254.8227042367774
 20
127.0501191603739
 30
0.0
 10
254.8586878287585
 20
127.1828061407875
 30
0.0
 10
254.8514080025222
 20
127.3177419782024
 30
0.0
 10
254.799546618532
 20
127.4418981110719
 30
0.0
 10
254.7102378689445
 20
127.5412253540624
 30
0.0
 10
254.5936863608273
 20
127.6045380183717
 30
0.0
 10
254.4626353842212
 20
127.6284093317019
 30
0.0
 10
254.378169053374
 20
127.6082308096399
 30
0.0
 10
254.3364265131435
 20
127.598258756154
 30
0.0
  0
SPLINE
  5
70
330
1F
100
AcDbEntity
  8
0
  6
Continuous
 62
     7
370
    15
100
AcDbSpline
210
0.0
220
0.0
230
1.0
 70
     8
 71
     3
 72
    12
 73
     8
 74
     0
 42
0.00000001
 43
0.00000001
 12
1.0
 22
0.0
 32
0.0
 13
1.0
 23
0.0
 33
0.0
 40
0.0
 40
0.0
 40
0.0
 40
0.0
 40
0.2058928068744935
 40
0.4121327170929716
 40
0.6142233191091365
 40
0.8133475843193317
 40
1.0
 40
1.0
 40
1.0
 40
1.0
 10
254.3364265131435
 20
127.598258756154
 30
0.0
 10
254.2611877210499
 20
127.5804910684897
 30
0.0
 10
254.1105832959268
 20
127.5449257395952
 30
0.0
 10
253.8783497930736
 20
127.5903220665041
 30
0.0
 10
253.6778543097341
 20
127.7046626673492
 30
0.0
 10
253.5259688831233
 20
127.8729750410278
 30
0.0
 10
253.4771168846762
 20
128.0098868851868
 30
0.0
 10
253.4534805583438
 20
128.0761296824149
 30
0.0
  0
LWPOLYLINE
  5
71
330
1F
100
AcDbEntity
  8
0
  6
Continuous
 62
     7
370
    15
100
AcDbPolyline
 90
        3
 70
   128
 43
0.0
 10
251.3796636033
 20
125.5265177191
 10
251.4146217274
 20
125.6362508014
 10
251.4911615419
 20
125.7427242548
  0
ARC
  5
72
330
1F
100
AcDbEntity
  8
0
  6
Continuous
 62
     7
370
    15
100
AcDbCircle
 10
254.5030623248
 20
125.5357050755
 30
0.0
 40
0.3927063413148557
100
AcDbArc
 50
7.1914380783
 51
48.3604548971
  0
ARC
  5
73
330
1F
100
AcDbEntity
  8
0
  6
Continuous
 62
     7
370
    15
100
AcDbCircle
 10
251.0081304102
 20
126.2312713099
 30
0.0
 40
0.6870205959282901
100
AcDbArc
 50
314.6747191887
 51
359.9868422374
  0
ARC
  5
74
330
1F
100
AcDbEntity
  8
0
  6
Continuous
 62
     7
370
    15
100
AcDbCircle
 10
255.2205685388
 20
126.3427391139
 30
0.0
 40
0.687163607485891
100
AcDbArc
 50
180.0173982727
 51
228.361004677
  0
ARC
  5
75
330
1F
100
AcDbEntity
  8
0
  6
Continuous
 62
     7
370
    15
100
AcDbCircle
 10
251.7265349888
 20
127.0371574424
 30
0.0
 40
0.3937876544389795
100
AcDbArc
 50
74.7121899925
 51
174.1209021077
  0
ARC
  5
76
330
1F
100
AcDbEntity
  8
0
  6
Continuous
 62
     7
370
    15
100
AcDbCircle
 10
254.4601560144
 20
127.1092808099
 30
0.0
 40
0.3938774610338906
100
AcDbArc
 50
6.9283137708
 51
108.3084193432
  0
ARC
  5
77
330
1F
100
AcDbEntity
  8
0
  6
Continuous
 62
     7
370
    15
100
AcDbCircle
 10
252.0118235041
 20
128.082246266
 30
0.0
 40
0.6895406714111902
100
AcDbArc
 50
254.7423640552
 51
348.1671836113
  0
ARC
  5
78
330
1F
100
AcDbEntity
  8
0
  6
Continuous
 62
     7
370
    15
100
AcDbCircle
 10
254.1200955222
 20
128.1381357287
 30
0.0
 40
0.6897200897294445
100
AcDbArc
 50
194.8722013291
 51
288.2793596654
  0
ARC
  5
79
330
1F
100
AcDbEntity
  8
0
  6
Continuous
 62
     7
370
    15
100
AcDbCircle
 10
253.0725015779
 20
127.8599306612
 30
0.0
 40
0.3941854098299662
100
AcDbArc
 50
14.8730520518
 51
168.1537663014
  0
ARC
  5
7A
330
1F
100
AcDbEntity
  8
0
  6
Continuous
 62
     7
370
    15
100
AcDbCircle
 10
253.1127431559
 20
126.3655889307
 30
0.0
 40
3.50000569977557
100
AcDbArc
 50
180.1065973889
 51
359.8934026111
  0
LINE
  5
7B
330
1F
100
AcDbEntity
  8
0
  6
Continuous
 62
     7
370
    15
100
AcDbLine
 10
259.6232541966
 20
133.3348444626
 30
0.0
 11
247.5856565999
 21
132.2842567191
 31
0.0
  0
ARC
  5
7C
330
1F
100
AcDbEntity
  8
0
  6
Continuous
 62
     7
370
    15
100
AcDbCircle
 10
259.6585526592
 20
132.9368872046
 30
0.0
 40
0.3995196624491428
100
AcDbArc
 50
355.0709886438
 51
95.068820539
  0
LINE
  5
7D
330
1F
100
AcDbEntity
  8
0
  6
Continuous
 62
     7
370
    15
100
AcDbLine
 10
259.0034403967
 20
120.8942878023
 30
0.0
 11
260.0565948653
 21
132.9025599137
 31
0.0
  0
ARC
  5
7E
330
1F
100
AcDbEntity
  8
0
  6
Continuous
 62
     7
370
    15
100
AcDbCircle
 10
258.6054888243
 20
120.9295949066
 30
0.0
 40
0.3995147627284524
100
AcDbArc
 50
274.9299566701
 51
354.9298729349
  0
LINE
  5
7F
330
1F
100
AcDbEntity
  8
0
  6
Continuous
 62
     7
370
    15
100
AcDbLine
 10
246.6022321152
 20
119.4809704051
 30
0.0
 11
258.6398222613
 21
120.5315581486
 31
0.0
  0
ARC
  5
80
330
1F
100
AcDbEntity
  8
0
  6
Continuous
 62
     7
370
    15
100
AcDbCircle
 10
246.5669213705
 20
119.8789153511
 30
0.0
 40
0.3995084838941325
100
AcDbArc
 50
175.0690780837
 51
275.0707310991
  0
LINE
  5
81
330
1F
100
AcDbEntity
  8
0
  6
Continuous
 62
     7
370
    15
100
AcDbLine
 10
247.2220459151
 20
131.9215270654
 30
0.0
 11
246.1688914465
 21
119.913254954
 31
0.0
  0
ARC
  5
82
330
1F
100
AcDbEntity
  8
0
  6
Continuous
 62
     7
370
    15
100
AcDbCircle
 10
247.6199868168
 20
131.886231363
 30
0.0
 40
0.3995031262852237
100
AcDbArc
 50
94.929637087
 51
174.9313665242
  0
ARC
  5
83
330
1F
100
AcDbEntity
  8
0
  6
Continuous
 62
     7
370
    15
100
AcDbCircle
 10
246.5669495099
 20
119.878900205
 30
0.0
 40
0.3795392458359496
100
AcDbArc
 50
175.070166731
 51
275.0697331533
  0
LINE
  5
84
330
1F
100
AcDbEntity
  8
0
  6
Continuous
 62
     7
370
    15
100
AcDbLine
 10
246.6004886794
 20
119.5008457602
 30
0.0
 11
258.6380788254
 21
120.5514335037
 31
0.0
  0
ARC
  5
85
330
1F
100
AcDbEntity
  8
0
  6
Continuous
 62
     7
370
    15
100
AcDbCircle
 10
258.6054631695
 20
120.9295689557
 30
0.0
 40
0.3795394591822879
100
AcDbArc
 50
274.9297829321
 51
354.9297840316
  0
LINE
  5
86
330
1F
100
AcDbEntity
  8
0
  6
Continuous
 62
     7
370
    15
100
AcDbLine
 10
258.9835175442
 20
120.8960265816
 30
0.0
 11
260.0366720128
 21
132.9042977617
 31
0.0
  0
ARC
  5
87
330
1F
100
AcDbEntity
  8
0
  6
Continuous
 62
     7
370
    15
100
AcDbCircle
 10
259.6585340498
 20
132.9369109726
 30
0.0
 40
0.3795417507188265
100
AcDbArc
 50
355.070617373
 51
95.0692825113
  0
LINE
  5
88
330
1F
100
AcDbEntity
  8
0
  6
Continuous
 62
     7
370
    15
100
AcDbLine
 10
259.6249976325
 20
133.3149681762
 30
0.0
 11
247.5874000358
 21
132.2643804327
 31
0.0
  0
ARC
  5
89
330
1F
100
AcDbEntity
  8
0
  6
Continuous
 62
     7
370
    15
100
AcDbCircle
 10
247.6200150073
 20
131.8862538408
 30
0.0
 40
0.3795305730738806
100
AcDbArc
 50
94.9297949333
 51
174.9310078217
  0
LINE
  5
8A
330
1F
100
AcDbEntity
  8
0
  6
Continuous
 62
     7
370
    15
100
AcDbLine
 10
247.2419687676
 20
131.9197873548
 30
0.0
 11
246.1888142991
 21
119.9115161747
 31
0.0
  0
LINE
  5
8B
330
1F
100
AcDbEntity
  8
0
  6
Continuous
 62
     7
370
    15
100
AcDbLine
 10
258.6049609947
 20
120.913760826
 30
0.0
 11
258.6380788254
 21
120.5514335037
 31
0.0
  0
LINE
  5
8C
330
1F
100
AcDbEntity
  8
0
  6
Continuous
 62
     7
370
    15
100
AcDbLine
 10
246.5673708486
 20
119.8631730825
 30
0.0
 11
246.6004886794
 21
119.5008457602
 31
0.0
  0
LINE
  5
8D
330
1F
100
AcDbEntity
  8
0
  6
Continuous
 62
     7
370
    15
100
AcDbLine
 10
247.4863701629
 20
120.7462894694
 30
0.0
 11
246.5673708486
 21
119.8631730825
 31
0.0
  0
LINE
  5
8E
330
1F
100
AcDbEntity
  8
0
  6
Continuous
 62
     7
370
    15
100
AcDbLine
 10
258.0312662887
 20
121.4610273913
 30
0.0
 11
258.6049609947
 21
120.913760826
 31
0.0
  0
LINE
  5
8F
330
1F
100
AcDbEntity
  8
0
  6
Continuous
 62
     7
370
    15
100
AcDbLine
 10
246.5673708486
 20
119.8631730825
 30
0.0
 11
246.1888142991
 21
119.9115161747
 31
0.0
  0
LINE
  5
90
330
1F
100
AcDbEntity
  8
0
  6
Continuous
 62
     7
370
    15
100
AcDbLine
 10
247.6205178666
 20
131.8714461253
 30
0.0
 11
247.2419687676
 21
131.9197873548
 31
0.0
  0
LINE
  5
91
330
1F
100
AcDbEntity
  8
0
  6
Continuous
 62
     7
370
    15
100
AcDbLine
 10
248.1942125725
 20
131.2741181776
 30
0.0
 11
247.6205178666
 21
131.8714461253
 31
0.0
  0
LINE
  5
92
330
1F
100
AcDbEntity
  8
0
  6
Continuous
 62
     7
370
    15
100
AcDbLine
 10
258.6049609947
 20
120.913760826
 30
0.0
 11
258.9835175442
 21
120.8960265816
 31
0.0
  0
LINE
  5
93
330
1F
100
AcDbEntity
  8
0
  6
Continuous
 62
     7
370
    15
100
AcDbLine
 10
249.5366879868
 20
121.7598534152
 30
0.0
 11
256.2736966776
 21
122.3478290216
 31
0.0
  0
LINE
  5
94
330
1F
100
AcDbEntity
  8
0
  6
Continuous
 62
     7
370
    15
100
AcDbLine
 10
259.6581154632
 20
132.9220320061
 30
0.0
 11
260.0366720128
 21
132.9042977617
 31
0.0
  0
LINE
  5
95
330
1F
100
AcDbEntity
  8
0
  6
Continuous
 62
     7
370
    15
100
AcDbLine
 10
258.7391161489
 20
131.971626632
 30
0.0
 11
259.6581154632
 21
132.9220320061
 31
0.0
  0
ARC
  5
96
330
1F
100
AcDbEntity
  8
0
  6
Continuous
 62
     7
370
    15
100
AcDbCircle
 10
249.4484290145
 20
122.7547337133
 30
0.0
 40
0.998787491738103
100
AcDbArc
 50
175.0701912282
 51
275.0696179547
  0
LINE
  5
97
330
1F
100
AcDbEntity
  8
0
  6
Continuous
 62
     7
370
    15
100
AcDbLine
 10
256.688798325
 20
131.0559614525
 30
0.0
 11
249.9517896342
 21
130.4679858462
 31
0.0
  0
ARC
  5
98
330
1F
100
AcDbEntity
  8
0
  6
Continuous
 62
     7
370
    15
100
AcDbCircle
 10
256.7770613878
 20
130.0610920412
 30
0.0
 40
0.9987770090234318
100
AcDbArc
 50
355.069458885
 51
95.0699068794
  0
LINE
  5
99
330
1F
100
AcDbEntity
  8
0
  6
Continuous
 62
     7
370
    15
100
AcDbLine
 10
257.1827345657
 20
123.2546540872
 30
0.0
 11
257.7721425461
 21
129.975249149
 31
0.0
  0
ARC
  5
9A
330
1F
100
AcDbEntity
  8
0
  6
Continuous
 62
     7
370
    15
100
AcDbCircle
 10
256.187851241
 20
123.342924525
 30
0.0
 40
0.998791519734611
100
AcDbArc
 50
274.930615806
 51
354.929742242
  0
LINE
  5
9B
330
1F
100
AcDbEntity
  8
0
  6
Continuous
 62
     7
370
    15
100
AcDbLine
 10
249.0427517461
 20
129.5611607805
 30
0.0
 11
248.4533363151
 21
122.8405647874
 31
0.0
  0
ARC
  5
9C
330
1F
100
AcDbEntity
  8
0
  6
Continuous
 62
     7
370
    15
100
AcDbCircle
 10
250.0376211605
 20
129.472904287
 30
0.0
 40
0.9987764316236794
100
AcDbArc
 50
94.9298895357
 51
174.9304685123
  0
CIRCLE
  5
9D
330
1F
100
AcDbEntity
  8
0
  6
Continuous
 62
     7
370
    15
100
AcDbCircle
 10
253.1060141969
 20
126.405698496
 30
0.0
 40
3.793422630115857
  0
LINE
  5
9E
330
1F
100
AcDbEntity
  8
0
  6
Continuous
 62
     7
370
    15
100
AcDbLine
 10
249.3272000122
 20
126.6580718533
 30
0.0
 11
249.3127384352
 21
126.3276870326
 31
0.0
  0
ARC
  5
9F
330
1F
100
AcDbEntity
  8
0
  6
Continuous
 62
     7
370
    15
100
AcDbCircle
 10
253.1124435289
 20
126.3200688012
 30
0.0
 40
3.800304533054985
100
AcDbArc
 50
0.1148573209
 51
174.8973109444
  0
SPLINE
  5
A0
330
1F
100
AcDbEntity
  8
0
  6
Continuous
 62
     7
370
    15
100
AcDbSpline
210
0.0
220
0.0
230
1.0
 70
     8
 71
     3
 72
    11
 73
     7
 74
     0
 42
0.00000001
 43
0.00000001
 12
1.0
 22
0.0
 32
0.0
 13
1.0
 23
0.0
 33
0.0
 40
0.0
 40
0.0
 40
0.0
 40
0.0
 40
0.0076253061955893
 40
0.3209848162118217
 40
0.6632181586875487
 40
0.9999999999999999
 40
0.9999999999999999
 40
0.9999999999999999
 40
0.9999999999999999
 10
247.9752921628436
 20
121.2392832115821
 30
0.0
 10
247.9741777112991
 20
121.2381071645282
 30
0.0
 10
247.9272652313231
 20
121.1886018413643
 30
0.0
 10
247.8231732095299
 20
121.0805608118157
 30
0.0
 10
247.6537372558315
 20
120.9089787227224
 30
0.0
 10
247.5418597896149
 20
120.8002281844296
 30
0.0
 10
247.4863701629123
 20
120.7462894693546
 30
0.0
  0
SPLINE
  5
A1
330
1F
100
AcDbEntity
  8
0
  6
Continuous
 62
     7
370
    15
100
AcDbSpline
210
0.0
220
0.0
230
1.0
 70
     8
 71
     3
 72
    11
 73
     7
 74
     0
 42
0.00000001
 43
0.00000001
 12
1.0
 22
0.0
 32
0.0
 13
1.0
 23
0.0
 33
0.0
 40
0.0
 40
0.0
 40
0.0
 40
0.0
 40
0.337233923327075
 40
0.6736350982902103
 40
0.9918871373229096
 40
1.0
 40
1.0
 40
1.0
 40
1.0
 10
258.0312662887058
 20
121.4610273913078
 30
0.0
 10
257.9763607472681
 20
121.5140452531116
 30
0.0
 10
257.8666852453549
 20
121.6199500570977
 30
0.0
 10
257.6952532420868
 20
121.792831787415
 30
0.0
 10
257.589729141253
 20
121.9021401722082
 30
0.0
 10
257.5418070146266
 20
121.9527163992232
 30
0.0
 10
257.5406157540759
 20
121.953973636084
 30
0.0
  0
LINE
  5
A2
330
1F
100
AcDbEntity
  8
0
  6
Continuous
 62
     7
370
    15
100
AcDbLine
 10
247.6205178666
 20
131.8714461253
 30
0.0
 11
247.5874000358
 21
132.2643804327
 31
0.0
  0
LINE
  5
A3
330
1F
100
AcDbEntity
  8
0
  6
Continuous
 62
     7
370
    15
100
AcDbLine
 10
259.6581154632
 20
132.9220320061
 30
0.0
 11
259.6249976325
 21
133.3149681762
 31
0.0
  0
SPLINE
  5
A4
330
1F
100
AcDbEntity
  8
0
  6
Continuous
 62
     7
370
    15
100
AcDbSpline
210
0.0
220
0.0
230
1.0
 70
     8
 71
     3
 72
    11
 73
     7
 74
     0
 42
0.00000001
 43
0.00000001
 12
1.0
 22
0.0
 32
0.0
 13
1.0
 23
0.0
 33
0.0
 40
0.0
 40
0.0
 40
0.0
 40
0.0
 40
0.0081195107309051
 40
0.3263697776524908
 40
0.6627685612941433
 40
1.0
 40
1.0
 40
1.0
 40
1.0
 10
248.6848705577335
 20
130.7881428823404
 30
0.0
 10
248.6836767936381
 20
130.7892650896121
 30
0.0
 10
248.6356925572366
 20
130.8343730462246
 30
0.0
 10
248.5302537354687
 20
130.9355008044359
 30
0.0
 10
248.3587864518362
 20
131.1046924113938
 30
0.0
 10
248.2491157192467
 20
131.2175964030959
 30
0.0
 10
248.194212572523
 20
131.2741181776456
 30
0.0
  0
SPLINE
  5
A5
330
1F
100
AcDbEntity
  8
0
  6
Continuous
 62
     7
370
    15
100
AcDbSpline
210
0.0
220
0.0
230
1.0
 70
     8
 71
     3
 72
    11
 73
     7
 74
     0
 42
0.00000001
 43
0.00000001
 12
1.0
 22
0.0
 32
0.0
 13
1.0
 23
0.0
 33
0.0
 40
0.0
 40
0.0
 40
0.0
 40
0.0
 40
0.3367870891521446
 40
0.6790115135647117
 40
0.992367720500505
 40
1.0
 40
1.0
 40
1.0
 40
1.0
 10
258.7391161488971
 20
131.9716266319684
 30
0.0
 10
258.6836257110213
 20
131.9148560052094
 30
0.0
 10
258.571748957357
 20
131.8003982054799
 30
0.0
 10
258.4022847636967
 20
131.6339105319699
 30
0.0
 10
258.2982790268377
 20
131.534345322959
 30
0.0
 10
258.2513036518178
 20
131.4901954297161
 30
0.0
 10
258.2501866983852
 20
131.4891456589631
 30
0.0
  0
SPLINE
  5
A6
330
1F
100
AcDbEntity
  8
0
  6
Continuous
 62
     7
370
    15
100
AcDbSpline
210
0.0
220
0.0
230
1.0
 70
     8
 71
     3
 72
    12
 73
     8
 74
     0
 42
0.00000001
 43
0.00000001
 12
1.0
 22
0.0
 32
0.0
 13
1.0
 23
0.0
 33
0.0
 40
0.0
 40
0.0
 40
0.0
 40
0.0
 40
0.2499999999999993
 40
0.2499999999999993
 40
0.4999999999999987
 40
0.4999999999999987
 40
1.0
 40
1.0
 40
1.0
 40
1.0
 10
158.5858721933252
 20
118.9051726068127
 30
0.0
 10
158.5222069567947
 20
118.9051726068127
 30
0.0
 10
158.4626007245714
 20
118.9312447552924
 30
0.0
 10
158.3639401996405
 20
119.0067835061135
 30
0.0
 10
158.3249732096252
 20
119.0540344432097
 30
0.0
 10
158.2255863777008
 20
119.2058582611762
 30
0.0
 10
158.1835101302773
 20
119.3186615109413
 30
0.0
 10
158.152859491433
 20
119.4328156356764
 30
0.0
  0
LINE
  5
A7
330
1F
100
AcDbEntity
  8
0
  6
Continuous
 62
     7
370
    15
100
AcDbLine
 10
161.5303582641
 20
118.9051727728
 30
0.0
 11
158.5858720484
 21
118.9051727728
 31
0.0
  0
SPLINE
  5
A8
330
1F
100
AcDbEntity
  8
0
  6
Continuous
 62
     7
370
    15
100
AcDbSpline
210
0.0
220
0.0
230
1.0
 70
     8
 71
     3
 72
    12
 73
     8
 74
     0
 42
0.00000001
 43
0.00000001
 12
1.0
 22
0.0
 32
0.0
 13
1.0
 23
0.0
 33
0.0
 40
0.0
 40
0.0
 40
0.0
 40
0.0
 40
0.4999999999999996
 40
0.4999999999999996
 40
0.7499999999999998
 40
0.7499999999999998
 40
1.0
 40
1.0
 40
1.0
 40
1.0
 10
161.9633712680846
 20
119.4328156356763
 30
0.0
 10
161.9326718847173
 20
119.3184799686125
 30
0.0
 10
161.8913218166107
 20
119.2071266157711
 30
0.0
 10
161.7915658883913
 20
119.0543898435224
 30
0.0
 10
161.7518689706586
 20
119.0065299576702
 30
0.0
 10
161.6546108190109
 20
118.9319268443208
 30
0.0
 10
161.5938346610203
 20
118.9051726068127
 30
0.0
 10
161.5303585661923
 20
118.9051726068127
 30
0.0
  0
ELLIPSE
  5
A9
330
1F
100
AcDbEntity
  8
0
  6
Continuous
 62
     7
370
    15
100
AcDbEllipse
 10
149.0018577248
 20
111.3363626376
 30
0.0
 11
11.70927234972708
 21
24.67718644093743
 31
0.0
210
0.0
220
0.0
230
1.0
 40
0.3419987131
 41
5.20306880937045
 42
6.114256032590495
  0
SPLINE
  5
AA
330
1F
100
AcDbEntity
  8
0
  6
Continuous
 62
     7
370
    15
100
AcDbSpline
210
0.0
220
0.0
230
1.0
 70
     8
 71
     3
 72
    12
 73
     8
 74
     0
 42
0.00000001
 43
0.00000001
 12
1.0
 22
0.0
 32
0.0
 13
1.0
 23
0.0
 33
0.0
 40
0.0
 40
0.0
 40
0.0
 40
0.0
 40
0.2500000000000026
 40
0.2500000000000026
 40
0.5000000000000051
 40
0.5000000000000051
 40
1.0
 40
1.0
 40
1.0
 40
1.0
 10
161.5303585661923
 20
135.1630937531342
 30
0.0
 10
161.5940238027228
 20
135.1630937531342
 30
0.0
 10
161.6536300349462
 20
135.1548289774683
 30
0.0
 10
161.7522905598771
 20
135.1306101958852
 30
0.0
 10
161.7912575498923
 20
135.115352876576
 30
0.0
 10
161.8906443818168
 20
135.0657195223141
 30
0.0
 10
161.9327206292402
 20
135.02807981414
 30
0.0
 10
161.9633712680846
 20
134.9890041148638
 30
0.0
  0
LINE
  5
AB
330
1F
100
AcDbEntity
  8
0
  6
Continuous
 62
     7
370
    15
100
AcDbLine
 10
158.5858720484
 20
135.1630940065
 30
0.0
 11
161.5303582641
 21
135.1630940065
 31
0.0
  0
SPLINE
  5
AC
330
1F
100
AcDbEntity
  8
0
  6
Continuous
 62
     7
370
    15
100
AcDbSpline
210
0.0
220
0.0
230
1.0
 70
     8
 71
     3
 72
    12
 73
     8
 74
     0
 42
0.00000001
 43
0.00000001
 12
1.0
 22
0.0
 32
0.0
 13
1.0
 23
0.0
 33
0.0
 40
0.0
 40
0.0
 40
0.0
 40
0.0
 40
0.5000000000000018
 40
0.5000000000000018
 40
0.7500000000000009
 40
0.7500000000000009
 40
1.0
 40
1.0
 40
1.0
 40
1.0
 10
158.152859491433
 20
134.9890041148638
 30
0.0
 10
158.1835588748003
 20
135.0281419572597
 30
0.0
 10
158.2249089429068
 20
135.0653017399852
 30
0.0
 10
158.3246648711263
 20
135.115238245613
 30
0.0
 10
158.364361788859
 20
135.1306911157568
 30
0.0
 10
158.4616199405066
 20
135.1546106593558
 30
0.0
 10
158.5223960984973
 20
135.1630937531342
 30
0.0
 10
158.5858721933252
 20
135.1630937531342
 30
0.0
  0
ELLIPSE
  5
AD
330
1F
100
AcDbEntity
  8
0
  6
Continuous
 62
     7
370
    15
100
AcDbEllipse
 10
171.1143730347
 20
111.3363626376
 30
0.0
 11
-11.70927234972695
 21
24.67718644093744
 31
0.0
210
0.0
220
0.0
230
1.0
 40
0.3419987131
 41
0.1689292745891358
 42
1.080116497809151
  0
SPLINE
  5
AE
330
1F
100
AcDbEntity
  8
0
  6
Continuous
 62
     7
370
    15
100
AcDbSpline
210
0.0
220
0.0
230
1.0
 70
     8
 71
     3
 72
    12
 73
     8
 74
     0
 42
0.00000001
 43
0.00000001
 12
1.0
 22
0.0
 32
0.0
 13
1.0
 23
0.0
 33
0.0
 40
0.0
 40
0.0
 40
0.0
 40
0.0
 40
0.2500000000000007
 40
0.2500000000000007
 40
0.5000000000000013
 40
0.5000000000000013
 40
1.0
 40
1.0
 40
1.0
 40
1.0
 10
158.5858721933252
 20
87.50963152213029
 30
0.0
 10
158.5222356391115
 20
87.50963152213029
 30
0.0
 10
158.4626555122453
 20
87.51788829306204
 30
0.0
 10
158.3640187708789
 20
87.54209035506987
 30
0.0
 10
158.3250601464986
 20
87.55733717410399
 30
0.0
 10
158.2256812069907
 20
87.60694204616412
 30
0.0
 10
158.1837233018253
 20
87.64437369428293
 30
0.0
 10
158.1528594914328
 20
87.68372116040061
 30
0.0
  0
LINE
  5
AF
330
1F
100
AcDbEntity
  8
0
  6
Continuous
 62
     7
370
    15
100
AcDbLine
 10
161.5303582641
 20
87.5096312687
 30
0.0
 11
158.5858720484
 21
87.5096312687
 31
0.0
  0
SPLINE
  5
B0
330
1F
100
AcDbEntity
  8
0
  6
Continuous
 62
     7
370
    15
100
AcDbSpline
210
0.0
220
0.0
230
1.0
 70
     8
 71
     3
 72
    12
 73
     8
 74
     0
 42
0.00000001
 43
0.00000001
 12
1.0
 22
0.0
 32
0.0
 13
1.0
 23
0.0
 33
0.0
 40
0.0
 40
0.0
 40
0.0
 40
0.0
 40
0.5000000000000004
 40
0.5000000000000004
 40
0.7500000000000002
 40
0.7500000000000002
 40
1.0
 40
1.0
 40
1.0
 40
1.0
 10
161.9633712680846
 20
87.68372116040062
 30
0.0
 10
161.9325195575203
 20
87.64438912003814
 30
0.0
 10
161.8906266940597
 20
87.60697735450987
 30
0.0
 10
161.7911058162665
 20
87.55730642989397
 30
0.0
 10
161.7514916515422
 20
87.54191734728613
 30
0.0
 10
161.6543886177627
 20
87.51808413161888
 30
0.0
 10
161.5938899451124
 20
87.50963152213009
 30
0.0
 10
161.5303585661924
 20
87.50963152213008
 30
0.0
  0
ELLIPSE
  5
B1
330
1F
100
AcDbEntity
  8
0
  6
Continuous
 62
     7
370
    15
100
AcDbEllipse
 10
149.0018577248
 20
111.3363626376
 30
0.0
 11
-11.7092723497272
 21
24.67718644093746
 31
0.0
210
0.0
220
0.0
230
1.0
 40
0.3419987131
 41
3.310521928178952
 42
4.221709151398944
  0
SPLINE
  5
B2
330
1F
100
AcDbEntity
  8
0
  6
Continuous
 62
     7
370
    15
100
AcDbSpline
210
0.0
220
0.0
230
1.0
 70
     8
 71
     3
 72
    12
 73
     8
 74
     0
 42
0.00000001
 43
0.00000001
 12
1.0
 22
0.0
 32
0.0
 13
1.0
 23
0.0
 33
0.0
 40
0.0
 40
0.0
 40
0.0
 40
0.0
 40
0.2500000000000005
 40
0.2500000000000005
 40
0.500000000000001
 40
0.500000000000001
 40
1.0
 40
1.0
 40
1.0
 40
1.0
 10
161.5303585661923
 20
103.7675526684515
 30
0.0
 10
161.593995120406
 20
103.7675526684515
 30
0.0
 10
161.6535752472722
 20
103.7415057653936
 30
0.0
 10
161.7522119886387
 20
103.6660186064936
 30
0.0
 10
161.7911706130189
 20
103.6187995679629
 30
0.0
 10
161.8905495525268
 20
103.4670599168694
 30
0.0
 10
161.9325074576923
 20
103.3548576926852
 30
0.0
 10
161.9633712680848
 20
103.2399096395879
 30
0.0
  0
LINE
  5
B3
330
1F
100
AcDbEntity
  8
0
  6
Continuous
 62
     7
370
    15
100
AcDbLine
 10
158.5858720484
 20
103.7675525025
 30
0.0
 11
161.5303582641
 21
103.7675525025
 31
0.0
  0
SPLINE
  5
B4
330
1F
100
AcDbEntity
  8
0
  6
Continuous
 62
     7
370
    15
100
AcDbSpline
210
0.0
220
0.0
230
1.0
 70
     8
 71
     3
 72
    12
 73
     8
 74
     0
 42
0.00000001
 43
0.00000001
 12
1.0
 22
0.0
 32
0.0
 13
1.0
 23
0.0
 33
0.0
 40
0.0
 40
0.0
 40
0.0
 40
0.0
 40
0.5000000000000004
 40
0.5000000000000004
 40
0.7500000000000002
 40
0.7500000000000002
 40
1.0
 40
1.0
 40
1.0
 40
1.0
 10
158.152859491433
 20
103.2399096395879
 30
0.0
 10
158.1837112019972
 20
103.3548126285248
 30
0.0
 10
158.2256040654578
 20
103.4669515245736
 30
0.0
 10
158.325124943251
 20
103.6188938061745
 30
0.0
 10
158.3647391079754
 20
103.6665584156994
 30
0.0
 10
158.4618421417548
 20
103.7408947463148
 30
0.0
 10
158.5223408144052
 20
103.7675526684519
 30
0.0
 10
158.5858721933251
 20
103.7675526684519
 30
0.0
  0
ELLIPSE
  5
B5
330
1F
100
AcDbEntity
  8
0
  6
Continuous
 62
     7
370
    15
100
AcDbEllipse
 10
171.1143730347
 20
111.3363626376
 30
0.0
 11
11.70927234972708
 21
24.67718644093743
 31
0.0
210
0.0
220
0.0
230
1.0
 40
0.3419987131
 41
2.061476155780657
 42
2.972663379000674
  0
LINE
  5
B6
330
1F
100
AcDbEntity
  8
0
  6
Continuous
 62
     7
370
    15
100
AcDbLine
 10
150.0581153798
 20
86.6363617555
 30
0.0
 11
150.0581153798
 21
136.0363635198
 31
0.0
  0
LINE
  5
B7
330
1F
100
AcDbEntity
  8
0
  6
Continuous
 62
     7
370
    15
100
AcDbLine
 10
170.0581149327
 20
135.7363621668
 30
0.0
 11
170.0581149327
 21
86.9363631085
 31
0.0
  0
SPLINE
  5
B8
330
1F
100
AcDbEntity
  8
0
  6
Continuous
 62
     7
370
    15
100
AcDbSpline
210
0.0
220
0.0
230
1.0
 70
     8
 71
     3
 72
    16
 73
    12
 74
     0
 42
0.00000001
 43
0.00000001
 12
1.0
 22
0.0
 32
0.0
 13
1.0
 23
0.0
 33
0.0
 40
0.0
 40
0.0
 40
0.0
 40
0.0
 40
0.2499999999999997
 40
0.2499999999999997
 40
0.4999999999999993
 40
0.4999999999999993
 40
0.6249999999999996
 40
0.6249999999999996
 40
0.7499999999999999
 40
0.7499999999999999
 40
1.0
 40
1.0
 40
1.0
 40
1.0
 10
149.0172543516297
 20
93.9872053564397
 30
0.0
 10
149.0489823128224
 20
93.9864082396188
 30
0.0
 10
149.0836099031729
 20
93.9858171647635
 30
0.0
 10
149.1633036652366
 20
93.98480563932907
 30
0.0
 10
149.2083451252403
 20
93.98440553115417
 30
0.0
 10
149.2911978520907
 20
93.98344765925033
 30
0.0
 10
149.3211123132906
 20
93.9830659779899
 30
0.0
 10
149.3870986438485
 20
93.98198976393137
 30
0.0
 10
149.4238322693103
 20
93.98127219803723
 30
0.0
 10
149.5363289888801
 20
93.97851132035557
 30
0.0
 10
149.6066703369784
 20
93.97602422848398
 30
0.0
 10
149.6631384908835
 20
93.97385095007688
 30
0.0
  0
SPLINE
  5
B9
330
1F
100
AcDbEntity
  8
0
  6
Continuous
 62
     7
370
    15
100
AcDbSpline
210
0.0
220
0.0
230
1.0
 70
     8
 71
     3
 72
    14
 73
    10
 74
     0
 42
0.00000001
 43
0.00000001
 12
1.0
 22
0.0
 32
0.0
 13
1.0
 23
0.0
 33
0.0
 40
0.0
 40
0.0
 40
0.0
 40
0.0
 40
0.1250000000000054
 40
0.1250000000000054
 40
0.2500000000000107
 40
0.2500000000000107
 40
0.5000000000000099
 40
0.5000000000000099
 40
1.0
 40
1.0
 40
1.0
 40
1.0
 10
149.6631384908519
 20
93.97385095009957
 30
0.0
 10
149.6757302847967
 20
93.97336633227724
 30
0.0
 10
149.6906013930908
 20
93.9716561543449
 30
0.0
 10
149.7227854845239
 20
93.96354060559403
 30
0.0
 10
149.7383896159998
 20
93.95732481733272
 30
0.0
 10
149.7742767557118
 20
93.93910570563115
 30
0.0
 10
149.7881287969805
 20
93.92734067729752
 30
0.0
 10
149.8216185389131
 20
93.89554554088022
 30
0.0
 10
149.8322807994888
 20
93.87775210903709
 30
0.0
 10
149.8404187563838
 20
93.8613209781927
 30
0.0
  0
LINE
  5
BA
330
1F
100
AcDbEntity
  8
0
  6
Continuous
 62
     7
370
    15
100
AcDbLine
 10
149.8581153848
 20
105.3518826105
 30
0.0
 11
149.8581153848
 21
93.4965415821
 31
0.0
  0
SPLINE
  5
BB
330
1F
100
AcDbEntity
  8
0
  6
Continuous
 62
     7
370
    15
100
AcDbSpline
210
0.0
220
0.0
230
1.0
 70
     8
 71
     3
 72
    16
 73
    12
 74
     0
 42
0.00000001
 43
0.00000001
 12
1.0
 22
0.0
 32
0.0
 13
1.0
 23
0.0
 33
0.0
 40
0.0
 40
0.0
 40
0.0
 40
0.0
 40
0.5
 40
0.5
 40
0.75
 40
0.75
 40
0.875
 40
0.875
 40
0.9375
 40
0.9375
 40
1.0
 40
1.0
 40
1.0
 40
1.0
 10
149.8581153797588
 20
105.3518824050577
 30
0.0
 10
149.8581153797588
 20
105.4664121357566
 30
0.0
 10
149.8540580776437
 20
105.5817282109461
 30
0.0
 10
149.8284008348489
 20
105.7566513007737
 30
0.0
 10
149.8170853891068
 20
105.8164806037686
 30
0.0
 10
149.7830540217981
 20
105.9010717900168
 30
0.0
 10
149.7691750405944
 20
105.9297413761608
 30
0.0
 10
149.733239358827
 20
105.9595491631071
 30
0.0
 10
149.7182890395642
 20
105.9658843164668
 30
0.0
 10
149.6883905268224
 20
105.9646588535965
 30
0.0
 10
149.6748576664571
 20
105.9580602675617
 30
0.0
 10
149.6631384908831
 20
105.9494125795053
 30
0.0
  0
SPLINE
  5
BC
330
1F
100
AcDbEntity
  8
0
  6
Continuous
 62
     7
370
    15
100
AcDbSpline
210
0.0
220
0.0
230
1.0
 70
     8
 71
     3
 72
    14
 73
    10
 74
     0
 42
0.00000001
 43
0.00000001
 12
1.0
 22
0.0
 32
0.0
 13
1.0
 23
0.0
 33
0.0
 40
0.0
 40
0.0
 40
0.0
 40
0.0
 40
0.25
 40
0.25
 40
0.5
 40
0.5
 40
0.75
 40
0.75
 40
1.0
 40
1.0
 40
1.0
 40
1.0
 10
149.66313849089
 20
105.9494125794966
 30
0.0
 10
149.6066788250062
 20
105.9077504697978
 30
0.0
 10
149.535806350144
 20
105.8769169892096
 30
0.0
 10
149.3873399922621
 20
105.8826314978228
 30
0.0
 10
149.3181447890543
 20
105.9182024252557
 30
0.0
 10
149.2084276029847
 20
106.0051463377296
 30
0.0
 10
149.1631817140527
 20
106.0575786510947
 30
0.0
 10
149.0835645830859
 20
106.1661317326132
 30
0.0
 10
149.048961963629
 20
106.2231148188557
 30
0.0
 10
149.0172543516302
 20
106.2816809015136
 30
0.0
  0
SPLINE
  5
BD
330
1F
100
AcDbEntity
  8
0
  6
Continuous
 62
     7
370
    15
100
AcDbSpline
210
0.0
220
0.0
230
1.0
 70
     8
 71
     3
 72
    10
 73
     6
 74
     0
 42
0.00000001
 43
0.00000001
 12
1.0
 22
0.0
 32
0.0
 13
1.0
 23
0.0
 33
0.0
 40
0.0
 40
0.0
 40
0.0
 40
0.0
 40
0.5
 40
0.5
 40
1.0
 40
1.0
 40
1.0
 40
1.0
 10
148.7367950361992
 20
107.1344994931599
 30
0.0
 10
148.7676736198111
 20
106.9848709413002
 30
0.0
 10
148.8036663275345
 20
106.8383755237766
 30
0.0
 10
148.8930065790316
 20
106.5531838852358
 30
0.0
 10
148.9454648818771
 20
106.4142808595199
 30
0.0
 10
149.0172543516303
 20
106.2816809015134
 30
0.0
  0
SPLINE
  5
BE
330
1F
100
AcDbEntity
  8
0
  6
Continuous
 62
     7
370
    15
100
AcDbSpline
210
0.0
220
0.0
230
1.0
 70
     8
 71
     3
 72
    10
 73
     6
 74
     0
 42
0.00000001
 43
0.00000001
 12
1.0
 22
0.0
 32
0.0
 13
1.0
 23
0.0
 33
0.0
 40
0.0
 40
0.0
 40
0.0
 40
0.0
 40
0.5
 40
0.5
 40
1.0
 40
1.0
 40
1.0
 40
1.0
 10
149.0172543516296
 20
116.3910443737499
 30
0.0
 10
148.9454648818767
 20
116.2584444157435
 30
0.0
 10
148.8930065790312
 20
116.1195413900278
 30
0.0
 10
148.8036663275343
 20
115.8343497514875
 30
0.0
 10
148.7676736198111
 20
115.6878543339642
 30
0.0
 10
148.7367950361992
 20
115.5382257821047
 30
0.0
  0
SPLINE
  5
BF
330
1F
100
AcDbEntity
  8
0
  6
Continuous
 62
     7
370
    15
100
AcDbSpline
210
0.0
220
0.0
230
1.0
 70
     8
 71
     3
 72
    14
 73
    10
 74
     0
 42
0.00000001
 43
0.00000001
 12
1.0
 22
0.0
 32
0.0
 13
1.0
 23
0.0
 33
0.0
 40
0.0
 40
0.0
 40
0.0
 40
0.0
 40
0.25
 40
0.25
 40
0.5
 40
0.5
 40
0.75
 40
0.75
 40
1.0
 40
1.0
 40
1.0
 40
1.0
 10
149.0172543516289
 20
116.3910443737487
 30
0.0
 10
149.0489630511143
 20
116.4496124650673
 30
0.0
 10
149.0835708697549
 20
116.5066067270073
 30
0.0
 10
149.1632292802442
 20
116.6152068617712
 30
0.0
 10
149.2082915501391
 20
116.6675349971498
 30
0.0
 10
149.3188733957175
 20
116.7550360085121
 30
0.0
 10
149.3865175165328
 20
116.7900814647663
 30
0.0
 10
149.5367658069299
 20
116.7958258535224
 30
0.0
 10
149.6067182051602
 20
116.7649457464723
 30
0.0
 10
149.6631384908837
 20
116.7233126957593
 30
0.0
  0
SPLINE
  5
C0
330
1F
100
AcDbEntity
  8
0
  6
Continuous
 62
     7
370
    15
100
AcDbSpline
210
0.0
220
0.0
230
1.0
 70
     8
 71
     3
 72
    16
 73
    12
 74
     0
 42
0.00000001
 43
0.00000001
 12
1.0
 22
0.0
 32
0.0
 13
1.0
 23
0.0
 33
0.0
 40
0.0
 40
0.0
 40
0.0
 40
0.0
 40
0.0625000000000013
 40
0.0625000000000013
 40
0.1250000000000026
 40
0.1250000000000026
 40
0.2500000000000028
 40
0.2500000000000028
 40
0.500000000000003
 40
0.500000000000003
 40
1.0
 40
1.0
 40
1.0
 40
1.0
 10
149.6631384908519
 20
116.7233126957059
 30
0.0
 10
149.6748727252988
 20
116.7146538955617
 30
0.0
 10
149.6884044807777
 20
116.7080498103264
 30
0.0
 10
149.7183919412076
 20
116.7068528431522
 30
0.0
 10
149.7333866476159
 20
116.7132745902181
 30
0.0
 10
149.7691270700106
 20
116.7429917436274
 30
0.0
 10
149.7831404070118
 20
116.7717991410108
 30
0.0
 10
149.8172844957932
 20
116.8568788626367
 30
0.0
 10
149.8282563999116
 20
116.9152538119064
 30
0.0
 10
149.8541019401779
 20
117.090969336695
 30
0.0
 10
149.8581153797588
 20
117.2067643445595
 30
0.0
 10
149.8581153797588
 20
117.3208428702069
 30
0.0
  0
LINE
  5
C1
330
1F
100
AcDbEntity
  8
0
  6
Continuous
 62
     7
370
    15
100
AcDbLine
 10
149.8581153848
 20
129.1761836932
 30
0.0
 11
149.8581153848
 21
117.3208426647
 31
0.0
  0
SPLINE
  5
C2
330
1F
100
AcDbEntity
  8
0
  6
Continuous
 62
     7
370
    15
100
AcDbSpline
210
0.0
220
0.0
230
1.0
 70
     8
 71
     3
 72
    16
 73
    12
 74
     0
 42
0.00000001
 43
0.00000001
 12
1.0
 22
0.0
 32
0.0
 13
1.0
 23
0.0
 33
0.0
 40
0.0
 40
0.0
 40
0.0
 40
0.0
 40
0.4999999999999982
 40
0.4999999999999982
 40
0.75
 40
0.75
 40
0.8750000000000001
 40
0.8750000000000001
 40
0.9375000000000001
 40
0.9375000000000001
 40
1.0
 40
1.0
 40
1.0
 40
1.0
 10
149.8581153797589
 20
128.8831171032999
 30
0.0
 10
149.8581153797586
 20
128.8611020887205
 30
0.0
 10
149.8539908369047
 20
128.8357484540168
 30
0.0
 10
149.8280743912715
 20
128.7885879518282
 30
0.0
 10
149.8167968102518
 20
128.7713889635995
 30
0.0
 10
149.7830614317104
 20
128.7414109980302
 30
0.0
 10
149.768672616466
 20
128.7300595894883
 30
0.0
 10
149.7334259270269
 20
128.7133717300109
 30
0.0
 10
149.71822050257
 20
128.7078087031257
 30
0.0
 10
149.6885739234006
 20
128.7008391200905
 30
0.0
 10
149.6748685874033
 20
128.6993257790351
 30
0.0
 10
149.6631384908795
 20
128.6988743251853
 30
0.0
  0
SPLINE
  5
C3
330
1F
100
AcDbEntity
  8
0
  6
Continuous
 62
     7
370
    15
100
AcDbSpline
210
0.0
220
0.0
230
1.0
 70
     8
 71
     3
 72
    14
 73
    10
 74
     0
 42
0.00000001
 43
0.00000001
 12
1.0
 22
0.0
 32
0.0
 13
1.0
 23
0.0
 33
0.0
 40
0.0
 40
0.0
 40
0.0
 40
0.0
 40
0.2500000000000005
 40
0.2500000000000005
 40
0.500000000000001
 40
0.500000000000001
 40
0.7500000000000004
 40
0.7500000000000004
 40
1.0
 40
1.0
 40
1.0
 40
1.0
 10
149.66313849089
 20
128.6988743251878
 30
0.0
 10
149.6066914088317
 20
128.6967018577686
 30
0.0
 10
149.5358410247889
 20
128.6942037598511
 30
0.0
 10
149.3874045899724
 20
128.6905573010629
 30
0.0
 10
149.3182153382856
 20
128.6895895542116
 30
0.0
 10
149.2085037900446
 20
128.6883219948489
 30
0.0
 10
149.1632621407023
 20
128.6879191539206
 30
0.0
 10
149.0836141225184
 20
128.686908118993
 30
0.0
 10
149.0489872067524
 20
128.6863171585983
 30
0.0
 10
149.017254351631
 20
128.6855199188249
 30
0.0
  0
SPLINE
  5
C4
330
1F
100
AcDbEntity
  8
0
  6
Continuous
 62
     7
370
    15
100
AcDbSpline
210
0.0
220
0.0
230
1.0
 70
     8
 71
     3
 72
    18
 73
    14
 74
     0
 42
0.00000001
 43
0.00000001
 12
1.0
 22
0.0
 32
0.0
 13
1.0
 23
0.0
 33
0.0
 40
0.0
 40
0.0
 40
0.0
 40
0.0
 40
0.2499999999999998
 40
0.2499999999999998
 40
0.3749999999999998
 40
0.3749999999999998
 40
0.4999999999999999
 40
0.4999999999999999
 40
0.6249999999999999
 40
0.6249999999999999
 40
0.7499999999999999
 40
0.7499999999999999
 40
1.0
 40
1.0
 40
1.0
 40
1.0
 10
148.7367950361992
 20
115.5382257821047
 30
0.0
 10
148.6015094298968
 20
114.8826714466835
 30
0.0
 10
148.5003416836538
 20
114.2030503528859
 30
0.0
 10
148.3974803407849
 20
113.1476863463918
 30
0.0
 10
148.3713774952616
 20
112.7888722818072
 30
0.0
 10
148.3364875117168
 20
112.0627593376843
 30
0.0
 10
148.3279012534268
 20
111.7006696586681
 30
0.0
 10
148.3278015438612
 20
110.9783600012498
 30
0.0
 10
148.3362899150097
 20
110.6181401991414
 30
0.0
 10
148.3704332945303
 20
109.8995741300474
 30
0.0
 10
148.3962302763841
 20
109.5398084141321
 30
0.0
 10
148.4996314077721
 20
108.4731638271377
 30
0.0
 10
148.6014893999434
 20
107.7901508878553
 30
0.0
 10
148.7367950361992
 20
107.1344994931599
 30
0.0
  0
LINE
  5
C5
330
1F
100
AcDbEntity
  8
0
  6
Continuous
 62
     7
370
    15
100
AcDbLine
 10
147.8581153917
 20
116.4765149318
 30
0.0
 11
147.8581153917
 21
106.1962103434
 31
0.0
  0
LINE
  5
C6
330
1F
100
AcDbEntity
  8
0
  6
Continuous
 62
     7
370
    15
100
AcDbLine
 10
121.5581153649
 20
116.146141287
 30
0.0
 11
121.5581153649
 21
106.5265839883
 31
0.0
  0
LINE
  5
C7
330
1F
100
AcDbEntity
  8
0
  6
Continuous
 62
     7
370
    15
100
AcDbLine
 10
120.0581160503
 20
115.7131284439
 30
0.0
 11
120.0581160503
 21
106.9595968314
 31
0.0
  0
LINE
  5
C8
330
1F
100
AcDbEntity
  8
0
  6
Continuous
 62
     7
370
    15
100
AcDbLine
 10
121.5581153649
 20
94.4770119116
 30
0.0
 11
121.5581153649
 21
106.5265839883
 31
0.0
  0
LINE
  5
C9
330
1F
100
AcDbEntity
  8
0
  6
Continuous
 62
     7
370
    15
100
AcDbLine
 10
147.8581153917
 20
93.816264622
 30
0.0
 11
147.8581153917
 21
106.1962103434
 31
0.0
  0
LINE
  5
CA
330
1F
100
AcDbEntity
  8
0
  6
Continuous
 62
     7
370
    15
100
AcDbLine
 10
121.5581153649
 20
94.4770119116
 30
0.0
 11
147.8581153917
 21
93.816264622
 31
0.0
  0
ARC
  5
CB
330
1F
100
AcDbEntity
  8
0
  6
Continuous
 62
     7
370
    15
100
AcDbCircle
 10
148.0580522907
 20
93.8112407419
 30
0.0
 40
0.2000000000000052
100
AcDbArc
 50
88.5608333333
 51
178.5608333333
  0
LINE
  5
CC
330
1F
100
AcDbEntity
  8
0
  6
Continuous
 62
     7
370
    15
100
AcDbLine
 10
121.5581153649
 20
116.146141287
 30
0.0
 11
121.5581153649
 21
128.1957133636
 31
0.0
  0
LINE
  5
CD
330
1F
100
AcDbEntity
  8
0
  6
Continuous
 62
     7
370
    15
100
AcDbLine
 10
121.5581153649
 20
128.1957133636
 30
0.0
 11
147.8581153917
 21
128.8564606533
 31
0.0
  0
LINE
  5
CE
330
1F
100
AcDbEntity
  8
0
  6
Continuous
 62
     7
370
    15
100
AcDbLine
 10
147.8581153917
 20
116.4765149318
 30
0.0
 11
147.8581153917
 21
128.8564606533
 31
0.0
  0
ARC
  5
CF
330
1F
100
AcDbEntity
  8
0
  6
Continuous
 62
     7
370
    15
100
AcDbCircle
 10
148.0580522907
 20
128.8614845333
 30
0.0
 40
0.2000000000000052
100
AcDbArc
 50
181.4391666667
 51
271.4391666667
  0
LINE
  5
D0
330
1F
100
AcDbEntity
  8
0
  6
Continuous
 62
     7
370
    15
100
AcDbLine
 10
148.0630755088
 20
94.0111773983
 30
0.0
 11
149.0172543692
 21
93.9872051552
 31
0.0
  0
LINE
  5
D1
330
1F
100
AcDbEntity
  8
0
  6
Continuous
 62
     7
370
    15
100
AcDbLine
 10
148.0630755088
 20
128.6615478769
 30
0.0
 11
149.0172543692
 21
128.68552012
 31
0.0
  0
LINE
  5
D2
330
1F
100
AcDbEntity
  8
0
  6
Continuous
 62
     7
370
    15
100
AcDbLine
 10
120.0581160503
 20
127.3296876774
 30
0.0
 11
121.5581153649
 21
128.1957133636
 31
0.0
  0
LINE
  5
D3
330
1F
100
AcDbEntity
  8
0
  6
Continuous
 62
     7
370
    15
100
AcDbLine
 10
120.0581160503
 20
115.7131284439
 30
0.0
 11
120.0581160503
 21
127.3296876774
 31
0.0
  0
LINE
  5
D4
330
1F
100
AcDbEntity
  8
0
  6
Continuous
 62
     7
370
    15
100
AcDbLine
 10
120.0581160503
 20
95.3430375979
 30
0.0
 11
121.5581153649
 21
94.4770119116
 31
0.0
  0
LINE
  5
D5
330
1F
100
AcDbEntity
  8
0
  6
Continuous
 62
     7
370
    15
100
AcDbLine
 10
120.0581160503
 20
95.3430375979
 30
0.0
 11
120.0581160503
 21
106.9595968314
 31
0.0
  0
LINE
  5
D6
330
1F
100
AcDbEntity
  8
0
  6
Continuous
 62
     7
370
    15
100
AcDbLine
 10
232.3600971269
 20
127.3359219507
 30
0.0
 11
233.643899219
 21
127.3359219507
 31
0.0
  0
SPLINE
  5
D7
330
1F
100
AcDbEntity
  8
0
  6
Continuous
 62
     7
370
    15
100
AcDbSpline
210
0.0
220
0.0
230
1.0
 70
     8
 71
     3
 72
    14
 73
    10
 74
     0
 42
0.00000001
 43
0.00000001
 12
1.0
 22
0.0
 32
0.0
 13
1.0
 23
0.0
 33
0.0
 40
0.0
 40
0.0
 40
0.0
 40
0.0
 40
0.25
 40
0.25
 40
0.5
 40
0.5
 40
0.75
 40
0.75
 40
1.0
 40
1.0
 40
1.0
 40
1.0
 10
229.4623188648284
 20
127.1613497233278
 30
0.0
 10
229.5463515245021
 20
127.2087284588558
 30
0.0
 10
229.6784497407701
 20
127.2433619169494
 30
0.0
 10
230.0417330141455
 20
127.2942934606046
 30
0.0
 10
230.2640219141336
 20
127.3093583400053
 30
0.0
 10
230.7867223270015
 20
127.3283768055067
 30
0.0
 10
231.0762921661379
 20
127.3320120245832
 30
0.0
 10
231.7022083708815
 20
127.3357838240299
 30
0.0
 10
232.028018076893
 20
127.3359211470629
 30
0.0
 10
232.3600963436956
 20
127.3359211470629
 30
0.0
  0
ELLIPSE
  5
D8
330
1F
100
AcDbEntity
  8
0
  6
Continuous
 62
     7
370
    15
100
AcDbEllipse
 10
230.3889368198
 20
111.3363626376
 30
0.0
 11
-0.3220561513869313
 21
15.99976859320064
 31
0.0
210
0.0
220
0.0
230
1.0
 40
0.2671959542
 41
0.1426643238695719
 42
2.84854542511916
  0
SPLINE
  5
D9
330
1F
100
AcDbEntity
  8
0
  6
Continuous
 62
     7
370
    15
100
AcDbSpline
210
0.0
220
0.0
230
1.0
 70
     8
 71
     3
 72
    14
 73
    10
 74
     0
 42
0.00000001
 43
0.00000001
 12
1.0
 22
0.0
 32
0.0
 13
1.0
 23
0.0
 33
0.0
 40
0.0
 40
0.0
 40
0.0
 40
0.0
 40
0.25
 40
0.25
 40
0.5
 40
0.5
 40
0.75
 40
0.75
 40
1.0
 40
1.0
 40
1.0
 40
1.0
 10
232.3600963436956
 20
95.50905273164061
 30
0.0
 10
232.0280207694755
 20
95.50905273164061
 30
0.0
 10
231.7050997642166
 20
95.5166684960701
 30
0.0
 10
231.0775246406685
 20
95.5503062999537
 30
0.0
 10
230.7888265691944
 20
95.57558456657519
 30
0.0
 10
230.2655930924169
 20
95.65089148951351
 30
0.0
 10
230.0427536915089
 20
95.69943251675461
 30
0.0
 10
229.6797853699152
 20
95.82640243792652
 30
0.0
 10
229.5463539025968
 20
95.90270262457122
 30
0.0
 10
229.4623188648284
 20
95.9938371742953
 30
0.0
  0
LINE
  5
DA
330
1F
100
AcDbEntity
  8
0
  6
Continuous
 62
     7
370
    15
100
AcDbLine
 10
233.643899219
 20
95.5090532974
 30
0.0
 11
232.3600971269
 21
95.5090532974
 31
0.0
  0
ELLIPSE
  5
DB
330
1F
100
AcDbEntity
  8
0
  6
Continuous
 62
     7
370
    15
100
AcDbEllipse
 10
228.1722043771
 20
118.2548133997
 30
0.0
 11
0.08998737201204678
 21
2.357478075397751
 31
0.0
210
0.0
220
0.0
230
1.0
 40
0.2521532344
 41
0.0
 42
6.283185307179586
  0
SPLINE
  5
DC
330
1F
100
AcDbEntity
  8
0
  6
Continuous
 62
     7
370
    15
100
AcDbSpline
210
0.0
220
0.0
230
1.0
 70
     8
 71
     3
 72
    10
 73
     6
 74
     0
 42
0.00000001
 43
0.00000001
 12
1.0
 22
0.0
 32
0.0
 13
1.0
 23
0.0
 33
0.0
 40
0.0
 40
0.0
 40
0.0
 40
0.0
 40
0.5
 40
0.5
 40
1.0
 40
1.0
 40
1.0
 40
1.0
 10
233.6439018173857
 20
127.3359211470629
 30
0.0
 10
233.7759643080732
 20
127.3359211470629
 30
0.0
 10
233.9055627326844
 20
127.3619314503025
 30
0.0
 10
234.1475499496894
 20
127.4622089889079
 30
0.0
 10
234.2577624811161
 20
127.5356717046866
 30
0.0
 10
234.3510085985725
 20
127.6289589065073
 30
0.0
  0
SPLINE
  5
DD
330
1F
100
AcDbEntity
  8
0
  6
Continuous
 62
     7
370
    15
100
AcDbSpline
210
0.0
220
0.0
230
1.0
 70
     8
 71
     3
 72
    10
 73
     6
 74
     0
 42
0.00000001
 43
0.00000001
 12
1.0
 22
0.0
 32
0.0
 13
1.0
 23
0.0
 33
0.0
 40
0.0
 40
0.0
 40
0.0
 40
0.0
 40
0.5
 40
0.5
 40
1.0
 40
1.0
 40
1.0
 40
1.0
 10
234.3510085985722
 20
95.21601497219595
 30
0.0
 10
234.2577636389067
 20
95.3093010157156
 30
0.0
 10
234.1478675893524
 20
95.38258261687548
 30
0.0
 10
233.9059039998635
 20
95.482951517955
 30
0.0
 10
233.7759709267554
 20
95.50905273164081
 30
0.0
 10
233.6439018173857
 20
95.50905273164081
 30
0.0
  0
LINE
  5
DE
330
1F
100
AcDbEntity
  8
0
  6
Continuous
 62
     7
370
    15
100
AcDbLine
 10
234.3510114717
 20
127.6292550341
 30
0.0
 11
234.3510114717
 21
127.6289588735
 31
0.0
  0
ARC
  5
DF
330
1F
100
AcDbEntity
  8
0
  6
Continuous
 62
     7
370
    15
100
AcDbCircle
 10
247.3938133307
 20
120.6798353721
 30
0.0
 40
2.097357280720025
100
AcDbArc
 50
118.3455960839
 51
333.0467430001
  0
LINE
  5
E0
330
1F
100
AcDbEntity
  8
0
  6
Continuous
 62
     7
370
    15
100
AcDbLine
 10
258.6357616949
 20
120.5312033147
 30
0.0
 11
258.5141980218
 21
119.1450959035
 31
0.0
  0
LINE
  5
E1
330
1F
100
AcDbEntity
  8
0
  6
Continuous
 62
     7
370
    15
100
AcDbLine
 10
258.5141980218
 20
119.1450959035
 30
0.0
 11
241.5725314187
 21
95.0088250414
 31
0.0
  0
LINE
  5
E2
330
1F
100
AcDbEntity
  8
0
  6
Continuous
 62
     7
370
    15
100
AcDbLine
 10
241.5725314187
 20
95.0088250414
 30
0.0
 11
234.5581152605
 21
95.0088250414
 31
0.0
  0
LINE
  5
E3
330
1F
100
AcDbEntity
  8
0
  6
Continuous
 62
     7
370
    15
100
AcDbLine
 10
234.5581152605
 20
95.0088250414
 30
0.0
 11
234.3510114717
 21
95.2160145119
 31
0.0
  0
SPLINE
  5
E4
330
1F
100
AcDbEntity
  8
0
  6
Continuous
 62
     7
370
    15
100
AcDbSpline
210
0.0
220
0.0
230
1.0
 70
     8
 71
     3
 72
     8
 73
     4
 74
     0
 42
0.00000001
 43
0.00000001
 12
1.0
 22
0.0
 32
0.0
 13
1.0
 23
0.0
 33
0.0
 40
0.0
 40
0.0
 40
0.0
 40
0.0
 40
1.0
 40
1.0
 40
1.0
 40
1.0
 10
234.3510085985722
 20
127.6289589065075
 30
0.0
 10
235.4855736133367
 20
128.7640238121371
 30
0.0
 10
236.6204716814101
 20
129.8987577161643
 30
0.0
 10
237.755555283571
 20
131.0333072290487
 30
0.0
  0
ELLIPSE
  5
E5
330
1F
100
AcDbEntity
  8
0
  6
Continuous
 62
     7
370
    15
100
AcDbEllipse
 10
269.0732954731
 20
114.7350202731
 30
0.0
 11
3113.331223476199
 21
271.0557416021175
 31
0.0
210
0.0
220
0.0
230
1.0
 40
0.0060650906
 41
1.577276189716329
 42
1.580327688672809
  0
LINE
  5
E6
330
1F
100
AcDbEntity
  8
0
  6
Continuous
 62
     7
370
    15
100
AcDbLine
 10
234.5581152605
 20
95.0088250414
 30
0.0
 11
234.5581152605
 21
94.836362727
 31
0.0
  0
ELLIPSE
  5
E7
330
1F
100
AcDbEntity
  8
0
  6
Continuous
 62
     7
370
    15
100
AcDbEllipse
 10
252.9085013882
 20
111.3363626376
 30
0.0
 11
11.76369068746803
 21
16.481247123708
 31
0.0
210
0.0
220
0.0
230
1.0
 40
0.0668534593
 41
3.189273956189452
 42
3.333983942804678
  0
ARC
  5
E8
330
1F
100
AcDbEntity
  8
0
  6
Continuous
 62
     7
370
    15
100
AcDbCircle
 10
247.3867071493
 20
120.3445482826
 30
0.0
 40
2.094373342680644
100
AcDbArc
 50
119.1304681048
 51
175.3819624702
  0
SPLINE
  5
E9
330
1F
100
AcDbEntity
  8
0
  6
HIDDEN
 62
     7
370
     0
100
AcDbSpline
210
0.0
220
0.0
230
1.0
 70
     8
 71
     3
 72
    58
 73
    54
 74
     0
 42
0.00000001
 43
0.00000001
 12
1.0
 22
0.0
 32
0.0
 13
1.0
 23
0.0
 33
0.0
 40
-0.0624999999999997
 40
-0.0624999999999997
 40
0.0
 40
0.0
 40
0.03125
 40
0.03125
 40
0.0625000000000001
 40
0.0625000000000001
 40
0.0937500000000001
 40
0.0937500000000001
 40
0.1250000000000001
 40
0.1250000000000001
 40
0.1875000000000003
 40
0.1875000000000003
 40
0.2500000000000004
 40
0.2500000000000004
 40
0.2812500000000006
 40
0.2812500000000006
 40
0.3125000000000006
 40
0.3125000000000006
 40
0.3437500000000007
 40
0.3437500000000007
 40
0.3750000000000007
 40
0.3750000000000007
 40
0.4062500000000007
 40
0.4062500000000007
 40
0.4375000000000008
 40
0.4375000000000008
 40
0.4687500000000008
 40
0.4687500000000008
 40
0.5000000000000009
 40
0.5000000000000009
 40
0.562500000000001
 40
0.562500000000001
 40
0.6250000000000011
 40
0.6250000000000011
 40
0.656250000000001
 40
0.656250000000001
 40
0.687500000000001
 40
0.687500000000001
 40
0.7187500000000009
 40
0.7187500000000009
 40
0.7500000000000008
 40
0.7500000000000008
 40
0.7812500000000008
 40
0.7812500000000008
 40
0.8125000000000007
 40
0.8125000000000007
 40
0.8437500000000007
 40
0.8437500000000007
 40
0.8750000000000006
 40
0.8750000000000006
 40
0.9375000000000003
 40
0.9375000000000003
 40
1.0
 40
1.0
 40
1.03125
 40
1.03125
 10
160.0581153797588
 20
111.0719902670888
 30
0.0
 10
160.0581153797588
 20
111.468548822904
 30
0.0
 10
160.0710912717693
 20
111.5985155624488
 30
0.0
 10
160.1219235738752
 20
111.8541949005809
 30
0.0
 10
160.1604006451966
 20
111.9812359924224
 30
0.0
 10
160.260805606353
 20
112.2234141783629
 30
0.0
 10
160.3222398486723
 20
112.3382678369524
 30
0.0
 10
160.467374114854
 20
112.5556329587582
 30
0.0
 10
160.5518160360013
 20
112.6585084308425
 30
0.0
 10
160.8284880656112
 20
112.9351263832596
 30
0.0
 10
161.0515342205793
 20
113.0841185030925
 30
0.0
 10
161.5327982191238
 20
113.2836422980838
 30
0.0
 10
161.7960560744436
 20
113.336221162586
 30
0.0
 10
162.1875221057284
 20
113.3364329361735
 30
0.0
 10
162.3200708493419
 20
113.3234419645841
 30
0.0
 10
162.5766151583572
 20
113.2724057412943
 30
0.0
 10
162.7013110447288
 20
113.2346441998915
 30
0.0
 10
162.9435140151626
 20
113.1344846605981
 30
0.0
 10
163.0605773784133
 20
113.0718868508476
 30
0.0
 10
163.2772636976594
 20
112.927164866812
 30
0.0
 10
163.3782776657271
 20
112.8445407616437
 30
0.0
 10
163.5650708600126
 20
112.6579203910327
 30
0.0
 10
163.6478712239669
 20
112.5568720231415
 30
0.0
 10
163.7927496628614
 20
112.3403600022676
 30
0.0
 10
163.8554004461888
 20
112.2234706470687
 30
0.0
 10
163.9558408405627
 20
111.9812132450097
 30
0.0
 10
163.9936998523327
 20
111.8565505801944
 30
0.0
 10
164.0449375567962
 20
111.6002193845396
 30
0.0
 10
164.0580679315693
 20
111.4676314451892
 30
0.0
 10
164.0582098820082
 20
111.0759997766198
 30
0.0
 10
164.0058689657601
 20
110.8127869435856
 30
0.0
 10
163.806738739022
 20
110.3312796128942
 30
0.0
 10
163.6579016513797
 20
110.1080791316187
 30
0.0
 10
163.3815896148403
 20
109.8312330516569
 30
0.0
 10
163.278824077589
 20
109.7467209574382
 30
0.0
 10
163.0615071452352
 20
109.6013423607067
 30
0.0
 10
162.9467202346984
 20
109.5398269291049
 30
0.0
 10
162.7048007445925
 20
109.4392708688593
 30
0.0
 10
162.5776738420925
 20
109.4006321430247
 30
0.0
 10
162.3220050064563
 20
109.3495672761373
 30
0.0
 10
162.1921098010783
 20
109.336492795761
 30
0.0
 10
161.9280350186539
 20
109.3362343944874
 30
0.0
 10
161.7977058791686
 20
109.3491104624504
 30
0.0
 10
161.5420165650248
 20
109.3997092537783
 30
0.0
 10
161.4150886986371
 20
109.438014599616
 30
0.0
 10
161.172636409795
 20
109.5382704320359
 30
0.0
 10
161.0577197158134
 20
109.5996214509479
 30
0.0
 10
160.8403289240429
 20
109.7444902865182
 30
0.0
 10
160.7373436443614
 20
109.8288542397875
 30
0.0
 10
160.4603792767041
 20
110.1053802935736
 30
0.0
 10
160.3112469983456
 20
110.3282401355693
 30
0.0
 10
160.1112948796312
 20
110.8093426556301
 30
0.0
 10
160.0581153797588
 20
111.0719902670888
 30
0.0
 10
160.0581153797588
 20
111.468548822904
 30
0.0
  0
SPLINE
  5
EA
330
1F
100
AcDbEntity
  8
0
  6
HIDDEN
 62
     7
370
     0
100
AcDbSpline
210
0.0
220
0.0
230
1.0
 70
     8
 71
     3
 72
    12
 73
     8
 74
     0
 42
0.00000001
 43
0.00000001
 12
1.0
 22
0.0
 32
0.0
 13
1.0
 23
0.0
 33
0.0
 40
0.0
 40
0.0
 40
0.0
 40
0.0
 40
0.2500000000000002
 40
0.2500000000000002
 40
0.5000000000000004
 40
0.5000000000000004
 40
1.0
 40
1.0
 40
1.0
 40
1.0
 10
158.5858721933252
 20
103.7675526684517
 30
0.0
 10
158.5222069567947
 20
103.7675526684517
 30
0.0
 10
158.4626007245714
 20
103.741480519972
 30
0.0
 10
158.3639401996405
 20
103.6659417691509
 30
0.0
 10
158.3249732096252
 20
103.6186908320547
 30
0.0
 10
158.2255863777008
 20
103.4668670140882
 30
0.0
 10
158.1835101302773
 20
103.3540637643232
 30
0.0
 10
158.152859491433
 20
103.239909639588
 30
0.0
  0
LINE
  5
EB
330
1F
100
AcDbEntity
  8
0
  6
HIDDEN
 62
     7
370
     0
100
AcDbLine
 10
161.5303582641
 20
103.7675525025
 30
0.0
 11
158.5858720484
 21
103.7675525025
 31
0.0
  0
SPLINE
  5
EC
330
1F
100
AcDbEntity
  8
0
  6
HIDDEN
 62
     7
370
     0
100
AcDbSpline
210
0.0
220
0.0
230
1.0
 70
     8
 71
     3
 72
    12
 73
     8
 74
     0
 42
0.00000001
 43
0.00000001
 12
1.0
 22
0.0
 32
0.0
 13
1.0
 23
0.0
 33
0.0
 40
0.0
 40
0.0
 40
0.0
 40
0.0
 40
0.5000000000000018
 40
0.5000000000000018
 40
0.7500000000000009
 40
0.7500000000000009
 40
1.0
 40
1.0
 40
1.0
 40
1.0
 10
161.9633712680846
 20
103.2399096395881
 30
0.0
 10
161.9326718847173
 20
103.3542453066519
 30
0.0
 10
161.8913218166107
 20
103.4655986594933
 30
0.0
 10
161.7915658883913
 20
103.618335431742
 30
0.0
 10
161.7518689706585
 20
103.6661953175942
 30
0.0
 10
161.6546108190109
 20
103.7407984309436
 30
0.0
 10
161.5938346610203
 20
103.7675526684517
 30
0.0
 10
161.5303585661923
 20
103.7675526684517
 30
0.0
  0
ELLIPSE
  5
ED
330
1F
100
AcDbEntity
  8
0
  6
HIDDEN
 62
     7
370
     0
100
AcDbEllipse
 10
149.0018577248
 20
111.3363626376
 30
0.0
 11
-11.70927234972711
 21
24.67718644093743
 31
0.0
210
0.0
220
0.0
230
1.0
 40
0.3419987131
 41
3.310521928178963
 42
4.221709151398951
  0
SPLINE
  5
EE
330
1F
100
AcDbEntity
  8
0
  6
HIDDEN
 62
     7
370
     0
100
AcDbSpline
210
0.0
220
0.0
230
1.0
 70
     8
 71
     3
 72
    12
 73
     8
 74
     0
 42
0.00000001
 43
0.00000001
 12
1.0
 22
0.0
 32
0.0
 13
1.0
 23
0.0
 33
0.0
 40
0.0
 40
0.0
 40
0.0
 40
0.0
 40
0.25
 40
0.25
 40
0.5
 40
0.5
 40
1.0
 40
1.0
 40
1.0
 40
1.0
 10
161.5303585661923
 20
87.50963152213035
 30
0.0
 10
161.5940238027228
 20
87.50963152213036
 30
0.0
 10
161.6536300349462
 20
87.51789629779621
 30
0.0
 10
161.7522905598771
 20
87.54211507937937
 30
0.0
 10
161.7912575498923
 20
87.55737239868851
 30
0.0
 10
161.8906443818168
 20
87.60700575295044
 30
0.0
 10
161.9327206292402
 20
87.64464546112455
 30
0.0
 10
161.9633712680846
 20
87.68372116040068
 30
0.0
  0
LINE
  5
EF
330
1F
100
AcDbEntity
  8
0
  6
HIDDEN
 62
     7
370
     0
100
AcDbLine
 10
158.5858720484
 20
87.5096312687
 30
0.0
 11
161.5303582641
 21
87.5096312687
 31
0.0
  0
SPLINE
  5
F0
330
1F
100
AcDbEntity
  8
0
  6
HIDDEN
 62
     7
370
     0
100
AcDbSpline
210
0.0
220
0.0
230
1.0
 70
     8
 71
     3
 72
    12
 73
     8
 74
     0
 42
0.00000001
 43
0.00000001
 12
1.0
 22
0.0
 32
0.0
 13
1.0
 23
0.0
 33
0.0
 40
0.0
 40
0.0
 40
0.0
 40
0.0
 40
0.5000000000000013
 40
0.5000000000000013
 40
0.7500000000000007
 40
0.7500000000000007
 40
1.0
 40
1.0
 40
1.0
 40
1.0
 10
158.152859491433
 20
87.68372116040068
 30
0.0
 10
158.1835588748003
 20
87.64458331800479
 30
0.0
 10
158.2249089429068
 20
87.60742353527928
 30
0.0
 10
158.3246648711263
 20
87.55748702965155
 30
0.0
 10
158.364361788859
 20
87.54203415950778
 30
0.0
 10
158.4616199405066
 20
87.51811461590873
 30
0.0
 10
158.5223960984973
 20
87.50963152213033
 30
0.0
 10
158.5858721933252
 20
87.50963152213035
 30
0.0
  0
ELLIPSE
  5
F1
330
1F
100
AcDbEntity
  8
0
  6
HIDDEN
 62
     7
370
     0
100
AcDbEllipse
 10
171.1143730347
 20
111.3363626376
 30
0.0
 11
11.70927234972703
 21
24.67718644093743
 31
0.0
210
0.0
220
0.0
230
1.0
 40
0.3419987131
 41
2.061476155780648
 42
2.972663379000667
  0
SPLINE
  5
F2
330
1F
100
AcDbEntity
  8
0
  6
HIDDEN
 62
     7
370
     0
100
AcDbSpline
210
0.0
220
0.0
230
1.0
 70
     8
 71
     3
 72
    12
 73
     8
 74
     0
 42
0.00000001
 43
0.00000001
 12
1.0
 22
0.0
 32
0.0
 13
1.0
 23
0.0
 33
0.0
 40
0.0
 40
0.0
 40
0.0
 40
0.0
 40
0.2500000000000002
 40
0.2500000000000002
 40
0.5000000000000004
 40
0.5000000000000004
 40
1.0
 40
1.0
 40
1.0
 40
1.0
 10
158.5858721933252
 20
135.1630937531343
 30
0.0
 10
158.5222069567947
 20
135.1630937531343
 30
0.0
 10
158.4626007245714
 20
135.1548289774685
 30
0.0
 10
158.3639401996405
 20
135.1306101958853
 30
0.0
 10
158.3249732096252
 20
135.1153528765762
 30
0.0
 10
158.2255863777008
 20
135.0657195223143
 30
0.0
 10
158.1835101302773
 20
135.0280798141401
 30
0.0
 10
158.152859491433
 20
134.989004114864
 30
0.0
  0
LINE
  5
F3
330
1F
100
AcDbEntity
  8
0
  6
HIDDEN
 62
     7
370
     0
100
AcDbLine
 10
161.5303582641
 20
135.1630940065
 30
0.0
 11
158.5858720484
 21
135.1630940065
 31
0.0
  0
SPLINE
  5
F4
330
1F
100
AcDbEntity
  8
0
  6
HIDDEN
 62
     7
370
     0
100
AcDbSpline
210
0.0
220
0.0
230
1.0
 70
     8
 71
     3
 72
    12
 73
     8
 74
     0
 42
0.00000001
 43
0.00000001
 12
1.0
 22
0.0
 32
0.0
 13
1.0
 23
0.0
 33
0.0
 40
0.0
 40
0.0
 40
0.0
 40
0.0
 40
0.4999999999999991
 40
0.4999999999999991
 40
0.7499999999999996
 40
0.7499999999999996
 40
1.0
 40
1.0
 40
1.0
 40
1.0
 10
161.9633712680846
 20
134.989004114864
 30
0.0
 10
161.9326718847173
 20
135.0281419572599
 30
0.0
 10
161.8913218166108
 20
135.0653017399854
 30
0.0
 10
161.7915658883913
 20
135.1152382456132
 30
0.0
 10
161.7518689706586
 20
135.1306911157569
 30
0.0
 10
161.6546108190109
 20
135.154610659356
 30
0.0
 10
161.5938346610203
 20
135.1630937531343
 30
0.0
 10
161.5303585661923
 20
135.1630937531343
 30
0.0
  0
ELLIPSE
  5
F5
330
1F
100
AcDbEntity
  8
0
  6
HIDDEN
 62
     7
370
     0
100
AcDbEllipse
 10
149.0018577248
 20
111.3363626376
 30
0.0
 11
11.70927234972726
 21
24.67718644093744
 31
0.0
210
0.0
220
0.0
230
1.0
 40
0.3419987131
 41
5.203068809370469
 42
6.114256032590515
  0
SPLINE
  5
F6
330
1F
100
AcDbEntity
  8
0
  6
HIDDEN
 62
     7
370
     0
100
AcDbSpline
210
0.0
220
0.0
230
1.0
 70
     8
 71
     3
 72
    12
 73
     8
 74
     0
 42
0.00000001
 43
0.00000001
 12
1.0
 22
0.0
 32
0.0
 13
1.0
 23
0.0
 33
0.0
 40
0.0
 40
0.0
 40
0.0
 40
0.0
 40
0.2499999999999984
 40
0.2499999999999984
 40
0.4999999999999968
 40
0.4999999999999968
 40
1.0
 40
1.0
 40
1.0
 40
1.0
 10
161.5303585661923
 20
118.9051726068132
 30
0.0
 10
161.5940238027228
 20
118.9051726068132
 30
0.0
 10
161.6536300349462
 20
118.9312447552929
 30
0.0
 10
161.7522905598771
 20
119.006783506114
 30
0.0
 10
161.7912575498923
 20
119.0540344432103
 30
0.0
 10
161.8906443818168
 20
119.2058582611767
 30
0.0
 10
161.9327206292402
 20
119.3186615109417
 30
0.0
 10
161.9633712680846
 20
119.4328156356768
 30
0.0
  0
LINE
  5
F7
330
1F
100
AcDbEntity
  8
0
  6
HIDDEN
 62
     7
370
     0
100
AcDbLine
 10
158.5858720484
 20
118.9051727728
 30
0.0
 11
161.5303582641
 21
118.9051727728
 31
0.0
  0
SPLINE
  5
F8
330
1F
100
AcDbEntity
  8
0
  6
HIDDEN
 62
     7
370
     0
100
AcDbSpline
210
0.0
220
0.0
230
1.0
 70
     8
 71
     3
 72
    12
 73
     8
 74
     0
 42
0.00000001
 43
0.00000001
 12
1.0
 22
0.0
 32
0.0
 13
1.0
 23
0.0
 33
0.0
 40
0.0
 40
0.0
 40
0.0
 40
0.0
 40
0.5000000000000046
 40
0.5000000000000046
 40
0.7500000000000022
 40
0.7500000000000022
 40
1.0
 40
1.0
 40
1.0
 40
1.0
 10
158.152859491433
 20
119.4328156356768
 30
0.0
 10
158.1835588748003
 20
119.318479968613
 30
0.0
 10
158.2249089429068
 20
119.2071266157716
 30
0.0
 10
158.3246648711263
 20
119.0543898435229
 30
0.0
 10
158.364361788859
 20
119.0065299576708
 30
0.0
 10
158.4616199405066
 20
118.9319268443213
 30
0.0
 10
158.5223960984973
 20
118.9051726068132
 30
0.0
 10
158.5858721933252
 20
118.9051726068132
 30
0.0
  0
ELLIPSE
  5
F9
330
1F
100
AcDbEntity
  8
0
  6
HIDDEN
 62
     7
370
     0
100
AcDbEllipse
 10
171.1143730347
 20
111.3363626376
 30
0.0
 11
-11.70927234972708
 21
24.67718644093743
 31
0.0
210
0.0
220
0.0
230
1.0
 40
0.3419987131
 41
0.1689292745891173
 42
1.080116497809134
  0
LINE
  5
FA
330
1F
100
AcDbEntity
  8
0
  6
HIDDEN
 62
     7
370
     0
100
AcDbLine
 10
150.0581153798
 20
136.0363635198
 30
0.0
 11
150.0581153798
 21
86.6363617555
 31
0.0
  0
LINE
  5
FB
330
1F
100
AcDbEntity
  8
0
  6
HIDDEN
 62
     7
370
     0
100
AcDbLine
 10
170.0581149327
 20
86.9363631085
 30
0.0
 11
170.0581149327
 21
135.7363621668
 31
0.0
  0
LINE
  5
FC
330
1F
100
AcDbEntity
  8
0
  6
HIDDEN
 62
     7
370
     0
100
AcDbLine
 10
170.0581149327
 20
91.3363630847
 30
0.0
 11
170.0581149327
 21
131.3363621906
 31
0.0
  0
LINE
  5
FD
330
1F
100
AcDbEntity
  8
0
  6
HIDDEN
 62
     7
370
     0
100
AcDbLine
 10
150.0581153798
 20
91.7863632516
 30
0.0
 11
150.0581153798
 21
130.8863620237
 31
0.0
  0
SPLINE
  5
FE
330
1F
100
AcDbEntity
  8
0
  6
HIDDEN
 62
     7
370
     0
100
AcDbSpline
210
0.0
220
0.0
230
1.0
 70
     8
 71
     3
 72
    14
 73
    10
 74
     0
 42
0.00000001
 43
0.00000001
 12
1.0
 22
0.0
 32
0.0
 13
1.0
 23
0.0
 33
0.0
 40
0.0
 40
0.0
 40
0.0
 40
0.0
 40
0.25
 40
0.25
 40
0.5
 40
0.5
 40
0.75
 40
0.75
 40
1.0
 40
1.0
 40
1.0
 40
1.0
 10
149.0172543516304
 20
123.6308381827057
 30
0.0
 10
149.0489694859611
 20
123.5730550003625
 30
0.0
 10
149.0835840112615
 20
123.5166423392876
 30
0.0
 10
149.1632552066768
 20
123.4090428892722
 30
0.0
 10
149.2083110837073
 20
123.3571302623511
 30
0.0
 10
149.3188654962127
 20
123.2709316376538
 30
0.0
 10
149.3862509104168
 20
123.2368422176822
 30
0.0
 10
149.5368804303149
 20
123.2347398256653
 30
0.0
 10
149.6067076670803
 20
123.2681115985101
 30
0.0
 10
149.6631384908837
 20
123.3119242670607
 30
0.0
  0
SPLINE
  5
FF
330
1F
100
AcDbEntity
  8
0
  6
HIDDEN
 62
     7
370
     0
100
AcDbSpline
210
0.0
220
0.0
230
1.0
 70
     8
 71
     3
 72
    16
 73
    12
 74
     0
 42
0.00000001
 43
0.00000001
 12
1.0
 22
0.0
 32
0.0
 13
1.0
 23
0.0
 33
0.0
 40
0.0
 40
0.0
 40
0.0
 40
0.0
 40
0.0625000000000014
 40
0.0625000000000014
 40
0.1250000000000029
 40
0.1250000000000029
 40
0.25
 40
0.25
 40
0.4999999999999983
 40
0.4999999999999983
 40
1.0
 40
1.0
 40
1.0
 40
1.0
 10
149.6631384908519
 20
123.3119242670914
 30
0.0
 10
149.6748727252988
 20
123.3210346803393
 30
0.0
 10
149.6884044807777
 20
123.3291120362857
 30
0.0
 10
149.7183919412076
 20
123.3373588779626
 30
0.0
 10
149.7333866476159
 20
123.3364315603751
 30
0.0
 10
149.7691270700106
 20
123.3236650408433
 30
0.0
 10
149.7831404070118
 20
123.3060163943329
 30
0.0
 10
149.8172844957932
 20
123.2513634743014
 30
0.0
 10
149.8282563999116
 20
123.2099638066429
 30
0.0
 10
149.8541019401779
 20
123.0814740629201
 30
0.0
 10
149.8581153797588
 20
122.9908559752814
 30
0.0
 10
149.8581153797588
 20
122.8986368707273
 30
0.0
  0
LINE
  5
100
330
1F
100
AcDbEntity
  8
0
  6
HIDDEN
 62
     7
370
     0
100
AcDbLine
 10
149.8581153848
 20
99.7740888
 30
0.0
 11
149.8581153848
 21
122.8986364753
 31
0.0
  0
SPLINE
  5
101
330
1F
100
AcDbEntity
  8
0
  6
HIDDEN
 62
     7
370
     0
100
AcDbSpline
210
0.0
220
0.0
230
1.0
 70
     8
 71
     3
 72
    16
 73
    12
 74
     0
 42
0.00000001
 43
0.00000001
 12
1.0
 22
0.0
 32
0.0
 13
1.0
 23
0.0
 33
0.0
 40
0.0
 40
0.0
 40
0.0
 40
0.0
 40
0.4999999999999969
 40
0.4999999999999969
 40
0.7499999999999929
 40
0.7499999999999929
 40
0.8749999999999956
 40
0.8749999999999956
 40
0.9374999999999978
 40
0.9374999999999978
 40
1.0
 40
1.0
 40
1.0
 40
1.0
 10
149.8581153797588
 20
99.77408840453724
 30
0.0
 10
149.8581153797588
 20
99.68150455363332
 30
0.0
 10
149.8540580776437
 20
99.59129209777306
 30
0.0
 10
149.8284008348489
 20
99.46335097065467
 30
0.0
 10
149.8170853891068
 20
99.42093775624278
 30
0.0
 10
149.7830540217981
 20
99.36662371279164
 30
0.0
 10
149.7691750405944
 20
99.34904237740174
 30
0.0
 10
149.733239358827
 20
99.33625868946679
 30
0.0
 10
149.7182890395642
 20
99.3353831913187
 30
0.0
 10
149.6883905268224
 20
99.34362862643808
 30
0.0
 10
149.6748576664571
 20
99.35170228660981
 30
0.0
 10
149.6631384908831
 20
99.36080100820392
 30
0.0
  0
SPLINE
  5
102
330
1F
100
AcDbEntity
  8
0
  6
HIDDEN
 62
     7
370
     0
100
AcDbSpline
210
0.0
220
0.0
230
1.0
 70
     8
 71
     3
 72
    14
 73
    10
 74
     0
 42
0.00000001
 43
0.00000001
 12
1.0
 22
0.0
 32
0.0
 13
1.0
 23
0.0
 33
0.0
 40
0.0
 40
0.0
 40
0.0
 40
0.0
 40
0.25
 40
0.25
 40
0.5
 40
0.5
 40
0.75
 40
0.75
 40
1.0
 40
1.0
 40
1.0
 40
1.0
 10
149.66313849089
 20
99.36080100821246
 30
0.0
 10
149.6066827262812
 20
99.40463304070718
 30
0.0
 10
149.5358171000313
 20
99.43796407712904
 30
0.0
 10
149.3873600188587
 20
99.43590506698162
 30
0.0
 10
149.3181666595511
 20
99.40130904257991
 30
0.0
 10
149.208451221417
 20
99.31564368591705
 30
0.0
 10
149.1632066420856
 20
99.26362124120905
 30
0.0
 10
149.0835799326618
 20
99.15607298087913
 30
0.0
 10
149.0489697841284
 20
99.09967081814611
 30
0.0
 10
149.0172543516292
 20
99.0418870925566
 30
0.0
  0
SPLINE
  5
103
330
1F
100
AcDbEntity
  8
0
  6
HIDDEN
 62
     7
370
     0
100
AcDbSpline
210
0.0
220
0.0
230
1.0
 70
     8
 71
     3
 72
    10
 73
     6
 74
     0
 42
0.00000001
 43
0.00000001
 12
1.0
 22
0.0
 32
0.0
 13
1.0
 23
0.0
 33
0.0
 40
0.0
 40
0.0
 40
0.0
 40
0.0
 40
0.5
 40
0.5
 40
1.0
 40
1.0
 40
1.0
 40
1.0
 10
149.0172543516297
 20
99.04188709255762
 30
0.0
 10
148.9454745637063
 20
98.91110837565576
 30
0.0
 10
148.8930150493982
 20
98.77700822615256
 30
0.0
 10
148.803671985297
 20
98.50891566316382
 30
0.0
 10
148.7676763757973
 20
98.37467029157494
 30
0.0
 10
148.7367950361992
 20
98.2413159140999
 30
0.0
  0
SPLINE
  5
104
330
1F
100
AcDbEntity
  8
0
  6
HIDDEN
 62
     7
370
     0
100
AcDbSpline
210
0.0
220
0.0
230
1.0
 70
     8
 71
     3
 72
    10
 73
     6
 74
     0
 42
0.00000001
 43
0.00000001
 12
1.0
 22
0.0
 32
0.0
 13
1.0
 23
0.0
 33
0.0
 40
0.0
 40
0.0
 40
0.0
 40
0.0
 40
0.5
 40
0.5
 40
1.0
 40
1.0
 40
1.0
 40
1.0
 10
148.7367950361992
 20
94.03945276962747
 30
0.0
 10
148.7676680680114
 20
94.02316962226033
 30
0.0
 10
148.8036549309244
 20
94.01091203253475
 30
0.0
 10
148.8929895168155
 20
93.99380904370602
 30
0.0
 10
148.9454453762381
 20
93.98900944784768
 30
0.0
 10
149.0172543516304
 20
93.98720535643974
 30
0.0
  0
SPLINE
  5
105
330
1F
100
AcDbEntity
  8
0
  6
HIDDEN
 62
     7
370
     0
100
AcDbSpline
210
0.0
220
0.0
230
1.0
 70
     8
 71
     3
 72
     8
 73
     4
 74
     0
 42
0.00000001
 43
0.00000001
 12
1.0
 22
0.0
 32
0.0
 13
1.0
 23
0.0
 33
0.0
 40
0.0
 40
0.0
 40
0.0
 40
0.0
 40
1.0
 40
1.0
 40
1.0
 40
1.0
 10
149.8404187563838
 20
93.8613209781927
 30
0.0
 10
149.8544055649259
 20
93.83308058761098
 30
0.0
 10
149.8581153797586
 20
93.8099485448002
 30
0.0
 10
149.8581153797589
 20
93.78960817196506
 30
0.0
  0
LINE
  5
106
330
1F
100
AcDbEntity
  8
0
  6
HIDDEN
 62
     7
370
     0
100
AcDbLine
 10
149.8581153848
 20
93.4965415821
 30
0.0
 11
149.8581153848
 21
93.7896083072
 31
0.0
  0
LINE
  5
107
330
1F
100
AcDbEntity
  8
0
  6
HIDDEN
 62
     7
370
     0
100
AcDbLine
 10
149.8581153848
 20
128.883116968
 30
0.0
 11
149.8581153848
 21
129.1761836932
 31
0.0
  0
SPLINE
  5
108
330
1F
100
AcDbEntity
  8
0
  6
HIDDEN
 62
     7
370
     0
100
AcDbSpline
210
0.0
220
0.0
230
1.0
 70
     8
 71
     3
 72
    10
 73
     6
 74
     0
 42
0.00000001
 43
0.00000001
 12
1.0
 22
0.0
 32
0.0
 13
1.0
 23
0.0
 33
0.0
 40
0.0
 40
0.0
 40
0.0
 40
0.0
 40
0.5
 40
0.5
 40
1.0
 40
1.0
 40
1.0
 40
1.0
 10
149.0172543516312
 20
128.6855199188248
 30
0.0
 10
148.9454453762386
 20
128.6837158274169
 30
0.0
 10
148.8929895168159
 20
128.6789162315586
 30
0.0
 10
148.8036549309245
 20
128.6618132427299
 30
0.0
 10
148.7676680680115
 20
128.6495556530043
 30
0.0
 10
148.7367950361992
 20
128.6332725056371
 30
0.0
  0
SPLINE
  5
109
330
1F
100
AcDbEntity
  8
0
  6
HIDDEN
 62
     7
370
     0
100
AcDbSpline
210
0.0
220
0.0
230
1.0
 70
     8
 71
     3
 72
    10
 73
     6
 74
     0
 42
0.00000001
 43
0.00000001
 12
1.0
 22
0.0
 32
0.0
 13
1.0
 23
0.0
 33
0.0
 40
0.0
 40
0.0
 40
0.0
 40
0.0
 40
0.5
 40
0.5
 40
1.0
 40
1.0
 40
1.0
 40
1.0
 10
148.7367950361992
 20
124.4314093611647
 30
0.0
 10
148.7676763757973
 20
124.2980549836894
 30
0.0
 10
148.8036719852971
 20
124.1638096121003
 30
0.0
 10
148.8930150493985
 20
123.8957170491111
 30
0.0
 10
148.9454745637067
 20
123.7616168996077
 30
0.0
 10
149.0172543516304
 20
123.6308381827057
 30
0.0
  0
LINE
  5
10A
330
1F
100
AcDbEntity
  8
0
  6
HIDDEN
 62
     7
370
     0
100
AcDbLine
 10
149.8581153848
 20
93.7896083072
 30
0.0
 11
149.8581153848
 21
105.3518826105
 31
0.0
  0
LINE
  5
10B
330
1F
100
AcDbEntity
  8
0
  6
HIDDEN
 62
     7
370
     0
100
AcDbLine
 10
149.8581153848
 20
117.3208426647
 30
0.0
 11
149.8581153848
 21
128.883116968
 31
0.0
  0
SPLINE
  5
10C
330
1F
100
AcDbEntity
  8
0
  6
HIDDEN
 62
     7
370
     0
100
AcDbSpline
210
0.0
220
0.0
230
1.0
 70
     8
 71
     3
 72
    66
 73
    62
 74
     0
 42
0.00000001
 43
0.00000001
 12
1.0
 22
0.0
 32
0.0
 13
1.0
 23
0.0
 33
0.0
 40
-0.0312500000000004
 40
-0.0312500000000004
 40
0.0
 40
0.0
 40
0.0312500000000006
 40
0.0312500000000006
 40
0.0625000000000013
 40
0.0625000000000013
 40
0.0937500000000019
 40
0.0937500000000019
 40
0.1250000000000025
 40
0.1250000000000025
 40
0.1562500000000032
 40
0.1562500000000032
 40
0.1875000000000038
 40
0.1875000000000038
 40
0.2187500000000044
 40
0.2187500000000044
 40
0.2500000000000051
 40
0.2500000000000051
 40
0.2812500000000057
 40
0.2812500000000057
 40
0.3125000000000063
 40
0.3125000000000063
 40
0.3437500000000069
 40
0.3437500000000069
 40
0.3750000000000074
 40
0.3750000000000074
 40
0.406250000000008
 40
0.406250000000008
 40
0.4375000000000086
 40
0.4375000000000086
 40
0.4687500000000092
 40
0.4687500000000092
 40
0.5000000000000098
 40
0.5000000000000098
 40
0.5625000000000082
 40
0.5625000000000082
 40
0.5937500000000074
 40
0.5937500000000074
 40
0.6250000000000067
 40
0.6250000000000067
 40
0.6562500000000058
 40
0.6562500000000058
 40
0.687500000000005
 40
0.687500000000005
 40
0.7187500000000043
 40
0.7187500000000043
 40
0.7500000000000036
 40
0.7500000000000036
 40
0.7812500000000029
 40
0.7812500000000029
 40
0.8125000000000022
 40
0.8125000000000022
 40
0.8437500000000016
 40
0.8437500000000016
 40
0.8750000000000008
 40
0.8750000000000008
 40
0.9374999999999992
 40
0.9374999999999992
 40
0.9687499999999996
 40
0.9687499999999996
 40
1.0
 40
1.0
 40
1.031250000000001
 40
1.031250000000001
 10
219.8926816320375
 20
104.075177262172
 30
0.0
 10
220.2235491274801
 20
104.075177262172
 30
0.0
 10
220.3861668752075
 20
104.0898378484587
 30
0.0
 10
220.7060167339426
 20
104.1473279012889
 30
0.0
 10
220.8649252257993
 20
104.19087326741
 30
0.0
 10
221.1675482751248
 20
104.3046358710285
 30
0.0
 10
221.3110383286507
 20
104.3743302045587
 30
0.0
 10
221.5825983040008
 20
104.5395142255418
 30
0.0
 10
221.7109758605605
 20
104.6357553315628
 30
0.0
 10
221.9411829770584
 20
104.8468351473143
 30
0.0
 10
222.0445776209704
 20
104.9624407248096
 30
0.0
 10
222.227347588086
 20
105.2148902642333
 30
0.0
 10
222.3048558122615
 20
105.3495543779796
 30
0.0
 10
222.4296233860622
 20
105.6299674914791
 30
0.0
 10
222.4777591657903
 20
105.7777977443866
 30
0.0
 10
222.5420808006825
 20
106.0817691249153
 30
0.0
 10
222.5580220815216
 20
106.2354187124972
 30
0.0
 10
222.5582078691824
 20
106.5460580107428
 30
0.0
 10
222.5419198573954
 20
106.7046567147411
 30
0.0
 10
222.4780359629662
 20
107.012801349786
 30
0.0
 10
222.4307715301983
 20
107.1633460760899
 30
0.0
 10
222.3053634193732
 20
107.4571105169897
 30
0.0
 10
222.2271966166135
 20
107.5993760359808
 30
0.0
 10
222.0463889830975
 20
107.8640174741074
 30
0.0
 10
221.9428525057716
 20
107.9882729025347
 30
0.0
 10
221.7100192993316
 20
108.2178499948299
 30
0.0
 10
221.5840489645391
 20
108.3199935043044
 30
0.0
 10
221.3135937490963
 20
108.4995064579296
 30
0.0
 10
221.1673324967114
 20
108.5775069350995
 30
0.0
 10
220.8648904059137
 20
108.702494123346
 30
0.0
 10
220.7090709252901
 20
108.7498218304136
 30
0.0
 10
220.3882201640897
 20
108.8139583406532
 30
0.0
 10
220.222359408495
 20
108.830396394825
 30
0.0
 10
219.7325333750551
 20
108.8305861783173
 30
0.0
 10
219.4030911190285
 20
108.7649035082744
 30
0.0
 10
218.9516332054917
 20
108.5787872319917
 30
0.0
 10
218.8059138271525
 20
108.5014853370577
 30
0.0
 10
218.5330907922705
 20
108.320789946435
 30
0.0
 10
218.4073455707253
 20
108.2186856853706
 30
0.0
 10
218.1766796219969
 20
107.991805276838
 30
0.0
 10
218.0711089150944
 20
107.8656728628069
 30
0.0
 10
217.8897235274931
 20
107.600582198862
 30
0.0
 10
217.812778127644
 20
107.4608794468614
 30
0.0
 10
217.6868183613709
 20
107.1672186709772
 30
0.0
 10
217.6386062445858
 20
107.0141426602583
 30
0.0
 10
217.5746872959265
 20
106.7071076711662
 30
0.0
 10
217.5582534085773
 20
106.551208986956
 30
0.0
 10
217.5579790739703
 20
106.2369203292874
 30
0.0
 10
217.5740626799004
 20
106.0830939356187
 30
0.0
 10
217.6374485662535
 20
105.7817358205593
 30
0.0
 10
217.6855745884471
 20
105.6326352725578
 30
0.0
 10
217.8107803534168
 20
105.3505485761522
 30
0.0
 10
217.8874410641748
 20
105.2173171571145
 30
0.0
 10
218.0687874628615
 20
104.96597412222
 30
0.0
 10
218.1740244905024
 20
104.847913468686
 30
0.0
 10
218.5189690462651
 20
104.5312113696027
 30
0.0
 10
218.797364573524
 20
104.3618018270473
 30
0.0
 10
219.2482809173999
 20
104.1918705763262
 30
0.0
 10
219.4062290986995
 20
104.1481946387549
 30
0.0
 10
219.7292296789166
 20
104.089839533778
 30
0.0
 10
219.8926816320375
 20
104.075177262172
 30
0.0
 10
220.2235491274801
 20
104.075177262172
 30
0.0
  0
CIRCLE
  5
10D
330
1F
100
AcDbEntity
  8
0
  6
HIDDEN
 62
     7
370
     0
100
AcDbCircle
 10
136.0581153798
 20
111.3363626376
 30
0.0
 40
3.049999999999997
  0
SPLINE
  5
10E
330
1F
100
AcDbEntity
  8
0
  6
HIDDEN
 62
     7
370
     0
100
AcDbSpline
210
0.0
220
0.0
230
1.0
 70
     8
 71
     3
 72
    62
 73
    58
 74
     0
 42
0.00000001
 43
0.00000001
 12
1.0
 22
0.0
 32
0.0
 13
1.0
 23
0.0
 33
0.0
 40
-0.0312499999999991
 40
-0.0312499999999991
 40
0.0
 40
0.0
 40
0.031249999999999
 40
0.031249999999999
 40
0.0624999999999981
 40
0.0624999999999981
 40
0.124999999999999
 40
0.124999999999999
 40
0.1874999999999999
 40
0.1874999999999999
 40
0.2187500000000009
 40
0.2187500000000009
 40
0.2500000000000019
 40
0.2500000000000019
 40
0.281250000000003
 40
0.281250000000003
 40
0.312500000000004
 40
0.312500000000004
 40
0.3437500000000051
 40
0.3437500000000051
 40
0.3750000000000062
 40
0.3750000000000062
 40
0.4375000000000084
 40
0.4375000000000084
 40
0.468750000000008
 40
0.468750000000008
 40
0.5000000000000078
 40
0.5000000000000078
 40
0.5312500000000074
 40
0.5312500000000074
 40
0.5625000000000072
 40
0.5625000000000072
 40
0.5937500000000069
 40
0.5937500000000069
 40
0.6250000000000066
 40
0.6250000000000066
 40
0.6562500000000063
 40
0.6562500000000063
 40
0.687500000000006
 40
0.687500000000006
 40
0.7187500000000058
 40
0.7187500000000058
 40
0.7500000000000056
 40
0.7500000000000056
 40
0.7812500000000053
 40
0.7812500000000053
 40
0.8125000000000051
 40
0.8125000000000051
 40
0.8750000000000033
 40
0.8750000000000033
 40
0.9062500000000026
 40
0.9062500000000026
 40
0.9375000000000017
 40
0.9375000000000017
 40
0.9687500000000009
 40
0.9687500000000009
 40
1.0
 40
1.0
 40
1.031249999999999
 40
1.031249999999999
 10
219.9169171557789
 20
110.4809397942474
 30
0.0
 10
220.1993136037387
 20
110.4809397942474
 30
0.0
 10
220.3375914807525
 20
110.4968438562651
 30
0.0
 10
220.6087575519603
 20
110.5581957144621
 30
0.0
 10
220.7429608794198
 20
110.604459527294
 30
0.0
 10
221.12202405921
 20
110.7805571947534
 30
0.0
 10
221.3510309809038
 20
110.9503150477584
 30
0.0
 10
221.7320615999065
 20
111.3558374452237
 30
0.0
 10
221.8876846768281
 20
111.5958272372341
 30
0.0
 10
222.0467551533968
 20
111.9781638092718
 30
0.0
 10
222.0884822985402
 20
112.1122965967265
 30
0.0
 10
222.1437529996822
 20
112.3794834673163
 30
0.0
 10
222.157832931172
 20
112.5127844137359
 30
0.0
 10
222.1583894974932
 20
112.7786281204823
 30
0.0
 10
222.1444002200726
 20
112.9108432701941
 30
0.0
 10
222.0899187008369
 20
113.1611512444697
 30
0.0
 10
222.049068242682
 20
113.2819731565421
 30
0.0
 10
221.9424542758226
 20
113.5093330160702
 30
0.0
 10
221.8777021335496
 20
113.6143486640061
 30
0.0
 10
221.726143591597
 20
113.8091734889851
 30
0.0
 10
221.638805468424
 20
113.8990584429268
 30
0.0
 10
221.3530290474624
 20
114.1380936949099
 30
0.0
 10
221.1234926989967
 20
114.2627335964234
 30
0.0
 10
220.7471745630024
 20
114.3883032687188
 30
0.0
 10
220.6148416546417
 20
114.4206224599856
 30
0.0
 10
220.3408089956508
 20
114.4642256452104
 30
0.0
 10
220.2027838360287
 20
114.475082122316
 30
0.0
 10
219.92471245481
 20
114.4756604874065
 30
0.0
 10
219.7829995161396
 20
114.4649620323241
 30
0.0
 10
219.5105772604593
 20
114.4225257715359
 30
0.0
 10
219.3787491159623
 20
114.3910501455178
 30
0.0
 10
219.1233502203576
 20
114.3067760616467
 30
0.0
 10
219.0031842171684
 20
114.2550438717725
 30
0.0
 10
218.778012804612
 20
114.1327721379837
 30
0.0
 10
218.6718617432776
 20
114.0612855407568
 30
0.0
 10
218.4804144545755
 20
113.9019518540368
 30
0.0
 10
218.394480440656
 20
113.8140342463499
 30
0.0
 10
218.2420681226159
 20
113.619645281754
 30
0.0
 10
218.1758846323284
 20
113.5128496744153
 30
0.0
 10
218.0697029337773
 20
113.2883277210751
 30
0.0
 10
218.0287228705615
 20
113.1695344612381
 30
0.0
 10
217.9726427297642
 20
112.9171158601399
 30
0.0
 10
217.9584185543229
 20
112.7861815589379
 30
0.0
 10
217.9578218704515
 20
112.5217561322079
 30
0.0
 10
217.9715904379498
 20
112.3855741816172
 30
0.0
 10
218.0264405048919
 20
112.1168884102187
 30
0.0
 10
218.0669370181684
 20
111.9852998521771
 30
0.0
 10
218.2263994893445
 20
111.5989864600373
 30
0.0
 10
218.3810679136587
 20
111.3595043907024
 30
0.0
 10
218.6693759450034
 20
111.0521170485317
 30
0.0
 10
218.7734007603512
 20
110.9596543263536
 30
0.0
 10
218.9978200185299
 20
110.7950353502309
 30
0.0
 10
219.1197508063905
 20
110.7223121081895
 30
0.0
 10
219.3722079578164
 20
110.6048757194837
 30
0.0
 10
219.5030944877336
 20
110.5594964983989
 30
0.0
 10
219.7750354054464
 20
110.4973581191183
 30
0.0
 10
219.9169171557789
 20
110.4809397942474
 30
0.0
 10
220.1993136037387
 20
110.4809397942474
 30
0.0
  0
SPLINE
  5
10F
330
1F
100
AcDbEntity
  8
0
  6
HIDDEN
 62
     7
370
     0
100
AcDbSpline
210
0.0
220
0.0
230
1.0
 70
     8
 71
     3
 72
    10
 73
     6
 74
     0
 42
0.00000001
 43
0.00000001
 12
1.0
 22
0.0
 32
0.0
 13
1.0
 23
0.0
 33
0.0
 40
0.0
 40
0.0
 40
0.0
 40
0.0
 40
0.5
 40
0.5
 40
1.0
 40
1.0
 40
1.0
 40
1.0
 10
220.8351653546557
 20
112.3605150467399
 30
0.0
 10
220.8002422456118
 20
112.4191333528292
 30
0.0
 10
220.7848495081595
 20
112.485758400802
 30
0.0
 10
220.8065906496988
 20
112.636901462652
 30
0.0
 10
220.8441142248975
 20
112.7221553238293
 30
0.0
 10
220.8984589209063
 20
112.8152109185834
 30
0.0
  0
SPLINE
  5
110
330
1F
100
AcDbEntity
  8
0
  6
HIDDEN
 62
     7
370
     0
100
AcDbSpline
210
0.0
220
0.0
230
1.0
 70
     8
 71
     3
 72
    74
 73
    70
 74
     0
 42
0.00000001
 43
0.00000001
 12
1.0
 22
0.0
 32
0.0
 13
1.0
 23
0.0
 33
0.0
 40
0.0
 40
0.0
 40
0.0
 40
0.0
 40
0.0156250000000009
 40
0.0156250000000009
 40
0.0312500000000018
 40
0.0312500000000018
 40
0.0625000000000015
 40
0.0625000000000015
 40
0.0937500000000012
 40
0.0937500000000012
 40
0.1250000000000009
 40
0.1250000000000009
 40
0.1875000000000012
 40
0.1875000000000012
 40
0.2187500000000013
 40
0.2187500000000013
 40
0.2500000000000014
 40
0.2500000000000014
 40
0.2812500000000015
 40
0.2812500000000015
 40
0.3125000000000016
 40
0.3125000000000016
 40
0.3437500000000017
 40
0.3437500000000017
 40
0.3750000000000018
 40
0.3750000000000018
 40
0.4062500000000019
 40
0.4062500000000019
 40
0.437500000000002
 40
0.437500000000002
 40
0.4687500000000021
 40
0.4687500000000021
 40
0.4843750000000021
 40
0.4843750000000021
 40
0.5000000000000019
 40
0.5000000000000019
 40
0.5312500000000018
 40
0.5312500000000018
 40
0.5625000000000018
 40
0.5625000000000018
 40
0.5937500000000017
 40
0.5937500000000017
 40
0.6250000000000017
 40
0.6250000000000017
 40
0.6562500000000016
 40
0.6562500000000016
 40
0.6875000000000016
 40
0.6875000000000016
 40
0.7187500000000013
 40
0.7187500000000013
 40
0.7500000000000011
 40
0.7500000000000011
 40
0.781250000000001
 40
0.781250000000001
 40
0.8125000000000008
 40
0.8125000000000008
 40
0.8437500000000007
 40
0.8437500000000007
 40
0.8750000000000004
 40
0.8750000000000004
 40
0.9062500000000003
 40
0.9062500000000003
 40
0.9375000000000001
 40
0.9375000000000001
 40
0.96875
 40
0.96875
 40
0.984375
 40
0.984375
 40
1.0
 40
1.0
 40
1.0
 40
1.0
 10
220.8984589209049
 20
112.8152109185753
 30
0.0
 10
220.9678390898519
 20
112.8378260014646
 30
0.0
 10
221.0363714279675
 20
112.8677736847915
 30
0.0
 10
221.1717239937219
 20
112.9443249122986
 30
0.0
 10
221.2354132791688
 20
112.9891363996239
 30
0.0
 10
221.4144452302193
 20
113.1363142909079
 30
0.0
 10
221.5145353533803
 20
113.2467445848518
 30
0.0
 10
221.6938556507658
 20
113.482062730035
 30
0.0
 10
221.7716236509967
 20
113.6063261407067
 30
0.0
 10
221.9072152697231
 20
113.8649473983826
 30
0.0
 10
221.9652513319314
 20
113.9998616643935
 30
0.0
 10
222.1093868132838
 20
114.4244475683991
 30
0.0
 10
222.1636472998972
 20
114.7296425827512
 30
0.0
 10
222.1546867766588
 20
115.1943003725548
 30
0.0
 10
222.1367505646191
 20
115.347084644331
 30
0.0
 10
222.0661244081542
 20
115.6477168909259
 30
0.0
 10
222.014373041262
 20
115.7901213549795
 30
0.0
 10
221.8798314729397
 20
116.0517052314485
 30
0.0
 10
221.7960000416304
 20
116.1715720503467
 30
0.0
 10
221.6090441040213
 20
116.3740673926475
 30
0.0
 10
221.5036570951707
 20
116.4594814759337
 30
0.0
 10
221.2847034943323
 20
116.5934996096028
 30
0.0
 10
221.1687473271654
 20
116.6438220167412
 30
0.0
 10
220.9369296823758
 20
116.7126534563562
 30
0.0
 10
220.8206749085032
 20
116.7317590247378
 30
0.0
 10
220.5889767823958
 20
116.7445331289483
 30
0.0
 10
220.4733455432384
 20
116.7378967885258
 30
0.0
 10
220.2525854265604
 20
116.702993425405
 30
0.0
 10
220.146231586707
 20
116.6747900410419
 30
0.0
 10
219.949398580384
 20
116.5998375979114
 30
0.0
 10
219.8582920795372
 20
116.5529227069151
 30
0.0
 10
219.7626295339652
 20
116.4756343568628
 30
0.0
 10
219.7387565108225
 20
116.4493862787591
 30
0.0
 10
219.7158983566046
 20
116.3981642116857
 30
0.0
 10
219.7179912562721
 20
116.3745749527623
 30
0.0
 10
219.760555334953
 20
116.3103571623419
 30
0.0
 10
219.8326434266009
 20
116.2769344301077
 30
0.0
 10
219.999213053871
 20
116.207062967407
 30
0.0
 10
220.0945348649401
 20
116.1710047688361
 30
0.0
 10
220.2958397063654
 20
116.0867579808214
 30
0.0
 10
220.4031078510522
 20
116.0384385384095
 30
0.0
 10
220.6211950661306
 20
115.9271497920977
 30
0.0
 10
220.7321242753487
 20
115.8643522781082
 30
0.0
 10
220.9562709633611
 20
115.7203677214167
 30
0.0
 10
221.0707748493159
 20
115.638223116259
 30
0.0
 10
221.2951498061622
 20
115.454060546302
 30
0.0
 10
221.4041548950066
 20
115.3530541868222
 30
0.0
 10
221.6133212818742
 20
115.1279630610546
 30
0.0
 10
221.7102409650912
 20
115.0070904741358
 30
0.0
 10
221.8815401843302
 20
114.7510865856752
 30
0.0
 10
221.9547387699373
 20
114.6171062394095
 30
0.0
 10
222.0676904224084
 20
114.3511778506704
 30
0.0
 10
222.1081856469479
 20
114.2172381863971
 30
0.0
 10
222.1551781115372
 20
113.9640373714531
 30
0.0
 10
222.1623610625417
 20
113.8421047003444
 30
0.0
 10
222.1490967983611
 20
113.6179306836936
 30
0.0
 10
222.1288625209285
 20
113.5132605763228
 30
0.0
 10
222.0657739108108
 20
113.3193486576467
 30
0.0
 10
222.0236085020063
 20
113.2316043989531
 30
0.0
 10
221.9208275896614
 20
113.0697885217251
 30
0.0
 10
221.8600871867835
 20
112.9956744457846
 30
0.0
 10
221.7195665895418
 20
112.8580145292083
 30
0.0
 10
221.6410417763931
 20
112.7955842273725
 30
0.0
 10
221.4610856972622
 20
112.6757894413173
 30
0.0
 10
221.3594665667144
 20
112.6185877920311
 30
0.0
 10
221.17777382015
 20
112.5254417841689
 30
0.0
 10
221.1130736664929
 20
112.4934255725682
 30
0.0
 10
220.9762815897115
 20
112.4269193993129
 30
0.0
 10
220.9055204858082
 20
112.3930708949053
 30
0.0
 10
220.835165354655
 20
112.3605150467419
 30
0.0
  0
LWPOLYLINE
  5
111
330
1F
100
AcDbEntity
  8
0
  6
HIDDEN
 62
     7
370
     0
100
AcDbPolyline
 90
       23
 70
   128
 43
0.0
 10
220.0581156778
 20
113.3563649804
 10
220.6497513818
 20
113.4372661785
 10
221.1934575009
 20
113.6734162886
 10
221.6451862025
 20
114.045683384
 10
221.9683402347
 20
114.5239089113
 10
222.1367382574
 20
115.0693496187
 10
222.1367382574
 20
115.6378175095
 10
221.9683402347
 20
116.1832582169
 10
221.6451862025
 20
116.6614835114
 10
221.1934575009
 20
117.0337508396
 10
220.6497513818
 20
117.2699007169
 10
220.0581156778
 20
117.3508023806
 10
219.4664799737
 20
117.2699007169
 10
218.9227664041
 20
117.0337508396
 10
218.4710377025
 20
116.6614835114
 10
218.1478911209
 20
116.1832582169
 10
217.9794930982
 20
115.6378175095
 10
217.9794930982
 20
115.0693496187
 10
218.1478911209
 20
114.5239089113
 10
218.4710377025
 20
114.045683384
 10
218.9227664041
 20
113.6734162886
 10
219.4664799737
 20
113.4372661785
 10
220.0581156778
 20
113.3563649804
  0
LINE
  5
112
330
1F
100
AcDbEntity
  8
0
  6
HIDDEN
 62
     7
370
     0
100
AcDbLine
 10
125.0861552673
 20
122.1250380353
 30
0.0
 11
125.0861552673
 21
100.54768724
 31
0.0
  0
LINE
  5
113
330
1F
100
AcDbEntity
  8
0
  6
HIDDEN
 62
     7
370
     0
100
AcDbLine
 10
121.0861546117
 20
122.5062358156
 30
0.0
 11
121.0861546117
 21
100.1664894596
 31
0.0
  0
LINE
  5
114
330
1F
100
AcDbEntity
  8
0
  6
HIDDEN
 62
     7
370
     0
100
AcDbLine
 10
120.0581160503
 20
99.5729501322
 30
0.0
 11
120.0581160503
 21
123.099775143
 31
0.0
  0
LINE
  5
115
330
1F
100
AcDbEntity
  8
0
  6
HIDDEN
 62
     7
370
     0
100
AcDbLine
 10
129.6861549037
 20
121.8363624961
 30
0.0
 11
129.6861549037
 21
100.8363627792
 31
0.0
  0
LWPOLYLINE
  5
116
330
1F
100
AcDbEntity
  8
0
  6
HIDDEN
 62
     7
370
     0
100
AcDbPolyline
 90
        9
 70
   128
 43
0.0
 10
220.8984592127
 20
112.815210918
 10
220.9148728418
 20
112.7163188961
 10
220.9243499803
 20
112.628403442
 10
220.9268161225
 20
112.5520909867
 10
220.9222563672
 20
112.4879255388
 10
220.9107079672
 20
112.4363641451
 10
220.8922454285
 20
112.3977743285
 10
220.8670028614
 20
112.3724310622
 10
220.8351665306
 20
112.3605150227
  0
LINE
  5
117
330
1F
100
AcDbEntity
  8
0
  6
HIDDEN
 62
     7
370
     0
100
AcDbLine
 10
123.5861559528
 20
121.8363624961
 30
0.0
 11
123.5861559528
 21
100.8363627792
 31
0.0
  0
LINE
  5
118
330
1F
100
AcDbEntity
  8
0
  6
HIDDEN
 62
     7
370
     0
100
AcDbLine
 10
124.5861561167
 20
121.8363624961
 30
0.0
 11
124.5861561167
 21
100.8363627792
 31
0.0
  0
SPLINE
  5
119
330
1F
100
AcDbEntity
  8
0
  6
HIDDEN
 62
     7
370
     0
100
AcDbSpline
210
0.0
220
0.0
230
1.0
 70
     8
 71
     3
 72
    66
 73
    62
 74
     0
 42
0.00000001
 43
0.00000001
 12
1.0
 22
0.0
 32
0.0
 13
1.0
 23
0.0
 33
0.0
 40
-0.0312499999999999
 40
-0.0312499999999999
 40
0.0
 40
0.0
 40
0.03125
 40
0.03125
 40
0.0625000000000001
 40
0.0625000000000001
 40
0.0937500000000001
 40
0.0937500000000001
 40
0.1250000000000002
 40
0.1250000000000002
 40
0.1875000000000001
 40
0.1875000000000001
 40
0.21875
 40
0.21875
 40
0.2499999999999999
 40
0.2499999999999999
 40
0.2812499999999999
 40
0.2812499999999999
 40
0.3124999999999998
 40
0.3124999999999998
 40
0.3437499999999997
 40
0.3437499999999997
 40
0.3749999999999997
 40
0.3749999999999997
 40
0.4062499999999996
 40
0.4062499999999996
 40
0.4374999999999994
 40
0.4374999999999994
 40
0.4687499999999993
 40
0.4687499999999993
 40
0.4999999999999992
 40
0.4999999999999992
 40
0.531249999999999
 40
0.531249999999999
 40
0.562499999999999
 40
0.562499999999999
 40
0.5937499999999989
 40
0.5937499999999989
 40
0.624999999999999
 40
0.624999999999999
 40
0.6562499999999991
 40
0.6562499999999991
 40
0.6874999999999991
 40
0.6874999999999991
 40
0.7187499999999992
 40
0.7187499999999992
 40
0.7499999999999992
 40
0.7499999999999992
 40
0.7812499999999993
 40
0.7812499999999993
 40
0.8124999999999996
 40
0.8124999999999996
 40
0.8749999999999997
 40
0.8749999999999997
 40
0.90625
 40
0.90625
 40
0.9375
 40
0.9375
 40
0.9687500000000001
 40
0.9687500000000001
 40
1.0
 40
1.0
 40
1.03125
 40
1.03125
 10
135.855436732811
 20
114.3863626376323
 30
0.0
 10
136.2607940267066
 20
114.3863626376323
 30
0.0
 10
136.4598539180424
 20
114.3663630780157
 30
0.0
 10
136.8511079026221
 20
114.2882195753155
 30
0.0
 10
137.0453806613698
 20
114.2290584737948
 30
0.0
 10
137.4141440879211
 20
114.0756267869005
 30
0.0
 10
137.5888692462993
 20
113.9818999770582
 30
0.0
 10
137.9195465498331
 20
113.7606458746534
 30
0.0
 10
138.075194093836
 20
113.6326645076588
 30
0.0
 10
138.4946614635047
 20
113.2131094106587
 30
0.0
 10
138.7215496050349
 20
112.8746308519554
 30
0.0
 10
138.9503462284197
 20
112.3247519642371
 30
0.0
 10
139.0095384832686
 20
112.1313521184938
 30
0.0
 10
139.0883458935291
 20
111.7371239681358
 30
0.0
 10
139.1079853098095
 20
111.5384851407035
 30
0.0
 10
139.1082441742311
 20
111.1381848548051
 30
0.0
 10
139.0881734895981
 20
110.934845528084
 30
0.0
 10
139.0098358069682
 20
110.5427540074764
 30
0.0
 10
138.9518860389297
 20
110.3520481391612
 30
0.0
 10
138.7979428970497
 20
109.9813243225746
 30
0.0
 10
138.7030042833271
 20
109.8045976627658
 30
0.0
 10
138.4826468674499
 20
109.4753445518414
 30
0.0
 10
138.3553668415216
 20
109.3202233282449
 30
0.0
 10
138.073611250191
 20
109.0385466333146
 30
0.0
 10
137.9208229207335
 20
108.9131134484102
 30
0.0
 10
137.5913958385766
 20
108.6923378550561
 30
0.0
 10
137.4128498354249
 20
108.5965066023559
 30
0.0
 10
137.0452775098748
 20
108.4436774718608
 30
0.0
 10
136.8551234831638
 20
108.3855057139166
 30
0.0
 10
136.4615830604613
 20
108.3065124215717
 30
0.0
 10
136.2591489892001
 20
108.2864492959294
 30
0.0
 10
135.8597199138347
 20
108.2862765498107
 30
0.0
 10
135.6597009352788
 20
108.3057599239
 30
0.0
 10
135.2635849878295
 20
108.3847514955012
 30
0.0
 10
135.0728521596376
 20
108.4430317153531
 30
0.0
 10
134.7052207190579
 20
108.5955993359612
 30
0.0
 10
134.5267342868901
 20
108.6912081227345
 30
0.0
 10
134.1965290279261
 20
108.9122201678194
 30
0.0
 10
134.0436404498642
 20
109.0376700665896
 30
0.0
 10
133.762044055326
 20
109.3189005555949
 30
0.0
 10
133.6344131324506
 20
109.4742834335089
 30
0.0
 10
133.4140876974508
 20
109.8031342915518
 30
0.0
 10
133.3198612404854
 20
109.9780223979658
 30
0.0
 10
133.1649267198823
 20
110.3501662493266
 30
0.0
 10
133.10691443428
 20
110.5409722911355
 30
0.0
 10
133.0284951800019
 20
110.9318453090543
 30
0.0
 10
133.0081811000354
 20
111.1343028704366
 30
0.0
 10
133.0080499837314
 20
111.536433475356
 30
0.0
 10
133.0276746770907
 20
111.7351575205311
 30
0.0
 10
133.1058411275044
 20
112.1279969916678
 30
0.0
 10
133.1651285728443
 20
112.3226412690704
 30
0.0
 10
133.3942094159272
 20
112.8740810224846
 30
0.0
 10
133.6210402668214
 20
113.2124205881838
 30
0.0
 10
134.0403789681421
 20
113.6320862508353
 30
0.0
 10
134.195731963892
 20
113.7599322566085
 30
0.0
 10
134.5266997970292
 20
113.9815333313103
 30
0.0
 10
134.7012610972256
 20
114.0751740652872
 30
0.0
 10
135.0688344048004
 20
114.2283281859865
 30
0.0
 10
135.2635212664384
 20
114.2878319316326
 30
0.0
 10
135.6559972163749
 20
114.3663546806955
 30
0.0
 10
135.855436732811
 20
114.3863626376323
 30
0.0
 10
136.2607940267066
 20
114.3863626376323
 30
0.0
  0
SPLINE
  5
11A
330
1F
100
AcDbEntity
  8
0
  6
HIDDEN
 62
     7
370
     0
100
AcDbSpline
210
0.0
220
0.0
230
1.0
 70
     8
 71
     3
 72
    66
 73
    62
 74
     0
 42
0.00000001
 43
0.00000001
 12
1.0
 22
0.0
 32
0.0
 13
1.0
 23
0.0
 33
0.0
 40
-0.0312500000000001
 40
-0.0312500000000001
 40
0.0
 40
0.0
 40
0.0312499999999999
 40
0.0312499999999999
 40
0.0624999999999998
 40
0.0624999999999998
 40
0.0937499999999996
 40
0.0937499999999996
 40
0.1249999999999995
 40
0.1249999999999995
 40
0.1874999999999993
 40
0.1874999999999993
 40
0.2187499999999991
 40
0.2187499999999991
 40
0.249999999999999
 40
0.249999999999999
 40
0.2812499999999989
 40
0.2812499999999989
 40
0.3124999999999988
 40
0.3124999999999988
 40
0.3437499999999987
 40
0.3437499999999987
 40
0.3749999999999986
 40
0.3749999999999986
 40
0.4062499999999984
 40
0.4062499999999984
 40
0.4374999999999986
 40
0.4374999999999986
 40
0.4687499999999987
 40
0.4687499999999987
 40
0.4999999999999988
 40
0.4999999999999988
 40
0.5312499999999989
 40
0.5312499999999989
 40
0.562499999999999
 40
0.562499999999999
 40
0.5937499999999991
 40
0.5937499999999991
 40
0.6249999999999992
 40
0.6249999999999992
 40
0.6562499999999993
 40
0.6562499999999993
 40
0.6874999999999994
 40
0.6874999999999994
 40
0.7187499999999996
 40
0.7187499999999996
 40
0.7499999999999996
 40
0.7499999999999996
 40
0.7812499999999997
 40
0.7812499999999997
 40
0.8124999999999998
 40
0.8124999999999998
 40
0.8749999999999999
 40
0.8749999999999999
 40
0.9062499999999999
 40
0.9062499999999999
 40
0.9374999999999999
 40
0.9374999999999999
 40
0.9687499999999999
 40
0.9687499999999999
 40
1.0
 40
1.0
 40
1.03125
 40
1.03125
 10
136.2607940267065
 20
114.3863626376323
 30
0.0
 10
135.855436732811
 20
114.3863626376323
 30
0.0
 10
135.6563768414751
 20
114.3663630780157
 30
0.0
 10
135.2651228568954
 20
114.2882195753155
 30
0.0
 10
135.0708500981478
 20
114.2290584737948
 30
0.0
 10
134.7020866715965
 20
114.0756267869005
 30
0.0
 10
134.5273615132182
 20
113.9818999770582
 30
0.0
 10
134.1966842096844
 20
113.7606458746534
 30
0.0
 10
134.0410366656815
 20
113.6326645076588
 30
0.0
 10
133.6215692960129
 20
113.2131094106587
 30
0.0
 10
133.3946811544826
 20
112.8746308519553
 30
0.0
 10
133.1658845310978
 20
112.3247519642371
 30
0.0
 10
133.106692276249
 20
112.1313521184938
 30
0.0
 10
133.0278848659885
 20
111.7371239681358
 30
0.0
 10
133.0082454497081
 20
111.5384851407035
 30
0.0
 10
133.0079865852865
 20
111.1381848548051
 30
0.0
 10
133.0280572699195
 20
110.934845528084
 30
0.0
 10
133.1063949525494
 20
110.5427540074764
 30
0.0
 10
133.1643447205878
 20
110.3520481391612
 30
0.0
 10
133.3182878624678
 20
109.9813243225746
 30
0.0
 10
133.4132264761905
 20
109.8045976627658
 30
0.0
 10
133.6335838920677
 20
109.4753445518414
 30
0.0
 10
133.760863917996
 20
109.3202233282449
 30
0.0
 10
134.0426195093265
 20
109.0385466333146
 30
0.0
 10
134.195407838784
 20
108.9131134484102
 30
0.0
 10
134.5248349209409
 20
108.6923378550561
 30
0.0
 10
134.7033809240926
 20
108.5965066023559
 30
0.0
 10
135.0709532496428
 20
108.4436774718608
 30
0.0
 10
135.2611072763538
 20
108.3855057139166
 30
0.0
 10
135.6546476990563
 20
108.3065124215717
 30
0.0
 10
135.8570817703174
 20
108.2864492959294
 30
0.0
 10
136.2565108456828
 20
108.2862765498107
 30
0.0
 10
136.4565298242387
 20
108.3057599239
 30
0.0
 10
136.8526457716881
 20
108.3847514955012
 30
0.0
 10
137.0433785998799
 20
108.4430317153531
 30
0.0
 10
137.4110100404596
 20
108.5955993359612
 30
0.0
 10
137.5894964726274
 20
108.6912081227345
 30
0.0
 10
137.9197017315915
 20
108.9122201678194
 30
0.0
 10
138.0725903096534
 20
109.0376700665896
 30
0.0
 10
138.3541867041915
 20
109.3189005555949
 30
0.0
 10
138.481817627067
 20
109.4742834335089
 30
0.0
 10
138.7021430620668
 20
109.8031342915518
 30
0.0
 10
138.7963695190321
 20
109.9780223979658
 30
0.0
 10
138.9513040396352
 20
110.3501662493266
 30
0.0
 10
139.0093163252375
 20
110.5409722911355
 30
0.0
 10
139.0877355795156
 20
110.9318453090543
 30
0.0
 10
139.1080496594822
 20
111.1343028704366
 30
0.0
 10
139.1081807757861
 20
111.536433475356
 30
0.0
 10
139.0885560824268
 20
111.7351575205311
 30
0.0
 10
139.0103896320131
 20
112.1279969916678
 30
0.0
 10
138.9511021866732
 20
112.3226412690704
 30
0.0
 10
138.7220213435903
 20
112.8740810224846
 30
0.0
 10
138.4951904926961
 20
113.2124205881838
 30
0.0
 10
138.0758517913755
 20
113.6320862508353
 30
0.0
 10
137.9204987956255
 20
113.7599322566085
 30
0.0
 10
137.5895309624883
 20
113.9815333313103
 30
0.0
 10
137.414969662292
 20
114.0751740652873
 30
0.0
 10
137.0473963547172
 20
114.2283281859865
 30
0.0
 10
136.8527094930791
 20
114.2878319316326
 30
0.0
 10
136.4602335431426
 20
114.3663546806955
 30
0.0
 10
136.2607940267065
 20
114.3863626376323
 30
0.0
 10
135.855436732811
 20
114.3863626376323
 30
0.0
  0
LINE
  5
11B
330
1F
100
AcDbEntity
  8
0
  6
HIDDEN
 62
     7
370
     0
100
AcDbLine
 10
140.0581156033
 20
121.3363624141
 30
0.0
 11
140.0581156033
 21
101.3363628611
 31
0.0
  0
LINE
  5
11C
330
1F
100
AcDbEntity
  8
0
  6
HIDDEN
 62
     7
370
     0
100
AcDbLine
 10
141.0581157672
 20
118.586362429
 30
0.0
 11
141.0581157672
 21
104.0863628462
 31
0.0
  0
LINE
  5
11D
330
1F
100
AcDbEntity
  8
0
  6
HIDDEN
 62
     7
370
     0
100
AcDbLine
 10
140.0581156033
 20
103.0863626823
 30
0.0
 11
140.0581156033
 21
119.5662665144
 31
0.0
  0
LINE
  5
11E
330
1F
100
AcDbEntity
  8
0
  6
HIDDEN
 62
     7
370
     0
100
AcDbLine
 10
165.0581150445
 20
118.586362429
 30
0.0
 11
165.0581150445
 21
104.0863628462
 31
0.0
  0
LINE
  5
11F
330
1F
100
AcDbEntity
  8
0
  6
HIDDEN
 62
     7
370
     0
100
AcDbLine
 10
166.8606964069
 20
115.5863628686
 30
0.0
 11
166.8606964069
 21
107.0863624067
 31
0.0
  0
SPLINE
  5
120
330
1F
100
AcDbEntity
  8
0
  6
HIDDEN
 62
     7
370
     0
100
AcDbSpline
210
0.0
220
0.0
230
1.0
 70
     8
 71
     3
 72
    62
 73
    58
 74
     0
 42
0.00000001
 43
0.00000001
 12
1.0
 22
0.0
 32
0.0
 13
1.0
 23
0.0
 33
0.0
 40
-0.0312499999999999
 40
-0.0312499999999999
 40
0.0
 40
0.0
 40
0.0312499999999976
 40
0.0312499999999976
 40
0.0624999999999952
 40
0.0624999999999952
 40
0.1249999999999932
 40
0.1249999999999932
 40
0.1874999999999912
 40
0.1874999999999912
 40
0.2187499999999907
 40
0.2187499999999907
 40
0.2499999999999902
 40
0.2499999999999902
 40
0.2812499999999898
 40
0.2812499999999898
 40
0.3124999999999893
 40
0.3124999999999893
 40
0.3437499999999889
 40
0.3437499999999889
 40
0.3749999999999884
 40
0.3749999999999884
 40
0.4374999999999875
 40
0.4374999999999875
 40
0.4687499999999884
 40
0.4687499999999884
 40
0.4999999999999893
 40
0.4999999999999893
 40
0.5312499999999902
 40
0.5312499999999902
 40
0.5624999999999912
 40
0.5624999999999912
 40
0.5937499999999921
 40
0.5937499999999921
 40
0.6249999999999931
 40
0.6249999999999931
 40
0.656249999999994
 40
0.656249999999994
 40
0.687499999999995
 40
0.687499999999995
 40
0.7187499999999959
 40
0.7187499999999959
 40
0.7499999999999968
 40
0.7499999999999968
 40
0.7812499999999978
 40
0.7812499999999978
 40
0.8124999999999987
 40
0.8124999999999987
 40
0.8750000000000006
 40
0.8750000000000006
 40
0.9062500000000004
 40
0.9062500000000004
 40
0.9375000000000002
 40
0.9375000000000002
 40
0.9687500000000001
 40
0.9687500000000001
 40
1.0
 40
1.0
 40
1.031249999999998
 40
1.031249999999998
 10
220.1993136037387
 20
108.1973481125775
 30
0.0
 10
219.9169171557789
 20
108.1973481125775
 30
0.0
 10
219.7786392787652
 20
108.2082436170991
 30
0.0
 10
219.5074732075574
 20
108.2508874191178
 30
0.0
 10
219.3732698800978
 20
108.2832270324527
 30
0.0
 10
218.9942067003076
 20
108.409087693184
 30
0.0
 10
218.7651997786138
 20
108.5334249643203
 30
0.0
 10
218.384169159611
 20
108.8512103357931
 30
0.0
 10
218.2285460826894
 20
109.0482824782115
 30
0.0
 10
218.0694756061208
 20
109.3849987975359
 30
0.0
 10
218.0277484609774
 20
109.5066908851349
 30
0.0
 10
217.9724777598354
 20
109.7572561174269
 30
0.0
 10
217.9583978283456
 20
109.8862262159937
 30
0.0
 10
217.9578412620244
 20
110.1518999579367
 30
0.0
 10
217.971830539445
 20
110.2884180556737
 30
0.0
 10
218.0263120586807
 20
110.5551166655941
 30
0.0
 10
218.0671625168356
 20
110.6881319540467
 30
0.0
 10
218.173776483695
 20
110.9460930702622
 30
0.0
 10
218.238528625968
 20
111.0692265042624
 30
0.0
 10
218.3900871679206
 20
111.3040291739427
 30
0.0
 10
218.4774252910936
 20
111.4158789817632
 30
0.0
 10
218.7632017120551
 20
111.720794195006
 30
0.0
 10
218.9927380605209
 20
111.8909396592333
 30
0.0
 10
219.3690561965152
 20
112.066575964136
 30
0.0
 10
219.5013891048759
 20
112.1127880608376
 30
0.0
 10
219.7754217638667
 20
112.1755062306111
 30
0.0
 10
219.9134469234889
 20
112.1913567924384
 30
0.0
 10
220.1915183047076
 20
112.1921971469409
 30
0.0
 10
220.333231243378
 20
112.1765780069922
 30
0.0
 10
220.6056534990583
 20
112.1155139455794
 30
0.0
 10
220.7374816435554
 20
112.0704601645867
 30
0.0
 10
220.99288053916
 20
111.9525028514879
 30
0.0
 10
221.1130465423493
 20
111.8811291510934
 30
0.0
 10
221.3382179549056
 20
111.7169281287023
 30
0.0
 10
221.4443690162399
 20
111.622884471325
 30
0.0
 10
221.6358163049421
 20
111.4195048806864
 30
0.0
 10
221.7217503188616
 20
111.3100103909835
 30
0.0
 10
221.8741626369016
 20
111.0754932071859
 30
0.0
 10
221.9403461271892
 20
110.9502001713966
 30
0.0
 10
222.0465278257402
 20
110.6952297192051
 30
0.0
 10
222.087507888956
 20
110.5642199854083
 30
0.0
 10
222.1435880297534
 20
110.2949398855474
 30
0.0
 10
222.1578122051947
 20
110.1596296904944
 30
0.0
 10
222.1584088890662
 20
109.8950220478655
 30
0.0
 10
222.1446403215678
 20
109.763076562263
 30
0.0
 10
222.0897902546257
 20
109.5108926446026
 30
0.0
 10
222.0492937413492
 20
109.3913915805782
 30
0.0
 10
221.889831270173
 20
109.0508554855296
 30
0.0
 10
221.7351628458589
 20
108.854126796587
 30
0.0
 10
221.4468548145143
 20
108.6131803314253
 30
0.0
 10
221.3428299991664
 20
108.5428685830448
 30
0.0
 10
221.1184107409876
 20
108.420201075327
 30
0.0
 10
220.9964799531272
 20
108.3674624047059
 30
0.0
 10
220.7440228017012
 20
108.2835208361406
 30
0.0
 10
220.613136271784
 20
108.2517957356738
 30
0.0
 10
220.3411953540711
 20
108.2085970044895
 30
0.0
 10
220.1993136037387
 20
108.1973481125775
 30
0.0
 10
219.9169171557789
 20
108.1973481125775
 30
0.0
  0
LINE
  5
121
330
1F
100
AcDbEntity
  8
0
  6
HIDDEN
 62
     7
370
     0
100
AcDbLine
 10
223.0581143069
 20
107.0863624067
 30
0.0
 11
223.0581143069
 21
115.5863628686
 31
0.0
  0
LINE
  5
122
330
1F
100
AcDbEntity
  8
0
  6
HIDDEN
 62
     7
370
     0
100
AcDbLine
 10
246.4386844205
 20
122.5469653458
 30
0.0
 11
246.3980117011
 21
122.5257190839
 31
0.0
  0
LINE
  5
123
330
1F
100
AcDbEntity
  8
0
  6
HIDDEN
 62
     7
370
     0
100
AcDbLine
 10
249.2633485364
 20
119.7291799784
 30
0.0
 11
258.6371698546
 21
120.5472853929
 31
0.0
  0
LINE
  5
124
330
1F
100
AcDbEntity
  8
0
  6
HIDDEN
 62
     7
370
     0
100
AcDbLine
 10
258.6371698546
 20
120.5472853929
 30
0.0
 11
258.6357616949
 21
120.5312033147
 31
0.0
  0
LINE
  5
125
330
1F
100
AcDbEntity
  8
0
  6
HIDDEN
 62
     7
370
     0
100
AcDbLine
 10
247.2555362749
 20
131.8608681635
 30
0.0
 11
246.4386844205
 21
122.5469653458
 31
0.0
  0
LINE
  5
126
330
1F
100
AcDbEntity
  8
0
  6
HIDDEN
 62
     7
370
     0
100
AcDbLine
 10
234.5581152605
 20
94.836362727
 30
0.0
 11
234.5581152605
 21
111.3363626376
 31
0.0
  0
SPLINE
  5
127
330
1F
100
AcDbEntity
  8
0
  6
HIDDEN
 62
     7
370
     0
100
AcDbSpline
210
0.0
220
0.0
230
1.0
 70
     8
 71
     3
 72
    12
 73
     8
 74
     0
 42
0.00000001
 43
0.00000001
 12
1.0
 22
0.0
 32
0.0
 13
1.0
 23
0.0
 33
0.0
 40
0.0
 40
0.0
 40
0.0
 40
0.0
 40
0.2499999999999999
 40
0.2499999999999999
 40
0.4999999999999998
 40
0.4999999999999998
 40
1.0
 40
1.0
 40
1.0
 40
1.0
 10
236.3804243315614
 20
119.3023531802646
 30
0.0
 10
236.1078818911377
 20
118.6754874101892
 30
0.0
 10
235.8569742645989
 20
118.0386767495875
 30
0.0
 10
235.4097000983041
 20
116.7399844876252
 30
0.0
 10
235.2125652982696
 20
116.0742748618558
 30
0.0
 10
234.7316728344876
 20
114.0654942114391
 30
0.0
 10
234.5581153797588
 20
112.7103474881884
 30
0.0
 10
234.5581153797588
 20
111.3363626376323
 30
0.0
  0
SPLINE
  5
128
330
1F
100
AcDbEntity
  8
0
  6
HIDDEN
 62
     7
370
     0
100
AcDbSpline
210
0.0
220
0.0
230
1.0
 70
     8
 71
     3
 72
    26
 73
    22
 74
     0
 42
0.00000001
 43
0.00000001
 12
1.0
 22
0.0
 32
0.0
 13
1.0
 23
0.0
 33
0.0
 40
0.0
 40
0.0
 40
0.0
 40
0.0
 40
0.1249999999999996
 40
0.1249999999999996
 40
0.1874999999999994
 40
0.1874999999999994
 40
0.2499999999999993
 40
0.2499999999999993
 40
0.3749999999999989
 40
0.3749999999999989
 40
0.4374999999999988
 40
0.4374999999999988
 40
0.4999999999999988
 40
0.4999999999999988
 40
0.7499999999999989
 40
0.7499999999999989
 40
0.8124999999999991
 40
0.8124999999999991
 40
0.8749999999999993
 40
0.8749999999999993
 40
1.0
 40
1.0
 40
1.0
 40
1.0
 10
237.7555552835711
 20
131.0333072290488
 30
0.0
 10
237.7042964039393
 20
130.9758150929279
 30
0.0
 10
237.650443263475
 20
130.8572014974913
 30
0.0
 10
237.5658873634469
 20
130.5861193237692
 30
0.0
 10
237.536971787761
 20
130.4797014225133
 30
0.0
 10
237.4786953678292
 20
130.2383629587029
 30
0.0
 10
237.4492732350324
 20
130.1033382674841
 30
0.0
 10
237.3602429296446
 20
129.6561890557262
 30
0.0
 10
237.2998720685707
 20
129.3021862943957
 30
0.0
 10
237.2081082696598
 20
128.6875658522921
 30
0.0
 10
237.1773187187944
 20
128.4687069519285
 30
0.0
 10
237.1153864491117
 20
128.0024426729512
 30
0.0
 10
237.0842261238352
 20
127.7547632230895
 30
0.0
 10
236.9300923292484
 20
126.4640490515341
 30
0.0
 10
236.8101325493449
 20
125.253310735645
 30
0.0
 10
236.6666514645694
 20
123.5155415917051
 30
0.0
 10
236.6383655260423
 20
123.1574632207653
 30
0.0
 10
236.5832453553145
 20
122.4279690933159
 30
0.0
 10
236.556323053097
 20
122.0555013149942
 30
0.0
 10
236.4775124618224
 20
120.9151382239625
 30
0.0
 10
236.4275740538802
 20
120.1243965202201
 30
0.0
 10
236.3804243315614
 20
119.3023531802646
 30
0.0
  0
ELLIPSE
  5
129
330
1F
100
AcDbEntity
  8
0
  6
HIDDEN
 62
     7
370
     0
100
AcDbEllipse
 10
252.9085013882
 20
111.3363626376
 30
0.0
 11
11.76369068746803
 21
16.481247123708
 31
0.0
210
0.0
220
0.0
230
1.0
 40
0.0668534593
 41
1.618477629394297
 42
3.189273956189452
  0
ELLIPSE
  5
12A
330
1F
100
AcDbEntity
  8
0
  6
HIDDEN
 62
     7
370
     0
100
AcDbEllipse
 10
247.3924144057
 20
120.0481756537
 30
0.0
 11
2.099281448397704
 21
0.1276543563555492
 31
0.0
210
0.0
220
0.0
230
1.0
 40
0.4303093993
 41
5.78559821263535
 42
5.92352144674109
  0
ELLIPSE
  5
12B
330
1F
100
AcDbEntity
  8
0
  6
HIDDEN
 62
     7
370
     0
100
AcDbEllipse
 10
247.3924144057
 20
120.0481756537
 30
0.0
 11
-1.616902374425223
 21
2.318196838028328
 31
0.0
210
0.0
220
0.0
230
1.0
 40
0.57803977
 41
5.737920332829622
 42
5.875843566935361
  0
LINE
  5
12C
330
1F
100
AcDbEntity
  8
0
  6
HIDDEN
 62
     7
370
     0
100
AcDbLine
 10
246.7049681711
 20
122.5149529949
 30
0.0
 11
246.7049681711
 21
122.3489326388
 31
0.0
  0
ARC
  5
12D
330
1F
100
AcDbEntity
  8
0
  6
HIDDEN
 62
     7
370
     0
100
AcDbCircle
 10
247.393994756
 20
120.3678935412
 30
0.0
 40
2.097444526338428
100
AcDbArc
 50
340.9615754313
 51
109.1782212946
  0
LINE
  5
12E
330
1F
100
AcDbEntity
  8
0
  6
HIDDEN
 62
     7
370
     0
100
AcDbLine
 10
249.3767091202
 20
119.6837025658
 30
0.0
 11
249.3767091202
 21
119.8497229219
 31
0.0
  0
ARC
  5
12F
330
1F
100
AcDbEntity
  8
0
  6
HIDDEN
 62
     7
370
     0
100
AcDbCircle
 10
247.3939743302
 20
120.3468154051
 30
0.0
 40
2.095943890249228
100
AcDbArc
 50
269.9572610322
 51
119.334169659
  0
ARC
  5
130
330
1F
100
AcDbEntity
  8
0
  6
HIDDEN
 62
     7
370
     0
100
AcDbCircle
 10
247.389489542
 20
120.3477609075
 30
0.0
 40
2.096890844518498
100
AcDbArc
 50
175.4755809114
 51
270.0798234323
  0
LINE
  5
131
330
1F
100
AcDbEntity
  8
0
  6
HIDDEN
 62
     7
370
     0
100
AcDbLine
 10
256.4618834424
 20
118.6917453036
 30
0.0
 11
258.5141980218
 21
119.1450959035
 31
0.0
  0
LINE
  5
132
330
1F
100
AcDbEntity
  8
0
  6
HIDDEN
 62
     7
370
     0
100
AcDbLine
 10
249.3767091202
 20
119.8497229219
 30
0.0
 11
258.4014334845
 21
120.6373601184
 31
0.0
  0
LINE
  5
133
330
1F
100
AcDbEntity
  8
0
  6
HIDDEN
 62
     7
370
     0
100
AcDbLine
 10
258.6371698546
 20
120.5472853929
 30
0.0
 11
258.4014334845
 21
120.6373601184
 31
0.0
  0
LINE
  5
134
330
1F
100
AcDbEntity
  8
0
  6
HIDDEN
 62
     7
370
     0
100
AcDbLine
 10
247.5049519109
 20
131.6365553961
 30
0.0
 11
246.7049681711
 21
122.5149529949
 31
0.0
  0
ELLIPSE
  5
135
330
1F
100
AcDbEntity
  8
0
  6
HIDDEN
 62
     7
370
     0
100
AcDbEllipse
 10
245.5919256652
 20
112.6806666108
 30
0.0
 11
1.563905465413626
 21
19.20496181771459
 31
0.0
210
0.0
220
0.0
230
1.0
 40
0.1268365588
 41
6.131957607273339
 42
6.241689991946532
  0
LINE
  5
136
330
1F
100
AcDbEntity
  8
0
  6
HIDDEN
 62
     7
370
     0
100
AcDbLine
 10
258.4014334845
 20
120.6373601184
 30
0.0
 11
258.1058242487
 21
120.4455411956
 31
0.0
  0
LINE
  5
137
330
1F
100
AcDbEntity
  8
0
  6
HIDDEN
 62
     7
370
     0
100
AcDbLine
 10
247.4695020484
 20
131.0662823692
 30
0.0
 11
246.7049681711
 21
122.3489326388
 31
0.0
  0
ELLIPSE
  5
138
330
1F
100
AcDbEntity
  8
0
  6
HIDDEN
 62
     7
370
     0
100
AcDbEllipse
 10
245.8324670015
 20
112.7017112508
 30
0.0
 11
1.677499657206937
 21
19.21932851201976
 31
0.0
210
0.0
220
0.0
230
1.0
 40
0.0059876405
 41
5.984350002312805
 42
6.111436370919838
  0
LWPOLYLINE
  5
139
330
1F
100
AcDbEntity
  8
0
  6
HIDDEN
 62
     7
370
     0
100
AcDbPolyline
 90
       23
 70
   128
 43
0.0
 10
220.0581156778
 20
106.2489739582
 10
220.6497513818
 20
106.329875622
 10
221.1934575009
 20
106.5660254993
 10
221.6451862025
 20
106.9382928275
 10
221.9683402347
 20
107.416518122
 10
222.1367382574
 20
107.9619588294
 10
222.1367382574
 20
108.5304264874
 10
221.9683402347
 20
109.0758674276
 10
221.6451862025
 20
109.5540928385
 10
221.1934575009
 20
109.9263599339
 10
220.6497513818
 20
110.162510044
 10
220.0581156778
 20
110.2434113585
 10
219.4664799737
 20
110.162510044
 10
218.9227664041
 20
109.9263599339
 10
218.4710377025
 20
109.5540928385
 10
218.1478911209
 20
109.0758674276
 10
217.9794930982
 20
108.5304264874
 10
217.9794930982
 20
107.9619588294
 10
218.1478911209
 20
107.416518122
 10
218.4710377025
 20
106.9382928275
 10
218.9227664041
 20
106.5660254993
 10
219.4664799737
 20
106.329875622
 10
220.0581156778
 20
106.2489739582
  0
LINE
  5
13A
330
1F
100
AcDbEntity
  8
0
  6
HIDDEN
 62
     7
370
     0
100
AcDbLine
 10
259.0758749413
 20
131.5062857196
 30
0.0
 11
258.576708393
 21
132.0172558502
 31
0.0
  0
CIRCLE
  5
13B
330
1F
100
AcDbEntity
  8
0
  6
HIDDEN
 62
     7
370
     0
100
AcDbCircle
 10
253.1116534042
 20
126.0809442366
 30
0.0
 40
2.997770116530072
  0
LINE
  5
13C
330
1F
100
AcDbEntity
  8
0
  6
HIDDEN
 62
     7
370
     0
100
AcDbLine
 10
249.3767091202
 20
119.6837025658
 30
0.0
 11
258.1058242487
 21
120.4455411956
 31
0.0
  0
ELLIPSE
  5
13D
330
1F
100
AcDbEntity
  8
0
  6
HIDDEN
 62
     7
370
     0
100
AcDbEllipse
 10
-461.7267368984
 20
50.7983021362
 30
0.0
 11
3113.331223476199
 21
271.0557416021173
 31
0.0
210
0.0
220
0.0
230
1.0
 40
0.0060650906
 41
1.336791902016852
 42
1.340457436436291
  0
LINE
  5
13E
330
1F
100
AcDbEntity
  8
0
  6
HIDDEN
 62
     7
370
     0
100
AcDbLine
 10
259.0758749413
 20
131.5062857196
 30
0.0
 11
258.1058242487
 21
120.4455411956
 31
0.0
  0
CIRCLE
  5
13F
330
1F
100
AcDbEntity
  8
0
  6
HIDDEN
 62
     7
370
     0
100
AcDbCircle
 10
253.111846857
 20
126.0169076768
 30
0.0
 40
2.098706935688205
  0
SPLINE
  5
140
330
1F
100
AcDbEntity
  8
0
  6
HIDDEN
 62
     7
370
     0
100
AcDbSpline
210
0.0
220
0.0
230
1.0
 70
     8
 71
     3
 72
    18
 73
    14
 74
     0
 42
0.00000001
 43
0.00000001
 12
1.0
 22
0.0
 32
0.0
 13
1.0
 23
0.0
 33
0.0
 40
0.0
 40
0.0
 40
0.0
 40
0.0
 40
0.2500000000000002
 40
0.2500000000000002
 40
0.375
 40
0.375
 40
0.4999999999999999
 40
0.4999999999999999
 40
0.6249999999999998
 40
0.6249999999999998
 40
0.7499999999999996
 40
0.7499999999999996
 40
1.0
 40
1.0
 40
1.0
 40
1.0
 10
148.7367950361992
 20
98.2413159140999
 30
0.0
 10
148.6015094298968
 20
97.65711432036822
 30
0.0
 10
148.5003416836538
 20
97.12289663316002
 30
0.0
 10
148.3974803407849
 20
96.39699986227164
 30
0.0
 10
148.3713774952616
 20
96.1671193744917
 30
0.0
 10
148.3364875117168
 20
95.73654842970491
 30
0.0
 10
148.3279012534268
 20
95.53885352421074
 30
0.0
 10
148.3278015438612
 20
95.17750548153293
 30
0.0
 10
148.3362899150097
 20
95.01385547158681
 30
0.0
 10
148.3704332945303
 20
94.72064419861783
 30
0.0
 10
148.3962302763841
 20
94.59064813250203
 30
0.0
 10
148.4996314077721
 20
94.25659223994008
 30
0.0
 10
148.6014893999434
 20
94.1108160755753
 30
0.0
 10
148.7367950361992
 20
94.03945276962746
 30
0.0
  0
LINE
  5
141
330
1F
100
AcDbEntity
  8
0
  6
HIDDEN
 62
     7
370
     0
100
AcDbLine
 10
121.5581153649
 20
128.1957133636
 30
0.0
 11
121.5581153649
 21
123.3859351799
 31
0.0
  0
LINE
  5
142
330
1F
100
AcDbEntity
  8
0
  6
HIDDEN
 62
     7
370
     0
100
AcDbLine
 10
120.0581160503
 20
127.3296876774
 30
0.0
 11
120.0581160503
 21
122.9529223368
 31
0.0
  0
LINE
  5
143
330
1F
100
AcDbEntity
  8
0
  6
HIDDEN
 62
     7
370
     0
100
AcDbLine
 10
147.8581153917
 20
98.9564164505
 30
0.0
 11
147.8581153917
 21
93.816264622
 31
0.0
  0
LINE
  5
144
330
1F
100
AcDbEntity
  8
0
  6
HIDDEN
 62
     7
370
     0
100
AcDbLine
 10
147.8581153917
 20
128.8564606533
 30
0.0
 11
147.8581153917
 21
123.7163088248
 31
0.0
  0
SPLINE
  5
145
330
1F
100
AcDbEntity
  8
0
  6
HIDDEN
 62
     7
370
     0
100
AcDbSpline
210
0.0
220
0.0
230
1.0
 70
     8
 71
     3
 72
    18
 73
    14
 74
     0
 42
0.00000001
 43
0.00000001
 12
1.0
 22
0.0
 32
0.0
 13
1.0
 23
0.0
 33
0.0
 40
0.0
 40
0.0
 40
0.0
 40
0.0
 40
0.2499999999999998
 40
0.2499999999999998
 40
0.3749999999999999
 40
0.3749999999999999
 40
0.5
 40
0.5
 40
0.6250000000000001
 40
0.6250000000000001
 40
0.7500000000000002
 40
0.7500000000000002
 40
1.0
 40
1.0
 40
1.0
 40
1.0
 10
148.7367950361992
 20
128.6332725056371
 30
0.0
 10
148.6015094298968
 20
128.5619197639476
 30
0.0
 10
148.5003416836538
 20
128.4165163573581
 30
0.0
 10
148.3974803407849
 20
128.0870491217525
 30
0.0
 10
148.3713774952616
 20
127.9581155449478
 30
0.0
 10
148.3364875117168
 20
127.6625735456116
 30
0.0
 10
148.3279012534268
 20
127.4981787720897
 30
0.0
 10
148.3278015438612
 20
127.1372171573491
 30
0.0
 10
148.3362899150097
 20
126.9406473651869
 30
0.0
 10
148.3704332945303
 20
126.5152925690619
 30
0.0
 10
148.3962302763841
 20
126.2855229192623
 30
0.0
 10
148.4996314077721
 20
125.5529342248299
 30
0.0
 10
148.6014893999434
 20
125.0156974499123
 30
0.0
 10
148.7367950361992
 20
124.4314093611647
 30
0.0
  0
LINE
  5
146
330
1F
100
AcDbEntity
  8
0
  6
HIDDEN
 62
     7
370
     0
100
AcDbLine
 10
121.5581153649
 20
99.2867900953
 30
0.0
 11
121.5581153649
 21
94.4770119116
 31
0.0
  0
LINE
  5
147
330
1F
100
AcDbEntity
  8
0
  6
HIDDEN
 62
     7
370
     0
100
AcDbLine
 10
120.0581160503
 20
99.7198029385
 30
0.0
 11
120.0581160503
 21
95.3430375979
 31
0.0
  0
SPLINE
  5
148
330
1F
100
AcDbEntity
  8
0
  6
HIDDEN
 62
     7
370
     0
100
AcDbSpline
210
0.0
220
0.0
230
1.0
 70
     8
 71
     3
 72
    26
 73
    22
 74
     0
 42
0.00000001
 43
0.00000001
 12
1.0
 22
0.0
 32
0.0
 13
1.0
 23
0.0
 33
0.0
 40
0.0
 40
0.0
 40
0.0
 40
0.0
 40
0.0243743705636567
 40
0.0489971528528389
 40
0.0738685340457695
 40
0.0989886957538008
 40
0.1243578142357001
 40
0.1856954420104884
 40
0.2489790439885158
 40
0.3101454363851379
 40
0.3738448546659385
 40
0.4988682906572984
 40
0.624041829356329
 40
0.6866887241262866
 40
0.7493506722406204
 40
0.8120197054032833
 40
0.8746877876876712
 40
0.9076277592169606
 40
0.9373523483945346
 40
0.9696683137385496
 40
1.0
 40
1.0
 40
1.0
 40
1.0
 10
258.5767073797146
 20
132.0172622343972
 30
0.0
 10
258.5581681238227
 20
131.9744283095708
 30
0.0
 10
258.520900668963
 20
131.8883239173967
 30
0.0
 10
258.4641788680428
 20
131.7480149707641
 30
0.0
 10
258.4065192538756
 20
131.5985302001592
 30
0.0
 10
258.3478954456704
 20
131.4389337175488
 30
0.0
 10
258.2603809056872
 20
131.1896458496667
 30
0.0
 10
258.1418487720349
 20
130.826635437311
 30
0.0
 10
257.9934927969768
 20
130.3275927071854
 30
0.0
 10
257.8420735335627
 20
129.7738239108562
 30
0.0
 10
257.6400608448814
 20
128.9762055352166
 30
0.0
 10
257.3854321742554
 20
127.8602212617112
 30
0.0
 10
257.1336100856783
 20
126.6110434356824
 30
0.0
 10
256.934958303111
 20
125.5379343216538
 30
0.0
 10
256.7877110516974
 20
124.6980381090886
 30
0.0
 10
256.6427169123314
 20
123.8259612857939
 30
0.0
 10
256.522886901865
 20
123.0667162119631
 30
0.0
 10
256.4295736993898
 20
122.4518263175048
 30
0.0
 10
256.3596946848357
 20
121.9792286883214
 30
0.0
 10
256.2925159399742
 20
121.5140212038457
 30
0.0
 10
256.2477291262707
 20
121.1937051996743
 30
0.0
 10
256.2260450000968
 20
121.0386199842821
 30
0.0
  0
SPLINE
  5
149
330
1F
100
AcDbEntity
  8
0
  6
HIDDEN
 62
     7
370
     0
100
AcDbSpline
210
0.0
220
0.0
230
1.0
 70
     8
 71
     3
 72
    29
 73
    25
 74
     0
 42
0.00000001
 43
0.00000001
 12
1.0
 22
0.0
 32
0.0
 13
1.0
 23
0.0
 33
0.0
 40
0.0
 40
0.0
 40
0.0
 40
0.0
 40
0.0250646529431164
 40
0.0501099567542827
 40
0.0751486041199902
 40
0.1001932978472191
 40
0.1252567315495878
 40
0.156568827654559
 40
0.1879161753422394
 40
0.2505782123967532
 40
0.3132394774606923
 40
0.3758904924465326
 40
0.4385218376350919
 40
0.5011244177994731
 40
0.5636894494699293
 40
0.6262086644144172
 40
0.6886743696272639
 40
0.7510795575463036
 40
0.8134180264344014
 40
0.8445470482646333
 40
0.8756906949961821
 40
0.9171472514016887
 40
0.9585636175481533
 40
1.0
 40
1.0
 40
1.0
 40
1.0
 10
256.5698362076375
 20
119.8177101464091
 30
0.0
 10
256.5885639029204
 20
119.9535484919597
 30
0.0
 10
256.6260048362883
 20
120.2251203200859
 30
0.0
 10
256.6830821709065
 20
120.6279472926012
 30
0.0
 10
256.7407883006343
 20
121.0271504797311
 30
0.0
 10
256.7991919642541
 20
121.4224260389168
 30
0.0
 10
256.8631581672813
 20
121.8462162741415
 30
0.0
 10
256.9328785264803
 20
122.2971016826252
 30
0.0
 10
257.0336663254736
 20
122.9316428818866
 30
0.0
 10
257.1617702257444
 20
123.7061400574624
 30
0.0
 10
257.3183061876437
 20
124.6021259035781
 30
0.0
 10
257.4771670478078
 20
125.4619979506614
 30
0.0
 10
257.6378273617189
 20
126.2828179741578
 30
0.0
 10
257.7997527434256
 20
127.0619615302628
 30
0.0
 10
257.9624094596995
 20
127.7967507903037
 30
0.0
 10
258.1252573935599
 20
128.4848473024659
 30
0.0
 10
258.2877587617944
 20
129.1238928822808
 30
0.0
 10
258.4493720763132
 20
129.7118169520548
 30
0.0
 10
258.5829015613072
 20
130.1576403296321
 30
0.0
 10
258.6887464523775
 20
130.4868176600795
 30
0.0
 10
258.7762988897815
 20
130.7456377019118
 30
0.0
 10
258.8717009238238
 20
131.0098164443
 30
0.0
 10
258.9746519992674
 20
131.2744010119897
 30
0.0
 10
259.0421301791963
 20
131.4289782468939
 30
0.0
 10
259.0758774201508
 20
131.5062855364189
 30
0.0
  0
SPLINE
  5
14A
330
1F
100
AcDbEntity
  8
0
  6
HIDDEN
 62
     7
370
     0
100
AcDbSpline
210
0.0
220
0.0
230
1.0
 70
     8
 71
     3
 72
    60
 73
    56
 74
     0
 42
0.00000001
 43
0.00000001
 12
1.0
 22
0.0
 32
0.0
 13
1.0
 23
0.0
 33
0.0
 40
-0.0312500000000006
 40
-0.0312500000000006
 40
0.0
 40
0.0
 40
0.0312499999999995
 40
0.0312499999999995
 40
0.0624999999999989
 40
0.0624999999999989
 40
0.0937499999999984
 40
0.0937499999999984
 40
0.1249999999999979
 40
0.1249999999999979
 40
0.1874999999999969
 40
0.1874999999999969
 40
0.2499999999999959
 40
0.2499999999999959
 40
0.312499999999995
 40
0.312499999999995
 40
0.374999999999994
 40
0.374999999999994
 40
0.4062499999999941
 40
0.4062499999999941
 40
0.4374999999999941
 40
0.4374999999999941
 40
0.4687499999999941
 40
0.4687499999999941
 40
0.4999999999999941
 40
0.4999999999999941
 40
0.5312499999999941
 40
0.5312499999999941
 40
0.5624999999999941
 40
0.5624999999999941
 40
0.5937499999999942
 40
0.5937499999999942
 40
0.6249999999999942
 40
0.6249999999999942
 40
0.6562499999999942
 40
0.6562499999999942
 40
0.6874999999999942
 40
0.6874999999999942
 40
0.7499999999999953
 40
0.7499999999999953
 40
0.781249999999996
 40
0.781249999999996
 40
0.8124999999999966
 40
0.8124999999999966
 40
0.8437499999999971
 40
0.8437499999999971
 40
0.8749999999999977
 40
0.8749999999999977
 40
0.9062499999999982
 40
0.9062499999999982
 40
0.9374999999999989
 40
0.9374999999999989
 40
0.9687499999999994
 40
0.9687499999999994
 40
1.0
 40
1.0
 40
1.03125
 40
1.03125
 10
252.9454655753655
 20
123.2023049041026
 30
0.0
 10
253.280017059397
 20
123.2010188746874
 30
0.0
 10
253.4438357258167
 20
123.22100836589
 30
0.0
 10
253.7648201751491
 20
123.3006586224489
 30
0.0
 10
253.9193858279499
 20
123.360299505233
 30
0.0
 10
254.2041731761627
 20
123.5103026724289
 30
0.0
 10
254.3368514154113
 20
123.6020772612115
 30
0.0
 10
254.571088796705
 20
123.8050738389598
 30
0.0
 10
254.6754411047035
 20
123.9184788228824
 30
0.0
 10
254.9427659525416
 20
124.2752630969674
 30
0.0
 10
255.0634890031442
 20
124.5386803264579
 30
0.0
 10
255.2036448181353
 20
125.0618687622553
 30
0.0
 10
255.2251777415149
 20
125.3286494895766
 30
0.0
 10
255.1869034608204
 20
125.8368766328179
 30
0.0
 10
255.128213991629
 20
126.0813092915499
 30
0.0
 10
254.9362182262104
 20
126.545351265131
 30
0.0
 10
254.8064548594148
 20
126.7581475745617
 30
0.0
 10
254.5533370392774
 20
127.0478545981448
 30
0.0
 10
254.4580649862607
 20
127.1400739564652
 30
0.0
 10
254.2479485494346
 20
127.3077696966273
 30
0.0
 10
254.1331062698135
 20
127.3837201290217
 30
0.0
 10
253.8769144686486
 20
127.5159663123846
 30
0.0
 10
253.7381639554832
 20
127.5707684985597
 30
0.0
 10
253.4372936812233
 20
127.6489594786887
 30
0.0
 10
253.2753699569671
 20
127.6716580823083
 30
0.0
 10
252.9441309857495
 20
127.6736426780464
 30
0.0
 10
252.7774563815929
 20
127.652861103544
 30
0.0
 10
252.4589892005855
 20
127.5712549886461
 30
0.0
 10
252.3108538723258
 20
127.5118184146643
 30
0.0
 10
252.0407489282286
 20
127.367481586381
 30
0.0
 10
251.921808478796
 20
127.284730237503
 30
0.0
 10
251.7068198003811
 20
127.1029765347422
 30
0.0
 10
251.6111771529947
 20
127.0037107017376
 30
0.0
 10
251.4447071071688
 20
126.7980186914896
 30
0.0
 10
251.3727942073004
 20
126.6906360598004
 30
0.0
 10
251.2482526872768
 20
126.4673041040346
 30
0.0
 10
251.1955251787393
 20
126.3506746054947
 30
0.0
 10
251.0680595255921
 20
125.9964005167086
 30
0.0
 10
251.0215606450577
 20
125.7523419882735
 30
0.0
 10
251.0099935143411
 20
125.3731480436036
 30
0.0
 10
251.0162655804815
 20
125.244601519945
 30
0.0
 10
251.0496501343224
 20
124.990763144769
 30
0.0
 10
251.0766806247678
 20
124.8645224352406
 30
0.0
 10
251.153255569839
 20
124.613895375729
 30
0.0
 10
251.2027585777805
 20
124.4895000516855
 30
0.0
 10
251.328471770791
 20
124.2435386050559
 30
0.0
 10
251.403829185604
 20
124.1240488281848
 30
0.0
 10
251.5795326387286
 20
123.8986245374216
 30
0.0
 10
251.6811996247198
 20
123.7910669497554
 30
0.0
 10
251.9111508705217
 20
123.5957099720676
 30
0.0
 10
252.0374473748761
 20
123.5092297941514
 30
0.0
 10
252.3157296534433
 20
123.3627962231466
 30
0.0
 10
252.4671225194502
 20
123.3038908979504
 30
0.0
 10
252.7797818273473
 20
123.2242281780599
 30
0.0
 10
252.9454655753655
 20
123.2023049041026
 30
0.0
 10
253.280017059397
 20
123.2010188746874
 30
0.0
  0
LWPOLYLINE
  5
14B
330
1F
100
AcDbEntity
  8
0
  6
HIDDEN
 62
     7
370
     0
100
AcDbPolyline
 90
       26
 70
   128
 43
0.0
 10
220.0581156778
 20
105.7942808569
 10
220.6798368263
 20
105.868978981
 10
221.2625020313
 20
106.0883794874
 10
221.7694842386
 20
106.4386964739
 10
222.1689322161
 20
106.8979181313
 10
222.435759859
 20
107.4371906892
 10
222.5531810092
 20
108.0226289072
 10
222.5138344931
 20
108.6174478718
 10
222.3201864528
 20
109.1842726768
 10
221.9843962359
 20
109.6874878007
 10
221.5275787878
 20
110.0954744928
 10
220.9784262943
 20
110.3825972262
 10
220.3714498448
 20
110.5308151185
 10
219.7447815108
 20
110.5308151185
 10
219.1378050613
 20
110.3825972262
 10
218.5886525678
 20
110.0954744928
 10
218.1318351197
 20
109.6874878007
 10
217.7960449027
 20
109.1842726768
 10
217.6023968625
 20
108.6174478718
 10
217.5630503463
 20
108.0226289072
 10
217.6804714965
 20
107.4371906892
 10
217.9472991394
 20
106.8979181313
 10
218.346747117
 20
106.4386964739
 10
218.8537293243
 20
106.0883794874
 10
219.4363870787
 20
105.868978981
 10
220.0581156778
 20
105.7942808569
  0
LINE
  5
14C
330
1F
100
AcDbEntity
  8
0
  6
HIDDEN
 62
     7
370
     0
100
AcDbLine
 10
120.0581160503
 20
122.9529223368
 30
0.0
 11
120.0581160503
 21
113.6755336505
 31
0.0
  0
LINE
  5
14D
330
1F
100
AcDbEntity
  8
0
  6
HIDDEN
 62
     7
370
     0
100
AcDbLine
 10
120.0581160503
 20
108.9971916248
 30
0.0
 11
120.0581160503
 21
99.7198029385
 31
0.0
  0
LINE
  5
14E
330
1F
100
AcDbEntity
  8
0
  6
HIDDEN
 62
     7
370
     0
100
AcDbLine
 10
121.5581153649
 20
108.1878855788
 30
0.0
 11
121.5581153649
 21
99.2867900953
 31
0.0
  0
LINE
  5
14F
330
1F
100
AcDbEntity
  8
0
  6
HIDDEN
 62
     7
370
     0
100
AcDbLine
 10
121.5581153649
 20
123.3859351799
 30
0.0
 11
121.5581153649
 21
114.4848396965
 31
0.0
  0
LINE
  5
150
330
1F
100
AcDbEntity
  8
0
  6
HIDDEN
 62
     7
370
     0
100
AcDbLine
 10
147.8581153917
 20
123.7163088248
 30
0.0
 11
147.8581153917
 21
98.9564164505
 31
0.0
  0
LINE
  5
151
330
1F
100
AcDbEntity
  8
0
  6
HIDDEN
 62
     7
370
     0
100
AcDbLine
 10
149.8581153848
 20
122.8986364753
 30
0.0
 11
149.8581153848
 21
99.7740888
 31
0.0
  0
SPLINE
  5
152
330
1F
100
AcDbEntity
  8
0
  6
HIDDEN
 62
     7
370
     0
100
AcDbSpline
210
0.0
220
0.0
230
1.0
 70
     8
 71
     3
 72
     8
 73
     4
 74
     0
 42
0.00000001
 43
0.00000001
 12
1.0
 22
0.0
 32
0.0
 13
1.0
 23
0.0
 33
0.0
 40
0.0000202085968836
 40
0.0000202085968836
 40
0.0000202085968836
 40
0.0000202085968836
 40
0.0040218806502652
 40
0.0040218806502652
 40
0.0040218806502652
 40
0.0040218806502652
 10
121.5581153797588
 20
108.1878855192956
 30
0.0
 10
122.8914385055494
 20
108.1638872881319
 30
0.0
 10
124.224772378772
 20
108.1405595479636
 30
0.0
 10
125.5581153797588
 20
108.1178648771832
 30
0.0
  0
SPLINE
  5
153
330
1F
100
AcDbEntity
  8
0
  6
HIDDEN
 62
     7
370
     0
100
AcDbSpline
210
0.0
220
0.0
230
1.0
 70
     8
 71
     3
 72
     8
 73
     4
 74
     0
 42
0.00000001
 43
0.00000001
 12
1.0
 22
0.0
 32
0.0
 13
1.0
 23
0.0
 33
0.0
 40
0.0000202082942178
 40
0.0000202082942178
 40
0.0000202082942178
 40
0.0000202082942178
 40
0.0040218803475994
 40
0.0040218803475994
 40
0.0040218803475994
 40
0.0040218803475994
 10
125.5581153797588
 20
114.5548603980814
 30
0.0
 10
124.224772378772
 20
114.5321657273009
 30
0.0
 10
122.8914385055494
 20
114.5088379871326
 30
0.0
 10
121.5581153797588
 20
114.484839755969
 30
0.0
  0
SPLINE
  5
154
330
1F
100
AcDbEntity
  8
0
  6
HIDDEN
 62
     7
370
     0
100
AcDbSpline
210
0.0
220
0.0
230
1.0
 70
     8
 71
     3
 72
     8
 73
     4
 74
     0
 42
0.00000001
 43
0.00000001
 12
1.0
 22
0.0
 32
0.0
 13
1.0
 23
0.0
 33
0.0
 40
0.0
 40
0.0
 40
0.0
 40
0.0
 40
1.0
 40
1.0
 40
1.0
 40
1.0
 10
120.0581153797579
 20
108.9971917093979
 30
0.0
 10
120.5323267901958
 20
108.6624624821028
 30
0.0
 10
121.0370631372977
 20
108.4034040682699
 30
0.0
 10
121.5581153797588
 20
108.1878855192956
 30
0.0
  0
SPLINE
  5
155
330
1F
100
AcDbEntity
  8
0
  6
HIDDEN
 62
     7
370
     0
100
AcDbSpline
210
0.0
220
0.0
230
1.0
 70
     8
 71
     3
 72
     8
 73
     4
 74
     0
 42
0.00000001
 43
0.00000001
 12
1.0
 22
0.0
 32
0.0
 13
1.0
 23
0.0
 33
0.0
 40
0.0
 40
0.0
 40
0.0
 40
0.0
 40
1.0
 40
1.0
 40
1.0
 40
1.0
 10
121.5581153797588
 20
114.484839755969
 30
0.0
 10
121.037063137298
 20
114.2693212069948
 30
0.0
 10
120.5323267901965
 20
114.0102627931621
 30
0.0
 10
120.0581153797588
 20
113.6755335658673
 30
0.0
  0
LINE
  5
156
330
1F
100
AcDbEntity
  8
0
  6
HIDDEN
 62
     7
370
     0
100
AcDbLine
 10
120.0581160503
 20
108.9971916248
 30
0.0
 11
120.0581160503
 21
113.6755336505
 31
0.0
  0
LINE
  5
157
330
1F
100
AcDbEntity
  8
0
  6
HIDDEN
 62
     7
370
     0
100
AcDbLine
 10
125.5581160205
 20
108.1178647895
 30
0.0
 11
125.5581160205
 21
114.5548604858
 31
0.0
  0
SPLINE
  5
158
330
1F
100
AcDbEntity
  8
0
  6
HIDDEN
 62
     7
370
     0
100
AcDbSpline
210
0.0
220
0.0
230
1.0
 70
     8
 71
     3
 72
    26
 73
    22
 74
     0
 42
0.00000001
 43
0.00000001
 12
1.0
 22
0.0
 32
0.0
 13
1.0
 23
0.0
 33
0.0
 40
0.0
 40
0.0
 40
0.0
 40
0.0
 40
0.1250000000000003
 40
0.1250000000000003
 40
0.2500000000000006
 40
0.2500000000000006
 40
0.3750000000000008
 40
0.3750000000000008
 40
0.4375000000000008
 40
0.4375000000000008
 40
0.5000000000000009
 40
0.5000000000000009
 40
0.562500000000001
 40
0.562500000000001
 40
0.625000000000001
 40
0.625000000000001
 40
0.7500000000000007
 40
0.7500000000000007
 40
0.8750000000000003
 40
0.8750000000000003
 40
1.0
 40
1.0
 40
1.0
 40
1.0
 10
125.5581153797588
 20
108.1178648771832
 30
0.0
 10
125.7687587417587
 20
108.3524819081283
 30
0.0
 10
125.9759551795157
 20
108.5903650440877
 30
0.0
 10
126.3774543141481
 20
109.0776793503566
 30
0.0
 10
126.5727307331941
 20
109.3278045751456
 30
0.0
 10
126.9325112258895
 20
109.8463947205965
 30
0.0
 10
127.0977700860389
 20
110.1138257044834
 30
0.0
 10
127.2904279954651
 20
110.5452408368819
 30
0.0
 10
127.3453927356751
 20
110.6952597188063
 30
0.0
 10
127.4231285206393
 20
111.0079968975363
 30
0.0
 10
127.4443946589476
 20
111.1657511443435
 30
0.0
 10
127.4462885882333
 20
111.4844564241893
 30
0.0
 10
127.4260628511663
 20
111.6468932243699
 30
0.0
 10
127.3515984408805
 20
111.9578452239525
 30
0.0
 10
127.2979593151345
 20
112.1085164622802
 30
0.0
 10
127.1032150097338
 20
112.5506002202488
 30
0.0
 10
126.9361648965556
 20
112.8206442334165
 30
0.0
 10
126.5759087778519
 20
113.3407518616979
 30
0.0
 10
126.3811564028315
 20
113.5904130745076
 30
0.0
 10
125.9781471783593
 20
114.0798371863504
 30
0.0
 10
125.7697106599958
 20
114.3191831095143
 30
0.0
 10
125.5581153797597
 20
114.5548603980822
 30
0.0
  0
SPLINE
  5
159
330
1F
100
AcDbEntity
  8
0
  6
HIDDEN
 62
     7
370
     0
100
AcDbSpline
210
0.0
220
0.0
230
1.0
 70
     8
 71
     3
 72
    68
 73
    64
 74
     0
 42
0.00000001
 43
0.00000001
 12
1.0
 22
0.0
 32
0.0
 13
1.0
 23
0.0
 33
0.0
 40
-0.0312499999999998
 40
-0.0312499999999998
 40
0.0
 40
0.0
 40
0.0312500000000004
 40
0.0312500000000004
 40
0.0625000000000008
 40
0.0625000000000008
 40
0.0937500000000007
 40
0.0937500000000007
 40
0.1250000000000006
 40
0.1250000000000006
 40
0.1875000000000007
 40
0.1875000000000007
 40
0.2187500000000007
 40
0.2187500000000007
 40
0.2500000000000008
 40
0.2500000000000008
 40
0.2812500000000009
 40
0.2812500000000009
 40
0.3125000000000009
 40
0.3125000000000009
 40
0.343750000000001
 40
0.343750000000001
 40
0.375000000000001
 40
0.375000000000001
 40
0.4062500000000011
 40
0.4062500000000011
 40
0.4375000000000011
 40
0.4375000000000011
 40
0.4687500000000012
 40
0.4687500000000012
 40
0.5000000000000012
 40
0.5000000000000012
 40
0.5312500000000012
 40
0.5312500000000012
 40
0.5625000000000013
 40
0.5625000000000013
 40
0.5937500000000013
 40
0.5937500000000013
 40
0.6250000000000014
 40
0.6250000000000014
 40
0.6562500000000014
 40
0.6562500000000014
 40
0.6875000000000016
 40
0.6875000000000016
 40
0.7187500000000016
 40
0.7187500000000016
 40
0.7500000000000013
 40
0.7500000000000013
 40
0.7812500000000012
 40
0.7812500000000012
 40
0.812500000000001
 40
0.812500000000001
 40
0.8437500000000009
 40
0.8437500000000009
 40
0.8750000000000007
 40
0.8750000000000007
 40
0.9062500000000006
 40
0.9062500000000006
 40
0.9375000000000003
 40
0.9375000000000003
 40
0.9687500000000002
 40
0.9687500000000002
 40
1.0
 40
1.0
 40
1.03125
 40
1.03125
 10
133.4419416670953
 20
113.2331802142489
 30
0.0
 10
133.7324061493871
 20
113.5516124552494
 30
0.0
 10
133.8913224477685
 20
113.6941299809531
 30
0.0
 10
134.2349031334064
 20
113.9478445180428
 30
0.0
 10
134.4210744863121
 20
114.0594083445518
 30
0.0
 10
134.8056045588978
 20
114.2436573812208
 30
0.0
 10
135.0052150610625
 20
114.3175716473096
 30
0.0
 10
135.419054646036
 20
114.4292135368698
 30
0.0
 10
135.6318644557073
 20
114.4661375911586
 30
0.0
 10
136.267795930048
 20
114.5187394117341
 30
0.0
 10
136.7028621506758
 20
114.4765310210739
 30
0.0
 10
137.3151050176634
 20
114.3026964158785
 30
0.0
 10
137.5149501057755
 20
114.2260781880665
 30
0.0
 10
137.8993274145036
 20
114.0359033197235
 30
0.0
 10
138.0798758053661
 20
113.924543885505
 30
0.0
 10
138.4179357330757
 20
113.6694386167826
 30
0.0
 10
138.5769675494869
 20
113.5239328285899
 30
0.0
 10
138.8617642297093
 20
113.205694174417
 30
0.0
 10
138.9867097585842
 20
113.0346418558979
 30
0.0
 10
139.2010118989979
 20
112.6680812697848
 30
0.0
 10
139.2909106781727
 20
112.4700125359821
 30
0.0
 10
139.4245629673017
 20
112.0654297827727
 30
0.0
 10
139.4695709026157
 20
111.8578146027556
 30
0.0
 10
139.5143503832331
 20
111.4315248463268
 30
0.0
 10
139.5132767222173
 20
111.2148865483785
 30
0.0
 10
139.4652569285018
 20
110.7919265214211
 30
0.0
 10
139.4178439512769
 20
110.5809298361617
 30
0.0
 10
139.2795287024603
 20
110.1751411207299
 30
0.0
 10
139.1898478442381
 20
109.9821944620674
 30
0.0
 10
138.9711651339109
 20
109.6152878390839
 30
0.0
 10
138.8417174160822
 20
109.4417826908619
 30
0.0
 10
138.5552118120527
 20
109.1277805928712
 30
0.0
 10
138.3963529938147
 20
108.9846776664169
 30
0.0
 10
138.0513551718618
 20
108.7293467505639
 30
0.0
 10
137.8691380677415
 20
108.6198145729634
 30
0.0
 10
137.4862979911025
 20
108.4348877461751
 30
0.0
 10
137.2835537660293
 20
108.3590719193337
 30
0.0
 10
136.871725191566
 20
108.2464914270916
 30
0.0
 10
136.6625064149665
 20
108.2091512075069
 30
0.0
 10
136.237513580732
 20
108.1719201879768
 30
0.0
 10
136.0203563036588
 20
108.1724861519084
 30
0.0
 10
135.5959784645057
 20
108.2118838557979
 30
0.0
 10
135.386861816656
 20
108.2503130904321
 30
0.0
 10
134.974920827762
 20
108.3655181249694
 30
0.0
 10
134.7723527228689
 20
108.4427830554739
 30
0.0
 10
134.3907522804016
 20
108.6304653256058
 30
0.0
 10
134.2094413445224
 20
108.7413786774178
 30
0.0
 10
133.8668494475883
 20
108.9993321161486
 30
0.0
 10
133.7080258306341
 20
109.145047811758
 30
0.0
 10
133.4249810515338
 20
109.4613689694675
 30
0.0
 10
133.298971119548
 20
109.6334026808666
 30
0.0
 10
133.0818640757331
 20
110.0059452588557
 30
0.0
 10
132.9944287794592
 20
110.2000670441297
 30
0.0
 10
132.8612354989116
 20
110.6038417732093
 30
0.0
 10
132.815334916807
 20
110.8163386998168
 30
0.0
 10
132.7710183758732
 20
111.2419345606749
 30
0.0
 10
132.7718605633556
 20
111.4547683989442
 30
0.0
 10
132.8196992577766
 20
111.880508128774
 30
0.0
 10
132.8672351132458
 20
112.0922702941872
 30
0.0
 10
133.0039737084737
 20
112.4957598286445
 30
0.0
 10
133.0942572537493
 20
112.6915184495975
 30
0.0
 10
133.3139681460143
 20
113.0611186763457
 30
0.0
 10
133.4419416670953
 20
113.2331802142489
 30
0.0
 10
133.7324061493871
 20
113.5516124552494
 30
0.0
  0
CIRCLE
  5
15A
330
1F
100
AcDbEntity
  8
0
  6
HIDDEN
 62
     7
370
     0
100
AcDbCircle
 10
136.0581153798
 20
111.3363626376
 30
0.0
 40
3.049999999999997
  0
SPLINE
  5
15B
330
1F
100
AcDbEntity
  8
0
  6
HIDDEN
 62
     7
370
     0
100
AcDbSpline
210
0.0
220
0.0
230
1.0
 70
     8
 71
     3
 72
    10
 73
     6
 74
     0
 42
0.00000001
 43
0.00000001
 12
1.0
 22
0.0
 32
0.0
 13
1.0
 23
0.0
 33
0.0
 40
0.0
 40
0.0
 40
0.0
 40
0.0
 40
0.3373422518290463
 40
0.670636413415559
 40
1.0
 40
1.0
 40
1.0
 40
1.0
 10
256.2260417387039
 20
121.0386174774851
 30
0.0
 10
256.2677502076748
 20
120.9022050936056
 30
0.0
 10
256.3506666460635
 20
120.6310172676681
 30
0.0
 10
256.4653756437103
 20
120.2239761532728
 30
0.0
 10
256.5351510689597
 20
119.9525948501426
 30
0.0
 10
256.569831844034
 20
119.8177090518891
 30
0.0
  0
LINE
  5
15C
330
1F
100
AcDbEntity
  8
0
  6
HIDDEN
 62
     7
370
     0
100
AcDbLine
 10
256.2260427641
 20
121.0386195183
 30
0.0
 11
236.3804229664
 21
119.3023529798
 31
0.0
  0
LINE
  5
15D
330
1F
100
AcDbEntity
  8
0
  6
HIDDEN
 62
     7
370
     0
100
AcDbLine
 10
256.4618834424
 20
118.6917453036
 30
0.0
 11
256.5698349046
 21
119.817710571
 31
0.0
  0
LINE
  5
15E
330
1F
100
AcDbEntity
  8
0
  6
HIDDEN
 62
     7
370
     0
100
AcDbLine
 10
251.2472295331
 20
111.3363626376
 30
0.0
 11
256.4618834424
 21
118.6917453036
 31
0.0
  0
CIRCLE
  5
15F
330
1F
100
AcDbEntity
  8
0
  6
HIDDEN
 62
     7
370
     0
100
AcDbCircle
 10
162.0581153798
 20
111.3363626376
 30
0.0
 40
2.0
  0
LINE
  5
160
330
1F
100
AcDbEntity
  8
0
  6
HIDDEN
 62
     7
370
     0
100
AcDbLine
 10
150.0581153798
 20
91.7863632516
 30
0.0
 11
150.1510086002
 21
91.8792552278
 31
0.0
  0
LINE
  5
161
330
1F
100
AcDbEntity
  8
0
  6
HIDDEN
 62
     7
370
     0
100
AcDbLine
 10
150.1510086002
 20
130.7934700475
 30
0.0
 11
150.0581153798
 21
130.8863620237
 31
0.0
  0
ARC
  5
162
330
1F
100
AcDbEntity
  8
0
  6
HIDDEN
 62
     7
370
     0
100
AcDbCircle
 10
149.4439018174
 20
92.5863626376
 30
0.0
 40
1.000000000000008
100
AcDbArc
 50
315.0
 51
0.0
  0
ARC
  5
163
330
1F
100
AcDbEntity
  8
0
  6
HIDDEN
 62
     7
370
     0
100
AcDbCircle
 10
149.4439018174
 20
92.5863626376
 30
0.0
 40
1.0
100
AcDbArc
 50
0.0
 51
52.1052014664
  0
ARC
  5
164
330
1F
100
AcDbEntity
  8
0
  6
HIDDEN
 62
     7
370
     0
100
AcDbCircle
 10
149.4439018174
 20
130.0863626376
 30
0.0
 40
1.00000000000001
100
AcDbArc
 50
351.8087250651
 51
45.0
  0
ARC
  5
165
330
1F
100
AcDbEntity
  8
0
  6
HIDDEN
 62
     7
370
     0
100
AcDbCircle
 10
149.4439018174
 20
130.0863626376
 30
0.0
 40
1.00000000000001
100
AcDbArc
 50
307.8947985336
 51
351.8087250651
  0
LINE
  5
166
330
1F
100
AcDbEntity
  8
0
  6
HIDDEN
 62
     7
370
     0
100
AcDbLine
 10
150.4439018156
 20
92.5863618926
 30
0.0
 11
150.4439018156
 21
130.0863633827
 31
0.0
  0
LINE
  5
167
330
1F
100
AcDbEntity
  8
0
  6
HIDDEN
 62
     7
370
     0
100
AcDbLine
 10
150.4439018156
 20
92.5863618926
 30
0.0
 11
150.4439018156
 21
130.0863633827
 31
0.0
  0
LINE
  5
168
330
1F
100
AcDbEntity
  8
0
  6
HIDDEN
 62
     7
370
     0
100
AcDbLine
 10
217.9581173825
 20
115.3535834477
 30
0.0
 11
217.9581173825
 21
112.6490928894
 31
0.0
  0
LINE
  5
169
330
1F
100
AcDbEntity
  8
0
  6
HIDDEN
 62
     7
370
     0
100
AcDbLine
 10
222.1581139731
 20
114.9930372797
 30
0.0
 11
222.1581139731
 21
115.3535834477
 31
0.0
  0
LINE
  5
16A
330
1F
100
AcDbEntity
  8
0
  6
HIDDEN
 62
     7
370
     0
100
AcDbLine
 10
222.1581139731
 20
112.6494422518
 30
0.0
 11
222.1581139731
 21
113.8113703076
 31
0.0
  0
LINE
  5
16B
330
1F
100
AcDbEntity
  8
0
  6
HIDDEN
 62
     7
370
     0
100
AcDbLine
 10
126.5581161844
 20
99.3363625333
 30
0.0
 11
127.5648349094
 21
99.3363625333
 31
0.0
  0
LINE
  5
16C
330
1F
100
AcDbEntity
  8
0
  6
HIDDEN
 62
     7
370
     0
100
AcDbLine
 10
127.5648349094
 20
123.3363627419
 30
0.0
 11
126.5581161844
 21
123.3363627419
 31
0.0
  0
ARC
  5
16D
330
1F
100
AcDbEntity
  8
0
  6
HIDDEN
 62
     7
370
     0
100
AcDbCircle
 10
126.5581153798
 20
100.8363626376
 30
0.0
 40
1.500000000000014
100
AcDbArc
 50
191.0958032831
 51
270.0
  0
ARC
  5
16E
330
1F
100
AcDbEntity
  8
0
  6
HIDDEN
 62
     7
370
     0
100
AcDbCircle
 10
126.5581153798
 20
121.8363626376
 30
0.0
 40
1.500000000000028
100
AcDbArc
 50
90.0
 51
168.9041967169
  0
ARC
  5
16F
330
1F
100
AcDbEntity
  8
0
  6
HIDDEN
 62
     7
370
     0
100
AcDbCircle
 10
127.5648348918
 20
100.8363626376
 30
0.0
 40
1.500000000000002
100
AcDbArc
 50
270.0
 51
315.0
  0
ARC
  5
170
330
1F
100
AcDbEntity
  8
0
  6
HIDDEN
 62
     7
370
     0
100
AcDbCircle
 10
127.5648348918
 20
121.8363626376
 30
0.0
 40
1.500000000000014
100
AcDbArc
 50
45.0
 51
90.0
  0
LINE
  5
171
330
1F
100
AcDbEntity
  8
0
  6
HIDDEN
 62
     7
370
     0
100
AcDbLine
 10
120.0581160503
 20
99.5729501322
 30
0.0
 11
121.0861546117
 21
100.1664894596
 31
0.0
  0
LINE
  5
172
330
1F
100
AcDbEntity
  8
0
  6
HIDDEN
 62
     7
370
     0
100
AcDbLine
 10
121.0861546117
 20
122.5062358156
 30
0.0
 11
120.0581160503
 21
123.099775143
 31
0.0
  0
LINE
  5
173
330
1F
100
AcDbEntity
  8
0
  6
HIDDEN
 62
     7
370
     0
100
AcDbLine
 10
128.6254958379
 20
99.775702782
 30
0.0
 11
129.6861549037
 21
100.8363627792
 31
0.0
  0
LINE
  5
174
330
1F
100
AcDbEntity
  8
0
  6
HIDDEN
 62
     7
370
     0
100
AcDbLine
 10
129.6861549037
 20
121.8363624961
 30
0.0
 11
128.6254958379
 21
122.8970224932
 31
0.0
  0
LINE
  5
175
330
1F
100
AcDbEntity
  8
0
  6
HIDDEN
 62
     7
370
     0
100
AcDbLine
 10
228.1820871996
 20
120.5942482651
 30
0.0
 11
219.9447029399
 21
116.5930126757
 31
0.0
  0
LINE
  5
176
330
1F
100
AcDbEntity
  8
0
  6
HIDDEN
 62
     7
370
     0
100
AcDbLine
 10
220.8585390019
 20
112.3676362644
 30
0.0
 11
228.1623208093
 21
115.9153786451
 31
0.0
  0
LINE
  5
177
330
1F
100
AcDbEntity
  8
0
  6
HIDDEN
 62
     7
370
     0
100
AcDbLine
 10
121.0861546117
 20
100.1664894596
 30
0.0
 11
123.5861559528
 21
100.8363627792
 31
0.0
  0
LINE
  5
178
330
1F
100
AcDbEntity
  8
0
  6
HIDDEN
 62
     7
370
     0
100
AcDbLine
 10
123.5861559528
 20
121.8363624961
 30
0.0
 11
121.0861546117
 21
122.5062358156
 31
0.0
  0
LINE
  5
179
330
1F
100
AcDbEntity
  8
0
  6
HIDDEN
 62
     7
370
     0
100
AcDbLine
 10
125.0861552673
 20
122.1250380353
 30
0.0
 11
124.5861561167
 21
121.8363624961
 31
0.0
  0
LINE
  5
17A
330
1F
100
AcDbEntity
  8
0
  6
HIDDEN
 62
     7
370
     0
100
AcDbLine
 10
124.5861561167
 20
100.8363627792
 30
0.0
 11
125.0861552673
 21
100.54768724
 31
0.0
  0
LINE
  5
17B
330
1F
100
AcDbEntity
  8
0
  6
HIDDEN
 62
     7
370
     0
100
AcDbLine
 10
129.6861549037
 20
100.8363627792
 30
0.0
 11
139.5581155213
 21
100.8363627792
 31
0.0
  0
LINE
  5
17C
330
1F
100
AcDbEntity
  8
0
  6
HIDDEN
 62
     7
370
     0
100
AcDbLine
 10
139.5581155213
 20
121.8363624961
 30
0.0
 11
129.6861549037
 21
121.8363624961
 31
0.0
  0
ARC
  5
17D
330
1F
100
AcDbEntity
  8
0
  6
HIDDEN
 62
     7
370
     0
100
AcDbCircle
 10
139.5581153798
 20
101.3363626376
 30
0.0
 40
0.5000000000000142
100
AcDbArc
 50
270.0
 51
360.0
  0
ARC
  5
17E
330
1F
100
AcDbEntity
  8
0
  6
HIDDEN
 62
     7
370
     0
100
AcDbCircle
 10
139.5581153798
 20
121.3363626376
 30
0.0
 40
0.5000000000000142
100
AcDbArc
 50
0.0
 51
90.0
  0
LINE
  5
17F
330
1F
100
AcDbEntity
  8
0
  6
HIDDEN
 62
     7
370
     0
100
AcDbLine
 10
123.5861559528
 20
100.8363627792
 30
0.0
 11
124.5861561167
 21
100.8363627792
 31
0.0
  0
LINE
  5
180
330
1F
100
AcDbEntity
  8
0
  6
HIDDEN
 62
     7
370
     0
100
AcDbLine
 10
124.5861561167
 20
121.8363624961
 30
0.0
 11
123.5861559528
 21
121.8363624961
 31
0.0
  0
LINE
  5
181
330
1F
100
AcDbEntity
  8
0
  6
HIDDEN
 62
     7
370
     0
100
AcDbLine
 10
140.0581156033
 20
103.0863626823
 30
0.0
 11
141.0581157672
 21
104.0863628462
 31
0.0
  0
LINE
  5
182
330
1F
100
AcDbEntity
  8
0
  6
HIDDEN
 62
     7
370
     0
100
AcDbLine
 10
141.0581157672
 20
118.586362429
 30
0.0
 11
140.0581156033
 21
119.5863625929
 31
0.0
  0
LINE
  5
183
330
1F
100
AcDbEntity
  8
0
  6
HIDDEN
 62
     7
370
     0
100
AcDbLine
 10
141.0581157672
 20
104.0863628462
 30
0.0
 11
165.0581150445
 21
104.0863628462
 31
0.0
  0
LINE
  5
184
330
1F
100
AcDbEntity
  8
0
  6
HIDDEN
 62
     7
370
     0
100
AcDbLine
 10
165.0581150445
 20
118.586362429
 30
0.0
 11
141.0581157672
 21
118.586362429
 31
0.0
  0
LINE
  5
185
330
1F
100
AcDbEntity
  8
0
  6
HIDDEN
 62
     7
370
     0
100
AcDbLine
 10
165.0581150445
 20
104.0863628462
 30
0.0
 11
166.8606964069
 21
107.0863624067
 31
0.0
  0
LINE
  5
186
330
1F
100
AcDbEntity
  8
0
  6
HIDDEN
 62
     7
370
     0
100
AcDbLine
 10
166.8606964069
 20
115.5863628686
 30
0.0
 11
165.0581150445
 21
118.586362429
 31
0.0
  0
LINE
  5
187
330
1F
100
AcDbEntity
  8
0
  6
HIDDEN
 62
     7
370
     0
100
AcDbLine
 10
223.0581143069
 20
115.5863628686
 30
0.0
 11
166.8606964069
 21
115.5863628686
 31
0.0
  0
LINE
  5
188
330
1F
100
AcDbEntity
  8
0
  6
HIDDEN
 62
     7
370
     0
100
AcDbLine
 10
166.8606964069
 20
107.0863624067
 30
0.0
 11
223.0581143069
 21
107.0863624067
 31
0.0
  0
LINE
  5
189
330
1F
100
AcDbEntity
  8
0
  6
HIDDEN
 62
     7
370
     0
100
AcDbLine
 10
223.0581143069
 20
107.0863624067
 30
0.0
 11
225.6117710041
 21
111.3363626376
 31
0.0
  0
LINE
  5
18A
330
1F
100
AcDbEntity
  8
0
  6
HIDDEN
 62
     7
370
     0
100
AcDbLine
 10
225.6117710041
 20
111.3363626376
 30
0.0
 11
223.0581143069
 21
115.5863628686
 31
0.0
  0
ARC
  5
18B
330
1F
100
AcDbEntity
  8
0
  6
HIDDEN
 62
     7
370
     0
100
AcDbCircle
 10
233.6439018174
 20
128.3363626376
 30
0.0
 40
0.9999999999999696
100
AcDbArc
 50
270.0
 51
290.335377491
  0
LINE
  5
18C
330
1F
100
AcDbEntity
  8
0
  6
HIDDEN
 62
     7
370
     0
100
AcDbLine
 10
245.2924125957
 20
120.6805874557
 30
0.0
 11
245.2924125957
 21
120.345756501
 31
0.0
  0
LINE
  5
18D
330
1F
100
AcDbEntity
  8
0
  6
HIDDEN
 62
     7
370
     0
100
AcDbLine
 10
249.4924166369
 20
120.345756501
 30
0.0
 11
249.4924166369
 21
120.3694735617
 31
0.0
  0
LINE
  5
18E
330
1F
100
AcDbEntity
  8
0
  6
HIDDEN
 62
     7
370
     0
100
AcDbLine
 10
217.9581173825
 20
110.0232830234
 30
0.0
 11
217.9581173825
 21
108.2461926584
 31
0.0
  0
LINE
  5
18F
330
1F
100
AcDbEntity
  8
0
  6
HIDDEN
 62
     7
370
     0
100
AcDbLine
 10
222.1581139731
 20
108.2461926584
 30
0.0
 11
222.1581139731
 21
110.0248614988
 31
0.0
  0
LINE
  5
190
330
1F
100
AcDbEntity
  8
0
  6
HIDDEN
 62
     7
370
     0
100
AcDbLine
 10
251.0127448606
 20
126.0130853355
 30
0.0
 11
251.0127448606
 21
125.4269323275
 31
0.0
  0
LINE
  5
191
330
1F
100
AcDbEntity
  8
0
  6
HIDDEN
 62
     7
370
     0
100
AcDbLine
 10
255.2127414512
 20
125.4047761635
 30
0.0
 11
255.2127414512
 21
126.0130853355
 31
0.0
  0
LINE
  5
192
330
1F
100
AcDbEntity
  8
0
  6
HIDDEN
 62
     7
370
     0
100
AcDbLine
 10
217.558118062
 20
108.1719222442
 30
0.0
 11
217.558118062
 21
106.3922490888
 31
0.0
  0
LINE
  5
193
330
1F
100
AcDbEntity
  8
0
  6
HIDDEN
 62
     7
370
     0
100
AcDbLine
 10
222.5581132936
 20
106.3935748265
 30
0.0
 11
222.5581132936
 21
108.1719222442
 31
0.0
  0
LINE
  5
194
330
1F
100
AcDbEntity
  8
VERMASSUNG
  6
CENTERX2
100
AcDbLine
 10
260.0581153798
 20
133.3363626376
 30
0.0
 11
271.992659953
 21
133.3363626376
 31
0.0
  0
LINE
  5
195
330
1F
100
AcDbEntity
  8
VERMASSUNG
  6
CENTERX2
100
AcDbLine
 10
260.0581153798
 20
133.3363626376
 30
0.0
 11
260.0581153798
 21
111.3363626376
 31
0.0
  0
LINE
  5
196
330
1F
100
AcDbEntity
  8
VERMASSUNG
  6
CENTERX2
100
AcDbLine
 10
116.0681354393
 20
111.3363626376
 30
0.0
 11
260.0581153798
 21
111.3363626376
 31
0.0
  0
DIMENSION
  5
197
330
1F
100
AcDbEntity
  8
VERMASSUNG
100
AcDbDimension
  2
_D
 10
276.0914555561
 20
111.3363626376
 30
0.0
 11
276.0914555561
 21
122.3363626376
 31
0.0
 70
   160
  1
<>
 71
     2
 42
-1.0
  3
SLDDIMSTYLE0
100
AcDbAlignedDimension
 13
260.0581153798
 23
133.3363626376
 33
0.0
 14
260.0581153798
 24
111.3363626376
 34
0.0
 50
90.0
100
AcDbRotatedDimension
  0
DIMENSION
  5
1A2
330
1F
100
AcDbEntity
  8
VERMASSUNG
100
AcDbDimension
  2
_D_1
 10
271.992659953
 20
133.3363626376
 30
0.0
 11
267.1504869912
 21
125.6346165648
 31
0.0
 70
   162
  1
<>
 71
     1
 42
-1.0
  3
SLDDIMSTYLE1
100
AcDb2LineAngularDimension
 13
259.0034401583
 23
120.8942875957
 33
0.0
 14
260.056593259
 24
132.9025596432
 34
0.0
 15
260.0581153798
 25
133.3363626376
 35
0.0
 16
267.1504869912
 26
125.6346165648
 36
0.0
  0
DIMENSION
  5
1AB
330
1F
100
AcDbEntity
  8
VERMASSUNG
100
AcDbDimension
  2
_D_2
 10
260.0581153798
 20
146.3363626376
 30
0.0
 11
205.0581153798
 21
146.3363626376
 31
0.0
 70
   160
  1
<>
 71
     2
 42
-1.0
  3
SLDDIMSTYLE0
100
AcDbAlignedDimension
 13
150.0581153798
 23
136.0363626376
 33
0.0
 14
260.0581153798
 24
133.3363626376
 34
0.0
100
AcDbRotatedDimension
  0
DIMENSION
  5
1B5
330
1F
100
AcDbEntity
  8
VERMASSUNG
100
AcDbDimension
  2
_D_3
 10
120.0581153798
 20
152.3363626376
 30
0.0
 11
190.0581153798
 21
152.3363626376
 31
0.0
 70
   160
  1
<>
 71
     2
 42
-1.0
  3
SLDDIMSTYLE0
100
AcDbAlignedDimension
 13
260.0581153798
 23
133.3363626376
 33
0.0
 14
120.0581153798
 24
127.3296884758
 34
0.0
100
AcDbRotatedDimension
  0
DIMENSION
  5
1BF
330
1F
100
AcDbEntity
  8
VERMASSUNG
100
AcDbDimension
  2
_D_4
 10
110.0581153798
 20
86.3363626376
 30
0.0
 11
110.0581153798
 21
111.3363626376
 31
0.0
 70
   160
  1
PSC%%c<>
 71
     2
 42
-1.0
  3
SLDDIMSTYLE0
100
AcDbAlignedDimension
 13
150.3581153798
 23
136.3363626376
 33
0.0
 14
150.3581153798
 24
86.3363626376
 34
0.0
 50
90.0
100
AcDbRotatedDimension
  0
DIMENSION
  5
1CB
330
1F
100
AcDbEntity
  8
VERMASSUNG
100
AcDbDimension
  2
_D_5
 10
191.8850979965
 20
95.3363626376
 30
0.0
 11
191.8850979965
 21
102.4803903459
 31
0.0
 70
   160
  1
%%c<>
 71
     2
 42
-1.0
  3
SLDDIMSTYLE0
100
AcDbAlignedDimension
 13
174.0581153798
 23
127.3363626376
 33
0.0
 14
174.0581153798
 24
95.3363626376
 34
0.0
 50
90.0
100
AcDbRotatedDimension
  0
LINE
  5
1D4
330
1F
100
AcDbEntity
  8
0
  6
Continuous
 62
     7
370
    15
100
AcDbLine
 10
67.2969844081
 20
132.7100890652
 30
0.0
 11
64.0750842058
 21
133.3363625184
 31
0.0
  0
LINE
  5
1D5
330
1F
100
AcDbEntity
  8
0
  6
Continuous
 62
     7
370
    15
100
AcDbLine
 10
63.1061146041
 20
119.479451418
 30
0.0
 11
63.4079533402
 21
119.4952699319
 31
0.0
  0
LWPOLYLINE
  5
1D6
330
1F
100
AcDbEntity
  8
0
  6
Continuous
 62
     7
370
    15
100
AcDbPolyline
 90
        9
 70
   128
 43
0.0
 10
64.0447497453
 20
132.9025599137
 10
64.0508236347
 20
132.989420645
 10
64.0567248638
 20
133.0738115088
 10
64.0621736665
 20
133.1517334059
 10
64.0669117265
 20
133.2194908485
 10
64.0707144216
 20
133.2738726363
 10
64.0734014737
 20
133.3122990057
 10
64.0748454952
 20
133.3329482899
 10
64.0750842058
 20
133.3363625184
  0
LINE
  5
1D7
330
1F
100
AcDbEntity
  8
0
  6
Continuous
 62
     7
370
    15
100
AcDbLine
 10
67.2969844081
 20
132.7100890652
 30
0.0
 11
64.0447497453
 21
132.9025599137
 31
0.0
  0
LINE
  5
1D8
330
1F
100
AcDbEntity
  8
0
  6
Continuous
 62
     7
370
    15
100
AcDbLine
 10
68.7814320326
 20
132.4028792754
 30
0.0
 11
67.2969844081
 21
132.7100890652
 31
0.0
  0
LINE
  5
1D9
330
1F
100
AcDbEntity
  8
0
  6
Continuous
 62
     7
370
    15
100
AcDbLine
 10
67.967763206
 20
120.7668726296
 30
0.0
 11
68.7814320326
 21
132.4028792754
 31
0.0
  0
LINE
  5
1DA
330
1F
100
AcDbEntity
  8
0
  6
Continuous
 62
     7
370
    15
100
AcDbLine
 10
67.967763206
 20
120.7668726296
 30
0.0
 11
66.4572844171
 21
120.7018169538
 31
0.0
  0
LINE
  5
1DB
330
1F
100
AcDbEntity
  8
0
  6
Continuous
 62
     7
370
    15
100
AcDbLine
 10
66.4572844171
 20
120.7018169538
 30
0.0
 11
63.2050495833
 21
120.8942878023
 31
0.0
  0
LINE
  5
1DC
330
1F
100
AcDbEntity
  8
0
  6
Continuous
 62
     7
370
    15
100
AcDbLine
 10
63.2050495833
 20
120.8942878023
 30
0.0
 11
64.0447497453
 21
132.9025599137
 31
0.0
  0
LINE
  5
1DD
330
1F
100
AcDbEntity
  8
0
  6
Continuous
 62
     7
370
    15
100
AcDbLine
 10
66.4572844171
 20
120.7018169538
 30
0.0
 11
63.4869945124
 21
120.5475210175
 31
0.0
  0
LINE
  5
1DE
330
1F
100
AcDbEntity
  8
0
  6
Continuous
 62
     7
370
    15
100
AcDbLine
 10
63.4815139701
 20
120.5472369642
 30
0.0
 11
63.179685013
 21
120.5315581486
 31
0.0
  0
LWPOLYLINE
  5
1DF
330
1F
100
AcDbEntity
  8
0
  6
Continuous
 62
     7
370
    15
100
AcDbPolyline
 90
        9
 70
   128
 43
0.0
 10
63.179685013
 20
120.5315581486
 10
63.1805296061
 20
120.5436355398
 10
63.1821931229
 20
120.5674252436
 10
63.1846249807
 20
120.6022026912
 10
63.1877513142
 20
120.6469108314
 10
63.1914771866
 20
120.7001936585
 10
63.1956892675
 20
120.76042974
 10
63.2002597331
 20
120.8257899583
 10
63.2050495833
 20
120.8942878023
  0
LINE
  5
1E0
330
1F
100
AcDbEntity
  8
0
  6
Continuous
 62
     7
370
    15
100
AcDbLine
 10
63.408049732
 20
119.4966492206
 30
0.0
 11
63.1062207749
 21
119.4809704051
 31
0.0
  0
LINE
  5
1E1
330
1F
100
AcDbEntity
  8
0
  6
Continuous
 62
     7
370
    15
100
AcDbLine
 10
63.1062207749
 20
119.4809704051
 30
0.0
 11
63.179685013
 21
120.5315581486
 31
0.0
  0
LINE
  5
1E2
330
1F
100
AcDbEntity
  8
0
  6
Continuous
 62
     7
370
    15
100
AcDbLine
 10
63.1061146041
 20
119.479451418
 30
0.0
 11
63.1062207749
 21
119.4809704051
 31
0.0
  0
SPLINE
  5
1E3
330
1F
100
AcDbEntity
  8
0
  6
Continuous
 62
     7
370
    15
100
AcDbSpline
210
0.0
220
0.0
230
1.0
 70
     8
 71
     3
 72
    26
 73
    22
 74
     0
 42
0.00000001
 43
0.00000001
 12
1.0
 22
0.0
 32
0.0
 13
1.0
 23
0.0
 33
0.0
 40
0.0
 40
0.0
 40
0.0
 40
0.0
 40
0.0243743705636567
 40
0.0489971528528389
 40
0.0738685340457695
 40
0.0989886957538008
 40
0.1243578142357001
 40
0.1856954420104884
 40
0.2489790439885158
 40
0.3101454363851379
 40
0.3738448546659385
 40
0.4988682906572984
 40
0.624041829356329
 40
0.6866887241262866
 40
0.7493506722406204
 40
0.8120197054032833
 40
0.8746877876876712
 40
0.9076277592169606
 40
0.9373523483945346
 40
0.9696683137385496
 40
1.0
 40
1.0
 40
1.0
 40
1.0
 10
68.75446703921972
 20
132.0172622343972
 30
0.0
 10
68.88276481044154
 20
131.9744283095708
 30
0.0
 10
69.14066790134669
 20
131.8883239173967
 30
0.0
 10
69.52577731042895
 20
131.7480149707641
 30
0.0
 10
69.91177953024693
 20
131.5985302001592
 30
0.0
 10
70.29815154343937
 20
131.4389337175488
 30
0.0
 10
70.86607346494625
 20
131.1896458496667
 30
0.0
 10
71.61483227421284
 20
130.826635437311
 30
0.0
 10
72.51638356114945
 20
130.3275927071854
 30
0.0
 10
73.40067963005318
 20
129.7738239108562
 30
0.0
 10
74.53361439180851
 20
128.9762055352166
 30
0.0
 10
75.87269267072442
 20
127.8602212617112
 30
0.0
 10
77.08046213493931
 20
126.6110434356824
 30
0.0
 10
77.96291577497503
 20
125.5379343216538
 30
0.0
 10
78.58135881433375
 20
124.6980381090886
 30
0.0
 10
79.15425051610188
 20
123.8259612857939
 30
0.0
 10
79.59680798078578
 20
123.0667162119631
 30
0.0
 10
79.92252747380867
 20
122.4518263175048
 30
0.0
 10
80.15665428796262
 20
121.9792286883214
 30
0.0
 10
80.37308070270939
 20
121.5140212038457
 30
0.0
 10
80.50918670255884
 20
121.1937051996743
 30
0.0
 10
80.57508421635126
 20
121.0386199842821
 30
0.0
  0
SPLINE
  5
1E4
330
1F
100
AcDbEntity
  8
0
  6
Continuous
 62
     7
370
    15
100
AcDbSpline
210
0.0
220
0.0
230
1.0
 70
    24
 71
     3
 72
    10
 73
     6
 74
     0
 42
0.00000001
 43
0.00000001
 12
1.0
 22
0.0
 32
0.0
 13
1.0
 23
0.0
 33
0.0
 40
0.0
 40
0.0
 40
0.0
 40
0.0
 40
0.3373422518290463
 40
0.670636413415559
 40
1.0
 40
1.0
 40
1.0
 40
1.0
 10
80.57508420577258
 20
121.0386174774851
 30
0.0
 10
80.57508420577258
 20
120.9022050936056
 30
0.0
 10
80.57508420577258
 20
120.6310172676681
 30
0.0
 10
80.57508420577258
 20
120.2239761532728
 30
0.0
 10
80.57508420577258
 20
119.9525948501426
 30
0.0
 10
80.57508420577258
 20
119.8177090518891
 30
0.0
  0
SPLINE
  5
1E5
330
1F
100
AcDbEntity
  8
0
  6
Continuous
 62
     7
370
    15
100
AcDbSpline
210
0.0
220
0.0
230
1.0
 70
     8
 71
     3
 72
    29
 73
    25
 74
     0
 42
0.00000001
 43
0.00000001
 12
1.0
 22
0.0
 32
0.0
 13
1.0
 23
0.0
 33
0.0
 40
0.0
 40
0.0
 40
0.0
 40
0.0
 40
0.0250646529431164
 40
0.0501099567542827
 40
0.0751486041199902
 40
0.1001932978472191
 40
0.1252567315495878
 40
0.156568827654559
 40
0.1879161753422394
 40
0.2505782123967532
 40
0.3132394774606923
 40
0.3758904924465326
 40
0.4385218376350919
 40
0.5011244177994731
 40
0.5636894494699293
 40
0.6262086644144172
 40
0.6886743696272639
 40
0.7510795575463036
 40
0.8134180264344014
 40
0.8445470482646333
 40
0.8756906949961821
 40
0.9171472514016887
 40
0.9585636175481533
 40
1.0
 40
1.0
 40
1.0
 40
1.0
 10
80.57507999635504
 20
119.8177101464091
 30
0.0
 10
80.52626180120943
 20
119.9535484919597
 30
0.0
 10
80.42866309704542
 20
120.2251203200859
 30
0.0
 10
80.27070912073783
 20
120.6279472926012
 30
0.0
 10
80.10440071015678
 20
121.0271504797311
 30
0.0
 10
79.9289003060509
 20
121.4224260389168
 30
0.0
 10
79.72919165826177
 20
121.8462162741415
 30
0.0
 10
79.5024702488187
 20
122.2971016826252
 30
0.0
 10
79.16056093849414
 20
122.9316428818866
 30
0.0
 10
78.69971272676159
 20
123.7061400574624
 30
0.0
 10
78.09522325398761
 20
124.6021259035781
 30
0.0
 10
77.44120682385699
 20
125.4619979506614
 30
0.0
 10
76.73974941307075
 20
126.2828179741578
 30
0.0
 10
75.99327096904129
 20
127.0619615302628
 30
0.0
 10
75.20414205206707
 20
127.7967507903037
 30
0.0
 10
74.3750663057107
 20
128.4848473024659
 30
0.0
 10
73.50871121104737
 20
129.1238928822808
 30
0.0
 10
72.60801193049555
 20
129.7118169520548
 30
0.0
 10
71.8310620365367
 20
130.1576403296321
 30
0.0
 10
71.19532988242786
 20
130.4868176600795
 30
0.0
 10
70.65841695241777
 20
130.7456377019118
 30
0.0
 10
70.05872427955815
 20
131.0098164443
 30
0.0
 10
69.39476027199134
 20
131.2744010119897
 30
0.0
 10
68.94411280914467
 20
131.4289782468939
 30
0.0
 10
68.71873464200621
 20
131.5062855364189
 30
0.0
  0
LINE
  5
1E6
330
1F
100
AcDbEntity
  8
0
  6
Continuous
 62
     7
370
    15
100
AcDbLine
 10
80.5750841164
 20
118.6917453036
 30
0.0
 11
63.383466716
 21
119.1450959035
 31
0.0
  0
LINE
  5
1E7
330
1F
100
AcDbEntity
  8
0
  6
Continuous
 62
     7
370
    15
100
AcDbLine
 10
63.4815174044
 20
120.5472853929
 30
0.0
 11
63.383466716
 21
119.1450959035
 31
0.0
  0
LINE
  5
1E8
330
1F
100
AcDbEntity
  8
0
  6
Continuous
 62
     7
370
    15
100
AcDbLine
 10
63.4815174044
 20
120.5472853929
 30
0.0
 11
65.5728951451
 21
120.6373601184
 31
0.0
  0
LINE
  5
1E9
330
1F
100
AcDbEntity
  8
0
  6
Continuous
 62
     7
370
    15
100
AcDbLine
 10
65.5728951451
 20
120.6373601184
 30
0.0
 11
67.9452936519
 21
120.4455411956
 31
0.0
  0
LINE
  5
1EA
330
1F
100
AcDbEntity
  8
0
  6
Continuous
 62
     7
370
    15
100
AcDbLine
 10
67.967763206
 20
120.7668726296
 30
0.0
 11
67.9452936519
 21
120.4455411956
 31
0.0
  0
LINE
  5
1EB
330
1F
100
AcDbEntity
  8
0
  6
Continuous
 62
     7
370
    15
100
AcDbLine
 10
80.5750841164
 20
118.6917453036
 30
0.0
 11
80.5750841164
 21
119.817710571
 31
0.0
  0
LINE
  5
1EC
330
1F
100
AcDbEntity
  8
0
  6
Continuous
 62
     7
370
    15
100
AcDbLine
 10
80.5750841164
 20
111.3363626376
 30
0.0
 11
80.5750841164
 21
118.6917453036
 31
0.0
  0
ARC
  5
1ED
330
1F
100
AcDbEntity
  8
0
  6
Continuous
 62
     7
370
    15
100
AcDbCircle
 10
64.0750842058
 20
111.3363626376
 30
0.0
 40
16.50000000000002
100
AcDbArc
 50
261.7087285136
 51
0.0
  0
LINE
  5
1EE
330
1F
100
AcDbEntity
  8
0
  6
Continuous
 62
     7
370
    15
100
AcDbLine
 10
63.383466716
 20
119.1450959035
 30
0.0
 11
61.6956942604
 21
95.0088250414
 31
0.0
  0
SPLINE
  5
1EF
330
1F
100
AcDbEntity
  8
0
  6
Continuous
 62
     7
370
    15
100
AcDbSpline
210
0.0
220
0.0
230
1.0
 70
     8
 71
     3
 72
    13
 73
     9
 74
     0
 42
0.00000001
 43
0.00000001
 12
1.0
 22
0.0
 32
0.0
 13
1.0
 23
0.0
 33
0.0
 40
0.0
 40
0.0
 40
0.0
 40
0.0
 40
0.1911731286290657
 40
0.3878323235947015
 40
0.5790302044683231
 40
0.7758647303122455
 40
0.965582926562071
 40
0.9999999999999999
 40
0.9999999999999999
 40
0.9999999999999999
 40
0.9999999999999999
 10
61.7150452808103
 20
127.1613492593698
 30
0.0
 10
61.8723730139054
 20
127.1833802506166
 30
0.0
 10
62.19154329023932
 20
127.2280744531314
 30
0.0
 10
62.63058035575978
 20
127.2727088297453
 30
0.0
 10
63.03073444711188
 20
127.3037151117841
 30
0.0
 10
63.36090403174217
 20
127.3213015369701
 30
0.0
 10
63.57145518382862
 20
127.3289051898159
 30
0.0
 10
63.6439880492299
 20
127.3304425373225
 30
0.0
 10
63.65512582758427
 20
127.3306786045961
 30
0.0
  0
SPLINE
  5
1F0
330
1F
100
AcDbEntity
  8
0
  6
Continuous
 62
     7
370
    15
100
AcDbSpline
210
0.0
220
0.0
230
1.0
 70
     8
 71
     3
 72
    14
 73
    10
 74
     0
 42
0.00000001
 43
0.00000001
 12
1.0
 22
0.0
 32
0.0
 13
1.0
 23
0.0
 33
0.0
 40
0.0
 40
0.0
 40
0.0
 40
0.0
 40
0.25
 40
0.25
 40
0.5
 40
0.5
 40
0.75
 40
0.75
 40
1.0
 40
1.0
 40
1.0
 40
1.0
 10
61.73067358907226
 20
95.50905273164061
 30
0.0
 10
61.73067358907226
 20
95.50905273164061
 30
0.0
 10
61.6774127347996
 20
95.5166684960701
 30
0.0
 10
61.46510786125675
 20
95.5503062999537
 30
0.0
 10
61.31117440827641
 20
95.57558456657519
 30
0.0
 10
60.91164973745451
 20
95.65089148951351
 30
0.0
 10
60.6746391933143
 20
95.69943251675461
 30
0.0
 10
60.13582736069293
 20
95.82640243792652
 30
0.0
 10
59.84361660740348
 20
95.90270262457122
 30
0.0
 10
59.53560048987979
 20
95.9938371742953
 30
0.0
  0
ELLIPSE
  5
1F1
330
1F
100
AcDbEntity
  8
0
  6
Continuous
 62
     7
370
    15
100
AcDbEllipse
 10
56.2657095876
 20
118.2548133997
 30
0.0
 11
1.654506653606632
 21
1.945141503315696
 31
0.0
210
0.0
220
0.0
230
1.0
 40
0.8051687171
 41
0.0
 42
6.283185307179586
  0
ARC
  5
1F2
330
1F
100
AcDbEntity
  8
0
  6
Continuous
 62
     7
370
    15
100
AcDbCircle
 10
64.0750842058
 20
111.3363626376
 30
0.0
 40
16.00000000000001
100
AcDbArc
 50
98.4822165171
 51
253.5177834829
  0
SPLINE
  5
1F3
330
1F
100
AcDbEntity
  8
0
  6
Continuous
 62
     7
370
    15
100
AcDbSpline
210
0.0
220
0.0
230
1.0
 70
     8
 71
     3
 72
    22
 73
    18
 74
     0
 42
0.00000001
 43
0.00000001
 12
1.0
 22
0.0
 32
0.0
 13
1.0
 23
0.0
 33
0.0
 40
0.0
 40
0.0
 40
0.0
 40
0.0
 40
0.0768293630749517
 40
0.1603646963889316
 40
0.2347881687820597
 40
0.3100299851636625
 40
0.3620925775742794
 40
0.4153419937357616
 40
0.4675405323996107
 40
0.5217281102545557
 40
0.5927211546168848
 40
0.6654905321245264
 40
0.7458465670708043
 40
0.8267495394785237
 40
0.9088662142676517
 40
0.991315202734269
 40
1.0
 40
1.0
 40
1.0
 40
1.0
 10
54.32123857369632
 20
116.7021837048761
 30
0.0
 10
54.36628817642089
 20
116.6915045188892
 30
0.0
 10
54.4603194891147
 20
116.6692140253861
 30
0.0
 10
54.60329507715794
 20
116.6223959600963
 30
0.0
 10
54.75147499992887
 20
116.5677722382924
 30
0.0
 10
54.88795411717175
 20
116.5140347173118
 30
0.0
 10
55.01886705958215
 20
116.4633244358831
 30
0.0
 10
55.13999189688496
 20
116.4190563060589
 30
0.0
 10
55.26733208629797
 20
116.3769297266453
 30
0.0
 10
55.40830682441061
 20
116.335291849192
 30
0.0
 10
55.55907318548122
 20
116.2949934605507
 30
0.0
 10
55.71882087107048
 20
116.2530882721332
 30
0.0
 10
55.87503652368292
 20
116.2089671598088
 30
0.0
 10
56.0278977238991
 20
116.1597582827402
 30
0.0
 10
56.17187130935386
 20
116.1032643411259
 30
0.0
 10
56.27018139515989
 20
116.0610232316319
 30
0.0
 10
56.31683911612262
 20
116.0340322532519
 30
0.0
 10
56.3212854676506
 20
116.0314600877992
 30
0.0
  0
CIRCLE
  5
1F4
330
1F
100
AcDbEntity
  8
0
  6
Continuous
 62
     7
370
    15
100
AcDbCircle
 10
64.0750842058
 20
111.3363626376
 30
0.0
 40
25.00000000000003
  0
CIRCLE
  5
1F5
330
1F
100
AcDbEntity
  8
VERMASSUNG
  6
CENTERX2
100
AcDbCircle
 10
64.0750842058
 20
113.2855218393
 30
0.0
 40
19.99999999999999
  0
DIMENSION
  5
1F6
330
1F
100
AcDbEntity
  8
VERMASSUNG
100
AcDbDimension
  2
_D_6
 10
51.476997806
 20
128.8189766728
 30
0.0
 11
44.5796888767
 21
137.323366413
 31
0.0
 70
   160
  1
%%c<> min. 
 71
     2
 42
-1.0
  3
SLDDIMSTYLE2
100
AcDbAlignedDimension
 13
76.6731706056
 23
97.7520670059
 33
0.0
 14
51.476997806
 24
128.8189766728
 34
0.0
 50
-50.9569362086
100
AcDbRotatedDimension
  0
DIMENSION
  5
205
330
1F
100
AcDbEntity
  8
VERMASSUNG
100
AcDbDimension
  2
_D_7
 10
64.0750842058
 20
138.8363626376
 30
0.0
 11
54.1169548894
 21
76.4022257975
 31
0.0
 70
   162
  1
<>
 71
     1
 42
-1.0
  3
SLDDIMSTYLE3
100
AcDb2LineAngularDimension
 13
61.69569422
 23
95.0088244492
 33
0.0
 14
63.3834667193
 24
119.1450956788
 34
0.0
 15
64.0750842058
 25
83.8363626376
 35
0.0
 16
62.2056156866
 26
75.5011125089
 36
0.0
  0
INSERT
  5
21D
330
1F
100
AcDbEntity
  8
VERMASSUNG
100
AcDbBlockReference
  2
SW_CENTERMARKSYMBOL_0
 10
64.0750842058
 20
111.3363626376
 30
0.0
  0
OLE2FRAME
  5
21E
330
1F
100
AcDbEntity
  8
0
100
AcDbOle2Frame
 70
     2
  3
Paintbrush-Bild
 10
13.8511154363
 20
38.264191557
 30
0.0
 11
51.6290888628
 21
31.9806341108
 31
0.0
 71
     2
 72
     0
 73
     1
 90
    12928
310
80552BED0767C5B32B40DDAF6807D121434000000000000000006FFBDDFB85D0
310
4940DDAF6807D121434000000000000000006FFBDDFB85D04940416F4BD60AFB
310
3F4000000000000000002BED0767C5B32B40416F4BD60AFB3F40000000000000
310
0000000000000100000000010000010000000100000000000100000000320000
310
D0CF11E0A1B11AE1000000000000000000000000000000003E000300FEFF0900
310
0600000000000000000000000100000001000000000000000010000002000000
310
01000000FEFFFFFF0000000000000000FFFFFFFFFFFFFFFFFFFFFFFFFFFFFFFF
310
FFFFFFFFFFFFFFFFFFFFFFFFFFFFFFFFFFFFFFFFFFFFFFFFFFFFFFFFFFFFFFFF
310
FFFFFFFFFFFFFFFFFFFFFFFFFFFFFFFFFFFFFFFFFFFFFFFFFFFFFFFFFFFFFFFF
310
FFFFFFFFFFFFFFFFFFFFFFFFFFFFFFFFFFFFFFFFFFFFFFFFFFFFFFFFFFFFFFFF
310
FFFFFFFFFFFFFFFFFFFFFFFFFFFFFFFFFFFFFFFFFFFFFFFFFFFFFFFFFFFFFFFF
310
FFFFFFFFFFFFFFFFFFFFFFFFFFFFFFFFFFFFFFFFFFFFFFFFFFFFFFFFFFFFFFFF
310
FFFFFFFFFFFFFFFFFFFFFFFFFFFFFFFFFFFFFFFFFFFFFFFFFFFFFFFFFFFFFFFF
310
FFFFFFFFFFFFFFFFFFFFFFFFFFFFFFFFFFFFFFFFFFFFFFFFFFFFFFFFFFFFFFFF
310
FFFFFFFFFFFFFFFFFFFFFFFFFFFFFFFFFFFFFFFFFFFFFFFFFFFFFFFFFFFFFFFF
310
FFFFFFFFFFFFFFFFFFFFFFFFFFFFFFFFFFFFFFFFFFFFFFFFFFFFFFFFFFFFFFFF
310
FFFFFFFFFFFFFFFFFFFFFFFFFFFFFFFFFFFFFFFFFFFFFFFFFFFFFFFFFFFFFFFF
310
FFFFFFFFFFFFFFFFFFFFFFFFFFFFFFFFFFFFFFFFFFFFFFFFFFFFFFFFFFFFFFFF
310
FFFFFFFFFFFFFFFFFFFFFFFFFFFFFFFFFFFFFFFFFFFFFFFFFFFFFFFFFFFFFFFF
310
FFFFFFFFFFFFFFFFFFFFFFFFFFFFFFFFFFFFFFFFFFFFFFFFFFFFFFFFFFFFFFFF
310
FDFFFFFFFEFFFFFFFEFFFFFFFEFFFFFF05000000060000000700000008000000
310
090000000A0000000B0000000C0000000D0000000E0000000F00000010000000
310
11000000120000001300000014000000150000001600000017000000FEFFFFFF
310
FFFFFFFFFFFFFFFFFFFFFFFFFFFFFFFFFFFFFFFFFFFFFFFFFFFFFFFFFFFFFFFF
310
FFFFFFFFFFFFFFFFFFFFFFFFFFFFFFFFFFFFFFFFFFFFFFFFFFFFFFFFFFFFFFFF
310
FFFFFFFFFFFFFFFFFFFFFFFFFFFFFFFFFFFFFFFFFFFFFFFFFFFFFFFFFFFFFFFF
310
FFFFFFFFFFFFFFFFFFFFFFFFFFFFFFFFFFFFFFFFFFFFFFFFFFFFFFFFFFFFFFFF
310
FFFFFFFFFFFFFFFFFFFFFFFFFFFFFFFFFFFFFFFFFFFFFFFFFFFFFFFFFFFFFFFF
310
FFFFFFFFFFFFFFFFFFFFFFFFFFFFFFFFFFFFFFFFFFFFFFFFFFFFFFFFFFFFFFFF
310
FFFFFFFFFFFFFFFFFFFFFFFFFFFFFFFFFFFFFFFFFFFFFFFFFFFFFFFFFFFFFFFF
310
FFFFFFFFFFFFFFFFFFFFFFFFFFFFFFFFFFFFFFFFFFFFFFFFFFFFFFFFFFFFFFFF
310
FFFFFFFFFFFFFFFFFFFFFFFFFFFFFFFFFFFFFFFFFFFFFFFFFFFFFFFFFFFFFFFF
310
FFFFFFFFFFFFFFFFFFFFFFFFFFFFFFFFFFFFFFFFFFFFFFFFFFFFFFFFFFFFFFFF
310
FFFFFFFFFFFFFFFFFFFFFFFFFFFFFFFFFFFFFFFFFFFFFFFFFFFFFFFFFFFFFFFF
310
FFFFFFFFFFFFFFFFFFFFFFFFFFFFFFFFFFFFFFFFFFFFFFFFFFFFFFFFFFFFFFFF
310
FFFFFFFFFFFFFFFFFFFFFFFFFFFFFFFFFFFFFFFFFFFFFFFFFFFFFFFFFFFFFFFF
310
52006F006F007400200045006E00740072007900000000000000000000000000
310
0000000000000000000000000000000000000000000000000000000000000000
310
16000500FFFFFFFFFFFFFFFF020000000A00030000000000C000000000000046
310
000000000000000000000000E0930CDCFD3FCD0103000000C000000000000000
310
01004F006C006500000000000000000000000000000000000000000000000000
310
0000000000000000000000000000000000000000000000000000000000000000
310
0A000200FFFFFFFFFFFFFFFFFFFFFFFF00000000000000000000000000000000
310
0000000000000000000000000000000000000000000000001400000000000000
310
010043006F006D0070004F0062006A0000000000000000000000000000000000
310
0000000000000000000000000000000000000000000000000000000000000000
310
120002010100000003000000FFFFFFFF00000000000000000000000000000000
310
0000000000000000000000000000000000000000010000004D00000000000000
310
01004F006C006500310030004E00610074006900760065000000000000000000
310
0000000000000000000000000000000000000000000000000000000000000000
310
1A000200FFFFFFFFFFFFFFFFFFFFFFFF00000000000000000000000000000000
310
0000000000000000000000000000000000000000040000002426000000000000
310
FEFFFFFF02000000FEFFFFFFFFFFFFFFFFFFFFFFFFFFFFFFFFFFFFFFFFFFFFFF
310
FFFFFFFFFFFFFFFFFFFFFFFFFFFFFFFFFFFFFFFFFFFFFFFFFFFFFFFFFFFFFFFF
310
FFFFFFFFFFFFFFFFFFFFFFFFFFFFFFFFFFFFFFFFFFFFFFFFFFFFFFFFFFFFFFFF
310
FFFFFFFFFFFFFFFFFFFFFFFFFFFFFFFFFFFFFFFFFFFFFFFFFFFFFFFFFFFFFFFF
310
FFFFFFFFFFFFFFFFFFFFFFFFFFFFFFFFFFFFFFFFFFFFFFFFFFFFFFFFFFFFFFFF
310
FFFFFFFFFFFFFFFFFFFFFFFFFFFFFFFFFFFFFFFFFFFFFFFFFFFFFFFFFFFFFFFF
310
FFFFFFFFFFFFFFFFFFFFFFFFFFFFFFFFFFFFFFFFFFFFFFFFFFFFFFFFFFFFFFFF
310
FFFFFFFFFFFFFFFFFFFFFFFFFFFFFFFFFFFFFFFFFFFFFFFFFFFFFFFFFFFFFFFF
310
FFFFFFFFFFFFFFFFFFFFFFFFFFFFFFFFFFFFFFFFFFFFFFFFFFFFFFFFFFFFFFFF
310
FFFFFFFFFFFFFFFFFFFFFFFFFFFFFFFFFFFFFFFFFFFFFFFFFFFFFFFFFFFFFFFF
310
FFFFFFFFFFFFFFFFFFFFFFFFFFFFFFFFFFFFFFFFFFFFFFFFFFFFFFFFFFFFFFFF
310
FFFFFFFFFFFFFFFFFFFFFFFFFFFFFFFFFFFFFFFFFFFFFFFFFFFFFFFFFFFFFFFF
310
FFFFFFFFFFFFFFFFFFFFFFFFFFFFFFFFFFFFFFFFFFFFFFFFFFFFFFFFFFFFFFFF
310
FFFFFFFFFFFFFFFFFFFFFFFFFFFFFFFFFFFFFFFFFFFFFFFFFFFFFFFFFFFFFFFF
310
FFFFFFFFFFFFFFFFFFFFFFFFFFFFFFFFFFFFFFFFFFFFFFFFFFFFFFFFFFFFFFFF
310
FFFFFFFFFFFFFFFFFFFFFFFFFFFFFFFFFFFFFFFFFFFFFFFFFFFFFFFFFFFFFFFF
310
0100000200000000000000000000000000000000000000000000000000000000
310
0000000000000000000000000000000000000000000000000000000000000000
310
0100FEFF030A0000FFFFFFFF0A00030000000000C00000000000004607000000
310
5042727573680007000000504272757368000700000050427275736800F439B2
310
7100000000000000000000000000000000000000000000000000000000000000
310
0000000000000000000000000000000000000000000000000000000000000000
310
0000000000000000000000000000000000000000000000000000000000000000
310
0000000000000000000000000000000000000000000000000000000000000000
310
0000000000000000000000000000000000000000000000000000000000000000
310
0000000000000000000000000000000000000000000000000000000000000000
310
0000000000000000000000000000000000000000000000000000000000000000
310
0000000000000000000000000000000000000000000000000000000000000000
310
0000000000000000000000000000000000000000000000000000000000000000
310
0000000000000000000000000000000000000000000000000000000000000000
310
0000000000000000000000000000000000000000000000000000000000000000
310
0000000000000000000000000000000000000000000000000000000000000000
310
20260000424D0E260000000000003E00000028000000B40200006E0000000100
310
01000000000000000000130B0000130B00000200000002000000000000FFFFFF
310
FFFFFFFFFFFFFFFFFFFFFFFFFFFFFFFFFFFFFFFFFFFFFFFFFFFFFFFFFFFFFFFF
310
FFFFFFFFFFFFFFFFFFFFFFFFFFFFFFFFFFFFFFFFFFFFFFFFFFFFFFFFFFFFFFFF
310
FFFFFFFFFFFFFFFFFFFFFFFFFFFFFFFFFFFFFFFFFFFFFFFFF000FFFFFFFFFFFF
310
FFFFFFFFFFFFFFFFFFFFFFFFFFFFFFFFFFFFFFFFFFFFFFFFFFFFFFFFFFFFFFFF
310
FFFFFFFFFFFFFFFFFFFFFFFFFFFFFFFFFFFFFFFFFFFFFFFFFFFFFFFFFFFFFFFF
310
FFFFFFFFFFFFFFFFFFFFFFFFFFFFFFFFF000FFFFFFFFFFFFFFFFFFFFFFFFFFFF
310
FFFFFFFFFFFFFFFFFFFFFFFFFFFFFFFFFFFFFFFFFFFFFFFFFFFFFFFFFFFFFFFF
310
FFFFFFFFFFFFFFFFFFFFFFFFFFFFFFFFFFFFFFFFFFFFFFFFFFFFFFFFFFFFFFFF
310
FFFFFFFFFFFFFFFFF000FFFFFFFFFFFFFFFFFFFFFFFFFFFFFFFFFFFFFFFFFFFF
310
FFFFFFFFFFFFFFFFFFFFFFFFFFFFFFFFFFFFFFFFFFFFFFFFFFFFFFFFFFFFFFFF
310
FFFFFFFFFFFFFFFFFFFFFFFFFFFFFFFFFFFFFFFFFFFFFFFFFFFFFFFFFFFFFFFF
310
F000FFFFFFFFFFFFFFFFFFFFFFFFFFFFFFFFFFFFFFFFFFFFFFFFFFFFFFFFFFFF
310
FFFFFFFFFFFFFFFFFFFFFFFFFFFFFFFFFFFFFFFFFFFFFFFFFFFFFFFFFFFFFFFF
310
FFFFFFFFFFFFFFFFFFFFFFFFFFFFFFFFFFFFFFFFFFFFFFFFF000FFFFFFFFFFFF
310
FFFFFFFFFFFFFFFFFFFFFFFFFFFFFFFFFFFFFFFFFFFFFFFFFFFFFFFFFFFFFFFF
310
FFFFFFFFFFFFFFFFFFFFFFFFFFFFFFFFFFFFFFFFFFFFFFFFFFFFFFFFFFFFFFFF
310
FFFFFFFFFFFFFFFFFFFFFFFFFFFFFFFFF000FFFFFFFFFFFFFFFFFFFFFFFFFFFF
310
FFFFFFFFFFFFFFFFFFFFFFFFFFFFFFFFFFFFFFFFFFFFFFFFFFFFFFFFFFFFFFFF
310
FFFFFFFFFFFFFFFFFFFFFFFFFFFFFFFFFFFFFFFFFFFFFFFFFFFFFFFFFFFFFFFF
310
FFFFFFFFFFFFFFFFF000FFFFFFFFFFFFFFFFFFFFFFFFFFFFFFFFFFFFFFFFFFFF
310
FFFFFFFFFFFFFFFFFFFFFFFFFFFFFFFFFFFFFFFFFFFFFFFFFFFFFFFFFFFFFFFF
310
FFFFFFFFFFFFFFFFFFFFFFFFFFFFFFFFFFFFFFFFFFFFFFFFFFFFFFFFFFFFFFFF
310
F000FFFFFFFFFFFFFFFFFFFFFFFFFFFFFFFFFFFFFFFFFFFFFFFFFFFFFFFFFFFF
310
FFFFFFFFFFFFFFFFFFFFFFFFFFFFFFFFFFFFFFFFFFFFFFFFFFFFFFFFFFFFFFFF
310
FFFFFFFFFFFFFFFFFFFFFFFFFFFFFFFFFFFFFFFFFFFFFFFFF000FFFFFFFFFFFF
310
FFFFFFFFFFFFFFFFFFFFFFFFFFFFFFFFFFFFFFFFFFFFFFFFFFFFFFFFFFFFFFFF
310
FFFFFFFFFFFFFFFFFFFFFFFFFFFFFFFFFFFFFFFFFFFFFFFFFFFFFFFFFFFFFFFF
310
FFFFFFFFFFFFFFFFFFFFFFFFFFFFFFFFF000FFFFFFFFFFFFFFFFFFFFFFFFFFFF
310
FFFFFFFFFFFFFFFFFFFFFFFFFFFFFFFFFFFFFFFFFFFFFFFFFFFFFFFFFFFFFFFF
310
FFFFFFFFFFFFFFFFFFFFFFFFFFFFFFFFFFFFFFFFFFFFFFFFFFFFFFFFFFFFFFFF
310
FFFFFFFFFFFFFFFFF000FFFFFFFFFFFFFFFFFFFFFFFFFFFFFFFFFFFFFFFFFFFF
310
FFFFFFFFFFFFFFFFFFFFFFFFFFFFFFFFFFFFFFFFFFFFFFFFFFFFFFFFFFFFFFFF
310
FFFFFFFFFFFFFFFFFFFFFFFFFFFFFFFFFFFFFFFFFFFFFFFFFFFFFFFFFFFFFFFF
310
F000FFFFFFFFFFFFFFFFFFFFFFFFFFFFFFFFFFFFFFFFFFFFFFFFFFFFFFFFFFFF
310
FFFFFFFFFFFFFFFFFFFFFFFFFFFFFFFFFFFFFFFFFFFFFFFFFFFFFFFFFFFFFFFF
310
FFFFFFFFFFFFFFFFFFFFFFFFFFFFFFFFFFFFFFFFFFFFFFFFF000FFFFFFFFFFFF
310
FFFFFFFFFFFFFFFFFFFFFFFFFFFFFFFFFFFFFFFFFFFFFFFFFFFFFFFFFFFFFFFF
310
FFFFFFFFFFFFFFFFFFFFFFFFFFFFFFFFFFFFFFFFFFFFFFFFFFFFFFFFFFFFFFFF
310
FFFFFFFFFFFFFFFFFFFFFFFFFFFFFFFFF000FFFFFFFFFFFFFFFFFFFFFFFFFFFF
310
FFFFFFFFFFFFFFFFFFFFFFFFFFFFFFFFFFFFFFFFFFFFFFFFFFFFFFFFFFFFFFFF
310
FFFFFFFFFFFFFFFFFFFFFFFFFFFFFFFFFFFFFFFFFFFFFFFFFFFFFFFFFFFFFFFF
310
FFFFFFFFFFFFFFFFF000FFFFFFFFFFFFFFFFFFFFFFFFFFFFFFFFFFFFFFFFFFFF
310
FFFFFFFFFFFFFFFFFFFFFFFFFFFFFFFFFFFFFFFFFFFFFFFFFFFFFFFFFFFFFFFF
310
FFFFFFFFFFFFFFFFFFFFFFFFFFFFFFFFFFFFFFFFFFFFFFFFFFFFFFFFFFFFFFFF
310
F000FFFFFFFFFFFFFFFFFFFFFFFFFFFFFFFFFFFFFFFFFFFFFFFFFFFFFFFFFFFF
310
FFFFFFFFFFFFFFFFFFFFFFFFFFFFFFFFFFFFFFFFFFFFFFFFFFFFFFFFFFFFFFFF
310
FFFFFFFFFFFFFFFFFFFFFFFFFFFFFFFFFFFFFFFFFFFFFFFFF000FFFFFFFFFFFF
310
FFFFFFFFFFFFFFFFFFFFFFFFFFFFFFFFFFFFFFFFFFFFFFFFFFFFFFFFFFFFFFFF
310
FFFFFFFFFFFFFFFFFFFFFFFFFFFFFFFFFFFFFFFFFFFFFFFFFFFFFFFFFFFFFFFF
310
FFFFFFFFFFFFFFFFFFFFFFFFFFFFFFFFF000FFFFFFFFFFFFFFFFFFFFFFFFFFFF
310
FFFFFFFFFFFFFFFFFFFFFFFFFFFFFFFFFFFFFFFFFFFFFFFFFFFFFFFFFFFFFFFF
310
FFFFFFFFFFFFFFFFFFFFFFFFFFFFFFFFFFFFFFFFFFFFFFFFFFFFFFFFFFFFFFFF
310
FFFFFFFFFFFFFFFFF000FFFFF80003FFFFFFFFFFFFFFFFFFFFFFFFFFFFFFFFFF
310
FFFFF00007FFFFFFFFFF00007FFFFFF800000000000000007FFFFFFFFFFFFFFF
310
FFFFFFFC001FFFFFFFFFFFFFFC001FFFFFFFFFFFFFFFFFFFFFFFFFFE0007FFFF
310
F000FFFF8000007FFFFFFFF8000FFFFFC0007FFFFF80007FFFFF0000007FFFFF
310
FFF8000007FFFFF800000000000000007FFFFFF0001FFFFFFFFFFFC00001FFFF
310
FFFFFFFFC00001FFFFFFFF000000000003FFFFE000007FFFF000FFFE0000000F
310
FFFFFFF0000FFFFF80007FFFFF80007FFFFC0000001FFFFFFFC0000001FFFFF8
310
00000000000000007FFFFFF0001FFFFFFFFFFE0000003FFFFFFFFFFE0000003F
310
FFFFFF000000000003FFFF0000000FFFF000FFF800000003FFFFFFF00007FFFF
310
80007FFFFF80007FFFF000000007FFFFFF000000003FFFF80000000000000000
310
7FFFFFF0001FFFFFFFFFF80000000FFFFFFFFFF80000000FFFFFFF0000000000
310
03FFFC00000003FFF000FFE000000000FFFFFFF00007FFFF80003FFFFF80007F
310
FFC000000001FFFFFC000000001FFFF800000000000000007FFFFFF0001FFFFF
310
FFFFE000000003FFFFFFFFE000000003FFFFFF000000000003FFF000000000FF
310
F000FF80000000007FFFFFF00007FFFF80003FFFFF80007FFF8000000000FFFF
310
F80000000007FFF800000000000000007FFFFFF0001FFFFFFFFFC000000001FF
310
FFFFFFC000000001FFFFFF000000000003FFC0000000007FF000FF0000000000
310
3FFFFFE00007FFFF00003FFFFF80007FFE00000000003FFFF00000000003FFF8
310
00000000000000007FFFFFF0001FFFFFFFFF8000000000FFFFFFFF8000000000
310
FFFFFF000000000003FF80000000003FF000FE00000000001FFFFFE00003FFFF
310
00003FFFFF80007FFC00000000001FFFE00000000001FFF8000001FFFE000000
310
7FFFFFF0001FFFFFFFFE00000000003FFFFFFE00000000003FFFFF0000000000
310
03FF00000000001FF000FC00000000000FFFFFE00003FFFF00001FFFFF80007F
310
F800000000001FFFC00000000000FFF8000001FFFE0000007FFFFFF0001FFFFF
310
FFFC00000000001FFFFFFC00000000001FFFFF000000000003FE00000000000F
310
F000F8000000000007FFFFE00003FFFF00001FFFFF80007FF800000000000FFF
310
800000000000FFF8000001FFFE0000007FFFFFF0001FFFFFFFF800000000000F
310
FFFFF800000000000FFFFF000000000003FC000000000007F000F80000000000
310
03FFFFC00003FFFE00001FFFFF80007FF0000000000007FF0000000000007FF8
310
000001FFFE0000007FFFFFF0001FFFFFFFF0000000000007FFFFF00000000000
310
07FFFF000000000003F8000000000003F000F0000000000003FFFFC00001FFFE
310
00001FFFFF80007FE0000000000007FE0000000000003FF8000001FFFE000000
310
7FFFFFF0001FFFFFFFF0000000000007FFFFF0000000000007FFFF0000000000
310
03F800001F800003F000E00001FFF00001FFFFC00001FFFE00000FFFFF80007F
310
E00001FFE00003FE00001FFF00003FF8000001FFFE0000007FFFFFF0001FFFFF
310
FFE000003E000003FFFFE000003E000003FFFF000000000003F00001FFF80001
310
F000E00007FFFC0001FFFFC00001FFFE00000FFFFF80007FC0000FFFFC0003FC
310
0000FFFFC0001FF8000001FFFE0000007FFFFFF0001FFFFFFFC00003FFE00001
310
FFFFC00003FFE00001FFFF0001FFFFFFFFF00007FFFE0001F000E0000FFFFF00
310
00FFFF800001FFFC00000FFFFF80007FC0001FFFFE0001FC0001FFFFE0001FF8
310
000001FFFE0000007FFFFFF0001FFFFFFF80000FFFF80000FFFF80000FFFF800
310
00FFFF0003FFFFFFFFE0000FFFFF8000F000C0003FFFFF8000FFFF800000FFFC
310
000007FFFF80007F80003FFFFF0001FC0003FFFFF0001FF8000001FFFE000000
310
7FFFFFF0001FFFFFFF80003FFFFE0000FFFF80003FFFFE0000FFFF0003FFFFFF
310
FFE0003FFFFF8000F000C0003FFFFF8000FFFF800000FFFC000007FFFF80007F
310
80007FFFFF8001F80007FFFFF8000FF8000001FFFE0000007FFFFFF0001FFFFF
310
FF00007FFFFF00007FFF00007FFFFF00007FFF0003FFFFFFFFE0003FFFFFC000
310
F000C0007FFFFFC000FFFF000000FFFC000007FFFF80007F8000FFFFFF8000F8
310
000FFFFFF8000FF8000001FFFE0000007FFFFFF0001FFFFFFF0000FFFFFF8000
310
7FFF0000FFFFFF80007FFF0003FFFFFFFFC0007FFFFFC00070008000FFFFFFC0
310
00FFFF000000FFF8000007FFFF80007F8000FFFFFF8000F8000FFFFFF8000FF8
310
000001FFFE0000007FFFFFF0001FFFFFFE0001FFFFFFC0003FFE0001FFFFFFC0
310
003FFF0003FFFFFFFFC0007FFFFFE00070008000FFFFFFC0007FFF0000007FF8
310
000003FFFF80007F0001FFFFFF8000F8000FFFFFF8000FF8000001FFFE000000
310
7FFFFFF0001FFFFFFE0001FFFFFFC0003FFE0001FFFFFFC0003FFF0003FFFFFF
310
FFC000FFFFFFE00070008000FFFFFFC0007FFF0000007FF8000003FFFF80007F
310
0001FFFFFF8000F8001FFFFFF8000FF8000001FFFE0000007FFFFFF0001FFFFF
310
FE0003FFFFFFE0003FFE0003FFFFFFE0003FFF0003FFFFFFFFC000FFFFFFE000
310
70008000FFFFFFC0007FFE0000007FF8000003FFFF80007F0001FFFFFF8000F0
310
001FFFFFF8000FF8000001FFFE0000007FFFFFF0001FFFFFFC0003FFFFFFE000
310
1FFC0003FFFFFFE0001FFF0003FFFFFFFFC000FFFFFFC00070008000FFFFFF80
310
007FFE0000007FF0000003FFFF80007F0001FFFFFF0000F0001FFFFFF8000FF8
310
000001FFFE0000007FFFFFF0001FFFFFFC0007FFFFFFF0001FFC0007FFFFFFF0
310
001FFF0003FFFFFFFFC000FFFFFFC00070008001FFFFFF0000FFFE0000003FF0
310
000001FFFF80007F0001FFFFFF0000F8001FFFFFF0000FF8000001FFFE000000
310
7FFFFFF0001FFFFFFC0007FFFFFFF0001FFC0007FFFFFFF0001FFF0003FFFFFF
310
FFC001FFFFFF80007000FFFFFFFFFE0000FFFE0008003FF0008001FFFF80007F
310
FFFFFFFFFC0000FFFFFFFFFFE0000FF8000001FFFE0000007FFFFFF0001FFFFF
310
F8000FFFFFFFF8000FF8000FFFFFFFF8000FFF0003FFFFFFFFFFFFFFFFFF0000
310
7000FFFFFFFFFC0000FFFC0008003FF0008001FFFF80007FFFFFFFFFF80001FF
310
FFFFFFFF80000FF8000001FFFE0000007FFFFFF0001FFFFFF8000FFFFFFFF800
310
0FF8000FFFFFFFF8000FFF0003FFFFFFFFFFFFFFFFFE0000F000FFFFFFFFE000
310
00FFFC000C003FE000C001FFFF80007FFFFFFFFFC00001FFFFFFFFFE00001FF8
310
000001FFFE0000007FFFFFF0001FFFFFF8000FFFFFFFF8000FF8000FFFFFFFF8
310
000FFF0003FFFFFFFFFFFFFFFFF00000F000FFFFFFFE000001FFFC000C001FE0
310
00C000FFFF80007FFFFFFFFE000001FFFFFFFFE000001FF80FFFFFFFFFFFFFC0
310
7FFFFFF0001FFFFFF8000FFFFFFFF8000FF8000FFFFFFFF8000FFF0003FFFFFF
310
FFFFFFFFFF800000F000FFFFFFC0000001FFFC001C001FE001C000FFFF80007F
310
FFFFFF80000003FFFFFFF80000001FF80FFFFFFFFFFFFFC07FFFFFF0001FFFFF
310
F8001FFFFFFFFC000FF8001FFFFFFFFC000FFF0003FFFFFFFFFFFFFFF0000001
310
F000FFFFF800000001FFF8001C001FE001C000FFFF80007FFFFFF800000003FF
310
FFFF800000003FF80FFFFFFFFFFFFFC07FFFFFF0001FFFFFF8001FFFFFFFFC00
310
0FF8001FFFFFFFFC000FFF0003FFFFFFFFFFFFFE00000001F000FFFFC0000000
310
03FFF8001E001FC001E000FFFF80007FFFFF8000000007FFFFFC000000003FF8
310
0FFFFFFFFFFFFFC07FFFFFF0001FFFFFF8001FFFFFFFFC000FF8001FFFFFFFFC
310
000FFF0003FFFFFFFFFFFFE000000003F000FFFE0000000007FFF8001E000FC0
310
01E0007FFF80007FFFFE0000000007FFFFE0000000007FF80FFFFFFFFFFFFFC0
310
7FFFFFF0001FFFFFF0001FFFFFFFFC0007F0001FFFFFFFFC0007FF0003FFFFFF
310
FFFFFF0000000003F000FFF80000000007FFF8001E000FC003E0007FFF80007F
310
FFF0000000000FFFFF8000000000FFF80FFFFFFFFFFFFFC07FFFFFF0001FFFFF
310
F0001FFFFFFFFC0007F0001FFFFFFFFC0007FF0003FFFFFFFFFFFC0000000007
310
F000FFE0000000000FFFF0003E000FC003E0007FFF80007FFFC0000000001FFF
310
FE0000000001FFF80FFFFFFFFFFFFFC07FFFFFF0001FFFFFF0001FFFFFFFFC00
310
07F0001FFFFFFFFC0007FF0003FFFFFFFFFFF0000000000FF000FFC000000000
310
1FFFF0003F000F8003F0003FFF80007FFF80000000003FFFF80000000003FFF8
310
0FFFFFFFFFFFFFC07FFFFFF0001FFFFFF0001FFFFFFFFC0007F0001FFFFFFFFC
310
0007FF0003FFFFFFFFFFE0000000001FF000FF00000000007FFFF0003F000780
310
03F0003FFF80007FFF00000000007FFFF00000000007FFF80FFFFFFFFFFFFFC0
310
7FFFFFF0001FFFFFF0001FFFFFFFFC0007F0001FFFFFFFFC0007FF0003FFFFFF
310
FFFF80000000007FF000FE0000000000FFFFE0003F00078007F0003FFF80007F
310
FE0000000001FFFFE0000000001FFFF80FFFFFFFFFFFFFC07FFFFFF0001FFFFF
310
F0001FFFFFFFFC0007F0001FFFFFFFFC0007FF0003FFFFFFFFFF0000000000FF
310
F000FC0000000003FFFFE0007F00078007F0003FFF80007FFC0000000007FFFF
310
C0000000007FFFF80FFFFFFFFFFFFFC07FFFFFF0001FFFFFF8001FFFFFFFFC00
310
0FF8001FFFFFFFFC000FFF0003FFFFFFFFFE0000000003FFF000FC000000000F
310
FFFFE0007F80070007F8001FFF80007FF8000000001FFFFF8000000001FFFFF8
310
0FFFFFFFFFFFFFC07FFFFFF0001FFFFFF8001FFFFFFFFC000FF8001FFFFFFFFC
310
000FFF0003FFFFFFFFFC000000000FFFF000F8000000007FFFFFE0007F800700
310
07F8001FFF80007FF000000000FFFFFF800000000FFFFFF80FFFFFFFFFFFFFC0
310
7FFFFFF0001FFFFFF8000FFFFFFFF8000FF8000FFFFFFFF8000FFF0003FFFFFF
310
FFFC000000007FFFF000F800000007FFFFFFC0007F8003000FF8001FFF80007F
310
F000000007FFFFFF000000007FFFFFF80FFFFFFFFFFFFFC07FFFFFF0001FFFFF
310
F8000FFFFFFFF8000FF8000FFFFFFFF8000FFF0003FFFFFFFFF80000000FFFFF
310
F000F0000000FFFFFFFFC000FF8003000FF8001FFF80007FE0000000FFFFFFFF
310
0000000FFFFFFFF8000001FFFE0000007FFFFFF0001FFFFFF8000FFFFFFFF800
310
0FF8000FFFFFFFF8000FFF0003FFFFFFFFF8000000FFFFFFF000F000000FFFFF
310
FFFFC000FFC002000FF8000FFF80007FE000001FFFFFFFFE000001FFFFFFFFF8
310
000001FFFE0000007FFFFFF0001FFFFFF8000FFFFFFFF8000FF8000FFFFFFFF8
310
000FFF0003FFFFFFFFF000001FFFFFFFF000E00000FFFFFFFFFFC000FFC00200
310
0FFC000FFF80007FE00001FFFFFFFFFE00001FFFFFFFFFF8000001FFFE000000
310
7FFFFFF0001FFFFFFC000FFFFFFFF8001FFC000FFFFFFFF8001FFF0003FFFFFF
310
FFF00001FFFFFFFFF000E00007FFFFFFFFFF8000FFC000001FFC000FFF80007F
310
C0000FFFFFFFFFFE0000FFFFFFFFFFF8000001FFFE0000007FFFFFF0001FFFFF
310
FC0007FFFFFFF0001FFC0007FFFFFFF0001FFF0003FFFFFFFFF00007FFFFFFFF
310
F000E0001FFFFFFFFFFF8000FFC000001FFC000FFF80007FC0003FFFFFFFFFFE
310
0001FFFFFFFFFFF8000001FFFE0000007FFFFFF0001FFFFFFC0007FFFFFFF000
310
1FFC0007FFFFFFF0001FFF0003FFFFFFFFF0001FFFFFFFFFF000E0003FFFFF00
310
03FF8001FFE000001FFC0007FF80007FC0007FFFFF0007FC0003FFFFF0003FF8
310
000001FFFE0000007FFFFFF0001FFFFFFC0003FFFFFFE0001FFC0003FFFFFFE0
310
001FFF0003FFFFFFFFF0003FFFFFFFFFF000E0003FFFFF0001FF8001FFE00000
310
1FFE0007FF80007FC0007FFFFE0003FC0007FFFFE0003FF8000001FFFE000000
310
7FFFFFF0001FFFFFFE0003FFFFFFE0003FFE0003FFFFFFE0003FFF0003FFFFFF
310
FFF0003FFFFF8001F000E0003FFFFF0001FF0001FFE000001FFE0007FF80007F
310
C0007FFFFE0003FC0007FFFFE0003FF8000001FFFE0000007FFFFFF0001FFFFF
310
FE0001FFFFFFC0003FFE0001FFFFFFC0003FFF0003FFFFFFFFF0003FFFFF0001
310
F000E0003FFFFF0003FF0001FFE000003FFE0007FF80007FC0007FFFFE0003FC
310
0007FFFFE0003FF8000001FFFE0000007FFFFFF0001FFFFFFF0001FFFFFFC000
310
7FFF0001FFFFFFC0007FFF0003FFFFFFFFF0003FFFFF0001F000E0003FFFFE00
310
03FF0003FFF000003FFE0003FF80007FC0007FFFFC0003FE0007FFFFE0003FF8
310
000001FFFE0000007FFFFFF0001FFFFFFF0000FFFFFF80007FFF0000FFFFFF80
310
007FFF0003FFFFFFFFF0003FFFFF0001F000E0003FFFFE0003FF0003FFF00000
310
3FFF0003FF80007FC0007FFFFC0007FE0007FFFFC0003FF8000001FFFE000000
310
7FFFFFF0001FFFFFFF80007FFFFF0000FFFF80007FFFFF0000FFFF0003FFFFFF
310
FFF0003FFFFF0003F000E0003FFFFC0003FE0003FFF000003FFF0003FF80007F
310
E0003FFFF80007FE0003FFFFC0007FF8000001FFFE0000007FFFFFF0001FFFFF
310
FF80003FFFFE0000FFFF80003FFFFE0000FFFF0003FFFFFFFFF0001FFFFE0003
310
F000F0001FFFF80003FE0003FFF000007FFF0001FF80007FE0003FFFF00007FE
310
0001FFFF80007FF8000001FFFE0000007FFFFFF0001FFFFFFFC0000FFFF80001
310
FFFFC0000FFFF80001FFFF0003FFFFFFFFF0001FFFFC0003F000F0000FFFF000
310
07FE0007FFF800007FFF0001FF80007FE0001FFFE00007FF0000FFFE00007FF8
310
000001FFFE0000007FFFFFF0001FFFFFFFC00003FFE00001FFFFC00003FFE000
310
01FFFF0003FFFFFFFFF8000FFFF80003F000F00003FFC00007FC0007FFF80000
310
7FFF8001FF80007FF00007FF80000FFF00007FF80000FFF8000001FFFE000000
310
7F80000000000001FFE000003E000003FFFFE000003E000003FFFF0003FFFFFF
310
FFF80003FFE00007F000F800000000000FFC0007FFF800007FFF8001FF80007F
310
F000000000000FFF000000000000FFF8000001FFFE0000007F80000000000001
310
FFF0000000000007FFFFF0000000000007FFFF0003FFFFFFFFFC00007E000007
310
F000F800000000000FFC0007FFF80000FFFF8000FF80007FF800000000001FFF
310
800000000001FFF8000001FFFE0000007F80000000000001FFF800000000000F
310
FFFFF800000000000FFFFF0003FFFFFFFFFC00000000000FF000FC0000000000
310
1FFC0007FFFC0000FFFF8000FF80007FF800000000003FFFC00000000001FFF8
310
000001FFFE0000007F80000000000001FFF800000000000FFFFFF80000000000
310
0FFFFF0003FFFFFFFFFE00000000001FF000FE00000000003FF8000FFFFC0000
310
FFFF8000FF80007FFC00000000003FFFC00000000003FFF8000001FFFE000000
310
7F80000000000001FFFC00000000001FFFFFFC00000000001FFFFF0003FFFFFF
310
FFFF00000000001FF000FF00000000003FF8000FFFFC0000FFFFC000FF80007F
310
FE00000000007FFFE00000000007FFF8000001FFFE0000007F80000000000001
310
FFFE00000000003FFFFFFE00000000003FFFFF0003FFFFFFFFFF80000000003F
310
F000FF80000000007FF8000FFFFC0001FFFFC0007F80007FFF0000000000FFFF
310
F0000000000FFFF800000000000000007F80000000000001FFFF8000000000FF
310
FFFFFF8000000000FFFFFF0003FFFFFFFFFFC0000000007FF000FFC000000000
310
FFF8000FFFFE0001FFFFC0007F80007FFF8000000001FFFFF8000000001FFFF8
310
00000000000000007F80000000000001FFFFC000000001FFFFFFFFC000000001
310
FFFFFF0003FFFFFFFFFFE000000000FFF000FFE000000003FFF0001FFFFE0001
310
FFFFC0007F80007FFFC000000007FFFFFE000000003FFFF80000000000000000
310
7F80000000000001FFFFE000000003FFFFFFFFE000000003FFFFFF0003FFFFFF
310
FFFFF000000003FFF000FFF80000000FFFF0001FFFFE0001FFFFE0007F80007F
310
FFF00000000FFFFFFF00000000FFFFF800000000000000007F80000000000001
310
FFFFF80000000FFFFFFFFFF80000000FFFFFFF0003FFFFFFFFFFFC0000000FFF
310
F000FFFE0000003FFFF0001FFFFE0003FFFFE0003F80007FFFFC0000003FFFFF
310
FFC0000003FFFFF800000000000000007F80000000000001FFFFFE0000003FFF
310
FFFFFFFE0000003FFFFFFF0003FFFFFFFFFFFF0000003FFFF000FFFF800000FF
310
FFF0001FFFFF0003FFFFE0003F80007FFFFF000001FFFFFFFFF800001FFFFFF8
310
00000000000000007F80000000000001FFFFFFC00001FFFFFFFFFFFFC00001FF
310
FFFFFF0003FFFFFFFFFFFFC00000FFFFF000FFFFF8000FFFFFFFFFFFFFFFFFFF
310
FFFFFFFFFFFFFFFFFFFFF0001FFFFFFFFFFF0000FFFFFFF80000000000000000
310
7FFFFFFFFFFFFFFFFFFFFFFC001FFFFFFFFFFFFFFC001FFFFFFFFFFFFFFFFFFF
310
FFFFFFFC001FFFFFF000FFFFFFFFFFFFFFFFFFFFFFFFFFFFFFFFFFFFFFFFFFFF
310
FFFFFFFFFFFFFFFFFFFFFFFFFFFFFFFFFFFFFFFFFFFFFFFFFFFFFFFFFFFFFFFF
310
FFFFFFFFFFFFFFFFFFFFFFFFFFFFFFFFFFFFFFFFFFFFFFFFFFFFFFFFFFFFFFFF
310
F000FFFFFFFFFFFFFFFFFFFFFFFFFFFFFFFFFFFFFFFFFFFFFFFFFFFFFFFFFFFF
310
FFFFFFFFFFFFFFFFFFFFFFFFFFFFFFFFFFFFFFFFFFFFFFFFFFFFFFFFFFFFFFFF
310
FFFFFFFFFFFFFFFFFFFFFFFFFFFFFFFFFFFFFFFFFFFFFFFFF000FFFFFFFFFFFF
310
FFFFFFFFFFFFFFFFFFFFFFFFFFFFFFFFFFFFFFFFFFFFFFFFFFFFFFFFFFFFFFFF
310
FFFFFFFFFFFFFFFFFFFFFFFFFFFFFFFFFFFFFFFFFFFFFFFFFFFFFFFFFFFFFFFF
310
FFFFFFFFFFFFFFFFFFFFFFFFFFFFFFFFF000FFFFFFFFFFFFFFFFFFFFFFFFFFFF
310
FFFFFFFFFFFFFFFFFFFFFFFFFFFFFFFFFFFFFFFFFFFFFFFFFFFFFFFFFFFFFFFF
310
FFFFFFFFFFFFFFFFFFFFFFFFFFFFFFFFFFFFFFFFFFFFFFFFFFFFFFFFFFFFFFFF
310
FFFFFFFFFFFFFFFFF000FFFFFFFFFFFFFFFFFFFFFFFFFFFFFFFFFFFFFFFFFFFF
310
FFFFFFFFFFFFFFFFFFFFFFFFFFFFFFFFFFFFFFFFFFFFFFFFFFFFFFFFFFFFFFFF
310
FFFFFFFFFFFFFFFFFFFFFFFFFFFFFFFFFFFFFFFFFFFFFFFFFFFFFFFFFFFFFFFF
310
F000FFFFFFFFFFFFFFFFFFFFFFFFFFFFFFFFFFFFFFFFFFFFFFFFFFFFFFFFFFFF
310
FFFFFFFFFFFFFFFFFFFFFFFFFFFFFFFFFFFFFFFFFFFFFFFFFFFFFFFFFFFFFFFF
310
FFFFFFFFFFFFFFFFFFFFFFFFFFFFFFFFFFFFFFFFFFFFFFFFF000FFFFFFFFFFFF
310
FFFFFFFFFFFFFFFFFFFFFFFFFFFFFFFFFFFFFFFFFFFFFFFFFFFFFFFFFFFFFFFF
310
FFFFFFFFFFFFFFFFFFFFFFFFFFFFFFFFFFFFFFFFFFFFFFFFFFFFFFFFFFFFFFFF
310
FFFFFFFFFFFFFFFFFFFFFFFFFFFFFFFFF000FFFFFFFFFFFFFFFFFFFFFFFFFFFF
310
FFFFFFFFFFFFFFFFFFFFFFFFFFFFFFFFFFFFFFFFFFFFFFFFFFFFFFFFFFFFFFFF
310
FFFFFFFFFFFFFFFFFFFFFFFFFFFFFFFFFFFFFFFFFFFFFFFFFFFFFFFFFFFFFFFF
310
FFFFFFFFFFFFFFFFF000FFFFFFFFFFFFFFFFFFFFFFFFFFFFFFFFFFFFFFFFFFFF
310
FFFFFFFFFFFFFFFFFFFFFFFFFFFFFFFFFFFFFFFFFFFFFFFFFFFFFFFFFFFFFFFF
310
FFFFFFFFFFFFFFFFFFFFFFFFFFFFFFFFFFFFFFFFFFFFFFFFFFFFFFFFFFFFFFFF
310
F000FFFFFFFFFFFFFFFFFFFFFFFFFFFFFFFFFFFFFFFFFFFFFFFFFFFFFFFFFFFF
310
FFFFFFFFFFFFFFFFFFFFFFFFFFFFFFFFFFFFFFFFFFFFFFFFFFFFFFFFFFFFFFFF
310
FFFFFFFFFFFFFFFFFFFFFFFFFFFFFFFFFFFFFFFFFFFFFFFFF000FFFFFFFFFFFF
310
FFFFFFFFFFFFFFFFFFFFFFFFFFFFFFFFFFFFFFFFFFFFFFFFFFFFFFFFFFFFFFFF
310
FFFFFFFFFFFFFFFFFFFFFFFFFFFFFFFFFFFFFFFFFFFFFFFFFFFFFFFFFFFFFFFF
310
FFFFFFFFFFFFFFFFFFFFFFFFFFFFFFFFF000FFFFFFFFFFFFFFFFFFFFFFFFFFFF
310
FFFFFFFFFFFFFFFFFFFFFFFFFFFFFFFFFFFFFFFFFFFFFFFFFFFFFFFFFFFFFFFF
310
FFFFFFFFFFFFFFFFFFFFFFFFFFFFFFFFFFFFFFFFFFFFFFFFFFFFFFFFFFFFFFFF
310
FFFFFFFFFFFFFFFFF000FFFFFFFFFFFFFFFFFFFFFFFFFFFFFFFFFFFFFFFFFFFF
310
FFFFFFFFFFFFFFFFFFFFFFFFFFFFFFFFFFFFFFFFFFFFFFFFFFFFFFFFFFFFFFFF
310
FFFFFFFFFFFFFFFFFFFFFFFFFFFFFFFFFFFFFFFFFFFFFFFFFFFFFFFFFFFFFFFF
310
F000FFFFFFFFFFFFFFFFFFFFFFFFFFFFFFFFFFFFFFFFFFFFFFFFFFFFFFFFFFFF
310
FFFFFFFFFFFFFFFFFFFFFFFFFFFFFFFFFFFFFFFFFFFFFFFFFFFFFFFFFFFFFFFF
310
FFFFFFFFFFFFFFFFFFFFFFFFFFFFFFFFFFFFFFFFFFFFFFFFF000FFFFFFFFFFFF
310
FFFFFFFFFFFFFFFFFFFFFFFFFFFFFFFFFFFFFFFFFFFFFFFFFFFFFFFFFFFFFFFF
310
FFFFFFFFFFFFFFFFFFFFFFFFFFFFFFFFFFFFFFFFFFFFFFFFFFFFFFFFFFFFFFFF
310
FFFFFFFFFFFFFFFFFFFFFFFFFFFFFFFFF000FFFFFFFFFFFFFFFFFFFFFFFFFFFF
310
FFFFFFFFFFFFFFFFFFFFFFFFFFFFFFFFFFFFFFFFFFFFFFFFFFFFFFFFFFFFFFFF
310
FFFFFFFFFFFFFFFFFFFFFFFFFFFFFFFFFFFFFFFFFFFFFFFFFFFFFFFFFFFFFFFF
310
FFFFFFFFFFFFFFFFF000FFFFFFFFFFFFFFFFFFFFFFFFFFFFFFFFFFFFFFFFFFFF
310
FFFFFFFFFFFFFFFFFFFFFFFFFFFFFFFFFFFFFFFFFFFFFFFFFFFFFFFFFFFFFFFF
310
FFFFFFFFFFFFFFFFFFFFFFFFFFFFFFFFFFFFFFFFFFFFFFFFFFFFFFFFFFFFFFFF
310
F000FFFFFFFFFFFFFFFFFFFFFFFFFFFFFFFFFFFFFFFFFFFFFFFFFFFFFFFFFFFF
310
FFFFFFFFFFFFFFFFFFFFFFFFFFFFFFFFFFFFFFFFFFFFFFFFFFFFFFFFFFFFFFFF
310
FFFFFFFFFFFFFFFFFFFFFFFFFFFFFFFFFFFFFFFFFFFFFFFFF000FFFFFFFFFFFF
310
FFFFFFFFFFFFFFFFFFFFFFFFFFFFFFFFFFFFFFFFFFFFFFFFFFFFFFFFFFFFFFFF
310
FFFFFFFFFFFFFFFFFFFFFFFFFFFFFFFFFFFFFFFFFFFFFFFFFFFFFFFFFFFFFFFF
310
FFFFFFFFFFFFFFFFFFFFFFFFFFFFFFFFF000FFFFFFFFFFFFFFFFFFFFFFFFFFFF
310
FFFFFFFFFFFFFFFFFFFFFFFFFFFFFFFFFFFFFFFFFFFFFFFFFFFFFFFFFFFFFFFF
310
FFFFFFFFFFFFFFFFFFFFFFFFFFFFFFFFFFFFFFFFFFFFFFFFFFFFFFFFFFFFFFFF
310
FFFFFFFFFFFFFFFFF000FFFFFFFFFFFFFFFFFFFFFFFFFFFFFFFFFFFFFFFFFFFF
310
FFFFFFFFFFFFFFFFFFFFFFFFFFFFFFFFFFFFFFFFFFFFFFFFFFFFFFFFFFFFFFFF
310
FFFFFFFFFFFFFFFFFFFFFFFFFFFFFFFFFFFFFFFFFFFFFFFFFFFFFFFFFFFFFFFF
310
F000FFFFFFFFFFFFFFFFFFFFFFFFFFFFFFFFFFFFFFFFFFFFFFFFFFFFFFFFFFFF
310
FFFFFFFFFFFFFFFFFFFFFFFFFFFFFFFFFFFFFFFFFFFFFFFFFFFFFFFFFFFFFFFF
310
FFFFFFFFFFFFFFFFFFFFFFFFFFFFFFFFFFFFFFFFFFFFFFFFF000FFFFFFFFFFFF
310
FFFFFFFFFFFFFFFFFFFFFFFFFFFFFFFFFFFFFFFFFFFFFFFFFFFFFFFFFFFFFFFF
310
FFFFFFFFFFFFFFFFFFFFFFFFFFFFFFFFFFFFFFFFFFFFFFFFFFFFFFFFFFFFFFFF
310
FFFFFFFFFFFFFFFFFFFFFFFFFFFFFFFFF0000000000000000000000000000000
310
0000000000000000000000000000000000000000000000000000000000000000
310
0000000000000000000000000000000000000000000000000000000000000000
310
0000000000000000000000000000000000000000000000000000000000000000
310
0000000000000000000000000000000000000000000000000000000000000000
310
0000000000000000000000000000000000000000000000000000000000000000
310
0000000000000000000000000000000000000000000000000000000000000000
310
0000000000000000000000000000000000000000000000000000000000000000
310
0000000000000000000000000000000000000000000000000000000000000000
310
0000000000000000000000000000000000000000000000000000000000000000
310
0000000000000000000000000000000000000000000000000000000000000000
310
0000000000000000000000000000000000000000000000000000000000000000
310
0000000000000000000000000000000000000000000000000000000000000000
310
0000000000000000000000000000000000000000000000000000000000000000
310
0000000000000000000000000000000000000000000000000000000000000000
310
0000000000000000000000000000000000000000000000000000000000000000
  1
OLE
  0
ENDSEC
  0
SECTION
  2
OBJECTS
  0
DICTIONARY
  5
C
330
0
100
AcDbDictionary
281
     1
  3
ACAD_GROUP
350
D
  3
ACAD_LAYOUT
350
1A
  3
ACAD_MLINESTYLE
350
17
  3
ACAD_PLOTSETTINGS
350
19
  3
ACAD_PLOTSTYLENAME
350
E
  0
DICTIONARY
  5
D
102
{ACAD_REACTORS
330
C
102
}
330
C
100
AcDbDictionary
281
     1
  0
DICTIONARY
  5
1A
102
{ACAD_REACTORS
330
C
102
}
330
C
100
AcDbDictionary
281
     1
  3
Layout1
350
1E
  3
Layout2
350
26
  3
Model
350
22
  0
DICTIONARY
  5
17
102
{ACAD_REACTORS
330
C
102
}
330
C
100
AcDbDictionary
281
     1
  3
Standard
350
18
  0
DICTIONARY
  5
19
102
{ACAD_REACTORS
330
C
102
}
330
C
100
AcDbDictionary
281
     1
  0
ACDBDICTIONARYWDFLT
  5
E
102
{ACAD_REACTORS
330
C
102
}
330
C
100
AcDbDictionary
281
     1
  3
Normal
350
F
100
AcDbDictionaryWithDefault
340
F
  0
LAYOUT
  5
1E
102
{ACAD_REACTORS
330
1A
102
}
330
1A
100
AcDbPlotSettings
  1

  2
none_device
  4

  6

 40
0.0
 41
0.0
 42
0.0
 43
0.0
 44
0.0
 45
0.0
 46
0.0
 47
0.0
 48
0.0
 49
0.0
140
0.0
141
0.0
142
1.0
143
1.0
 70
   688
 72
     0
 73
     0
 74
     5
  7

 75
    16
147
1.0
148
0.0
149
0.0
100
AcDbLayout
  1
Layout1
 70
     1
 71
     1
 10
0.0
 20
0.0
 11
420.0
 21
297.0
 12
0.0
 22
0.0
 32
0.0
 14
1.0000000000E+20
 24
1.0000000000E+20
 34
1.0000000000E+20
 15
-1.0000000000E+20
 25
-1.0000000000E+20
 35
-1.0000000000E+20
146
0.0
 13
0.0
 23
0.0
 33
0.0
 16
1.0
 26
0.0
 36
0.0
 17
0.0
 27
1.0
 37
0.0
 76
     0
330
1B
  0
LAYOUT
  5
26
102
{ACAD_REACTORS
330
1A
102
}
330
1A
100
AcDbPlotSettings
  1

  2
none_device
  4

  6

 40
0.0
 41
0.0
 42
0.0
 43
0.0
 44
0.0
 45
0.0
 46
0.0
 47
0.0
 48
0.0
 49
0.0
140
0.0
141
0.0
142
1.0
143
1.0
 70
   688
 72
     0
 73
     0
 74
     5
  7

 75
    16
147
1.0
148
0.0
149
0.0
100
AcDbLayout
  1
Layout2
 70
     1
 71
     2
 10
0.0
 20
0.0
 11
0.0
 21
0.0
 12
0.0
 22
0.0
 32
0.0
 14
0.0
 24
0.0
 34
0.0
 15
0.0
 25
0.0
 35
0.0
146
0.0
 13
0.0
 23
0.0
 33
0.0
 16
1.0
 26
0.0
 36
0.0
 17
0.0
 27
1.0
 37
0.0
 76
     0
330
23
  0
LAYOUT
  5
22
102
{ACAD_REACTORS
330
1A
102
}
330
1A
100
AcDbPlotSettings
  1

  2
none_device
  4

  6

 40
0.0
 41
0.0
 42
0.0
 43
0.0
 44
0.0
 45
0.0
 46
0.0
 47
0.0
 48
0.0
 49
0.0
140
0.0
141
0.0
142
1.0
143
1.0
 70
  1712
 72
     0
 73
     0
 74
     0
  7

 75
     0
147
1.0
148
0.0
149
0.0
100
AcDbLayout
  1
Model
 70
     1
 71
     0
 10
0.0
 20
0.0
 11
297.0
 21
210.0
 12
0.0
 22
0.0
 32
0.0
 14
0.0
 24
0.0
 34
0.0
 15
297.0
 25
210.0
 35
0.0
146
0.0
 13
0.0
 23
0.0
 33
0.0
 16
1.0
 26
0.0
 36
0.0
 17
0.0
 27
1.0
 37
0.0
 76
     0
330
1F
331
29
  0
MLINESTYLE
  5
18
102
{ACAD_REACTORS
330
17
102
}
330
17
100
AcDbMlineStyle
  2
Standard
 70
     0
  3

 62
   256
 51
90.0
 52
90.0
 71
     2
 49
0.5
 62
   256
  6
BYLAYER
 49
-0.5
 62
   256
  6
BYLAYER
  0
ACDBPLACEHOLDER
  5
F
102
{ACAD_REACTORS
330
E
102
}
330
E
  0
ENDSEC
  0
EOF
