  0
SECTION
  2
HEADER
  9
$ACADVER
  1
AC1015
  9
$ACADMAINTVER
 70
     6
  9
$DWGCODEPAGE
  3
ANSI_1252
  9
$INSBASE
 10
0.0
 20
0.0
 30
0.0
  9
$EXTMIN
 10
0.0
 20
0.0
 30
0.0
  9
$EXTMAX
 10
297.0
 20
210.0
 30
0.0
  9
$LIMMIN
 10
0.0
 20
0.0
  9
$LIMMAX
 10
297.0
 20
210.0
  9
$ORTHOMODE
 70
     0
  9
$REGENMODE
 70
     1
  9
$FILLMODE
 70
     1
  9
$QTEXTMODE
 70
     0
  9
$MIRRTEXT
 70
     1
  9
$LTSCALE
 40
1.0
  9
$ATTMODE
 70
     1
  9
$TEXTSIZE
 40
2.0
  9
$TRACEWID
 40
1.0
  9
$TEXTSTYLE
  7
Standard
  9
$CLAYER
  8
0
  9
$CELTYPE
  6
ByLayer
  9
$CECOLOR
 62
   256
  9
$CELTSCALE
 40
1.0
  9
$DISPSILH
 70
     0
  9
$DIMSCALE
 40
1.0
  9
$DIMASZ
 40
3.0
  9
$DIMEXO
 40
0.0
  9
$DIMDLI
 40
3.75
  9
$DIMRND
 40
0.0
  9
$DIMDLE
 40
0.0
  9
$DIMEXE
 40
1.0
  9
$DIMTP
 40
0.0
  9
$DIMTM
 40
0.0
  9
$DIMTXT
 40
2.0
  9
$DIMCEN
 40
2.5
  9
$DIMTSZ
 40
0.0
  9
$DIMTOL
 70
     0
  9
$DIMLIM
 70
     0
  9
$DIMTIH
 70
     1
  9
$DIMTOH
 70
     1
  9
$DIMSE1
 70
     0
  9
$DIMSE2
 70
     0
  9
$DIMTAD
 70
     1
  9
$DIMZIN
 70
     0
  9
$DIMBLK
  1

  9
$DIMASO
 70
     1
  9
$DIMSHO
 70
     1
  9
$DIMPOST
  1

  9
$DIMAPOST
  1

  9
$DIMALT
 70
     0
  9
$DIMALTD
 70
     3
  9
$DIMALTF
 40
0.0393700787
  9
$DIMLFAC
 40
1.0
  9
$DIMTOFL
 70
     1
  9
$DIMTVP
 40
0.0
  9
$DIMTIX
 70
     0
  9
$DIMSOXD
 70
     0
  9
$DIMSAH
 70
     0
  9
$DIMBLK1
  1

  9
$DIMBLK2
  1

  9
$DIMSTYLE
  2
ISO-25
  9
$DIMCLRD
 70
     0
  9
$DIMCLRE
 70
     0
  9
$DIMCLRT
 70
     0
  9
$DIMTFAC
 40
1.0
  9
$DIMGAP
 40
1.524
  9
$DIMJUST
 70
     0
  9
$DIMSD1
 70
     0
  9
$DIMSD2
 70
     0
  9
$DIMTOLJ
 70
     0
  9
$DIMTZIN
 70
     0
  9
$DIMALTZ
 70
     0
  9
$DIMALTTZ
 70
     0
  9
$DIMUPT
 70
     0
  9
$DIMDEC
 70
     2
  9
$DIMTDEC
 70
     3
  9
$DIMALTU
 70
     2
  9
$DIMALTTD
 70
     3
  9
$DIMTXSTY
  7
Standard
  9
$DIMAUNIT
 70
     0
  9
$DIMADEC
 70
     2
  9
$DIMALTRND
 40
0.0
  9
$DIMAZIN
 70
     0
  9
$DIMDSEP
 70
    44
  9
$DIMATFIT
 70
     3
  9
$DIMFRAC
 70
     0
  9
$DIMLDRBLK
  1

  9
$DIMLUNIT
 70
     2
  9
$DIMLWD
 70
    -2
  9
$DIMLWE
 70
    -2
  9
$DIMTMOVE
 70
     0
  9
$LUNITS
 70
     2
  9
$LUPREC
 70
     2
  9
$SKETCHINC
 40
1.0
  9
$FILLETRAD
 40
10.0
  9
$AUNITS
 70
     0
  9
$AUPREC
 70
     2
  9
$MENU
  1
.
  9
$ELEVATION
 40
0.0
  9
$PELEVATION
 40
0.0
  9
$THICKNESS
 40
0.0
  9
$LIMCHECK
 70
     0
  9
$CHAMFERA
 40
10.0
  9
$CHAMFERB
 40
10.0
  9
$CHAMFERC
 40
20.0
  9
$CHAMFERD
 40
0.0
  9
$SKPOLY
 70
     0
  9
$TDCREATE
 40
2456085.654975104
  9
$TDUCREATE
 40
2456085.571641771
  9
$TDUPDATE
 40
2456085.654976366
  9
$TDUUPDATE
 40
2456085.571643033
  9
$TDINDWG
 40
0.0000000116
  9
$TDUSRTIMER
 40
0.0000000116
  9
$USRTIMER
 70
     1
  9
$ANGBASE
 50
0.0
  9
$ANGDIR
 70
     0
  9
$PDMODE
 70
     0
  9
$PDSIZE
 40
-1.0
  9
$PLINEWID
 40
0.0
  9
$SPLFRAME
 70
     0
  9
$SPLINETYPE
 70
     6
  9
$SPLINESEGS
 70
     8
  9
$HANDSEED
  5
227
  9
$SURFTAB1
 70
     6
  9
$SURFTAB2
 70
     6
  9
$SURFTYPE
 70
     6
  9
$SURFU
 70
     6
  9
$SURFV
 70
     6
  9
$UCSBASE
  2

  9
$UCSNAME
  2

  9
$UCSORG
 10
0.0
 20
0.0
 30
0.0
  9
$UCSXDIR
 10
1.0
 20
0.0
 30
0.0
  9
$UCSYDIR
 10
0.0
 20
1.0
 30
0.0
  9
$UCSORTHOREF
  2

  9
$UCSORTHOVIEW
 70
     0
  9
$UCSORGTOP
 10
0.0
 20
0.0
 30
0.0
  9
$UCSORGBOTTOM
 10
0.0
 20
0.0
 30
0.0
  9
$UCSORGLEFT
 10
0.0
 20
0.0
 30
0.0
  9
$UCSORGRIGHT
 10
0.0
 20
0.0
 30
0.0
  9
$UCSORGFRONT
 10
0.0
 20
0.0
 30
0.0
  9
$UCSORGBACK
 10
0.0
 20
0.0
 30
0.0
  9
$PUCSBASE
  2

  9
$PUCSNAME
  2

  9
$PUCSORG
 10
0.0
 20
0.0
 30
0.0
  9
$PUCSXDIR
 10
1.0
 20
0.0
 30
0.0
  9
$PUCSYDIR
 10
0.0
 20
1.0
 30
0.0
  9
$PUCSORTHOREF
  2

  9
$PUCSORTHOVIEW
 70
     0
  9
$PUCSORGTOP
 10
0.0
 20
0.0
 30
0.0
  9
$PUCSORGBOTTOM
 10
0.0
 20
0.0
 30
0.0
  9
$PUCSORGLEFT
 10
0.0
 20
0.0
 30
0.0
  9
$PUCSORGRIGHT
 10
0.0
 20
0.0
 30
0.0
  9
$PUCSORGFRONT
 10
0.0
 20
0.0
 30
0.0
  9
$PUCSORGBACK
 10
0.0
 20
0.0
 30
0.0
  9
$USERI1
 70
     0
  9
$USERI2
 70
     0
  9
$USERI3
 70
     0
  9
$USERI4
 70
     0
  9
$USERI5
 70
     0
  9
$USERR1
 40
0.0
  9
$USERR2
 40
0.0
  9
$USERR3
 40
0.0
  9
$USERR4
 40
0.0
  9
$USERR5
 40
0.0
  9
$WORLDVIEW
 70
     1
  9
$SHADEDGE
 70
     3
  9
$SHADEDIF
 70
    70
  9
$TILEMODE
 70
     1
  9
$MAXACTVP
 70
    64
  9
$PINSBASE
 10
0.0
 20
0.0
 30
0.0
  9
$PLIMCHECK
 70
     0
  9
$PEXTMIN
 10
1.0000000000E+20
 20
1.0000000000E+20
 30
1.0000000000E+20
  9
$PEXTMAX
 10
-1.0000000000E+20
 20
-1.0000000000E+20
 30
-1.0000000000E+20
  9
$PLIMMIN
 10
0.0
 20
0.0
  9
$PLIMMAX
 10
420.0
 20
297.0
  9
$UNITMODE
 70
     0
  9
$VISRETAIN
 70
     1
  9
$PLINEGEN
 70
     0
  9
$PSLTSCALE
 70
     1
  9
$TREEDEPTH
 70
  3020
  9
$CMLSTYLE
  2
Standard
  9
$CMLJUST
 70
     0
  9
$CMLSCALE
 40
20.0
  9
$PROXYGRAPHICS
 70
     1
  9
$MEASUREMENT
 70
     1
  9
$CELWEIGHT
370
    -1
  9
$ENDCAPS
280
     0
  9
$JOINSTYLE
280
     0
  9
$LWDISPLAY
290
     1
  9
$INSUNITS
 70
     4
  9
$HYPERLINKBASE
  1

  9
$STYLESHEET
  1

  9
$XEDIT
290
     1
  9
$CEPSNTYPE
380
     0
  9
$PSTYLEMODE
290
     1
  9
$FINGERPRINTGUID
  2
{5FAF14D5-5D25-49F4-912F-2B5800FBCDA9}
  9
$VERSIONGUID
  2
{FAEB1C32-E019-11D5-929B-00C0DF256EC4}
  9
$EXTNAMES
290
     1
  9
$PSVPSCALE
 40
0.0
  9
$OLESTARTUP
290
     0
  0
ENDSEC
  0
SECTION
  2
CLASSES
  0
CLASS
  1
ACDBDICTIONARYWDFLT
  2
AcDbDictionaryWithDefault
  3
ObjectDBX Classes
 90
        0
280
     0
281
     0
  0
CLASS
  1
VISUALSTYLE
  2
AcDbVisualStyle
  3
ObjectDBX Classes
 90
     4095
280
     0
281
     0
  0
CLASS
  1
MATERIAL
  2
AcDbMaterial
  3
ObjectDBX Classes
 90
     1153
280
     0
281
     0
  0
CLASS
  1
ACDBPLACEHOLDER
  2
AcDbPlaceHolder
  3
ObjectDBX Classes
 90
        0
280
     0
281
     0
  0
CLASS
  1
LAYOUT
  2
AcDbLayout
  3
ObjectDBX Classes
 90
        0
280
     0
281
     0
  0
ENDSEC
  0
SECTION
  2
TABLES
  0
TABLE
  2
VPORT
  5
8
330
0
100
AcDbSymbolTable
 70
     1
  0
VPORT
  5
29
330
8
100
AcDbSymbolTableRecord
100
AcDbViewportTableRecord
  2
*Active
 70
     0
 10
0.0
 20
0.0
 11
1.0
 21
1.0
 12
148.5
 22
105.0
 13
0.0
 23
0.0
 14
10.0
 24
10.0
 15
10.0
 25
10.0
 16
0.0
 26
0.0
 36
1.0
 17
0.0
 27
0.0
 37
0.0
 40
210.0
 41
1.4142857143
 42
50.0
 43
0.0
 44
0.0
 50
0.0
 51
0.0
 71
     0
 72
  2000
 73
     1
 74
     3
 75
     0
 76
     0
 77
     0
 78
     0
281
     0
 65
     1
110
0.0
120
0.0
130
0.0
111
1.0
121
0.0
131
0.0
112
0.0
122
1.0
132
0.0
 79
     0
146
0.0
  0
ENDTAB
  0
TABLE
  2
LTYPE
  5
5
330
0
100
AcDbSymbolTable
 70
     6
  0
LTYPE
  5
14
330
5
100
AcDbSymbolTableRecord
100
AcDbLinetypeTableRecord
  2
ByBlock
 70
     0
  3

 72
    65
 73
     0
 40
0.0
  0
LTYPE
  5
15
330
5
100
AcDbSymbolTableRecord
100
AcDbLinetypeTableRecord
  2
ByLayer
 70
     0
  3

 72
    65
 73
     0
 40
0.0
  0
LTYPE
  5
16
330
5
100
AcDbSymbolTableRecord
100
AcDbLinetypeTableRecord
  2
Continuous
 70
     0
  3
Solid line
 72
    65
 73
     0
 40
0.0
  0
LTYPE
  5
3F
330
5
100
AcDbSymbolTableRecord
100
AcDbLinetypeTableRecord
  2
HIDDEN
 70
     0
  3
Hidden __ __ __ __ __ __ __ __ __ __ __ __ __ __
 72
    65
 73
     2
 40
1.905
 49
1.27
 74
     0
 49
-0.635
 74
     0
  0
LTYPE
  5
40
330
5
100
AcDbSymbolTableRecord
100
AcDbLinetypeTableRecord
  2
PHANTOM
 70
     0
  3
Phantom ______  __  __  ______  __  __  ______
 72
    65
 73
     6
 40
12.7
 49
6.35
 74
     0
 49
-1.27
 74
     0
 49
1.27
 74
     0
 49
-1.27
 74
     0
 49
1.27
 74
     0
 49
-1.27
 74
     0
  0
LTYPE
  5
41
330
5
100
AcDbSymbolTableRecord
100
AcDbLinetypeTableRecord
  2
CENTER
 70
     0
  3
Center ____ _ ____ _ ____ _ ____ _ ____ _ ____
 72
    65
 73
     4
 40
10.16
 49
6.35
 74
     0
 49
-1.27
 74
     0
 49
1.27
 74
     0
 49
-1.27
 74
     0
  0
LTYPE
  5
42
330
5
100
AcDbSymbolTableRecord
100
AcDbLinetypeTableRecord
  2
CENTERX2
 70
     0
  3
Center (2x) ________  __  ________  __  _____
 72
    65
 73
     4
 40
20.32
 49
12.7
 74
     0
 49
-2.54
 74
     0
 49
2.54
 74
     0
 49
-2.54
 74
     0
  0
LTYPE
  5
43
330
5
100
AcDbSymbolTableRecord
100
AcDbLinetypeTableRecord
  2
DOT2
 70
     0
  3
Dot (.5x) ........................................
 72
    65
 73
     2
 40
0.635
 49
0.0
 74
     0
 49
-0.635
 74
     0
  0
ENDTAB
  0
TABLE
  2
LAYER
  5
2
330
0
100
AcDbSymbolTable
 70
     5
  0
LAYER
  5
10
330
2
100
AcDbSymbolTableRecord
100
AcDbLayerTableRecord
  2
0
 70
     0
 62
     7
  6
Continuous
370
    -3
390
F
  0
LAYER
  5
44
330
2
100
AcDbSymbolTableRecord
100
AcDbLayerTableRecord
  2
FORMAT
 70
     0
 62
     7
  6
Continuous
370
    -3
390
F
  0
LAYER
  5
45
330
2
100
AcDbSymbolTableRecord
100
AcDbLayerTableRecord
  2
VERMASSUNG
 70
     0
 62
     7
  6
Continuous
370
    -3
390
F
  0
LAYER
  5
46
330
2
100
AcDbSymbolTableRecord
100
AcDbLayerTableRecord
  2
KOPF_DÜNN
 70
     0
 62
     7
  6
Continuous
370
    -3
390
F
  0
LAYER
  5
47
330
2
100
AcDbSymbolTableRecord
100
AcDbLayerTableRecord
  2
KOPF_DICK
 70
     0
 62
     7
  6
Continuous
370
    15
390
F
  0
ENDTAB
  0
TABLE
  2
STYLE
  5
3
330
0
100
AcDbSymbolTable
 70
     2
  0
STYLE
  5
11
330
3
100
AcDbSymbolTableRecord
100
AcDbTextStyleTableRecord
  2
Standard
 70
     0
 40
0.0
 41
1.0
 50
0.0
 71
     0
 42
2.0
  3
txt
  4

  0
STYLE
  5
48
330
3
100
AcDbSymbolTableRecord
100
AcDbTextStyleTableRecord
  2
SLDTEXTSTYLE0
 70
     0
 40
0.0
 41
0.7
 50
0.0
 71
     0
 42
0.2
  3
TXT
  4

  0
ENDTAB
  0
TABLE
  2
VIEW
  5
6
330
0
100
AcDbSymbolTable
 70
     0
  0
ENDTAB
  0
TABLE
  2
UCS
  5
7
330
0
100
AcDbSymbolTable
 70
     0
  0
ENDTAB
  0
TABLE
  2
APPID
  5
9
330
0
100
AcDbSymbolTable
 70
     1
  0
APPID
  5
12
330
9
100
AcDbSymbolTableRecord
100
AcDbRegAppTableRecord
  2
ACAD
 70
     0
  0
ENDTAB
  0
TABLE
  2
DIMSTYLE
  5
A
330
0
100
AcDbSymbolTable
 70
     5
100
AcDbDimStyleTable
  0
DIMSTYLE
105
27
330
A
100
AcDbSymbolTableRecord
100
AcDbDimStyleTableRecord
  2
ISO-25
 70
     0
 41
2.5
 42
0.625
 43
3.75
 44
1.25
 73
     0
 74
     0
 77
     1
 78
     8
140
2.5
141
2.5
143
0.0393700787
147
0.625
171
     3
172
     1
178
     0
271
     2
272
     2
274
     3
278
    44
283
     0
284
     8
340
11
  0
DIMSTYLE
105
1A3
102
{ACAD_REACTORS
330
1A2
330
1AD
330
1B7
330
1CA
330
1D6
102
}
330
A
100
AcDbSymbolTableRecord
100
AcDbDimStyleTableRecord
  2
SLDDIMSTYLE0
 70
     0
 41
3.0
 44
0.0
 45
0.000000001
 73
     0
 74
     0
 77
     1
 78
    12
 79
     3
140
2.0
147
0.5
173
     1
178
     0
271
     2
272
     3
276
     2
284
    12
340
48
  0
DIMSTYLE
105
1C2
102
{ACAD_REACTORS
330
1C1
102
}
330
A
100
AcDbSymbolTableRecord
100
AcDbDimStyleTableRecord
  2
SLDDIMSTYLE1
 70
     0
 41
3.0
 44
0.0
 73
     0
 74
     0
 77
     1
 78
    12
 79
     3
140
2.0
147
0.5
173
     1
178
     0
179
     1
272
     3
276
     2
284
    12
340
48
  0
DIMSTYLE
105
1FF
102
{ACAD_REACTORS
330
1FE
102
}
330
A
100
AcDbSymbolTableRecord
100
AcDbDimStyleTableRecord
  2
SLDDIMSTYLE2
 70
     0
 41
3.0
 44
0.0
 45
0.000000001
 73
     0
 74
     0
 77
     1
 78
    12
 79
     3
140
2.0
147
0.5
172
     1
173
     1
178
     0
271
     2
272
     3
276
     2
284
    12
289
     0
340
48
  0
DIMSTYLE
105
20E
102
{ACAD_REACTORS
330
20D
102
}
330
A
100
AcDbSymbolTableRecord
100
AcDbDimStyleTableRecord
  2
SLDDIMSTYLE3
 70
     0
 41
3.0
 44
0.0
 73
     0
 74
     0
 77
     1
 78
    12
 79
     3
140
2.0
147
0.5
173
     1
178
     0
179
     2
272
     3
276
     2
284
    12
340
48
  0
ENDTAB
  0
TABLE
  2
BLOCK_RECORD
  5
1
330
0
100
AcDbSymbolTable
 70
    10
  0
BLOCK_RECORD
  5
1F
330
1
100
AcDbSymbolTableRecord
100
AcDbBlockTableRecord
  2
*Model_Space
340
22
  0
BLOCK_RECORD
  5
1B
330
1
100
AcDbSymbolTableRecord
100
AcDbBlockTableRecord
  2
*Paper_Space
340
1E
  0
BLOCK_RECORD
  5
23
330
1
100
AcDbSymbolTableRecord
100
AcDbBlockTableRecord
  2
*Paper_Space0
340
26
  0
BLOCK_RECORD
  5
1A4
330
1
100
AcDbSymbolTableRecord
100
AcDbBlockTableRecord
  2
_D
340
0
  0
BLOCK_RECORD
  5
1AE
330
1
100
AcDbSymbolTableRecord
100
AcDbBlockTableRecord
  2
_D_1
340
0
  0
BLOCK_RECORD
  5
1B8
330
1
100
AcDbSymbolTableRecord
100
AcDbBlockTableRecord
  2
_D_2
340
0
  0
BLOCK_RECORD
  5
1C3
330
1
100
AcDbSymbolTableRecord
100
AcDbBlockTableRecord
  2
_D_3
340
0
  0
BLOCK_RECORD
  5
1CB
330
1
100
AcDbSymbolTableRecord
100
AcDbBlockTableRecord
  2
_D_4
340
0
  0
BLOCK_RECORD
  5
1D7
330
1
100
AcDbSymbolTableRecord
100
AcDbBlockTableRecord
  2
_D_5
340
0
  0
BLOCK_RECORD
  5
200
330
1
100
AcDbSymbolTableRecord
100
AcDbBlockTableRecord
  2
_D_6
340
0
  0
BLOCK_RECORD
  5
20F
330
1
100
AcDbSymbolTableRecord
100
AcDbBlockTableRecord
  2
_D_7
340
0
  0
BLOCK_RECORD
  5
21A
330
1
100
AcDbSymbolTableRecord
100
AcDbBlockTableRecord
  2
SW_CENTERMARKSYMBOL_0
340
0
102
{BLKREFS
331
225
102
}
  0
ENDTAB
  0
ENDSEC
  0
SECTION
  2
BLOCKS
  0
BLOCK
  5
20
330
1F
100
AcDbEntity
  8
0
100
AcDbBlockBegin
  2
*Model_Space
 70
     0
 10
0.0
 20
0.0
 30
0.0
  3
*Model_Space
  1

  0
ENDBLK
  5
21
330
1F
100
AcDbEntity
  8
0
100
AcDbBlockEnd
  0
BLOCK
  5
1C
330
1B
100
AcDbEntity
 67
     1
  8
0
100
AcDbBlockBegin
  2
*Paper_Space
 70
     0
 10
0.0
 20
0.0
 30
0.0
  3
*Paper_Space
  1

  0
ENDBLK
  5
1D
330
1B
100
AcDbEntity
 67
     1
  8
0
100
AcDbBlockEnd
  0
BLOCK
  5
24
330
23
100
AcDbEntity
  8
0
100
AcDbBlockBegin
  2
*Paper_Space0
 70
     0
 10
0.0
 20
0.0
 30
0.0
  3
*Paper_Space0
  1

  0
ENDBLK
  5
25
330
23
100
AcDbEntity
  8
0
100
AcDbBlockEnd
  0
BLOCK
  5
1A5
330
1A4
100
AcDbEntity
  8
0
100
AcDbBlockBegin
  2
_D
 70
     0
 10
0.0
 20
0.0
 30
0.0
  3
_D
  1

  0
SOLID
  5
1A7
330
1A4
100
AcDbEntity
  8
VERMASSUNG
100
AcDbTrace
 10
161.5084945958
 20
142.79754736
 30
0.0
 11
164.5084945958
 21
142.34754736
 31
0.0
 12
164.5084945958
 22
143.24754736
 32
0.0
 13
164.5084945958
 23
143.24754736
 33
0.0
  0
SOLID
  5
1A8
330
1A4
100
AcDbEntity
  8
VERMASSUNG
100
AcDbTrace
 10
251.5084945958
 20
142.79754736
 30
0.0
 11
248.5084945958
 21
143.24754736
 31
0.0
 12
248.5084945958
 22
142.34754736
 32
0.0
 13
248.5084945958
 23
142.34754736
 33
0.0
  0
LINE
  5
1A9
330
1A4
100
AcDbEntity
  8
VERMASSUNG
100
AcDbLine
 10
161.5084945958
 20
137.466457742
 30
0.0
 11
161.5084945958
 21
143.79754736
 31
0.0
  0
LINE
  5
1AA
330
1A4
100
AcDbEntity
  8
VERMASSUNG
100
AcDbLine
 10
251.5084945958
 20
129.766457742
 30
0.0
 11
251.5084945958
 21
143.79754736
 31
0.0
  0
LINE
  5
1AB
330
1A4
100
AcDbEntity
  8
VERMASSUNG
100
AcDbLine
 10
161.5084945958
 20
142.79754736
 30
0.0
 11
251.5084945958
 21
142.79754736
 31
0.0
  0
MTEXT
  5
1AC
330
1A4
100
AcDbEntity
  8
VERMASSUNG
100
AcDbMText
 10
204.2084945448
 20
145.3756827232
 30
0.1
 40
2.0
 41
0.0
 71
     1
 72
     1
  1
90
  7
SLDTEXTSTYLE0
 73
     1
 44
1.0
  0
ENDBLK
  5
1A6
330
1A4
100
AcDbEntity
  8
0
100
AcDbBlockEnd
  0
BLOCK
  5
1AF
330
1AE
100
AcDbEntity
  8
0
100
AcDbBlockBegin
  2
_D_1
 70
     0
 10
0.0
 20
0.0
 30
0.0
  3
_D_1
  1

  0
SOLID
  5
1B1
330
1AE
100
AcDbEntity
  8
VERMASSUNG
100
AcDbTrace
 10
251.5084945958
 20
149.7237765244
 30
0.0
 11
248.5084945958
 21
150.1737765244
 31
0.0
 12
248.5084945958
 22
149.2737765244
 32
0.0
 13
248.5084945958
 23
149.2737765244
 33
0.0
  0
SOLID
  5
1B2
330
1AE
100
AcDbEntity
  8
VERMASSUNG
100
AcDbTrace
 10
131.5084945958
 20
149.7237765244
 30
0.0
 11
134.5084945958
 21
149.2737765244
 31
0.0
 12
134.5084945958
 22
150.1737765244
 32
0.0
 13
134.5084945958
 23
150.1737765244
 33
0.0
  0
LINE
  5
1B3
330
1AE
100
AcDbEntity
  8
VERMASSUNG
100
AcDbLine
 10
251.5084945958
 20
129.766457742
 30
0.0
 11
251.5084945958
 21
150.7237765244
 31
0.0
  0
LINE
  5
1B4
330
1AE
100
AcDbEntity
  8
VERMASSUNG
100
AcDbLine
 10
131.5084945958
 20
128.7597835802
 30
0.0
 11
131.5084945958
 21
150.7237765244
 31
0.0
  0
LINE
  5
1B5
330
1AE
100
AcDbEntity
  8
VERMASSUNG
100
AcDbLine
 10
251.5084945958
 20
149.7237765244
 30
0.0
 11
131.5084945958
 21
149.7237765244
 31
0.0
  0
MTEXT
  5
1B6
330
1AE
100
AcDbEntity
  8
VERMASSUNG
100
AcDbMText
 10
188.7084944629
 20
152.3019118875
 30
0.1
 40
2.0
 41
0.0
 71
     1
 72
     1
  1
120
  7
SLDTEXTSTYLE0
 73
     1
 44
1.0
  0
ENDBLK
  5
1B0
330
1AE
100
AcDbEntity
  8
0
100
AcDbBlockEnd
  0
BLOCK
  5
1B9
330
1B8
100
AcDbEntity
  8
0
100
AcDbBlockBegin
  2
_D_2
 70
     0
 10
0.0
 20
0.0
 30
0.0
  3
_D_2
  1

  0
SOLID
  5
1BB
330
1B8
100
AcDbEntity
  8
VERMASSUNG
100
AcDbTrace
 10
264.8365852049
 20
129.766457742
 30
0.0
 11
264.3865852049
 21
126.766457742
 31
0.0
 12
265.2865852049
 22
126.766457742
 32
0.0
 13
265.2865852049
 23
126.766457742
 33
0.0
  0
SOLID
  5
1BC
330
1B8
100
AcDbEntity
  8
VERMASSUNG
100
AcDbTrace
 10
264.8365852049
 20
112.766457742
 30
0.0
 11
265.2865852049
 21
115.766457742
 31
0.0
 12
264.3865852049
 22
115.766457742
 32
0.0
 13
264.3865852049
 23
115.766457742
 33
0.0
  0
LINE
  5
1BD
330
1B8
100
AcDbEntity
  8
VERMASSUNG
100
AcDbLine
 10
251.5084945958
 20
129.766457742
 30
0.0
 11
265.8365852049
 21
129.766457742
 31
0.0
  0
LINE
  5
1BE
330
1B8
100
AcDbEntity
  8
VERMASSUNG
100
AcDbLine
 10
251.5084945958
 20
112.766457742
 30
0.0
 11
265.8365852049
 21
112.766457742
 31
0.0
  0
LINE
  5
1BF
330
1B8
100
AcDbEntity
  8
VERMASSUNG
100
AcDbLine
 10
264.8365852049
 20
129.766457742
 30
0.0
 11
264.8365852049
 21
112.766457742
 31
0.0
  0
MTEXT
  5
1C0
330
1B8
100
AcDbEntity
  8
VERMASSUNG
100
AcDbMText
 10
262.2584498418
 20
119.166457584
 30
0.1
 40
2.0
 41
0.0
 71
     1
 72
     1
  1
17
  7
SLDTEXTSTYLE0
 11
-7.044195017643634E-15
 21
1.0
 31
0.0
 73
     1
 44
1.0
  0
ENDBLK
  5
1BA
330
1B8
100
AcDbEntity
  8
0
100
AcDbBlockEnd
  0
BLOCK
  5
1C4
330
1C3
100
AcDbEntity
  8
0
100
AcDbBlockBegin
  2
_D_3
 70
     0
 10
0.0
 20
0.0
 30
0.0
  3
_D_3
  1

  0
ARC
  5
1C6
330
1C3
100
AcDbEntity
  8
VERMASSUNG
100
AcDbCircle
 10
251.6540257614
 20
129.766457742
 30
0.0
 40
9.488927122339533
100
AcDbArc
 50
252.4598841946
 51
0.0
  0
SOLID
  5
1C7
330
1C3
100
AcDbEntity
  8
VERMASSUNG
100
AcDbTrace
 10
248.7943148355
 20
120.718707118
 30
0.0
 11
251.690664803
 21
119.8166778136
 31
0.0
 12
251.8278511529
 22
120.7061607563
 32
0.0
 13
251.8278511529
 23
120.7061607563
 33
0.0
  0
SOLID
  5
1C8
330
1C3
100
AcDbEntity
  8
VERMASSUNG
100
AcDbTrace
 10
261.1429528838
 20
129.766457742
 30
0.0
 11
260.2406885404
 21
126.8701809847
 31
0.0
 12
261.1301603474
 22
126.7329224528
 32
0.0
 13
261.1301603474
 23
126.7329224528
 33
0.0
  0
MTEXT
  5
1C9
330
1C3
100
AcDbEntity
  8
VERMASSUNG
100
AcDbMText
 10
252.1892254825
 20
121.5913367161
 30
0.1
 40
2.0
 41
0.0
 71
     1
 72
     1
  1
107.5°
  7
SLDTEXTSTYLE0
 11
0.8066515584257062
 21
0.5910272948767928
 31
0.0
 73
     1
 44
1.0
  0
ENDBLK
  5
1C5
330
1C3
100
AcDbEntity
  8
0
100
AcDbBlockEnd
  0
BLOCK
  5
1CC
330
1CB
100
AcDbEntity
  8
0
100
AcDbBlockBegin
  2
_D_4
 70
     0
 10
0.0
 20
0.0
 30
0.0
  3
_D_4
  1

  0
SOLID
  5
1CE
330
1CB
100
AcDbEntity
  8
VERMASSUNG
100
AcDbTrace
 10
121.5084945958
 20
137.766457742
 30
0.0
 11
121.0584945958
 21
134.766457742
 31
0.0
 12
121.9584945958
 22
134.766457742
 32
0.0
 13
121.9584945958
 23
134.766457742
 33
0.0
  0
SOLID
  5
1CF
330
1CB
100
AcDbEntity
  8
VERMASSUNG
100
AcDbTrace
 10
121.5084945958
 20
87.766457742
 30
0.0
 11
121.9584945958
 21
90.766457742
 31
0.0
 12
121.0584945958
 22
90.766457742
 32
0.0
 13
121.0584945958
 23
90.766457742
 33
0.0
  0
LINE
  5
1D0
330
1CB
100
AcDbEntity
  8
VERMASSUNG
100
AcDbLine
 10
161.8084945958
 20
137.766457742
 30
0.0
 11
120.5084945958
 21
137.766457742
 31
0.0
  0
LINE
  5
1D1
330
1CB
100
AcDbEntity
  8
VERMASSUNG
100
AcDbLine
 10
161.8084945958
 20
87.766457742
 30
0.0
 11
120.5084945958
 21
87.766457742
 31
0.0
  0
LINE
  5
1D2
330
1CB
100
AcDbEntity
  8
VERMASSUNG
100
AcDbLine
 10
121.5084945958
 20
137.766457742
 30
0.0
 11
121.5084945958
 21
87.766457742
 31
0.0
  0
MTEXT
  5
1D3
330
1CB
100
AcDbEntity
  8
VERMASSUNG
100
AcDbMText
 10
118.7303591068
 20
106.3614576328
 30
0.1
 40
2.0
 41
0.0
 71
     1
 72
     1
  1
PSC
  7
SLDTEXTSTYLE0
 11
-7.044195017643634E-15
 21
1.0
 31
0.0
 73
     1
 44
1.0
  0
MTEXT
  5
1D4
330
1CB
100
AcDbEntity
  8
VERMASSUNG
100
AcDbMText
 10
118.9303591163
 20
110.9614577348
 30
0.1
 40
2.0
 41
0.0
 71
     1
 72
     1
  1
%%c
  7
SLDTEXTSTYLE0
 11
-7.044195017643634E-15
 21
1.0
 31
0.0
 73
     1
 44
1.0
  0
MTEXT
  5
1D5
330
1CB
100
AcDbEntity
  8
VERMASSUNG
100
AcDbMText
 10
118.7303591068
 20
114.5714582148
 30
0.1
 40
2.0
 41
0.0
 71
     1
 72
     1
  1
50
  7
SLDTEXTSTYLE0
 11
-7.044195017643634E-15
 21
1.0
 31
0.0
 73
     1
 44
1.0
  0
ENDBLK
  5
1CD
330
1CB
100
AcDbEntity
  8
0
100
AcDbBlockEnd
  0
BLOCK
  5
1D8
330
1D7
100
AcDbEntity
  8
0
100
AcDbBlockBegin
  2
_D_5
 70
     0
 10
0.0
 20
0.0
 30
0.0
  3
_D_5
  1

  0
SOLID
  5
1DA
330
1D7
100
AcDbEntity
  8
VERMASSUNG
100
AcDbTrace
 10
194.0288844989
 20
100.266457742
 30
0.0
 11
194.4788844989
 21
103.266457742
 31
0.0
 12
193.5788844989
 22
103.266457742
 32
0.0
 13
193.5788844989
 23
103.266457742
 33
0.0
  0
SOLID
  5
1DB
330
1D7
100
AcDbEntity
  8
VERMASSUNG
100
AcDbTrace
 10
194.0288844989
 20
125.266457742
 30
0.0
 11
193.5788844989
 21
122.266457742
 31
0.0
 12
194.4788844989
 22
122.266457742
 32
0.0
 13
194.4788844989
 23
122.266457742
 33
0.0
  0
LINE
  5
1DC
330
1D7
100
AcDbEntity
  8
VERMASSUNG
100
AcDbLine
 10
194.0288844989
 20
100.266457742
 30
0.0
 11
194.0288844989
 21
125.266457742
 31
0.0
  0
MTEXT
  5
1DD
330
1D7
100
AcDbEntity
  8
VERMASSUNG
100
AcDbMText
 10
191.4507490193
 20
115.4949522035
 30
0.1
 40
2.0
 41
0.0
 71
     1
 72
     1
  1
%%c
  7
SLDTEXTSTYLE0
 11
6.123233995736766E-17
 21
1.0
 31
0.0
 73
     1
 44
1.0
  0
MTEXT
  5
1DE
330
1D7
100
AcDbEntity
  8
VERMASSUNG
100
AcDbMText
 10
191.2507490098
 20
119.1049522178
 30
0.1
 40
2.0
 41
0.0
 71
     1
 72
     1
  1
25
  7
SLDTEXTSTYLE0
 11
6.123233995736766E-17
 21
1.0
 31
0.0
 73
     1
 44
1.0
  0
ENDBLK
  5
1D9
330
1D7
100
AcDbEntity
  8
0
100
AcDbBlockEnd
  0
BLOCK
  5
201
330
200
100
AcDbEntity
  8
0
100
AcDbBlockBegin
  2
_D_6
 70
     0
 10
0.0
 20
0.0
 30
0.0
  3
_D_6
  1

  0
SOLID
  5
203
330
200
100
AcDbEntity
  8
VERMASSUNG
100
AcDbTrace
 10
76.4144129517
 20
102.2833995477
 30
0.0
 11
78.2175352437
 21
99.8438811526
 31
0.0
 12
78.8539313468
 22
100.4802772557
 32
0.0
 13
78.8539313468
 23
100.4802772557
 33
0.0
  0
SOLID
  5
204
330
200
100
AcDbEntity
  8
VERMASSUNG
100
AcDbTrace
 10
53.7869959537
 20
124.9108165457
 30
0.0
 11
51.9838736617
 21
127.3503349407
 31
0.0
 12
51.3474775586
 22
126.7139388377
 32
0.0
 13
51.3474775586
 23
126.7139388377
 33
0.0
  0
LINE
  5
205
330
200
100
AcDbEntity
  8
VERMASSUNG
100
AcDbLine
 10
76.4144129517
 20
102.2833995477
 30
0.0
 11
77.1215197329
 21
102.9905063289
 31
0.0
  0
LINE
  5
206
330
200
100
AcDbEntity
  8
VERMASSUNG
100
AcDbLine
 10
53.7869959537
 20
124.9108165457
 30
0.0
 11
54.4941027349
 21
125.6179233268
 31
0.0
  0
LINE
  5
207
330
200
100
AcDbEntity
  8
VERMASSUNG
100
AcDbLine
 10
76.4144129517
 20
102.2833995477
 30
0.0
 11
80.6570536388
 21
98.0407588606
 31
0.0
  0
LINE
  5
208
330
200
100
AcDbEntity
  8
VERMASSUNG
100
AcDbLine
 10
76.4144129517
 20
102.2833995477
 30
0.0
 11
53.7869959537
 21
124.9108165457
 31
0.0
  0
LINE
  5
209
330
200
100
AcDbEntity
  8
VERMASSUNG
100
AcDbLine
 10
53.7869959537
 20
124.9108165457
 30
0.0
 11
35.7316163974
 21
142.966196102
 31
0.0
  0
MTEXT
  5
20A
330
200
100
AcDbEntity
  8
VERMASSUNG
100
AcDbMText
 10
37.5546334778
 20
144.7892131824
 30
0.1
 40
2.0
 41
0.0
 71
     1
 72
     1
  1
%%c
  7
SLDTEXTSTYLE0
 11
0.7071067811865466
 21
-0.7071067811865485
 31
0.0
 73
     1
 44
1.0
  0
MTEXT
  5
20B
330
200
100
AcDbEntity
  8
VERMASSUNG
100
AcDbMText
 10
40.248710331
 20
142.3779790551
 30
0.1
 40
2.0
 41
0.0
 71
     1
 72
     1
  1
32
  7
SLDTEXTSTYLE0
 11
0.7071067811865466
 21
-0.7071067811865485
 31
0.0
 73
     1
 44
1.0
  0
MTEXT
  5
20C
330
200
100
AcDbEntity
  8
VERMASSUNG
100
AcDbMText
 10
44.3410912286
 20
138.2855981575
 30
0.1
 40
2.0
 41
0.0
 71
     1
 72
     1
  1
min.
  7
SLDTEXTSTYLE0
 11
0.7071067811865466
 21
-0.7071067811865485
 31
0.0
 73
     1
 44
1.0
  0
ENDBLK
  5
202
330
200
100
AcDbEntity
  8
0
100
AcDbBlockEnd
  0
BLOCK
  5
210
330
20F
100
AcDbEntity
  8
0
100
AcDbBlockBegin
  2
_D_7
 70
     0
 10
0.0
 20
0.0
 30
0.0
  3
_D_7
  1

  0
ARC
  5
212
330
20F
100
AcDbEntity
  8
VERMASSUNG
100
AcDbCircle
 10
65.1007044527
 20
125.4657816341
 30
0.0
 40
46.62563766803085
100
AcDbArc
 50
266.0
 51
270.0
  0
ARC
  5
213
330
20F
100
AcDbEntity
  8
VERMASSUNG
100
AcDbCircle
 10
65.1007044527
 20
125.4657816341
 30
0.0
 40
46.62563766803086
100
AcDbArc
 50
254.155326782
 51
266.0
  0
ARC
  5
214
330
20F
100
AcDbEntity
  8
VERMASSUNG
100
AcDbCircle
 10
65.1007044527
 20
125.4657816341
 30
0.0
 40
46.62563766803085
100
AcDbArc
 50
270.0
 51
277.3591284706
  0
SOLID
  5
215
330
20F
100
AcDbEntity
  8
VERMASSUNG
100
AcDbTrace
 10
61.8482643829
 20
78.9537216761
 30
0.0
 11
58.9096321453
 21
79.7066762378
 31
0.0
 12
58.8180449396
 22
78.8113484857
 32
0.0
 13
58.8180449396
 23
78.8113484857
 33
0.0
  0
SOLID
  5
216
330
20F
100
AcDbEntity
  8
VERMASSUNG
100
AcDbTrace
 10
65.1007044527
 20
78.8401439661
 30
0.0
 11
68.1136109821
 21
78.4867401666
 31
0.0
 12
68.084701785
 22
79.3862757459
 32
0.0
 13
68.084701785
 23
79.3862757459
 33
0.0
  0
LINE
  5
217
330
20F
100
AcDbEntity
  8
VERMASSUNG
100
AcDbLine
 10
63.3122760337
 20
99.8900636897
 30
0.0
 11
61.7785079092
 21
77.9561576258
 31
0.0
  0
LINE
  5
218
330
20F
100
AcDbEntity
  8
VERMASSUNG
100
AcDbLine
 10
65.1007044527
 20
85.266457742
 30
0.0
 11
65.1007044527
 21
77.8401439661
 31
0.0
  0
MTEXT
  5
219
330
20F
100
AcDbEntity
  8
VERMASSUNG
100
AcDbMText
 10
52.9358667699
 20
83.068975343
 30
-29.9738209269
 40
2.0
 41
0.0
 71
     1
 72
     1
  1
4°
  7
SLDTEXTSTYLE0
 11
0.9742890683594514
 21
-0.2253016006939857
 31
0.0
 73
     1
 44
1.0
  0
ENDBLK
  5
211
330
20F
100
AcDbEntity
  8
0
100
AcDbBlockEnd
  0
BLOCK
  5
21B
330
21A
100
AcDbEntity
  8
0
100
AcDbBlockBegin
  2
SW_CENTERMARKSYMBOL_0
 70
     0
 10
0.0
 20
0.0
 30
0.0
  3
SW_CENTERMARKSYMBOL_0
  1

  0
LINE
  5
21D
330
21A
100
AcDbEntity
  8
VERMASSUNG
 62
     0
100
AcDbLine
 10
0.0
 20
0.0
 30
0.0
 11
0.0
 21
2.5
 31
0.0
  0
LINE
  5
21E
330
21A
100
AcDbEntity
  8
VERMASSUNG
 62
     0
100
AcDbLine
 10
0.0
 20
0.0
 30
0.0
 11
-2.5
 21
0.0
 31
0.0
  0
LINE
  5
21F
330
21A
100
AcDbEntity
  8
VERMASSUNG
 62
     0
100
AcDbLine
 10
0.0
 20
0.0
 30
0.0
 11
0.0
 21
-2.5
 31
0.0
  0
LINE
  5
220
330
21A
100
AcDbEntity
  8
VERMASSUNG
 62
     0
100
AcDbLine
 10
0.0
 20
0.0
 30
0.0
 11
2.5
 21
0.0
 31
0.0
  0
LINE
  5
221
330
21A
100
AcDbEntity
  8
VERMASSUNG
 62
     0
100
AcDbLine
 10
0.0
 20
5.0
 30
0.0
 11
0.0
 21
27.5
 31
0.0
  0
LINE
  5
222
330
21A
100
AcDbEntity
  8
VERMASSUNG
 62
     0
100
AcDbLine
 10
-5.0
 20
0.0
 30
0.0
 11
-27.5
 21
0.0
 31
0.0
  0
LINE
  5
223
330
21A
100
AcDbEntity
  8
VERMASSUNG
 62
     0
100
AcDbLine
 10
0.0
 20
-5.0
 30
0.0
 11
0.0
 21
-27.5
 31
0.0
  0
LINE
  5
224
330
21A
100
AcDbEntity
  8
VERMASSUNG
 62
     0
100
AcDbLine
 10
5.0
 20
0.0
 30
0.0
 11
27.5
 21
0.0
 31
0.0
  0
ENDBLK
  5
21C
330
21A
100
AcDbEntity
  8
0
100
AcDbBlockEnd
  0
ENDSEC
  0
SECTION
  2
ENTITIES
  0
MTEXT
  5
49
330
1F
100
AcDbEntity
  8
KOPF_DÜNN
100
AcDbMText
 10
13.8892156294
 20
23.8442973028
 30
0.0
 40
3.0
 41
0.0
 71
     1
 72
     1
  1
PS5.BDB.RQA.090
  7
SLDTEXTSTYLE0
 73
     1
 44
1.0
  0
MTEXT
  5
4A
330
1F
100
AcDbEntity
  8
VERMASSUNG
100
AcDbMText
 10
13.9329988022
 20
28.8834360957
 30
0.0
 40
3.0
 41
0.0
 71
     1
 72
     1
  1
Bohrstange rechts_Boring bar right
  7
SLDTEXTSTYLE0
 73
     1
 44
1.0
  0
MTEXT
  5
4B
330
1F
100
AcDbEntity
  8
VERMASSUNG
100
AcDbMText
 10
98.8601118557
 20
13.8365368179
 30
0.0
 40
2.0
 41
0.0
 71
     1
 72
     1
  1
Datum: 06.06.2012
  7
SLDTEXTSTYLE0
 73
     1
 44
1.0
  0
MTEXT
  5
4C
330
1F
100
AcDbEntity
  8
VERMASSUNG
100
AcDbMText
 10
13.933048693
 20
18.0482802738
 30
0.0
 40
2.0
 41
0.0
 71
     1
 72
     1
  1
PSC ø50 / Wp.: DC..11 T3..
  7
SLDTEXTSTYLE0
 73
     1
 44
1.0
  0
MTEXT
  5
4D
330
1F
100
AcDbEntity
  8
VERMASSUNG
100
AcDbMText
 10
13.9808475933
 20
13.9090973692
 30
0.0
 40
2.0
 41
0.0
 71
     1
 72
     1
  1
Gewicht: 624g
  7
SLDTEXTSTYLE0
 73
     1
 44
1.0
  0
ARC
  5
4E
330
1F
100
AcDbEntity
  8
0
  6
Continuous
 62
     7
370
    15
100
AcDbCircle
 10
180.9084945958
 20
88.366457742
 30
0.0
 40
0.5999999999999943
100
AcDbArc
 50
270.0
 51
0.0
  0
ARC
  5
4F
330
1F
100
AcDbEntity
  8
0
  6
Continuous
 62
     7
370
    15
100
AcDbCircle
 10
180.9084945958
 20
137.166457742
 30
0.0
 40
0.6000000000000227
100
AcDbArc
 50
0.0
 51
90.0
  0
LINE
  5
50
330
1F
100
AcDbEntity
  8
0
  6
Continuous
 62
     7
370
    15
100
AcDbLine
 10
161.8084946101
 20
87.7664573695
 30
0.0
 11
180.9084951681
 21
87.7664573695
 31
0.0
  0
LINE
  5
51
330
1F
100
AcDbEntity
  8
0
  6
Continuous
 62
     7
370
    15
100
AcDbLine
 10
180.9084951681
 20
137.7664581145
 30
0.0
 11
161.8084946101
 21
137.7664581145
 31
0.0
  0
ARC
  5
52
330
1F
100
AcDbEntity
  8
0
  6
Continuous
 62
     7
370
    15
100
AcDbCircle
 10
161.8084945958
 20
88.066457742
 30
0.0
 40
0.3000000000000114
100
AcDbArc
 50
180.0
 51
270.0
  0
ARC
  5
53
330
1F
100
AcDbEntity
  8
0
  6
Continuous
 62
     7
370
    15
100
AcDbCircle
 10
161.8084945958
 20
137.466457742
 30
0.0
 40
0.3000000000000114
100
AcDbArc
 50
90.0
 51
180.0
  0
LWPOLYLINE
  5
54
330
1F
100
AcDbEntity
  8
0
  6
Continuous
 62
     7
370
    15
100
AcDbPolyline
 90
        3
 70
   128
 43
0.0
 10
161.3084946009
 20
94.9266366865
 10
161.4339495361
 20
94.8583353515
 10
161.5084945958
 20
94.8055982794
  0
LWPOLYLINE
  5
55
330
1F
100
AcDbEntity
  8
0
  6
Continuous
 62
     7
370
    15
100
AcDbPolyline
 90
        3
 70
   128
 43
0.0
 10
161.5084945958
 20
130.7273172046
 10
161.4339495361
 20
130.6745801325
 10
161.3084946009
 20
130.6062787975
  0
ARC
  5
56
330
1F
100
AcDbEntity
  8
0
  6
Continuous
 62
     7
370
    15
100
AcDbCircle
 10
185.5084945958
 20
96.266457742
 30
0.0
 40
4.000000000000028
100
AcDbArc
 50
90.0
 51
180.0
  0
ARC
  5
57
330
1F
100
AcDbEntity
  8
0
  6
Continuous
 62
     7
370
    15
100
AcDbCircle
 10
185.5084945958
 20
129.266457742
 30
0.0
 40
4.000000000000028
100
AcDbArc
 50
180.0
 51
270.0
  0
LINE
  5
58
330
1F
100
AcDbEntity
  8
0
  6
Continuous
 62
     7
370
    15
100
AcDbLine
 10
225.0942826074
 20
125.2664579283
 30
0.0
 11
185.5084948045
 21
125.2664579283
 31
0.0
  0
LINE
  5
59
330
1F
100
AcDbEntity
  8
0
  6
Continuous
 62
     7
370
    15
100
AcDbLine
 10
185.5084948045
 20
100.2664575557
 30
0.0
 11
225.0942826074
 21
100.2664575557
 31
0.0
  0
ARC
  5
5A
330
1F
100
AcDbEntity
  8
0
  6
Continuous
 62
     7
370
    15
100
AcDbCircle
 10
225.0942810335
 20
126.266457742
 30
0.0
 40
0.9999999999999895
100
AcDbArc
 50
290.1029878206
 51
304.4282891726
  0
ARC
  5
5B
330
1F
100
AcDbEntity
  8
0
  6
Continuous
 62
     7
370
    15
100
AcDbCircle
 10
225.0942810335
 20
99.266457742
 30
0.0
 40
1.0
100
AcDbArc
 50
45.0
 51
90.0
  0
LINE
  5
5C
330
1F
100
AcDbEntity
  8
0
  6
Continuous
 62
     7
370
    15
100
AcDbLine
 10
226.0084911984
 20
99.7664574738
 30
0.0
 11
241.882452349
 21
99.7664574738
 31
0.0
  0
LINE
  5
5D
330
1F
100
AcDbEntity
  8
0
  6
Continuous
 62
     7
370
    15
100
AcDbLine
 10
225.8013874095
 20
99.9735649879
 30
0.0
 11
226.0084911984
 21
99.7664574738
 31
0.0
  0
LINE
  5
5E
330
1F
100
AcDbEntity
  8
0
  6
Continuous
 62
     7
370
    15
100
AcDbLine
 10
243.131899814
 20
122.4654950405
 30
0.0
 11
243.131899814
 21
122.557535788
 31
0.0
  0
LINE
  5
5F
330
1F
100
AcDbEntity
  8
0
  6
Continuous
 62
     7
370
    15
100
AcDbLine
 10
245.5451354187
 20
122.6522978599
 30
0.0
 11
245.5451354187
 21
122.5602273102
 31
0.0
  0
LINE
  5
60
330
1F
100
AcDbEntity
  8
0
  6
Continuous
 62
     7
370
    15
100
AcDbLine
 10
241.712214033
 20
122.5934317539
 30
0.0
 11
241.712214033
 21
122.5428888778
 31
0.0
  0
LINE
  5
61
330
1F
100
AcDbEntity
  8
0
  6
Continuous
 62
     7
370
    15
100
AcDbLine
 10
246.9622134965
 20
122.5428888778
 30
0.0
 11
246.9622134965
 21
122.5934317539
 31
0.0
  0
LINE
  5
62
330
1F
100
AcDbEntity
  8
0
  6
Continuous
 62
     7
370
    15
100
AcDbLine
 10
181.5084941488
 20
137.1664572711
 30
0.0
 11
181.5084941488
 21
88.3664582129
 31
0.0
  0
SPLINE
  5
63
330
1F
100
AcDbEntity
  8
0
  6
Continuous
 62
     7
370
    15
100
AcDbSpline
210
0.0
220
0.0
230
1.0
 70
     8
 71
     3
 72
    12
 73
     8
 74
     0
 42
0.00000001
 43
0.00000001
 12
1.0
 22
0.0
 32
0.0
 13
1.0
 23
0.0
 33
0.0
 40
0.0
 40
0.0
 40
0.0
 40
0.0
 40
0.2499999999999993
 40
0.2499999999999993
 40
0.4999999999999987
 40
0.4999999999999987
 40
1.0
 40
1.0
 40
1.0
 40
1.0
 10
170.0362514094119
 20
120.3352677111674
 30
0.0
 10
169.9725861728814
 20
120.3352677111674
 30
0.0
 10
169.9129799406581
 20
120.3613398596471
 30
0.0
 10
169.8143194157272
 20
120.4368786104682
 30
0.0
 10
169.775352425712
 20
120.4841295475644
 30
0.0
 10
169.6759655937875
 20
120.6359533655309
 30
0.0
 10
169.633889346364
 20
120.7487566152959
 30
0.0
 10
169.6032387075197
 20
120.862910740031
 30
0.0
  0
LINE
  5
64
330
1F
100
AcDbEntity
  8
0
  6
Continuous
 62
     7
370
    15
100
AcDbLine
 10
172.9807374802
 20
120.3352678771
 30
0.0
 11
170.0362512645
 21
120.3352678771
 31
0.0
  0
SPLINE
  5
65
330
1F
100
AcDbEntity
  8
0
  6
Continuous
 62
     7
370
    15
100
AcDbSpline
210
0.0
220
0.0
230
1.0
 70
     8
 71
     3
 72
    12
 73
     8
 74
     0
 42
0.00000001
 43
0.00000001
 12
1.0
 22
0.0
 32
0.0
 13
1.0
 23
0.0
 33
0.0
 40
0.0
 40
0.0
 40
0.0
 40
0.0
 40
0.5000000000000032
 40
0.5000000000000032
 40
0.7500000000000016
 40
0.7500000000000016
 40
1.0
 40
1.0
 40
1.0
 40
1.0
 10
173.4137504841712
 20
120.862910740031
 30
0.0
 10
173.383051100804
 20
120.7485750729672
 30
0.0
 10
173.3417010326974
 20
120.6372217201258
 30
0.0
 10
173.241945104478
 20
120.4844849478771
 30
0.0
 10
173.2022481867452
 20
120.4366250620249
 30
0.0
 10
173.1049900350976
 20
120.3620219486755
 30
0.0
 10
173.044213877107
 20
120.3352677111674
 30
0.0
 10
172.980737782279
 20
120.3352677111674
 30
0.0
  0
ELLIPSE
  5
66
330
1F
100
AcDbEntity
  8
0
  6
Continuous
 62
     7
370
    15
100
AcDbEllipse
 10
160.4522369409
 20
112.766457742
 30
0.0
 11
11.70927234972706
 21
24.67718644093742
 31
0.0
210
0.0
220
0.0
230
1.0
 40
0.3419987131
 41
5.20306880937045
 42
6.114256032590497
  0
SPLINE
  5
67
330
1F
100
AcDbEntity
  8
0
  6
Continuous
 62
     7
370
    15
100
AcDbSpline
210
0.0
220
0.0
230
1.0
 70
     8
 71
     3
 72
    12
 73
     8
 74
     0
 42
0.00000001
 43
0.00000001
 12
1.0
 22
0.0
 32
0.0
 13
1.0
 23
0.0
 33
0.0
 40
0.0
 40
0.0
 40
0.0
 40
0.0
 40
0.2499999999999991
 40
0.2499999999999991
 40
0.4999999999999982
 40
0.4999999999999982
 40
1.0
 40
1.0
 40
1.0
 40
1.0
 10
172.980737782279
 20
136.5931888574889
 30
0.0
 10
173.0444030188095
 20
136.5931888574889
 30
0.0
 10
173.1040092510329
 20
136.5849240818229
 30
0.0
 10
173.2026697759637
 20
136.5607053002398
 30
0.0
 10
173.241636765979
 20
136.5454479809307
 30
0.0
 10
173.3410235979035
 20
136.4958146266688
 30
0.0
 10
173.3830998453269
 20
136.4581749184946
 30
0.0
 10
173.4137504841712
 20
136.4190992192185
 30
0.0
  0
LINE
  5
68
330
1F
100
AcDbEntity
  8
0
  6
Continuous
 62
     7
370
    15
100
AcDbLine
 10
170.0362512645
 20
136.5931891109
 30
0.0
 11
172.9807374802
 21
136.5931891109
 31
0.0
  0
SPLINE
  5
69
330
1F
100
AcDbEntity
  8
0
  6
Continuous
 62
     7
370
    15
100
AcDbSpline
210
0.0
220
0.0
230
1.0
 70
     8
 71
     3
 72
    12
 73
     8
 74
     0
 42
0.00000001
 43
0.00000001
 12
1.0
 22
0.0
 32
0.0
 13
1.0
 23
0.0
 33
0.0
 40
0.0
 40
0.0
 40
0.0
 40
0.0
 40
0.4999999999999996
 40
0.4999999999999996
 40
0.7499999999999998
 40
0.7499999999999998
 40
1.0
 40
1.0
 40
1.0
 40
1.0
 10
169.6032387075197
 20
136.4190992192185
 30
0.0
 10
169.633938090887
 20
136.4582370616144
 30
0.0
 10
169.6752881589935
 20
136.4953968443399
 30
0.0
 10
169.775044087213
 20
136.5453333499676
 30
0.0
 10
169.8147410049457
 20
136.5607862201114
 30
0.0
 10
169.9119991565933
 20
136.5847057637104
 30
0.0
 10
169.972775314584
 20
136.5931888574889
 30
0.0
 10
170.0362514094119
 20
136.5931888574889
 30
0.0
  0
ELLIPSE
  5
6A
330
1F
100
AcDbEntity
  8
0
  6
Continuous
 62
     7
370
    15
100
AcDbEllipse
 10
182.5647522508
 20
112.766457742
 30
0.0
 11
-11.70927234972698
 21
24.67718644093743
 31
0.0
210
0.0
220
0.0
230
1.0
 40
0.3419987131
 41
0.168929274589135
 42
1.080116497809152
  0
SPLINE
  5
6B
330
1F
100
AcDbEntity
  8
0
  6
Continuous
 62
     7
370
    15
100
AcDbSpline
210
0.0
220
0.0
230
1.0
 70
     8
 71
     3
 72
    12
 73
     8
 74
     0
 42
0.00000001
 43
0.00000001
 12
1.0
 22
0.0
 32
0.0
 13
1.0
 23
0.0
 33
0.0
 40
0.0
 40
0.0
 40
0.0
 40
0.0
 40
0.2500000000000002
 40
0.2500000000000002
 40
0.5000000000000004
 40
0.5000000000000004
 40
1.0
 40
1.0
 40
1.0
 40
1.0
 10
170.0362514094119
 20
88.93972662648495
 30
0.0
 10
169.9726148551982
 20
88.93972662648494
 30
0.0
 10
169.913034728332
 20
88.94798339741672
 30
0.0
 10
169.8143979869656
 20
88.97218545942454
 30
0.0
 10
169.7754393625853
 20
88.98743227845868
 30
0.0
 10
169.6760604230774
 20
89.03703715051878
 30
0.0
 10
169.634102517912
 20
89.0744687986376
 30
0.0
 10
169.6032387075195
 20
89.11381626475526
 30
0.0
  0
LINE
  5
6C
330
1F
100
AcDbEntity
  8
0
  6
Continuous
 62
     7
370
    15
100
AcDbLine
 10
172.9807374802
 20
88.9397263731
 30
0.0
 11
170.0362512645
 21
88.9397263731
 31
0.0
  0
SPLINE
  5
6D
330
1F
100
AcDbEntity
  8
0
  6
Continuous
 62
     7
370
    15
100
AcDbSpline
210
0.0
220
0.0
230
1.0
 70
     8
 71
     3
 72
    12
 73
     8
 74
     0
 42
0.00000001
 43
0.00000001
 12
1.0
 22
0.0
 32
0.0
 13
1.0
 23
0.0
 33
0.0
 40
0.0
 40
0.0
 40
0.0
 40
0.0
 40
0.5000000000000014
 40
0.5000000000000014
 40
0.7500000000000007
 40
0.7500000000000007
 40
1.0
 40
1.0
 40
1.0
 40
1.0
 10
173.4137504841713
 20
89.11381626475529
 30
0.0
 10
173.3828987736071
 20
89.07448422439279
 30
0.0
 10
173.3410059101464
 20
89.03707245886457
 30
0.0
 10
173.2414850323532
 20
88.98740153424863
 30
0.0
 10
173.2018708676289
 20
88.97201245164081
 30
0.0
 10
173.1047678338494
 20
88.94817923597354
 30
0.0
 10
173.0442691611991
 20
88.93972662648474
 30
0.0
 10
172.9807377822791
 20
88.93972662648474
 30
0.0
  0
ELLIPSE
  5
6E
330
1F
100
AcDbEntity
  8
0
  6
Continuous
 62
     7
370
    15
100
AcDbEllipse
 10
160.4522369409
 20
112.766457742
 30
0.0
 11
-11.70927234972723
 21
24.67718644093745
 31
0.0
210
0.0
220
0.0
230
1.0
 40
0.3419987131
 41
3.310521928178949
 42
4.221709151398942
  0
SPLINE
  5
6F
330
1F
100
AcDbEntity
  8
0
  6
Continuous
 62
     7
370
    15
100
AcDbSpline
210
0.0
220
0.0
230
1.0
 70
     8
 71
     3
 72
    12
 73
     8
 74
     0
 42
0.00000001
 43
0.00000001
 12
1.0
 22
0.0
 32
0.0
 13
1.0
 23
0.0
 33
0.0
 40
0.0
 40
0.0
 40
0.0
 40
0.0
 40
0.2500000000000009
 40
0.2500000000000009
 40
0.5000000000000019
 40
0.5000000000000019
 40
1.0
 40
1.0
 40
1.0
 40
1.0
 10
172.980737782279
 20
105.1976477728062
 30
0.0
 10
173.0443743364927
 20
105.1976477728062
 30
0.0
 10
173.1039544633589
 20
105.1716008697482
 30
0.0
 10
173.2025912047253
 20
105.0961137108483
 30
0.0
 10
173.2415498291056
 20
105.0488946723176
 30
0.0
 10
173.3409287686135
 20
104.897155021224
 30
0.0
 10
173.382886673779
 20
104.7849527970399
 30
0.0
 10
173.4137504841714
 20
104.6700047439426
 30
0.0
  0
LINE
  5
70
330
1F
100
AcDbEntity
  8
0
  6
Continuous
 62
     7
370
    15
100
AcDbLine
 10
170.0362512645
 20
105.1976476069
 30
0.0
 11
172.9807374802
 21
105.1976476069
 31
0.0
  0
SPLINE
  5
71
330
1F
100
AcDbEntity
  8
0
  6
Continuous
 62
     7
370
    15
100
AcDbSpline
210
0.0
220
0.0
230
1.0
 70
     8
 71
     3
 72
    12
 73
     8
 74
     0
 42
0.00000001
 43
0.00000001
 12
1.0
 22
0.0
 32
0.0
 13
1.0
 23
0.0
 33
0.0
 40
0.0
 40
0.0
 40
0.0
 40
0.0
 40
0.4999999999999987
 40
0.4999999999999987
 40
0.7499999999999993
 40
0.7499999999999993
 40
1.0
 40
1.0
 40
1.0
 40
1.0
 10
169.6032387075197
 20
104.6700047439426
 30
0.0
 10
169.6340904180839
 20
104.7849077328794
 30
0.0
 10
169.6759832815445
 20
104.8970466289283
 30
0.0
 10
169.7755041593378
 20
105.0489889105291
 30
0.0
 10
169.815118324062
 20
105.096653520054
 30
0.0
 10
169.9122213578415
 20
105.1709898506694
 30
0.0
 10
169.9727200304919
 20
105.1976477728066
 30
0.0
 10
170.0362514094118
 20
105.1976477728066
 30
0.0
  0
ELLIPSE
  5
72
330
1F
100
AcDbEntity
  8
0
  6
Continuous
 62
     7
370
    15
100
AcDbEllipse
 10
182.5647522508
 20
112.766457742
 30
0.0
 11
11.70927234972706
 21
24.67718644093745
 31
0.0
210
0.0
220
0.0
230
1.0
 40
0.3419987131
 41
2.061476155780653
 42
2.972663379000666
  0
LINE
  5
73
330
1F
100
AcDbEntity
  8
0
  6
Continuous
 62
     7
370
    15
100
AcDbLine
 10
161.5084945958
 20
88.0664568598
 30
0.0
 11
161.5084945958
 21
137.4664586241
 31
0.0
  0
SPLINE
  5
74
330
1F
100
AcDbEntity
  8
0
  6
Continuous
 62
     7
370
    15
100
AcDbSpline
210
0.0
220
0.0
230
1.0
 70
     8
 71
     3
 72
    16
 73
    12
 74
     0
 42
0.00000001
 43
0.00000001
 12
1.0
 22
0.0
 32
0.0
 13
1.0
 23
0.0
 33
0.0
 40
0.0
 40
0.0
 40
0.0
 40
0.0
 40
0.2499999999999996
 40
0.2499999999999996
 40
0.4999999999999992
 40
0.4999999999999992
 40
0.6249999999999994
 40
0.6249999999999994
 40
0.7499999999999997
 40
0.7499999999999997
 40
1.0
 40
1.0
 40
1.0
 40
1.0
 10
160.4676335677164
 20
95.41730046079438
 30
0.0
 10
160.4993615289091
 20
95.41650334397345
 30
0.0
 10
160.5339891192596
 20
95.4159122691182
 30
0.0
 10
160.6136828813233
 20
95.41490074368372
 30
0.0
 10
160.658724341327
 20
95.41450063550886
 30
0.0
 10
160.7415770681775
 20
95.41354276360501
 30
0.0
 10
160.7714915293773
 20
95.41316108234457
 30
0.0
 10
160.8374778599352
 20
95.41208486828604
 30
0.0
 10
160.874211485397
 20
95.41136730239191
 30
0.0
 10
160.9867082049668
 20
95.40860642471024
 30
0.0
 10
161.057049553065
 20
95.40611933283866
 30
0.0
 10
161.1135177069702
 20
95.40394605443156
 30
0.0
  0
SPLINE
  5
75
330
1F
100
AcDbEntity
  8
0
  6
Continuous
 62
     7
370
    15
100
AcDbSpline
210
0.0
220
0.0
230
1.0
 70
     8
 71
     3
 72
    14
 73
    10
 74
     0
 42
0.00000001
 43
0.00000001
 12
1.0
 22
0.0
 32
0.0
 13
1.0
 23
0.0
 33
0.0
 40
0.0
 40
0.0
 40
0.0
 40
0.0
 40
0.125000000000001
 40
0.125000000000001
 40
0.2500000000000019
 40
0.2500000000000019
 40
0.5000000000000022
 40
0.5000000000000022
 40
1.0
 40
1.0
 40
1.0
 40
1.0
 10
161.1135177069386
 20
95.40394605445427
 30
0.0
 10
161.1261095008834
 20
95.40346143663191
 30
0.0
 10
161.1409806091775
 20
95.40175125869956
 30
0.0
 10
161.1731647006106
 20
95.39363570994871
 30
0.0
 10
161.1887688320865
 20
95.3874199216874
 30
0.0
 10
161.2246559717985
 20
95.36920080998581
 30
0.0
 10
161.2385080130672
 20
95.35743578165217
 30
0.0
 10
161.2719977549998
 20
95.3256406452349
 30
0.0
 10
161.2826600155756
 20
95.30784721339175
 30
0.0
 10
161.2907979724705
 20
95.29141608254734
 30
0.0
  0
LINE
  5
76
330
1F
100
AcDbEntity
  8
0
  6
Continuous
 62
     7
370
    15
100
AcDbLine
 10
161.3084946009
 20
106.7819777149
 30
0.0
 11
161.3084946009
 21
94.9266366865
 31
0.0
  0
SPLINE
  5
77
330
1F
100
AcDbEntity
  8
0
  6
Continuous
 62
     7
370
    15
100
AcDbSpline
210
0.0
220
0.0
230
1.0
 70
     8
 71
     3
 72
    16
 73
    12
 74
     0
 42
0.00000001
 43
0.00000001
 12
1.0
 22
0.0
 32
0.0
 13
1.0
 23
0.0
 33
0.0
 40
0.0
 40
0.0
 40
0.0
 40
0.0
 40
0.4999999999999994
 40
0.4999999999999994
 40
0.7499999999999991
 40
0.7499999999999991
 40
0.8749999999999996
 40
0.8749999999999996
 40
0.9374999999999999
 40
0.9374999999999999
 40
1.0
 40
1.0
 40
1.0
 40
1.0
 10
161.3084945958455
 20
106.7819775094123
 30
0.0
 10
161.3084945958455
 20
106.8965072401113
 30
0.0
 10
161.3044372937304
 20
107.0118233153008
 30
0.0
 10
161.2787800509356
 20
107.1867464051284
 30
0.0
 10
161.2674646051935
 20
107.2465757081233
 30
0.0
 10
161.2334332378849
 20
107.3311668943715
 30
0.0
 10
161.2195542566811
 20
107.3598364805155
 30
0.0
 10
161.1836185749137
 20
107.3896442674618
 30
0.0
 10
161.168668255651
 20
107.3959794208214
 30
0.0
 10
161.1387697429091
 20
107.3947539579512
 30
0.0
 10
161.1252368825438
 20
107.3881553719164
 30
0.0
 10
161.1135177069698
 20
107.3795076838599
 30
0.0
  0
SPLINE
  5
78
330
1F
100
AcDbEntity
  8
0
  6
Continuous
 62
     7
370
    15
100
AcDbSpline
210
0.0
220
0.0
230
1.0
 70
     8
 71
     3
 72
    14
 73
    10
 74
     0
 42
0.00000001
 43
0.00000001
 12
1.0
 22
0.0
 32
0.0
 13
1.0
 23
0.0
 33
0.0
 40
0.0
 40
0.0
 40
0.0
 40
0.0
 40
0.25
 40
0.25
 40
0.5
 40
0.5
 40
0.75
 40
0.75
 40
1.0
 40
1.0
 40
1.0
 40
1.0
 10
161.1135177069767
 20
107.3795076838513
 30
0.0
 10
161.0570580410929
 20
107.3378455741525
 30
0.0
 10
160.9861855662307
 20
107.3070120935643
 30
0.0
 10
160.8377192083488
 20
107.3127266021775
 30
0.0
 10
160.768524005141
 20
107.3482975296104
 30
0.0
 10
160.6588068190714
 20
107.4352414420843
 30
0.0
 10
160.6135609301394
 20
107.4876737554494
 30
0.0
 10
160.5339437991726
 20
107.5962268369679
 30
0.0
 10
160.4993411797157
 20
107.6532099232104
 30
0.0
 10
160.4676335677169
 20
107.7117760058683
 30
0.0
  0
SPLINE
  5
79
330
1F
100
AcDbEntity
  8
0
  6
Continuous
 62
     7
370
    15
100
AcDbSpline
210
0.0
220
0.0
230
1.0
 70
     8
 71
     3
 72
    10
 73
     6
 74
     0
 42
0.00000001
 43
0.00000001
 12
1.0
 22
0.0
 32
0.0
 13
1.0
 23
0.0
 33
0.0
 40
0.0
 40
0.0
 40
0.0
 40
0.0
 40
0.5
 40
0.5
 40
1.0
 40
1.0
 40
1.0
 40
1.0
 10
160.1871742522859
 20
108.5645945975145
 30
0.0
 10
160.2180528358978
 20
108.4149660456548
 30
0.0
 10
160.2540455436211
 20
108.2684706281313
 30
0.0
 10
160.3433857951183
 20
107.9832789895905
 30
0.0
 10
160.3958440979638
 20
107.8443759638746
 30
0.0
 10
160.467633567717
 20
107.7117760058681
 30
0.0
  0
SPLINE
  5
7A
330
1F
100
AcDbEntity
  8
0
  6
Continuous
 62
     7
370
    15
100
AcDbSpline
210
0.0
220
0.0
230
1.0
 70
     8
 71
     3
 72
    10
 73
     6
 74
     0
 42
0.00000001
 43
0.00000001
 12
1.0
 22
0.0
 32
0.0
 13
1.0
 23
0.0
 33
0.0
 40
0.0
 40
0.0
 40
0.0
 40
0.0
 40
0.5
 40
0.5
 40
1.0
 40
1.0
 40
1.0
 40
1.0
 10
160.4676335677163
 20
117.8211394781045
 30
0.0
 10
160.3958440979634
 20
117.6885395200982
 30
0.0
 10
160.3433857951179
 20
117.5496364943825
 30
0.0
 10
160.2540455436211
 20
117.2644448558422
 30
0.0
 10
160.2180528358978
 20
117.1179494383188
 30
0.0
 10
160.1871742522859
 20
116.9683208864594
 30
0.0
  0
SPLINE
  5
7B
330
1F
100
AcDbEntity
  8
0
  6
Continuous
 62
     7
370
    15
100
AcDbSpline
210
0.0
220
0.0
230
1.0
 70
     8
 71
     3
 72
    14
 73
    10
 74
     0
 42
0.00000001
 43
0.00000001
 12
1.0
 22
0.0
 32
0.0
 13
1.0
 23
0.0
 33
0.0
 40
0.0
 40
0.0
 40
0.0
 40
0.0
 40
0.25
 40
0.25
 40
0.5
 40
0.5
 40
0.75
 40
0.75
 40
1.0
 40
1.0
 40
1.0
 40
1.0
 10
160.4676335677156
 20
117.8211394781033
 30
0.0
 10
160.499342267201
 20
117.8797075694219
 30
0.0
 10
160.5339500858416
 20
117.9367018313619
 30
0.0
 10
160.6136084963309
 20
118.0453019661259
 30
0.0
 10
160.6586707662258
 20
118.0976301015045
 30
0.0
 10
160.7692526118042
 20
118.1851311128668
 30
0.0
 10
160.8368967326195
 20
118.220176569121
 30
0.0
 10
160.9871450230166
 20
118.225920957877
 30
0.0
 10
161.0570974212469
 20
118.195040850827
 30
0.0
 10
161.1135177069705
 20
118.153407800114
 30
0.0
  0
SPLINE
  5
7C
330
1F
100
AcDbEntity
  8
0
  6
Continuous
 62
     7
370
    15
100
AcDbSpline
210
0.0
220
0.0
230
1.0
 70
     8
 71
     3
 72
    16
 73
    12
 74
     0
 42
0.00000001
 43
0.00000001
 12
1.0
 22
0.0
 32
0.0
 13
1.0
 23
0.0
 33
0.0
 40
0.0
 40
0.0
 40
0.0
 40
0.0
 40
0.0625000000000002
 40
0.0625000000000002
 40
0.1250000000000005
 40
0.1250000000000005
 40
0.2500000000000008
 40
0.2500000000000008
 40
0.4999999999999982
 40
0.4999999999999982
 40
1.0
 40
1.0
 40
1.0
 40
1.0
 10
161.1135177069386
 20
118.1534078000605
 30
0.0
 10
161.1252519413855
 20
118.1447489999163
 30
0.0
 10
161.1387836968645
 20
118.138144914681
 30
0.0
 10
161.1687711572943
 20
118.1369479475069
 30
0.0
 10
161.1837658637026
 20
118.1433696945728
 30
0.0
 10
161.2195062860973
 20
118.1730868479821
 30
0.0
 10
161.2335196230986
 20
118.2018942453654
 30
0.0
 10
161.2676637118799
 20
118.2869739669914
 30
0.0
 10
161.2786356159983
 20
118.3453489162611
 30
0.0
 10
161.3044811562646
 20
118.5210644410497
 30
0.0
 10
161.3084945958455
 20
118.6368594489141
 30
0.0
 10
161.3084945958455
 20
118.7509379745615
 30
0.0
  0
LINE
  5
7D
330
1F
100
AcDbEntity
  8
0
  6
Continuous
 62
     7
370
    15
100
AcDbLine
 10
161.3084946009
 20
130.6062787975
 30
0.0
 11
161.3084946009
 21
118.7509377691
 31
0.0
  0
SPLINE
  5
7E
330
1F
100
AcDbEntity
  8
0
  6
Continuous
 62
     7
370
    15
100
AcDbSpline
210
0.0
220
0.0
230
1.0
 70
     8
 71
     3
 72
    14
 73
    10
 74
     0
 42
0.00000001
 43
0.00000001
 12
1.0
 22
0.0
 32
0.0
 13
1.0
 23
0.0
 33
0.0
 40
0.0
 40
0.0
 40
0.0
 40
0.0
 40
0.4999999999999943
 40
0.4999999999999943
 40
0.7499999999999938
 40
0.7499999999999938
 40
0.8749999999999969
 40
0.8749999999999969
 40
1.0
 40
1.0
 40
1.0
 40
1.0
 10
161.2958948148921
 20
130.2527200236719
 30
0.0
 10
161.2886602095141
 20
130.235244502399
 30
0.0
 10
161.278454257277
 20
130.2158951988792
 30
0.0
 10
161.2460603648809
 20
130.1819256692885
 30
0.0
 10
161.2329051152874
 20
130.1694731077596
 30
0.0
 10
161.1966232165195
 20
130.1490281872036
 30
0.0
 10
161.1807907183908
 20
130.1418324123956
 30
0.0
 10
161.144815027403
 20
130.1316738912478
 30
0.0
 10
161.1276176240812
 20
130.1295120901951
 30
0.0
 10
161.1135177069662
 20
130.1289694295399
 30
0.0
  0
SPLINE
  5
7F
330
1F
100
AcDbEntity
  8
0
  6
Continuous
 62
     7
370
    15
100
AcDbSpline
210
0.0
220
0.0
230
1.0
 70
     8
 71
     3
 72
    14
 73
    10
 74
     0
 42
0.00000001
 43
0.00000001
 12
1.0
 22
0.0
 32
0.0
 13
1.0
 23
0.0
 33
0.0
 40
0.0
 40
0.0
 40
0.0
 40
0.0
 40
0.25
 40
0.25
 40
0.5
 40
0.5
 40
0.75
 40
0.75
 40
1.0
 40
1.0
 40
1.0
 40
1.0
 10
161.1135177069767
 20
130.1289694295425
 30
0.0
 10
161.0570706249184
 20
130.1267969621232
 30
0.0
 10
160.9862202408756
 20
130.1242988642058
 30
0.0
 10
160.8377838060592
 20
130.1206524054176
 30
0.0
 10
160.7685945543723
 20
130.1196846585663
 30
0.0
 10
160.6588830061314
 20
130.1184170992036
 30
0.0
 10
160.613641356789
 20
130.1180142582753
 30
0.0
 10
160.5339933386051
 20
130.1170032233476
 30
0.0
 10
160.4993664228391
 20
130.116412262953
 30
0.0
 10
160.4676335677178
 20
130.1156150231796
 30
0.0
  0
SPLINE
  5
80
330
1F
100
AcDbEntity
  8
0
  6
Continuous
 62
     7
370
    15
100
AcDbSpline
210
0.0
220
0.0
230
1.0
 70
     8
 71
     3
 72
    18
 73
    14
 74
     0
 42
0.00000001
 43
0.00000001
 12
1.0
 22
0.0
 32
0.0
 13
1.0
 23
0.0
 33
0.0
 40
0.0
 40
0.0
 40
0.0
 40
0.0
 40
0.2500000000000002
 40
0.2500000000000002
 40
0.3750000000000002
 40
0.3750000000000002
 40
0.5000000000000002
 40
0.5000000000000002
 40
0.6250000000000002
 40
0.6250000000000002
 40
0.7500000000000001
 40
0.7500000000000001
 40
1.0
 40
1.0
 40
1.0
 40
1.0
 10
160.1871742522858
 20
116.9683208864594
 30
0.0
 10
160.0518886459835
 20
116.3127665510382
 30
0.0
 10
159.9507208997406
 20
115.6331454572405
 30
0.0
 10
159.8478595568716
 20
114.5777814507465
 30
0.0
 10
159.8217567113483
 20
114.2189673861619
 30
0.0
 10
159.7868667278035
 20
113.4928544420389
 30
0.0
 10
159.7782804695135
 20
113.1307647630228
 30
0.0
 10
159.7781807599479
 20
112.4084551056044
 30
0.0
 10
159.7866691310964
 20
112.0482353034961
 30
0.0
 10
159.820812510617
 20
111.3296692344021
 30
0.0
 10
159.8466094924708
 20
110.9699035184867
 30
0.0
 10
159.9500106238588
 20
109.9032589314924
 30
0.0
 10
160.0518686160301
 20
109.22024599221
 30
0.0
 10
160.1871742522858
 20
108.5645945975145
 30
0.0
  0
LINE
  5
81
330
1F
100
AcDbEntity
  8
0
  6
Continuous
 62
     7
370
    15
100
AcDbLine
 10
159.3084946078
 20
117.9066100362
 30
0.0
 11
159.3084946078
 21
107.6263054478
 31
0.0
  0
LINE
  5
82
330
1F
100
AcDbEntity
  8
0
  6
Continuous
 62
     7
370
    15
100
AcDbLine
 10
133.0084945809
 20
117.5762363913
 30
0.0
 11
133.0084945809
 21
107.9566790926
 31
0.0
  0
LINE
  5
83
330
1F
100
AcDbEntity
  8
0
  6
Continuous
 62
     7
370
    15
100
AcDbLine
 10
131.5084952664
 20
117.1432235482
 30
0.0
 11
131.5084952664
 21
108.3896919358
 31
0.0
  0
LINE
  5
84
330
1F
100
AcDbEntity
  8
0
  6
Continuous
 62
     7
370
    15
100
AcDbLine
 10
159.3084946078
 20
95.2463597263
 30
0.0
 11
159.3084946078
 21
107.6263054478
 31
0.0
  0
ARC
  5
85
330
1F
100
AcDbEntity
  8
0
  6
Continuous
 62
     7
370
    15
100
AcDbCircle
 10
159.5084315068
 20
95.2413358463
 30
0.0
 40
0.2000000000000066
100
AcDbArc
 50
88.5608333333
 51
178.5608333333
  0
LINE
  5
86
330
1F
100
AcDbEntity
  8
0
  6
Continuous
 62
     7
370
    15
100
AcDbLine
 10
133.0084945809
 20
95.907107016
 30
0.0
 11
133.0084945809
 21
107.9566790926
 31
0.0
  0
LINE
  5
87
330
1F
100
AcDbEntity
  8
0
  6
Continuous
 62
     7
370
    15
100
AcDbLine
 10
133.0084945809
 20
95.907107016
 30
0.0
 11
159.3084946078
 21
95.2463597263
 31
0.0
  0
LINE
  5
88
330
1F
100
AcDbEntity
  8
0
  6
Continuous
 62
     7
370
    15
100
AcDbLine
 10
159.3084946078
 20
117.9066100362
 30
0.0
 11
159.3084946078
 21
130.2865557577
 31
0.0
  0
ARC
  5
89
330
1F
100
AcDbEntity
  8
0
  6
Continuous
 62
     7
370
    15
100
AcDbCircle
 10
159.5084315068
 20
130.2915796377
 30
0.0
 40
0.2000000000000066
100
AcDbArc
 50
181.4391666667
 51
271.4391666667
  0
LINE
  5
8A
330
1F
100
AcDbEntity
  8
0
  6
Continuous
 62
     7
370
    15
100
AcDbLine
 10
133.0084945809
 20
117.5762363913
 30
0.0
 11
133.0084945809
 21
129.625808468
 31
0.0
  0
LINE
  5
8B
330
1F
100
AcDbEntity
  8
0
  6
Continuous
 62
     7
370
    15
100
AcDbLine
 10
133.0084945809
 20
129.625808468
 30
0.0
 11
159.3084946078
 21
130.2865557577
 31
0.0
  0
LINE
  5
8C
330
1F
100
AcDbEntity
  8
0
  6
Continuous
 62
     7
370
    15
100
AcDbLine
 10
159.5134547249
 20
95.4412725027
 30
0.0
 11
160.4676335853
 21
95.4173002596
 31
0.0
  0
LINE
  5
8D
330
1F
100
AcDbEntity
  8
0
  6
Continuous
 62
     7
370
    15
100
AcDbLine
 10
159.5134547249
 20
130.0916429813
 30
0.0
 11
160.4676335853
 21
130.1156152244
 31
0.0
  0
LINE
  5
8E
330
1F
100
AcDbEntity
  8
0
  6
Continuous
 62
     7
370
    15
100
AcDbLine
 10
131.5084952664
 20
128.7597827817
 30
0.0
 11
133.0084945809
 21
129.625808468
 31
0.0
  0
LINE
  5
8F
330
1F
100
AcDbEntity
  8
0
  6
Continuous
 62
     7
370
    15
100
AcDbLine
 10
131.5084952664
 20
117.1432235482
 30
0.0
 11
131.5084952664
 21
128.7597827817
 31
0.0
  0
LINE
  5
90
330
1F
100
AcDbEntity
  8
0
  6
Continuous
 62
     7
370
    15
100
AcDbLine
 10
131.5084952664
 20
96.7731327022
 30
0.0
 11
133.0084945809
 21
95.907107016
 31
0.0
  0
LINE
  5
91
330
1F
100
AcDbEntity
  8
0
  6
Continuous
 62
     7
370
    15
100
AcDbLine
 10
131.5084952664
 20
96.7731327022
 30
0.0
 11
131.5084952664
 21
108.3896919358
 31
0.0
  0
SPLINE
  5
92
330
1F
100
AcDbEntity
  8
0
  6
Continuous
 62
     7
370
    15
100
AcDbSpline
210
0.0
220
0.0
230
1.0
 70
     8
 71
     3
 72
    16
 73
    12
 74
     0
 42
0.00000001
 43
0.00000001
 12
1.0
 22
0.0
 32
0.0
 13
1.0
 23
0.0
 33
0.0
 40
0.0
 40
0.0
 40
0.0
 40
0.0
 40
0.2499999999999953
 40
0.2499999999999953
 40
0.3749999999999946
 40
0.3749999999999946
 40
0.4999999999999938
 40
0.4999999999999938
 40
0.7499999999999969
 40
0.7499999999999969
 40
1.0
 40
1.0
 40
1.0
 40
1.0
 10
222.9126980809151
 20
125.0609558535172
 30
0.0
 10
222.9809194065943
 20
125.1084252294782
 30
0.0
 10
223.0812997488594
 20
125.1451340491273
 30
0.0
 10
223.2808279391406
 20
125.1878384162785
 30
0.0
 10
223.3561560868942
 20
125.2000371738606
 30
0.0
 10
223.5194217299516
 20
125.2203128665207
 30
0.0
 10
223.6076827451088
 20
125.2284997428569
 30
0.0
 10
223.892206253363
 20
125.248559586576
 30
0.0
 10
224.1111320119208
 20
125.2559426276777
 30
0.0
 10
224.5781242764922
 20
125.2643089326723
 30
0.0
 10
224.8305545273842
 20
125.2655252814962
 30
0.0
 10
225.0942810334724
 20
125.266050328945
 30
0.0
  0
ELLIPSE
  5
93
330
1F
100
AcDbEntity
  8
0
  6
Continuous
 62
     7
370
    15
100
AcDbEllipse
 10
223.7458600818
 20
112.766457742
 30
0.0
 11
-0.2516063682710126
 21
12.49981921343799
 31
0.0
210
0.0
220
0.0
230
1.0
 40
0.2671959542
 41
0.176200329077805
 42
2.815009419910941
  0
SPLINE
  5
94
330
1F
100
AcDbEntity
  8
0
  6
Continuous
 62
     7
370
    15
100
AcDbSpline
210
0.0
220
0.0
230
1.0
 70
     8
 71
     3
 72
    16
 73
    12
 74
     0
 42
0.00000001
 43
0.00000001
 12
1.0
 22
0.0
 32
0.0
 13
1.0
 23
0.0
 33
0.0
 40
0.0
 40
0.0
 40
0.0
 40
0.0
 40
0.2500000000000048
 40
0.2500000000000048
 40
0.375000000000007
 40
0.375000000000007
 40
0.5000000000000093
 40
0.5000000000000093
 40
0.7500000000000047
 40
0.7500000000000047
 40
1.0
 40
1.0
 40
1.0
 40
1.0
 10
225.0942810334724
 20
100.4025558964686
 30
0.0
 10
224.8305597481605
 20
100.4121260032886
 30
0.0
 10
224.5815344891452
 20
100.4270473915604
 30
0.0
 10
224.2295083453242
 20
100.460770687921
 30
0.0
 10
224.1152505580869
 20
100.4740539688285
 30
0.0
 10
223.9007089215091
 20
100.5045852670491
 30
0.0
 10
223.799645576892
 20
100.5218812747884
 30
0.0
 10
223.5148032396021
 20
100.5810364101923
 30
0.0
 10
223.3481762512112
 20
100.6309663082973
 30
0.0
 10
223.082978747261
 20
100.7513039436992
 30
0.0
 10
222.9809248605976
 20
100.8227648285783
 30
0.0
 10
222.9126980809151
 20
100.9057615965231
 30
0.0
  0
ELLIPSE
  5
95
330
1F
100
AcDbEntity
  8
0
  6
Continuous
 62
     7
370
    15
100
AcDbEllipse
 10
221.7885482195
 20
116.3393124521
 30
0.0
 11
0.08291753437345051
 21
2.335796540899949
 31
0.0
210
0.0
220
0.0
230
1.0
 40
0.2540400005
 41
0.0
 42
6.283185307179586
  0
SPLINE
  5
96
330
1F
100
AcDbEntity
  8
0
  6
Continuous
 62
     7
370
    15
100
AcDbSpline
210
0.0
220
0.0
230
1.0
 70
     8
 71
     3
 72
     8
 73
     4
 74
     0
 42
0.00000001
 43
0.00000001
 12
1.0
 22
0.0
 32
0.0
 13
1.0
 23
0.0
 33
0.0
 40
0.0
 40
0.0
 40
0.0
 40
0.0
 40
1.0
 40
1.0
 40
1.0
 40
1.0
 10
225.8104755597823
 20
100.0880677377206
 30
0.0
 10
225.8074461460982
 20
100.091097033104
 30
0.0
 10
225.804416897623
 20
100.0941268060544
 30
0.0
 10
225.8013878146589
 20
100.0971570567743
 30
0.0
  0
SPLINE
  5
97
330
1F
100
AcDbEntity
  8
0
  6
Continuous
 62
     7
370
    15
100
AcDbSpline
210
0.0
220
0.0
230
1.0
 70
     8
 71
     3
 72
    10
 73
     6
 74
     0
 42
0.00000001
 43
0.00000001
 12
1.0
 22
0.0
 32
0.0
 13
1.0
 23
0.0
 33
0.0
 40
0.0
 40
0.0
 40
0.0
 40
0.0
 40
0.5
 40
0.5
 40
1.0
 40
1.0
 40
1.0
 40
1.0
 10
225.8013878146589
 20
100.0971570567744
 30
0.0
 10
225.7071624681787
 20
100.191418728502
 30
0.0
 10
225.5958935073255
 20
100.2657395781109
 30
0.0
 10
225.3533265373265
 20
100.369379359523
 30
0.0
 10
225.2238211477338
 20
100.3978550520548
 30
0.0
 10
225.0942810334724
 20
100.4025558964689
 30
0.0
  0
SPLINE
  5
98
330
1F
100
AcDbEntity
  8
0
  6
Continuous
 62
     7
370
    15
100
AcDbSpline
210
0.0
220
0.0
230
1.0
 70
     8
 71
     3
 72
    10
 73
     6
 74
     0
 42
0.00000001
 43
0.00000001
 12
1.0
 22
0.0
 32
0.0
 13
1.0
 23
0.0
 33
0.0
 40
0.0
 40
0.0
 40
0.0
 40
0.0
 40
0.5
 40
0.5
 40
1.0
 40
1.0
 40
1.0
 40
1.0
 10
225.0942810334724
 20
125.266050328945
 30
0.0
 10
225.2238114479656
 20
125.2663082082711
 30
0.0
 10
225.3529259135136
 20
125.2915515603601
 30
0.0
 10
225.5955924767799
 20
125.3913122494971
 30
0.0
 10
225.7071442765504
 20
125.4651092536368
 30
0.0
 10
225.8013878146593
 20
125.5593492946789
 30
0.0
  0
SPLINE
  5
99
330
1F
100
AcDbEntity
  8
0
  6
Continuous
 62
     7
370
    15
100
AcDbSpline
210
0.0
220
0.0
230
1.0
 70
     8
 71
     3
 72
     8
 73
     4
 74
     0
 42
0.00000001
 43
0.00000001
 12
1.0
 22
0.0
 32
0.0
 13
1.0
 23
0.0
 33
0.0
 40
0.0
 40
0.0
 40
0.0
 40
0.0
 40
1.0
 40
1.0
 40
1.0
 40
1.0
 10
225.8013878146589
 20
125.5593492946794
 30
0.0
 10
225.804416897623
 20
125.5623782652442
 30
0.0
 10
225.8074461460982
 20
125.5654073980167
 30
0.0
 10
225.8104755597823
 20
125.5684366934001
 30
0.0
  0
LINE
  5
9A
330
1F
100
AcDbEntity
  8
0
  6
Continuous
 62
     7
370
    15
100
AcDbLine
 10
242.1127944988
 20
99.8900635372
 30
0.0
 11
226.0084911984
 21
99.8900635372
 31
0.0
  0
ELLIPSE
  5
9B
330
1F
100
AcDbEntity
  8
0
  6
Continuous
 62
     7
370
    15
100
AcDbEllipse
 10
246.0881018744
 20
112.766457742
 30
0.0
 11
4.247080252763055
 21
12.99357047085398
 31
0.0
210
0.0
220
0.0
230
1.0
 40
0.0962569477
 41
3.173044837569643
 42
3.311053936035298
  0
LINE
  5
9C
330
1F
100
AcDbEntity
  8
0
  6
Continuous
 62
     7
370
    15
100
AcDbLine
 10
226.0084911984
 20
99.8900635372
 30
0.0
 11
226.0084911984
 21
99.7664574738
 31
0.0
  0
LINE
  5
9D
330
1F
100
AcDbEntity
  8
0
  6
Continuous
 62
     7
370
    15
100
AcDbLine
 10
225.8104771179
 20
125.5684364791
 30
0.0
 11
226.2445702952
 21
126.002479365
 31
0.0
  0
LINE
  5
9E
330
1F
100
AcDbEntity
  8
0
  6
Continuous
 62
     7
370
    15
100
AcDbLine
 10
226.0084911984
 20
99.8900635372
 30
0.0
 11
225.8104771179
 21
100.0880673732
 31
0.0
  0
LINE
  5
9F
330
1F
100
AcDbEntity
  8
0
  6
Continuous
 62
     7
370
    15
100
AcDbLine
 10
240.6799658936
 20
126.5011523123
 30
0.0
 11
240.6606465381
 21
126.4400473068
 31
0.0
  0
LINE
  5
A0
330
1F
100
AcDbEntity
  8
0
  6
Continuous
 62
     7
370
    15
100
AcDbLine
 10
238.2542952698
 20
118.9697943832
 30
0.0
 11
236.0542356771
 21
118.2778077404
 31
0.0
  0
ARC
  5
A1
330
1F
100
AcDbEntity
  8
0
  6
Continuous
 62
     7
370
    15
100
AcDbCircle
 10
236.50815185
 20
116.8344134991
 30
0.0
 40
1.513085201760653
100
AcDbArc
 50
107.4572304789
 51
287.6231655537
  0
LINE
  5
A2
330
1F
100
AcDbEntity
  8
0
  6
Continuous
 62
     7
370
    15
100
AcDbLine
 10
236.9662463468
 20
115.3923399019
 30
0.0
 11
237.7597853344
 21
115.6419331877
 31
0.0
  0
LINE
  5
A3
330
1F
100
AcDbEntity
  8
0
  6
Continuous
 62
     7
370
    15
100
AcDbLine
 10
248.1215685409
 20
118.9010315779
 30
0.0
 11
242.1127944988
 21
99.8900635372
 31
0.0
  0
LINE
  5
A4
330
1F
100
AcDbEntity
  8
0
  6
Continuous
 62
     7
370
    15
100
AcDbLine
 10
226.2445702952
 20
126.002479365
 30
0.0
 11
235.624828915
 21
126.002479365
 31
0.0
  0
ELLIPSE
  5
A5
330
1F
100
AcDbEntity
  8
0
  6
Continuous
 62
     7
370
    15
100
AcDbEllipse
 10
235.6248286419
 20
152.1339248995
 30
0.0
 11
5.684341886080801E-14
 21
26.1314451361938
 31
0.0
210
0.0
220
0.0
230
1.0
 40
0.9949698482
 41
3.14159265358981
 42
3.337267167157301
  0
ARC
  5
A6
330
1F
100
AcDbEntity
  8
0
  6
Continuous
 62
     7
370
    15
100
AcDbCircle
 10
236.508344348
 20
116.6831028788
 30
0.0
 40
1.247232202755192
100
AcDbArc
 50
107.4487168505
 51
287.6314731386
  0
LINE
  5
A7
330
1F
100
AcDbEntity
  8
0
  6
Continuous
 62
     7
370
    15
100
AcDbLine
 10
236.8861228031
 20
115.4944601207
 30
0.0
 11
237.5307097834
 21
115.6972013618
 31
0.0
  0
LINE
  5
A8
330
1F
100
AcDbEntity
  8
0
  6
Continuous
 62
     7
370
    15
100
AcDbLine
 10
236.1343592208
 20
117.8729445877
 30
0.0
 11
238.1033614081
 21
118.4922573361
 31
0.0
  0
ARC
  5
A9
330
1F
100
AcDbEntity
  8
0
  6
Continuous
 62
     7
370
    15
100
AcDbCircle
 10
236.5074625891
 20
116.5781687492
 30
0.0
 40
1.24725349678348
100
AcDbArc
 50
107.4059548056
 51
177.5546349482
  0
LINE
  5
AA
330
1F
100
AcDbEntity
  8
0
  6
Continuous
 62
     7
370
    15
100
AcDbLine
 10
238.0666449469
 20
118.3760720509
 30
0.0
 11
236.1343592208
 21
117.7683095652
 31
0.0
  0
CIRCLE
  5
AB
330
1F
100
AcDbEntity
  8
0
  6
Continuous
 62
     7
370
    15
100
AcDbCircle
 10
244.3416621606
 20
122.5941651421
 30
0.0
 40
2.620529623025089
  0
CIRCLE
  5
AC
330
1F
100
AcDbEntity
  8
0
  6
Continuous
 62
     7
370
    15
100
AcDbCircle
 10
244.3404866592
 20
122.6132897312
 30
0.0
 40
1.796712046877937
  0
ARC
  5
AD
330
1F
100
AcDbEntity
  8
0
  6
Continuous
 62
     7
370
    15
100
AcDbCircle
 10
244.3378145371
 20
122.6074821705
 30
0.0
 40
1.676099846994281
100
AcDbArc
 50
32.9594835475
 51
91.4832630545
  0
ARC
  5
AE
330
1F
100
AcDbEntity
  8
0
  6
Continuous
 62
     7
370
    15
100
AcDbCircle
 10
244.3363064773
 20
122.6081046988
 30
0.0
 40
1.675439155012213
100
AcDbArc
 50
91.4322595629
 51
151.4775414937
  0
ARC
  5
AF
330
1F
100
AcDbEntity
  8
0
  6
Continuous
 62
     7
370
    15
100
AcDbCircle
 10
244.3296901773
 20
122.6126339511
 30
0.0
 40
1.667463344584583
100
AcDbArc
 50
151.5057255397
 51
210.239020783
  0
LINE
  5
B0
330
1F
100
AcDbEntity
  8
0
  6
Continuous
 62
     7
370
    15
100
AcDbLine
 10
242.9336696666
 20
121.7007134314
 30
0.0
 11
242.8891151946
 21
121.772885343
 31
0.0
  0
ARC
  5
B1
330
1F
100
AcDbEntity
  8
0
  6
Continuous
 62
     7
370
    15
100
AcDbCircle
 10
244.336514995
 20
122.6176793009
 30
0.0
 40
1.675947917206941
100
AcDbArc
 50
213.1705241022
 51
269.5448950853
  0
LINE
  5
B2
330
1F
100
AcDbEntity
  8
0
  6
Continuous
 62
     7
370
    15
100
AcDbLine
 10
244.4429635804
 20
120.9450597147
 30
0.0
 11
244.3232029479
 21
120.9417842533
 31
0.0
  0
ARC
  5
B3
330
1F
100
AcDbEntity
  8
0
  6
Continuous
 62
     7
370
    15
100
AcDbCircle
 10
244.3381562033
 20
122.6172563013
 30
0.0
 40
1.67547784541854
100
AcDbArc
 50
273.586405838
 51
329.3231813961
  0
LINE
  5
B4
330
1F
100
AcDbEntity
  8
0
  6
Continuous
 62
     7
370
    15
100
AcDbLine
 10
245.836400966
 20
121.8674332107
 30
0.0
 11
245.7791656059
 21
121.7624359037
 31
0.0
  0
ARC
  5
B5
330
1F
100
AcDbEntity
  8
0
  6
Continuous
 62
     7
370
    15
100
AcDbCircle
 10
244.3447891152
 20
122.6126598684
 30
0.0
 40
1.667413771263077
100
AcDbArc
 50
333.4527522504
 51
30.0259449807
  0
LINE
  5
B6
330
1F
100
AcDbEntity
  8
0
  6
Continuous
 62
     7
370
    15
100
AcDbLine
 10
245.7441553276
 20
123.5193573142
 30
0.0
 11
245.7884341281
 21
123.4470205585
 31
0.0
  0
SPLINE
  5
B7
330
1F
100
AcDbEntity
  8
0
  6
Continuous
 62
     7
370
    15
100
AcDbSpline
210
0.0
220
0.0
230
1.0
 70
     8
 71
     3
 72
    11
 73
     7
 74
     0
 42
0.00000001
 43
0.00000001
 12
1.0
 22
0.0
 32
0.0
 13
1.0
 23
0.0
 33
0.0
 40
0.0
 40
0.0
 40
0.0
 40
0.0
 40
0.2431053768943284
 40
0.5182689273516293
 40
0.7947667045153165
 40
1.0
 40
1.0
 40
1.0
 40
1.0
 10
242.9336696666081
 20
121.7007134313695
 30
0.0
 10
242.9566392264218
 20
121.6767893698417
 30
0.0
 10
243.0056073293839
 20
121.6257863938307
 30
0.0
 10
243.1063642601407
 20
121.5814674316509
 30
0.0
 10
243.2097579811964
 20
121.5690570918417
 30
0.0
 10
243.2726112879762
 20
121.5841576999953
 30
0.0
 10
243.2993888657887
 20
121.5905910561792
 30
0.0
  0
SPLINE
  5
B8
330
1F
100
AcDbEntity
  8
0
  6
Continuous
 62
     7
370
    15
100
AcDbSpline
210
0.0
220
0.0
230
1.0
 70
     8
 71
     3
 72
    12
 73
     8
 74
     0
 42
0.00000001
 43
0.00000001
 12
1.0
 22
0.0
 32
0.0
 13
1.0
 23
0.0
 33
0.0
 40
0.0
 40
0.0
 40
0.0
 40
0.0
 40
0.2058128664094037
 40
0.4120162777971223
 40
0.614075527608416
 40
0.8132123270578733
 40
0.9999999999999999
 40
0.9999999999999999
 40
0.9999999999999999
 40
0.9999999999999999
 10
243.2993888657887
 20
121.5905910561792
 30
0.0
 10
243.363337816593
 20
121.6043327796132
 30
0.0
 10
243.4913570660163
 20
121.6318423024071
 30
0.0
 10
243.6887787232233
 20
121.5910858139521
 30
0.0
 10
243.8592496215414
 20
121.4940731278186
 30
0.0
 10
243.988441304625
 20
121.3532848650224
 30
0.0
 10
244.0299965859771
 20
121.2393997124692
 30
0.0
 10
244.0501093667348
 20
121.1842792312615
 30
0.0
  0
SPLINE
  5
B9
330
1F
100
AcDbEntity
  8
0
  6
Continuous
 62
     7
370
    15
100
AcDbSpline
210
0.0
220
0.0
230
1.0
 70
     8
 71
     3
 72
    11
 73
     7
 74
     0
 42
0.00000001
 43
0.00000001
 12
1.0
 22
0.0
 32
0.0
 13
1.0
 23
0.0
 33
0.0
 40
0.0
 40
0.0
 40
0.0
 40
0.0
 40
0.2908663573595582
 40
0.5839620339238757
 40
0.874596379880595
 40
1.0
 40
1.0
 40
1.0
 40
1.0
 10
244.0501093667348
 20
121.1842792312615
 30
0.0
 10
244.0632037960469
 20
121.1494087313513
 30
0.0
 10
244.0894930157545
 20
121.0794004697003
 30
0.0
 10
244.1711219775555
 20
120.9982231127625
 30
0.0
 10
244.2541860569938
 20
120.9553289499832
 30
0.0
 10
244.3072179032056
 20
120.9449213488249
 30
0.0
 10
244.3232029479344
 20
120.9417842532508
 30
0.0
  0
SPLINE
  5
BA
330
1F
100
AcDbEntity
  8
0
  6
Continuous
 62
     7
370
    15
100
AcDbSpline
210
0.0
220
0.0
230
1.0
 70
     8
 71
     3
 72
    12
 73
     8
 74
     0
 42
0.00000001
 43
0.00000001
 12
1.0
 22
0.0
 32
0.0
 13
1.0
 23
0.0
 33
0.0
 40
0.0
 40
0.0
 40
0.0
 40
0.0
 40
0.2058404805518997
 40
0.4120612791353468
 40
0.6141369290651888
 40
0.8132753233678952
 40
1.0
 40
1.0
 40
1.0
 40
1.0
 10
244.7020575207074
 20
121.201510561537
 30
0.0
 10
244.7215167454032
 20
121.2632936568172
 30
0.0
 10
244.7604711483353
 20
121.3869739999734
 30
0.0
 10
244.8936299108582
 20
121.5366129071038
 30
0.0
 10
245.0631796230625
 20
121.6354111258816
 30
0.0
 10
245.2510012400579
 20
121.6771839536959
 30
0.0
 10
245.3717438693274
 20
121.6567806515915
 30
0.0
 10
245.4301729601224
 20
121.6469072009437
 30
0.0
  0
SPLINE
  5
BB
330
1F
100
AcDbEntity
  8
0
  6
Continuous
 62
     7
370
    15
100
AcDbSpline
210
0.0
220
0.0
230
1.0
 70
     8
 71
     3
 72
    11
 73
     7
 74
     0
 42
0.00000001
 43
0.00000001
 12
1.0
 22
0.0
 32
0.0
 13
1.0
 23
0.0
 33
0.0
 40
0.0
 40
0.0
 40
0.0
 40
0.0
 40
0.292889932751063
 40
0.5864300056627918
 40
0.8775192613667513
 40
1.0
 40
1.0
 40
1.0
 40
1.0
 10
245.4301729601224
 20
121.6469072009437
 30
0.0
 10
245.4675421239629
 20
121.6409687504389
 30
0.0
 10
245.542363401556
 20
121.6290786676
 30
0.0
 10
245.6545559378129
 20
121.6596968642899
 30
0.0
 10
245.7332643051557
 20
121.7101613715298
 30
0.0
 10
245.7686777455372
 20
121.7504918414563
 30
0.0
 10
245.7791656058629
 20
121.7624359036796
 30
0.0
  0
SPLINE
  5
BC
330
1F
100
AcDbEntity
  8
0
  6
Continuous
 62
     7
370
    15
100
AcDbSpline
210
0.0
220
0.0
230
1.0
 70
     8
 71
     3
 72
    11
 73
     7
 74
     0
 42
0.00000001
 43
0.00000001
 12
1.0
 22
0.0
 32
0.0
 13
1.0
 23
0.0
 33
0.0
 40
0.0
 40
0.0
 40
0.0
 40
0.0
 40
0.2669140471709262
 40
0.554616796449391
 40
0.8439119055756449
 40
1.0
 40
1.0
 40
1.0
 40
1.0
 10
244.4429635804494
 20
120.9450597147457
 30
0.0
 10
244.4763055107742
 20
120.955169859232
 30
0.0
 10
244.5455862203516
 20
120.9761775806541
 30
0.0
 10
244.630728561514
 20
121.0476196415579
 30
0.0
 10
244.6823466877888
 20
121.1278118292141
 30
0.0
 10
244.69694235335
 20
121.1823849694622
 30
0.0
 10
244.7020575207074
 20
121.201510561537
 30
0.0
  0
ARC
  5
BD
330
1F
100
AcDbEntity
  8
0
  6
Continuous
 62
     7
370
    15
100
AcDbCircle
 10
245.519196258
 20
121.8741437819
 30
0.0
 40
0.334053813145364
100
AcDbArc
 50
8.0467689088
 51
48.3508734409
  0
SPLINE
  5
BE
330
1F
100
AcDbEntity
  8
0
  6
Continuous
 62
     7
370
    15
100
AcDbSpline
210
0.0
220
0.0
230
1.0
 70
     8
 71
     3
 72
    11
 73
     7
 74
     0
 42
0.00000001
 43
0.00000001
 12
1.0
 22
0.0
 32
0.0
 13
1.0
 23
0.0
 33
0.0
 40
0.0
 40
0.0
 40
0.0
 40
0.0
 40
0.2657624501699998
 40
0.5530069315028865
 40
0.8418290704265661
 40
0.9999999999999999
 40
0.9999999999999999
 40
0.9999999999999999
 40
0.9999999999999999
 10
245.8364009660085
 20
121.8674332107417
 30
0.0
 10
245.8442646950468
 20
121.9011372885027
 30
0.0
 10
245.8606277917255
 20
121.9712698019929
 30
0.0
 10
245.8408797791745
 20
122.0801521134368
 30
0.0
 10
245.7964193691107
 20
122.1648105075004
 30
0.0
 10
245.7556307292903
 20
122.2046481006006
 30
0.0
 10
245.741197447141
 20
122.218744849693
 30
0.0
  0
LWPOLYLINE
  5
BF
330
1F
100
AcDbEntity
  8
0
  6
Continuous
 62
     7
370
    15
100
AcDbPolyline
 90
        3
 70
   128
 43
0.0
 10
242.8635820549
 20
121.8659477512
 10
242.8933769267
 20
121.9597114454
 10
242.9584577483
 20
122.0502397249
  0
SPLINE
  5
C0
330
1F
100
AcDbEntity
  8
0
  6
Continuous
 62
     7
370
    15
100
AcDbSpline
210
0.0
220
0.0
230
1.0
 70
     8
 71
     3
 72
    11
 73
     7
 74
     0
 42
0.00000001
 43
0.00000001
 12
1.0
 22
0.0
 32
0.0
 13
1.0
 23
0.0
 33
0.0
 40
0.0
 40
0.0
 40
0.0
 40
0.0
 40
0.2794044292693081
 40
0.559624450588602
 40
0.8375016789049727
 40
0.9999999999999999
 40
0.9999999999999999
 40
0.9999999999999999
 40
0.9999999999999999
 10
242.9584577482541
 20
122.1451973746531
 30
0.0
 10
242.9342824946144
 20
122.116497417063
 30
0.0
 10
242.8858614188593
 20
122.0590137256261
 30
0.0
 10
242.8556338941821
 20
121.9481504070964
 30
0.0
 10
242.8597380767779
 20
121.8492163334818
 30
0.0
 10
242.8811969010045
 20
121.7934595599183
 30
0.0
 10
242.8891151946385
 20
121.7728853429668
 30
0.0
  0
SPLINE
  5
C1
330
1F
100
AcDbEntity
  8
0
  6
Continuous
 62
     7
370
    15
100
AcDbSpline
210
0.0
220
0.0
230
1.0
 70
     8
 71
     3
 72
    12
 73
     8
 74
     0
 42
0.00000001
 43
0.00000001
 12
1.0
 22
0.0
 32
0.0
 13
1.0
 23
0.0
 33
0.0
 40
0.0
 40
0.0
 40
0.0
 40
0.0
 40
0.2057933904290654
 40
0.4120357632924481
 40
0.6141302256681721
 40
0.8132640782267908
 40
1.0
 40
1.0
 40
1.0
 40
1.0
 10
245.741197447141
 20
122.218744849693
 30
0.0
 10
245.6967065557829
 20
122.2660907223203
 30
0.0
 10
245.6076277066418
 20
122.3608857627539
 30
0.0
 10
245.5433420465087
 20
122.5501828417564
 30
0.0
 10
245.5424057987596
 20
122.7461080113691
 30
0.0
 10
245.6010592840599
 20
122.9298450975872
 30
0.0
 10
245.6802579310979
 20
123.024599342055
 30
0.0
 10
245.7185849350293
 20
123.0704542453401
 30
0.0
  0
SPLINE
  5
C2
330
1F
100
AcDbEntity
  8
0
  6
Continuous
 62
     7
370
    15
100
AcDbSpline
210
0.0
220
0.0
230
1.0
 70
     8
 71
     3
 72
    11
 73
     7
 74
     0
 42
0.00000001
 43
0.00000001
 12
1.0
 22
0.0
 32
0.0
 13
1.0
 23
0.0
 33
0.0
 40
0.0
 40
0.0
 40
0.0
 40
0.0
 40
0.280232023035589
 40
0.5612861604190116
 40
0.8399911460333715
 40
1.0
 40
1.0
 40
1.0
 40
1.0
 10
245.7185849350293
 20
123.0704542453401
 30
0.0
 10
245.7427569380688
 20
123.0999477296168
 30
0.0
 10
245.7911718573514
 20
123.159021222959
 30
0.0
 10
245.8214034618093
 20
123.271609551499
 30
0.0
 10
245.8173089525046
 20
123.3710861132708
 30
0.0
 10
245.796150935267
 20
123.4267270508913
 30
0.0
 10
245.7884341281255
 20
123.4470205585472
 30
0.0
  0
SPLINE
  5
C3
330
1F
100
AcDbEntity
  8
0
  6
Continuous
 62
     7
370
    15
100
AcDbSpline
210
0.0
220
0.0
230
1.0
 70
     8
 71
     3
 72
    12
 73
     8
 74
     0
 42
0.00000001
 43
0.00000001
 12
1.0
 22
0.0
 32
0.0
 13
1.0
 23
0.0
 33
0.0
 40
0.0
 40
0.0
 40
0.0
 40
0.0
 40
0.0091731645887257
 40
0.2576785847283232
 40
0.5061918635561113
 40
0.7560357480834832
 40
0.9999999999999999
 40
0.9999999999999999
 40
0.9999999999999999
 40
0.9999999999999999
 10
242.8642153542836
 20
123.4081322531216
 30
0.0
 10
242.8635671311332
 20
123.406926469085
 30
0.0
 10
242.8453582325175
 20
123.3730554182579
 30
0.0
 10
242.8212424002437
 20
123.2994475427988
 30
0.0
 10
242.8236239818563
 20
123.1862022193259
 30
0.0
 10
242.8609651752648
 20
123.0784873599425
 30
0.0
 10
242.9110841332281
 20
123.0238835829825
 30
0.0
 10
242.9358452361424
 20
122.9969067703001
 30
0.0
  0
SPLINE
  5
C4
330
1F
100
AcDbEntity
  8
0
  6
Continuous
 62
     7
370
    15
100
AcDbSpline
210
0.0
220
0.0
230
1.0
 70
     8
 71
     3
 72
    12
 73
     8
 74
     0
 42
0.00000001
 43
0.00000001
 12
1.0
 22
0.0
 32
0.0
 13
1.0
 23
0.0
 33
0.0
 40
0.0
 40
0.0
 40
0.0
 40
0.0
 40
0.2057519779924419
 40
0.4119607507592345
 40
0.6140155786174196
 40
0.8131404293782998
 40
1.0
 40
1.0
 40
1.0
 40
1.0
 10
242.9358452361424
 20
122.9969067703001
 30
0.0
 10
242.9803263589386
 20
122.9482058166751
 30
0.0
 10
243.069387358111
 20
122.8506957873
 30
0.0
 10
243.1336850389308
 20
122.6592432717574
 30
0.0
 10
243.1346351761961
 20
122.4635088982703
 30
0.0
 10
243.0760244355788
 20
122.2820576532317
 30
0.0
 10
242.9968075625483
 20
122.1898406863528
 30
0.0
 10
242.9584577482541
 20
122.1451973746531
 30
0.0
  0
ARC
  5
C5
330
1F
100
AcDbEntity
  8
0
  6
Continuous
 62
     7
370
    15
100
AcDbCircle
 10
242.5477732058
 20
122.4656216179
 30
0.0
 40
0.5841266218889001
100
AcDbArc
 50
314.6741963536
 51
359.9875842887
  0
ARC
  5
C6
330
1F
100
AcDbEntity
  8
0
  6
Continuous
 62
     7
370
    15
100
AcDbCircle
 10
246.1293939242
 20
122.5604063892
 30
0.0
 40
0.5842585328964575
100
AcDbArc
 50
180.0175615244
 51
228.3617061459
  0
ARC
  5
C7
330
1F
100
AcDbEntity
  8
0
  6
Continuous
 62
     7
370
    15
100
AcDbCircle
 10
245.4828463945
 20
123.2121425612
 30
0.0
 40
0.3349093373719076
100
AcDbArc
 50
6.5507975731
 51
108.3060494403
  0
SPLINE
  5
C8
330
1F
100
AcDbEntity
  8
0
  6
Continuous
 62
     7
370
    15
100
AcDbSpline
210
0.0
220
0.0
230
1.0
 70
     8
 71
     3
 72
    11
 73
     7
 74
     0
 42
0.00000001
 43
0.00000001
 12
1.0
 22
0.0
 32
0.0
 13
1.0
 23
0.0
 33
0.0
 40
0.0
 40
0.0
 40
0.0
 40
0.0
 40
0.2423643062723843
 40
0.5166849326330111
 40
0.7923390587593652
 40
1.0
 40
1.0
 40
1.0
 40
1.0
 10
245.7441553276379
 20
123.5193573142402
 30
0.0
 10
245.7212736988435
 20
123.54322874651
 30
0.0
 10
245.6724934431448
 20
123.594119117142
 30
0.0
 10
245.5718998874853
 20
123.6375424918837
 30
0.0
 10
245.4681217297767
 20
123.6486853736751
 30
0.0
 10
245.4048423907338
 20
123.6321599421846
 30
0.0
 10
245.3776538174947
 20
123.6250596324913
 30
0.0
  0
ARC
  5
C9
330
1F
100
AcDbEntity
  8
0
  6
Continuous
 62
     7
370
    15
100
AcDbCircle
 10
243.1585838611
 20
123.150844923
 30
0.0
 40
0.3348137791466413
100
AcDbArc
 50
74.7110830285
 51
174.4656905406
  0
SPLINE
  5
CA
330
1F
100
AcDbEntity
  8
0
  6
Continuous
 62
     7
370
    15
100
AcDbSpline
210
0.0
220
0.0
230
1.0
 70
     8
 71
     3
 72
    11
 73
     7
 74
     0
 42
0.00000001
 43
0.00000001
 12
1.0
 22
0.0
 32
0.0
 13
1.0
 23
0.0
 33
0.0
 40
0.0
 40
0.0
 40
0.0
 40
0.0
 40
0.2535059569022345
 40
0.5075761223202909
 40
0.7595128310261534
 40
1.0
 40
1.0
 40
1.0
 40
1.0
 10
243.246869723161
 20
123.5687434877269
 30
0.0
 10
243.2094846113534
 20
123.5754839638217
 30
0.0
 10
243.1346311825989
 20
123.5889799177654
 30
0.0
 10
243.0226345346929
 20
123.5600133986123
 30
0.0
 10
242.9258794764292
 20
123.4998598663859
 30
0.0
 10
242.8844489559325
 20
123.4382304678113
 30
0.0
 10
242.8642153542836
 20
123.4081322531216
 30
0.0
  0
SPLINE
  5
CB
330
1F
100
AcDbEntity
  8
0
  6
Continuous
 62
     7
370
    15
100
AcDbSpline
210
0.0
220
0.0
230
1.0
 70
     8
 71
     3
 72
    12
 73
     8
 74
     0
 42
0.00000001
 43
0.00000001
 12
1.0
 22
0.0
 32
0.0
 13
1.0
 23
0.0
 33
0.0
 40
0.0
 40
0.0
 40
0.0
 40
0.0
 40
0.2058603179165755
 40
0.4121056943384918
 40
0.6141966306864449
 40
0.8133179336566481
 40
1.0
 40
1.0
 40
1.0
 40
1.0
 10
245.3776538174947
 20
123.6250596324913
 30
0.0
 10
245.3136923208093
 20
123.6099547030309
 30
0.0
 10
245.1856496884594
 20
123.5797165905756
 30
0.0
 10
244.9881995687902
 20
123.618301302271
 30
0.0
 10
244.8177204069127
 20
123.7155091129834
 30
0.0
 10
244.6885689123656
 20
123.8586207473279
 30
0.0
 10
244.6470320992787
 20
123.9750397182866
 30
0.0
 10
244.6269333165486
 20
124.0313723887317
 30
0.0
  0
SPLINE
  5
CC
330
1F
100
AcDbEntity
  8
0
  6
Continuous
 62
     7
370
    15
100
AcDbSpline
210
0.0
220
0.0
230
1.0
 70
     8
 71
     3
 72
    11
 73
     7
 74
     0
 42
0.00000001
 43
0.00000001
 12
1.0
 22
0.0
 32
0.0
 13
1.0
 23
0.0
 33
0.0
 40
0.0
 40
0.0
 40
0.0
 40
0.0
 40
0.2524801167292094
 40
0.5068907811478198
 40
0.759169384521043
 40
0.9999999999999999
 40
0.9999999999999999
 40
0.9999999999999999
 40
0.9999999999999999
 10
244.6269333165486
 20
124.0313723887317
 30
0.0
 10
244.6138362908692
 20
124.0670472655597
 30
0.0
 10
244.5875420952575
 20
124.1386698012942
 30
0.0
 10
244.5059532310809
 20
124.2213711487758
 30
0.0
 10
244.4049686568011
 20
124.2753519390917
 30
0.0
 10
244.3307006894637
 20
124.2805041205918
 30
0.0
 10
244.2944288056691
 20
124.2830204050057
 30
0.0
  0
SPLINE
  5
CD
330
1F
100
AcDbEntity
  8
0
  6
Continuous
 62
     7
370
    15
100
AcDbSpline
210
0.0
220
0.0
230
1.0
 70
     8
 71
     3
 72
    12
 73
     8
 74
     0
 42
0.00000001
 43
0.00000001
 12
1.0
 22
0.0
 32
0.0
 13
1.0
 23
0.0
 33
0.0
 40
0.0
 40
0.0
 40
0.0
 40
0.0
 40
0.009159977974441
 40
0.2573301282697962
 40
0.5054884590496602
 40
0.7549934125125858
 40
0.9999999999999999
 40
0.9999999999999999
 40
0.9999999999999999
 40
0.9999999999999999
 10
244.2944288056691
 20
124.2830204050057
 30
0.0
 10
244.2930579464632
 20
124.2829798798769
 30
0.0
 10
244.25454656835
 20
124.281841412446
 30
0.0
 10
244.1786749472718
 20
124.2659473479828
 30
0.0
 10
244.0819301481999
 20
124.2071657813705
 30
0.0
 10
244.0075353188017
 20
124.1205927787881
 30
0.0
 10
243.9857642334255
 20
124.0494091225208
 30
0.0
 10
243.9749777119954
 20
124.0141410584561
 30
0.0
  0
SPLINE
  5
CE
330
1F
100
AcDbEntity
  8
0
  6
Continuous
 62
     7
370
    15
100
AcDbSpline
210
0.0
220
0.0
230
1.0
 70
     8
 71
     3
 72
    12
 73
     8
 74
     0
 42
0.00000001
 43
0.00000001
 12
1.0
 22
0.0
 32
0.0
 13
1.0
 23
0.0
 33
0.0
 40
0.0
 40
0.0
 40
0.0
 40
0.0
 40
0.2058449266301454
 40
0.4120681511946391
 40
0.6141416802512288
 40
0.8132654931958886
 40
1.0
 40
1.0
 40
1.0
 40
1.0
 10
243.9749777119954
 20
124.0141410584561
 30
0.0
 10
243.9555184978706
 20
123.9509950300731
 30
0.0
 10
243.9165643078433
 20
123.8245869247236
 30
0.0
 10
243.7834076030888
 20
123.6727542851458
 30
0.0
 10
243.6138581160713
 20
123.5741238033282
 30
0.0
 10
243.4260412626722
 20
123.534662705483
 30
0.0
 10
243.305301312787
 20
123.5576290312254
 30
0.0
 10
243.246869723161
 20
123.5687434877269
 30
0.0
  0
ARC
  5
CF
330
1F
100
AcDbEntity
  8
0
  6
Continuous
 62
     7
370
    15
100
AcDbCircle
 10
243.401157833
 20
124.0394202578
 30
0.0
 40
0.5862770495779974
100
AcDbArc
 50
254.7420030594
 51
348.1677349094
  0
ARC
  5
D0
330
1F
100
AcDbEntity
  8
0
  6
Continuous
 62
     7
370
    15
100
AcDbCircle
 10
245.1937171973
 20
124.0869361055
 30
0.0
 40
0.5864263664594896
100
AcDbArc
 50
194.8712972644
 51
288.27974534
  0
ARC
  5
D1
330
1F
100
AcDbEntity
  8
0
  6
Continuous
 62
     7
370
    15
100
AcDbCircle
 10
244.3372137647
 20
122.5475673068
 30
0.0
 40
2.625003900861504
100
AcDbArc
 50
180.1021158016
 51
359.8978841984
  0
ARC
  5
D2
330
1F
100
AcDbEntity
  8
0
  6
Continuous
 62
     7
370
    15
100
AcDbCircle
 10
244.3030009443
 20
123.8503990531
 30
0.0
 40
0.3351620562233043
100
AcDbArc
 50
14.8735311719
 51
168.1532989784
  0
LINE
  5
D3
330
1F
100
AcDbEntity
  8
0
  6
Continuous
 62
     7
370
    15
100
AcDbLine
 10
237.8615826171
 20
115.6772689632
 30
0.0
 11
248.0198681157
 21
118.8723622094
 31
0.0
  0
LINE
  5
D4
330
1F
100
AcDbEntity
  8
0
  6
Continuous
 62
     7
370
    15
100
AcDbLine
 10
239.1667976778
 20
117.4021922256
 30
0.0
 11
237.7473130625
 21
116.0234944168
 31
0.0
  0
LINE
  5
D5
330
1F
100
AcDbEntity
  8
0
  6
Continuous
 62
     7
370
    15
100
AcDbLine
 10
247.7298393648
 20
119.3850403856
 30
0.0
 11
247.9055985611
 21
119.2185874301
 31
0.0
  0
SPLINE
  5
D6
330
1F
100
AcDbEntity
  8
0
  6
Continuous
 62
     7
370
    15
100
AcDbSpline
210
0.0
220
0.0
230
1.0
 70
     8
 71
     3
 72
    10
 73
     6
 74
     0
 42
0.00000001
 43
0.00000001
 12
1.0
 22
0.0
 32
0.0
 13
1.0
 23
0.0
 33
0.0
 40
0.0
 40
0.0
 40
0.0
 40
0.0
 40
0.3518009696524972
 40
0.7034204166233025
 40
1.0
 40
1.0
 40
1.0
 40
1.0
 10
248.0273633998235
 20
118.85380141614
 30
0.0
 10
248.068537942125
 20
118.8714277216768
 30
0.0
 10
248.1508657814388
 20
118.9066712379084
 30
0.0
 10
248.2409282089692
 20
119.0017651710348
 30
0.0
 10
248.272277549767
 20
119.0776844405602
 30
0.0
 10
248.2866212528546
 20
119.1124208475463
 30
0.0
  0
LINE
  5
D7
330
1F
100
AcDbEntity
  8
0
  6
Continuous
 62
     7
370
    15
100
AcDbLine
 10
237.85931019
 20
115.6556338741
 30
0.0
 11
248.0273633998
 21
118.8538014161
 31
0.0
  0
SPLINE
  5
D8
330
1F
100
AcDbEntity
  8
0
  6
Continuous
 62
     7
370
    15
100
AcDbSpline
210
0.0
220
0.0
230
1.0
 70
     8
 71
     3
 72
    14
 73
    10
 74
     0
 42
0.00000001
 43
0.00000001
 12
1.0
 22
0.0
 32
0.0
 13
1.0
 23
0.0
 33
0.0
 40
0.0
 40
0.0
 40
0.0
 40
0.0
 40
0.1588496922763696
 40
0.3173312122747293
 40
0.4720156873727186
 40
0.623640080806589
 40
0.774657089329316
 40
0.9277351880787232
 40
1.0
 40
1.0
 40
1.0
 40
1.0
 10
237.3632132809956
 20
116.150519132521
 30
0.0
 10
237.3536815960028
 20
116.1055326179365
 30
0.0
 10
237.3346403179841
 20
116.0156638558097
 30
0.0
 10
237.3651374523853
 20
115.879653584955
 30
0.0
 10
237.4357040890021
 20
115.7640056187786
 30
0.0
 10
237.5402988422361
 20
115.6800440986423
 30
0.0
 10
237.6658168578716
 20
115.635948018059
 30
0.0
 10
237.7765222756789
 20
115.6337056464525
 30
0.0
 10
237.8392077108162
 20
115.6503092836528
 30
0.0
 10
237.8593101900418
 20
115.6556338741444
 30
0.0
  0
LINE
  5
D9
330
1F
100
AcDbEntity
  8
0
  6
Continuous
 62
     7
370
    15
100
AcDbLine
 10
240.5691906613
 20
126.2938101049
 30
0.0
 11
237.363213281
 21
116.1505191325
 31
0.0
  0
SPLINE
  5
DA
330
1F
100
AcDbEntity
  8
0
  6
Continuous
 62
     7
370
    15
100
AcDbSpline
210
0.0
220
0.0
230
1.0
 70
     8
 71
     3
 72
    10
 73
     6
 74
     0
 42
0.00000001
 43
0.00000001
 12
1.0
 22
0.0
 32
0.0
 13
1.0
 23
0.0
 33
0.0
 40
0.0
 40
0.0
 40
0.0
 40
0.0
 40
0.3518044204897122
 40
0.7034282112960015
 40
1.0
 40
1.0
 40
1.0
 40
1.0
 10
240.8284410637219
 20
126.5524290706031
 30
0.0
 10
240.7872666730943
 20
126.5348027020062
 30
0.0
 10
240.7049390323269
 20
126.4995590148561
 30
0.0
 10
240.614875367539
 20
126.4044668532359
 30
0.0
 10
240.5835315408466
 20
126.3285463488296
 30
0.0
 10
240.5691906612714
 20
126.2938101048581
 30
0.0
  0
LINE
  5
DB
330
1F
100
AcDbEntity
  8
0
  6
Continuous
 62
     7
370
    15
100
AcDbLine
 10
250.9965017241
 20
129.7505963798
 30
0.0
 11
240.8284410637
 21
126.5524290706
 31
0.0
  0
SPLINE
  5
DC
330
1F
100
AcDbEntity
  8
0
  6
Continuous
 62
     7
370
    15
100
AcDbSpline
210
0.0
220
0.0
230
1.0
 70
     8
 71
     3
 72
    14
 73
    10
 74
     0
 42
0.00000001
 43
0.00000001
 12
1.0
 22
0.0
 32
0.0
 13
1.0
 23
0.0
 33
0.0
 40
0.0
 40
0.0
 40
0.0
 40
0.0
 40
0.1588507448991896
 40
0.3173317328837491
 40
0.4720136335484338
 40
0.6236460994162446
 40
0.7746640182678471
 40
0.9277431231790695
 40
0.9999999999999999
 40
0.9999999999999999
 40
0.9999999999999999
 40
0.9999999999999999
 10
251.4925911825497
 20
129.2557120527141
 30
0.0
 10
251.5021231134158
 20
129.3006987087226
 30
0.0
 10
251.5211647876704
 20
129.3905673052903
 30
0.0
 10
251.4906646334528
 20
129.5265739732106
 30
0.0
 10
251.4201089599104
 20
129.6422299223962
 30
0.0
 10
251.3155059099723
 20
129.7261847508932
 30
0.0
 10
251.1899881206985
 20
129.7702831831798
 30
0.0
 10
251.0792843233708
 20
129.7725256887191
 30
0.0
 10
251.016601709375
 20
129.755920914044
 30
0.0
 10
250.9965017240842
 20
129.7505963797681
 30
0.0
  0
LINE
  5
DD
330
1F
100
AcDbEntity
  8
0
  6
Continuous
 62
     7
370
    15
100
AcDbLine
 10
248.2866212529
 20
119.1124208475
 30
0.0
 11
251.4925911825
 21
129.2557120527
 31
0.0
  0
ARC
  5
DE
330
1F
100
AcDbEntity
  8
0
  6
Continuous
 62
     7
370
    15
100
AcDbCircle
 10
237.747012089
 20
116.0391007898
 30
0.0
 40
0.3795374508775953
100
AcDbArc
 50
162.5698501805
 51
287.5698843119
  0
ARC
  5
DF
330
1F
100
AcDbEntity
  8
0
  6
Continuous
 62
     7
370
    15
100
AcDbCircle
 10
247.9061928344
 20
119.2344563066
 30
0.0
 40
0.3795183853326897
100
AcDbArc
 50
287.4290816089
 51
342.431724961
  0
LINE
  5
E0
330
1F
100
AcDbEntity
  8
0
  6
Continuous
 62
     7
370
    15
100
AcDbLine
 10
248.2680097025
 20
119.1199016961
 30
0.0
 11
251.470909993
 21
129.2534414883
 31
0.0
  0
ARC
  5
E1
330
1F
100
AcDbEntity
  8
0
  6
Continuous
 62
     7
370
    15
100
AcDbCircle
 10
251.1087985583
 20
129.3671284929
 30
0.0
 40
0.3795384383375626
100
AcDbArc
 50
342.5700138179
 51
107.5696365128
  0
LINE
  5
E2
330
1F
100
AcDbEntity
  8
0
  6
Continuous
 62
     7
370
    15
100
AcDbLine
 10
250.994229297
 20
129.7289617564
 30
0.0
 11
240.8359437984
 21
126.533868743
 31
0.0
  0
ARC
  5
E3
330
1F
100
AcDbEntity
  8
0
  6
Continuous
 62
     7
370
    15
100
AcDbCircle
 10
240.9496404403
 20
126.1717425579
 30
0.0
 40
0.3795553982096098
100
AcDbArc
 50
107.4307072055
 51
162.4284868418
  0
LINE
  5
E4
330
1F
100
AcDbEntity
  8
0
  6
Continuous
 62
     7
370
    15
100
AcDbLine
 10
240.587794761
 20
126.2863287906
 30
0.0
 11
237.3849019211
 21
116.1527885328
 31
0.0
  0
LINE
  5
E5
330
1F
100
AcDbEntity
  8
0
  6
Continuous
 62
     7
370
    15
100
AcDbLine
 10
241.1259725493
 20
125.9728232603
 30
0.0
 11
240.9502059024
 21
126.1570351402
 31
0.0
  0
SPLINE
  5
E6
330
1F
100
AcDbEntity
  8
0
  6
Continuous
 62
     7
370
    15
100
AcDbSpline
210
0.0
220
0.0
230
1.0
 70
     8
 71
     3
 72
    11
 73
     7
 74
     0
 42
0.00000001
 43
0.00000001
 12
1.0
 22
0.0
 32
0.0
 13
1.0
 23
0.0
 33
0.0
 40
0.0
 40
0.0
 40
0.0
 40
0.0
 40
0.0072970386478794
 40
0.1268425069377022
 40
0.5874252039710403
 40
1.0
 40
1.0
 40
1.0
 40
1.0
 10
239.6529704135258
 20
117.8949973749928
 30
0.0
 10
239.6519104209143
 20
117.8938790605687
 30
0.0
 10
239.633484847656
 20
117.8744396945536
 30
0.0
 10
239.5461662886286
 20
117.782905333214
 30
0.0
 10
239.3823875351636
 20
117.6142289822459
 30
0.0
 10
239.2359776635659
 20
117.4702320674507
 30
0.0
 10
239.1667976778348
 20
117.4021922255866
 30
0.0
  0
LINE
  5
E7
330
1F
100
AcDbEntity
  8
0
  6
Continuous
 62
     7
370
    15
100
AcDbLine
 10
241.4476588171
 20
118.4787592123
 30
0.0
 11
246.4365675848
 21
120.0479250605
 31
0.0
  0
LINE
  5
E8
330
1F
100
AcDbEntity
  8
0
  6
Continuous
 62
     7
370
    15
100
AcDbLine
 10
247.408153097
 20
126.9274717401
 30
0.0
 11
242.4192443293
 21
125.3583058919
 31
0.0
  0
ARC
  5
E9
330
1F
100
AcDbEntity
  8
0
  6
Continuous
 62
     7
370
    15
100
AcDbCircle
 10
247.7096505664
 20
125.9752776863
 30
0.0
 40
0.9987863835817279
100
AcDbArc
 50
342.5702402726
 51
107.569582695
  0
LINE
  5
EA
330
1F
100
AcDbEntity
  8
0
  6
Continuous
 62
     7
370
    15
100
AcDbLine
 10
247.0895811718
 20
120.6993460859
 30
0.0
 11
248.6625775498
 21
125.6761048193
 31
0.0
  0
ARC
  5
EB
330
1F
100
AcDbEntity
  8
0
  6
Continuous
 62
     7
370
    15
100
AcDbCircle
 10
246.1373672416
 20
121.0008724075
 30
0.0
 40
0.998814042493602
100
AcDbArc
 50
287.4309135986
 51
342.4291836232
  0
ARC
  5
EC
330
1F
100
AcDbEntity
  8
0
  6
Continuous
 62
     7
370
    15
100
AcDbCircle
 10
241.146154502
 20
119.4309464036
 30
0.0
 40
0.9987819077785859
100
AcDbArc
 50
162.5697470491
 51
287.5700759186
  0
LINE
  5
ED
330
1F
100
AcDbEntity
  8
0
  6
Continuous
 62
     7
370
    15
100
AcDbLine
 10
241.7662307423
 20
124.7068848665
 30
0.0
 11
240.1932343644
 21
119.7301261331
 31
0.0
  0
ARC
  5
EE
330
1F
100
AcDbEntity
  8
0
  6
Continuous
 62
     7
370
    15
100
AcDbCircle
 10
242.7184058389
 20
124.4053974735
 30
0.0
 40
0.9987652690543402
100
AcDbArc
 50
107.4294571132
 51
162.4306401086
  0
CIRCLE
  5
EF
330
1F
100
AcDbEntity
  8
0
  6
Continuous
 62
     7
370
    15
100
AcDbCircle
 10
244.4228143696
 20
122.6993834147
 30
0.0
 40
3.04559973696347
  0
SPLINE
  5
F0
330
1F
100
AcDbEntity
  8
0
  6
Continuous
 62
     7
370
    15
100
AcDbSpline
210
0.0
220
0.0
230
1.0
 70
     8
 71
     3
 72
    11
 73
     7
 74
     0
 42
0.00000001
 43
0.00000001
 12
1.0
 22
0.0
 32
0.0
 13
1.0
 23
0.0
 33
0.0
 40
0.0
 40
0.0
 40
0.0
 40
0.0
 40
0.327769605498745
 40
0.6551483252210325
 40
0.9907869740580441
 40
1.0
 40
1.0
 40
1.0
 40
1.0
 10
247.7298393648465
 20
119.3850403855555
 30
0.0
 10
247.6772794753947
 20
119.4354455666085
 30
0.0
 10
247.5722223774501
 20
119.5361958173804
 30
0.0
 10
247.3990015594558
 20
119.7098854333194
 30
0.0
 10
247.2897308513182
 20
119.82282188062
 30
0.0
 10
247.2387405903019
 20
119.8765856720338
 30
0.0
 10
247.2373783391316
 20
119.8780220205896
 30
0.0
  0
LWPOLYLINE
  5
F1
330
1F
100
AcDbEntity
  8
0
  6
Continuous
 62
     7
370
    15
100
AcDbPolyline
 90
        3
 70
   128
 43
0.0
 10
241.5190651816
 20
123.5483801196
 10
241.3899168175
 20
122.9031989555
 10
241.3779064816
 20
122.6334618608
  0
ARC
  5
F2
330
1F
100
AcDbEntity
  8
0
  6
Continuous
 62
     7
370
    15
100
AcDbCircle
 10
244.4272813639
 20
122.6271714491
 30
0.0
 40
3.050630554109364
100
AcDbArc
 50
0.1181441984
 51
162.4238432927
  0
LINE
  5
F3
330
1F
100
AcDbEntity
  8
0
  6
Continuous
 62
     7
370
    15
100
AcDbLine
 10
249.6890067857
 20
127.8987676109
 30
0.0
 11
251.108491401
 21
129.3521281536
 31
0.0
  0
SPLINE
  5
F4
330
1F
100
AcDbEntity
  8
0
  6
Continuous
 62
     7
370
    15
100
AcDbSpline
210
0.0
220
0.0
230
1.0
 70
     8
 71
     3
 72
    11
 73
     7
 74
     0
 42
0.00000001
 43
0.00000001
 12
1.0
 22
0.0
 32
0.0
 13
1.0
 23
0.0
 33
0.0
 40
0.0
 40
0.0
 40
0.0
 40
0.0
 40
0.0092125911014458
 40
0.3448516833305781
 40
0.6722303122146819
 40
1.0
 40
1.0
 40
1.0
 40
1.0
 10
241.6184335749944
 20
125.4832809994928
 30
0.0
 10
241.6170713226802
 20
125.4845629596622
 30
0.0
 10
241.5660786108072
 20
125.532550123912
 30
0.0
 10
241.4568115815515
 20
125.6375841066285
 30
0.0
 10
241.2835892052259
 20
125.809517323877
 30
0.0
 10
241.1785323374563
 20
125.9183662907672
 30
0.0
 10
241.1259725492795
 20
125.9728232602589
 30
0.0
  0
SPLINE
  5
F5
330
1F
100
AcDbEntity
  8
0
  6
Continuous
 62
     7
370
    15
100
AcDbSpline
210
0.0
220
0.0
230
1.0
 70
     8
 71
     3
 72
    11
 73
     7
 74
     0
 42
0.00000001
 43
0.00000001
 12
1.0
 22
0.0
 32
0.0
 13
1.0
 23
0.0
 33
0.0
 40
0.0
 40
0.0
 40
0.0
 40
0.0
 40
0.4125681241410747
 40
0.8731507940008411
 40
0.9926967132295712
 40
1.0
 40
1.0
 40
1.0
 40
1.0
 10
249.6890067857106
 20
127.8987676109187
 30
0.0
 10
249.619834336996
 20
127.828789816389
 30
0.0
 10
249.4734391722125
 20
127.6806902340878
 30
0.0
 10
249.3095997571475
 20
127.5225969737271
 30
0.0
 10
249.2223513135109
 20
127.4399282493065
 30
0.0
 10
249.2038965734904
 20
127.4225976355987
 30
0.0
 10
249.2028340500195
 20
127.4215998332016
 30
0.0
  0
LINE
  5
F6
330
1F
100
AcDbEntity
  8
0
  6
HIDDEN
 62
     7
370
     0
100
AcDbLine
 10
181.5084941488
 20
88.3664582129
 30
0.0
 11
181.5084941488
 21
137.1664572711
 31
0.0
  0
SPLINE
  5
F7
330
1F
100
AcDbEntity
  8
0
  6
HIDDEN
 62
     7
370
     0
100
AcDbSpline
210
0.0
220
0.0
230
1.0
 70
     8
 71
     3
 72
    58
 73
    54
 74
     0
 42
0.00000001
 43
0.00000001
 12
1.0
 22
0.0
 32
0.0
 13
1.0
 23
0.0
 33
0.0
 40
-0.0624999999999999
 40
-0.0624999999999999
 40
0.0
 40
0.0
 40
0.0312500000000001
 40
0.0312500000000001
 40
0.0625000000000003
 40
0.0625000000000003
 40
0.0937500000000004
 40
0.0937500000000004
 40
0.1250000000000006
 40
0.1250000000000006
 40
0.1875000000000006
 40
0.1875000000000006
 40
0.2500000000000007
 40
0.2500000000000007
 40
0.2812500000000007
 40
0.2812500000000007
 40
0.3125000000000007
 40
0.3125000000000007
 40
0.3437500000000007
 40
0.3437500000000007
 40
0.3750000000000008
 40
0.3750000000000008
 40
0.4062500000000008
 40
0.4062500000000008
 40
0.4375000000000008
 40
0.4375000000000008
 40
0.4687500000000008
 40
0.4687500000000008
 40
0.5000000000000009
 40
0.5000000000000009
 40
0.5625000000000009
 40
0.5625000000000009
 40
0.625000000000001
 40
0.625000000000001
 40
0.6562500000000009
 40
0.6562500000000009
 40
0.6875000000000008
 40
0.6875000000000008
 40
0.7187500000000008
 40
0.7187500000000008
 40
0.7500000000000007
 40
0.7500000000000007
 40
0.7812500000000006
 40
0.7812500000000006
 40
0.8125000000000004
 40
0.8125000000000004
 40
0.8437500000000004
 40
0.8437500000000004
 40
0.8750000000000003
 40
0.8750000000000003
 40
0.9375000000000001
 40
0.9375000000000001
 40
1.0
 40
1.0
 40
1.03125
 40
1.03125
 10
171.5084945958455
 20
112.5020853714435
 30
0.0
 10
171.5084945958455
 20
112.8986439272587
 30
0.0
 10
171.521470487856
 20
113.0286106668034
 30
0.0
 10
171.5723027899619
 20
113.2842900049356
 30
0.0
 10
171.6107798612833
 20
113.411331096777
 30
0.0
 10
171.7111848224397
 20
113.6535092827176
 30
0.0
 10
171.772619064759
 20
113.7683629413071
 30
0.0
 10
171.9177533309407
 20
113.9857280631129
 30
0.0
 10
172.002195252088
 20
114.0886035351972
 30
0.0
 10
172.2788672816979
 20
114.3652214876143
 30
0.0
 10
172.501913436666
 20
114.5142136074472
 30
0.0
 10
172.9831774352105
 20
114.7137374024385
 30
0.0
 10
173.2464352905303
 20
114.7663162669407
 30
0.0
 10
173.6379013218151
 20
114.7665280405282
 30
0.0
 10
173.7704500654286
 20
114.7535370689388
 30
0.0
 10
174.0269943744439
 20
114.702500845649
 30
0.0
 10
174.1516902608156
 20
114.6647393042462
 30
0.0
 10
174.3938932312493
 20
114.5645797649528
 30
0.0
 10
174.5109565945
 20
114.5019819552023
 30
0.0
 10
174.7276429137461
 20
114.3572599711666
 30
0.0
 10
174.8286568818138
 20
114.2746358659983
 30
0.0
 10
175.0154500760993
 20
114.0880154953873
 30
0.0
 10
175.0982504400536
 20
113.9869671274962
 30
0.0
 10
175.2431288789482
 20
113.7704551066223
 30
0.0
 10
175.3057796622755
 20
113.6535657514234
 30
0.0
 10
175.4062200566494
 20
113.4113083493644
 30
0.0
 10
175.4440790684194
 20
113.286645684549
 30
0.0
 10
175.4953167728829
 20
113.0303144888942
 30
0.0
 10
175.5084471476559
 20
112.8977265495438
 30
0.0
 10
175.5085890980949
 20
112.5060948809745
 30
0.0
 10
175.4562481818468
 20
112.2428820479403
 30
0.0
 10
175.2571179551087
 20
111.7613747172489
 30
0.0
 10
175.1082808674664
 20
111.5381742359733
 30
0.0
 10
174.831968830927
 20
111.2613281560116
 30
0.0
 10
174.7292032936757
 20
111.1768160617928
 30
0.0
 10
174.5118863613219
 20
111.0314374650614
 30
0.0
 10
174.3970994507851
 20
110.9699220334596
 30
0.0
 10
174.1551799606792
 20
110.869365973214
 30
0.0
 10
174.0280530581792
 20
110.8307272473793
 30
0.0
 10
173.772384222543
 20
110.779662380492
 30
0.0
 10
173.642489017165
 20
110.7665879001157
 30
0.0
 10
173.3784142347406
 20
110.7663294988421
 30
0.0
 10
173.2480850952553
 20
110.7792055668051
 30
0.0
 10
172.9923957811114
 20
110.829804358133
 30
0.0
 10
172.8654679147238
 20
110.8681097039706
 30
0.0
 10
172.6230156258817
 20
110.9683655363905
 30
0.0
 10
172.5080989319001
 20
111.0297165553026
 30
0.0
 10
172.2907081401296
 20
111.1745853908729
 30
0.0
 10
172.1877228604481
 20
111.2589493441422
 30
0.0
 10
171.9107584927908
 20
111.5354753979283
 30
0.0
 10
171.7616262144323
 20
111.758335239924
 30
0.0
 10
171.5616740957178
 20
112.2394377599847
 30
0.0
 10
171.5084945958455
 20
112.5020853714435
 30
0.0
 10
171.5084945958455
 20
112.8986439272587
 30
0.0
  0
SPLINE
  5
F8
330
1F
100
AcDbEntity
  8
0
  6
HIDDEN
 62
     7
370
     0
100
AcDbSpline
210
0.0
220
0.0
230
1.0
 70
     8
 71
     3
 72
    12
 73
     8
 74
     0
 42
0.00000001
 43
0.00000001
 12
1.0
 22
0.0
 32
0.0
 13
1.0
 23
0.0
 33
0.0
 40
0.0
 40
0.0
 40
0.0
 40
0.0
 40
0.2499999999999998
 40
0.2499999999999998
 40
0.4999999999999996
 40
0.4999999999999996
 40
1.0
 40
1.0
 40
1.0
 40
1.0
 10
170.0362514094119
 20
105.1976477728064
 30
0.0
 10
169.9725861728814
 20
105.1976477728064
 30
0.0
 10
169.912979940658
 20
105.1715756243267
 30
0.0
 10
169.8143194157272
 20
105.0960368735056
 30
0.0
 10
169.775352425712
 20
105.0487859364094
 30
0.0
 10
169.6759655937875
 20
104.8969621184429
 30
0.0
 10
169.633889346364
 20
104.7841588686778
 30
0.0
 10
169.6032387075197
 20
104.6700047439427
 30
0.0
  0
LINE
  5
F9
330
1F
100
AcDbEntity
  8
0
  6
HIDDEN
 62
     7
370
     0
100
AcDbLine
 10
172.9807374802
 20
105.1976476069
 30
0.0
 11
170.0362512645
 21
105.1976476069
 31
0.0
  0
SPLINE
  5
FA
330
1F
100
AcDbEntity
  8
0
  6
HIDDEN
 62
     7
370
     0
100
AcDbSpline
210
0.0
220
0.0
230
1.0
 70
     8
 71
     3
 72
    12
 73
     8
 74
     0
 42
0.00000001
 43
0.00000001
 12
1.0
 22
0.0
 32
0.0
 13
1.0
 23
0.0
 33
0.0
 40
0.0
 40
0.0
 40
0.0
 40
0.0
 40
0.4999999999999987
 40
0.4999999999999987
 40
0.7499999999999993
 40
0.7499999999999993
 40
1.0
 40
1.0
 40
1.0
 40
1.0
 10
173.4137504841712
 20
104.6700047439428
 30
0.0
 10
173.383051100804
 20
104.7843404110066
 30
0.0
 10
173.3417010326974
 20
104.895693763848
 30
0.0
 10
173.241945104478
 20
105.0484305360967
 30
0.0
 10
173.2022481867452
 20
105.0962904219488
 30
0.0
 10
173.1049900350976
 20
105.1708935352983
 30
0.0
 10
173.044213877107
 20
105.1976477728063
 30
0.0
 10
172.980737782279
 20
105.1976477728063
 30
0.0
  0
ELLIPSE
  5
FB
330
1F
100
AcDbEntity
  8
0
  6
HIDDEN
 62
     7
370
     0
100
AcDbEllipse
 10
160.4522369409
 20
112.766457742
 30
0.0
 11
-11.70927234972715
 21
24.67718644093742
 31
0.0
210
0.0
220
0.0
230
1.0
 40
0.3419987131
 41
3.310521928178957
 42
4.221709151398949
  0
SPLINE
  5
FC
330
1F
100
AcDbEntity
  8
0
  6
HIDDEN
 62
     7
370
     0
100
AcDbSpline
210
0.0
220
0.0
230
1.0
 70
     8
 71
     3
 72
    12
 73
     8
 74
     0
 42
0.00000001
 43
0.00000001
 12
1.0
 22
0.0
 32
0.0
 13
1.0
 23
0.0
 33
0.0
 40
0.0
 40
0.0
 40
0.0
 40
0.0
 40
0.2500000000000002
 40
0.2500000000000002
 40
0.5000000000000004
 40
0.5000000000000004
 40
1.0
 40
1.0
 40
1.0
 40
1.0
 10
172.980737782279
 20
88.939726626485
 30
0.0
 10
173.0444030188095
 20
88.93972662648498
 30
0.0
 10
173.1040092510329
 20
88.94799140215088
 30
0.0
 10
173.2026697759638
 20
88.97221018373403
 30
0.0
 10
173.241636765979
 20
88.98746750304318
 30
0.0
 10
173.3410235979035
 20
89.03710085730509
 30
0.0
 10
173.3830998453269
 20
89.0747405654792
 30
0.0
 10
173.4137504841712
 20
89.11381626475536
 30
0.0
  0
LINE
  5
FD
330
1F
100
AcDbEntity
  8
0
  6
HIDDEN
 62
     7
370
     0
100
AcDbLine
 10
170.0362512645
 20
88.9397263731
 30
0.0
 11
172.9807374802
 21
88.9397263731
 31
0.0
  0
SPLINE
  5
FE
330
1F
100
AcDbEntity
  8
0
  6
HIDDEN
 62
     7
370
     0
100
AcDbSpline
210
0.0
220
0.0
230
1.0
 70
     8
 71
     3
 72
    12
 73
     8
 74
     0
 42
0.00000001
 43
0.00000001
 12
1.0
 22
0.0
 32
0.0
 13
1.0
 23
0.0
 33
0.0
 40
0.0
 40
0.0
 40
0.0
 40
0.0
 40
0.5000000000000018
 40
0.5000000000000018
 40
0.7500000000000009
 40
0.7500000000000009
 40
1.0
 40
1.0
 40
1.0
 40
1.0
 10
169.6032387075197
 20
89.11381626475536
 30
0.0
 10
169.633938090887
 20
89.07467842235945
 30
0.0
 10
169.6752881589935
 20
89.03751863963397
 30
0.0
 10
169.775044087213
 20
88.98758213400622
 30
0.0
 10
169.8147410049457
 20
88.97212926386244
 30
0.0
 10
169.9119991565933
 20
88.9482097202634
 30
0.0
 10
169.972775314584
 20
88.93972662648497
 30
0.0
 10
170.0362514094119
 20
88.93972662648498
 30
0.0
  0
ELLIPSE
  5
FF
330
1F
100
AcDbEntity
  8
0
  6
HIDDEN
 62
     7
370
     0
100
AcDbEllipse
 10
182.5647522508
 20
112.766457742
 30
0.0
 11
11.709272349727
 21
24.67718644093745
 31
0.0
210
0.0
220
0.0
230
1.0
 40
0.3419987131
 41
2.061476155780648
 42
2.972663379000662
  0
SPLINE
  5
100
330
1F
100
AcDbEntity
  8
0
  6
HIDDEN
 62
     7
370
     0
100
AcDbSpline
210
0.0
220
0.0
230
1.0
 70
     8
 71
     3
 72
    12
 73
     8
 74
     0
 42
0.00000001
 43
0.00000001
 12
1.0
 22
0.0
 32
0.0
 13
1.0
 23
0.0
 33
0.0
 40
0.0
 40
0.0
 40
0.0
 40
0.0
 40
0.25
 40
0.25
 40
0.5
 40
0.5
 40
1.0
 40
1.0
 40
1.0
 40
1.0
 10
170.0362514094119
 20
136.593188857489
 30
0.0
 10
169.9725861728814
 20
136.593188857489
 30
0.0
 10
169.9129799406581
 20
136.5849240818231
 30
0.0
 10
169.8143194157272
 20
136.56070530024
 30
0.0
 10
169.775352425712
 20
136.5454479809308
 30
0.0
 10
169.6759655937875
 20
136.4958146266689
 30
0.0
 10
169.633889346364
 20
136.4581749184948
 30
0.0
 10
169.6032387075197
 20
136.4190992192187
 30
0.0
  0
LINE
  5
101
330
1F
100
AcDbEntity
  8
0
  6
HIDDEN
 62
     7
370
     0
100
AcDbLine
 10
172.9807374802
 20
136.5931891109
 30
0.0
 11
170.0362512645
 21
136.5931891109
 31
0.0
  0
SPLINE
  5
102
330
1F
100
AcDbEntity
  8
0
  6
HIDDEN
 62
     7
370
     0
100
AcDbSpline
210
0.0
220
0.0
230
1.0
 70
     8
 71
     3
 72
    12
 73
     8
 74
     0
 42
0.00000001
 43
0.00000001
 12
1.0
 22
0.0
 32
0.0
 13
1.0
 23
0.0
 33
0.0
 40
0.0
 40
0.0
 40
0.0
 40
0.0
 40
0.5000000000000009
 40
0.5000000000000009
 40
0.7500000000000004
 40
0.7500000000000004
 40
1.0
 40
1.0
 40
1.0
 40
1.0
 10
173.4137504841712
 20
136.4190992192187
 30
0.0
 10
173.383051100804
 20
136.4582370616146
 30
0.0
 10
173.3417010326974
 20
136.4953968443401
 30
0.0
 10
173.241945104478
 20
136.5453333499678
 30
0.0
 10
173.2022481867453
 20
136.5607862201116
 30
0.0
 10
173.1049900350976
 20
136.5847057637106
 30
0.0
 10
173.044213877107
 20
136.593188857489
 30
0.0
 10
172.980737782279
 20
136.593188857489
 30
0.0
  0
ELLIPSE
  5
103
330
1F
100
AcDbEntity
  8
0
  6
HIDDEN
 62
     7
370
     0
100
AcDbEllipse
 10
160.4522369409
 20
112.766457742
 30
0.0
 11
11.70927234972723
 21
24.67718644093745
 31
0.0
210
0.0
220
0.0
230
1.0
 40
0.3419987131
 41
5.203068809370469
 42
6.114256032590515
  0
SPLINE
  5
104
330
1F
100
AcDbEntity
  8
0
  6
HIDDEN
 62
     7
370
     0
100
AcDbSpline
210
0.0
220
0.0
230
1.0
 70
     8
 71
     3
 72
    12
 73
     8
 74
     0
 42
0.00000001
 43
0.00000001
 12
1.0
 22
0.0
 32
0.0
 13
1.0
 23
0.0
 33
0.0
 40
0.0
 40
0.0
 40
0.0
 40
0.0
 40
0.2500000000000012
 40
0.2500000000000012
 40
0.5000000000000023
 40
0.5000000000000023
 40
1.0
 40
1.0
 40
1.0
 40
1.0
 10
172.980737782279
 20
120.3352677111679
 30
0.0
 10
173.0444030188095
 20
120.3352677111679
 30
0.0
 10
173.1040092510329
 20
120.3613398596476
 30
0.0
 10
173.2026697759638
 20
120.4368786104687
 30
0.0
 10
173.241636765979
 20
120.4841295475649
 30
0.0
 10
173.3410235979035
 20
120.6359533655313
 30
0.0
 10
173.3830998453269
 20
120.7487566152964
 30
0.0
 10
173.4137504841712
 20
120.8629107400315
 30
0.0
  0
LINE
  5
105
330
1F
100
AcDbEntity
  8
0
  6
HIDDEN
 62
     7
370
     0
100
AcDbLine
 10
170.0362512645
 20
120.3352678771
 30
0.0
 11
172.9807374802
 21
120.3352678771
 31
0.0
  0
SPLINE
  5
106
330
1F
100
AcDbEntity
  8
0
  6
HIDDEN
 62
     7
370
     0
100
AcDbSpline
210
0.0
220
0.0
230
1.0
 70
     8
 71
     3
 72
    12
 73
     8
 74
     0
 42
0.00000001
 43
0.00000001
 12
1.0
 22
0.0
 32
0.0
 13
1.0
 23
0.0
 33
0.0
 40
0.0
 40
0.0
 40
0.0
 40
0.0
 40
0.4999999999999987
 40
0.4999999999999987
 40
0.7499999999999993
 40
0.7499999999999993
 40
1.0
 40
1.0
 40
1.0
 40
1.0
 10
169.6032387075197
 20
120.8629107400315
 30
0.0
 10
169.633938090887
 20
120.7485750729677
 30
0.0
 10
169.6752881589935
 20
120.6372217201263
 30
0.0
 10
169.775044087213
 20
120.4844849478776
 30
0.0
 10
169.8147410049457
 20
120.4366250620254
 30
0.0
 10
169.9119991565933
 20
120.362021948676
 30
0.0
 10
169.972775314584
 20
120.3352677111679
 30
0.0
 10
170.0362514094119
 20
120.3352677111679
 30
0.0
  0
ELLIPSE
  5
107
330
1F
100
AcDbEntity
  8
0
  6
HIDDEN
 62
     7
370
     0
100
AcDbEllipse
 10
182.5647522508
 20
112.766457742
 30
0.0
 11
-11.70927234972714
 21
24.67718644093745
 31
0.0
210
0.0
220
0.0
230
1.0
 40
0.3419987131
 41
0.1689292745891157
 42
1.080116497809133
  0
LINE
  5
108
330
1F
100
AcDbEntity
  8
0
  6
HIDDEN
 62
     7
370
     0
100
AcDbLine
 10
161.5084945958
 20
137.4664586241
 30
0.0
 11
161.5084945958
 21
88.0664568598
 31
0.0
  0
LINE
  5
109
330
1F
100
AcDbEntity
  8
0
  6
HIDDEN
 62
     7
370
     0
100
AcDbLine
 10
161.5084945958
 20
93.2164583559
 30
0.0
 11
161.5084945958
 21
132.3164571281
 31
0.0
  0
SPLINE
  5
10A
330
1F
100
AcDbEntity
  8
0
  6
HIDDEN
 62
     7
370
     0
100
AcDbSpline
210
0.0
220
0.0
230
1.0
 70
     8
 71
     3
 72
    14
 73
    10
 74
     0
 42
0.00000001
 43
0.00000001
 12
1.0
 22
0.0
 32
0.0
 13
1.0
 23
0.0
 33
0.0
 40
0.0
 40
0.0
 40
0.0
 40
0.0
 40
0.25
 40
0.25
 40
0.5
 40
0.5
 40
0.75
 40
0.75
 40
1.0
 40
1.0
 40
1.0
 40
1.0
 10
160.4676335677171
 20
125.0609332870604
 30
0.0
 10
160.4993487020479
 20
125.0031501047172
 30
0.0
 10
160.5339632273482
 20
124.9467374436422
 30
0.0
 10
160.6136344227635
 20
124.8391379936269
 30
0.0
 10
160.6586902997939
 20
124.7872253667058
 30
0.0
 10
160.7692447122993
 20
124.7010267420085
 30
0.0
 10
160.8366301265035
 20
124.6669373220368
 30
0.0
 10
160.9872596464015
 20
124.66483493002
 30
0.0
 10
161.0570868831669
 20
124.6982067028647
 30
0.0
 10
161.1135177069704
 20
124.7420193714154
 30
0.0
  0
SPLINE
  5
10B
330
1F
100
AcDbEntity
  8
0
  6
HIDDEN
 62
     7
370
     0
100
AcDbSpline
210
0.0
220
0.0
230
1.0
 70
     8
 71
     3
 72
    16
 73
    12
 74
     0
 42
0.00000001
 43
0.00000001
 12
1.0
 22
0.0
 32
0.0
 13
1.0
 23
0.0
 33
0.0
 40
0.0
 40
0.0
 40
0.0
 40
0.0
 40
0.0624999999999996
 40
0.0624999999999996
 40
0.1249999999999992
 40
0.1249999999999992
 40
0.2500000000000003
 40
0.2500000000000003
 40
0.4999999999999986
 40
0.4999999999999986
 40
1.0
 40
1.0
 40
1.0
 40
1.0
 10
161.1135177069386
 20
124.742019371446
 30
0.0
 10
161.1252519413855
 20
124.751129784694
 30
0.0
 10
161.1387836968645
 20
124.7592071406404
 30
0.0
 10
161.1687711572943
 20
124.7674539823173
 30
0.0
 10
161.1837658637025
 20
124.7665266647297
 30
0.0
 10
161.2195062860973
 20
124.7537601451979
 30
0.0
 10
161.2335196230986
 20
124.7361114986876
 30
0.0
 10
161.2676637118799
 20
124.681458578656
 30
0.0
 10
161.2786356159983
 20
124.6400589109976
 30
0.0
 10
161.3044811562646
 20
124.5115691672748
 30
0.0
 10
161.3084945958455
 20
124.4209510796361
 30
0.0
 10
161.3084945958455
 20
124.328731975082
 30
0.0
  0
LINE
  5
10C
330
1F
100
AcDbEntity
  8
0
  6
HIDDEN
 62
     7
370
     0
100
AcDbLine
 10
161.3084946009
 20
101.2041839044
 30
0.0
 11
161.3084946009
 21
124.3287315796
 31
0.0
  0
SPLINE
  5
10D
330
1F
100
AcDbEntity
  8
0
  6
HIDDEN
 62
     7
370
     0
100
AcDbSpline
210
0.0
220
0.0
230
1.0
 70
     8
 71
     3
 72
    16
 73
    12
 74
     0
 42
0.00000001
 43
0.00000001
 12
1.0
 22
0.0
 32
0.0
 13
1.0
 23
0.0
 33
0.0
 40
0.0
 40
0.0
 40
0.0
 40
0.0
 40
0.4999999999999999
 40
0.4999999999999999
 40
0.7500000000000022
 40
0.7500000000000022
 40
0.875000000000001
 40
0.875000000000001
 40
0.9375000000000004
 40
0.9375000000000004
 40
1.0
 40
1.0
 40
1.0
 40
1.0
 10
161.3084945958455
 20
101.2041835088919
 30
0.0
 10
161.3084945958455
 20
101.111599657988
 30
0.0
 10
161.3044372937304
 20
101.0213872021277
 30
0.0
 10
161.2787800509356
 20
100.8934460750094
 30
0.0
 10
161.2674646051935
 20
100.8510328605974
 30
0.0
 10
161.2334332378849
 20
100.7967188171463
 30
0.0
 10
161.2195542566811
 20
100.7791374817564
 30
0.0
 10
161.1836185749137
 20
100.7663537938214
 30
0.0
 10
161.1686682556509
 20
100.7654782956733
 30
0.0
 10
161.1387697429091
 20
100.7737237307927
 30
0.0
 10
161.1252368825438
 20
100.7817973909645
 30
0.0
 10
161.1135177069698
 20
100.7908961125586
 30
0.0
  0
SPLINE
  5
10E
330
1F
100
AcDbEntity
  8
0
  6
HIDDEN
 62
     7
370
     0
100
AcDbSpline
210
0.0
220
0.0
230
1.0
 70
     8
 71
     3
 72
    14
 73
    10
 74
     0
 42
0.00000001
 43
0.00000001
 12
1.0
 22
0.0
 32
0.0
 13
1.0
 23
0.0
 33
0.0
 40
0.0
 40
0.0
 40
0.0
 40
0.0
 40
0.25
 40
0.25
 40
0.5
 40
0.5
 40
0.75
 40
0.75
 40
1.0
 40
1.0
 40
1.0
 40
1.0
 10
161.1135177069767
 20
100.7908961125671
 30
0.0
 10
161.0570619423679
 20
100.8347281450619
 30
0.0
 10
160.986196316118
 20
100.8680591814837
 30
0.0
 10
160.8377392349454
 20
100.8660001713363
 30
0.0
 10
160.7685458756378
 20
100.8314041469346
 30
0.0
 10
160.6588304375037
 20
100.7457387902717
 30
0.0
 10
160.6135858581723
 20
100.6937163455637
 30
0.0
 10
160.5339591487486
 20
100.5861680852338
 30
0.0
 10
160.4993490002151
 20
100.5297659225008
 30
0.0
 10
160.4676335677159
 20
100.4719821969113
 30
0.0
  0
SPLINE
  5
10F
330
1F
100
AcDbEntity
  8
0
  6
HIDDEN
 62
     7
370
     0
100
AcDbSpline
210
0.0
220
0.0
230
1.0
 70
     8
 71
     3
 72
    10
 73
     6
 74
     0
 42
0.00000001
 43
0.00000001
 12
1.0
 22
0.0
 32
0.0
 13
1.0
 23
0.0
 33
0.0
 40
0.0
 40
0.0
 40
0.0
 40
0.0
 40
0.5
 40
0.5
 40
1.0
 40
1.0
 40
1.0
 40
1.0
 10
160.4676335677164
 20
100.4719821969123
 30
0.0
 10
160.3958537797929
 20
100.3412034800104
 30
0.0
 10
160.3433942654849
 20
100.2071033305072
 30
0.0
 10
160.2540512013837
 20
99.93901076751847
 30
0.0
 10
160.218055591884
 20
99.80476539592959
 30
0.0
 10
160.1871742522859
 20
99.67141101845456
 30
0.0
  0
SPLINE
  5
110
330
1F
100
AcDbEntity
  8
0
  6
HIDDEN
 62
     7
370
     0
100
AcDbSpline
210
0.0
220
0.0
230
1.0
 70
     8
 71
     3
 72
    10
 73
     6
 74
     0
 42
0.00000001
 43
0.00000001
 12
1.0
 22
0.0
 32
0.0
 13
1.0
 23
0.0
 33
0.0
 40
0.0
 40
0.0
 40
0.0
 40
0.0
 40
0.5
 40
0.5
 40
1.0
 40
1.0
 40
1.0
 40
1.0
 10
160.1871742522859
 20
95.46954787398212
 30
0.0
 10
160.2180472840981
 20
95.453264726615
 30
0.0
 10
160.254034147011
 20
95.44100713688941
 30
0.0
 10
160.3433687329022
 20
95.42390414806067
 30
0.0
 10
160.3958245923248
 20
95.41910455220233
 30
0.0
 10
160.4676335677171
 20
95.41730046079441
 30
0.0
  0
SPLINE
  5
111
330
1F
100
AcDbEntity
  8
0
  6
HIDDEN
 62
     7
370
     0
100
AcDbSpline
210
0.0
220
0.0
230
1.0
 70
     8
 71
     3
 72
     8
 73
     4
 74
     0
 42
0.00000001
 43
0.00000001
 12
1.0
 22
0.0
 32
0.0
 13
1.0
 23
0.0
 33
0.0
 40
0.0
 40
0.0
 40
0.0
 40
0.0
 40
1.0
 40
1.0
 40
1.0
 40
1.0
 10
161.2907979724705
 20
95.29141608254734
 30
0.0
 10
161.3047847810126
 20
95.26317569196563
 30
0.0
 10
161.3084945958452
 20
95.24004364915488
 30
0.0
 10
161.3084945958456
 20
95.21970327631972
 30
0.0
  0
LINE
  5
112
330
1F
100
AcDbEntity
  8
0
  6
HIDDEN
 62
     7
370
     0
100
AcDbLine
 10
161.3084946009
 20
94.9266366865
 30
0.0
 11
161.3084946009
 21
95.2197034116
 31
0.0
  0
LINE
  5
113
330
1F
100
AcDbEntity
  8
0
  6
HIDDEN
 62
     7
370
     0
100
AcDbLine
 10
161.3084946009
 20
130.3132120724
 30
0.0
 11
161.3084946009
 21
130.6062787975
 31
0.0
  0
SPLINE
  5
114
330
1F
100
AcDbEntity
  8
0
  6
HIDDEN
 62
     7
370
     0
100
AcDbSpline
210
0.0
220
0.0
230
1.0
 70
     8
 71
     3
 72
     8
 73
     4
 74
     0
 42
0.00000001
 43
0.00000001
 12
1.0
 22
0.0
 32
0.0
 13
1.0
 23
0.0
 33
0.0
 40
0.0
 40
0.0
 40
0.0
 40
0.0
 40
1.0
 40
1.0
 40
1.0
 40
1.0
 10
161.3084945958456
 20
130.3132122076545
 30
0.0
 10
161.3084945958454
 20
130.2956448661836
 30
0.0
 10
161.3055002476118
 20
130.2759223871814
 30
0.0
 10
161.2958948148921
 20
130.2527200236719
 30
0.0
  0
SPLINE
  5
115
330
1F
100
AcDbEntity
  8
0
  6
HIDDEN
 62
     7
370
     0
100
AcDbSpline
210
0.0
220
0.0
230
1.0
 70
     8
 71
     3
 72
    10
 73
     6
 74
     0
 42
0.00000001
 43
0.00000001
 12
1.0
 22
0.0
 32
0.0
 13
1.0
 23
0.0
 33
0.0
 40
0.0
 40
0.0
 40
0.0
 40
0.0
 40
0.5
 40
0.5
 40
1.0
 40
1.0
 40
1.0
 40
1.0
 10
160.4676335677179
 20
130.1156150231795
 30
0.0
 10
160.3958245923253
 20
130.1138109317716
 30
0.0
 10
160.3433687329026
 20
130.1090113359133
 30
0.0
 10
160.2540341470112
 20
130.0919083470845
 30
0.0
 10
160.2180472840982
 20
130.0796507573589
 30
0.0
 10
160.1871742522859
 20
130.0633676099918
 30
0.0
  0
SPLINE
  5
116
330
1F
100
AcDbEntity
  8
0
  6
HIDDEN
 62
     7
370
     0
100
AcDbSpline
210
0.0
220
0.0
230
1.0
 70
     8
 71
     3
 72
    10
 73
     6
 74
     0
 42
0.00000001
 43
0.00000001
 12
1.0
 22
0.0
 32
0.0
 13
1.0
 23
0.0
 33
0.0
 40
0.0
 40
0.0
 40
0.0
 40
0.0
 40
0.5
 40
0.5
 40
1.0
 40
1.0
 40
1.0
 40
1.0
 10
160.1871742522859
 20
125.8615044655194
 30
0.0
 10
160.218055591884
 20
125.7281500880441
 30
0.0
 10
160.2540512013839
 20
125.593904716455
 30
0.0
 10
160.3433942654852
 20
125.3258121534658
 30
0.0
 10
160.3958537797934
 20
125.1917120039624
 30
0.0
 10
160.4676335677171
 20
125.0609332870604
 30
0.0
  0
LINE
  5
117
330
1F
100
AcDbEntity
  8
0
  6
HIDDEN
 62
     7
370
     0
100
AcDbLine
 10
161.3084946009
 20
95.2197034116
 30
0.0
 11
161.3084946009
 21
106.7819777149
 31
0.0
  0
LINE
  5
118
330
1F
100
AcDbEntity
  8
0
  6
HIDDEN
 62
     7
370
     0
100
AcDbLine
 10
161.3084946009
 20
118.7509377691
 30
0.0
 11
161.3084946009
 21
130.3132120724
 31
0.0
  0
LINE
  5
119
330
1F
100
AcDbEntity
  8
0
  6
HIDDEN
 62
     7
370
     0
100
AcDbLine
 10
181.5084941488
 20
96.2664578314
 30
0.0
 11
181.5084941488
 21
129.2664576526
 31
0.0
  0
CIRCLE
  5
11A
330
1F
100
AcDbEntity
  8
0
  6
HIDDEN
 62
     7
370
     0
100
AcDbCircle
 10
147.5084945958
 20
112.766457742
 30
0.0
 40
3.049999999999997
  0
SPLINE
  5
11B
330
1F
100
AcDbEntity
  8
0
  6
HIDDEN
 62
     7
370
     0
100
AcDbSpline
210
0.0
220
0.0
230
1.0
 70
     8
 71
     3
 72
    62
 73
    58
 74
     0
 42
0.00000001
 43
0.00000001
 12
1.0
 22
0.0
 32
0.0
 13
1.0
 23
0.0
 33
0.0
 40
-0.0312500000000003
 40
-0.0312500000000003
 40
0.0
 40
0.0
 40
0.0312500000000003
 40
0.0312500000000003
 40
0.0625000000000007
 40
0.0625000000000007
 40
0.093750000000001
 40
0.093750000000001
 40
0.1250000000000013
 40
0.1250000000000013
 40
0.187500000000002
 40
0.187500000000002
 40
0.2187500000000017
 40
0.2187500000000017
 40
0.2500000000000014
 40
0.2500000000000014
 40
0.2812500000000012
 40
0.2812500000000012
 40
0.3125000000000009
 40
0.3125000000000009
 40
0.3437500000000006
 40
0.3437500000000006
 40
0.3750000000000003
 40
0.3750000000000003
 40
0.4062500000000001
 40
0.4062500000000001
 40
0.4374999999999998
 40
0.4374999999999998
 40
0.4687499999999995
 40
0.4687499999999995
 40
0.4999999999999992
 40
0.4999999999999992
 40
0.5624999999999987
 40
0.5624999999999987
 40
0.5937499999999984
 40
0.5937499999999984
 40
0.6249999999999982
 40
0.6249999999999982
 40
0.656249999999998
 40
0.656249999999998
 40
0.6874999999999978
 40
0.6874999999999978
 40
0.7499999999999972
 40
0.7499999999999972
 40
0.7812499999999976
 40
0.7812499999999976
 40
0.8124999999999979
 40
0.8124999999999979
 40
0.8437499999999982
 40
0.8437499999999982
 40
0.8749999999999986
 40
0.8749999999999986
 40
0.9374999999999993
 40
0.9374999999999993
 40
0.9687499999999997
 40
0.9687499999999997
 40
1.0
 40
1.0
 40
1.03125
 40
1.03125
 10
212.0084945958455
 20
112.9320668742359
 30
0.0
 10
212.0084945958455
 20
112.600848609738
 30
0.0
 10
212.0247871198853
 20
112.4380890787466
 30
0.0
 10
212.0885471137965
 20
112.118011144908
 30
0.0
 10
212.1368177241756
 20
111.9590051576698
 30
0.0
 10
212.2624507247181
 20
111.6564497291755
 30
0.0
 10
212.3392690959522
 20
111.5130192350419
 30
0.0
 10
212.5206821831311
 20
111.2415809692808
 30
0.0
 10
212.6259889185277
 20
111.1133949404009
 30
0.0
 10
212.9710033394189
 20
110.7684843585564
 30
0.0
 10
213.2492286211049
 20
110.582379315869
 30
0.0
 10
213.7001537461547
 20
110.3951559028352
 30
0.0
 10
213.858137994073
 20
110.3469252952509
 30
0.0
 10
214.1810279395676
 20
110.2825361330581
 30
0.0
 10
214.343508650954
 20
110.266555512877
 30
0.0
 10
214.6705041105419
 20
110.2663608570106
 30
0.0
 10
214.8366318404886
 20
110.2826902630068
 30
0.0
 10
215.1575815155929
 20
110.3466517349744
 30
0.0
 10
215.313620388069
 20
110.3939704489146
 30
0.0
 10
215.6168071613705
 20
110.5195561521987
 30
0.0
 10
215.7625427487739
 20
110.5976320324638
 30
0.0
 10
216.0329245905783
 20
110.7783543947461
 30
0.0
 10
216.1596675173335
 20
110.8821485033595
 30
0.0
 10
216.3920694376477
 20
111.1144471068028
 30
0.0
 10
216.495209319222
 20
111.2402117320149
 30
0.0
 10
216.6762418278148
 20
111.5105380736458
 30
0.0
 10
216.7547425897692
 20
111.6568966189784
 30
0.0
 10
216.8801683752971
 20
111.9590424710392
 30
0.0
 10
216.9276424407722
 20
112.1148728485795
 30
0.0
 10
216.9919867679242
 20
112.4361460707518
 30
0.0
 10
217.0084281881904
 20
112.6020740628283
 30
0.0
 10
217.0086267953683
 20
113.0921858883664
 30
0.0
 10
216.9429277579533
 20
113.4219767292444
 30
0.0
 10
216.7559177180433
 20
113.8735403047016
 30
0.0
 10
216.677957620625
 20
114.0195457570796
 30
0.0
 10
216.4960232364929
 20
114.2917542023712
 30
0.0
 10
216.3929208238355
 20
114.417364375034
 30
0.0
 10
216.1626649061743
 20
114.6480197272009
 30
0.0
 10
216.034406841591
 20
114.7534392958468
 30
0.0
 10
215.7638279761549
 20
114.9345541377629
 30
0.0
 10
215.6204971277255
 20
115.0115479386432
 30
0.0
 10
215.1655403142861
 20
115.2008384459847
 30
0.0
 10
214.8404260560806
 20
115.2662240678517
 30
0.0
 10
214.3451758377127
 20
115.2665736448597
 30
0.0
 10
214.1825660152139
 20
115.2504967266066
 30
0.0
 10
213.8621271754463
 20
115.1869717937183
 30
0.0
 10
213.7027119459232
 20
115.1386801816213
 30
0.0
 10
213.4006500983269
 20
115.0135459804276
 30
0.0
 10
213.2570993186982
 20
114.9368913359781
 30
0.0
 10
212.9848818052544
 20
114.7552705008808
 30
0.0
 10
212.8570317571363
 20
114.650356451943
 30
0.0
 10
212.5120758557043
 20
114.3059146728745
 30
0.0
 10
212.3255904434086
 20
114.0278024527344
 30
0.0
 10
212.1378716756771
 20
113.5768047200689
 30
0.0
 10
212.0893429837189
 20
113.4182080856542
 30
0.0
 10
212.0247900124162
 20
113.0955239589972
 30
0.0
 10
212.0084945958455
 20
112.9320668742359
 30
0.0
 10
212.0084945958455
 20
112.600848609738
 30
0.0
  0
LINE
  5
11C
330
1F
100
AcDbEntity
  8
0
  6
HIDDEN
 62
     7
370
     0
100
AcDbLine
 10
136.5365344834
 20
123.5551331396
 30
0.0
 11
136.5365344834
 21
101.9777823444
 31
0.0
  0
LINE
  5
11D
330
1F
100
AcDbEntity
  8
0
  6
HIDDEN
 62
     7
370
     0
100
AcDbLine
 10
132.5365338277
 20
123.93633092
 30
0.0
 11
132.5365338277
 21
101.596584564
 31
0.0
  0
LINE
  5
11E
330
1F
100
AcDbEntity
  8
0
  6
HIDDEN
 62
     7
370
     0
100
AcDbLine
 10
131.5084952664
 20
101.0030452366
 30
0.0
 11
131.5084952664
 21
124.5120074804
 31
0.0
  0
LINE
  5
11F
330
1F
100
AcDbEntity
  8
0
  6
HIDDEN
 62
     7
370
     0
100
AcDbLine
 10
141.1365341198
 20
123.2664576004
 30
0.0
 11
141.1365341198
 21
102.2664578835
 31
0.0
  0
LINE
  5
120
330
1F
100
AcDbEntity
  8
0
  6
HIDDEN
 62
     7
370
     0
100
AcDbLine
 10
135.0365351688
 20
123.2664576004
 30
0.0
 11
135.0365351688
 21
102.2664578835
 31
0.0
  0
SPLINE
  5
121
330
1F
100
AcDbEntity
  8
0
  6
HIDDEN
 62
     7
370
     0
100
AcDbSpline
210
0.0
220
0.0
230
1.0
 70
     8
 71
     3
 72
    10
 73
     6
 74
     0
 42
0.00000001
 43
0.00000001
 12
1.0
 22
0.0
 32
0.0
 13
1.0
 23
0.0
 33
0.0
 40
0.0
 40
0.0
 40
0.0
 40
0.0
 40
0.5
 40
0.5
 40
1.0
 40
1.0
 40
1.0
 40
1.0
 10
216.069533487596
 20
111.3617664668503
 30
0.0
 10
215.8189762432063
 20
111.2455326465205
 30
0.0
 10
215.5670703917305
 20
111.1270638847454
 30
0.0
 10
215.057275411315
 20
110.889675468628
 30
0.0
 10
214.7991661810449
 20
110.771591885621
 30
0.0
 10
214.5421152717109
 20
110.6667268901497
 30
0.0
  0
SPLINE
  5
122
330
1F
100
AcDbEntity
  8
0
  6
HIDDEN
 62
     7
370
     0
100
AcDbSpline
210
0.0
220
0.0
230
1.0
 70
     8
 71
     3
 72
    46
 73
    42
 74
     0
 42
0.00000001
 43
0.00000001
 12
1.0
 22
0.0
 32
0.0
 13
1.0
 23
0.0
 33
0.0
 40
0.0
 40
0.0
 40
0.0
 40
0.0
 40
0.0624999999999989
 40
0.0624999999999989
 40
0.1249999999999977
 40
0.1249999999999977
 40
0.1562499999999978
 40
0.1562499999999978
 40
0.1874999999999978
 40
0.1874999999999978
 40
0.2187499999999978
 40
0.2187499999999978
 40
0.2499999999999978
 40
0.2499999999999978
 40
0.2812499999999978
 40
0.2812499999999978
 40
0.3124999999999978
 40
0.3124999999999978
 40
0.3749999999999978
 40
0.3749999999999978
 40
0.4374999999999978
 40
0.4374999999999978
 40
0.4999999999999978
 40
0.4999999999999978
 40
0.5624999999999978
 40
0.5624999999999978
 40
0.6249999999999978
 40
0.6249999999999978
 40
0.6562499999999982
 40
0.6562499999999982
 40
0.6874999999999986
 40
0.6874999999999986
 40
0.7499999999999988
 40
0.7499999999999988
 40
0.8749999999999996
 40
0.8749999999999996
 40
0.9375000000000002
 40
0.9375000000000002
 40
0.9687500000000001
 40
0.9687500000000001
 40
1.0
 40
1.0
 40
1.0
 40
1.0
 10
212.4283369596968
 20
113.0544581044387
 30
0.0
 10
212.4547900331645
 20
113.2455223180564
 30
0.0
 10
212.5055153103888
 20
113.4232997531016
 30
0.0
 10
212.6490101548914
 20
113.7592744719947
 30
0.0
 10
212.7423421979519
 20
113.9169709441535
 30
0.0
 10
212.9101264813228
 20
114.1315449555794
 30
0.0
 10
212.9709783941649
 20
114.1999397470329
 30
0.0
 10
213.1051280767388
 20
114.3315101827286
 30
0.0
 10
213.1786727320271
 20
114.3947393028438
 30
0.0
 10
213.337132796497
 20
114.5122064541282
 30
0.0
 10
213.4239555473535
 20
114.5675633913307
 30
0.0
 10
213.6018598963783
 20
114.6633552166871
 30
0.0
 10
213.6944668989567
 20
114.7045892680003
 30
0.0
 10
213.8724866060862
 20
114.7700766529556
 30
0.0
 10
213.9597335369043
 20
114.7953074782777
 30
0.0
 10
214.1271674695889
 20
114.8333296719909
 30
0.0
 10
214.2085336914144
 20
114.8465066106916
 30
0.0
 10
214.4505519458533
 20
114.8719177893065
 30
0.0
 10
214.606967187991
 20
114.8699460122813
 30
0.0
 10
214.9168384054789
 20
114.8322784234121
 30
0.0
 10
215.0708215854686
 20
114.7965458906666
 30
0.0
 10
215.3823192513445
 20
114.6831997710848
 30
0.0
 10
215.5351393225932
 20
114.607240458318
 30
0.0
 10
215.8337710792641
 20
114.4053972302536
 30
0.0
 10
215.9770429213652
 20
114.2806517910441
 30
0.0
 10
216.2347977218228
 20
113.9786026672447
 30
0.0
 10
216.3438068159149
 20
113.8071636845146
 30
0.0
 10
216.4680942335891
 20
113.5282511593529
 30
0.0
 10
216.5017320739222
 20
113.4347056565282
 30
0.0
 10
216.5551798558055
 20
113.2466976465773
 30
0.0
 10
216.574928707689
 20
113.1516903387226
 30
0.0
 10
216.6137279571449
 20
112.876951466622
 30
0.0
 10
216.6137223091571
 20
112.7010488538499
 30
0.0
 10
216.561281306065
 20
112.2177183571077
 30
0.0
 10
216.4569927651667
 20
111.9467568380296
 30
0.0
 10
216.2788705474331
 20
111.6304966238189
 30
0.0
 10
216.2144143241602
 20
111.53853623793
 30
0.0
 10
216.1317286483583
 20
111.433378769961
 30
0.0
 10
216.1071963023687
 20
111.4045415743544
 30
0.0
 10
216.0733282315946
 20
111.3657584571554
 30
0.0
 10
216.0647729578298
 20
111.3564760715581
 30
0.0
 10
216.0695334875944
 20
111.3617664668495
 30
0.0
  0
LWPOLYLINE
  5
123
330
1F
100
AcDbEntity
  8
0
  6
HIDDEN
 62
     7
370
     0
100
AcDbPolyline
 90
       20
 70
   128
 43
0.0
 10
212.4283365708
 20
113.0544581014
 10
212.2893534404
 20
113.4944551363
 10
212.211621533
 20
113.8507648342
 10
212.2006691795
 20
114.0980336553
 10
212.2572786909
 20
114.2186668207
 10
212.377419303
 20
114.2040805629
 10
212.5525452
 20
114.0553126083
 10
212.7701915603
 20
113.7829489511
 10
213.0148723524
 20
113.4063698905
 10
213.2691755694
 20
112.9523713666
 10
213.5150112015
 20
112.4532581511
 10
213.7348852855
 20
111.9445453136
 10
213.9131478768
 20
111.4624309325
 10
214.0371180874
 20
111.0412203911
 10
214.0979707044
 20
110.710885629
 10
214.0913843911
 20
110.4949317145
 10
214.0178173583
 20
110.4087252374
 10
213.8825110894
 20
110.4584005865
 10
213.6950917345
 20
110.6404226943
 10
213.4688958329
 20
110.9418396576
  0
SPLINE
  5
124
330
1F
100
AcDbEntity
  8
0
  6
HIDDEN
 62
     7
370
     0
100
AcDbSpline
210
0.0
220
0.0
230
1.0
 70
     8
 71
     3
 72
    12
 73
     8
 74
     0
 42
0.00000001
 43
0.00000001
 12
1.0
 22
0.0
 32
0.0
 13
1.0
 23
0.0
 33
0.0
 40
0.0
 40
0.0
 40
0.0
 40
0.0
 40
0.2499999999999976
 40
0.2499999999999976
 40
0.4999999999999951
 40
0.4999999999999951
 40
1.0
 40
1.0
 40
1.0
 40
1.0
 10
214.5421152717105
 20
110.6667268901504
 30
0.0
 10
214.5006512820746
 20
110.6660629729848
 30
0.0
 10
214.4315206375296
 20
110.6662816605992
 30
0.0
 10
214.2687120912474
 20
110.6785954587937
 30
0.0
 10
214.1756882745857
 20
110.6906634205882
 30
0.0
 10
213.8867240859183
 20
110.7509851220113
 30
0.0
 10
213.6753163651363
 20
110.8242279398814
 30
0.0
 10
213.4688943223606
 20
110.941839625402
 30
0.0
  0
SPLINE
  5
125
330
1F
100
AcDbEntity
  8
0
  6
HIDDEN
 62
     7
370
     0
100
AcDbSpline
210
0.0
220
0.0
230
1.0
 70
     8
 71
     3
 72
    20
 73
    16
 74
     0
 42
0.00000001
 43
0.00000001
 12
1.0
 22
0.0
 32
0.0
 13
1.0
 23
0.0
 33
0.0
 40
0.0
 40
0.0
 40
0.0
 40
0.0
 40
0.125
 40
0.125
 40
0.2499999999999999
 40
0.2499999999999999
 40
0.3749999999999999
 40
0.3749999999999999
 40
0.4999999999999999
 40
0.4999999999999999
 40
0.7499999999999998
 40
0.7499999999999998
 40
0.8749999999999999
 40
0.8749999999999999
 40
1.0
 40
1.0
 40
1.0
 40
1.0
 10
213.4688943223606
 20
110.941839625402
 30
0.0
 10
213.4026740819823
 20
110.9795694820672
 30
0.0
 10
213.330201663934
 20
111.0254066130153
 30
0.0
 10
213.1729474180547
 20
111.142897763735
 30
0.0
 10
213.088364792992
 20
111.2151356878381
 30
0.0
 10
212.9266374633803
 20
111.3804213841989
 30
0.0
 10
212.853201718166
 20
111.4690402117218
 30
0.0
 10
212.7211444433861
 20
111.658005581883
 30
0.0
 10
212.6637000709727
 20
111.7567886487298
 30
0.0
 10
212.5175181813652
 20
112.0616123798678
 30
0.0
 10
212.4538828799858
 20
112.2833791898474
 30
0.0
 10
212.412576874616
 20
112.5981501264213
 30
0.0
 10
212.4074101142548
 20
112.7012988866475
 30
0.0
 10
212.409969954127
 20
112.8889159116226
 30
0.0
 10
212.4173146256167
 20
112.974846425448
 30
0.0
 10
212.4283369596968
 20
113.0544581044387
 30
0.0
  0
LINE
  5
126
330
1F
100
AcDbEntity
  8
0
  6
HIDDEN
 62
     7
370
     0
100
AcDbLine
 10
136.0365353328
 20
123.2664576004
 30
0.0
 11
136.0365353328
 21
102.2664578835
 31
0.0
  0
SPLINE
  5
127
330
1F
100
AcDbEntity
  8
0
  6
HIDDEN
 62
     7
370
     0
100
AcDbSpline
210
0.0
220
0.0
230
1.0
 70
     8
 71
     3
 72
    66
 73
    62
 74
     0
 42
0.00000001
 43
0.00000001
 12
1.0
 22
0.0
 32
0.0
 13
1.0
 23
0.0
 33
0.0
 40
-0.03125
 40
-0.03125
 40
0.0
 40
0.0
 40
0.03125
 40
0.03125
 40
0.0625
 40
0.0625
 40
0.0937499999999999
 40
0.0937499999999999
 40
0.1249999999999999
 40
0.1249999999999999
 40
0.1874999999999999
 40
0.1874999999999999
 40
0.2187499999999999
 40
0.2187499999999999
 40
0.2499999999999999
 40
0.2499999999999999
 40
0.28125
 40
0.28125
 40
0.3125
 40
0.3125
 40
0.3437500000000001
 40
0.3437500000000001
 40
0.3750000000000002
 40
0.3750000000000002
 40
0.4062500000000002
 40
0.4062500000000002
 40
0.4375000000000002
 40
0.4375000000000002
 40
0.4687500000000001
 40
0.4687500000000001
 40
0.5000000000000001
 40
0.5000000000000001
 40
0.5312500000000001
 40
0.5312500000000001
 40
0.5625000000000001
 40
0.5625000000000001
 40
0.59375
 40
0.59375
 40
0.625
 40
0.625
 40
0.65625
 40
0.65625
 40
0.6875
 40
0.6875
 40
0.71875
 40
0.71875
 40
0.7499999999999999
 40
0.7499999999999999
 40
0.7812499999999999
 40
0.7812499999999999
 40
0.8124999999999999
 40
0.8124999999999999
 40
0.8749999999999999
 40
0.8749999999999999
 40
0.9062500000000001
 40
0.9062500000000001
 40
0.9375
 40
0.9375
 40
0.96875
 40
0.96875
 40
1.0
 40
1.0
 40
1.03125
 40
1.03125
 10
147.3058159488977
 20
115.816457741987
 30
0.0
 10
147.7111732427933
 20
115.816457741987
 30
0.0
 10
147.9102331341291
 20
115.7964581823704
 30
0.0
 10
148.3014871187088
 20
115.7183146796702
 30
0.0
 10
148.4957598774565
 20
115.6591535781495
 30
0.0
 10
148.8645233040078
 20
115.5057218912551
 30
0.0
 10
149.0392484623861
 20
115.4119950814129
 30
0.0
 10
149.3699257659198
 20
115.190740979008
 30
0.0
 10
149.5255733099227
 20
115.0627596120135
 30
0.0
 10
149.9450406795913
 20
114.6432045150134
 30
0.0
 10
150.1719288211216
 20
114.30472595631
 30
0.0
 10
150.4007254445064
 20
113.7548470685918
 30
0.0
 10
150.4599176993552
 20
113.5614472228484
 30
0.0
 10
150.5387251096158
 20
113.1672190724905
 30
0.0
 10
150.5583645258962
 20
112.9685802450581
 30
0.0
 10
150.5586233903178
 20
112.5682799591597
 30
0.0
 10
150.5385527056848
 20
112.3649406324387
 30
0.0
 10
150.4602150230549
 20
111.9728491118311
 30
0.0
 10
150.4022652550164
 20
111.7821432435158
 30
0.0
 10
150.2483221131364
 20
111.4114194269293
 30
0.0
 10
150.1533834994137
 20
111.2346927671204
 30
0.0
 10
149.9330260835366
 20
110.9054396561961
 30
0.0
 10
149.8057460576083
 20
110.7503184325996
 30
0.0
 10
149.5239904662778
 20
110.4686417376692
 30
0.0
 10
149.3712021368202
 20
110.3432085527649
 30
0.0
 10
149.0417750546633
 20
110.1224329594107
 30
0.0
 10
148.8632290515116
 20
110.0266017067106
 30
0.0
 10
148.4956567259615
 20
109.8737725762155
 30
0.0
 10
148.3055026992505
 20
109.8156008182713
 30
0.0
 10
147.911962276548
 20
109.7366075259263
 30
0.0
 10
147.7095282052868
 20
109.7165444002841
 30
0.0
 10
147.3100991299215
 20
109.7163716541654
 30
0.0
 10
147.1100801513656
 20
109.7358550282546
 30
0.0
 10
146.7139642039162
 20
109.8148465998558
 30
0.0
 10
146.5232313757243
 20
109.8731268197078
 30
0.0
 10
146.1555999351446
 20
110.0256944403158
 30
0.0
 10
145.9771135029768
 20
110.1213032270891
 30
0.0
 10
145.6469082440128
 20
110.3423152721741
 30
0.0
 10
145.4940196659508
 20
110.4677651709443
 30
0.0
 10
145.2124232714128
 20
110.7489956599496
 30
0.0
 10
145.0847923485373
 20
110.9043785378635
 30
0.0
 10
144.8644669135374
 20
111.2332293959065
 30
0.0
 10
144.7702404565721
 20
111.4081175023205
 30
0.0
 10
144.615305935969
 20
111.7802613536813
 30
0.0
 10
144.5572936503668
 20
111.9710673954902
 30
0.0
 10
144.4788743960886
 20
112.3619404134089
 30
0.0
 10
144.4585603161221
 20
112.5643979747912
 30
0.0
 10
144.4584291998181
 20
112.9665285797107
 30
0.0
 10
144.4780538931775
 20
113.1652526248858
 30
0.0
 10
144.5562203435911
 20
113.5580920960225
 30
0.0
 10
144.615507788931
 20
113.7527363734251
 30
0.0
 10
144.8445886320139
 20
114.3041761268393
 30
0.0
 10
145.0714194829081
 20
114.6425156925384
 30
0.0
 10
145.4907581842288
 20
115.0621813551899
 30
0.0
 10
145.6461111799787
 20
115.1900273609632
 30
0.0
 10
145.9770790131159
 20
115.411628435665
 30
0.0
 10
146.1516403133123
 20
115.5052691696419
 30
0.0
 10
146.5192136208871
 20
115.6584232903411
 30
0.0
 10
146.7139004825251
 20
115.7179270359872
 30
0.0
 10
147.1063764324616
 20
115.7964497850502
 30
0.0
 10
147.3058159488977
 20
115.816457741987
 30
0.0
 10
147.7111732427933
 20
115.816457741987
 30
0.0
  0
SPLINE
  5
128
330
1F
100
AcDbEntity
  8
0
  6
HIDDEN
 62
     7
370
     0
100
AcDbSpline
210
0.0
220
0.0
230
1.0
 70
     8
 71
     3
 72
    66
 73
    62
 74
     0
 42
0.00000001
 43
0.00000001
 12
1.0
 22
0.0
 32
0.0
 13
1.0
 23
0.0
 33
0.0
 40
-0.03125
 40
-0.03125
 40
0.0
 40
0.0
 40
0.0312499999999999
 40
0.0312499999999999
 40
0.0624999999999998
 40
0.0624999999999998
 40
0.0937499999999997
 40
0.0937499999999997
 40
0.1249999999999998
 40
0.1249999999999998
 40
0.1875000000000001
 40
0.1875000000000001
 40
0.2187500000000001
 40
0.2187500000000001
 40
0.2500000000000002
 40
0.2500000000000002
 40
0.2812500000000002
 40
0.2812500000000002
 40
0.3125000000000002
 40
0.3125000000000002
 40
0.3437500000000002
 40
0.3437500000000002
 40
0.3750000000000002
 40
0.3750000000000002
 40
0.4062500000000002
 40
0.4062500000000002
 40
0.4375000000000002
 40
0.4375000000000002
 40
0.4687500000000002
 40
0.4687500000000002
 40
0.5000000000000002
 40
0.5000000000000002
 40
0.5312500000000002
 40
0.5312500000000002
 40
0.5625000000000002
 40
0.5625000000000002
 40
0.5937500000000002
 40
0.5937500000000002
 40
0.6250000000000002
 40
0.6250000000000002
 40
0.6562500000000002
 40
0.6562500000000002
 40
0.6875000000000002
 40
0.6875000000000002
 40
0.7187500000000002
 40
0.7187500000000002
 40
0.7500000000000002
 40
0.7500000000000002
 40
0.7812500000000003
 40
0.7812500000000003
 40
0.8125000000000003
 40
0.8125000000000003
 40
0.8750000000000003
 40
0.8750000000000003
 40
0.9062500000000002
 40
0.9062500000000002
 40
0.9375000000000001
 40
0.9375000000000001
 40
0.96875
 40
0.96875
 40
1.0
 40
1.0
 40
1.03125
 40
1.03125
 10
147.7111732427933
 20
115.816457741987
 30
0.0
 10
147.3058159488977
 20
115.816457741987
 30
0.0
 10
147.1067560575618
 20
115.7964581823704
 30
0.0
 10
146.7155020729821
 20
115.7183146796702
 30
0.0
 10
146.5212293142345
 20
115.6591535781494
 30
0.0
 10
146.1524658876831
 20
115.5057218912551
 30
0.0
 10
145.9777407293049
 20
115.4119950814129
 30
0.0
 10
145.6470634257711
 20
115.190740979008
 30
0.0
 10
145.4914158817683
 20
115.0627596120135
 30
0.0
 10
145.0719485120996
 20
114.6432045150134
 30
0.0
 10
144.8450603705693
 20
114.30472595631
 30
0.0
 10
144.6162637471845
 20
113.7548470685918
 30
0.0
 10
144.5570714923357
 20
113.5614472228484
 30
0.0
 10
144.4782640820752
 20
113.1672190724905
 30
0.0
 10
144.4586246657948
 20
112.9685802450581
 30
0.0
 10
144.4583658013732
 20
112.5682799591597
 30
0.0
 10
144.4784364860061
 20
112.3649406324387
 30
0.0
 10
144.5567741686361
 20
111.9728491118311
 30
0.0
 10
144.6147239366745
 20
111.7821432435158
 30
0.0
 10
144.7686670785545
 20
111.4114194269293
 30
0.0
 10
144.8636056922772
 20
111.2346927671204
 30
0.0
 10
145.0839631081544
 20
110.9054396561961
 30
0.0
 10
145.2112431340827
 20
110.7503184325996
 30
0.0
 10
145.4929987254132
 20
110.4686417376692
 30
0.0
 10
145.6457870548707
 20
110.3432085527649
 30
0.0
 10
145.9752141370276
 20
110.1224329594108
 30
0.0
 10
146.1537601401793
 20
110.0266017067106
 30
0.0
 10
146.5213324657295
 20
109.8737725762155
 30
0.0
 10
146.7114864924405
 20
109.8156008182713
 30
0.0
 10
147.1050269151429
 20
109.7366075259263
 30
0.0
 10
147.3074609864041
 20
109.7165444002841
 30
0.0
 10
147.7068900617695
 20
109.7163716541654
 30
0.0
 10
147.9069090403254
 20
109.7358550282546
 30
0.0
 10
148.3030249877748
 20
109.8148465998558
 30
0.0
 10
148.4937578159666
 20
109.8731268197078
 30
0.0
 10
148.8613892565463
 20
110.0256944403158
 30
0.0
 10
149.0398756887141
 20
110.1213032270891
 30
0.0
 10
149.3700809476782
 20
110.3423152721741
 30
0.0
 10
149.5229695257401
 20
110.4677651709443
 30
0.0
 10
149.8045659202782
 20
110.7489956599496
 30
0.0
 10
149.9321968431537
 20
110.9043785378635
 30
0.0
 10
150.1525222781535
 20
111.2332293959065
 30
0.0
 10
150.2467487351188
 20
111.4081175023205
 30
0.0
 10
150.401683255722
 20
111.7802613536813
 30
0.0
 10
150.4596955413242
 20
111.9710673954902
 30
0.0
 10
150.5381147956023
 20
112.3619404134089
 30
0.0
 10
150.5584288755689
 20
112.5643979747912
 30
0.0
 10
150.5585599918728
 20
112.9665285797107
 30
0.0
 10
150.5389352985135
 20
113.1652526248858
 30
0.0
 10
150.4607688480998
 20
113.5580920960225
 30
0.0
 10
150.4014814027599
 20
113.7527363734251
 30
0.0
 10
150.1724005596771
 20
114.3041761268393
 30
0.0
 10
149.9455697087829
 20
114.6425156925384
 30
0.0
 10
149.5262310074622
 20
115.0621813551899
 30
0.0
 10
149.3708780117122
 20
115.1900273609632
 30
0.0
 10
149.039910178575
 20
115.411628435665
 30
0.0
 10
148.8653488783787
 20
115.5052691696419
 30
0.0
 10
148.4977755708038
 20
115.6584232903411
 30
0.0
 10
148.3030887091658
 20
115.7179270359872
 30
0.0
 10
147.9106127592293
 20
115.7964497850502
 30
0.0
 10
147.7111732427933
 20
115.816457741987
 30
0.0
 10
147.3058159488977
 20
115.816457741987
 30
0.0
  0
LINE
  5
129
330
1F
100
AcDbEntity
  8
0
  6
HIDDEN
 62
     7
370
     0
100
AcDbLine
 10
151.5084948194
 20
122.7664575185
 30
0.0
 11
151.5084948194
 21
102.7664579655
 31
0.0
  0
ARC
  5
12A
330
1F
100
AcDbEntity
  8
0
  6
HIDDEN
 62
     7
370
     0
100
AcDbCircle
 10
214.5084945958
 20
112.766457742
 30
0.0
 40
2.10000000000066
100
AcDbArc
 50
270.9173357771
 51
318.0177302523
  0
LINE
  5
12B
330
1F
100
AcDbEntity
  8
0
  6
HIDDEN
 62
     7
370
     0
100
AcDbLine
 10
152.5084949833
 20
120.0164575334
 30
0.0
 11
152.5084949833
 21
105.5164579506
 31
0.0
  0
LINE
  5
12C
330
1F
100
AcDbEntity
  8
0
  6
HIDDEN
 62
     7
370
     0
100
AcDbLine
 10
151.5084948194
 20
104.5164577867
 30
0.0
 11
151.5084948194
 21
121.0164576973
 31
0.0
  0
LINE
  5
12D
330
1F
100
AcDbEntity
  8
0
  6
HIDDEN
 62
     7
370
     0
100
AcDbLine
 10
176.5084942606
 20
120.0164575334
 30
0.0
 11
176.5084942606
 21
105.5164579506
 31
0.0
  0
LINE
  5
12E
330
1F
100
AcDbEntity
  8
0
  6
HIDDEN
 62
     7
370
     0
100
AcDbLine
 10
178.9119370085
 20
116.016457809
 30
0.0
 11
178.9119370085
 21
109.5164576749
 31
0.0
  0
LINE
  5
12F
330
1F
100
AcDbEntity
  8
0
  6
HIDDEN
 62
     7
370
     0
100
AcDbLine
 10
217.5084963244
 20
109.5164576749
 30
0.0
 11
217.5084963244
 21
116.016457809
 31
0.0
  0
SPLINE
  5
130
330
1F
100
AcDbEntity
  8
0
  6
HIDDEN
 62
     7
370
     0
100
AcDbSpline
210
0.0
220
0.0
230
1.0
 70
     8
 71
     3
 72
    62
 73
    58
 74
     0
 42
0.00000001
 43
0.00000001
 12
1.0
 22
0.0
 32
0.0
 13
1.0
 23
0.0
 33
0.0
 40
-0.0624999999999998
 40
-0.0624999999999998
 40
0.0
 40
0.0
 40
0.0312500000000003
 40
0.0312500000000003
 40
0.0625000000000005
 40
0.0625000000000005
 40
0.1250000000000004
 40
0.1250000000000004
 40
0.1562500000000004
 40
0.1562500000000004
 40
0.1875000000000004
 40
0.1875000000000004
 40
0.2187500000000004
 40
0.2187500000000004
 40
0.2500000000000003
 40
0.2500000000000003
 40
0.2812500000000003
 40
0.2812500000000003
 40
0.3125000000000003
 40
0.3125000000000003
 40
0.3437500000000003
 40
0.3437500000000003
 40
0.3750000000000002
 40
0.3750000000000002
 40
0.4062500000000002
 40
0.4062500000000002
 40
0.4375000000000002
 40
0.4375000000000002
 40
0.4687500000000002
 40
0.4687500000000002
 40
0.5000000000000001
 40
0.5000000000000001
 40
0.5312500000000001
 40
0.5312500000000001
 40
0.5625000000000001
 40
0.5625000000000001
 40
0.625
 40
0.625
 40
0.65625
 40
0.65625
 40
0.6874999999999999
 40
0.6874999999999999
 40
0.7500000000000011
 40
0.7500000000000011
 40
0.7812500000000011
 40
0.7812500000000011
 40
0.812500000000001
 40
0.812500000000001
 40
0.8437500000000008
 40
0.8437500000000008
 40
0.8750000000000007
 40
0.8750000000000007
 40
0.9062500000000004
 40
0.9062500000000004
 40
0.9375000000000002
 40
0.9375000000000002
 40
1.0
 40
1.0
 40
1.03125
 40
1.03125
 10
212.4084945958455
 20
112.4800613952892
 30
0.0
 10
212.4084945958455
 20
112.9096559153358
 30
0.0
 10
212.4229822471478
 20
113.0497405666019
 30
0.0
 10
212.4790626327421
 20
113.3241465642047
 30
0.0
 10
212.5214009544765
 20
113.459551060577
 30
0.0
 10
212.682475597327
 20
113.8394594048105
 30
0.0
 10
212.8377206680715
 20
114.0661433247697
 30
0.0
 10
213.1201419098661
 20
114.3476420615049
 30
0.0
 10
213.2242193564904
 20
114.4333117851611
 30
0.0
 10
213.4452657293832
 20
114.5823073142775
 30
0.0
 10
213.5623795666651
 20
114.6461579832855
 30
0.0
 10
213.8121122226275
 20
114.7522719920744
 30
0.0
 10
213.9461478953092
 20
114.7945684917085
 30
0.0
 10
214.2194022925799
 20
114.8511382126905
 30
0.0
 10
214.3617540551911
 20
114.8661509041534
 30
0.0
 10
214.6463173715429
 20
114.8667551123656
 30
0.0
 10
214.7863108666366
 20
114.8527467761802
 30
0.0
 10
215.0620544245981
 20
114.7970624131385
 30
0.0
 10
215.1951588355267
 20
114.7557037846187
 30
0.0
 10
215.44673354392
 20
114.6501549768151
 30
0.0
 10
215.5668514827908
 20
114.5851724737012
 30
0.0
 10
215.7887579833973
 20
114.4364182906207
 30
0.0
 10
215.8916828179188
 20
114.3522857635529
 30
0.0
 10
216.0825401978009
 20
114.1630395027983
 30
0.0
 10
216.1677853731445
 20
114.0605692228485
 30
0.0
 10
216.3188662910477
 20
113.8390829019278
 30
0.0
 10
216.3851558285375
 20
113.7190106015364
 30
0.0
 10
216.4940793422477
 20
113.4640733577667
 30
0.0
 10
216.535898794106
 20
113.3316447793683
 30
0.0
 10
216.593182205329
 20
113.0560811892669
 30
0.0
 10
216.6081470475658
 20
112.9126955511516
 30
0.0
 10
216.6088298599924
 20
112.6303780115884
 30
0.0
 10
216.5947646379708
 20
112.4880892622777
 30
0.0
 10
216.5385818494613
 20
112.2107982762421
 30
0.0
 10
216.4972463311139
 20
112.0779566993397
 30
0.0
 10
216.3358455132177
 20
111.6952634431706
 30
0.0
 10
216.180687045068
 20
111.4682957097268
 30
0.0
 10
215.8967854497004
 20
111.1851571483577
 30
0.0
 10
215.7944503732261
 20
111.1008774652812
 30
0.0
 10
215.5730701057392
 20
110.9513767787062
 30
0.0
 10
215.4529964797428
 20
110.8859192886633
 30
0.0
 10
215.0771945421987
 20
110.7266991524781
 30
0.0
 10
214.7950979965833
 20
110.6670808330284
 30
0.0
 10
214.3720965785008
 20
110.6661537616879
 30
0.0
 10
214.2281313706954
 20
110.6805492541531
 30
0.0
 10
213.9535998991365
 20
110.736258334737
 30
0.0
 10
213.8202011004992
 20
110.7777351301459
 30
0.0
 10
213.5676761577135
 20
110.8840055569222
 30
0.0
 10
213.4498474509925
 20
110.9479223615102
 30
0.0
 10
213.2281906490626
 20
111.0965396268678
 30
0.0
 10
213.1236428317377
 20
111.1821788848352
 30
0.0
 10
212.9345114439969
 20
111.3699152458675
 30
0.0
 10
212.8491796638966
 20
111.4722586602286
 30
0.0
 10
212.6969291387788
 20
111.6957066498206
 30
0.0
 10
212.6303216737018
 20
111.8170491666747
 30
0.0
 10
212.4686654935712
 20
112.1965999466428
 30
0.0
 10
212.4084945958455
 20
112.4800613952892
 30
0.0
 10
212.4084945958455
 20
112.9096559153358
 30
0.0
  0
SPLINE
  5
131
330
1F
100
AcDbEntity
  8
0
  6
HIDDEN
 62
     7
370
     0
100
AcDbSpline
210
0.0
220
0.0
230
1.0
 70
     8
 71
     3
 72
    62
 73
    58
 74
     0
 42
0.00000001
 43
0.00000001
 12
1.0
 22
0.0
 32
0.0
 13
1.0
 23
0.0
 33
0.0
 40
-0.0625000000000001
 40
-0.0625000000000001
 40
0.0
 40
0.0
 40
0.0312500000000002
 40
0.0312500000000002
 40
0.0625000000000005
 40
0.0625000000000005
 40
0.1250000000000003
 40
0.1250000000000003
 40
0.1562500000000002
 40
0.1562500000000002
 40
0.1875000000000002
 40
0.1875000000000002
 40
0.2187500000000002
 40
0.2187500000000002
 40
0.2500000000000001
 40
0.2500000000000001
 40
0.2812500000000001
 40
0.2812500000000001
 40
0.3125
 40
0.3125
 40
0.3437499999999999
 40
0.3437499999999999
 40
0.3749999999999999
 40
0.3749999999999999
 40
0.4062499999999999
 40
0.4062499999999999
 40
0.4374999999999998
 40
0.4374999999999998
 40
0.4687499999999998
 40
0.4687499999999998
 40
0.4999999999999997
 40
0.4999999999999997
 40
0.5312499999999997
 40
0.5312499999999997
 40
0.5624999999999996
 40
0.5624999999999996
 40
0.6249999999999994
 40
0.6249999999999994
 40
0.6562499999999993
 40
0.6562499999999993
 40
0.6874999999999992
 40
0.6874999999999992
 40
0.7500000000000004
 40
0.7500000000000004
 40
0.7812500000000004
 40
0.7812500000000004
 40
0.8125000000000003
 40
0.8125000000000003
 40
0.8437500000000002
 40
0.8437500000000002
 40
0.8750000000000001
 40
0.8750000000000001
 40
0.90625
 40
0.90625
 40
0.9374999999999999
 40
0.9374999999999999
 40
1.0
 40
1.0
 40
1.03125
 40
1.03125
 10
212.4084945958454
 20
113.0528540886847
 30
0.0
 10
212.4084945958455
 20
112.6232595686381
 30
0.0
 10
212.4229822471478
 20
112.483174917372
 30
0.0
 10
212.4790626327421
 20
112.2087689197692
 30
0.0
 10
212.5214009544765
 20
112.0733644233969
 30
0.0
 10
212.6824755973271
 20
111.6934560791635
 30
0.0
 10
212.8377206680715
 20
111.4667721592042
 30
0.0
 10
213.1201419098661
 20
111.185273422469
 30
0.0
 10
213.2242193564904
 20
111.0996036988128
 30
0.0
 10
213.4452657293832
 20
110.9506081696964
 30
0.0
 10
213.5623795666651
 20
110.8867575006884
 30
0.0
 10
213.8121122226275
 20
110.7806434918996
 30
0.0
 10
213.9461478953092
 20
110.7383469922654
 30
0.0
 10
214.21940229258
 20
110.6817772712835
 30
0.0
 10
214.3617540551911
 20
110.6667645798205
 30
0.0
 10
214.6463173715429
 20
110.6661603716084
 30
0.0
 10
214.7863108666366
 20
110.6801687077937
 30
0.0
 10
215.0620544245981
 20
110.7358530708354
 30
0.0
 10
215.1951588355267
 20
110.7772116993552
 30
0.0
 10
215.44673354392
 20
110.8827605071589
 30
0.0
 10
215.5668514827908
 20
110.9477430102728
 30
0.0
 10
215.7887579833973
 20
111.0964971933532
 30
0.0
 10
215.8916828179188
 20
111.180629720421
 30
0.0
 10
216.082540197801
 20
111.3698759811756
 30
0.0
 10
216.1677853731445
 20
111.4723462611254
 30
0.0
 10
216.3188662910477
 20
111.6938325820462
 30
0.0
 10
216.3851558285374
 20
111.8139048824375
 30
0.0
 10
216.4940793422477
 20
112.0688421262072
 30
0.0
 10
216.535898794106
 20
112.2012707046056
 30
0.0
 10
216.593182205329
 20
112.476834294707
 30
0.0
 10
216.6081470475658
 20
112.6202199328223
 30
0.0
 10
216.6088298599924
 20
112.9025374723855
 30
0.0
 10
216.5947646379708
 20
113.0448262216963
 30
0.0
 10
216.5385818494613
 20
113.3221172077318
 30
0.0
 10
216.4972463311139
 20
113.4549587846343
 30
0.0
 10
216.3358455132177
 20
113.8376520408033
 30
0.0
 10
216.180687045068
 20
114.0646197742471
 30
0.0
 10
215.8967854497004
 20
114.3477583356162
 30
0.0
 10
215.7944503732261
 20
114.4320380186927
 30
0.0
 10
215.5730701057392
 20
114.5815387052678
 30
0.0
 10
215.4529964797428
 20
114.6469961953106
 30
0.0
 10
215.0771945421987
 20
114.8062163314958
 30
0.0
 10
214.7950979965833
 20
114.8658346509455
 30
0.0
 10
214.3720965785008
 20
114.866761722286
 30
0.0
 10
214.2281313706954
 20
114.8523662298208
 30
0.0
 10
213.9535998991365
 20
114.7966571492369
 30
0.0
 10
213.8202011004993
 20
114.7551803538281
 30
0.0
 10
213.5676761577136
 20
114.6489099270517
 30
0.0
 10
213.4498474509925
 20
114.5849931224637
 30
0.0
 10
213.2281906490626
 20
114.4363758571062
 30
0.0
 10
213.1236428317376
 20
114.3507365991387
 30
0.0
 10
212.9345114439969
 20
114.1630002381064
 30
0.0
 10
212.8491796638966
 20
114.0606568237454
 30
0.0
 10
212.6969291387788
 20
113.8372088341533
 30
0.0
 10
212.6303216737019
 20
113.7158663172992
 30
0.0
 10
212.4686654935712
 20
113.3363155373311
 30
0.0
 10
212.4084945958454
 20
113.0528540886847
 30
0.0
 10
212.4084945958455
 20
112.6232595686381
 30
0.0
  0
ELLIPSE
  5
132
330
1F
100
AcDbEntity
  8
0
  6
HIDDEN
 62
     7
370
     0
100
AcDbEllipse
 10
246.0881018744
 20
112.766457742
 30
0.0
 11
4.247080252763055
 21
12.99357047085398
 31
0.0
210
0.0
220
0.0
230
1.0
 40
0.0962569477
 41
1.602248510774569
 42
3.173044837569643
  0
LINE
  5
133
330
1F
100
AcDbEntity
  8
0
  6
HIDDEN
 62
     7
370
     0
100
AcDbLine
 10
226.0084911984
 20
99.7664574738
 30
0.0
 11
226.0084911984
 21
112.766457742
 31
0.0
  0
SPLINE
  5
134
330
1F
100
AcDbEntity
  8
0
  6
HIDDEN
 62
     7
370
     0
100
AcDbSpline
210
0.0
220
0.0
230
1.0
 70
     8
 71
     3
 72
    10
 73
     6
 74
     0
 42
0.00000001
 43
0.00000001
 12
1.0
 22
0.0
 32
0.0
 13
1.0
 23
0.0
 33
0.0
 40
0.0
 40
0.0
 40
0.0
 40
0.0
 40
0.5000000000000001
 40
0.5000000000000001
 40
1.0
 40
1.0
 40
1.0
 40
1.0
 10
226.0084945958455
 20
112.766457741987
 30
0.0
 10
226.0084945958455
 20
113.0994376804889
 30
0.0
 10
226.0213068363825
 20
113.43281769766
 30
0.0
 10
226.0725133588813
 20
114.1003765641081
 30
0.0
 10
226.1111328695372
 20
114.4356074469421
 30
0.0
 10
226.1614410338113
 20
114.766457741987
 30
0.0
  0
SPLINE
  5
135
330
1F
100
AcDbEntity
  8
0
  6
HIDDEN
 62
     7
370
     0
100
AcDbSpline
210
0.0
220
0.0
230
1.0
 70
     8
 71
     3
 72
    16
 73
    12
 74
     0
 42
0.00000001
 43
0.00000001
 12
1.0
 22
0.0
 32
0.0
 13
1.0
 23
0.0
 33
0.0
 40
0.0
 40
0.0
 40
0.0
 40
0.0
 40
0.2500000000000002
 40
0.2500000000000002
 40
0.5000000000000003
 40
0.5000000000000003
 40
0.6250000000000006
 40
0.6250000000000006
 40
0.7500000000000004
 40
0.7500000000000004
 40
1.0
 40
1.0
 40
1.0
 40
1.0
 10
226.1614410338114
 20
114.766457741987
 30
0.0
 10
226.287973929562
 20
115.5985979422111
 30
0.0
 10
226.4291630745556
 20
116.4176705029939
 30
0.0
 10
226.7364785363821
 20
118.0317216492604
 30
0.0
 10
226.9026194606929
 20
118.8266913611052
 30
0.0
 10
227.1688110907233
 20
120.0013183026792
 30
0.0
 10
227.2607542558649
 20
120.3913296646099
 30
0.0
 10
227.4477299856654
 20
121.1553361928907
 30
0.0
 10
227.5428526772386
 20
121.5298639447406
 30
0.0
 10
227.832661593559
 20
122.6317080986801
 30
0.0
 10
228.0317497297412
 20
123.3373983207403
 30
0.0
 10
228.2360213251457
 20
124.0145839785312
 30
0.0
  0
SPLINE
  5
136
330
1F
100
AcDbEntity
  8
0
  6
HIDDEN
 62
     7
370
     0
100
AcDbSpline
210
0.0
220
0.0
230
1.0
 70
     8
 71
     3
 72
    18
 73
    14
 74
     0
 42
0.00000001
 43
0.00000001
 12
1.0
 22
0.0
 32
0.0
 13
1.0
 23
0.0
 33
0.0
 40
0.0
 40
0.0
 40
0.0
 40
0.0
 40
0.2500000000000001
 40
0.2500000000000001
 40
0.375
 40
0.375
 40
0.5
 40
0.5
 40
0.7499999999999999
 40
0.7499999999999999
 40
0.875
 40
0.875
 40
1.0
 40
1.0
 40
1.0
 40
1.0
 10
228.2360213251457
 20
124.0145839785312
 30
0.0
 10
227.8214170845978
 20
124.1665036734097
 30
0.0
 10
227.4425752157896
 20
124.321726887837
 30
0.0
 10
226.9536144601984
 20
124.5618871706211
 30
0.0
 10
226.8039547779822
 20
124.6431716906616
 30
0.0
 10
226.5371131325304
 20
124.808740833206
 30
0.0
 10
226.4209987508349
 20
124.8924757232486
 30
0.0
 10
226.1345953700734
 20
125.1444240874006
 30
0.0
 10
226.0252524019862
 20
125.3143197068534
 30
0.0
 10
226.0028004973208
 20
125.5725117459513
 30
0.0
 10
226.0190812433111
 20
125.6595975095536
 30
0.0
 10
226.0984105171085
 20
125.8322495264755
 30
0.0
 10
226.161068750568
 20
125.9177422952431
 30
0.0
 10
226.2445698229556
 20
126.0024797632612
 30
0.0
  0
LINE
  5
137
330
1F
100
AcDbEntity
  8
0
  6
HIDDEN
 62
     7
370
     0
100
AcDbLine
 10
240.6606465381
 20
126.4400473068
 30
0.0
 11
238.3045270842
 21
118.985593805
 31
0.0
  0
LINE
  5
138
330
1F
100
AcDbEntity
  8
0
  6
HIDDEN
 62
     7
370
     0
100
AcDbLine
 10
238.3045270842
 20
118.985593805
 30
0.0
 11
238.2542952698
 21
118.9697943832
 31
0.0
  0
LINE
  5
139
330
1F
100
AcDbEntity
  8
0
  6
HIDDEN
 62
     7
370
     0
100
AcDbLine
 10
237.7597853344
 20
115.6419331877
 30
0.0
 11
248.1215685409
 21
118.9010315779
 31
0.0
  0
LINE
  5
13A
330
1F
100
AcDbEntity
  8
0
  6
HIDDEN
 62
     7
370
     0
100
AcDbLine
 10
237.5307097834
 20
115.6972013618
 30
0.0
 11
247.9091599387
 21
118.9615451935
 31
0.0
  0
LINE
  5
13B
330
1F
100
AcDbEntity
  8
0
  6
HIDDEN
 62
     7
370
     0
100
AcDbLine
 10
248.1215685409
 20
118.9010315779
 30
0.0
 11
247.9091599387
 21
118.9615451935
 31
0.0
  0
LINE
  5
13C
330
1F
100
AcDbEntity
  8
0
  6
HIDDEN
 62
     7
370
     0
100
AcDbLine
 10
238.3045270842
 20
118.985593805
 30
0.0
 11
238.5169282358
 21
118.6223370227
 31
0.0
  0
LINE
  5
13D
330
1F
100
AcDbEntity
  8
0
  6
HIDDEN
 62
     7
370
     0
100
AcDbLine
 10
238.1033614081
 20
118.4922573361
 30
0.0
 11
238.5169282358
 21
118.6223370227
 31
0.0
  0
ELLIPSE
  5
13E
330
1F
100
AcDbEntity
  8
0
  6
HIDDEN
 62
     7
370
     0
100
AcDbEllipse
 10
235.6248286419
 20
180.2280757405
 30
0.0
 11
-21.39702621087631
 21
70.55389860331948
 31
0.0
210
0.0
220
0.0
230
1.0
 40
0.2093503934
 41
2.370660802463503
 42
2.378854276254984
  0
LINE
  5
13F
330
1F
100
AcDbEntity
  8
0
  6
HIDDEN
 62
     7
370
     0
100
AcDbLine
 10
240.8887535137
 20
126.1264765839
 30
0.0
 11
238.5169282358
 21
118.6223370227
 31
0.0
  0
ARC
  5
140
330
1F
100
AcDbEntity
  8
0
  6
HIDDEN
 62
     7
370
     0
100
AcDbCircle
 10
236.5094458813
 20
116.5808035266
 30
0.0
 40
1.249125520484471
100
AcDbArc
 50
177.6792602758
 51
287.5508736706
  0
LINE
  5
141
330
1F
100
AcDbEntity
  8
0
  6
HIDDEN
 62
     7
370
     0
100
AcDbLine
 10
247.9091599387
 20
118.9615451935
 30
0.0
 11
247.6947322291
 21
118.789465187
 31
0.0
  0
LINE
  5
142
330
1F
100
AcDbEntity
  8
0
  6
HIDDEN
 62
     7
370
     0
100
AcDbLine
 10
238.5169282358
 20
118.6223370227
 30
0.0
 11
238.5169282358
 21
118.5177024658
 31
0.0
  0
LINE
  5
143
330
1F
100
AcDbEntity
  8
0
  6
HIDDEN
 62
     7
370
     0
100
AcDbLine
 10
238.5169282358
 20
118.5177024658
 30
0.0
 11
238.0666449469
 21
118.3760720509
 31
0.0
  0
LINE
  5
144
330
1F
100
AcDbEntity
  8
0
  6
HIDDEN
 62
     7
370
     0
100
AcDbLine
 10
240.8266305726
 20
125.8252840693
 30
0.0
 11
238.5169282358
 21
118.5177024658
 31
0.0
  0
ELLIPSE
  5
145
330
1F
100
AcDbEntity
  8
0
  6
HIDDEN
 62
     7
370
     0
100
AcDbEllipse
 10
235.6248286419
 20
85.4134233703
 30
0.0
 11
25.84177378472393
 21
129.9623072976376
 31
0.0
210
0.0
220
0.0
230
1.0
 40
0.02203747
 41
1.25654893764163
 42
1.258988305523377
  0
CIRCLE
  5
146
330
1F
100
AcDbEntity
  8
0
  6
HIDDEN
 62
     7
370
     0
100
AcDbCircle
 10
244.3363322898
 20
122.3400185982
 30
0.0
 40
2.398460049524394
  0
LINE
  5
147
330
1F
100
AcDbEntity
  8
0
  6
HIDDEN
 62
     7
370
     0
100
AcDbLine
 10
243.3901220363
 20
126.4896430279
 30
0.0
 11
250.3830060166
 21
128.6891214754
 31
0.0
  0
LINE
  5
148
330
1F
100
AcDbEntity
  8
0
  6
HIDDEN
 62
     7
370
     0
100
AcDbLine
 10
250.7181629341
 20
128.35521253
 30
0.0
 11
250.3830060166
 21
128.6891214754
 31
0.0
  0
LINE
  5
149
330
1F
100
AcDbEntity
  8
0
  6
HIDDEN
 62
     7
370
     0
100
AcDbLine
 10
236.8861228031
 20
115.389825331
 30
0.0
 11
247.6947322291
 21
118.789465187
 31
0.0
  0
ELLIPSE
  5
14A
330
1F
100
AcDbEntity
  8
0
  6
HIDDEN
 62
     7
370
     0
100
AcDbEllipse
 10
235.6248286419
 20
151.4283969884
 30
0.0
 11
2.842170943040401E-14
 21
26.1314451361938
 31
0.0
210
0.0
220
0.0
230
1.0
 40
0.9949698482
 41
3.343021273067031
 42
3.444886158282741
  0
LINE
  5
14B
330
1F
100
AcDbEntity
  8
0
  6
HIDDEN
 62
     7
370
     0
100
AcDbLine
 10
250.7181629341
 20
128.35521253
 30
0.0
 11
247.6947322291
 21
118.789465187
 31
0.0
  0
CIRCLE
  5
14C
330
1F
100
AcDbEntity
  8
0
  6
HIDDEN
 62
     7
370
     0
100
AcDbCircle
 10
244.3364511011
 20
122.2861994107
 30
0.0
 40
1.648785519371468
  0
LINE
  5
14D
330
1F
100
AcDbEntity
  8
0
  6
HIDDEN
 62
     7
370
     0
100
AcDbLine
 10
250.3830060166
 20
128.6891214754
 30
0.0
 11
249.855475108
 21
127.9777894001
 31
0.0
  0
LINE
  5
14E
330
1F
100
AcDbEntity
  8
0
  6
HIDDEN
 62
     7
370
     0
100
AcDbLine
 10
250.0779345435
 20
127.4919230695
 30
0.0
 11
250.7181629341
 21
128.35521253
 31
0.0
  0
SPLINE
  5
14F
330
1F
100
AcDbEntity
  8
0
  6
HIDDEN
 62
     7
370
     0
100
AcDbSpline
210
0.0
220
0.0
230
1.0
 70
    11
 71
     3
 72
    30
 73
    26
 74
     0
 42
0.00000001
 43
0.00000001
 12
1.0
 22
0.0
 32
0.0
 13
1.0
 23
0.0
 33
0.0
 40
0.0
 40
0.0
 40
0.0
 40
0.0
 40
0.0206934632435189
 40
0.0678816082677806
 40
0.1150272853082297
 40
0.1552802136137119
 40
0.163365922131464
 40
0.1638322366221053
 40
0.215075398419468
 40
0.2716665062888733
 40
0.3337408892037507
 40
0.3991890063853802
 40
0.4507487952790415
 40
0.5026136793101211
 40
0.5469943646980281
 40
0.5883344751177431
 40
0.6327135048979723
 40
0.6840332290067469
 40
0.7436456770687181
 40
0.8086958847370744
 40
0.8727400341669499
 40
0.9308970556542566
 40
0.9554370722171384
 40
0.9829246587126591
 40
1.0
 40
1.0
 40
1.0
 40
1.0
 10
244.5637821954091
 20
120.1036153565161
 30
0.0
 10
244.4883148965516
 20
120.0907713764385
 30
0.0
 10
244.2407564498196
 20
120.04863874673
 30
0.0
 10
243.818157189322
 20
120.1399960885262
 30
0.0
 10
243.3538188053378
 20
120.3507261212919
 30
0.0
 10
243.1656060926922
 20
120.6348756930982
 30
0.0
 10
243.0179656657761
 20
120.7434153173667
 30
0.0
 10
242.9273267435513
 20
120.9304426596586
 30
0.0
 10
242.7183140772358
 20
121.2547060130234
 30
0.0
 10
242.6589255725828
 20
121.8422023683272
 30
0.0
 10
242.7783303322715
 20
122.4504162167878
 30
0.0
 10
243.1073537825526
 20
122.971112408495
 30
0.0
 10
243.5805892258496
 20
123.3353149058647
 30
0.0
 10
244.1044090814314
 20
123.5050761033322
 30
0.0
 10
244.6225642288062
 20
123.4894807328154
 30
0.0
 10
245.0748759261481
 20
123.3337957601263
 30
0.0
 10
245.4716375360431
 20
123.0533678725581
 30
0.0
 10
245.7992240568243
 20
122.6326463942155
 30
0.0
 10
245.9990114214547
 20
122.0729851403853
 30
0.0
 10
245.9967390357725
 20
121.4232941134315
 30
0.0
 10
245.743384288723
 20
120.822260816501
 30
0.0
 10
245.3908867978791
 20
120.3985684536284
 30
0.0
 10
245.0091126247916
 20
120.2605813980871
 30
0.0
 10
244.7935226175408
 20
120.118796922675
 30
0.0
 10
244.6274260350978
 20
120.1078210298315
 30
0.0
 10
244.5637821954091
 20
120.1036153565161
 30
0.0
  0
LINE
  5
150
330
1F
100
AcDbEntity
  8
0
  6
HIDDEN
 62
     7
370
     0
100
AcDbLine
 10
133.0084945809
 20
129.625808468
 30
0.0
 11
133.0084945809
 21
124.8160302843
 31
0.0
  0
LINE
  5
151
330
1F
100
AcDbEntity
  8
0
  6
HIDDEN
 62
     7
370
     0
100
AcDbLine
 10
131.5084952664
 20
128.7597827817
 30
0.0
 11
131.5084952664
 21
124.3830174412
 31
0.0
  0
LINE
  5
152
330
1F
100
AcDbEntity
  8
0
  6
HIDDEN
 62
     7
370
     0
100
AcDbLine
 10
159.3084946078
 20
100.3865115548
 30
0.0
 11
159.3084946078
 21
95.2463597263
 31
0.0
  0
SPLINE
  5
153
330
1F
100
AcDbEntity
  8
0
  6
HIDDEN
 62
     7
370
     0
100
AcDbSpline
210
0.0
220
0.0
230
1.0
 70
     8
 71
     3
 72
    18
 73
    14
 74
     0
 42
0.00000001
 43
0.00000001
 12
1.0
 22
0.0
 32
0.0
 13
1.0
 23
0.0
 33
0.0
 40
0.0
 40
0.0
 40
0.0
 40
0.0
 40
0.2499999999999994
 40
0.2499999999999994
 40
0.3749999999999994
 40
0.3749999999999994
 40
0.4999999999999993
 40
0.4999999999999993
 40
0.6249999999999992
 40
0.6249999999999992
 40
0.7499999999999992
 40
0.7499999999999992
 40
1.0
 40
1.0
 40
1.0
 40
1.0
 10
160.1871742522858
 20
99.67141101845456
 30
0.0
 10
160.0518886459835
 20
99.08720942472289
 30
0.0
 10
159.9507208997406
 20
98.55299173751469
 30
0.0
 10
159.8478595568716
 20
97.8270949666263
 30
0.0
 10
159.8217567113483
 20
97.59721447884637
 30
0.0
 10
159.7868667278035
 20
97.16664353405959
 30
0.0
 10
159.7782804695135
 20
96.96894862856541
 30
0.0
 10
159.7781807599478
 20
96.6076005858876
 30
0.0
 10
159.7866691310964
 20
96.44395057594146
 30
0.0
 10
159.820812510617
 20
96.1507393029725
 30
0.0
 10
159.8466094924708
 20
96.02074323685667
 30
0.0
 10
159.9500106238588
 20
95.68668734429475
 30
0.0
 10
160.0518686160301
 20
95.54091117992996
 30
0.0
 10
160.1871742522858
 20
95.46954787398212
 30
0.0
  0
LINE
  5
154
330
1F
100
AcDbEntity
  8
0
  6
HIDDEN
 62
     7
370
     0
100
AcDbLine
 10
159.3084946078
 20
130.2865557577
 30
0.0
 11
159.3084946078
 21
125.1464039291
 31
0.0
  0
SPLINE
  5
155
330
1F
100
AcDbEntity
  8
0
  6
HIDDEN
 62
     7
370
     0
100
AcDbSpline
210
0.0
220
0.0
230
1.0
 70
     8
 71
     3
 72
    18
 73
    14
 74
     0
 42
0.00000001
 43
0.00000001
 12
1.0
 22
0.0
 32
0.0
 13
1.0
 23
0.0
 33
0.0
 40
0.0
 40
0.0
 40
0.0
 40
0.0
 40
0.2499999999999989
 40
0.2499999999999989
 40
0.3749999999999986
 40
0.3749999999999986
 40
0.4999999999999982
 40
0.4999999999999982
 40
0.6249999999999984
 40
0.6249999999999984
 40
0.7499999999999987
 40
0.7499999999999987
 40
1.0
 40
1.0
 40
1.0
 40
1.0
 10
160.1871742522858
 20
130.0633676099918
 30
0.0
 10
160.0518886459835
 20
129.9920148683022
 30
0.0
 10
159.9507208997406
 20
129.8466114617128
 30
0.0
 10
159.8478595568716
 20
129.5171442261071
 30
0.0
 10
159.8217567113483
 20
129.3882106493024
 30
0.0
 10
159.7868667278035
 20
129.0926686499663
 30
0.0
 10
159.7782804695135
 20
128.9282738764444
 30
0.0
 10
159.7781807599478
 20
128.5673122617038
 30
0.0
 10
159.7866691310964
 20
128.3707424695416
 30
0.0
 10
159.820812510617
 20
127.9453876734166
 30
0.0
 10
159.8466094924708
 20
127.715618023617
 30
0.0
 10
159.9500106238588
 20
126.9830293291846
 30
0.0
 10
160.0518686160301
 20
126.445792554267
 30
0.0
 10
160.1871742522858
 20
125.8615044655194
 30
0.0
  0
LINE
  5
156
330
1F
100
AcDbEntity
  8
0
  6
HIDDEN
 62
     7
370
     0
100
AcDbLine
 10
133.0084945809
 20
100.7168851997
 30
0.0
 11
133.0084945809
 21
95.907107016
 31
0.0
  0
LINE
  5
157
330
1F
100
AcDbEntity
  8
0
  6
HIDDEN
 62
     7
370
     0
100
AcDbLine
 10
131.5084952664
 20
101.1498980428
 30
0.0
 11
131.5084952664
 21
96.7731327022
 31
0.0
  0
CIRCLE
  5
158
330
1F
100
AcDbEntity
  8
0
  6
HIDDEN
 62
     7
370
     0
100
AcDbCircle
 10
214.5084945958
 20
112.766457742
 30
0.0
 40
2.100000000000023
  0
ELLIPSE
  5
159
330
1F
100
AcDbEntity
  8
0
  6
HIDDEN
 62
     7
370
     0
100
AcDbEllipse
 10
267.3832604893
 20
114.766457742
 30
0.0
 11
17.78422892287961
 21
-16.57047652107813
 31
0.0
210
0.0
220
0.0
230
1.0
 40
0.2135193148
 41
3.597015444967775
 42
3.641236483837702
  0
ELLIPSE
  5
15A
330
1F
100
AcDbEntity
  8
0
  6
HIDDEN
 62
     7
370
     0
100
AcDbEllipse
 10
201.8923350259
 20
114.766457742
 30
0.0
 11
54.31434441551298
 21
16.7398307882539
 31
0.0
210
0.0
220
0.0
230
1.0
 40
0.054548757
 41
5.564947578262788
 42
5.777668598789439
  0
LINE
  5
15B
330
1F
100
AcDbEntity
  8
0
  6
HIDDEN
 62
     7
370
     0
100
AcDbLine
 10
228.2360210818
 20
124.014584368
 30
0.0
 11
235.624828915
 21
124.014584368
 31
0.0
  0
SPLINE
  5
15C
330
1F
100
AcDbEntity
  8
0
  6
HIDDEN
 62
     7
370
     0
100
AcDbSpline
210
0.0
220
0.0
230
1.0
 70
     8
 71
     3
 72
    12
 73
     8
 74
     0
 42
0.00000001
 43
0.00000001
 12
1.0
 22
0.0
 32
0.0
 13
1.0
 23
0.0
 33
0.0
 40
0.0
 40
0.0
 40
0.0
 40
0.0
 40
0.4999999999999999
 40
0.4999999999999999
 40
0.7499999999999999
 40
0.7499999999999999
 40
1.0
 40
1.0
 40
1.0
 40
1.0
 10
235.6248286418591
 20
124.0145839785312
 30
0.0
 10
236.9711432965463
 20
124.0145839785312
 30
0.0
 10
238.2941017873277
 20
124.1353038845578
 30
0.0
 10
240.2433404176384
 20
124.4890985425669
 30
0.0
 10
240.8872854445413
 20
124.6360643603827
 30
0.0
 10
242.1617162531433
 20
124.9887697685185
 30
0.0
 10
242.7838759911792
 20
125.1922155638261
 30
0.0
 10
243.3901187303986
 20
125.4213074817891
 30
0.0
  0
ELLIPSE
  5
15D
330
1F
100
AcDbEntity
  8
0
  6
HIDDEN
 62
     7
370
     0
100
AcDbEllipse
 10
247.1608664682
 20
114.766457742
 30
0.0
 11
5.553874176690073
 21
16.99159215419371
 31
0.0
210
0.0
220
0.0
230
1.0
 40
0.0962569477
 41
0.7563656552528892
 42
1.602248510774582
  0
CIRCLE
  5
15E
330
1F
100
AcDbEntity
  8
0
  6
HIDDEN
 62
     7
370
     0
100
AcDbCircle
 10
214.5084945958
 20
112.766457742
 30
0.0
 40
2.500000000000028
  0
LINE
  5
15F
330
1F
100
AcDbEntity
  8
0
  6
HIDDEN
 62
     7
370
     0
100
AcDbLine
 10
131.5084952664
 20
124.3830174412
 30
0.0
 11
131.5084952664
 21
115.1056287549
 31
0.0
  0
LINE
  5
160
330
1F
100
AcDbEntity
  8
0
  6
HIDDEN
 62
     7
370
     0
100
AcDbLine
 10
131.5084952664
 20
110.4272867291
 30
0.0
 11
131.5084952664
 21
101.1498980428
 31
0.0
  0
LINE
  5
161
330
1F
100
AcDbEntity
  8
0
  6
HIDDEN
 62
     7
370
     0
100
AcDbLine
 10
133.0084945809
 20
109.6179806831
 30
0.0
 11
133.0084945809
 21
100.7168851997
 31
0.0
  0
LINE
  5
162
330
1F
100
AcDbEntity
  8
0
  6
HIDDEN
 62
     7
370
     0
100
AcDbLine
 10
133.0084945809
 20
124.8160302843
 30
0.0
 11
133.0084945809
 21
115.9149348008
 31
0.0
  0
LINE
  5
163
330
1F
100
AcDbEntity
  8
0
  6
HIDDEN
 62
     7
370
     0
100
AcDbLine
 10
159.3084946078
 20
125.1464039291
 30
0.0
 11
159.3084946078
 21
100.3865115548
 31
0.0
  0
LINE
  5
164
330
1F
100
AcDbEntity
  8
0
  6
HIDDEN
 62
     7
370
     0
100
AcDbLine
 10
244.7044417065
 20
112.766457742
 30
0.0
 11
245.3514650267
 21
114.766457837
 31
0.0
  0
LINE
  5
165
330
1F
100
AcDbEntity
  8
0
  6
HIDDEN
 62
     7
370
     0
100
AcDbLine
 10
161.3084946009
 20
124.3287315796
 30
0.0
 11
161.3084946009
 21
101.2041839044
 31
0.0
  0
SPLINE
  5
166
330
1F
100
AcDbEntity
  8
0
  6
HIDDEN
 62
     7
370
     0
100
AcDbSpline
210
0.0
220
0.0
230
1.0
 70
     8
 71
     3
 72
     8
 73
     4
 74
     0
 42
0.00000001
 43
0.00000001
 12
1.0
 22
0.0
 32
0.0
 13
1.0
 23
0.0
 33
0.0
 40
0.0000202085968836
 40
0.0000202085968836
 40
0.0000202085968836
 40
0.0000202085968836
 40
0.0040218806502652
 40
0.0040218806502652
 40
0.0040218806502652
 40
0.0040218806502652
 10
133.0084945958455
 20
109.6179806236503
 30
0.0
 10
134.3418177216361
 20
109.5939823924866
 30
0.0
 10
135.6751515948587
 20
109.5706546523183
 30
0.0
 10
137.0084945958455
 20
109.5479599815379
 30
0.0
  0
SPLINE
  5
167
330
1F
100
AcDbEntity
  8
0
  6
HIDDEN
 62
     7
370
     0
100
AcDbSpline
210
0.0
220
0.0
230
1.0
 70
     8
 71
     3
 72
     8
 73
     4
 74
     0
 42
0.00000001
 43
0.00000001
 12
1.0
 22
0.0
 32
0.0
 13
1.0
 23
0.0
 33
0.0
 40
0.0000202082942178
 40
0.0000202082942178
 40
0.0000202082942178
 40
0.0000202082942178
 40
0.0040218803475994
 40
0.0040218803475994
 40
0.0040218803475994
 40
0.0040218803475994
 10
137.0084945958455
 20
115.984955502436
 30
0.0
 10
135.6751515948587
 20
115.9622608316556
 30
0.0
 10
134.3418177216361
 20
115.9389330914873
 30
0.0
 10
133.0084945958455
 20
115.9149348603237
 30
0.0
  0
SPLINE
  5
168
330
1F
100
AcDbEntity
  8
0
  6
HIDDEN
 62
     7
370
     0
100
AcDbSpline
210
0.0
220
0.0
230
1.0
 70
     8
 71
     3
 72
     8
 73
     4
 74
     0
 42
0.00000001
 43
0.00000001
 12
1.0
 22
0.0
 32
0.0
 13
1.0
 23
0.0
 33
0.0
 40
0.0
 40
0.0
 40
0.0
 40
0.0
 40
1.0
 40
1.0
 40
1.0
 40
1.0
 10
131.5084945958446
 20
110.4272868137526
 30
0.0
 10
131.9827060062825
 20
110.0925575864575
 30
0.0
 10
132.4874423533844
 20
109.8334991726246
 30
0.0
 10
133.0084945958455
 20
109.6179806236502
 30
0.0
  0
SPLINE
  5
169
330
1F
100
AcDbEntity
  8
0
  6
HIDDEN
 62
     7
370
     0
100
AcDbSpline
210
0.0
220
0.0
230
1.0
 70
     8
 71
     3
 72
     8
 73
     4
 74
     0
 42
0.00000001
 43
0.00000001
 12
1.0
 22
0.0
 32
0.0
 13
1.0
 23
0.0
 33
0.0
 40
0.0
 40
0.0
 40
0.0
 40
0.0
 40
1.0
 40
1.0
 40
1.0
 40
1.0
 10
133.0084945958455
 20
115.9149348603237
 30
0.0
 10
132.4874423533848
 20
115.6994163113495
 30
0.0
 10
131.9827060062832
 20
115.4403578975168
 30
0.0
 10
131.5084945958455
 20
115.105628670222
 30
0.0
  0
LINE
  5
16A
330
1F
100
AcDbEntity
  8
0
  6
HIDDEN
 62
     7
370
     0
100
AcDbLine
 10
131.5084952664
 20
110.4272867291
 30
0.0
 11
131.5084952664
 21
115.1056287549
 31
0.0
  0
LINE
  5
16B
330
1F
100
AcDbEntity
  8
0
  6
HIDDEN
 62
     7
370
     0
100
AcDbLine
 10
137.0084952366
 20
109.5479598938
 30
0.0
 11
137.0084952366
 21
115.9849555901
 31
0.0
  0
SPLINE
  5
16C
330
1F
100
AcDbEntity
  8
0
  6
HIDDEN
 62
     7
370
     0
100
AcDbSpline
210
0.0
220
0.0
230
1.0
 70
     8
 71
     3
 72
    26
 73
    22
 74
     0
 42
0.00000001
 43
0.00000001
 12
1.0
 22
0.0
 32
0.0
 13
1.0
 23
0.0
 33
0.0
 40
0.0
 40
0.0
 40
0.0
 40
0.0
 40
0.1249999999999997
 40
0.1249999999999997
 40
0.2499999999999994
 40
0.2499999999999994
 40
0.3749999999999991
 40
0.3749999999999991
 40
0.4374999999999992
 40
0.4374999999999992
 40
0.4999999999999993
 40
0.4999999999999993
 40
0.5624999999999994
 40
0.5624999999999994
 40
0.6249999999999994
 40
0.6249999999999994
 40
0.7499999999999997
 40
0.7499999999999997
 40
0.8749999999999998
 40
0.8749999999999998
 40
1.0
 40
1.0
 40
1.0
 40
1.0
 10
137.0084945958455
 20
109.5479599815379
 30
0.0
 10
137.2191379578454
 20
109.7825770124829
 30
0.0
 10
137.4263343956024
 20
110.0204601484424
 30
0.0
 10
137.8278335302348
 20
110.5077744547112
 30
0.0
 10
138.0231099492808
 20
110.7578996795003
 30
0.0
 10
138.3828904419762
 20
111.2764898249512
 30
0.0
 10
138.5481493021256
 20
111.5439208088381
 30
0.0
 10
138.7408072115518
 20
111.9753359412366
 30
0.0
 10
138.7957719517618
 20
112.1253548231609
 30
0.0
 10
138.873507736726
 20
112.438092001891
 30
0.0
 10
138.8947738750342
 20
112.5958462486982
 30
0.0
 10
138.89666780432
 20
112.914551528544
 30
0.0
 10
138.876442067253
 20
113.0769883287245
 30
0.0
 10
138.8019776569672
 20
113.3879403283072
 30
0.0
 10
138.7483385312212
 20
113.5386115666349
 30
0.0
 10
138.5535942258205
 20
113.9806953246034
 30
0.0
 10
138.3865441126423
 20
114.2507393377712
 30
0.0
 10
138.0262879939386
 20
114.7708469660526
 30
0.0
 10
137.8315356189182
 20
115.0205081788622
 30
0.0
 10
137.428526394446
 20
115.509932290705
 30
0.0
 10
137.2200898760825
 20
115.749278213869
 30
0.0
 10
137.0084945958464
 20
115.9849555024368
 30
0.0
  0
SPLINE
  5
16D
330
1F
100
AcDbEntity
  8
0
  6
HIDDEN
 62
     7
370
     0
100
AcDbSpline
210
0.0
220
0.0
230
1.0
 70
     8
 71
     3
 72
    68
 73
    64
 74
     0
 42
0.00000001
 43
0.00000001
 12
1.0
 22
0.0
 32
0.0
 13
1.0
 23
0.0
 33
0.0
 40
-0.03125
 40
-0.03125
 40
0.0
 40
0.0
 40
0.0312500000000004
 40
0.0312500000000004
 40
0.0625000000000007
 40
0.0625000000000007
 40
0.0937500000000009
 40
0.0937500000000009
 40
0.1250000000000011
 40
0.1250000000000011
 40
0.1875000000000011
 40
0.1875000000000011
 40
0.2187500000000009
 40
0.2187500000000009
 40
0.2500000000000008
 40
0.2500000000000008
 40
0.2812500000000007
 40
0.2812500000000007
 40
0.3125000000000006
 40
0.3125000000000006
 40
0.3437500000000004
 40
0.3437500000000004
 40
0.3750000000000003
 40
0.3750000000000003
 40
0.4062500000000002
 40
0.4062500000000002
 40
0.4375000000000001
 40
0.4375000000000001
 40
0.4687499999999999
 40
0.4687499999999999
 40
0.4999999999999998
 40
0.4999999999999998
 40
0.5312499999999997
 40
0.5312499999999997
 40
0.5624999999999997
 40
0.5624999999999997
 40
0.5937499999999996
 40
0.5937499999999996
 40
0.6249999999999994
 40
0.6249999999999994
 40
0.6562499999999994
 40
0.6562499999999994
 40
0.6874999999999993
 40
0.6874999999999993
 40
0.7187499999999993
 40
0.7187499999999993
 40
0.7499999999999994
 40
0.7499999999999994
 40
0.7812499999999996
 40
0.7812499999999996
 40
0.8124999999999997
 40
0.8124999999999997
 40
0.8437499999999997
 40
0.8437499999999997
 40
0.8749999999999997
 40
0.8749999999999997
 40
0.9062499999999998
 40
0.9062499999999998
 40
0.9374999999999998
 40
0.9374999999999998
 40
0.96875
 40
0.96875
 40
1.0
 40
1.0
 40
1.03125
 40
1.03125
 10
144.892320883182
 20
114.6632753186036
 30
0.0
 10
145.1827853654737
 20
114.9817075596041
 30
0.0
 10
145.3417016638553
 20
115.1242250853078
 30
0.0
 10
145.6852823494931
 20
115.3779396223975
 30
0.0
 10
145.8714537023988
 20
115.4895034489064
 30
0.0
 10
146.2559837749845
 20
115.6737524855755
 30
0.0
 10
146.4555942771492
 20
115.7476667516643
 30
0.0
 10
146.8694338621227
 20
115.8593086412244
 30
0.0
 10
147.0822436717939
 20
115.8962326955133
 30
0.0
 10
147.7181751461347
 20
115.9488345160887
 30
0.0
 10
148.1532413667624
 20
115.9066261254286
 30
0.0
 10
148.7654842337501
 20
115.7327915202332
 30
0.0
 10
148.9653293218621
 20
115.6561732924211
 30
0.0
 10
149.3497066305903
 20
115.4659984240782
 30
0.0
 10
149.5302550214528
 20
115.3546389898596
 30
0.0
 10
149.8683149491624
 20
115.0995337211373
 30
0.0
 10
150.0273467655736
 20
114.9540279329446
 30
0.0
 10
150.312143445796
 20
114.6357892787717
 30
0.0
 10
150.4370889746709
 20
114.4647369602526
 30
0.0
 10
150.6513911150846
 20
114.0981763741395
 30
0.0
 10
150.7412898942594
 20
113.9001076403368
 30
0.0
 10
150.8749421833884
 20
113.4955248871274
 30
0.0
 10
150.9199501187024
 20
113.2879097071103
 30
0.0
 10
150.9647295993198
 20
112.8616199506814
 30
0.0
 10
150.963655938304
 20
112.6449816527331
 30
0.0
 10
150.9156361445885
 20
112.2220216257758
 30
0.0
 10
150.8682231673637
 20
112.0110249405164
 30
0.0
 10
150.729907918547
 20
111.6052362250846
 30
0.0
 10
150.6402270603248
 20
111.4122895664221
 30
0.0
 10
150.4215443499976
 20
111.0453829434386
 30
0.0
 10
150.2920966321689
 20
110.8718777952165
 30
0.0
 10
150.0055910281394
 20
110.5578756972259
 30
0.0
 10
149.8467322099014
 20
110.4147727707715
 30
0.0
 10
149.5017343879485
 20
110.1594418549186
 30
0.0
 10
149.3195172838282
 20
110.0499096773181
 30
0.0
 10
148.9366772071892
 20
109.8649828505298
 30
0.0
 10
148.733932982116
 20
109.7891670236884
 30
0.0
 10
148.3221044076527
 20
109.6765865314463
 30
0.0
 10
148.1128856310532
 20
109.6392463118616
 30
0.0
 10
147.6878927968187
 20
109.6020152923315
 30
0.0
 10
147.4707355197455
 20
109.6025812562631
 30
0.0
 10
147.0463576805923
 20
109.6419789601525
 30
0.0
 10
146.8372410327427
 20
109.6804081947867
 30
0.0
 10
146.4253000438487
 20
109.7956132293241
 30
0.0
 10
146.2227319389556
 20
109.8728781598286
 30
0.0
 10
145.8411314964883
 20
110.0605604299605
 30
0.0
 10
145.6598205606091
 20
110.1714737817725
 30
0.0
 10
145.317228663675
 20
110.4294272205033
 30
0.0
 10
145.1584050467209
 20
110.5751429161127
 30
0.0
 10
144.8753602676205
 20
110.8914640738222
 30
0.0
 10
144.7493503356347
 20
111.0634977852213
 30
0.0
 10
144.5322432918198
 20
111.4360403632104
 30
0.0
 10
144.4448079955459
 20
111.6301621484844
 30
0.0
 10
144.3116147149983
 20
112.0339368775639
 30
0.0
 10
144.2657141328937
 20
112.2464338041715
 30
0.0
 10
144.2213975919599
 20
112.6720296650296
 30
0.0
 10
144.2222397794423
 20
112.8848635032988
 30
0.0
 10
144.2700784738633
 20
113.3106032331287
 30
0.0
 10
144.3176143293325
 20
113.5223653985418
 30
0.0
 10
144.4543529245604
 20
113.9258549329992
 30
0.0
 10
144.544636469836
 20
114.1216135539522
 30
0.0
 10
144.764347362101
 20
114.4912137807003
 30
0.0
 10
144.892320883182
 20
114.6632753186036
 30
0.0
 10
145.1827853654737
 20
114.9817075596041
 30
0.0
  0
CIRCLE
  5
16E
330
1F
100
AcDbEntity
  8
0
  6
HIDDEN
 62
     7
370
     0
100
AcDbCircle
 10
147.5084945958
 20
112.766457742
 30
0.0
 40
3.049999999999997
  0
CIRCLE
  5
16F
330
1F
100
AcDbEntity
  8
0
  6
HIDDEN
 62
     7
370
     0
100
AcDbCircle
 10
173.5084945958
 20
112.766457742
 30
0.0
 40
2.0
  0
LINE
  5
170
330
1F
100
AcDbEntity
  8
0
  6
HIDDEN
 62
     7
370
     0
100
AcDbLine
 10
161.5084945958
 20
93.2164583559
 30
0.0
 11
161.6013878163
 21
93.3093503322
 31
0.0
  0
LINE
  5
171
330
1F
100
AcDbEntity
  8
0
  6
HIDDEN
 62
     7
370
     0
100
AcDbLine
 10
161.6013878163
 20
132.2235651518
 30
0.0
 11
161.5084945958
 21
132.3164571281
 31
0.0
  0
ARC
  5
172
330
1F
100
AcDbEntity
  8
0
  6
HIDDEN
 62
     7
370
     0
100
AcDbCircle
 10
160.8942810335
 20
94.016457742
 30
0.0
 40
1.0
100
AcDbArc
 50
315.0
 51
0.0
  0
ARC
  5
173
330
1F
100
AcDbEntity
  8
0
  6
HIDDEN
 62
     7
370
     0
100
AcDbCircle
 10
160.8942810335
 20
94.016457742
 30
0.0
 40
1.0
100
AcDbArc
 50
0.0
 51
52.1052014664
  0
ARC
  5
174
330
1F
100
AcDbEntity
  8
0
  6
HIDDEN
 62
     7
370
     0
100
AcDbCircle
 10
160.8942810335
 20
131.516457742
 30
0.0
 40
0.999999999999988
100
AcDbArc
 50
351.8087250651
 51
45.0
  0
ARC
  5
175
330
1F
100
AcDbEntity
  8
0
  6
HIDDEN
 62
     7
370
     0
100
AcDbCircle
 10
160.8942810335
 20
131.516457742
 30
0.0
 40
0.9999999999999989
100
AcDbArc
 50
307.8947985336
 51
351.8087250651
  0
LINE
  5
176
330
1F
100
AcDbEntity
  8
0
  6
HIDDEN
 62
     7
370
     0
100
AcDbLine
 10
161.8942810316
 20
94.0164569969
 30
0.0
 11
161.8942810316
 21
131.516458487
 31
0.0
  0
LINE
  5
177
330
1F
100
AcDbEntity
  8
0
  6
HIDDEN
 62
     7
370
     0
100
AcDbLine
 10
161.8942810316
 20
94.0164569969
 30
0.0
 11
161.8942810316
 21
131.516458487
 31
0.0
  0
ARC
  5
178
330
1F
100
AcDbEntity
  8
0
  6
HIDDEN
 62
     7
370
     0
100
AcDbCircle
 10
138.0084945958
 20
102.266457742
 30
0.0
 40
1.5
100
AcDbArc
 50
191.0958032831
 51
270.0
  0
ARC
  5
179
330
1F
100
AcDbEntity
  8
0
  6
HIDDEN
 62
     7
370
     0
100
AcDbCircle
 10
138.0084945958
 20
123.266457742
 30
0.0
 40
1.5
100
AcDbArc
 50
90.0
 51
168.9041967169
  0
LINE
  5
17A
330
1F
100
AcDbEntity
  8
0
  6
HIDDEN
 62
     7
370
     0
100
AcDbLine
 10
138.0084954005
 20
100.7664576377
 30
0.0
 11
139.0152141255
 21
100.7664576377
 31
0.0
  0
LINE
  5
17B
330
1F
100
AcDbEntity
  8
0
  6
HIDDEN
 62
     7
370
     0
100
AcDbLine
 10
139.0152141255
 20
124.7664578463
 30
0.0
 11
138.0084954005
 21
124.7664578463
 31
0.0
  0
ARC
  5
17C
330
1F
100
AcDbEntity
  8
0
  6
HIDDEN
 62
     7
370
     0
100
AcDbCircle
 10
139.0152141079
 20
102.266457742
 30
0.0
 40
1.500000000000022
100
AcDbArc
 50
270.0
 51
315.0
  0
ARC
  5
17D
330
1F
100
AcDbEntity
  8
0
  6
HIDDEN
 62
     7
370
     0
100
AcDbCircle
 10
139.0152141079
 20
123.266457742
 30
0.0
 40
1.500000000000014
100
AcDbArc
 50
45.0
 51
90.0
  0
LINE
  5
17E
330
1F
100
AcDbEntity
  8
0
  6
HIDDEN
 62
     7
370
     0
100
AcDbLine
 10
131.5084952664
 20
101.0030452366
 30
0.0
 11
132.5365338277
 21
101.596584564
 31
0.0
  0
LINE
  5
17F
330
1F
100
AcDbEntity
  8
0
  6
HIDDEN
 62
     7
370
     0
100
AcDbLine
 10
132.5365338277
 20
123.93633092
 30
0.0
 11
131.5084952664
 21
124.5298702474
 31
0.0
  0
LINE
  5
180
330
1F
100
AcDbEntity
  8
0
  6
HIDDEN
 62
     7
370
     0
100
AcDbLine
 10
140.075875054
 20
101.2057978864
 30
0.0
 11
141.1365341198
 21
102.2664578835
 31
0.0
  0
LINE
  5
181
330
1F
100
AcDbEntity
  8
0
  6
HIDDEN
 62
     7
370
     0
100
AcDbLine
 10
141.1365341198
 20
123.2664576004
 30
0.0
 11
140.075875054
 21
124.3271175976
 31
0.0
  0
LINE
  5
182
330
1F
100
AcDbEntity
  8
0
  6
HIDDEN
 62
     7
370
     0
100
AcDbLine
 10
132.5365338277
 20
101.596584564
 30
0.0
 11
135.0365351688
 21
102.2664578835
 31
0.0
  0
LINE
  5
183
330
1F
100
AcDbEntity
  8
0
  6
HIDDEN
 62
     7
370
     0
100
AcDbLine
 10
135.0365351688
 20
123.2664576004
 30
0.0
 11
132.5365338277
 21
123.93633092
 31
0.0
  0
LINE
  5
184
330
1F
100
AcDbEntity
  8
0
  6
HIDDEN
 62
     7
370
     0
100
AcDbLine
 10
221.7946290773
 20
118.6584970186
 30
0.0
 11
212.2639357847
 21
114.2222021212
 31
0.0
  0
LINE
  5
185
330
1F
100
AcDbEntity
  8
0
  6
HIDDEN
 62
     7
370
     0
100
AcDbLine
 10
216.0732276541
 20
111.3626201608
 30
0.0
 11
221.7824697297
 21
114.0201277071
 31
0.0
  0
LINE
  5
186
330
1F
100
AcDbEntity
  8
0
  6
HIDDEN
 62
     7
370
     0
100
AcDbLine
 10
214.0363283258
 20
110.4144954792
 30
0.0
 11
215.6017139357
 21
111.1431436352
 31
0.0
  0
LINE
  5
187
330
1F
100
AcDbEntity
  8
0
  6
HIDDEN
 62
     7
370
     0
100
AcDbLine
 10
212.1984451812
 20
114.0755620058
 30
0.0
 11
212.0258524817
 21
111.795025607
 31
0.0
  0
LINE
  5
188
330
1F
100
AcDbEntity
  8
0
  6
HIDDEN
 62
     7
370
     0
100
AcDbLine
 10
212.0258524817
 20
111.795025607
 30
0.0
 11
213.8819597464
 21
110.4587970971
 31
0.0
  0
LINE
  5
189
330
1F
100
AcDbEntity
  8
0
  6
HIDDEN
 62
     7
370
     0
100
AcDbLine
 10
136.5365344834
 20
123.5551331396
 30
0.0
 11
136.0365353328
 21
123.2664576004
 31
0.0
  0
LINE
  5
18A
330
1F
100
AcDbEntity
  8
0
  6
HIDDEN
 62
     7
370
     0
100
AcDbLine
 10
136.0365353328
 20
102.2664578835
 30
0.0
 11
136.5365344834
 21
101.9777823444
 31
0.0
  0
LINE
  5
18B
330
1F
100
AcDbEntity
  8
0
  6
HIDDEN
 62
     7
370
     0
100
AcDbLine
 10
141.1365341198
 20
102.2664578835
 30
0.0
 11
151.0084947374
 21
102.2664578835
 31
0.0
  0
LINE
  5
18C
330
1F
100
AcDbEntity
  8
0
  6
HIDDEN
 62
     7
370
     0
100
AcDbLine
 10
151.0084947374
 20
123.2664576004
 30
0.0
 11
141.1365341198
 21
123.2664576004
 31
0.0
  0
ARC
  5
18D
330
1F
100
AcDbEntity
  8
0
  6
HIDDEN
 62
     7
370
     0
100
AcDbCircle
 10
151.0084945958
 20
102.766457742
 30
0.0
 40
0.5
100
AcDbArc
 50
270.0
 51
0.0
  0
ARC
  5
18E
330
1F
100
AcDbEntity
  8
0
  6
HIDDEN
 62
     7
370
     0
100
AcDbCircle
 10
151.0084945958
 20
122.766457742
 30
0.0
 40
0.5
100
AcDbArc
 50
0.0
 51
90.0
  0
LINE
  5
18F
330
1F
100
AcDbEntity
  8
0
  6
HIDDEN
 62
     7
370
     0
100
AcDbLine
 10
135.0365351688
 20
102.2664578835
 30
0.0
 11
136.0365353328
 21
102.2664578835
 31
0.0
  0
LINE
  5
190
330
1F
100
AcDbEntity
  8
0
  6
HIDDEN
 62
     7
370
     0
100
AcDbLine
 10
136.0365353328
 20
123.2664576004
 30
0.0
 11
135.0365351688
 21
123.2664576004
 31
0.0
  0
LINE
  5
191
330
1F
100
AcDbEntity
  8
0
  6
HIDDEN
 62
     7
370
     0
100
AcDbLine
 10
151.5084948194
 20
104.5164577867
 30
0.0
 11
152.5084949833
 21
105.5164579506
 31
0.0
  0
LINE
  5
192
330
1F
100
AcDbEntity
  8
0
  6
HIDDEN
 62
     7
370
     0
100
AcDbLine
 10
152.5084949833
 20
120.0164575334
 30
0.0
 11
151.5084948194
 21
121.0164576973
 31
0.0
  0
LINE
  5
193
330
1F
100
AcDbEntity
  8
0
  6
HIDDEN
 62
     7
370
     0
100
AcDbLine
 10
176.5084942606
 20
105.5164579506
 30
0.0
 11
178.9119370085
 21
109.5164576749
 31
0.0
  0
LINE
  5
194
330
1F
100
AcDbEntity
  8
0
  6
HIDDEN
 62
     7
370
     0
100
AcDbLine
 10
178.9119370085
 20
116.016457809
 30
0.0
 11
176.5084942606
 21
120.0164575334
 31
0.0
  0
LINE
  5
195
330
1F
100
AcDbEntity
  8
0
  6
HIDDEN
 62
     7
370
     0
100
AcDbLine
 10
152.5084949833
 20
105.5164579506
 30
0.0
 11
176.5084942606
 21
105.5164579506
 31
0.0
  0
LINE
  5
196
330
1F
100
AcDbEntity
  8
0
  6
HIDDEN
 62
     7
370
     0
100
AcDbLine
 10
176.5084942606
 20
120.0164575334
 30
0.0
 11
152.5084949833
 21
120.0164575334
 31
0.0
  0
LINE
  5
197
330
1F
100
AcDbEntity
  8
0
  6
HIDDEN
 62
     7
370
     0
100
AcDbLine
 10
217.5084963244
 20
109.5164576749
 30
0.0
 11
219.4612897735
 21
112.766457742
 31
0.0
  0
LINE
  5
198
330
1F
100
AcDbEntity
  8
0
  6
HIDDEN
 62
     7
370
     0
100
AcDbLine
 10
219.4612897735
 20
112.766457742
 30
0.0
 11
217.5084963244
 21
116.016457809
 31
0.0
  0
LINE
  5
199
330
1F
100
AcDbEntity
  8
0
  6
HIDDEN
 62
     7
370
     0
100
AcDbLine
 10
217.5084963244
 20
116.016457809
 30
0.0
 11
178.9119370085
 21
116.016457809
 31
0.0
  0
LINE
  5
19A
330
1F
100
AcDbEntity
  8
0
  6
HIDDEN
 62
     7
370
     0
100
AcDbLine
 10
178.9119370085
 20
109.5164576749
 30
0.0
 11
217.5084963244
 21
109.5164576749
 31
0.0
  0
ARC
  5
19B
330
1F
100
AcDbEntity
  8
0
  6
HIDDEN
 62
     7
370
     0
100
AcDbCircle
 10
225.0942810335
 20
126.266457742
 30
0.0
 40
1.0
100
AcDbArc
 50
270.0
 51
290.1029878206
  0
LINE
  5
19C
330
1F
100
AcDbEntity
  8
0
  6
HIDDEN
 62
     7
370
     0
100
AcDbLine
 10
235.260242204
 20
116.6837024706
 30
0.0
 11
235.260242204
 21
116.5790676809
 31
0.0
  0
LINE
  5
19D
330
1F
100
AcDbEntity
  8
0
  6
HIDDEN
 62
     7
370
     0
100
AcDbLine
 10
242.687211911
 20
122.2833944689
 30
0.0
 11
242.687211911
 21
121.7744192312
 31
0.0
  0
LINE
  5
19E
330
1F
100
AcDbEntity
  8
0
  6
HIDDEN
 62
     7
370
     0
100
AcDbLine
 10
245.9872156185
 20
121.7746325041
 30
0.0
 11
245.9872156185
 21
122.2833944689
 31
0.0
  0
LINE
  5
19F
330
1F
100
AcDbEntity
  8
VERMASSUNG
  6
CENTERX2
100
AcDbLine
 10
128.2141853581
 20
112.766457742
 30
0.0
 11
251.5084945958
 21
112.766457742
 31
0.0
  0
LINE
  5
1A0
330
1F
100
AcDbEntity
  8
VERMASSUNG
  6
CENTERX2
100
AcDbLine
 10
251.5084945958
 20
129.766457742
 30
0.0
 11
251.5084945958
 21
112.766457742
 31
0.0
  0
LINE
  5
1A1
330
1F
100
AcDbEntity
  8
VERMASSUNG
  6
CENTERX2
100
AcDbLine
 10
251.5084945958
 20
129.766457742
 30
0.0
 11
262.7054508877
 21
129.766457742
 31
0.0
  0
DIMENSION
  5
1A2
330
1F
100
AcDbEntity
  8
VERMASSUNG
100
AcDbDimension
  2
_D
 10
251.5084945958
 20
142.79754736
 30
0.0
 11
206.5084945958
 21
142.79754736
 31
0.0
 70
   160
  1
<>
 71
     2
 42
-1.0
  3
SLDDIMSTYLE0
100
AcDbAlignedDimension
 13
161.5084945958
 23
137.466457742
 33
0.0
 14
251.5084945958
 24
129.766457742
 34
0.0
100
AcDbRotatedDimension
  0
DIMENSION
  5
1AD
330
1F
100
AcDbEntity
  8
VERMASSUNG
100
AcDbDimension
  2
_D_1
 10
131.5084945958
 20
149.7237765244
 30
0.0
 11
191.5084945958
 21
149.7237765244
 31
0.0
 70
   160
  1
<>
 71
     2
 42
-1.0
  3
SLDDIMSTYLE0
100
AcDbAlignedDimension
 13
251.5084945958
 23
129.766457742
 33
0.0
 14
131.5084945958
 24
128.7597835802
 34
0.0
100
AcDbRotatedDimension
  0
DIMENSION
  5
1B7
330
1F
100
AcDbEntity
  8
VERMASSUNG
100
AcDbDimension
  2
_D_2
 10
264.8365852049
 20
112.766457742
 30
0.0
 11
264.8365852049
 21
121.266457742
 31
0.0
 70
   160
  1
<>
 71
     2
 42
-1.0
  3
SLDDIMSTYLE0
100
AcDbAlignedDimension
 13
251.5084945958
 23
129.766457742
 33
0.0
 14
251.5084945958
 24
112.766457742
 34
0.0
 50
90.0
100
AcDbRotatedDimension
  0
DIMENSION
  5
1C1
330
1F
100
AcDbEntity
  8
VERMASSUNG
100
AcDbDimension
  2
_D_3
 10
262.7054508877
 20
129.766457742
 30
0.0
 11
257.2622406898
 21
122.112199891
 31
0.0
 70
   162
  1
<>
 71
     1
 42
-1.0
  3
SLDDIMSTYLE1
100
AcDb2LineAngularDimension
 13
251.4925948627
 23
129.2557115327
 33
0.0
 14
248.2866180271
 24
119.1124209464
 34
0.0
 15
251.5084945958
 25
129.766457742
 35
0.0
 16
257.2622406898
 26
122.112199891
 36
0.0
  0
DIMENSION
  5
1CA
330
1F
100
AcDbEntity
  8
VERMASSUNG
100
AcDbDimension
  2
_D_4
 10
121.5084945958
 20
87.766457742
 30
0.0
 11
121.5084945958
 21
112.766457742
 31
0.0
 70
   160
  1
PSC%%c<>
 71
     2
 42
-1.0
  3
SLDDIMSTYLE0
100
AcDbAlignedDimension
 13
161.8084945958
 23
137.766457742
 33
0.0
 14
161.8084945958
 24
87.766457742
 34
0.0
 50
90.0
100
AcDbRotatedDimension
  0
DIMENSION
  5
1D6
330
1F
100
AcDbEntity
  8
VERMASSUNG
100
AcDbDimension
  2
_D_5
 10
194.0288844989
 20
125.266457742
 30
0.0
 11
194.0288844989
 21
119.5999520289
 31
0.0
 70
   160
  1
%%c<>
 71
     2
 42
-1.0
  3
SLDDIMSTYLE0
100
AcDbAlignedDimension
 13
185.5084945958
 23
100.266457742
 33
0.0
 14
185.5084945958
 24
125.266457742
 34
0.0
 50
90.0
100
AcDbRotatedDimension
  0
LINE
  5
1DF
330
1F
100
AcDbEntity
  8
0
  6
Continuous
 62
     7
370
    15
100
AcDbLine
 10
75.7033882129
 20
123.4902823548
 30
0.0
 11
75.6911087248
 21
123.4911410342
 31
0.0
  0
LINE
  5
1E0
330
1F
100
AcDbEntity
  8
0
  6
Continuous
 62
     7
370
    15
100
AcDbLine
 10
64.4518984065
 20
120.9401115979
 30
0.0
 11
64.4833523713
 21
120.937911814
 31
0.0
  0
SPLINE
  5
1E1
330
1F
100
AcDbEntity
  8
0
  6
Continuous
 62
     7
370
    15
100
AcDbSpline
210
0.0
220
0.0
230
1.0
 70
     8
 71
     3
 72
    10
 73
     6
 74
     0
 42
0.00000001
 43
0.00000001
 12
1.0
 22
0.0
 32
0.0
 13
1.0
 23
0.0
 33
0.0
 40
0.0
 40
0.0
 40
0.0
 40
0.0
 40
0.3321549032710048
 40
0.6673755443161326
 40
1.0
 40
1.0
 40
1.0
 40
1.0
 10
69.05052777635396
 20
128.8962867314927
 30
0.0
 10
68.61170034485939
 20
129.0024700329616
 30
0.0
 10
67.72999517335518
 20
129.215816691154
 30
0.0
 10
66.38001263185859
 20
129.4691192100904
 30
0.0
 10
65.4945877695292
 20
129.6769354790335
 30
0.0
 10
65.05359634154124
 20
129.7804396803491
 30
0.0
  0
LINE
  5
1E2
330
1F
100
AcDbEntity
  8
0
  6
Continuous
 62
     7
370
    15
100
AcDbLine
 10
64.064274675
 20
115.6324823591
 30
0.0
 11
64.4151435865
 21
115.6618043519
 31
0.0
  0
LINE
  5
1E3
330
1F
100
AcDbEntity
  8
0
  6
Continuous
 62
     7
370
    15
100
AcDbLine
 10
78.1007047209
 20
112.766457742
 30
0.0
 11
78.1007047209
 21
114.766457837
 31
0.0
  0
ARC
  5
1E4
330
1F
100
AcDbEntity
  8
0
  6
Continuous
 62
     7
370
    15
100
AcDbCircle
 10
65.1007044527
 20
112.766457742
 30
0.0
 40
13.0
100
AcDbArc
 50
262.0926611235
 51
0.0
  0
LINE
  5
1E5
330
1F
100
AcDbEntity
  8
0
  6
Continuous
 62
     7
370
    15
100
AcDbLine
 10
64.6416524125
 20
118.9010315779
 30
0.0
 11
63.3122760502
 21
99.8900635372
 31
0.0
  0
LINE
  5
1E6
330
1F
100
AcDbEntity
  8
0
  6
Continuous
 62
     7
370
    15
100
AcDbLine
 10
64.6416524125
 20
118.9010315779
 30
0.0
 11
66.8211828617
 21
118.9615451935
 31
0.0
  0
LINE
  5
1E7
330
1F
100
AcDbEntity
  8
0
  6
Continuous
 62
     7
370
    15
100
AcDbLine
 10
66.8211828617
 20
118.9615451935
 30
0.0
 11
68.3128127295
 21
118.789465187
 31
0.0
  0
LINE
  5
1E8
330
1F
100
AcDbEntity
  8
0
  6
Continuous
 62
     7
370
    15
100
AcDbLine
 10
68.3289008613
 20
119.0195353906
 30
0.0
 11
68.3283043492
 21
119.0110063384
 31
0.0
  0
LINE
  5
1E9
330
1F
100
AcDbEntity
  8
0
  6
Continuous
 62
     7
370
    15
100
AcDbLine
 10
68.3277707014
 20
119.0033746156
 30
0.0
 11
68.3128127295
 21
118.789465187
 31
0.0
  0
LINE
  5
1EA
330
1F
100
AcDbEntity
  8
0
  6
Continuous
 62
     7
370
    15
100
AcDbLine
 10
72.372906043
 20
127.4919230695
 30
0.0
 11
68.9817149125
 21
128.35521253
 31
0.0
  0
ARC
  5
1EB
330
1F
100
AcDbEntity
  8
0
  6
Continuous
 62
     7
370
    15
100
AcDbCircle
 10
61.1007044527
 20
114.766457742
 30
0.0
 40
17.00000000000001
100
AcDbArc
 50
0.0
 51
48.4655175839
  0
LINE
  5
1EC
330
1F
100
AcDbEntity
  8
0
  6
Continuous
 62
     7
370
    15
100
AcDbLine
 10
69.0050641007
 20
128.6891214754
 30
0.0
 11
71.7993365999
 21
127.9777894001
 31
0.0
  0
ARC
  5
1ED
330
1F
100
AcDbEntity
  8
0
  6
Continuous
 62
     7
370
    15
100
AcDbCircle
 10
61.1007044527
 20
114.766457742
 30
0.0
 40
17.00000000000001
100
AcDbArc
 50
48.4655175839
 51
50.9991964768
  0
SPLINE
  5
1EE
330
1F
100
AcDbEntity
  8
0
  6
Continuous
 62
     7
370
    15
100
AcDbSpline
210
0.0
220
0.0
230
1.0
 70
     8
 71
     3
 72
    10
 73
     6
 74
     0
 42
0.00000001
 43
0.00000001
 12
1.0
 22
0.0
 32
0.0
 13
1.0
 23
0.0
 33
0.0
 40
0.0
 40
0.0
 40
0.0
 40
0.0
 40
0.5
 40
0.5
 40
1.0
 40
1.0
 40
1.0
 40
1.0
 10
63.32674361446934
 20
100.0971570567744
 30
0.0
 10
63.33304890237544
 20
100.191418728502
 30
0.0
 10
63.3333371525737
 20
100.2657395781109
 30
0.0
 10
63.3131891834016
 20
100.369379359523
 30
0.0
 10
63.29275316710007
 20
100.3978550520548
 30
0.0
 10
63.26115799927003
 20
100.4025558964689
 30
0.0
  0
SPLINE
  5
1EF
330
1F
100
AcDbEntity
  8
0
  6
Continuous
 62
     7
370
    15
100
AcDbSpline
210
0.0
220
0.0
230
1.0
 70
     8
 71
     3
 72
    16
 73
    12
 74
     0
 42
0.00000001
 43
0.00000001
 12
1.0
 22
0.0
 32
0.0
 13
1.0
 23
0.0
 33
0.0
 40
0.0
 40
0.0
 40
0.0
 40
0.0
 40
0.2500000000000048
 40
0.2500000000000048
 40
0.375000000000007
 40
0.375000000000007
 40
0.5000000000000093
 40
0.5000000000000093
 40
0.7500000000000047
 40
0.7500000000000047
 40
1.0
 40
1.0
 40
1.0
 40
1.0
 10
63.2611579992699
 20
100.4025558964686
 30
0.0
 10
63.19683569789407
 20
100.4121260032886
 30
0.0
 10
63.09912124609406
 20
100.4270473915604
 30
0.0
 10
62.90425005762793
 20
100.460770687921
 30
0.0
 10
62.83059350807099
 20
100.4740539688285
 30
0.0
 10
62.67107945454906
 20
100.5045852670491
 30
0.0
 10
62.58489890408547
 20
100.5218812747884
 30
0.0
 10
62.30763648987844
 20
100.5810364101923
 30
0.0
 10
62.09503508824664
 20
100.6309663082973
 30
0.0
 10
61.64523344731655
 20
100.7513039436992
 30
0.0
 10
61.40377189957201
 20
100.8227648285783
 30
0.0
 10
61.15432802047167
 20
100.9057615965231
 30
0.0
  0
SPLINE
  5
1F0
330
1F
100
AcDbEntity
  8
0
  6
Continuous
 62
     7
370
    15
100
AcDbSpline
210
0.0
220
0.0
230
1.0
 70
     8
 71
     3
 72
    10
 73
     6
 74
     0
 42
0.00000001
 43
0.00000001
 12
1.0
 22
0.0
 32
0.0
 13
1.0
 23
0.0
 33
0.0
 40
0.0
 40
0.0
 40
0.0
 40
0.0
 40
0.3757240780609037
 40
0.7516328934593264
 40
0.9999999999999999
 40
0.9999999999999999
 40
0.9999999999999999
 40
0.9999999999999999
 10
62.84342370251655
 20
125.0609560142271
 30
0.0
 10
63.15406939661288
 20
125.1105658172091
 30
0.0
 10
63.7755135241741
 20
125.2098098154956
 30
0.0
 10
64.46282507073411
 20
125.2534173837821
 30
0.0
 10
64.69375050525935
 20
125.2585516587983
 30
0.0
 10
64.7856237939512
 20
125.2605943213217
 30
0.0
  0
ELLIPSE
  5
1F1
330
1F
100
AcDbEntity
  8
0
  6
Continuous
 62
     7
370
    15
100
AcDbEllipse
 10
58.0279179294
 20
116.3393124521
 30
0.0
 11
1.650444768084895
 21
1.909937113548324
 31
0.0
210
0.0
220
0.0
230
1.0
 40
0.8148202105
 41
0.0
 42
6.283185307179586
  0
ARC
  5
1F2
330
1F
100
AcDbEntity
  8
0
  6
Continuous
 62
     7
370
    15
100
AcDbCircle
 10
65.1007044527
 20
112.766457742
 30
0.0
 40
12.5
100
AcDbArc
 50
100.4036880773
 51
251.5963119227
  0
SPLINE
  5
1F3
330
1F
100
AcDbEntity
  8
0
  6
Continuous
 62
     7
370
    15
100
AcDbSpline
210
0.0
220
0.0
230
1.0
 70
     8
 71
     3
 72
    15
 73
    11
 74
     0
 42
0.00000001
 43
0.00000001
 12
1.0
 22
0.0
 32
0.0
 13
1.0
 23
0.0
 33
0.0
 40
0.0
 40
0.0
 40
0.0
 40
0.0
 40
0.1005235118177451
 40
0.1923418073834018
 40
0.2696674817651458
 40
0.3468479511658578
 40
0.500344883454487
 40
0.8050685987384116
 40
0.9885859479812333
 40
1.0
 40
1.0
 40
1.0
 40
1.0
 10
57.57234258832871
 20
114.0615378011949
 30
0.0
 10
57.51605720138975
 20
114.1549549524126
 30
0.0
 10
57.40836067490208
 20
114.3336994409495
 30
0.0
 10
57.31786374313929
 20
114.5272322042145
 30
0.0
 10
57.32436141551369
 20
114.6799233794059
 30
0.0
 10
57.46011598581271
 20
114.8086679417348
 30
0.0
 10
57.86064098127554
 20
114.9057986713317
 30
0.0
 10
58.37032233520544
 20
114.8023420397452
 30
0.0
 10
58.74175746062973
 20
114.5950232076342
 30
0.0
 10
58.82132347747448
 20
114.435383935406
 30
0.0
 10
58.82598240184127
 20
114.4260363857262
 30
0.0
  0
CIRCLE
  5
1F4
330
1F
100
AcDbEntity
  8
0
  6
Continuous
 62
     7
370
    15
100
AcDbCircle
 10
65.1007044527
 20
112.766457742
 30
0.0
 40
25.00000000000001
  0
SPLINE
  5
1F5
330
1F
100
AcDbEntity
  8
0
  6
Continuous
 62
     7
370
    15
100
AcDbSpline
210
0.0
220
0.0
230
1.0
 70
     8
 71
     3
 72
    13
 73
     9
 74
     0
 42
0.00000001
 43
0.00000001
 12
1.0
 22
0.0
 32
0.0
 13
1.0
 23
0.0
 33
0.0
 40
0.0
 40
0.0
 40
0.0
 40
0.0
 40
0.1940418572531294
 40
0.3876320432314874
 40
0.5765815083880251
 40
0.7618059800487297
 40
0.9462797605844409
 40
0.9999999999999999
 40
0.9999999999999999
 40
0.9999999999999999
 40
0.9999999999999999
 10
65.06498959986024
 20
129.2557120527141
 30
0.0
 10
65.06813629588129
 20
129.3007120920002
 30
0.0
 10
65.07442236335837
 20
129.3906074239708
 30
0.0
 10
65.08391917131938
 20
129.5264155323278
 30
0.0
 10
65.09205769674938
 20
129.6428034364489
 30
0.0
 10
65.09774193892947
 20
129.7240924773631
 30
0.0
 10
65.10061482371874
 20
129.7651759970261
 30
0.0
 10
65.10053005793056
 20
129.763964096772
 30
0.0
 10
65.10051094058062
 20
129.7636907751672
 30
0.0
  0
SPLINE
  5
1F6
330
1F
100
AcDbEntity
  8
0
  6
Continuous
 62
     7
370
    15
100
AcDbSpline
210
0.0
220
0.0
230
1.0
 70
     8
 71
     3
 72
    14
 73
    10
 74
     0
 42
0.00000001
 43
0.00000001
 12
1.0
 22
0.0
 32
0.0
 13
1.0
 23
0.0
 33
0.0
 40
0.0
 40
0.0
 40
0.0
 40
0.0
 40
0.1583283140540097
 40
0.3168118466634977
 40
0.4713750405514328
 40
0.6221326967417385
 40
0.7721315717449309
 40
0.9245977440743043
 40
0.9999999999999999
 40
0.9999999999999999
 40
0.9999999999999999
 40
0.9999999999999999
 10
69.01978947477878
 20
128.8997046853416
 30
0.0
 10
69.01995733223978
 20
128.9021046472497
 30
0.0
 10
69.02029321172239
 20
128.9069069238897
 30
0.0
 10
69.0197709438858
 20
128.8994336295588
 30
0.0
 10
69.01854137026001
 20
128.881861039643
 30
0.0
 10
69.01671903721737
 20
128.8557884806612
 30
0.0
 10
69.01453152280882
 20
128.8245147285739
 30
0.0
 10
69.01258422393998
 20
128.7966609653207
 30
0.0
 10
69.01147234856452
 20
128.7807624907546
 30
0.0
 10
69.0111044261092
 20
128.7755016441457
 30
0.0
  0
LINE
  5
1F7
330
1F
100
AcDbEntity
  8
0
  6
Continuous
 62
     7
370
    15
100
AcDbLine
 10
68.3328256875
 20
119.0756629425
 30
0.0
 11
69.0111044261
 21
128.7755016441
 31
0.0
  0
LINE
  5
1F8
330
1F
100
AcDbEntity
  8
0
  6
Continuous
 62
     7
370
    15
100
AcDbLine
 10
64.3557016321
 20
119.1124208475
 30
0.0
 11
65.0649895999
 21
129.2557120527
 31
0.0
  0
SPLINE
  5
1F9
330
1F
100
AcDbEntity
  8
0
  6
Continuous
 62
     7
370
    15
100
AcDbSpline
210
0.0
220
0.0
230
1.0
 70
     8
 71
     3
 72
    10
 73
     6
 74
     0
 42
0.00000001
 43
0.00000001
 12
1.0
 22
0.0
 32
0.0
 13
1.0
 23
0.0
 33
0.0
 40
0.0
 40
0.0
 40
0.0
 40
0.0
 40
0.2656897963376472
 40
0.6165094241464336
 40
1.0
 40
1.0
 40
1.0
 40
1.0
 10
68.3328256874764
 20
119.0756629425101
 30
0.0
 10
68.33228061448246
 20
119.0678682688885
 30
0.0
 10
68.33101582132049
 20
119.0497814254641
 30
0.0
 10
68.32930429694976
 20
119.0253070993253
 30
0.0
 10
68.32864740723927
 20
119.0159125857063
 30
0.0
 10
68.32830434920729
 20
119.0110063384287
 30
0.0
  0
SPLINE
  5
1FA
330
1F
100
AcDbEntity
  8
0
  6
Continuous
 62
     7
370
    15
100
AcDbSpline
210
0.0
220
0.0
230
1.0
 70
     8
 71
     3
 72
    10
 73
     6
 74
     0
 42
0.00000001
 43
0.00000001
 12
1.0
 22
0.0
 32
0.0
 13
1.0
 23
0.0
 33
0.0
 40
0.0
 40
0.0
 40
0.0
 40
0.0
 40
0.3518009696524972
 40
0.7034204166233025
 40
1.0
 40
1.0
 40
1.0
 40
1.0
 10
64.33761715213299
 20
118.85380141614
 30
0.0
 10
64.33884973340572
 20
118.8714277216768
 30
0.0
 10
64.34131425996247
 20
118.9066712379084
 30
0.0
 10
64.34796380809279
 20
119.0017651710348
 30
0.0
 10
64.35327261794735
 20
119.0776844405602
 30
0.0
 10
64.35570163209454
 20
119.1124208475463
 30
0.0
  0
LINE
  5
1FB
330
1F
100
AcDbEntity
  8
0
  6
Continuous
 62
     7
370
    15
100
AcDbLine
 10
68.3277707014
 20
119.0033746156
 30
0.0
 11
68.3283043492
 21
119.0110063384
 31
0.0
  0
LINE
  5
1FC
330
1F
100
AcDbEntity
  8
0
  6
Continuous
 62
     7
370
    15
100
AcDbLine
 10
64.1139794772
 20
115.6556338741
 30
0.0
 11
64.3376171521
 21
118.8538014161
 31
0.0
  0
CIRCLE
  5
1FD
330
1F
100
AcDbEntity
  8
VERMASSUNG
  6
CENTERX2
100
AcDbCircle
 10
65.1007044527
 20
113.5971080467
 30
0.0
 40
16.0
  0
DIMENSION
  5
1FE
330
1F
100
AcDbEntity
  8
VERMASSUNG
100
AcDbDimension
  2
_D_6
 10
53.7869959537
 20
124.9108165457
 30
0.0
 11
40.6141885274
 21
138.0836239719
 31
0.0
 70
   160
  1
%%c<> min. 
 71
     2
 42
-1.0
  3
SLDDIMSTYLE2
100
AcDbAlignedDimension
 13
76.4144129517
 23
102.2833995477
 33
0.0
 14
53.7869959537
 24
124.9108165457
 34
0.0
 50
-45.0
100
AcDbRotatedDimension
  0
DIMENSION
  5
20D
330
1F
100
AcDbEntity
  8
VERMASSUNG
100
AcDbDimension
  2
_D_7
 10
65.1007044527
 20
140.266457742
 30
0.0
 11
54.5958736527
 21
80.0389325489
 31
0.0
 70
   162
  1
<>
 71
     1
 42
-1.0
  3
SLDDIMSTYLE3
100
AcDb2LineAngularDimension
 13
63.3122760337
 23
99.8900636897
 33
0.0
 14
64.6416524157
 24
118.9010316588
 34
0.0
 15
65.1007044527
 25
85.266457742
 35
0.0
 16
63.4734931647
 26
78.8685470448
 36
0.0
  0
INSERT
  5
225
330
1F
100
AcDbEntity
  8
VERMASSUNG
100
AcDbBlockReference
  2
SW_CENTERMARKSYMBOL_0
 10
65.1007044527
 20
112.766457742
 30
0.0
  0
OLE2FRAME
  5
226
330
1F
100
AcDbEntity
  8
0
100
AcDbOle2Frame
 70
     2
  3
Paintbrush-Bild
 10
13.8511154363
 20
38.264191557
 30
0.0
 11
51.6290888628
 21
31.9806341108
 31
0.0
 71
     2
 72
     0
 73
     1
 90
    12928
310
80552BED0767C5B32B40DDAF6807D121434000000000000000006FFBDDFB85D0
310
4940DDAF6807D121434000000000000000006FFBDDFB85D04940416F4BD60AFB
310
3F4000000000000000002BED0767C5B32B40416F4BD60AFB3F40000000000000
310
0000000000000100000000010000010000000100000000000100000000320000
310
D0CF11E0A1B11AE1000000000000000000000000000000003E000300FEFF0900
310
0600000000000000000000000100000001000000000000000010000002000000
310
01000000FEFFFFFF0000000000000000FFFFFFFFFFFFFFFFFFFFFFFFFFFFFFFF
310
FFFFFFFFFFFFFFFFFFFFFFFFFFFFFFFFFFFFFFFFFFFFFFFFFFFFFFFFFFFFFFFF
310
FFFFFFFFFFFFFFFFFFFFFFFFFFFFFFFFFFFFFFFFFFFFFFFFFFFFFFFFFFFFFFFF
310
FFFFFFFFFFFFFFFFFFFFFFFFFFFFFFFFFFFFFFFFFFFFFFFFFFFFFFFFFFFFFFFF
310
FFFFFFFFFFFFFFFFFFFFFFFFFFFFFFFFFFFFFFFFFFFFFFFFFFFFFFFFFFFFFFFF
310
FFFFFFFFFFFFFFFFFFFFFFFFFFFFFFFFFFFFFFFFFFFFFFFFFFFFFFFFFFFFFFFF
310
FFFFFFFFFFFFFFFFFFFFFFFFFFFFFFFFFFFFFFFFFFFFFFFFFFFFFFFFFFFFFFFF
310
FFFFFFFFFFFFFFFFFFFFFFFFFFFFFFFFFFFFFFFFFFFFFFFFFFFFFFFFFFFFFFFF
310
FFFFFFFFFFFFFFFFFFFFFFFFFFFFFFFFFFFFFFFFFFFFFFFFFFFFFFFFFFFFFFFF
310
FFFFFFFFFFFFFFFFFFFFFFFFFFFFFFFFFFFFFFFFFFFFFFFFFFFFFFFFFFFFFFFF
310
FFFFFFFFFFFFFFFFFFFFFFFFFFFFFFFFFFFFFFFFFFFFFFFFFFFFFFFFFFFFFFFF
310
FFFFFFFFFFFFFFFFFFFFFFFFFFFFFFFFFFFFFFFFFFFFFFFFFFFFFFFFFFFFFFFF
310
FFFFFFFFFFFFFFFFFFFFFFFFFFFFFFFFFFFFFFFFFFFFFFFFFFFFFFFFFFFFFFFF
310
FFFFFFFFFFFFFFFFFFFFFFFFFFFFFFFFFFFFFFFFFFFFFFFFFFFFFFFFFFFFFFFF
310
FDFFFFFFFEFFFFFFFEFFFFFFFEFFFFFF05000000060000000700000008000000
310
090000000A0000000B0000000C0000000D0000000E0000000F00000010000000
310
11000000120000001300000014000000150000001600000017000000FEFFFFFF
310
FFFFFFFFFFFFFFFFFFFFFFFFFFFFFFFFFFFFFFFFFFFFFFFFFFFFFFFFFFFFFFFF
310
FFFFFFFFFFFFFFFFFFFFFFFFFFFFFFFFFFFFFFFFFFFFFFFFFFFFFFFFFFFFFFFF
310
FFFFFFFFFFFFFFFFFFFFFFFFFFFFFFFFFFFFFFFFFFFFFFFFFFFFFFFFFFFFFFFF
310
FFFFFFFFFFFFFFFFFFFFFFFFFFFFFFFFFFFFFFFFFFFFFFFFFFFFFFFFFFFFFFFF
310
FFFFFFFFFFFFFFFFFFFFFFFFFFFFFFFFFFFFFFFFFFFFFFFFFFFFFFFFFFFFFFFF
310
FFFFFFFFFFFFFFFFFFFFFFFFFFFFFFFFFFFFFFFFFFFFFFFFFFFFFFFFFFFFFFFF
310
FFFFFFFFFFFFFFFFFFFFFFFFFFFFFFFFFFFFFFFFFFFFFFFFFFFFFFFFFFFFFFFF
310
FFFFFFFFFFFFFFFFFFFFFFFFFFFFFFFFFFFFFFFFFFFFFFFFFFFFFFFFFFFFFFFF
310
FFFFFFFFFFFFFFFFFFFFFFFFFFFFFFFFFFFFFFFFFFFFFFFFFFFFFFFFFFFFFFFF
310
FFFFFFFFFFFFFFFFFFFFFFFFFFFFFFFFFFFFFFFFFFFFFFFFFFFFFFFFFFFFFFFF
310
FFFFFFFFFFFFFFFFFFFFFFFFFFFFFFFFFFFFFFFFFFFFFFFFFFFFFFFFFFFFFFFF
310
FFFFFFFFFFFFFFFFFFFFFFFFFFFFFFFFFFFFFFFFFFFFFFFFFFFFFFFFFFFFFFFF
310
FFFFFFFFFFFFFFFFFFFFFFFFFFFFFFFFFFFFFFFFFFFFFFFFFFFFFFFFFFFFFFFF
310
52006F006F007400200045006E00740072007900000000000000000000000000
310
0000000000000000000000000000000000000000000000000000000000000000
310
16000500FFFFFFFFFFFFFFFF020000000A00030000000000C000000000000046
310
00000000000000000000000060C28B4FEA43CD0103000000C000000000000000
310
01004F006C006500000000000000000000000000000000000000000000000000
310
0000000000000000000000000000000000000000000000000000000000000000
310
0A000200FFFFFFFFFFFFFFFFFFFFFFFF00000000000000000000000000000000
310
0000000000000000000000000000000000000000000000001400000000000000
310
010043006F006D0070004F0062006A0000000000000000000000000000000000
310
0000000000000000000000000000000000000000000000000000000000000000
310
120002010100000003000000FFFFFFFF00000000000000000000000000000000
310
0000000000000000000000000000000000000000010000004D00000000000000
310
01004F006C006500310030004E00610074006900760065000000000000000000
310
0000000000000000000000000000000000000000000000000000000000000000
310
1A000200FFFFFFFFFFFFFFFFFFFFFFFF00000000000000000000000000000000
310
0000000000000000000000000000000000000000040000002426000000000000
310
FEFFFFFF02000000FEFFFFFFFFFFFFFFFFFFFFFFFFFFFFFFFFFFFFFFFFFFFFFF
310
FFFFFFFFFFFFFFFFFFFFFFFFFFFFFFFFFFFFFFFFFFFFFFFFFFFFFFFFFFFFFFFF
310
FFFFFFFFFFFFFFFFFFFFFFFFFFFFFFFFFFFFFFFFFFFFFFFFFFFFFFFFFFFFFFFF
310
FFFFFFFFFFFFFFFFFFFFFFFFFFFFFFFFFFFFFFFFFFFFFFFFFFFFFFFFFFFFFFFF
310
FFFFFFFFFFFFFFFFFFFFFFFFFFFFFFFFFFFFFFFFFFFFFFFFFFFFFFFFFFFFFFFF
310
FFFFFFFFFFFFFFFFFFFFFFFFFFFFFFFFFFFFFFFFFFFFFFFFFFFFFFFFFFFFFFFF
310
FFFFFFFFFFFFFFFFFFFFFFFFFFFFFFFFFFFFFFFFFFFFFFFFFFFFFFFFFFFFFFFF
310
FFFFFFFFFFFFFFFFFFFFFFFFFFFFFFFFFFFFFFFFFFFFFFFFFFFFFFFFFFFFFFFF
310
FFFFFFFFFFFFFFFFFFFFFFFFFFFFFFFFFFFFFFFFFFFFFFFFFFFFFFFFFFFFFFFF
310
FFFFFFFFFFFFFFFFFFFFFFFFFFFFFFFFFFFFFFFFFFFFFFFFFFFFFFFFFFFFFFFF
310
FFFFFFFFFFFFFFFFFFFFFFFFFFFFFFFFFFFFFFFFFFFFFFFFFFFFFFFFFFFFFFFF
310
FFFFFFFFFFFFFFFFFFFFFFFFFFFFFFFFFFFFFFFFFFFFFFFFFFFFFFFFFFFFFFFF
310
FFFFFFFFFFFFFFFFFFFFFFFFFFFFFFFFFFFFFFFFFFFFFFFFFFFFFFFFFFFFFFFF
310
FFFFFFFFFFFFFFFFFFFFFFFFFFFFFFFFFFFFFFFFFFFFFFFFFFFFFFFFFFFFFFFF
310
FFFFFFFFFFFFFFFFFFFFFFFFFFFFFFFFFFFFFFFFFFFFFFFFFFFFFFFFFFFFFFFF
310
FFFFFFFFFFFFFFFFFFFFFFFFFFFFFFFFFFFFFFFFFFFFFFFFFFFFFFFFFFFFFFFF
310
0100000200000000000000000000000000000000000000000000000000000000
310
0000000000000000000000000000000000000000000000000000000000000000
310
0100FEFF030A0000FFFFFFFF0A00030000000000C00000000000004607000000
310
5042727573680007000000504272757368000700000050427275736800F439B2
310
7100000000000000000000000000000000000000000000000000000000000000
310
0000000000000000000000000000000000000000000000000000000000000000
310
0000000000000000000000000000000000000000000000000000000000000000
310
0000000000000000000000000000000000000000000000000000000000000000
310
0000000000000000000000000000000000000000000000000000000000000000
310
0000000000000000000000000000000000000000000000000000000000000000
310
0000000000000000000000000000000000000000000000000000000000000000
310
0000000000000000000000000000000000000000000000000000000000000000
310
0000000000000000000000000000000000000000000000000000000000000000
310
0000000000000000000000000000000000000000000000000000000000000000
310
0000000000000000000000000000000000000000000000000000000000000000
310
0000000000000000000000000000000000000000000000000000000000000000
310
20260000424D0E260000000000003E00000028000000B40200006E0000000100
310
01000000000000000000130B0000130B00000200000002000000000000FFFFFF
310
FFFFFFFFFFFFFFFFFFFFFFFFFFFFFFFFFFFFFFFFFFFFFFFFFFFFFFFFFFFFFFFF
310
FFFFFFFFFFFFFFFFFFFFFFFFFFFFFFFFFFFFFFFFFFFFFFFFFFFFFFFFFFFFFFFF
310
FFFFFFFFFFFFFFFFFFFFFFFFFFFFFFFFFFFFFFFFFFFFFFFFF000FFFFFFFFFFFF
310
FFFFFFFFFFFFFFFFFFFFFFFFFFFFFFFFFFFFFFFFFFFFFFFFFFFFFFFFFFFFFFFF
310
FFFFFFFFFFFFFFFFFFFFFFFFFFFFFFFFFFFFFFFFFFFFFFFFFFFFFFFFFFFFFFFF
310
FFFFFFFFFFFFFFFFFFFFFFFFFFFFFFFFF000FFFFFFFFFFFFFFFFFFFFFFFFFFFF
310
FFFFFFFFFFFFFFFFFFFFFFFFFFFFFFFFFFFFFFFFFFFFFFFFFFFFFFFFFFFFFFFF
310
FFFFFFFFFFFFFFFFFFFFFFFFFFFFFFFFFFFFFFFFFFFFFFFFFFFFFFFFFFFFFFFF
310
FFFFFFFFFFFFFFFFF000FFFFFFFFFFFFFFFFFFFFFFFFFFFFFFFFFFFFFFFFFFFF
310
FFFFFFFFFFFFFFFFFFFFFFFFFFFFFFFFFFFFFFFFFFFFFFFFFFFFFFFFFFFFFFFF
310
FFFFFFFFFFFFFFFFFFFFFFFFFFFFFFFFFFFFFFFFFFFFFFFFFFFFFFFFFFFFFFFF
310
F000FFFFFFFFFFFFFFFFFFFFFFFFFFFFFFFFFFFFFFFFFFFFFFFFFFFFFFFFFFFF
310
FFFFFFFFFFFFFFFFFFFFFFFFFFFFFFFFFFFFFFFFFFFFFFFFFFFFFFFFFFFFFFFF
310
FFFFFFFFFFFFFFFFFFFFFFFFFFFFFFFFFFFFFFFFFFFFFFFFF000FFFFFFFFFFFF
310
FFFFFFFFFFFFFFFFFFFFFFFFFFFFFFFFFFFFFFFFFFFFFFFFFFFFFFFFFFFFFFFF
310
FFFFFFFFFFFFFFFFFFFFFFFFFFFFFFFFFFFFFFFFFFFFFFFFFFFFFFFFFFFFFFFF
310
FFFFFFFFFFFFFFFFFFFFFFFFFFFFFFFFF000FFFFFFFFFFFFFFFFFFFFFFFFFFFF
310
FFFFFFFFFFFFFFFFFFFFFFFFFFFFFFFFFFFFFFFFFFFFFFFFFFFFFFFFFFFFFFFF
310
FFFFFFFFFFFFFFFFFFFFFFFFFFFFFFFFFFFFFFFFFFFFFFFFFFFFFFFFFFFFFFFF
310
FFFFFFFFFFFFFFFFF000FFFFFFFFFFFFFFFFFFFFFFFFFFFFFFFFFFFFFFFFFFFF
310
FFFFFFFFFFFFFFFFFFFFFFFFFFFFFFFFFFFFFFFFFFFFFFFFFFFFFFFFFFFFFFFF
310
FFFFFFFFFFFFFFFFFFFFFFFFFFFFFFFFFFFFFFFFFFFFFFFFFFFFFFFFFFFFFFFF
310
F000FFFFFFFFFFFFFFFFFFFFFFFFFFFFFFFFFFFFFFFFFFFFFFFFFFFFFFFFFFFF
310
FFFFFFFFFFFFFFFFFFFFFFFFFFFFFFFFFFFFFFFFFFFFFFFFFFFFFFFFFFFFFFFF
310
FFFFFFFFFFFFFFFFFFFFFFFFFFFFFFFFFFFFFFFFFFFFFFFFF000FFFFFFFFFFFF
310
FFFFFFFFFFFFFFFFFFFFFFFFFFFFFFFFFFFFFFFFFFFFFFFFFFFFFFFFFFFFFFFF
310
FFFFFFFFFFFFFFFFFFFFFFFFFFFFFFFFFFFFFFFFFFFFFFFFFFFFFFFFFFFFFFFF
310
FFFFFFFFFFFFFFFFFFFFFFFFFFFFFFFFF000FFFFFFFFFFFFFFFFFFFFFFFFFFFF
310
FFFFFFFFFFFFFFFFFFFFFFFFFFFFFFFFFFFFFFFFFFFFFFFFFFFFFFFFFFFFFFFF
310
FFFFFFFFFFFFFFFFFFFFFFFFFFFFFFFFFFFFFFFFFFFFFFFFFFFFFFFFFFFFFFFF
310
FFFFFFFFFFFFFFFFF000FFFFFFFFFFFFFFFFFFFFFFFFFFFFFFFFFFFFFFFFFFFF
310
FFFFFFFFFFFFFFFFFFFFFFFFFFFFFFFFFFFFFFFFFFFFFFFFFFFFFFFFFFFFFFFF
310
FFFFFFFFFFFFFFFFFFFFFFFFFFFFFFFFFFFFFFFFFFFFFFFFFFFFFFFFFFFFFFFF
310
F000FFFFFFFFFFFFFFFFFFFFFFFFFFFFFFFFFFFFFFFFFFFFFFFFFFFFFFFFFFFF
310
FFFFFFFFFFFFFFFFFFFFFFFFFFFFFFFFFFFFFFFFFFFFFFFFFFFFFFFFFFFFFFFF
310
FFFFFFFFFFFFFFFFFFFFFFFFFFFFFFFFFFFFFFFFFFFFFFFFF000FFFFFFFFFFFF
310
FFFFFFFFFFFFFFFFFFFFFFFFFFFFFFFFFFFFFFFFFFFFFFFFFFFFFFFFFFFFFFFF
310
FFFFFFFFFFFFFFFFFFFFFFFFFFFFFFFFFFFFFFFFFFFFFFFFFFFFFFFFFFFFFFFF
310
FFFFFFFFFFFFFFFFFFFFFFFFFFFFFFFFF000FFFFFFFFFFFFFFFFFFFFFFFFFFFF
310
FFFFFFFFFFFFFFFFFFFFFFFFFFFFFFFFFFFFFFFFFFFFFFFFFFFFFFFFFFFFFFFF
310
FFFFFFFFFFFFFFFFFFFFFFFFFFFFFFFFFFFFFFFFFFFFFFFFFFFFFFFFFFFFFFFF
310
FFFFFFFFFFFFFFFFF000FFFFFFFFFFFFFFFFFFFFFFFFFFFFFFFFFFFFFFFFFFFF
310
FFFFFFFFFFFFFFFFFFFFFFFFFFFFFFFFFFFFFFFFFFFFFFFFFFFFFFFFFFFFFFFF
310
FFFFFFFFFFFFFFFFFFFFFFFFFFFFFFFFFFFFFFFFFFFFFFFFFFFFFFFFFFFFFFFF
310
F000FFFFFFFFFFFFFFFFFFFFFFFFFFFFFFFFFFFFFFFFFFFFFFFFFFFFFFFFFFFF
310
FFFFFFFFFFFFFFFFFFFFFFFFFFFFFFFFFFFFFFFFFFFFFFFFFFFFFFFFFFFFFFFF
310
FFFFFFFFFFFFFFFFFFFFFFFFFFFFFFFFFFFFFFFFFFFFFFFFF000FFFFFFFFFFFF
310
FFFFFFFFFFFFFFFFFFFFFFFFFFFFFFFFFFFFFFFFFFFFFFFFFFFFFFFFFFFFFFFF
310
FFFFFFFFFFFFFFFFFFFFFFFFFFFFFFFFFFFFFFFFFFFFFFFFFFFFFFFFFFFFFFFF
310
FFFFFFFFFFFFFFFFFFFFFFFFFFFFFFFFF000FFFFFFFFFFFFFFFFFFFFFFFFFFFF
310
FFFFFFFFFFFFFFFFFFFFFFFFFFFFFFFFFFFFFFFFFFFFFFFFFFFFFFFFFFFFFFFF
310
FFFFFFFFFFFFFFFFFFFFFFFFFFFFFFFFFFFFFFFFFFFFFFFFFFFFFFFFFFFFFFFF
310
FFFFFFFFFFFFFFFFF000FFFFF80003FFFFFFFFFFFFFFFFFFFFFFFFFFFFFFFFFF
310
FFFFF00007FFFFFFFFFF00007FFFFFF800000000000000007FFFFFFFFFFFFFFF
310
FFFFFFFC001FFFFFFFFFFFFFFC001FFFFFFFFFFFFFFFFFFFFFFFFFFE0007FFFF
310
F000FFFF8000007FFFFFFFF8000FFFFFC0007FFFFF80007FFFFF0000007FFFFF
310
FFF8000007FFFFF800000000000000007FFFFFF0001FFFFFFFFFFFC00001FFFF
310
FFFFFFFFC00001FFFFFFFF000000000003FFFFE000007FFFF000FFFE0000000F
310
FFFFFFF0000FFFFF80007FFFFF80007FFFFC0000001FFFFFFFC0000001FFFFF8
310
00000000000000007FFFFFF0001FFFFFFFFFFE0000003FFFFFFFFFFE0000003F
310
FFFFFF000000000003FFFF0000000FFFF000FFF800000003FFFFFFF00007FFFF
310
80007FFFFF80007FFFF000000007FFFFFF000000003FFFF80000000000000000
310
7FFFFFF0001FFFFFFFFFF80000000FFFFFFFFFF80000000FFFFFFF0000000000
310
03FFFC00000003FFF000FFE000000000FFFFFFF00007FFFF80003FFFFF80007F
310
FFC000000001FFFFFC000000001FFFF800000000000000007FFFFFF0001FFFFF
310
FFFFE000000003FFFFFFFFE000000003FFFFFF000000000003FFF000000000FF
310
F000FF80000000007FFFFFF00007FFFF80003FFFFF80007FFF8000000000FFFF
310
F80000000007FFF800000000000000007FFFFFF0001FFFFFFFFFC000000001FF
310
FFFFFFC000000001FFFFFF000000000003FFC0000000007FF000FF0000000000
310
3FFFFFE00007FFFF00003FFFFF80007FFE00000000003FFFF00000000003FFF8
310
00000000000000007FFFFFF0001FFFFFFFFF8000000000FFFFFFFF8000000000
310
FFFFFF000000000003FF80000000003FF000FE00000000001FFFFFE00003FFFF
310
00003FFFFF80007FFC00000000001FFFE00000000001FFF8000001FFFE000000
310
7FFFFFF0001FFFFFFFFE00000000003FFFFFFE00000000003FFFFF0000000000
310
03FF00000000001FF000FC00000000000FFFFFE00003FFFF00001FFFFF80007F
310
F800000000001FFFC00000000000FFF8000001FFFE0000007FFFFFF0001FFFFF
310
FFFC00000000001FFFFFFC00000000001FFFFF000000000003FE00000000000F
310
F000F8000000000007FFFFE00003FFFF00001FFFFF80007FF800000000000FFF
310
800000000000FFF8000001FFFE0000007FFFFFF0001FFFFFFFF800000000000F
310
FFFFF800000000000FFFFF000000000003FC000000000007F000F80000000000
310
03FFFFC00003FFFE00001FFFFF80007FF0000000000007FF0000000000007FF8
310
000001FFFE0000007FFFFFF0001FFFFFFFF0000000000007FFFFF00000000000
310
07FFFF000000000003F8000000000003F000F0000000000003FFFFC00001FFFE
310
00001FFFFF80007FE0000000000007FE0000000000003FF8000001FFFE000000
310
7FFFFFF0001FFFFFFFF0000000000007FFFFF0000000000007FFFF0000000000
310
03F800001F800003F000E00001FFF00001FFFFC00001FFFE00000FFFFF80007F
310
E00001FFE00003FE00001FFF00003FF8000001FFFE0000007FFFFFF0001FFFFF
310
FFE000003E000003FFFFE000003E000003FFFF000000000003F00001FFF80001
310
F000E00007FFFC0001FFFFC00001FFFE00000FFFFF80007FC0000FFFFC0003FC
310
0000FFFFC0001FF8000001FFFE0000007FFFFFF0001FFFFFFFC00003FFE00001
310
FFFFC00003FFE00001FFFF0001FFFFFFFFF00007FFFE0001F000E0000FFFFF00
310
00FFFF800001FFFC00000FFFFF80007FC0001FFFFE0001FC0001FFFFE0001FF8
310
000001FFFE0000007FFFFFF0001FFFFFFF80000FFFF80000FFFF80000FFFF800
310
00FFFF0003FFFFFFFFE0000FFFFF8000F000C0003FFFFF8000FFFF800000FFFC
310
000007FFFF80007F80003FFFFF0001FC0003FFFFF0001FF8000001FFFE000000
310
7FFFFFF0001FFFFFFF80003FFFFE0000FFFF80003FFFFE0000FFFF0003FFFFFF
310
FFE0003FFFFF8000F000C0003FFFFF8000FFFF800000FFFC000007FFFF80007F
310
80007FFFFF8001F80007FFFFF8000FF8000001FFFE0000007FFFFFF0001FFFFF
310
FF00007FFFFF00007FFF00007FFFFF00007FFF0003FFFFFFFFE0003FFFFFC000
310
F000C0007FFFFFC000FFFF000000FFFC000007FFFF80007F8000FFFFFF8000F8
310
000FFFFFF8000FF8000001FFFE0000007FFFFFF0001FFFFFFF0000FFFFFF8000
310
7FFF0000FFFFFF80007FFF0003FFFFFFFFC0007FFFFFC00070008000FFFFFFC0
310
00FFFF000000FFF8000007FFFF80007F8000FFFFFF8000F8000FFFFFF8000FF8
310
000001FFFE0000007FFFFFF0001FFFFFFE0001FFFFFFC0003FFE0001FFFFFFC0
310
003FFF0003FFFFFFFFC0007FFFFFE00070008000FFFFFFC0007FFF0000007FF8
310
000003FFFF80007F0001FFFFFF8000F8000FFFFFF8000FF8000001FFFE000000
310
7FFFFFF0001FFFFFFE0001FFFFFFC0003FFE0001FFFFFFC0003FFF0003FFFFFF
310
FFC000FFFFFFE00070008000FFFFFFC0007FFF0000007FF8000003FFFF80007F
310
0001FFFFFF8000F8001FFFFFF8000FF8000001FFFE0000007FFFFFF0001FFFFF
310
FE0003FFFFFFE0003FFE0003FFFFFFE0003FFF0003FFFFFFFFC000FFFFFFE000
310
70008000FFFFFFC0007FFE0000007FF8000003FFFF80007F0001FFFFFF8000F0
310
001FFFFFF8000FF8000001FFFE0000007FFFFFF0001FFFFFFC0003FFFFFFE000
310
1FFC0003FFFFFFE0001FFF0003FFFFFFFFC000FFFFFFC00070008000FFFFFF80
310
007FFE0000007FF0000003FFFF80007F0001FFFFFF0000F0001FFFFFF8000FF8
310
000001FFFE0000007FFFFFF0001FFFFFFC0007FFFFFFF0001FFC0007FFFFFFF0
310
001FFF0003FFFFFFFFC000FFFFFFC00070008001FFFFFF0000FFFE0000003FF0
310
000001FFFF80007F0001FFFFFF0000F8001FFFFFF0000FF8000001FFFE000000
310
7FFFFFF0001FFFFFFC0007FFFFFFF0001FFC0007FFFFFFF0001FFF0003FFFFFF
310
FFC001FFFFFF80007000FFFFFFFFFE0000FFFE0008003FF0008001FFFF80007F
310
FFFFFFFFFC0000FFFFFFFFFFE0000FF8000001FFFE0000007FFFFFF0001FFFFF
310
F8000FFFFFFFF8000FF8000FFFFFFFF8000FFF0003FFFFFFFFFFFFFFFFFF0000
310
7000FFFFFFFFFC0000FFFC0008003FF0008001FFFF80007FFFFFFFFFF80001FF
310
FFFFFFFF80000FF8000001FFFE0000007FFFFFF0001FFFFFF8000FFFFFFFF800
310
0FF8000FFFFFFFF8000FFF0003FFFFFFFFFFFFFFFFFE0000F000FFFFFFFFE000
310
00FFFC000C003FE000C001FFFF80007FFFFFFFFFC00001FFFFFFFFFE00001FF8
310
000001FFFE0000007FFFFFF0001FFFFFF8000FFFFFFFF8000FF8000FFFFFFFF8
310
000FFF0003FFFFFFFFFFFFFFFFF00000F000FFFFFFFE000001FFFC000C001FE0
310
00C000FFFF80007FFFFFFFFE000001FFFFFFFFE000001FF80FFFFFFFFFFFFFC0
310
7FFFFFF0001FFFFFF8000FFFFFFFF8000FF8000FFFFFFFF8000FFF0003FFFFFF
310
FFFFFFFFFF800000F000FFFFFFC0000001FFFC001C001FE001C000FFFF80007F
310
FFFFFF80000003FFFFFFF80000001FF80FFFFFFFFFFFFFC07FFFFFF0001FFFFF
310
F8001FFFFFFFFC000FF8001FFFFFFFFC000FFF0003FFFFFFFFFFFFFFF0000001
310
F000FFFFF800000001FFF8001C001FE001C000FFFF80007FFFFFF800000003FF
310
FFFF800000003FF80FFFFFFFFFFFFFC07FFFFFF0001FFFFFF8001FFFFFFFFC00
310
0FF8001FFFFFFFFC000FFF0003FFFFFFFFFFFFFE00000001F000FFFFC0000000
310
03FFF8001E001FC001E000FFFF80007FFFFF8000000007FFFFFC000000003FF8
310
0FFFFFFFFFFFFFC07FFFFFF0001FFFFFF8001FFFFFFFFC000FF8001FFFFFFFFC
310
000FFF0003FFFFFFFFFFFFE000000003F000FFFE0000000007FFF8001E000FC0
310
01E0007FFF80007FFFFE0000000007FFFFE0000000007FF80FFFFFFFFFFFFFC0
310
7FFFFFF0001FFFFFF0001FFFFFFFFC0007F0001FFFFFFFFC0007FF0003FFFFFF
310
FFFFFF0000000003F000FFF80000000007FFF8001E000FC003E0007FFF80007F
310
FFF0000000000FFFFF8000000000FFF80FFFFFFFFFFFFFC07FFFFFF0001FFFFF
310
F0001FFFFFFFFC0007F0001FFFFFFFFC0007FF0003FFFFFFFFFFFC0000000007
310
F000FFE0000000000FFFF0003E000FC003E0007FFF80007FFFC0000000001FFF
310
FE0000000001FFF80FFFFFFFFFFFFFC07FFFFFF0001FFFFFF0001FFFFFFFFC00
310
07F0001FFFFFFFFC0007FF0003FFFFFFFFFFF0000000000FF000FFC000000000
310
1FFFF0003F000F8003F0003FFF80007FFF80000000003FFFF80000000003FFF8
310
0FFFFFFFFFFFFFC07FFFFFF0001FFFFFF0001FFFFFFFFC0007F0001FFFFFFFFC
310
0007FF0003FFFFFFFFFFE0000000001FF000FF00000000007FFFF0003F000780
310
03F0003FFF80007FFF00000000007FFFF00000000007FFF80FFFFFFFFFFFFFC0
310
7FFFFFF0001FFFFFF0001FFFFFFFFC0007F0001FFFFFFFFC0007FF0003FFFFFF
310
FFFF80000000007FF000FE0000000000FFFFE0003F00078007F0003FFF80007F
310
FE0000000001FFFFE0000000001FFFF80FFFFFFFFFFFFFC07FFFFFF0001FFFFF
310
F0001FFFFFFFFC0007F0001FFFFFFFFC0007FF0003FFFFFFFFFF0000000000FF
310
F000FC0000000003FFFFE0007F00078007F0003FFF80007FFC0000000007FFFF
310
C0000000007FFFF80FFFFFFFFFFFFFC07FFFFFF0001FFFFFF8001FFFFFFFFC00
310
0FF8001FFFFFFFFC000FFF0003FFFFFFFFFE0000000003FFF000FC000000000F
310
FFFFE0007F80070007F8001FFF80007FF8000000001FFFFF8000000001FFFFF8
310
0FFFFFFFFFFFFFC07FFFFFF0001FFFFFF8001FFFFFFFFC000FF8001FFFFFFFFC
310
000FFF0003FFFFFFFFFC000000000FFFF000F8000000007FFFFFE0007F800700
310
07F8001FFF80007FF000000000FFFFFF800000000FFFFFF80FFFFFFFFFFFFFC0
310
7FFFFFF0001FFFFFF8000FFFFFFFF8000FF8000FFFFFFFF8000FFF0003FFFFFF
310
FFFC000000007FFFF000F800000007FFFFFFC0007F8003000FF8001FFF80007F
310
F000000007FFFFFF000000007FFFFFF80FFFFFFFFFFFFFC07FFFFFF0001FFFFF
310
F8000FFFFFFFF8000FF8000FFFFFFFF8000FFF0003FFFFFFFFF80000000FFFFF
310
F000F0000000FFFFFFFFC000FF8003000FF8001FFF80007FE0000000FFFFFFFF
310
0000000FFFFFFFF8000001FFFE0000007FFFFFF0001FFFFFF8000FFFFFFFF800
310
0FF8000FFFFFFFF8000FFF0003FFFFFFFFF8000000FFFFFFF000F000000FFFFF
310
FFFFC000FFC002000FF8000FFF80007FE000001FFFFFFFFE000001FFFFFFFFF8
310
000001FFFE0000007FFFFFF0001FFFFFF8000FFFFFFFF8000FF8000FFFFFFFF8
310
000FFF0003FFFFFFFFF000001FFFFFFFF000E00000FFFFFFFFFFC000FFC00200
310
0FFC000FFF80007FE00001FFFFFFFFFE00001FFFFFFFFFF8000001FFFE000000
310
7FFFFFF0001FFFFFFC000FFFFFFFF8001FFC000FFFFFFFF8001FFF0003FFFFFF
310
FFF00001FFFFFFFFF000E00007FFFFFFFFFF8000FFC000001FFC000FFF80007F
310
C0000FFFFFFFFFFE0000FFFFFFFFFFF8000001FFFE0000007FFFFFF0001FFFFF
310
FC0007FFFFFFF0001FFC0007FFFFFFF0001FFF0003FFFFFFFFF00007FFFFFFFF
310
F000E0001FFFFFFFFFFF8000FFC000001FFC000FFF80007FC0003FFFFFFFFFFE
310
0001FFFFFFFFFFF8000001FFFE0000007FFFFFF0001FFFFFFC0007FFFFFFF000
310
1FFC0007FFFFFFF0001FFF0003FFFFFFFFF0001FFFFFFFFFF000E0003FFFFF00
310
03FF8001FFE000001FFC0007FF80007FC0007FFFFF0007FC0003FFFFF0003FF8
310
000001FFFE0000007FFFFFF0001FFFFFFC0003FFFFFFE0001FFC0003FFFFFFE0
310
001FFF0003FFFFFFFFF0003FFFFFFFFFF000E0003FFFFF0001FF8001FFE00000
310
1FFE0007FF80007FC0007FFFFE0003FC0007FFFFE0003FF8000001FFFE000000
310
7FFFFFF0001FFFFFFE0003FFFFFFE0003FFE0003FFFFFFE0003FFF0003FFFFFF
310
FFF0003FFFFF8001F000E0003FFFFF0001FF0001FFE000001FFE0007FF80007F
310
C0007FFFFE0003FC0007FFFFE0003FF8000001FFFE0000007FFFFFF0001FFFFF
310
FE0001FFFFFFC0003FFE0001FFFFFFC0003FFF0003FFFFFFFFF0003FFFFF0001
310
F000E0003FFFFF0003FF0001FFE000003FFE0007FF80007FC0007FFFFE0003FC
310
0007FFFFE0003FF8000001FFFE0000007FFFFFF0001FFFFFFF0001FFFFFFC000
310
7FFF0001FFFFFFC0007FFF0003FFFFFFFFF0003FFFFF0001F000E0003FFFFE00
310
03FF0003FFF000003FFE0003FF80007FC0007FFFFC0003FE0007FFFFE0003FF8
310
000001FFFE0000007FFFFFF0001FFFFFFF0000FFFFFF80007FFF0000FFFFFF80
310
007FFF0003FFFFFFFFF0003FFFFF0001F000E0003FFFFE0003FF0003FFF00000
310
3FFF0003FF80007FC0007FFFFC0007FE0007FFFFC0003FF8000001FFFE000000
310
7FFFFFF0001FFFFFFF80007FFFFF0000FFFF80007FFFFF0000FFFF0003FFFFFF
310
FFF0003FFFFF0003F000E0003FFFFC0003FE0003FFF000003FFF0003FF80007F
310
E0003FFFF80007FE0003FFFFC0007FF8000001FFFE0000007FFFFFF0001FFFFF
310
FF80003FFFFE0000FFFF80003FFFFE0000FFFF0003FFFFFFFFF0001FFFFE0003
310
F000F0001FFFF80003FE0003FFF000007FFF0001FF80007FE0003FFFF00007FE
310
0001FFFF80007FF8000001FFFE0000007FFFFFF0001FFFFFFFC0000FFFF80001
310
FFFFC0000FFFF80001FFFF0003FFFFFFFFF0001FFFFC0003F000F0000FFFF000
310
07FE0007FFF800007FFF0001FF80007FE0001FFFE00007FF0000FFFE00007FF8
310
000001FFFE0000007FFFFFF0001FFFFFFFC00003FFE00001FFFFC00003FFE000
310
01FFFF0003FFFFFFFFF8000FFFF80003F000F00003FFC00007FC0007FFF80000
310
7FFF8001FF80007FF00007FF80000FFF00007FF80000FFF8000001FFFE000000
310
7F80000000000001FFE000003E000003FFFFE000003E000003FFFF0003FFFFFF
310
FFF80003FFE00007F000F800000000000FFC0007FFF800007FFF8001FF80007F
310
F000000000000FFF000000000000FFF8000001FFFE0000007F80000000000001
310
FFF0000000000007FFFFF0000000000007FFFF0003FFFFFFFFFC00007E000007
310
F000F800000000000FFC0007FFF80000FFFF8000FF80007FF800000000001FFF
310
800000000001FFF8000001FFFE0000007F80000000000001FFF800000000000F
310
FFFFF800000000000FFFFF0003FFFFFFFFFC00000000000FF000FC0000000000
310
1FFC0007FFFC0000FFFF8000FF80007FF800000000003FFFC00000000001FFF8
310
000001FFFE0000007F80000000000001FFF800000000000FFFFFF80000000000
310
0FFFFF0003FFFFFFFFFE00000000001FF000FE00000000003FF8000FFFFC0000
310
FFFF8000FF80007FFC00000000003FFFC00000000003FFF8000001FFFE000000
310
7F80000000000001FFFC00000000001FFFFFFC00000000001FFFFF0003FFFFFF
310
FFFF00000000001FF000FF00000000003FF8000FFFFC0000FFFFC000FF80007F
310
FE00000000007FFFE00000000007FFF8000001FFFE0000007F80000000000001
310
FFFE00000000003FFFFFFE00000000003FFFFF0003FFFFFFFFFF80000000003F
310
F000FF80000000007FF8000FFFFC0001FFFFC0007F80007FFF0000000000FFFF
310
F0000000000FFFF800000000000000007F80000000000001FFFF8000000000FF
310
FFFFFF8000000000FFFFFF0003FFFFFFFFFFC0000000007FF000FFC000000000
310
FFF8000FFFFE0001FFFFC0007F80007FFF8000000001FFFFF8000000001FFFF8
310
00000000000000007F80000000000001FFFFC000000001FFFFFFFFC000000001
310
FFFFFF0003FFFFFFFFFFE000000000FFF000FFE000000003FFF0001FFFFE0001
310
FFFFC0007F80007FFFC000000007FFFFFE000000003FFFF80000000000000000
310
7F80000000000001FFFFE000000003FFFFFFFFE000000003FFFFFF0003FFFFFF
310
FFFFF000000003FFF000FFF80000000FFFF0001FFFFE0001FFFFE0007F80007F
310
FFF00000000FFFFFFF00000000FFFFF800000000000000007F80000000000001
310
FFFFF80000000FFFFFFFFFF80000000FFFFFFF0003FFFFFFFFFFFC0000000FFF
310
F000FFFE0000003FFFF0001FFFFE0003FFFFE0003F80007FFFFC0000003FFFFF
310
FFC0000003FFFFF800000000000000007F80000000000001FFFFFE0000003FFF
310
FFFFFFFE0000003FFFFFFF0003FFFFFFFFFFFF0000003FFFF000FFFF800000FF
310
FFF0001FFFFF0003FFFFE0003F80007FFFFF000001FFFFFFFFF800001FFFFFF8
310
00000000000000007F80000000000001FFFFFFC00001FFFFFFFFFFFFC00001FF
310
FFFFFF0003FFFFFFFFFFFFC00000FFFFF000FFFFF8000FFFFFFFFFFFFFFFFFFF
310
FFFFFFFFFFFFFFFFFFFFF0001FFFFFFFFFFF0000FFFFFFF80000000000000000
310
7FFFFFFFFFFFFFFFFFFFFFFC001FFFFFFFFFFFFFFC001FFFFFFFFFFFFFFFFFFF
310
FFFFFFFC001FFFFFF000FFFFFFFFFFFFFFFFFFFFFFFFFFFFFFFFFFFFFFFFFFFF
310
FFFFFFFFFFFFFFFFFFFFFFFFFFFFFFFFFFFFFFFFFFFFFFFFFFFFFFFFFFFFFFFF
310
FFFFFFFFFFFFFFFFFFFFFFFFFFFFFFFFFFFFFFFFFFFFFFFFFFFFFFFFFFFFFFFF
310
F000FFFFFFFFFFFFFFFFFFFFFFFFFFFFFFFFFFFFFFFFFFFFFFFFFFFFFFFFFFFF
310
FFFFFFFFFFFFFFFFFFFFFFFFFFFFFFFFFFFFFFFFFFFFFFFFFFFFFFFFFFFFFFFF
310
FFFFFFFFFFFFFFFFFFFFFFFFFFFFFFFFFFFFFFFFFFFFFFFFF000FFFFFFFFFFFF
310
FFFFFFFFFFFFFFFFFFFFFFFFFFFFFFFFFFFFFFFFFFFFFFFFFFFFFFFFFFFFFFFF
310
FFFFFFFFFFFFFFFFFFFFFFFFFFFFFFFFFFFFFFFFFFFFFFFFFFFFFFFFFFFFFFFF
310
FFFFFFFFFFFFFFFFFFFFFFFFFFFFFFFFF000FFFFFFFFFFFFFFFFFFFFFFFFFFFF
310
FFFFFFFFFFFFFFFFFFFFFFFFFFFFFFFFFFFFFFFFFFFFFFFFFFFFFFFFFFFFFFFF
310
FFFFFFFFFFFFFFFFFFFFFFFFFFFFFFFFFFFFFFFFFFFFFFFFFFFFFFFFFFFFFFFF
310
FFFFFFFFFFFFFFFFF000FFFFFFFFFFFFFFFFFFFFFFFFFFFFFFFFFFFFFFFFFFFF
310
FFFFFFFFFFFFFFFFFFFFFFFFFFFFFFFFFFFFFFFFFFFFFFFFFFFFFFFFFFFFFFFF
310
FFFFFFFFFFFFFFFFFFFFFFFFFFFFFFFFFFFFFFFFFFFFFFFFFFFFFFFFFFFFFFFF
310
F000FFFFFFFFFFFFFFFFFFFFFFFFFFFFFFFFFFFFFFFFFFFFFFFFFFFFFFFFFFFF
310
FFFFFFFFFFFFFFFFFFFFFFFFFFFFFFFFFFFFFFFFFFFFFFFFFFFFFFFFFFFFFFFF
310
FFFFFFFFFFFFFFFFFFFFFFFFFFFFFFFFFFFFFFFFFFFFFFFFF000FFFFFFFFFFFF
310
FFFFFFFFFFFFFFFFFFFFFFFFFFFFFFFFFFFFFFFFFFFFFFFFFFFFFFFFFFFFFFFF
310
FFFFFFFFFFFFFFFFFFFFFFFFFFFFFFFFFFFFFFFFFFFFFFFFFFFFFFFFFFFFFFFF
310
FFFFFFFFFFFFFFFFFFFFFFFFFFFFFFFFF000FFFFFFFFFFFFFFFFFFFFFFFFFFFF
310
FFFFFFFFFFFFFFFFFFFFFFFFFFFFFFFFFFFFFFFFFFFFFFFFFFFFFFFFFFFFFFFF
310
FFFFFFFFFFFFFFFFFFFFFFFFFFFFFFFFFFFFFFFFFFFFFFFFFFFFFFFFFFFFFFFF
310
FFFFFFFFFFFFFFFFF000FFFFFFFFFFFFFFFFFFFFFFFFFFFFFFFFFFFFFFFFFFFF
310
FFFFFFFFFFFFFFFFFFFFFFFFFFFFFFFFFFFFFFFFFFFFFFFFFFFFFFFFFFFFFFFF
310
FFFFFFFFFFFFFFFFFFFFFFFFFFFFFFFFFFFFFFFFFFFFFFFFFFFFFFFFFFFFFFFF
310
F000FFFFFFFFFFFFFFFFFFFFFFFFFFFFFFFFFFFFFFFFFFFFFFFFFFFFFFFFFFFF
310
FFFFFFFFFFFFFFFFFFFFFFFFFFFFFFFFFFFFFFFFFFFFFFFFFFFFFFFFFFFFFFFF
310
FFFFFFFFFFFFFFFFFFFFFFFFFFFFFFFFFFFFFFFFFFFFFFFFF000FFFFFFFFFFFF
310
FFFFFFFFFFFFFFFFFFFFFFFFFFFFFFFFFFFFFFFFFFFFFFFFFFFFFFFFFFFFFFFF
310
FFFFFFFFFFFFFFFFFFFFFFFFFFFFFFFFFFFFFFFFFFFFFFFFFFFFFFFFFFFFFFFF
310
FFFFFFFFFFFFFFFFFFFFFFFFFFFFFFFFF000FFFFFFFFFFFFFFFFFFFFFFFFFFFF
310
FFFFFFFFFFFFFFFFFFFFFFFFFFFFFFFFFFFFFFFFFFFFFFFFFFFFFFFFFFFFFFFF
310
FFFFFFFFFFFFFFFFFFFFFFFFFFFFFFFFFFFFFFFFFFFFFFFFFFFFFFFFFFFFFFFF
310
FFFFFFFFFFFFFFFFF000FFFFFFFFFFFFFFFFFFFFFFFFFFFFFFFFFFFFFFFFFFFF
310
FFFFFFFFFFFFFFFFFFFFFFFFFFFFFFFFFFFFFFFFFFFFFFFFFFFFFFFFFFFFFFFF
310
FFFFFFFFFFFFFFFFFFFFFFFFFFFFFFFFFFFFFFFFFFFFFFFFFFFFFFFFFFFFFFFF
310
F000FFFFFFFFFFFFFFFFFFFFFFFFFFFFFFFFFFFFFFFFFFFFFFFFFFFFFFFFFFFF
310
FFFFFFFFFFFFFFFFFFFFFFFFFFFFFFFFFFFFFFFFFFFFFFFFFFFFFFFFFFFFFFFF
310
FFFFFFFFFFFFFFFFFFFFFFFFFFFFFFFFFFFFFFFFFFFFFFFFF000FFFFFFFFFFFF
310
FFFFFFFFFFFFFFFFFFFFFFFFFFFFFFFFFFFFFFFFFFFFFFFFFFFFFFFFFFFFFFFF
310
FFFFFFFFFFFFFFFFFFFFFFFFFFFFFFFFFFFFFFFFFFFFFFFFFFFFFFFFFFFFFFFF
310
FFFFFFFFFFFFFFFFFFFFFFFFFFFFFFFFF000FFFFFFFFFFFFFFFFFFFFFFFFFFFF
310
FFFFFFFFFFFFFFFFFFFFFFFFFFFFFFFFFFFFFFFFFFFFFFFFFFFFFFFFFFFFFFFF
310
FFFFFFFFFFFFFFFFFFFFFFFFFFFFFFFFFFFFFFFFFFFFFFFFFFFFFFFFFFFFFFFF
310
FFFFFFFFFFFFFFFFF000FFFFFFFFFFFFFFFFFFFFFFFFFFFFFFFFFFFFFFFFFFFF
310
FFFFFFFFFFFFFFFFFFFFFFFFFFFFFFFFFFFFFFFFFFFFFFFFFFFFFFFFFFFFFFFF
310
FFFFFFFFFFFFFFFFFFFFFFFFFFFFFFFFFFFFFFFFFFFFFFFFFFFFFFFFFFFFFFFF
310
F000FFFFFFFFFFFFFFFFFFFFFFFFFFFFFFFFFFFFFFFFFFFFFFFFFFFFFFFFFFFF
310
FFFFFFFFFFFFFFFFFFFFFFFFFFFFFFFFFFFFFFFFFFFFFFFFFFFFFFFFFFFFFFFF
310
FFFFFFFFFFFFFFFFFFFFFFFFFFFFFFFFFFFFFFFFFFFFFFFFF000FFFFFFFFFFFF
310
FFFFFFFFFFFFFFFFFFFFFFFFFFFFFFFFFFFFFFFFFFFFFFFFFFFFFFFFFFFFFFFF
310
FFFFFFFFFFFFFFFFFFFFFFFFFFFFFFFFFFFFFFFFFFFFFFFFFFFFFFFFFFFFFFFF
310
FFFFFFFFFFFFFFFFFFFFFFFFFFFFFFFFF000FFFFFFFFFFFFFFFFFFFFFFFFFFFF
310
FFFFFFFFFFFFFFFFFFFFFFFFFFFFFFFFFFFFFFFFFFFFFFFFFFFFFFFFFFFFFFFF
310
FFFFFFFFFFFFFFFFFFFFFFFFFFFFFFFFFFFFFFFFFFFFFFFFFFFFFFFFFFFFFFFF
310
FFFFFFFFFFFFFFFFF000FFFFFFFFFFFFFFFFFFFFFFFFFFFFFFFFFFFFFFFFFFFF
310
FFFFFFFFFFFFFFFFFFFFFFFFFFFFFFFFFFFFFFFFFFFFFFFFFFFFFFFFFFFFFFFF
310
FFFFFFFFFFFFFFFFFFFFFFFFFFFFFFFFFFFFFFFFFFFFFFFFFFFFFFFFFFFFFFFF
310
F000FFFFFFFFFFFFFFFFFFFFFFFFFFFFFFFFFFFFFFFFFFFFFFFFFFFFFFFFFFFF
310
FFFFFFFFFFFFFFFFFFFFFFFFFFFFFFFFFFFFFFFFFFFFFFFFFFFFFFFFFFFFFFFF
310
FFFFFFFFFFFFFFFFFFFFFFFFFFFFFFFFFFFFFFFFFFFFFFFFF000FFFFFFFFFFFF
310
FFFFFFFFFFFFFFFFFFFFFFFFFFFFFFFFFFFFFFFFFFFFFFFFFFFFFFFFFFFFFFFF
310
FFFFFFFFFFFFFFFFFFFFFFFFFFFFFFFFFFFFFFFFFFFFFFFFFFFFFFFFFFFFFFFF
310
FFFFFFFFFFFFFFFFFFFFFFFFFFFFFFFFF0000000000000000000000000000000
310
0000000000000000000000000000000000000000000000000000000000000000
310
0000000000000000000000000000000000000000000000000000000000000000
310
0000000000000000000000000000000000000000000000000000000000000000
310
0000000000000000000000000000000000000000000000000000000000000000
310
0000000000000000000000000000000000000000000000000000000000000000
310
0000000000000000000000000000000000000000000000000000000000000000
310
0000000000000000000000000000000000000000000000000000000000000000
310
0000000000000000000000000000000000000000000000000000000000000000
310
0000000000000000000000000000000000000000000000000000000000000000
310
0000000000000000000000000000000000000000000000000000000000000000
310
0000000000000000000000000000000000000000000000000000000000000000
310
0000000000000000000000000000000000000000000000000000000000000000
310
0000000000000000000000000000000000000000000000000000000000000000
310
0000000000000000000000000000000000000000000000000000000000000000
310
0000000000000000000000000000000000000000000000000000000000000000
  1
OLE
  0
ENDSEC
  0
SECTION
  2
OBJECTS
  0
DICTIONARY
  5
C
330
0
100
AcDbDictionary
281
     1
  3
ACAD_GROUP
350
D
  3
ACAD_LAYOUT
350
1A
  3
ACAD_MLINESTYLE
350
17
  3
ACAD_PLOTSETTINGS
350
19
  3
ACAD_PLOTSTYLENAME
350
E
  0
DICTIONARY
  5
D
102
{ACAD_REACTORS
330
C
102
}
330
C
100
AcDbDictionary
281
     1
  0
DICTIONARY
  5
1A
102
{ACAD_REACTORS
330
C
102
}
330
C
100
AcDbDictionary
281
     1
  3
Layout1
350
1E
  3
Layout2
350
26
  3
Model
350
22
  0
DICTIONARY
  5
17
102
{ACAD_REACTORS
330
C
102
}
330
C
100
AcDbDictionary
281
     1
  3
Standard
350
18
  0
DICTIONARY
  5
19
102
{ACAD_REACTORS
330
C
102
}
330
C
100
AcDbDictionary
281
     1
  0
ACDBDICTIONARYWDFLT
  5
E
102
{ACAD_REACTORS
330
C
102
}
330
C
100
AcDbDictionary
281
     1
  3
Normal
350
F
100
AcDbDictionaryWithDefault
340
F
  0
LAYOUT
  5
1E
102
{ACAD_REACTORS
330
1A
102
}
330
1A
100
AcDbPlotSettings
  1

  2
none_device
  4

  6

 40
0.0
 41
0.0
 42
0.0
 43
0.0
 44
0.0
 45
0.0
 46
0.0
 47
0.0
 48
0.0
 49
0.0
140
0.0
141
0.0
142
1.0
143
1.0
 70
   688
 72
     0
 73
     0
 74
     5
  7

 75
    16
147
1.0
148
0.0
149
0.0
100
AcDbLayout
  1
Layout1
 70
     1
 71
     1
 10
0.0
 20
0.0
 11
420.0
 21
297.0
 12
0.0
 22
0.0
 32
0.0
 14
1.0000000000E+20
 24
1.0000000000E+20
 34
1.0000000000E+20
 15
-1.0000000000E+20
 25
-1.0000000000E+20
 35
-1.0000000000E+20
146
0.0
 13
0.0
 23
0.0
 33
0.0
 16
1.0
 26
0.0
 36
0.0
 17
0.0
 27
1.0
 37
0.0
 76
     0
330
1B
  0
LAYOUT
  5
26
102
{ACAD_REACTORS
330
1A
102
}
330
1A
100
AcDbPlotSettings
  1

  2
none_device
  4

  6

 40
0.0
 41
0.0
 42
0.0
 43
0.0
 44
0.0
 45
0.0
 46
0.0
 47
0.0
 48
0.0
 49
0.0
140
0.0
141
0.0
142
1.0
143
1.0
 70
   688
 72
     0
 73
     0
 74
     5
  7

 75
    16
147
1.0
148
0.0
149
0.0
100
AcDbLayout
  1
Layout2
 70
     1
 71
     2
 10
0.0
 20
0.0
 11
0.0
 21
0.0
 12
0.0
 22
0.0
 32
0.0
 14
0.0
 24
0.0
 34
0.0
 15
0.0
 25
0.0
 35
0.0
146
0.0
 13
0.0
 23
0.0
 33
0.0
 16
1.0
 26
0.0
 36
0.0
 17
0.0
 27
1.0
 37
0.0
 76
     0
330
23
  0
LAYOUT
  5
22
102
{ACAD_REACTORS
330
1A
102
}
330
1A
100
AcDbPlotSettings
  1

  2
none_device
  4

  6

 40
0.0
 41
0.0
 42
0.0
 43
0.0
 44
0.0
 45
0.0
 46
0.0
 47
0.0
 48
0.0
 49
0.0
140
0.0
141
0.0
142
1.0
143
1.0
 70
  1712
 72
     0
 73
     0
 74
     0
  7

 75
     0
147
1.0
148
0.0
149
0.0
100
AcDbLayout
  1
Model
 70
     1
 71
     0
 10
0.0
 20
0.0
 11
297.0
 21
210.0
 12
0.0
 22
0.0
 32
0.0
 14
0.0
 24
0.0
 34
0.0
 15
297.0
 25
210.0
 35
0.0
146
0.0
 13
0.0
 23
0.0
 33
0.0
 16
1.0
 26
0.0
 36
0.0
 17
0.0
 27
1.0
 37
0.0
 76
     0
330
1F
331
29
  0
MLINESTYLE
  5
18
102
{ACAD_REACTORS
330
17
102
}
330
17
100
AcDbMlineStyle
  2
Standard
 70
     0
  3

 62
   256
 51
90.0
 52
90.0
 71
     2
 49
0.5
 62
   256
  6
BYLAYER
 49
-0.5
 62
   256
  6
BYLAYER
  0
ACDBPLACEHOLDER
  5
F
102
{ACAD_REACTORS
330
E
102
}
330
E
  0
ENDSEC
  0
EOF
