  0
SECTION
  2
HEADER
  9
$ACADVER
  1
AC1015
  9
$ACADMAINTVER
 70
     6
  9
$DWGCODEPAGE
  3
ANSI_1252
  9
$INSBASE
 10
0.0
 20
0.0
 30
0.0
  9
$EXTMIN
 10
0.0
 20
0.0
 30
0.0
  9
$EXTMAX
 10
297.0
 20
210.0
 30
0.0
  9
$LIMMIN
 10
0.0
 20
0.0
  9
$LIMMAX
 10
297.0
 20
210.0
  9
$ORTHOMODE
 70
     0
  9
$REGENMODE
 70
     1
  9
$FILLMODE
 70
     1
  9
$QTEXTMODE
 70
     0
  9
$MIRRTEXT
 70
     1
  9
$LTSCALE
 40
1.0
  9
$ATTMODE
 70
     1
  9
$TEXTSIZE
 40
2.0
  9
$TRACEWID
 40
1.0
  9
$TEXTSTYLE
  7
Standard
  9
$CLAYER
  8
0
  9
$CELTYPE
  6
ByLayer
  9
$CECOLOR
 62
   256
  9
$CELTSCALE
 40
1.0
  9
$DISPSILH
 70
     0
  9
$DIMSCALE
 40
1.0
  9
$DIMASZ
 40
3.0
  9
$DIMEXO
 40
0.0
  9
$DIMDLI
 40
3.75
  9
$DIMRND
 40
0.0
  9
$DIMDLE
 40
0.0
  9
$DIMEXE
 40
1.0
  9
$DIMTP
 40
0.0
  9
$DIMTM
 40
0.0
  9
$DIMTXT
 40
2.0
  9
$DIMCEN
 40
2.5
  9
$DIMTSZ
 40
0.0
  9
$DIMTOL
 70
     0
  9
$DIMLIM
 70
     0
  9
$DIMTIH
 70
     1
  9
$DIMTOH
 70
     1
  9
$DIMSE1
 70
     0
  9
$DIMSE2
 70
     0
  9
$DIMTAD
 70
     1
  9
$DIMZIN
 70
     0
  9
$DIMBLK
  1

  9
$DIMASO
 70
     1
  9
$DIMSHO
 70
     1
  9
$DIMPOST
  1

  9
$DIMAPOST
  1

  9
$DIMALT
 70
     0
  9
$DIMALTD
 70
     3
  9
$DIMALTF
 40
0.0393700787
  9
$DIMLFAC
 40
1.0
  9
$DIMTOFL
 70
     1
  9
$DIMTVP
 40
0.0
  9
$DIMTIX
 70
     0
  9
$DIMSOXD
 70
     0
  9
$DIMSAH
 70
     0
  9
$DIMBLK1
  1

  9
$DIMBLK2
  1

  9
$DIMSTYLE
  2
ISO-25
  9
$DIMCLRD
 70
     0
  9
$DIMCLRE
 70
     0
  9
$DIMCLRT
 70
     0
  9
$DIMTFAC
 40
1.0
  9
$DIMGAP
 40
1.524
  9
$DIMJUST
 70
     0
  9
$DIMSD1
 70
     0
  9
$DIMSD2
 70
     0
  9
$DIMTOLJ
 70
     0
  9
$DIMTZIN
 70
     0
  9
$DIMALTZ
 70
     0
  9
$DIMALTTZ
 70
     0
  9
$DIMUPT
 70
     0
  9
$DIMDEC
 70
     2
  9
$DIMTDEC
 70
     3
  9
$DIMALTU
 70
     2
  9
$DIMALTTD
 70
     3
  9
$DIMTXSTY
  7
Standard
  9
$DIMAUNIT
 70
     0
  9
$DIMADEC
 70
     2
  9
$DIMALTRND
 40
0.0
  9
$DIMAZIN
 70
     0
  9
$DIMDSEP
 70
    44
  9
$DIMATFIT
 70
     3
  9
$DIMFRAC
 70
     0
  9
$DIMLDRBLK
  1

  9
$DIMLUNIT
 70
     2
  9
$DIMLWD
 70
    -2
  9
$DIMLWE
 70
    -2
  9
$DIMTMOVE
 70
     0
  9
$LUNITS
 70
     2
  9
$LUPREC
 70
     2
  9
$SKETCHINC
 40
1.0
  9
$FILLETRAD
 40
10.0
  9
$AUNITS
 70
     0
  9
$AUPREC
 70
     2
  9
$MENU
  1
.
  9
$ELEVATION
 40
0.0
  9
$PELEVATION
 40
0.0
  9
$THICKNESS
 40
0.0
  9
$LIMCHECK
 70
     0
  9
$CHAMFERA
 40
10.0
  9
$CHAMFERB
 40
10.0
  9
$CHAMFERC
 40
20.0
  9
$CHAMFERD
 40
0.0
  9
$SKPOLY
 70
     0
  9
$TDCREATE
 40
2456071.53818294
  9
$TDUCREATE
 40
2456071.454849606
  9
$TDUPDATE
 40
2456071.538184387
  9
$TDUUPDATE
 40
2456071.454851053
  9
$TDINDWG
 40
0.0000000116
  9
$TDUSRTIMER
 40
0.0000000116
  9
$USRTIMER
 70
     1
  9
$ANGBASE
 50
0.0
  9
$ANGDIR
 70
     0
  9
$PDMODE
 70
     0
  9
$PDSIZE
 40
-1.0
  9
$PLINEWID
 40
0.0
  9
$SPLFRAME
 70
     0
  9
$SPLINETYPE
 70
     6
  9
$SPLINESEGS
 70
     8
  9
$HANDSEED
  5
1F2
  9
$SURFTAB1
 70
     6
  9
$SURFTAB2
 70
     6
  9
$SURFTYPE
 70
     6
  9
$SURFU
 70
     6
  9
$SURFV
 70
     6
  9
$UCSBASE
  2

  9
$UCSNAME
  2

  9
$UCSORG
 10
0.0
 20
0.0
 30
0.0
  9
$UCSXDIR
 10
1.0
 20
0.0
 30
0.0
  9
$UCSYDIR
 10
0.0
 20
1.0
 30
0.0
  9
$UCSORTHOREF
  2

  9
$UCSORTHOVIEW
 70
     0
  9
$UCSORGTOP
 10
0.0
 20
0.0
 30
0.0
  9
$UCSORGBOTTOM
 10
0.0
 20
0.0
 30
0.0
  9
$UCSORGLEFT
 10
0.0
 20
0.0
 30
0.0
  9
$UCSORGRIGHT
 10
0.0
 20
0.0
 30
0.0
  9
$UCSORGFRONT
 10
0.0
 20
0.0
 30
0.0
  9
$UCSORGBACK
 10
0.0
 20
0.0
 30
0.0
  9
$PUCSBASE
  2

  9
$PUCSNAME
  2

  9
$PUCSORG
 10
0.0
 20
0.0
 30
0.0
  9
$PUCSXDIR
 10
1.0
 20
0.0
 30
0.0
  9
$PUCSYDIR
 10
0.0
 20
1.0
 30
0.0
  9
$PUCSORTHOREF
  2

  9
$PUCSORTHOVIEW
 70
     0
  9
$PUCSORGTOP
 10
0.0
 20
0.0
 30
0.0
  9
$PUCSORGBOTTOM
 10
0.0
 20
0.0
 30
0.0
  9
$PUCSORGLEFT
 10
0.0
 20
0.0
 30
0.0
  9
$PUCSORGRIGHT
 10
0.0
 20
0.0
 30
0.0
  9
$PUCSORGFRONT
 10
0.0
 20
0.0
 30
0.0
  9
$PUCSORGBACK
 10
0.0
 20
0.0
 30
0.0
  9
$USERI1
 70
     0
  9
$USERI2
 70
     0
  9
$USERI3
 70
     0
  9
$USERI4
 70
     0
  9
$USERI5
 70
     0
  9
$USERR1
 40
0.0
  9
$USERR2
 40
0.0
  9
$USERR3
 40
0.0
  9
$USERR4
 40
0.0
  9
$USERR5
 40
0.0
  9
$WORLDVIEW
 70
     1
  9
$SHADEDGE
 70
     3
  9
$SHADEDIF
 70
    70
  9
$TILEMODE
 70
     1
  9
$MAXACTVP
 70
    64
  9
$PINSBASE
 10
0.0
 20
0.0
 30
0.0
  9
$PLIMCHECK
 70
     0
  9
$PEXTMIN
 10
1.0000000000E+20
 20
1.0000000000E+20
 30
1.0000000000E+20
  9
$PEXTMAX
 10
-1.0000000000E+20
 20
-1.0000000000E+20
 30
-1.0000000000E+20
  9
$PLIMMIN
 10
0.0
 20
0.0
  9
$PLIMMAX
 10
420.0
 20
297.0
  9
$UNITMODE
 70
     0
  9
$VISRETAIN
 70
     1
  9
$PLINEGEN
 70
     0
  9
$PSLTSCALE
 70
     1
  9
$TREEDEPTH
 70
  3020
  9
$CMLSTYLE
  2
Standard
  9
$CMLJUST
 70
     0
  9
$CMLSCALE
 40
20.0
  9
$PROXYGRAPHICS
 70
     1
  9
$MEASUREMENT
 70
     1
  9
$CELWEIGHT
370
    -1
  9
$ENDCAPS
280
     0
  9
$JOINSTYLE
280
     0
  9
$LWDISPLAY
290
     1
  9
$INSUNITS
 70
     4
  9
$HYPERLINKBASE
  1

  9
$STYLESHEET
  1

  9
$XEDIT
290
     1
  9
$CEPSNTYPE
380
     0
  9
$PSTYLEMODE
290
     1
  9
$FINGERPRINTGUID
  2
{0DE246DB-0E6D-4B57-91A7-CF9959E5ED4E}
  9
$VERSIONGUID
  2
{FAEB1C32-E019-11D5-929B-00C0DF256EC4}
  9
$EXTNAMES
290
     1
  9
$PSVPSCALE
 40
0.0
  9
$OLESTARTUP
290
     0
  0
ENDSEC
  0
SECTION
  2
CLASSES
  0
CLASS
  1
ACDBDICTIONARYWDFLT
  2
AcDbDictionaryWithDefault
  3
ObjectDBX Classes
 90
        0
280
     0
281
     0
  0
CLASS
  1
VISUALSTYLE
  2
AcDbVisualStyle
  3
ObjectDBX Classes
 90
     4095
280
     0
281
     0
  0
CLASS
  1
MATERIAL
  2
AcDbMaterial
  3
ObjectDBX Classes
 90
     1153
280
     0
281
     0
  0
CLASS
  1
ACDBPLACEHOLDER
  2
AcDbPlaceHolder
  3
ObjectDBX Classes
 90
        0
280
     0
281
     0
  0
CLASS
  1
LAYOUT
  2
AcDbLayout
  3
ObjectDBX Classes
 90
        0
280
     0
281
     0
  0
ENDSEC
  0
SECTION
  2
TABLES
  0
TABLE
  2
VPORT
  5
8
330
0
100
AcDbSymbolTable
 70
     1
  0
VPORT
  5
29
330
8
100
AcDbSymbolTableRecord
100
AcDbViewportTableRecord
  2
*Active
 70
     0
 10
0.0
 20
0.0
 11
1.0
 21
1.0
 12
148.5
 22
105.0
 13
0.0
 23
0.0
 14
10.0
 24
10.0
 15
10.0
 25
10.0
 16
0.0
 26
0.0
 36
1.0
 17
0.0
 27
0.0
 37
0.0
 40
210.0
 41
1.4142857143
 42
50.0
 43
0.0
 44
0.0
 50
0.0
 51
0.0
 71
     0
 72
  2000
 73
     1
 74
     3
 75
     0
 76
     0
 77
     0
 78
     0
281
     0
 65
     1
110
0.0
120
0.0
130
0.0
111
1.0
121
0.0
131
0.0
112
0.0
122
1.0
132
0.0
 79
     0
146
0.0
  0
ENDTAB
  0
TABLE
  2
LTYPE
  5
5
330
0
100
AcDbSymbolTable
 70
     6
  0
LTYPE
  5
14
330
5
100
AcDbSymbolTableRecord
100
AcDbLinetypeTableRecord
  2
ByBlock
 70
     0
  3

 72
    65
 73
     0
 40
0.0
  0
LTYPE
  5
15
330
5
100
AcDbSymbolTableRecord
100
AcDbLinetypeTableRecord
  2
ByLayer
 70
     0
  3

 72
    65
 73
     0
 40
0.0
  0
LTYPE
  5
16
330
5
100
AcDbSymbolTableRecord
100
AcDbLinetypeTableRecord
  2
Continuous
 70
     0
  3
Solid line
 72
    65
 73
     0
 40
0.0
  0
LTYPE
  5
3F
330
5
100
AcDbSymbolTableRecord
100
AcDbLinetypeTableRecord
  2
HIDDEN
 70
     0
  3
Hidden __ __ __ __ __ __ __ __ __ __ __ __ __ __
 72
    65
 73
     2
 40
1.905
 49
1.27
 74
     0
 49
-0.635
 74
     0
  0
LTYPE
  5
40
330
5
100
AcDbSymbolTableRecord
100
AcDbLinetypeTableRecord
  2
PHANTOM
 70
     0
  3
Phantom ______  __  __  ______  __  __  ______
 72
    65
 73
     6
 40
12.7
 49
6.35
 74
     0
 49
-1.27
 74
     0
 49
1.27
 74
     0
 49
-1.27
 74
     0
 49
1.27
 74
     0
 49
-1.27
 74
     0
  0
LTYPE
  5
41
330
5
100
AcDbSymbolTableRecord
100
AcDbLinetypeTableRecord
  2
CENTER
 70
     0
  3
Center ____ _ ____ _ ____ _ ____ _ ____ _ ____
 72
    65
 73
     4
 40
10.16
 49
6.35
 74
     0
 49
-1.27
 74
     0
 49
1.27
 74
     0
 49
-1.27
 74
     0
  0
LTYPE
  5
42
330
5
100
AcDbSymbolTableRecord
100
AcDbLinetypeTableRecord
  2
CENTERX2
 70
     0
  3
Center (2x) ________  __  ________  __  _____
 72
    65
 73
     4
 40
20.32
 49
12.7
 74
     0
 49
-2.54
 74
     0
 49
2.54
 74
     0
 49
-2.54
 74
     0
  0
LTYPE
  5
43
330
5
100
AcDbSymbolTableRecord
100
AcDbLinetypeTableRecord
  2
DOT2
 70
     0
  3
Dot (.5x) ........................................
 72
    65
 73
     2
 40
0.635
 49
0.0
 74
     0
 49
-0.635
 74
     0
  0
ENDTAB
  0
TABLE
  2
LAYER
  5
2
330
0
100
AcDbSymbolTable
 70
     5
  0
LAYER
  5
10
330
2
100
AcDbSymbolTableRecord
100
AcDbLayerTableRecord
  2
0
 70
     0
 62
     7
  6
Continuous
370
    -3
390
F
  0
LAYER
  5
44
330
2
100
AcDbSymbolTableRecord
100
AcDbLayerTableRecord
  2
FORMAT
 70
     0
 62
     7
  6
Continuous
370
    -3
390
F
  0
LAYER
  5
45
330
2
100
AcDbSymbolTableRecord
100
AcDbLayerTableRecord
  2
VERMASSUNG
 70
     0
 62
     7
  6
Continuous
370
    -3
390
F
  0
LAYER
  5
46
330
2
100
AcDbSymbolTableRecord
100
AcDbLayerTableRecord
  2
KOPF_DÜNN
 70
     0
 62
     7
  6
Continuous
370
    -3
390
F
  0
LAYER
  5
47
330
2
100
AcDbSymbolTableRecord
100
AcDbLayerTableRecord
  2
KOPF_DICK
 70
     0
 62
     7
  6
Continuous
370
    15
390
F
  0
ENDTAB
  0
TABLE
  2
STYLE
  5
3
330
0
100
AcDbSymbolTable
 70
     2
  0
STYLE
  5
11
330
3
100
AcDbSymbolTableRecord
100
AcDbTextStyleTableRecord
  2
Standard
 70
     0
 40
0.0
 41
1.0
 50
0.0
 71
     0
 42
2.0
  3
txt
  4

  0
STYLE
  5
48
330
3
100
AcDbSymbolTableRecord
100
AcDbTextStyleTableRecord
  2
SLDTEXTSTYLE0
 70
     0
 40
0.0
 41
0.7
 50
0.0
 71
     0
 42
0.2
  3
TXT
  4

  0
ENDTAB
  0
TABLE
  2
VIEW
  5
6
330
0
100
AcDbSymbolTable
 70
     0
  0
ENDTAB
  0
TABLE
  2
UCS
  5
7
330
0
100
AcDbSymbolTable
 70
     0
  0
ENDTAB
  0
TABLE
  2
APPID
  5
9
330
0
100
AcDbSymbolTable
 70
     1
  0
APPID
  5
12
330
9
100
AcDbSymbolTableRecord
100
AcDbRegAppTableRecord
  2
ACAD
 70
     0
  0
ENDTAB
  0
TABLE
  2
DIMSTYLE
  5
A
330
0
100
AcDbSymbolTable
 70
     5
100
AcDbDimStyleTable
  0
DIMSTYLE
105
27
330
A
100
AcDbSymbolTableRecord
100
AcDbDimStyleTableRecord
  2
ISO-25
 70
     0
 41
2.5
 42
0.625
 43
3.75
 44
1.25
 73
     0
 74
     0
 77
     1
 78
     8
140
2.5
141
2.5
143
0.0393700787
147
0.625
171
     3
172
     1
178
     0
271
     2
272
     2
274
     3
278
    44
283
     0
284
     8
340
11
  0
DIMSTYLE
105
183
102
{ACAD_REACTORS
330
182
102
}
330
A
100
AcDbSymbolTableRecord
100
AcDbDimStyleTableRecord
  2
SLDDIMSTYLE0
 70
     0
 41
3.0
 44
0.0
 73
     0
 74
     0
 77
     1
 78
    12
 79
     3
140
2.0
147
0.5
173
     1
178
     0
179
     2
272
     3
276
     2
284
    12
340
48
  0
DIMSTYLE
105
18C
102
{ACAD_REACTORS
330
18B
330
198
102
}
330
A
100
AcDbSymbolTableRecord
100
AcDbDimStyleTableRecord
  2
SLDDIMSTYLE1
 70
     0
 41
3.0
 44
0.0
 45
0.000000001
 47
0.1
 48
0.1
 71
     1
 73
     0
 74
     0
 77
     1
 78
    12
 79
     3
140
2.0
147
0.5
173
     1
178
     0
271
     2
272
     1
276
     2
284
     8
340
48
  0
DIMSTYLE
105
1A5
102
{ACAD_REACTORS
330
1A4
330
1AF
102
}
330
A
100
AcDbSymbolTableRecord
100
AcDbDimStyleTableRecord
  2
SLDDIMSTYLE2
 70
     0
 41
3.0
 44
0.0
 45
0.000000001
 73
     0
 74
     0
 77
     1
 78
    12
 79
     3
140
2.0
147
0.5
173
     1
178
     0
271
     2
272
     3
276
     2
284
    12
340
48
  0
DIMSTYLE
105
1D7
102
{ACAD_REACTORS
330
1D6
102
}
330
A
100
AcDbSymbolTableRecord
100
AcDbDimStyleTableRecord
  2
SLDDIMSTYLE3
 70
     0
 41
3.0
 44
0.0
 45
0.000000001
 73
     0
 74
     0
 77
     1
 78
    12
 79
     3
140
2.0
147
0.5
172
     1
173
     1
178
     0
271
     2
272
     3
276
     2
284
    12
289
     0
340
48
  0
ENDTAB
  0
TABLE
  2
BLOCK_RECORD
  5
1
330
0
100
AcDbSymbolTable
 70
     8
  0
BLOCK_RECORD
  5
1F
330
1
100
AcDbSymbolTableRecord
100
AcDbBlockTableRecord
  2
*Model_Space
340
22
  0
BLOCK_RECORD
  5
1B
330
1
100
AcDbSymbolTableRecord
100
AcDbBlockTableRecord
  2
*Paper_Space
340
1E
  0
BLOCK_RECORD
  5
23
330
1
100
AcDbSymbolTableRecord
100
AcDbBlockTableRecord
  2
*Paper_Space0
340
26
  0
BLOCK_RECORD
  5
184
330
1
100
AcDbSymbolTableRecord
100
AcDbBlockTableRecord
  2
_D
340
0
  0
BLOCK_RECORD
  5
18D
330
1
100
AcDbSymbolTableRecord
100
AcDbBlockTableRecord
  2
_D_1
340
0
  0
BLOCK_RECORD
  5
199
330
1
100
AcDbSymbolTableRecord
100
AcDbBlockTableRecord
  2
_D_2
340
0
  0
BLOCK_RECORD
  5
1A6
330
1
100
AcDbSymbolTableRecord
100
AcDbBlockTableRecord
  2
_D_3
340
0
  0
BLOCK_RECORD
  5
1B0
330
1
100
AcDbSymbolTableRecord
100
AcDbBlockTableRecord
  2
_D_4
340
0
  0
BLOCK_RECORD
  5
1D8
330
1
100
AcDbSymbolTableRecord
100
AcDbBlockTableRecord
  2
_D_5
340
0
  0
BLOCK_RECORD
  5
1E5
330
1
100
AcDbSymbolTableRecord
100
AcDbBlockTableRecord
  2
SW_CENTERMARKSYMBOL_0
340
0
102
{BLKREFS
331
1F0
102
}
  0
ENDTAB
  0
ENDSEC
  0
SECTION
  2
BLOCKS
  0
BLOCK
  5
20
330
1F
100
AcDbEntity
  8
0
100
AcDbBlockBegin
  2
*Model_Space
 70
     0
 10
0.0
 20
0.0
 30
0.0
  3
*Model_Space
  1

  0
ENDBLK
  5
21
330
1F
100
AcDbEntity
  8
0
100
AcDbBlockEnd
  0
BLOCK
  5
1C
330
1B
100
AcDbEntity
 67
     1
  8
0
100
AcDbBlockBegin
  2
*Paper_Space
 70
     0
 10
0.0
 20
0.0
 30
0.0
  3
*Paper_Space
  1

  0
ENDBLK
  5
1D
330
1B
100
AcDbEntity
 67
     1
  8
0
100
AcDbBlockEnd
  0
BLOCK
  5
24
330
23
100
AcDbEntity
  8
0
100
AcDbBlockBegin
  2
*Paper_Space0
 70
     0
 10
0.0
 20
0.0
 30
0.0
  3
*Paper_Space0
  1

  0
ENDBLK
  5
25
330
23
100
AcDbEntity
  8
0
100
AcDbBlockEnd
  0
BLOCK
  5
185
330
184
100
AcDbEntity
  8
0
100
AcDbBlockBegin
  2
_D
 70
     0
 10
0.0
 20
0.0
 30
0.0
  3
_D
  1

  0
ARC
  5
187
330
184
100
AcDbEntity
  8
VERMASSUNG
100
AcDbCircle
 10
239.9026946923
 20
92.0363089051
 30
0.0
 40
9.750649474431356
100
AcDbArc
 50
0.0
 51
107.5
  0
SOLID
  5
188
330
184
100
AcDbEntity
  8
VERMASSUNG
100
AcDbTrace
 10
249.6533441667
 20
92.0363089051
 30
0.0
 11
249.6522819438
 21
95.0698709815
 31
0.0
 12
248.762286029
 22
94.9360529274
 32
0.0
 13
248.762286029
 23
94.9360529274
 33
0.0
  0
SOLID
  5
189
330
184
100
AcDbEntity
  8
VERMASSUNG
100
AcDbTrace
 10
236.9706178464
 20
101.3356685897
 30
0.0
 11
240.0040992231
 21
101.3578211842
 31
0.0
 12
239.8640968365
 22
102.2468652392
 32
0.0
 13
239.8640968365
 23
102.2468652392
 33
0.0
  0
MTEXT
  5
18A
330
184
100
AcDbEntity
  8
VERMASSUNG
100
AcDbMText
 10
243.6444678798
 20
104.5805533532
 30
0.1
 40
2.0
 41
0.0
 71
     1
 72
     1
  1
107.5°
  7
SLDTEXTSTYLE0
 11
0.8064446042674751
 21
-0.5913096483635926
 31
0.0
 73
     1
 44
1.0
  0
ENDBLK
  5
186
330
184
100
AcDbEntity
  8
0
100
AcDbBlockEnd
  0
BLOCK
  5
18E
330
18D
100
AcDbEntity
  8
0
100
AcDbBlockBegin
  2
_D_1
 70
     0
 10
0.0
 20
0.0
 30
0.0
  3
_D_1
  1

  0
SOLID
  5
190
330
18D
100
AcDbEntity
  8
VERMASSUNG
100
AcDbTrace
 10
256.2259923491
 20
92.0363089051
 30
0.0
 11
256.6759923491
 21
95.0363089051
 31
0.0
 12
255.7759923491
 22
95.0363089051
 32
0.0
 13
255.7759923491
 23
95.0363089051
 33
0.0
  0
SOLID
  5
191
330
18D
100
AcDbEntity
  8
VERMASSUNG
100
AcDbTrace
 10
256.2259923491
 20
127.0363089051
 30
0.0
 11
255.7759923491
 21
124.0363089051
 31
0.0
 12
256.6759923491
 22
124.0363089051
 32
0.0
 13
256.6759923491
 23
124.0363089051
 33
0.0
  0
LINE
  5
192
330
18D
100
AcDbEntity
  8
VERMASSUNG
100
AcDbLine
 10
239.7571635267
 20
92.0363089051
 30
0.0
 11
257.2259923491
 21
92.0363089051
 31
0.0
  0
LINE
  5
193
330
18D
100
AcDbEntity
  8
VERMASSUNG
100
AcDbLine
 10
239.7571635267
 20
127.0363089051
 30
0.0
 11
257.2259923491
 21
127.0363089051
 31
0.0
  0
LINE
  5
194
330
18D
100
AcDbEntity
  8
VERMASSUNG
100
AcDbLine
 10
256.2259923491
 20
92.0363089051
 30
0.0
 11
256.2259923491
 21
127.0363089051
 31
0.0
  0
MTEXT
  5
195
330
18D
100
AcDbEntity
  8
VERMASSUNG
100
AcDbMText
 10
253.647856986
 20
104.9863087181
 30
0.1
 40
2.0
 41
0.0
 71
     1
 72
     1
  1
35
  7
SLDTEXTSTYLE0
 11
6.123233995736766E-17
 21
1.0
 31
0.0
 73
     1
 44
1.0
  0
MTEXT
  5
196
330
18D
100
AcDbEntity
  8
VERMASSUNG
100
AcDbMText
 10
253.647856986
 20
110.7738088202
 30
0.1
 40
2.0
 41
0.0
 71
     1
 72
     1
  1

  7
SLDTEXTSTYLE0
 11
6.123233995736766E-17
 21
1.0
 31
0.0
 73
     1
 44
1.0
  0
MTEXT
  5
197
330
18D
100
AcDbEntity
  8
VERMASSUNG
100
AcDbMText
 10
254.1423908487
 20
110.78630911
 30
0.1
 40
1.5
 41
0.0
 71
     1
 72
     1
  1
±0.1
  7
SLDTEXTSTYLE0
 11
6.123233995736766E-17
 21
1.0
 31
0.0
 73
     1
 44
1.0
  0
ENDBLK
  5
18F
330
18D
100
AcDbEntity
  8
0
100
AcDbBlockEnd
  0
BLOCK
  5
19A
330
199
100
AcDbEntity
  8
0
100
AcDbBlockBegin
  2
_D_2
 70
     0
 10
0.0
 20
0.0
 30
0.0
  3
_D_2
  1

  0
SOLID
  5
19C
330
199
100
AcDbEntity
  8
VERMASSUNG
100
AcDbTrace
 10
179.7571635267
 20
83.4406116485
 30
0.0
 11
182.7571635267
 21
82.9906116485
 31
0.0
 12
182.7571635267
 22
83.8906116485
 32
0.0
 13
182.7571635267
 23
83.8906116485
 33
0.0
  0
SOLID
  5
19D
330
199
100
AcDbEntity
  8
VERMASSUNG
100
AcDbTrace
 10
239.7571635267
 20
83.4406116485
 30
0.0
 11
236.7571635267
 21
83.8906116485
 31
0.0
 12
236.7571635267
 22
82.9906116485
 32
0.0
 13
236.7571635267
 23
82.9906116485
 33
0.0
  0
LINE
  5
19E
330
199
100
AcDbEntity
  8
VERMASSUNG
100
AcDbLine
 10
179.7571635267
 20
102.3363089051
 30
0.0
 11
179.7571635267
 21
82.4406116485
 31
0.0
  0
LINE
  5
19F
330
199
100
AcDbEntity
  8
VERMASSUNG
100
AcDbLine
 10
239.7571635267
 20
92.0363089051
 30
0.0
 11
239.7571635267
 21
82.4406116485
 31
0.0
  0
LINE
  5
1A0
330
199
100
AcDbEntity
  8
VERMASSUNG
100
AcDbLine
 10
179.7571635267
 20
83.4406116485
 30
0.0
 11
239.7571635267
 21
83.4406116485
 31
0.0
  0
MTEXT
  5
1A1
330
199
100
AcDbEntity
  8
VERMASSUNG
100
AcDbMText
 10
205.2071633397
 20
86.0187470116
 30
0.1
 40
2.0
 41
0.0
 71
     1
 72
     1
  1
60
  7
SLDTEXTSTYLE0
 73
     1
 44
1.0
  0
MTEXT
  5
1A2
330
199
100
AcDbEntity
  8
VERMASSUNG
100
AcDbMText
 10
210.9946634418
 20
86.0187470116
 30
0.1
 40
2.0
 41
0.0
 71
     1
 72
     1
  1

  7
SLDTEXTSTYLE0
 73
     1
 44
1.0
  0
MTEXT
  5
1A3
330
199
100
AcDbEntity
  8
VERMASSUNG
100
AcDbMText
 10
211.0071637316
 20
85.5242131489
 30
0.1
 40
1.5
 41
0.0
 71
     1
 72
     1
  1
±0.1
  7
SLDTEXTSTYLE0
 73
     1
 44
1.0
  0
ENDBLK
  5
19B
330
199
100
AcDbEntity
  8
0
100
AcDbBlockEnd
  0
BLOCK
  5
1A7
330
1A6
100
AcDbEntity
  8
0
100
AcDbBlockBegin
  2
_D_3
 70
     0
 10
0.0
 20
0.0
 30
0.0
  3
_D_3
  1

  0
SOLID
  5
1A9
330
1A6
100
AcDbEntity
  8
VERMASSUNG
100
AcDbTrace
 10
149.7571635267
 20
75.8886670512
 30
0.0
 11
152.7571635267
 21
75.4386670512
 31
0.0
 12
152.7571635267
 22
76.3386670512
 32
0.0
 13
152.7571635267
 23
76.3386670512
 33
0.0
  0
SOLID
  5
1AA
330
1A6
100
AcDbEntity
  8
VERMASSUNG
100
AcDbTrace
 10
239.7571635267
 20
75.8886670512
 30
0.0
 11
236.7571635267
 21
76.3386670512
 31
0.0
 12
236.7571635267
 22
75.4386670512
 32
0.0
 13
236.7571635267
 23
75.4386670512
 33
0.0
  0
LINE
  5
1AB
330
1A6
100
AcDbEntity
  8
VERMASSUNG
100
AcDbLine
 10
149.7571635267
 20
111.0429830669
 30
0.0
 11
149.7571635267
 21
74.8886670512
 31
0.0
  0
LINE
  5
1AC
330
1A6
100
AcDbEntity
  8
VERMASSUNG
100
AcDbLine
 10
239.7571635267
 20
92.0363089051
 30
0.0
 11
239.7571635267
 21
74.8886670512
 31
0.0
  0
LINE
  5
1AD
330
1A6
100
AcDbEntity
  8
VERMASSUNG
100
AcDbLine
 10
149.7571635267
 20
75.8886670512
 30
0.0
 11
239.7571635267
 21
75.8886670512
 31
0.0
  0
MTEXT
  5
1AE
330
1A6
100
AcDbEntity
  8
VERMASSUNG
100
AcDbMText
 10
192.4571634757
 20
78.4668024143
 30
0.1
 40
2.0
 41
0.0
 71
     1
 72
     1
  1
90
  7
SLDTEXTSTYLE0
 73
     1
 44
1.0
  0
ENDBLK
  5
1A8
330
1A6
100
AcDbEntity
  8
0
100
AcDbBlockEnd
  0
BLOCK
  5
1B1
330
1B0
100
AcDbEntity
  8
0
100
AcDbBlockBegin
  2
_D_4
 70
     0
 10
0.0
 20
0.0
 30
0.0
  3
_D_4
  1

  0
SOLID
  5
1B3
330
1B0
100
AcDbEntity
  8
VERMASSUNG
100
AcDbTrace
 10
139.7571635267
 20
102.0363089051
 30
0.0
 11
140.2071635267
 21
105.0363089051
 31
0.0
 12
139.3071635267
 22
105.0363089051
 32
0.0
 13
139.3071635267
 23
105.0363089051
 33
0.0
  0
SOLID
  5
1B4
330
1B0
100
AcDbEntity
  8
VERMASSUNG
100
AcDbTrace
 10
139.7571635267
 20
152.0363089051
 30
0.0
 11
139.3071635267
 21
149.0363089051
 31
0.0
 12
140.2071635267
 22
149.0363089051
 32
0.0
 13
140.2071635267
 23
149.0363089051
 33
0.0
  0
LINE
  5
1B5
330
1B0
100
AcDbEntity
  8
VERMASSUNG
100
AcDbLine
 10
180.0571635267
 20
102.0363089051
 30
0.0
 11
138.7571635267
 21
102.0363089051
 31
0.0
  0
LINE
  5
1B6
330
1B0
100
AcDbEntity
  8
VERMASSUNG
100
AcDbLine
 10
180.0571635267
 20
152.0363089051
 30
0.0
 11
138.7571635267
 21
152.0363089051
 31
0.0
  0
LINE
  5
1B7
330
1B0
100
AcDbEntity
  8
VERMASSUNG
100
AcDbLine
 10
139.7571635267
 20
102.0363089051
 30
0.0
 11
139.7571635267
 21
152.0363089051
 31
0.0
  0
MTEXT
  5
1B8
330
1B0
100
AcDbEntity
  8
VERMASSUNG
100
AcDbMText
 10
136.9790280377
 20
120.6313087959
 30
0.35
 40
2.0
 41
0.0
 71
     1
 72
     1
  1
PSC
  7
SLDTEXTSTYLE0
 11
6.123233995736766E-17
 21
1.0
 31
0.0
 73
     1
 44
1.0
  0
MTEXT
  5
1B9
330
1B0
100
AcDbEntity
  8
VERMASSUNG
100
AcDbMText
 10
137.1790280472
 20
125.2313088979
 30
0.35
 40
2.0
 41
0.0
 71
     1
 72
     1
  1
%%c
  7
SLDTEXTSTYLE0
 11
6.123233995736766E-17
 21
1.0
 31
0.0
 73
     1
 44
1.0
  0
MTEXT
  5
1BA
330
1B0
100
AcDbEntity
  8
VERMASSUNG
100
AcDbMText
 10
136.9790280377
 20
128.8413093779
 30
0.35
 40
2.0
 41
0.0
 71
     1
 72
     1
  1
50
  7
SLDTEXTSTYLE0
 11
6.123233995736766E-17
 21
1.0
 31
0.0
 73
     1
 44
1.0
  0
ENDBLK
  5
1B2
330
1B0
100
AcDbEntity
  8
0
100
AcDbBlockEnd
  0
BLOCK
  5
1D9
330
1D8
100
AcDbEntity
  8
0
100
AcDbBlockBegin
  2
_D_5
 70
     0
 10
0.0
 20
0.0
 30
0.0
  3
_D_5
  1

  0
SOLID
  5
1DB
330
1D8
100
AcDbEntity
  8
VERMASSUNG
100
AcDbTrace
 10
104.532682803
 20
147.6870469169
 30
0.0
 11
106.9722011981
 21
149.490169209
 31
0.0
 12
106.3358050951
 22
150.126565312
 32
0.0
 13
106.3358050951
 23
150.126565312
 33
0.0
  0
SOLID
  5
1DC
330
1D8
100
AcDbEntity
  8
VERMASSUNG
100
AcDbTrace
 10
58.5707420259
 20
101.7251061398
 30
0.0
 11
56.1312236308
 21
99.9219838478
 31
0.0
 12
56.7676197339
 22
99.2855877447
 32
0.0
 13
56.7676197339
 23
99.2855877447
 33
0.0
  0
LINE
  5
1DD
330
1D8
100
AcDbEntity
  8
VERMASSUNG
100
AcDbLine
 10
104.532682803
 20
147.6870469169
 30
0.0
 11
105.2397895842
 21
146.9799401357
 31
0.0
  0
LINE
  5
1DE
330
1D8
100
AcDbEntity
  8
VERMASSUNG
100
AcDbLine
 10
58.5707420259
 20
101.7251061398
 30
0.0
 11
59.2778488071
 21
101.0179993586
 31
0.0
  0
LINE
  5
1DF
330
1D8
100
AcDbEntity
  8
VERMASSUNG
100
AcDbLine
 10
104.532682803
 20
147.6870469169
 30
0.0
 11
108.7753234902
 21
151.929687604
 31
0.0
  0
LINE
  5
1E0
330
1D8
100
AcDbEntity
  8
VERMASSUNG
100
AcDbLine
 10
104.532682803
 20
147.6870469169
 30
0.0
 11
58.5707420259
 21
101.7251061398
 31
0.0
  0
LINE
  5
1E1
330
1D8
100
AcDbEntity
  8
VERMASSUNG
100
AcDbLine
 10
58.5707420259
 20
101.7251061398
 30
0.0
 11
45.6080484818
 21
88.7624125957
 31
0.0
  0
MTEXT
  5
1E2
330
1D8
100
AcDbEntity
  8
VERMASSUNG
100
AcDbMText
 10
43.7850314014
 20
90.5854296761
 30
0.1
 40
2.0
 41
0.0
 71
     1
 72
     1
  1
%%c
  7
SLDTEXTSTYLE0
 11
0.7071067811865466
 21
0.7071067811865485
 31
0.0
 73
     1
 44
1.0
  0
MTEXT
  5
1E3
330
1D8
100
AcDbEntity
  8
VERMASSUNG
100
AcDbMText
 10
46.1962655286
 20
93.2795065292
 30
0.1
 40
2.0
 41
0.0
 71
     1
 72
     1
  1
65
  7
SLDTEXTSTYLE0
 11
0.7071067811865466
 21
0.7071067811865485
 31
0.0
 73
     1
 44
1.0
  0
MTEXT
  5
1E4
330
1D8
100
AcDbEntity
  8
VERMASSUNG
100
AcDbMText
 10
50.2886464262
 20
97.3718874268
 30
0.1
 40
2.0
 41
0.0
 71
     1
 72
     1
  1
min.
  7
SLDTEXTSTYLE0
 11
0.7071067811865466
 21
0.7071067811865485
 31
0.0
 73
     1
 44
1.0
  0
ENDBLK
  5
1DA
330
1D8
100
AcDbEntity
  8
0
100
AcDbBlockEnd
  0
BLOCK
  5
1E6
330
1E5
100
AcDbEntity
  8
0
100
AcDbBlockBegin
  2
SW_CENTERMARKSYMBOL_0
 70
     0
 10
0.0
 20
0.0
 30
0.0
  3
SW_CENTERMARKSYMBOL_0
  1

  0
LINE
  5
1E8
330
1E5
100
AcDbEntity
  8
VERMASSUNG
 62
     0
100
AcDbLine
 10
0.0
 20
0.0
 30
0.0
 11
0.0
 21
2.5
 31
0.0
  0
LINE
  5
1E9
330
1E5
100
AcDbEntity
  8
VERMASSUNG
 62
     0
100
AcDbLine
 10
0.0
 20
0.0
 30
0.0
 11
-2.5
 21
0.0
 31
0.0
  0
LINE
  5
1EA
330
1E5
100
AcDbEntity
  8
VERMASSUNG
 62
     0
100
AcDbLine
 10
0.0
 20
0.0
 30
0.0
 11
0.0
 21
-2.5
 31
0.0
  0
LINE
  5
1EB
330
1E5
100
AcDbEntity
  8
VERMASSUNG
 62
     0
100
AcDbLine
 10
0.0
 20
0.0
 30
0.0
 11
2.5
 21
0.0
 31
0.0
  0
LINE
  5
1EC
330
1E5
100
AcDbEntity
  8
VERMASSUNG
 62
     0
100
AcDbLine
 10
0.0
 20
5.0
 30
0.0
 11
0.0
 21
27.5
 31
0.0
  0
LINE
  5
1ED
330
1E5
100
AcDbEntity
  8
VERMASSUNG
 62
     0
100
AcDbLine
 10
-5.0
 20
0.0
 30
0.0
 11
-27.5
 21
0.0
 31
0.0
  0
LINE
  5
1EE
330
1E5
100
AcDbEntity
  8
VERMASSUNG
 62
     0
100
AcDbLine
 10
0.0
 20
-5.0
 30
0.0
 11
0.0
 21
-27.5
 31
0.0
  0
LINE
  5
1EF
330
1E5
100
AcDbEntity
  8
VERMASSUNG
 62
     0
100
AcDbLine
 10
5.0
 20
0.0
 30
0.0
 11
27.5
 21
0.0
 31
0.0
  0
ENDBLK
  5
1E7
330
1E5
100
AcDbEntity
  8
0
100
AcDbBlockEnd
  0
ENDSEC
  0
SECTION
  2
ENTITIES
  0
MTEXT
  5
49
330
1F
100
AcDbEntity
  8
KOPF_DÜNN
100
AcDbMText
 10
13.8892156294
 20
23.8442973028
 30
0.0
 40
3.0
 41
0.0
 71
     1
 72
     1
  1
PS5.KDB.LHA.060
  7
SLDTEXTSTYLE0
 73
     1
 44
1.0
  0
MTEXT
  5
4A
330
1F
100
AcDbEntity
  8
VERMASSUNG
100
AcDbMText
 10
13.9329988022
 20
28.8834360957
 30
0.0
 40
3.0
 41
0.0
 71
     1
 72
     1
  1
Klemmhalter links_Turning tool left 107.5° /55°
  7
SLDTEXTSTYLE0
 73
     1
 44
1.0
  0
MTEXT
  5
4B
330
1F
100
AcDbEntity
  8
VERMASSUNG
100
AcDbMText
 10
98.8601118557
 20
13.8365368179
 30
0.0
 40
2.0
 41
0.0
 71
     1
 72
     1
  1
Datum: 23.05.2012
  7
SLDTEXTSTYLE0
 73
     1
 44
1.0
  0
MTEXT
  5
4C
330
1F
100
AcDbEntity
  8
VERMASSUNG
100
AcDbMText
 10
13.933048693
 20
18.0482802738
 30
0.0
 40
2.0
 41
0.0
 71
     1
 72
     1
  1
PSC ø50 / DC..11 T3..
  7
SLDTEXTSTYLE0
 73
     1
 44
1.0
  0
MTEXT
  5
4D
330
1F
100
AcDbEntity
  8
VERMASSUNG
100
AcDbMText
 10
13.9808475933
 20
13.9090973692
 30
0.0
 40
2.0
 41
0.0
 71
     1
 72
     1
  1
Gewicht: 707g
  7
SLDTEXTSTYLE0
 73
     1
 44
1.0
  0
ARC
  5
4E
330
1F
100
AcDbEntity
  8
0
  6
Continuous
 62
     7
370
    15
100
AcDbCircle
 10
197.7571635267
 20
115.7142193039
 30
0.0
 40
2.500000000000018
100
AcDbArc
 50
203.7564891757
 51
336.2435108243
  0
ARC
  5
4F
330
1F
100
AcDbEntity
  8
0
  6
Continuous
 62
     7
370
    15
100
AcDbCircle
 10
180.0571635267
 20
102.3363089051
 30
0.0
 40
0.2999999999999972
100
AcDbArc
 50
180.0
 51
270.0
  0
ARC
  5
50
330
1F
100
AcDbEntity
  8
0
  6
Continuous
 62
     7
370
    15
100
AcDbCircle
 10
180.0571635267
 20
151.7363089051
 30
0.0
 40
0.3000000000000114
100
AcDbArc
 50
90.0
 51
180.0
  0
LINE
  5
51
330
1F
100
AcDbEntity
  8
0
  6
Continuous
 62
     7
370
    15
100
AcDbLine
 10
210.775420135
 20
152.0363089051
 30
0.0
 11
180.0571635267
 21
152.0363089051
 31
0.0
  0
LINE
  5
52
330
1F
100
AcDbEntity
  8
0
  6
Continuous
 62
     7
370
    15
100
AcDbLine
 10
180.0571635267
 20
102.0363089051
 30
0.0
 11
210.7638008105
 21
102.0363089051
 31
0.0
  0
LWPOLYLINE
  5
53
330
1F
100
AcDbEntity
  8
0
  6
Continuous
 62
     7
370
    15
100
AcDbPolyline
 90
        3
 70
   128
 43
0.0
 10
179.5571635267
 20
109.1964886262
 10
179.6826184702
 20
109.1281865113
 10
179.7571635267
 20
109.0754487532
  0
LWPOLYLINE
  5
54
330
1F
100
AcDbEntity
  8
0
  6
Continuous
 62
     7
370
    15
100
AcDbPolyline
 90
        3
 70
   128
 43
0.0
 10
179.7571635267
 20
144.997169057
 10
179.6826184702
 20
144.9444312989
 10
179.5571635267
 20
144.876129184
  0
ARC
  5
55
330
1F
100
AcDbEntity
  8
0
  6
Continuous
 62
     7
370
    15
100
AcDbCircle
 10
197.5649644535
 20
114.2495370738
 30
0.0
 40
2.842494798687283
100
AcDbArc
 50
189.8711665993
 51
276.4262796331
  0
ARC
  5
56
330
1F
100
AcDbEntity
  8
0
  6
Continuous
 62
     7
370
    15
100
AcDbCircle
 10
198.001725964
 20
114.2091036394
 30
0.0
 40
2.786726651467552
100
AcDbArc
 50
267.5604880196
 51
350.0631943029
  0
LWPOLYLINE
  5
57
330
1F
100
AcDbEntity
  8
0
  6
Continuous
 62
     7
370
    15
100
AcDbPolyline
 90
       11
 70
   128
 43
0.0
 10
197.8772324132
 20
111.465963456
 10
197.2805054305
 20
111.4973960205
 10
196.7046106938
 20
111.6321926435
 10
196.1747175666
 20
111.8644620657
 10
195.7139849213
 20
112.1840529988
 10
195.3425489854
 20
112.5769977854
 10
195.0766432915
 20
113.0261228528
 10
194.9278891944
 20
113.5117992804
 10
194.902787962
 20
114.0128006778
 10
195.0024366386
 20
114.5072308799
 10
195.0087627252
 20
114.5259474008
  0
ARC
  5
58
330
1F
100
AcDbEntity
  8
0
  6
Continuous
 62
     7
370
    15
100
AcDbCircle
 10
198.0671809419
 20
113.9643984335
 30
0.0
 40
2.505645182531272
100
AcDbArc
 50
265.652337258
 51
12.2080984631
  0
LWPOLYLINE
  5
59
330
1F
100
AcDbEntity
  8
0
  6
Continuous
 62
     7
370
    15
100
AcDbPolyline
 90
       29
 70
   128
 43
0.0
 10
197.8621188471
 20
111.767618675
 10
197.3036755205
 20
111.8005534379
 10
196.7679719763
 20
111.9368801329
 10
196.2818706268
 20
112.1697627703
 10
195.8697466237
 20
112.4875236422
 10
195.5522655852
 20
112.8742288916
 10
195.3453473363
 20
113.3104875026
 10
195.2593676222
 20
113.7744236467
 10
195.2986378245
 20
114.2427736285
 10
195.4611887715
 20
114.6920524243
 10
195.7388694799
 20
115.0997313191
 10
196.1177558794
 20
115.4453675909
 10
196.5788490239
 20
115.7116295937
 10
197.0990277778
 20
115.885165839
 10
197.6522082063
 20
115.9572744947
 10
198.2106515329
 20
115.9243397318
 10
198.7463550771
 20
115.7880130368
 10
199.2324564266
 20
115.5551303994
 10
199.6445804297
 20
115.2373695275
 10
199.9620614682
 20
114.8506642781
 10
200.1689797171
 20
114.4144056671
 10
200.2549594312
 20
113.950469523
 10
200.2156892289
 20
113.4821195412
 10
200.0531382819
 20
113.0328407454
 10
199.7754575735
 20
112.6251618506
 10
199.396571174
 20
112.2795255788
 10
198.9354780295
 20
112.013263576
 10
198.4152992756
 20
111.8397273307
 10
197.8621188471
 20
111.767618675
  0
LINE
  5
5A
330
1F
100
AcDbEntity
  8
0
  6
Continuous
 62
     7
370
    15
100
AcDbLine
 10
179.7571635267
 20
102.3363089051
 30
0.0
 11
179.7571635267
 21
151.7363089023
 31
0.0
  0
SPLINE
  5
5B
330
1F
100
AcDbEntity
  8
0
  6
Continuous
 62
     7
370
    15
100
AcDbSpline
210
0.0
220
0.0
230
1.0
 70
     8
 71
     3
 72
    70
 73
    66
 74
     0
 42
0.00000001
 43
0.00000001
 12
1.0
 22
0.0
 32
0.0
 13
1.0
 23
0.0
 33
0.0
 40
-0.03125
 40
-0.03125
 40
0.0
 40
0.0
 40
0.03125
 40
0.03125
 40
0.0625
 40
0.0625
 40
0.09375
 40
0.09375
 40
0.125
 40
0.125
 40
0.15625
 40
0.15625
 40
0.1875
 40
0.1875
 40
0.21875
 40
0.21875
 40
0.25
 40
0.25
 40
0.28125
 40
0.28125
 40
0.3125
 40
0.3125
 40
0.34375
 40
0.34375
 40
0.375
 40
0.375
 40
0.40625
 40
0.40625
 40
0.4375
 40
0.4375
 40
0.46875
 40
0.46875
 40
0.5
 40
0.5
 40
0.53125
 40
0.53125
 40
0.5625
 40
0.5625
 40
0.59375
 40
0.59375
 40
0.625
 40
0.625
 40
0.65625
 40
0.65625
 40
0.6875
 40
0.6875
 40
0.71875
 40
0.71875
 40
0.75
 40
0.75
 40
0.78125
 40
0.78125
 40
0.8125
 40
0.8125
 40
0.84375
 40
0.84375
 40
0.875
 40
0.875
 40
0.90625
 40
0.90625
 40
0.9375
 40
0.9375
 40
0.96875
 40
0.96875
 40
1.0
 40
1.0
 40
1.03125
 40
1.03125
 10
197.5587776127612
 20
116.034735250124
 30
0.0
 10
197.9555494406402
 20
116.0347352501241
 30
0.0
 10
198.1505841297814
 20
116.0170995878643
 30
0.0
 10
198.5342363094667
 20
115.9481749708312
 30
0.0
 10
198.7248554383381
 20
115.8960400608296
 30
0.0
 10
199.0880697999194
 20
115.7605520497284
 30
0.0
 10
199.2603094414305
 20
115.6778450292427
 30
0.0
 10
199.5862795029076
 20
115.4833779519978
 30
0.0
 10
199.74047872481
 20
115.3706946154376
 30
0.0
 10
200.0169319690523
 20
115.1259693695528
 30
0.0
 10
200.1410505236814
 20
114.9930323591825
 30
0.0
 10
200.3603679266867
 20
114.7061217009615
 30
0.0
 10
200.4534571522682
 20
114.5544507349265
 30
0.0
 10
200.6031340995491
 20
114.2427272541986
 30
0.0
 10
200.6608212599984
 20
114.0803671320942
 30
0.0
 10
200.7379551509948
 20
113.7505836970068
 30
0.0
 10
200.7570547006842
 20
113.585979417464
 30
0.0
 10
200.7572714341715
 20
113.2574711068072
 30
0.0
 10
200.7377586195458
 20
113.0919026968483
 30
0.0
 10
200.6611575764666
 20
112.7740191262901
 30
0.0
 10
200.6044824114537
 20
112.6207088622685
 30
0.0
 10
200.4541331985093
 20
112.3250020293237
 30
0.0
 10
200.3602772944681
 20
112.1833595973223
 30
0.0
 10
200.1432472271267
 20
111.9227061628415
 30
0.0
 10
200.0192293801992
 20
111.8019517686877
 30
0.0
 10
199.739414157877
 20
111.580076799904
 30
0.0
 10
199.5880858017194
 20
111.4824622993939
 30
0.0
 10
199.2634201319831
 20
111.3120898147788
 30
0.0
 10
199.0879985137166
 20
111.2387479086004
 30
0.0
 10
198.7248171260775
 20
111.1215783509473
 30
0.0
 10
198.5378294079985
 20
111.0775471707303
 30
0.0
 10
198.1531052062143
 20
111.0179862120049
 30
0.0
 10
197.9541493396956
 20
111.0027685814585
 30
0.0
 10
197.562420290113
 20
111.0026554273377
 30
0.0
 10
197.3676316249391
 20
111.0172676818168
 30
0.0
 10
196.9802570472352
 20
111.0766984583051
 30
0.0
 10
196.7909333593928
 20
111.1212669058221
 30
0.0
 10
196.4297929604006
 20
111.2374844220516
 30
0.0
 10
196.2552060762758
 20
111.3100394543892
 30
0.0
 10
195.9272968970888
 20
111.4817059922574
 30
0.0
 10
195.7762852247676
 20
111.5792970538072
 30
0.0
 10
195.4994661601351
 20
111.7981857620537
 30
0.0
 10
195.3727196808949
 20
111.9209504582786
 30
0.0
 10
195.1548387308053
 20
112.1822006486641
 30
0.0
 10
195.0625407063509
 20
112.3211572260157
 30
0.0
 10
194.9115688859994
 20
112.6165671920272
 30
0.0
 10
194.8536496119049
 20
112.772688045144
 30
0.0
 10
194.7770070373894
 20
113.0894290389313
 30
0.0
 10
194.7573463859384
 20
113.25167092269
 30
0.0
 10
194.7569831816162
 20
113.5843887291773
 30
0.0
 10
194.7762914792334
 20
113.7492769020957
 30
0.0
 10
194.8522588203006
 20
114.0759820546941
 30
0.0
 10
194.909855214442
 20
114.2395552466803
 30
0.0
 10
195.0601712799539
 20
114.5533765443697
 30
0.0
 10
195.1521781820606
 20
114.7032958500727
 30
0.0
 10
195.3696088486865
 20
114.988718065677
 30
0.0
 10
195.4960620735236
 20
115.1246277046662
 30
0.0
 10
195.7723190183347
 20
115.3695007966361
 30
0.0
 10
195.9231225806476
 20
115.4800975210881
 30
0.0
 10
196.2508296505913
 20
115.6762770850253
 30
0.0
 10
196.4250520330462
 20
115.7599362769991
 30
0.0
 10
196.7858188099699
 20
115.8948414463204
 30
0.0
 10
196.974793187913
 20
115.9470239584042
 30
0.0
 10
197.3626368100191
 20
116.0170968928272
 30
0.0
 10
197.5587776127612
 20
116.034735250124
 30
0.0
 10
197.9555494406402
 20
116.0347352501241
 30
0.0
  0
ELLIPSE
  5
5C
330
1F
100
AcDbEntity
  8
0
  6
Continuous
 62
     7
370
    15
100
AcDbEllipse
 10
209.676778769
 20
127.0363089051
 30
0.0
 11
0.0
 21
25.00000000000001
 31
0.0
210
0.0
220
0.0
230
1.0
 40
0.2679491924
 41
0.0770178337218596
 42
3.064574819867933
  0
SPLINE
  5
5D
330
1F
100
AcDbEntity
  8
0
  6
Continuous
 62
     7
370
    15
100
AcDbSpline
210
0.0
220
0.0
230
1.0
 70
     8
 71
     3
 72
    18
 73
    14
 74
     0
 42
0.00000001
 43
0.00000001
 12
1.0
 22
0.0
 32
0.0
 13
1.0
 23
0.0
 33
0.0
 40
0.0
 40
0.0
 40
0.0
 40
0.0
 40
0.2500000000000013
 40
0.2500000000000013
 40
0.5000000000000026
 40
0.5000000000000026
 40
0.6250000000000032
 40
0.6250000000000032
 40
0.7500000000000038
 40
0.7500000000000038
 40
0.8750000000000019
 40
0.8750000000000019
 40
1.0
 40
1.0
 40
1.0
 40
1.0
 10
209.1613670117703
 20
102.1104190945452
 30
0.0
 10
209.2451173687174
 20
102.0862986442017
 30
0.0
 10
209.3760291322431
 20
102.0696951295015
 30
0.0
 10
209.7320064989273
 20
102.0469952799116
 30
0.0
 10
209.9495559440319
 20
102.0414012563672
 30
0.0
 10
210.330213297684
 20
102.0372902075696
 30
0.0
 10
210.4653798619909
 20
102.036658794085
 30
0.0
 10
210.7453912288264
 20
102.0361886582284
 30
0.0
 10
210.8911565486924
 20
102.0363417314247
 30
0.0
 10
211.1944504445135
 20
102.0368772784217
 30
0.0
 10
211.3515964374805
 20
102.0372577855253
 30
0.0
 10
211.667579944353
 20
102.0378448124807
 30
0.0
 10
211.8276428364555
 20
102.0380545131414
 30
0.0
 10
211.9898365387217
 20
102.0380993735669
 30
0.0
  0
SPLINE
  5
5E
330
1F
100
AcDbEntity
  8
0
  6
Continuous
 62
     7
370
    15
100
AcDbSpline
210
0.0
220
0.0
230
1.0
 70
     8
 71
     3
 72
    18
 73
    14
 74
     0
 42
0.00000001
 43
0.00000001
 12
1.0
 22
0.0
 32
0.0
 13
1.0
 23
0.0
 33
0.0
 40
0.0
 40
0.0
 40
0.0
 40
0.0
 40
0.2499999999999999
 40
0.2499999999999999
 40
0.4999999999999999
 40
0.4999999999999999
 40
0.6249999999999999
 40
0.6249999999999999
 40
0.7499999999999998
 40
0.7499999999999998
 40
0.8749999999999999
 40
0.8749999999999999
 40
1.0
 40
1.0
 40
1.0
 40
1.0
 10
211.9898365387217
 20
152.0345184366239
 30
0.0
 10
211.6654429761807
 20
152.0346081591781
 30
0.0
 10
211.3509688395804
 20
152.0354606995785
 30
0.0
 10
210.741701497004
 20
152.0365433987577
 30
0.0
 10
210.460323498016
 20
152.0367061237802
 30
0.0
 10
210.0794164575407
 20
152.0326321164203
 30
0.0
 10
209.9603169501057
 20
152.030525592797
 30
0.0
 10
209.7435566386849
 20
152.0242296789356
 30
0.0
 10
209.6448948683869
 20
152.0200341486951
 30
0.0
 10
209.4673796885702
 20
152.0087805778561
 30
0.0
 10
209.388917840421
 20
152.0016994342943
 30
0.0
 10
209.2572441914497
 20
151.9844581195599
 30
0.0
 10
209.2032431582999
 20
151.9742592196215
 30
0.0
 10
209.1613670117703
 20
151.9621987156456
 30
0.0
  0
SPLINE
  5
5F
330
1F
100
AcDbEntity
  8
0
  6
Continuous
 62
     7
370
    15
100
AcDbSpline
210
0.0
220
0.0
230
1.0
 70
     8
 71
     3
 72
    12
 73
     8
 74
     0
 42
0.00000001
 43
0.00000001
 12
1.0
 22
0.0
 32
0.0
 13
1.0
 23
0.0
 33
0.0
 40
0.0
 40
0.0
 40
0.0
 40
0.0
 40
0.5000000000000018
 40
0.5000000000000018
 40
0.7500000000000009
 40
0.7500000000000009
 40
1.0
 40
1.0
 40
1.0
 40
1.0
 10
187.8519076383749
 20
103.3836674278637
 30
0.0
 10
187.8827593489391
 20
103.3443353875013
 30
0.0
 10
187.9246522123997
 20
103.306923621973
 30
0.0
 10
188.0241730901929
 20
103.2572526973571
 30
0.0
 10
188.0637872549172
 20
103.2418636147492
 30
0.0
 10
188.1608902886967
 20
103.218030399082
 30
0.0
 10
188.2213889613471
 20
103.2095777895932
 30
0.0
 10
188.284920340267
 20
103.2095777895932
 30
0.0
  0
LINE
  5
60
330
1F
100
AcDbEntity
  8
0
  6
Continuous
 62
     7
370
    15
100
AcDbLine
 10
188.2849203403
 20
103.2095777896
 30
0.0
 11
191.2294067131
 21
103.2095777896
 31
0.0
  0
SPLINE
  5
61
330
1F
100
AcDbEntity
  8
0
  6
Continuous
 62
     7
370
    15
100
AcDbSpline
210
0.0
220
0.0
230
1.0
 70
     8
 71
     3
 72
    12
 73
     8
 74
     0
 42
0.00000001
 43
0.00000001
 12
1.0
 22
0.0
 32
0.0
 13
1.0
 23
0.0
 33
0.0
 40
0.0
 40
0.0
 40
0.0
 40
0.0
 40
0.2500000000000011
 40
0.2500000000000011
 40
0.5000000000000022
 40
0.5000000000000022
 40
1.0
 40
1.0
 40
1.0
 40
1.0
 10
191.2294067131342
 20
103.2095777895934
 30
0.0
 10
191.2930432673479
 20
103.2095777895934
 30
0.0
 10
191.3526233942141
 20
103.2178345605252
 30
0.0
 10
191.4512601355805
 20
103.242036622533
 30
0.0
 10
191.4902187599608
 20
103.2572834415671
 30
0.0
 10
191.5895976994687
 20
103.3068883136273
 30
0.0
 10
191.6315556046341
 20
103.3443199617461
 30
0.0
 10
191.6624194150266
 20
103.3836674278637
 30
0.0
  0
ELLIPSE
  5
62
330
1F
100
AcDbEntity
  8
0
  6
Continuous
 62
     7
370
    15
100
AcDbEllipse
 10
178.7009058717
 20
127.0363089051
 30
0.0
 11
-11.70927234972717
 21
24.67718644093743
 31
0.0
210
0.0
220
0.0
230
1.0
 40
0.3419987131
 41
3.310521928178954
 42
4.221709151398944
  0
SPLINE
  5
63
330
1F
100
AcDbEntity
  8
0
  6
Continuous
 62
     7
370
    15
100
AcDbSpline
210
0.0
220
0.0
230
1.0
 70
     8
 71
     3
 72
    12
 73
     8
 74
     0
 42
0.00000001
 43
0.00000001
 12
1.0
 22
0.0
 32
0.0
 13
1.0
 23
0.0
 33
0.0
 40
0.0
 40
0.0
 40
0.0
 40
0.0
 40
0.4999999999999982
 40
0.4999999999999982
 40
0.7499999999999991
 40
0.7499999999999991
 40
1.0
 40
1.0
 40
1.0
 40
1.0
 10
191.6624194150264
 20
118.939855907051
 30
0.0
 10
191.6315677044622
 20
119.0547588959878
 30
0.0
 10
191.5896748410016
 20
119.1668977920367
 30
0.0
 10
191.4901539632084
 20
119.3188400736376
 30
0.0
 10
191.4505397984841
 20
119.3665046831625
 30
0.0
 10
191.3534367647046
 20
119.4408410137779
 30
0.0
 10
191.2929380920542
 20
119.467498935915
 30
0.0
 10
191.2294067131343
 20
119.467498935915
 30
0.0
  0
LINE
  5
64
330
1F
100
AcDbEntity
  8
0
  6
Continuous
 62
     7
370
    15
100
AcDbLine
 10
191.2294067131
 20
119.4674989359
 30
0.0
 11
188.2849203403
 21
119.4674989359
 31
0.0
  0
SPLINE
  5
65
330
1F
100
AcDbEntity
  8
0
  6
Continuous
 62
     7
370
    15
100
AcDbSpline
210
0.0
220
0.0
230
1.0
 70
     8
 71
     3
 72
    12
 73
     8
 74
     0
 42
0.00000001
 43
0.00000001
 12
1.0
 22
0.0
 32
0.0
 13
1.0
 23
0.0
 33
0.0
 40
0.0
 40
0.0
 40
0.0
 40
0.0
 40
0.2499999999999989
 40
0.2499999999999989
 40
0.4999999999999978
 40
0.4999999999999978
 40
1.0
 40
1.0
 40
1.0
 40
1.0
 10
188.2849203402671
 20
119.4674989359146
 30
0.0
 10
188.2212837860534
 20
119.4674989359146
 30
0.0
 10
188.1617036591872
 20
119.4414520328567
 30
0.0
 10
188.0630669178208
 20
119.3659648739568
 30
0.0
 10
188.0241082934405
 20
119.3187458354261
 30
0.0
 10
187.9247293539326
 20
119.1670061843325
 30
0.0
 10
187.8827714487672
 20
119.0548039601483
 30
0.0
 10
187.8519076383747
 20
118.9398559070511
 30
0.0
  0
ELLIPSE
  5
66
330
1F
100
AcDbEntity
  8
0
  6
Continuous
 62
     7
370
    15
100
AcDbEllipse
 10
200.8134211817
 20
127.0363089051
 30
0.0
 11
11.70927234972706
 21
24.67718644093747
 31
0.0
210
0.0
220
0.0
230
1.0
 40
0.3419987131
 41
2.061476155780653
 42
2.972663379000666
  0
SPLINE
  5
67
330
1F
100
AcDbEntity
  8
0
  6
Continuous
 62
     7
370
    15
100
AcDbSpline
210
0.0
220
0.0
230
1.0
 70
     8
 71
     3
 72
    12
 73
     8
 74
     0
 42
0.00000001
 43
0.00000001
 12
1.0
 22
0.0
 32
0.0
 13
1.0
 23
0.0
 33
0.0
 40
0.0
 40
0.0
 40
0.0
 40
0.0
 40
0.5000000000000018
 40
0.5000000000000018
 40
0.7500000000000009
 40
0.7500000000000009
 40
1.0
 40
1.0
 40
1.0
 40
1.0
 10
187.8519076383749
 20
135.1327619031395
 30
0.0
 10
187.8826070217422
 20
135.0184262360756
 30
0.0
 10
187.9239570898487
 20
134.9070728832343
 30
0.0
 10
188.0237130180682
 20
134.7543361109855
 30
0.0
 10
188.0634099358008
 20
134.7064762251334
 30
0.0
 10
188.1606680874485
 20
134.6318731117839
 30
0.0
 10
188.2214442454392
 20
134.6051188742758
 30
0.0
 10
188.2849203402671
 20
134.6051188742758
 30
0.0
  0
LINE
  5
68
330
1F
100
AcDbEntity
  8
0
  6
Continuous
 62
     7
370
    15
100
AcDbLine
 10
188.2849203403
 20
134.6051188743
 30
0.0
 11
191.2294067131
 21
134.6051188743
 31
0.0
  0
SPLINE
  5
69
330
1F
100
AcDbEntity
  8
0
  6
Continuous
 62
     7
370
    15
100
AcDbSpline
210
0.0
220
0.0
230
1.0
 70
     8
 71
     3
 72
    12
 73
     8
 74
     0
 42
0.00000001
 43
0.00000001
 12
1.0
 22
0.0
 32
0.0
 13
1.0
 23
0.0
 33
0.0
 40
0.0
 40
0.0
 40
0.0
 40
0.0
 40
0.2499999999999986
 40
0.2499999999999986
 40
0.4999999999999972
 40
0.4999999999999972
 40
1.0
 40
1.0
 40
1.0
 40
1.0
 10
191.2294067131342
 20
134.6051188742758
 30
0.0
 10
191.2930719496647
 20
134.6051188742758
 30
0.0
 10
191.3526781818881
 20
134.6311910227555
 30
0.0
 10
191.4513387068189
 20
134.7067297735767
 30
0.0
 10
191.4903056968342
 20
134.7539807106729
 30
0.0
 10
191.5896925287587
 20
134.9058045286393
 30
0.0
 10
191.6317687761821
 20
135.0186077784043
 30
0.0
 10
191.6624194150264
 20
135.1327619031395
 30
0.0
  0
ELLIPSE
  5
6A
330
1F
100
AcDbEntity
  8
0
  6
Continuous
 62
     7
370
    15
100
AcDbEllipse
 10
178.7009058717
 20
127.0363089051
 30
0.0
 11
11.70927234972706
 21
24.67718644093743
 31
0.0
210
0.0
220
0.0
230
1.0
 40
0.3419987131
 41
5.203068809370451
 42
6.114256032590494
  0
SPLINE
  5
6B
330
1F
100
AcDbEntity
  8
0
  6
Continuous
 62
     7
370
    15
100
AcDbSpline
210
0.0
220
0.0
230
1.0
 70
     8
 71
     3
 72
    12
 73
     8
 74
     0
 42
0.00000001
 43
0.00000001
 12
1.0
 22
0.0
 32
0.0
 13
1.0
 23
0.0
 33
0.0
 40
0.0
 40
0.0
 40
0.0
 40
0.0
 40
0.5000000000000018
 40
0.5000000000000018
 40
0.7500000000000009
 40
0.7500000000000009
 40
1.0
 40
1.0
 40
1.0
 40
1.0
 10
191.6624194150264
 20
150.6889503823269
 30
0.0
 10
191.6317200316591
 20
150.7280882247228
 30
0.0
 10
191.5903699635526
 20
150.7652480074483
 30
0.0
 10
191.4906140353332
 20
150.8151845130761
 30
0.0
 10
191.4509171176005
 20
150.8306373832199
 30
0.0
 10
191.3536589659528
 20
150.8545569268189
 30
0.0
 10
191.2928828079622
 20
150.8630400205973
 30
0.0
 10
191.2294067131342
 20
150.8630400205973
 30
0.0
  0
LINE
  5
6C
330
1F
100
AcDbEntity
  8
0
  6
Continuous
 62
     7
370
    15
100
AcDbLine
 10
191.2294067131
 20
150.8630400206
 30
0.0
 11
188.2849203403
 21
150.8630400206
 31
0.0
  0
SPLINE
  5
6D
330
1F
100
AcDbEntity
  8
0
  6
Continuous
 62
     7
370
    15
100
AcDbSpline
210
0.0
220
0.0
230
1.0
 70
     8
 71
     3
 72
    12
 73
     8
 74
     0
 42
0.00000001
 43
0.00000001
 12
1.0
 22
0.0
 32
0.0
 13
1.0
 23
0.0
 33
0.0
 40
0.0
 40
0.0
 40
0.0
 40
0.0
 40
0.2500000000000007
 40
0.2500000000000007
 40
0.5000000000000014
 40
0.5000000000000014
 40
1.0
 40
1.0
 40
1.0
 40
1.0
 10
188.2849203402671
 20
150.8630400205973
 30
0.0
 10
188.2212551037366
 20
150.8630400205973
 30
0.0
 10
188.1616488715133
 20
150.8547752449314
 30
0.0
 10
188.0629883465824
 20
150.8305564633483
 30
0.0
 10
188.0240213565671
 20
150.8152991440391
 30
0.0
 10
187.9246345246427
 20
150.7656657897772
 30
0.0
 10
187.8825582772192
 20
150.7280260816031
 30
0.0
 10
187.8519076383749
 20
150.6889503823269
 30
0.0
  0
ELLIPSE
  5
6E
330
1F
100
AcDbEntity
  8
0
  6
Continuous
 62
     7
370
    15
100
AcDbEllipse
 10
200.8134211817
 20
127.0363089051
 30
0.0
 11
-11.709272349727
 21
24.67718644093746
 31
0.0
210
0.0
220
0.0
230
1.0
 40
0.3419987131
 41
0.1689292745891341
 42
1.080116497809148
  0
ELLIPSE
  5
6F
330
1F
100
AcDbEntity
  8
0
  6
Continuous
 62
     7
370
    15
100
AcDbEllipse
 10
207.2345258478
 20
113.0193164575
 30
0.0
 11
-0.206987687708903
 21
3.097652266562733
 31
0.0
210
0.0
220
0.0
230
1.0
 40
0.2251679941
 41
0.0
 42
6.283185307179586
  0
SPLINE
  5
70
330
1F
100
AcDbEntity
  8
0
  6
Continuous
 62
     7
370
    15
100
AcDbSpline
210
0.0
220
0.0
230
1.0
 70
     8
 71
     3
 72
    16
 73
    12
 74
     0
 42
0.00000001
 43
0.00000001
 12
1.0
 22
0.0
 32
0.0
 13
1.0
 23
0.0
 33
0.0
 40
0.0
 40
0.0
 40
0.0
 40
0.0
 40
0.2499999999999995
 40
0.2499999999999995
 40
0.499999999999999
 40
0.499999999999999
 40
0.6249999999999992
 40
0.6249999999999992
 40
0.7499999999999993
 40
0.7499999999999993
 40
1.0
 40
1.0
 40
1.0
 40
1.0
 10
178.7163024985716
 20
109.6871516239028
 30
0.0
 10
178.7480304597643
 20
109.6863545070819
 30
0.0
 10
178.7826580501148
 20
109.6857634322266
 30
0.0
 10
178.8623518121785
 20
109.6847519067922
 30
0.0
 10
178.9073932721822
 20
109.6843517986173
 30
0.0
 10
178.9902459990326
 20
109.6833939267134
 30
0.0
 10
179.0201604602325
 20
109.683012245453
 30
0.0
 10
179.0861467907904
 20
109.6819360313945
 30
0.0
 10
179.1228804162522
 20
109.6812184655004
 30
0.0
 10
179.235377135822
 20
109.6784575878187
 30
0.0
 10
179.3057184839203
 20
109.6759704959471
 30
0.0
 10
179.3621866378254
 20
109.67379721754
 30
0.0
  0
SPLINE
  5
71
330
1F
100
AcDbEntity
  8
0
  6
Continuous
 62
     7
370
    15
100
AcDbSpline
210
0.0
220
0.0
230
1.0
 70
     8
 71
     3
 72
    14
 73
    10
 74
     0
 42
0.00000001
 43
0.00000001
 12
1.0
 22
0.0
 32
0.0
 13
1.0
 23
0.0
 33
0.0
 40
0.0
 40
0.0
 40
0.0
 40
0.0
 40
0.1249999999999997
 40
0.1249999999999997
 40
0.2499999999999993
 40
0.2499999999999993
 40
0.4999999999999987
 40
0.4999999999999987
 40
1.0
 40
1.0
 40
1.0
 40
1.0
 10
179.3621866377938
 20
109.6737972175627
 30
0.0
 10
179.3747784317386
 20
109.6733125997404
 30
0.0
 10
179.3896495400327
 20
109.671602421808
 30
0.0
 10
179.4218336314658
 20
109.6634868730572
 30
0.0
 10
179.4374377629416
 20
109.6572710847959
 30
0.0
 10
179.4733249026537
 20
109.6390519730943
 30
0.0
 10
179.4871769439223
 20
109.6272869447607
 30
0.0
 10
179.520666685855
 20
109.5954918083434
 30
0.0
 10
179.5313289464307
 20
109.5776983765002
 30
0.0
 10
179.5394669033257
 20
109.5612672456558
 30
0.0
  0
LINE
  5
72
330
1F
100
AcDbEntity
  8
0
  6
Continuous
 62
     7
370
    15
100
AcDbLine
 10
179.5571635267
 20
121.0518286725
 30
0.0
 11
179.5571635267
 21
109.1964886262
 31
0.0
  0
SPLINE
  5
73
330
1F
100
AcDbEntity
  8
0
  6
Continuous
 62
     7
370
    15
100
AcDbSpline
210
0.0
220
0.0
230
1.0
 70
     8
 71
     3
 72
    16
 73
    12
 74
     0
 42
0.00000001
 43
0.00000001
 12
1.0
 22
0.0
 32
0.0
 13
1.0
 23
0.0
 33
0.0
 40
0.0
 40
0.0
 40
0.0
 40
0.0
 40
0.5000000000000012
 40
0.5000000000000012
 40
0.7500000000000037
 40
0.7500000000000037
 40
0.8750000000000021
 40
0.8750000000000021
 40
0.9375000000000011
 40
0.9375000000000011
 40
1.0
 40
1.0
 40
1.0
 40
1.0
 10
179.5571635267007
 20
121.0518286725208
 30
0.0
 10
179.5571635267007
 20
121.1663584032198
 30
0.0
 10
179.5531062245856
 20
121.2816744784093
 30
0.0
 10
179.5274489817908
 20
121.4565975682368
 30
0.0
 10
179.5161335360487
 20
121.5164268712317
 30
0.0
 10
179.4821021687401
 20
121.6010180574799
 30
0.0
 10
179.4682231875362
 20
121.629687643624
 30
0.0
 10
179.4322875057689
 20
121.6594954305703
 30
0.0
 10
179.4173371865061
 20
121.6658305839299
 30
0.0
 10
179.3874386737643
 20
121.6646051210596
 30
0.0
 10
179.373905813399
 20
121.6580065350248
 30
0.0
 10
179.362186637825
 20
121.6493588469684
 30
0.0
  0
SPLINE
  5
74
330
1F
100
AcDbEntity
  8
0
  6
Continuous
 62
     7
370
    15
100
AcDbSpline
210
0.0
220
0.0
230
1.0
 70
     8
 71
     3
 72
    14
 73
    10
 74
     0
 42
0.00000001
 43
0.00000001
 12
1.0
 22
0.0
 32
0.0
 13
1.0
 23
0.0
 33
0.0
 40
0.0
 40
0.0
 40
0.0
 40
0.0
 40
0.25
 40
0.25
 40
0.5
 40
0.5
 40
0.75
 40
0.75
 40
1.0
 40
1.0
 40
1.0
 40
1.0
 10
179.3621866378319
 20
121.6493588469597
 30
0.0
 10
179.3057269719481
 20
121.6076967372609
 30
0.0
 10
179.2348544970859
 20
121.5768632566727
 30
0.0
 10
179.086388139204
 20
121.5825777652859
 30
0.0
 10
179.0171929359962
 20
121.6181486927188
 30
0.0
 10
178.9074757499266
 20
121.7050926051927
 30
0.0
 10
178.8622298609947
 20
121.7575249185578
 30
0.0
 10
178.7826127300278
 20
121.8660780000763
 30
0.0
 10
178.7480101105709
 20
121.9230610863188
 30
0.0
 10
178.7163024985721
 20
121.9816271689767
 30
0.0
  0
SPLINE
  5
75
330
1F
100
AcDbEntity
  8
0
  6
Continuous
 62
     7
370
    15
100
AcDbSpline
210
0.0
220
0.0
230
1.0
 70
     8
 71
     3
 72
    10
 73
     6
 74
     0
 42
0.00000001
 43
0.00000001
 12
1.0
 22
0.0
 32
0.0
 13
1.0
 23
0.0
 33
0.0
 40
0.0
 40
0.0
 40
0.0
 40
0.0
 40
0.5
 40
0.5
 40
1.0
 40
1.0
 40
1.0
 40
1.0
 10
178.4358431831411
 20
122.8344457606229
 30
0.0
 10
178.466721766753
 20
122.6848172087633
 30
0.0
 10
178.5027144744764
 20
122.5383217912397
 30
0.0
 10
178.5920547259735
 20
122.2531301526989
 30
0.0
 10
178.6445130288191
 20
122.114227126983
 30
0.0
 10
178.7163024985722
 20
121.9816271689765
 30
0.0
  0
SPLINE
  5
76
330
1F
100
AcDbEntity
  8
0
  6
Continuous
 62
     7
370
    15
100
AcDbSpline
210
0.0
220
0.0
230
1.0
 70
     8
 71
     3
 72
    10
 73
     6
 74
     0
 42
0.00000001
 43
0.00000001
 12
1.0
 22
0.0
 32
0.0
 13
1.0
 23
0.0
 33
0.0
 40
0.0
 40
0.0
 40
0.0
 40
0.0
 40
0.5
 40
0.5
 40
1.0
 40
1.0
 40
1.0
 40
1.0
 10
178.7163024985715
 20
132.090990641213
 30
0.0
 10
178.6445130288186
 20
131.9583906832067
 30
0.0
 10
178.5920547259732
 20
131.8194876574909
 30
0.0
 10
178.5027144744762
 20
131.5342960189506
 30
0.0
 10
178.466721766753
 20
131.3878006014273
 30
0.0
 10
178.4358431831411
 20
131.2381720495678
 30
0.0
  0
SPLINE
  5
77
330
1F
100
AcDbEntity
  8
0
  6
Continuous
 62
     7
370
    15
100
AcDbSpline
210
0.0
220
0.0
230
1.0
 70
     8
 71
     3
 72
    14
 73
    10
 74
     0
 42
0.00000001
 43
0.00000001
 12
1.0
 22
0.0
 32
0.0
 13
1.0
 23
0.0
 33
0.0
 40
0.0
 40
0.0
 40
0.0
 40
0.0
 40
0.25
 40
0.25
 40
0.5
 40
0.5
 40
0.75
 40
0.75
 40
1.0
 40
1.0
 40
1.0
 40
1.0
 10
178.7163024985708
 20
132.0909906412118
 30
0.0
 10
178.7480111980562
 20
132.1495587325304
 30
0.0
 10
178.7826190166968
 20
132.2065529944704
 30
0.0
 10
178.8622774271861
 20
132.3151531292343
 30
0.0
 10
178.907339697081
 20
132.3674812646129
 30
0.0
 10
179.0179215426594
 20
132.4549822759752
 30
0.0
 10
179.0855656634747
 20
132.4900277322294
 30
0.0
 10
179.2358139538718
 20
132.4957721209855
 30
0.0
 10
179.3057663521021
 20
132.4648920139355
 30
0.0
 10
179.3621866378257
 20
132.4232589632224
 30
0.0
  0
SPLINE
  5
78
330
1F
100
AcDbEntity
  8
0
  6
Continuous
 62
     7
370
    15
100
AcDbSpline
210
0.0
220
0.0
230
1.0
 70
     8
 71
     3
 72
    16
 73
    12
 74
     0
 42
0.00000001
 43
0.00000001
 12
1.0
 22
0.0
 32
0.0
 13
1.0
 23
0.0
 33
0.0
 40
0.0
 40
0.0
 40
0.0
 40
0.0
 40
0.0625000000000001
 40
0.0625000000000001
 40
0.1250000000000001
 40
0.1250000000000001
 40
0.2499999999999987
 40
0.2499999999999987
 40
0.4999999999999991
 40
0.4999999999999991
 40
1.0
 40
1.0
 40
1.0
 40
1.0
 10
179.3621866377938
 20
132.423258963169
 30
0.0
 10
179.3739208722407
 20
132.4146001630247
 30
0.0
 10
179.3874526277197
 20
132.4079960777894
 30
0.0
 10
179.4174400881495
 20
132.4067991106153
 30
0.0
 10
179.4324347945578
 20
132.4132208576812
 30
0.0
 10
179.4681752169525
 20
132.4429380110905
 30
0.0
 10
179.4821885539538
 20
132.4717454084739
 30
0.0
 10
179.5163326427351
 20
132.5568251300998
 30
0.0
 10
179.5273045468535
 20
132.6152000793695
 30
0.0
 10
179.5531500871198
 20
132.7909156041581
 30
0.0
 10
179.5571635267007
 20
132.9067106120226
 30
0.0
 10
179.5571635267007
 20
133.02078913767
 30
0.0
  0
LINE
  5
79
330
1F
100
AcDbEntity
  8
0
  6
Continuous
 62
     7
370
    15
100
AcDbLine
 10
179.5571635267
 20
144.876129184
 30
0.0
 11
179.5571635267
 21
133.0207891377
 31
0.0
  0
SPLINE
  5
7A
330
1F
100
AcDbEntity
  8
0
  6
Continuous
 62
     7
370
    15
100
AcDbSpline
210
0.0
220
0.0
230
1.0
 70
     8
 71
     3
 72
    16
 73
    12
 74
     0
 42
0.00000001
 43
0.00000001
 12
1.0
 22
0.0
 32
0.0
 13
1.0
 23
0.0
 33
0.0
 40
0.0
 40
0.0
 40
0.0
 40
0.0
 40
0.5000000000000038
 40
0.5000000000000038
 40
0.7500000000000047
 40
0.7500000000000047
 40
0.8750000000000027
 40
0.8750000000000027
 40
0.9375000000000014
 40
0.9375000000000014
 40
1.0
 40
1.0
 40
1.0
 40
1.0
 10
179.5571635267008
 20
144.583063370763
 30
0.0
 10
179.5571635267005
 20
144.5610483561836
 30
0.0
 10
179.5530389838466
 20
144.5356947214799
 30
0.0
 10
179.5271225382135
 20
144.4885342192914
 30
0.0
 10
179.5158449571937
 20
144.4713352310626
 30
0.0
 10
179.4821095786523
 20
144.4413572654934
 30
0.0
 10
179.4677207634079
 20
144.4300058569515
 30
0.0
 10
179.4324740739688
 20
144.4133179974741
 30
0.0
 10
179.4172686495119
 20
144.4077549705888
 30
0.0
 10
179.3876220703426
 20
144.4007853875536
 30
0.0
 10
179.3739167343452
 20
144.3992720464983
 30
0.0
 10
179.3621866378214
 20
144.3988205926484
 30
0.0
  0
SPLINE
  5
7B
330
1F
100
AcDbEntity
  8
0
  6
Continuous
 62
     7
370
    15
100
AcDbSpline
210
0.0
220
0.0
230
1.0
 70
     8
 71
     3
 72
    14
 73
    10
 74
     0
 42
0.00000001
 43
0.00000001
 12
1.0
 22
0.0
 32
0.0
 13
1.0
 23
0.0
 33
0.0
 40
0.0
 40
0.0
 40
0.0
 40
0.0
 40
0.25
 40
0.25
 40
0.5
 40
0.5
 40
0.75
 40
0.75
 40
1.0
 40
1.0
 40
1.0
 40
1.0
 10
179.3621866378319
 20
144.3988205926509
 30
0.0
 10
179.3057395557736
 20
144.3966481252317
 30
0.0
 10
179.2348891717308
 20
144.3941500273142
 30
0.0
 10
179.0864527369144
 20
144.390503568526
 30
0.0
 10
179.0172634852275
 20
144.3895358216747
 30
0.0
 10
178.9075519369866
 20
144.388268262312
 30
0.0
 10
178.8623102876442
 20
144.3878654213837
 30
0.0
 10
178.7826622694603
 20
144.3868543864561
 30
0.0
 10
178.7480353536943
 20
144.3862634260615
 30
0.0
 10
178.716302498573
 20
144.385466186288
 30
0.0
  0
SPLINE
  5
7C
330
1F
100
AcDbEntity
  8
0
  6
Continuous
 62
     7
370
    15
100
AcDbSpline
210
0.0
220
0.0
230
1.0
 70
     8
 71
     3
 72
    18
 73
    14
 74
     0
 42
0.00000001
 43
0.00000001
 12
1.0
 22
0.0
 32
0.0
 13
1.0
 23
0.0
 33
0.0
 40
0.0
 40
0.0
 40
0.0
 40
0.0
 40
0.2499999999999998
 40
0.2499999999999998
 40
0.3749999999999998
 40
0.3749999999999998
 40
0.4999999999999999
 40
0.4999999999999999
 40
0.625
 40
0.625
 40
0.7500000000000001
 40
0.7500000000000001
 40
1.0
 40
1.0
 40
1.0
 40
1.0
 10
178.4358431831411
 20
131.2381720495679
 30
0.0
 10
178.3005575768387
 20
130.5826177141466
 30
0.0
 10
178.1993898305957
 20
129.902996620349
 30
0.0
 10
178.0965284877268
 20
128.847632613855
 30
0.0
 10
178.0704256422035
 20
128.4888185492703
 30
0.0
 10
178.0355356586587
 20
127.7627056051474
 30
0.0
 10
178.0269494003687
 20
127.4006159261313
 30
0.0
 10
178.0268496908031
 20
126.6783062687129
 30
0.0
 10
178.0353380619516
 20
126.3180864666045
 30
0.0
 10
178.0694814414722
 20
125.5995203975105
 30
0.0
 10
178.095278423326
 20
125.2397546815951
 30
0.0
 10
178.198679554714
 20
124.1731100946008
 30
0.0
 10
178.3005375468853
 20
123.4900971553184
 30
0.0
 10
178.4358431831411
 20
122.8344457606229
 30
0.0
  0
LINE
  5
7D
330
1F
100
AcDbEntity
  8
0
  6
Continuous
 62
     7
370
    15
100
AcDbLine
 10
177.5571635267
 20
132.1764613929
 30
0.0
 11
177.5571635267
 21
121.8961564173
 31
0.0
  0
LINE
  5
7E
330
1F
100
AcDbEntity
  8
0
  6
Continuous
 62
     7
370
    15
100
AcDbLine
 10
151.2571635267
 20
131.8460876216
 30
0.0
 11
151.2571635267
 21
122.2265301886
 31
0.0
  0
LINE
  5
7F
330
1F
100
AcDbEntity
  8
0
  6
Continuous
 62
     7
370
    15
100
AcDbLine
 10
149.7571635267
 20
131.4130749197
 30
0.0
 11
149.7571635267
 21
122.6595428905
 31
0.0
  0
LINE
  5
80
330
1F
100
AcDbEntity
  8
0
  6
Continuous
 62
     7
370
    15
100
AcDbLine
 10
151.2571635267
 20
131.8460876216
 30
0.0
 11
151.2571635267
 21
143.895660147
 31
0.0
  0
LINE
  5
81
330
1F
100
AcDbEntity
  8
0
  6
Continuous
 62
     7
370
    15
100
AcDbLine
 10
151.2571635267
 20
143.895660147
 30
0.0
 11
177.5571635267
 21
144.5564076897
 31
0.0
  0
LINE
  5
82
330
1F
100
AcDbEntity
  8
0
  6
Continuous
 62
     7
370
    15
100
AcDbLine
 10
177.5571635267
 20
132.1764613929
 30
0.0
 11
177.5571635267
 21
144.5564076897
 31
0.0
  0
ARC
  5
83
330
1F
100
AcDbEntity
  8
0
  6
Continuous
 62
     7
370
    15
100
AcDbCircle
 10
177.7571004376
 20
144.5614308008
 30
0.0
 40
0.2000000000000066
100
AcDbArc
 50
181.4391666667
 51
271.4391666667
  0
LINE
  5
84
330
1F
100
AcDbEntity
  8
0
  6
Continuous
 62
     7
370
    15
100
AcDbLine
 10
177.5571635267
 20
109.5162101205
 30
0.0
 11
177.5571635267
 21
121.8961564173
 31
0.0
  0
ARC
  5
85
330
1F
100
AcDbEntity
  8
0
  6
Continuous
 62
     7
370
    15
100
AcDbCircle
 10
177.7571004376
 20
109.5111870094
 30
0.0
 40
0.1999999999999924
100
AcDbArc
 50
88.5608333333
 51
178.5608333333
  0
LINE
  5
86
330
1F
100
AcDbEntity
  8
0
  6
Continuous
 62
     7
370
    15
100
AcDbLine
 10
151.2571635267
 20
110.1769576631
 30
0.0
 11
151.2571635267
 21
122.2265301886
 31
0.0
  0
LINE
  5
87
330
1F
100
AcDbEntity
  8
0
  6
Continuous
 62
     7
370
    15
100
AcDbLine
 10
151.2571635267
 20
110.1769576631
 30
0.0
 11
177.5571635267
 21
109.5162101205
 31
0.0
  0
LINE
  5
88
330
1F
100
AcDbEntity
  8
0
  6
Continuous
 62
     7
370
    15
100
AcDbLine
 10
177.7621235488
 20
109.7111239203
 30
0.0
 11
178.7163024986
 21
109.6871516239
 31
0.0
  0
LINE
  5
89
330
1F
100
AcDbEntity
  8
0
  6
Continuous
 62
     7
370
    15
100
AcDbLine
 10
177.7621235488
 20
144.3614938899
 30
0.0
 11
178.7163024986
 21
144.3854661863
 31
0.0
  0
LINE
  5
8A
330
1F
100
AcDbEntity
  8
0
  6
Continuous
 62
     7
370
    15
100
AcDbLine
 10
149.7571635267
 20
143.0296347433
 30
0.0
 11
151.2571635267
 21
143.895660147
 31
0.0
  0
LINE
  5
8B
330
1F
100
AcDbEntity
  8
0
  6
Continuous
 62
     7
370
    15
100
AcDbLine
 10
149.7571635267
 20
131.4130749197
 30
0.0
 11
149.7571635267
 21
143.0296347433
 31
0.0
  0
LINE
  5
8C
330
1F
100
AcDbEntity
  8
0
  6
Continuous
 62
     7
370
    15
100
AcDbLine
 10
149.7571635267
 20
111.0429830669
 30
0.0
 11
151.2571635267
 21
110.1769576631
 31
0.0
  0
LINE
  5
8D
330
1F
100
AcDbEntity
  8
0
  6
Continuous
 62
     7
370
    15
100
AcDbLine
 10
149.7571635267
 20
111.0429830669
 30
0.0
 11
149.7571635267
 21
122.6595428905
 31
0.0
  0
SPLINE
  5
8E
330
1F
100
AcDbEntity
  8
0
  6
Continuous
 62
     7
370
    15
100
AcDbSpline
210
0.0
220
0.0
230
1.0
 70
     8
 71
     3
 72
     8
 73
     4
 74
     0
 42
0.00000001
 43
0.00000001
 12
1.0
 22
0.0
 32
0.0
 13
1.0
 23
0.0
 33
0.0
 40
0.0
 40
0.0
 40
0.0
 40
0.0
 40
1.0
 40
1.0
 40
1.0
 40
1.0
 10
212.0591444906433
 20
152.0369137007907
 30
0.0
 10
212.0361483495124
 20
152.0353159284589
 30
0.0
 10
212.0130464435042
 20
152.0345120171009
 30
0.0
 10
211.9898365387217
 20
152.0345184366239
 30
0.0
  0
SPLINE
  5
8F
330
1F
100
AcDbEntity
  8
0
  6
Continuous
 62
     7
370
    15
100
AcDbSpline
210
0.0
220
0.0
230
1.0
 70
     8
 71
     3
 72
     8
 73
     4
 74
     0
 42
0.00000001
 43
0.00000001
 12
1.0
 22
0.0
 32
0.0
 13
1.0
 23
0.0
 33
0.0
 40
0.0
 40
0.0
 40
0.0
 40
0.0
 40
1.0
 40
1.0
 40
1.0
 40
1.0
 10
211.9898365387217
 20
102.0380993735669
 30
0.0
 10
212.0128569607106
 20
102.0381057406817
 30
0.0
 10
212.0360941272798
 20
102.0373056490936
 30
0.0
 10
212.0591444906376
 20
102.0357041094005
 30
0.0
  0
ELLIPSE
  5
90
330
1F
100
AcDbEntity
  8
0
  6
Continuous
 62
     7
370
    15
100
AcDbEllipse
 10
206.4691355896
 20
75.1863882622
 30
0.0
 11
-1.563194018672221E-12
 21
26.19525546193007
 31
0.0
210
-7.265021917390868E-15
220
-4.335380055099196E-28
230
1.0
 40
0.9925461516
 41
5.979891802486593
 42
6.022511401144348
  0
LINE
  5
91
330
1F
100
AcDbEntity
  8
0
  6
Continuous
 62
     7
370
    15
100
AcDbLine
 10
212.8558619425
 20
152.5345441381
 30
0.0
 11
220.5797002681
 21
152.5345441381
 31
0.0
  0
LINE
  5
92
330
1F
100
AcDbEntity
  8
0
  6
Continuous
 62
     7
370
    15
100
AcDbLine
 10
236.1977928369
 20
103.0002829241
 30
0.0
 11
220.5797002681
 21
152.5345441381
 31
0.0
  0
LINE
  5
93
330
1F
100
AcDbEntity
  8
0
  6
Continuous
 62
     7
370
    15
100
AcDbLine
 10
228.2614374866
 20
107.4905658413
 30
0.0
 11
228.9574296658
 21
105.283160663
 31
0.0
  0
ARC
  5
94
330
1F
100
AcDbEntity
  8
0
  6
Continuous
 62
     7
370
    15
100
AcDbCircle
 10
226.8151805722
 20
107.0345627878
 30
0.0
 40
1.516442497159264
100
AcDbArc
 50
17.5
 51
197.5
  0
LINE
  5
95
330
1F
100
AcDbEntity
  8
0
  6
Continuous
 62
     7
370
    15
100
AcDbLine
 10
225.5988569908
 20
105.8493043706
 30
0.0
 11
225.3689236578
 21
106.5785597343
 31
0.0
  0
LINE
  5
96
330
1F
100
AcDbEntity
  8
0
  6
Continuous
 62
     7
370
    15
100
AcDbLine
 10
228.7931895077
 20
95.5956795949
 30
0.0
 11
214.2344256782
 21
100.1860401979
 31
0.0
  0
LINE
  5
97
330
1F
100
AcDbEntity
  8
0
  6
Continuous
 62
     7
370
    15
100
AcDbLine
 10
212.955762365
 20
101.2968761811
 30
0.0
 11
213.1701610767
 21
100.4966765881
 31
0.0
  0
SPLINE
  5
98
330
1F
100
AcDbEntity
  8
0
  6
Continuous
 62
     7
370
    15
100
AcDbSpline
210
0.0
220
0.0
230
1.0
 70
     8
 71
     3
 72
    12
 73
     8
 74
     0
 42
0.00000001
 43
0.00000001
 12
1.0
 22
0.0
 32
0.0
 13
1.0
 23
0.0
 33
0.0
 40
0.0
 40
0.0
 40
0.0
 40
0.0
 40
0.25
 40
0.25
 40
0.5
 40
0.5
 40
1.0
 40
1.0
 40
1.0
 40
1.0
 10
212.0591444906376
 20
102.0357041094005
 30
0.0
 10
212.1622169286906
 20
102.0285426344058
 30
0.0
 10
212.2653155432972
 20
102.0049753081299
 30
0.0
 10
212.4575950220527
 20
101.9280032102211
 30
0.0
 10
212.5463551695924
 20
101.8754122196715
 30
0.0
 10
212.7868692594029
 20
101.6768130805588
 30
0.0
 10
212.902175477514
 20
101.4968787511826
 30
0.0
 10
212.9557623650108
 20
101.296876181106
 30
0.0
  0
SPLINE
  5
99
330
1F
100
AcDbEntity
  8
0
  6
Continuous
 62
     7
370
    15
100
AcDbSpline
210
0.0
220
0.0
230
1.0
 70
     8
 71
     3
 72
    10
 73
     6
 74
     0
 42
0.00000001
 43
0.00000001
 12
1.0
 22
0.0
 32
0.0
 13
1.0
 23
0.0
 33
0.0
 40
0.0
 40
0.0
 40
0.0
 40
0.0
 40
0.5
 40
0.5
 40
1.0
 40
1.0
 40
1.0
 40
1.0
 10
212.8558619425064
 20
152.5345441381468
 30
0.0
 10
212.774839470595
 20
152.3941993874657
 30
0.0
 10
212.6564953185221
 20
152.2716876013063
 30
0.0
 10
212.3809307071232
 20
152.0999541119593
 30
0.0
 10
212.2214685807929
 20
152.048191981723
 30
0.0
 10
212.0591444906433
 20
152.0369137007907
 30
0.0
  0
LINE
  5
9A
330
1F
100
AcDbEntity
  8
0
  6
Continuous
 62
     7
370
    15
100
AcDbLine
 10
228.0073267606
 20
107.4104450371
 30
0.0
 11
228.6472177489
 21
105.3809701047
 31
0.0
  0
LINE
  5
9B
330
1F
100
AcDbEntity
  8
0
  6
Continuous
 62
     7
370
    15
100
AcDbLine
 10
225.6230343837
 20
106.6586805384
 30
0.0
 11
225.7864342747
 21
106.1404422937
 31
0.0
  0
ARC
  5
9C
330
1F
100
AcDbEntity
  8
0
  6
Continuous
 62
     7
370
    15
100
AcDbCircle
 10
226.8151805722
 20
107.0345627878
 30
0.0
 40
1.250000000000026
100
AcDbArc
 50
17.5
 51
197.5
  0
LINE
  5
9D
330
1F
100
AcDbEntity
  8
0
  6
Continuous
 62
     7
370
    15
100
AcDbLine
 10
229.1988779516
 20
95.639204044
 30
0.0
 11
228.8364655106
 21
95.5249358403
 31
0.0
  0
LINE
  5
9E
330
1F
100
AcDbEntity
  8
0
  6
Continuous
 62
     7
370
    15
100
AcDbLine
 10
225.6335703715
 20
105.6832214152
 30
0.0
 11
228.8364655106
 21
95.5249358403
 31
0.0
  0
LINE
  5
9F
330
1F
100
AcDbEntity
  8
0
  6
Continuous
 62
     7
370
    15
100
AcDbLine
 10
225.9959828127
 20
105.7974896191
 30
0.0
 11
225.6335703715
 21
105.6832214152
 31
0.0
  0
LINE
  5
A0
330
1F
100
AcDbEntity
  8
0
  6
Continuous
 62
     7
370
    15
100
AcDbLine
 10
227.4154699443
 20
104.3780024875
 30
0.0
 11
225.9959828127
 21
105.7974896191
 31
0.0
  0
LINE
  5
A1
330
1F
100
AcDbEntity
  8
0
  6
Continuous
 62
     7
370
    15
100
AcDbLine
 10
229.3746385282
 20
95.8149646206
 30
0.0
 11
229.1988779516
 21
95.639204044
 31
0.0
  0
SPLINE
  5
A2
330
1F
100
AcDbEntity
  8
0
  6
Continuous
 62
     7
370
    15
100
AcDbSpline
210
0.0
220
0.0
230
1.0
 70
    24
 71
     3
 72
    11
 73
     7
 74
     0
 42
0.00000001
 43
0.00000001
 12
1.0
 22
0.0
 32
0.0
 13
1.0
 23
0.0
 33
0.0
 40
0.0
 40
0.0
 40
0.0
 40
0.0
 40
0.3277695037501848
 40
0.655150956890945
 40
0.990786190160978
 40
0.9999999999999999
 40
0.9999999999999999
 40
0.9999999999999999
 40
0.9999999999999999
 10
229.3746385282123
 20
95.81496462056457
 30
0.0
 10
229.4271979284709
 20
95.86752402082323
 30
0.0
 10
229.5322545032257
 20
95.97258059557804
 30
0.0
 10
229.7054831228248
 20
96.14580921517693
 30
0.0
 10
229.8147402610979
 20
96.25506635345033
 30
0.0
 10
229.865737470787
 20
96.30606356313928
 30
0.0
 10
229.8671000339195
 20
96.30742612627172
 30
0.0
  0
LINE
  5
A3
330
1F
100
AcDbEntity
  8
0
  6
Continuous
 62
     7
370
    15
100
AcDbLine
 10
236.1542683878
 20
102.5945944802
 30
0.0
 11
236.5166808291
 21
102.708862684
 31
0.0
  0
LINE
  5
A4
330
1F
100
AcDbEntity
  8
0
  6
Continuous
 62
     7
370
    15
100
AcDbLine
 10
239.719575968
 20
92.5505771089
 30
0.0
 11
236.5166808291
 21
102.708862684
 31
0.0
  0
LINE
  5
A5
330
1F
100
AcDbEntity
  8
0
  6
Continuous
 62
     7
370
    15
100
AcDbLine
 10
239.3571635267
 20
92.4363089051
 30
0.0
 11
239.719575968
 21
92.5505771089
 31
0.0
  0
LINE
  5
A6
330
1F
100
AcDbEntity
  8
0
  6
Continuous
 62
     7
370
    15
100
AcDbLine
 10
237.9376763951
 20
93.8557960367
 30
0.0
 11
239.3571635267
 21
92.4363089051
 31
0.0
  0
LINE
  5
A7
330
1F
100
AcDbEntity
  8
0
  6
Continuous
 62
     7
370
    15
100
AcDbLine
 10
235.9785078112
 20
102.4188339036
 30
0.0
 11
236.1542683878
 21
102.5945944802
 31
0.0
  0
SPLINE
  5
A8
330
1F
100
AcDbEntity
  8
0
  6
Continuous
 62
     7
370
    15
100
AcDbSpline
210
0.0
220
0.0
230
1.0
 70
    24
 71
     3
 72
    11
 73
     7
 74
     0
 42
0.00000001
 43
0.00000001
 12
1.0
 22
0.0
 32
0.0
 13
1.0
 23
0.0
 33
0.0
 40
0.0
 40
0.0
 40
0.0
 40
0.0
 40
0.0092138098390354
 40
0.344849043110978
 40
0.6722304962507429
 40
1.0
 40
1.0
 40
1.0
 40
1.0
 10
235.4860463055245
 20
101.9263723978768
 30
0.0
 10
235.487408868657
 20
101.9277349610092
 30
0.0
 10
235.5384060783467
 20
101.9787321706985
 30
0.0
 10
235.6476632166201
 20
102.0879893089726
 30
0.0
 10
235.8208918362198
 20
102.2612179285719
 30
0.0
 10
235.9259484109744
 20
102.3662745033266
 30
0.0
 10
235.978507811233
 20
102.4188339035852
 30
0.0
  0
LINE
  5
A9
330
1F
100
AcDbEntity
  8
0
  6
Continuous
 62
     7
370
    15
100
AcDbLine
 10
225.6118825459
 20
105.6854962196
 30
0.0
 11
228.8178593814
 21
95.5174367515
 31
0.0
  0
LINE
  5
AA
330
1F
100
AcDbEntity
  8
0
  6
Continuous
 62
     7
370
    15
100
AcDbLine
 10
236.2760356803
 20
102.9756130504
 30
0.0
 11
226.1079762122
 21
106.1815898859
 31
0.0
  0
LINE
  5
AB
330
1F
100
AcDbEntity
  8
0
  6
Continuous
 62
     7
370
    15
100
AcDbLine
 10
239.7412637936
 20
92.5483023045
 30
0.0
 11
236.535286958
 21
102.7163617726
 31
0.0
  0
LINE
  5
AC
330
1F
100
AcDbEntity
  8
0
  6
Continuous
 62
     7
370
    15
100
AcDbLine
 10
229.0771106592
 20
95.2581854738
 30
0.0
 11
239.2451701273
 21
92.0522086382
 31
0.0
  0
ARC
  5
AD
330
1F
100
AcDbEntity
  8
0
  6
Continuous
 62
     7
370
    15
100
AcDbCircle
 10
225.9959828127
 20
105.7974896191
 30
0.0
 40
0.3799999999999971
100
AcDbArc
 50
72.5
 51
197.5
  0
ARC
  5
AE
330
1F
100
AcDbEntity
  8
0
  6
Continuous
 62
     7
370
    15
100
AcDbCircle
 10
229.1988779516
 20
95.639204044
 30
0.0
 40
0.3800000000000106
100
AcDbArc
 50
197.5
 51
252.5
  0
LINE
  5
AF
330
1F
100
AcDbEntity
  8
0
  6
Continuous
 62
     7
370
    15
100
AcDbLine
 10
229.0846097478
 20
95.2767916027
 30
0.0
 11
239.2428953229
 21
92.0738964638
 31
0.0
  0
ARC
  5
B0
330
1F
100
AcDbEntity
  8
0
  6
Continuous
 62
     7
370
    15
100
AcDbCircle
 10
239.3571635267
 20
92.4363089051
 30
0.0
 40
0.3800000000000142
100
AcDbArc
 50
252.5
 51
17.5
  0
ARC
  5
B1
330
1F
100
AcDbEntity
  8
0
  6
Continuous
 62
     7
370
    15
100
AcDbCircle
 10
236.1542683878
 20
102.5945944802
 30
0.0
 40
0.3800000000000021
100
AcDbArc
 50
17.5
 51
72.5
  0
LINE
  5
B2
330
1F
100
AcDbEntity
  8
0
  6
Continuous
 62
     7
370
    15
100
AcDbLine
 10
236.2685365916
 20
102.9570069214
 30
0.0
 11
226.1102510166
 21
106.1599020603
 31
0.0
  0
SPLINE
  5
B3
330
1F
100
AcDbEntity
  8
0
  6
Continuous
 62
     7
370
    15
100
AcDbSpline
210
0.0
220
0.0
230
1.0
 70
     8
 71
     3
 72
    10
 73
     6
 74
     0
 42
0.00000001
 43
0.00000001
 12
1.0
 22
0.0
 32
0.0
 13
1.0
 23
0.0
 33
0.0
 40
0.0
 40
0.0
 40
0.0
 40
0.0
 40
0.3518022785810018
 40
0.7034245935032044
 40
1.0
 40
1.0
 40
1.0
 40
1.0
 10
228.8178593814351
 20
95.51743675150975
 30
0.0
 10
228.8355290199453
 20
95.47626269396748
 30
0.0
 10
228.8708592581021
 20
95.39393564137882
 30
0.0
 10
228.9661834844001
 20
95.30387195163497
 30
0.0
 10
229.0422893131929
 20
95.2725269969941
 30
0.0
 10
229.0771106591574
 20
95.25818547378745
 30
0.0
  0
SPLINE
  5
B4
330
1F
100
AcDbEntity
  8
0
  6
Continuous
 62
     7
370
    15
100
AcDbSpline
210
0.0
220
0.0
230
1.0
 70
     8
 71
     3
 72
    10
 73
     6
 74
     0
 42
0.00000001
 43
0.00000001
 12
1.0
 22
0.0
 32
0.0
 13
1.0
 23
0.0
 33
0.0
 40
0.0
 40
0.0
 40
0.0
 40
0.0
 40
0.3518022785810614
 40
0.7034245935032841
 40
1.0
 40
1.0
 40
1.0
 40
1.0
 10
236.5352869580088
 20
102.7163617726387
 30
0.0
 10
236.5176173194987
 20
102.757535830181
 30
0.0
 10
236.482287081342
 20
102.8398628827697
 30
0.0
 10
236.3869628550437
 20
102.9299265725135
 30
0.0
 10
236.310857026251
 20
102.9612715271544
 30
0.0
 10
236.2760356802865
 20
102.975613050361
 30
0.0
  0
SPLINE
  5
B5
330
1F
100
AcDbEntity
  8
0
  6
Continuous
 62
     7
370
    15
100
AcDbSpline
210
0.0
220
0.0
230
1.0
 70
     8
 71
     3
 72
    14
 73
    10
 74
     0
 42
0.00000001
 43
0.00000001
 12
1.0
 22
0.0
 32
0.0
 13
1.0
 23
0.0
 33
0.0
 40
0.0
 40
0.0
 40
0.0
 40
0.0
 40
0.1588501103507687
 40
0.3173321153185021
 40
0.4720153553660711
 40
0.6236441635915465
 40
0.7746618341644267
 40
0.927741776110802
 40
1.0
 40
1.0
 40
1.0
 40
1.0
 10
226.1079762121576
 20
106.1815898859116
 30
0.0
 10
226.0628797823214
 20
106.1911211297928
 30
0.0
 10
225.9727914251801
 20
106.2101615306823
 30
0.0
 10
225.8364505083895
 20
106.1796642123942
 30
0.0
 10
225.7205161807521
 20
106.1091021060284
 30
0.0
 10
225.6363534961835
 20
106.0045027467801
 30
0.0
 10
225.5921484400214
 20
105.8789845496465
 30
0.0
 10
225.5898997549975
 20
105.7682801613427
 30
0.0
 10
225.6065449897836
 20
105.7055966670924
 30
0.0
 10
225.6118825458847
 20
105.6854962196387
 30
0.0
  0
SPLINE
  5
B6
330
1F
100
AcDbEntity
  8
0
  6
Continuous
 62
     7
370
    15
100
AcDbSpline
210
0.0
220
0.0
230
1.0
 70
     8
 71
     3
 72
    14
 73
    10
 74
     0
 42
0.00000001
 43
0.00000001
 12
1.0
 22
0.0
 32
0.0
 13
1.0
 23
0.0
 33
0.0
 40
0.0
 40
0.0
 40
0.0
 40
0.0
 40
0.1588501103507861
 40
0.3173321153185044
 40
0.4720153553660807
 40
0.6236441635915732
 40
0.7746618341644276
 40
0.9277417761107785
 40
1.0
 40
1.0
 40
1.0
 40
1.0
 10
239.2451701272864
 20
92.05220863823685
 30
0.0
 10
239.2902665571225
 20
92.0426773943557
 30
0.0
 10
239.3803549142638
 20
92.02363699346618
 30
0.0
 10
239.5166958310545
 20
92.05413431175427
 30
0.0
 10
239.6326301586919
 20
92.12469641812007
 30
0.0
 10
239.7167928432605
 20
92.2292957773683
 30
0.0
 10
239.7609978994224
 20
92.35481397450197
 30
0.0
 10
239.7632465844464
 20
92.46551836280581
 30
0.0
 10
239.7466013496604
 20
92.52820185705608
 30
0.0
 10
239.7412637935593
 20
92.54830230450978
 30
0.0
  0
LINE
  5
B7
330
1F
100
AcDbEntity
  8
0
  6
Continuous
 62
     7
370
    15
100
AcDbLine
 10
239.3571635267
 20
92.4363089051
 30
0.0
 11
239.2428953229
 21
92.0738964638
 31
0.0
  0
LINE
  5
B8
330
1F
100
AcDbEntity
  8
0
  6
Continuous
 62
     7
370
    15
100
AcDbLine
 10
229.1988779516
 20
95.639204044
 30
0.0
 11
229.0846097478
 21
95.2767916027
 31
0.0
  0
LINE
  5
B9
330
1F
100
AcDbEntity
  8
0
  6
Continuous
 62
     7
370
    15
100
AcDbLine
 10
236.9112448115
 20
96.1366503705
 30
0.0
 11
235.338247027
 21
101.1255619681
 31
0.0
  0
ARC
  5
BA
330
1F
100
AcDbEntity
  8
0
  6
Continuous
 62
     7
370
    15
100
AcDbCircle
 10
235.9575278608
 20
95.835944571
 30
0.0
 40
1.000000000000075
100
AcDbArc
 50
252.5
 51
17.5
  0
LINE
  5
BB
330
1F
100
AcDbEntity
  8
0
  6
Continuous
 62
     7
370
    15
100
AcDbLine
 10
230.6679104637
 20
96.4552254048
 30
0.0
 11
235.6568220613
 21
94.8822276202
 31
0.0
  0
ARC
  5
BC
330
1F
100
AcDbEntity
  8
0
  6
Continuous
 62
     7
370
    15
100
AcDbCircle
 10
230.9686162632
 20
97.4089423555
 30
0.0
 40
0.9999999999999621
100
AcDbArc
 50
197.5
 51
252.5
  0
LINE
  5
BD
330
1F
100
AcDbEntity
  8
0
  6
Continuous
 62
     7
370
    15
100
AcDbLine
 10
228.4419015279
 20
102.0971481536
 30
0.0
 11
230.0148993124
 21
97.108236556
 31
0.0
  0
ARC
  5
BE
330
1F
100
AcDbEntity
  8
0
  6
Continuous
 62
     7
370
    15
100
AcDbCircle
 10
229.3956184786
 20
102.3978539532
 30
0.0
 40
1.000000000295409
100
AcDbArc
 50
72.5
 51
197.5
  0
LINE
  5
BF
330
1F
100
AcDbEntity
  8
0
  6
Continuous
 62
     7
370
    15
100
AcDbLine
 10
234.6852358758
 20
101.7785731194
 30
0.0
 11
229.6963242782
 21
103.3515709042
 31
0.0
  0
ARC
  5
C0
330
1F
100
AcDbEntity
  8
0
  6
Continuous
 62
     7
370
    15
100
AcDbCircle
 10
234.3845300763
 20
100.8248561686
 30
0.0
 40
1.000000000000038
100
AcDbArc
 50
17.5
 51
72.5
  0
CIRCLE
  5
C1
330
1F
100
AcDbEntity
  8
0
  6
Continuous
 62
     7
370
    15
100
AcDbCircle
 10
232.6765731697
 20
99.1168992621
 30
0.0
 40
3.049999999999998
  0
LINE
  5
C2
330
1F
100
AcDbEntity
  8
0
  6
Continuous
 62
     7
370
    15
100
AcDbLine
 10
236.1542683878
 20
102.5945944802
 30
0.0
 11
236.2685365916
 21
102.9570069214
 31
0.0
  0
LINE
  5
C3
330
1F
100
AcDbEntity
  8
0
  6
Continuous
 62
     7
370
    15
100
AcDbLine
 10
225.9959828127
 20
105.7974896191
 30
0.0
 11
226.1102510166
 21
106.1599020603
 31
0.0
  0
SPLINE
  5
C4
330
1F
100
AcDbEntity
  8
0
  6
Continuous
 62
     7
370
    15
100
AcDbSpline
210
0.0
220
0.0
230
1.0
 70
    24
 71
     3
 72
    11
 73
     7
 74
     0
 42
0.00000001
 43
0.00000001
 12
1.0
 22
0.0
 32
0.0
 13
1.0
 23
0.0
 33
0.0
 40
0.0
 40
0.0
 40
0.0
 40
0.0
 40
0.412570167161307
 40
0.873153790391026
 40
0.9927012761302699
 40
1.0
 40
1.0
 40
1.0
 40
1.0
 10
237.9376763951174
 20
93.8557960366787
 30
0.0
 10
237.8684997136524
 20
93.92497271814374
 30
0.0
 10
237.7220958133328
 20
94.0713766184632
 30
0.0
 10
237.5583029857374
 20
94.23516944605922
 30
0.0
 10
237.4710000177723
 20
94.32247241402365
 30
0.0
 10
237.4525664051256
 20
94.34090602667055
 30
0.0
 10
237.4515057360757
 20
94.34196669572047
 30
0.0
  0
SPLINE
  5
C5
330
1F
100
AcDbEntity
  8
0
  6
Continuous
 62
     7
370
    15
100
AcDbSpline
210
0.0
220
0.0
230
1.0
 70
    24
 71
     3
 72
    11
 73
     7
 74
     0
 42
0.00000001
 43
0.00000001
 12
1.0
 22
0.0
 32
0.0
 13
1.0
 23
0.0
 33
0.0
 40
0.0
 40
0.0
 40
0.0
 40
0.0
 40
0.0072987238691258
 40
0.1268462096078431
 40
0.5874298328382928
 40
0.9999999999999999
 40
0.9999999999999999
 40
0.9999999999999999
 40
0.9999999999999999
 10
227.901640603368
 20
103.8918318284282
 30
0.0
 10
227.9005799343182
 20
103.892892497478
 30
0.0
 10
227.8821463216709
 20
103.9113261101252
 30
0.0
 10
227.7948433537081
 20
103.9986290780884
 30
0.0
 10
227.6310505261107
 20
104.162421905685
 30
0.0
 10
227.484646625792
 20
104.3088258060049
 30
0.0
 10
227.4154699443273
 20
104.3780024874701
 30
0.0
  0
ARC
  5
C6
330
1F
100
AcDbEntity
  8
0
  6
Continuous
 62
     7
370
    15
100
AcDbCircle
 10
232.5858823225
 20
99.2075901093
 30
0.0
 40
1.675000000000032
100
AcDbArc
 50
321.8568829838
 51
20.456816111
  0
ARC
  5
C7
330
1F
100
AcDbEntity
  8
0
  6
Continuous
 62
     7
370
    15
100
AcDbCircle
 10
232.5858823225
 20
99.2075901093
 30
0.0
 40
1.675000000000032
100
AcDbArc
 50
20.456816111
 51
80.5636578458
  0
ARC
  5
C8
330
1F
100
AcDbEntity
  8
0
  6
Continuous
 62
     7
370
    15
100
AcDbCircle
 10
232.5858823225
 20
99.2075901093
 30
0.0
 40
1.675000000000001
100
AcDbArc
 50
80.5636578458
 51
139.163590973
  0
LINE
  5
C9
330
1F
100
AcDbEntity
  8
0
  6
Continuous
 62
     7
370
    15
100
AcDbLine
 10
231.264701422
 20
100.237204614
 30
0.0
 11
231.3186113553
 21
100.3028751388
 31
0.0
  0
ARC
  5
CA
330
1F
100
AcDbEntity
  8
0
  6
Continuous
 62
     7
370
    15
100
AcDbCircle
 10
232.5858823225
 20
99.2075901093
 30
0.0
 40
1.675000000000003
100
AcDbArc
 50
142.0702217449
 51
198.5139399112
  0
LINE
  5
CB
330
1F
100
AcDbEntity
  8
0
  6
Continuous
 62
     7
370
    15
100
AcDbLine
 10
231.0396516559
 20
98.5635437401
 30
0.0
 11
230.997569556
 21
98.6757183618
 31
0.0
  0
ARC
  5
CC
330
1F
100
AcDbEntity
  8
0
  6
Continuous
 62
     7
370
    15
100
AcDbCircle
 10
232.5858823225
 20
99.2075901093
 30
0.0
 40
1.674999999999985
100
AcDbArc
 50
202.6130318114
 51
258.4074421454
  0
LINE
  5
CD
330
1F
100
AcDbEntity
  8
0
  6
Continuous
 62
     7
370
    15
100
AcDbLine
 10
232.3674403358
 20
97.5468950445
 30
0.0
 11
232.2492899293
 21
97.5667578324
 31
0.0
  0
ARC
  5
CE
330
1F
100
AcDbEntity
  8
0
  6
Continuous
 62
     7
370
    15
100
AcDbCircle
 10
232.5858823225
 20
99.2075901093
 30
0.0
 40
1.674999999999991
100
AcDbArc
 50
262.5065340457
 51
318.950252212
  0
LINE
  5
CF
330
1F
100
AcDbEntity
  8
0
  6
Continuous
 62
     7
370
    15
100
AcDbLine
 10
233.9032203409
 20
98.1730633841
 30
0.0
 11
233.8490662601
 21
98.1075940458
 31
0.0
  0
CIRCLE
  5
D0
330
1F
100
AcDbEntity
  8
0
  6
Continuous
 62
     7
370
    15
100
AcDbCircle
 10
232.5858823225
 20
99.2075901093
 30
0.0
 40
1.800000000000006
  0
SPLINE
  5
D1
330
1F
100
AcDbEntity
  8
0
  6
Continuous
 62
     7
370
    15
100
AcDbSpline
210
0.0
220
0.0
230
1.0
 70
     8
 71
     3
 72
    11
 73
     7
 74
     0
 42
0.00000001
 43
0.00000001
 12
1.0
 22
0.0
 32
0.0
 13
1.0
 23
0.0
 33
0.0
 40
0.0
 40
0.0
 40
0.0
 40
0.0
 40
0.2669010467949745
 40
0.5546143410792372
 40
0.8439070439785711
 40
1.0
 40
1.0
 40
1.0
 40
1.0
 10
231.0396516558808
 20
98.56354374011418
 30
0.0
 10
231.0601729486588
 20
98.53534817860259
 30
0.0
 10
231.1028157311014
 20
98.47675843923325
 30
0.0
 10
231.1989117177488
 20
98.41978561726361
 30
0.0
 10
231.2925231590752
 20
98.3974251707932
 30
0.0
 10
231.3495847785959
 20
98.40162150603538
 30
0.0
 10
231.3695829906801
 20
98.40309218287308
 30
0.0
  0
SPLINE
  5
D2
330
1F
100
AcDbEntity
  8
0
  6
Continuous
 62
     7
370
    15
100
AcDbSpline
210
0.0
220
0.0
230
1.0
 70
     8
 71
     3
 72
    12
 73
     8
 74
     0
 42
0.00000001
 43
0.00000001
 12
1.0
 22
0.0
 32
0.0
 13
1.0
 23
0.0
 33
0.0
 40
0.0
 40
0.0
 40
0.0
 40
0.0
 40
0.2058401281337894
 40
0.4120619935510052
 40
0.6141387330969506
 40
0.8132772113524657
 40
1.0
 40
1.0
 40
1.0
 40
1.0
 10
231.3695829906801
 20
98.40309218287308
 30
0.0
 10
231.4351235008581
 20
98.40507309536959
 30
0.0
 10
231.5663260682445
 20
98.40903859402991
 30
0.0
 10
231.7525377910486
 20
98.3323027639344
 30
0.0
 10
231.9012893450298
 20
98.2041906808165
 30
0.0
 10
232.0009170103121
 20
98.0398468638086
 30
0.0
 10
232.0196584658991
 20
97.91860389547992
 30
0.0
 10
232.0287276758735
 20
97.8599330023583
 30
0.0
  0
SPLINE
  5
D3
330
1F
100
AcDbEntity
  8
0
  6
Continuous
 62
     7
370
    15
100
AcDbSpline
210
0.0
220
0.0
230
1.0
 70
     8
 71
     3
 72
    11
 73
     7
 74
     0
 42
0.00000001
 43
0.00000001
 12
1.0
 22
0.0
 32
0.0
 13
1.0
 23
0.0
 33
0.0
 40
0.0
 40
0.0
 40
0.0
 40
0.0
 40
0.2928993220619916
 40
0.5864344719078497
 40
0.8775178868033524
 40
1.0
 40
1.0
 40
1.0
 40
1.0
 10
232.0287276758735
 20
97.8599330023583
 30
0.0
 10
232.0348837697324
 20
97.82252939811069
 30
0.0
 10
232.0472093211395
 20
97.74764099362417
 30
0.0
 10
232.1119242861264
 20
97.65126196227237
 30
0.0
 10
232.1849463850336
 20
97.59315744340284
 30
0.0
 10
232.2345880023501
 20
97.57278990848744
 30
0.0
 10
232.2492899293203
 20
97.56675783243759
 30
0.0
  0
SPLINE
  5
D4
330
1F
100
AcDbEntity
  8
0
  6
Continuous
 62
     7
370
    15
100
AcDbSpline
210
0.0
220
0.0
230
1.0
 70
     8
 71
     3
 72
    12
 73
     8
 74
     0
 42
0.00000001
 43
0.00000001
 12
1.0
 22
0.0
 32
0.0
 13
1.0
 23
0.0
 33
0.0
 40
0.0
 40
0.0
 40
0.0
 40
0.0
 40
0.2057904614204204
 40
0.4120344203360276
 40
0.6141302471427648
 40
0.8132633242113038
 40
1.0
 40
1.0
 40
1.0
 40
1.0
 10
232.6719837420948
 20
97.75240699874796
 30
0.0
 10
232.7030286957963
 20
97.81014229857156
 30
0.0
 10
232.7651870165197
 20
97.92574012867284
 30
0.0
 10
232.9247320889801
 20
98.04864416546415
 30
0.0
 10
233.1100657138743
 20
98.11342422938098
 30
0.0
 10
233.3022196227504
 20
98.11753837453908
 30
0.0
 10
233.4165951677338
 20
98.07314638148114
 30
0.0
 10
233.471945733316
 20
98.05166345063752
 30
0.0
  0
SPLINE
  5
D5
330
1F
100
AcDbEntity
  8
0
  6
Continuous
 62
     7
370
    15
100
AcDbSpline
210
0.0
220
0.0
230
1.0
 70
     8
 71
     3
 72
    11
 73
     7
 74
     0
 42
0.00000001
 43
0.00000001
 12
1.0
 22
0.0
 32
0.0
 13
1.0
 23
0.0
 33
0.0
 40
0.0
 40
0.0
 40
0.0
 40
0.0
 40
0.2802371411013058
 40
0.5612869875923848
 40
0.8399906057824682
 40
1.0
 40
1.0
 40
1.0
 40
1.0
 10
233.471945733316
 20
98.05166345063752
 30
0.0
 10
233.5073921702916
 20
98.03829741758742
 30
0.0
 10
233.5783878411466
 20
98.01152658914806
 30
0.0
 10
233.6941265067575
 20
98.01939780667007
 30
0.0
 10
233.7866298382724
 20
98.05556119321528
 30
0.0
 10
233.8323800396744
 20
98.09368819370724
 30
0.0
 10
233.8490662600614
 20
98.107594045778
 30
0.0
  0
SPLINE
  5
D6
330
1F
100
AcDbEntity
  8
0
  6
Continuous
 62
     7
370
    15
100
AcDbSpline
210
0.0
220
0.0
230
1.0
 70
     8
 71
     3
 72
    11
 73
     7
 74
     0
 42
0.00000001
 43
0.00000001
 12
1.0
 22
0.0
 32
0.0
 13
1.0
 23
0.0
 33
0.0
 40
0.0
 40
0.0
 40
0.0
 40
0.0
 40
0.2657596322624584
 40
0.5530029385954063
 40
0.84182084834383
 40
1.0
 40
1.0
 40
1.0
 40
1.0
 10
232.3674403357616
 20
97.54689504446652
 30
0.0
 10
232.4020328831409
 20
97.55048687799844
 30
0.0
 10
232.4740143958765
 20
97.55796090436274
 30
0.0
 10
232.5714626895625
 20
97.61238533629566
 30
0.0
 10
232.6380442631681
 20
97.68231699891122
 30
0.0
 10
232.6631127424282
 20
97.73408708386286
 30
0.0
 10
232.6719837420948
 20
97.75240699874796
 30
0.0
  0
SPLINE
  5
D7
330
1F
100
AcDbEntity
  8
0
  6
Continuous
 62
     7
370
    15
100
AcDbSpline
210
0.0
220
0.0
230
1.0
 70
     8
 71
     3
 72
    11
 73
     7
 74
     0
 42
0.00000001
 43
0.00000001
 12
1.0
 22
0.0
 32
0.0
 13
1.0
 23
0.0
 33
0.0
 40
0.0
 40
0.0
 40
0.0
 40
0.0
 40
0.2431090893442905
 40
0.5182793655621802
 40
0.7947794085751642
 40
1.0
 40
1.0
 40
1.0
 40
1.0
 10
231.2647014220152
 20
100.2372046140139
 30
0.0
 10
231.249565392499
 20
100.2077025295864
 30
0.0
 10
231.2172971963737
 20
100.1448076306707
 30
0.0
 10
231.2086834947634
 20
100.0352820877659
 30
0.0
 10
231.2313781959911
 20
99.93374775794521
 30
0.0
 10
231.2668015896435
 20
99.87947006515466
 30
0.0
 10
231.2818925142914
 20
99.85634691156864
 30
0.0
  0
SPLINE
  5
D8
330
1F
100
AcDbEntity
  8
0
  6
Continuous
 62
     7
370
    15
100
AcDbSpline
210
0.0
220
0.0
230
1.0
 70
     8
 71
     3
 72
    12
 73
     8
 74
     0
 42
0.00000001
 43
0.00000001
 12
1.0
 22
0.0
 32
0.0
 13
1.0
 23
0.0
 33
0.0
 40
0.0
 40
0.0
 40
0.0
 40
0.0
 40
0.205817956499893
 40
0.4120215045907259
 40
0.6140779969167806
 40
0.8132130006453985
 40
1.0
 40
1.0
 40
1.0
 40
1.0
 10
231.2818925142914
 20
99.85634691156864
 30
0.0
 10
231.31637572548
 20
99.80058289833717
 30
0.0
 10
231.3854067507544
 20
99.68895040025791
 30
0.0
 10
231.412063433883
 20
99.48933485285302
 30
0.0
 10
231.3755058576163
 20
99.29646778380624
 30
0.0
 10
231.2830053212193
 20
99.12799978796689
 30
0.0
 10
231.1873652086027
 20
99.05113431663952
 30
0.0
 10
231.1410752082635
 20
99.0139312791643
 30
0.0
  0
SPLINE
  5
D9
330
1F
100
AcDbEntity
  8
0
  6
Continuous
 62
     7
370
    15
100
AcDbSpline
210
0.0
220
0.0
230
1.0
 70
     8
 71
     3
 72
    11
 73
     7
 74
     0
 42
0.00000001
 43
0.00000001
 12
1.0
 22
0.0
 32
0.0
 13
1.0
 23
0.0
 33
0.0
 40
0.0
 40
0.0
 40
0.0
 40
0.0
 40
0.2908641666076767
 40
0.58395607898921
 40
0.8745988053617634
 40
1.0
 40
1.0
 40
1.0
 40
1.0
 10
231.1410752082635
 20
99.01393127916427
 30
0.0
 10
231.1119085641397
 20
98.99004409112119
 30
0.0
 10
231.0533518868479
 20
98.94208676165569
 30
0.0
 10
231.0021469657559
 20
98.83813458983182
 30
0.0
 10
230.9880936690994
 20
98.74544788346135
 30
0.0
 10
230.9953748967208
 20
98.69186804174987
 30
0.0
 10
230.9975695559769
 20
98.67571836182466
 30
0.0
  0
SPLINE
  5
DA
330
1F
100
AcDbEntity
  8
0
  6
Continuous
 62
     7
370
    15
100
AcDbSpline
210
0.0
220
0.0
230
1.0
 70
     8
 71
     3
 72
    12
 73
     8
 74
     0
 42
0.00000001
 43
0.00000001
 12
1.0
 22
0.0
 32
0.0
 13
1.0
 23
0.0
 33
0.0
 40
0.0
 40
0.0
 40
0.0
 40
0.0
 40
0.2058585741214015
 40
0.4121026961457016
 40
0.614193784196728
 40
0.8133180967416238
 40
1.0
 40
1.0
 40
1.0
 40
1.0
 10
233.8866940171206
 20
98.55497654331839
 30
0.0
 10
233.8522064051076
 20
98.61074962866775
 30
0.0
 10
233.7831665900072
 20
98.72240025552618
 30
0.0
 10
233.7565207849877
 20
98.92204701902929
 30
0.0
 10
233.7931068318205
 20
99.11493345330295
 30
0.0
 10
233.8856265758423
 20
99.28337062293556
 30
0.0
 10
233.9812443111555
 20
99.36021103645005
 30
0.0
 10
234.0275113231484
 20
99.39739217572273
 30
0.0
  0
SPLINE
  5
DB
330
1F
100
AcDbEntity
  8
0
  6
Continuous
 62
     7
370
    15
100
AcDbSpline
210
0.0
220
0.0
230
1.0
 70
     8
 71
     3
 72
    11
 73
     7
 74
     0
 42
0.00000001
 43
0.00000001
 12
1.0
 22
0.0
 32
0.0
 13
1.0
 23
0.0
 33
0.0
 40
0.0
 40
0.0
 40
0.0
 40
0.0
 40
0.2524782265335611
 40
0.50689024179334
 40
0.7591786113116749
 40
1.0
 40
1.0
 40
1.0
 40
1.0
 10
234.0275113231484
 20
99.39739217572273
 30
0.0
 10
234.0566890714169
 20
99.42128456626034
 30
0.0
 10
234.1152680470295
 20
99.46925234464231
 30
0.0
 10
234.1662859218186
 20
99.5731003924205
 30
0.0
 10
234.1840514501053
 20
99.68601590979016
 30
0.0
 10
234.164700426326
 20
99.75789904028902
 30
0.0
 10
234.1552499128418
 20
99.79300480532794
 30
0.0
  0
SPLINE
  5
DC
330
1F
100
AcDbEntity
  8
0
  6
Continuous
 62
     7
370
    15
100
AcDbSpline
210
0.0
220
0.0
230
1.0
 70
     8
 71
     3
 72
    11
 73
     7
 74
     0
 42
0.00000001
 43
0.00000001
 12
1.0
 22
0.0
 32
0.0
 13
1.0
 23
0.0
 33
0.0
 40
0.0
 40
0.0
 40
0.0
 40
0.0
 40
0.242361123774541
 40
0.5166847928458282
 40
0.7923341374633754
 40
1.0
 40
1.0
 40
1.0
 40
1.0
 10
233.9032203409128
 20
98.17306338411538
 30
0.0
 10
233.9184662463789
 20
98.20250907710432
 30
0.0
 10
233.9509686848263
 20
98.26528375624943
 30
0.0
 10
233.9599878261386
 20
98.37477344375363
 30
0.0
 10
233.9375886509459
 20
98.4768167616074
 30
0.0
 10
233.9019897733944
 20
98.5314865821651
 30
0.0
 10
233.8866940171206
 20
98.55497654331835
 30
0.0
  0
SPLINE
  5
DD
330
1F
100
AcDbEntity
  8
0
  6
Continuous
 62
     7
370
    15
100
AcDbSpline
210
0.0
220
0.0
230
1.0
 70
     8
 71
     3
 72
    12
 73
     8
 74
     0
 42
0.00000001
 43
0.00000001
 12
1.0
 22
0.0
 32
0.0
 13
1.0
 23
0.0
 33
0.0
 40
0.0
 40
0.0
 40
0.0
 40
0.0
 40
0.0091735205189755
 40
0.2576775215524861
 40
0.5061895192299148
 40
0.7560357430219157
 40
1.0
 40
1.0
 40
1.0
 40
1.0
 10
232.8605014240691
 20
100.8599246241962
 30
0.0
 10
232.8591475106073
 20
100.8601440594918
 30
0.0
 10
232.8211170658608
 20
100.866307837398
 30
0.0
 10
232.7436283951713
 20
100.8651395815097
 30
0.0
 10
232.6375886768187
 20
100.826130940662
 30
0.0
 10
232.5484646687058
 20
100.7559564826744
 30
0.0
 10
232.5137522581498
 20
100.6910052452498
 30
0.0
 10
232.4966027893172
 20
100.6589164561391
 30
0.0
  0
SPLINE
  5
DE
330
1F
100
AcDbEntity
  8
0
  6
Continuous
 62
     7
370
    15
100
AcDbSpline
210
0.0
220
0.0
230
1.0
 70
     8
 71
     3
 72
    12
 73
     8
 74
     0
 42
0.00000001
 43
0.00000001
 12
1.0
 22
0.0
 32
0.0
 13
1.0
 23
0.0
 33
0.0
 40
0.0
 40
0.0
 40
0.0
 40
0.0
 40
0.2057532787804177
 40
0.4119604088044419
 40
0.6140154573249137
 40
0.813141468404112
 40
0.9999999999999999
 40
0.9999999999999999
 40
0.9999999999999999
 40
0.9999999999999999
 10
232.4966027893172
 20
100.6589164561391
 30
0.0
 10
232.4655631235725
 20
100.6011889265116
 30
0.0
 10
232.4034153246885
 20
100.4856065316863
 30
0.0
 10
232.2439014643754
 20
100.3627090505477
 30
0.0
 10
232.0586023370226
 20
100.297916819762
 30
0.0
 10
231.8664346088347
 20
100.2937688708474
 30
0.0
 10
231.7520266857391
 20
100.3381666477166
 30
0.0
 10
231.696640798096
 20
100.3596600042495
 30
0.0
  0
SPLINE
  5
DF
330
1F
100
AcDbEntity
  8
0
  6
Continuous
 62
     7
370
    15
100
AcDbSpline
210
0.0
220
0.0
230
1.0
 70
     8
 71
     3
 72
    11
 73
     7
 74
     0
 42
0.00000001
 43
0.00000001
 12
1.0
 22
0.0
 32
0.0
 13
1.0
 23
0.0
 33
0.0
 40
0.0
 40
0.0
 40
0.0
 40
0.0
 40
0.2794069064556023
 40
0.5596240257155844
 40
0.8375007392220021
 40
0.9999999999999999
 40
0.9999999999999999
 40
0.9999999999999999
 40
0.9999999999999999
 10
231.696640798096
 20
100.3596600042495
 30
0.0
 10
231.6611911839979
 20
100.3730269984516
 30
0.0
 10
231.5901891604499
 20
100.3997997479228
 30
0.0
 10
231.4744457446643
 20
100.3919204849526
 30
0.0
 10
231.3815418657359
 20
100.3556077780458
 30
0.0
 10
231.3355736732712
 20
100.3170887179963
 30
0.0
 10
231.3186113553179
 20
100.3028751388062
 30
0.0
  0
SPLINE
  5
E0
330
1F
100
AcDbEntity
  8
0
  6
Continuous
 62
     7
370
    15
100
AcDbSpline
210
0.0
220
0.0
230
1.0
 70
     8
 71
     3
 72
    12
 73
     8
 74
     0
 42
0.00000001
 43
0.00000001
 12
1.0
 22
0.0
 32
0.0
 13
1.0
 23
0.0
 33
0.0
 40
0.0
 40
0.0
 40
0.0
 40
0.0
 40
0.2058435564095118
 40
0.4120691620553357
 40
0.6141397217727078
 40
0.8132604579561237
 40
0.9999999999999999
 40
0.9999999999999999
 40
0.9999999999999999
 40
0.9999999999999999
 10
233.7990035407318
 20
100.0082312720139
 30
0.0
 10
233.7334623477817
 20
100.0062503892579
 30
0.0
 10
233.6022583162826
 20
100.0022849471929
 30
0.0
 10
233.4160462813991
 20
100.0790220468147
 30
0.0
 10
233.2672988979392
 20
100.2071325067835
 30
0.0
 10
233.1676713472085
 20
100.371472619264
 30
0.0
 10
233.1489292250595
 20
100.4927146154083
 30
0.0
 10
233.1398588555384
 20
100.5513904525287
 30
0.0
  0
SPLINE
  5
E1
330
1F
100
AcDbEntity
  8
0
  6
Continuous
 62
     7
370
    15
100
AcDbSpline
210
0.0
220
0.0
230
1.0
 70
     8
 71
     3
 72
    11
 73
     7
 74
     0
 42
0.00000001
 43
0.00000001
 12
1.0
 22
0.0
 32
0.0
 13
1.0
 23
0.0
 33
0.0
 40
0.0
 40
0.0
 40
0.0
 40
0.0
 40
0.2535086227483845
 40
0.507567474260445
 40
0.7595056251924367
 40
1.0
 40
1.0
 40
1.0
 40
1.0
 10
233.1398588555384
 20
100.5513904525287
 30
0.0
 10
233.1337030811758
 20
100.5888096771759
 30
0.0
 10
233.1213781716264
 20
100.66372934317
 30
0.0
 10
233.056650157743
 20
100.7598933580341
 30
0.0
 10
232.9676127998683
 20
100.8315717307549
 30
0.0
 10
232.8956477440341
 20
100.8506212252119
 30
0.0
 10
232.8605014240691
 20
100.8599246241962
 30
0.0
  0
SPLINE
  5
E2
330
1F
100
AcDbEntity
  8
0
  6
Continuous
 62
     7
370
    15
100
AcDbSpline
210
0.0
220
0.0
230
1.0
 70
     8
 71
     3
 72
    12
 73
     8
 74
     0
 42
0.00000001
 43
0.00000001
 12
1.0
 22
0.0
 32
0.0
 13
1.0
 23
0.0
 33
0.0
 40
0.0
 40
0.0
 40
0.0
 40
0.0
 40
0.009168177149125
 40
0.2573268097002627
 40
0.505493468742928
 40
0.7549925359452828
 40
1.0
 40
1.0
 40
1.0
 40
1.0
 10
234.1552499128418
 20
99.79300480532794
 30
0.0
 10
234.1547649888087
 20
99.79428898769812
 30
0.0
 10
234.1411544365302
 20
99.83033263596337
 30
0.0
 10
234.101521007347
 20
99.89693056961669
 30
0.0
 10
234.0148537284686
 20
99.96941869121096
 30
0.0
 10
233.9093982254489
 20
100.0117949327928
 30
0.0
 10
233.8355782667263
 20
100.0094119440441
 30
0.0
 10
233.7990035407318
 20
100.0082312720139
 30
0.0
  0
CIRCLE
  5
E3
330
1F
100
AcDbEntity
  8
0
  6
Continuous
 62
     7
370
    15
100
AcDbCircle
 10
232.5858823225
 20
99.2075901093
 30
0.0
 40
2.624999999999996
  0
LINE
  5
E4
330
1F
100
AcDbEntity
  8
0
  6
HIDDEN
 62
     7
370
     0
100
AcDbLine
 10
179.7571635267
 20
151.7363089023
 30
0.0
 11
179.7571635267
 21
102.3363089051
 31
0.0
  0
SPLINE
  5
E5
330
1F
100
AcDbEntity
  8
0
  6
HIDDEN
 62
     7
370
     0
100
AcDbSpline
210
0.0
220
0.0
230
1.0
 70
     8
 71
     3
 72
    12
 73
     8
 74
     0
 42
0.00000001
 43
0.00000001
 12
1.0
 22
0.0
 32
0.0
 13
1.0
 23
0.0
 33
0.0
 40
0.0
 40
0.0
 40
0.0
 40
0.0
 40
0.5000000000000013
 40
0.5000000000000013
 40
0.7500000000000007
 40
0.7500000000000007
 40
1.0
 40
1.0
 40
1.0
 40
1.0
 10
187.8519076383749
 20
150.6889503823271
 30
0.0
 10
187.8826070217422
 20
150.728088224723
 30
0.0
 10
187.9239570898487
 20
150.7652480074485
 30
0.0
 10
188.0237130180682
 20
150.8151845130762
 30
0.0
 10
188.0634099358008
 20
150.83063738322
 30
0.0
 10
188.1606680874485
 20
150.8545569268191
 30
0.0
 10
188.2214442454392
 20
150.8630400205975
 30
0.0
 10
188.2849203402671
 20
150.8630400205975
 30
0.0
  0
LINE
  5
E6
330
1F
100
AcDbEntity
  8
0
  6
HIDDEN
 62
     7
370
     0
100
AcDbLine
 10
188.2849203403
 20
150.8630400206
 30
0.0
 11
191.2294067131
 21
150.8630400206
 31
0.0
  0
SPLINE
  5
E7
330
1F
100
AcDbEntity
  8
0
  6
HIDDEN
 62
     7
370
     0
100
AcDbSpline
210
0.0
220
0.0
230
1.0
 70
     8
 71
     3
 72
    12
 73
     8
 74
     0
 42
0.00000001
 43
0.00000001
 12
1.0
 22
0.0
 32
0.0
 13
1.0
 23
0.0
 33
0.0
 40
0.0
 40
0.0
 40
0.0
 40
0.0
 40
0.2500000000000009
 40
0.2500000000000009
 40
0.5000000000000019
 40
0.5000000000000019
 40
1.0
 40
1.0
 40
1.0
 40
1.0
 10
191.2294067131342
 20
150.8630400205975
 30
0.0
 10
191.2930719496647
 20
150.8630400205975
 30
0.0
 10
191.3526781818881
 20
150.8547752449316
 30
0.0
 10
191.451338706819
 20
150.8305564633484
 30
0.0
 10
191.4903056968342
 20
150.8152991440393
 30
0.0
 10
191.5896925287587
 20
150.7656657897774
 30
0.0
 10
191.6317687761821
 20
150.7280260816033
 30
0.0
 10
191.6624194150264
 20
150.6889503823271
 30
0.0
  0
ELLIPSE
  5
E8
330
1F
100
AcDbEntity
  8
0
  6
HIDDEN
 62
     7
370
     0
100
AcDbEllipse
 10
178.7009058717
 20
127.0363089051
 30
0.0
 11
11.70927234972726
 21
24.67718644093746
 31
0.0
210
0.0
220
0.0
230
1.0
 40
0.3419987131
 41
5.203068809370469
 42
6.114256032590513
  0
SPLINE
  5
E9
330
1F
100
AcDbEntity
  8
0
  6
HIDDEN
 62
     7
370
     0
100
AcDbSpline
210
0.0
220
0.0
230
1.0
 70
     8
 71
     3
 72
    12
 73
     8
 74
     0
 42
0.00000001
 43
0.00000001
 12
1.0
 22
0.0
 32
0.0
 13
1.0
 23
0.0
 33
0.0
 40
0.0
 40
0.0
 40
0.0
 40
0.0
 40
0.5000000000000013
 40
0.5000000000000013
 40
0.7500000000000007
 40
0.7500000000000007
 40
1.0
 40
1.0
 40
1.0
 40
1.0
 10
191.6624194150264
 20
135.13276190314
 30
0.0
 10
191.6317200316591
 20
135.0184262360761
 30
0.0
 10
191.5903699635526
 20
134.9070728832347
 30
0.0
 10
191.4906140353332
 20
134.754336110986
 30
0.0
 10
191.4509171176005
 20
134.7064762251339
 30
0.0
 10
191.3536589659529
 20
134.6318731117844
 30
0.0
 10
191.2928828079622
 20
134.6051188742763
 30
0.0
 10
191.2294067131342
 20
134.6051188742763
 30
0.0
  0
LINE
  5
EA
330
1F
100
AcDbEntity
  8
0
  6
HIDDEN
 62
     7
370
     0
100
AcDbLine
 10
191.2294067131
 20
134.6051188743
 30
0.0
 11
188.2849203403
 21
134.6051188743
 31
0.0
  0
SPLINE
  5
EB
330
1F
100
AcDbEntity
  8
0
  6
HIDDEN
 62
     7
370
     0
100
AcDbSpline
210
0.0
220
0.0
230
1.0
 70
     8
 71
     3
 72
    12
 73
     8
 74
     0
 42
0.00000001
 43
0.00000001
 12
1.0
 22
0.0
 32
0.0
 13
1.0
 23
0.0
 33
0.0
 40
0.0
 40
0.0
 40
0.0
 40
0.0
 40
0.2499999999999993
 40
0.2499999999999993
 40
0.4999999999999987
 40
0.4999999999999987
 40
1.0
 40
1.0
 40
1.0
 40
1.0
 10
188.2849203402671
 20
134.6051188742763
 30
0.0
 10
188.2212551037366
 20
134.6051188742763
 30
0.0
 10
188.1616488715133
 20
134.631191022756
 30
0.0
 10
188.0629883465824
 20
134.7067297735771
 30
0.0
 10
188.0240213565671
 20
134.7539807106733
 30
0.0
 10
187.9246345246427
 20
134.9058045286398
 30
0.0
 10
187.8825582772192
 20
135.0186077784049
 30
0.0
 10
187.8519076383749
 20
135.1327619031399
 30
0.0
  0
ELLIPSE
  5
EC
330
1F
100
AcDbEntity
  8
0
  6
HIDDEN
 62
     7
370
     0
100
AcDbEllipse
 10
200.8134211817
 20
127.0363089051
 30
0.0
 11
-11.70927234972715
 21
24.67718644093746
 31
0.0
210
0.0
220
0.0
230
1.0
 40
0.3419987131
 41
0.1689292745891175
 42
1.080116497809136
  0
SPLINE
  5
ED
330
1F
100
AcDbEntity
  8
0
  6
HIDDEN
 62
     7
370
     0
100
AcDbSpline
210
0.0
220
0.0
230
1.0
 70
     8
 71
     3
 72
    12
 73
     8
 74
     0
 42
0.00000001
 43
0.00000001
 12
1.0
 22
0.0
 32
0.0
 13
1.0
 23
0.0
 33
0.0
 40
0.0
 40
0.0
 40
0.0
 40
0.0
 40
0.4999999999999978
 40
0.4999999999999978
 40
0.7499999999999989
 40
0.7499999999999989
 40
1.0
 40
1.0
 40
1.0
 40
1.0
 10
187.8519076383749
 20
118.9398559070512
 30
0.0
 10
187.8826070217422
 20
119.054191574115
 30
0.0
 10
187.9239570898487
 20
119.1655449269564
 30
0.0
 10
188.0237130180682
 20
119.3182816992051
 30
0.0
 10
188.0634099358009
 20
119.3661415850572
 30
0.0
 10
188.1606680874485
 20
119.4407446984067
 30
0.0
 10
188.2214442454392
 20
119.4674989359148
 30
0.0
 10
188.2849203402671
 20
119.4674989359148
 30
0.0
  0
LINE
  5
EE
330
1F
100
AcDbEntity
  8
0
  6
HIDDEN
 62
     7
370
     0
100
AcDbLine
 10
188.2849203403
 20
119.4674989359
 30
0.0
 11
191.2294067131
 21
119.4674989359
 31
0.0
  0
SPLINE
  5
EF
330
1F
100
AcDbEntity
  8
0
  6
HIDDEN
 62
     7
370
     0
100
AcDbSpline
210
0.0
220
0.0
230
1.0
 70
     8
 71
     3
 72
    12
 73
     8
 74
     0
 42
0.00000001
 43
0.00000001
 12
1.0
 22
0.0
 32
0.0
 13
1.0
 23
0.0
 33
0.0
 40
0.0
 40
0.0
 40
0.0
 40
0.0
 40
0.2500000000000009
 40
0.2500000000000009
 40
0.5000000000000018
 40
0.5000000000000018
 40
1.0
 40
1.0
 40
1.0
 40
1.0
 10
191.2294067131342
 20
119.4674989359148
 30
0.0
 10
191.2930719496647
 20
119.4674989359148
 30
0.0
 10
191.3526781818881
 20
119.4414267874351
 30
0.0
 10
191.4513387068189
 20
119.365888036614
 30
0.0
 10
191.4903056968342
 20
119.3186370995178
 30
0.0
 10
191.5896925287587
 20
119.1668132815513
 30
0.0
 10
191.6317687761821
 20
119.0540100317863
 30
0.0
 10
191.6624194150264
 20
118.9398559070512
 30
0.0
  0
ELLIPSE
  5
F0
330
1F
100
AcDbEntity
  8
0
  6
HIDDEN
 62
     7
370
     0
100
AcDbEllipse
 10
178.7009058717
 20
127.0363089051
 30
0.0
 11
-11.70927234972714
 21
24.67718644093743
 31
0.0
210
0.0
220
0.0
230
1.0
 40
0.3419987131
 41
3.310521928178959
 42
4.221709151398948
  0
SPLINE
  5
F1
330
1F
100
AcDbEntity
  8
0
  6
HIDDEN
 62
     7
370
     0
100
AcDbSpline
210
0.0
220
0.0
230
1.0
 70
     8
 71
     3
 72
    12
 73
     8
 74
     0
 42
0.00000001
 43
0.00000001
 12
1.0
 22
0.0
 32
0.0
 13
1.0
 23
0.0
 33
0.0
 40
0.0
 40
0.0
 40
0.0
 40
0.0
 40
0.4999999999999996
 40
0.4999999999999996
 40
0.7499999999999998
 40
0.7499999999999998
 40
1.0
 40
1.0
 40
1.0
 40
1.0
 10
191.6624194150264
 20
103.3836674278638
 30
0.0
 10
191.6317200316591
 20
103.3445295854679
 30
0.0
 10
191.5903699635526
 20
103.3073698027424
 30
0.0
 10
191.4906140353332
 20
103.2574332971147
 30
0.0
 10
191.4509171176005
 20
103.2419804269709
 30
0.0
 10
191.3536589659528
 20
103.2180608833719
 30
0.0
 10
191.2928828079622
 20
103.2095777895935
 30
0.0
 10
191.2294067131342
 20
103.2095777895935
 30
0.0
  0
LINE
  5
F2
330
1F
100
AcDbEntity
  8
0
  6
HIDDEN
 62
     7
370
     0
100
AcDbLine
 10
191.2294067131
 20
103.2095777896
 30
0.0
 11
188.2849203403
 21
103.2095777896
 31
0.0
  0
SPLINE
  5
F3
330
1F
100
AcDbEntity
  8
0
  6
HIDDEN
 62
     7
370
     0
100
AcDbSpline
210
0.0
220
0.0
230
1.0
 70
     8
 71
     3
 72
    12
 73
     8
 74
     0
 42
0.00000001
 43
0.00000001
 12
1.0
 22
0.0
 32
0.0
 13
1.0
 23
0.0
 33
0.0
 40
0.0
 40
0.0
 40
0.0
 40
0.0
 40
0.2499999999999991
 40
0.2499999999999991
 40
0.4999999999999982
 40
0.4999999999999982
 40
1.0
 40
1.0
 40
1.0
 40
1.0
 10
188.2849203402671
 20
103.2095777895935
 30
0.0
 10
188.2212551037366
 20
103.2095777895935
 30
0.0
 10
188.1616488715133
 20
103.2178425652593
 30
0.0
 10
188.0629883465824
 20
103.2420613468425
 30
0.0
 10
188.0240213565671
 20
103.2573186661516
 30
0.0
 10
187.9246345246427
 20
103.3069520204135
 30
0.0
 10
187.8825582772192
 20
103.3445917285877
 30
0.0
 10
187.8519076383749
 20
103.3836674278638
 30
0.0
  0
ELLIPSE
  5
F4
330
1F
100
AcDbEntity
  8
0
  6
HIDDEN
 62
     7
370
     0
100
AcDbEllipse
 10
200.8134211817
 20
127.0363089051
 30
0.0
 11
11.709272349727
 21
24.67718644093746
 31
0.0
210
0.0
220
0.0
230
1.0
 40
0.3419987131
 41
2.061476155780646
 42
2.972663379000659
  0
SPLINE
  5
F5
330
1F
100
AcDbEntity
  8
0
  6
HIDDEN
 62
     7
370
     0
100
AcDbSpline
210
0.0
220
0.0
230
1.0
 70
     8
 71
     3
 72
    58
 73
    54
 74
     0
 42
0.00000001
 43
0.00000001
 12
1.0
 22
0.0
 32
0.0
 13
1.0
 23
0.0
 33
0.0
 40
-0.0624999999999997
 40
-0.0624999999999997
 40
0.0
 40
0.0
 40
0.0312500000000001
 40
0.0312500000000001
 40
0.0625000000000002
 40
0.0625000000000002
 40
0.0937500000000002
 40
0.0937500000000002
 40
0.1250000000000003
 40
0.1250000000000003
 40
0.1875000000000006
 40
0.1875000000000006
 40
0.2500000000000008
 40
0.2500000000000008
 40
0.2812500000000009
 40
0.2812500000000009
 40
0.3125000000000009
 40
0.3125000000000009
 40
0.3437500000000011
 40
0.3437500000000011
 40
0.3750000000000011
 40
0.3750000000000011
 40
0.4062500000000012
 40
0.4062500000000012
 40
0.4375000000000013
 40
0.4375000000000013
 40
0.4687500000000014
 40
0.4687500000000014
 40
0.5000000000000014
 40
0.5000000000000014
 40
0.5625000000000017
 40
0.5625000000000017
 40
0.6250000000000018
 40
0.6250000000000018
 40
0.6562500000000017
 40
0.6562500000000017
 40
0.6875000000000014
 40
0.6875000000000014
 40
0.7187500000000013
 40
0.7187500000000013
 40
0.7500000000000012
 40
0.7500000000000012
 40
0.7812500000000011
 40
0.7812500000000011
 40
0.8125000000000009
 40
0.8125000000000009
 40
0.8437500000000008
 40
0.8437500000000008
 40
0.8750000000000007
 40
0.8750000000000007
 40
0.9375000000000003
 40
0.9375000000000003
 40
1.0
 40
1.0
 40
1.03125
 40
1.03125
 10
193.7571635267007
 20
126.771936534552
 30
0.0
 10
193.7571635267007
 20
127.1684950903671
 30
0.0
 10
193.7441876346901
 20
127.2984618299119
 30
0.0
 10
193.6933553325842
 20
127.554141168044
 30
0.0
 10
193.6548782612628
 20
127.6811822598854
 30
0.0
 10
193.5544733001065
 20
127.923360445826
 30
0.0
 10
193.4930390577871
 20
128.0382141044155
 30
0.0
 10
193.3479047916055
 20
128.2555792262213
 30
0.0
 10
193.2634628704581
 20
128.3584546983056
 30
0.0
 10
192.9867908408482
 20
128.6350726507227
 30
0.0
 10
192.7637446858801
 20
128.7840647705557
 30
0.0
 10
192.2824806873356
 20
128.9835885655469
 30
0.0
 10
192.0192228320158
 20
129.0361674300491
 30
0.0
 10
191.627756800731
 20
129.0363792036367
 30
0.0
 10
191.4952080571175
 20
129.0233882320473
 30
0.0
 10
191.2386637481023
 20
128.9723520087574
 30
0.0
 10
191.1139678617306
 20
128.9345904673546
 30
0.0
 10
190.8717648912968
 20
128.8344309280612
 30
0.0
 10
190.7547015280462
 20
128.7718331183107
 30
0.0
 10
190.5380152088001
 20
128.6271111342751
 30
0.0
 10
190.4370012407323
 20
128.5444870291068
 30
0.0
 10
190.2502080464469
 20
128.3578666584958
 30
0.0
 10
190.1674076824926
 20
128.2568182906046
 30
0.0
 10
190.022529243598
 20
128.0403062697307
 30
0.0
 10
189.9598784602706
 20
127.9234169145318
 30
0.0
 10
189.8594380658967
 20
127.6811595124729
 30
0.0
 10
189.8215790541268
 20
127.5564968476575
 30
0.0
 10
189.7703413496633
 20
127.3001656520027
 30
0.0
 10
189.7572109748902
 20
127.1675777126523
 30
0.0
 10
189.7570690244513
 20
126.7759460440829
 30
0.0
 10
189.8094099406993
 20
126.5127332110487
 30
0.0
 10
190.0085401674374
 20
126.0312258803574
 30
0.0
 10
190.1573772550798
 20
125.8080253990818
 30
0.0
 10
190.4336892916191
 20
125.5311793191201
 30
0.0
 10
190.5364548288704
 20
125.4466672249013
 30
0.0
 10
190.7537717612242
 20
125.3012886281698
 30
0.0
 10
190.868558671761
 20
125.239773196568
 30
0.0
 10
191.110478161867
 20
125.1392171363224
 30
0.0
 10
191.237605064367
 20
125.1005784104878
 30
0.0
 10
191.4932739000031
 20
125.0495135436004
 30
0.0
 10
191.6231691053811
 20
125.0364390632242
 30
0.0
 10
191.8872438878055
 20
125.0361806619506
 30
0.0
 10
192.0175730272908
 20
125.0490567299135
 30
0.0
 10
192.2732623414347
 20
125.0996555212414
 30
0.0
 10
192.4001902078223
 20
125.1379608670791
 30
0.0
 10
192.6426424966645
 20
125.238216699499
 30
0.0
 10
192.7575591906461
 20
125.2995677184111
 30
0.0
 10
192.9749499824165
 20
125.4444365539813
 30
0.0
 10
193.0779352620981
 20
125.5288005072506
 30
0.0
 10
193.3548996297554
 20
125.8053265610367
 30
0.0
 10
193.5040319081139
 20
126.0281864030324
 30
0.0
 10
193.7039840268283
 20
126.5092889230932
 30
0.0
 10
193.7571635267007
 20
126.771936534552
 30
0.0
 10
193.7571635267007
 20
127.1684950903671
 30
0.0
  0
LWPOLYLINE
  5
F6
330
1F
100
AcDbEntity
  8
0
  6
HIDDEN
 62
     7
370
     0
100
AcDbPolyline
 90
       32
 70
   128
 43
0.0
 10
197.7571635267
 20
119.7488179787
 10
198.361059087
 20
119.6973150713
 10
198.940231092
 20
119.5449148842
 10
199.470968172
 20
119.297856699
 10
199.9315418884
 20
118.9662551068
 10
200.3030962992
 20
118.5636859157
 10
200.5704199231
 20
118.1066303558
 10
200.7225684997
 20
117.6138003353
 10
200.7533130482
 20
117.1053723732
 10
200.6613948833
 20
116.6021615701
 10
200.4505771454
 20
116.1247694352
 10
200.1294907375
 20
115.6927404587
 10
199.7112809749
 20
115.3237619577
 10
199.2130694143
 20
115.0329399554
 10
198.6552528956
 20
114.8321807386
 10
198.0606684927
 20
114.7297034134
 10
197.4536585607
 20
114.7297034134
 10
196.8590741578
 20
114.8321807386
 10
196.3012576391
 20
115.0329399554
 10
195.8030460785
 20
115.3237619577
 10
195.3848363159
 20
115.6927404587
 10
195.063749908
 20
116.1247694352
 10
194.8529321701
 20
116.6021615701
 10
194.7610140052
 20
117.1053723732
 10
194.7917585537
 20
117.6138003353
 10
194.9439071303
 20
118.1066303558
 10
195.2112307542
 20
118.5636859157
 10
195.582785165
 20
118.9662551068
 10
196.0433588814
 20
119.297856699
 10
196.5740959614
 20
119.5449148842
 10
197.1532679664
 20
119.6973150713
 10
197.7571635267
 20
119.7488179787
  0
LINE
  5
F7
330
1F
100
AcDbEntity
  8
0
  6
HIDDEN
 62
     7
370
     0
100
AcDbLine
 10
179.7571635267
 20
107.4863089051
 30
0.0
 11
179.7571635267
 21
146.5708526209
 31
0.0
  0
SPLINE
  5
F8
330
1F
100
AcDbEntity
  8
0
  6
HIDDEN
 62
     7
370
     0
100
AcDbSpline
210
0.0
220
0.0
230
1.0
 70
     8
 71
     3
 72
    14
 73
    10
 74
     0
 42
0.00000001
 43
0.00000001
 12
1.0
 22
0.0
 32
0.0
 13
1.0
 23
0.0
 33
0.0
 40
0.0
 40
0.0
 40
0.0
 40
0.0
 40
0.25
 40
0.25
 40
0.5
 40
0.5
 40
0.75
 40
0.75
 40
1.0
 40
1.0
 40
1.0
 40
1.0
 10
178.7163024985723
 20
139.3307844501688
 30
0.0
 10
178.748017632903
 20
139.2730012678257
 30
0.0
 10
178.7826321582034
 20
139.2165886067507
 30
0.0
 10
178.8623033536188
 20
139.1089891567353
 30
0.0
 10
178.9073592306491
 20
139.0570765298143
 30
0.0
 10
179.0179136431546
 20
138.970877905117
 30
0.0
 10
179.0852990573587
 20
138.9367884851453
 30
0.0
 10
179.2359285772567
 20
138.9346860931285
 30
0.0
 10
179.3057558140221
 20
138.9680578659732
 30
0.0
 10
179.3621866378256
 20
139.0118705345239
 30
0.0
  0
SPLINE
  5
F9
330
1F
100
AcDbEntity
  8
0
  6
HIDDEN
 62
     7
370
     0
100
AcDbSpline
210
0.0
220
0.0
230
1.0
 70
     8
 71
     3
 72
    16
 73
    12
 74
     0
 42
0.00000001
 43
0.00000001
 12
1.0
 22
0.0
 32
0.0
 13
1.0
 23
0.0
 33
0.0
 40
0.0
 40
0.0
 40
0.0
 40
0.0
 40
0.0625
 40
0.0625
 40
0.125
 40
0.125
 40
0.25
 40
0.25
 40
0.5
 40
0.5
 40
1.0
 40
1.0
 40
1.0
 40
1.0
 10
179.3621866377938
 20
139.0118705345545
 30
0.0
 10
179.3739208722407
 20
139.0209809478025
 30
0.0
 10
179.3874526277197
 20
139.0290583037488
 30
0.0
 10
179.4174400881495
 20
139.0373051454258
 30
0.0
 10
179.4324347945578
 20
139.0363778278382
 30
0.0
 10
179.4681752169525
 20
139.0236113083064
 30
0.0
 10
179.4821885539538
 20
139.0059626617961
 30
0.0
 10
179.5163326427351
 20
138.9513097417645
 30
0.0
 10
179.5273045468535
 20
138.909910074106
 30
0.0
 10
179.5531500871198
 20
138.7814203303833
 30
0.0
 10
179.5571635267007
 20
138.6908022427446
 30
0.0
 10
179.5571635267007
 20
138.5985831381905
 30
0.0
  0
LINE
  5
FA
330
1F
100
AcDbEntity
  8
0
  6
HIDDEN
 62
     7
370
     0
100
AcDbLine
 10
179.5571635267
 20
115.474034672
 30
0.0
 11
179.5571635267
 21
138.5985831382
 31
0.0
  0
SPLINE
  5
FB
330
1F
100
AcDbEntity
  8
0
  6
HIDDEN
 62
     7
370
     0
100
AcDbSpline
210
0.0
220
0.0
230
1.0
 70
     8
 71
     3
 72
    16
 73
    12
 74
     0
 42
0.00000001
 43
0.00000001
 12
1.0
 22
0.0
 32
0.0
 13
1.0
 23
0.0
 33
0.0
 40
0.0
 40
0.0
 40
0.0
 40
0.0
 40
0.5000000000000013
 40
0.5000000000000013
 40
0.750000000000002
 40
0.750000000000002
 40
0.8750000000000019
 40
0.8750000000000019
 40
0.9375000000000009
 40
0.9375000000000009
 40
1.0
 40
1.0
 40
1.0
 40
1.0
 10
179.5571635267007
 20
115.4740346720003
 30
0.0
 10
179.5571635267007
 20
115.3814508210964
 30
0.0
 10
179.5531062245856
 20
115.2912383652362
 30
0.0
 10
179.5274489817908
 20
115.1632972381178
 30
0.0
 10
179.5161335360487
 20
115.1208840237059
 30
0.0
 10
179.4821021687401
 20
115.0665699802547
 30
0.0
 10
179.4682231875363
 20
115.0489886448648
 30
0.0
 10
179.4322875057689
 20
115.0362049569299
 30
0.0
 10
179.4173371865062
 20
115.0353294587818
 30
0.0
 10
179.3874386737643
 20
115.0435748939012
 30
0.0
 10
179.373905813399
 20
115.0516485540729
 30
0.0
 10
179.362186637825
 20
115.060747275667
 30
0.0
  0
SPLINE
  5
FC
330
1F
100
AcDbEntity
  8
0
  6
HIDDEN
 62
     7
370
     0
100
AcDbSpline
210
0.0
220
0.0
230
1.0
 70
     8
 71
     3
 72
    14
 73
    10
 74
     0
 42
0.00000001
 43
0.00000001
 12
1.0
 22
0.0
 32
0.0
 13
1.0
 23
0.0
 33
0.0
 40
0.0
 40
0.0
 40
0.0
 40
0.0
 40
0.25
 40
0.25
 40
0.5
 40
0.5
 40
0.75
 40
0.75
 40
1.0
 40
1.0
 40
1.0
 40
1.0
 10
179.3621866378319
 20
115.0607472756755
 30
0.0
 10
179.3057308732231
 20
115.1045793081703
 30
0.0
 10
179.2348652469732
 20
115.1379103445921
 30
0.0
 10
179.0864081658006
 20
115.1358513344447
 30
0.0
 10
179.0172148064931
 20
115.101255310043
 30
0.0
 10
178.9074993683589
 20
115.0155899533802
 30
0.0
 10
178.8622547890275
 20
114.9635675086721
 30
0.0
 10
178.7826280796038
 20
114.8560192483422
 30
0.0
 10
178.7480179310703
 20
114.7996170856092
 30
0.0
 10
178.7163024985711
 20
114.7418333600197
 30
0.0
  0
SPLINE
  5
FD
330
1F
100
AcDbEntity
  8
0
  6
HIDDEN
 62
     7
370
     0
100
AcDbSpline
210
0.0
220
0.0
230
1.0
 70
     8
 71
     3
 72
    10
 73
     6
 74
     0
 42
0.00000001
 43
0.00000001
 12
1.0
 22
0.0
 32
0.0
 13
1.0
 23
0.0
 33
0.0
 40
0.0
 40
0.0
 40
0.0
 40
0.0
 40
0.5
 40
0.5
 40
1.0
 40
1.0
 40
1.0
 40
1.0
 10
178.7163024985716
 20
114.7418333600207
 30
0.0
 10
178.6445227106481
 20
114.6110546431189
 30
0.0
 10
178.5920631963401
 20
114.4769544936157
 30
0.0
 10
178.5027201322389
 20
114.2088619306269
 30
0.0
 10
178.4667245227392
 20
114.074616559038
 30
0.0
 10
178.4358431831411
 20
113.941262181563
 30
0.0
  0
SPLINE
  5
FE
330
1F
100
AcDbEntity
  8
0
  6
HIDDEN
 62
     7
370
     0
100
AcDbSpline
210
0.0
220
0.0
230
1.0
 70
     8
 71
     3
 72
    10
 73
     6
 74
     0
 42
0.00000001
 43
0.00000001
 12
1.0
 22
0.0
 32
0.0
 13
1.0
 23
0.0
 33
0.0
 40
0.0
 40
0.0
 40
0.0
 40
0.0
 40
0.5
 40
0.5
 40
1.0
 40
1.0
 40
1.0
 40
1.0
 10
178.4358431831411
 20
109.7393990370906
 30
0.0
 10
178.4667162149533
 20
109.7231158897234
 30
0.0
 10
178.5027030778662
 20
109.7108582999979
 30
0.0
 10
178.5920376637574
 20
109.6937553111691
 30
0.0
 10
178.64449352318
 20
109.6889557153108
 30
0.0
 10
178.7163024985723
 20
109.6871516239028
 30
0.0
  0
SPLINE
  5
FF
330
1F
100
AcDbEntity
  8
0
  6
HIDDEN
 62
     7
370
     0
100
AcDbSpline
210
0.0
220
0.0
230
1.0
 70
     8
 71
     3
 72
     8
 73
     4
 74
     0
 42
0.00000001
 43
0.00000001
 12
1.0
 22
0.0
 32
0.0
 13
1.0
 23
0.0
 33
0.0
 40
0.0
 40
0.0
 40
0.0
 40
0.0
 40
1.0
 40
1.0
 40
1.0
 40
1.0
 10
179.5394669033257
 20
109.5612672456558
 30
0.0
 10
179.5534537118678
 20
109.5330268550741
 30
0.0
 10
179.5571635267005
 20
109.5098948122633
 30
0.0
 10
179.5571635267007
 20
109.4895544394282
 30
0.0
  0
LINE
  5
100
330
1F
100
AcDbEntity
  8
0
  6
HIDDEN
 62
     7
370
     0
100
AcDbLine
 10
179.5571635267
 20
109.1964886262
 30
0.0
 11
179.5571635267
 21
109.4895544394
 31
0.0
  0
LINE
  5
101
330
1F
100
AcDbEntity
  8
0
  6
HIDDEN
 62
     7
370
     0
100
AcDbLine
 10
179.5571635267
 20
144.5830633708
 30
0.0
 11
179.5571635267
 21
144.876129184
 31
0.0
  0
SPLINE
  5
102
330
1F
100
AcDbEntity
  8
0
  6
HIDDEN
 62
     7
370
     0
100
AcDbSpline
210
0.0
220
0.0
230
1.0
 70
     8
 71
     3
 72
    10
 73
     6
 74
     0
 42
0.00000001
 43
0.00000001
 12
1.0
 22
0.0
 32
0.0
 13
1.0
 23
0.0
 33
0.0
 40
0.0
 40
0.0
 40
0.0
 40
0.0
 40
0.5
 40
0.5
 40
1.0
 40
1.0
 40
1.0
 40
1.0
 10
178.7163024985731
 20
144.3854661862879
 30
0.0
 10
178.6444935231805
 20
144.38366209488
 30
0.0
 10
178.5920376637578
 20
144.3788624990217
 30
0.0
 10
178.5027030778664
 20
144.361759510193
 30
0.0
 10
178.4667162149534
 20
144.3495019204674
 30
0.0
 10
178.4358431831411
 20
144.3332187731002
 30
0.0
  0
SPLINE
  5
103
330
1F
100
AcDbEntity
  8
0
  6
HIDDEN
 62
     7
370
     0
100
AcDbSpline
210
0.0
220
0.0
230
1.0
 70
     8
 71
     3
 72
    10
 73
     6
 74
     0
 42
0.00000001
 43
0.00000001
 12
1.0
 22
0.0
 32
0.0
 13
1.0
 23
0.0
 33
0.0
 40
0.0
 40
0.0
 40
0.0
 40
0.0
 40
0.5
 40
0.5
 40
1.0
 40
1.0
 40
1.0
 40
1.0
 10
178.4358431831411
 20
140.1313556286278
 30
0.0
 10
178.4667245227392
 20
139.9980012511525
 30
0.0
 10
178.5027201322391
 20
139.8637558795635
 30
0.0
 10
178.5920631963404
 20
139.5956633165743
 30
0.0
 10
178.6445227106486
 20
139.4615631670709
 30
0.0
 10
178.7163024985723
 20
139.3307844501688
 30
0.0
  0
LINE
  5
104
330
1F
100
AcDbEntity
  8
0
  6
HIDDEN
 62
     7
370
     0
100
AcDbLine
 10
179.5571635267
 20
109.4895544394
 30
0.0
 11
179.5571635267
 21
121.0518286725
 31
0.0
  0
LINE
  5
105
330
1F
100
AcDbEntity
  8
0
  6
HIDDEN
 62
     7
370
     0
100
AcDbLine
 10
179.5571635267
 20
133.0207891377
 30
0.0
 11
179.5571635267
 21
144.5830633708
 31
0.0
  0
LWPOLYLINE
  5
106
330
1F
100
AcDbEntity
  8
0
  6
HIDDEN
 62
     7
370
     0
100
AcDbPolyline
 90
       29
 70
   128
 43
0.0
 10
197.7571635267
 20
119.4931087686
 10
198.3134658616
 20
119.4405407132
 10
198.8418728745
 20
119.2854725291
 10
199.3158880313
 20
119.0356799823
 10
199.7117422329
 20
118.7036887143
 10
200.0095856965
 20
118.3061461535
 10
200.1944833072
 20
117.8629867438
 10
200.2571635267
 20
117.3964323487
 10
200.1944833072
 20
116.9298779535
 10
200.0095856965
 20
116.4867185439
 10
199.7117422329
 20
116.0891759831
 10
199.3158880313
 20
115.7571847151
 10
198.8418728745
 20
115.5073921683
 10
198.3134658616
 20
115.3523239841
 10
197.7571635267
 20
115.2997559288
 10
197.2008611918
 20
115.3523239841
 10
196.6724541789
 20
115.5073921683
 10
196.1984390221
 20
115.7571847151
 10
195.8025848205
 20
116.0891759831
 10
195.5047413569
 20
116.4867185439
 10
195.3198437462
 20
116.9298779535
 10
195.2571635267
 20
117.3964323487
 10
195.3198437462
 20
117.8629867438
 10
195.5047413569
 20
118.3061461535
 10
195.8025848205
 20
118.7036887143
 10
196.1984390221
 20
119.0356799823
 10
196.6724541789
 20
119.2854725291
 10
197.2008611918
 20
119.4405407132
 10
197.7571635267
 20
119.4931087686
  0
SPLINE
  5
107
330
1F
100
AcDbEntity
  8
0
  6
HIDDEN
 62
     7
370
     0
100
AcDbSpline
210
0.0
220
0.0
230
1.0
 70
     8
 71
     3
 72
    68
 73
    64
 74
     0
 42
0.00000001
 43
0.00000001
 12
1.0
 22
0.0
 32
0.0
 13
1.0
 23
0.0
 33
0.0
 40
0.0
 40
0.0
 40
0.0
 40
0.0
 40
0.0312499999999996
 40
0.0312499999999996
 40
0.0624999999999993
 40
0.0624999999999993
 40
0.1249999999999993
 40
0.1249999999999993
 40
0.1562499999999992
 40
0.1562499999999992
 40
0.1874999999999991
 40
0.1874999999999991
 40
0.2187499999999991
 40
0.2187499999999991
 40
0.2499999999999991
 40
0.2499999999999991
 40
0.2812499999999991
 40
0.2812499999999991
 40
0.312499999999999
 40
0.312499999999999
 40
0.343749999999999
 40
0.343749999999999
 40
0.3749999999999989
 40
0.3749999999999989
 40
0.4062499999999989
 40
0.4062499999999989
 40
0.4374999999999989
 40
0.4374999999999989
 40
0.4687499999999989
 40
0.4687499999999989
 40
0.4999999999999989
 40
0.4999999999999989
 40
0.5312499999999989
 40
0.5312499999999989
 40
0.5624999999999989
 40
0.5624999999999989
 40
0.5937499999999988
 40
0.5937499999999988
 40
0.6249999999999988
 40
0.6249999999999988
 40
0.6562499999999988
 40
0.6562499999999988
 40
0.6874999999999988
 40
0.6874999999999988
 40
0.7187499999999988
 40
0.7187499999999988
 40
0.7499999999999987
 40
0.7499999999999987
 40
0.7812499999999988
 40
0.7812499999999988
 40
0.8124999999999989
 40
0.8124999999999989
 40
0.8437499999999991
 40
0.8437499999999991
 40
0.8749999999999993
 40
0.8749999999999993
 40
0.9062499999999996
 40
0.9062499999999996
 40
0.9374999999999997
 40
0.9374999999999997
 40
0.9687499999999999
 40
0.9687499999999999
 40
1.0
 40
1.0
 40
1.0
 40
1.0
 10
196.534338065501
 20
117.1436554099191
 30
0.0
 10
196.6709310263169
 20
117.05394101985
 30
0.0
 10
196.8033855421922
 20
116.9686460091485
 30
0.0
 10
197.0673791457091
 20
116.8082724306013
 30
0.0
 10
197.1998019662424
 20
116.7328187950865
 30
0.0
 10
197.5957243210496
 20
116.5301895205111
 30
0.0
 10
197.8554010413334
 20
116.4267254590318
 30
0.0
 10
198.2570456006353
 20
116.3355218437406
 30
0.0
 10
198.3927769615935
 20
116.3163084303532
 30
0.0
 10
198.6608359318465
 20
116.3062789489583
 30
0.0
 10
198.7943166318296
 20
116.3150767997067
 30
0.0
 10
199.0605457415739
 20
116.3682379657188
 30
0.0
 10
199.1888155145911
 20
116.4117426961495
 30
0.0
 10
199.4349160180376
 20
116.5387808944148
 30
0.0
 10
199.5521647744725
 20
116.6230630106249
 30
0.0
 10
199.7597037090954
 20
116.8256146375385
 30
0.0
 10
199.8533393964082
 20
116.9473503189419
 30
0.0
 10
200.0083181422551
 20
117.2140698640718
 30
0.0
 10
200.0711427922447
 20
117.3606544640466
 30
0.0
 10
200.1675386157991
 20
117.6653977778789
 30
0.0
 10
200.2009897293355
 20
117.8215998189371
 30
0.0
 10
200.2452032444374
 20
118.1400099567168
 30
0.0
 10
200.2556072890457
 20
118.3017844593558
 30
0.0
 10
200.2583901368456
 20
118.6184482073279
 30
0.0
 10
200.2509623714795
 20
118.7750190546689
 30
0.0
 10
200.2232480897932
 20
119.0848222139732
 30
0.0
 10
200.2027653410733
 20
119.2384411814939
 30
0.0
 10
200.1548227076924
 20
119.5343352776409
 30
0.0
 10
200.1272067982729
 20
119.6776574853928
 30
0.0
 10
200.071753872503
 20
119.9536333515498
 30
0.0
 10
200.043486823457
 20
120.0878590554104
 30
0.0
 10
200.0010252219112
 20
120.3305921504833
 30
0.0
 10
199.9872695761239
 20
120.4411558616064
 30
0.0
 10
199.9898374330517
 20
120.6109845646507
 30
0.0
 10
200.006531134628
 20
120.6715025783851
 30
0.0
 10
200.056718640413
 20
120.7413030784691
 30
0.0
 10
200.0892120091916
 20
120.7527655148168
 30
0.0
 10
200.151121504204
 20
120.7441816767846
 30
0.0
 10
200.180365137481
 20
120.7244605951675
 30
0.0
 10
200.2268382643206
 20
120.6626111481826
 30
0.0
 10
200.2442406632468
 20
120.6197884906528
 30
0.0
 10
200.2601522827372
 20
120.5160615463714
 30
0.0
 10
200.2589071582074
 20
120.455336322497
 30
0.0
 10
200.2331555508132
 20
120.3171189928342
 30
0.0
 10
200.2081287347669
 20
120.2384897215875
 30
0.0
 10
200.1307841883979
 20
120.0695753137342
 30
0.0
 10
200.0788396628619
 20
119.9793458344819
 30
0.0
 10
199.9435020494172
 20
119.7874195133369
 30
0.0
 10
199.8617754199215
 20
119.6883708482386
 30
0.0
 10
199.672624519384
 20
119.4897719473717
 30
0.0
 10
199.5629367796495
 20
119.3882213548123
 30
0.0
 10
199.3268080921553
 20
119.1947404634194
 30
0.0
 10
199.1991427675284
 20
119.1014467962422
 30
0.0
 10
198.9294916818529
 20
118.9259249003764
 30
0.0
 10
198.7906135563529
 20
118.8455772407729
 30
0.0
 10
198.5048384940436
 20
118.6994744834503
 30
0.0
 10
198.3582045553083
 20
118.6340417421804
 30
0.0
 10
198.0660143550074
 20
118.5229300965396
 30
0.0
 10
197.9187536693921
 20
118.4763989266115
 30
0.0
 10
197.6223476060947
 20
118.4049858293387
 30
0.0
 10
197.4756710831618
 20
118.3805301150489
 30
0.0
 10
197.1816439048737
 20
118.3600986730016
 30
0.0
 10
197.032991390168
 20
118.3640926210976
 30
0.0
 10
196.8847199689336
 20
118.3904322044643
 30
0.0
  0
SPLINE
  5
108
330
1F
100
AcDbEntity
  8
0
  6
HIDDEN
 62
     7
370
     0
100
AcDbSpline
210
0.0
220
0.0
230
1.0
 70
     8
 71
     3
 72
    12
 73
     8
 74
     0
 42
0.00000001
 43
0.00000001
 12
1.0
 22
0.0
 32
0.0
 13
1.0
 23
0.0
 33
0.0
 40
0.0
 40
0.0
 40
0.0
 40
0.0
 40
0.4999999999999989
 40
0.4999999999999989
 40
0.7499999999999994
 40
0.7499999999999994
 40
1.0
 40
1.0
 40
1.0
 40
1.0
 10
196.8847199689337
 20
118.3904322044645
 30
0.0
 10
196.7181387148983
 20
118.2274627574223
 30
0.0
 10
196.5936667443454
 20
118.0619353410488
 30
0.0
 10
196.5037476284765
 20
117.7519277499308
 30
0.0
 10
196.4904716579858
 20
117.6388147481678
 30
0.0
 10
196.4932835156058
 20
117.4001804164133
 30
0.0
 10
196.5088337708731
 20
117.2739848205552
 30
0.0
 10
196.534338065501
 20
117.1436554099189
 30
0.0
  0
SPLINE
  5
109
330
1F
100
AcDbEntity
  8
0
  6
HIDDEN
 62
     7
370
     0
100
AcDbSpline
210
0.0
220
0.0
230
1.0
 70
     8
 71
     3
 72
    66
 73
    62
 74
     0
 42
0.00000001
 43
0.00000001
 12
1.0
 22
0.0
 32
0.0
 13
1.0
 23
0.0
 33
0.0
 40
-0.0312500000000001
 40
-0.0312500000000001
 40
0.0
 40
0.0
 40
0.03125
 40
0.03125
 40
0.0624999999999999
 40
0.0624999999999999
 40
0.0937499999999999
 40
0.0937499999999999
 40
0.1249999999999999
 40
0.1249999999999999
 40
0.1874999999999998
 40
0.1874999999999998
 40
0.2187499999999998
 40
0.2187499999999998
 40
0.2499999999999997
 40
0.2499999999999997
 40
0.2812499999999997
 40
0.2812499999999997
 40
0.3124999999999997
 40
0.3124999999999997
 40
0.3437499999999996
 40
0.3437499999999996
 40
0.3749999999999996
 40
0.3749999999999996
 40
0.4062499999999996
 40
0.4062499999999996
 40
0.4374999999999995
 40
0.4374999999999995
 40
0.4687499999999995
 40
0.4687499999999995
 40
0.4999999999999994
 40
0.4999999999999994
 40
0.5312499999999994
 40
0.5312499999999994
 40
0.5624999999999993
 40
0.5624999999999993
 40
0.5937499999999993
 40
0.5937499999999993
 40
0.6249999999999993
 40
0.6249999999999993
 40
0.6874999999999992
 40
0.6874999999999992
 40
0.7187499999999993
 40
0.7187499999999993
 40
0.7499999999999993
 40
0.7499999999999993
 40
0.7812499999999994
 40
0.7812499999999994
 40
0.8124999999999996
 40
0.8124999999999996
 40
0.8437499999999997
 40
0.8437499999999997
 40
0.8749999999999997
 40
0.8749999999999997
 40
0.9062499999999998
 40
0.9062499999999998
 40
0.9374999999999999
 40
0.9374999999999999
 40
0.9687499999999999
 40
0.9687499999999999
 40
1.0
 40
1.0
 40
1.03125
 40
1.03125
 10
197.9237164344576
 20
125.4265376174126
 30
0.0
 10
197.590610618944
 20
125.4265376174126
 30
0.0
 10
197.4271196653542
 20
125.4093900293345
 30
0.0
 10
197.1059175199852
 20
125.3428929764456
 30
0.0
 10
196.946505162429
 20
125.2926725071838
 30
0.0
 10
196.6444664352885
 20
125.1640908109344
 30
0.0
 10
196.5014183979268
 20
125.0861072292403
 30
0.0
 10
196.230685175976
 20
124.9045167737851
 30
0.0
 10
196.1036156610095
 20
124.8008737306861
 30
0.0
 10
195.7606076500367
 20
124.4661932066331
 30
0.0
 10
195.5747753886328
 20
124.2030261341841
 30
0.0
 10
195.3869700254741
 20
123.7922742797033
 30
0.0
 10
195.3382299486957
 20
123.6500733745206
 30
0.0
 10
195.2734658965809
 20
123.3669323177743
 30
0.0
 10
195.2572737860469
 20
123.2270766615932
 30
0.0
 10
195.2570543788801
 20
122.9510714391059
 30
0.0
 10
195.2736024729135
 20
122.8140923896208
 30
0.0
 10
195.3380316266171
 20
122.5561112251479
 30
0.0
 10
195.385690095802
 20
122.4335278410927
 30
0.0
 10
195.5123860636007
 20
122.2003524069426
 30
0.0
 10
195.5899596493997
 20
122.0926978023595
 30
0.0
 10
195.7705662755798
 20
121.8953450617513
 30
0.0
 10
195.8751193246955
 20
121.8043991395438
 30
0.0
 10
196.1051279650397
 20
121.6431396921293
 30
0.0
 10
196.2300080234145
 20
121.5727660504706
 30
0.0
 10
196.4999075950443
 20
121.4504637850626
 30
0.0
 10
196.6460039615273
 20
121.3984991772459
 30
0.0
 10
196.946716585336
 20
121.3164066301669
 30
0.0
 10
197.1026642736934
 20
121.2855154412985
 30
0.0
 10
197.4264441374418
 20
121.2436707239854
 30
0.0
 10
197.5921424811919
 20
121.2332267649702
 30
0.0
 10
197.9201863611992
 20
121.233143045381
 30
0.0
 10
198.085511912536
 20
121.2434589200699
 30
0.0
 10
198.4098403685462
 20
121.2851865116579
 30
0.0
 10
198.566193169408
 20
121.3160680019193
 30
0.0
 10
198.8679093476372
 20
121.3983382351293
 30
0.0
 10
199.0139998773518
 20
121.4503089729298
 30
0.0
 10
199.2837136547568
 20
121.5724565480031
 30
0.0
 10
199.4088949883999
 20
121.6429034095052
 30
0.0
 10
199.7555055288275
 20
121.8859819479886
 30
0.0
 10
199.9386483637159
 20
122.08401166818
 30
0.0
 10
200.1283149238552
 20
122.4328627803924
 30
0.0
 10
200.1759526712837
 20
122.5551646636815
 30
0.0
 10
200.2404709062159
 20
122.8126547076935
 30
0.0
 10
200.2571680119576
 20
122.949564470602
 30
0.0
 10
200.2571590395902
 20
123.2259015209882
 30
0.0
 10
200.2410282036437
 20
123.3658854940718
 30
0.0
 10
200.176368526975
 20
123.6492011246025
 30
0.0
 10
200.1276981723358
 20
123.7914426205949
 30
0.0
 10
200.002268800017
 20
124.0659417976249
 30
0.0
 10
199.9245251475269
 20
124.2006837443889
 30
0.0
 10
199.742225660514
 20
124.4575968730571
 30
0.0
 10
199.6392625072197
 20
124.5779163673783
 30
0.0
 10
199.4100615349273
 20
124.8014626307577
 30
0.0
 10
199.2824305568192
 20
124.9053973917503
 30
0.0
 10
199.0125848953826
 20
125.0862558560165
 30
0.0
 10
198.8697301519955
 20
125.1641699506389
 30
0.0
 10
198.5673326247494
 20
125.2928571469407
 30
0.0
 10
198.4081173938047
 20
125.342962875249
 30
0.0
 10
198.0872296624866
 20
125.4093759915944
 30
0.0
 10
197.9237164344576
 20
125.4265376174126
 30
0.0
 10
197.590610618944
 20
125.4265376174126
 30
0.0
  0
CIRCLE
  5
10A
330
1F
100
AcDbEntity
  8
0
  6
HIDDEN
 62
     7
370
     0
100
AcDbCircle
 10
165.7571635267
 20
127.0363089051
 30
0.0
 40
3.049999999999997
  0
LWPOLYLINE
  5
10B
330
1F
100
AcDbEntity
  8
0
  6
HIDDEN
 62
     7
370
     0
100
AcDbPolyline
 90
        9
 70
   128
 43
0.0
 10
196.5343380655
 20
117.1436554099
 10
196.4899345061
 20
117.1846654097
 10
196.4712200168
 20
117.262864042
 10
196.4785344519
 20
117.3768312228
 10
196.5117449817
 20
117.5244973133
 10
196.5702485043
 20
117.7031807036
 10
196.6529825984
 20
117.9096365112
 10
196.7584448163
 20
118.1401155077
 10
196.8847199689
 20
118.3904322045
  0
LINE
  5
10C
330
1F
100
AcDbEntity
  8
0
  6
HIDDEN
 62
     7
370
     0
100
AcDbLine
 10
154.7852033823
 20
137.8249840397
 30
0.0
 11
154.7852033823
 21
116.2476337705
 31
0.0
  0
LINE
  5
10D
330
1F
100
AcDbEntity
  8
0
  6
HIDDEN
 62
     7
370
     0
100
AcDbLine
 10
150.7852033823
 20
138.2061818862
 30
0.0
 11
150.7852033823
 21
115.866435924
 31
0.0
  0
LINE
  5
10E
330
1F
100
AcDbEntity
  8
0
  6
HIDDEN
 62
     7
370
     0
100
AcDbLine
 10
149.7571635267
 20
115.2728968366
 30
0.0
 11
149.7571635267
 21
138.7841237465
 31
0.0
  0
LINE
  5
10F
330
1F
100
AcDbEntity
  8
0
  6
HIDDEN
 62
     7
370
     0
100
AcDbLine
 10
159.3852033823
 20
137.5363089051
 30
0.0
 11
159.3852033823
 21
116.5363089051
 31
0.0
  0
LINE
  5
110
330
1F
100
AcDbEntity
  8
0
  6
HIDDEN
 62
     7
370
     0
100
AcDbLine
 10
153.2852033823
 20
137.5363089051
 30
0.0
 11
153.2852033823
 21
116.5363089051
 31
0.0
  0
LINE
  5
111
330
1F
100
AcDbEntity
  8
0
  6
HIDDEN
 62
     7
370
     0
100
AcDbLine
 10
154.2852033823
 20
137.5363089051
 30
0.0
 11
154.2852033823
 21
116.5363089051
 31
0.0
  0
LINE
  5
112
330
1F
100
AcDbEntity
  8
0
  6
HIDDEN
 62
     7
370
     0
100
AcDbLine
 10
169.7571635267
 20
137.0363089051
 30
0.0
 11
169.7571635267
 21
117.0363089051
 31
0.0
  0
SPLINE
  5
113
330
1F
100
AcDbEntity
  8
0
  6
HIDDEN
 62
     7
370
     0
100
AcDbSpline
210
0.0
220
0.0
230
1.0
 70
     8
 71
     3
 72
    66
 73
    62
 74
     0
 42
0.00000001
 43
0.00000001
 12
1.0
 22
0.0
 32
0.0
 13
1.0
 23
0.0
 33
0.0
 40
-0.0312499999999997
 40
-0.0312499999999997
 40
0.0
 40
0.0
 40
0.03125
 40
0.03125
 40
0.0624999999999999
 40
0.0624999999999999
 40
0.0937499999999999
 40
0.0937499999999999
 40
0.1249999999999999
 40
0.1249999999999999
 40
0.1875
 40
0.1875
 40
0.2187500000000001
 40
0.2187500000000001
 40
0.2500000000000002
 40
0.2500000000000002
 40
0.2812500000000002
 40
0.2812500000000002
 40
0.3125000000000004
 40
0.3125000000000004
 40
0.3437500000000005
 40
0.3437500000000005
 40
0.3750000000000007
 40
0.3750000000000007
 40
0.4062500000000008
 40
0.4062500000000008
 40
0.4375000000000009
 40
0.4375000000000009
 40
0.4687500000000011
 40
0.4687500000000011
 40
0.5000000000000012
 40
0.5000000000000012
 40
0.5312500000000013
 40
0.5312500000000013
 40
0.5625000000000013
 40
0.5625000000000013
 40
0.5937500000000014
 40
0.5937500000000014
 40
0.6250000000000018
 40
0.6250000000000018
 40
0.6562500000000018
 40
0.6562500000000018
 40
0.6875000000000017
 40
0.6875000000000017
 40
0.7187500000000017
 40
0.7187500000000017
 40
0.7500000000000017
 40
0.7500000000000017
 40
0.7812500000000016
 40
0.7812500000000016
 40
0.8125000000000013
 40
0.8125000000000013
 40
0.8750000000000012
 40
0.8750000000000012
 40
0.9062500000000011
 40
0.9062500000000011
 40
0.9375000000000007
 40
0.9375000000000007
 40
0.9687500000000003
 40
0.9687500000000003
 40
1.0
 40
1.0
 40
1.03125
 40
1.03125
 10
165.5544848797529
 20
130.0863089050954
 30
0.0
 10
165.9598421736484
 20
130.0863089050954
 30
0.0
 10
166.1589020649843
 20
130.0663093454788
 30
0.0
 10
166.550156049564
 20
129.9881658427786
 30
0.0
 10
166.7444288083117
 20
129.9290047412579
 30
0.0
 10
167.113192234863
 20
129.7755730543636
 30
0.0
 10
167.2879173932413
 20
129.6818462445213
 30
0.0
 10
167.618594696775
 20
129.4605921421165
 30
0.0
 10
167.7742422407779
 20
129.3326107751219
 30
0.0
 10
168.1937096104465
 20
128.9130556781218
 30
0.0
 10
168.4205977519768
 20
128.5745771194185
 30
0.0
 10
168.6493943753616
 20
128.0246982317003
 30
0.0
 10
168.7085866302104
 20
127.8312983859569
 30
0.0
 10
168.787394040471
 20
127.4370702355989
 30
0.0
 10
168.8070334567514
 20
127.2384314081666
 30
0.0
 10
168.807292321173
 20
126.8381311222682
 30
0.0
 10
168.78722163654
 20
126.6347917955471
 30
0.0
 10
168.7088839539101
 20
126.2427002749395
 30
0.0
 10
168.6509341858716
 20
126.0519944066243
 30
0.0
 10
168.4969910439916
 20
125.6812705900377
 30
0.0
 10
168.4020524302689
 20
125.5045439302289
 30
0.0
 10
168.1816950143917
 20
125.1752908193045
 30
0.0
 10
168.0544149884635
 20
125.0201695957081
 30
0.0
 10
167.772659397133
 20
124.7384929007777
 30
0.0
 10
167.6198710676754
 20
124.6130597158733
 30
0.0
 10
167.2904439855185
 20
124.3922841225192
 30
0.0
 10
167.1118979823668
 20
124.296452869819
 30
0.0
 10
166.7443256568166
 20
124.1436237393239
 30
0.0
 10
166.5541716301057
 20
124.0854519813797
 30
0.0
 10
166.1606312074032
 20
124.0064586890348
 30
0.0
 10
165.958197136142
 20
123.9863955633925
 30
0.0
 10
165.5587680607767
 20
123.9862228172738
 30
0.0
 10
165.3587490822207
 20
124.0057061913631
 30
0.0
 10
164.9626331347714
 20
124.0846977629643
 30
0.0
 10
164.7719003065795
 20
124.1429779828163
 30
0.0
 10
164.4042688659998
 20
124.2955456034243
 30
0.0
 10
164.225782433832
 20
124.3911543901975
 30
0.0
 10
163.895577174868
 20
124.6121664352826
 30
0.0
 10
163.742688596806
 20
124.7376163340527
 30
0.0
 10
163.461092202268
 20
125.018846823058
 30
0.0
 10
163.3334612793925
 20
125.174229700972
 30
0.0
 10
163.1131358443926
 20
125.5030805590149
 30
0.0
 10
163.0189093874273
 20
125.6779686654289
 30
0.0
 10
162.8639748668242
 20
126.0501125167897
 30
0.0
 10
162.8059625812219
 20
126.2409185585987
 30
0.0
 10
162.7275433269438
 20
126.6317915765174
 30
0.0
 10
162.7072292469772
 20
126.8342491378997
 30
0.0
 10
162.7070981306733
 20
127.2363797428191
 30
0.0
 10
162.7267228240326
 20
127.4351037879942
 30
0.0
 10
162.8048892744463
 20
127.8279432591309
 30
0.0
 10
162.8641767197862
 20
128.0225875365335
 30
0.0
 10
163.0932575628691
 20
128.5740272899477
 30
0.0
 10
163.3200884137633
 20
128.9123668556469
 30
0.0
 10
163.739427115084
 20
129.3320325182983
 30
0.0
 10
163.8947801108339
 20
129.4598785240716
 30
0.0
 10
164.2257479439711
 20
129.6814795987734
 30
0.0
 10
164.4003092441675
 20
129.7751203327504
 30
0.0
 10
164.7678825517423
 20
129.9282744534496
 30
0.0
 10
164.9625694133803
 20
129.9877781990957
 30
0.0
 10
165.3550453633168
 20
130.0663009481586
 30
0.0
 10
165.5544848797529
 20
130.0863089050954
 30
0.0
 10
165.9598421736484
 20
130.0863089050954
 30
0.0
  0
SPLINE
  5
114
330
1F
100
AcDbEntity
  8
0
  6
HIDDEN
 62
     7
370
     0
100
AcDbSpline
210
0.0
220
0.0
230
1.0
 70
     8
 71
     3
 72
    66
 73
    62
 74
     0
 42
0.00000001
 43
0.00000001
 12
1.0
 22
0.0
 32
0.0
 13
1.0
 23
0.0
 33
0.0
 40
-0.0312500000000002
 40
-0.0312500000000002
 40
0.0
 40
0.0
 40
0.0312499999999997
 40
0.0312499999999997
 40
0.0624999999999993
 40
0.0624999999999993
 40
0.093749999999999
 40
0.093749999999999
 40
0.1249999999999987
 40
0.1249999999999987
 40
0.1874999999999984
 40
0.1874999999999984
 40
0.2187499999999983
 40
0.2187499999999983
 40
0.2499999999999982
 40
0.2499999999999982
 40
0.2812499999999981
 40
0.2812499999999981
 40
0.3124999999999979
 40
0.3124999999999979
 40
0.3437499999999978
 40
0.3437499999999978
 40
0.3749999999999977
 40
0.3749999999999977
 40
0.4062499999999977
 40
0.4062499999999977
 40
0.4374999999999978
 40
0.4374999999999978
 40
0.4687499999999979
 40
0.4687499999999979
 40
0.499999999999998
 40
0.499999999999998
 40
0.5312499999999981
 40
0.5312499999999981
 40
0.5624999999999982
 40
0.5624999999999982
 40
0.5937499999999983
 40
0.5937499999999983
 40
0.6249999999999984
 40
0.6249999999999984
 40
0.6562499999999986
 40
0.6562499999999986
 40
0.6874999999999987
 40
0.6874999999999987
 40
0.7187499999999988
 40
0.7187499999999988
 40
0.7499999999999989
 40
0.7499999999999989
 40
0.7812499999999991
 40
0.7812499999999991
 40
0.8124999999999992
 40
0.8124999999999992
 40
0.8749999999999994
 40
0.8749999999999994
 40
0.9062499999999996
 40
0.9062499999999996
 40
0.9374999999999997
 40
0.9374999999999997
 40
0.9687499999999998
 40
0.9687499999999998
 40
1.0
 40
1.0
 40
1.03125
 40
1.03125
 10
165.9598421736484
 20
130.0863089050954
 30
0.0
 10
165.5544848797529
 20
130.0863089050954
 30
0.0
 10
165.355424988417
 20
130.0663093454788
 30
0.0
 10
164.9641710038373
 20
129.9881658427786
 30
0.0
 10
164.7698982450897
 20
129.9290047412579
 30
0.0
 10
164.4011348185384
 20
129.7755730543636
 30
0.0
 10
164.2264096601601
 20
129.6818462445213
 30
0.0
 10
163.8957323566263
 20
129.4605921421165
 30
0.0
 10
163.7400848126235
 20
129.3326107751219
 30
0.0
 10
163.3206174429548
 20
128.9130556781218
 30
0.0
 10
163.0937293014245
 20
128.5745771194185
 30
0.0
 10
162.8649326780398
 20
128.0246982317003
 30
0.0
 10
162.8057404231909
 20
127.8312983859569
 30
0.0
 10
162.7269330129303
 20
127.4370702355989
 30
0.0
 10
162.7072935966499
 20
127.2384314081666
 30
0.0
 10
162.7070347322284
 20
126.8381311222682
 30
0.0
 10
162.7271054168613
 20
126.6347917955471
 30
0.0
 10
162.8054430994912
 20
126.2427002749395
 30
0.0
 10
162.8633928675297
 20
126.0519944066243
 30
0.0
 10
163.0173360094097
 20
125.6812705900377
 30
0.0
 10
163.1122746231324
 20
125.5045439302289
 30
0.0
 10
163.3326320390096
 20
125.1752908193045
 30
0.0
 10
163.4599120649378
 20
125.0201695957081
 30
0.0
 10
163.7416676562684
 20
124.7384929007777
 30
0.0
 10
163.8944559857259
 20
124.6130597158733
 30
0.0
 10
164.2238830678828
 20
124.3922841225192
 30
0.0
 10
164.4024290710345
 20
124.296452869819
 30
0.0
 10
164.7700013965847
 20
124.1436237393239
 30
0.0
 10
164.9601554232957
 20
124.0854519813797
 30
0.0
 10
165.3536958459981
 20
124.0064586890348
 30
0.0
 10
165.5561299172593
 20
123.9863955633925
 30
0.0
 10
165.9555589926247
 20
123.9862228172738
 30
0.0
 10
166.1555779711806
 20
124.0057061913631
 30
0.0
 10
166.55169391863
 20
124.0846977629643
 30
0.0
 10
166.7424267468218
 20
124.1429779828163
 30
0.0
 10
167.1100581874015
 20
124.2955456034243
 30
0.0
 10
167.2885446195693
 20
124.3911543901976
 30
0.0
 10
167.6187498785334
 20
124.6121664352826
 30
0.0
 10
167.7716384565953
 20
124.7376163340527
 30
0.0
 10
168.0532348511334
 20
125.018846823058
 30
0.0
 10
168.1808657740089
 20
125.174229700972
 30
0.0
 10
168.4011912090087
 20
125.5030805590149
 30
0.0
 10
168.4954176659741
 20
125.6779686654289
 30
0.0
 10
168.6503521865772
 20
126.0501125167897
 30
0.0
 10
168.7083644721794
 20
126.2409185585987
 30
0.0
 10
168.7867837264575
 20
126.6317915765174
 30
0.0
 10
168.8070978064241
 20
126.8342491378997
 30
0.0
 10
168.807228922728
 20
127.2363797428191
 30
0.0
 10
168.7876042293687
 20
127.4351037879942
 30
0.0
 10
168.709437778955
 20
127.8279432591309
 30
0.0
 10
168.6501503336151
 20
128.0225875365335
 30
0.0
 10
168.4210694905323
 20
128.5740272899477
 30
0.0
 10
168.1942386396381
 20
128.9123668556469
 30
0.0
 10
167.7748999383174
 20
129.3320325182983
 30
0.0
 10
167.6195469425674
 20
129.4598785240717
 30
0.0
 10
167.2885791094302
 20
129.6814795987734
 30
0.0
 10
167.1140178092339
 20
129.7751203327504
 30
0.0
 10
166.746444501659
 20
129.9282744534496
 30
0.0
 10
166.551757640021
 20
129.9877781990957
 30
0.0
 10
166.1592816900845
 20
130.0663009481586
 30
0.0
 10
165.9598421736484
 20
130.0863089050954
 30
0.0
 10
165.5544848797529
 20
130.0863089050954
 30
0.0
  0
LINE
  5
115
330
1F
100
AcDbEntity
  8
0
  6
HIDDEN
 62
     7
370
     0
100
AcDbLine
 10
170.7571635267
 20
134.2863089051
 30
0.0
 11
170.7571635267
 21
119.7863089051
 31
0.0
  0
LINE
  5
116
330
1F
100
AcDbEntity
  8
0
  6
HIDDEN
 62
     7
370
     0
100
AcDbLine
 10
169.7571635267
 20
118.7863089051
 30
0.0
 11
169.7571635267
 21
135.2706613672
 31
0.0
  0
LINE
  5
117
330
1F
100
AcDbEntity
  8
0
  6
HIDDEN
 62
     7
370
     0
100
AcDbLine
 10
203.7571635267
 20
119.7863089051
 30
0.0
 11
203.7571635267
 21
134.2863089051
 31
0.0
  0
LINE
  5
118
330
1F
100
AcDbEntity
  8
0
  6
HIDDEN
 62
     7
370
     0
100
AcDbLine
 10
236.2113148795
 20
102.957396484
 30
0.0
 11
236.1977928369
 21
103.0002829241
 31
0.0
  0
LINE
  5
119
330
1F
100
AcDbEntity
  8
0
  6
HIDDEN
 62
     7
370
     0
100
AcDbLine
 10
228.9709517085
 20
105.2402742229
 30
0.0
 11
236.2113148795
 21
102.957396484
 31
0.0
  0
LINE
  5
11A
330
1F
100
AcDbEntity
  8
0
  6
HIDDEN
 62
     7
370
     0
100
AcDbLine
 10
228.9574296658
 20
105.283160663
 30
0.0
 11
228.9709517085
 21
105.2402742229
 31
0.0
  0
LINE
  5
11B
330
1F
100
AcDbEntity
  8
0
  6
HIDDEN
 62
     7
370
     0
100
AcDbLine
 10
228.8360759478
 20
95.5821575523
 30
0.0
 11
225.5988569908
 21
105.8493043706
 31
0.0
  0
LINE
  5
11C
330
1F
100
AcDbEntity
  8
0
  6
HIDDEN
 62
     7
370
     0
100
AcDbLine
 10
228.8360759478
 20
95.5821575523
 30
0.0
 11
228.7931895077
 21
95.5956795949
 31
0.0
  0
LINE
  5
11D
330
1F
100
AcDbEntity
  8
0
  6
HIDDEN
 62
     7
370
     0
100
AcDbLine
 10
228.9709517085
 20
105.2402742229
 30
0.0
 11
228.7585492332
 21
105.0278717476
 31
0.0
  0
LINE
  5
11E
330
1F
100
AcDbEntity
  8
0
  6
HIDDEN
 62
     7
370
     0
100
AcDbLine
 10
236.0132699577
 20
102.7404670895
 30
0.0
 11
236.2113148795
 21
102.957396484
 31
0.0
  0
LINE
  5
11F
330
1F
100
AcDbEntity
  8
0
  6
HIDDEN
 62
     7
370
     0
100
AcDbLine
 10
236.0132699577
 20
102.7404670895
 30
0.0
 11
228.7585492332
 21
105.0278717476
 31
0.0
  0
LINE
  5
120
330
1F
100
AcDbEntity
  8
0
  6
HIDDEN
 62
     7
370
     0
100
AcDbLine
 10
228.6472177489
 20
105.3809701047
 30
0.0
 11
228.7585492332
 21
105.0278717476
 31
0.0
  0
LINE
  5
121
330
1F
100
AcDbEntity
  8
0
  6
HIDDEN
 62
     7
370
     0
100
AcDbLine
 10
225.7864342747
 20
106.1404422937
 30
0.0
 11
229.0530053423
 21
95.7802024741
 31
0.0
  0
LINE
  5
122
330
1F
100
AcDbEntity
  8
0
  6
HIDDEN
 62
     7
370
     0
100
AcDbLine
 10
229.0530053423
 20
95.7802024741
 30
0.0
 11
228.8360759478
 21
95.5821575523
 31
0.0
  0
SPLINE
  5
123
330
1F
100
AcDbEntity
  8
0
  6
HIDDEN
 62
     7
370
     0
100
AcDbSpline
210
0.0
220
0.0
230
1.0
 70
     8
 71
     3
 72
     8
 73
     4
 74
     0
 42
0.00000001
 43
0.00000001
 12
1.0
 22
0.0
 32
0.0
 13
1.0
 23
0.0
 33
0.0
 40
0.0
 40
0.0
 40
0.0
 40
0.0
 40
1.0
 40
1.0
 40
1.0
 40
1.0
 10
214.8138456698426
 20
102.6348274544623
 30
0.0
 10
214.6067105337131
 20
102.5450409693746
 30
0.0
 10
214.4124470426807
 20
102.4509816121241
 30
0.0
 10
214.2344256781552
 20
102.3515305174778
 30
0.0
  0
ELLIPSE
  5
124
330
1F
100
AcDbEntity
  8
0
  6
HIDDEN
 62
     7
370
     0
100
AcDbEllipse
 10
228.6560983239
 20
127.0363089051
 30
0.0
 11
-8.146585193269317
 21
25.48380449208438
 31
0.0
210
0.0
220
0.0
230
1.0
 40
0.1115418396
 41
6.259308028702526
 42
7.818339378209173
  0
LINE
  5
125
330
1F
100
AcDbEntity
  8
0
  6
HIDDEN
 62
     7
370
     0
100
AcDbLine
 10
212.8558619425
 20
152.5345441381
 30
0.0
 11
212.8558619425
 21
127.0363089051
 31
0.0
  0
SPLINE
  5
126
330
1F
100
AcDbEntity
  8
0
  6
HIDDEN
 62
     7
370
     0
100
AcDbSpline
210
0.0
220
0.0
230
1.0
 70
     8
 71
     3
 72
    10
 73
     6
 74
     0
 42
0.00000001
 43
0.00000001
 12
1.0
 22
0.0
 32
0.0
 13
1.0
 23
0.0
 33
0.0
 40
0.0
 40
0.0
 40
0.0
 40
0.0
 40
0.5
 40
0.5
 40
1.0
 40
1.0
 40
1.0
 40
1.0
 10
214.2344256781552
 20
102.3515305174778
 30
0.0
 10
213.821954016106
 20
102.1211044761389
 30
0.0
 10
213.5015958524476
 20
101.8504824554348
 30
0.0
 10
213.1269273009592
 20
101.2317982989289
 30
0.0
 10
213.0753719509775
 20
100.8837464008005
 30
0.0
 10
213.1701610767453
 20
100.4966765881382
 30
0.0
  0
LINE
  5
127
330
1F
100
AcDbEntity
  8
0
  6
HIDDEN
 62
     7
370
     0
100
AcDbLine
 10
235.8087623331
 20
102.8049480959
 30
0.0
 11
236.0132699577
 21
102.7404670895
 31
0.0
  0
LINE
  5
128
330
1F
100
AcDbEntity
  8
0
  6
HIDDEN
 62
     7
370
     0
100
AcDbLine
 10
228.9885243359
 20
95.9847100987
 30
0.0
 11
229.0530053423
 21
95.7802024741
 31
0.0
  0
LINE
  5
129
330
1F
100
AcDbEntity
  8
0
  6
HIDDEN
 62
     7
370
     0
100
AcDbLine
 10
237.7739691698
 20
93.6849476511
 30
0.0
 11
238.4608055017
 21
92.9981113192
 31
0.0
  0
LINE
  5
12A
330
1F
100
AcDbEntity
  8
0
  6
HIDDEN
 62
     7
370
     0
100
AcDbLine
 10
238.7953611126
 20
93.3326669301
 30
0.0
 11
237.7794392886
 21
94.3485887541
 31
0.0
  0
CIRCLE
  5
12B
330
1F
100
AcDbEntity
  8
0
  6
HIDDEN
 62
     7
370
     0
100
AcDbCircle
 10
232.5858823225
 20
99.2075901093
 30
0.0
 40
2.399999999999991
  0
LINE
  5
12C
330
1F
100
AcDbEntity
  8
0
  6
HIDDEN
 62
     7
370
     0
100
AcDbLine
 10
238.4608055017
 20
92.9981113192
 30
0.0
 11
238.7953611126
 21
93.3326669301
 31
0.0
  0
LINE
  5
12D
330
1F
100
AcDbEntity
  8
0
  6
HIDDEN
 62
     7
370
     0
100
AcDbLine
 10
225.6230343837
 20
106.6586805384
 30
0.0
 11
228.9885243359
 21
95.9847100987
 31
0.0
  0
ARC
  5
12E
330
1F
100
AcDbEntity
  8
0
  6
HIDDEN
 62
     7
370
     0
100
AcDbCircle
 10
226.8151805722
 20
107.0345627878
 30
0.0
 40
1.250000000000026
100
AcDbArc
 50
17.5
 51
197.5
  0
LINE
  5
12F
330
1F
100
AcDbEntity
  8
0
  6
HIDDEN
 62
     7
370
     0
100
AcDbLine
 10
228.7585492332
 20
105.0278717476
 30
0.0
 11
228.0073267606
 21
107.4104450371
 31
0.0
  0
LINE
  5
130
330
1F
100
AcDbEntity
  8
0
  6
HIDDEN
 62
     7
370
     0
100
AcDbLine
 10
235.8087623331
 20
102.8049480959
 30
0.0
 11
228.7585492332
 21
105.0278717476
 31
0.0
  0
LINE
  5
131
330
1F
100
AcDbEntity
  8
0
  6
HIDDEN
 62
     7
370
     0
100
AcDbLine
 10
228.9885243359
 20
95.9847100987
 30
0.0
 11
238.4608055017
 21
92.9981113192
 31
0.0
  0
LINE
  5
132
330
1F
100
AcDbEntity
  8
0
  6
HIDDEN
 62
     7
370
     0
100
AcDbLine
 10
235.8087623331
 20
102.8049480959
 30
0.0
 11
238.7953611126
 21
93.3326669301
 31
0.0
  0
CIRCLE
  5
133
330
1F
100
AcDbEntity
  8
0
  6
HIDDEN
 62
     7
370
     0
100
AcDbCircle
 10
232.5858823225
 20
99.2075901093
 30
0.0
 40
1.649999999999991
  0
SPLINE
  5
134
330
1F
100
AcDbEntity
  8
0
  6
HIDDEN
 62
     7
370
     0
100
AcDbSpline
210
0.0
220
0.0
230
1.0
 70
     8
 71
     3
 72
    18
 73
    14
 74
     0
 42
0.00000001
 43
0.00000001
 12
1.0
 22
0.0
 32
0.0
 13
1.0
 23
0.0
 33
0.0
 40
0.0
 40
0.0
 40
0.0
 40
0.0
 40
0.2499999999999999
 40
0.2499999999999999
 40
0.3750000000000001
 40
0.3750000000000001
 40
0.5000000000000002
 40
0.5000000000000002
 40
0.6250000000000003
 40
0.6250000000000003
 40
0.7500000000000004
 40
0.7500000000000004
 40
1.0
 40
1.0
 40
1.0
 40
1.0
 10
178.435843183141
 20
144.3332187731002
 30
0.0
 10
178.3005575768387
 20
144.2618660314107
 30
0.0
 10
178.1993898305957
 20
144.1164626248213
 30
0.0
 10
178.0965284877268
 20
143.7869953892156
 30
0.0
 10
178.0704256422035
 20
143.6580618124109
 30
0.0
 10
178.0355356586587
 20
143.3625198130748
 30
0.0
 10
178.0269494003687
 20
143.1981250395528
 30
0.0
 10
178.026849690803
 20
142.8371634248122
 30
0.0
 10
178.0353380619516
 20
142.64059363265
 30
0.0
 10
178.0694814414722
 20
142.215238836525
 30
0.0
 10
178.095278423326
 20
141.9854691867255
 30
0.0
 10
178.198679554714
 20
141.252880492293
 30
0.0
 10
178.3005375468854
 20
140.7156437173754
 30
0.0
 10
178.4358431831411
 20
140.1313556286278
 30
0.0
  0
LINE
  5
135
330
1F
100
AcDbEntity
  8
0
  6
HIDDEN
 62
     7
370
     0
100
AcDbLine
 10
177.5571635267
 20
144.5564076897
 30
0.0
 11
177.5571635267
 21
139.4162552019
 31
0.0
  0
LINE
  5
136
330
1F
100
AcDbEntity
  8
0
  6
HIDDEN
 62
     7
370
     0
100
AcDbLine
 10
151.2571635267
 20
143.895660147
 30
0.0
 11
151.2571635267
 21
139.0858814305
 31
0.0
  0
LINE
  5
137
330
1F
100
AcDbEntity
  8
0
  6
HIDDEN
 62
     7
370
     0
100
AcDbLine
 10
149.7571635267
 20
143.0296347433
 30
0.0
 11
149.7571635267
 21
138.6528687287
 31
0.0
  0
LINE
  5
138
330
1F
100
AcDbEntity
  8
0
  6
HIDDEN
 62
     7
370
     0
100
AcDbLine
 10
151.2571635267
 20
114.9867363796
 30
0.0
 11
151.2571635267
 21
110.1769576631
 31
0.0
  0
LINE
  5
139
330
1F
100
AcDbEntity
  8
0
  6
HIDDEN
 62
     7
370
     0
100
AcDbLine
 10
149.7571635267
 20
115.4197490815
 30
0.0
 11
149.7571635267
 21
111.0429830669
 31
0.0
  0
SPLINE
  5
13A
330
1F
100
AcDbEntity
  8
0
  6
HIDDEN
 62
     7
370
     0
100
AcDbSpline
210
0.0
220
0.0
230
1.0
 70
     8
 71
     3
 72
    18
 73
    14
 74
     0
 42
0.00000001
 43
0.00000001
 12
1.0
 22
0.0
 32
0.0
 13
1.0
 23
0.0
 33
0.0
 40
0.0
 40
0.0
 40
0.0
 40
0.0
 40
0.2500000000000006
 40
0.2500000000000006
 40
0.3750000000000006
 40
0.3750000000000006
 40
0.5000000000000007
 40
0.5000000000000007
 40
0.6250000000000007
 40
0.6250000000000007
 40
0.7500000000000008
 40
0.7500000000000008
 40
1.0
 40
1.0
 40
1.0
 40
1.0
 10
178.435843183141
 20
113.941262181563
 30
0.0
 10
178.3005575768387
 20
113.3570605878313
 30
0.0
 10
178.1993898305957
 20
112.8228429006231
 30
0.0
 10
178.0965284877268
 20
112.0969461297348
 30
0.0
 10
178.0704256422035
 20
111.8670656419548
 30
0.0
 10
178.0355356586587
 20
111.436494697168
 30
0.0
 10
178.0269494003687
 20
111.2387997916739
 30
0.0
 10
178.0268496908031
 20
110.8774517489961
 30
0.0
 10
178.0353380619516
 20
110.7138017390499
 30
0.0
 10
178.0694814414722
 20
110.4205904660809
 30
0.0
 10
178.095278423326
 20
110.2905943999651
 30
0.0
 10
178.198679554714
 20
109.9565385074032
 30
0.0
 10
178.3005375468853
 20
109.8107623430384
 30
0.0
 10
178.435843183141
 20
109.7393990370906
 30
0.0
  0
LINE
  5
13B
330
1F
100
AcDbEntity
  8
0
  6
HIDDEN
 62
     7
370
     0
100
AcDbLine
 10
177.5571635267
 20
114.6563626083
 30
0.0
 11
177.5571635267
 21
109.5162101205
 31
0.0
  0
ELLIPSE
  5
13C
330
1F
100
AcDbEntity
  8
0
  6
HIDDEN
 62
     7
370
     0
100
AcDbEllipse
 10
272.8194783436
 20
125.0363089051
 30
0.0
 11
34.60288640299178
 21
32.44887929398219
 31
0.0
210
0.0
220
0.0
230
1.0
 40
0.1735649966
 41
2.948036669668032
 42
3.007179770283216
  0
ELLIPSE
  5
13D
330
1F
100
AcDbEntity
  8
0
  6
HIDDEN
 62
     7
370
     0
100
AcDbEllipse
 10
134.3290585587
 20
125.0363089051
 30
0.0
 11
105.4424577115198
 21
-32.79560776950145
 31
0.0
210
0.0
220
0.0
230
1.0
 40
0.0347788424
 41
0.2060720377240343
 42
0.7132681992179919
  0
ELLIPSE
  5
13E
330
1F
100
AcDbEntity
  8
0
  6
HIDDEN
 62
     7
370
     0
100
AcDbEllipse
 10
229.5936573039
 20
125.0363089051
 30
0.0
 11
-10.54263966187773
 21
32.97904110740267
 31
0.0
210
0.0
220
0.0
230
1.0
 40
0.1115418396
 41
2.092834700768989
 42
2.729379000593997
  0
SPLINE
  5
13F
330
1F
100
AcDbEntity
  8
0
  6
HIDDEN
 62
     7
370
     0
100
AcDbSpline
210
0.0
220
0.0
230
1.0
 70
     8
 71
     3
 72
     8
 73
     4
 74
     0
 42
0.00000001
 43
0.00000001
 12
1.0
 22
0.0
 32
0.0
 13
1.0
 23
0.0
 33
0.0
 40
0.0
 40
0.0
 40
0.0
 40
0.0
 40
1.0
 40
1.0
 40
1.0
 40
1.0
 10
214.6541627757597
 20
107.5720597085224
 30
0.0
 10
214.7070528682688
 20
105.7930161839171
 30
0.0
 10
214.7602999112423
 20
104.1494372357164
 30
0.0
 10
214.8138456698426
 20
102.6348274544623
 30
0.0
  0
LINE
  5
140
330
1F
100
AcDbEntity
  8
0
  6
HIDDEN
 62
     7
370
     0
100
AcDbLine
 10
149.7571635267
 20
138.6528687287
 30
0.0
 11
149.7571635267
 21
129.3754798333
 31
0.0
  0
LINE
  5
141
330
1F
100
AcDbEntity
  8
0
  6
HIDDEN
 62
     7
370
     0
100
AcDbLine
 10
149.7571635267
 20
124.6971379769
 30
0.0
 11
149.7571635267
 21
115.4197490815
 31
0.0
  0
LINE
  5
142
330
1F
100
AcDbEntity
  8
0
  6
HIDDEN
 62
     7
370
     0
100
AcDbLine
 10
151.2571635267
 20
123.8878317868
 30
0.0
 11
151.2571635267
 21
114.9867363796
 31
0.0
  0
LINE
  5
143
330
1F
100
AcDbEntity
  8
0
  6
HIDDEN
 62
     7
370
     0
100
AcDbLine
 10
151.2571635267
 20
139.0858814305
 30
0.0
 11
151.2571635267
 21
130.1847860234
 31
0.0
  0
LINE
  5
144
330
1F
100
AcDbEntity
  8
0
  6
HIDDEN
 62
     7
370
     0
100
AcDbLine
 10
177.5571635267
 20
139.4162552019
 30
0.0
 11
177.5571635267
 21
114.6563626083
 31
0.0
  0
LINE
  5
145
330
1F
100
AcDbEntity
  8
0
  6
HIDDEN
 62
     7
370
     0
100
AcDbLine
 10
179.5571635267
 20
138.5985831382
 30
0.0
 11
179.5571635267
 21
115.474034672
 31
0.0
  0
CIRCLE
  5
146
330
1F
100
AcDbEntity
  8
0
  6
HIDDEN
 62
     7
370
     0
100
AcDbCircle
 10
232.5858823225
 20
99.2075901093
 30
0.0
 40
1.649999999999991
  0
SPLINE
  5
147
330
1F
100
AcDbEntity
  8
0
  6
HIDDEN
 62
     7
370
     0
100
AcDbSpline
210
0.0
220
0.0
230
1.0
 70
     8
 71
     3
 72
     8
 73
     4
 74
     0
 42
0.00000001
 43
0.00000001
 12
1.0
 22
0.0
 32
0.0
 13
1.0
 23
0.0
 33
0.0
 40
0.0000202085968836
 40
0.0000202085968836
 40
0.0000202085968836
 40
0.0000202085968836
 40
0.0040218806502652
 40
0.0040218806502652
 40
0.0040218806502652
 40
0.0040218806502652
 10
151.2571635267007
 20
123.8878317867587
 30
0.0
 10
152.5904866524913
 20
123.8638335555951
 30
0.0
 10
153.9238205257139
 20
123.8405058154267
 30
0.0
 10
155.2571635267007
 20
123.8178111446463
 30
0.0
  0
SPLINE
  5
148
330
1F
100
AcDbEntity
  8
0
  6
HIDDEN
 62
     7
370
     0
100
AcDbSpline
210
0.0
220
0.0
230
1.0
 70
     8
 71
     3
 72
     8
 73
     4
 74
     0
 42
0.00000001
 43
0.00000001
 12
1.0
 22
0.0
 32
0.0
 13
1.0
 23
0.0
 33
0.0
 40
0.0000202082942178
 40
0.0000202082942178
 40
0.0000202082942178
 40
0.0000202082942178
 40
0.0040218803475994
 40
0.0040218803475994
 40
0.0040218803475994
 40
0.0040218803475994
 10
155.2571635267007
 20
130.2548066655445
 30
0.0
 10
153.9238205257139
 20
130.2321119947641
 30
0.0
 10
152.5904866524913
 20
130.2087842545957
 30
0.0
 10
151.2571635267007
 20
130.1847860234321
 30
0.0
  0
SPLINE
  5
149
330
1F
100
AcDbEntity
  8
0
  6
HIDDEN
 62
     7
370
     0
100
AcDbSpline
210
0.0
220
0.0
230
1.0
 70
     8
 71
     3
 72
     8
 73
     4
 74
     0
 42
0.00000001
 43
0.00000001
 12
1.0
 22
0.0
 32
0.0
 13
1.0
 23
0.0
 33
0.0
 40
0.0
 40
0.0
 40
0.0
 40
0.0
 40
1.0
 40
1.0
 40
1.0
 40
1.0
 10
149.7571635267007
 20
124.6971379768604
 30
0.0
 10
150.2313749371383
 20
124.3624087495656
 30
0.0
 10
150.7361112842399
 20
124.1033503357329
 30
0.0
 10
151.2571635267007
 20
123.8878317867587
 30
0.0
  0
SPLINE
  5
14A
330
1F
100
AcDbEntity
  8
0
  6
HIDDEN
 62
     7
370
     0
100
AcDbSpline
210
0.0
220
0.0
230
1.0
 70
     8
 71
     3
 72
     8
 73
     4
 74
     0
 42
0.00000001
 43
0.00000001
 12
1.0
 22
0.0
 32
0.0
 13
1.0
 23
0.0
 33
0.0
 40
0.0
 40
0.0
 40
0.0
 40
0.0
 40
1.0
 40
1.0
 40
1.0
 40
1.0
 10
151.2571635267007
 20
130.1847860234321
 30
0.0
 10
150.7361112842399
 20
129.969267474458
 30
0.0
 10
150.2313749371383
 20
129.7102090606252
 30
0.0
 10
149.7571635267007
 20
129.3754798333304
 30
0.0
  0
LINE
  5
14B
330
1F
100
AcDbEntity
  8
0
  6
HIDDEN
 62
     7
370
     0
100
AcDbLine
 10
149.7571635267
 20
124.6971379769
 30
0.0
 11
149.7571635267
 21
129.3754798333
 31
0.0
  0
LINE
  5
14C
330
1F
100
AcDbEntity
  8
0
  6
HIDDEN
 62
     7
370
     0
100
AcDbLine
 10
155.2571635267
 20
123.8178111446
 30
0.0
 11
155.2571635267
 21
130.2548066655
 31
0.0
  0
SPLINE
  5
14D
330
1F
100
AcDbEntity
  8
0
  6
HIDDEN
 62
     7
370
     0
100
AcDbSpline
210
0.0
220
0.0
230
1.0
 70
     8
 71
     3
 72
    26
 73
    22
 74
     0
 42
0.00000001
 43
0.00000001
 12
1.0
 22
0.0
 32
0.0
 13
1.0
 23
0.0
 33
0.0
 40
0.0
 40
0.0
 40
0.0
 40
0.0
 40
0.1250000000000001
 40
0.1250000000000001
 40
0.2500000000000002
 40
0.2500000000000002
 40
0.3750000000000004
 40
0.3750000000000004
 40
0.4375000000000005
 40
0.4375000000000005
 40
0.5000000000000007
 40
0.5000000000000007
 40
0.5625000000000009
 40
0.5625000000000009
 40
0.625000000000001
 40
0.625000000000001
 40
0.7500000000000007
 40
0.7500000000000007
 40
0.8750000000000003
 40
0.8750000000000003
 40
1.0
 40
1.0
 40
1.0
 40
1.0
 10
155.2571635267007
 20
123.8178111446463
 30
0.0
 10
155.4678068887006
 20
124.0524281755914
 30
0.0
 10
155.6750033264576
 20
124.2903113115508
 30
0.0
 10
156.0765024610899
 20
124.7776256178197
 30
0.0
 10
156.271778880136
 20
125.0277508426087
 30
0.0
 10
156.6315593728314
 20
125.5463409880597
 30
0.0
 10
156.7968182329807
 20
125.8137719719465
 30
0.0
 10
156.9894761424069
 20
126.245187104345
 30
0.0
 10
157.044440882617
 20
126.3952059862694
 30
0.0
 10
157.1221766675811
 20
126.7079431649994
 30
0.0
 10
157.1434428058894
 20
126.8656974118067
 30
0.0
 10
157.1453367351752
 20
127.1844026916525
 30
0.0
 10
157.1251109981082
 20
127.346839491833
 30
0.0
 10
157.0506465878223
 20
127.6577914914157
 30
0.0
 10
156.9970074620764
 20
127.8084627297433
 30
0.0
 10
156.8022631566757
 20
128.2505464877119
 30
0.0
 10
156.6352130434975
 20
128.5205905008796
 30
0.0
 10
156.2749569247938
 20
129.040698129161
 30
0.0
 10
156.0802045497734
 20
129.2903593419707
 30
0.0
 10
155.6771953253012
 20
129.7797834538135
 30
0.0
 10
155.4687588069376
 20
130.0191293769774
 30
0.0
 10
155.2571635267016
 20
130.2548066655453
 30
0.0
  0
SPLINE
  5
14E
330
1F
100
AcDbEntity
  8
0
  6
HIDDEN
 62
     7
370
     0
100
AcDbSpline
210
0.0
220
0.0
230
1.0
 70
     8
 71
     3
 72
    68
 73
    64
 74
     0
 42
0.00000001
 43
0.00000001
 12
1.0
 22
0.0
 32
0.0
 13
1.0
 23
0.0
 33
0.0
 40
-0.03125
 40
-0.03125
 40
0.0
 40
0.0
 40
0.0312499999999999
 40
0.0312499999999999
 40
0.0624999999999998
 40
0.0624999999999998
 40
0.0937499999999997
 40
0.0937499999999997
 40
0.1249999999999996
 40
0.1249999999999996
 40
0.1562499999999995
 40
0.1562499999999995
 40
0.1874999999999994
 40
0.1874999999999994
 40
0.2499999999999994
 40
0.2499999999999994
 40
0.2812499999999994
 40
0.2812499999999994
 40
0.3124999999999995
 40
0.3124999999999995
 40
0.3437499999999996
 40
0.3437499999999996
 40
0.3749999999999996
 40
0.3749999999999996
 40
0.4062499999999997
 40
0.4062499999999997
 40
0.4374999999999998
 40
0.4374999999999998
 40
0.4687499999999998
 40
0.4687499999999998
 40
0.4999999999999999
 40
0.4999999999999999
 40
0.5312499999999999
 40
0.5312499999999999
 40
0.5624999999999999
 40
0.5624999999999999
 40
0.5937499999999999
 40
0.5937499999999999
 40
0.6249999999999999
 40
0.6249999999999999
 40
0.6562499999999999
 40
0.6562499999999999
 40
0.6874999999999999
 40
0.6874999999999999
 40
0.7187499999999999
 40
0.7187499999999999
 40
0.7499999999999999
 40
0.7499999999999999
 40
0.78125
 40
0.78125
 40
0.8125
 40
0.8125
 40
0.84375
 40
0.84375
 40
0.875
 40
0.875
 40
0.90625
 40
0.90625
 40
0.9375
 40
0.9375
 40
0.96875
 40
0.96875
 40
1.0
 40
1.0
 40
1.03125
 40
1.03125
 10
163.4769241914443
 20
129.2941965960871
 30
0.0
 10
163.8118117111172
 20
129.565437832834
 30
0.0
 10
163.9900779330529
 20
129.6830791257057
 30
0.0
 10
164.3671026299462
 20
129.8844106497156
 30
0.0
 10
164.5672913513225
 20
129.9682188529292
 30
0.0
 10
164.9739593909534
 20
130.0963108764976
 30
0.0
 10
165.1818745569736
 20
130.1416156734577
 30
0.0
 10
165.606862856197
 20
130.1947733847633
 30
0.0
 10
165.8228995071809
 20
130.2020555687988
 30
0.0
 10
166.2474104760325
 20
130.1785081312615
 30
0.0
 10
166.4579374494223
 20
130.1480039287846
 30
0.0
 10
166.8754226602093
 20
130.0481443153173
 30
0.0
 10
167.0782861937877
 20
129.9795484275566
 30
0.0
 10
167.6596027128025
 20
129.7222069843376
 30
0.0
 10
168.0200099655783
 20
129.4756570930277
 30
0.0
 10
168.4647489623399
 20
129.0224185369528
 30
0.0
 10
168.5999381824824
 20
128.8548379574764
 30
0.0
 10
168.8328780570847
 20
128.4959758825651
 30
0.0
 10
168.9295614027394
 20
128.3072173622109
 30
0.0
 10
169.0827926673888
 20
127.9107036860026
 30
0.0
 10
169.139409624757
 20
127.7003592769157
 30
0.0
 10
169.2048618265919
 20
127.2789707486329
 30
0.0
 10
169.2148201852191
 20
127.0664546294692
 30
0.0
 10
169.1879861760519
 20
126.637679854369
 30
0.0
 10
169.1509665122791
 20
126.425113626222
 30
0.0
 10
169.0338032332423
 20
126.0158189821441
 30
0.0
 10
168.9522643557474
 20
125.8149703104364
 30
0.0
 10
168.7510251443435
 20
125.4378435519253
 30
0.0
 10
168.6320934091726
 20
125.2616232303957
 30
0.0
 10
168.3589195960804
 20
124.9328671094136
 30
0.0
 10
168.2050588213702
 20
124.781568941514
 30
0.0
 10
167.8751362233542
 20
124.5139817880347
 30
0.0
 10
167.6968143982827
 20
124.3955106273239
 30
0.0
 10
167.3187903983602
 20
124.1926238233891
 30
0.0
 10
167.1228613995791
 20
124.1100048689411
 30
0.0
 10
166.7177761117448
 20
123.9805646924103
 30
0.0
 10
166.5064413138748
 20
123.9335894619798
 30
0.0
 10
166.0825565242223
 20
123.8788745070616
 30
0.0
 10
165.8701212509601
 20
123.8706447586185
 30
0.0
 10
165.4442691836651
 20
123.8921362564192
 30
0.0
 10
165.2291250202555
 20
123.9225338786377
 30
0.0
 10
164.8139954805151
 20
124.0202763355258
 30
0.0
 10
164.6123705147714
 20
124.0873948492747
 30
0.0
 10
164.2212840155003
 20
124.259037949435
 30
0.0
 10
164.0314644066094
 20
124.3643840082196
 30
0.0
 10
163.6808737864377
 20
124.6050869499143
 30
0.0
 10
163.5178673067911
 20
124.7412098262469
 30
0.0
 10
163.2178049841025
 20
125.046863295481
 30
0.0
 10
163.0825360868983
 20
125.2153149749698
 30
0.0
 10
162.8515921340654
 20
125.5715956612533
 30
0.0
 10
162.7541099145931
 20
125.7613493406599
 30
0.0
 10
162.5991273551886
 20
126.1639577029442
 30
0.0
 10
162.5442608343715
 20
126.3697974466172
 30
0.0
 10
162.4788529637073
 20
126.7903770829396
 30
0.0
 10
162.4687067178743
 20
127.0078789002373
 30
0.0
 10
162.4953750804139
 20
127.4346190391979
 30
0.0
 10
162.5314124722403
 20
127.6445217482851
 30
0.0
 10
162.6488236178082
 20
128.0574105689436
 30
0.0
 10
162.7299511524265
 20
128.2577335137275
 30
0.0
 10
162.9297081966158
 20
128.6339720321925
 30
0.0
 10
163.0502106957419
 20
128.8134267774404
 30
0.0
 10
163.3242911411078
 20
129.1437747055301
 30
0.0
 10
163.4769241914443
 20
129.2941965960871
 30
0.0
 10
163.8118117111172
 20
129.565437832834
 30
0.0
  0
CIRCLE
  5
14F
330
1F
100
AcDbEntity
  8
0
  6
HIDDEN
 62
     7
370
     0
100
AcDbCircle
 10
165.7571635267
 20
127.0363089051
 30
0.0
 40
3.049999999999997
  0
CIRCLE
  5
150
330
1F
100
AcDbEntity
  8
0
  6
HIDDEN
 62
     7
370
     0
100
AcDbCircle
 10
191.7571635267
 20
127.0363089051
 30
0.0
 40
2.0
  0
LINE
  5
151
330
1F
100
AcDbEntity
  8
0
  6
HIDDEN
 62
     7
370
     0
100
AcDbLine
 10
214.6541627758
 20
107.5720597085
 30
0.0
 11
231.662146219
 21
107.5720597085
 31
0.0
  0
LINE
  5
152
330
1F
100
AcDbEntity
  8
0
  6
HIDDEN
 62
     7
370
     0
100
AcDbLine
 10
225.5250920209
 20
127.0363089051
 30
0.0
 11
231.662146219
 21
107.5720597085
 31
0.0
  0
SPLINE
  5
153
330
1F
100
AcDbEntity
  8
0
  6
HIDDEN
 62
     7
370
     0
100
AcDbSpline
210
0.0
220
0.0
230
1.0
 70
     8
 71
     3
 72
     8
 73
     4
 74
     0
 42
0.00000001
 43
0.00000001
 12
1.0
 22
0.0
 32
0.0
 13
1.0
 23
0.0
 33
0.0
 40
0.0
 40
0.0
 40
0.0
 40
0.0
 40
1.0
 40
1.0
 40
1.0
 40
1.0
 10
214.6541627757597
 20
107.5720597085224
 30
0.0
 10
213.7969638541712
 20
112.8446226500988
 30
0.0
 10
213.1523341880608
 20
118.1491025649433
 30
0.0
 10
212.9557623650115
 20
123.5208577316457
 30
0.0
  0
SPLINE
  5
154
330
1F
100
AcDbEntity
  8
0
  6
HIDDEN
 62
     7
370
     0
100
AcDbSpline
210
0.0
220
0.0
230
1.0
 70
     8
 71
     3
 72
    10
 73
     6
 74
     0
 42
0.00000001
 43
0.00000001
 12
1.0
 22
0.0
 32
0.0
 13
1.0
 23
0.0
 33
0.0
 40
0.0
 40
0.0
 40
0.0
 40
0.0
 40
0.5
 40
0.5
 40
1.0
 40
1.0
 40
1.0
 40
1.0
 10
212.9557623650115
 20
123.5208577316456
 30
0.0
 10
212.9343231715189
 20
124.106730603088
 30
0.0
 10
212.9078015795921
 20
124.6925656334796
 30
0.0
 10
212.8683739610871
 20
125.8643370690971
 30
0.0
 10
212.8558619425061
 20
126.4502764079136
 30
0.0
 10
212.8558619425061
 20
127.0363089050954
 30
0.0
  0
LINE
  5
155
330
1F
100
AcDbEntity
  8
0
  6
HIDDEN
 62
     7
370
     0
100
AcDbLine
 10
194.7571635267
 20
117.2328062748
 30
0.0
 11
194.7571635267
 21
113.4203375148
 31
0.0
  0
LINE
  5
156
330
1F
100
AcDbEntity
  8
0
  6
HIDDEN
 62
     7
370
     0
100
AcDbLine
 10
200.7571635267
 20
113.4207028464
 30
0.0
 11
200.7571635267
 21
117.2328062748
 31
0.0
  0
LINE
  5
157
330
1F
100
AcDbEntity
  8
0
  6
HIDDEN
 62
     7
370
     0
100
AcDbLine
 10
179.7571635267
 20
107.4863089051
 30
0.0
 11
179.8500567455
 21
107.5792021239
 31
0.0
  0
LINE
  5
158
330
1F
100
AcDbEntity
  8
0
  6
HIDDEN
 62
     7
370
     0
100
AcDbLine
 10
179.8500567455
 20
146.4934156863
 30
0.0
 11
179.7571635267
 21
146.5863089051
 31
0.0
  0
ARC
  5
159
330
1F
100
AcDbEntity
  8
0
  6
HIDDEN
 62
     7
370
     0
100
AcDbCircle
 10
179.1429499643
 20
108.2863089051
 30
0.0
 40
1.000000000000008
100
AcDbArc
 50
315.0
 51
0.0
  0
ARC
  5
15A
330
1F
100
AcDbEntity
  8
0
  6
HIDDEN
 62
     7
370
     0
100
AcDbCircle
 10
179.1429499643
 20
108.2863089051
 30
0.0
 40
1.000000000000021
100
AcDbArc
 50
0.0
 51
52.1052014664
  0
ARC
  5
15B
330
1F
100
AcDbEntity
  8
0
  6
HIDDEN
 62
     7
370
     0
100
AcDbCircle
 10
179.1429499643
 20
145.7863089051
 30
0.0
 40
1.000000000000008
100
AcDbArc
 50
351.8087250651
 51
45.0
  0
ARC
  5
15C
330
1F
100
AcDbEntity
  8
0
  6
HIDDEN
 62
     7
370
     0
100
AcDbCircle
 10
179.1429499643
 20
145.7863089051
 30
0.0
 40
1.000000000000021
100
AcDbArc
 50
307.8947985336
 51
351.8087250651
  0
LINE
  5
15D
330
1F
100
AcDbEntity
  8
0
  6
HIDDEN
 62
     7
370
     0
100
AcDbLine
 10
180.1429499643
 20
108.2863089051
 30
0.0
 11
180.1429499643
 21
145.7863089051
 31
0.0
  0
LINE
  5
15E
330
1F
100
AcDbEntity
  8
0
  6
HIDDEN
 62
     7
370
     0
100
AcDbLine
 10
180.1429499643
 20
108.2863089051
 30
0.0
 11
180.1429499643
 21
145.7863089051
 31
0.0
  0
LINE
  5
15F
330
1F
100
AcDbEntity
  8
0
  6
HIDDEN
 62
     7
370
     0
100
AcDbLine
 10
195.2571635267
 20
123.0877303165
 30
0.0
 11
195.2571635267
 21
117.3964323487
 31
0.0
  0
LINE
  5
160
330
1F
100
AcDbEntity
  8
0
  6
HIDDEN
 62
     7
370
     0
100
AcDbLine
 10
200.2571635267
 20
120.4985872149
 30
0.0
 11
200.2571635267
 21
123.0891966083
 31
0.0
  0
LINE
  5
161
330
1F
100
AcDbEntity
  8
0
  6
HIDDEN
 62
     7
370
     0
100
AcDbLine
 10
200.2571635267
 20
117.3964323487
 30
0.0
 11
200.2571635267
 21
118.4991144799
 31
0.0
  0
LINE
  5
162
330
1F
100
AcDbEntity
  8
0
  6
HIDDEN
 62
     7
370
     0
100
AcDbLine
 10
207.1492414896
 20
116.0797249625
 30
0.0
 11
200.16568257
 21
120.7303348335
 31
0.0
  0
LINE
  5
163
330
1F
100
AcDbEntity
  8
0
  6
HIDDEN
 62
     7
370
     0
100
AcDbLine
 10
196.5188351865
 20
117.1516762272
 30
0.0
 11
207.3198102059
 21
109.9589079525
 31
0.0
  0
LINE
  5
164
330
1F
100
AcDbEntity
  8
0
  6
HIDDEN
 62
     7
370
     0
100
AcDbLine
 10
156.2571635267
 20
115.0363089051
 30
0.0
 11
157.2638830388
 21
115.0363089051
 31
0.0
  0
LINE
  5
165
330
1F
100
AcDbEntity
  8
0
  6
HIDDEN
 62
     7
370
     0
100
AcDbLine
 10
157.2638830388
 20
139.0363089051
 30
0.0
 11
156.2571635267
 21
139.0363089051
 31
0.0
  0
ARC
  5
166
330
1F
100
AcDbEntity
  8
0
  6
HIDDEN
 62
     7
370
     0
100
AcDbCircle
 10
156.2571635267
 20
116.5363089051
 30
0.0
 40
1.5
100
AcDbArc
 50
191.0958032831
 51
270.0
  0
ARC
  5
167
330
1F
100
AcDbEntity
  8
0
  6
HIDDEN
 62
     7
370
     0
100
AcDbCircle
 10
156.2571635267
 20
137.5363089051
 30
0.0
 40
1.5
100
AcDbArc
 50
90.0
 51
168.9041967169
  0
ARC
  5
168
330
1F
100
AcDbEntity
  8
0
  6
HIDDEN
 62
     7
370
     0
100
AcDbCircle
 10
157.2638830388
 20
116.5363089051
 30
0.0
 40
1.499999999999986
100
AcDbArc
 50
270.0
 51
315.0
  0
ARC
  5
169
330
1F
100
AcDbEntity
  8
0
  6
HIDDEN
 62
     7
370
     0
100
AcDbCircle
 10
157.2638830388
 20
137.5363089051
 30
0.0
 40
1.5
100
AcDbArc
 50
45.0
 51
90.0
  0
LINE
  5
16A
330
1F
100
AcDbEntity
  8
0
  6
HIDDEN
 62
     7
370
     0
100
AcDbLine
 10
149.7571635267
 20
115.2728968366
 30
0.0
 11
150.7852033823
 21
115.866435924
 31
0.0
  0
LINE
  5
16B
330
1F
100
AcDbEntity
  8
0
  6
HIDDEN
 62
     7
370
     0
100
AcDbLine
 10
150.7852033823
 20
138.2061818862
 30
0.0
 11
149.7571635267
 21
138.7997209735
 31
0.0
  0
LINE
  5
16C
330
1F
100
AcDbEntity
  8
0
  6
HIDDEN
 62
     7
370
     0
100
AcDbLine
 10
158.3245432105
 20
115.4756487333
 30
0.0
 11
159.3852033823
 21
116.5363089051
 31
0.0
  0
LINE
  5
16D
330
1F
100
AcDbEntity
  8
0
  6
HIDDEN
 62
     7
370
     0
100
AcDbLine
 10
159.3852033823
 20
137.5363089051
 30
0.0
 11
158.3245432105
 21
138.5969690769
 31
0.0
  0
LINE
  5
16E
330
1F
100
AcDbEntity
  8
0
  6
HIDDEN
 62
     7
370
     0
100
AcDbLine
 10
196.4944450086
 20
117.6243573713
 30
0.0
 11
196.4719988838
 21
117.3209608763
 31
0.0
  0
LINE
  5
16F
330
1F
100
AcDbEntity
  8
0
  6
HIDDEN
 62
     7
370
     0
100
AcDbLine
 10
150.7852033823
 20
115.866435924
 30
0.0
 11
153.2852033823
 21
116.5363089051
 31
0.0
  0
LINE
  5
170
330
1F
100
AcDbEntity
  8
0
  6
HIDDEN
 62
     7
370
     0
100
AcDbLine
 10
153.2852033823
 20
137.5363089051
 30
0.0
 11
150.7852033823
 21
138.2061818862
 31
0.0
  0
LINE
  5
171
330
1F
100
AcDbEntity
  8
0
  6
HIDDEN
 62
     7
370
     0
100
AcDbLine
 10
154.7852033823
 20
137.8249840397
 30
0.0
 11
154.2852033823
 21
137.5363089051
 31
0.0
  0
LINE
  5
172
330
1F
100
AcDbEntity
  8
0
  6
HIDDEN
 62
     7
370
     0
100
AcDbLine
 10
154.2852033823
 20
116.5363089051
 30
0.0
 11
154.7852033823
 21
116.2476337705
 31
0.0
  0
ARC
  5
173
330
1F
100
AcDbEntity
  8
0
  6
HIDDEN
 62
     7
370
     0
100
AcDbCircle
 10
169.2571635267
 20
117.0363089051
 30
0.0
 40
0.5
100
AcDbArc
 50
270.0
 51
0.0
  0
ARC
  5
174
330
1F
100
AcDbEntity
  8
0
  6
HIDDEN
 62
     7
370
     0
100
AcDbCircle
 10
169.2571635267
 20
137.0363089051
 30
0.0
 40
0.5
100
AcDbArc
 50
0.0
 51
90.0
  0
LINE
  5
175
330
1F
100
AcDbEntity
  8
0
  6
HIDDEN
 62
     7
370
     0
100
AcDbLine
 10
159.3852033823
 20
116.5363089051
 30
0.0
 11
169.2571635267
 21
116.5363089051
 31
0.0
  0
LINE
  5
176
330
1F
100
AcDbEntity
  8
0
  6
HIDDEN
 62
     7
370
     0
100
AcDbLine
 10
169.2571635267
 20
137.5363089051
 30
0.0
 11
159.3852033823
 21
137.5363089051
 31
0.0
  0
LINE
  5
177
330
1F
100
AcDbEntity
  8
0
  6
HIDDEN
 62
     7
370
     0
100
AcDbLine
 10
153.2852033823
 20
116.5363089051
 30
0.0
 11
154.2852033823
 21
116.5363089051
 31
0.0
  0
LINE
  5
178
330
1F
100
AcDbEntity
  8
0
  6
HIDDEN
 62
     7
370
     0
100
AcDbLine
 10
154.2852033823
 20
137.5363089051
 30
0.0
 11
153.2852033823
 21
137.5363089051
 31
0.0
  0
LINE
  5
179
330
1F
100
AcDbEntity
  8
0
  6
HIDDEN
 62
     7
370
     0
100
AcDbLine
 10
169.7571635267
 20
118.7863089051
 30
0.0
 11
170.7571635267
 21
119.7863089051
 31
0.0
  0
LINE
  5
17A
330
1F
100
AcDbEntity
  8
0
  6
HIDDEN
 62
     7
370
     0
100
AcDbLine
 10
170.7571635267
 20
134.2863089051
 30
0.0
 11
169.7571635267
 21
135.2863089051
 31
0.0
  0
LINE
  5
17B
330
1F
100
AcDbEntity
  8
0
  6
HIDDEN
 62
     7
370
     0
100
AcDbLine
 10
203.7571635267
 20
134.2863089051
 30
0.0
 11
170.7571635267
 21
134.2863089051
 31
0.0
  0
LINE
  5
17C
330
1F
100
AcDbEntity
  8
0
  6
HIDDEN
 62
     7
370
     0
100
AcDbLine
 10
170.7571635267
 20
119.7863089051
 30
0.0
 11
203.7571635267
 21
119.7863089051
 31
0.0
  0
LINE
  5
17D
330
1F
100
AcDbEntity
  8
0
  6
HIDDEN
 62
     7
370
     0
100
AcDbLine
 10
203.7571635267
 20
119.7863089051
 30
0.0
 11
208.1134030147
 21
127.0363089051
 31
0.0
  0
LINE
  5
17E
330
1F
100
AcDbEntity
  8
0
  6
HIDDEN
 62
     7
370
     0
100
AcDbLine
 10
208.1134030147
 20
127.0363089051
 30
0.0
 11
203.7571635267
 21
134.2863089051
 31
0.0
  0
LINE
  5
17F
330
1F
100
AcDbEntity
  8
VERMASSUNG
  6
CENTERX2
100
AcDbLine
 10
144.3945000505
 20
127.0363089051
 30
0.0
 11
239.7571635267
 21
127.0363089051
 31
0.0
  0
LINE
  5
180
330
1F
100
AcDbEntity
  8
VERMASSUNG
  6
CENTERX2
100
AcDbLine
 10
239.7571635267
 20
92.0363089051
 30
0.0
 11
239.7571635267
 21
127.0363089051
 31
0.0
  0
LINE
  5
181
330
1F
100
AcDbEntity
  8
VERMASSUNG
  6
CENTERX2
100
AcDbLine
 10
239.7571635267
 20
92.0363089051
 30
0.0
 11
253.152324187
 21
92.0363089051
 31
0.0
  0
DIMENSION
  5
182
330
1F
100
AcDbEntity
  8
VERMASSUNG
100
AcDbDimension
  2
_D
 10
236.535286958
 20
102.7163617726
 30
0.0
 11
245.6683478044
 21
99.8996675619
 31
0.0
 70
   162
  1
<>
 71
     1
 42
-1.0
  3
SLDDIMSTYLE0
100
AcDb2LineAngularDimension
 13
239.7571635267
 23
92.0363089051
 33
0.0
 14
253.152324187
 24
92.0363089051
 34
0.0
 15
239.7412637936
 25
92.5483023045
 35
0.0
 16
245.6683478044
 26
99.8996675619
 36
0.0
  0
DIMENSION
  5
18B
330
1F
100
AcDbEntity
  8
VERMASSUNG
100
AcDbDimension
  2
_D_1
 10
256.2259923491
 20
127.0363089051
 30
0.0
 11
256.2259923491
 21
109.5363089051
 31
0.0
 70
   160
  1
<>
 71
     2
 42
-1.0
  3
SLDDIMSTYLE1
100
AcDbAlignedDimension
 13
239.7571635267
 23
92.0363089051
 33
0.0
 14
239.7571635267
 24
127.0363089051
 34
0.0
 50
90.0
100
AcDbRotatedDimension
  0
DIMENSION
  5
198
330
1F
100
AcDbEntity
  8
VERMASSUNG
100
AcDbDimension
  2
_D_2
 10
239.7571635267
 20
83.4406116485
 30
0.0
 11
209.7571635267
 21
83.4406116485
 31
0.0
 70
   160
  1
<>
 71
     2
 42
-1.0
  3
SLDDIMSTYLE1
100
AcDbAlignedDimension
 13
179.7571635267
 23
102.3363089051
 33
0.0
 14
239.7571635267
 24
92.0363089051
 34
0.0
100
AcDbRotatedDimension
  0
DIMENSION
  5
1A4
330
1F
100
AcDbEntity
  8
VERMASSUNG
100
AcDbDimension
  2
_D_3
 10
239.7571635267
 20
75.8886670512
 30
0.0
 11
194.7571635267
 21
75.8886670512
 31
0.0
 70
   160
  1
<>
 71
     2
 42
-1.0
  3
SLDDIMSTYLE2
100
AcDbAlignedDimension
 13
149.7571635267
 23
111.0429830669
 33
0.0
 14
239.7571635267
 24
92.0363089051
 34
0.0
100
AcDbRotatedDimension
  0
DIMENSION
  5
1AF
330
1F
100
AcDbEntity
  8
VERMASSUNG
100
AcDbDimension
  2
_D_4
 10
139.7571635267
 20
152.0363089051
 30
0.0
 11
139.7571635267
 21
127.0363089051
 31
0.0
 70
   160
  1
PSC%%c<>
 71
     2
 42
-1.0
  3
SLDDIMSTYLE2
100
AcDbAlignedDimension
 13
180.0571635267
 23
102.0363089051
 33
0.0
 14
180.0571635267
 24
152.0363089051
 34
0.0
 50
90.0
100
AcDbRotatedDimension
  0
SPLINE
  5
1BB
330
1F
100
AcDbEntity
  8
0
  6
Continuous
 62
     7
370
    15
100
AcDbSpline
210
0.0
220
0.0
230
1.0
 70
     8
 71
     3
 72
    10
 73
     6
 74
     0
 42
0.00000001
 43
0.00000001
 12
1.0
 22
0.0
 32
0.0
 13
1.0
 23
0.0
 33
0.0
 40
0.0
 40
0.0
 40
0.0
 40
0.0
 40
0.3326244720041122
 40
0.6678453027649536
 40
1.0
 40
1.0
 40
1.0
 40
1.0
 10
81.5037436633576
 20
92.02564621923176
 30
0.0
 10
81.95088104434762
 20
92.09813608588375
 30
0.0
 10
82.84864601571485
 20
92.24368165157802
 30
0.0
 10
84.21300826377556
 20
92.40220023320589
 30
0.0
 10
85.10744864481691
 20
92.55352116470775
 30
0.0
 10
85.55261416482294
 20
92.6288340224316
 30
0.0
  0
LINE
  5
1BC
330
1F
100
AcDbEntity
  8
0
  6
Continuous
 62
     7
370
    15
100
AcDbLine
 10
81.8517124145
 20
106.1544262627
 30
0.0
 11
81.5037436634
 21
106.2081523049
 31
0.0
  0
LINE
  5
1BD
330
1F
100
AcDbEntity
  8
0
  6
Continuous
 62
     7
370
    15
100
AcDbLine
 10
81.551507394
 20
97.5468657337
 30
0.0
 11
81.5517124143
 21
97.5468657337
 31
0.0
  0
LINE
  5
1BE
330
1F
100
AcDbEntity
  8
0
  6
Continuous
 62
     7
370
    15
100
AcDbLine
 10
85.5217124145
 20
102.8049480959
 30
0.0
 11
84.0217124145
 21
102.7404670895
 31
0.0
  0
LINE
  5
1BF
330
1F
100
AcDbEntity
  8
0
  6
Continuous
 62
     7
370
    15
100
AcDbLine
 10
81.8517124145
 20
102.957396484
 30
0.0
 11
81.8517124145
 21
152.5345441381
 31
0.0
  0
ARC
  5
1C0
330
1F
100
AcDbEntity
  8
0
  6
Continuous
 62
     7
370
    15
100
AcDbCircle
 10
81.5517124145
 20
127.0363089051
 30
0.0
 40
25.5000000000005
100
AcDbArc
 50
0.0
 51
89.3259164553
  0
LINE
  5
1C1
330
1F
100
AcDbEntity
  8
0
  6
Continuous
 62
     7
370
    15
100
AcDbLine
 10
107.0517124145
 20
127.0363089051
 30
0.0
 11
107.0517124145
 21
107.5720597085
 31
0.0
  0
ARC
  5
1C2
330
1F
100
AcDbEntity
  8
0
  6
Continuous
 62
     7
370
    15
100
AcDbCircle
 10
79.0517124145
 20
125.0363089051
 30
0.0
 40
33.0
100
AcDbArc
 50
291.5759517467
 51
328.0472535997
  0
LINE
  5
1C3
330
1F
100
AcDbEntity
  8
0
  6
Continuous
 62
     7
370
    15
100
AcDbLine
 10
85.5217124145
 20
93.3326669301
 30
0.0
 11
91.1869434356
 21
94.3485887541
 31
0.0
  0
LINE
  5
1C4
330
1F
100
AcDbEntity
  8
0
  6
Continuous
 62
     7
370
    15
100
AcDbLine
 10
85.5217124145
 20
102.8049480959
 30
0.0
 11
85.5217124145
 21
102.5905158952
 31
0.0
  0
LINE
  5
1C5
330
1F
100
AcDbEntity
  8
0
  6
Continuous
 62
     7
370
    15
100
AcDbLine
 10
85.5217124145
 20
102.5404144602
 30
0.0
 11
85.5217124145
 21
102.5365388367
 31
0.0
  0
LINE
  5
1C6
330
1F
100
AcDbEntity
  8
0
  6
Continuous
 62
     7
370
    15
100
AcDbLine
 10
89.3518166625
 20
93.6849476511
 30
0.0
 11
85.5217124145
 21
92.9981113192
 31
0.0
  0
ARC
  5
1C7
330
1F
100
AcDbEntity
  8
0
  6
Continuous
 62
     7
370
    15
100
AcDbCircle
 10
79.0517124145
 20
125.0363089051
 30
0.0
 40
32.99999999999999
100
AcDbArc
 50
288.1873016941
 51
291.5759517467
  0
SPLINE
  5
1C8
330
1F
100
AcDbEntity
  8
0
  6
Continuous
 62
     7
370
    15
100
AcDbSpline
210
0.0
220
0.0
230
1.0
 70
     8
 71
     3
 72
    18
 73
    14
 74
     0
 42
0.00000001
 43
0.00000001
 12
1.0
 22
0.0
 32
0.0
 13
1.0
 23
0.0
 33
0.0
 40
0.0
 40
0.0
 40
0.0
 40
0.0
 40
0.2499999999999999
 40
0.2499999999999999
 40
0.4999999999999999
 40
0.4999999999999999
 40
0.6249999999999999
 40
0.6249999999999999
 40
0.7499999999999998
 40
0.7499999999999998
 40
0.8749999999999999
 40
0.8749999999999999
 40
1.0
 40
1.0
 40
1.0
 40
1.0
 10
81.85091170891565
 20
152.0345184366239
 30
0.0
 10
81.84341535698064
 20
152.0346081591781
 30
0.0
 10
81.78483816844833
 20
152.0354606995785
 30
0.0
 10
81.56631798433219
 20
152.0365433987577
 30
0.0
 10
81.4106216126999
 20
152.0367061237802
 30
0.0
 10
81.11152172673067
 20
152.0326321164203
 30
0.0
 10
81.00125447658247
 20
152.030525592797
 30
0.0
 10
80.76578164560428
 20
152.0242296789356
 30
0.0
 10
80.63981835117272
 20
152.0200341486951
 30
0.0
 10
80.37114628607272
 20
152.0087805778561
 30
0.0
 10
80.2285409484728
 20
152.0016994342943
 30
0.0
 10
79.93574280564076
 20
151.9844581195599
 30
0.0
 10
79.78445345625154
 20
151.9742592196215
 30
0.0
 10
79.62816954977792
 20
151.9621987156456
 30
0.0
  0
SPLINE
  5
1C9
330
1F
100
AcDbEntity
  8
0
  6
Continuous
 62
     7
370
    15
100
AcDbSpline
210
0.0
220
0.0
230
1.0
 70
     8
 71
     3
 72
    13
 73
     9
 74
     0
 42
0.00000001
 43
0.00000001
 12
1.0
 22
0.0
 32
0.0
 13
1.0
 23
0.0
 33
0.0
 40
0.0
 40
0.0
 40
0.0
 40
0.0
 40
0.192055903940663
 40
0.3896863335117842
 40
0.5817422041837372
 40
0.7793563463546286
 40
0.9716435837926783
 40
1.0
 40
1.0
 40
1.0
 40
1.0
 10
79.62816954977792
 20
102.1104190945452
 30
0.0
 10
79.78574577517558
 20
102.0991588607459
 30
0.0
 10
80.10547196043682
 20
102.0763115588212
 30
0.0
 10
80.54239659088579
 20
102.0556392671592
 30
0.0
 10
80.9392843761127
 20
102.0428927882845
 30
0.0
 10
81.26630038482595
 20
102.0373837557529
 30
0.0
 10
81.47277434217963
 20
102.0361346870805
 30
0.0
 10
81.54272285528904
 20
102.0363698256783
 30
0.0
 10
81.55171241432708
 20
102.0364000449384
 30
0.0
  0
ELLIPSE
  5
1CA
330
1F
100
AcDbEntity
  8
0
  6
Continuous
 62
     7
370
    15
100
AcDbEllipse
 10
72.4371004275
 20
113.0193164575
 30
0.0
 11
-1.756445035685388
 21
2.815924377711141
 31
0.0
210
0.0
220
0.0
230
1.0
 40
0.7353403728
 41
0.0
 42
6.283185307179586
  0
ARC
  5
1CB
330
1F
100
AcDbEntity
  8
0
  6
Continuous
 62
     7
370
    15
100
AcDbCircle
 10
81.5517124145
 20
127.0363089051
 30
0.0
 40
25.0
100
AcDbArc
 50
94.4127968195
 51
265.5872031805
  0
LINE
  5
1CC
330
1F
100
AcDbEntity
  8
0
  6
Continuous
 62
     7
370
    15
100
AcDbLine
 10
85.5217124145
 20
92.7520759156
 30
0.0
 11
85.5217124145
 21
102.4756000897
 31
0.0
  0
LINE
  5
1CD
330
1F
100
AcDbEntity
  8
0
  6
Continuous
 62
     7
370
    15
100
AcDbLine
 10
81.5517124145
 20
92.5483023045
 30
0.0
 11
81.5517124145
 21
102.7163617726
 31
0.0
  0
SPLINE
  5
1CE
330
1F
100
AcDbEntity
  8
0
  6
Continuous
 62
     7
370
    15
100
AcDbSpline
210
0.0
220
0.0
230
1.0
 70
    24
 71
     3
 72
    14
 73
    10
 74
     0
 42
0.00000001
 43
0.00000001
 12
1.0
 22
0.0
 32
0.0
 13
1.0
 23
0.0
 33
0.0
 40
0.0
 40
0.0
 40
0.0
 40
0.0
 40
0.1583203796597751
 40
0.316800805774049
 40
0.4713744813488888
 40
0.6221259069005524
 40
0.7721262731744618
 40
0.9245922366697454
 40
1.0
 40
1.0
 40
1.0
 40
1.0
 10
85.5217124144697
 20
92.75207591559872
 30
0.0
 10
85.52171241446942
 20
92.74078712777717
 30
0.0
 10
85.52171241446887
 20
92.71819814027113
 30
0.0
 10
85.52171241446993
 20
92.68395046129262
 30
0.0
 10
85.52171241446963
 20
92.65481657006062
 30
0.0
 10
85.5217124144697
 20
92.63371561735775
 30
0.0
 10
85.52171241446969
 20
92.62261842469627
 30
0.0
 10
85.5217124144697
 20
92.62196362931569
 30
0.0
 10
85.5217124144697
 20
92.62617503408917
 30
0.0
 10
85.5217124144697
 20
92.62756866826923
 30
0.0
  0
SPLINE
  5
1CF
330
1F
100
AcDbEntity
  8
0
  6
Continuous
 62
     7
370
    15
100
AcDbSpline
210
0.0
220
0.0
230
1.0
 70
    24
 71
     3
 72
    13
 73
     9
 74
     0
 42
0.00000001
 43
0.00000001
 12
1.0
 22
0.0
 32
0.0
 13
1.0
 23
0.0
 33
0.0
 40
0.0
 40
0.0
 40
0.0
 40
0.0
 40
0.1669820828724431
 40
0.3557325914731104
 40
0.5407559635092274
 40
0.7250336016007688
 40
0.9118277034701592
 40
0.9999999999999999
 40
0.9999999999999999
 40
0.9999999999999999
 40
0.9999999999999999
 10
81.5517124144697
 20
92.03732619739236
 30
0.0
 10
81.55171241446972
 20
92.04274710255372
 30
0.0
 10
81.55171241446978
 20
92.05429560289588
 30
0.0
 10
81.55171241446935
 20
92.12555724167396
 30
0.0
 10
81.55171241446979
 20
92.22906787622229
 30
0.0
 10
81.55171241446966
 20
92.35487706446595
 30
0.0
 10
81.5517124144697
 20
92.46551176815954
 30
0.0
 10
81.55171241446969
 20
92.52820025583561
 30
0.0
 10
81.55171241446969
 20
92.54830230450978
 30
0.0
  0
SPLINE
  5
1D0
330
1F
100
AcDbEntity
  8
0
  6
Continuous
 62
     7
370
    15
100
AcDbSpline
210
0.0
220
0.0
230
1.0
 70
    24
 71
     3
 72
    10
 73
     6
 74
     0
 42
0.00000001
 43
0.00000001
 12
1.0
 22
0.0
 32
0.0
 13
1.0
 23
0.0
 33
0.0
 40
0.0
 40
0.0
 40
0.0
 40
0.0
 40
0.265712295724628
 40
0.6165157621684302
 40
1.0
 40
1.0
 40
1.0
 40
1.0
 10
85.52171241446972
 20
102.5404144601652
 30
0.0
 10
85.52171241446959
 20
102.5372717969732
 30
0.0
 10
85.5217124144693
 20
102.5299800704548
 30
0.0
 10
85.52171241446986
 20
102.5082459812107
 30
0.0
 10
85.52171241446977
 20
102.4868002140871
 30
0.0
 10
85.52171241446973
 20
102.4756000896505
 30
0.0
  0
SPLINE
  5
1D1
330
1F
100
AcDbEntity
  8
0
  6
Continuous
 62
     7
370
    15
100
AcDbSpline
210
0.0
220
0.0
230
1.0
 70
    24
 71
     3
 72
    10
 73
     6
 74
     0
 42
0.00000001
 43
0.00000001
 12
1.0
 22
0.0
 32
0.0
 13
1.0
 23
0.0
 33
0.0
 40
0.0
 40
0.0
 40
0.0
 40
0.0
 40
0.3518022785810608
 40
0.7034245935032778
 40
1.0
 40
1.0
 40
1.0
 40
1.0
 10
81.55171241446972
 20
102.7163617726387
 30
0.0
 10
81.55171241446973
 20
102.757535830181
 30
0.0
 10
81.55171241446973
 20
102.8398628827697
 30
0.0
 10
81.55171241446973
 20
102.9299265725135
 30
0.0
 10
81.55171241446973
 20
102.9612715271544
 30
0.0
 10
81.55171241446973
 20
102.975613050361
 30
0.0
  0
LINE
  5
1D2
330
1F
100
AcDbEntity
  8
0
  6
Continuous
 62
     7
370
    15
100
AcDbLine
 10
85.5217124145
 20
102.5404144602
 30
0.0
 11
85.5217124145
 21
102.5905158952
 31
0.0
  0
LINE
  5
1D3
330
1F
100
AcDbEntity
  8
0
  6
Continuous
 62
     7
370
    15
100
AcDbLine
 10
81.5517124145
 20
102.9756130504
 30
0.0
 11
81.5517124145
 21
106.1815898859
 31
0.0
  0
LINE
  5
1D4
330
1F
100
AcDbEntity
  8
0
  6
Continuous
 62
     7
370
    15
100
AcDbLine
 10
81.5517124144
 20
102.7163617726
 30
0.0
 11
81.5517124144
 21
102.9756130504
 31
0.0
  0
CIRCLE
  5
1D5
330
1F
100
AcDbEntity
  8
VERMASSUNG
  6
CENTERX2
100
AcDbCircle
 10
81.5517124145
 20
124.7060765284
 30
0.0
 40
32.50000000000001
  0
DIMENSION
  5
1D6
330
1F
100
AcDbEntity
  8
VERMASSUNG
100
AcDbDimension
  2
_D_5
 10
58.5707420259
 20
101.7251061398
 30
0.0
 11
50.4906206118
 21
93.6449847257
 31
0.0
 70
   160
  1
%%c<> min. 
 71
     2
 42
-1.0
  3
SLDDIMSTYLE3
100
AcDbAlignedDimension
 13
104.532682803
 23
147.6870469169
 33
0.0
 14
58.5707420259
 24
101.7251061398
 34
0.0
 50
45.0
100
AcDbRotatedDimension
  0
INSERT
  5
1F0
330
1F
100
AcDbEntity
  8
VERMASSUNG
100
AcDbBlockReference
  2
SW_CENTERMARKSYMBOL_0
 10
81.5517124145
 20
127.0363089051
 30
0.0
  0
OLE2FRAME
  5
1F1
330
1F
100
AcDbEntity
  8
0
100
AcDbOle2Frame
 70
     2
  3
Paintbrush-Bild
 10
13.8511154363
 20
38.264191557
 30
0.0
 11
51.6290888628
 21
31.9806341108
 31
0.0
 71
     2
 72
     0
 73
     1
 90
    12928
310
80552BED0767C5B32B40DDAF6807D121434000000000000000006FFBDDFB85D0
310
4940DDAF6807D121434000000000000000006FFBDDFB85D04940416F4BD60AFB
310
3F4000000000000000002BED0767C5B32B40416F4BD60AFB3F40000000000000
310
0000000000000100000000010000010000000100000000000100000000320000
310
D0CF11E0A1B11AE1000000000000000000000000000000003E000300FEFF0900
310
0600000000000000000000000100000001000000000000000010000002000000
310
01000000FEFFFFFF0000000000000000FFFFFFFFFFFFFFFFFFFFFFFFFFFFFFFF
310
FFFFFFFFFFFFFFFFFFFFFFFFFFFFFFFFFFFFFFFFFFFFFFFFFFFFFFFFFFFFFFFF
310
FFFFFFFFFFFFFFFFFFFFFFFFFFFFFFFFFFFFFFFFFFFFFFFFFFFFFFFFFFFFFFFF
310
FFFFFFFFFFFFFFFFFFFFFFFFFFFFFFFFFFFFFFFFFFFFFFFFFFFFFFFFFFFFFFFF
310
FFFFFFFFFFFFFFFFFFFFFFFFFFFFFFFFFFFFFFFFFFFFFFFFFFFFFFFFFFFFFFFF
310
FFFFFFFFFFFFFFFFFFFFFFFFFFFFFFFFFFFFFFFFFFFFFFFFFFFFFFFFFFFFFFFF
310
FFFFFFFFFFFFFFFFFFFFFFFFFFFFFFFFFFFFFFFFFFFFFFFFFFFFFFFFFFFFFFFF
310
FFFFFFFFFFFFFFFFFFFFFFFFFFFFFFFFFFFFFFFFFFFFFFFFFFFFFFFFFFFFFFFF
310
FFFFFFFFFFFFFFFFFFFFFFFFFFFFFFFFFFFFFFFFFFFFFFFFFFFFFFFFFFFFFFFF
310
FFFFFFFFFFFFFFFFFFFFFFFFFFFFFFFFFFFFFFFFFFFFFFFFFFFFFFFFFFFFFFFF
310
FFFFFFFFFFFFFFFFFFFFFFFFFFFFFFFFFFFFFFFFFFFFFFFFFFFFFFFFFFFFFFFF
310
FFFFFFFFFFFFFFFFFFFFFFFFFFFFFFFFFFFFFFFFFFFFFFFFFFFFFFFFFFFFFFFF
310
FFFFFFFFFFFFFFFFFFFFFFFFFFFFFFFFFFFFFFFFFFFFFFFFFFFFFFFFFFFFFFFF
310
FFFFFFFFFFFFFFFFFFFFFFFFFFFFFFFFFFFFFFFFFFFFFFFFFFFFFFFFFFFFFFFF
310
FDFFFFFFFEFFFFFFFEFFFFFFFEFFFFFF05000000060000000700000008000000
310
090000000A0000000B0000000C0000000D0000000E0000000F00000010000000
310
11000000120000001300000014000000150000001600000017000000FEFFFFFF
310
FFFFFFFFFFFFFFFFFFFFFFFFFFFFFFFFFFFFFFFFFFFFFFFFFFFFFFFFFFFFFFFF
310
FFFFFFFFFFFFFFFFFFFFFFFFFFFFFFFFFFFFFFFFFFFFFFFFFFFFFFFFFFFFFFFF
310
FFFFFFFFFFFFFFFFFFFFFFFFFFFFFFFFFFFFFFFFFFFFFFFFFFFFFFFFFFFFFFFF
310
FFFFFFFFFFFFFFFFFFFFFFFFFFFFFFFFFFFFFFFFFFFFFFFFFFFFFFFFFFFFFFFF
310
FFFFFFFFFFFFFFFFFFFFFFFFFFFFFFFFFFFFFFFFFFFFFFFFFFFFFFFFFFFFFFFF
310
FFFFFFFFFFFFFFFFFFFFFFFFFFFFFFFFFFFFFFFFFFFFFFFFFFFFFFFFFFFFFFFF
310
FFFFFFFFFFFFFFFFFFFFFFFFFFFFFFFFFFFFFFFFFFFFFFFFFFFFFFFFFFFFFFFF
310
FFFFFFFFFFFFFFFFFFFFFFFFFFFFFFFFFFFFFFFFFFFFFFFFFFFFFFFFFFFFFFFF
310
FFFFFFFFFFFFFFFFFFFFFFFFFFFFFFFFFFFFFFFFFFFFFFFFFFFFFFFFFFFFFFFF
310
FFFFFFFFFFFFFFFFFFFFFFFFFFFFFFFFFFFFFFFFFFFFFFFFFFFFFFFFFFFFFFFF
310
FFFFFFFFFFFFFFFFFFFFFFFFFFFFFFFFFFFFFFFFFFFFFFFFFFFFFFFFFFFFFFFF
310
FFFFFFFFFFFFFFFFFFFFFFFFFFFFFFFFFFFFFFFFFFFFFFFFFFFFFFFFFFFFFFFF
310
FFFFFFFFFFFFFFFFFFFFFFFFFFFFFFFFFFFFFFFFFFFFFFFFFFFFFFFFFFFFFFFF
310
52006F006F007400200045006E00740072007900000000000000000000000000
310
0000000000000000000000000000000000000000000000000000000000000000
310
16000500FFFFFFFFFFFFFFFF020000000A00030000000000C000000000000046
310
000000000000000000000000B040297FD238CD0103000000C000000000000000
310
01004F006C006500000000000000000000000000000000000000000000000000
310
0000000000000000000000000000000000000000000000000000000000000000
310
0A000200FFFFFFFFFFFFFFFFFFFFFFFF00000000000000000000000000000000
310
0000000000000000000000000000000000000000000000001400000000000000
310
010043006F006D0070004F0062006A0000000000000000000000000000000000
310
0000000000000000000000000000000000000000000000000000000000000000
310
120002010100000003000000FFFFFFFF00000000000000000000000000000000
310
0000000000000000000000000000000000000000010000004D00000000000000
310
01004F006C006500310030004E00610074006900760065000000000000000000
310
0000000000000000000000000000000000000000000000000000000000000000
310
1A000200FFFFFFFFFFFFFFFFFFFFFFFF00000000000000000000000000000000
310
0000000000000000000000000000000000000000040000002426000000000000
310
FEFFFFFF02000000FEFFFFFFFFFFFFFFFFFFFFFFFFFFFFFFFFFFFFFFFFFFFFFF
310
FFFFFFFFFFFFFFFFFFFFFFFFFFFFFFFFFFFFFFFFFFFFFFFFFFFFFFFFFFFFFFFF
310
FFFFFFFFFFFFFFFFFFFFFFFFFFFFFFFFFFFFFFFFFFFFFFFFFFFFFFFFFFFFFFFF
310
FFFFFFFFFFFFFFFFFFFFFFFFFFFFFFFFFFFFFFFFFFFFFFFFFFFFFFFFFFFFFFFF
310
FFFFFFFFFFFFFFFFFFFFFFFFFFFFFFFFFFFFFFFFFFFFFFFFFFFFFFFFFFFFFFFF
310
FFFFFFFFFFFFFFFFFFFFFFFFFFFFFFFFFFFFFFFFFFFFFFFFFFFFFFFFFFFFFFFF
310
FFFFFFFFFFFFFFFFFFFFFFFFFFFFFFFFFFFFFFFFFFFFFFFFFFFFFFFFFFFFFFFF
310
FFFFFFFFFFFFFFFFFFFFFFFFFFFFFFFFFFFFFFFFFFFFFFFFFFFFFFFFFFFFFFFF
310
FFFFFFFFFFFFFFFFFFFFFFFFFFFFFFFFFFFFFFFFFFFFFFFFFFFFFFFFFFFFFFFF
310
FFFFFFFFFFFFFFFFFFFFFFFFFFFFFFFFFFFFFFFFFFFFFFFFFFFFFFFFFFFFFFFF
310
FFFFFFFFFFFFFFFFFFFFFFFFFFFFFFFFFFFFFFFFFFFFFFFFFFFFFFFFFFFFFFFF
310
FFFFFFFFFFFFFFFFFFFFFFFFFFFFFFFFFFFFFFFFFFFFFFFFFFFFFFFFFFFFFFFF
310
FFFFFFFFFFFFFFFFFFFFFFFFFFFFFFFFFFFFFFFFFFFFFFFFFFFFFFFFFFFFFFFF
310
FFFFFFFFFFFFFFFFFFFFFFFFFFFFFFFFFFFFFFFFFFFFFFFFFFFFFFFFFFFFFFFF
310
FFFFFFFFFFFFFFFFFFFFFFFFFFFFFFFFFFFFFFFFFFFFFFFFFFFFFFFFFFFFFFFF
310
FFFFFFFFFFFFFFFFFFFFFFFFFFFFFFFFFFFFFFFFFFFFFFFFFFFFFFFFFFFFFFFF
310
0100000200000000000000000000000000000000000000000000000000000000
310
0000000000000000000000000000000000000000000000000000000000000000
310
0100FEFF030A0000FFFFFFFF0A00030000000000C00000000000004607000000
310
5042727573680007000000504272757368000700000050427275736800F439B2
310
7100000000000000000000000000000000000000000000000000000000000000
310
0000000000000000000000000000000000000000000000000000000000000000
310
0000000000000000000000000000000000000000000000000000000000000000
310
0000000000000000000000000000000000000000000000000000000000000000
310
0000000000000000000000000000000000000000000000000000000000000000
310
0000000000000000000000000000000000000000000000000000000000000000
310
0000000000000000000000000000000000000000000000000000000000000000
310
0000000000000000000000000000000000000000000000000000000000000000
310
0000000000000000000000000000000000000000000000000000000000000000
310
0000000000000000000000000000000000000000000000000000000000000000
310
0000000000000000000000000000000000000000000000000000000000000000
310
0000000000000000000000000000000000000000000000000000000000000000
310
20260000424D0E260000000000003E00000028000000B40200006E0000000100
310
01000000000000000000130B0000130B00000200000002000000000000FFFFFF
310
FFFFFFFFFFFFFFFFFFFFFFFFFFFFFFFFFFFFFFFFFFFFFFFFFFFFFFFFFFFFFFFF
310
FFFFFFFFFFFFFFFFFFFFFFFFFFFFFFFFFFFFFFFFFFFFFFFFFFFFFFFFFFFFFFFF
310
FFFFFFFFFFFFFFFFFFFFFFFFFFFFFFFFFFFFFFFFFFFFFFFFF000FFFFFFFFFFFF
310
FFFFFFFFFFFFFFFFFFFFFFFFFFFFFFFFFFFFFFFFFFFFFFFFFFFFFFFFFFFFFFFF
310
FFFFFFFFFFFFFFFFFFFFFFFFFFFFFFFFFFFFFFFFFFFFFFFFFFFFFFFFFFFFFFFF
310
FFFFFFFFFFFFFFFFFFFFFFFFFFFFFFFFF000FFFFFFFFFFFFFFFFFFFFFFFFFFFF
310
FFFFFFFFFFFFFFFFFFFFFFFFFFFFFFFFFFFFFFFFFFFFFFFFFFFFFFFFFFFFFFFF
310
FFFFFFFFFFFFFFFFFFFFFFFFFFFFFFFFFFFFFFFFFFFFFFFFFFFFFFFFFFFFFFFF
310
FFFFFFFFFFFFFFFFF000FFFFFFFFFFFFFFFFFFFFFFFFFFFFFFFFFFFFFFFFFFFF
310
FFFFFFFFFFFFFFFFFFFFFFFFFFFFFFFFFFFFFFFFFFFFFFFFFFFFFFFFFFFFFFFF
310
FFFFFFFFFFFFFFFFFFFFFFFFFFFFFFFFFFFFFFFFFFFFFFFFFFFFFFFFFFFFFFFF
310
F000FFFFFFFFFFFFFFFFFFFFFFFFFFFFFFFFFFFFFFFFFFFFFFFFFFFFFFFFFFFF
310
FFFFFFFFFFFFFFFFFFFFFFFFFFFFFFFFFFFFFFFFFFFFFFFFFFFFFFFFFFFFFFFF
310
FFFFFFFFFFFFFFFFFFFFFFFFFFFFFFFFFFFFFFFFFFFFFFFFF000FFFFFFFFFFFF
310
FFFFFFFFFFFFFFFFFFFFFFFFFFFFFFFFFFFFFFFFFFFFFFFFFFFFFFFFFFFFFFFF
310
FFFFFFFFFFFFFFFFFFFFFFFFFFFFFFFFFFFFFFFFFFFFFFFFFFFFFFFFFFFFFFFF
310
FFFFFFFFFFFFFFFFFFFFFFFFFFFFFFFFF000FFFFFFFFFFFFFFFFFFFFFFFFFFFF
310
FFFFFFFFFFFFFFFFFFFFFFFFFFFFFFFFFFFFFFFFFFFFFFFFFFFFFFFFFFFFFFFF
310
FFFFFFFFFFFFFFFFFFFFFFFFFFFFFFFFFFFFFFFFFFFFFFFFFFFFFFFFFFFFFFFF
310
FFFFFFFFFFFFFFFFF000FFFFFFFFFFFFFFFFFFFFFFFFFFFFFFFFFFFFFFFFFFFF
310
FFFFFFFFFFFFFFFFFFFFFFFFFFFFFFFFFFFFFFFFFFFFFFFFFFFFFFFFFFFFFFFF
310
FFFFFFFFFFFFFFFFFFFFFFFFFFFFFFFFFFFFFFFFFFFFFFFFFFFFFFFFFFFFFFFF
310
F000FFFFFFFFFFFFFFFFFFFFFFFFFFFFFFFFFFFFFFFFFFFFFFFFFFFFFFFFFFFF
310
FFFFFFFFFFFFFFFFFFFFFFFFFFFFFFFFFFFFFFFFFFFFFFFFFFFFFFFFFFFFFFFF
310
FFFFFFFFFFFFFFFFFFFFFFFFFFFFFFFFFFFFFFFFFFFFFFFFF000FFFFFFFFFFFF
310
FFFFFFFFFFFFFFFFFFFFFFFFFFFFFFFFFFFFFFFFFFFFFFFFFFFFFFFFFFFFFFFF
310
FFFFFFFFFFFFFFFFFFFFFFFFFFFFFFFFFFFFFFFFFFFFFFFFFFFFFFFFFFFFFFFF
310
FFFFFFFFFFFFFFFFFFFFFFFFFFFFFFFFF000FFFFFFFFFFFFFFFFFFFFFFFFFFFF
310
FFFFFFFFFFFFFFFFFFFFFFFFFFFFFFFFFFFFFFFFFFFFFFFFFFFFFFFFFFFFFFFF
310
FFFFFFFFFFFFFFFFFFFFFFFFFFFFFFFFFFFFFFFFFFFFFFFFFFFFFFFFFFFFFFFF
310
FFFFFFFFFFFFFFFFF000FFFFFFFFFFFFFFFFFFFFFFFFFFFFFFFFFFFFFFFFFFFF
310
FFFFFFFFFFFFFFFFFFFFFFFFFFFFFFFFFFFFFFFFFFFFFFFFFFFFFFFFFFFFFFFF
310
FFFFFFFFFFFFFFFFFFFFFFFFFFFFFFFFFFFFFFFFFFFFFFFFFFFFFFFFFFFFFFFF
310
F000FFFFFFFFFFFFFFFFFFFFFFFFFFFFFFFFFFFFFFFFFFFFFFFFFFFFFFFFFFFF
310
FFFFFFFFFFFFFFFFFFFFFFFFFFFFFFFFFFFFFFFFFFFFFFFFFFFFFFFFFFFFFFFF
310
FFFFFFFFFFFFFFFFFFFFFFFFFFFFFFFFFFFFFFFFFFFFFFFFF000FFFFFFFFFFFF
310
FFFFFFFFFFFFFFFFFFFFFFFFFFFFFFFFFFFFFFFFFFFFFFFFFFFFFFFFFFFFFFFF
310
FFFFFFFFFFFFFFFFFFFFFFFFFFFFFFFFFFFFFFFFFFFFFFFFFFFFFFFFFFFFFFFF
310
FFFFFFFFFFFFFFFFFFFFFFFFFFFFFFFFF000FFFFFFFFFFFFFFFFFFFFFFFFFFFF
310
FFFFFFFFFFFFFFFFFFFFFFFFFFFFFFFFFFFFFFFFFFFFFFFFFFFFFFFFFFFFFFFF
310
FFFFFFFFFFFFFFFFFFFFFFFFFFFFFFFFFFFFFFFFFFFFFFFFFFFFFFFFFFFFFFFF
310
FFFFFFFFFFFFFFFFF000FFFFFFFFFFFFFFFFFFFFFFFFFFFFFFFFFFFFFFFFFFFF
310
FFFFFFFFFFFFFFFFFFFFFFFFFFFFFFFFFFFFFFFFFFFFFFFFFFFFFFFFFFFFFFFF
310
FFFFFFFFFFFFFFFFFFFFFFFFFFFFFFFFFFFFFFFFFFFFFFFFFFFFFFFFFFFFFFFF
310
F000FFFFFFFFFFFFFFFFFFFFFFFFFFFFFFFFFFFFFFFFFFFFFFFFFFFFFFFFFFFF
310
FFFFFFFFFFFFFFFFFFFFFFFFFFFFFFFFFFFFFFFFFFFFFFFFFFFFFFFFFFFFFFFF
310
FFFFFFFFFFFFFFFFFFFFFFFFFFFFFFFFFFFFFFFFFFFFFFFFF000FFFFFFFFFFFF
310
FFFFFFFFFFFFFFFFFFFFFFFFFFFFFFFFFFFFFFFFFFFFFFFFFFFFFFFFFFFFFFFF
310
FFFFFFFFFFFFFFFFFFFFFFFFFFFFFFFFFFFFFFFFFFFFFFFFFFFFFFFFFFFFFFFF
310
FFFFFFFFFFFFFFFFFFFFFFFFFFFFFFFFF000FFFFFFFFFFFFFFFFFFFFFFFFFFFF
310
FFFFFFFFFFFFFFFFFFFFFFFFFFFFFFFFFFFFFFFFFFFFFFFFFFFFFFFFFFFFFFFF
310
FFFFFFFFFFFFFFFFFFFFFFFFFFFFFFFFFFFFFFFFFFFFFFFFFFFFFFFFFFFFFFFF
310
FFFFFFFFFFFFFFFFF000FFFFF80003FFFFFFFFFFFFFFFFFFFFFFFFFFFFFFFFFF
310
FFFFF00007FFFFFFFFFF00007FFFFFF800000000000000007FFFFFFFFFFFFFFF
310
FFFFFFFC001FFFFFFFFFFFFFFC001FFFFFFFFFFFFFFFFFFFFFFFFFFE0007FFFF
310
F000FFFF8000007FFFFFFFF8000FFFFFC0007FFFFF80007FFFFF0000007FFFFF
310
FFF8000007FFFFF800000000000000007FFFFFF0001FFFFFFFFFFFC00001FFFF
310
FFFFFFFFC00001FFFFFFFF000000000003FFFFE000007FFFF000FFFE0000000F
310
FFFFFFF0000FFFFF80007FFFFF80007FFFFC0000001FFFFFFFC0000001FFFFF8
310
00000000000000007FFFFFF0001FFFFFFFFFFE0000003FFFFFFFFFFE0000003F
310
FFFFFF000000000003FFFF0000000FFFF000FFF800000003FFFFFFF00007FFFF
310
80007FFFFF80007FFFF000000007FFFFFF000000003FFFF80000000000000000
310
7FFFFFF0001FFFFFFFFFF80000000FFFFFFFFFF80000000FFFFFFF0000000000
310
03FFFC00000003FFF000FFE000000000FFFFFFF00007FFFF80003FFFFF80007F
310
FFC000000001FFFFFC000000001FFFF800000000000000007FFFFFF0001FFFFF
310
FFFFE000000003FFFFFFFFE000000003FFFFFF000000000003FFF000000000FF
310
F000FF80000000007FFFFFF00007FFFF80003FFFFF80007FFF8000000000FFFF
310
F80000000007FFF800000000000000007FFFFFF0001FFFFFFFFFC000000001FF
310
FFFFFFC000000001FFFFFF000000000003FFC0000000007FF000FF0000000000
310
3FFFFFE00007FFFF00003FFFFF80007FFE00000000003FFFF00000000003FFF8
310
00000000000000007FFFFFF0001FFFFFFFFF8000000000FFFFFFFF8000000000
310
FFFFFF000000000003FF80000000003FF000FE00000000001FFFFFE00003FFFF
310
00003FFFFF80007FFC00000000001FFFE00000000001FFF8000001FFFE000000
310
7FFFFFF0001FFFFFFFFE00000000003FFFFFFE00000000003FFFFF0000000000
310
03FF00000000001FF000FC00000000000FFFFFE00003FFFF00001FFFFF80007F
310
F800000000001FFFC00000000000FFF8000001FFFE0000007FFFFFF0001FFFFF
310
FFFC00000000001FFFFFFC00000000001FFFFF000000000003FE00000000000F
310
F000F8000000000007FFFFE00003FFFF00001FFFFF80007FF800000000000FFF
310
800000000000FFF8000001FFFE0000007FFFFFF0001FFFFFFFF800000000000F
310
FFFFF800000000000FFFFF000000000003FC000000000007F000F80000000000
310
03FFFFC00003FFFE00001FFFFF80007FF0000000000007FF0000000000007FF8
310
000001FFFE0000007FFFFFF0001FFFFFFFF0000000000007FFFFF00000000000
310
07FFFF000000000003F8000000000003F000F0000000000003FFFFC00001FFFE
310
00001FFFFF80007FE0000000000007FE0000000000003FF8000001FFFE000000
310
7FFFFFF0001FFFFFFFF0000000000007FFFFF0000000000007FFFF0000000000
310
03F800001F800003F000E00001FFF00001FFFFC00001FFFE00000FFFFF80007F
310
E00001FFE00003FE00001FFF00003FF8000001FFFE0000007FFFFFF0001FFFFF
310
FFE000003E000003FFFFE000003E000003FFFF000000000003F00001FFF80001
310
F000E00007FFFC0001FFFFC00001FFFE00000FFFFF80007FC0000FFFFC0003FC
310
0000FFFFC0001FF8000001FFFE0000007FFFFFF0001FFFFFFFC00003FFE00001
310
FFFFC00003FFE00001FFFF0001FFFFFFFFF00007FFFE0001F000E0000FFFFF00
310
00FFFF800001FFFC00000FFFFF80007FC0001FFFFE0001FC0001FFFFE0001FF8
310
000001FFFE0000007FFFFFF0001FFFFFFF80000FFFF80000FFFF80000FFFF800
310
00FFFF0003FFFFFFFFE0000FFFFF8000F000C0003FFFFF8000FFFF800000FFFC
310
000007FFFF80007F80003FFFFF0001FC0003FFFFF0001FF8000001FFFE000000
310
7FFFFFF0001FFFFFFF80003FFFFE0000FFFF80003FFFFE0000FFFF0003FFFFFF
310
FFE0003FFFFF8000F000C0003FFFFF8000FFFF800000FFFC000007FFFF80007F
310
80007FFFFF8001F80007FFFFF8000FF8000001FFFE0000007FFFFFF0001FFFFF
310
FF00007FFFFF00007FFF00007FFFFF00007FFF0003FFFFFFFFE0003FFFFFC000
310
F000C0007FFFFFC000FFFF000000FFFC000007FFFF80007F8000FFFFFF8000F8
310
000FFFFFF8000FF8000001FFFE0000007FFFFFF0001FFFFFFF0000FFFFFF8000
310
7FFF0000FFFFFF80007FFF0003FFFFFFFFC0007FFFFFC00070008000FFFFFFC0
310
00FFFF000000FFF8000007FFFF80007F8000FFFFFF8000F8000FFFFFF8000FF8
310
000001FFFE0000007FFFFFF0001FFFFFFE0001FFFFFFC0003FFE0001FFFFFFC0
310
003FFF0003FFFFFFFFC0007FFFFFE00070008000FFFFFFC0007FFF0000007FF8
310
000003FFFF80007F0001FFFFFF8000F8000FFFFFF8000FF8000001FFFE000000
310
7FFFFFF0001FFFFFFE0001FFFFFFC0003FFE0001FFFFFFC0003FFF0003FFFFFF
310
FFC000FFFFFFE00070008000FFFFFFC0007FFF0000007FF8000003FFFF80007F
310
0001FFFFFF8000F8001FFFFFF8000FF8000001FFFE0000007FFFFFF0001FFFFF
310
FE0003FFFFFFE0003FFE0003FFFFFFE0003FFF0003FFFFFFFFC000FFFFFFE000
310
70008000FFFFFFC0007FFE0000007FF8000003FFFF80007F0001FFFFFF8000F0
310
001FFFFFF8000FF8000001FFFE0000007FFFFFF0001FFFFFFC0003FFFFFFE000
310
1FFC0003FFFFFFE0001FFF0003FFFFFFFFC000FFFFFFC00070008000FFFFFF80
310
007FFE0000007FF0000003FFFF80007F0001FFFFFF0000F0001FFFFFF8000FF8
310
000001FFFE0000007FFFFFF0001FFFFFFC0007FFFFFFF0001FFC0007FFFFFFF0
310
001FFF0003FFFFFFFFC000FFFFFFC00070008001FFFFFF0000FFFE0000003FF0
310
000001FFFF80007F0001FFFFFF0000F8001FFFFFF0000FF8000001FFFE000000
310
7FFFFFF0001FFFFFFC0007FFFFFFF0001FFC0007FFFFFFF0001FFF0003FFFFFF
310
FFC001FFFFFF80007000FFFFFFFFFE0000FFFE0008003FF0008001FFFF80007F
310
FFFFFFFFFC0000FFFFFFFFFFE0000FF8000001FFFE0000007FFFFFF0001FFFFF
310
F8000FFFFFFFF8000FF8000FFFFFFFF8000FFF0003FFFFFFFFFFFFFFFFFF0000
310
7000FFFFFFFFFC0000FFFC0008003FF0008001FFFF80007FFFFFFFFFF80001FF
310
FFFFFFFF80000FF8000001FFFE0000007FFFFFF0001FFFFFF8000FFFFFFFF800
310
0FF8000FFFFFFFF8000FFF0003FFFFFFFFFFFFFFFFFE0000F000FFFFFFFFE000
310
00FFFC000C003FE000C001FFFF80007FFFFFFFFFC00001FFFFFFFFFE00001FF8
310
000001FFFE0000007FFFFFF0001FFFFFF8000FFFFFFFF8000FF8000FFFFFFFF8
310
000FFF0003FFFFFFFFFFFFFFFFF00000F000FFFFFFFE000001FFFC000C001FE0
310
00C000FFFF80007FFFFFFFFE000001FFFFFFFFE000001FF80FFFFFFFFFFFFFC0
310
7FFFFFF0001FFFFFF8000FFFFFFFF8000FF8000FFFFFFFF8000FFF0003FFFFFF
310
FFFFFFFFFF800000F000FFFFFFC0000001FFFC001C001FE001C000FFFF80007F
310
FFFFFF80000003FFFFFFF80000001FF80FFFFFFFFFFFFFC07FFFFFF0001FFFFF
310
F8001FFFFFFFFC000FF8001FFFFFFFFC000FFF0003FFFFFFFFFFFFFFF0000001
310
F000FFFFF800000001FFF8001C001FE001C000FFFF80007FFFFFF800000003FF
310
FFFF800000003FF80FFFFFFFFFFFFFC07FFFFFF0001FFFFFF8001FFFFFFFFC00
310
0FF8001FFFFFFFFC000FFF0003FFFFFFFFFFFFFE00000001F000FFFFC0000000
310
03FFF8001E001FC001E000FFFF80007FFFFF8000000007FFFFFC000000003FF8
310
0FFFFFFFFFFFFFC07FFFFFF0001FFFFFF8001FFFFFFFFC000FF8001FFFFFFFFC
310
000FFF0003FFFFFFFFFFFFE000000003F000FFFE0000000007FFF8001E000FC0
310
01E0007FFF80007FFFFE0000000007FFFFE0000000007FF80FFFFFFFFFFFFFC0
310
7FFFFFF0001FFFFFF0001FFFFFFFFC0007F0001FFFFFFFFC0007FF0003FFFFFF
310
FFFFFF0000000003F000FFF80000000007FFF8001E000FC003E0007FFF80007F
310
FFF0000000000FFFFF8000000000FFF80FFFFFFFFFFFFFC07FFFFFF0001FFFFF
310
F0001FFFFFFFFC0007F0001FFFFFFFFC0007FF0003FFFFFFFFFFFC0000000007
310
F000FFE0000000000FFFF0003E000FC003E0007FFF80007FFFC0000000001FFF
310
FE0000000001FFF80FFFFFFFFFFFFFC07FFFFFF0001FFFFFF0001FFFFFFFFC00
310
07F0001FFFFFFFFC0007FF0003FFFFFFFFFFF0000000000FF000FFC000000000
310
1FFFF0003F000F8003F0003FFF80007FFF80000000003FFFF80000000003FFF8
310
0FFFFFFFFFFFFFC07FFFFFF0001FFFFFF0001FFFFFFFFC0007F0001FFFFFFFFC
310
0007FF0003FFFFFFFFFFE0000000001FF000FF00000000007FFFF0003F000780
310
03F0003FFF80007FFF00000000007FFFF00000000007FFF80FFFFFFFFFFFFFC0
310
7FFFFFF0001FFFFFF0001FFFFFFFFC0007F0001FFFFFFFFC0007FF0003FFFFFF
310
FFFF80000000007FF000FE0000000000FFFFE0003F00078007F0003FFF80007F
310
FE0000000001FFFFE0000000001FFFF80FFFFFFFFFFFFFC07FFFFFF0001FFFFF
310
F0001FFFFFFFFC0007F0001FFFFFFFFC0007FF0003FFFFFFFFFF0000000000FF
310
F000FC0000000003FFFFE0007F00078007F0003FFF80007FFC0000000007FFFF
310
C0000000007FFFF80FFFFFFFFFFFFFC07FFFFFF0001FFFFFF8001FFFFFFFFC00
310
0FF8001FFFFFFFFC000FFF0003FFFFFFFFFE0000000003FFF000FC000000000F
310
FFFFE0007F80070007F8001FFF80007FF8000000001FFFFF8000000001FFFFF8
310
0FFFFFFFFFFFFFC07FFFFFF0001FFFFFF8001FFFFFFFFC000FF8001FFFFFFFFC
310
000FFF0003FFFFFFFFFC000000000FFFF000F8000000007FFFFFE0007F800700
310
07F8001FFF80007FF000000000FFFFFF800000000FFFFFF80FFFFFFFFFFFFFC0
310
7FFFFFF0001FFFFFF8000FFFFFFFF8000FF8000FFFFFFFF8000FFF0003FFFFFF
310
FFFC000000007FFFF000F800000007FFFFFFC0007F8003000FF8001FFF80007F
310
F000000007FFFFFF000000007FFFFFF80FFFFFFFFFFFFFC07FFFFFF0001FFFFF
310
F8000FFFFFFFF8000FF8000FFFFFFFF8000FFF0003FFFFFFFFF80000000FFFFF
310
F000F0000000FFFFFFFFC000FF8003000FF8001FFF80007FE0000000FFFFFFFF
310
0000000FFFFFFFF8000001FFFE0000007FFFFFF0001FFFFFF8000FFFFFFFF800
310
0FF8000FFFFFFFF8000FFF0003FFFFFFFFF8000000FFFFFFF000F000000FFFFF
310
FFFFC000FFC002000FF8000FFF80007FE000001FFFFFFFFE000001FFFFFFFFF8
310
000001FFFE0000007FFFFFF0001FFFFFF8000FFFFFFFF8000FF8000FFFFFFFF8
310
000FFF0003FFFFFFFFF000001FFFFFFFF000E00000FFFFFFFFFFC000FFC00200
310
0FFC000FFF80007FE00001FFFFFFFFFE00001FFFFFFFFFF8000001FFFE000000
310
7FFFFFF0001FFFFFFC000FFFFFFFF8001FFC000FFFFFFFF8001FFF0003FFFFFF
310
FFF00001FFFFFFFFF000E00007FFFFFFFFFF8000FFC000001FFC000FFF80007F
310
C0000FFFFFFFFFFE0000FFFFFFFFFFF8000001FFFE0000007FFFFFF0001FFFFF
310
FC0007FFFFFFF0001FFC0007FFFFFFF0001FFF0003FFFFFFFFF00007FFFFFFFF
310
F000E0001FFFFFFFFFFF8000FFC000001FFC000FFF80007FC0003FFFFFFFFFFE
310
0001FFFFFFFFFFF8000001FFFE0000007FFFFFF0001FFFFFFC0007FFFFFFF000
310
1FFC0007FFFFFFF0001FFF0003FFFFFFFFF0001FFFFFFFFFF000E0003FFFFF00
310
03FF8001FFE000001FFC0007FF80007FC0007FFFFF0007FC0003FFFFF0003FF8
310
000001FFFE0000007FFFFFF0001FFFFFFC0003FFFFFFE0001FFC0003FFFFFFE0
310
001FFF0003FFFFFFFFF0003FFFFFFFFFF000E0003FFFFF0001FF8001FFE00000
310
1FFE0007FF80007FC0007FFFFE0003FC0007FFFFE0003FF8000001FFFE000000
310
7FFFFFF0001FFFFFFE0003FFFFFFE0003FFE0003FFFFFFE0003FFF0003FFFFFF
310
FFF0003FFFFF8001F000E0003FFFFF0001FF0001FFE000001FFE0007FF80007F
310
C0007FFFFE0003FC0007FFFFE0003FF8000001FFFE0000007FFFFFF0001FFFFF
310
FE0001FFFFFFC0003FFE0001FFFFFFC0003FFF0003FFFFFFFFF0003FFFFF0001
310
F000E0003FFFFF0003FF0001FFE000003FFE0007FF80007FC0007FFFFE0003FC
310
0007FFFFE0003FF8000001FFFE0000007FFFFFF0001FFFFFFF0001FFFFFFC000
310
7FFF0001FFFFFFC0007FFF0003FFFFFFFFF0003FFFFF0001F000E0003FFFFE00
310
03FF0003FFF000003FFE0003FF80007FC0007FFFFC0003FE0007FFFFE0003FF8
310
000001FFFE0000007FFFFFF0001FFFFFFF0000FFFFFF80007FFF0000FFFFFF80
310
007FFF0003FFFFFFFFF0003FFFFF0001F000E0003FFFFE0003FF0003FFF00000
310
3FFF0003FF80007FC0007FFFFC0007FE0007FFFFC0003FF8000001FFFE000000
310
7FFFFFF0001FFFFFFF80007FFFFF0000FFFF80007FFFFF0000FFFF0003FFFFFF
310
FFF0003FFFFF0003F000E0003FFFFC0003FE0003FFF000003FFF0003FF80007F
310
E0003FFFF80007FE0003FFFFC0007FF8000001FFFE0000007FFFFFF0001FFFFF
310
FF80003FFFFE0000FFFF80003FFFFE0000FFFF0003FFFFFFFFF0001FFFFE0003
310
F000F0001FFFF80003FE0003FFF000007FFF0001FF80007FE0003FFFF00007FE
310
0001FFFF80007FF8000001FFFE0000007FFFFFF0001FFFFFFFC0000FFFF80001
310
FFFFC0000FFFF80001FFFF0003FFFFFFFFF0001FFFFC0003F000F0000FFFF000
310
07FE0007FFF800007FFF0001FF80007FE0001FFFE00007FF0000FFFE00007FF8
310
000001FFFE0000007FFFFFF0001FFFFFFFC00003FFE00001FFFFC00003FFE000
310
01FFFF0003FFFFFFFFF8000FFFF80003F000F00003FFC00007FC0007FFF80000
310
7FFF8001FF80007FF00007FF80000FFF00007FF80000FFF8000001FFFE000000
310
7F80000000000001FFE000003E000003FFFFE000003E000003FFFF0003FFFFFF
310
FFF80003FFE00007F000F800000000000FFC0007FFF800007FFF8001FF80007F
310
F000000000000FFF000000000000FFF8000001FFFE0000007F80000000000001
310
FFF0000000000007FFFFF0000000000007FFFF0003FFFFFFFFFC00007E000007
310
F000F800000000000FFC0007FFF80000FFFF8000FF80007FF800000000001FFF
310
800000000001FFF8000001FFFE0000007F80000000000001FFF800000000000F
310
FFFFF800000000000FFFFF0003FFFFFFFFFC00000000000FF000FC0000000000
310
1FFC0007FFFC0000FFFF8000FF80007FF800000000003FFFC00000000001FFF8
310
000001FFFE0000007F80000000000001FFF800000000000FFFFFF80000000000
310
0FFFFF0003FFFFFFFFFE00000000001FF000FE00000000003FF8000FFFFC0000
310
FFFF8000FF80007FFC00000000003FFFC00000000003FFF8000001FFFE000000
310
7F80000000000001FFFC00000000001FFFFFFC00000000001FFFFF0003FFFFFF
310
FFFF00000000001FF000FF00000000003FF8000FFFFC0000FFFFC000FF80007F
310
FE00000000007FFFE00000000007FFF8000001FFFE0000007F80000000000001
310
FFFE00000000003FFFFFFE00000000003FFFFF0003FFFFFFFFFF80000000003F
310
F000FF80000000007FF8000FFFFC0001FFFFC0007F80007FFF0000000000FFFF
310
F0000000000FFFF800000000000000007F80000000000001FFFF8000000000FF
310
FFFFFF8000000000FFFFFF0003FFFFFFFFFFC0000000007FF000FFC000000000
310
FFF8000FFFFE0001FFFFC0007F80007FFF8000000001FFFFF8000000001FFFF8
310
00000000000000007F80000000000001FFFFC000000001FFFFFFFFC000000001
310
FFFFFF0003FFFFFFFFFFE000000000FFF000FFE000000003FFF0001FFFFE0001
310
FFFFC0007F80007FFFC000000007FFFFFE000000003FFFF80000000000000000
310
7F80000000000001FFFFE000000003FFFFFFFFE000000003FFFFFF0003FFFFFF
310
FFFFF000000003FFF000FFF80000000FFFF0001FFFFE0001FFFFE0007F80007F
310
FFF00000000FFFFFFF00000000FFFFF800000000000000007F80000000000001
310
FFFFF80000000FFFFFFFFFF80000000FFFFFFF0003FFFFFFFFFFFC0000000FFF
310
F000FFFE0000003FFFF0001FFFFE0003FFFFE0003F80007FFFFC0000003FFFFF
310
FFC0000003FFFFF800000000000000007F80000000000001FFFFFE0000003FFF
310
FFFFFFFE0000003FFFFFFF0003FFFFFFFFFFFF0000003FFFF000FFFF800000FF
310
FFF0001FFFFF0003FFFFE0003F80007FFFFF000001FFFFFFFFF800001FFFFFF8
310
00000000000000007F80000000000001FFFFFFC00001FFFFFFFFFFFFC00001FF
310
FFFFFF0003FFFFFFFFFFFFC00000FFFFF000FFFFF8000FFFFFFFFFFFFFFFFFFF
310
FFFFFFFFFFFFFFFFFFFFF0001FFFFFFFFFFF0000FFFFFFF80000000000000000
310
7FFFFFFFFFFFFFFFFFFFFFFC001FFFFFFFFFFFFFFC001FFFFFFFFFFFFFFFFFFF
310
FFFFFFFC001FFFFFF000FFFFFFFFFFFFFFFFFFFFFFFFFFFFFFFFFFFFFFFFFFFF
310
FFFFFFFFFFFFFFFFFFFFFFFFFFFFFFFFFFFFFFFFFFFFFFFFFFFFFFFFFFFFFFFF
310
FFFFFFFFFFFFFFFFFFFFFFFFFFFFFFFFFFFFFFFFFFFFFFFFFFFFFFFFFFFFFFFF
310
F000FFFFFFFFFFFFFFFFFFFFFFFFFFFFFFFFFFFFFFFFFFFFFFFFFFFFFFFFFFFF
310
FFFFFFFFFFFFFFFFFFFFFFFFFFFFFFFFFFFFFFFFFFFFFFFFFFFFFFFFFFFFFFFF
310
FFFFFFFFFFFFFFFFFFFFFFFFFFFFFFFFFFFFFFFFFFFFFFFFF000FFFFFFFFFFFF
310
FFFFFFFFFFFFFFFFFFFFFFFFFFFFFFFFFFFFFFFFFFFFFFFFFFFFFFFFFFFFFFFF
310
FFFFFFFFFFFFFFFFFFFFFFFFFFFFFFFFFFFFFFFFFFFFFFFFFFFFFFFFFFFFFFFF
310
FFFFFFFFFFFFFFFFFFFFFFFFFFFFFFFFF000FFFFFFFFFFFFFFFFFFFFFFFFFFFF
310
FFFFFFFFFFFFFFFFFFFFFFFFFFFFFFFFFFFFFFFFFFFFFFFFFFFFFFFFFFFFFFFF
310
FFFFFFFFFFFFFFFFFFFFFFFFFFFFFFFFFFFFFFFFFFFFFFFFFFFFFFFFFFFFFFFF
310
FFFFFFFFFFFFFFFFF000FFFFFFFFFFFFFFFFFFFFFFFFFFFFFFFFFFFFFFFFFFFF
310
FFFFFFFFFFFFFFFFFFFFFFFFFFFFFFFFFFFFFFFFFFFFFFFFFFFFFFFFFFFFFFFF
310
FFFFFFFFFFFFFFFFFFFFFFFFFFFFFFFFFFFFFFFFFFFFFFFFFFFFFFFFFFFFFFFF
310
F000FFFFFFFFFFFFFFFFFFFFFFFFFFFFFFFFFFFFFFFFFFFFFFFFFFFFFFFFFFFF
310
FFFFFFFFFFFFFFFFFFFFFFFFFFFFFFFFFFFFFFFFFFFFFFFFFFFFFFFFFFFFFFFF
310
FFFFFFFFFFFFFFFFFFFFFFFFFFFFFFFFFFFFFFFFFFFFFFFFF000FFFFFFFFFFFF
310
FFFFFFFFFFFFFFFFFFFFFFFFFFFFFFFFFFFFFFFFFFFFFFFFFFFFFFFFFFFFFFFF
310
FFFFFFFFFFFFFFFFFFFFFFFFFFFFFFFFFFFFFFFFFFFFFFFFFFFFFFFFFFFFFFFF
310
FFFFFFFFFFFFFFFFFFFFFFFFFFFFFFFFF000FFFFFFFFFFFFFFFFFFFFFFFFFFFF
310
FFFFFFFFFFFFFFFFFFFFFFFFFFFFFFFFFFFFFFFFFFFFFFFFFFFFFFFFFFFFFFFF
310
FFFFFFFFFFFFFFFFFFFFFFFFFFFFFFFFFFFFFFFFFFFFFFFFFFFFFFFFFFFFFFFF
310
FFFFFFFFFFFFFFFFF000FFFFFFFFFFFFFFFFFFFFFFFFFFFFFFFFFFFFFFFFFFFF
310
FFFFFFFFFFFFFFFFFFFFFFFFFFFFFFFFFFFFFFFFFFFFFFFFFFFFFFFFFFFFFFFF
310
FFFFFFFFFFFFFFFFFFFFFFFFFFFFFFFFFFFFFFFFFFFFFFFFFFFFFFFFFFFFFFFF
310
F000FFFFFFFFFFFFFFFFFFFFFFFFFFFFFFFFFFFFFFFFFFFFFFFFFFFFFFFFFFFF
310
FFFFFFFFFFFFFFFFFFFFFFFFFFFFFFFFFFFFFFFFFFFFFFFFFFFFFFFFFFFFFFFF
310
FFFFFFFFFFFFFFFFFFFFFFFFFFFFFFFFFFFFFFFFFFFFFFFFF000FFFFFFFFFFFF
310
FFFFFFFFFFFFFFFFFFFFFFFFFFFFFFFFFFFFFFFFFFFFFFFFFFFFFFFFFFFFFFFF
310
FFFFFFFFFFFFFFFFFFFFFFFFFFFFFFFFFFFFFFFFFFFFFFFFFFFFFFFFFFFFFFFF
310
FFFFFFFFFFFFFFFFFFFFFFFFFFFFFFFFF000FFFFFFFFFFFFFFFFFFFFFFFFFFFF
310
FFFFFFFFFFFFFFFFFFFFFFFFFFFFFFFFFFFFFFFFFFFFFFFFFFFFFFFFFFFFFFFF
310
FFFFFFFFFFFFFFFFFFFFFFFFFFFFFFFFFFFFFFFFFFFFFFFFFFFFFFFFFFFFFFFF
310
FFFFFFFFFFFFFFFFF000FFFFFFFFFFFFFFFFFFFFFFFFFFFFFFFFFFFFFFFFFFFF
310
FFFFFFFFFFFFFFFFFFFFFFFFFFFFFFFFFFFFFFFFFFFFFFFFFFFFFFFFFFFFFFFF
310
FFFFFFFFFFFFFFFFFFFFFFFFFFFFFFFFFFFFFFFFFFFFFFFFFFFFFFFFFFFFFFFF
310
F000FFFFFFFFFFFFFFFFFFFFFFFFFFFFFFFFFFFFFFFFFFFFFFFFFFFFFFFFFFFF
310
FFFFFFFFFFFFFFFFFFFFFFFFFFFFFFFFFFFFFFFFFFFFFFFFFFFFFFFFFFFFFFFF
310
FFFFFFFFFFFFFFFFFFFFFFFFFFFFFFFFFFFFFFFFFFFFFFFFF000FFFFFFFFFFFF
310
FFFFFFFFFFFFFFFFFFFFFFFFFFFFFFFFFFFFFFFFFFFFFFFFFFFFFFFFFFFFFFFF
310
FFFFFFFFFFFFFFFFFFFFFFFFFFFFFFFFFFFFFFFFFFFFFFFFFFFFFFFFFFFFFFFF
310
FFFFFFFFFFFFFFFFFFFFFFFFFFFFFFFFF000FFFFFFFFFFFFFFFFFFFFFFFFFFFF
310
FFFFFFFFFFFFFFFFFFFFFFFFFFFFFFFFFFFFFFFFFFFFFFFFFFFFFFFFFFFFFFFF
310
FFFFFFFFFFFFFFFFFFFFFFFFFFFFFFFFFFFFFFFFFFFFFFFFFFFFFFFFFFFFFFFF
310
FFFFFFFFFFFFFFFFF000FFFFFFFFFFFFFFFFFFFFFFFFFFFFFFFFFFFFFFFFFFFF
310
FFFFFFFFFFFFFFFFFFFFFFFFFFFFFFFFFFFFFFFFFFFFFFFFFFFFFFFFFFFFFFFF
310
FFFFFFFFFFFFFFFFFFFFFFFFFFFFFFFFFFFFFFFFFFFFFFFFFFFFFFFFFFFFFFFF
310
F000FFFFFFFFFFFFFFFFFFFFFFFFFFFFFFFFFFFFFFFFFFFFFFFFFFFFFFFFFFFF
310
FFFFFFFFFFFFFFFFFFFFFFFFFFFFFFFFFFFFFFFFFFFFFFFFFFFFFFFFFFFFFFFF
310
FFFFFFFFFFFFFFFFFFFFFFFFFFFFFFFFFFFFFFFFFFFFFFFFF000FFFFFFFFFFFF
310
FFFFFFFFFFFFFFFFFFFFFFFFFFFFFFFFFFFFFFFFFFFFFFFFFFFFFFFFFFFFFFFF
310
FFFFFFFFFFFFFFFFFFFFFFFFFFFFFFFFFFFFFFFFFFFFFFFFFFFFFFFFFFFFFFFF
310
FFFFFFFFFFFFFFFFFFFFFFFFFFFFFFFFF000FFFFFFFFFFFFFFFFFFFFFFFFFFFF
310
FFFFFFFFFFFFFFFFFFFFFFFFFFFFFFFFFFFFFFFFFFFFFFFFFFFFFFFFFFFFFFFF
310
FFFFFFFFFFFFFFFFFFFFFFFFFFFFFFFFFFFFFFFFFFFFFFFFFFFFFFFFFFFFFFFF
310
FFFFFFFFFFFFFFFFF000FFFFFFFFFFFFFFFFFFFFFFFFFFFFFFFFFFFFFFFFFFFF
310
FFFFFFFFFFFFFFFFFFFFFFFFFFFFFFFFFFFFFFFFFFFFFFFFFFFFFFFFFFFFFFFF
310
FFFFFFFFFFFFFFFFFFFFFFFFFFFFFFFFFFFFFFFFFFFFFFFFFFFFFFFFFFFFFFFF
310
F000FFFFFFFFFFFFFFFFFFFFFFFFFFFFFFFFFFFFFFFFFFFFFFFFFFFFFFFFFFFF
310
FFFFFFFFFFFFFFFFFFFFFFFFFFFFFFFFFFFFFFFFFFFFFFFFFFFFFFFFFFFFFFFF
310
FFFFFFFFFFFFFFFFFFFFFFFFFFFFFFFFFFFFFFFFFFFFFFFFF000FFFFFFFFFFFF
310
FFFFFFFFFFFFFFFFFFFFFFFFFFFFFFFFFFFFFFFFFFFFFFFFFFFFFFFFFFFFFFFF
310
FFFFFFFFFFFFFFFFFFFFFFFFFFFFFFFFFFFFFFFFFFFFFFFFFFFFFFFFFFFFFFFF
310
FFFFFFFFFFFFFFFFFFFFFFFFFFFFFFFFF0000000000000000000000000000000
310
0000000000000000000000000000000000000000000000000000000000000000
310
0000000000000000000000000000000000000000000000000000000000000000
310
0000000000000000000000000000000000000000000000000000000000000000
310
0000000000000000000000000000000000000000000000000000000000000000
310
0000000000000000000000000000000000000000000000000000000000000000
310
0000000000000000000000000000000000000000000000000000000000000000
310
0000000000000000000000000000000000000000000000000000000000000000
310
0000000000000000000000000000000000000000000000000000000000000000
310
0000000000000000000000000000000000000000000000000000000000000000
310
0000000000000000000000000000000000000000000000000000000000000000
310
0000000000000000000000000000000000000000000000000000000000000000
310
0000000000000000000000000000000000000000000000000000000000000000
310
0000000000000000000000000000000000000000000000000000000000000000
310
0000000000000000000000000000000000000000000000000000000000000000
310
0000000000000000000000000000000000000000000000000000000000000000
  1
OLE
  0
ENDSEC
  0
SECTION
  2
OBJECTS
  0
DICTIONARY
  5
C
330
0
100
AcDbDictionary
281
     1
  3
ACAD_GROUP
350
D
  3
ACAD_LAYOUT
350
1A
  3
ACAD_MLINESTYLE
350
17
  3
ACAD_PLOTSETTINGS
350
19
  3
ACAD_PLOTSTYLENAME
350
E
  0
DICTIONARY
  5
D
102
{ACAD_REACTORS
330
C
102
}
330
C
100
AcDbDictionary
281
     1
  0
DICTIONARY
  5
1A
102
{ACAD_REACTORS
330
C
102
}
330
C
100
AcDbDictionary
281
     1
  3
Layout1
350
1E
  3
Layout2
350
26
  3
Model
350
22
  0
DICTIONARY
  5
17
102
{ACAD_REACTORS
330
C
102
}
330
C
100
AcDbDictionary
281
     1
  3
Standard
350
18
  0
DICTIONARY
  5
19
102
{ACAD_REACTORS
330
C
102
}
330
C
100
AcDbDictionary
281
     1
  0
ACDBDICTIONARYWDFLT
  5
E
102
{ACAD_REACTORS
330
C
102
}
330
C
100
AcDbDictionary
281
     1
  3
Normal
350
F
100
AcDbDictionaryWithDefault
340
F
  0
LAYOUT
  5
1E
102
{ACAD_REACTORS
330
1A
102
}
330
1A
100
AcDbPlotSettings
  1

  2
none_device
  4

  6

 40
0.0
 41
0.0
 42
0.0
 43
0.0
 44
0.0
 45
0.0
 46
0.0
 47
0.0
 48
0.0
 49
0.0
140
0.0
141
0.0
142
1.0
143
1.0
 70
   688
 72
     0
 73
     0
 74
     5
  7

 75
    16
147
1.0
148
0.0
149
0.0
100
AcDbLayout
  1
Layout1
 70
     1
 71
     1
 10
0.0
 20
0.0
 11
420.0
 21
297.0
 12
0.0
 22
0.0
 32
0.0
 14
1.0000000000E+20
 24
1.0000000000E+20
 34
1.0000000000E+20
 15
-1.0000000000E+20
 25
-1.0000000000E+20
 35
-1.0000000000E+20
146
0.0
 13
0.0
 23
0.0
 33
0.0
 16
1.0
 26
0.0
 36
0.0
 17
0.0
 27
1.0
 37
0.0
 76
     0
330
1B
  0
LAYOUT
  5
26
102
{ACAD_REACTORS
330
1A
102
}
330
1A
100
AcDbPlotSettings
  1

  2
none_device
  4

  6

 40
0.0
 41
0.0
 42
0.0
 43
0.0
 44
0.0
 45
0.0
 46
0.0
 47
0.0
 48
0.0
 49
0.0
140
0.0
141
0.0
142
1.0
143
1.0
 70
   688
 72
     0
 73
     0
 74
     5
  7

 75
    16
147
1.0
148
0.0
149
0.0
100
AcDbLayout
  1
Layout2
 70
     1
 71
     2
 10
0.0
 20
0.0
 11
0.0
 21
0.0
 12
0.0
 22
0.0
 32
0.0
 14
0.0
 24
0.0
 34
0.0
 15
0.0
 25
0.0
 35
0.0
146
0.0
 13
0.0
 23
0.0
 33
0.0
 16
1.0
 26
0.0
 36
0.0
 17
0.0
 27
1.0
 37
0.0
 76
     0
330
23
  0
LAYOUT
  5
22
102
{ACAD_REACTORS
330
1A
102
}
330
1A
100
AcDbPlotSettings
  1

  2
none_device
  4

  6

 40
0.0
 41
0.0
 42
0.0
 43
0.0
 44
0.0
 45
0.0
 46
0.0
 47
0.0
 48
0.0
 49
0.0
140
0.0
141
0.0
142
1.0
143
1.0
 70
  1712
 72
     0
 73
     0
 74
     0
  7

 75
     0
147
1.0
148
0.0
149
0.0
100
AcDbLayout
  1
Model
 70
     1
 71
     0
 10
0.0
 20
0.0
 11
297.0
 21
210.0
 12
0.0
 22
0.0
 32
0.0
 14
0.0
 24
0.0
 34
0.0
 15
297.0
 25
210.0
 35
0.0
146
0.0
 13
0.0
 23
0.0
 33
0.0
 16
1.0
 26
0.0
 36
0.0
 17
0.0
 27
1.0
 37
0.0
 76
     0
330
1F
331
29
  0
MLINESTYLE
  5
18
102
{ACAD_REACTORS
330
17
102
}
330
17
100
AcDbMlineStyle
  2
Standard
 70
     0
  3

 62
   256
 51
90.0
 52
90.0
 71
     2
 49
0.5
 62
   256
  6
BYLAYER
 49
-0.5
 62
   256
  6
BYLAYER
  0
ACDBPLACEHOLDER
  5
F
102
{ACAD_REACTORS
330
E
102
}
330
E
  0
ENDSEC
  0
EOF
