  0
SECTION
  2
HEADER
  9
$ACADVER
  1
AC1015
  9
$ACADMAINTVER
 70
     6
  9
$DWGCODEPAGE
  3
ANSI_1252
  9
$INSBASE
 10
0.0
 20
0.0
 30
0.0
  9
$EXTMIN
 10
0.0
 20
0.0
 30
0.0
  9
$EXTMAX
 10
297.0
 20
210.0
 30
0.0
  9
$LIMMIN
 10
0.0
 20
0.0
  9
$LIMMAX
 10
297.0
 20
210.0
  9
$ORTHOMODE
 70
     0
  9
$REGENMODE
 70
     1
  9
$FILLMODE
 70
     1
  9
$QTEXTMODE
 70
     0
  9
$MIRRTEXT
 70
     1
  9
$LTSCALE
 40
1.0
  9
$ATTMODE
 70
     1
  9
$TEXTSIZE
 40
2.0
  9
$TRACEWID
 40
1.0
  9
$TEXTSTYLE
  7
Standard
  9
$CLAYER
  8
0
  9
$CELTYPE
  6
ByLayer
  9
$CECOLOR
 62
   256
  9
$CELTSCALE
 40
1.0
  9
$DISPSILH
 70
     0
  9
$DIMSCALE
 40
1.0
  9
$DIMASZ
 40
3.0
  9
$DIMEXO
 40
0.0
  9
$DIMDLI
 40
3.75
  9
$DIMRND
 40
0.0
  9
$DIMDLE
 40
0.0
  9
$DIMEXE
 40
1.0
  9
$DIMTP
 40
0.0
  9
$DIMTM
 40
0.0
  9
$DIMTXT
 40
2.0
  9
$DIMCEN
 40
2.5
  9
$DIMTSZ
 40
0.0
  9
$DIMTOL
 70
     0
  9
$DIMLIM
 70
     0
  9
$DIMTIH
 70
     1
  9
$DIMTOH
 70
     1
  9
$DIMSE1
 70
     0
  9
$DIMSE2
 70
     0
  9
$DIMTAD
 70
     1
  9
$DIMZIN
 70
     0
  9
$DIMBLK
  1

  9
$DIMASO
 70
     1
  9
$DIMSHO
 70
     1
  9
$DIMPOST
  1

  9
$DIMAPOST
  1

  9
$DIMALT
 70
     0
  9
$DIMALTD
 70
     3
  9
$DIMALTF
 40
0.0393700787
  9
$DIMLFAC
 40
1.0
  9
$DIMTOFL
 70
     1
  9
$DIMTVP
 40
0.0
  9
$DIMTIX
 70
     0
  9
$DIMSOXD
 70
     0
  9
$DIMSAH
 70
     0
  9
$DIMBLK1
  1

  9
$DIMBLK2
  1

  9
$DIMSTYLE
  2
ISO-25
  9
$DIMCLRD
 70
     0
  9
$DIMCLRE
 70
     0
  9
$DIMCLRT
 70
     0
  9
$DIMTFAC
 40
1.0
  9
$DIMGAP
 40
1.524
  9
$DIMJUST
 70
     0
  9
$DIMSD1
 70
     0
  9
$DIMSD2
 70
     0
  9
$DIMTOLJ
 70
     0
  9
$DIMTZIN
 70
     0
  9
$DIMALTZ
 70
     0
  9
$DIMALTTZ
 70
     0
  9
$DIMUPT
 70
     0
  9
$DIMDEC
 70
     2
  9
$DIMTDEC
 70
     3
  9
$DIMALTU
 70
     2
  9
$DIMALTTD
 70
     3
  9
$DIMTXSTY
  7
Standard
  9
$DIMAUNIT
 70
     0
  9
$DIMADEC
 70
     2
  9
$DIMALTRND
 40
0.0
  9
$DIMAZIN
 70
     0
  9
$DIMDSEP
 70
    44
  9
$DIMATFIT
 70
     3
  9
$DIMFRAC
 70
     0
  9
$DIMLDRBLK
  1

  9
$DIMLUNIT
 70
     2
  9
$DIMLWD
 70
    -2
  9
$DIMLWE
 70
    -2
  9
$DIMTMOVE
 70
     0
  9
$LUNITS
 70
     2
  9
$LUPREC
 70
     2
  9
$SKETCHINC
 40
1.0
  9
$FILLETRAD
 40
10.0
  9
$AUNITS
 70
     0
  9
$AUPREC
 70
     2
  9
$MENU
  1
.
  9
$ELEVATION
 40
0.0
  9
$PELEVATION
 40
0.0
  9
$THICKNESS
 40
0.0
  9
$LIMCHECK
 70
     0
  9
$CHAMFERA
 40
10.0
  9
$CHAMFERB
 40
10.0
  9
$CHAMFERC
 40
20.0
  9
$CHAMFERD
 40
0.0
  9
$SKPOLY
 70
     0
  9
$TDCREATE
 40
2456070.676632165
  9
$TDUCREATE
 40
2456070.593298831
  9
$TDUPDATE
 40
2456070.676633426
  9
$TDUUPDATE
 40
2456070.593300092
  9
$TDINDWG
 40
0.0000000116
  9
$TDUSRTIMER
 40
0.0000000116
  9
$USRTIMER
 70
     1
  9
$ANGBASE
 50
0.0
  9
$ANGDIR
 70
     0
  9
$PDMODE
 70
     0
  9
$PDSIZE
 40
-1.0
  9
$PLINEWID
 40
0.0
  9
$SPLFRAME
 70
     0
  9
$SPLINETYPE
 70
     6
  9
$SPLINESEGS
 70
     8
  9
$HANDSEED
  5
1FC
  9
$SURFTAB1
 70
     6
  9
$SURFTAB2
 70
     6
  9
$SURFTYPE
 70
     6
  9
$SURFU
 70
     6
  9
$SURFV
 70
     6
  9
$UCSBASE
  2

  9
$UCSNAME
  2

  9
$UCSORG
 10
0.0
 20
0.0
 30
0.0
  9
$UCSXDIR
 10
1.0
 20
0.0
 30
0.0
  9
$UCSYDIR
 10
0.0
 20
1.0
 30
0.0
  9
$UCSORTHOREF
  2

  9
$UCSORTHOVIEW
 70
     0
  9
$UCSORGTOP
 10
0.0
 20
0.0
 30
0.0
  9
$UCSORGBOTTOM
 10
0.0
 20
0.0
 30
0.0
  9
$UCSORGLEFT
 10
0.0
 20
0.0
 30
0.0
  9
$UCSORGRIGHT
 10
0.0
 20
0.0
 30
0.0
  9
$UCSORGFRONT
 10
0.0
 20
0.0
 30
0.0
  9
$UCSORGBACK
 10
0.0
 20
0.0
 30
0.0
  9
$PUCSBASE
  2

  9
$PUCSNAME
  2

  9
$PUCSORG
 10
0.0
 20
0.0
 30
0.0
  9
$PUCSXDIR
 10
1.0
 20
0.0
 30
0.0
  9
$PUCSYDIR
 10
0.0
 20
1.0
 30
0.0
  9
$PUCSORTHOREF
  2

  9
$PUCSORTHOVIEW
 70
     0
  9
$PUCSORGTOP
 10
0.0
 20
0.0
 30
0.0
  9
$PUCSORGBOTTOM
 10
0.0
 20
0.0
 30
0.0
  9
$PUCSORGLEFT
 10
0.0
 20
0.0
 30
0.0
  9
$PUCSORGRIGHT
 10
0.0
 20
0.0
 30
0.0
  9
$PUCSORGFRONT
 10
0.0
 20
0.0
 30
0.0
  9
$PUCSORGBACK
 10
0.0
 20
0.0
 30
0.0
  9
$USERI1
 70
     0
  9
$USERI2
 70
     0
  9
$USERI3
 70
     0
  9
$USERI4
 70
     0
  9
$USERI5
 70
     0
  9
$USERR1
 40
0.0
  9
$USERR2
 40
0.0
  9
$USERR3
 40
0.0
  9
$USERR4
 40
0.0
  9
$USERR5
 40
0.0
  9
$WORLDVIEW
 70
     1
  9
$SHADEDGE
 70
     3
  9
$SHADEDIF
 70
    70
  9
$TILEMODE
 70
     1
  9
$MAXACTVP
 70
    64
  9
$PINSBASE
 10
0.0
 20
0.0
 30
0.0
  9
$PLIMCHECK
 70
     0
  9
$PEXTMIN
 10
1.0000000000E+20
 20
1.0000000000E+20
 30
1.0000000000E+20
  9
$PEXTMAX
 10
-1.0000000000E+20
 20
-1.0000000000E+20
 30
-1.0000000000E+20
  9
$PLIMMIN
 10
0.0
 20
0.0
  9
$PLIMMAX
 10
420.0
 20
297.0
  9
$UNITMODE
 70
     0
  9
$VISRETAIN
 70
     1
  9
$PLINEGEN
 70
     0
  9
$PSLTSCALE
 70
     1
  9
$TREEDEPTH
 70
  3020
  9
$CMLSTYLE
  2
Standard
  9
$CMLJUST
 70
     0
  9
$CMLSCALE
 40
20.0
  9
$PROXYGRAPHICS
 70
     1
  9
$MEASUREMENT
 70
     1
  9
$CELWEIGHT
370
    -1
  9
$ENDCAPS
280
     0
  9
$JOINSTYLE
280
     0
  9
$LWDISPLAY
290
     1
  9
$INSUNITS
 70
     4
  9
$HYPERLINKBASE
  1

  9
$STYLESHEET
  1

  9
$XEDIT
290
     1
  9
$CEPSNTYPE
380
     0
  9
$PSTYLEMODE
290
     1
  9
$FINGERPRINTGUID
  2
{41FF503A-7953-4A62-AB44-B068120C0E0E}
  9
$VERSIONGUID
  2
{FAEB1C32-E019-11D5-929B-00C0DF256EC4}
  9
$EXTNAMES
290
     1
  9
$PSVPSCALE
 40
0.0
  9
$OLESTARTUP
290
     0
  0
ENDSEC
  0
SECTION
  2
CLASSES
  0
CLASS
  1
ACDBDICTIONARYWDFLT
  2
AcDbDictionaryWithDefault
  3
ObjectDBX Classes
 90
        0
280
     0
281
     0
  0
CLASS
  1
VISUALSTYLE
  2
AcDbVisualStyle
  3
ObjectDBX Classes
 90
     4095
280
     0
281
     0
  0
CLASS
  1
MATERIAL
  2
AcDbMaterial
  3
ObjectDBX Classes
 90
     1153
280
     0
281
     0
  0
CLASS
  1
ACDBPLACEHOLDER
  2
AcDbPlaceHolder
  3
ObjectDBX Classes
 90
        0
280
     0
281
     0
  0
CLASS
  1
LAYOUT
  2
AcDbLayout
  3
ObjectDBX Classes
 90
        0
280
     0
281
     0
  0
ENDSEC
  0
SECTION
  2
TABLES
  0
TABLE
  2
VPORT
  5
8
330
0
100
AcDbSymbolTable
 70
     1
  0
VPORT
  5
29
330
8
100
AcDbSymbolTableRecord
100
AcDbViewportTableRecord
  2
*Active
 70
     0
 10
0.0
 20
0.0
 11
1.0
 21
1.0
 12
148.5
 22
105.0
 13
0.0
 23
0.0
 14
10.0
 24
10.0
 15
10.0
 25
10.0
 16
0.0
 26
0.0
 36
1.0
 17
0.0
 27
0.0
 37
0.0
 40
210.0
 41
1.4142857143
 42
50.0
 43
0.0
 44
0.0
 50
0.0
 51
0.0
 71
     0
 72
  2000
 73
     1
 74
     3
 75
     0
 76
     0
 77
     0
 78
     0
281
     0
 65
     1
110
0.0
120
0.0
130
0.0
111
1.0
121
0.0
131
0.0
112
0.0
122
1.0
132
0.0
 79
     0
146
0.0
  0
ENDTAB
  0
TABLE
  2
LTYPE
  5
5
330
0
100
AcDbSymbolTable
 70
     6
  0
LTYPE
  5
14
330
5
100
AcDbSymbolTableRecord
100
AcDbLinetypeTableRecord
  2
ByBlock
 70
     0
  3

 72
    65
 73
     0
 40
0.0
  0
LTYPE
  5
15
330
5
100
AcDbSymbolTableRecord
100
AcDbLinetypeTableRecord
  2
ByLayer
 70
     0
  3

 72
    65
 73
     0
 40
0.0
  0
LTYPE
  5
16
330
5
100
AcDbSymbolTableRecord
100
AcDbLinetypeTableRecord
  2
Continuous
 70
     0
  3
Solid line
 72
    65
 73
     0
 40
0.0
  0
LTYPE
  5
3F
330
5
100
AcDbSymbolTableRecord
100
AcDbLinetypeTableRecord
  2
HIDDEN
 70
     0
  3
Hidden __ __ __ __ __ __ __ __ __ __ __ __ __ __
 72
    65
 73
     2
 40
1.905
 49
1.27
 74
     0
 49
-0.635
 74
     0
  0
LTYPE
  5
40
330
5
100
AcDbSymbolTableRecord
100
AcDbLinetypeTableRecord
  2
PHANTOM
 70
     0
  3
Phantom ______  __  __  ______  __  __  ______
 72
    65
 73
     6
 40
12.7
 49
6.35
 74
     0
 49
-1.27
 74
     0
 49
1.27
 74
     0
 49
-1.27
 74
     0
 49
1.27
 74
     0
 49
-1.27
 74
     0
  0
LTYPE
  5
41
330
5
100
AcDbSymbolTableRecord
100
AcDbLinetypeTableRecord
  2
CENTER
 70
     0
  3
Center ____ _ ____ _ ____ _ ____ _ ____ _ ____
 72
    65
 73
     4
 40
10.16
 49
6.35
 74
     0
 49
-1.27
 74
     0
 49
1.27
 74
     0
 49
-1.27
 74
     0
  0
LTYPE
  5
42
330
5
100
AcDbSymbolTableRecord
100
AcDbLinetypeTableRecord
  2
CENTERX2
 70
     0
  3
Center (2x) ________  __  ________  __  _____
 72
    65
 73
     4
 40
20.32
 49
12.7
 74
     0
 49
-2.54
 74
     0
 49
2.54
 74
     0
 49
-2.54
 74
     0
  0
LTYPE
  5
43
330
5
100
AcDbSymbolTableRecord
100
AcDbLinetypeTableRecord
  2
DOT2
 70
     0
  3
Dot (.5x) ........................................
 72
    65
 73
     2
 40
0.635
 49
0.0
 74
     0
 49
-0.635
 74
     0
  0
ENDTAB
  0
TABLE
  2
LAYER
  5
2
330
0
100
AcDbSymbolTable
 70
     5
  0
LAYER
  5
10
330
2
100
AcDbSymbolTableRecord
100
AcDbLayerTableRecord
  2
0
 70
     0
 62
     7
  6
Continuous
370
    -3
390
F
  0
LAYER
  5
44
330
2
100
AcDbSymbolTableRecord
100
AcDbLayerTableRecord
  2
FORMAT
 70
     0
 62
     7
  6
Continuous
370
    -3
390
F
  0
LAYER
  5
45
330
2
100
AcDbSymbolTableRecord
100
AcDbLayerTableRecord
  2
VERMASSUNG
 70
     0
 62
     7
  6
Continuous
370
    -3
390
F
  0
LAYER
  5
46
330
2
100
AcDbSymbolTableRecord
100
AcDbLayerTableRecord
  2
KOPF_DÜNN
 70
     0
 62
     7
  6
Continuous
370
    -3
390
F
  0
LAYER
  5
47
330
2
100
AcDbSymbolTableRecord
100
AcDbLayerTableRecord
  2
KOPF_DICK
 70
     0
 62
     7
  6
Continuous
370
    15
390
F
  0
ENDTAB
  0
TABLE
  2
STYLE
  5
3
330
0
100
AcDbSymbolTable
 70
     2
  0
STYLE
  5
11
330
3
100
AcDbSymbolTableRecord
100
AcDbTextStyleTableRecord
  2
Standard
 70
     0
 40
0.0
 41
1.0
 50
0.0
 71
     0
 42
2.0
  3
txt
  4

  0
STYLE
  5
48
330
3
100
AcDbSymbolTableRecord
100
AcDbTextStyleTableRecord
  2
SLDTEXTSTYLE0
 70
     0
 40
0.0
 41
0.7
 50
0.0
 71
     0
 42
0.2
  3
TXT
  4

  0
ENDTAB
  0
TABLE
  2
VIEW
  5
6
330
0
100
AcDbSymbolTable
 70
     0
  0
ENDTAB
  0
TABLE
  2
UCS
  5
7
330
0
100
AcDbSymbolTable
 70
     0
  0
ENDTAB
  0
TABLE
  2
APPID
  5
9
330
0
100
AcDbSymbolTable
 70
     1
  0
APPID
  5
12
330
9
100
AcDbSymbolTableRecord
100
AcDbRegAppTableRecord
  2
ACAD
 70
     0
  0
ENDTAB
  0
TABLE
  2
DIMSTYLE
  5
A
330
0
100
AcDbSymbolTable
 70
     5
100
AcDbDimStyleTable
  0
DIMSTYLE
105
27
330
A
100
AcDbSymbolTableRecord
100
AcDbDimStyleTableRecord
  2
ISO-25
 70
     0
 41
2.5
 42
0.625
 43
3.75
 44
1.25
 73
     0
 74
     0
 77
     1
 78
     8
140
2.5
141
2.5
143
0.0393700787
147
0.625
171
     3
172
     1
178
     0
271
     2
272
     2
274
     3
278
    44
283
     0
284
     8
340
11
  0
DIMSTYLE
105
187
102
{ACAD_REACTORS
330
186
102
}
330
A
100
AcDbSymbolTableRecord
100
AcDbDimStyleTableRecord
  2
SLDDIMSTYLE0
 70
     0
 41
3.0
 44
0.0
 73
     0
 74
     0
 77
     1
 78
    12
 79
     3
140
2.0
147
0.5
173
     1
178
     0
179
     2
272
     3
276
     2
284
    12
340
48
  0
DIMSTYLE
105
190
102
{ACAD_REACTORS
330
18F
330
1A7
102
}
330
A
100
AcDbSymbolTableRecord
100
AcDbDimStyleTableRecord
  2
SLDDIMSTYLE1
 70
     0
 41
3.0
 44
0.0
 45
0.000000001
 47
0.1
 48
0.1
 71
     1
 73
     0
 74
     0
 77
     1
 78
    12
 79
     3
140
2.0
147
0.5
173
     1
178
     0
271
     2
272
     1
276
     2
284
     8
340
48
  0
DIMSTYLE
105
19D
102
{ACAD_REACTORS
330
19C
330
1B3
102
}
330
A
100
AcDbSymbolTableRecord
100
AcDbDimStyleTableRecord
  2
SLDDIMSTYLE2
 70
     0
 41
3.0
 44
0.0
 45
0.000000001
 73
     0
 74
     0
 77
     1
 78
    12
 79
     3
140
2.0
147
0.5
173
     1
178
     0
271
     2
272
     3
276
     2
284
    12
340
48
  0
DIMSTYLE
105
1E1
102
{ACAD_REACTORS
330
1E0
102
}
330
A
100
AcDbSymbolTableRecord
100
AcDbDimStyleTableRecord
  2
SLDDIMSTYLE3
 70
     0
 41
3.0
 44
0.0
 45
0.000000001
 73
     0
 74
     0
 77
     1
 78
    12
 79
     3
140
2.0
147
0.5
172
     1
173
     1
178
     0
271
     2
272
     3
276
     2
284
    12
289
     0
340
48
  0
ENDTAB
  0
TABLE
  2
BLOCK_RECORD
  5
1
330
0
100
AcDbSymbolTable
 70
     8
  0
BLOCK_RECORD
  5
1F
330
1
100
AcDbSymbolTableRecord
100
AcDbBlockTableRecord
  2
*Model_Space
340
22
  0
BLOCK_RECORD
  5
1B
330
1
100
AcDbSymbolTableRecord
100
AcDbBlockTableRecord
  2
*Paper_Space
340
1E
  0
BLOCK_RECORD
  5
23
330
1
100
AcDbSymbolTableRecord
100
AcDbBlockTableRecord
  2
*Paper_Space0
340
26
  0
BLOCK_RECORD
  5
188
330
1
100
AcDbSymbolTableRecord
100
AcDbBlockTableRecord
  2
_D
340
0
  0
BLOCK_RECORD
  5
191
330
1
100
AcDbSymbolTableRecord
100
AcDbBlockTableRecord
  2
_D_1
340
0
  0
BLOCK_RECORD
  5
19E
330
1
100
AcDbSymbolTableRecord
100
AcDbBlockTableRecord
  2
_D_2
340
0
  0
BLOCK_RECORD
  5
1A8
330
1
100
AcDbSymbolTableRecord
100
AcDbBlockTableRecord
  2
_D_3
340
0
  0
BLOCK_RECORD
  5
1B4
330
1
100
AcDbSymbolTableRecord
100
AcDbBlockTableRecord
  2
_D_4
340
0
  0
BLOCK_RECORD
  5
1E2
330
1
100
AcDbSymbolTableRecord
100
AcDbBlockTableRecord
  2
_D_5
340
0
  0
BLOCK_RECORD
  5
1EF
330
1
100
AcDbSymbolTableRecord
100
AcDbBlockTableRecord
  2
SW_CENTERMARKSYMBOL_0
340
0
102
{BLKREFS
331
1FA
102
}
  0
ENDTAB
  0
ENDSEC
  0
SECTION
  2
BLOCKS
  0
BLOCK
  5
20
330
1F
100
AcDbEntity
  8
0
100
AcDbBlockBegin
  2
*Model_Space
 70
     0
 10
0.0
 20
0.0
 30
0.0
  3
*Model_Space
  1

  0
ENDBLK
  5
21
330
1F
100
AcDbEntity
  8
0
100
AcDbBlockEnd
  0
BLOCK
  5
1C
330
1B
100
AcDbEntity
 67
     1
  8
0
100
AcDbBlockBegin
  2
*Paper_Space
 70
     0
 10
0.0
 20
0.0
 30
0.0
  3
*Paper_Space
  1

  0
ENDBLK
  5
1D
330
1B
100
AcDbEntity
 67
     1
  8
0
100
AcDbBlockEnd
  0
BLOCK
  5
24
330
23
100
AcDbEntity
  8
0
100
AcDbBlockBegin
  2
*Paper_Space0
 70
     0
 10
0.0
 20
0.0
 30
0.0
  3
*Paper_Space0
  1

  0
ENDBLK
  5
25
330
23
100
AcDbEntity
  8
0
100
AcDbBlockEnd
  0
BLOCK
  5
189
330
188
100
AcDbEntity
  8
0
100
AcDbBlockBegin
  2
_D
 70
     0
 10
0.0
 20
0.0
 30
0.0
  3
_D
  1

  0
ARC
  5
18B
330
188
100
AcDbEntity
  8
VERMASSUNG
100
AcDbCircle
 10
241.0524124429
 20
92.6278122727
 30
0.0
 40
9.539485860471565
100
AcDbArc
 50
177.0
 51
270.0
  0
SOLID
  5
18C
330
188
100
AcDbEntity
  8
VERMASSUNG
100
AcDbTrace
 10
231.5260001162
 20
93.1270703873
 30
0.0
 11
231.3777031693
 21
90.0971350719
 31
0.0
 12
232.273208262
 22
90.1869717517
 32
0.0
 13
232.273208262
 23
90.1869717517
 33
0.0
  0
SOLID
  5
18D
330
188
100
AcDbEntity
  8
VERMASSUNG
100
AcDbTrace
 10
241.0524124429
 20
83.0883264122
 30
0.0
 11
238.1554489631
 21
83.9883834087
 31
0.0
 12
238.018868286
 22
83.0988072632
 32
0.0
 13
238.018868286
 23
83.0988072632
 33
0.0
  0
MTEXT
  5
18E
330
188
100
AcDbEntity
  8
VERMASSUNG
100
AcDbMText
 10
234.0065988001
 20
89.9395206229
 30
0.1
 40
2.0
 41
0.0
 71
     1
 72
     1
  1
93°
  7
SLDTEXTSTYLE0
 11
0.6883545756937653
 21
-0.7253743710122769
 31
0.0
 73
     1
 44
1.0
  0
ENDBLK
  5
18A
330
188
100
AcDbEntity
  8
0
100
AcDbBlockEnd
  0
BLOCK
  5
192
330
191
100
AcDbEntity
  8
0
100
AcDbBlockBegin
  2
_D_1
 70
     0
 10
0.0
 20
0.0
 30
0.0
  3
_D_1
  1

  0
SOLID
  5
194
330
191
100
AcDbEntity
  8
VERMASSUNG
100
AcDbTrace
 10
181.0524124429
 20
76.4592926312
 30
0.0
 11
184.0524124429
 21
76.0092926312
 31
0.0
 12
184.0524124429
 22
76.9092926312
 32
0.0
 13
184.0524124429
 23
76.9092926312
 33
0.0
  0
SOLID
  5
195
330
191
100
AcDbEntity
  8
VERMASSUNG
100
AcDbTrace
 10
241.0524124429
 20
76.4592926312
 30
0.0
 11
238.0524124429
 21
76.9092926312
 31
0.0
 12
238.0524124429
 22
76.0092926312
 32
0.0
 13
238.0524124429
 23
76.0092926312
 33
0.0
  0
LINE
  5
196
330
191
100
AcDbEntity
  8
VERMASSUNG
100
AcDbLine
 10
181.0524124429
 20
102.9493243228
 30
0.0
 11
181.0524124429
 21
75.4592926312
 31
0.0
  0
LINE
  5
197
330
191
100
AcDbEntity
  8
VERMASSUNG
100
AcDbLine
 10
241.0524124429
 20
92.6493243228
 30
0.0
 11
241.0524124429
 21
75.4592926312
 31
0.0
  0
LINE
  5
198
330
191
100
AcDbEntity
  8
VERMASSUNG
100
AcDbLine
 10
181.0524124429
 20
76.4592926312
 30
0.0
 11
241.0524124429
 21
76.4592926312
 31
0.0
  0
MTEXT
  5
199
330
191
100
AcDbEntity
  8
VERMASSUNG
100
AcDbMText
 10
206.5024122559
 20
79.0374279943
 30
0.1
 40
2.0
 41
0.0
 71
     1
 72
     1
  1
60
  7
SLDTEXTSTYLE0
 73
     1
 44
1.0
  0
MTEXT
  5
19A
330
191
100
AcDbEntity
  8
VERMASSUNG
100
AcDbMText
 10
212.289912358
 20
79.0374279943
 30
0.1
 40
2.0
 41
0.0
 71
     1
 72
     1
  1

  7
SLDTEXTSTYLE0
 73
     1
 44
1.0
  0
MTEXT
  5
19B
330
191
100
AcDbEntity
  8
VERMASSUNG
100
AcDbMText
 10
212.3024126478
 20
78.5428941315
 30
0.1
 40
1.5
 41
0.0
 71
     1
 72
     1
  1
±0.1
  7
SLDTEXTSTYLE0
 73
     1
 44
1.0
  0
ENDBLK
  5
193
330
191
100
AcDbEntity
  8
0
100
AcDbBlockEnd
  0
BLOCK
  5
19F
330
19E
100
AcDbEntity
  8
0
100
AcDbBlockBegin
  2
_D_2
 70
     0
 10
0.0
 20
0.0
 30
0.0
  3
_D_2
  1

  0
SOLID
  5
1A1
330
19E
100
AcDbEntity
  8
VERMASSUNG
100
AcDbTrace
 10
151.0524124429
 20
70.4592926312
 30
0.0
 11
154.0524124429
 21
70.0092926312
 31
0.0
 12
154.0524124429
 22
70.9092926312
 32
0.0
 13
154.0524124429
 23
70.9092926312
 33
0.0
  0
SOLID
  5
1A2
330
19E
100
AcDbEntity
  8
VERMASSUNG
100
AcDbTrace
 10
241.0524124429
 20
70.4592926312
 30
0.0
 11
238.0524124429
 21
70.9092926312
 31
0.0
 12
238.0524124429
 22
70.0092926312
 32
0.0
 13
238.0524124429
 23
70.0092926312
 33
0.0
  0
LINE
  5
1A3
330
19E
100
AcDbEntity
  8
VERMASSUNG
100
AcDbLine
 10
151.0524124429
 20
111.6559984846
 30
0.0
 11
151.0524124429
 21
69.4592926312
 31
0.0
  0
LINE
  5
1A4
330
19E
100
AcDbEntity
  8
VERMASSUNG
100
AcDbLine
 10
241.0524124429
 20
92.6493243228
 30
0.0
 11
241.0524124429
 21
69.4592926312
 31
0.0
  0
LINE
  5
1A5
330
19E
100
AcDbEntity
  8
VERMASSUNG
100
AcDbLine
 10
151.0524124429
 20
70.4592926312
 30
0.0
 11
241.0524124429
 21
70.4592926312
 31
0.0
  0
MTEXT
  5
1A6
330
19E
100
AcDbEntity
  8
VERMASSUNG
100
AcDbMText
 10
193.7524123919
 20
73.0374279943
 30
0.1
 40
2.0
 41
0.0
 71
     1
 72
     1
  1
90
  7
SLDTEXTSTYLE0
 73
     1
 44
1.0
  0
ENDBLK
  5
1A0
330
19E
100
AcDbEntity
  8
0
100
AcDbBlockEnd
  0
BLOCK
  5
1A9
330
1A8
100
AcDbEntity
  8
0
100
AcDbBlockBegin
  2
_D_3
 70
     0
 10
0.0
 20
0.0
 30
0.0
  3
_D_3
  1

  0
SOLID
  5
1AB
330
1A8
100
AcDbEntity
  8
VERMASSUNG
100
AcDbTrace
 10
251.6082112821
 20
92.6493243228
 30
0.0
 11
252.0582112821
 21
95.6493243228
 31
0.0
 12
251.1582112821
 22
95.6493243228
 32
0.0
 13
251.1582112821
 23
95.6493243228
 33
0.0
  0
SOLID
  5
1AC
330
1A8
100
AcDbEntity
  8
VERMASSUNG
100
AcDbTrace
 10
251.6082112821
 20
127.6493243228
 30
0.0
 11
251.1582112821
 21
124.6493243228
 31
0.0
 12
252.0582112821
 22
124.6493243228
 32
0.0
 13
252.0582112821
 23
124.6493243228
 33
0.0
  0
LINE
  5
1AD
330
1A8
100
AcDbEntity
  8
VERMASSUNG
100
AcDbLine
 10
241.0524124429
 20
92.6493243228
 30
0.0
 11
252.6082112821
 21
92.6493243228
 31
0.0
  0
LINE
  5
1AE
330
1A8
100
AcDbEntity
  8
VERMASSUNG
100
AcDbLine
 10
241.0524124429
 20
127.6493243228
 30
0.0
 11
252.6082112821
 21
127.6493243228
 31
0.0
  0
LINE
  5
1AF
330
1A8
100
AcDbEntity
  8
VERMASSUNG
100
AcDbLine
 10
251.6082112821
 20
92.6493243228
 30
0.0
 11
251.6082112821
 21
127.6493243228
 31
0.0
  0
MTEXT
  5
1B0
330
1A8
100
AcDbEntity
  8
VERMASSUNG
100
AcDbMText
 10
249.0300759189
 20
105.5993241358
 30
0.1
 40
2.0
 41
0.0
 71
     1
 72
     1
  1
35
  7
SLDTEXTSTYLE0
 11
6.123233995736766E-17
 21
1.0
 31
0.0
 73
     1
 44
1.0
  0
MTEXT
  5
1B1
330
1A8
100
AcDbEntity
  8
VERMASSUNG
100
AcDbMText
 10
249.0300759189
 20
111.3868242379
 30
0.1
 40
2.0
 41
0.0
 71
     1
 72
     1
  1

  7
SLDTEXTSTYLE0
 11
6.123233995736766E-17
 21
1.0
 31
0.0
 73
     1
 44
1.0
  0
MTEXT
  5
1B2
330
1A8
100
AcDbEntity
  8
VERMASSUNG
100
AcDbMText
 10
249.5246097817
 20
111.3993245277
 30
0.1
 40
1.5
 41
0.0
 71
     1
 72
     1
  1
±0.1
  7
SLDTEXTSTYLE0
 11
6.123233995736766E-17
 21
1.0
 31
0.0
 73
     1
 44
1.0
  0
ENDBLK
  5
1AA
330
1A8
100
AcDbEntity
  8
0
100
AcDbBlockEnd
  0
BLOCK
  5
1B5
330
1B4
100
AcDbEntity
  8
0
100
AcDbBlockBegin
  2
_D_4
 70
     0
 10
0.0
 20
0.0
 30
0.0
  3
_D_4
  1

  0
SOLID
  5
1B7
330
1B4
100
AcDbEntity
  8
VERMASSUNG
100
AcDbTrace
 10
141.0524124429
 20
152.6493243228
 30
0.0
 11
140.6024124429
 21
149.6493243228
 31
0.0
 12
141.5024124429
 22
149.6493243228
 32
0.0
 13
141.5024124429
 23
149.6493243228
 33
0.0
  0
SOLID
  5
1B8
330
1B4
100
AcDbEntity
  8
VERMASSUNG
100
AcDbTrace
 10
141.0524124429
 20
102.6493243228
 30
0.0
 11
141.5024124429
 21
105.6493243228
 31
0.0
 12
140.6024124429
 22
105.6493243228
 32
0.0
 13
140.6024124429
 23
105.6493243228
 33
0.0
  0
LINE
  5
1B9
330
1B4
100
AcDbEntity
  8
VERMASSUNG
100
AcDbLine
 10
181.3524124429
 20
152.6493243228
 30
0.0
 11
140.0524124429
 21
152.6493243228
 31
0.0
  0
LINE
  5
1BA
330
1B4
100
AcDbEntity
  8
VERMASSUNG
100
AcDbLine
 10
181.3524124429
 20
102.6493243228
 30
0.0
 11
140.0524124429
 21
102.6493243228
 31
0.0
  0
LINE
  5
1BB
330
1B4
100
AcDbEntity
  8
VERMASSUNG
100
AcDbLine
 10
141.0524124429
 20
152.6493243228
 30
0.0
 11
141.0524124429
 21
102.6493243228
 31
0.0
  0
MTEXT
  5
1BC
330
1B4
100
AcDbEntity
  8
VERMASSUNG
100
AcDbMText
 10
138.2742769538
 20
121.2443242136
 30
0.5525493305
 40
2.0
 41
0.0
 71
     1
 72
     1
  1
PSC
  7
SLDTEXTSTYLE0
 11
-7.044195017643634E-15
 21
1.0
 31
0.0
 73
     1
 44
1.0
  0
MTEXT
  5
1BD
330
1B4
100
AcDbEntity
  8
VERMASSUNG
100
AcDbMText
 10
138.4742769633
 20
125.8443243156
 30
0.5525493305
 40
2.0
 41
0.0
 71
     1
 72
     1
  1
%%c
  7
SLDTEXTSTYLE0
 11
-7.044195017643634E-15
 21
1.0
 31
0.0
 73
     1
 44
1.0
  0
MTEXT
  5
1BE
330
1B4
100
AcDbEntity
  8
VERMASSUNG
100
AcDbMText
 10
138.2742769538
 20
129.4543247956
 30
0.5525493305
 40
2.0
 41
0.0
 71
     1
 72
     1
  1
50
  7
SLDTEXTSTYLE0
 11
-7.044195017643634E-15
 21
1.0
 31
0.0
 73
     1
 44
1.0
  0
ENDBLK
  5
1B6
330
1B4
100
AcDbEntity
  8
0
100
AcDbBlockEnd
  0
BLOCK
  5
1E3
330
1E2
100
AcDbEntity
  8
0
100
AcDbBlockBegin
  2
_D_5
 70
     0
 10
0.0
 20
0.0
 30
0.0
  3
_D_5
  1

  0
SOLID
  5
1E5
330
1E2
100
AcDbEntity
  8
VERMASSUNG
100
AcDbTrace
 10
91.0651562995
 20
102.1678847543
 30
0.0
 11
92.8682785915
 21
99.7283663593
 31
0.0
 12
93.5046746946
 22
100.3647624623
 32
0.0
 13
93.5046746946
 23
100.3647624623
 33
0.0
  0
SOLID
  5
1E6
330
1E2
100
AcDbEntity
  8
VERMASSUNG
100
AcDbTrace
 10
45.1032155224
 20
148.1298255315
 30
0.0
 11
43.3000932303
 21
150.5693439266
 31
0.0
 12
42.6636971273
 22
149.9329478235
 32
0.0
 13
42.6636971273
 23
149.9329478235
 33
0.0
  0
LINE
  5
1E7
330
1E2
100
AcDbEntity
  8
VERMASSUNG
100
AcDbLine
 10
91.0651562995
 20
102.1678847543
 30
0.0
 11
90.3580495183
 21
101.4607779732
 31
0.0
  0
LINE
  5
1E8
330
1E2
100
AcDbEntity
  8
VERMASSUNG
100
AcDbLine
 10
45.1032155224
 20
148.1298255315
 30
0.0
 11
44.3961087412
 21
147.4227187503
 31
0.0
  0
LINE
  5
1E9
330
1E2
100
AcDbEntity
  8
VERMASSUNG
100
AcDbLine
 10
91.0651562995
 20
102.1678847543
 30
0.0
 11
95.3077969866
 21
97.9252440672
 31
0.0
  0
LINE
  5
1EA
330
1E2
100
AcDbEntity
  8
VERMASSUNG
100
AcDbLine
 10
91.0651562995
 20
102.1678847543
 30
0.0
 11
45.1032155224
 21
148.1298255315
 31
0.0
  0
LINE
  5
1EB
330
1E2
100
AcDbEntity
  8
VERMASSUNG
100
AcDbLine
 10
45.1032155224
 20
148.1298255315
 30
0.0
 11
33.4962531357
 21
159.7367879181
 31
0.0
  0
MTEXT
  5
1EC
330
1E2
100
AcDbEntity
  8
VERMASSUNG
100
AcDbMText
 10
35.3192702162
 20
161.5598049985
 30
0.1
 40
2.0
 41
0.0
 71
     1
 72
     1
  1
%%c
  7
SLDTEXTSTYLE0
 11
0.7071067811865469
 21
-0.7071067811865481
 31
0.0
 73
     1
 44
1.0
  0
MTEXT
  5
1ED
330
1E2
100
AcDbEntity
  8
VERMASSUNG
100
AcDbMText
 10
38.0133470693
 20
159.1485708712
 30
0.1
 40
2.0
 41
0.0
 71
     1
 72
     1
  1
65
  7
SLDTEXTSTYLE0
 11
0.7071067811865469
 21
-0.7071067811865481
 31
0.0
 73
     1
 44
1.0
  0
MTEXT
  5
1EE
330
1E2
100
AcDbEntity
  8
VERMASSUNG
100
AcDbMText
 10
42.1057279669
 20
155.0561899737
 30
0.1
 40
2.0
 41
0.0
 71
     1
 72
     1
  1
min.
  7
SLDTEXTSTYLE0
 11
0.7071067811865469
 21
-0.7071067811865481
 31
0.0
 73
     1
 44
1.0
  0
ENDBLK
  5
1E4
330
1E2
100
AcDbEntity
  8
0
100
AcDbBlockEnd
  0
BLOCK
  5
1F0
330
1EF
100
AcDbEntity
  8
0
100
AcDbBlockBegin
  2
SW_CENTERMARKSYMBOL_0
 70
     0
 10
0.0
 20
0.0
 30
0.0
  3
SW_CENTERMARKSYMBOL_0
  1

  0
LINE
  5
1F2
330
1EF
100
AcDbEntity
  8
VERMASSUNG
 62
     0
100
AcDbLine
 10
0.0
 20
0.0
 30
0.0
 11
0.0
 21
2.5
 31
0.0
  0
LINE
  5
1F3
330
1EF
100
AcDbEntity
  8
VERMASSUNG
 62
     0
100
AcDbLine
 10
0.0
 20
0.0
 30
0.0
 11
-2.5
 21
0.0
 31
0.0
  0
LINE
  5
1F4
330
1EF
100
AcDbEntity
  8
VERMASSUNG
 62
     0
100
AcDbLine
 10
0.0
 20
0.0
 30
0.0
 11
0.0
 21
-2.5
 31
0.0
  0
LINE
  5
1F5
330
1EF
100
AcDbEntity
  8
VERMASSUNG
 62
     0
100
AcDbLine
 10
0.0
 20
0.0
 30
0.0
 11
2.5
 21
0.0
 31
0.0
  0
LINE
  5
1F6
330
1EF
100
AcDbEntity
  8
VERMASSUNG
 62
     0
100
AcDbLine
 10
0.0
 20
5.0
 30
0.0
 11
0.0
 21
27.5
 31
0.0
  0
LINE
  5
1F7
330
1EF
100
AcDbEntity
  8
VERMASSUNG
 62
     0
100
AcDbLine
 10
-5.0
 20
0.0
 30
0.0
 11
-27.5
 21
0.0
 31
0.0
  0
LINE
  5
1F8
330
1EF
100
AcDbEntity
  8
VERMASSUNG
 62
     0
100
AcDbLine
 10
0.0
 20
-5.0
 30
0.0
 11
0.0
 21
-27.5
 31
0.0
  0
LINE
  5
1F9
330
1EF
100
AcDbEntity
  8
VERMASSUNG
 62
     0
100
AcDbLine
 10
5.0
 20
0.0
 30
0.0
 11
27.5
 21
0.0
 31
0.0
  0
ENDBLK
  5
1F1
330
1EF
100
AcDbEntity
  8
0
100
AcDbBlockEnd
  0
ENDSEC
  0
SECTION
  2
ENTITIES
  0
MTEXT
  5
49
330
1F
100
AcDbEntity
  8
KOPF_DÜNN
100
AcDbMText
 10
13.8892156294
 20
23.8442973028
 30
0.0
 40
3.0
 41
0.0
 71
     1
 72
     1
  1
PS5.KDB.LJA.060
  7
SLDTEXTSTYLE0
 73
     1
 44
1.0
  0
MTEXT
  5
4A
330
1F
100
AcDbEntity
  8
VERMASSUNG
100
AcDbMText
 10
13.9329988022
 20
28.8834360957
 30
0.0
 40
3.0
 41
0.0
 71
     1
 72
     1
  1
Klemmhalter links_Turning tool left 55°/93°
  7
SLDTEXTSTYLE0
 73
     1
 44
1.0
  0
MTEXT
  5
4B
330
1F
100
AcDbEntity
  8
VERMASSUNG
100
AcDbMText
 10
98.8601118557
 20
13.8365368179
 30
0.0
 40
2.0
 41
0.0
 71
     1
 72
     1
  1
Datum: 22.05.2012
  7
SLDTEXTSTYLE0
 73
     1
 44
1.0
  0
MTEXT
  5
4C
330
1F
100
AcDbEntity
  8
VERMASSUNG
100
AcDbMText
 10
13.933048693
 20
18.0482802738
 30
0.0
 40
2.0
 41
0.0
 71
     1
 72
     1
  1
PSC ø50 / DC..11 T3 ..
  7
SLDTEXTSTYLE0
 73
     1
 44
1.0
  0
MTEXT
  5
4D
330
1F
100
AcDbEntity
  8
VERMASSUNG
100
AcDbMText
 10
13.9808475933
 20
13.9090973692
 30
0.0
 40
2.0
 41
0.0
 71
     1
 72
     1
  1
Gewicht: 688g
  7
SLDTEXTSTYLE0
 73
     1
 44
1.0
  0
ARC
  5
4E
330
1F
100
AcDbEntity
  8
0
  6
Continuous
 62
     7
370
    15
100
AcDbCircle
 10
199.0524124429
 20
116.3208323945
 30
0.0
 40
2.500000000000014
100
AcDbArc
 50
286.9461325809
 51
336.2435108243
  0
ARC
  5
4F
330
1F
100
AcDbEntity
  8
0
  6
Continuous
 62
     7
370
    15
100
AcDbCircle
 10
199.0524124429
 20
116.3208323945
 30
0.0
 40
2.500000000000004
100
AcDbArc
 50
203.7564891757
 51
286.9461325809
  0
LINE
  5
50
330
1F
100
AcDbEntity
  8
0
  6
Continuous
 62
     7
370
    15
100
AcDbLine
 10
211.4228415094
 20
152.6493243228
 30
0.0
 11
181.3524124429
 21
152.6493243228
 31
0.0
  0
LINE
  5
51
330
1F
100
AcDbEntity
  8
0
  6
Continuous
 62
     7
370
    15
100
AcDbLine
 10
181.3524124429
 20
102.6493243228
 30
0.0
 11
212.0590497267
 21
102.6493243228
 31
0.0
  0
ARC
  5
52
330
1F
100
AcDbEntity
  8
0
  6
Continuous
 62
     7
370
    15
100
AcDbCircle
 10
181.3524124429
 20
102.9493243228
 30
0.0
 40
0.3000000000000114
100
AcDbArc
 50
180.0
 51
270.0
  0
ARC
  5
53
330
1F
100
AcDbEntity
  8
0
  6
Continuous
 62
     7
370
    15
100
AcDbCircle
 10
181.3524124429
 20
152.3493243228
 30
0.0
 40
0.3000000000000114
100
AcDbArc
 50
90.0
 51
180.0
  0
LWPOLYLINE
  5
54
330
1F
100
AcDbEntity
  8
0
  6
Continuous
 62
     7
370
    15
100
AcDbPolyline
 90
        3
 70
   128
 43
0.0
 10
180.8524124429
 20
109.8095040439
 10
180.9778673864
 20
109.741201929
 10
181.0524124429
 20
109.6884641709
  0
LWPOLYLINE
  5
55
330
1F
100
AcDbEntity
  8
0
  6
Continuous
 62
     7
370
    15
100
AcDbPolyline
 90
        3
 70
   128
 43
0.0
 10
181.0524124429
 20
145.6101844747
 10
180.9778673864
 20
145.5574467166
 10
180.8524124429
 20
145.4891446017
  0
ARC
  5
56
330
1F
100
AcDbEntity
  8
0
  6
Continuous
 62
     7
370
    15
100
AcDbCircle
 10
199.0667700343
 20
114.9837592767
 30
0.0
 40
3.046077840571787
100
AcDbArc
 50
188.2758578896
 51
347.5313362995
  0
LWPOLYLINE
  5
57
330
1F
100
AcDbEntity
  8
0
  6
Continuous
 62
     7
370
    15
100
AcDbPolyline
 90
       20
 70
   128
 43
0.0
 10
201.7404975923
 20
115.2881271085
 10
201.8848084331
 20
114.8015086828
 10
201.9053299779
 20
114.3003606401
 10
201.8011653365
 20
113.8065855549
 10
201.5768670037
 20
113.3417637676
 10
201.242237893
 20
112.9262102208
 10
200.8119029021
 20
112.5780865986
 10
200.3046697352
 20
112.3126075738
 10
199.7427069156
 20
112.1413758536
 10
199.1505749151
 20
112.0718750859
 10
198.5541527436
 20
112.1071427877
 10
197.9795069119
 20
112.2456375913
 10
197.4517522002
 20
112.481306609
 10
196.9939540219
 20
112.8038499741
 10
196.6261203543
 20
113.1991709938
 10
196.3643272935
 20
113.6499922423
 10
196.2200164527
 20
114.1366106681
 10
196.1994949079
 20
114.6377587107
 10
196.3036595493
 20
115.131533796
 10
196.3361978213
 20
115.2200226154
  0
LWPOLYLINE
  5
58
330
1F
100
AcDbEntity
  8
0
  6
Continuous
 62
     7
370
    15
100
AcDbPolyline
 90
       29
 70
   128
 43
0.0
 10
201.4021372238
 20
115.1850277114
 10
201.533189505
 20
114.7285671283
 10
201.5398452655
 20
114.259093758
 10
201.4217707577
 20
113.8001489555
 10
201.1848867304
 20
113.3747461296
 10
200.8410715378
 20
113.0042167544
 10
200.4075655095
 20
112.7071407199
 10
199.9061064478
 20
112.4984146589
 10
199.3618396039
 20
112.3885049678
 10
198.8020567902
 20
112.3829229773
 10
198.2548278542
 20
112.4819485919
 10
197.74759314
 20
112.6806162536
 10
197.305787514
 20
112.9689639364
 10
196.9515649553
 20
113.3325326834
 10
196.702687662
 20
113.7530916395
 10
196.5716353808
 20
114.2095522226
 10
196.5649796203
 20
114.6790255929
 10
196.6830541281
 20
115.1379703954
 10
196.9199381554
 20
115.5633732213
 10
197.2637533479
 20
115.9339025965
 10
197.6972593763
 20
116.230978631
 10
198.198718438
 20
116.439704692
 10
198.7429852819
 20
116.5496143831
 10
199.3027680956
 20
116.5551963735
 10
199.8499970316
 20
116.456170759
 10
200.3572317458
 20
116.2575030972
 10
200.7990373717
 20
115.9691554145
 10
201.1532599305
 20
115.6055866675
 10
201.4021372238
 20
115.1850277114
  0
SPLINE
  5
59
330
1F
100
AcDbEntity
  8
0
  6
Continuous
 62
     7
370
    15
100
AcDbSpline
210
0.0
220
0.0
230
1.0
 70
     8
 71
     3
 72
    70
 73
    66
 74
     0
 42
0.00000001
 43
0.00000001
 12
1.0
 22
0.0
 32
0.0
 13
1.0
 23
0.0
 33
0.0
 40
-0.0312499999999994
 40
-0.0312499999999994
 40
0.0
 40
0.0
 40
0.0312500000000001
 40
0.0312500000000001
 40
0.0625000000000002
 40
0.0625000000000002
 40
0.0937500000000004
 40
0.0937500000000004
 40
0.1250000000000005
 40
0.1250000000000005
 40
0.1562500000000006
 40
0.1562500000000006
 40
0.1875000000000007
 40
0.1875000000000007
 40
0.2187500000000009
 40
0.2187500000000009
 40
0.250000000000001
 40
0.250000000000001
 40
0.2812500000000011
 40
0.2812500000000011
 40
0.3125000000000012
 40
0.3125000000000012
 40
0.3437500000000014
 40
0.3437500000000014
 40
0.3750000000000015
 40
0.3750000000000015
 40
0.4062500000000016
 40
0.4062500000000016
 40
0.4375000000000016
 40
0.4375000000000016
 40
0.4687500000000017
 40
0.4687500000000017
 40
0.5000000000000017
 40
0.5000000000000017
 40
0.5312500000000017
 40
0.5312500000000017
 40
0.5625000000000017
 40
0.5625000000000017
 40
0.5937500000000017
 40
0.5937500000000017
 40
0.6250000000000017
 40
0.6250000000000017
 40
0.6562500000000018
 40
0.6562500000000018
 40
0.6875000000000018
 40
0.6875000000000018
 40
0.7187500000000018
 40
0.7187500000000018
 40
0.7500000000000018
 40
0.7500000000000018
 40
0.7812500000000018
 40
0.7812500000000018
 40
0.8125000000000018
 40
0.8125000000000018
 40
0.8437500000000018
 40
0.8437500000000018
 40
0.8750000000000018
 40
0.8750000000000018
 40
0.9062500000000014
 40
0.9062500000000014
 40
0.937500000000001
 40
0.937500000000001
 40
0.9687500000000006
 40
0.9687500000000006
 40
1.0
 40
1.0
 40
1.03125
 40
1.03125
 10
198.8540265289501
 20
116.6477506678286
 30
0.0
 10
199.2507983568292
 20
116.6477506678286
 30
0.0
 10
199.4458330459703
 20
116.6301150055688
 30
0.0
 10
199.8294852256557
 20
116.5611903885357
 30
0.0
 10
200.020104354527
 20
116.5090554785342
 30
0.0
 10
200.3833187161083
 20
116.3735674674329
 30
0.0
 10
200.5555583576194
 20
116.2908604469472
 30
0.0
 10
200.8815284190966
 20
116.0963933697023
 30
0.0
 10
201.035727640999
 20
115.9837100331421
 30
0.0
 10
201.3121808852413
 20
115.7389847872573
 30
0.0
 10
201.4362994398704
 20
115.6060477768871
 30
0.0
 10
201.6556168428757
 20
115.319137118666
 30
0.0
 10
201.7487060684571
 20
115.1674661526311
 30
0.0
 10
201.8983830157381
 20
114.8557426719031
 30
0.0
 10
201.9560701761874
 20
114.6933825497988
 30
0.0
 10
202.0332040671838
 20
114.3635991147113
 30
0.0
 10
202.0523036168731
 20
114.1989948351686
 30
0.0
 10
202.0525203503605
 20
113.8704865245117
 30
0.0
 10
202.0330075357348
 20
113.7049181145528
 30
0.0
 10
201.9564064926556
 20
113.3870345439946
 30
0.0
 10
201.8997313276426
 20
113.233724279973
 30
0.0
 10
201.7493821146982
 20
112.9380174470283
 30
0.0
 10
201.655526210657
 20
112.7963750150268
 30
0.0
 10
201.4384961433157
 20
112.535721580546
 30
0.0
 10
201.3144782963882
 20
112.4149671863923
 30
0.0
 10
201.034663074066
 20
112.1930922176086
 30
0.0
 10
200.8833347179084
 20
112.0954777170984
 30
0.0
 10
200.5586690481721
 20
111.9251052324833
 30
0.0
 10
200.3832474299056
 20
111.8517633263049
 30
0.0
 10
200.0200660422665
 20
111.7345937686518
 30
0.0
 10
199.8330783241875
 20
111.6905625884348
 30
0.0
 10
199.4483541224033
 20
111.6310016297094
 30
0.0
 10
199.2493982558846
 20
111.6157839991631
 30
0.0
 10
198.8576692063019
 20
111.6156708450422
 30
0.0
 10
198.6628805411281
 20
111.6302830995213
 30
0.0
 10
198.2755059634242
 20
111.6897138760097
 30
0.0
 10
198.0861822755818
 20
111.7342823235267
 30
0.0
 10
197.7250418765896
 20
111.8504998397561
 30
0.0
 10
197.5504549924647
 20
111.9230548720937
 30
0.0
 10
197.2225458132778
 20
112.0947214099619
 30
0.0
 10
197.0715341409566
 20
112.1923124715117
 30
0.0
 10
196.7947150763241
 20
112.4112011797583
 30
0.0
 10
196.6679685970838
 20
112.5339658759831
 30
0.0
 10
196.4500876469943
 20
112.7952160663687
 30
0.0
 10
196.3577896225399
 20
112.9341726437202
 30
0.0
 10
196.2068178021883
 20
113.2295826097317
 30
0.0
 10
196.1488985280939
 20
113.3857034628485
 30
0.0
 10
196.0722559535783
 20
113.7024444566359
 30
0.0
 10
196.0525953021273
 20
113.8646863403945
 30
0.0
 10
196.0522320978052
 20
114.1974041468818
 30
0.0
 10
196.0715403954223
 20
114.3622923198002
 30
0.0
 10
196.1475077364896
 20
114.6889974723986
 30
0.0
 10
196.205104130631
 20
114.8525706643848
 30
0.0
 10
196.3554201961428
 20
115.1663919620742
 30
0.0
 10
196.4474270982496
 20
115.3163112677772
 30
0.0
 10
196.6648577648755
 20
115.6017334833815
 30
0.0
 10
196.7913109897126
 20
115.7376431223708
 30
0.0
 10
197.0675679345237
 20
115.9825162143407
 30
0.0
 10
197.2183714968365
 20
116.0931129387927
 30
0.0
 10
197.5460785667802
 20
116.2892925027299
 30
0.0
 10
197.7203009492351
 20
116.3729516947036
 30
0.0
 10
198.0810677261589
 20
116.5078568640249
 30
0.0
 10
198.2700421041019
 20
116.5600393761087
 30
0.0
 10
198.657885726208
 20
116.6301123105317
 30
0.0
 10
198.8540265289501
 20
116.6477506678286
 30
0.0
 10
199.2507983568292
 20
116.6477506678286
 30
0.0
  0
SPLINE
  5
5A
330
1F
100
AcDbEntity
  8
0
  6
Continuous
 62
     7
370
    15
100
AcDbSpline
210
0.0
220
0.0
230
1.0
 70
     8
 71
     3
 72
    12
 73
     8
 74
     0
 42
0.00000001
 43
0.00000001
 12
1.0
 22
0.0
 32
0.0
 13
1.0
 23
0.0
 33
0.0
 40
0.0
 40
0.0
 40
0.0
 40
0.0
 40
0.5000000000000016
 40
0.5000000000000016
 40
0.7500000000000008
 40
0.7500000000000008
 40
1.0
 40
1.0
 40
1.0
 40
1.0
 10
211.4696639737469
 20
152.6466458087009
 30
0.0
 10
211.2232767209315
 20
152.6437331893331
 30
0.0
 10
211.012341843317
 20
152.6379588720986
 30
0.0
 10
210.7541520845844
 20
152.6210758631805
 30
0.0
 10
210.6781407739292
 20
152.6140513917105
 30
0.0
 10
210.550225297721
 20
152.5970426308139
 30
0.0
 10
210.497609484521
 20
152.5870204477528
 30
0.0
 10
210.4566159279593
 20
152.5752141333502
 30
0.0
  0
ELLIPSE
  5
5B
330
1F
100
AcDbEntity
  8
0
  6
Continuous
 62
     7
370
    15
100
AcDbEllipse
 10
210.9720276852
 20
127.6493243228
 30
0.0
 11
0.0
 21
25.00000000000001
 31
0.0
210
0.0
220
0.0
230
1.0
 40
0.2679491924
 41
0.0770178337218549
 42
3.064574819867939
  0
SPLINE
  5
5C
330
1F
100
AcDbEntity
  8
0
  6
Continuous
 62
     7
370
    15
100
AcDbSpline
210
0.0
220
0.0
230
1.0
 70
     8
 71
     3
 72
    18
 73
    14
 74
     0
 42
0.00000001
 43
0.00000001
 12
1.0
 22
0.0
 32
0.0
 13
1.0
 23
0.0
 33
0.0
 40
0.0
 40
0.0
 40
0.0
 40
0.0
 40
0.2500000000000013
 40
0.2500000000000013
 40
0.5000000000000026
 40
0.5000000000000026
 40
0.6250000000000032
 40
0.6250000000000032
 40
0.7500000000000038
 40
0.7500000000000038
 40
0.8750000000000019
 40
0.8750000000000019
 40
1.0
 40
1.0
 40
1.0
 40
1.0
 10
210.4566159279593
 20
102.7234345122497
 30
0.0
 10
210.5403662849064
 20
102.6993140619062
 30
0.0
 10
210.671278048432
 20
102.682710547206
 30
0.0
 10
211.0272554151163
 20
102.6600106976161
 30
0.0
 10
211.2448048602209
 20
102.6544166740717
 30
0.0
 10
211.625462213873
 20
102.6503056252741
 30
0.0
 10
211.7606287781799
 20
102.6496742117896
 30
0.0
 10
212.0406401450154
 20
102.6492040759329
 30
0.0
 10
212.1864054648813
 20
102.6493571491293
 30
0.0
 10
212.4896993607025
 20
102.6498926961263
 30
0.0
 10
212.6468453536695
 20
102.6502732032298
 30
0.0
 10
212.962828860542
 20
102.6508602301852
 30
0.0
 10
213.1228917526444
 20
102.6510699308459
 30
0.0
 10
213.2850854549107
 20
102.6511147912714
 30
0.0
  0
ELLIPSE
  5
5D
330
1F
100
AcDbEntity
  8
0
  6
Continuous
 62
     7
370
    15
100
AcDbEllipse
 10
229.0594908746
 20
127.6493243228
 30
0.0
 11
-17.78525842695174
 21
24.95772869071222
 31
0.0
210
0.0
220
0.0
230
1.0
 40
0.0817078932
 41
6.210386208188525
 42
6.225024683327681
  0
SPLINE
  5
5E
330
1F
100
AcDbEntity
  8
0
  6
Continuous
 62
     7
370
    15
100
AcDbSpline
210
0.0
220
0.0
230
1.0
 70
     8
 71
     3
 72
    12
 73
     8
 74
     0
 42
0.00000001
 43
0.00000001
 12
1.0
 22
0.0
 32
0.0
 13
1.0
 23
0.0
 33
0.0
 40
0.0
 40
0.0
 40
0.0
 40
0.0
 40
0.4999999999999996
 40
0.4999999999999996
 40
0.7499999999999998
 40
0.7499999999999998
 40
1.0
 40
1.0
 40
1.0
 40
1.0
 10
189.1471565545638
 20
103.9966828455683
 30
0.0
 10
189.1780082651281
 20
103.9573508052058
 30
0.0
 10
189.2199011285887
 20
103.9199390396775
 30
0.0
 10
189.3194220063819
 20
103.8702681150616
 30
0.0
 10
189.3590361711062
 20
103.8548790324538
 30
0.0
 10
189.4561392048857
 20
103.8310458167865
 30
0.0
 10
189.5166378775361
 20
103.8225932072977
 30
0.0
 10
189.580169256456
 20
103.8225932072977
 30
0.0
  0
LINE
  5
5F
330
1F
100
AcDbEntity
  8
0
  6
Continuous
 62
     7
370
    15
100
AcDbLine
 10
189.5801692565
 20
103.8225932073
 30
0.0
 11
192.5246556293
 21
103.8225932073
 31
0.0
  0
SPLINE
  5
60
330
1F
100
AcDbEntity
  8
0
  6
Continuous
 62
     7
370
    15
100
AcDbSpline
210
0.0
220
0.0
230
1.0
 70
     8
 71
     3
 72
    12
 73
     8
 74
     0
 42
0.00000001
 43
0.00000001
 12
1.0
 22
0.0
 32
0.0
 13
1.0
 23
0.0
 33
0.0
 40
0.0
 40
0.0
 40
0.0
 40
0.0
 40
0.2500000000000009
 40
0.2500000000000009
 40
0.5000000000000019
 40
0.5000000000000019
 40
1.0
 40
1.0
 40
1.0
 40
1.0
 10
192.5246556293232
 20
103.8225932072979
 30
0.0
 10
192.5882921835369
 20
103.8225932072979
 30
0.0
 10
192.6478723104031
 20
103.8308499782297
 30
0.0
 10
192.7465090517695
 20
103.8550520402375
 30
0.0
 10
192.7854676761498
 20
103.8702988592716
 30
0.0
 10
192.8848466156577
 20
103.9199037313318
 30
0.0
 10
192.9268045208231
 20
103.9573353794506
 30
0.0
 10
192.9576683312156
 20
103.9966828455682
 30
0.0
  0
ELLIPSE
  5
61
330
1F
100
AcDbEntity
  8
0
  6
Continuous
 62
     7
370
    15
100
AcDbEllipse
 10
179.9961547879
 20
127.6493243228
 30
0.0
 11
-11.7092723497272
 21
24.67718644093743
 31
0.0
210
0.0
220
0.0
230
1.0
 40
0.3419987131
 41
3.310521928178951
 42
4.221709151398941
  0
SPLINE
  5
62
330
1F
100
AcDbEntity
  8
0
  6
Continuous
 62
     7
370
    15
100
AcDbSpline
210
0.0
220
0.0
230
1.0
 70
     8
 71
     3
 72
    12
 73
     8
 74
     0
 42
0.00000001
 43
0.00000001
 12
1.0
 22
0.0
 32
0.0
 13
1.0
 23
0.0
 33
0.0
 40
0.0
 40
0.0
 40
0.0
 40
0.0
 40
0.5000000000000018
 40
0.5000000000000018
 40
0.7500000000000009
 40
0.7500000000000009
 40
1.0
 40
1.0
 40
1.0
 40
1.0
 10
192.9576683312154
 20
119.5528713247555
 30
0.0
 10
192.9268166206512
 20
119.6677743136924
 30
0.0
 10
192.8849237571906
 20
119.7799132097412
 30
0.0
 10
192.7854028793974
 20
119.9318554913421
 30
0.0
 10
192.7457887146731
 20
119.979520100867
 30
0.0
 10
192.6486856808936
 20
120.0538564314824
 30
0.0
 10
192.5881870082432
 20
120.0805143536195
 30
0.0
 10
192.5246556293233
 20
120.0805143536196
 30
0.0
  0
LINE
  5
63
330
1F
100
AcDbEntity
  8
0
  6
Continuous
 62
     7
370
    15
100
AcDbLine
 10
192.5246556293
 20
120.0805143536
 30
0.0
 11
189.5801692565
 21
120.0805143536
 31
0.0
  0
SPLINE
  5
64
330
1F
100
AcDbEntity
  8
0
  6
Continuous
 62
     7
370
    15
100
AcDbSpline
210
0.0
220
0.0
230
1.0
 70
     8
 71
     3
 72
    12
 73
     8
 74
     0
 42
0.00000001
 43
0.00000001
 12
1.0
 22
0.0
 32
0.0
 13
1.0
 23
0.0
 33
0.0
 40
0.0
 40
0.0
 40
0.0
 40
0.0
 40
0.2500000000000009
 40
0.2500000000000009
 40
0.5000000000000019
 40
0.5000000000000019
 40
1.0
 40
1.0
 40
1.0
 40
1.0
 10
189.5801692564561
 20
120.0805143536192
 30
0.0
 10
189.5165327022424
 20
120.0805143536192
 30
0.0
 10
189.4569525753762
 20
120.0544674505612
 30
0.0
 10
189.3583158340098
 20
119.9789802916613
 30
0.0
 10
189.3193572096295
 20
119.9317612531306
 30
0.0
 10
189.2199782701216
 20
119.780021602037
 30
0.0
 10
189.1780203649562
 20
119.6678193778529
 30
0.0
 10
189.1471565545637
 20
119.5528713247556
 30
0.0
  0
ELLIPSE
  5
65
330
1F
100
AcDbEntity
  8
0
  6
Continuous
 62
     7
370
    15
100
AcDbEllipse
 10
202.1086700979
 20
127.6493243228
 30
0.0
 11
11.70927234972708
 21
24.67718644093746
 31
0.0
210
0.0
220
0.0
230
1.0
 40
0.3419987131
 41
2.061476155780654
 42
2.972663379000673
  0
SPLINE
  5
66
330
1F
100
AcDbEntity
  8
0
  6
Continuous
 62
     7
370
    15
100
AcDbSpline
210
0.0
220
0.0
230
1.0
 70
     8
 71
     3
 72
    12
 73
     8
 74
     0
 42
0.00000001
 43
0.00000001
 12
1.0
 22
0.0
 32
0.0
 13
1.0
 23
0.0
 33
0.0
 40
0.0
 40
0.0
 40
0.0
 40
0.0
 40
0.4999999999999982
 40
0.4999999999999982
 40
0.7499999999999991
 40
0.7499999999999991
 40
1.0
 40
1.0
 40
1.0
 40
1.0
 10
189.1471565545638
 20
135.745777320844
 30
0.0
 10
189.1778559379312
 20
135.6314416537801
 30
0.0
 10
189.2192060060377
 20
135.5200883009388
 30
0.0
 10
189.3189619342571
 20
135.36735152869
 30
0.0
 10
189.3586588519898
 20
135.3194916428379
 30
0.0
 10
189.4559170036375
 20
135.2448885294884
 30
0.0
 10
189.5166931616282
 20
135.2181342919803
 30
0.0
 10
189.5801692564561
 20
135.2181342919803
 30
0.0
  0
LINE
  5
67
330
1F
100
AcDbEntity
  8
0
  6
Continuous
 62
     7
370
    15
100
AcDbLine
 10
189.5801692565
 20
135.218134292
 30
0.0
 11
192.5246556293
 21
135.218134292
 31
0.0
  0
SPLINE
  5
68
330
1F
100
AcDbEntity
  8
0
  6
Continuous
 62
     7
370
    15
100
AcDbSpline
210
0.0
220
0.0
230
1.0
 70
     8
 71
     3
 72
    12
 73
     8
 74
     0
 42
0.00000001
 43
0.00000001
 12
1.0
 22
0.0
 32
0.0
 13
1.0
 23
0.0
 33
0.0
 40
0.0
 40
0.0
 40
0.0
 40
0.0
 40
0.2499999999999982
 40
0.2499999999999982
 40
0.4999999999999963
 40
0.4999999999999963
 40
1.0
 40
1.0
 40
1.0
 40
1.0
 10
192.5246556293232
 20
135.2181342919803
 30
0.0
 10
192.5883208658537
 20
135.2181342919803
 30
0.0
 10
192.6479270980771
 20
135.24420644046
 30
0.0
 10
192.7465876230079
 20
135.3197451912812
 30
0.0
 10
192.7855546130232
 20
135.3669961283774
 30
0.0
 10
192.8849414449476
 20
135.5188199463438
 30
0.0
 10
192.9270176923711
 20
135.6316231961089
 30
0.0
 10
192.9576683312154
 20
135.745777320844
 30
0.0
  0
ELLIPSE
  5
69
330
1F
100
AcDbEntity
  8
0
  6
Continuous
 62
     7
370
    15
100
AcDbEllipse
 10
179.9961547879
 20
127.6493243228
 30
0.0
 11
11.70927234972708
 21
24.67718644093743
 31
0.0
210
0.0
220
0.0
230
1.0
 40
0.3419987131
 41
5.203068809370449
 42
6.114256032590494
  0
SPLINE
  5
6A
330
1F
100
AcDbEntity
  8
0
  6
Continuous
 62
     7
370
    15
100
AcDbSpline
210
0.0
220
0.0
230
1.0
 70
     8
 71
     3
 72
    12
 73
     8
 74
     0
 42
0.00000001
 43
0.00000001
 12
1.0
 22
0.0
 32
0.0
 13
1.0
 23
0.0
 33
0.0
 40
0.0
 40
0.0
 40
0.0
 40
0.0
 40
0.500000000000001
 40
0.500000000000001
 40
0.7500000000000004
 40
0.7500000000000004
 40
1.0
 40
1.0
 40
1.0
 40
1.0
 10
192.9576683312154
 20
151.3019658000315
 30
0.0
 10
192.9269689478481
 20
151.3411036424274
 30
0.0
 10
192.8856188797416
 20
151.3782634251529
 30
0.0
 10
192.7858629515221
 20
151.4281999307806
 30
0.0
 10
192.7461660337895
 20
151.4436528009244
 30
0.0
 10
192.6489078821418
 20
151.4675723445234
 30
0.0
 10
192.5881317241511
 20
151.4760554383018
 30
0.0
 10
192.5246556293232
 20
151.4760554383018
 30
0.0
  0
LINE
  5
6B
330
1F
100
AcDbEntity
  8
0
  6
Continuous
 62
     7
370
    15
100
AcDbLine
 10
192.5246556293
 20
151.4760554383
 30
0.0
 11
189.5801692565
 21
151.4760554383
 31
0.0
  0
SPLINE
  5
6C
330
1F
100
AcDbEntity
  8
0
  6
Continuous
 62
     7
370
    15
100
AcDbSpline
210
0.0
220
0.0
230
1.0
 70
     8
 71
     3
 72
    12
 73
     8
 74
     0
 42
0.00000001
 43
0.00000001
 12
1.0
 22
0.0
 32
0.0
 13
1.0
 23
0.0
 33
0.0
 40
0.0
 40
0.0
 40
0.0
 40
0.0
 40
0.2500000000000016
 40
0.2500000000000016
 40
0.5000000000000032
 40
0.5000000000000032
 40
1.0
 40
1.0
 40
1.0
 40
1.0
 10
189.5801692564561
 20
151.4760554383018
 30
0.0
 10
189.5165040199256
 20
151.4760554383018
 30
0.0
 10
189.4568977877022
 20
151.467790662636
 30
0.0
 10
189.3582372627714
 20
151.4435718810528
 30
0.0
 10
189.3192702727561
 20
151.4283145617437
 30
0.0
 10
189.2198834408317
 20
151.3786812074817
 30
0.0
 10
189.1778071934082
 20
151.3410414993076
 30
0.0
 10
189.1471565545638
 20
151.3019658000315
 30
0.0
  0
ELLIPSE
  5
6D
330
1F
100
AcDbEntity
  8
0
  6
Continuous
 62
     7
370
    15
100
AcDbEllipse
 10
202.1086700979
 20
127.6493243228
 30
0.0
 11
-11.70927234972695
 21
24.67718644093747
 31
0.0
210
0.0
220
0.0
230
1.0
 40
0.3419987131
 41
0.1689292745891349
 42
1.080116497809151
  0
LINE
  5
6E
330
1F
100
AcDbEntity
  8
0
  6
Continuous
 62
     7
370
    15
100
AcDbLine
 10
181.0524124429
 20
102.9493243228
 30
0.0
 11
181.0524124429
 21
152.3493243228
 31
0.0
  0
ELLIPSE
  5
6F
330
1F
100
AcDbEntity
  8
0
  6
Continuous
 62
     7
370
    15
100
AcDbEllipse
 10
208.5297747639
 20
113.6323318752
 30
0.0
 11
-0.2069876877089314
 21
3.097652266562733
 31
0.0
210
0.0
220
0.0
230
1.0
 40
0.2251679941
 41
0.0
 42
6.283185307179586
  0
SPLINE
  5
70
330
1F
100
AcDbEntity
  8
0
  6
Continuous
 62
     7
370
    15
100
AcDbSpline
210
0.0
220
0.0
230
1.0
 70
     8
 71
     3
 72
    16
 73
    12
 74
     0
 42
0.00000001
 43
0.00000001
 12
1.0
 22
0.0
 32
0.0
 13
1.0
 23
0.0
 33
0.0
 40
0.0
 40
0.0
 40
0.0
 40
0.0
 40
0.25
 40
0.25
 40
0.5
 40
0.5
 40
0.6250000000000001
 40
0.6250000000000001
 40
0.7500000000000002
 40
0.7500000000000002
 40
1.0
 40
1.0
 40
1.0
 40
1.0
 10
180.0115514147606
 20
110.3001670416074
 30
0.0
 10
180.0432793759533
 20
110.2993699247864
 30
0.0
 10
180.0779069663038
 20
110.2987788499312
 30
0.0
 10
180.1576007283674
 20
110.2977673244967
 30
0.0
 10
180.2026421883712
 20
110.2973672163218
 30
0.0
 10
180.2854949152216
 20
110.296409344418
 30
0.0
 10
180.3154093764214
 20
110.2960276631575
 30
0.0
 10
180.3813957069794
 20
110.294951449099
 30
0.0
 10
180.4181293324412
 20
110.2942338832049
 30
0.0
 10
180.5306260520109
 20
110.2914730055232
 30
0.0
 10
180.6009674001093
 20
110.2889859136516
 30
0.0
 10
180.6574355540144
 20
110.2868126352445
 30
0.0
  0
SPLINE
  5
71
330
1F
100
AcDbEntity
  8
0
  6
Continuous
 62
     7
370
    15
100
AcDbSpline
210
0.0
220
0.0
230
1.0
 70
     8
 71
     3
 72
    14
 73
    10
 74
     0
 42
0.00000001
 43
0.00000001
 12
1.0
 22
0.0
 32
0.0
 13
1.0
 23
0.0
 33
0.0
 40
0.0
 40
0.0
 40
0.0
 40
0.0
 40
0.1250000000000013
 40
0.1250000000000013
 40
0.2500000000000027
 40
0.2500000000000027
 40
0.499999999999998
 40
0.499999999999998
 40
1.0
 40
1.0
 40
1.0
 40
1.0
 10
180.6574355539828
 20
110.2868126352672
 30
0.0
 10
180.6700273479276
 20
110.2863280174449
 30
0.0
 10
180.6848984562216
 20
110.2846178395125
 30
0.0
 10
180.7170825476548
 20
110.2765022907617
 30
0.0
 10
180.7326866791306
 20
110.2702865025004
 30
0.0
 10
180.7685738188427
 20
110.2520673907988
 30
0.0
 10
180.7824258601114
 20
110.2403023624652
 30
0.0
 10
180.815915602044
 20
110.2085072260479
 30
0.0
 10
180.8265778626197
 20
110.1907137942047
 30
0.0
 10
180.8347158195147
 20
110.1742826633603
 30
0.0
  0
LINE
  5
72
330
1F
100
AcDbEntity
  8
0
  6
Continuous
 62
     7
370
    15
100
AcDbLine
 10
180.8524124429
 20
121.6648440902
 30
0.0
 11
180.8524124429
 21
109.8095040439
 31
0.0
  0
SPLINE
  5
73
330
1F
100
AcDbEntity
  8
0
  6
Continuous
 62
     7
370
    15
100
AcDbSpline
210
0.0
220
0.0
230
1.0
 70
     8
 71
     3
 72
    16
 73
    12
 74
     0
 42
0.00000001
 43
0.00000001
 12
1.0
 22
0.0
 32
0.0
 13
1.0
 23
0.0
 33
0.0
 40
0.0
 40
0.0
 40
0.0
 40
0.0
 40
0.499999999999998
 40
0.499999999999998
 40
0.7499999999999988
 40
0.7499999999999988
 40
0.8749999999999997
 40
0.8749999999999997
 40
0.9374999999999999
 40
0.9374999999999999
 40
1.0
 40
1.0
 40
1.0
 40
1.0
 10
180.8524124428896
 20
121.6648440902253
 30
0.0
 10
180.8524124428896
 20
121.7793738209243
 30
0.0
 10
180.8483551407746
 20
121.8946898961138
 30
0.0
 10
180.8226978979798
 20
122.0696129859413
 30
0.0
 10
180.8113824522377
 20
122.1294422889363
 30
0.0
 10
180.7773510849291
 20
122.2140334751845
 30
0.0
 10
180.7634721037252
 20
122.2427030613285
 30
0.0
 10
180.7275364219579
 20
122.2725108482748
 30
0.0
 10
180.7125861026951
 20
122.2788460016344
 30
0.0
 10
180.6826875899532
 20
122.2776205387642
 30
0.0
 10
180.669154729588
 20
122.2710219527293
 30
0.0
 10
180.6574355540139
 20
122.2623742646729
 30
0.0
  0
SPLINE
  5
74
330
1F
100
AcDbEntity
  8
0
  6
Continuous
 62
     7
370
    15
100
AcDbSpline
210
0.0
220
0.0
230
1.0
 70
     8
 71
     3
 72
    14
 73
    10
 74
     0
 42
0.00000001
 43
0.00000001
 12
1.0
 22
0.0
 32
0.0
 13
1.0
 23
0.0
 33
0.0
 40
0.0
 40
0.0
 40
0.0
 40
0.0
 40
0.25
 40
0.25
 40
0.5
 40
0.5
 40
0.75
 40
0.75
 40
1.0
 40
1.0
 40
1.0
 40
1.0
 10
180.6574355540208
 20
122.2623742646642
 30
0.0
 10
180.6009758881371
 20
122.2207121549655
 30
0.0
 10
180.5301034132749
 20
122.1898786743772
 30
0.0
 10
180.3816370553929
 20
122.1955931829904
 30
0.0
 10
180.3124418521851
 20
122.2311641104233
 30
0.0
 10
180.2027246661156
 20
122.3181080228972
 30
0.0
 10
180.1574787771836
 20
122.3705403362623
 30
0.0
 10
180.0778616462167
 20
122.4790934177808
 30
0.0
 10
180.0432590267598
 20
122.5360765040233
 30
0.0
 10
180.011551414761
 20
122.5946425866812
 30
0.0
  0
SPLINE
  5
75
330
1F
100
AcDbEntity
  8
0
  6
Continuous
 62
     7
370
    15
100
AcDbSpline
210
0.0
220
0.0
230
1.0
 70
     8
 71
     3
 72
    10
 73
     6
 74
     0
 42
0.00000001
 43
0.00000001
 12
1.0
 22
0.0
 32
0.0
 13
1.0
 23
0.0
 33
0.0
 40
0.0
 40
0.0
 40
0.0
 40
0.0
 40
0.5
 40
0.5
 40
1.0
 40
1.0
 40
1.0
 40
1.0
 10
179.73109209933
 20
123.4474611783276
 30
0.0
 10
179.761970682942
 20
123.2978326264679
 30
0.0
 10
179.7979633906653
 20
123.1513372089443
 30
0.0
 10
179.8873036421624
 20
122.8661455704035
 30
0.0
 10
179.939761945008
 20
122.7272425446875
 30
0.0
 10
180.0115514147611
 20
122.594642586681
 30
0.0
  0
SPLINE
  5
76
330
1F
100
AcDbEntity
  8
0
  6
Continuous
 62
     7
370
    15
100
AcDbSpline
210
0.0
220
0.0
230
1.0
 70
     8
 71
     3
 72
    10
 73
     6
 74
     0
 42
0.00000001
 43
0.00000001
 12
1.0
 22
0.0
 32
0.0
 13
1.0
 23
0.0
 33
0.0
 40
0.0
 40
0.0
 40
0.0
 40
0.0
 40
0.5
 40
0.5
 40
1.0
 40
1.0
 40
1.0
 40
1.0
 10
180.0115514147604
 20
132.7040060589175
 30
0.0
 10
179.9397619450075
 20
132.5714061009112
 30
0.0
 10
179.8873036421621
 20
132.4325030751954
 30
0.0
 10
179.7979633906652
 20
132.1473114366551
 30
0.0
 10
179.7619706829419
 20
132.0008160191317
 30
0.0
 10
179.73109209933
 20
131.8511874672723
 30
0.0
  0
SPLINE
  5
77
330
1F
100
AcDbEntity
  8
0
  6
Continuous
 62
     7
370
    15
100
AcDbSpline
210
0.0
220
0.0
230
1.0
 70
     8
 71
     3
 72
    14
 73
    10
 74
     0
 42
0.00000001
 43
0.00000001
 12
1.0
 22
0.0
 32
0.0
 13
1.0
 23
0.0
 33
0.0
 40
0.0
 40
0.0
 40
0.0
 40
0.0
 40
0.25
 40
0.25
 40
0.5
 40
0.5
 40
0.75
 40
0.75
 40
1.0
 40
1.0
 40
1.0
 40
1.0
 10
180.0115514147598
 20
132.7040060589163
 30
0.0
 10
180.0432601142451
 20
132.7625741502349
 30
0.0
 10
180.0778679328858
 20
132.8195684121749
 30
0.0
 10
180.1575263433751
 20
132.9281685469388
 30
0.0
 10
180.20258861327
 20
132.9804966823175
 30
0.0
 10
180.3131704588484
 20
133.0679976936797
 30
0.0
 10
180.3808145796636
 20
133.103043149934
 30
0.0
 10
180.5310628700607
 20
133.10878753869
 30
0.0
 10
180.6010152682911
 20
133.07790743164
 30
0.0
 10
180.6574355540146
 20
133.0362743809269
 30
0.0
  0
SPLINE
  5
78
330
1F
100
AcDbEntity
  8
0
  6
Continuous
 62
     7
370
    15
100
AcDbSpline
210
0.0
220
0.0
230
1.0
 70
     8
 71
     3
 72
    16
 73
    12
 74
     0
 42
0.00000001
 43
0.00000001
 12
1.0
 22
0.0
 32
0.0
 13
1.0
 23
0.0
 33
0.0
 40
0.0
 40
0.0
 40
0.0
 40
0.0
 40
0.0624999999999997
 40
0.0624999999999997
 40
0.1249999999999994
 40
0.1249999999999994
 40
0.2499999999999994
 40
0.2499999999999994
 40
0.4999999999999997
 40
0.4999999999999997
 40
1.0
 40
1.0
 40
1.0
 40
1.0
 10
180.6574355539828
 20
133.0362743808736
 30
0.0
 10
180.6691697884297
 20
133.0276155807293
 30
0.0
 10
180.6827015439086
 20
133.021011495494
 30
0.0
 10
180.7126890043385
 20
133.0198145283198
 30
0.0
 10
180.7276837107468
 20
133.0262362753858
 30
0.0
 10
180.7634241331415
 20
133.055953428795
 30
0.0
 10
180.7774374701427
 20
133.0847608261784
 30
0.0
 10
180.8115815589241
 20
133.1698405478043
 30
0.0
 10
180.8225534630424
 20
133.228215497074
 30
0.0
 10
180.8483990033087
 20
133.4039310218627
 30
0.0
 10
180.8524124428897
 20
133.5197260297271
 30
0.0
 10
180.8524124428897
 20
133.6338045553745
 30
0.0
  0
LINE
  5
79
330
1F
100
AcDbEntity
  8
0
  6
Continuous
 62
     7
370
    15
100
AcDbLine
 10
180.8524124429
 20
145.4891446017
 30
0.0
 11
180.8524124429
 21
133.6338045554
 31
0.0
  0
SPLINE
  5
7A
330
1F
100
AcDbEntity
  8
0
  6
Continuous
 62
     7
370
    15
100
AcDbSpline
210
0.0
220
0.0
230
1.0
 70
     8
 71
     3
 72
    16
 73
    12
 74
     0
 42
0.00000001
 43
0.00000001
 12
1.0
 22
0.0
 32
0.0
 13
1.0
 23
0.0
 33
0.0
 40
0.0
 40
0.0
 40
0.0
 40
0.0
 40
0.5000000000000057
 40
0.5000000000000057
 40
0.7500000000000058
 40
0.7500000000000058
 40
0.8750000000000059
 40
0.8750000000000059
 40
0.937500000000003
 40
0.937500000000003
 40
1.0
 40
1.0
 40
1.0
 40
1.0
 10
180.8524124428898
 20
145.1960787884675
 30
0.0
 10
180.8524124428895
 20
145.1740637738882
 30
0.0
 10
180.8482879000355
 20
145.1487101391844
 30
0.0
 10
180.8223714544024
 20
145.1015496369959
 30
0.0
 10
180.8110938733826
 20
145.0843506487671
 30
0.0
 10
180.7773584948413
 20
145.0543726831979
 30
0.0
 10
180.7629696795969
 20
145.043021274656
 30
0.0
 10
180.7277229901578
 20
145.0263334151786
 30
0.0
 10
180.7125175657009
 20
145.0207703882933
 30
0.0
 10
180.6828709865316
 20
145.0138008052582
 30
0.0
 10
180.6691656505341
 20
145.0122874642028
 30
0.0
 10
180.6574355540104
 20
145.0118360103529
 30
0.0
  0
SPLINE
  5
7B
330
1F
100
AcDbEntity
  8
0
  6
Continuous
 62
     7
370
    15
100
AcDbSpline
210
0.0
220
0.0
230
1.0
 70
     8
 71
     3
 72
    14
 73
    10
 74
     0
 42
0.00000001
 43
0.00000001
 12
1.0
 22
0.0
 32
0.0
 13
1.0
 23
0.0
 33
0.0
 40
0.0
 40
0.0
 40
0.0
 40
0.0
 40
0.25
 40
0.25
 40
0.5
 40
0.5
 40
0.75
 40
0.75
 40
1.0
 40
1.0
 40
1.0
 40
1.0
 10
180.6574355540208
 20
145.0118360103554
 30
0.0
 10
180.6009884719624
 20
145.0096635429362
 30
0.0
 10
180.5301380879191
 20
145.0071654450187
 30
0.0
 10
180.3817016531022
 20
145.0035189862305
 30
0.0
 10
180.3125124014152
 20
145.0025512393793
 30
0.0
 10
180.2028008531742
 20
145.0012836800165
 30
0.0
 10
180.1575592038318
 20
145.0008808390882
 30
0.0
 10
180.0779111856478
 20
144.9998698041606
 30
0.0
 10
180.0432842698818
 20
144.9992788437659
 30
0.0
 10
180.0115514147604
 20
144.9984816039925
 30
0.0
  0
SPLINE
  5
7C
330
1F
100
AcDbEntity
  8
0
  6
Continuous
 62
     7
370
    15
100
AcDbSpline
210
0.0
220
0.0
230
1.0
 70
     8
 71
     3
 72
    18
 73
    14
 74
     0
 42
0.00000001
 43
0.00000001
 12
1.0
 22
0.0
 32
0.0
 13
1.0
 23
0.0
 33
0.0
 40
0.0
 40
0.0
 40
0.0
 40
0.0
 40
0.2499999999999998
 40
0.2499999999999998
 40
0.3749999999999998
 40
0.3749999999999998
 40
0.4999999999999998
 40
0.4999999999999998
 40
0.6249999999999999
 40
0.6249999999999999
 40
0.75
 40
0.75
 40
1.0
 40
1.0
 40
1.0
 40
1.0
 10
179.73109209933
 20
131.8511874672723
 30
0.0
 10
179.5958064930277
 20
131.1956331318511
 30
0.0
 10
179.4946387467847
 20
130.5160120380535
 30
0.0
 10
179.3917774039158
 20
129.4606480315595
 30
0.0
 10
179.3656745583925
 20
129.1018339669748
 30
0.0
 10
179.3307845748477
 20
128.3757210228519
 30
0.0
 10
179.3221983165577
 20
128.0136313438358
 30
0.0
 10
179.322098606992
 20
127.2913216864174
 30
0.0
 10
179.3305869781406
 20
126.9311018843091
 30
0.0
 10
179.3647303576612
 20
126.2125358152151
 30
0.0
 10
179.390527339515
 20
125.8527700992997
 30
0.0
 10
179.4939284709029
 20
124.7861255123054
 30
0.0
 10
179.5957864630743
 20
124.103112573023
 30
0.0
 10
179.73109209933
 20
123.4474611783276
 30
0.0
  0
LINE
  5
7D
330
1F
100
AcDbEntity
  8
0
  6
Continuous
 62
     7
370
    15
100
AcDbLine
 10
178.8524124429
 20
132.7894768106
 30
0.0
 11
178.8524124429
 21
122.509171835
 31
0.0
  0
LINE
  5
7E
330
1F
100
AcDbEntity
  8
0
  6
Continuous
 62
     7
370
    15
100
AcDbLine
 10
152.5524124429
 20
132.4591030393
 30
0.0
 11
152.5524124429
 21
122.8395456063
 31
0.0
  0
LINE
  5
7F
330
1F
100
AcDbEntity
  8
0
  6
Continuous
 62
     7
370
    15
100
AcDbLine
 10
151.0524124429
 20
132.0260903374
 30
0.0
 11
151.0524124429
 21
123.2725583082
 31
0.0
  0
LINE
  5
80
330
1F
100
AcDbEntity
  8
0
  6
Continuous
 62
     7
370
    15
100
AcDbLine
 10
178.8524124429
 20
132.7894768106
 30
0.0
 11
178.8524124429
 21
145.1694231074
 31
0.0
  0
ARC
  5
81
330
1F
100
AcDbEntity
  8
0
  6
Continuous
 62
     7
370
    15
100
AcDbCircle
 10
179.0523493538
 20
145.1744462185
 30
0.0
 40
0.2000000000000059
100
AcDbArc
 50
181.4391666667
 51
271.4391666667
  0
LINE
  5
82
330
1F
100
AcDbEntity
  8
0
  6
Continuous
 62
     7
370
    15
100
AcDbLine
 10
152.5524124429
 20
132.4591030393
 30
0.0
 11
152.5524124429
 21
144.5086755647
 31
0.0
  0
LINE
  5
83
330
1F
100
AcDbEntity
  8
0
  6
Continuous
 62
     7
370
    15
100
AcDbLine
 10
152.5524124429
 20
144.5086755647
 30
0.0
 11
178.8524124429
 21
145.1694231074
 31
0.0
  0
LINE
  5
84
330
1F
100
AcDbEntity
  8
0
  6
Continuous
 62
     7
370
    15
100
AcDbLine
 10
178.8524124429
 20
110.1292255382
 30
0.0
 11
178.8524124429
 21
122.509171835
 31
0.0
  0
ARC
  5
85
330
1F
100
AcDbEntity
  8
0
  6
Continuous
 62
     7
370
    15
100
AcDbCircle
 10
179.0523493538
 20
110.1242024271
 30
0.0
 40
0.2000000000000066
100
AcDbArc
 50
88.5608333333
 51
178.5608333333
  0
LINE
  5
86
330
1F
100
AcDbEntity
  8
0
  6
Continuous
 62
     7
370
    15
100
AcDbLine
 10
152.5524124429
 20
110.7899730809
 30
0.0
 11
152.5524124429
 21
122.8395456063
 31
0.0
  0
LINE
  5
87
330
1F
100
AcDbEntity
  8
0
  6
Continuous
 62
     7
370
    15
100
AcDbLine
 10
152.5524124429
 20
110.7899730809
 30
0.0
 11
178.8524124429
 21
110.1292255382
 31
0.0
  0
LINE
  5
88
330
1F
100
AcDbEntity
  8
0
  6
Continuous
 62
     7
370
    15
100
AcDbLine
 10
179.057372465
 20
110.324139338
 30
0.0
 11
180.0115514148
 21
110.3001670416
 31
0.0
  0
LINE
  5
89
330
1F
100
AcDbEntity
  8
0
  6
Continuous
 62
     7
370
    15
100
AcDbLine
 10
179.057372465
 20
144.9745093076
 30
0.0
 11
180.0115514148
 21
144.998481604
 31
0.0
  0
LINE
  5
8A
330
1F
100
AcDbEntity
  8
0
  6
Continuous
 62
     7
370
    15
100
AcDbLine
 10
151.0524124429
 20
111.6559984846
 30
0.0
 11
152.5524124429
 21
110.7899730809
 31
0.0
  0
LINE
  5
8B
330
1F
100
AcDbEntity
  8
0
  6
Continuous
 62
     7
370
    15
100
AcDbLine
 10
151.0524124429
 20
111.6559984846
 30
0.0
 11
151.0524124429
 21
123.2725583082
 31
0.0
  0
LINE
  5
8C
330
1F
100
AcDbEntity
  8
0
  6
Continuous
 62
     7
370
    15
100
AcDbLine
 10
151.0524124429
 20
143.642650161
 30
0.0
 11
152.5524124429
 21
144.5086755647
 31
0.0
  0
LINE
  5
8D
330
1F
100
AcDbEntity
  8
0
  6
Continuous
 62
     7
370
    15
100
AcDbLine
 10
151.0524124429
 20
132.0260903374
 30
0.0
 11
151.0524124429
 21
143.642650161
 31
0.0
  0
SPLINE
  5
8E
330
1F
100
AcDbEntity
  8
0
  6
Continuous
 62
     7
370
    15
100
AcDbSpline
210
0.0
220
0.0
230
1.0
 70
     8
 71
     3
 72
     8
 73
     4
 74
     0
 42
0.00000001
 43
0.00000001
 12
1.0
 22
0.0
 32
0.0
 13
1.0
 23
0.0
 33
0.0
 40
0.0
 40
0.0
 40
0.0
 40
0.0
 40
1.0
 40
1.0
 40
1.0
 40
1.0
 10
213.2850854549107
 20
102.6511147912714
 30
0.0
 10
213.3081058768996
 20
102.6511211583862
 30
0.0
 10
213.3313430434687
 20
102.6503210667981
 30
0.0
 10
213.3543934068265
 20
102.648719527105
 30
0.0
  0
ELLIPSE
  5
8F
330
1F
100
AcDbEntity
  8
0
  6
Continuous
 62
     7
370
    15
100
AcDbEllipse
 10
213.3543934068
 20
150.3812722259
 30
0.0
 11
-2.989902051179399
 21
4.280999517015402
 31
0.0
210
0.0
220
0.0
230
1.0
 40
0.05744884
 41
0.9735748893577911
 42
1.652867916810299
  0
LINE
  5
90
330
1F
100
AcDbEntity
  8
0
  6
Continuous
 62
     7
370
    15
100
AcDbLine
 10
232.9554984709
 20
112.9018366978
 30
0.0
 11
232.9554984709
 21
122.0745083767
 31
0.0
  0
ELLIPSE
  5
91
330
1F
100
AcDbEntity
  8
0
  6
Continuous
 62
     7
370
    15
100
AcDbEllipse
 10
259.1507539329
 20
112.9018366978
 30
0.0
 11
26.19525546193017
 21
0.0
 31
1.894873147278986E-13
210
-7.233650193000881E-15
220
0.0
230
1.0
 40
0.9925461516
 41
3.141592653589793
 42
3.55582215809281
  0
LINE
  5
92
330
1F
100
AcDbEntity
  8
0
  6
Continuous
 62
     7
370
    15
100
AcDbLine
 10
226.1408265461
 20
104.8459197223
 30
0.0
 11
227.3673398497
 21
102.8830881323
 31
0.0
  0
ARC
  5
93
330
1F
100
AcDbEntity
  8
0
  6
Continuous
 62
     7
370
    15
100
AcDbCircle
 10
224.8548103735
 20
104.0423276299
 30
0.0
 40
1.516442497159284
100
AcDbArc
 50
32.0
 51
212.0
  0
LINE
  5
94
330
1F
100
AcDbEntity
  8
0
  6
Continuous
 62
     7
370
    15
100
AcDbLine
 10
223.9707214886
 20
102.5955174208
 30
0.0
 11
223.5687942008
 21
103.2387355376
 31
0.0
  0
LINE
  5
95
330
1F
100
AcDbEntity
  8
0
  6
Continuous
 62
     7
370
    15
100
AcDbLine
 10
229.5286720449
 20
93.6314259513
 30
0.0
 11
216.2831104407
 21
94.3255964203
 31
0.0
  0
LINE
  5
96
330
1F
100
AcDbEntity
  8
0
  6
Continuous
 62
     7
370
    15
100
AcDbLine
 10
214.2510112812
 20
101.9098915988
 30
0.0
 11
216.2831104407
 21
94.3255964203
 31
0.0
  0
SPLINE
  5
97
330
1F
100
AcDbEntity
  8
0
  6
Continuous
 62
     7
370
    15
100
AcDbSpline
210
0.0
220
0.0
230
1.0
 70
     8
 71
     3
 72
    12
 73
     8
 74
     0
 42
0.00000001
 43
0.00000001
 12
1.0
 22
0.0
 32
0.0
 13
1.0
 23
0.0
 33
0.0
 40
0.0
 40
0.0
 40
0.0
 40
0.0
 40
0.2500000000000019
 40
0.2500000000000019
 40
0.5000000000000038
 40
0.5000000000000038
 40
1.0
 40
1.0
 40
1.0
 40
1.0
 10
213.3543934068265
 20
102.648719527105
 30
0.0
 10
213.4574658448796
 20
102.6415580521104
 30
0.0
 10
213.5605644594862
 20
102.6179907258344
 30
0.0
 10
213.7528439382417
 20
102.5410186279256
 30
0.0
 10
213.8416040857813
 20
102.488427637376
 30
0.0
 10
214.0821181755918
 20
102.2898284982633
 30
0.0
 10
214.197424393703
 20
102.1098941688871
 30
0.0
 10
214.2510112811997
 20
101.9098915988105
 30
0.0
  0
LINE
  5
98
330
1F
100
AcDbEntity
  8
0
  6
Continuous
 62
     7
370
    15
100
AcDbLine
 10
232.9554984709
 20
122.0745083767
 30
0.0
 11
213.3543934068
 21
149.8591298463
 31
0.0
  0
LINE
  5
99
330
1F
100
AcDbEntity
  8
0
  6
Continuous
 62
     7
370
    15
100
AcDbLine
 10
225.9148704937
 20
104.7047267102
 30
0.0
 11
227.0425193859
 21
102.9001112514
 31
0.0
  0
ARC
  5
9A
330
1F
100
AcDbEntity
  8
0
  6
Continuous
 62
     7
370
    15
100
AcDbCircle
 10
224.8548103735
 20
104.0423276299
 30
0.0
 40
1.250000000000003
100
AcDbArc
 50
32.0
 51
212.0
  0
LINE
  5
9B
330
1F
100
AcDbEntity
  8
0
  6
Continuous
 62
     7
370
    15
100
AcDbLine
 10
223.7947502533
 20
103.3799285497
 30
0.0
 11
224.0798398122
 21
102.9236898846
 31
0.0
  0
LINE
  5
9C
330
1F
100
AcDbEntity
  8
0
  6
Continuous
 62
     7
370
    15
100
AcDbLine
 10
235.0081054883
 20
102.0821036347
 30
0.0
 11
235.3303637646
 21
102.283472955
 31
0.0
  0
LINE
  5
9D
330
1F
100
AcDbEntity
  8
0
  6
Continuous
 62
     7
370
    15
100
AcDbLine
 10
240.9746707194
 20
93.2506936432
 30
0.0
 11
235.3303637646
 21
102.283472955
 31
0.0
  0
LINE
  5
9E
330
1F
100
AcDbEntity
  8
0
  6
Continuous
 62
     7
370
    15
100
AcDbLine
 10
240.6524124429
 20
93.0493243228
 30
0.0
 11
240.9746707194
 21
93.2506936432
 31
0.0
  0
LINE
  5
9F
330
1F
100
AcDbEntity
  8
0
  6
Continuous
 62
     7
370
    15
100
AcDbLine
 10
238.9227281321
 20
94.068186246
 30
0.0
 11
240.6524124429
 21
93.0493243228
 31
0.0
  0
LINE
  5
A0
330
1F
100
AcDbEntity
  8
0
  6
Continuous
 62
     7
370
    15
100
AcDbLine
 10
234.8819502347
 20
101.8679345134
 30
0.0
 11
235.0081054883
 21
102.0821036347
 31
0.0
  0
SPLINE
  5
A1
330
1F
100
AcDbEntity
  8
0
  6
Continuous
 62
     7
370
    15
100
AcDbSpline
210
0.0
220
0.0
230
1.0
 70
    24
 71
     3
 72
    11
 73
     7
 74
     0
 42
0.00000001
 43
0.00000001
 12
1.0
 22
0.0
 32
0.0
 13
1.0
 23
0.0
 33
0.0
 40
0.0
 40
0.0
 40
0.0
 40
0.0
 40
0.3277695037501973
 40
0.6551509568909796
 40
0.9907861901609767
 40
1.0
 40
1.0
 40
1.0
 40
1.0
 10
234.8819502347132
 20
101.8679345133643
 30
0.0
 10
234.8442247982229
 20
101.8038894311744
 30
0.0
 10
234.7688185888809
 20
101.6758750906063
 30
0.0
 10
234.6444806920478
 20
101.464791228818
 30
0.0
 10
234.5660594541578
 20
101.3316583854805
 30
0.0
 10
234.5294553075003
 20
101.2695168756855
 30
0.0
 10
234.5284773037814
 20
101.2678565548413
 30
0.0
  0
LINE
  5
A2
330
1F
100
AcDbEntity
  8
0
  6
Continuous
 62
     7
370
    15
100
AcDbLine
 10
230.0157513352
 20
93.6067681104
 30
0.0
 11
229.6934930587
 21
93.40539879
 31
0.0
  0
LINE
  5
A3
330
1F
100
AcDbEntity
  8
0
  6
Continuous
 62
     7
370
    15
100
AcDbLine
 10
224.0491861041
 20
102.4381781019
 30
0.0
 11
229.6934930587
 21
93.40539879
 31
0.0
  0
LINE
  5
A4
330
1F
100
AcDbEntity
  8
0
  6
Continuous
 62
     7
370
    15
100
AcDbLine
 10
224.3714443807
 20
102.6395474224
 30
0.0
 11
224.0491861041
 21
102.4381781019
 31
0.0
  0
LINE
  5
A5
330
1F
100
AcDbEntity
  8
0
  6
Continuous
 62
     7
370
    15
100
AcDbLine
 10
226.1011286914
 20
101.6206854991
 30
0.0
 11
224.3714443807
 21
102.6395474224
 31
0.0
  0
LINE
  5
A6
330
1F
100
AcDbEntity
  8
0
  6
Continuous
 62
     7
370
    15
100
AcDbLine
 10
230.1419065888
 20
93.8209372318
 30
0.0
 11
230.0157513352
 21
93.6067681104
 31
0.0
  0
SPLINE
  5
A7
330
1F
100
AcDbEntity
  8
0
  6
Continuous
 62
     7
370
    15
100
AcDbSpline
210
0.0
220
0.0
230
1.0
 70
    24
 71
     3
 72
    11
 73
     7
 74
     0
 42
0.00000001
 43
0.00000001
 12
1.0
 22
0.0
 32
0.0
 13
1.0
 23
0.0
 33
0.0
 40
0.0
 40
0.0
 40
0.0
 40
0.0
 40
0.0092138098390511
 40
0.3448490431109502
 40
0.6722304962507101
 40
1.0
 40
1.0
 40
1.0
 40
1.0
 10
230.4953795197817
 20
94.42101519030933
 30
0.0
 10
230.4944015160628
 20
94.41935486946517
 30
0.0
 10
230.4577973694051
 20
94.35721335966934
 30
0.0
 10
230.3793761315145
 20
94.22408051633155
 30
0.0
 10
230.2550382346811
 20
94.01299665454255
 30
0.0
 10
230.1796320253392
 20
93.8849823139746
 30
0.0
 10
230.141906588849
 20
93.8209372317847
 30
0.0
  0
LINE
  5
A8
330
1F
100
AcDbEntity
  8
0
  6
Continuous
 62
     7
370
    15
100
AcDbLine
 10
240.9962373021
 20
93.2539214946
 30
0.0
 11
235.3464996228
 21
102.2953917828
 31
0.0
  0
LINE
  5
A9
330
1F
100
AcDbEntity
  8
0
  6
Continuous
 62
     7
370
    15
100
AcDbLine
 10
229.9932620495
 20
93.2073977856
 30
0.0
 11
240.6401573239
 21
92.649417648
 31
0.0
  0
LINE
  5
AA
330
1F
100
AcDbEntity
  8
0
  6
Continuous
 62
     7
370
    15
100
AcDbLine
 10
224.0276195214
 20
102.4349502506
 30
0.0
 11
229.6773572007
 21
93.3934799624
 31
0.0
  0
LINE
  5
AB
330
1F
100
AcDbEntity
  8
0
  6
Continuous
 62
     7
370
    15
100
AcDbLine
 10
235.0305947741
 20
102.4814739596
 30
0.0
 11
224.3836994997
 21
103.0394540972
 31
0.0
  0
ARC
  5
AC
330
1F
100
AcDbEntity
  8
0
  6
Continuous
 62
     7
370
    15
100
AcDbCircle
 10
240.6524124429
 20
93.0493243228
 30
0.0
 40
0.380000000000046
100
AcDbArc
 50
267.0
 51
32.0
  0
ARC
  5
AD
330
1F
100
AcDbEntity
  8
0
  6
Continuous
 62
     7
370
    15
100
AcDbCircle
 10
235.0081054883
 20
102.0821036347
 30
0.0
 40
0.3799999999999883
100
AcDbArc
 50
32.0
 51
87.0
  0
LINE
  5
AE
330
1F
100
AcDbEntity
  8
0
  6
Continuous
 62
     7
370
    15
100
AcDbLine
 10
235.0279931517
 20
102.4615828579
 30
0.0
 11
224.391332044
 21
103.0190266456
 31
0.0
  0
ARC
  5
AF
330
1F
100
AcDbEntity
  8
0
  6
Continuous
 62
     7
370
    15
100
AcDbCircle
 10
224.3714443807
 20
102.6395474224
 30
0.0
 40
0.3800000000000338
100
AcDbArc
 50
87.0
 51
212.0
  0
ARC
  5
B0
330
1F
100
AcDbEntity
  8
0
  6
Continuous
 62
     7
370
    15
100
AcDbCircle
 10
230.0157513352
 20
93.6067681104
 30
0.0
 40
0.3800000000000625
100
AcDbArc
 50
212.0
 51
267.0
  0
LINE
  5
B1
330
1F
100
AcDbEntity
  8
0
  6
Continuous
 62
     7
370
    15
100
AcDbLine
 10
229.9958636719
 20
93.2272888872
 30
0.0
 11
240.6325247795
 21
92.6698450996
 31
0.0
  0
SPLINE
  5
B2
330
1F
100
AcDbEntity
  8
0
  6
Continuous
 62
     7
370
    15
100
AcDbSpline
210
0.0
220
0.0
230
1.0
 70
     8
 71
     3
 72
    10
 73
     6
 74
     0
 42
0.00000001
 43
0.00000001
 12
1.0
 22
0.0
 32
0.0
 13
1.0
 23
0.0
 33
0.0
 40
0.0
 40
0.0
 40
0.0
 40
0.0
 40
0.3518022785811277
 40
0.7034245935031928
 40
1.0
 40
1.0
 40
1.0
 40
1.0
 10
229.6773572007461
 20
93.39347996238665
 30
0.0
 10
229.7047731802705
 20
93.3580415198941
 30
0.0
 10
229.7595911147368
 20
93.287182763364
 30
0.0
 10
229.8744291865014
 20
93.22385509482176
 30
0.0
 10
229.9559590149362
 20
93.21256392867016
 30
0.0
 10
229.9932620495052
 20
93.20739778556202
 30
0.0
  0
SPLINE
  5
B3
330
1F
100
AcDbEntity
  8
0
  6
Continuous
 62
     7
370
    15
100
AcDbSpline
210
0.0
220
0.0
230
1.0
 70
     8
 71
     3
 72
    10
 73
     6
 74
     0
 42
0.00000001
 43
0.00000001
 12
1.0
 22
0.0
 32
0.0
 13
1.0
 23
0.0
 33
0.0
 40
0.0
 40
0.0
 40
0.0
 40
0.0
 40
0.3518022785809331
 40
0.7034245935032376
 40
1.0
 40
1.0
 40
1.0
 40
1.0
 10
235.3464996228169
 20
102.295391782764
 30
0.0
 10
235.3190836432926
 20
102.3308302252565
 30
0.0
 10
235.2642657088262
 20
102.4016889817866
 30
0.0
 10
235.1494276370616
 20
102.4650166503288
 30
0.0
 10
235.0678978086268
 20
102.4763078164804
 30
0.0
 10
235.0305947740578
 20
102.4814739595886
 30
0.0
  0
SPLINE
  5
B4
330
1F
100
AcDbEntity
  8
0
  6
Continuous
 62
     7
370
    15
100
AcDbSpline
210
0.0
220
0.0
230
1.0
 70
     8
 71
     3
 72
    20
 73
    16
 74
     0
 42
0.00000001
 43
0.00000001
 12
1.0
 22
0.0
 32
0.0
 13
1.0
 23
0.0
 33
0.0
 40
0.0
 40
0.0
 40
0.0
 40
0.0
 40
0.0783075311860407
 40
0.1588910126856496
 40
0.2369785693217673
 40
0.3174398160757327
 40
0.3936615824744981
 40
0.4721830276909769
 40
0.5469240757152876
 40
0.6238523130449505
 40
0.6983189620749571
 40
0.7748908420225223
 40
0.8503894607879637
 40
0.9279814901989015
 40
1.0
 40
1.0
 40
1.0
 40
1.0
 10
224.3836994996809
 20
103.0394540971779
 30
0.0
 10
224.3610673023138
 20
103.0395573603707
 30
0.0
 10
224.3151451195494
 20
103.0397668880245
 30
0.0
 10
224.247789374102
 20
103.025521312023
 30
0.0
 10
224.1832087624126
 20
103.0006297180444
 30
0.0
 10
224.1249427384777
 20
102.9654068811984
 30
0.0
 10
224.0735421553068
 20
102.920683313143
 30
0.0
 10
224.0315945475597
 20
102.8690514922146
 30
0.0
 10
223.9989903175341
 20
102.8108842224285
 30
0.0
 10
223.9770476798448
 20
102.7491290951909
 30
0.0
 10
223.9656862181105
 20
102.6840896931114
 30
0.0
 10
223.965212673673
 20
102.6184331993006
 30
0.0
 10
223.9758718342574
 20
102.5528363348112
 30
0.0
 10
223.9961139556605
 20
102.490694538593
 30
0.0
 10
224.0173817664741
 20
102.4530643947906
 30
0.0
 10
224.027619521445
 20
102.4349502505964
 30
0.0
  0
SPLINE
  5
B5
330
1F
100
AcDbEntity
  8
0
  6
Continuous
 62
     7
370
    15
100
AcDbSpline
210
0.0
220
0.0
230
1.0
 70
     8
 71
     3
 72
    20
 73
    16
 74
     0
 42
0.00000001
 43
0.00000001
 12
1.0
 22
0.0
 32
0.0
 13
1.0
 23
0.0
 33
0.0
 40
0.0
 40
0.0
 40
0.0
 40
0.0
 40
0.0783075311860014
 40
0.1588910126856174
 40
0.236978569321745
 40
0.3174398160756747
 40
0.3936615824744341
 40
0.4721830276909125
 40
0.5469240757152269
 40
0.623852313044909
 40
0.6983189620749057
 40
0.7748908420224679
 40
0.8503894607879374
 40
0.927981490198937
 40
0.9999999999999999
 40
0.9999999999999999
 40
0.9999999999999999
 40
0.9999999999999999
 10
240.6401573238822
 20
92.64941764797277
 30
0.0
 10
240.6627895212493
 20
92.64931438477993
 30
0.0
 10
240.7087117040137
 20
92.6491048571261
 30
0.0
 10
240.776067449461
 20
92.66335043312768
 30
0.0
 10
240.8406480611504
 20
92.68824202710624
 30
0.0
 10
240.8989140850854
 20
92.72346486395216
 30
0.0
 10
240.9503146682562
 20
92.76818843200758
 30
0.0
 10
240.9922622760033
 20
92.81982025293597
 30
0.0
 10
241.0248665060289
 20
92.87798752272211
 30
0.0
 10
241.0468091437182
 20
92.93974264995964
 30
0.0
 10
241.0581706054525
 20
93.00478205203916
 30
0.0
 10
241.0586441498901
 20
93.07043854585001
 30
0.0
 10
241.0479849893056
 20
93.13603541033936
 30
0.0
 10
241.0277428679024
 20
93.19817720655762
 30
0.0
 10
241.0064750570889
 20
93.23580735036006
 30
0.0
 10
240.996237302118
 20
93.25392149455422
 30
0.0
  0
LINE
  5
B6
330
1F
100
AcDbEntity
  8
0
  6
Continuous
 62
     7
370
    15
100
AcDbLine
 10
240.6524124429
 20
93.0493243228
 30
0.0
 11
240.6325247795
 21
92.6698450996
 31
0.0
  0
LINE
  5
B7
330
1F
100
AcDbEntity
  8
0
  6
Continuous
 62
     7
370
    15
100
AcDbLine
 10
230.0157513352
 20
93.6067681104
 30
0.0
 11
229.9958636719
 21
93.2272888872
 31
0.0
  0
ARC
  5
B8
330
1F
100
AcDbEntity
  8
0
  6
Continuous
 62
     7
370
    15
100
AcDbCircle
 10
236.509862403
 20
95.4894727791
 30
0.0
 40
1.000000000295363
100
AcDbArc
 50
267.0
 51
32.0
  0
LINE
  5
B9
330
1F
100
AcDbEntity
  8
0
  6
Continuous
 62
     7
370
    15
100
AcDbLine
 10
237.3579104991
 20
96.0193920433
 30
0.0
 11
234.5858926997
 21
100.4555478429
 31
0.0
  0
LINE
  5
BA
330
1F
100
AcDbEntity
  8
0
  6
Continuous
 62
     7
370
    15
100
AcDbLine
 10
227.6659463244
 20
99.6694797018
 30
0.0
 11
230.4379641239
 21
95.2333239022
 31
0.0
  0
ARC
  5
BB
330
1F
100
AcDbEntity
  8
0
  6
Continuous
 62
     7
370
    15
100
AcDbCircle
 10
228.5139944206
 20
100.1993989661
 30
0.0
 40
1.000000000000015
100
AcDbArc
 50
87.0
 51
212.0
  0
LINE
  5
BC
330
1F
100
AcDbEntity
  8
0
  6
Continuous
 62
     7
370
    15
100
AcDbLine
 10
233.7901805598
 20
100.9242581134
 30
0.0
 11
228.5663303768
 21
101.1980285008
 31
0.0
  0
ARC
  5
BD
330
1F
100
AcDbEntity
  8
0
  6
Continuous
 62
     7
370
    15
100
AcDbCircle
 10
233.7378446035
 20
99.9256285787
 30
0.0
 40
0.9999999999999835
100
AcDbArc
 50
32.0
 51
87.0
  0
LINE
  5
BE
330
1F
100
AcDbEntity
  8
0
  6
Continuous
 62
     7
370
    15
100
AcDbLine
 10
231.2336762638
 20
94.7646136317
 30
0.0
 11
236.4575264467
 21
94.490843244
 31
0.0
  0
ARC
  5
BF
330
1F
100
AcDbEntity
  8
0
  6
Continuous
 62
     7
370
    15
100
AcDbCircle
 10
231.28601222
 20
95.7632431665
 30
0.0
 40
1.00000000000005
100
AcDbArc
 50
212.0
 51
267.0
  0
CIRCLE
  5
C0
330
1F
100
AcDbEntity
  8
0
  6
Continuous
 62
     7
370
    15
100
AcDbCircle
 10
232.5119284118
 20
97.8444358726
 30
0.0
 40
3.050000000000002
  0
LINE
  5
C1
330
1F
100
AcDbEntity
  8
0
  6
Continuous
 62
     7
370
    15
100
AcDbLine
 10
235.0081054883
 20
102.0821036347
 30
0.0
 11
235.0279931517
 21
102.4615828579
 31
0.0
  0
LINE
  5
C2
330
1F
100
AcDbEntity
  8
0
  6
Continuous
 62
     7
370
    15
100
AcDbLine
 10
224.3714443807
 20
102.6395474224
 30
0.0
 11
224.391332044
 21
103.0190266456
 31
0.0
  0
SPLINE
  5
C3
330
1F
100
AcDbEntity
  8
0
  6
Continuous
 62
     7
370
    15
100
AcDbSpline
210
0.0
220
0.0
230
1.0
 70
    24
 71
     3
 72
    11
 73
     7
 74
     0
 42
0.00000001
 43
0.00000001
 12
1.0
 22
0.0
 32
0.0
 13
1.0
 23
0.0
 33
0.0
 40
0.0
 40
0.0
 40
0.0
 40
0.0
 40
0.0072987238691611
 40
0.1268462096079324
 40
0.587429832838307
 40
1.0
 40
1.0
 40
1.0
 40
1.0
 10
238.330315744185
 20
94.41714381081856
 30
0.0
 10
238.3316081987438
 20
94.4163824969017
 30
0.0
 10
238.3540700653413
 20
94.40315144632285
 30
0.0
 10
238.4604511452452
 20
94.34048820136444
 30
0.0
 10
238.660037233632
 20
94.22292301065319
 30
0.0
 10
238.8384344334235
 20
94.11783902917189
 30
0.0
 10
238.9227281321384
 20
94.06818624602784
 30
0.0
  0
SPLINE
  5
C4
330
1F
100
AcDbEntity
  8
0
  6
Continuous
 62
     7
370
    15
100
AcDbSpline
210
0.0
220
0.0
230
1.0
 70
    24
 71
     3
 72
    11
 73
     7
 74
     0
 42
0.00000001
 43
0.00000001
 12
1.0
 22
0.0
 32
0.0
 13
1.0
 23
0.0
 33
0.0
 40
0.0
 40
0.0
 40
0.0
 40
0.0
 40
0.4125701671612397
 40
0.8731537903910362
 40
0.9927012761302326
 40
1.0
 40
1.0
 40
1.0
 40
1.0
 10
226.1011286914238
 20
101.6206854991223
 30
0.0
 10
226.1854223901391
 20
101.5710327159784
 30
0.0
 10
226.3638195899312
 20
101.4659487344975
 30
0.0
 10
226.5634056783161
 20
101.3483835437873
 30
0.0
 10
226.6697867582225
 20
101.2857202988273
 30
0.0
 10
226.6922486248193
 20
101.2724892482489
 30
0.0
 10
226.6935410793782
 20
101.271727934332
 30
0.0
  0
ARC
  5
C5
330
1F
100
AcDbEntity
  8
0
  6
Continuous
 62
     7
370
    15
100
AcDbCircle
 10
232.4014191073
 20
97.9095308276
 30
0.0
 40
1.67500000000003
100
AcDbArc
 50
149.07804828
 51
207.6779814073
  0
ARC
  5
C6
330
1F
100
AcDbEntity
  8
0
  6
Continuous
 62
     7
370
    15
100
AcDbCircle
 10
232.4014191073
 20
97.9095308276
 30
0.0
 40
1.674999999999993
100
AcDbArc
 50
207.6779814073
 51
267.784823142
  0
ARC
  5
C7
330
1F
100
AcDbEntity
  8
0
  6
Continuous
 62
     7
370
    15
100
AcDbCircle
 10
232.4014191073
 20
97.9095308276
 30
0.0
 40
1.674999999999981
100
AcDbArc
 50
267.784823142
 51
326.3847562692
  0
LINE
  5
C8
330
1F
100
AcDbEntity
  8
0
  6
Continuous
 62
     7
370
    15
100
AcDbLine
 10
233.8415430946
 20
97.0541549446
 30
0.0
 11
233.7963155231
 21
96.9822288331
 31
0.0
  0
ARC
  5
C9
330
1F
100
AcDbEntity
  8
0
  6
Continuous
 62
     7
370
    15
100
AcDbCircle
 10
232.4014191073
 20
97.9095308276
 30
0.0
 40
1.674999999999999
100
AcDbArc
 50
329.2913870411
 51
25.7351052074
  0
LINE
  5
CA
330
1F
100
AcDbEntity
  8
0
  6
Continuous
 62
     7
370
    15
100
AcDbLine
 10
233.8544291444
 20
98.7428295929
 30
0.0
 11
233.9102777813
 21
98.6368344107
 31
0.0
  0
ARC
  5
CB
330
1F
100
AcDbEntity
  8
0
  6
Continuous
 62
     7
370
    15
100
AcDbCircle
 10
232.4014191073
 20
97.9095308276
 30
0.0
 40
1.675000000000032
100
AcDbArc
 50
29.8341971076
 51
85.6286074416
  0
LINE
  5
CC
330
1F
100
AcDbEntity
  8
0
  6
Continuous
 62
     7
370
    15
100
AcDbLine
 10
232.4093795869
 20
99.5845119113
 30
0.0
 11
232.5290896107
 21
99.5796581409
 31
0.0
  0
ARC
  5
CD
330
1F
100
AcDbEntity
  8
0
  6
Continuous
 62
     7
370
    15
100
AcDbCircle
 10
232.4014191073
 20
97.9095308276
 30
0.0
 40
1.675000000000007
100
AcDbArc
 50
89.7276993419
 51
146.1714175082
  0
LINE
  5
CE
330
1F
100
AcDbEntity
  8
0
  6
Continuous
 62
     7
370
    15
100
AcDbLine
 10
230.9644900569
 20
98.7702630183
 30
0.0
 11
231.0099851285
 21
98.8420202284
 31
0.0
  0
CIRCLE
  5
CF
330
1F
100
AcDbEntity
  8
0
  6
Continuous
 62
     7
370
    15
100
AcDbCircle
 10
232.4014191073
 20
97.9095308276
 30
0.0
 40
1.8
  0
SPLINE
  5
D0
330
1F
100
AcDbEntity
  8
0
  6
Continuous
 62
     7
370
    15
100
AcDbSpline
210
0.0
220
0.0
230
1.0
 70
     8
 71
     3
 72
    15
 73
    11
 74
     0
 42
0.00000001
 43
0.00000001
 12
1.0
 22
0.0
 32
0.0
 13
1.0
 23
0.0
 33
0.0
 40
0.0
 40
0.0
 40
0.0
 40
0.0
 40
0.13181561521261
 40
0.2669210915201525
 40
0.4088166548304639
 40
0.5547855509361704
 40
0.6974754065689279
 40
0.844219676128708
 40
0.9218009552595449
 40
1.0
 40
1.0
 40
1.0
 40
1.0
 10
233.854429144401
 20
98.74282959286063
 30
0.0
 10
233.8432521403497
 20
98.75585402269613
 30
0.0
 10
233.820619175989
 20
98.78222794677569
 30
0.0
 10
233.7786163336427
 20
98.81518876505335
 30
0.0
 10
233.7307315373575
 20
98.84229272151113
 30
0.0
 10
233.6780413932164
 20
98.86122611604875
 30
0.0
 10
233.6224795712913
 20
98.87127933361566
 30
0.0
 10
233.5749770135005
 20
98.87171991652494
 30
0.0
 10
233.5362512640794
 20
98.86729918061799
 30
0.0
 10
233.5167402119685
 20
98.86279649680881
 30
0.0
 10
233.5069459992011
 20
98.86053622693713
 30
0.0
  0
SPLINE
  5
D1
330
1F
100
AcDbEntity
  8
0
  6
Continuous
 62
     7
370
    15
100
AcDbSpline
210
0.0
220
0.0
230
1.0
 70
     8
 71
     3
 72
    17
 73
    13
 74
     0
 42
0.00000001
 43
0.00000001
 12
1.0
 22
0.0
 32
0.0
 13
1.0
 23
0.0
 33
0.0
 40
0.0
 40
0.0
 40
0.0
 40
0.0
 40
0.1014854109282795
 40
0.2058503156554184
 40
0.3074575495325913
 40
0.4121271808788634
 40
0.5116993224727339
 40
0.6142486845228846
 40
0.7124357472861764
 40
0.8133857761904698
 40
0.905615574194258
 40
1.0
 40
1.0
 40
1.0
 40
1.0
 10
233.5069459992011
 20
98.86053622693713
 30
0.0
 10
233.4754266459865
 20
98.85397352148173
 30
0.0
 10
233.411493625968
 20
98.84066190380985
 30
0.0
 10
233.313096681472
 20
98.8412072501445
 30
0.0
 10
233.2150185927648
 20
98.8572502659871
 30
0.0
 10
233.1221123874291
 20
98.8894596012492
 30
0.0
 10
233.035530699666
 20
98.9368213532934
 30
0.0
 10
232.9596012539223
 20
98.9965809956416
 30
0.0
 10
232.8942852433128
 20
99.06809564241442
 30
0.0
 10
232.8436466173244
 20
99.14630725293
 30
0.0
 10
232.8055629204717
 20
99.22987997049083
 30
0.0
 10
232.7917438074627
 20
99.2874271462594
 30
0.0
 10
232.7847544739602
 20
99.31653295090162
 30
0.0
  0
SPLINE
  5
D2
330
1F
100
AcDbEntity
  8
0
  6
Continuous
 62
     7
370
    15
100
AcDbSpline
210
0.0
220
0.0
230
1.0
 70
     8
 71
     3
 72
    11
 73
     7
 74
     0
 42
0.00000001
 43
0.00000001
 12
1.0
 22
0.0
 32
0.0
 13
1.0
 23
0.0
 33
0.0
 40
0.0
 40
0.0
 40
0.0
 40
0.0
 40
0.2928993220620155
 40
0.5864344719079921
 40
0.8775178868033023
 40
1.0
 40
1.0
 40
1.0
 40
1.0
 10
232.7847544739602
 20
99.31653295090162
 30
0.0
 10
232.7739455857349
 20
99.35286606303978
 30
0.0
 10
232.7523043452781
 20
99.42561115947602
 30
0.0
 10
232.6759878608198
 20
99.5130910919034
 30
0.0
 10
232.5962412272031
 20
99.56155588808248
 30
0.0
 10
232.5444331572051
 20
99.57552193732356
 30
0.0
 10
232.5290896107464
 20
99.57965814091854
 30
0.0
  0
SPLINE
  5
D3
330
1F
100
AcDbEntity
  8
0
  6
Continuous
 62
     7
370
    15
100
AcDbSpline
210
0.0
220
0.0
230
1.0
 70
     8
 71
     3
 72
    17
 73
    13
 74
     0
 42
0.00000001
 43
0.00000001
 12
1.0
 22
0.0
 32
0.0
 13
1.0
 23
0.0
 33
0.0
 40
0.0
 40
0.0
 40
0.0
 40
0.0
 40
0.1014616601530993
 40
0.2058001529899626
 40
0.3074182589264893
 40
0.412099139299511
 40
0.5116804359412127
 40
0.6142399242992829
 40
0.7124241586648625
 40
0.8133717292758984
 40
0.9056081252644405
 40
0.9999999999999999
 40
0.9999999999999999
 40
0.9999999999999999
 40
0.9999999999999999
 10
232.1330845112141
 20
99.34234898927461
 30
0.0
 10
232.1230112425657
 20
99.31177876735003
 30
0.0
 10
232.1025790889245
 20
99.24977153881149
 30
0.0
 10
232.0529220766853
 20
99.16484017456148
 30
0.0
 10
231.9899982557789
 20
99.08792131407401
 30
0.0
 10
231.9156491853973
 20
99.02355619784925
 30
0.0
 10
231.8313364963616
 20
98.97224555441791
 30
0.0
 10
231.7416137439832
 20
98.93636273039866
 30
0.0
 10
231.647019337864
 20
98.9155512200146
 30
0.0
 10
231.5539641979358
 20
98.9107998269235
 30
0.0
 10
231.4625401063903
 20
98.91960325136517
 30
0.0
 10
231.4057878581337
 20
98.93641047431521
 30
0.0
 10
231.3770840015979
 20
98.94491114400044
 30
0.0
  0
SPLINE
  5
D4
330
1F
100
AcDbEntity
  8
0
  6
Continuous
 62
     7
370
    15
100
AcDbSpline
210
0.0
220
0.0
230
1.0
 70
     8
 71
     3
 72
    15
 73
    11
 74
     0
 42
0.00000001
 43
0.00000001
 12
1.0
 22
0.0
 32
0.0
 13
1.0
 23
0.0
 33
0.0
 40
0.0
 40
0.0
 40
0.0
 40
0.0
 40
0.1381849206143509
 40
0.2803243294015169
 40
0.4188661881044775
 40
0.5614905322154555
 40
0.6988712598135665
 40
0.8403118730471147
 40
0.9197724718891063
 40
1.0
 40
1.0
 40
1.0
 40
1.0
 10
231.3770840015979
 20
98.94491114400044
 30
0.0
 10
231.3592458334412
 20
98.95011725505329
 30
0.0
 10
231.3230590157765
 20
98.96067846233403
 30
0.0
 10
231.2664412607562
 20
98.9647074559115
 30
0.0
 10
231.2093892443742
 20
98.95973740410484
 30
0.0
 10
231.1544516795681
 20
98.94512318711665
 30
0.0
 10
231.1023278337105
 20
98.92131517799788
 30
0.0
 10
231.0620552531104
 20
98.89374459302694
 30
0.0
 10
231.0314874954958
 20
98.8665131301652
 30
0.0
 10
231.0171754960783
 20
98.85021062749799
 30
0.0
 10
231.0099851284693
 20
98.84202022839966
 30
0.0
  0
SPLINE
  5
D5
330
1F
100
AcDbEntity
  8
0
  6
Continuous
 62
     7
370
    15
100
AcDbSpline
210
0.0
220
0.0
230
1.0
 70
     8
 71
     3
 72
    11
 73
     7
 74
     0
 42
0.00000001
 43
0.00000001
 12
1.0
 22
0.0
 32
0.0
 13
1.0
 23
0.0
 33
0.0
 40
0.0
 40
0.0
 40
0.0
 40
0.0
 40
0.2657596322625322
 40
0.5530029385954325
 40
0.8418208483438258
 40
0.9999999999999999
 40
0.9999999999999999
 40
0.9999999999999999
 40
0.9999999999999999
 10
232.4093795869353
 20
99.58451191134532
 30
0.0
 10
232.3755129085085
 20
99.57660029364376
 30
0.0
 10
232.3050418120104
 20
99.5601374930267
 30
0.0
 10
232.2152075811946
 20
99.49389551458972
 30
0.0
 10
232.1579445004726
 20
99.41614924158442
 30
0.0
 10
232.1395823409804
 20
99.36163867887318
 30
0.0
 10
232.1330845112141
 20
99.34234898927461
 30
0.0
  0
SPLINE
  5
D6
330
1F
100
AcDbEntity
  8
0
  6
Continuous
 62
     7
370
    15
100
AcDbSpline
210
0.0
220
0.0
230
1.0
 70
     8
 71
     3
 72
    11
 73
     7
 74
     0
 42
0.00000001
 43
0.00000001
 12
1.0
 22
0.0
 32
0.0
 13
1.0
 23
0.0
 33
0.0
 40
0.0
 40
0.0
 40
0.0
 40
0.0
 40
0.2431090893442616
 40
0.5182793655622483
 40
0.7947794085752315
 40
1.0
 40
1.0
 40
1.0
 40
1.0
 10
233.8415430945628
 20
97.05415494456999
 30
0.0
 10
233.8528506665224
 20
97.08532562296263
 30
0.0
 10
233.8769570511791
 20
97.15177776370759
 30
0.0
 10
233.8717351021288
 20
97.26151732654682
 30
0.0
 10
233.8364575712202
 20
97.35939360257396
 30
0.0
 10
233.7944924534766
 20
97.40878807235835
 30
0.0
 10
233.7766146511428
 20
97.42983089589049
 30
0.0
  0
SPLINE
  5
D7
330
1F
100
AcDbEntity
  8
0
  6
Continuous
 62
     7
370
    15
100
AcDbSpline
210
0.0
220
0.0
230
1.0
 70
     8
 71
     3
 72
    12
 73
     8
 74
     0
 42
0.00000001
 43
0.00000001
 12
1.0
 22
0.0
 32
0.0
 13
1.0
 23
0.0
 33
0.0
 40
0.0
 40
0.0
 40
0.0
 40
0.0
 40
0.2058179564998779
 40
0.4120215045907069
 40
0.6140779969167622
 40
0.8132130006453873
 40
1.0
 40
1.0
 40
1.0
 40
1.0
 10
233.7766146511428
 20
97.42983089589049
 30
0.0
 10
233.7353954285929
 20
97.48081807778891
 30
0.0
 10
233.6528797609521
 20
97.58288796400235
 30
0.0
 10
233.6013428920361
 20
97.7775694902536
 30
0.0
 10
233.6133671700022
 20
97.9735020792851
 30
0.0
 10
233.6839576438593
 20
98.15226113459835
 30
0.0
 10
233.7691772032081
 20
98.24053886977597
 30
0.0
 10
233.8104236355181
 20
98.2832654651292
 30
0.0
  0
SPLINE
  5
D8
330
1F
100
AcDbEntity
  8
0
  6
Continuous
 62
     7
370
    15
100
AcDbSpline
210
0.0
220
0.0
230
1.0
 70
     8
 71
     3
 72
    11
 73
     7
 74
     0
 42
0.00000001
 43
0.00000001
 12
1.0
 22
0.0
 32
0.0
 13
1.0
 23
0.0
 33
0.0
 40
0.0
 40
0.0
 40
0.0
 40
0.0
 40
0.2908641666076447
 40
0.5839560789892739
 40
0.8745988053617556
 40
1.0
 40
1.0
 40
1.0
 40
1.0
 10
233.8104236355181
 20
98.28326546512925
 30
0.0
 10
233.8363563268329
 20
98.31062942688956
 30
0.0
 10
233.8884203294718
 20
98.3655669326041
 30
0.0
 10
233.9261523517823
 20
98.47513103467818
 30
0.0
 10
233.928443489707
 20
98.56884907654702
 30
0.0
 10
233.914485043444
 20
98.621088692658
 30
0.0
 10
233.9102777813058
 20
98.63683441068665
 30
0.0
  0
SPLINE
  5
D9
330
1F
100
AcDbEntity
  8
0
  6
Continuous
 62
     7
370
    15
100
AcDbSpline
210
0.0
220
0.0
230
1.0
 70
     8
 71
     3
 72
    12
 73
     8
 74
     0
 42
0.00000001
 43
0.00000001
 12
1.0
 22
0.0
 32
0.0
 13
1.0
 23
0.0
 33
0.0
 40
0.0
 40
0.0
 40
0.0
 40
0.0
 40
0.2058585741214007
 40
0.4121026961457174
 40
0.6141937841967459
 40
0.8133180967416146
 40
1.0
 40
1.0
 40
1.0
 40
1.0
 10
231.0288916751687
 20
98.39345642056549
 30
0.0
 10
231.0701164039997
 20
98.34246079168857
 30
0.0
 10
231.1526430705311
 20
98.24037402536598
 30
0.0
 10
231.2041730714742
 20
98.04566016323693
 30
0.0
 10
231.1921229829645
 20
97.84970478383498
 30
0.0
 10
231.1215095789856
 20
97.67097389583235
 30
0.0
 10
231.0363090696909
 20
97.58272383253812
 30
0.0
 10
230.9950826907935
 20
97.5400218513268
 30
0.0
  0
SPLINE
  5
DA
330
1F
100
AcDbEntity
  8
0
  6
Continuous
 62
     7
370
    15
100
AcDbSpline
210
0.0
220
0.0
230
1.0
 70
     8
 71
     3
 72
    11
 73
     7
 74
     0
 42
0.00000001
 43
0.00000001
 12
1.0
 22
0.0
 32
0.0
 13
1.0
 23
0.0
 33
0.0
 40
0.0
 40
0.0
 40
0.0
 40
0.0
 40
0.252478226533587
 40
0.506890241793352
 40
0.7591786113116833
 40
1.0
 40
1.0
 40
1.0
 40
1.0
 10
230.9950826907935
 20
97.5400218513268
 30
0.0
 10
230.9691396373604
 20
97.51265133254853
 30
0.0
 10
230.9170548266894
 20
97.45770065790224
 30
0.0
 10
230.8794952787301
 20
97.34826336566401
 30
0.0
 10
230.8760641091556
 20
97.2340103344853
 30
0.0
 10
230.9042973362039
 20
97.165129775094
 30
0.0
 10
230.9180856760852
 20
97.13149038408586
 30
0.0
  0
SPLINE
  5
DB
330
1F
100
AcDbEntity
  8
0
  6
Continuous
 62
     7
370
    15
100
AcDbSpline
210
0.0
220
0.0
230
1.0
 70
     8
 71
     3
 72
    11
 73
     7
 74
     0
 42
0.00000001
 43
0.00000001
 12
1.0
 22
0.0
 32
0.0
 13
1.0
 23
0.0
 33
0.0
 40
0.0
 40
0.0
 40
0.0
 40
0.0
 40
0.2423611237744861
 40
0.5166847928458908
 40
0.7923341374634293
 40
1.0
 40
1.0
 40
1.0
 40
1.0
 10
230.9644900568968
 20
98.77026301832414
 30
0.0
 10
230.9530663920987
 20
98.73913447271627
 30
0.0
 10
230.9287125114606
 20
98.6727721540056
 30
0.0
 10
230.9335277296071
 20
98.56301719851848
 30
0.0
 10
230.9685760581455
 20
98.46459882404204
 30
0.0
 10
231.0107645582578
 20
98.41483739499294
 30
0.0
 10
231.0288916751687
 20
98.39345642056554
 30
0.0
  0
SPLINE
  5
DC
330
1F
100
AcDbEntity
  8
0
  6
Continuous
 62
     7
370
    15
100
AcDbSpline
210
0.0
220
0.0
230
1.0
 70
     8
 71
     3
 72
    16
 73
    12
 74
     0
 42
0.00000001
 43
0.00000001
 12
1.0
 22
0.0
 32
0.0
 13
1.0
 23
0.0
 33
0.0
 40
0.0
 40
0.0
 40
0.0
 40
0.0
 40
0.0091421480600383
 40
0.1316341845766408
 40
0.2576794931139484
 40
0.3801887899892614
 40
0.5062151177446027
 40
0.629392450688562
 40
0.7560776951956184
 40
0.8764433632866229
 40
1.0
 40
1.0
 40
1.0
 40
1.0
 10
232.3366761720942
 20
96.2357825334413
 30
0.0
 10
232.3380470250756
 20
96.23573500428547
 30
0.0
 10
232.357785396538
 20
96.23505065071464
 30
0.0
 10
232.3965933009834
 20
96.23727669426385
 30
0.0
 10
232.4511040533958
 20
96.2496316578666
 30
0.0
 10
232.5032320417996
 20
96.27107339400253
 30
0.0
 10
232.5506392089652
 20
96.30060390835094
 30
0.0
 10
232.5929024875214
 20
96.33792361971794
 30
0.0
 10
232.6276064181236
 20
96.38105421129248
 30
0.0
 10
232.6553410574494
 20
96.42906624628897
 30
0.0
 10
232.6666787895005
 20
96.46349749144825
 30
0.0
 10
232.6724218150975
 20
96.48093832718135
 30
0.0
  0
SPLINE
  5
DD
330
1F
100
AcDbEntity
  8
0
  6
Continuous
 62
     7
370
    15
100
AcDbSpline
210
0.0
220
0.0
230
1.0
 70
     8
 71
     3
 72
    17
 73
    13
 74
     0
 42
0.00000001
 43
0.00000001
 12
1.0
 22
0.0
 32
0.0
 13
1.0
 23
0.0
 33
0.0
 40
0.0
 40
0.0
 40
0.0
 40
0.0
 40
0.1014434122013712
 40
0.2057629638229657
 40
0.3073628738759831
 40
0.4120251754303625
 40
0.5115867203615436
 40
0.6141249413479697
 40
0.7123061210869004
 40
0.8132494123149868
 40
0.9055452431268796
 40
0.9999999999999999
 40
0.9999999999999999
 40
0.9999999999999999
 40
0.9999999999999999
 10
232.6724218150975
 20
96.48093832718135
 30
0.0
 10
232.6824934065602
 20
96.5115041963126
 30
0.0
 10
232.7029221408154
 20
96.57350254285664
 30
0.0
 10
232.7525692864286
 20
96.65842425000592
 30
0.0
 10
232.8154803288719
 20
96.73533644864641
 30
0.0
 10
232.889813157596
 20
96.7996978883508
 30
0.0
 10
232.974105120959
 20
96.85100821676139
 30
0.0
 10
233.0638083423424
 20
96.88689779954699
 30
0.0
 10
233.1583869835549
 20
96.90772216202308
 30
0.0
 10
233.2514533042604
 20
96.91249068079883
 30
0.0
 10
233.3429123903789
 20
96.9036974266564
 30
0.0
 10
233.3997001819303
 20
96.88688139099266
 30
0.0
 10
233.4284223247137
 20
96.87837617245557
 30
0.0
  0
SPLINE
  5
DE
330
1F
100
AcDbEntity
  8
0
  6
Continuous
 62
     7
370
    15
100
AcDbSpline
210
0.0
220
0.0
230
1.0
 70
     8
 71
     3
 72
    21
 73
    17
 74
     0
 42
0.00000001
 43
0.00000001
 12
1.0
 22
0.0
 32
0.0
 13
1.0
 23
0.0
 33
0.0
 40
0.0
 40
0.0
 40
0.0
 40
0.0
 40
0.0686601191790205
 40
0.1377887642733369
 40
0.2084010930215946
 40
0.2795291512147833
 40
0.3483616272042438
 40
0.417677114847727
 40
0.488524504121339
 40
0.5599048990658602
 40
0.6281594168896323
 40
0.6968948505803871
 40
0.7671537912796925
 40
0.8379418745155798
 40
0.9185670368228558
 40
1.0
 40
1.0
 40
1.0
 40
1.0
 10
233.4284223247137
 20
96.87837617245557
 30
0.0
 10
233.4372366612685
 20
96.87557084377973
 30
0.0
 10
233.4549254820321
 20
96.86994104330387
 30
0.0
 10
233.4824917043363
 20
96.8642702116782
 30
0.0
 10
233.5107538975321
 20
96.86073753459762
 30
0.0
 10
233.5392194757348
 20
96.85968190034156
 30
0.0
 10
233.5675223763773
 20
96.86102042684392
 30
0.0
 10
233.5956085023786
 20
96.86472339881914
 30
0.0
 10
233.6236472789478
 20
96.87087863457725
 30
0.0
 10
233.6509419538307
 20
96.87939672186312
 30
0.0
 10
233.6771726478933
 20
96.8900983637206
 30
0.0
 10
233.7023045379769
 20
96.90289108517244
 30
0.0
 10
233.7265884822063
 20
96.91794879876181
 30
0.0
 10
233.7507615017302
 20
96.93604925550598
 30
0.0
 10
233.7744918739625
 20
96.9572034438225
 30
0.0
 10
233.7890168395109
 20
96.97385936208119
 30
0.0
 10
233.7963155231228
 20
96.9822288330607
 30
0.0
  0
SPLINE
  5
DF
330
1F
100
AcDbEntity
  8
0
  6
Continuous
 62
     7
370
    15
100
AcDbSpline
210
0.0
220
0.0
230
1.0
 70
     8
 71
     3
 72
    24
 73
    20
 74
     0
 42
0.00000001
 43
0.00000001
 12
1.0
 22
0.0
 32
0.0
 13
1.0
 23
0.0
 33
0.0
 40
0.0
 40
0.0
 40
0.0
 40
0.0
 40
0.0505845595363995
 40
0.1015097103491328
 40
0.1535185380749115
 40
0.2059068851276365
 40
0.256544887266631
 40
0.3075434233052414
 40
0.3596950329815742
 40
0.4122519419346899
 40
0.4618726924176433
 40
0.5628516596968902
 40
0.614335172560981
 40
0.6632688045712076
 40
0.7627573094326594
 40
0.8134171583401872
 40
0.8594093621472132
 40
0.9526610564266316
 40
1.0
 40
1.0
 40
1.0
 40
1.0
 10
231.2985603271104
 20
96.96275108951886
 30
0.0
 10
231.3141662805557
 20
96.96639175230037
 30
0.0
 10
231.3454832640081
 20
96.97369759083718
 30
0.0
 10
231.3938750425372
 20
96.97977797734525
 30
0.0
 10
231.4431998360392
 20
96.9821078899632
 30
0.0
 10
231.4925543704801
 20
96.9801678923796
 30
0.0
 10
231.5413278331181
 20
96.97414559898415
 30
0.0
 10
231.5894417389721
 20
96.96409482545747
 30
0.0
 10
231.6371979551716
 20
96.94983123329578
 30
0.0
 10
231.6832088754567
 20
96.93166529902744
 30
0.0
 10
231.7415824508544
 20
96.90276713413625
 30
0.0
 10
231.7959461526799
 20
96.86688862637371
 30
0.0
 10
231.8449645130339
 20
96.82487681098344
 30
0.0
 10
231.8899901295792
 20
96.77937696333353
 30
0.0
 10
231.9290850492934
 20
96.72882944119549
 30
0.0
 10
231.9610278503557
 20
96.67506656440328
 30
0.0
 10
231.9876501928926
 20
96.62083017131962
 30
0.0
 10
232.0080741654778
 20
96.56490993104929
 30
0.0
 10
232.0175583779713
 20
96.52140359220913
 30
0.0
 10
232.0207518523513
 20
96.50675436555439
 30
0.0
  0
SPLINE
  5
E0
330
1F
100
AcDbEntity
  8
0
  6
Continuous
 62
     7
370
    15
100
AcDbSpline
210
0.0
220
0.0
230
1.0
 70
     8
 71
     3
 72
    11
 73
     7
 74
     0
 42
0.00000001
 43
0.00000001
 12
1.0
 22
0.0
 32
0.0
 13
1.0
 23
0.0
 33
0.0
 40
0.0
 40
0.0
 40
0.0
 40
0.0
 40
0.2535086227484566
 40
0.5075674742604801
 40
0.759505625192377
 40
1.0
 40
1.0
 40
1.0
 40
1.0
 10
232.0207518523513
 20
96.50675436555439
 30
0.0
 10
232.0315623870944
 20
96.47040571675187
 30
0.0
 10
232.0532069203471
 20
96.3976295260825
 30
0.0
 10
232.1295093226909
 20
96.31036454494657
 30
0.0
 10
232.2268504171838
 20
96.25044667168551
 30
0.0
 10
232.3006391863522
 20
96.24059425853488
 30
0.0
 10
232.3366761720942
 20
96.23578253344131
 30
0.0
  0
SPLINE
  5
E1
330
1F
100
AcDbEntity
  8
0
  6
Continuous
 62
     7
370
    15
100
AcDbSpline
210
0.0
220
0.0
230
1.0
 70
     8
 71
     3
 72
    16
 73
    12
 74
     0
 42
0.00000001
 43
0.00000001
 12
1.0
 22
0.0
 32
0.0
 13
1.0
 23
0.0
 33
0.0
 40
0.0
 40
0.0
 40
0.0
 40
0.0
 40
0.0091367421524659
 40
0.131457458934716
 40
0.2573264769229269
 40
0.3796644500651866
 40
0.5055145346815214
 40
0.6285196273510284
 40
0.7550277257919739
 40
0.8758931221066051
 40
1.0
 40
1.0
 40
1.0
 40
1.0
 10
230.9180856760852
 20
97.13149038408586
 30
0.0
 10
230.9187282046949
 20
97.13027724892086
 30
0.0
 10
230.9279727665869
 20
97.11282292401222
 30
0.0
 10
230.949244861613
 20
97.08028689352335
 30
0.0
 10
230.9871237611032
 20
97.03918634630466
 30
0.0
 10
231.0316929293406
 20
97.00468032194028
 30
0.0
 10
231.0809217961054
 20
96.97829843149512
 30
0.0
 10
231.1343400464611
 20
96.96025801784985
 30
0.0
 10
231.18912658221
 20
96.9516521625921
 30
0.0
 10
231.2447859225402
 20
96.95155793457697
 30
0.0
 10
231.2804780988843
 20
96.95898726946643
 30
0.0
 10
231.2985603271104
 20
96.96275108951886
 30
0.0
  0
CIRCLE
  5
E2
330
1F
100
AcDbEntity
  8
0
  6
Continuous
 62
     7
370
    15
100
AcDbCircle
 10
232.4014191073
 20
97.9095308276
 30
0.0
 40
2.624999999999981
  0
ELLIPSE
  5
E3
330
1F
100
AcDbEntity
  8
0
  6
HIDDEN
 62
     7
370
     0
100
AcDbEllipse
 10
229.0594908746
 20
127.6493243228
 30
0.0
 11
-17.78525842695174
 21
24.95772869071222
 31
0.0
210
0.0
220
0.0
230
1.0
 40
0.0817078932
 41
6.225024683327681
 42
6.889824271624073
  0
SPLINE
  5
E4
330
1F
100
AcDbEntity
  8
0
  6
HIDDEN
 62
     7
370
     0
100
AcDbSpline
210
0.0
220
0.0
230
1.0
 70
     8
 71
     3
 72
    12
 73
     8
 74
     0
 42
0.00000001
 43
0.00000001
 12
1.0
 22
0.0
 32
0.0
 13
1.0
 23
0.0
 33
0.0
 40
0.0
 40
0.0
 40
0.0
 40
0.0
 40
0.4999999999999987
 40
0.4999999999999987
 40
0.7499999999999993
 40
0.7499999999999993
 40
1.0
 40
1.0
 40
1.0
 40
1.0
 10
189.1471565545638
 20
151.3019658000316
 30
0.0
 10
189.1778559379312
 20
151.3411036424275
 30
0.0
 10
189.2192060060376
 20
151.378263425153
 30
0.0
 10
189.3189619342571
 20
151.4281999307808
 30
0.0
 10
189.3586588519898
 20
151.4436528009245
 30
0.0
 10
189.4559170036375
 20
151.4675723445236
 30
0.0
 10
189.5166931616282
 20
151.476055438302
 30
0.0
 10
189.5801692564561
 20
151.476055438302
 30
0.0
  0
LINE
  5
E5
330
1F
100
AcDbEntity
  8
0
  6
HIDDEN
 62
     7
370
     0
100
AcDbLine
 10
189.5801692565
 20
151.4760554383
 30
0.0
 11
192.5246556293
 21
151.4760554383
 31
0.0
  0
SPLINE
  5
E6
330
1F
100
AcDbEntity
  8
0
  6
HIDDEN
 62
     7
370
     0
100
AcDbSpline
210
0.0
220
0.0
230
1.0
 70
     8
 71
     3
 72
    12
 73
     8
 74
     0
 42
0.00000001
 43
0.00000001
 12
1.0
 22
0.0
 32
0.0
 13
1.0
 23
0.0
 33
0.0
 40
0.0
 40
0.0
 40
0.0
 40
0.0
 40
0.25
 40
0.25
 40
0.5
 40
0.5
 40
1.0
 40
1.0
 40
1.0
 40
1.0
 10
192.5246556293232
 20
151.476055438302
 30
0.0
 10
192.5883208658537
 20
151.476055438302
 30
0.0
 10
192.6479270980771
 20
151.4677906626361
 30
0.0
 10
192.7465876230079
 20
151.4435718810529
 30
0.0
 10
192.7855546130232
 20
151.4283145617438
 30
0.0
 10
192.8849414449476
 20
151.3786812074819
 30
0.0
 10
192.9270176923711
 20
151.3410414993078
 30
0.0
 10
192.9576683312154
 20
151.3019658000316
 30
0.0
  0
ELLIPSE
  5
E7
330
1F
100
AcDbEntity
  8
0
  6
HIDDEN
 62
     7
370
     0
100
AcDbEllipse
 10
179.9961547879
 20
127.6493243228
 30
0.0
 11
11.70927234972726
 21
24.67718644093744
 31
0.0
210
0.0
220
0.0
230
1.0
 40
0.3419987131
 41
5.203068809370469
 42
6.114256032590515
  0
SPLINE
  5
E8
330
1F
100
AcDbEntity
  8
0
  6
HIDDEN
 62
     7
370
     0
100
AcDbSpline
210
0.0
220
0.0
230
1.0
 70
     8
 71
     3
 72
    12
 73
     8
 74
     0
 42
0.00000001
 43
0.00000001
 12
1.0
 22
0.0
 32
0.0
 13
1.0
 23
0.0
 33
0.0
 40
0.0
 40
0.0
 40
0.0
 40
0.0
 40
0.4999999999999969
 40
0.4999999999999969
 40
0.7499999999999984
 40
0.7499999999999984
 40
1.0
 40
1.0
 40
1.0
 40
1.0
 10
192.9576683312154
 20
135.7457773208445
 30
0.0
 10
192.9269689478481
 20
135.6314416537806
 30
0.0
 10
192.8856188797416
 20
135.5200883009392
 30
0.0
 10
192.7858629515221
 20
135.3673515286905
 30
0.0
 10
192.7461660337895
 20
135.3194916428384
 30
0.0
 10
192.6489078821418
 20
135.2448885294889
 30
0.0
 10
192.5881317241511
 20
135.2181342919809
 30
0.0
 10
192.5246556293232
 20
135.2181342919809
 30
0.0
  0
LINE
  5
E9
330
1F
100
AcDbEntity
  8
0
  6
HIDDEN
 62
     7
370
     0
100
AcDbLine
 10
192.5246556293
 20
135.218134292
 30
0.0
 11
189.5801692565
 21
135.218134292
 31
0.0
  0
SPLINE
  5
EA
330
1F
100
AcDbEntity
  8
0
  6
HIDDEN
 62
     7
370
     0
100
AcDbSpline
210
0.0
220
0.0
230
1.0
 70
     8
 71
     3
 72
    12
 73
     8
 74
     0
 42
0.00000001
 43
0.00000001
 12
1.0
 22
0.0
 32
0.0
 13
1.0
 23
0.0
 33
0.0
 40
0.0
 40
0.0
 40
0.0
 40
0.0
 40
0.2500000000000007
 40
0.2500000000000007
 40
0.5000000000000014
 40
0.5000000000000014
 40
1.0
 40
1.0
 40
1.0
 40
1.0
 10
189.5801692564561
 20
135.2181342919808
 30
0.0
 10
189.5165040199256
 20
135.2181342919808
 30
0.0
 10
189.4568977877022
 20
135.2442064404605
 30
0.0
 10
189.3582372627714
 20
135.3197451912816
 30
0.0
 10
189.3192702727561
 20
135.3669961283778
 30
0.0
 10
189.2198834408317
 20
135.5188199463443
 30
0.0
 10
189.1778071934082
 20
135.6316231961094
 30
0.0
 10
189.1471565545639
 20
135.7457773208445
 30
0.0
  0
ELLIPSE
  5
EB
330
1F
100
AcDbEntity
  8
0
  6
HIDDEN
 62
     7
370
     0
100
AcDbEllipse
 10
202.1086700979
 20
127.6493243228
 30
0.0
 11
-11.70927234972711
 21
24.67718644093746
 31
0.0
210
0.0
220
0.0
230
1.0
 40
0.3419987131
 41
0.1689292745891138
 42
1.080116497809132
  0
SPLINE
  5
EC
330
1F
100
AcDbEntity
  8
0
  6
HIDDEN
 62
     7
370
     0
100
AcDbSpline
210
0.0
220
0.0
230
1.0
 70
     8
 71
     3
 72
    12
 73
     8
 74
     0
 42
0.00000001
 43
0.00000001
 12
1.0
 22
0.0
 32
0.0
 13
1.0
 23
0.0
 33
0.0
 40
0.0
 40
0.0
 40
0.0
 40
0.0
 40
0.5000000000000028
 40
0.5000000000000028
 40
0.7500000000000013
 40
0.7500000000000013
 40
1.0
 40
1.0
 40
1.0
 40
1.0
 10
189.1471565545638
 20
119.5528713247557
 30
0.0
 10
189.1778559379312
 20
119.6672069918196
 30
0.0
 10
189.2192060060377
 20
119.7785603446609
 30
0.0
 10
189.3189619342571
 20
119.9312971169097
 30
0.0
 10
189.3586588519898
 20
119.9791570027618
 30
0.0
 10
189.4559170036375
 20
120.0537601161112
 30
0.0
 10
189.5166931616282
 20
120.0805143536193
 30
0.0
 10
189.5801692564561
 20
120.0805143536193
 30
0.0
  0
LINE
  5
ED
330
1F
100
AcDbEntity
  8
0
  6
HIDDEN
 62
     7
370
     0
100
AcDbLine
 10
189.5801692565
 20
120.0805143536
 30
0.0
 11
192.5246556293
 21
120.0805143536
 31
0.0
  0
SPLINE
  5
EE
330
1F
100
AcDbEntity
  8
0
  6
HIDDEN
 62
     7
370
     0
100
AcDbSpline
210
0.0
220
0.0
230
1.0
 70
     8
 71
     3
 72
    12
 73
     8
 74
     0
 42
0.00000001
 43
0.00000001
 12
1.0
 22
0.0
 32
0.0
 13
1.0
 23
0.0
 33
0.0
 40
0.0
 40
0.0
 40
0.0
 40
0.0
 40
0.2500000000000002
 40
0.2500000000000002
 40
0.5000000000000004
 40
0.5000000000000004
 40
1.0
 40
1.0
 40
1.0
 40
1.0
 10
192.5246556293232
 20
120.0805143536193
 30
0.0
 10
192.5883208658537
 20
120.0805143536193
 30
0.0
 10
192.6479270980771
 20
120.0544422051396
 30
0.0
 10
192.7465876230079
 20
119.9789034543185
 30
0.0
 10
192.7855546130232
 20
119.9316525172223
 30
0.0
 10
192.8849414449476
 20
119.7798286992559
 30
0.0
 10
192.9270176923711
 20
119.6670254494908
 30
0.0
 10
192.9576683312154
 20
119.5528713247557
 30
0.0
  0
ELLIPSE
  5
EF
330
1F
100
AcDbEntity
  8
0
  6
HIDDEN
 62
     7
370
     0
100
AcDbEllipse
 10
179.9961547879
 20
127.6493243228
 30
0.0
 11
-11.70927234972714
 21
24.67718644093743
 31
0.0
210
0.0
220
0.0
230
1.0
 40
0.3419987131
 41
3.310521928178957
 42
4.221709151398949
  0
SPLINE
  5
F0
330
1F
100
AcDbEntity
  8
0
  6
HIDDEN
 62
     7
370
     0
100
AcDbSpline
210
0.0
220
0.0
230
1.0
 70
     8
 71
     3
 72
    12
 73
     8
 74
     0
 42
0.00000001
 43
0.00000001
 12
1.0
 22
0.0
 32
0.0
 13
1.0
 23
0.0
 33
0.0
 40
0.0
 40
0.0
 40
0.0
 40
0.0
 40
0.5000000000000018
 40
0.5000000000000018
 40
0.7500000000000009
 40
0.7500000000000009
 40
1.0
 40
1.0
 40
1.0
 40
1.0
 10
192.9576683312154
 20
103.9966828455683
 30
0.0
 10
192.9269689478481
 20
103.9575450031724
 30
0.0
 10
192.8856188797416
 20
103.9203852204469
 30
0.0
 10
192.7858629515221
 20
103.8704487148192
 30
0.0
 10
192.7461660337895
 20
103.8549958446754
 30
0.0
 10
192.6489078821418
 20
103.8310763010764
 30
0.0
 10
192.5881317241511
 20
103.822593207298
 30
0.0
 10
192.5246556293232
 20
103.822593207298
 30
0.0
  0
LINE
  5
F1
330
1F
100
AcDbEntity
  8
0
  6
HIDDEN
 62
     7
370
     0
100
AcDbLine
 10
192.5246556293
 20
103.8225932073
 30
0.0
 11
189.5801692565
 21
103.8225932073
 31
0.0
  0
SPLINE
  5
F2
330
1F
100
AcDbEntity
  8
0
  6
HIDDEN
 62
     7
370
     0
100
AcDbSpline
210
0.0
220
0.0
230
1.0
 70
     8
 71
     3
 72
    12
 73
     8
 74
     0
 42
0.00000001
 43
0.00000001
 12
1.0
 22
0.0
 32
0.0
 13
1.0
 23
0.0
 33
0.0
 40
0.0
 40
0.0
 40
0.0
 40
0.0
 40
0.2499999999999991
 40
0.2499999999999991
 40
0.4999999999999982
 40
0.4999999999999982
 40
1.0
 40
1.0
 40
1.0
 40
1.0
 10
189.5801692564561
 20
103.822593207298
 30
0.0
 10
189.5165040199256
 20
103.822593207298
 30
0.0
 10
189.4568977877022
 20
103.8308579829638
 30
0.0
 10
189.3582372627714
 20
103.855076764547
 30
0.0
 10
189.3192702727561
 20
103.8703340838561
 30
0.0
 10
189.2198834408317
 20
103.9199674381181
 30
0.0
 10
189.1778071934082
 20
103.9576071462922
 30
0.0
 10
189.1471565545638
 20
103.9966828455683
 30
0.0
  0
ELLIPSE
  5
F3
330
1F
100
AcDbEntity
  8
0
  6
HIDDEN
 62
     7
370
     0
100
AcDbEllipse
 10
202.1086700979
 20
127.6493243228
 30
0.0
 11
11.70927234972703
 21
24.67718644093743
 31
0.0
210
0.0
220
0.0
230
1.0
 40
0.3419987131
 41
2.06147615578065
 42
2.972663379000669
  0
SPLINE
  5
F4
330
1F
100
AcDbEntity
  8
0
  6
HIDDEN
 62
     7
370
     0
100
AcDbSpline
210
0.0
220
0.0
230
1.0
 70
     8
 71
     3
 72
    58
 73
    54
 74
     0
 42
0.00000001
 43
0.00000001
 12
1.0
 22
0.0
 32
0.0
 13
1.0
 23
0.0
 33
0.0
 40
-0.0624999999999999
 40
-0.0624999999999999
 40
0.0
 40
0.0
 40
0.0312500000000001
 40
0.0312500000000001
 40
0.0625000000000002
 40
0.0625000000000002
 40
0.0937500000000003
 40
0.0937500000000003
 40
0.1250000000000004
 40
0.1250000000000004
 40
0.1875000000000007
 40
0.1875000000000007
 40
0.2500000000000009
 40
0.2500000000000009
 40
0.2812500000000009
 40
0.2812500000000009
 40
0.3125000000000008
 40
0.3125000000000008
 40
0.3437500000000008
 40
0.3437500000000008
 40
0.3750000000000007
 40
0.3750000000000007
 40
0.4062500000000007
 40
0.4062500000000007
 40
0.4375000000000006
 40
0.4375000000000006
 40
0.4687500000000006
 40
0.4687500000000006
 40
0.5000000000000004
 40
0.5000000000000004
 40
0.5625000000000003
 40
0.5625000000000003
 40
0.6250000000000002
 40
0.6250000000000002
 40
0.6562500000000002
 40
0.6562500000000002
 40
0.6875000000000002
 40
0.6875000000000002
 40
0.7187500000000002
 40
0.7187500000000002
 40
0.7500000000000002
 40
0.7500000000000002
 40
0.7812500000000002
 40
0.7812500000000002
 40
0.8125000000000002
 40
0.8125000000000002
 40
0.8437500000000002
 40
0.8437500000000002
 40
0.8750000000000002
 40
0.8750000000000002
 40
0.9375000000000001
 40
0.9375000000000001
 40
1.0
 40
1.0
 40
1.03125
 40
1.03125
 10
195.0524124428896
 20
127.3849519522565
 30
0.0
 10
195.0524124428896
 20
127.7815105080717
 30
0.0
 10
195.0394365508791
 20
127.9114772476164
 30
0.0
 10
194.9886042487732
 20
128.1671565857485
 30
0.0
 10
194.9501271774518
 20
128.29419767759
 30
0.0
 10
194.8497222162954
 20
128.5363758635305
 30
0.0
 10
194.7882879739761
 20
128.65122952212
 30
0.0
 10
194.6431537077944
 20
128.8685946439259
 30
0.0
 10
194.5587117866471
 20
128.9714701160101
 30
0.0
 10
194.2820397570372
 20
129.2480880684273
 30
0.0
 10
194.0589936020691
 20
129.3970801882602
 30
0.0
 10
193.5777296035246
 20
129.5966039832514
 30
0.0
 10
193.3144717482048
 20
129.6491828477537
 30
0.0
 10
192.92300571692
 20
129.6493946213412
 30
0.0
 10
192.7904569733065
 20
129.6364036497518
 30
0.0
 10
192.5339126642912
 20
129.585367426462
 30
0.0
 10
192.4092167779196
 20
129.5476058850591
 30
0.0
 10
192.1670138074858
 20
129.4474463457657
 30
0.0
 10
192.0499504442352
 20
129.3848485360152
 30
0.0
 10
191.833264124989
 20
129.2401265519796
 30
0.0
 10
191.7322501569213
 20
129.1575024468113
 30
0.0
 10
191.5454569626358
 20
128.9708820762003
 30
0.0
 10
191.4626565986815
 20
128.8698337083091
 30
0.0
 10
191.317778159787
 20
128.6533216874353
 30
0.0
 10
191.2551273764596
 20
128.5364323322363
 30
0.0
 10
191.1546869820857
 20
128.2941749301773
 30
0.0
 10
191.1168279703157
 20
128.169512265362
 30
0.0
 10
191.0655902658522
 20
127.9131810697072
 30
0.0
 10
191.0524598910791
 20
127.7805931303568
 30
0.0
 10
191.0523179406402
 20
127.3889614617875
 30
0.0
 10
191.1046588568883
 20
127.1257486287532
 30
0.0
 10
191.3037890836264
 20
126.6442412980619
 30
0.0
 10
191.4526261712687
 20
126.4210408167863
 30
0.0
 10
191.7289382078081
 20
126.1441947368246
 30
0.0
 10
191.8317037450594
 20
126.0596826426058
 30
0.0
 10
192.0490206774132
 20
125.9143040458744
 30
0.0
 10
192.16380758795
 20
125.8527886142725
 30
0.0
 10
192.4057270780559
 20
125.752232554027
 30
0.0
 10
192.532853980556
 20
125.7135938281923
 30
0.0
 10
192.7885228161921
 20
125.662528961305
 30
0.0
 10
192.9184180215701
 20
125.6494544809287
 30
0.0
 10
193.1824928039945
 20
125.6491960796551
 30
0.0
 10
193.3128219434798
 20
125.662072147618
 30
0.0
 10
193.5685112576236
 20
125.712670938946
 30
0.0
 10
193.6954391240113
 20
125.7509762847836
 30
0.0
 10
193.9378914128534
 20
125.8512321172035
 30
0.0
 10
194.052808106835
 20
125.9125831361156
 30
0.0
 10
194.2701988986055
 20
126.0574519716858
 30
0.0
 10
194.373184178287
 20
126.1418159249552
 30
0.0
 10
194.6501485459443
 20
126.4183419787413
 30
0.0
 10
194.7992808243028
 20
126.641201820737
 30
0.0
 10
194.9992329430172
 20
127.1223043407977
 30
0.0
 10
195.0524124428896
 20
127.3849519522565
 30
0.0
 10
195.0524124428896
 20
127.7815105080717
 30
0.0
  0
LINE
  5
F5
330
1F
100
AcDbEntity
  8
0
  6
HIDDEN
 62
     7
370
     0
100
AcDbLine
 10
181.0524124429
 20
152.3493243227
 30
0.0
 11
181.0524124429
 21
102.9493243228
 31
0.0
  0
LWPOLYLINE
  5
F6
330
1F
100
AcDbEntity
  8
0
  6
HIDDEN
 62
     7
370
     0
100
AcDbPolyline
 90
       32
 70
   128
 43
0.0
 10
199.0524124429
 20
120.3618333964
 10
199.6563080032
 20
120.310330489
 10
200.2354800082
 20
120.1579303019
 10
200.7662170882
 20
119.9108721167
 10
201.2267908046
 20
119.5792705245
 10
201.5983452154
 20
119.1767013334
 10
201.8656688393
 20
118.7196457735
 10
202.0178174159
 20
118.226815753
 10
202.0485619644
 20
117.7183877909
 10
201.9566437995
 20
117.2151769878
 10
201.7458260616
 20
116.7377848529
 10
201.4247396537
 20
116.3057558765
 10
201.0065298911
 20
115.9367773755
 10
200.5083183305
 20
115.6459553731
 10
199.9505018118
 20
115.4451961563
 10
199.3559174089
 20
115.3427188311
 10
198.7489074769
 20
115.3427188311
 10
198.154323074
 20
115.4451961563
 10
197.5965065553
 20
115.6459553731
 10
197.0982949947
 20
115.9367773755
 10
196.6800852321
 20
116.3057558765
 10
196.3589988242
 20
116.7377848529
 10
196.1481810863
 20
117.2151769878
 10
196.0562629214
 20
117.7183877909
 10
196.0870074699
 20
118.226815753
 10
196.2391560464
 20
118.7196457735
 10
196.5064796704
 20
119.1767013334
 10
196.8780340812
 20
119.5792705245
 10
197.3386077976
 20
119.9108721167
 10
197.8693448775
 20
120.1579303019
 10
198.4485168826
 20
120.310330489
 10
199.0524124429
 20
120.3618333964
  0
LINE
  5
F7
330
1F
100
AcDbEntity
  8
0
  6
HIDDEN
 62
     7
370
     0
100
AcDbLine
 10
181.0524124429
 20
108.0993243228
 30
0.0
 11
181.0524124429
 21
147.1993243228
 31
0.0
  0
SPLINE
  5
F8
330
1F
100
AcDbEntity
  8
0
  6
HIDDEN
 62
     7
370
     0
100
AcDbSpline
210
0.0
220
0.0
230
1.0
 70
     8
 71
     3
 72
    14
 73
    10
 74
     0
 42
0.00000001
 43
0.00000001
 12
1.0
 22
0.0
 32
0.0
 13
1.0
 23
0.0
 33
0.0
 40
0.0
 40
0.0
 40
0.0
 40
0.0
 40
0.25
 40
0.25
 40
0.5
 40
0.5
 40
0.75
 40
0.75
 40
1.0
 40
1.0
 40
1.0
 40
1.0
 10
180.0115514147613
 20
139.9437998678734
 30
0.0
 10
180.043266549092
 20
139.8860166855302
 30
0.0
 10
180.0778810743923
 20
139.8296040244553
 30
0.0
 10
180.1575522698077
 20
139.7220045744398
 30
0.0
 10
180.2026081468381
 20
139.6700919475188
 30
0.0
 10
180.3131625593435
 20
139.5838933228215
 30
0.0
 10
180.3805479735477
 20
139.5498039028498
 30
0.0
 10
180.5311774934457
 20
139.547701510833
 30
0.0
 10
180.6010047302111
 20
139.5810732836777
 30
0.0
 10
180.6574355540145
 20
139.6248859522284
 30
0.0
  0
SPLINE
  5
F9
330
1F
100
AcDbEntity
  8
0
  6
HIDDEN
 62
     7
370
     0
100
AcDbSpline
210
0.0
220
0.0
230
1.0
 70
     8
 71
     3
 72
    16
 73
    12
 74
     0
 42
0.00000001
 43
0.00000001
 12
1.0
 22
0.0
 32
0.0
 13
1.0
 23
0.0
 33
0.0
 40
0.0
 40
0.0
 40
0.0
 40
0.0
 40
0.0624999999999998
 40
0.0624999999999998
 40
0.1249999999999997
 40
0.1249999999999997
 40
0.2499999999999972
 40
0.2499999999999972
 40
0.4999999999999964
 40
0.4999999999999964
 40
1.0
 40
1.0
 40
1.0
 40
1.0
 10
180.6574355539828
 20
139.624885952259
 30
0.0
 10
180.6691697884297
 20
139.633996365507
 30
0.0
 10
180.6827015439086
 20
139.6420737214534
 30
0.0
 10
180.7126890043385
 20
139.6503205631303
 30
0.0
 10
180.7276837107468
 20
139.6493932455427
 30
0.0
 10
180.7634241331415
 20
139.6366267260109
 30
0.0
 10
180.7774374701427
 20
139.6189780795006
 30
0.0
 10
180.8115815589241
 20
139.564325159469
 30
0.0
 10
180.8225534630424
 20
139.5229254918106
 30
0.0
 10
180.8483990033087
 20
139.3944357480878
 30
0.0
 10
180.8524124428897
 20
139.3038176604491
 30
0.0
 10
180.8524124428897
 20
139.211598555895
 30
0.0
  0
LINE
  5
FA
330
1F
100
AcDbEntity
  8
0
  6
HIDDEN
 62
     7
370
     0
100
AcDbLine
 10
180.8524124429
 20
116.0870500897
 30
0.0
 11
180.8524124429
 21
139.2115985559
 31
0.0
  0
SPLINE
  5
FB
330
1F
100
AcDbEntity
  8
0
  6
HIDDEN
 62
     7
370
     0
100
AcDbSpline
210
0.0
220
0.0
230
1.0
 70
     8
 71
     3
 72
    16
 73
    12
 74
     0
 42
0.00000001
 43
0.00000001
 12
1.0
 22
0.0
 32
0.0
 13
1.0
 23
0.0
 33
0.0
 40
0.0
 40
0.0
 40
0.0
 40
0.0
 40
0.5000000000000027
 40
0.5000000000000027
 40
0.750000000000004
 40
0.750000000000004
 40
0.8750000000000021
 40
0.8750000000000021
 40
0.9375000000000011
 40
0.9375000000000011
 40
1.0
 40
1.0
 40
1.0
 40
1.0
 10
180.8524124428896
 20
116.0870500897049
 30
0.0
 10
180.8524124428896
 20
115.994466238801
 30
0.0
 10
180.8483551407746
 20
115.9042537829407
 30
0.0
 10
180.8226978979798
 20
115.7763126558223
 30
0.0
 10
180.8113824522377
 20
115.7338994414104
 30
0.0
 10
180.7773510849291
 20
115.6795853979593
 30
0.0
 10
180.7634721037252
 20
115.6620040625694
 30
0.0
 10
180.7275364219579
 20
115.6492203746344
 30
0.0
 10
180.7125861026951
 20
115.6483448764863
 30
0.0
 10
180.6826875899533
 20
115.6565903116057
 30
0.0
 10
180.669154729588
 20
115.6646639717774
 30
0.0
 10
180.657435554014
 20
115.6737626933715
 30
0.0
  0
SPLINE
  5
FC
330
1F
100
AcDbEntity
  8
0
  6
HIDDEN
 62
     7
370
     0
100
AcDbSpline
210
0.0
220
0.0
230
1.0
 70
     8
 71
     3
 72
    14
 73
    10
 74
     0
 42
0.00000001
 43
0.00000001
 12
1.0
 22
0.0
 32
0.0
 13
1.0
 23
0.0
 33
0.0
 40
0.0
 40
0.0
 40
0.0
 40
0.0
 40
0.25
 40
0.25
 40
0.5
 40
0.5
 40
0.75
 40
0.75
 40
1.0
 40
1.0
 40
1.0
 40
1.0
 10
180.6574355540208
 20
115.6737626933801
 30
0.0
 10
180.600979789412
 20
115.7175947258748
 30
0.0
 10
180.5301141631622
 20
115.7509257622967
 30
0.0
 10
180.3816570819895
 20
115.7488667521492
 30
0.0
 10
180.312463722682
 20
115.7142707277475
 30
0.0
 10
180.2027482845479
 20
115.6286053710847
 30
0.0
 10
180.1575037052165
 20
115.5765829263767
 30
0.0
 10
180.0778769957927
 20
115.4690346660468
 30
0.0
 10
180.0432668472592
 20
115.4126325033137
 30
0.0
 10
180.01155141476
 20
115.3548487777243
 30
0.0
  0
SPLINE
  5
FD
330
1F
100
AcDbEntity
  8
0
  6
HIDDEN
 62
     7
370
     0
100
AcDbSpline
210
0.0
220
0.0
230
1.0
 70
     8
 71
     3
 72
    10
 73
     6
 74
     0
 42
0.00000001
 43
0.00000001
 12
1.0
 22
0.0
 32
0.0
 13
1.0
 23
0.0
 33
0.0
 40
0.0
 40
0.0
 40
0.0
 40
0.0
 40
0.5
 40
0.5
 40
1.0
 40
1.0
 40
1.0
 40
1.0
 10
180.0115514147606
 20
115.3548487777253
 30
0.0
 10
179.9397716268371
 20
115.2240700608234
 30
0.0
 10
179.887312112529
 20
115.0899699113202
 30
0.0
 10
179.7979690484279
 20
114.8218773483314
 30
0.0
 10
179.7619734389281
 20
114.6876319767425
 30
0.0
 10
179.73109209933
 20
114.5542775992675
 30
0.0
  0
SPLINE
  5
FE
330
1F
100
AcDbEntity
  8
0
  6
HIDDEN
 62
     7
370
     0
100
AcDbSpline
210
0.0
220
0.0
230
1.0
 70
     8
 71
     3
 72
    10
 73
     6
 74
     0
 42
0.00000001
 43
0.00000001
 12
1.0
 22
0.0
 32
0.0
 13
1.0
 23
0.0
 33
0.0
 40
0.0
 40
0.0
 40
0.0
 40
0.0
 40
0.5
 40
0.5
 40
1.0
 40
1.0
 40
1.0
 40
1.0
 10
179.73109209933
 20
110.3524144547951
 30
0.0
 10
179.7619651311423
 20
110.336131307428
 30
0.0
 10
179.7979519940552
 20
110.3238737177024
 30
0.0
 10
179.8872865799464
 20
110.3067707288737
 30
0.0
 10
179.939742439369
 20
110.3019711330153
 30
0.0
 10
180.0115514147612
 20
110.3001670416074
 30
0.0
  0
SPLINE
  5
FF
330
1F
100
AcDbEntity
  8
0
  6
HIDDEN
 62
     7
370
     0
100
AcDbSpline
210
0.0
220
0.0
230
1.0
 70
     8
 71
     3
 72
     8
 73
     4
 74
     0
 42
0.00000001
 43
0.00000001
 12
1.0
 22
0.0
 32
0.0
 13
1.0
 23
0.0
 33
0.0
 40
0.0
 40
0.0
 40
0.0
 40
0.0
 40
1.0
 40
1.0
 40
1.0
 40
1.0
 10
180.8347158195147
 20
110.1742826633603
 30
0.0
 10
180.8487026280567
 20
110.1460422727786
 30
0.0
 10
180.8524124428894
 20
110.1229102299679
 30
0.0
 10
180.8524124428897
 20
110.1025698571327
 30
0.0
  0
LINE
  5
100
330
1F
100
AcDbEntity
  8
0
  6
HIDDEN
 62
     7
370
     0
100
AcDbLine
 10
180.8524124429
 20
109.8095040439
 30
0.0
 11
180.8524124429
 21
110.1025698571
 31
0.0
  0
LINE
  5
101
330
1F
100
AcDbEntity
  8
0
  6
HIDDEN
 62
     7
370
     0
100
AcDbLine
 10
180.8524124429
 20
145.1960787885
 30
0.0
 11
180.8524124429
 21
145.4891446017
 31
0.0
  0
SPLINE
  5
102
330
1F
100
AcDbEntity
  8
0
  6
HIDDEN
 62
     7
370
     0
100
AcDbSpline
210
0.0
220
0.0
230
1.0
 70
     8
 71
     3
 72
    10
 73
     6
 74
     0
 42
0.00000001
 43
0.00000001
 12
1.0
 22
0.0
 32
0.0
 13
1.0
 23
0.0
 33
0.0
 40
0.0
 40
0.0
 40
0.0
 40
0.0
 40
0.5
 40
0.5
 40
1.0
 40
1.0
 40
1.0
 40
1.0
 10
180.0115514147612
 20
144.9984816039925
 30
0.0
 10
179.939742439369
 20
144.9966775125845
 30
0.0
 10
179.8872865799464
 20
144.9918779167262
 30
0.0
 10
179.7979519940552
 20
144.9747749278974
 30
0.0
 10
179.7619651311423
 20
144.9625173381719
 30
0.0
 10
179.73109209933
 20
144.9462341908047
 30
0.0
  0
SPLINE
  5
103
330
1F
100
AcDbEntity
  8
0
  6
HIDDEN
 62
     7
370
     0
100
AcDbSpline
210
0.0
220
0.0
230
1.0
 70
     8
 71
     3
 72
    10
 73
     6
 74
     0
 42
0.00000001
 43
0.00000001
 12
1.0
 22
0.0
 32
0.0
 13
1.0
 23
0.0
 33
0.0
 40
0.0
 40
0.0
 40
0.0
 40
0.0
 40
0.5
 40
0.5
 40
1.0
 40
1.0
 40
1.0
 40
1.0
 10
179.73109209933
 20
140.7443710463324
 30
0.0
 10
179.7619734389282
 20
140.6110166688571
 30
0.0
 10
179.797969048428
 20
140.476771297268
 30
0.0
 10
179.8873121125294
 20
140.2086787342788
 30
0.0
 10
179.9397716268375
 20
140.0745785847754
 30
0.0
 10
180.0115514147613
 20
139.9437998678734
 30
0.0
  0
LINE
  5
104
330
1F
100
AcDbEntity
  8
0
  6
HIDDEN
 62
     7
370
     0
100
AcDbLine
 10
180.8524124429
 20
110.1025698571
 30
0.0
 11
180.8524124429
 21
121.6648440902
 31
0.0
  0
LINE
  5
105
330
1F
100
AcDbEntity
  8
0
  6
HIDDEN
 62
     7
370
     0
100
AcDbLine
 10
180.8524124429
 20
133.6338045554
 30
0.0
 11
180.8524124429
 21
145.1960787885
 31
0.0
  0
LWPOLYLINE
  5
106
330
1F
100
AcDbEntity
  8
0
  6
HIDDEN
 62
     7
370
     0
100
AcDbPolyline
 90
       29
 70
   128
 43
0.0
 10
199.0524124429
 20
120.1061241863
 10
199.6087147778
 20
120.0535561309
 10
200.1371217907
 20
119.8984879468
 10
200.6111369475
 20
119.6486954
 10
201.0069911491
 20
119.316704132
 10
201.3048346126
 20
118.9191615712
 10
201.4897322233
 20
118.4760021615
 10
201.5524124429
 20
118.0094477664
 10
201.4897322233
 20
117.5428933712
 10
201.3048346126
 20
117.0997339616
 10
201.0069911491
 20
116.7021914008
 10
200.6111369475
 20
116.3702001328
 10
200.1371217907
 20
116.120407586
 10
199.6087147778
 20
115.9653394019
 10
199.0524124429
 20
115.9127713465
 10
198.496110108
 20
115.9653394019
 10
197.9677030951
 20
116.120407586
 10
197.4936879382
 20
116.3702001328
 10
197.0978337367
 20
116.7021914008
 10
196.7999902731
 20
117.0997339616
 10
196.6150926624
 20
117.5428933712
 10
196.5524124429
 20
118.0094477664
 10
196.6150926624
 20
118.4760021615
 10
196.7999902731
 20
118.9191615712
 10
197.0978337367
 20
119.316704132
 10
197.4936879382
 20
119.6486954
 10
197.9677030951
 20
119.8984879468
 10
198.496110108
 20
120.0535561309
 10
199.0524124429
 20
120.1061241863
  0
SPLINE
  5
107
330
1F
100
AcDbEntity
  8
0
  6
HIDDEN
 62
     7
370
     0
100
AcDbSpline
210
0.0
220
0.0
230
1.0
 70
     8
 71
     3
 72
    66
 73
    62
 74
     0
 42
0.00000001
 43
0.00000001
 12
1.0
 22
0.0
 32
0.0
 13
1.0
 23
0.0
 33
0.0
 40
-0.0312500000000001
 40
-0.0312500000000001
 40
0.0
 40
0.0
 40
0.0312499999999998
 40
0.0312499999999998
 40
0.0624999999999997
 40
0.0624999999999997
 40
0.0937499999999995
 40
0.0937499999999995
 40
0.1249999999999994
 40
0.1249999999999994
 40
0.187499999999999
 40
0.187499999999999
 40
0.2187499999999988
 40
0.2187499999999988
 40
0.2499999999999987
 40
0.2499999999999987
 40
0.2812499999999985
 40
0.2812499999999985
 40
0.3124999999999983
 40
0.3124999999999983
 40
0.3437499999999984
 40
0.3437499999999984
 40
0.3749999999999984
 40
0.3749999999999984
 40
0.4062499999999985
 40
0.4062499999999985
 40
0.4374999999999986
 40
0.4374999999999986
 40
0.4687499999999986
 40
0.4687499999999986
 40
0.4999999999999987
 40
0.4999999999999987
 40
0.5312499999999987
 40
0.5312499999999987
 40
0.5624999999999988
 40
0.5624999999999988
 40
0.5937499999999988
 40
0.5937499999999988
 40
0.6249999999999989
 40
0.6249999999999989
 40
0.6874999999999992
 40
0.6874999999999992
 40
0.7187499999999992
 40
0.7187499999999992
 40
0.7499999999999993
 40
0.7499999999999993
 40
0.7812499999999993
 40
0.7812499999999993
 40
0.8124999999999994
 40
0.8124999999999994
 40
0.8437499999999994
 40
0.8437499999999994
 40
0.8749999999999996
 40
0.8749999999999996
 40
0.9062499999999996
 40
0.9062499999999996
 40
0.9374999999999998
 40
0.9374999999999998
 40
0.9687499999999999
 40
0.9687499999999999
 40
1.0
 40
1.0
 40
1.03125
 40
1.03125
 10
199.2189653506465
 20
126.0395530351171
 30
0.0
 10
198.885859535133
 20
126.0395530351171
 30
0.0
 10
198.7223685815432
 20
126.022405447039
 30
0.0
 10
198.4011664361742
 20
125.9559083941502
 30
0.0
 10
198.2417540786179
 20
125.9056879248883
 30
0.0
 10
197.9397153514775
 20
125.7771062286389
 30
0.0
 10
197.7966673141158
 20
125.6991226469449
 30
0.0
 10
197.525934092165
 20
125.5175321914896
 30
0.0
 10
197.3988645771984
 20
125.4138891483906
 30
0.0
 10
197.0558565662256
 20
125.0792086243376
 30
0.0
 10
196.8700243048217
 20
124.8160415518887
 30
0.0
 10
196.6822189416631
 20
124.4052896974079
 30
0.0
 10
196.6334788648847
 20
124.2630887922252
 30
0.0
 10
196.5687148127699
 20
123.9799477354789
 30
0.0
 10
196.5525227022358
 20
123.8400920792977
 30
0.0
 10
196.5523032950691
 20
123.5640868568104
 30
0.0
 10
196.5688513891025
 20
123.4271078073253
 30
0.0
 10
196.6332805428061
 20
123.1691266428524
 30
0.0
 10
196.680939011991
 20
123.0465432587973
 30
0.0
 10
196.8076349797897
 20
122.8133678246471
 30
0.0
 10
196.8852085655886
 20
122.705713220064
 30
0.0
 10
197.0658151917688
 20
122.5083604794558
 30
0.0
 10
197.1703682408845
 20
122.4174145572483
 30
0.0
 10
197.4003768812287
 20
122.2561551098338
 30
0.0
 10
197.5252569396035
 20
122.1857814681751
 30
0.0
 10
197.7951565112333
 20
122.0634792027671
 30
0.0
 10
197.9412528777163
 20
122.0115145949504
 30
0.0
 10
198.2419655015249
 20
121.9294220478714
 30
0.0
 10
198.3979131898824
 20
121.898530859003
 30
0.0
 10
198.7216930536308
 20
121.8566861416899
 30
0.0
 10
198.8873913973808
 20
121.8462421826747
 30
0.0
 10
199.2154352773881
 20
121.8461584630855
 30
0.0
 10
199.3807608287249
 20
121.8564743377744
 30
0.0
 10
199.7050892847352
 20
121.8982019293624
 30
0.0
 10
199.8614420855969
 20
121.9290834196238
 30
0.0
 10
200.1631582638261
 20
122.0113536528338
 30
0.0
 10
200.3092487935407
 20
122.0633243906343
 30
0.0
 10
200.5789625709458
 20
122.1854719657076
 30
0.0
 10
200.7041439045889
 20
122.2559188272097
 30
0.0
 10
201.0507544450165
 20
122.4989973656932
 30
0.0
 10
201.2338972799049
 20
122.6970270858845
 30
0.0
 10
201.4235638400442
 20
123.0458781980969
 30
0.0
 10
201.4712015874726
 20
123.168180081386
 30
0.0
 10
201.5357198224048
 20
123.425670125398
 30
0.0
 10
201.5524169281466
 20
123.5625798883066
 30
0.0
 10
201.5524079557791
 20
123.8389169386927
 30
0.0
 10
201.5362771198326
 20
123.9789009117764
 30
0.0
 10
201.471617443164
 20
124.262216542307
 30
0.0
 10
201.4229470885248
 20
124.4044580382995
 30
0.0
 10
201.297517716206
 20
124.6789572153294
 30
0.0
 10
201.2197740637158
 20
124.8136991620935
 30
0.0
 10
201.0374745767029
 20
125.0706122907617
 30
0.0
 10
200.9345114234087
 20
125.1909317850828
 30
0.0
 10
200.7053104511162
 20
125.4144780484622
 30
0.0
 10
200.5776794730081
 20
125.5184128094549
 30
0.0
 10
200.3078338115716
 20
125.6992712737211
 30
0.0
 10
200.1649790681845
 20
125.7771853683434
 30
0.0
 10
199.8625815409384
 20
125.9058725646453
 30
0.0
 10
199.7033663099936
 20
125.9559782929535
 30
0.0
 10
199.3824785786755
 20
126.0223914092989
 30
0.0
 10
199.2189653506465
 20
126.0395530351171
 30
0.0
 10
198.885859535133
 20
126.0395530351171
 30
0.0
  0
SPLINE
  5
108
330
1F
100
AcDbEntity
  8
0
  6
HIDDEN
 62
     7
370
     0
100
AcDbSpline
210
0.0
220
0.0
230
1.0
 70
     8
 71
     3
 72
    68
 73
    64
 74
     0
 42
0.00000001
 43
0.00000001
 12
1.0
 22
0.0
 32
0.0
 13
1.0
 23
0.0
 33
0.0
 40
0.0
 40
0.0
 40
0.0
 40
0.0
 40
0.0312500000000001
 40
0.0312500000000001
 40
0.0625000000000002
 40
0.0625000000000002
 40
0.1250000000000003
 40
0.1250000000000003
 40
0.1562500000000003
 40
0.1562500000000003
 40
0.1875000000000002
 40
0.1875000000000002
 40
0.2187500000000002
 40
0.2187500000000002
 40
0.2500000000000002
 40
0.2500000000000002
 40
0.2812500000000003
 40
0.2812500000000003
 40
0.3125000000000003
 40
0.3125000000000003
 40
0.3437500000000003
 40
0.3437500000000003
 40
0.3750000000000002
 40
0.3750000000000002
 40
0.4062500000000002
 40
0.4062500000000002
 40
0.4375000000000002
 40
0.4375000000000002
 40
0.4687500000000002
 40
0.4687500000000002
 40
0.5000000000000002
 40
0.5000000000000002
 40
0.5312500000000002
 40
0.5312500000000002
 40
0.5625000000000002
 40
0.5625000000000002
 40
0.5937500000000002
 40
0.5937500000000002
 40
0.6250000000000002
 40
0.6250000000000002
 40
0.6562500000000002
 40
0.6562500000000002
 40
0.6875000000000002
 40
0.6875000000000002
 40
0.7187500000000002
 40
0.7187500000000002
 40
0.7500000000000001
 40
0.7500000000000001
 40
0.7812500000000001
 40
0.7812500000000001
 40
0.8125000000000001
 40
0.8125000000000001
 40
0.8437500000000001
 40
0.8437500000000001
 40
0.8750000000000001
 40
0.8750000000000001
 40
0.9062500000000001
 40
0.9062500000000001
 40
0.9375000000000001
 40
0.9375000000000001
 40
0.9687500000000001
 40
0.9687500000000001
 40
1.0
 40
1.0
 40
1.0
 40
1.0
 10
197.82958698169
 20
117.7566708276236
 30
0.0
 10
197.9661799425059
 20
117.6669564375545
 30
0.0
 10
198.0986344583811
 20
117.581661426853
 30
0.0
 10
198.3626280618981
 20
117.4212878483058
 30
0.0
 10
198.4950508824314
 20
117.345834212791
 30
0.0
 10
198.8909732372385
 20
117.1432049382156
 30
0.0
 10
199.1506499575223
 20
117.0397408767363
 30
0.0
 10
199.5522945168243
 20
116.9485372614451
 30
0.0
 10
199.6880258777825
 20
116.9293238480577
 30
0.0
 10
199.9560848480355
 20
116.9192943666628
 30
0.0
 10
200.0895655480186
 20
116.9280922174112
 30
0.0
 10
200.3557946577629
 20
116.9812533834234
 30
0.0
 10
200.4840644307801
 20
117.024758113854
 30
0.0
 10
200.7301649342265
 20
117.1517963121193
 30
0.0
 10
200.8474136906615
 20
117.2360784283294
 30
0.0
 10
201.0549526252843
 20
117.4386300552431
 30
0.0
 10
201.1485883125972
 20
117.5603657366464
 30
0.0
 10
201.303567058444
 20
117.8270852817764
 30
0.0
 10
201.3663917084337
 20
117.9736698817512
 30
0.0
 10
201.462787531988
 20
118.2784131955835
 30
0.0
 10
201.4962386455245
 20
118.4346152366416
 30
0.0
 10
201.5404521606264
 20
118.7530253744213
 30
0.0
 10
201.5508562052346
 20
118.9147998770604
 30
0.0
 10
201.5536390530346
 20
119.2314636250324
 30
0.0
 10
201.5462112876685
 20
119.3880344723735
 30
0.0
 10
201.5184970059821
 20
119.6978376316778
 30
0.0
 10
201.4980142572623
 20
119.8514565991984
 30
0.0
 10
201.4500716238814
 20
120.1473506953455
 30
0.0
 10
201.4224557144618
 20
120.2906729030974
 30
0.0
 10
201.367002788692
 20
120.5666487692544
 30
0.0
 10
201.338735739646
 20
120.700874473115
 30
0.0
 10
201.2962741381002
 20
120.9436075681879
 30
0.0
 10
201.2825184923128
 20
121.054171279311
 30
0.0
 10
201.2850863492406
 20
121.2239999823552
 30
0.0
 10
201.301780050817
 20
121.2845179960896
 30
0.0
 10
201.3519675566019
 20
121.3543184961736
 30
0.0
 10
201.3844609253806
 20
121.3657809325214
 30
0.0
 10
201.4463704203929
 20
121.3571970944891
 30
0.0
 10
201.47561405367
 20
121.337476012872
 30
0.0
 10
201.5220871805096
 20
121.2756265658871
 30
0.0
 10
201.5394895794358
 20
121.2328039083573
 30
0.0
 10
201.5554011989261
 20
121.1290769640759
 30
0.0
 10
201.5541560743964
 20
121.0683517402015
 30
0.0
 10
201.5284044670021
 20
120.9301344105386
 30
0.0
 10
201.5033776509558
 20
120.851505139292
 30
0.0
 10
201.4260331045868
 20
120.6825907314387
 30
0.0
 10
201.3740885790508
 20
120.5923612521863
 30
0.0
 10
201.2387509656062
 20
120.4004349310414
 30
0.0
 10
201.1570243361104
 20
120.301386265943
 30
0.0
 10
200.9678734355729
 20
120.1027873650761
 30
0.0
 10
200.8581856958384
 20
120.0012367725168
 30
0.0
 10
200.6220570083441
 20
119.8077558811239
 30
0.0
 10
200.4943916837173
 20
119.7144622139467
 30
0.0
 10
200.2247405980418
 20
119.5389403180809
 30
0.0
 10
200.0858624725417
 20
119.4585926584773
 30
0.0
 10
199.8000874102324
 20
119.3124899011548
 30
0.0
 10
199.6534534714972
 20
119.2470571598849
 30
0.0
 10
199.3612632711963
 20
119.1359455142441
 30
0.0
 10
199.214002585581
 20
119.089414344316
 30
0.0
 10
198.9175965222835
 20
119.0180012470432
 30
0.0
 10
198.7709199993506
 20
118.9935455327534
 30
0.0
 10
198.4768928210626
 20
118.9731140907062
 30
0.0
 10
198.3282403063571
 20
118.9771080388021
 30
0.0
 10
198.1799688851227
 20
119.0034476221689
 30
0.0
  0
SPLINE
  5
109
330
1F
100
AcDbEntity
  8
0
  6
HIDDEN
 62
     7
370
     0
100
AcDbSpline
210
0.0
220
0.0
230
1.0
 70
     8
 71
     3
 72
    12
 73
     8
 74
     0
 42
0.00000001
 43
0.00000001
 12
1.0
 22
0.0
 32
0.0
 13
1.0
 23
0.0
 33
0.0
 40
0.0
 40
0.0
 40
0.0
 40
0.0
 40
0.5000000000000009
 40
0.5000000000000009
 40
0.7500000000000004
 40
0.7500000000000004
 40
1.0
 40
1.0
 40
1.0
 40
1.0
 10
198.1799688851226
 20
119.0034476221689
 30
0.0
 10
198.0133876310873
 20
118.8404781751267
 30
0.0
 10
197.8889156605343
 20
118.6749507587532
 30
0.0
 10
197.7989965446655
 20
118.3649431676352
 30
0.0
 10
197.7857205741748
 20
118.2518301658722
 30
0.0
 10
197.7885324317947
 20
118.0131958341178
 30
0.0
 10
197.8040826870621
 20
117.8870002382597
 30
0.0
 10
197.82958698169
 20
117.7566708276235
 30
0.0
  0
CIRCLE
  5
10A
330
1F
100
AcDbEntity
  8
0
  6
HIDDEN
 62
     7
370
     0
100
AcDbCircle
 10
167.0524124429
 20
127.6493243228
 30
0.0
 40
3.049999999999997
  0
LWPOLYLINE
  5
10B
330
1F
100
AcDbEntity
  8
0
  6
HIDDEN
 62
     7
370
     0
100
AcDbPolyline
 90
        9
 70
   128
 43
0.0
 10
197.8295869817
 20
117.7566708276
 10
197.7851834222
 20
117.7976808274
 10
197.7664689329
 20
117.8758794597
 10
197.7737833681
 20
117.9898466405
 10
197.8069938979
 20
118.137512731
 10
197.8654974205
 20
118.3161961213
 10
197.9482315146
 20
118.522651929
 10
198.0536937325
 20
118.7531309254
 10
198.1799688851
 20
119.0034476222
  0
LINE
  5
10C
330
1F
100
AcDbEntity
  8
0
  6
HIDDEN
 62
     7
370
     0
100
AcDbLine
 10
156.0804522985
 20
138.4379994574
 30
0.0
 11
156.0804522985
 21
116.8606491882
 31
0.0
  0
LINE
  5
10D
330
1F
100
AcDbEntity
  8
0
  6
HIDDEN
 62
     7
370
     0
100
AcDbLine
 10
152.0804522985
 20
138.8191973039
 30
0.0
 11
152.0804522985
 21
116.4794513417
 31
0.0
  0
LINE
  5
10E
330
1F
100
AcDbEntity
  8
0
  6
HIDDEN
 62
     7
370
     0
100
AcDbLine
 10
151.0524124429
 20
115.8859122543
 30
0.0
 11
151.0524124429
 21
139.4127363913
 31
0.0
  0
LINE
  5
10F
330
1F
100
AcDbEntity
  8
0
  6
HIDDEN
 62
     7
370
     0
100
AcDbLine
 10
160.6804522985
 20
138.1493243228
 30
0.0
 11
160.6804522985
 21
117.1493243228
 31
0.0
  0
LINE
  5
110
330
1F
100
AcDbEntity
  8
0
  6
HIDDEN
 62
     7
370
     0
100
AcDbLine
 10
154.5804522985
 20
138.1493243228
 30
0.0
 11
154.5804522985
 21
117.1493243228
 31
0.0
  0
LINE
  5
111
330
1F
100
AcDbEntity
  8
0
  6
HIDDEN
 62
     7
370
     0
100
AcDbLine
 10
155.5804522985
 20
138.1493243228
 30
0.0
 11
155.5804522985
 21
117.1493243228
 31
0.0
  0
SPLINE
  5
112
330
1F
100
AcDbEntity
  8
0
  6
HIDDEN
 62
     7
370
     0
100
AcDbSpline
210
0.0
220
0.0
230
1.0
 70
     8
 71
     3
 72
    66
 73
    62
 74
     0
 42
0.00000001
 43
0.00000001
 12
1.0
 22
0.0
 32
0.0
 13
1.0
 23
0.0
 33
0.0
 40
-0.03125
 40
-0.03125
 40
0.0
 40
0.0
 40
0.0312499999999998
 40
0.0312499999999998
 40
0.0624999999999997
 40
0.0624999999999997
 40
0.0937499999999995
 40
0.0937499999999995
 40
0.1249999999999994
 40
0.1249999999999994
 40
0.1874999999999992
 40
0.1874999999999992
 40
0.2187499999999991
 40
0.2187499999999991
 40
0.249999999999999
 40
0.249999999999999
 40
0.2812499999999989
 40
0.2812499999999989
 40
0.3124999999999988
 40
0.3124999999999988
 40
0.3437499999999988
 40
0.3437499999999988
 40
0.3749999999999987
 40
0.3749999999999987
 40
0.4062499999999987
 40
0.4062499999999987
 40
0.4374999999999986
 40
0.4374999999999986
 40
0.4687499999999986
 40
0.4687499999999986
 40
0.4999999999999986
 40
0.4999999999999986
 40
0.5312499999999986
 40
0.5312499999999986
 40
0.5624999999999984
 40
0.5624999999999984
 40
0.5937499999999984
 40
0.5937499999999984
 40
0.6249999999999986
 40
0.6249999999999986
 40
0.6562499999999988
 40
0.6562499999999988
 40
0.687499999999999
 40
0.687499999999999
 40
0.7187499999999991
 40
0.7187499999999991
 40
0.7499999999999993
 40
0.7499999999999993
 40
0.7812499999999996
 40
0.7812499999999996
 40
0.8124999999999997
 40
0.8124999999999997
 40
0.8749999999999999
 40
0.8749999999999999
 40
0.9062500000000001
 40
0.9062500000000001
 40
0.9375000000000001
 40
0.9375000000000001
 40
0.96875
 40
0.96875
 40
1.0
 40
1.0
 40
1.03125
 40
1.03125
 10
166.8497337959418
 20
130.6993243227999
 30
0.0
 10
167.2550910898374
 20
130.6993243227999
 30
0.0
 10
167.4541509811733
 20
130.6793247631833
 30
0.0
 10
167.845404965753
 20
130.6011812604832
 30
0.0
 10
168.0396777245006
 20
130.5420201589624
 30
0.0
 10
168.4084411510519
 20
130.3885884720681
 30
0.0
 10
168.5831663094302
 20
130.2948616622259
 30
0.0
 10
168.913843612964
 20
130.073607559821
 30
0.0
 10
169.0694911569668
 20
129.9456261928264
 30
0.0
 10
169.4889585266355
 20
129.5260710958264
 30
0.0
 10
169.7158466681658
 20
129.187592537123
 30
0.0
 10
169.9446432915506
 20
128.6377136494048
 30
0.0
 10
170.0038355463994
 20
128.4443138036614
 30
0.0
 10
170.08264295666
 20
128.0500856533035
 30
0.0
 10
170.1022823729404
 20
127.8514468258711
 30
0.0
 10
170.1025412373619
 20
127.4511465399727
 30
0.0
 10
170.082470552729
 20
127.2478072132516
 30
0.0
 10
170.0041328700991
 20
126.855715692644
 30
0.0
 10
169.9461831020606
 20
126.6650098243288
 30
0.0
 10
169.7922399601806
 20
126.2942860077422
 30
0.0
 10
169.6973013464579
 20
126.1175593479334
 30
0.0
 10
169.4769439305807
 20
125.788306237009
 30
0.0
 10
169.3496639046525
 20
125.6331850134126
 30
0.0
 10
169.0679083133219
 20
125.3515083184822
 30
0.0
 10
168.9151199838644
 20
125.2260751335778
 30
0.0
 10
168.5856929017075
 20
125.0052995402237
 30
0.0
 10
168.4071468985558
 20
124.9094682875235
 30
0.0
 10
168.0395745730056
 20
124.7566391570284
 30
0.0
 10
167.8494205462946
 20
124.6984673990842
 30
0.0
 10
167.4558801235922
 20
124.6194741067393
 30
0.0
 10
167.253446052331
 20
124.5994109810971
 30
0.0
 10
166.8540169769656
 20
124.5992382349783
 30
0.0
 10
166.6539979984097
 20
124.6187216090676
 30
0.0
 10
166.2578820509603
 20
124.6977131806688
 30
0.0
 10
166.0671492227685
 20
124.7559934005208
 30
0.0
 10
165.6995177821888
 20
124.9085610211288
 30
0.0
 10
165.521031350021
 20
125.0041698079021
 30
0.0
 10
165.1908260910569
 20
125.2251818529871
 30
0.0
 10
165.037937512995
 20
125.3506317517573
 30
0.0
 10
164.7563411184569
 20
125.6318622407626
 30
0.0
 10
164.6287101955814
 20
125.7872451186765
 30
0.0
 10
164.4083847605816
 20
126.1160959767194
 30
0.0
 10
164.3141583036162
 20
126.2909840831334
 30
0.0
 10
164.1592237830132
 20
126.6631279344942
 30
0.0
 10
164.1012114974109
 20
126.8539339763032
 30
0.0
 10
164.0227922431328
 20
127.2448069942219
 30
0.0
 10
164.0024781631662
 20
127.4472645556042
 30
0.0
 10
164.0023470468623
 20
127.8493951605237
 30
0.0
 10
164.0219717402216
 20
128.0481192056988
 30
0.0
 10
164.1001381906353
 20
128.4409586768354
 30
0.0
 10
164.1594256359752
 20
128.635602954238
 30
0.0
 10
164.3885064790581
 20
129.1870427076522
 30
0.0
 10
164.6153373299523
 20
129.5253822733514
 30
0.0
 10
165.0346760312729
 20
129.9450479360029
 30
0.0
 10
165.1900290270229
 20
130.0728939417762
 30
0.0
 10
165.5209968601601
 20
130.294495016478
 30
0.0
 10
165.6955581603564
 20
130.3881357504549
 30
0.0
 10
166.0631314679312
 20
130.5412898711541
 30
0.0
 10
166.2578183295693
 20
130.6007936168002
 30
0.0
 10
166.6502942795058
 20
130.6793163658632
 30
0.0
 10
166.8497337959418
 20
130.6993243227999
 30
0.0
 10
167.2550910898374
 20
130.6993243227999
 30
0.0
  0
SPLINE
  5
113
330
1F
100
AcDbEntity
  8
0
  6
HIDDEN
 62
     7
370
     0
100
AcDbSpline
210
0.0
220
0.0
230
1.0
 70
     8
 71
     3
 72
    66
 73
    62
 74
     0
 42
0.00000001
 43
0.00000001
 12
1.0
 22
0.0
 32
0.0
 13
1.0
 23
0.0
 33
0.0
 40
-0.0312499999999999
 40
-0.0312499999999999
 40
0.0
 40
0.0
 40
0.03125
 40
0.03125
 40
0.0625000000000001
 40
0.0625000000000001
 40
0.0937500000000001
 40
0.0937500000000001
 40
0.1250000000000001
 40
0.1250000000000001
 40
0.1874999999999999
 40
0.1874999999999999
 40
0.2187499999999998
 40
0.2187499999999998
 40
0.2499999999999996
 40
0.2499999999999996
 40
0.2812499999999995
 40
0.2812499999999995
 40
0.3124999999999993
 40
0.3124999999999993
 40
0.3437499999999992
 40
0.3437499999999992
 40
0.3749999999999991
 40
0.3749999999999991
 40
0.4062499999999989
 40
0.4062499999999989
 40
0.4374999999999991
 40
0.4374999999999991
 40
0.4687499999999991
 40
0.4687499999999991
 40
0.4999999999999992
 40
0.4999999999999992
 40
0.5312499999999992
 40
0.5312499999999992
 40
0.5624999999999993
 40
0.5624999999999993
 40
0.5937499999999993
 40
0.5937499999999993
 40
0.6249999999999993
 40
0.6249999999999993
 40
0.6562499999999994
 40
0.6562499999999994
 40
0.6874999999999994
 40
0.6874999999999994
 40
0.7187499999999994
 40
0.7187499999999994
 40
0.7499999999999994
 40
0.7499999999999994
 40
0.7812499999999997
 40
0.7812499999999997
 40
0.8124999999999998
 40
0.8124999999999998
 40
0.875
 40
0.875
 40
0.90625
 40
0.90625
 40
0.9375
 40
0.9375
 40
0.9687500000000001
 40
0.9687500000000001
 40
1.0
 40
1.0
 40
1.03125
 40
1.03125
 10
167.2550910898374
 20
130.6993243227999
 30
0.0
 10
166.8497337959418
 20
130.6993243227999
 30
0.0
 10
166.650673904606
 20
130.6793247631833
 30
0.0
 10
166.2594199200263
 20
130.6011812604832
 30
0.0
 10
166.0651471612786
 20
130.5420201589624
 30
0.0
 10
165.6963837347273
 20
130.3885884720681
 30
0.0
 10
165.521658576349
 20
130.2948616622259
 30
0.0
 10
165.1909812728153
 20
130.073607559821
 30
0.0
 10
165.0353337288124
 20
129.9456261928264
 30
0.0
 10
164.6158663591438
 20
129.5260710958264
 30
0.0
 10
164.3889782176134
 20
129.187592537123
 30
0.0
 10
164.1601815942287
 20
128.6377136494048
 30
0.0
 10
164.1009893393799
 20
128.4443138036614
 30
0.0
 10
164.0221819291193
 20
128.0500856533035
 30
0.0
 10
164.0025425128389
 20
127.8514468258711
 30
0.0
 10
164.0022836484173
 20
127.4511465399727
 30
0.0
 10
164.0223543330503
 20
127.2478072132516
 30
0.0
 10
164.1006920156802
 20
126.855715692644
 30
0.0
 10
164.1586417837187
 20
126.6650098243288
 30
0.0
 10
164.3125849255987
 20
126.2942860077422
 30
0.0
 10
164.4075235393214
 20
126.1175593479334
 30
0.0
 10
164.6278809551985
 20
125.788306237009
 30
0.0
 10
164.7551609811268
 20
125.6331850134126
 30
0.0
 10
165.0369165724574
 20
125.3515083184822
 30
0.0
 10
165.1897049019149
 20
125.2260751335778
 30
0.0
 10
165.5191319840718
 20
125.0052995402237
 30
0.0
 10
165.6976779872235
 20
124.9094682875235
 30
0.0
 10
166.0652503127737
 20
124.7566391570284
 30
0.0
 10
166.2554043394847
 20
124.6984673990842
 30
0.0
 10
166.6489447621871
 20
124.6194741067393
 30
0.0
 10
166.8513788334483
 20
124.5994109810971
 30
0.0
 10
167.2508079088137
 20
124.5992382349783
 30
0.0
 10
167.4508268873696
 20
124.6187216090676
 30
0.0
 10
167.846942834819
 20
124.6977131806688
 30
0.0
 10
168.0376756630108
 20
124.7559934005208
 30
0.0
 10
168.4053071035905
 20
124.9085610211288
 30
0.0
 10
168.5837935357583
 20
125.0041698079021
 30
0.0
 10
168.9139987947223
 20
125.2251818529871
 30
0.0
 10
169.0668873727843
 20
125.3506317517573
 30
0.0
 10
169.3484837673224
 20
125.6318622407626
 30
0.0
 10
169.4761146901978
 20
125.7872451186765
 30
0.0
 10
169.6964401251977
 20
126.1160959767194
 30
0.0
 10
169.790666582163
 20
126.2909840831334
 30
0.0
 10
169.9456011027661
 20
126.6631279344942
 30
0.0
 10
170.0036133883684
 20
126.8539339763032
 30
0.0
 10
170.0820326426465
 20
127.2448069942219
 30
0.0
 10
170.102346722613
 20
127.4472645556042
 30
0.0
 10
170.102477838917
 20
127.8493951605237
 30
0.0
 10
170.0828531455577
 20
128.0481192056988
 30
0.0
 10
170.004686695144
 20
128.4409586768354
 30
0.0
 10
169.9453992498041
 20
128.635602954238
 30
0.0
 10
169.7163184067212
 20
129.1870427076522
 30
0.0
 10
169.4894875558271
 20
129.5253822733514
 30
0.0
 10
169.0701488545064
 20
129.9450479360029
 30
0.0
 10
168.9147958587564
 20
130.0728939417762
 30
0.0
 10
168.5838280256192
 20
130.294495016478
 30
0.0
 10
168.4092667254229
 20
130.3881357504549
 30
0.0
 10
168.041693417848
 20
130.5412898711541
 30
0.0
 10
167.8470065562099
 20
130.6007936168002
 30
0.0
 10
167.4545306062735
 20
130.6793163658632
 30
0.0
 10
167.2550910898374
 20
130.6993243227999
 30
0.0
 10
166.8497337959418
 20
130.6993243227999
 30
0.0
  0
LINE
  5
114
330
1F
100
AcDbEntity
  8
0
  6
HIDDEN
 62
     7
370
     0
100
AcDbLine
 10
171.0524124429
 20
137.6493243007
 30
0.0
 11
171.0524124429
 21
117.6493243228
 31
0.0
  0
LINE
  5
115
330
1F
100
AcDbEntity
  8
0
  6
HIDDEN
 62
     7
370
     0
100
AcDbLine
 10
172.0524124429
 20
134.8993243228
 30
0.0
 11
172.0524124429
 21
120.3993243228
 31
0.0
  0
LINE
  5
116
330
1F
100
AcDbEntity
  8
0
  6
HIDDEN
 62
     7
370
     0
100
AcDbLine
 10
171.0524124429
 20
119.3993243228
 30
0.0
 11
171.0524124429
 21
135.8993243228
 31
0.0
  0
LINE
  5
117
330
1F
100
AcDbEntity
  8
0
  6
HIDDEN
 62
     7
370
     0
100
AcDbLine
 10
205.0524124429
 20
120.3993243228
 30
0.0
 11
205.0524124429
 21
134.8993243228
 31
0.0
  0
SPLINE
  5
118
330
1F
100
AcDbEntity
  8
0
  6
HIDDEN
 62
     7
370
     0
100
AcDbSpline
210
0.0
220
0.0
230
1.0
 70
     8
 71
     3
 72
    12
 73
     8
 74
     0
 42
0.00000001
 43
0.00000001
 12
1.0
 22
0.0
 32
0.0
 13
1.0
 23
0.0
 33
0.0
 40
0.0
 40
0.0
 40
0.0
 40
0.0
 40
0.2500000000000011
 40
0.2500000000000011
 40
0.5000000000000021
 40
0.5000000000000021
 40
1.0
 40
1.0
 40
1.0
 40
1.0
 10
214.1511108586955
 20
145.6359662375781
 30
0.0
 10
214.0994485694024
 20
145.7511103516139
 30
0.0
 10
214.0394331069363
 20
145.8768114421954
 30
0.0
 10
213.9097052916858
 20
146.1404688276425
 30
0.0
 10
213.8397365764153
 20
146.2788166735289
 30
0.0
 10
213.619610495439
 20
146.7061046250554
 30
0.0
 10
213.460226672264
 20
147.0062107442705
 30
0.0
 10
213.2850854549108
 20
147.3253352027077
 30
0.0
  0
LINE
  5
119
330
1F
100
AcDbEntity
  8
0
  6
HIDDEN
 62
     7
370
     0
100
AcDbLine
 10
227.3911690904
 20
102.8449533755
 30
0.0
 11
235.1709175425
 21
102.4372340358
 31
0.0
  0
LINE
  5
11A
330
1F
100
AcDbEntity
  8
0
  6
HIDDEN
 62
     7
370
     0
100
AcDbLine
 10
227.3673398497
 20
102.8830881323
 30
0.0
 11
227.3911690904
 21
102.8449533755
 31
0.0
  0
LINE
  5
11B
330
1F
100
AcDbEntity
  8
0
  6
HIDDEN
 62
     7
370
     0
100
AcDbLine
 10
229.5735780998
 20
93.6290725247
 30
0.0
 11
223.9707214886
 21
102.5955174208
 31
0.0
  0
LINE
  5
11C
330
1F
100
AcDbEntity
  8
0
  6
HIDDEN
 62
     7
370
     0
100
AcDbLine
 10
229.5735780998
 20
93.6290725247
 30
0.0
 11
229.5286720449
 21
93.6314259513
 31
0.0
  0
LINE
  5
11D
330
1F
100
AcDbEntity
  8
0
  6
HIDDEN
 62
     7
370
     0
100
AcDbLine
 10
227.3911690904
 20
102.8449533755
 30
0.0
 11
227.2387134678
 21
102.5861350877
 31
0.0
  0
ELLIPSE
  5
11E
330
1F
100
AcDbEntity
  8
0
  6
HIDDEN
 62
     7
370
     0
100
AcDbEllipse
 10
271.5024613053
 20
112.9018366978
 30
0.0
 11
38.05970883280622
 21
21.75919211935656
 31
0.0
210
0.0
220
0.0
230
1.0
 40
0.373927429
 41
2.564241902508853
 42
2.575147811833701
  0
LINE
  5
11F
330
1F
100
AcDbEntity
  8
0
  6
HIDDEN
 62
     7
370
     0
100
AcDbLine
 10
235.0208818933
 20
102.1782889225
 30
0.0
 11
227.2387134678
 21
102.5861350877
 31
0.0
  0
LINE
  5
120
330
1F
100
AcDbEntity
  8
0
  6
HIDDEN
 62
     7
370
     0
100
AcDbLine
 10
227.0425193859
 20
102.9001112514
 30
0.0
 11
227.2387134678
 21
102.5861350877
 31
0.0
  0
LINE
  5
121
330
1F
100
AcDbEntity
  8
0
  6
HIDDEN
 62
     7
370
     0
100
AcDbLine
 10
229.8613275362
 20
122.0745083767
 30
0.0
 11
232.9554984709
 21
122.0745083767
 31
0.0
  0
LINE
  5
122
330
1F
100
AcDbEntity
  8
0
  6
HIDDEN
 62
     7
370
     0
100
AcDbLine
 10
224.0798398122
 20
102.9236898846
 30
0.0
 11
229.7966205628
 21
93.7749282544
 31
0.0
  0
ELLIPSE
  5
123
330
1F
100
AcDbEntity
  8
0
  6
HIDDEN
 62
     7
370
     0
100
AcDbEllipse
 10
208.0474614223
 20
127.7768447575
 30
0.0
 11
-21.64480921375218
 21
34.09633474462844
 31
0.0
210
0.0
220
0.0
230
1.0
 40
0.1000778042
 41
3.109974016503476
 42
3.175916140475855
  0
SPLINE
  5
124
330
1F
100
AcDbEntity
  8
0
  6
HIDDEN
 62
     7
370
     0
100
AcDbSpline
210
0.0
220
0.0
230
1.0
 70
     8
 71
     3
 72
    18
 73
    14
 74
     0
 42
0.00000001
 43
0.00000001
 12
1.0
 22
0.0
 32
0.0
 13
1.0
 23
0.0
 33
0.0
 40
0.0
 40
0.0
 40
0.0
 40
0.0
 40
0.2500000000000002
 40
0.2500000000000002
 40
0.3750000000000001
 40
0.3750000000000001
 40
0.5000000000000001
 40
0.5000000000000001
 40
0.7499999999999998
 40
0.7499999999999998
 40
0.8749999999999999
 40
0.8749999999999999
 40
1.0
 40
1.0
 40
1.0
 40
1.0
 10
216.0346201860202
 20
107.665306562549
 30
0.0
 10
216.0526486058558
 20
105.6747426503303
 30
0.0
 10
216.071832549733
 20
103.8854069345885
 30
0.0
 10
216.1021334556988
 20
101.4921158995217
 30
0.0
 10
216.1124904995046
 20
100.7432569202094
 30
0.0
 10
216.1337131191512
 20
99.34707900958729
 30
0.0
 10
216.1443993613683
 20
98.7116938674807
 30
0.0
 10
216.1765395484693
 20
96.99325284884839
 30
0.0
 10
216.1981182573982
 20
96.09260202924347
 30
0.0
 10
216.230619229322
 20
95.12224064417563
 30
0.0
 10
216.2413433827584
 20
94.866996818465
 30
0.0
 10
216.262454745162
 20
94.49365027590261
 30
0.0
 10
216.2728602992809
 20
94.37499399875504
 30
0.0
 10
216.2831104407174
 20
94.32559642033667
 30
0.0
  0
LINE
  5
125
330
1F
100
AcDbEntity
  8
0
  6
HIDDEN
 62
     7
370
     0
100
AcDbLine
 10
234.8321969268
 20
102.1881774826
 30
0.0
 11
235.0208818933
 21
102.1782889225
 31
0.0
  0
LINE
  5
126
330
1F
100
AcDbEntity
  8
0
  6
HIDDEN
 62
     7
370
     0
100
AcDbLine
 10
229.6714704417
 20
93.9752103146
 30
0.0
 11
229.7966205628
 21
93.7749282544
 31
0.0
  0
SPLINE
  5
127
330
1F
100
AcDbEntity
  8
0
  6
HIDDEN
 62
     7
370
     0
100
AcDbSpline
210
0.0
220
0.0
230
1.0
 70
     8
 71
     3
 72
    22
 73
    18
 74
     0
 42
0.00000001
 43
0.00000001
 12
1.0
 22
0.0
 32
0.0
 13
1.0
 23
0.0
 33
0.0
 40
0.0
 40
0.0
 40
0.0
 40
0.0
 40
0.0350088553429316
 40
0.0697721293955544
 40
0.1042911305000337
 40
0.138567194971188
 40
0.1726016877399376
 40
0.2154632614341618
 40
0.2579613358572952
 40
0.385596707014894
 40
0.510324805301607
 40
0.6351067307632126
 40
0.7574579222704518
 40
0.8188236172409895
 40
0.8796916133632446
 40
0.9400781853051666
 40
1.0
 40
1.0
 40
1.0
 40
1.0
 10
234.575329397089
 20
98.80101745892077
 30
0.0
 10
234.6480709739232
 20
98.70978588326695
 30
0.0
 10
234.7930438575437
 20
98.52796270626996
 30
0.0
 10
235.0064172704135
 20
98.26276779945218
 30
0.0
 10
235.2158143747669
 20
98.00430970562404
 30
0.0
 10
235.4210013829019
 20
97.75302994756038
 30
0.0
 10
235.6398903522975
 20
97.48709373491037
 30
0.0
 10
235.8713023986898
 20
97.2085808309339
 30
0.0
 10
236.2766489487333
 20
96.72609475788305
 30
0.0
 10
236.816629566275
 20
96.0985439607041
 30
0.0
 10
237.4634011207067
 20
95.37800384949719
 30
0.0
 10
238.0547792010579
 20
94.75245966931931
 30
0.0
 10
238.504445221322
 20
94.30739649994223
 30
0.0
 10
238.8351217987723
 20
94.00019303540181
 30
0.0
 10
239.068519825144
 20
93.79453250186054
 30
0.0
 10
239.2876602223778
 20
93.61217092479033
 30
0.0
 10
239.4215858675399
 20
93.51108186684256
 30
0.0
 10
239.4882900094259
 20
93.46073259388363
 30
0.0
  0
SPLINE
  5
128
330
1F
100
AcDbEntity
  8
0
  6
HIDDEN
 62
     7
370
     0
100
AcDbSpline
210
0.0
220
0.0
230
1.0
 70
     8
 71
     3
 72
    21
 73
    17
 74
     0
 42
0.00000001
 43
0.00000001
 12
1.0
 22
0.0
 32
0.0
 13
1.0
 23
0.0
 33
0.0
 40
0.0
 40
0.0
 40
0.0
 40
0.0
 40
0.0300827610921031
 40
0.0602190178392796
 40
0.0904161000526681
 40
0.1206812933501786
 40
0.181400813671568
 40
0.2424333545173312
 40
0.3653482163394155
 40
0.4895258043654195
 40
0.6150347982864112
 40
0.741926513278485
 40
0.8058853710189432
 40
0.8702470509991749
 40
0.9349274212038003
 40
0.9999999999999999
 40
0.9999999999999999
 40
0.9999999999999999
 40
0.9999999999999999
 10
239.746391234951
 20
93.90481794721856
 30
0.0
 10
239.7132022703528
 20
93.92937571719591
 30
0.0
 10
239.6467653217931
 20
93.97853492780933
 30
0.0
 10
239.5426155883036
 20
94.05984381673856
 30
0.0
 10
239.4350775303563
 20
94.14676537693926
 30
0.0
 10
239.2866213440353
 20
94.2709704832819
 30
0.0
 10
239.0919645356693
 20
94.44132396761223
 30
0.0
 10
238.7610299884482
 20
94.74623875899321
 30
0.0
 10
238.3116771322675
 20
95.18739879600729
 30
0.0
 10
237.7190080665717
 20
95.80897538105947
 30
0.0
 10
237.0732713195901
 20
96.52221975606965
 30
0.0
 10
236.4940843520697
 20
97.18945119775294
 30
0.0
 10
236.0064513073567
 20
97.76634245991595
 30
0.0
 10
235.6275224724115
 20
98.22203375807395
 30
0.0
 10
235.2374023418566
 20
98.69772607890441
 30
0.0
 10
234.9688571344997
 20
99.03092440484326
 30
0.0
 10
234.8341786605179
 20
99.19802715269125
 30
0.0
  0
CIRCLE
  5
129
330
1F
100
AcDbEntity
  8
0
  6
HIDDEN
 62
     7
370
     0
100
AcDbCircle
 10
232.4014191073
 20
97.9095308276
 30
0.0
 40
2.399999999999991
  0
LINE
  5
12A
330
1F
100
AcDbEntity
  8
0
  6
HIDDEN
 62
     7
370
     0
100
AcDbLine
 10
236.4388270125
 20
99.1980271524
 30
0.0
 11
239.7463912228
 21
93.9048179396
 31
0.0
  0
LINE
  5
12B
330
1F
100
AcDbEntity
  8
0
  6
HIDDEN
 62
     7
370
     0
100
AcDbLine
 10
239.4882900031
 20
93.4607329485
 30
0.0
 11
239.7463912019
 21
93.9048179664
 31
0.0
  0
ARC
  5
12C
330
1F
100
AcDbEntity
  8
0
  6
HIDDEN
 62
     7
370
     0
100
AcDbCircle
 10
224.8548103735
 20
104.0423276299
 30
0.0
 40
1.250000000000003
100
AcDbArc
 50
32.0
 51
212.0
  0
LINE
  5
12D
330
1F
100
AcDbEntity
  8
0
  6
HIDDEN
 62
     7
370
     0
100
AcDbLine
 10
227.2387134678
 20
102.5861350877
 30
0.0
 11
225.9148704937
 21
104.7047267102
 31
0.0
  0
LINE
  5
12E
330
1F
100
AcDbEntity
  8
0
  6
HIDDEN
 62
     7
370
     0
100
AcDbLine
 10
223.7947502533
 20
103.3799285497
 30
0.0
 11
229.6714704417
 21
93.9752103146
 31
0.0
  0
LINE
  5
12F
330
1F
100
AcDbEntity
  8
0
  6
HIDDEN
 62
     7
370
     0
100
AcDbLine
 10
234.8321969268
 20
102.1881774826
 30
0.0
 11
227.2387134678
 21
102.5861350877
 31
0.0
  0
LINE
  5
130
330
1F
100
AcDbEntity
  8
0
  6
HIDDEN
 62
     7
370
     0
100
AcDbLine
 10
229.6714704417
 20
93.9752103146
 30
0.0
 11
239.488289985
 21
93.4607326027
 31
0.0
  0
ELLIPSE
  5
131
330
1F
100
AcDbEntity
  8
0
  6
HIDDEN
 62
     7
370
     0
100
AcDbEllipse
 10
258.7001345944
 20
112.9018366978
 30
0.0
 11
26.19525546193006
 21
0.0
 31
1.896260926059767E-13
210
-7.238948017955505E-15
220
0.0
230
1.0
 40
0.9925461516
 41
3.566310613576444
 42
3.696741263369101
  0
CIRCLE
  5
132
330
1F
100
AcDbEntity
  8
0
  6
HIDDEN
 62
     7
370
     0
100
AcDbCircle
 10
232.4014191073
 20
97.9095308276
 30
0.0
 40
1.649999999999991
  0
LINE
  5
133
330
1F
100
AcDbEntity
  8
0
  6
HIDDEN
 62
     7
370
     0
100
AcDbLine
 10
178.8524124429
 20
145.1694231074
 30
0.0
 11
178.8524124429
 21
140.0292706196
 31
0.0
  0
SPLINE
  5
134
330
1F
100
AcDbEntity
  8
0
  6
HIDDEN
 62
     7
370
     0
100
AcDbSpline
210
0.0
220
0.0
230
1.0
 70
     8
 71
     3
 72
    18
 73
    14
 74
     0
 42
0.00000001
 43
0.00000001
 12
1.0
 22
0.0
 32
0.0
 13
1.0
 23
0.0
 33
0.0
 40
0.0
 40
0.0
 40
0.0
 40
0.0
 40
0.2499999999999998
 40
0.2499999999999998
 40
0.3749999999999997
 40
0.3749999999999997
 40
0.4999999999999997
 40
0.4999999999999997
 40
0.6249999999999997
 40
0.6249999999999997
 40
0.7499999999999996
 40
0.7499999999999996
 40
1.0
 40
1.0
 40
1.0
 40
1.0
 10
179.73109209933
 20
144.9462341908047
 30
0.0
 10
179.5958064930277
 20
144.8748814491152
 30
0.0
 10
179.4946387467847
 20
144.7294780425258
 30
0.0
 10
179.3917774039158
 20
144.4000108069201
 30
0.0
 10
179.3656745583925
 20
144.2710772301154
 30
0.0
 10
179.3307845748477
 20
143.9755352307793
 30
0.0
 10
179.3221983165577
 20
143.8111404572574
 30
0.0
 10
179.322098606992
 20
143.4501788425167
 30
0.0
 10
179.3305869781406
 20
143.2536090503546
 30
0.0
 10
179.3647303576612
 20
142.8282542542296
 30
0.0
 10
179.390527339515
 20
142.59848460443
 30
0.0
 10
179.4939284709029
 20
141.8658959099976
 30
0.0
 10
179.5957864630743
 20
141.32865913508
 30
0.0
 10
179.73109209933
 20
140.7443710463324
 30
0.0
  0
LINE
  5
135
330
1F
100
AcDbEntity
  8
0
  6
HIDDEN
 62
     7
370
     0
100
AcDbLine
 10
152.5524124429
 20
144.5086755647
 30
0.0
 11
152.5524124429
 21
139.6988968483
 31
0.0
  0
LINE
  5
136
330
1F
100
AcDbEntity
  8
0
  6
HIDDEN
 62
     7
370
     0
100
AcDbLine
 10
151.0524124429
 20
143.642650161
 30
0.0
 11
151.0524124429
 21
139.2658841464
 31
0.0
  0
LINE
  5
137
330
1F
100
AcDbEntity
  8
0
  6
HIDDEN
 62
     7
370
     0
100
AcDbLine
 10
152.5524124429
 20
115.5997517973
 30
0.0
 11
152.5524124429
 21
110.7899730809
 31
0.0
  0
LINE
  5
138
330
1F
100
AcDbEntity
  8
0
  6
HIDDEN
 62
     7
370
     0
100
AcDbLine
 10
151.0524124429
 20
116.0327644992
 30
0.0
 11
151.0524124429
 21
111.6559984846
 31
0.0
  0
SPLINE
  5
139
330
1F
100
AcDbEntity
  8
0
  6
HIDDEN
 62
     7
370
     0
100
AcDbSpline
210
0.0
220
0.0
230
1.0
 70
     8
 71
     3
 72
    18
 73
    14
 74
     0
 42
0.00000001
 43
0.00000001
 12
1.0
 22
0.0
 32
0.0
 13
1.0
 23
0.0
 33
0.0
 40
0.0
 40
0.0
 40
0.0
 40
0.0
 40
0.2499999999999997
 40
0.2499999999999997
 40
0.3749999999999993
 40
0.3749999999999993
 40
0.4999999999999989
 40
0.4999999999999989
 40
0.6249999999999991
 40
0.6249999999999991
 40
0.7499999999999994
 40
0.7499999999999994
 40
1.0
 40
1.0
 40
1.0
 40
1.0
 10
179.73109209933
 20
114.5542775992675
 30
0.0
 10
179.5958064930277
 20
113.9700760055358
 30
0.0
 10
179.4946387467847
 20
113.4358583183276
 30
0.0
 10
179.3917774039158
 20
112.7099615474393
 30
0.0
 10
179.3656745583925
 20
112.4800810596593
 30
0.0
 10
179.3307845748477
 20
112.0495101148725
 30
0.0
 10
179.3221983165577
 20
111.8518152093784
 30
0.0
 10
179.322098606992
 20
111.4904671667006
 30
0.0
 10
179.3305869781406
 20
111.3268171567544
 30
0.0
 10
179.3647303576612
 20
111.0336058837855
 30
0.0
 10
179.390527339515
 20
110.9036098176697
 30
0.0
 10
179.4939284709029
 20
110.5695539251077
 30
0.0
 10
179.5957864630743
 20
110.423777760743
 30
0.0
 10
179.73109209933
 20
110.3524144547951
 30
0.0
  0
LINE
  5
13A
330
1F
100
AcDbEntity
  8
0
  6
HIDDEN
 62
     7
370
     0
100
AcDbLine
 10
178.8524124429
 20
115.269378026
 30
0.0
 11
178.8524124429
 21
110.1292255382
 31
0.0
  0
SPLINE
  5
13B
330
1F
100
AcDbEntity
  8
0
  6
HIDDEN
 62
     7
370
     0
100
AcDbSpline
210
0.0
220
0.0
230
1.0
 70
     8
 71
     3
 72
    22
 73
    18
 74
     0
 42
0.00000001
 43
0.00000001
 12
1.0
 22
0.0
 32
0.0
 13
1.0
 23
0.0
 33
0.0
 40
0.0
 40
0.0
 40
0.0
 40
0.0
 40
0.125
 40
0.125
 40
0.25
 40
0.25
 40
0.375
 40
0.375
 40
0.5
 40
0.5
 40
0.625
 40
0.625
 40
0.75
 40
0.75
 40
0.875
 40
0.875
 40
1.0
 40
1.0
 40
1.0
 40
1.0
 10
231.1212614846399
 20
96.86852340157914
 30
0.0
 10
231.1755539388726
 20
96.80175836475091
 30
0.0
 10
231.2366189018961
 20
96.73712421293759
 30
0.0
 10
231.3769792214177
 20
96.61268090998453
 30
0.0
 10
231.4559689459066
 20
96.5528230337574
 30
0.0
 10
231.6438809763153
 20
96.43960973255757
 30
0.0
 10
231.7521936418535
 20
96.38671725520793
 30
0.0
 10
232.0064144733699
 20
96.30191575538346
 30
0.0
 10
232.1573708846127
 20
96.27002973475956
 30
0.0
 10
232.473315624039
 20
96.2535253145331
 30
0.0
 10
232.6258385910138
 20
96.26930677747877
 30
0.0
 10
232.889286252918
 20
96.32754325258448
 30
0.0
 10
233.0007440286292
 20
96.36834616754025
 30
0.0
 10
233.1987510531838
 20
96.46084097610833
 30
0.0
 10
233.284425066293
 20
96.51252549929357
 30
0.0
 10
233.4372667205083
 20
96.62176410448721
 30
0.0
 10
233.504782036554
 20
96.679695959253
 30
0.0
 10
233.5657489860828
 20
96.74041324014337
 30
0.0
  0
LINE
  5
13C
330
1F
100
AcDbEntity
  8
0
  6
HIDDEN
 62
     7
370
     0
100
AcDbLine
 10
151.0524124429
 20
139.2658841464
 30
0.0
 11
151.0524124429
 21
129.988495251
 31
0.0
  0
LINE
  5
13D
330
1F
100
AcDbEntity
  8
0
  6
HIDDEN
 62
     7
370
     0
100
AcDbLine
 10
151.0524124429
 20
125.3101533946
 30
0.0
 11
151.0524124429
 21
116.0327644992
 31
0.0
  0
LINE
  5
13E
330
1F
100
AcDbEntity
  8
0
  6
HIDDEN
 62
     7
370
     0
100
AcDbLine
 10
152.5524124429
 20
124.5008472045
 30
0.0
 11
152.5524124429
 21
115.5997517973
 31
0.0
  0
LINE
  5
13F
330
1F
100
AcDbEntity
  8
0
  6
HIDDEN
 62
     7
370
     0
100
AcDbLine
 10
152.5524124429
 20
139.6988968483
 30
0.0
 11
152.5524124429
 21
130.7978014411
 31
0.0
  0
LINE
  5
140
330
1F
100
AcDbEntity
  8
0
  6
HIDDEN
 62
     7
370
     0
100
AcDbLine
 10
178.8524124429
 20
140.0292706196
 30
0.0
 11
178.8524124429
 21
115.269378026
 31
0.0
  0
LINE
  5
141
330
1F
100
AcDbEntity
  8
0
  6
HIDDEN
 62
     7
370
     0
100
AcDbLine
 10
180.8524124429
 20
139.2115985559
 30
0.0
 11
180.8524124429
 21
116.0870500897
 31
0.0
  0
ARC
  5
142
330
1F
100
AcDbEntity
  8
0
  6
HIDDEN
 62
     7
370
     0
100
AcDbCircle
 10
232.4014191073
 20
97.9095308276
 30
0.0
 40
1.649999999999988
100
AcDbArc
 50
314.882442128
 51
219.117557872
  0
SPLINE
  5
143
330
1F
100
AcDbEntity
  8
0
  6
HIDDEN
 62
     7
370
     0
100
AcDbSpline
210
0.0
220
0.0
230
1.0
 70
     8
 71
     3
 72
    18
 73
    14
 74
     0
 42
0.00000001
 43
0.00000001
 12
1.0
 22
0.0
 32
0.0
 13
1.0
 23
0.0
 33
0.0
 40
0.0
 40
0.0
 40
0.0
 40
0.0
 40
0.2500000000000013
 40
0.2500000000000013
 40
0.375000000000001
 40
0.375000000000001
 40
0.5000000000000008
 40
0.5000000000000008
 40
0.6250000000000006
 40
0.6250000000000006
 40
0.7500000000000002
 40
0.7500000000000002
 40
1.0
 40
1.0
 40
1.0
 40
1.0
 10
233.5657489860828
 20
96.74041324014337
 30
0.0
 10
233.3777258707564
 20
96.80203280958155
 30
0.0
 10
233.1877009875581
 20
96.86347070091107
 30
0.0
 10
232.8905478017804
 20
96.94611502122862
 30
0.0
 10
232.7896290324086
 20
96.97195403568013
 30
0.0
 10
232.5781218682501
 20
97.01428473406027
 30
0.0
 10
232.4671345162988
 20
97.03014167924894
 30
0.0
 10
232.2440716977431
 20
97.0418279404616
 30
0.0
 10
232.1312033555755
 20
97.0375888622334
 30
0.0
 10
231.9174924353541
 20
97.01767062754405
 30
0.0
 10
231.8134823825608
 20
97.00240317236204
 30
0.0
 10
231.5090004985247
 20
96.9511762195594
 30
0.0
 10
231.3144680547861
 20
96.91010267855462
 30
0.0
 10
231.1212614846396
 20
96.86852340157922
 30
0.0
  0
SPLINE
  5
144
330
1F
100
AcDbEntity
  8
0
  6
HIDDEN
 62
     7
370
     0
100
AcDbSpline
210
0.0
220
0.0
230
1.0
 70
     8
 71
     3
 72
     8
 73
     4
 74
     0
 42
0.00000001
 43
0.00000001
 12
1.0
 22
0.0
 32
0.0
 13
1.0
 23
0.0
 33
0.0
 40
0.0000202085968836
 40
0.0000202085968836
 40
0.0000202085968836
 40
0.0000202085968836
 40
0.0040218806502652
 40
0.0040218806502652
 40
0.0040218806502652
 40
0.0040218806502652
 10
152.5524124428896
 20
124.5008472044632
 30
0.0
 10
153.8857355686803
 20
124.4768489732996
 30
0.0
 10
155.2190694419028
 20
124.4535212331313
 30
0.0
 10
156.5524124428896
 20
124.4308265623509
 30
0.0
  0
SPLINE
  5
145
330
1F
100
AcDbEntity
  8
0
  6
HIDDEN
 62
     7
370
     0
100
AcDbSpline
210
0.0
220
0.0
230
1.0
 70
     8
 71
     3
 72
     8
 73
     4
 74
     0
 42
0.00000001
 43
0.00000001
 12
1.0
 22
0.0
 32
0.0
 13
1.0
 23
0.0
 33
0.0
 40
0.0000202082942178
 40
0.0000202082942178
 40
0.0000202082942178
 40
0.0000202082942178
 40
0.0040218803475994
 40
0.0040218803475994
 40
0.0040218803475994
 40
0.0040218803475994
 10
156.5524124428896
 20
130.867822083249
 30
0.0
 10
155.2190694419028
 20
130.8451274124686
 30
0.0
 10
153.8857355686803
 20
130.8217996723003
 30
0.0
 10
152.5524124428896
 20
130.7978014411366
 30
0.0
  0
SPLINE
  5
146
330
1F
100
AcDbEntity
  8
0
  6
HIDDEN
 62
     7
370
     0
100
AcDbSpline
210
0.0
220
0.0
230
1.0
 70
     8
 71
     3
 72
     8
 73
     4
 74
     0
 42
0.00000001
 43
0.00000001
 12
1.0
 22
0.0
 32
0.0
 13
1.0
 23
0.0
 33
0.0
 40
0.0
 40
0.0
 40
0.0
 40
0.0
 40
1.0
 40
1.0
 40
1.0
 40
1.0
 10
151.0524124428896
 20
125.3101533945649
 30
0.0
 10
151.5266238533273
 20
124.9754241672701
 30
0.0
 10
152.0313602004289
 20
124.7163657534374
 30
0.0
 10
152.5524124428896
 20
124.5008472044632
 30
0.0
  0
SPLINE
  5
147
330
1F
100
AcDbEntity
  8
0
  6
HIDDEN
 62
     7
370
     0
100
AcDbSpline
210
0.0
220
0.0
230
1.0
 70
     8
 71
     3
 72
     8
 73
     4
 74
     0
 42
0.00000001
 43
0.00000001
 12
1.0
 22
0.0
 32
0.0
 13
1.0
 23
0.0
 33
0.0
 40
0.0
 40
0.0
 40
0.0
 40
0.0
 40
1.0
 40
1.0
 40
1.0
 40
1.0
 10
152.5524124428896
 20
130.7978014411366
 30
0.0
 10
152.0313602004289
 20
130.5822828921625
 30
0.0
 10
151.5266238533273
 20
130.3232244783298
 30
0.0
 10
151.0524124428896
 20
129.9884952510349
 30
0.0
  0
LINE
  5
148
330
1F
100
AcDbEntity
  8
0
  6
HIDDEN
 62
     7
370
     0
100
AcDbLine
 10
151.0524124429
 20
125.3101533946
 30
0.0
 11
151.0524124429
 21
129.988495251
 31
0.0
  0
LINE
  5
149
330
1F
100
AcDbEntity
  8
0
  6
HIDDEN
 62
     7
370
     0
100
AcDbLine
 10
156.5524124429
 20
124.4308265624
 30
0.0
 11
156.5524124429
 21
130.8678220832
 31
0.0
  0
SPLINE
  5
14A
330
1F
100
AcDbEntity
  8
0
  6
HIDDEN
 62
     7
370
     0
100
AcDbSpline
210
0.0
220
0.0
230
1.0
 70
     8
 71
     3
 72
    26
 73
    22
 74
     0
 42
0.00000001
 43
0.00000001
 12
1.0
 22
0.0
 32
0.0
 13
1.0
 23
0.0
 33
0.0
 40
0.0
 40
0.0
 40
0.0
 40
0.0
 40
0.1249999999999998
 40
0.1249999999999998
 40
0.2499999999999996
 40
0.2499999999999996
 40
0.3749999999999993
 40
0.3749999999999993
 40
0.4374999999999992
 40
0.4374999999999992
 40
0.4999999999999991
 40
0.4999999999999991
 40
0.562499999999999
 40
0.562499999999999
 40
0.6249999999999989
 40
0.6249999999999989
 40
0.7499999999999992
 40
0.7499999999999992
 40
0.8749999999999997
 40
0.8749999999999997
 40
1.0
 40
1.0
 40
1.0
 40
1.0
 10
156.5524124428896
 20
124.4308265623509
 30
0.0
 10
156.7630558048895
 20
124.6654435932959
 30
0.0
 10
156.9702522426466
 20
124.9033267292554
 30
0.0
 10
157.3717513772789
 20
125.3906410355242
 30
0.0
 10
157.5670277963249
 20
125.6407662603133
 30
0.0
 10
157.9268082890204
 20
126.1593564057642
 30
0.0
 10
158.0920671491697
 20
126.426787389651
 30
0.0
 10
158.2847250585959
 20
126.8582025220496
 30
0.0
 10
158.3396897988059
 20
127.0082214039739
 30
0.0
 10
158.4174255837701
 20
127.3209585827039
 30
0.0
 10
158.4386917220784
 20
127.4787128295112
 30
0.0
 10
158.4405856513642
 20
127.797418109357
 30
0.0
 10
158.4203599142971
 20
127.9598549095375
 30
0.0
 10
158.3458955040113
 20
128.2708069091202
 30
0.0
 10
158.2922563782653
 20
128.4214781474478
 30
0.0
 10
158.0975120728647
 20
128.8635619054164
 30
0.0
 10
157.9304619596864
 20
129.1336059185842
 30
0.0
 10
157.5702058409828
 20
129.6537135468656
 30
0.0
 10
157.3754534659624
 20
129.9033747596752
 30
0.0
 10
156.9724442414901
 20
130.392798871518
 30
0.0
 10
156.7640077231266
 20
130.6321447946819
 30
0.0
 10
156.5524124428906
 20
130.8678220832498
 30
0.0
  0
SPLINE
  5
14B
330
1F
100
AcDbEntity
  8
0
  6
HIDDEN
 62
     7
370
     0
100
AcDbSpline
210
0.0
220
0.0
230
1.0
 70
     8
 71
     3
 72
    68
 73
    64
 74
     0
 42
0.00000001
 43
0.00000001
 12
1.0
 22
0.0
 32
0.0
 13
1.0
 23
0.0
 33
0.0
 40
-0.0312499999999999
 40
-0.0312499999999999
 40
0.0
 40
0.0
 40
0.0312500000000001
 40
0.0312500000000001
 40
0.0625000000000002
 40
0.0625000000000002
 40
0.0937500000000003
 40
0.0937500000000003
 40
0.1250000000000004
 40
0.1250000000000004
 40
0.1562500000000004
 40
0.1562500000000004
 40
0.1875000000000006
 40
0.1875000000000006
 40
0.2500000000000005
 40
0.2500000000000005
 40
0.2812500000000006
 40
0.2812500000000006
 40
0.3125000000000005
 40
0.3125000000000005
 40
0.3437500000000005
 40
0.3437500000000005
 40
0.3750000000000004
 40
0.3750000000000004
 40
0.4062500000000004
 40
0.4062500000000004
 40
0.4375000000000004
 40
0.4375000000000004
 40
0.4687500000000004
 40
0.4687500000000004
 40
0.5000000000000004
 40
0.5000000000000004
 40
0.5312500000000004
 40
0.5312500000000004
 40
0.5625000000000004
 40
0.5625000000000004
 40
0.5937500000000003
 40
0.5937500000000003
 40
0.6250000000000003
 40
0.6250000000000003
 40
0.6562500000000003
 40
0.6562500000000003
 40
0.6875000000000003
 40
0.6875000000000003
 40
0.7187500000000003
 40
0.7187500000000003
 40
0.7500000000000002
 40
0.7500000000000002
 40
0.7812500000000002
 40
0.7812500000000002
 40
0.8125000000000002
 40
0.8125000000000002
 40
0.8437500000000002
 40
0.8437500000000002
 40
0.8750000000000002
 40
0.8750000000000002
 40
0.9062500000000002
 40
0.9062500000000002
 40
0.9375000000000001
 40
0.9375000000000001
 40
0.9687500000000001
 40
0.9687500000000001
 40
1.0
 40
1.0
 40
1.03125
 40
1.03125
 10
164.7721731076333
 20
129.9072120137916
 30
0.0
 10
165.1070606273061
 20
130.1784532505386
 30
0.0
 10
165.2853268492418
 20
130.2960945434103
 30
0.0
 10
165.6623515461351
 20
130.4974260674201
 30
0.0
 10
165.8625402675115
 20
130.5812342706337
 30
0.0
 10
166.2692083071424
 20
130.7093262942022
 30
0.0
 10
166.4771234731625
 20
130.7546310911622
 30
0.0
 10
166.902111772386
 20
130.8077888024678
 30
0.0
 10
167.1181484233699
 20
130.8150709865033
 30
0.0
 10
167.5426593922215
 20
130.791523548966
 30
0.0
 10
167.7531863656113
 20
130.7610193464891
 30
0.0
 10
168.1706715763983
 20
130.6611597330219
 30
0.0
 10
168.3735351099767
 20
130.5925638452611
 30
0.0
 10
168.9548516289915
 20
130.3352224020422
 30
0.0
 10
169.3152588817672
 20
130.0886725107322
 30
0.0
 10
169.7599978785288
 20
129.6354339546573
 30
0.0
 10
169.8951870986714
 20
129.4678533751809
 30
0.0
 10
170.1281269732737
 20
129.1089913002696
 30
0.0
 10
170.2248103189284
 20
128.9202327799154
 30
0.0
 10
170.3780415835778
 20
128.5237191037071
 30
0.0
 10
170.434658540946
 20
128.3133746946203
 30
0.0
 10
170.5001107427808
 20
127.8919861663374
 30
0.0
 10
170.510069101408
 20
127.6794700471737
 30
0.0
 10
170.4832350922409
 20
127.2506952720735
 30
0.0
 10
170.4462154284681
 20
127.0381290439266
 30
0.0
 10
170.3290521494313
 20
126.6288343998486
 30
0.0
 10
170.2475132719364
 20
126.4279857281409
 30
0.0
 10
170.0462740605324
 20
126.0508589696298
 30
0.0
 10
169.9273423253616
 20
125.8746386481002
 30
0.0
 10
169.6541685122694
 20
125.5458825271181
 30
0.0
 10
169.5003077375592
 20
125.3945843592186
 30
0.0
 10
169.1703851395432
 20
125.1269972057392
 30
0.0
 10
168.9920633144716
 20
125.0085260450285
 30
0.0
 10
168.6140393145492
 20
124.8056392410937
 30
0.0
 10
168.418110315768
 20
124.7230202866456
 30
0.0
 10
168.0130250279337
 20
124.5935801101149
 30
0.0
 10
167.8016902300637
 20
124.5466048796843
 30
0.0
 10
167.3778054404113
 20
124.4918899247661
 30
0.0
 10
167.1653701671491
 20
124.483660176323
 30
0.0
 10
166.739518099854
 20
124.5051516741238
 30
0.0
 10
166.5243739364444
 20
124.5355492963422
 30
0.0
 10
166.1092443967041
 20
124.6332917532304
 30
0.0
 10
165.9076194309603
 20
124.7004102669792
 30
0.0
 10
165.5165329316893
 20
124.8720533671395
 30
0.0
 10
165.3267133227983
 20
124.9773994259242
 30
0.0
 10
164.9761227026267
 20
125.2181023676188
 30
0.0
 10
164.8131162229801
 20
125.3542252439514
 30
0.0
 10
164.5130539002915
 20
125.6598787131855
 30
0.0
 10
164.3777850030872
 20
125.8283303926743
 30
0.0
 10
164.1468410502544
 20
126.1846110789578
 30
0.0
 10
164.0493588307821
 20
126.3743647583645
 30
0.0
 10
163.8943762713776
 20
126.7769731206487
 30
0.0
 10
163.8395097505604
 20
126.9828128643217
 30
0.0
 10
163.7741018798963
 20
127.4033925006441
 30
0.0
 10
163.7639556340632
 20
127.6208943179418
 30
0.0
 10
163.7906239966028
 20
128.0476344569024
 30
0.0
 10
163.8266613884293
 20
128.2575371659897
 30
0.0
 10
163.9440725339972
 20
128.6704259866481
 30
0.0
 10
164.0252000686154
 20
128.870748931432
 30
0.0
 10
164.2249571128048
 20
129.2469874498971
 30
0.0
 10
164.3454596119309
 20
129.4264421951449
 30
0.0
 10
164.6195400572968
 20
129.7567901232347
 30
0.0
 10
164.7721731076333
 20
129.9072120137916
 30
0.0
 10
165.1070606273061
 20
130.1784532505386
 30
0.0
  0
CIRCLE
  5
14C
330
1F
100
AcDbEntity
  8
0
  6
HIDDEN
 62
     7
370
     0
100
AcDbCircle
 10
167.0524124429
 20
127.6493243228
 30
0.0
 40
3.049999999999997
  0
SPLINE
  5
14D
330
1F
100
AcDbEntity
  8
0
  6
HIDDEN
 62
     7
370
     0
100
AcDbSpline
210
0.0
220
0.0
230
1.0
 70
     8
 71
     3
 72
    20
 73
    16
 74
     0
 42
0.00000001
 43
0.00000001
 12
1.0
 22
0.0
 32
0.0
 13
1.0
 23
0.0
 33
0.0
 40
0.0
 40
0.0
 40
0.0
 40
0.0
 40
0.0414500466779382
 40
0.08344655061583
 40
0.1259946456000663
 40
0.1880643690882577
 40
0.2514912182140889
 40
0.3762968260603616
 40
0.5007484604411969
 40
0.625119937119553
 40
0.7496470211720732
 40
0.8105497832931045
 40
0.8745452200924528
 40
0.9350085025576965
 40
1.0
 40
1.0
 40
1.0
 40
1.0
 10
230.2413194246162
 20
106.920765004196
 30
0.0
 10
230.2843751760268
 20
106.7862208638831
 30
0.0
 10
230.3710543049384
 20
106.5153588187347
 30
0.0
 10
230.5094756907878
 20
106.1135527493255
 30
0.0
 10
230.6767347579075
 20
105.6522697692232
 30
0.0
 10
230.8777293442547
 20
105.1333236610121
 30
0.0
 10
231.1922924771985
 20
104.3776491373943
 30
0.0
 10
231.6121182007342
 20
103.4662428028352
 30
0.0
 10
232.1504998662384
 20
102.4292845233188
 30
0.0
 10
232.7198580582697
 20
101.4450037371341
 30
0.0
 10
233.2141234571512
 20
100.6712421463137
 30
0.0
 10
233.6226448679898
 20
100.0739049147802
 30
0.0
 10
233.9309842652965
 20
99.643032442389
 30
0.0
 10
234.2501220822071
 20
99.21475372050087
 30
0.0
 10
234.4643495032268
 20
98.94220866607006
 30
0.0
 10
234.575329418823
 20
98.80101746378183
 30
0.0
  0
SPLINE
  5
14E
330
1F
100
AcDbEntity
  8
0
  6
HIDDEN
 62
     7
370
     0
100
AcDbSpline
210
0.0
220
0.0
230
1.0
 70
     8
 71
     3
 72
    20
 73
    16
 74
     0
 42
0.00000001
 43
0.00000001
 12
1.0
 22
0.0
 32
0.0
 13
1.0
 23
0.0
 33
0.0
 40
0.0
 40
0.0
 40
0.0
 40
0.0
 40
0.0418844935352878
 40
0.0837658248359621
 40
0.1256490122728879
 40
0.1882239363202299
 40
0.250675332007634
 40
0.3752738190776086
 40
0.4996705294068862
 40
0.624114296478462
 40
0.7488964536292064
 40
0.8119178499980975
 40
0.874378817061173
 40
0.9374861549461889
 40
1.0
 40
1.0
 40
1.0
 40
1.0
 10
234.8341786256193
 20
99.19802722168414
 30
0.0
 10
234.7612784252806
 20
99.2893181197121
 30
0.0
 10
234.6154835284905
 20
99.47189302340253
 30
0.0
 10
234.3986747199395
 20
99.75339517803715
 30
0.0
 10
234.1480676448637
 20
100.087787830984
 30
0.0
 10
233.8654572876015
 20
100.479359540921
 30
0.0
 10
233.4493835478329
 20
101.082892466386
 30
0.0
 10
232.9441897203719
 20
101.8696837633371
 30
0.0
 10
232.3661070801431
 20
102.8671827918259
 30
0.0
 10
231.8209057380395
 20
103.9195433025303
 30
0.0
 10
231.3979077419568
 20
104.8447168659182
 30
0.0
 10
231.081617935377
 20
105.6134445349911
 30
0.0
 10
230.8558455526851
 20
106.2067108425923
 30
0.0
 10
230.6427233746633
 20
106.8110089412476
 30
0.0
 10
230.5123542956113
 20
107.2259590444214
 30
0.0
 10
230.4474777181345
 20
107.4324538874727
 30
0.0
  0
LINE
  5
14F
330
1F
100
AcDbEntity
  8
0
  6
HIDDEN
 62
     7
370
     0
100
AcDbLine
 10
214.1511108587
 20
145.6359662376
 30
0.0
 11
214.1511108587
 21
127.6493243228
 31
0.0
  0
ELLIPSE
  5
150
330
1F
100
AcDbEntity
  8
0
  6
HIDDEN
 62
     7
370
     0
100
AcDbEllipse
 10
229.0594908746
 20
127.6493243228
 30
0.0
 11
-18.14096359549092
 21
25.45688326452664
 31
0.0
210
0.0
220
0.0
230
1.0
 40
0.0817078932
 41
0.7297069269459192
 42
1.512635702942826
  0
CIRCLE
  5
151
330
1F
100
AcDbEntity
  8
0
  6
HIDDEN
 62
     7
370
     0
100
AcDbCircle
 10
193.0524124429
 20
127.6493243228
 30
0.0
 40
2.0
  0
LINE
  5
152
330
1F
100
AcDbEntity
  8
0
  6
HIDDEN
 62
     7
370
     0
100
AcDbLine
 10
230.4474777181
 20
107.4324538875
 30
0.0
 11
230.2413194256
 21
106.9207650028
 31
0.0
  0
LINE
  5
153
330
1F
100
AcDbEntity
  8
0
  6
HIDDEN
 62
     7
370
     0
100
AcDbLine
 10
216.034620186
 20
107.6653065625
 30
0.0
 11
230.2413194256
 21
106.9207650045
 31
0.0
  0
LINE
  5
154
330
1F
100
AcDbEntity
  8
0
  6
HIDDEN
 62
     7
370
     0
100
AcDbLine
 10
229.8613275362
 20
112.9018366978
 30
0.0
 11
229.8613275362
 21
122.0745083767
 31
0.0
  0
ELLIPSE
  5
155
330
1F
100
AcDbEntity
  8
0
  6
HIDDEN
 62
     7
370
     0
100
AcDbEllipse
 10
256.0565829981
 20
112.9018366978
 30
0.0
 11
26.19525546193
 21
1.421085471520200E-14
 31
0.0
210
0.0
220
0.0
230
1.0
 40
0.9925461516
 41
3.141592653589793
 42
3.353536735905475
  0
SPLINE
  5
156
330
1F
100
AcDbEntity
  8
0
  6
HIDDEN
 62
     7
370
     0
100
AcDbSpline
210
0.0
220
0.0
230
1.0
 70
     8
 71
     3
 72
     8
 73
     4
 74
     0
 42
0.00000001
 43
0.00000001
 12
1.0
 22
0.0
 32
0.0
 13
1.0
 23
0.0
 33
0.0
 40
0.0
 40
0.0
 40
0.0
 40
0.0
 40
1.0
 40
1.0
 40
1.0
 40
1.0
 10
216.0346201860202
 20
107.665306562549
 30
0.0
 10
215.1348843526903
 20
113.1090034798315
 30
0.0
 10
214.4540437316176
 20
118.5855672038515
 30
0.0
 10
214.2510112811997
 20
124.133873149369
 30
0.0
  0
SPLINE
  5
157
330
1F
100
AcDbEntity
  8
0
  6
HIDDEN
 62
     7
370
     0
100
AcDbSpline
210
0.0
220
0.0
230
1.0
 70
     8
 71
     3
 72
    10
 73
     6
 74
     0
 42
0.00000001
 43
0.00000001
 12
1.0
 22
0.0
 32
0.0
 13
1.0
 23
0.0
 33
0.0
 40
0.0
 40
0.0
 40
0.0
 40
0.0
 40
0.5
 40
0.5
 40
1.0
 40
1.0
 40
1.0
 40
1.0
 10
214.2510112811997
 20
124.133873149369
 30
0.0
 10
214.2295720877072
 20
124.7197460208082
 30
0.0
 10
214.2030504957806
 20
125.3055810511967
 30
0.0
 10
214.163622877276
 20
126.4773524868079
 30
0.0
 10
214.1511108586951
 20
127.0632918256213
 30
0.0
 10
214.1511108586951
 20
127.6493243227999
 30
0.0
  0
LINE
  5
158
330
1F
100
AcDbEntity
  8
0
  6
HIDDEN
 62
     7
370
     0
100
AcDbLine
 10
229.8613275362
 20
122.0745083767
 30
0.0
 11
225.9284845716
 21
127.6493243228
 31
0.0
  0
LINE
  5
159
330
1F
100
AcDbEntity
  8
0
  6
HIDDEN
 62
     7
370
     0
100
AcDbLine
 10
196.0524124429
 20
117.8458216925
 30
0.0
 11
196.0524124429
 21
114.0333574355
 31
0.0
  0
LINE
  5
15A
330
1F
100
AcDbEntity
  8
0
  6
HIDDEN
 62
     7
370
     0
100
AcDbLine
 10
202.0524124429
 20
114.0334999934
 30
0.0
 11
202.0524124429
 21
117.8458216925
 31
0.0
  0
LINE
  5
15B
330
1F
100
AcDbEntity
  8
0
  6
HIDDEN
 62
     7
370
     0
100
AcDbLine
 10
181.0524124429
 20
108.0993243228
 30
0.0
 11
181.1453056617
 21
108.1922175416
 31
0.0
  0
LINE
  5
15C
330
1F
100
AcDbEntity
  8
0
  6
HIDDEN
 62
     7
370
     0
100
AcDbLine
 10
181.1453056617
 20
147.106431104
 30
0.0
 11
181.0524124429
 21
147.1993243228
 31
0.0
  0
ARC
  5
15D
330
1F
100
AcDbEntity
  8
0
  6
HIDDEN
 62
     7
370
     0
100
AcDbCircle
 10
180.4381988805
 20
108.8993243228
 30
0.0
 40
1.0
100
AcDbArc
 50
315.0
 51
0.0
  0
ARC
  5
15E
330
1F
100
AcDbEntity
  8
0
  6
HIDDEN
 62
     7
370
     0
100
AcDbCircle
 10
180.4381988805
 20
108.8993243228
 30
0.0
 40
1.000000000000021
100
AcDbArc
 50
0.0
 51
52.1052014664
  0
ARC
  5
15F
330
1F
100
AcDbEntity
  8
0
  6
HIDDEN
 62
     7
370
     0
100
AcDbCircle
 10
180.4381988805
 20
146.3993243228
 30
0.0
 40
1.000000000000008
100
AcDbArc
 50
351.8087250651
 51
45.0
  0
ARC
  5
160
330
1F
100
AcDbEntity
  8
0
  6
HIDDEN
 62
     7
370
     0
100
AcDbCircle
 10
180.4381988805
 20
146.3993243228
 30
0.0
 40
1.000000000000006
100
AcDbArc
 50
307.8947985336
 51
351.8087250651
  0
LINE
  5
161
330
1F
100
AcDbEntity
  8
0
  6
HIDDEN
 62
     7
370
     0
100
AcDbLine
 10
181.4381988805
 20
108.8993243228
 30
0.0
 11
181.4381988805
 21
146.3993243228
 31
0.0
  0
LINE
  5
162
330
1F
100
AcDbEntity
  8
0
  6
HIDDEN
 62
     7
370
     0
100
AcDbLine
 10
181.4381988805
 20
108.8993243228
 30
0.0
 11
181.4381988805
 21
146.3993243228
 31
0.0
  0
LINE
  5
163
330
1F
100
AcDbEntity
  8
0
  6
HIDDEN
 62
     7
370
     0
100
AcDbLine
 10
196.5524124429
 20
123.7007457342
 30
0.0
 11
196.5524124429
 21
118.0094477664
 31
0.0
  0
LINE
  5
164
330
1F
100
AcDbEntity
  8
0
  6
HIDDEN
 62
     7
370
     0
100
AcDbLine
 10
201.5524124429
 20
121.1116026326
 30
0.0
 11
201.5524124429
 21
123.702212026
 31
0.0
  0
LINE
  5
165
330
1F
100
AcDbEntity
  8
0
  6
HIDDEN
 62
     7
370
     0
100
AcDbLine
 10
201.5524124429
 20
118.0094477664
 30
0.0
 11
201.5524124429
 21
119.1121298976
 31
0.0
  0
LINE
  5
166
330
1F
100
AcDbEntity
  8
0
  6
HIDDEN
 62
     7
370
     0
100
AcDbLine
 10
208.4444904058
 20
116.6927403802
 30
0.0
 11
201.4609314862
 21
121.3433502512
 31
0.0
  0
LINE
  5
167
330
1F
100
AcDbEntity
  8
0
  6
HIDDEN
 62
     7
370
     0
100
AcDbLine
 10
197.8140841027
 20
117.7646916449
 30
0.0
 11
208.6150591221
 21
110.5719233702
 31
0.0
  0
ARC
  5
168
330
1F
100
AcDbEntity
  8
0
  6
HIDDEN
 62
     7
370
     0
100
AcDbCircle
 10
158.5591319549
 20
117.1493243228
 30
0.0
 40
1.500000000000014
100
AcDbArc
 50
270.0
 51
315.0
  0
ARC
  5
169
330
1F
100
AcDbEntity
  8
0
  6
HIDDEN
 62
     7
370
     0
100
AcDbCircle
 10
158.5591319549
 20
138.1493243228
 30
0.0
 40
1.5
100
AcDbArc
 50
45.0
 51
90.0
  0
LINE
  5
16A
330
1F
100
AcDbEntity
  8
0
  6
HIDDEN
 62
     7
370
     0
100
AcDbLine
 10
157.5524124429
 20
115.6493243228
 30
0.0
 11
158.5591319549
 21
115.6493243228
 31
0.0
  0
LINE
  5
16B
330
1F
100
AcDbEntity
  8
0
  6
HIDDEN
 62
     7
370
     0
100
AcDbLine
 10
158.5591319549
 20
139.6493243228
 30
0.0
 11
157.5524124429
 21
139.6493243228
 31
0.0
  0
ARC
  5
16C
330
1F
100
AcDbEntity
  8
0
  6
HIDDEN
 62
     7
370
     0
100
AcDbCircle
 10
157.5524124429
 20
117.1493243228
 30
0.0
 40
1.500000000000017
100
AcDbArc
 50
191.0958032831
 51
270.0
  0
ARC
  5
16D
330
1F
100
AcDbEntity
  8
0
  6
HIDDEN
 62
     7
370
     0
100
AcDbCircle
 10
157.5524124429
 20
138.1493243228
 30
0.0
 40
1.50000000000002
100
AcDbArc
 50
90.0
 51
168.9041967169
  0
LINE
  5
16E
330
1F
100
AcDbEntity
  8
0
  6
HIDDEN
 62
     7
370
     0
100
AcDbLine
 10
151.0524124429
 20
115.8859122543
 30
0.0
 11
152.0804522985
 21
116.4794513417
 31
0.0
  0
LINE
  5
16F
330
1F
100
AcDbEntity
  8
0
  6
HIDDEN
 62
     7
370
     0
100
AcDbLine
 10
152.0804522985
 20
138.8191973039
 30
0.0
 11
151.0524124429
 21
139.4127363913
 31
0.0
  0
LINE
  5
170
330
1F
100
AcDbEntity
  8
0
  6
HIDDEN
 62
     7
370
     0
100
AcDbLine
 10
159.6197921267
 20
116.088664151
 30
0.0
 11
160.6804522985
 21
117.1493243228
 31
0.0
  0
LINE
  5
171
330
1F
100
AcDbEntity
  8
0
  6
HIDDEN
 62
     7
370
     0
100
AcDbLine
 10
160.6804522985
 20
138.1493243228
 30
0.0
 11
159.6197921267
 21
139.2099844946
 31
0.0
  0
LINE
  5
172
330
1F
100
AcDbEntity
  8
0
  6
HIDDEN
 62
     7
370
     0
100
AcDbLine
 10
197.7896939248
 20
118.237372789
 30
0.0
 11
197.7672478
 21
117.933976294
 31
0.0
  0
LINE
  5
173
330
1F
100
AcDbEntity
  8
0
  6
HIDDEN
 62
     7
370
     0
100
AcDbLine
 10
152.0804522985
 20
116.4794513417
 30
0.0
 11
154.5804522985
 21
117.1493243228
 31
0.0
  0
LINE
  5
174
330
1F
100
AcDbEntity
  8
0
  6
HIDDEN
 62
     7
370
     0
100
AcDbLine
 10
154.5804522985
 20
138.1493243228
 30
0.0
 11
152.0804522985
 21
138.8191973039
 31
0.0
  0
LINE
  5
175
330
1F
100
AcDbEntity
  8
0
  6
HIDDEN
 62
     7
370
     0
100
AcDbLine
 10
156.0804522985
 20
138.4379994574
 30
0.0
 11
155.5804522985
 21
138.1493243228
 31
0.0
  0
LINE
  5
176
330
1F
100
AcDbEntity
  8
0
  6
HIDDEN
 62
     7
370
     0
100
AcDbLine
 10
155.5804522985
 20
117.1493243228
 30
0.0
 11
156.0804522985
 21
116.8606491882
 31
0.0
  0
LINE
  5
177
330
1F
100
AcDbEntity
  8
0
  6
HIDDEN
 62
     7
370
     0
100
AcDbLine
 10
154.5804522985
 20
117.1493243228
 30
0.0
 11
155.5804522985
 21
117.1493243228
 31
0.0
  0
LINE
  5
178
330
1F
100
AcDbEntity
  8
0
  6
HIDDEN
 62
     7
370
     0
100
AcDbLine
 10
155.5804522985
 20
138.1493243228
 30
0.0
 11
154.5804522985
 21
138.1493243228
 31
0.0
  0
LINE
  5
179
330
1F
100
AcDbEntity
  8
0
  6
HIDDEN
 62
     7
370
     0
100
AcDbLine
 10
160.6804522985
 20
117.1493243228
 30
0.0
 11
170.5524124429
 21
117.1493243228
 31
0.0
  0
LINE
  5
17A
330
1F
100
AcDbEntity
  8
0
  6
HIDDEN
 62
     7
370
     0
100
AcDbLine
 10
170.5524124429
 20
138.1493243228
 30
0.0
 11
160.6804522985
 21
138.1493243228
 31
0.0
  0
ARC
  5
17B
330
1F
100
AcDbEntity
  8
0
  6
HIDDEN
 62
     7
370
     0
100
AcDbCircle
 10
170.5524124429
 20
117.6493243228
 30
0.0
 40
0.5
100
AcDbArc
 50
270.0
 51
0.0
  0
ARC
  5
17C
330
1F
100
AcDbEntity
  8
0
  6
HIDDEN
 62
     7
370
     0
100
AcDbCircle
 10
170.5524124429
 20
137.6493243228
 30
0.0
 40
0.5
100
AcDbArc
 50
0.0
 51
90.0
  0
LINE
  5
17D
330
1F
100
AcDbEntity
  8
0
  6
HIDDEN
 62
     7
370
     0
100
AcDbLine
 10
171.0524124429
 20
119.3993243228
 30
0.0
 11
172.0524124429
 21
120.3993243228
 31
0.0
  0
LINE
  5
17E
330
1F
100
AcDbEntity
  8
0
  6
HIDDEN
 62
     7
370
     0
100
AcDbLine
 10
172.0524124429
 20
134.8993243228
 30
0.0
 11
171.0524124429
 21
135.8993243228
 31
0.0
  0
LINE
  5
17F
330
1F
100
AcDbEntity
  8
0
  6
HIDDEN
 62
     7
370
     0
100
AcDbLine
 10
205.0524124429
 20
134.8993243228
 30
0.0
 11
172.0524124429
 21
134.8993243228
 31
0.0
  0
LINE
  5
180
330
1F
100
AcDbEntity
  8
0
  6
HIDDEN
 62
     7
370
     0
100
AcDbLine
 10
172.0524124429
 20
120.3993243228
 30
0.0
 11
205.0524124429
 21
120.3993243228
 31
0.0
  0
LINE
  5
181
330
1F
100
AcDbEntity
  8
0
  6
HIDDEN
 62
     7
370
     0
100
AcDbLine
 10
205.0524124429
 20
120.3993243228
 30
0.0
 11
209.4086519308
 21
127.6493243228
 31
0.0
  0
LINE
  5
182
330
1F
100
AcDbEntity
  8
0
  6
HIDDEN
 62
     7
370
     0
100
AcDbLine
 10
209.4086519308
 20
127.6493243228
 30
0.0
 11
205.0524124429
 21
134.8993243228
 31
0.0
  0
LINE
  5
183
330
1F
100
AcDbEntity
  8
VERMASSUNG
  6
CENTERX2
100
AcDbLine
 10
146.8186463254
 20
127.6493243228
 30
0.0
 11
241.0524124429
 21
127.6493243228
 31
0.0
  0
LINE
  5
184
330
1F
100
AcDbEntity
  8
VERMASSUNG
  6
CENTERX2
100
AcDbLine
 10
241.0524124429
 20
92.6493243228
 30
0.0
 11
241.0524124429
 21
127.6493243228
 31
0.0
  0
LINE
  5
185
330
1F
100
AcDbEntity
  8
VERMASSUNG
  6
CENTERX2
100
AcDbLine
 10
241.0524124429
 20
92.6493243228
 30
0.0
 11
241.0524124429
 21
80.0598902645
 31
0.0
  0
DIMENSION
  5
186
330
1F
100
AcDbEntity
  8
VERMASSUNG
100
AcDbDimension
  2
_D
 10
241.0524124429
 20
80.0598902645
 30
0.0
 11
234.1327138871
 21
86.0612635309
 31
0.0
 70
   162
  1
<>
 71
     1
 42
-1.0
  3
SLDDIMSTYLE0
100
AcDb2LineAngularDimension
 13
229.9932620495
 23
93.2073977856
 33
0.0
 14
240.6401573239
 24
92.649417648
 34
0.0
 15
241.0524124429
 25
92.6493243228
 35
0.0
 16
234.1327138871
 26
86.0612635309
 36
0.0
  0
DIMENSION
  5
18F
330
1F
100
AcDbEntity
  8
VERMASSUNG
100
AcDbDimension
  2
_D_1
 10
241.0524124429
 20
76.4592926312
 30
0.0
 11
211.0524124429
 21
76.4592926312
 31
0.0
 70
   160
  1
<>
 71
     2
 42
-1.0
  3
SLDDIMSTYLE1
100
AcDbAlignedDimension
 13
181.0524124429
 23
102.9493243228
 33
0.0
 14
241.0524124429
 24
92.6493243228
 34
0.0
100
AcDbRotatedDimension
  0
DIMENSION
  5
19C
330
1F
100
AcDbEntity
  8
VERMASSUNG
100
AcDbDimension
  2
_D_2
 10
241.0524124429
 20
70.4592926312
 30
0.0
 11
196.0524124429
 21
70.4592926312
 31
0.0
 70
   160
  1
<>
 71
     2
 42
-1.0
  3
SLDDIMSTYLE2
100
AcDbAlignedDimension
 13
151.0524124429
 23
111.6559984846
 33
0.0
 14
241.0524124429
 24
92.6493243228
 34
0.0
100
AcDbRotatedDimension
  0
DIMENSION
  5
1A7
330
1F
100
AcDbEntity
  8
VERMASSUNG
100
AcDbDimension
  2
_D_3
 10
251.6082112821
 20
127.6493243228
 30
0.0
 11
251.6082112821
 21
110.1493243228
 31
0.0
 70
   160
  1
<>
 71
     2
 42
-1.0
  3
SLDDIMSTYLE1
100
AcDbAlignedDimension
 13
241.0524124429
 23
92.6493243228
 33
0.0
 14
241.0524124429
 24
127.6493243228
 34
0.0
 50
90.0
100
AcDbRotatedDimension
  0
DIMENSION
  5
1B3
330
1F
100
AcDbEntity
  8
VERMASSUNG
100
AcDbDimension
  2
_D_4
 10
141.0524124429
 20
102.6493243228
 30
0.0
 11
141.0524124429
 21
127.6493243228
 31
0.0
 70
   160
  1
PSC%%c<>
 71
     2
 42
-1.0
  3
SLDDIMSTYLE2
100
AcDbAlignedDimension
 13
181.3524124429
 23
152.6493243228
 33
0.0
 14
181.3524124429
 24
102.6493243228
 34
0.0
 50
90.0
100
AcDbRotatedDimension
  0
SPLINE
  5
1BF
330
1F
100
AcDbEntity
  8
0
  6
Continuous
 62
     7
370
    15
100
AcDbSpline
210
0.0
220
0.0
230
1.0
 70
     8
 71
     3
 72
    21
 73
    17
 74
     0
 42
0.00000001
 43
0.00000001
 12
1.0
 22
0.0
 32
0.0
 13
1.0
 23
0.0
 33
0.0
 40
0.0
 40
0.0
 40
0.0
 40
0.0
 40
0.0300827610921031
 40
0.0602190178392796
 40
0.0904161000526681
 40
0.1206812933501786
 40
0.181400813671568
 40
0.2424333545173312
 40
0.3653482163394155
 40
0.4895258043654195
 40
0.6150347982864112
 40
0.741926513278485
 40
0.8058853710189432
 40
0.8702470509991749
 40
0.9349274212038003
 40
0.9999999999999999
 40
0.9999999999999999
 40
0.9999999999999999
 40
0.9999999999999999
 10
72.05418577329941
 20
93.90481794721856
 30
0.0
 10
72.19950996273278
 20
93.92937571719591
 30
0.0
 10
72.49041676909852
 20
93.97853492780933
 30
0.0
 10
72.9248549457519
 20
94.05984381673856
 30
0.0
 10
73.35832507071225
 20
94.14676537693926
 30
0.0
 10
73.93530495723715
 20
94.2709704832819
 30
0.0
 10
74.65370258287041
 20
94.44132396761223
 30
0.0
 10
75.79719031545532
 20
94.74623875899321
 30
0.0
 10
77.21174495071419
 20
95.18739879600729
 30
0.0
 10
78.87534912317821
 20
95.80897538105947
 30
0.0
 10
80.50464351609611
 20
96.52221975606965
 30
0.0
 10
81.82610028386146
 20
97.18945119775294
 30
0.0
 10
82.86166513556614
 20
97.76634245991595
 30
0.0
 10
83.62871034142827
 20
98.22203375807395
 30
0.0
 10
84.38511308169474
 20
98.69772607890441
 30
0.0
 10
84.87654119713933
 20
99.03092440484326
 30
0.0
 10
85.12299798298652
 20
99.19802715269125
 30
0.0
  0
SPLINE
  5
1C0
330
1F
100
AcDbEntity
  8
0
  6
Continuous
 62
     7
370
    15
100
AcDbSpline
210
0.0
220
0.0
230
1.0
 70
     8
 71
     3
 72
    22
 73
    18
 74
     0
 42
0.00000001
 43
0.00000001
 12
1.0
 22
0.0
 32
0.0
 13
1.0
 23
0.0
 33
0.0
 40
0.0
 40
0.0
 40
0.0
 40
0.0
 40
0.0350088553429316
 40
0.0697721293955544
 40
0.1042911305000337
 40
0.138567194971188
 40
0.1726016877399376
 40
0.2154632614341618
 40
0.2579613358572952
 40
0.385596707014894
 40
0.510324805301607
 40
0.6351067307632126
 40
0.7574579222704518
 40
0.8188236172409895
 40
0.8796916133632446
 40
0.9400781853051666
 40
1.0
 40
1.0
 40
1.0
 40
1.0
 10
85.25342259217219
 20
98.80101745892077
 30
0.0
 10
85.11985018364715
 20
98.70978588326695
 30
0.0
 10
84.85364235479946
 20
98.52796270626996
 30
0.0
 10
84.4495169769231
 20
98.26276779945218
 30
0.0
 10
84.04380456496214
 20
98.00430970562404
 30
0.0
 10
83.63618579461291
 20
97.75302994756038
 30
0.0
 10
83.1905626007322
 20
97.48709373491037
 30
0.0
 10
82.70602703110445
 20
97.2085808309339
 30
0.0
 10
81.83006963820026
 20
96.72609475788305
 30
0.0
 10
80.58562293089709
 20
96.0985439607041
 30
0.0
 10
78.9373266522661
 20
95.37800384949719
 30
0.0
 10
77.26042935659665
 20
94.75245966931931
 30
0.0
 10
75.83025644079278
 20
94.30739649994223
 30
0.0
 10
74.67612410057528
 20
94.00019303540181
 30
0.0
 10
73.80470764003469
 20
93.79453250186054
 30
0.0
 10
72.93202964724338
 20
93.61217092479033
 30
0.0
 10
72.34604589527864
 20
93.51108186684256
 30
0.0
 10
72.05418586140226
 20
93.46073259388363
 30
0.0
  0
ELLIPSE
  5
1C1
330
1F
100
AcDbEntity
  8
0
  6
Continuous
 62
     7
370
    15
100
AcDbEllipse
 10
1931.3818725569
 20
112.9018366978
 30
0.0
 11
4046.116558414566
 21
25.96383481333532
 31
0.0
210
0.0
220
0.0
230
1.0
 40
0.000338811
 41
2.048264477362595
 42
2.04868193120381
  0
ELLIPSE
  5
1C2
330
1F
100
AcDbEntity
  8
0
  6
Continuous
 62
     7
370
    15
100
AcDbEllipse
 10
-32.212397907
 20
112.9018366978
 30
0.0
 11
223.4518953883933
 21
-25.96478972643392
 31
0.0
210
0.0
220
0.0
230
1.0
 40
0.0060534818
 41
1.093611954034271
 42
1.10451786335912
  0
LINE
  5
1C3
330
1F
100
AcDbEntity
  8
0
  6
Continuous
 62
     7
370
    15
100
AcDbLine
 10
68.3841859109
 20
102.4372340358
 30
0.0
 11
68.3841859109
 21
112.9018366978
 31
0.0
  0
LINE
  5
1C4
330
1F
100
AcDbEntity
  8
0
  6
Continuous
 62
     7
370
    15
100
AcDbLine
 10
93.5841859109
 20
107.4324538875
 30
0.0
 11
93.5841859109
 21
112.9018366978
 31
0.0
  0
SPLINE
  5
1C5
330
1F
100
AcDbEntity
  8
0
  6
Continuous
 62
     7
370
    15
100
AcDbSpline
210
0.0
220
0.0
230
1.0
 70
     8
 71
     3
 72
    20
 73
    16
 74
     0
 42
0.00000001
 43
0.00000001
 12
1.0
 22
0.0
 32
0.0
 13
1.0
 23
0.0
 33
0.0
 40
0.0
 40
0.0
 40
0.0
 40
0.0
 40
0.0418844935352878
 40
0.0837658248359621
 40
0.1256490122728879
 40
0.1882239363202299
 40
0.250675332007634
 40
0.3752738190776086
 40
0.4996705294068862
 40
0.624114296478462
 40
0.7488964536292064
 40
0.8119178499980975
 40
0.874378817061173
 40
0.9374861549461889
 40
1.0
 40
1.0
 40
1.0
 40
1.0
 10
85.1229979160974
 20
99.19802722168414
 30
0.0
 10
85.25579407344563
 20
99.2893181197121
 30
0.0
 10
85.52137636217377
 20
99.47189302340253
 30
0.0
 10
85.91545484960957
 20
99.75339517803715
 30
0.0
 10
86.3707170506812
 20
100.087787830984
 30
0.0
 10
86.88418955623041
 20
100.479359540921
 30
0.0
 10
87.64174743569993
 20
101.082892466386
 30
0.0
 10
88.56724637637485
 20
101.8696837633371
 30
0.0
 10
89.64391355299148
 20
102.8671827918259
 30
0.0
 10
90.68617422875413
 20
103.9195433025303
 30
0.0
 10
91.5259796360521
 20
104.8447168659182
 30
0.0
 10
92.17874735193736
 20
105.6134445349911
 30
0.0
 10
92.6597740325103
 20
106.2067108425923
 30
0.0
 10
93.12929955730627
 20
106.8110089412476
 30
0.0
 10
93.4330354562225
 20
107.2259590444214
 30
0.0
 10
93.58418591093024
 20
107.4324538874727
 30
0.0
  0
LINE
  5
1C6
330
1F
100
AcDbEntity
  8
0
  6
Continuous
 62
     7
370
    15
100
AcDbLine
 10
72.0541859109
 20
102.1881774826
 30
0.0
 11
72.0541859109
 21
101.9939365406
 31
0.0
  0
LINE
  5
1C7
330
1F
100
AcDbEntity
  8
0
  6
Continuous
 62
     7
370
    15
100
AcDbLine
 10
93.5841859109
 20
107.4324538875
 30
0.0
 11
93.5841859109
 21
106.9207650028
 31
0.0
  0
SPLINE
  5
1C8
330
1F
100
AcDbEntity
  8
0
  6
Continuous
 62
     7
370
    15
100
AcDbSpline
210
0.0
220
0.0
230
1.0
 70
     8
 71
     3
 72
    20
 73
    16
 74
     0
 42
0.00000001
 43
0.00000001
 12
1.0
 22
0.0
 32
0.0
 13
1.0
 23
0.0
 33
0.0
 40
0.0
 40
0.0
 40
0.0
 40
0.0
 40
0.0414500466779382
 40
0.08344655061583
 40
0.1259946456000663
 40
0.1880643690882577
 40
0.2514912182140889
 40
0.3762968260603616
 40
0.5007484604411969
 40
0.625119937119553
 40
0.7496470211720732
 40
0.8105497832931045
 40
0.8745452200924528
 40
0.9350085025576965
 40
1.0
 40
1.0
 40
1.0
 40
1.0
 10
93.584185910696
 20
106.920765004196
 30
0.0
 10
93.48525521996464
 20
106.7862208638831
 30
0.0
 10
93.2860895843813
 20
106.5153588187347
 30
0.0
 10
92.979105492156
 20
106.1135527493255
 30
0.0
 10
92.61664701924705
 20
105.6522697692232
 30
0.0
 10
92.19325966147129
 20
105.1333236610121
 30
0.0
 10
91.54926169712768
 20
104.3776491373943
 30
0.0
 10
90.7203902439468
 20
103.4662428028352
 30
0.0
 10
89.69421172207682
 20
102.4292845233188
 30
0.0
 10
88.6352144012382
 20
101.4450037371341
 30
0.0
 10
87.72997612094505
 20
100.6712421463137
 30
0.0
 10
86.98608931918255
 20
100.0739049147802
 30
0.0
 10
86.42562264319626
 20
99.643032442389
 30
0.0
 10
85.84584199977941
 20
99.21475372050087
 30
0.0
 10
85.45559102565262
 20
98.94220866607006
 30
0.0
 10
85.25342260125691
 20
98.80101746378183
 30
0.0
  0
LINE
  5
1C9
330
1F
100
AcDbEntity
  8
0
  6
Continuous
 62
     7
370
    15
100
AcDbLine
 10
93.5841859109
 20
122.0745083767
 30
0.0
 11
93.5841859109
 21
127.6493243228
 31
0.0
  0
LINE
  5
1CA
330
1F
100
AcDbEntity
  8
0
  6
Continuous
 62
     7
370
    15
100
AcDbLine
 10
93.5841859109
 20
122.0745083767
 30
0.0
 11
68.3841859109
 21
122.0745083767
 31
0.0
  0
ELLIPSE
  5
1CB
330
1F
100
AcDbEntity
  8
0
  6
Continuous
 62
     7
370
    15
100
AcDbEllipse
 10
65.3841859109
 20
150.3812722259
 30
0.0
 11
-0.693920324617082
 21
4.257959140539498
 31
0.0
210
0.0
220
0.0
230
1.0
 40
0.6854557539
 41
4.478968310195295
 42
5.158261337647813
  0
ARC
  5
1CC
330
1F
100
AcDbEntity
  8
0
  6
Continuous
 62
     7
370
    15
100
AcDbCircle
 10
68.0841859109
 20
127.6493243228
 30
0.0
 40
25.00000000000001
100
AcDbArc
 50
51.9097893686
 51
90.838722844
  0
SPLINE
  5
1CD
330
1F
100
AcDbEntity
  8
0
  6
Continuous
 62
     7
370
    15
100
AcDbSpline
210
0.0
220
0.0
230
1.0
 70
     8
 71
     3
 72
    12
 73
     8
 74
     0
 42
0.00000001
 43
0.00000001
 12
1.0
 22
0.0
 32
0.0
 13
1.0
 23
0.0
 33
0.0
 40
0.0
 40
0.0
 40
0.0
 40
0.0
 40
0.2500000000000011
 40
0.2500000000000011
 40
0.5000000000000021
 40
0.5000000000000021
 40
1.0
 40
1.0
 40
1.0
 40
1.0
 10
86.15987988459504
 20
145.6359662375781
 30
0.0
 10
85.91906813173372
 20
145.7511103516139
 30
0.0
 10
85.68563178029582
 20
145.8768114421954
 30
0.0
 10
85.22732090861587
 20
146.1404688276425
 30
0.0
 10
85.0022846136671
 20
146.2788166735289
 30
0.0
 10
84.34005941542497
 20
146.7061046250554
 30
0.0
 10
83.91385898503128
 20
147.0062107442705
 30
0.0
 10
83.50672123602324
 20
147.3253352027077
 30
0.0
  0
ARC
  5
1CE
330
1F
100
AcDbEntity
  8
0
  6
Continuous
 62
     7
370
    15
100
AcDbCircle
 10
68.0841859109
 20
127.6493243228
 30
0.0
 40
25.5000000000007
100
AcDbArc
 50
0.0
 51
44.858514524
  0
LINE
  5
1CF
330
1F
100
AcDbEntity
  8
0
  6
Continuous
 62
     7
370
    15
100
AcDbLine
 10
68.3841859109
 20
122.0745083767
 30
0.0
 11
68.3841859109
 21
149.8591298463
 31
0.0
  0
LINE
  5
1D0
330
1F
100
AcDbEntity
  8
0
  6
Continuous
 62
     7
370
    15
100
AcDbLine
 10
93.5841859109
 20
112.9018366978
 30
0.0
 11
93.5841859109
 21
122.0745083767
 31
0.0
  0
LINE
  5
1D1
330
1F
100
AcDbEntity
  8
0
  6
Continuous
 62
     7
370
    15
100
AcDbLine
 10
68.3841859109
 20
112.9018366978
 30
0.0
 11
68.3841859109
 21
122.0745083767
 31
0.0
  0
SPLINE
  5
1D2
330
1F
100
AcDbEntity
  8
0
  6
Continuous
 62
     7
370
    15
100
AcDbSpline
210
0.0
220
0.0
230
1.0
 70
     8
 71
     3
 72
    13
 73
     9
 74
     0
 42
0.00000001
 43
0.00000001
 12
1.0
 22
0.0
 32
0.0
 13
1.0
 23
0.0
 33
0.0
 40
0.0
 40
0.0
 40
0.0
 40
0.0
 40
0.1920559039125336
 40
0.3896863334547092
 40
0.5817422040985327
 40
0.7793563462404799
 40
0.9716435836503671
 40
1.0
 40
1.0
 40
1.0
 40
1.0
 10
66.16064304623804
 20
102.7234345122497
 30
0.0
 10
66.31821927163567
 20
102.7121742784504
 30
0.0
 10
66.63794545689682
 20
102.6893269765258
 30
0.0
 10
67.07487008734633
 20
102.6686546848637
 30
0.0
 10
67.4717578725712
 20
102.6559082059891
 30
0.0
 10
67.79877388129219
 20
102.6503991734573
 30
0.0
 10
68.00524783869781
 20
102.6491501047849
 30
0.0
 10
68.07519635184629
 20
102.6493852433831
 30
0.0
 10
68.08418591092982
 20
102.6494154626433
 30
0.0
  0
SPLINE
  5
1D3
330
1F
100
AcDbEntity
  8
0
  6
Continuous
 62
     7
370
    15
100
AcDbSpline
210
0.0
220
0.0
230
1.0
 70
     8
 71
     3
 72
    12
 73
     8
 74
     0
 42
0.00000001
 43
0.00000001
 12
1.0
 22
0.0
 32
0.0
 13
1.0
 23
0.0
 33
0.0
 40
0.0
 40
0.0
 40
0.0
 40
0.0
 40
0.5000000000000016
 40
0.5000000000000016
 40
0.7500000000000008
 40
0.7500000000000008
 40
1.0
 40
1.0
 40
1.0
 40
1.0
 10
67.71823710233213
 20
152.6466458087009
 30
0.0
 10
67.51928118010235
 20
152.6437331893331
 30
0.0
 10
67.28532516345079
 20
152.6379588720986
 30
0.0
 10
66.8887220726784
 20
152.6210758631805
 30
0.0
 10
66.7488688253532
 20
152.6140513917105
 30
0.0
 10
66.46183558864698
 20
152.5970426308139
 30
0.0
 10
66.31363308210928
 20
152.5870204477528
 30
0.0
 10
66.16064304623804
 20
152.5752141333502
 30
0.0
  0
ELLIPSE
  5
1D4
330
1F
100
AcDbEntity
  8
0
  6
Continuous
 62
     7
370
    15
100
AcDbEllipse
 10
58.969573924
 20
113.6323318752
 30
0.0
 11
-1.756445035685388
 21
2.815924377711156
 31
0.0
210
0.0
220
0.0
230
1.0
 40
0.7353403728
 41
0.0
 42
6.283185307179586
  0
ARC
  5
1D5
330
1F
100
AcDbEntity
  8
0
  6
Continuous
 62
     7
370
    15
100
AcDbCircle
 10
68.0841859109
 20
127.6493243228
 30
0.0
 40
25.00000000000004
100
AcDbArc
 50
94.4127968195
 51
265.5872031805
  0
LINE
  5
1D6
330
1F
100
AcDbEntity
  8
0
  6
Continuous
 62
     7
370
    15
100
AcDbLine
 10
72.0541859109
 20
93.3071457886
 30
0.0
 11
72.0541859109
 21
101.9533339027
 31
0.0
  0
LINE
  5
1D7
330
1F
100
AcDbEntity
  8
0
  6
Continuous
 62
     7
370
    15
100
AcDbLine
 10
68.0841859109
 20
93.2539214946
 30
0.0
 11
68.0841859109
 21
102.2953917828
 31
0.0
  0
SPLINE
  5
1D8
330
1F
100
AcDbEntity
  8
0
  6
Continuous
 62
     7
370
    15
100
AcDbSpline
210
0.0
220
0.0
230
1.0
 70
     8
 71
     3
 72
    11
 73
     7
 74
     0
 42
0.00000001
 43
0.00000001
 12
1.0
 22
0.0
 32
0.0
 13
1.0
 23
0.0
 33
0.0
 40
0.0
 40
0.0
 40
0.0
 40
0.0
 40
0.277988661991249
 40
0.5599335728105254
 40
0.7812666211840824
 40
1.0
 40
1.0
 40
1.0
 40
1.0
 10
72.05418591092982
 20
93.15543026584588
 30
0.0
 10
71.68919993676403
 20
93.10732637617866
 30
0.0
 10
70.95403362071184
 20
93.01043399713512
 30
0.0
 10
69.91268783751465
 20
92.88205044757966
 30
0.0
 10
68.95165461135815
 20
92.76271572356195
 30
0.0
 10
68.37220111392799
 20
92.6870346458241
 30
0.0
 10
68.08418591092995
 20
92.64941764797275
 30
0.0
  0
SPLINE
  5
1D9
330
1F
100
AcDbEntity
  8
0
  6
Continuous
 62
     7
370
    15
100
AcDbSpline
210
0.0
220
0.0
230
1.0
 70
    24
 71
     3
 72
    14
 73
    10
 74
     0
 42
0.00000001
 43
0.00000001
 12
1.0
 22
0.0
 32
0.0
 13
1.0
 23
0.0
 33
0.0
 40
0.0
 40
0.0
 40
0.0
 40
0.0
 40
0.1583203796593654
 40
0.3168008057741279
 40
0.4713744813487974
 40
0.6221259069003632
 40
0.7721262731741754
 40
0.9245922366698422
 40
0.9999999999999999
 40
0.9999999999999999
 40
0.9999999999999999
 40
0.9999999999999999
 10
72.05418591092983
 20
93.30714578864897
 30
0.0
 10
72.05418591092955
 20
93.29681891766873
 30
0.0
 10
72.054185910929
 20
93.2761547362494
 30
0.0
 10
72.05418591093004
 20
93.24112213914387
 30
0.0
 10
72.05418591092977
 20
93.20850592669159
 30
0.0
 10
72.05418591092985
 20
93.18153282675391
 30
0.0
 10
72.05418591092983
 20
93.16293987931353
 30
0.0
 10
72.05418591092982
 20
93.15531453182771
 30
0.0
 10
72.05418591092982
 20
93.15540148979547
 30
0.0
 10
72.05418591092982
 20
93.15543026584588
 30
0.0
  0
SPLINE
  5
1DA
330
1F
100
AcDbEntity
  8
0
  6
Continuous
 62
     7
370
    15
100
AcDbSpline
210
0.0
220
0.0
230
1.0
 70
    24
 71
     3
 72
    20
 73
    16
 74
     0
 42
0.00000001
 43
0.00000001
 12
1.0
 22
0.0
 32
0.0
 13
1.0
 23
0.0
 33
0.0
 40
0.0
 40
0.0
 40
0.0
 40
0.0
 40
0.0783075311859936
 40
0.1588910126856097
 40
0.2369785693217345
 40
0.3174398160756645
 40
0.393661582474424
 40
0.4721830276909025
 40
0.5469240757152171
 40
0.6238523130448993
 40
0.6983189620748962
 40
0.7748908420224587
 40
0.8503894607879297
 40
0.9279814901989369
 40
1.0
 40
1.0
 40
1.0
 40
1.0
 10
68.08418591092982
 20
92.64941764797277
 30
0.0
 10
68.08418591092982
 20
92.64931438477993
 30
0.0
 10
68.08418591092982
 20
92.6491048571261
 30
0.0
 10
68.08418591092983
 20
92.66335043312769
 30
0.0
 10
68.08418591092978
 20
92.68824202710621
 30
0.0
 10
68.08418591092982
 20
92.72346486395216
 30
0.0
 10
68.0841859109299
 20
92.76818843200758
 30
0.0
 10
68.08418591092949
 20
92.81982025293595
 30
0.0
 10
68.0841859109299
 20
92.87798752272211
 30
0.0
 10
68.08418591092988
 20
92.93974264995964
 30
0.0
 10
68.08418591092958
 20
93.00478205203913
 30
0.0
 10
68.08418591093027
 20
93.07043854585001
 30
0.0
 10
68.08418591092833
 20
93.13603541033935
 30
0.0
 10
68.08418591093017
 20
93.19817720655762
 30
0.0
 10
68.08418591092993
 20
93.23580735036005
 30
0.0
 10
68.08418591092982
 20
93.25392149455422
 30
0.0
  0
SPLINE
  5
1DB
330
1F
100
AcDbEntity
  8
0
  6
Continuous
 62
     7
370
    15
100
AcDbSpline
210
0.0
220
0.0
230
1.0
 70
    24
 71
     3
 72
    10
 73
     6
 74
     0
 42
0.00000001
 43
0.00000001
 12
1.0
 22
0.0
 32
0.0
 13
1.0
 23
0.0
 33
0.0
 40
0.0
 40
0.0
 40
0.0
 40
0.0
 40
0.2657122957242744
 40
0.616515762168262
 40
1.0
 40
1.0
 40
1.0
 40
1.0
 10
72.05418591092986
 20
101.9998555602318
 30
0.0
 10
72.05418591092973
 20
101.9987693370672
 30
0.0
 10
72.05418591092942
 20
101.9962490408184
 30
0.0
 10
72.05418591093
 20
101.9813508450319
 30
0.0
 10
72.0541859109299
 20
101.9629459312163
 30
0.0
 10
72.05418591092986
 20
101.9533339027077
 30
0.0
  0
SPLINE
  5
1DC
330
1F
100
AcDbEntity
  8
0
  6
Continuous
 62
     7
370
    15
100
AcDbSpline
210
0.0
220
0.0
230
1.0
 70
    24
 71
     3
 72
    10
 73
     6
 74
     0
 42
0.00000001
 43
0.00000001
 12
1.0
 22
0.0
 32
0.0
 13
1.0
 23
0.0
 33
0.0
 40
0.0
 40
0.0
 40
0.0
 40
0.0
 40
0.3518022785809204
 40
0.703424593503236
 40
1.0
 40
1.0
 40
1.0
 40
1.0
 10
68.08418591092986
 20
102.295391782764
 30
0.0
 10
68.08418591092986
 20
102.3308302252565
 30
0.0
 10
68.08418591092986
 20
102.4016889817866
 30
0.0
 10
68.08418591092986
 20
102.4650166503288
 30
0.0
 10
68.08418591092986
 20
102.4763078164804
 30
0.0
 10
68.08418591092986
 20
102.4814739595886
 30
0.0
  0
LINE
  5
1DD
330
1F
100
AcDbEntity
  8
0
  6
Continuous
 62
     7
370
    15
100
AcDbLine
 10
68.3841859109
 20
103.0005945028
 30
0.0
 11
68.0841859109
 21
103.0394540972
 31
0.0
  0
LINE
  5
1DE
330
1F
100
AcDbEntity
  8
0
  6
Continuous
 62
     7
370
    15
100
AcDbLine
 10
68.0841859109
 20
102.4814739596
 30
0.0
 11
68.0841859109
 21
103.0394540972
 31
0.0
  0
CIRCLE
  5
1DF
330
1F
100
AcDbEntity
  8
VERMASSUNG
  6
CENTERX2
100
AcDbCircle
 10
68.0841859109
 20
125.1488551429
 30
0.0
 40
32.5
  0
DIMENSION
  5
1E0
330
1F
100
AcDbEntity
  8
VERMASSUNG
100
AcDbDimension
  2
_D_5
 10
45.1032155224
 20
148.1298255315
 30
0.0
 11
38.3788252658
 21
154.8542157881
 31
0.0
 70
   160
  1
%%c<> min. 
 71
     2
 42
-1.0
  3
SLDDIMSTYLE3
100
AcDbAlignedDimension
 13
91.0651562995
 23
102.1678847543
 33
0.0
 14
45.1032155224
 24
148.1298255315
 34
0.0
 50
-45.0
100
AcDbRotatedDimension
  0
INSERT
  5
1FA
330
1F
100
AcDbEntity
  8
VERMASSUNG
100
AcDbBlockReference
  2
SW_CENTERMARKSYMBOL_0
 10
68.0841859109
 20
127.6493243228
 30
0.0
  0
OLE2FRAME
  5
1FB
330
1F
100
AcDbEntity
  8
0
100
AcDbOle2Frame
 70
     2
  3
Paintbrush-Bild
 10
13.8511154363
 20
38.264191557
 30
0.0
 11
51.6290888628
 21
31.9806341108
 31
0.0
 71
     2
 72
     0
 73
     1
 90
    12928
310
80552BED0767C5B32B40DDAF6807D121434000000000000000006FFBDDFB85D0
310
4940DDAF6807D121434000000000000000006FFBDDFB85D04940416F4BD60AFB
310
3F4000000000000000002BED0767C5B32B40416F4BD60AFB3F40000000000000
310
0000000000000100000000010000010000000100000000000100000000320000
310
D0CF11E0A1B11AE1000000000000000000000000000000003E000300FEFF0900
310
0600000000000000000000000100000001000000000000000010000002000000
310
01000000FEFFFFFF0000000000000000FFFFFFFFFFFFFFFFFFFFFFFFFFFFFFFF
310
FFFFFFFFFFFFFFFFFFFFFFFFFFFFFFFFFFFFFFFFFFFFFFFFFFFFFFFFFFFFFFFF
310
FFFFFFFFFFFFFFFFFFFFFFFFFFFFFFFFFFFFFFFFFFFFFFFFFFFFFFFFFFFFFFFF
310
FFFFFFFFFFFFFFFFFFFFFFFFFFFFFFFFFFFFFFFFFFFFFFFFFFFFFFFFFFFFFFFF
310
FFFFFFFFFFFFFFFFFFFFFFFFFFFFFFFFFFFFFFFFFFFFFFFFFFFFFFFFFFFFFFFF
310
FFFFFFFFFFFFFFFFFFFFFFFFFFFFFFFFFFFFFFFFFFFFFFFFFFFFFFFFFFFFFFFF
310
FFFFFFFFFFFFFFFFFFFFFFFFFFFFFFFFFFFFFFFFFFFFFFFFFFFFFFFFFFFFFFFF
310
FFFFFFFFFFFFFFFFFFFFFFFFFFFFFFFFFFFFFFFFFFFFFFFFFFFFFFFFFFFFFFFF
310
FFFFFFFFFFFFFFFFFFFFFFFFFFFFFFFFFFFFFFFFFFFFFFFFFFFFFFFFFFFFFFFF
310
FFFFFFFFFFFFFFFFFFFFFFFFFFFFFFFFFFFFFFFFFFFFFFFFFFFFFFFFFFFFFFFF
310
FFFFFFFFFFFFFFFFFFFFFFFFFFFFFFFFFFFFFFFFFFFFFFFFFFFFFFFFFFFFFFFF
310
FFFFFFFFFFFFFFFFFFFFFFFFFFFFFFFFFFFFFFFFFFFFFFFFFFFFFFFFFFFFFFFF
310
FFFFFFFFFFFFFFFFFFFFFFFFFFFFFFFFFFFFFFFFFFFFFFFFFFFFFFFFFFFFFFFF
310
FFFFFFFFFFFFFFFFFFFFFFFFFFFFFFFFFFFFFFFFFFFFFFFFFFFFFFFFFFFFFFFF
310
FDFFFFFFFEFFFFFFFEFFFFFFFEFFFFFF05000000060000000700000008000000
310
090000000A0000000B0000000C0000000D0000000E0000000F00000010000000
310
11000000120000001300000014000000150000001600000017000000FEFFFFFF
310
FFFFFFFFFFFFFFFFFFFFFFFFFFFFFFFFFFFFFFFFFFFFFFFFFFFFFFFFFFFFFFFF
310
FFFFFFFFFFFFFFFFFFFFFFFFFFFFFFFFFFFFFFFFFFFFFFFFFFFFFFFFFFFFFFFF
310
FFFFFFFFFFFFFFFFFFFFFFFFFFFFFFFFFFFFFFFFFFFFFFFFFFFFFFFFFFFFFFFF
310
FFFFFFFFFFFFFFFFFFFFFFFFFFFFFFFFFFFFFFFFFFFFFFFFFFFFFFFFFFFFFFFF
310
FFFFFFFFFFFFFFFFFFFFFFFFFFFFFFFFFFFFFFFFFFFFFFFFFFFFFFFFFFFFFFFF
310
FFFFFFFFFFFFFFFFFFFFFFFFFFFFFFFFFFFFFFFFFFFFFFFFFFFFFFFFFFFFFFFF
310
FFFFFFFFFFFFFFFFFFFFFFFFFFFFFFFFFFFFFFFFFFFFFFFFFFFFFFFFFFFFFFFF
310
FFFFFFFFFFFFFFFFFFFFFFFFFFFFFFFFFFFFFFFFFFFFFFFFFFFFFFFFFFFFFFFF
310
FFFFFFFFFFFFFFFFFFFFFFFFFFFFFFFFFFFFFFFFFFFFFFFFFFFFFFFFFFFFFFFF
310
FFFFFFFFFFFFFFFFFFFFFFFFFFFFFFFFFFFFFFFFFFFFFFFFFFFFFFFFFFFFFFFF
310
FFFFFFFFFFFFFFFFFFFFFFFFFFFFFFFFFFFFFFFFFFFFFFFFFFFFFFFFFFFFFFFF
310
FFFFFFFFFFFFFFFFFFFFFFFFFFFFFFFFFFFFFFFFFFFFFFFFFFFFFFFFFFFFFFFF
310
FFFFFFFFFFFFFFFFFFFFFFFFFFFFFFFFFFFFFFFFFFFFFFFFFFFFFFFFFFFFFFFF
310
52006F006F007400200045006E00740072007900000000000000000000000000
310
0000000000000000000000000000000000000000000000000000000000000000
310
16000500FFFFFFFFFFFFFFFF020000000A00030000000000C000000000000046
310
0000000000000000000000008064A72E2538CD0103000000C000000000000000
310
01004F006C006500000000000000000000000000000000000000000000000000
310
0000000000000000000000000000000000000000000000000000000000000000
310
0A000200FFFFFFFFFFFFFFFFFFFFFFFF00000000000000000000000000000000
310
0000000000000000000000000000000000000000000000001400000000000000
310
010043006F006D0070004F0062006A0000000000000000000000000000000000
310
0000000000000000000000000000000000000000000000000000000000000000
310
120002010100000003000000FFFFFFFF00000000000000000000000000000000
310
0000000000000000000000000000000000000000010000004D00000000000000
310
01004F006C006500310030004E00610074006900760065000000000000000000
310
0000000000000000000000000000000000000000000000000000000000000000
310
1A000200FFFFFFFFFFFFFFFFFFFFFFFF00000000000000000000000000000000
310
0000000000000000000000000000000000000000040000002426000000000000
310
FEFFFFFF02000000FEFFFFFFFFFFFFFFFFFFFFFFFFFFFFFFFFFFFFFFFFFFFFFF
310
FFFFFFFFFFFFFFFFFFFFFFFFFFFFFFFFFFFFFFFFFFFFFFFFFFFFFFFFFFFFFFFF
310
FFFFFFFFFFFFFFFFFFFFFFFFFFFFFFFFFFFFFFFFFFFFFFFFFFFFFFFFFFFFFFFF
310
FFFFFFFFFFFFFFFFFFFFFFFFFFFFFFFFFFFFFFFFFFFFFFFFFFFFFFFFFFFFFFFF
310
FFFFFFFFFFFFFFFFFFFFFFFFFFFFFFFFFFFFFFFFFFFFFFFFFFFFFFFFFFFFFFFF
310
FFFFFFFFFFFFFFFFFFFFFFFFFFFFFFFFFFFFFFFFFFFFFFFFFFFFFFFFFFFFFFFF
310
FFFFFFFFFFFFFFFFFFFFFFFFFFFFFFFFFFFFFFFFFFFFFFFFFFFFFFFFFFFFFFFF
310
FFFFFFFFFFFFFFFFFFFFFFFFFFFFFFFFFFFFFFFFFFFFFFFFFFFFFFFFFFFFFFFF
310
FFFFFFFFFFFFFFFFFFFFFFFFFFFFFFFFFFFFFFFFFFFFFFFFFFFFFFFFFFFFFFFF
310
FFFFFFFFFFFFFFFFFFFFFFFFFFFFFFFFFFFFFFFFFFFFFFFFFFFFFFFFFFFFFFFF
310
FFFFFFFFFFFFFFFFFFFFFFFFFFFFFFFFFFFFFFFFFFFFFFFFFFFFFFFFFFFFFFFF
310
FFFFFFFFFFFFFFFFFFFFFFFFFFFFFFFFFFFFFFFFFFFFFFFFFFFFFFFFFFFFFFFF
310
FFFFFFFFFFFFFFFFFFFFFFFFFFFFFFFFFFFFFFFFFFFFFFFFFFFFFFFFFFFFFFFF
310
FFFFFFFFFFFFFFFFFFFFFFFFFFFFFFFFFFFFFFFFFFFFFFFFFFFFFFFFFFFFFFFF
310
FFFFFFFFFFFFFFFFFFFFFFFFFFFFFFFFFFFFFFFFFFFFFFFFFFFFFFFFFFFFFFFF
310
FFFFFFFFFFFFFFFFFFFFFFFFFFFFFFFFFFFFFFFFFFFFFFFFFFFFFFFFFFFFFFFF
310
0100000200000000000000000000000000000000000000000000000000000000
310
0000000000000000000000000000000000000000000000000000000000000000
310
0100FEFF030A0000FFFFFFFF0A00030000000000C00000000000004607000000
310
5042727573680007000000504272757368000700000050427275736800F439B2
310
7100000000000000000000000000000000000000000000000000000000000000
310
0000000000000000000000000000000000000000000000000000000000000000
310
0000000000000000000000000000000000000000000000000000000000000000
310
0000000000000000000000000000000000000000000000000000000000000000
310
0000000000000000000000000000000000000000000000000000000000000000
310
0000000000000000000000000000000000000000000000000000000000000000
310
0000000000000000000000000000000000000000000000000000000000000000
310
0000000000000000000000000000000000000000000000000000000000000000
310
0000000000000000000000000000000000000000000000000000000000000000
310
0000000000000000000000000000000000000000000000000000000000000000
310
0000000000000000000000000000000000000000000000000000000000000000
310
0000000000000000000000000000000000000000000000000000000000000000
310
20260000424D0E260000000000003E00000028000000B40200006E0000000100
310
01000000000000000000130B0000130B00000200000002000000000000FFFFFF
310
FFFFFFFFFFFFFFFFFFFFFFFFFFFFFFFFFFFFFFFFFFFFFFFFFFFFFFFFFFFFFFFF
310
FFFFFFFFFFFFFFFFFFFFFFFFFFFFFFFFFFFFFFFFFFFFFFFFFFFFFFFFFFFFFFFF
310
FFFFFFFFFFFFFFFFFFFFFFFFFFFFFFFFFFFFFFFFFFFFFFFFF000FFFFFFFFFFFF
310
FFFFFFFFFFFFFFFFFFFFFFFFFFFFFFFFFFFFFFFFFFFFFFFFFFFFFFFFFFFFFFFF
310
FFFFFFFFFFFFFFFFFFFFFFFFFFFFFFFFFFFFFFFFFFFFFFFFFFFFFFFFFFFFFFFF
310
FFFFFFFFFFFFFFFFFFFFFFFFFFFFFFFFF000FFFFFFFFFFFFFFFFFFFFFFFFFFFF
310
FFFFFFFFFFFFFFFFFFFFFFFFFFFFFFFFFFFFFFFFFFFFFFFFFFFFFFFFFFFFFFFF
310
FFFFFFFFFFFFFFFFFFFFFFFFFFFFFFFFFFFFFFFFFFFFFFFFFFFFFFFFFFFFFFFF
310
FFFFFFFFFFFFFFFFF000FFFFFFFFFFFFFFFFFFFFFFFFFFFFFFFFFFFFFFFFFFFF
310
FFFFFFFFFFFFFFFFFFFFFFFFFFFFFFFFFFFFFFFFFFFFFFFFFFFFFFFFFFFFFFFF
310
FFFFFFFFFFFFFFFFFFFFFFFFFFFFFFFFFFFFFFFFFFFFFFFFFFFFFFFFFFFFFFFF
310
F000FFFFFFFFFFFFFFFFFFFFFFFFFFFFFFFFFFFFFFFFFFFFFFFFFFFFFFFFFFFF
310
FFFFFFFFFFFFFFFFFFFFFFFFFFFFFFFFFFFFFFFFFFFFFFFFFFFFFFFFFFFFFFFF
310
FFFFFFFFFFFFFFFFFFFFFFFFFFFFFFFFFFFFFFFFFFFFFFFFF000FFFFFFFFFFFF
310
FFFFFFFFFFFFFFFFFFFFFFFFFFFFFFFFFFFFFFFFFFFFFFFFFFFFFFFFFFFFFFFF
310
FFFFFFFFFFFFFFFFFFFFFFFFFFFFFFFFFFFFFFFFFFFFFFFFFFFFFFFFFFFFFFFF
310
FFFFFFFFFFFFFFFFFFFFFFFFFFFFFFFFF000FFFFFFFFFFFFFFFFFFFFFFFFFFFF
310
FFFFFFFFFFFFFFFFFFFFFFFFFFFFFFFFFFFFFFFFFFFFFFFFFFFFFFFFFFFFFFFF
310
FFFFFFFFFFFFFFFFFFFFFFFFFFFFFFFFFFFFFFFFFFFFFFFFFFFFFFFFFFFFFFFF
310
FFFFFFFFFFFFFFFFF000FFFFFFFFFFFFFFFFFFFFFFFFFFFFFFFFFFFFFFFFFFFF
310
FFFFFFFFFFFFFFFFFFFFFFFFFFFFFFFFFFFFFFFFFFFFFFFFFFFFFFFFFFFFFFFF
310
FFFFFFFFFFFFFFFFFFFFFFFFFFFFFFFFFFFFFFFFFFFFFFFFFFFFFFFFFFFFFFFF
310
F000FFFFFFFFFFFFFFFFFFFFFFFFFFFFFFFFFFFFFFFFFFFFFFFFFFFFFFFFFFFF
310
FFFFFFFFFFFFFFFFFFFFFFFFFFFFFFFFFFFFFFFFFFFFFFFFFFFFFFFFFFFFFFFF
310
FFFFFFFFFFFFFFFFFFFFFFFFFFFFFFFFFFFFFFFFFFFFFFFFF000FFFFFFFFFFFF
310
FFFFFFFFFFFFFFFFFFFFFFFFFFFFFFFFFFFFFFFFFFFFFFFFFFFFFFFFFFFFFFFF
310
FFFFFFFFFFFFFFFFFFFFFFFFFFFFFFFFFFFFFFFFFFFFFFFFFFFFFFFFFFFFFFFF
310
FFFFFFFFFFFFFFFFFFFFFFFFFFFFFFFFF000FFFFFFFFFFFFFFFFFFFFFFFFFFFF
310
FFFFFFFFFFFFFFFFFFFFFFFFFFFFFFFFFFFFFFFFFFFFFFFFFFFFFFFFFFFFFFFF
310
FFFFFFFFFFFFFFFFFFFFFFFFFFFFFFFFFFFFFFFFFFFFFFFFFFFFFFFFFFFFFFFF
310
FFFFFFFFFFFFFFFFF000FFFFFFFFFFFFFFFFFFFFFFFFFFFFFFFFFFFFFFFFFFFF
310
FFFFFFFFFFFFFFFFFFFFFFFFFFFFFFFFFFFFFFFFFFFFFFFFFFFFFFFFFFFFFFFF
310
FFFFFFFFFFFFFFFFFFFFFFFFFFFFFFFFFFFFFFFFFFFFFFFFFFFFFFFFFFFFFFFF
310
F000FFFFFFFFFFFFFFFFFFFFFFFFFFFFFFFFFFFFFFFFFFFFFFFFFFFFFFFFFFFF
310
FFFFFFFFFFFFFFFFFFFFFFFFFFFFFFFFFFFFFFFFFFFFFFFFFFFFFFFFFFFFFFFF
310
FFFFFFFFFFFFFFFFFFFFFFFFFFFFFFFFFFFFFFFFFFFFFFFFF000FFFFFFFFFFFF
310
FFFFFFFFFFFFFFFFFFFFFFFFFFFFFFFFFFFFFFFFFFFFFFFFFFFFFFFFFFFFFFFF
310
FFFFFFFFFFFFFFFFFFFFFFFFFFFFFFFFFFFFFFFFFFFFFFFFFFFFFFFFFFFFFFFF
310
FFFFFFFFFFFFFFFFFFFFFFFFFFFFFFFFF000FFFFFFFFFFFFFFFFFFFFFFFFFFFF
310
FFFFFFFFFFFFFFFFFFFFFFFFFFFFFFFFFFFFFFFFFFFFFFFFFFFFFFFFFFFFFFFF
310
FFFFFFFFFFFFFFFFFFFFFFFFFFFFFFFFFFFFFFFFFFFFFFFFFFFFFFFFFFFFFFFF
310
FFFFFFFFFFFFFFFFF000FFFFFFFFFFFFFFFFFFFFFFFFFFFFFFFFFFFFFFFFFFFF
310
FFFFFFFFFFFFFFFFFFFFFFFFFFFFFFFFFFFFFFFFFFFFFFFFFFFFFFFFFFFFFFFF
310
FFFFFFFFFFFFFFFFFFFFFFFFFFFFFFFFFFFFFFFFFFFFFFFFFFFFFFFFFFFFFFFF
310
F000FFFFFFFFFFFFFFFFFFFFFFFFFFFFFFFFFFFFFFFFFFFFFFFFFFFFFFFFFFFF
310
FFFFFFFFFFFFFFFFFFFFFFFFFFFFFFFFFFFFFFFFFFFFFFFFFFFFFFFFFFFFFFFF
310
FFFFFFFFFFFFFFFFFFFFFFFFFFFFFFFFFFFFFFFFFFFFFFFFF000FFFFFFFFFFFF
310
FFFFFFFFFFFFFFFFFFFFFFFFFFFFFFFFFFFFFFFFFFFFFFFFFFFFFFFFFFFFFFFF
310
FFFFFFFFFFFFFFFFFFFFFFFFFFFFFFFFFFFFFFFFFFFFFFFFFFFFFFFFFFFFFFFF
310
FFFFFFFFFFFFFFFFFFFFFFFFFFFFFFFFF000FFFFFFFFFFFFFFFFFFFFFFFFFFFF
310
FFFFFFFFFFFFFFFFFFFFFFFFFFFFFFFFFFFFFFFFFFFFFFFFFFFFFFFFFFFFFFFF
310
FFFFFFFFFFFFFFFFFFFFFFFFFFFFFFFFFFFFFFFFFFFFFFFFFFFFFFFFFFFFFFFF
310
FFFFFFFFFFFFFFFFF000FFFFF80003FFFFFFFFFFFFFFFFFFFFFFFFFFFFFFFFFF
310
FFFFF00007FFFFFFFFFF00007FFFFFF800000000000000007FFFFFFFFFFFFFFF
310
FFFFFFFC001FFFFFFFFFFFFFFC001FFFFFFFFFFFFFFFFFFFFFFFFFFE0007FFFF
310
F000FFFF8000007FFFFFFFF8000FFFFFC0007FFFFF80007FFFFF0000007FFFFF
310
FFF8000007FFFFF800000000000000007FFFFFF0001FFFFFFFFFFFC00001FFFF
310
FFFFFFFFC00001FFFFFFFF000000000003FFFFE000007FFFF000FFFE0000000F
310
FFFFFFF0000FFFFF80007FFFFF80007FFFFC0000001FFFFFFFC0000001FFFFF8
310
00000000000000007FFFFFF0001FFFFFFFFFFE0000003FFFFFFFFFFE0000003F
310
FFFFFF000000000003FFFF0000000FFFF000FFF800000003FFFFFFF00007FFFF
310
80007FFFFF80007FFFF000000007FFFFFF000000003FFFF80000000000000000
310
7FFFFFF0001FFFFFFFFFF80000000FFFFFFFFFF80000000FFFFFFF0000000000
310
03FFFC00000003FFF000FFE000000000FFFFFFF00007FFFF80003FFFFF80007F
310
FFC000000001FFFFFC000000001FFFF800000000000000007FFFFFF0001FFFFF
310
FFFFE000000003FFFFFFFFE000000003FFFFFF000000000003FFF000000000FF
310
F000FF80000000007FFFFFF00007FFFF80003FFFFF80007FFF8000000000FFFF
310
F80000000007FFF800000000000000007FFFFFF0001FFFFFFFFFC000000001FF
310
FFFFFFC000000001FFFFFF000000000003FFC0000000007FF000FF0000000000
310
3FFFFFE00007FFFF00003FFFFF80007FFE00000000003FFFF00000000003FFF8
310
00000000000000007FFFFFF0001FFFFFFFFF8000000000FFFFFFFF8000000000
310
FFFFFF000000000003FF80000000003FF000FE00000000001FFFFFE00003FFFF
310
00003FFFFF80007FFC00000000001FFFE00000000001FFF8000001FFFE000000
310
7FFFFFF0001FFFFFFFFE00000000003FFFFFFE00000000003FFFFF0000000000
310
03FF00000000001FF000FC00000000000FFFFFE00003FFFF00001FFFFF80007F
310
F800000000001FFFC00000000000FFF8000001FFFE0000007FFFFFF0001FFFFF
310
FFFC00000000001FFFFFFC00000000001FFFFF000000000003FE00000000000F
310
F000F8000000000007FFFFE00003FFFF00001FFFFF80007FF800000000000FFF
310
800000000000FFF8000001FFFE0000007FFFFFF0001FFFFFFFF800000000000F
310
FFFFF800000000000FFFFF000000000003FC000000000007F000F80000000000
310
03FFFFC00003FFFE00001FFFFF80007FF0000000000007FF0000000000007FF8
310
000001FFFE0000007FFFFFF0001FFFFFFFF0000000000007FFFFF00000000000
310
07FFFF000000000003F8000000000003F000F0000000000003FFFFC00001FFFE
310
00001FFFFF80007FE0000000000007FE0000000000003FF8000001FFFE000000
310
7FFFFFF0001FFFFFFFF0000000000007FFFFF0000000000007FFFF0000000000
310
03F800001F800003F000E00001FFF00001FFFFC00001FFFE00000FFFFF80007F
310
E00001FFE00003FE00001FFF00003FF8000001FFFE0000007FFFFFF0001FFFFF
310
FFE000003E000003FFFFE000003E000003FFFF000000000003F00001FFF80001
310
F000E00007FFFC0001FFFFC00001FFFE00000FFFFF80007FC0000FFFFC0003FC
310
0000FFFFC0001FF8000001FFFE0000007FFFFFF0001FFFFFFFC00003FFE00001
310
FFFFC00003FFE00001FFFF0001FFFFFFFFF00007FFFE0001F000E0000FFFFF00
310
00FFFF800001FFFC00000FFFFF80007FC0001FFFFE0001FC0001FFFFE0001FF8
310
000001FFFE0000007FFFFFF0001FFFFFFF80000FFFF80000FFFF80000FFFF800
310
00FFFF0003FFFFFFFFE0000FFFFF8000F000C0003FFFFF8000FFFF800000FFFC
310
000007FFFF80007F80003FFFFF0001FC0003FFFFF0001FF8000001FFFE000000
310
7FFFFFF0001FFFFFFF80003FFFFE0000FFFF80003FFFFE0000FFFF0003FFFFFF
310
FFE0003FFFFF8000F000C0003FFFFF8000FFFF800000FFFC000007FFFF80007F
310
80007FFFFF8001F80007FFFFF8000FF8000001FFFE0000007FFFFFF0001FFFFF
310
FF00007FFFFF00007FFF00007FFFFF00007FFF0003FFFFFFFFE0003FFFFFC000
310
F000C0007FFFFFC000FFFF000000FFFC000007FFFF80007F8000FFFFFF8000F8
310
000FFFFFF8000FF8000001FFFE0000007FFFFFF0001FFFFFFF0000FFFFFF8000
310
7FFF0000FFFFFF80007FFF0003FFFFFFFFC0007FFFFFC00070008000FFFFFFC0
310
00FFFF000000FFF8000007FFFF80007F8000FFFFFF8000F8000FFFFFF8000FF8
310
000001FFFE0000007FFFFFF0001FFFFFFE0001FFFFFFC0003FFE0001FFFFFFC0
310
003FFF0003FFFFFFFFC0007FFFFFE00070008000FFFFFFC0007FFF0000007FF8
310
000003FFFF80007F0001FFFFFF8000F8000FFFFFF8000FF8000001FFFE000000
310
7FFFFFF0001FFFFFFE0001FFFFFFC0003FFE0001FFFFFFC0003FFF0003FFFFFF
310
FFC000FFFFFFE00070008000FFFFFFC0007FFF0000007FF8000003FFFF80007F
310
0001FFFFFF8000F8001FFFFFF8000FF8000001FFFE0000007FFFFFF0001FFFFF
310
FE0003FFFFFFE0003FFE0003FFFFFFE0003FFF0003FFFFFFFFC000FFFFFFE000
310
70008000FFFFFFC0007FFE0000007FF8000003FFFF80007F0001FFFFFF8000F0
310
001FFFFFF8000FF8000001FFFE0000007FFFFFF0001FFFFFFC0003FFFFFFE000
310
1FFC0003FFFFFFE0001FFF0003FFFFFFFFC000FFFFFFC00070008000FFFFFF80
310
007FFE0000007FF0000003FFFF80007F0001FFFFFF0000F0001FFFFFF8000FF8
310
000001FFFE0000007FFFFFF0001FFFFFFC0007FFFFFFF0001FFC0007FFFFFFF0
310
001FFF0003FFFFFFFFC000FFFFFFC00070008001FFFFFF0000FFFE0000003FF0
310
000001FFFF80007F0001FFFFFF0000F8001FFFFFF0000FF8000001FFFE000000
310
7FFFFFF0001FFFFFFC0007FFFFFFF0001FFC0007FFFFFFF0001FFF0003FFFFFF
310
FFC001FFFFFF80007000FFFFFFFFFE0000FFFE0008003FF0008001FFFF80007F
310
FFFFFFFFFC0000FFFFFFFFFFE0000FF8000001FFFE0000007FFFFFF0001FFFFF
310
F8000FFFFFFFF8000FF8000FFFFFFFF8000FFF0003FFFFFFFFFFFFFFFFFF0000
310
7000FFFFFFFFFC0000FFFC0008003FF0008001FFFF80007FFFFFFFFFF80001FF
310
FFFFFFFF80000FF8000001FFFE0000007FFFFFF0001FFFFFF8000FFFFFFFF800
310
0FF8000FFFFFFFF8000FFF0003FFFFFFFFFFFFFFFFFE0000F000FFFFFFFFE000
310
00FFFC000C003FE000C001FFFF80007FFFFFFFFFC00001FFFFFFFFFE00001FF8
310
000001FFFE0000007FFFFFF0001FFFFFF8000FFFFFFFF8000FF8000FFFFFFFF8
310
000FFF0003FFFFFFFFFFFFFFFFF00000F000FFFFFFFE000001FFFC000C001FE0
310
00C000FFFF80007FFFFFFFFE000001FFFFFFFFE000001FF80FFFFFFFFFFFFFC0
310
7FFFFFF0001FFFFFF8000FFFFFFFF8000FF8000FFFFFFFF8000FFF0003FFFFFF
310
FFFFFFFFFF800000F000FFFFFFC0000001FFFC001C001FE001C000FFFF80007F
310
FFFFFF80000003FFFFFFF80000001FF80FFFFFFFFFFFFFC07FFFFFF0001FFFFF
310
F8001FFFFFFFFC000FF8001FFFFFFFFC000FFF0003FFFFFFFFFFFFFFF0000001
310
F000FFFFF800000001FFF8001C001FE001C000FFFF80007FFFFFF800000003FF
310
FFFF800000003FF80FFFFFFFFFFFFFC07FFFFFF0001FFFFFF8001FFFFFFFFC00
310
0FF8001FFFFFFFFC000FFF0003FFFFFFFFFFFFFE00000001F000FFFFC0000000
310
03FFF8001E001FC001E000FFFF80007FFFFF8000000007FFFFFC000000003FF8
310
0FFFFFFFFFFFFFC07FFFFFF0001FFFFFF8001FFFFFFFFC000FF8001FFFFFFFFC
310
000FFF0003FFFFFFFFFFFFE000000003F000FFFE0000000007FFF8001E000FC0
310
01E0007FFF80007FFFFE0000000007FFFFE0000000007FF80FFFFFFFFFFFFFC0
310
7FFFFFF0001FFFFFF0001FFFFFFFFC0007F0001FFFFFFFFC0007FF0003FFFFFF
310
FFFFFF0000000003F000FFF80000000007FFF8001E000FC003E0007FFF80007F
310
FFF0000000000FFFFF8000000000FFF80FFFFFFFFFFFFFC07FFFFFF0001FFFFF
310
F0001FFFFFFFFC0007F0001FFFFFFFFC0007FF0003FFFFFFFFFFFC0000000007
310
F000FFE0000000000FFFF0003E000FC003E0007FFF80007FFFC0000000001FFF
310
FE0000000001FFF80FFFFFFFFFFFFFC07FFFFFF0001FFFFFF0001FFFFFFFFC00
310
07F0001FFFFFFFFC0007FF0003FFFFFFFFFFF0000000000FF000FFC000000000
310
1FFFF0003F000F8003F0003FFF80007FFF80000000003FFFF80000000003FFF8
310
0FFFFFFFFFFFFFC07FFFFFF0001FFFFFF0001FFFFFFFFC0007F0001FFFFFFFFC
310
0007FF0003FFFFFFFFFFE0000000001FF000FF00000000007FFFF0003F000780
310
03F0003FFF80007FFF00000000007FFFF00000000007FFF80FFFFFFFFFFFFFC0
310
7FFFFFF0001FFFFFF0001FFFFFFFFC0007F0001FFFFFFFFC0007FF0003FFFFFF
310
FFFF80000000007FF000FE0000000000FFFFE0003F00078007F0003FFF80007F
310
FE0000000001FFFFE0000000001FFFF80FFFFFFFFFFFFFC07FFFFFF0001FFFFF
310
F0001FFFFFFFFC0007F0001FFFFFFFFC0007FF0003FFFFFFFFFF0000000000FF
310
F000FC0000000003FFFFE0007F00078007F0003FFF80007FFC0000000007FFFF
310
C0000000007FFFF80FFFFFFFFFFFFFC07FFFFFF0001FFFFFF8001FFFFFFFFC00
310
0FF8001FFFFFFFFC000FFF0003FFFFFFFFFE0000000003FFF000FC000000000F
310
FFFFE0007F80070007F8001FFF80007FF8000000001FFFFF8000000001FFFFF8
310
0FFFFFFFFFFFFFC07FFFFFF0001FFFFFF8001FFFFFFFFC000FF8001FFFFFFFFC
310
000FFF0003FFFFFFFFFC000000000FFFF000F8000000007FFFFFE0007F800700
310
07F8001FFF80007FF000000000FFFFFF800000000FFFFFF80FFFFFFFFFFFFFC0
310
7FFFFFF0001FFFFFF8000FFFFFFFF8000FF8000FFFFFFFF8000FFF0003FFFFFF
310
FFFC000000007FFFF000F800000007FFFFFFC0007F8003000FF8001FFF80007F
310
F000000007FFFFFF000000007FFFFFF80FFFFFFFFFFFFFC07FFFFFF0001FFFFF
310
F8000FFFFFFFF8000FF8000FFFFFFFF8000FFF0003FFFFFFFFF80000000FFFFF
310
F000F0000000FFFFFFFFC000FF8003000FF8001FFF80007FE0000000FFFFFFFF
310
0000000FFFFFFFF8000001FFFE0000007FFFFFF0001FFFFFF8000FFFFFFFF800
310
0FF8000FFFFFFFF8000FFF0003FFFFFFFFF8000000FFFFFFF000F000000FFFFF
310
FFFFC000FFC002000FF8000FFF80007FE000001FFFFFFFFE000001FFFFFFFFF8
310
000001FFFE0000007FFFFFF0001FFFFFF8000FFFFFFFF8000FF8000FFFFFFFF8
310
000FFF0003FFFFFFFFF000001FFFFFFFF000E00000FFFFFFFFFFC000FFC00200
310
0FFC000FFF80007FE00001FFFFFFFFFE00001FFFFFFFFFF8000001FFFE000000
310
7FFFFFF0001FFFFFFC000FFFFFFFF8001FFC000FFFFFFFF8001FFF0003FFFFFF
310
FFF00001FFFFFFFFF000E00007FFFFFFFFFF8000FFC000001FFC000FFF80007F
310
C0000FFFFFFFFFFE0000FFFFFFFFFFF8000001FFFE0000007FFFFFF0001FFFFF
310
FC0007FFFFFFF0001FFC0007FFFFFFF0001FFF0003FFFFFFFFF00007FFFFFFFF
310
F000E0001FFFFFFFFFFF8000FFC000001FFC000FFF80007FC0003FFFFFFFFFFE
310
0001FFFFFFFFFFF8000001FFFE0000007FFFFFF0001FFFFFFC0007FFFFFFF000
310
1FFC0007FFFFFFF0001FFF0003FFFFFFFFF0001FFFFFFFFFF000E0003FFFFF00
310
03FF8001FFE000001FFC0007FF80007FC0007FFFFF0007FC0003FFFFF0003FF8
310
000001FFFE0000007FFFFFF0001FFFFFFC0003FFFFFFE0001FFC0003FFFFFFE0
310
001FFF0003FFFFFFFFF0003FFFFFFFFFF000E0003FFFFF0001FF8001FFE00000
310
1FFE0007FF80007FC0007FFFFE0003FC0007FFFFE0003FF8000001FFFE000000
310
7FFFFFF0001FFFFFFE0003FFFFFFE0003FFE0003FFFFFFE0003FFF0003FFFFFF
310
FFF0003FFFFF8001F000E0003FFFFF0001FF0001FFE000001FFE0007FF80007F
310
C0007FFFFE0003FC0007FFFFE0003FF8000001FFFE0000007FFFFFF0001FFFFF
310
FE0001FFFFFFC0003FFE0001FFFFFFC0003FFF0003FFFFFFFFF0003FFFFF0001
310
F000E0003FFFFF0003FF0001FFE000003FFE0007FF80007FC0007FFFFE0003FC
310
0007FFFFE0003FF8000001FFFE0000007FFFFFF0001FFFFFFF0001FFFFFFC000
310
7FFF0001FFFFFFC0007FFF0003FFFFFFFFF0003FFFFF0001F000E0003FFFFE00
310
03FF0003FFF000003FFE0003FF80007FC0007FFFFC0003FE0007FFFFE0003FF8
310
000001FFFE0000007FFFFFF0001FFFFFFF0000FFFFFF80007FFF0000FFFFFF80
310
007FFF0003FFFFFFFFF0003FFFFF0001F000E0003FFFFE0003FF0003FFF00000
310
3FFF0003FF80007FC0007FFFFC0007FE0007FFFFC0003FF8000001FFFE000000
310
7FFFFFF0001FFFFFFF80007FFFFF0000FFFF80007FFFFF0000FFFF0003FFFFFF
310
FFF0003FFFFF0003F000E0003FFFFC0003FE0003FFF000003FFF0003FF80007F
310
E0003FFFF80007FE0003FFFFC0007FF8000001FFFE0000007FFFFFF0001FFFFF
310
FF80003FFFFE0000FFFF80003FFFFE0000FFFF0003FFFFFFFFF0001FFFFE0003
310
F000F0001FFFF80003FE0003FFF000007FFF0001FF80007FE0003FFFF00007FE
310
0001FFFF80007FF8000001FFFE0000007FFFFFF0001FFFFFFFC0000FFFF80001
310
FFFFC0000FFFF80001FFFF0003FFFFFFFFF0001FFFFC0003F000F0000FFFF000
310
07FE0007FFF800007FFF0001FF80007FE0001FFFE00007FF0000FFFE00007FF8
310
000001FFFE0000007FFFFFF0001FFFFFFFC00003FFE00001FFFFC00003FFE000
310
01FFFF0003FFFFFFFFF8000FFFF80003F000F00003FFC00007FC0007FFF80000
310
7FFF8001FF80007FF00007FF80000FFF00007FF80000FFF8000001FFFE000000
310
7F80000000000001FFE000003E000003FFFFE000003E000003FFFF0003FFFFFF
310
FFF80003FFE00007F000F800000000000FFC0007FFF800007FFF8001FF80007F
310
F000000000000FFF000000000000FFF8000001FFFE0000007F80000000000001
310
FFF0000000000007FFFFF0000000000007FFFF0003FFFFFFFFFC00007E000007
310
F000F800000000000FFC0007FFF80000FFFF8000FF80007FF800000000001FFF
310
800000000001FFF8000001FFFE0000007F80000000000001FFF800000000000F
310
FFFFF800000000000FFFFF0003FFFFFFFFFC00000000000FF000FC0000000000
310
1FFC0007FFFC0000FFFF8000FF80007FF800000000003FFFC00000000001FFF8
310
000001FFFE0000007F80000000000001FFF800000000000FFFFFF80000000000
310
0FFFFF0003FFFFFFFFFE00000000001FF000FE00000000003FF8000FFFFC0000
310
FFFF8000FF80007FFC00000000003FFFC00000000003FFF8000001FFFE000000
310
7F80000000000001FFFC00000000001FFFFFFC00000000001FFFFF0003FFFFFF
310
FFFF00000000001FF000FF00000000003FF8000FFFFC0000FFFFC000FF80007F
310
FE00000000007FFFE00000000007FFF8000001FFFE0000007F80000000000001
310
FFFE00000000003FFFFFFE00000000003FFFFF0003FFFFFFFFFF80000000003F
310
F000FF80000000007FF8000FFFFC0001FFFFC0007F80007FFF0000000000FFFF
310
F0000000000FFFF800000000000000007F80000000000001FFFF8000000000FF
310
FFFFFF8000000000FFFFFF0003FFFFFFFFFFC0000000007FF000FFC000000000
310
FFF8000FFFFE0001FFFFC0007F80007FFF8000000001FFFFF8000000001FFFF8
310
00000000000000007F80000000000001FFFFC000000001FFFFFFFFC000000001
310
FFFFFF0003FFFFFFFFFFE000000000FFF000FFE000000003FFF0001FFFFE0001
310
FFFFC0007F80007FFFC000000007FFFFFE000000003FFFF80000000000000000
310
7F80000000000001FFFFE000000003FFFFFFFFE000000003FFFFFF0003FFFFFF
310
FFFFF000000003FFF000FFF80000000FFFF0001FFFFE0001FFFFE0007F80007F
310
FFF00000000FFFFFFF00000000FFFFF800000000000000007F80000000000001
310
FFFFF80000000FFFFFFFFFF80000000FFFFFFF0003FFFFFFFFFFFC0000000FFF
310
F000FFFE0000003FFFF0001FFFFE0003FFFFE0003F80007FFFFC0000003FFFFF
310
FFC0000003FFFFF800000000000000007F80000000000001FFFFFE0000003FFF
310
FFFFFFFE0000003FFFFFFF0003FFFFFFFFFFFF0000003FFFF000FFFF800000FF
310
FFF0001FFFFF0003FFFFE0003F80007FFFFF000001FFFFFFFFF800001FFFFFF8
310
00000000000000007F80000000000001FFFFFFC00001FFFFFFFFFFFFC00001FF
310
FFFFFF0003FFFFFFFFFFFFC00000FFFFF000FFFFF8000FFFFFFFFFFFFFFFFFFF
310
FFFFFFFFFFFFFFFFFFFFF0001FFFFFFFFFFF0000FFFFFFF80000000000000000
310
7FFFFFFFFFFFFFFFFFFFFFFC001FFFFFFFFFFFFFFC001FFFFFFFFFFFFFFFFFFF
310
FFFFFFFC001FFFFFF000FFFFFFFFFFFFFFFFFFFFFFFFFFFFFFFFFFFFFFFFFFFF
310
FFFFFFFFFFFFFFFFFFFFFFFFFFFFFFFFFFFFFFFFFFFFFFFFFFFFFFFFFFFFFFFF
310
FFFFFFFFFFFFFFFFFFFFFFFFFFFFFFFFFFFFFFFFFFFFFFFFFFFFFFFFFFFFFFFF
310
F000FFFFFFFFFFFFFFFFFFFFFFFFFFFFFFFFFFFFFFFFFFFFFFFFFFFFFFFFFFFF
310
FFFFFFFFFFFFFFFFFFFFFFFFFFFFFFFFFFFFFFFFFFFFFFFFFFFFFFFFFFFFFFFF
310
FFFFFFFFFFFFFFFFFFFFFFFFFFFFFFFFFFFFFFFFFFFFFFFFF000FFFFFFFFFFFF
310
FFFFFFFFFFFFFFFFFFFFFFFFFFFFFFFFFFFFFFFFFFFFFFFFFFFFFFFFFFFFFFFF
310
FFFFFFFFFFFFFFFFFFFFFFFFFFFFFFFFFFFFFFFFFFFFFFFFFFFFFFFFFFFFFFFF
310
FFFFFFFFFFFFFFFFFFFFFFFFFFFFFFFFF000FFFFFFFFFFFFFFFFFFFFFFFFFFFF
310
FFFFFFFFFFFFFFFFFFFFFFFFFFFFFFFFFFFFFFFFFFFFFFFFFFFFFFFFFFFFFFFF
310
FFFFFFFFFFFFFFFFFFFFFFFFFFFFFFFFFFFFFFFFFFFFFFFFFFFFFFFFFFFFFFFF
310
FFFFFFFFFFFFFFFFF000FFFFFFFFFFFFFFFFFFFFFFFFFFFFFFFFFFFFFFFFFFFF
310
FFFFFFFFFFFFFFFFFFFFFFFFFFFFFFFFFFFFFFFFFFFFFFFFFFFFFFFFFFFFFFFF
310
FFFFFFFFFFFFFFFFFFFFFFFFFFFFFFFFFFFFFFFFFFFFFFFFFFFFFFFFFFFFFFFF
310
F000FFFFFFFFFFFFFFFFFFFFFFFFFFFFFFFFFFFFFFFFFFFFFFFFFFFFFFFFFFFF
310
FFFFFFFFFFFFFFFFFFFFFFFFFFFFFFFFFFFFFFFFFFFFFFFFFFFFFFFFFFFFFFFF
310
FFFFFFFFFFFFFFFFFFFFFFFFFFFFFFFFFFFFFFFFFFFFFFFFF000FFFFFFFFFFFF
310
FFFFFFFFFFFFFFFFFFFFFFFFFFFFFFFFFFFFFFFFFFFFFFFFFFFFFFFFFFFFFFFF
310
FFFFFFFFFFFFFFFFFFFFFFFFFFFFFFFFFFFFFFFFFFFFFFFFFFFFFFFFFFFFFFFF
310
FFFFFFFFFFFFFFFFFFFFFFFFFFFFFFFFF000FFFFFFFFFFFFFFFFFFFFFFFFFFFF
310
FFFFFFFFFFFFFFFFFFFFFFFFFFFFFFFFFFFFFFFFFFFFFFFFFFFFFFFFFFFFFFFF
310
FFFFFFFFFFFFFFFFFFFFFFFFFFFFFFFFFFFFFFFFFFFFFFFFFFFFFFFFFFFFFFFF
310
FFFFFFFFFFFFFFFFF000FFFFFFFFFFFFFFFFFFFFFFFFFFFFFFFFFFFFFFFFFFFF
310
FFFFFFFFFFFFFFFFFFFFFFFFFFFFFFFFFFFFFFFFFFFFFFFFFFFFFFFFFFFFFFFF
310
FFFFFFFFFFFFFFFFFFFFFFFFFFFFFFFFFFFFFFFFFFFFFFFFFFFFFFFFFFFFFFFF
310
F000FFFFFFFFFFFFFFFFFFFFFFFFFFFFFFFFFFFFFFFFFFFFFFFFFFFFFFFFFFFF
310
FFFFFFFFFFFFFFFFFFFFFFFFFFFFFFFFFFFFFFFFFFFFFFFFFFFFFFFFFFFFFFFF
310
FFFFFFFFFFFFFFFFFFFFFFFFFFFFFFFFFFFFFFFFFFFFFFFFF000FFFFFFFFFFFF
310
FFFFFFFFFFFFFFFFFFFFFFFFFFFFFFFFFFFFFFFFFFFFFFFFFFFFFFFFFFFFFFFF
310
FFFFFFFFFFFFFFFFFFFFFFFFFFFFFFFFFFFFFFFFFFFFFFFFFFFFFFFFFFFFFFFF
310
FFFFFFFFFFFFFFFFFFFFFFFFFFFFFFFFF000FFFFFFFFFFFFFFFFFFFFFFFFFFFF
310
FFFFFFFFFFFFFFFFFFFFFFFFFFFFFFFFFFFFFFFFFFFFFFFFFFFFFFFFFFFFFFFF
310
FFFFFFFFFFFFFFFFFFFFFFFFFFFFFFFFFFFFFFFFFFFFFFFFFFFFFFFFFFFFFFFF
310
FFFFFFFFFFFFFFFFF000FFFFFFFFFFFFFFFFFFFFFFFFFFFFFFFFFFFFFFFFFFFF
310
FFFFFFFFFFFFFFFFFFFFFFFFFFFFFFFFFFFFFFFFFFFFFFFFFFFFFFFFFFFFFFFF
310
FFFFFFFFFFFFFFFFFFFFFFFFFFFFFFFFFFFFFFFFFFFFFFFFFFFFFFFFFFFFFFFF
310
F000FFFFFFFFFFFFFFFFFFFFFFFFFFFFFFFFFFFFFFFFFFFFFFFFFFFFFFFFFFFF
310
FFFFFFFFFFFFFFFFFFFFFFFFFFFFFFFFFFFFFFFFFFFFFFFFFFFFFFFFFFFFFFFF
310
FFFFFFFFFFFFFFFFFFFFFFFFFFFFFFFFFFFFFFFFFFFFFFFFF000FFFFFFFFFFFF
310
FFFFFFFFFFFFFFFFFFFFFFFFFFFFFFFFFFFFFFFFFFFFFFFFFFFFFFFFFFFFFFFF
310
FFFFFFFFFFFFFFFFFFFFFFFFFFFFFFFFFFFFFFFFFFFFFFFFFFFFFFFFFFFFFFFF
310
FFFFFFFFFFFFFFFFFFFFFFFFFFFFFFFFF000FFFFFFFFFFFFFFFFFFFFFFFFFFFF
310
FFFFFFFFFFFFFFFFFFFFFFFFFFFFFFFFFFFFFFFFFFFFFFFFFFFFFFFFFFFFFFFF
310
FFFFFFFFFFFFFFFFFFFFFFFFFFFFFFFFFFFFFFFFFFFFFFFFFFFFFFFFFFFFFFFF
310
FFFFFFFFFFFFFFFFF000FFFFFFFFFFFFFFFFFFFFFFFFFFFFFFFFFFFFFFFFFFFF
310
FFFFFFFFFFFFFFFFFFFFFFFFFFFFFFFFFFFFFFFFFFFFFFFFFFFFFFFFFFFFFFFF
310
FFFFFFFFFFFFFFFFFFFFFFFFFFFFFFFFFFFFFFFFFFFFFFFFFFFFFFFFFFFFFFFF
310
F000FFFFFFFFFFFFFFFFFFFFFFFFFFFFFFFFFFFFFFFFFFFFFFFFFFFFFFFFFFFF
310
FFFFFFFFFFFFFFFFFFFFFFFFFFFFFFFFFFFFFFFFFFFFFFFFFFFFFFFFFFFFFFFF
310
FFFFFFFFFFFFFFFFFFFFFFFFFFFFFFFFFFFFFFFFFFFFFFFFF000FFFFFFFFFFFF
310
FFFFFFFFFFFFFFFFFFFFFFFFFFFFFFFFFFFFFFFFFFFFFFFFFFFFFFFFFFFFFFFF
310
FFFFFFFFFFFFFFFFFFFFFFFFFFFFFFFFFFFFFFFFFFFFFFFFFFFFFFFFFFFFFFFF
310
FFFFFFFFFFFFFFFFFFFFFFFFFFFFFFFFF000FFFFFFFFFFFFFFFFFFFFFFFFFFFF
310
FFFFFFFFFFFFFFFFFFFFFFFFFFFFFFFFFFFFFFFFFFFFFFFFFFFFFFFFFFFFFFFF
310
FFFFFFFFFFFFFFFFFFFFFFFFFFFFFFFFFFFFFFFFFFFFFFFFFFFFFFFFFFFFFFFF
310
FFFFFFFFFFFFFFFFF000FFFFFFFFFFFFFFFFFFFFFFFFFFFFFFFFFFFFFFFFFFFF
310
FFFFFFFFFFFFFFFFFFFFFFFFFFFFFFFFFFFFFFFFFFFFFFFFFFFFFFFFFFFFFFFF
310
FFFFFFFFFFFFFFFFFFFFFFFFFFFFFFFFFFFFFFFFFFFFFFFFFFFFFFFFFFFFFFFF
310
F000FFFFFFFFFFFFFFFFFFFFFFFFFFFFFFFFFFFFFFFFFFFFFFFFFFFFFFFFFFFF
310
FFFFFFFFFFFFFFFFFFFFFFFFFFFFFFFFFFFFFFFFFFFFFFFFFFFFFFFFFFFFFFFF
310
FFFFFFFFFFFFFFFFFFFFFFFFFFFFFFFFFFFFFFFFFFFFFFFFF000FFFFFFFFFFFF
310
FFFFFFFFFFFFFFFFFFFFFFFFFFFFFFFFFFFFFFFFFFFFFFFFFFFFFFFFFFFFFFFF
310
FFFFFFFFFFFFFFFFFFFFFFFFFFFFFFFFFFFFFFFFFFFFFFFFFFFFFFFFFFFFFFFF
310
FFFFFFFFFFFFFFFFFFFFFFFFFFFFFFFFF0000000000000000000000000000000
310
0000000000000000000000000000000000000000000000000000000000000000
310
0000000000000000000000000000000000000000000000000000000000000000
310
0000000000000000000000000000000000000000000000000000000000000000
310
0000000000000000000000000000000000000000000000000000000000000000
310
0000000000000000000000000000000000000000000000000000000000000000
310
0000000000000000000000000000000000000000000000000000000000000000
310
0000000000000000000000000000000000000000000000000000000000000000
310
0000000000000000000000000000000000000000000000000000000000000000
310
0000000000000000000000000000000000000000000000000000000000000000
310
0000000000000000000000000000000000000000000000000000000000000000
310
0000000000000000000000000000000000000000000000000000000000000000
310
0000000000000000000000000000000000000000000000000000000000000000
310
0000000000000000000000000000000000000000000000000000000000000000
310
0000000000000000000000000000000000000000000000000000000000000000
310
0000000000000000000000000000000000000000000000000000000000000000
  1
OLE
  0
ENDSEC
  0
SECTION
  2
OBJECTS
  0
DICTIONARY
  5
C
330
0
100
AcDbDictionary
281
     1
  3
ACAD_GROUP
350
D
  3
ACAD_LAYOUT
350
1A
  3
ACAD_MLINESTYLE
350
17
  3
ACAD_PLOTSETTINGS
350
19
  3
ACAD_PLOTSTYLENAME
350
E
  0
DICTIONARY
  5
D
102
{ACAD_REACTORS
330
C
102
}
330
C
100
AcDbDictionary
281
     1
  0
DICTIONARY
  5
1A
102
{ACAD_REACTORS
330
C
102
}
330
C
100
AcDbDictionary
281
     1
  3
Layout1
350
1E
  3
Layout2
350
26
  3
Model
350
22
  0
DICTIONARY
  5
17
102
{ACAD_REACTORS
330
C
102
}
330
C
100
AcDbDictionary
281
     1
  3
Standard
350
18
  0
DICTIONARY
  5
19
102
{ACAD_REACTORS
330
C
102
}
330
C
100
AcDbDictionary
281
     1
  0
ACDBDICTIONARYWDFLT
  5
E
102
{ACAD_REACTORS
330
C
102
}
330
C
100
AcDbDictionary
281
     1
  3
Normal
350
F
100
AcDbDictionaryWithDefault
340
F
  0
LAYOUT
  5
1E
102
{ACAD_REACTORS
330
1A
102
}
330
1A
100
AcDbPlotSettings
  1

  2
none_device
  4

  6

 40
0.0
 41
0.0
 42
0.0
 43
0.0
 44
0.0
 45
0.0
 46
0.0
 47
0.0
 48
0.0
 49
0.0
140
0.0
141
0.0
142
1.0
143
1.0
 70
   688
 72
     0
 73
     0
 74
     5
  7

 75
    16
147
1.0
148
0.0
149
0.0
100
AcDbLayout
  1
Layout1
 70
     1
 71
     1
 10
0.0
 20
0.0
 11
420.0
 21
297.0
 12
0.0
 22
0.0
 32
0.0
 14
1.0000000000E+20
 24
1.0000000000E+20
 34
1.0000000000E+20
 15
-1.0000000000E+20
 25
-1.0000000000E+20
 35
-1.0000000000E+20
146
0.0
 13
0.0
 23
0.0
 33
0.0
 16
1.0
 26
0.0
 36
0.0
 17
0.0
 27
1.0
 37
0.0
 76
     0
330
1B
  0
LAYOUT
  5
26
102
{ACAD_REACTORS
330
1A
102
}
330
1A
100
AcDbPlotSettings
  1

  2
none_device
  4

  6

 40
0.0
 41
0.0
 42
0.0
 43
0.0
 44
0.0
 45
0.0
 46
0.0
 47
0.0
 48
0.0
 49
0.0
140
0.0
141
0.0
142
1.0
143
1.0
 70
   688
 72
     0
 73
     0
 74
     5
  7

 75
    16
147
1.0
148
0.0
149
0.0
100
AcDbLayout
  1
Layout2
 70
     1
 71
     2
 10
0.0
 20
0.0
 11
0.0
 21
0.0
 12
0.0
 22
0.0
 32
0.0
 14
0.0
 24
0.0
 34
0.0
 15
0.0
 25
0.0
 35
0.0
146
0.0
 13
0.0
 23
0.0
 33
0.0
 16
1.0
 26
0.0
 36
0.0
 17
0.0
 27
1.0
 37
0.0
 76
     0
330
23
  0
LAYOUT
  5
22
102
{ACAD_REACTORS
330
1A
102
}
330
1A
100
AcDbPlotSettings
  1

  2
none_device
  4

  6

 40
0.0
 41
0.0
 42
0.0
 43
0.0
 44
0.0
 45
0.0
 46
0.0
 47
0.0
 48
0.0
 49
0.0
140
0.0
141
0.0
142
1.0
143
1.0
 70
  1712
 72
     0
 73
     0
 74
     0
  7

 75
     0
147
1.0
148
0.0
149
0.0
100
AcDbLayout
  1
Model
 70
     1
 71
     0
 10
0.0
 20
0.0
 11
297.0
 21
210.0
 12
0.0
 22
0.0
 32
0.0
 14
0.0
 24
0.0
 34
0.0
 15
297.0
 25
210.0
 35
0.0
146
0.0
 13
0.0
 23
0.0
 33
0.0
 16
1.0
 26
0.0
 36
0.0
 17
0.0
 27
1.0
 37
0.0
 76
     0
330
1F
331
29
  0
MLINESTYLE
  5
18
102
{ACAD_REACTORS
330
17
102
}
330
17
100
AcDbMlineStyle
  2
Standard
 70
     0
  3

 62
   256
 51
90.0
 52
90.0
 71
     2
 49
0.5
 62
   256
  6
BYLAYER
 49
-0.5
 62
   256
  6
BYLAYER
  0
ACDBPLACEHOLDER
  5
F
102
{ACAD_REACTORS
330
E
102
}
330
E
  0
ENDSEC
  0
EOF
