  0
SECTION
  2
HEADER
  9
$ACADVER
  1
AC1015
  9
$ACADMAINTVER
 70
     6
  9
$DWGCODEPAGE
  3
ANSI_1252
  9
$INSBASE
 10
0.0
 20
0.0
 30
0.0
  9
$EXTMIN
 10
0.0
 20
0.0
 30
0.0
  9
$EXTMAX
 10
297.0
 20
210.0
 30
0.0
  9
$LIMMIN
 10
0.0
 20
0.0
  9
$LIMMAX
 10
297.0
 20
210.0
  9
$ORTHOMODE
 70
     0
  9
$REGENMODE
 70
     1
  9
$FILLMODE
 70
     1
  9
$QTEXTMODE
 70
     0
  9
$MIRRTEXT
 70
     1
  9
$LTSCALE
 40
1.0
  9
$ATTMODE
 70
     1
  9
$TEXTSIZE
 40
2.0
  9
$TRACEWID
 40
1.0
  9
$TEXTSTYLE
  7
Standard
  9
$CLAYER
  8
0
  9
$CELTYPE
  6
ByLayer
  9
$CECOLOR
 62
   256
  9
$CELTSCALE
 40
1.0
  9
$DISPSILH
 70
     0
  9
$DIMSCALE
 40
1.0
  9
$DIMASZ
 40
3.0
  9
$DIMEXO
 40
0.0
  9
$DIMDLI
 40
3.75
  9
$DIMRND
 40
0.0
  9
$DIMDLE
 40
0.0
  9
$DIMEXE
 40
1.0
  9
$DIMTP
 40
0.0
  9
$DIMTM
 40
0.0
  9
$DIMTXT
 40
2.0
  9
$DIMCEN
 40
2.5
  9
$DIMTSZ
 40
0.0
  9
$DIMTOL
 70
     0
  9
$DIMLIM
 70
     0
  9
$DIMTIH
 70
     1
  9
$DIMTOH
 70
     1
  9
$DIMSE1
 70
     0
  9
$DIMSE2
 70
     0
  9
$DIMTAD
 70
     1
  9
$DIMZIN
 70
     0
  9
$DIMBLK
  1

  9
$DIMASO
 70
     1
  9
$DIMSHO
 70
     1
  9
$DIMPOST
  1

  9
$DIMAPOST
  1

  9
$DIMALT
 70
     0
  9
$DIMALTD
 70
     3
  9
$DIMALTF
 40
0.0393700787
  9
$DIMLFAC
 40
1.0
  9
$DIMTOFL
 70
     1
  9
$DIMTVP
 40
0.0
  9
$DIMTIX
 70
     0
  9
$DIMSOXD
 70
     0
  9
$DIMSAH
 70
     0
  9
$DIMBLK1
  1

  9
$DIMBLK2
  1

  9
$DIMSTYLE
  2
ISO-25
  9
$DIMCLRD
 70
     0
  9
$DIMCLRE
 70
     0
  9
$DIMCLRT
 70
     0
  9
$DIMTFAC
 40
1.0
  9
$DIMGAP
 40
1.524
  9
$DIMJUST
 70
     0
  9
$DIMSD1
 70
     0
  9
$DIMSD2
 70
     0
  9
$DIMTOLJ
 70
     0
  9
$DIMTZIN
 70
     0
  9
$DIMALTZ
 70
     0
  9
$DIMALTTZ
 70
     0
  9
$DIMUPT
 70
     0
  9
$DIMDEC
 70
     2
  9
$DIMTDEC
 70
     3
  9
$DIMALTU
 70
     2
  9
$DIMALTTD
 70
     3
  9
$DIMTXSTY
  7
Standard
  9
$DIMAUNIT
 70
     0
  9
$DIMADEC
 70
     2
  9
$DIMALTRND
 40
0.0
  9
$DIMAZIN
 70
     0
  9
$DIMDSEP
 70
    44
  9
$DIMATFIT
 70
     3
  9
$DIMFRAC
 70
     0
  9
$DIMLDRBLK
  1

  9
$DIMLUNIT
 70
     2
  9
$DIMLWD
 70
    -2
  9
$DIMLWE
 70
    -2
  9
$DIMTMOVE
 70
     0
  9
$LUNITS
 70
     2
  9
$LUPREC
 70
     2
  9
$SKETCHINC
 40
1.0
  9
$FILLETRAD
 40
10.0
  9
$AUNITS
 70
     0
  9
$AUPREC
 70
     2
  9
$MENU
  1
.
  9
$ELEVATION
 40
0.0
  9
$PELEVATION
 40
0.0
  9
$THICKNESS
 40
0.0
  9
$LIMCHECK
 70
     0
  9
$CHAMFERA
 40
10.0
  9
$CHAMFERB
 40
10.0
  9
$CHAMFERC
 40
20.0
  9
$CHAMFERD
 40
0.0
  9
$SKPOLY
 70
     0
  9
$TDCREATE
 40
2456085.441514329
  9
$TDUCREATE
 40
2456085.358180996
  9
$TDUPDATE
 40
2456085.441515775
  9
$TDUUPDATE
 40
2456085.358182442
  9
$TDINDWG
 40
0.0000000116
  9
$TDUSRTIMER
 40
0.0000000116
  9
$USRTIMER
 70
     1
  9
$ANGBASE
 50
0.0
  9
$ANGDIR
 70
     0
  9
$PDMODE
 70
     0
  9
$PDSIZE
 40
-1.0
  9
$PLINEWID
 40
0.0
  9
$SPLFRAME
 70
     0
  9
$SPLINETYPE
 70
     6
  9
$SPLINESEGS
 70
     8
  9
$HANDSEED
  5
28C
  9
$SURFTAB1
 70
     6
  9
$SURFTAB2
 70
     6
  9
$SURFTYPE
 70
     6
  9
$SURFU
 70
     6
  9
$SURFV
 70
     6
  9
$UCSBASE
  2

  9
$UCSNAME
  2

  9
$UCSORG
 10
0.0
 20
0.0
 30
0.0
  9
$UCSXDIR
 10
1.0
 20
0.0
 30
0.0
  9
$UCSYDIR
 10
0.0
 20
1.0
 30
0.0
  9
$UCSORTHOREF
  2

  9
$UCSORTHOVIEW
 70
     0
  9
$UCSORGTOP
 10
0.0
 20
0.0
 30
0.0
  9
$UCSORGBOTTOM
 10
0.0
 20
0.0
 30
0.0
  9
$UCSORGLEFT
 10
0.0
 20
0.0
 30
0.0
  9
$UCSORGRIGHT
 10
0.0
 20
0.0
 30
0.0
  9
$UCSORGFRONT
 10
0.0
 20
0.0
 30
0.0
  9
$UCSORGBACK
 10
0.0
 20
0.0
 30
0.0
  9
$PUCSBASE
  2

  9
$PUCSNAME
  2

  9
$PUCSORG
 10
0.0
 20
0.0
 30
0.0
  9
$PUCSXDIR
 10
1.0
 20
0.0
 30
0.0
  9
$PUCSYDIR
 10
0.0
 20
1.0
 30
0.0
  9
$PUCSORTHOREF
  2

  9
$PUCSORTHOVIEW
 70
     0
  9
$PUCSORGTOP
 10
0.0
 20
0.0
 30
0.0
  9
$PUCSORGBOTTOM
 10
0.0
 20
0.0
 30
0.0
  9
$PUCSORGLEFT
 10
0.0
 20
0.0
 30
0.0
  9
$PUCSORGRIGHT
 10
0.0
 20
0.0
 30
0.0
  9
$PUCSORGFRONT
 10
0.0
 20
0.0
 30
0.0
  9
$PUCSORGBACK
 10
0.0
 20
0.0
 30
0.0
  9
$USERI1
 70
     0
  9
$USERI2
 70
     0
  9
$USERI3
 70
     0
  9
$USERI4
 70
     0
  9
$USERI5
 70
     0
  9
$USERR1
 40
0.0
  9
$USERR2
 40
0.0
  9
$USERR3
 40
0.0
  9
$USERR4
 40
0.0
  9
$USERR5
 40
0.0
  9
$WORLDVIEW
 70
     1
  9
$SHADEDGE
 70
     3
  9
$SHADEDIF
 70
    70
  9
$TILEMODE
 70
     1
  9
$MAXACTVP
 70
    64
  9
$PINSBASE
 10
0.0
 20
0.0
 30
0.0
  9
$PLIMCHECK
 70
     0
  9
$PEXTMIN
 10
1.0000000000E+20
 20
1.0000000000E+20
 30
1.0000000000E+20
  9
$PEXTMAX
 10
-1.0000000000E+20
 20
-1.0000000000E+20
 30
-1.0000000000E+20
  9
$PLIMMIN
 10
0.0
 20
0.0
  9
$PLIMMAX
 10
420.0
 20
297.0
  9
$UNITMODE
 70
     0
  9
$VISRETAIN
 70
     1
  9
$PLINEGEN
 70
     0
  9
$PSLTSCALE
 70
     1
  9
$TREEDEPTH
 70
  3020
  9
$CMLSTYLE
  2
Standard
  9
$CMLJUST
 70
     0
  9
$CMLSCALE
 40
20.0
  9
$PROXYGRAPHICS
 70
     1
  9
$MEASUREMENT
 70
     1
  9
$CELWEIGHT
370
    -1
  9
$ENDCAPS
280
     0
  9
$JOINSTYLE
280
     0
  9
$LWDISPLAY
290
     1
  9
$INSUNITS
 70
     4
  9
$HYPERLINKBASE
  1

  9
$STYLESHEET
  1

  9
$XEDIT
290
     1
  9
$CEPSNTYPE
380
     0
  9
$PSTYLEMODE
290
     1
  9
$FINGERPRINTGUID
  2
{BA17D770-13E1-444D-B22D-F91ABF26371C}
  9
$VERSIONGUID
  2
{FAEB1C32-E019-11D5-929B-00C0DF256EC4}
  9
$EXTNAMES
290
     1
  9
$PSVPSCALE
 40
0.0
  9
$OLESTARTUP
290
     0
  0
ENDSEC
  0
SECTION
  2
CLASSES
  0
CLASS
  1
ACDBDICTIONARYWDFLT
  2
AcDbDictionaryWithDefault
  3
ObjectDBX Classes
 90
        0
280
     0
281
     0
  0
CLASS
  1
VISUALSTYLE
  2
AcDbVisualStyle
  3
ObjectDBX Classes
 90
     4095
280
     0
281
     0
  0
CLASS
  1
MATERIAL
  2
AcDbMaterial
  3
ObjectDBX Classes
 90
     1153
280
     0
281
     0
  0
CLASS
  1
ACDBPLACEHOLDER
  2
AcDbPlaceHolder
  3
ObjectDBX Classes
 90
        0
280
     0
281
     0
  0
CLASS
  1
LAYOUT
  2
AcDbLayout
  3
ObjectDBX Classes
 90
        0
280
     0
281
     0
  0
ENDSEC
  0
SECTION
  2
TABLES
  0
TABLE
  2
VPORT
  5
8
330
0
100
AcDbSymbolTable
 70
     1
  0
VPORT
  5
29
330
8
100
AcDbSymbolTableRecord
100
AcDbViewportTableRecord
  2
*Active
 70
     0
 10
0.0
 20
0.0
 11
1.0
 21
1.0
 12
148.5
 22
105.0
 13
0.0
 23
0.0
 14
10.0
 24
10.0
 15
10.0
 25
10.0
 16
0.0
 26
0.0
 36
1.0
 17
0.0
 27
0.0
 37
0.0
 40
210.0
 41
1.4142857143
 42
50.0
 43
0.0
 44
0.0
 50
0.0
 51
0.0
 71
     0
 72
  2000
 73
     1
 74
     3
 75
     0
 76
     0
 77
     0
 78
     0
281
     0
 65
     1
110
0.0
120
0.0
130
0.0
111
1.0
121
0.0
131
0.0
112
0.0
122
1.0
132
0.0
 79
     0
146
0.0
  0
ENDTAB
  0
TABLE
  2
LTYPE
  5
5
330
0
100
AcDbSymbolTable
 70
     6
  0
LTYPE
  5
14
330
5
100
AcDbSymbolTableRecord
100
AcDbLinetypeTableRecord
  2
ByBlock
 70
     0
  3

 72
    65
 73
     0
 40
0.0
  0
LTYPE
  5
15
330
5
100
AcDbSymbolTableRecord
100
AcDbLinetypeTableRecord
  2
ByLayer
 70
     0
  3

 72
    65
 73
     0
 40
0.0
  0
LTYPE
  5
16
330
5
100
AcDbSymbolTableRecord
100
AcDbLinetypeTableRecord
  2
Continuous
 70
     0
  3
Solid line
 72
    65
 73
     0
 40
0.0
  0
LTYPE
  5
3F
330
5
100
AcDbSymbolTableRecord
100
AcDbLinetypeTableRecord
  2
HIDDEN
 70
     0
  3
Hidden __ __ __ __ __ __ __ __ __ __ __ __ __ __
 72
    65
 73
     2
 40
1.905
 49
1.27
 74
     0
 49
-0.635
 74
     0
  0
LTYPE
  5
40
330
5
100
AcDbSymbolTableRecord
100
AcDbLinetypeTableRecord
  2
PHANTOM
 70
     0
  3
Phantom ______  __  __  ______  __  __  ______
 72
    65
 73
     6
 40
12.7
 49
6.35
 74
     0
 49
-1.27
 74
     0
 49
1.27
 74
     0
 49
-1.27
 74
     0
 49
1.27
 74
     0
 49
-1.27
 74
     0
  0
LTYPE
  5
41
330
5
100
AcDbSymbolTableRecord
100
AcDbLinetypeTableRecord
  2
CENTER
 70
     0
  3
Center ____ _ ____ _ ____ _ ____ _ ____ _ ____
 72
    65
 73
     4
 40
10.16
 49
6.35
 74
     0
 49
-1.27
 74
     0
 49
1.27
 74
     0
 49
-1.27
 74
     0
  0
LTYPE
  5
42
330
5
100
AcDbSymbolTableRecord
100
AcDbLinetypeTableRecord
  2
CENTERX2
 70
     0
  3
Center (2x) ________  __  ________  __  _____
 72
    65
 73
     4
 40
20.32
 49
12.7
 74
     0
 49
-2.54
 74
     0
 49
2.54
 74
     0
 49
-2.54
 74
     0
  0
LTYPE
  5
43
330
5
100
AcDbSymbolTableRecord
100
AcDbLinetypeTableRecord
  2
DOT2
 70
     0
  3
Dot (.5x) ........................................
 72
    65
 73
     2
 40
0.635
 49
0.0
 74
     0
 49
-0.635
 74
     0
  0
ENDTAB
  0
TABLE
  2
LAYER
  5
2
330
0
100
AcDbSymbolTable
 70
     5
  0
LAYER
  5
10
330
2
100
AcDbSymbolTableRecord
100
AcDbLayerTableRecord
  2
0
 70
     0
 62
     7
  6
Continuous
370
    -3
390
F
  0
LAYER
  5
44
330
2
100
AcDbSymbolTableRecord
100
AcDbLayerTableRecord
  2
FORMAT
 70
     0
 62
     7
  6
Continuous
370
    -3
390
F
  0
LAYER
  5
45
330
2
100
AcDbSymbolTableRecord
100
AcDbLayerTableRecord
  2
VERMASSUNG
 70
     0
 62
     7
  6
Continuous
370
    -3
390
F
  0
LAYER
  5
46
330
2
100
AcDbSymbolTableRecord
100
AcDbLayerTableRecord
  2
KOPF_DÜNN
 70
     0
 62
     7
  6
Continuous
370
    -3
390
F
  0
LAYER
  5
47
330
2
100
AcDbSymbolTableRecord
100
AcDbLayerTableRecord
  2
KOPF_DICK
 70
     0
 62
     7
  6
Continuous
370
    15
390
F
  0
ENDTAB
  0
TABLE
  2
STYLE
  5
3
330
0
100
AcDbSymbolTable
 70
     2
  0
STYLE
  5
11
330
3
100
AcDbSymbolTableRecord
100
AcDbTextStyleTableRecord
  2
Standard
 70
     0
 40
0.0
 41
1.0
 50
0.0
 71
     0
 42
2.0
  3
txt
  4

  0
STYLE
  5
48
330
3
100
AcDbSymbolTableRecord
100
AcDbTextStyleTableRecord
  2
SLDTEXTSTYLE0
 70
     0
 40
0.0
 41
0.7
 50
0.0
 71
     0
 42
0.2
  3
TXT
  4

  0
ENDTAB
  0
TABLE
  2
VIEW
  5
6
330
0
100
AcDbSymbolTable
 70
     0
  0
ENDTAB
  0
TABLE
  2
UCS
  5
7
330
0
100
AcDbSymbolTable
 70
     0
  0
ENDTAB
  0
TABLE
  2
APPID
  5
9
330
0
100
AcDbSymbolTable
 70
     1
  0
APPID
  5
12
330
9
100
AcDbSymbolTableRecord
100
AcDbRegAppTableRecord
  2
ACAD
 70
     0
  0
ENDTAB
  0
TABLE
  2
DIMSTYLE
  5
A
330
0
100
AcDbSymbolTable
 70
     5
100
AcDbDimStyleTable
  0
DIMSTYLE
105
27
330
A
100
AcDbSymbolTableRecord
100
AcDbDimStyleTableRecord
  2
ISO-25
 70
     0
 41
2.5
 42
0.625
 43
3.75
 44
1.25
 73
     0
 74
     0
 77
     1
 78
     8
140
2.5
141
2.5
143
0.0393700787
147
0.625
171
     3
172
     1
178
     0
271
     2
272
     2
274
     3
278
    44
283
     0
284
     8
340
11
  0
DIMSTYLE
105
1CE
102
{ACAD_REACTORS
330
1CD
330
1E1
330
1EB
330
1F5
330
1FE
102
}
330
A
100
AcDbSymbolTableRecord
100
AcDbDimStyleTableRecord
  2
SLDDIMSTYLE0
 70
     0
 41
3.0
 44
0.0
 45
0.000000001
 73
     0
 74
     0
 77
     1
 78
    12
 79
     3
140
2.0
147
0.5
173
     1
178
     0
271
     2
272
     3
276
     2
284
    12
340
48
  0
DIMSTYLE
105
1D9
102
{ACAD_REACTORS
330
1D8
102
}
330
A
100
AcDbSymbolTableRecord
100
AcDbDimStyleTableRecord
  2
SLDDIMSTYLE1
 70
     0
 41
3.0
 44
0.0
 73
     0
 74
     0
 77
     1
 78
    12
 79
     3
140
2.0
147
0.5
173
     1
178
     0
179
     1
272
     3
276
     2
284
    12
340
48
  0
DIMSTYLE
105
264
102
{ACAD_REACTORS
330
263
102
}
330
A
100
AcDbSymbolTableRecord
100
AcDbDimStyleTableRecord
  2
SLDDIMSTYLE2
 70
     0
 41
3.0
 44
0.0
 73
     0
 74
     0
 77
     1
 78
    12
 79
     3
140
2.0
147
0.5
173
     1
178
     0
179
     2
272
     3
276
     2
284
    12
340
48
  0
DIMSTYLE
105
271
102
{ACAD_REACTORS
330
270
102
}
330
A
100
AcDbSymbolTableRecord
100
AcDbDimStyleTableRecord
  2
SLDDIMSTYLE3
 70
     0
 41
3.0
 44
0.0
 45
0.000000001
 73
     0
 74
     0
 77
     1
 78
    12
 79
     3
140
2.0
147
0.5
172
     1
173
     1
178
     0
271
     2
272
     3
276
     2
284
    12
289
     0
340
48
  0
ENDTAB
  0
TABLE
  2
BLOCK_RECORD
  5
1
330
0
100
AcDbSymbolTable
 70
    10
  0
BLOCK_RECORD
  5
1F
330
1
100
AcDbSymbolTableRecord
100
AcDbBlockTableRecord
  2
*Model_Space
340
22
  0
BLOCK_RECORD
  5
1B
330
1
100
AcDbSymbolTableRecord
100
AcDbBlockTableRecord
  2
*Paper_Space
340
1E
  0
BLOCK_RECORD
  5
23
330
1
100
AcDbSymbolTableRecord
100
AcDbBlockTableRecord
  2
*Paper_Space0
340
26
  0
BLOCK_RECORD
  5
1CF
330
1
100
AcDbSymbolTableRecord
100
AcDbBlockTableRecord
  2
_D
340
0
  0
BLOCK_RECORD
  5
1DA
330
1
100
AcDbSymbolTableRecord
100
AcDbBlockTableRecord
  2
_D_1
340
0
  0
BLOCK_RECORD
  5
1E2
330
1
100
AcDbSymbolTableRecord
100
AcDbBlockTableRecord
  2
_D_2
340
0
  0
BLOCK_RECORD
  5
1EC
330
1
100
AcDbSymbolTableRecord
100
AcDbBlockTableRecord
  2
_D_3
340
0
  0
BLOCK_RECORD
  5
1F6
330
1
100
AcDbSymbolTableRecord
100
AcDbBlockTableRecord
  2
_D_4
340
0
  0
BLOCK_RECORD
  5
1FF
330
1
100
AcDbSymbolTableRecord
100
AcDbBlockTableRecord
  2
_D_5
340
0
  0
BLOCK_RECORD
  5
265
330
1
100
AcDbSymbolTableRecord
100
AcDbBlockTableRecord
  2
_D_6
340
0
  0
BLOCK_RECORD
  5
272
330
1
100
AcDbSymbolTableRecord
100
AcDbBlockTableRecord
  2
_D_7
340
0
  0
BLOCK_RECORD
  5
27F
330
1
100
AcDbSymbolTableRecord
100
AcDbBlockTableRecord
  2
SW_CENTERMARKSYMBOL_0
340
0
102
{BLKREFS
331
28A
102
}
  0
ENDTAB
  0
ENDSEC
  0
SECTION
  2
BLOCKS
  0
BLOCK
  5
20
330
1F
100
AcDbEntity
  8
0
100
AcDbBlockBegin
  2
*Model_Space
 70
     0
 10
0.0
 20
0.0
 30
0.0
  3
*Model_Space
  1

  0
ENDBLK
  5
21
330
1F
100
AcDbEntity
  8
0
100
AcDbBlockEnd
  0
BLOCK
  5
1C
330
1B
100
AcDbEntity
 67
     1
  8
0
100
AcDbBlockBegin
  2
*Paper_Space
 70
     0
 10
0.0
 20
0.0
 30
0.0
  3
*Paper_Space
  1

  0
ENDBLK
  5
1D
330
1B
100
AcDbEntity
 67
     1
  8
0
100
AcDbBlockEnd
  0
BLOCK
  5
24
330
23
100
AcDbEntity
  8
0
100
AcDbBlockBegin
  2
*Paper_Space0
 70
     0
 10
0.0
 20
0.0
 30
0.0
  3
*Paper_Space0
  1

  0
ENDBLK
  5
25
330
23
100
AcDbEntity
  8
0
100
AcDbBlockEnd
  0
BLOCK
  5
1D0
330
1CF
100
AcDbEntity
  8
0
100
AcDbBlockBegin
  2
_D
 70
     0
 10
0.0
 20
0.0
 30
0.0
  3
_D
  1

  0
SOLID
  5
1D2
330
1CF
100
AcDbEntity
  8
VERMASSUNG
100
AcDbTrace
 10
274.3304343199
 20
118.3071005576
 30
0.0
 11
273.8804343199
 21
115.3071005576
 31
0.0
 12
274.7804343199
 22
115.3071005576
 32
0.0
 13
274.7804343199
 23
115.3071005576
 33
0.0
  0
SOLID
  5
1D3
330
1CF
100
AcDbEntity
  8
VERMASSUNG
100
AcDbTrace
 10
274.3304343199
 20
96.3071005576
 30
0.0
 11
274.7804343199
 21
99.3071005576
 31
0.0
 12
273.8804343199
 22
99.3071005576
 32
0.0
 13
273.8804343199
 23
99.3071005576
 33
0.0
  0
LINE
  5
1D4
330
1CF
100
AcDbEntity
  8
VERMASSUNG
100
AcDbLine
 10
257.2658050803
 20
118.3071005576
 30
0.0
 11
275.3304343199
 21
118.3071005576
 31
0.0
  0
LINE
  5
1D5
330
1CF
100
AcDbEntity
  8
VERMASSUNG
100
AcDbLine
 10
257.2658050803
 20
96.3071005576
 30
0.0
 11
275.3304343199
 21
96.3071005576
 31
0.0
  0
LINE
  5
1D6
330
1CF
100
AcDbEntity
  8
VERMASSUNG
100
AcDbLine
 10
274.3304343199
 20
118.3071005576
 30
0.0
 11
274.3304343199
 21
96.3071005576
 31
0.0
  0
MTEXT
  5
1D7
330
1CF
100
AcDbEntity
  8
VERMASSUNG
100
AcDbMText
 10
271.7522989568
 20
105.0071005065
 30
0.1
 40
2.0
 41
0.0
 71
     1
 72
     1
  1
22
  7
SLDTEXTSTYLE0
 11
-9.708730276744010E-15
 21
1.0
 31
0.0
 73
     1
 44
1.0
  0
ENDBLK
  5
1D1
330
1CF
100
AcDbEntity
  8
0
100
AcDbBlockEnd
  0
BLOCK
  5
1DB
330
1DA
100
AcDbEntity
  8
0
100
AcDbBlockBegin
  2
_D_1
 70
     0
 10
0.0
 20
0.0
 30
0.0
  3
_D_1
  1

  0
ARC
  5
1DD
330
1DA
100
AcDbEntity
  8
VERMASSUNG
100
AcDbCircle
 10
257.3026908498
 20
96.3071005576
 30
0.0
 40
9.717124404921252
100
AcDbArc
 50
0.0
 51
95.0277975181
  0
SOLID
  5
1DE
330
1DA
100
AcDbEntity
  8
VERMASSUNG
100
AcDbTrace
 10
267.0198152548
 20
96.3071005576
 30
0.0
 11
267.0172826411
 21
99.3406617628
 31
0.0
 12
266.1273516935
 22
99.2064123366
 32
0.0
 13
266.1273516935
 23
99.2064123366
 33
0.0
  0
SOLID
  5
1DF
330
1DA
100
AcDbEntity
  8
VERMASSUNG
100
AcDbTrace
 10
256.4510913516
 20
105.9868363492
 30
0.0
 11
259.4174620923
 21
105.3518996371
 31
0.0
 12
259.4732022687
 22
106.2501718858
 32
0.0
 13
259.4732022687
 23
106.2501718858
 33
0.0
  0
MTEXT
  5
1E0
330
1DA
100
AcDbEntity
  8
VERMASSUNG
100
AcDbMText
 10
263.4684690991
 20
107.3328246826
 30
0.1
 40
2.0
 41
0.0
 71
     1
 72
     1
  1
95°
  7
SLDTEXTSTYLE0
 11
0.7374411991856007
 21
-0.6754113396617674
 31
0.0
 73
     1
 44
1.0
  0
ENDBLK
  5
1DC
330
1DA
100
AcDbEntity
  8
0
100
AcDbBlockEnd
  0
BLOCK
  5
1E3
330
1E2
100
AcDbEntity
  8
0
100
AcDbBlockBegin
  2
_D_2
 70
     0
 10
0.0
 20
0.0
 30
0.0
  3
_D_2
  1

  0
SOLID
  5
1E5
330
1E2
100
AcDbEntity
  8
VERMASSUNG
100
AcDbTrace
 10
147.2658050803
 20
81.7768137574
 30
0.0
 11
150.2658050803
 21
81.3268137574
 31
0.0
 12
150.2658050803
 22
82.2268137574
 32
0.0
 13
150.2658050803
 23
82.2268137574
 33
0.0
  0
SOLID
  5
1E6
330
1E2
100
AcDbEntity
  8
VERMASSUNG
100
AcDbTrace
 10
257.2658050803
 20
81.7768137574
 30
0.0
 11
254.2658050803
 21
82.2268137574
 31
0.0
 12
254.2658050803
 22
81.3268137574
 32
0.0
 13
254.2658050803
 23
81.3268137574
 33
0.0
  0
LINE
  5
1E7
330
1E2
100
AcDbEntity
  8
VERMASSUNG
100
AcDbLine
 10
147.2658050803
 20
93.6071005576
 30
0.0
 11
147.2658050803
 21
80.7768137574
 31
0.0
  0
LINE
  5
1E8
330
1E2
100
AcDbEntity
  8
VERMASSUNG
100
AcDbLine
 10
257.2658050803
 20
96.3071005576
 30
0.0
 11
257.2658050803
 21
80.7768137574
 31
0.0
  0
LINE
  5
1E9
330
1E2
100
AcDbEntity
  8
VERMASSUNG
100
AcDbLine
 10
147.2658050803
 20
81.7768137574
 30
0.0
 11
257.2658050803
 21
81.7768137574
 31
0.0
  0
MTEXT
  5
1EA
330
1E2
100
AcDbEntity
  8
VERMASSUNG
100
AcDbMText
 10
199.6658048404
 20
84.3549491205
 30
0.1
 40
2.0
 41
0.0
 71
     1
 72
     1
  1
110
  7
SLDTEXTSTYLE0
 73
     1
 44
1.0
  0
ENDBLK
  5
1E4
330
1E2
100
AcDbEntity
  8
0
100
AcDbBlockEnd
  0
BLOCK
  5
1ED
330
1EC
100
AcDbEntity
  8
0
100
AcDbBlockBegin
  2
_D_3
 70
     0
 10
0.0
 20
0.0
 30
0.0
  3
_D_3
  1

  0
SOLID
  5
1EF
330
1EC
100
AcDbEntity
  8
VERMASSUNG
100
AcDbTrace
 10
257.2658050803
 20
71.422196502
 30
0.0
 11
254.2658050803
 21
71.872196502
 31
0.0
 12
254.2658050803
 22
70.972196502
 32
0.0
 13
254.2658050803
 23
70.972196502
 33
0.0
  0
SOLID
  5
1F0
330
1EC
100
AcDbEntity
  8
VERMASSUNG
100
AcDbTrace
 10
117.2658050803
 20
71.422196502
 30
0.0
 11
120.2658050803
 21
70.972196502
 31
0.0
 12
120.2658050803
 22
71.872196502
 32
0.0
 13
120.2658050803
 23
71.872196502
 33
0.0
  0
LINE
  5
1F1
330
1EC
100
AcDbEntity
  8
VERMASSUNG
100
AcDbLine
 10
257.2658050803
 20
96.3071005576
 30
0.0
 11
257.2658050803
 21
70.422196502
 31
0.0
  0
LINE
  5
1F2
330
1EC
100
AcDbEntity
  8
VERMASSUNG
100
AcDbLine
 10
117.2658050803
 20
102.3137747194
 30
0.0
 11
117.2658050803
 21
70.422196502
 31
0.0
  0
LINE
  5
1F3
330
1EC
100
AcDbEntity
  8
VERMASSUNG
100
AcDbLine
 10
257.2658050803
 20
71.422196502
 30
0.0
 11
117.2658050803
 21
71.422196502
 31
0.0
  0
MTEXT
  5
1F4
330
1EC
100
AcDbEntity
  8
VERMASSUNG
100
AcDbMText
 10
184.3658048844
 20
74.0003318652
 30
0.1
 40
2.0
 41
0.0
 71
     1
 72
     1
  1
140
  7
SLDTEXTSTYLE0
 73
     1
 44
1.0
  0
ENDBLK
  5
1EE
330
1EC
100
AcDbEntity
  8
0
100
AcDbBlockEnd
  0
BLOCK
  5
1F7
330
1F6
100
AcDbEntity
  8
0
100
AcDbBlockBegin
  2
_D_4
 70
     0
 10
0.0
 20
0.0
 30
0.0
  3
_D_4
  1

  0
SOLID
  5
1F9
330
1F6
100
AcDbEntity
  8
VERMASSUNG
100
AcDbTrace
 10
183.1148469495
 20
102.3071005576
 30
0.0
 11
183.5648469495
 21
105.3071005576
 31
0.0
 12
182.6648469495
 22
105.3071005576
 32
0.0
 13
182.6648469495
 23
105.3071005576
 33
0.0
  0
SOLID
  5
1FA
330
1F6
100
AcDbEntity
  8
VERMASSUNG
100
AcDbTrace
 10
183.1148469495
 20
134.3071005576
 30
0.0
 11
182.6648469495
 21
131.3071005576
 31
0.0
 12
183.5648469495
 22
131.3071005576
 32
0.0
 13
183.5648469495
 23
131.3071005576
 33
0.0
  0
LINE
  5
1FB
330
1F6
100
AcDbEntity
  8
VERMASSUNG
100
AcDbLine
 10
183.1148469495
 20
102.3071005576
 30
0.0
 11
183.1148469495
 21
134.3071005576
 31
0.0
  0
MTEXT
  5
1FC
330
1F6
100
AcDbEntity
  8
VERMASSUNG
100
AcDbMText
 10
180.5367114699
 20
104.6453686294
 30
0.1
 40
2.0
 41
0.0
 71
     1
 72
     1
  1
%%c
  7
SLDTEXTSTYLE0
 11
6.123233995736766E-17
 21
1.0
 31
0.0
 73
     1
 44
1.0
  0
MTEXT
  5
1FD
330
1F6
100
AcDbEntity
  8
VERMASSUNG
100
AcDbMText
 10
180.3367114604
 20
108.2553686437
 30
0.1
 40
2.0
 41
0.0
 71
     1
 72
     1
  1
32
  7
SLDTEXTSTYLE0
 11
6.123233995736766E-17
 21
1.0
 31
0.0
 73
     1
 44
1.0
  0
ENDBLK
  5
1F8
330
1F6
100
AcDbEntity
  8
0
100
AcDbBlockEnd
  0
BLOCK
  5
200
330
1FF
100
AcDbEntity
  8
0
100
AcDbBlockBegin
  2
_D_5
 70
     0
 10
0.0
 20
0.0
 30
0.0
  3
_D_5
  1

  0
SOLID
  5
202
330
1FF
100
AcDbEntity
  8
VERMASSUNG
100
AcDbTrace
 10
110.8229987487
 20
143.3071005576
 30
0.0
 11
110.3729987487
 21
140.3071005576
 31
0.0
 12
111.2729987487
 22
140.3071005576
 32
0.0
 13
111.2729987487
 23
140.3071005576
 33
0.0
  0
SOLID
  5
203
330
1FF
100
AcDbEntity
  8
VERMASSUNG
100
AcDbTrace
 10
110.8229987487
 20
93.3071005576
 30
0.0
 11
111.2729987487
 21
96.3071005576
 31
0.0
 12
110.3729987487
 22
96.3071005576
 32
0.0
 13
110.3729987487
 23
96.3071005576
 33
0.0
  0
LINE
  5
204
330
1FF
100
AcDbEntity
  8
VERMASSUNG
100
AcDbLine
 10
147.5658050803
 20
143.3071005576
 30
0.0
 11
109.8229987487
 21
143.3071005576
 31
0.0
  0
LINE
  5
205
330
1FF
100
AcDbEntity
  8
VERMASSUNG
100
AcDbLine
 10
147.5658050803
 20
93.3071005576
 30
0.0
 11
109.8229987487
 21
93.3071005576
 31
0.0
  0
LINE
  5
206
330
1FF
100
AcDbEntity
  8
VERMASSUNG
100
AcDbLine
 10
110.8229987487
 20
143.3071005576
 30
0.0
 11
110.8229987487
 21
93.3071005576
 31
0.0
  0
MTEXT
  5
207
330
1FF
100
AcDbEntity
  8
VERMASSUNG
100
AcDbMText
 10
108.0448632597
 20
111.9021004483
 30
0.1
 40
2.0
 41
0.0
 71
     1
 72
     1
  1
PSC
  7
SLDTEXTSTYLE0
 11
-7.044195017643634E-15
 21
1.0
 31
0.0
 73
     1
 44
1.0
  0
MTEXT
  5
208
330
1FF
100
AcDbEntity
  8
VERMASSUNG
100
AcDbMText
 10
108.2448632692
 20
116.5021005504
 30
0.1
 40
2.0
 41
0.0
 71
     1
 72
     1
  1
%%c
  7
SLDTEXTSTYLE0
 11
-7.044195017643634E-15
 21
1.0
 31
0.0
 73
     1
 44
1.0
  0
MTEXT
  5
209
330
1FF
100
AcDbEntity
  8
VERMASSUNG
100
AcDbMText
 10
108.0448632597
 20
120.1121010304
 30
0.1
 40
2.0
 41
0.0
 71
     1
 72
     1
  1
50
  7
SLDTEXTSTYLE0
 11
-7.044195017643634E-15
 21
1.0
 31
0.0
 73
     1
 44
1.0
  0
ENDBLK
  5
201
330
1FF
100
AcDbEntity
  8
0
100
AcDbBlockEnd
  0
BLOCK
  5
266
330
265
100
AcDbEntity
  8
0
100
AcDbBlockBegin
  2
_D_6
 70
     0
 10
0.0
 20
0.0
 30
0.0
  3
_D_6
  1

  0
ARC
  5
268
330
265
100
AcDbEntity
  8
VERMASSUNG
100
AcDbCircle
 10
56.1437582201
 20
96.3489671621
 30
0.0
 40
56.65706227014313
100
AcDbArc
 50
90.0
 51
98.0
  0
ARC
  5
269
330
265
100
AcDbEntity
  8
VERMASSUNG
100
AcDbCircle
 10
56.1437582201
 20
96.3489671621
 30
0.0
 40
56.65706227014313
100
AcDbArc
 50
83.9401431747
 51
90.0
  0
ARC
  5
26A
330
265
100
AcDbEntity
  8
VERMASSUNG
100
AcDbCircle
 10
56.1437582201
 20
96.3489671621
 30
0.0
 40
56.65706227014314
100
AcDbArc
 50
98.0
 51
104.0598568253
  0
SOLID
  5
26B
330
265
100
AcDbEntity
  8
VERMASSUNG
100
AcDbTrace
 10
56.1437582201
 20
153.0060294322
 30
0.0
 11
59.1308075674
 21
152.476844968
 31
0.0
 12
59.1546101284
 22
153.3765301563
 32
0.0
 13
59.1546101284
 23
153.3765301563
 33
0.0
  0
SOLID
  5
26C
330
265
100
AcDbEntity
  8
VERMASSUNG
100
AcDbTrace
 10
48.2586191727
 20
152.4546467969
 30
0.0
 11
45.2255049336
 21
152.4025122368
 31
0.0
 12
45.3742878273
 22
151.5148953991
 32
0.0
 13
45.3742878273
 23
151.5148953991
 33
0.0
  0
LINE
  5
26D
330
265
100
AcDbEntity
  8
VERMASSUNG
100
AcDbLine
 10
56.1437582201
 20
145.8071005576
 30
0.0
 11
56.1437582201
 21
154.0060294322
 31
0.0
  0
LINE
  5
26E
330
265
100
AcDbEntity
  8
VERMASSUNG
100
AcDbLine
 10
48.9125205279
 20
147.8018968926
 30
0.0
 11
48.1194460718
 21
153.4449148656
 31
0.0
  0
MTEXT
  5
26F
330
265
100
AcDbEntity
  8
VERMASSUNG
100
AcDbMText
 10
49.8170785808
 20
155.2864065734
 30
0.1
 40
2.0
 41
0.0
 71
     1
 72
     1
  1
8°
  7
SLDTEXTSTYLE0
 11
0.9975640502598235
 21
0.06975647374413559
 31
0.0
 73
     1
 44
1.0
  0
ENDBLK
  5
267
330
265
100
AcDbEntity
  8
0
100
AcDbBlockEnd
  0
BLOCK
  5
273
330
272
100
AcDbEntity
  8
0
100
AcDbBlockBegin
  2
_D_7
 70
     0
 10
0.0
 20
0.0
 30
0.0
  3
_D_7
  1

  0
SOLID
  5
275
330
272
100
AcDbEntity
  8
VERMASSUNG
100
AcDbTrace
 10
68.5958440545
 20
131.999703834
 30
0.0
 11
70.8157985048
 21
134.0671424035
 31
0.0
 12
70.1115153545
 22
134.6274862661
 32
0.0
 13
70.1115153545
 23
134.6274862661
 33
0.0
  0
SOLID
  5
276
330
272
100
AcDbEntity
  8
VERMASSUNG
100
AcDbTrace
 10
43.6916723858
 20
100.6982304901
 30
0.0
 11
41.4717179355
 21
98.6307919206
 31
0.0
 12
42.1760010858
 22
98.0704480581
 32
0.0
 13
42.1760010858
 23
98.0704480581
 33
0.0
  0
LINE
  5
277
330
272
100
AcDbEntity
  8
VERMASSUNG
100
AcDbLine
 10
68.5958440545
 20
131.999703834
 30
0.0
 11
69.3783808881
 21
131.3770995423
 31
0.0
  0
LINE
  5
278
330
272
100
AcDbEntity
  8
VERMASSUNG
100
AcDbLine
 10
43.6916723858
 20
100.6982304901
 30
0.0
 11
42.9091355522
 21
101.3208347818
 31
0.0
  0
LINE
  5
279
330
272
100
AcDbEntity
  8
VERMASSUNG
100
AcDbLine
 10
68.5958440545
 20
131.999703834
 30
0.0
 11
72.3314698048
 21
136.6949248356
 31
0.0
  0
LINE
  5
27A
330
272
100
AcDbEntity
  8
VERMASSUNG
100
AcDbLine
 10
68.5958440545
 20
131.999703834
 30
0.0
 11
43.6916723858
 21
100.6982304901
 31
0.0
  0
LINE
  5
27B
330
272
100
AcDbEntity
  8
VERMASSUNG
100
AcDbLine
 10
43.6916723858
 20
100.6982304901
 30
0.0
 11
32.1498121627
 21
86.1915351895
 31
0.0
  0
MTEXT
  5
27C
330
272
100
AcDbEntity
  8
VERMASSUNG
100
AcDbMText
 10
30.132326188
 20
87.7966934037
 30
0.1
 40
2.0
 41
0.0
 71
     1
 72
     1
  1
%%c
  7
SLDTEXTSTYLE0
 11
0.6226042917168022
 21
0.7825368335968723
 31
0.0
 73
     1
 44
1.0
  0
MTEXT
  5
27D
330
272
100
AcDbEntity
  8
VERMASSUNG
100
AcDbMText
 10
32.2234203158
 20
90.7461722485
 30
0.1
 40
2.0
 41
0.0
 71
     1
 72
     1
  1
40
  7
SLDTEXTSTYLE0
 11
0.6226042917168022
 21
0.7825368335968723
 31
0.0
 73
     1
 44
1.0
  0
MTEXT
  5
27E
330
272
100
AcDbEntity
  8
VERMASSUNG
100
AcDbMText
 10
35.9512636544
 20
95.431611718
 30
0.1
 40
2.0
 41
0.0
 71
     1
 72
     1
  1
min.
  7
SLDTEXTSTYLE0
 11
0.6226042917168022
 21
0.7825368335968723
 31
0.0
 73
     1
 44
1.0
  0
ENDBLK
  5
274
330
272
100
AcDbEntity
  8
0
100
AcDbBlockEnd
  0
BLOCK
  5
280
330
27F
100
AcDbEntity
  8
0
100
AcDbBlockBegin
  2
SW_CENTERMARKSYMBOL_0
 70
     0
 10
0.0
 20
0.0
 30
0.0
  3
SW_CENTERMARKSYMBOL_0
  1

  0
LINE
  5
282
330
27F
100
AcDbEntity
  8
VERMASSUNG
 62
     0
100
AcDbLine
 10
0.0
 20
0.0
 30
0.0
 11
0.0
 21
2.5
 31
0.0
  0
LINE
  5
283
330
27F
100
AcDbEntity
  8
VERMASSUNG
 62
     0
100
AcDbLine
 10
0.0
 20
0.0
 30
0.0
 11
-2.5
 21
0.0
 31
0.0
  0
LINE
  5
284
330
27F
100
AcDbEntity
  8
VERMASSUNG
 62
     0
100
AcDbLine
 10
0.0
 20
0.0
 30
0.0
 11
0.0
 21
-2.5
 31
0.0
  0
LINE
  5
285
330
27F
100
AcDbEntity
  8
VERMASSUNG
 62
     0
100
AcDbLine
 10
0.0
 20
0.0
 30
0.0
 11
2.5
 21
0.0
 31
0.0
  0
LINE
  5
286
330
27F
100
AcDbEntity
  8
VERMASSUNG
 62
     0
100
AcDbLine
 10
0.0
 20
5.0
 30
0.0
 11
0.0
 21
27.5
 31
0.0
  0
LINE
  5
287
330
27F
100
AcDbEntity
  8
VERMASSUNG
 62
     0
100
AcDbLine
 10
-5.0
 20
0.0
 30
0.0
 11
-27.5
 21
0.0
 31
0.0
  0
LINE
  5
288
330
27F
100
AcDbEntity
  8
VERMASSUNG
 62
     0
100
AcDbLine
 10
0.0
 20
-5.0
 30
0.0
 11
0.0
 21
-27.5
 31
0.0
  0
LINE
  5
289
330
27F
100
AcDbEntity
  8
VERMASSUNG
 62
     0
100
AcDbLine
 10
5.0
 20
0.0
 30
0.0
 11
27.5
 21
0.0
 31
0.0
  0
ENDBLK
  5
281
330
27F
100
AcDbEntity
  8
0
100
AcDbBlockEnd
  0
ENDSEC
  0
SECTION
  2
ENTITIES
  0
MTEXT
  5
49
330
1F
100
AcDbEntity
  8
KOPF_DÜNN
100
AcDbMText
 10
13.8892156294
 20
23.8442973028
 30
0.0
 40
3.0
 41
0.0
 71
     1
 72
     1
  1
PS5.PCD.LLB.110
  7
SLDTEXTSTYLE0
 73
     1
 44
1.0
  0
MTEXT
  5
4A
330
1F
100
AcDbEntity
  8
VERMASSUNG
100
AcDbMText
 10
13.9329988022
 20
28.8834360957
 30
0.0
 40
3.0
 41
0.0
 71
     1
 72
     1
  1
Bohrstange links_Boring bar left
  7
SLDTEXTSTYLE0
 73
     1
 44
1.0
  0
MTEXT
  5
4B
330
1F
100
AcDbEntity
  8
VERMASSUNG
100
AcDbMText
 10
98.8601118557
 20
13.8365368179
 30
0.0
 40
2.0
 41
0.0
 71
     1
 72
     1
  1
Datum: 06.06.2012
  7
SLDTEXTSTYLE0
 73
     1
 44
1.0
  0
MTEXT
  5
4C
330
1F
100
AcDbEntity
  8
VERMASSUNG
100
AcDbMText
 10
13.933048693
 20
18.0482802738
 30
0.0
 40
2.0
 41
0.0
 71
     1
 72
     1
  1
PSC ø50 / Wp.: CN..12 04..
  7
SLDTEXTSTYLE0
 73
     1
 44
1.0
  0
MTEXT
  5
4D
330
1F
100
AcDbEntity
  8
VERMASSUNG
100
AcDbMText
 10
13.9808475933
 20
13.9090973692
 30
0.0
 40
2.0
 41
0.0
 71
     1
 72
     1
  1
Gewicht: 894g
  7
SLDTEXTSTYLE0
 73
     1
 44
1.0
  0
LINE
  5
4E
330
1F
100
AcDbEntity
  8
0
  6
Continuous
 62
     7
370
    15
100
AcDbLine
 10
256.1398131398
 20
108.849437856
 30
0.0
 11
255.642255917
 21
109.5082722091
 31
0.0
  0
LINE
  5
4F
330
1F
100
AcDbEntity
  8
0
  6
Continuous
 62
     7
370
    15
100
AcDbLine
 10
244.0795881299
 20
97.9888103389
 30
0.0
 11
244.5771453528
 21
97.3299741231
 31
0.0
  0
LINE
  5
50
330
1F
100
AcDbEntity
  8
0
  6
Continuous
 62
     7
370
    15
100
AcDbLine
 10
247.7963996677
 20
102.9134625055
 30
0.0
 11
248.3706904201
 21
102.3179683321
 31
0.0
  0
LINE
  5
51
330
1F
100
AcDbEntity
  8
0
  6
Continuous
 62
     7
370
    15
100
AcDbLine
 10
147.5658050946
 20
93.307100185
 30
0.0
 11
166.6658056525
 21
93.307100185
 31
0.0
  0
LINE
  5
52
330
1F
100
AcDbEntity
  8
0
  6
Continuous
 62
     7
370
    15
100
AcDbLine
 10
166.6658056525
 20
143.3071009301
 30
0.0
 11
147.5658050946
 21
143.3071009301
 31
0.0
  0
ARC
  5
53
330
1F
100
AcDbEntity
  8
0
  6
Continuous
 62
     7
370
    15
100
AcDbCircle
 10
166.6658050803
 20
93.9071005576
 30
0.0
 40
0.6000000000000227
100
AcDbArc
 50
270.0
 51
0.0
  0
ARC
  5
54
330
1F
100
AcDbEntity
  8
0
  6
Continuous
 62
     7
370
    15
100
AcDbCircle
 10
166.6658050803
 20
142.7071005576
 30
0.0
 40
0.6000000000000227
100
AcDbArc
 50
0.0
 51
90.0
  0
ARC
  5
55
330
1F
100
AcDbEntity
  8
0
  6
Continuous
 62
     7
370
    15
100
AcDbCircle
 10
147.5658050803
 20
93.6071005576
 30
0.0
 40
0.2999999999999972
100
AcDbArc
 50
180.0
 51
270.0
  0
ARC
  5
56
330
1F
100
AcDbEntity
  8
0
  6
Continuous
 62
     7
370
    15
100
AcDbCircle
 10
147.5658050803
 20
143.0071005576
 30
0.0
 40
0.3000000000000114
100
AcDbArc
 50
90.0
 51
180.0
  0
ARC
  5
57
330
1F
100
AcDbEntity
  8
0
  6
Continuous
 62
     7
370
    15
100
AcDbCircle
 10
171.2658050803
 20
98.3071005576
 30
0.0
 40
4.000000000000014
100
AcDbArc
 50
90.0
 51
180.0
  0
ARC
  5
58
330
1F
100
AcDbEntity
  8
0
  6
Continuous
 62
     7
370
    15
100
AcDbCircle
 10
171.2658050803
 20
138.3071005576
 30
0.0
 40
4.0
100
AcDbArc
 50
180.0
 51
270.0
  0
LWPOLYLINE
  5
59
330
1F
100
AcDbEntity
  8
0
  6
Continuous
 62
     7
370
    15
100
AcDbPolyline
 90
        3
 70
   128
 43
0.0
 10
147.0658050854
 20
100.467279502
 10
147.1912600206
 20
100.3989781671
 10
147.2658050803
 20
100.346241095
  0
LWPOLYLINE
  5
5A
330
1F
100
AcDbEntity
  8
0
  6
Continuous
 62
     7
370
    15
100
AcDbPolyline
 90
        3
 70
   128
 43
0.0
 10
147.2658050803
 20
136.2679600202
 10
147.1912600206
 20
136.2152229481
 10
147.0658050854
 20
136.1469216131
  0
LINE
  5
5B
330
1F
100
AcDbEntity
  8
0
  6
Continuous
 62
     7
370
    15
100
AcDbLine
 10
171.265805289
 20
102.3070997976
 30
0.0
 11
230.8515889196
 21
102.3070997976
 31
0.0
  0
LINE
  5
5C
330
1F
100
AcDbEntity
  8
0
  6
Continuous
 62
     7
370
    15
100
AcDbLine
 10
230.8515889196
 20
134.3071013175
 30
0.0
 11
171.265805289
 21
134.3071013175
 31
0.0
  0
ARC
  5
5D
330
1F
100
AcDbEntity
  8
0
  6
Continuous
 62
     7
370
    15
100
AcDbCircle
 10
230.851591518
 20
101.3071005576
 30
0.0
 40
1.0
100
AcDbArc
 50
45.0
 51
90.0
  0
ARC
  5
5E
330
1F
100
AcDbEntity
  8
0
  6
Continuous
 62
     7
370
    15
100
AcDbCircle
 10
230.851591518
 20
135.3071005576
 30
0.0
 40
1.0
100
AcDbArc
 50
270.0
 51
315.0
  0
LINE
  5
5F
330
1F
100
AcDbEntity
  8
0
  6
Continuous
 62
     7
370
    15
100
AcDbLine
 10
231.7658049611
 20
134.8071004682
 30
0.0
 11
231.5587011723
 21
134.599992954
 31
0.0
  0
LINE
  5
60
330
1F
100
AcDbEntity
  8
0
  6
Continuous
 62
     7
370
    15
100
AcDbLine
 10
231.5587011723
 20
102.0142081611
 30
0.0
 11
234.3451289086
 21
99.2277748369
 31
0.0
  0
LINE
  5
61
330
1F
100
AcDbEntity
  8
0
  6
Continuous
 62
     7
370
    15
100
AcDbLine
 10
242.5331158189
 20
134.8071004682
 30
0.0
 11
231.7658049611
 21
134.8071004682
 31
0.0
  0
LINE
  5
62
330
1F
100
AcDbEntity
  8
0
  6
Continuous
 62
     7
370
    15
100
AcDbLine
 10
234.4225106386
 20
99.1901512675
 30
0.0
 11
244.3894056229
 21
98.1425865971
 31
0.0
  0
LINE
  5
63
330
1F
100
AcDbEntity
  8
0
  6
Continuous
 62
     7
370
    15
100
AcDbLine
 10
251.0721368341
 20
101.9353959196
 30
0.0
 11
251.2897086887
 21
101.6473005943
 31
0.0
  0
LINE
  5
64
330
1F
100
AcDbEntity
  8
0
  6
Continuous
 62
     7
370
    15
100
AcDbLine
 10
251.0849890856
 20
101.9426676862
 30
0.0
 11
251.3017860798
 21
101.6555930905
 31
0.0
  0
LINE
  5
65
330
1F
100
AcDbEntity
  8
0
  6
Continuous
 62
     7
370
    15
100
AcDbLine
 10
251.9463805107
 20
105.1198103883
 30
0.0
 11
251.9806159286
 21
104.8405141987
 31
0.0
  0
CIRCLE
  5
66
330
1F
100
AcDbEntity
  8
0
  6
Continuous
 62
     7
370
    15
100
AcDbCircle
 10
245.9808463748
 20
115.0084420787
 30
0.0
 40
3.479406077086536
  0
CIRCLE
  5
67
330
1F
100
AcDbEntity
  8
0
  6
Continuous
 62
     7
370
    15
100
AcDbCircle
 10
245.9585007975
 20
115.0142891797
 30
0.0
 40
1.988029416854436
  0
SPLINE
  5
68
330
1F
100
AcDbEntity
  8
0
  6
Continuous
 62
     7
370
    15
100
AcDbSpline
210
0.0
220
0.0
230
1.0
 70
     8
 71
     3
 72
    11
 73
     7
 74
     0
 42
0.00000001
 43
0.00000001
 12
1.0
 22
0.0
 32
0.0
 13
1.0
 23
0.0
 33
0.0
 40
0.0
 40
0.0
 40
0.0
 40
0.0
 40
0.1081123512793194
 40
0.4711598730676773
 40
0.8135797497935654
 40
0.9999999999999999
 40
0.9999999999999999
 40
0.9999999999999999
 40
0.9999999999999999
 10
244.8015419391803
 20
113.7224938206745
 30
0.0
 10
244.8560213733462
 20
113.7174522747017
 30
0.0
 10
245.0934458949913
 20
113.6954809260769
 30
0.0
 10
245.5563667223645
 20
113.6391837515622
 30
0.0
 10
246.0984803383848
 20
113.5432172373471
 30
0.0
 10
246.3950303343749
 20
113.4808263960709
 30
0.0
 10
246.4995665101222
 20
113.4588331401718
 30
0.0
  0
SPLINE
  5
69
330
1F
100
AcDbEntity
  8
0
  6
Continuous
 62
     7
370
    15
100
AcDbSpline
210
0.0
220
0.0
230
1.0
 70
     8
 71
     3
 72
    10
 73
     6
 74
     0
 42
0.00000001
 43
0.00000001
 12
1.0
 22
0.0
 32
0.0
 13
1.0
 23
0.0
 33
0.0
 40
0.0
 40
0.0
 40
0.0
 40
0.0
 40
0.4391160445944243
 40
0.7513669385346259
 40
1.0
 40
1.0
 40
1.0
 40
1.0
 10
246.4995665101222
 20
113.4588331401718
 30
0.0
 10
246.6462906022839
 20
113.6643227324596
 30
0.0
 10
246.8973486842964
 20
114.015933856122
 30
0.0
 10
247.2971864623505
 20
114.4808771067863
 30
0.0
 10
247.5066452021885
 20
114.6984600955889
 30
0.0
 10
247.5994957236461
 20
114.7949119981748
 30
0.0
  0
SPLINE
  5
6A
330
1F
100
AcDbEntity
  8
0
  6
Continuous
 62
     7
370
    15
100
AcDbSpline
210
0.0
220
0.0
230
1.0
 70
     8
 71
     3
 72
    10
 73
     6
 74
     0
 42
0.00000001
 43
0.00000001
 12
1.0
 22
0.0
 32
0.0
 13
1.0
 23
0.0
 33
0.0
 40
0.0
 40
0.0
 40
0.0
 40
0.0
 40
0.4391173635565939
 40
0.7513677938529677
 40
1.0
 40
1.0
 40
1.0
 40
1.0
 10
247.5994957236461
 20
114.7949119981748
 30
0.0
 10
247.5031344353861
 20
115.0381465376113
 30
0.0
 10
247.3382519356683
 20
115.4543418750148
 30
0.0
 10
247.1334462990847
 20
116.0131714491312
 30
0.0
 10
247.041961760254
 20
116.2774849324532
 30
0.0
 10
247.0014078168086
 20
116.3946517695112
 30
0.0
  0
SPLINE
  5
6B
330
1F
100
AcDbEntity
  8
0
  6
Continuous
 62
     7
370
    15
100
AcDbSpline
210
0.0
220
0.0
230
1.0
 70
     8
 71
     3
 72
    11
 73
     7
 74
     0
 42
0.00000001
 43
0.00000001
 12
1.0
 22
0.0
 32
0.0
 13
1.0
 23
0.0
 33
0.0
 40
0.0
 40
0.0
 40
0.0
 40
0.0
 40
0.1864202917546836
 40
0.528840141730768
 40
0.8918876366431717
 40
1.0
 40
1.0
 40
1.0
 40
1.0
 10
247.0014078168086
 20
116.3946517695112
 30
0.0
 10
246.8968716473741
 20
116.4166450688658
 30
0.0
 10
246.600321727087
 20
116.4790360212581
 30
0.0
 10
246.0582080205827
 20
116.5750025331424
 30
0.0
 10
245.5952871609016
 20
116.6312989559216
 30
0.0
 10
245.3578626787643
 20
116.6532708862557
 30
0.0
 10
245.3033832458667
 20
116.6583125664291
 30
0.0
  0
SPLINE
  5
6C
330
1F
100
AcDbEntity
  8
0
  6
Continuous
 62
     7
370
    15
100
AcDbSpline
210
0.0
220
0.0
230
1.0
 70
     8
 71
     3
 72
    10
 73
     6
 74
     0
 42
0.00000001
 43
0.00000001
 12
1.0
 22
0.0
 32
0.0
 13
1.0
 23
0.0
 33
0.0
 40
0.0
 40
0.0
 40
0.0
 40
0.0
 40
0.4391170672640048
 40
0.7513670403433256
 40
1.0
 40
1.0
 40
1.0
 40
1.0
 10
245.3033832458667
 20
116.6583125664291
 30
0.0
 10
245.1351804108353
 20
116.4812623784844
 30
0.0
 10
244.8473709045404
 20
116.1783142910025
 30
0.0
 10
244.4638703868184
 20
115.691739254814
 30
0.0
 10
244.283437747999
 20
115.4357227617924
 30
0.0
 10
244.2034540323428
 20
115.3222335920108
 30
0.0
  0
SPLINE
  5
6D
330
1F
100
AcDbEntity
  8
0
  6
Continuous
 62
     7
370
    15
100
AcDbSpline
210
0.0
220
0.0
230
1.0
 70
     8
 71
     3
 72
    10
 73
     6
 74
     0
 42
0.00000001
 43
0.00000001
 12
1.0
 22
0.0
 32
0.0
 13
1.0
 23
0.0
 33
0.0
 40
0.0
 40
0.0
 40
0.0
 40
0.0
 40
0.4391168540966093
 40
0.7513678461160627
 40
1.0
 40
1.0
 40
1.0
 40
1.0
 10
244.2034540323428
 20
115.3222335920108
 30
0.0
 10
244.2783363704076
 20
115.1074378999302
 30
0.0
 10
244.4064666859238
 20
114.7399034384128
 30
0.0
 10
244.6276107882162
 20
114.1594458994612
 30
0.0
 10
244.7481212358248
 20
113.8566980000412
 30
0.0
 10
244.8015419391803
 20
113.7224938206745
 30
0.0
  0
LINE
  5
6E
330
1F
100
AcDbEntity
  8
0
  6
Continuous
 62
     7
370
    15
100
AcDbLine
 10
247.2093907742
 20
115.3114677359
 30
0.0
 11
247.5994957236
 21
114.7949119982
 31
0.0
  0
LINE
  5
6F
330
1F
100
AcDbEntity
  8
0
  6
Continuous
 62
     7
370
    15
100
AcDbLine
 10
247.2093907742
 20
115.3114677359
 30
0.0
 11
246.9103468208
 21
116.1113376215
 31
0.0
  0
LINE
  5
70
330
1F
100
AcDbEntity
  8
0
  6
Continuous
 62
     7
370
    15
100
AcDbLine
 10
246.9103468208
 20
116.1113376215
 30
0.0
 11
246.7879710344
 21
116.438658391
 31
0.0
  0
LINE
  5
71
330
1F
100
AcDbEntity
  8
0
  6
Continuous
 62
     7
370
    15
100
AcDbLine
 10
246.1094615606
 20
113.9753888779
 30
0.0
 11
246.4995665101
 21
113.4588331402
 31
0.0
  0
LINE
  5
72
330
1F
100
AcDbEntity
  8
0
  6
Continuous
 62
     7
370
    15
100
AcDbLine
 10
246.1094615606
 20
113.9753888779
 30
0.0
 11
246.6594261674
 21
114.6434281905
 31
0.0
  0
LINE
  5
73
330
1F
100
AcDbEntity
  8
0
  6
Continuous
 62
     7
370
    15
100
AcDbLine
 10
246.6594261674
 20
114.6434281905
 30
0.0
 11
247.2093907742
 21
115.3114677359
 31
0.0
  0
LINE
  5
74
330
1F
100
AcDbEntity
  8
0
  6
Continuous
 62
     7
370
    15
100
AcDbLine
 10
244.6107400207
 20
114.2081031062
 30
0.0
 11
245.2604455499
 21
114.107219451
 31
0.0
  0
LINE
  5
75
330
1F
100
AcDbEntity
  8
0
  6
Continuous
 62
     7
370
    15
100
AcDbLine
 10
245.2604455499
 20
114.107219451
 30
0.0
 11
246.1094615606
 21
113.9753888779
 31
0.0
  0
ARC
  5
76
330
1F
100
AcDbEntity
  8
0
  6
Continuous
 62
     7
370
    15
100
AcDbCircle
 10
245.5124688135
 20
115.5948867036
 30
0.0
 40
1.490229671504822
100
AcDbArc
 50
320.3225952464
 51
20.2769269686
  0
ARC
  5
77
330
1F
100
AcDbEntity
  8
0
  6
Continuous
 62
     7
370
    15
100
AcDbCircle
 10
245.4887715141
 20
115.6046021541
 30
0.0
 40
1.514690630372613
100
AcDbArc
 50
261.3301295923
 51
320.6120605643
  0
ARC
  5
78
330
1F
100
AcDbEntity
  8
0
  6
Continuous
 62
     7
370
    15
100
AcDbCircle
 10
245.4838015102
 20
115.5584561832
 30
0.0
 40
1.468324193756832
100
AcDbArc
 50
226.5201340618
 51
261.2504140769
  0
ARC
  5
79
330
1F
100
AcDbEntity
  8
0
  6
Continuous
 62
     7
370
    15
100
AcDbCircle
 10
245.5473425458
 20
115.6021367809
 30
0.0
 40
1.45501414074453
100
AcDbArc
 50
20.4850405672
 51
35.9458243311
  0
LINE
  5
7A
330
1F
100
AcDbEntity
  8
0
  6
Continuous
 62
     7
370
    15
100
AcDbLine
 10
243.4526664762
 20
109.4358423211
 30
0.0
 11
244.5000467447
 21
97.5307169788
 31
0.0
  0
ARC
  5
7B
330
1F
100
AcDbEntity
  8
0
  6
Continuous
 62
     7
370
    15
100
AcDbCircle
 10
243.8547511417
 20
109.4688656182
 30
0.0
 40
0.4034384914594535
100
AcDbArc
 50
85.8950953353
 51
184.695176297
  0
LINE
  5
7C
330
1F
100
AcDbEntity
  8
0
  6
Continuous
 62
     7
370
    15
100
AcDbLine
 10
255.8552829174
 20
109.0034823351
 30
0.0
 11
243.8836304096
 21
109.8712691524
 31
0.0
  0
ARC
  5
7D
330
1F
100
AcDbEntity
  8
0
  6
Continuous
 62
     7
370
    15
100
AcDbCircle
 10
255.8285376494
 20
108.6145346004
 30
0.0
 40
0.3898661946426733
100
AcDbArc
 50
5.0268873278
 51
86.0663543344
  0
LINE
  5
7E
330
1F
100
AcDbEntity
  8
0
  6
Continuous
 62
     7
370
    15
100
AcDbLine
 10
257.2642920164
 20
96.7435705893
 30
0.0
 11
256.2169042973
 21
108.6486959316
 31
0.0
  0
ARC
  5
7F
330
1F
100
AcDbEntity
  8
0
  6
Continuous
 62
     7
370
    15
100
AcDbCircle
 10
256.8622083079
 20
96.710546345
 30
0.0
 40
0.4034376151832039
100
AcDbArc
 50
265.8949501391
 51
4.6953214931
  0
LINE
  5
80
330
1F
100
AcDbEntity
  8
0
  6
Continuous
 62
     7
370
    15
100
AcDbLine
 10
244.8616755752
 20
97.175929644
 30
0.0
 11
256.833328083
 21
96.3081437581
 31
0.0
  0
ARC
  5
81
330
1F
100
AcDbEntity
  8
0
  6
Continuous
 62
     7
370
    15
100
AcDbCircle
 10
244.8884265109
 20
97.564891222
 30
0.0
 40
0.3898803940853427
100
AcDbArc
 50
185.0286086029
 51
266.065662937
  0
ARC
  5
82
330
1F
100
AcDbEntity
  8
0
  6
Continuous
 62
     7
370
    15
100
AcDbCircle
 10
256.8624939312
 20
96.7101814301
 30
0.0
 40
0.3832658131405847
100
AcDbArc
 50
265.8947861476
 51
4.6954322853
  0
LINE
  5
83
330
1F
100
AcDbEntity
  8
0
  6
Continuous
 62
     7
370
    15
100
AcDbLine
 10
257.244473472
 20
96.7415552073
 30
0.0
 11
256.1970932035
 21
108.6466796182
 31
0.0
  0
ARC
  5
84
330
1F
100
AcDbEntity
  8
0
  6
Continuous
 62
     7
370
    15
100
AcDbCircle
 10
255.8281415183
 20
108.6142229291
 30
0.0
 40
0.3703765416862894
100
AcDbArc
 50
5.0273693644
 51
86.0667949662
  0
LINE
  5
85
330
1F
100
AcDbEntity
  8
0
  6
Continuous
 62
     7
370
    15
100
AcDbLine
 10
255.8535469321
 20
108.9837271206
 30
0.0
 11
243.8819018749
 21
109.8515139379
 31
0.0
  0
ARC
  5
86
330
1F
100
AcDbEntity
  8
0
  6
Continuous
 62
     7
370
    15
100
AcDbCircle
 10
243.8544614979
 20
109.4692277031
 30
0.0
 40
0.3832698000342815
100
AcDbArc
 50
85.894369769
 51
184.6946770668
  0
LINE
  5
87
330
1F
100
AcDbEntity
  8
0
  6
Continuous
 62
     7
370
    15
100
AcDbLine
 10
243.47247757
 20
109.4378586345
 30
0.0
 11
244.5198652891
 21
97.5327323608
 31
0.0
  0
ARC
  5
88
330
1F
100
AcDbEntity
  8
0
  6
Continuous
 62
     7
370
    15
100
AcDbCircle
 10
244.8888142132
 20
97.5651856741
 30
0.0
 40
0.3703734954555407
100
AcDbArc
 50
185.0268865625
 51
266.066035392
  0
LINE
  5
89
330
1F
100
AcDbEntity
  8
0
  6
Continuous
 62
     7
370
    15
100
AcDbLine
 10
244.8634041099
 20
97.1956848584
 30
0.0
 11
256.8350566177
 21
96.3278989725
 31
0.0
  0
LINE
  5
8A
330
1F
100
AcDbEntity
  8
0
  6
Continuous
 62
     7
370
    15
100
AcDbLine
 10
255.3577256946
 20
109.6623176195
 30
0.0
 11
255.0987658648
 21
109.681088426
 31
0.0
  0
LINE
  5
8B
330
1F
100
AcDbEntity
  8
0
  6
Continuous
 62
     7
370
    15
100
AcDbLine
 10
255.1896182446
 20
108.1119505175
 30
0.0
 11
255.7976824788
 21
108.6387419559
 31
0.0
  0
LINE
  5
8C
330
1F
100
AcDbEntity
  8
0
  6
Continuous
 62
     7
370
    15
100
AcDbLine
 10
244.689574614
 20
108.6765992873
 30
0.0
 11
243.826029971
 21
109.5065287732
 31
0.0
  0
LINE
  5
8D
330
1F
100
AcDbEntity
  8
0
  6
Continuous
 62
     7
370
    15
100
AcDbLine
 10
245.4064545778
 20
98.2275269412
 30
0.0
 11
244.8734102396
 21
97.6014024996
 31
0.0
  0
LINE
  5
8E
330
1F
100
AcDbEntity
  8
0
  6
Continuous
 62
     7
370
    15
100
AcDbLine
 10
242.9654581098
 20
109.9770748474
 30
0.0
 11
243.3274594692
 21
105.8623147615
 31
0.0
  0
ARC
  5
8F
330
1F
100
AcDbEntity
  8
0
  6
Continuous
 62
     7
370
    15
100
AcDbCircle
 10
246.7298115984
 20
106.6457354016
 30
0.0
 40
1.008594522659836
100
AcDbArc
 50
85.8947688376
 51
184.6953046976
  0
SPLINE
  5
90
330
1F
100
AcDbEntity
  8
0
  6
Continuous
 62
     7
370
    15
100
AcDbSpline
210
0.0
220
0.0
230
1.0
 70
     8
 71
     3
 72
    11
 73
     7
 74
     0
 42
0.00000001
 43
0.00000001
 12
1.0
 22
0.0
 32
0.0
 13
1.0
 23
0.0
 33
0.0
 40
0.0
 40
0.0
 40
0.0
 40
0.0
 40
0.336786342577428
 40
0.6790120578130295
 40
0.9923722046618774
 40
0.9999999999999999
 40
0.9999999999999999
 40
0.9999999999999999
 40
0.9999999999999999
 10
244.6895746139697
 20
108.6765992872787
 30
0.0
 10
244.7426412682792
 20
108.6252661928766
 30
0.0
 10
244.8496316464167
 20
108.5217709329527
 30
0.0
 10
245.0219558882652
 20
108.351389000583
 30
0.0
 10
245.131832996126
 20
108.2414150377791
 30
0.0
 10
245.1825005320061
 20
108.1903264976983
 30
0.0
 10
245.1837045697383
 20
108.1891124554349
 30
0.0
  0
LINE
  5
91
330
1F
100
AcDbEntity
  8
0
  6
Continuous
 62
     7
370
    15
100
AcDbLine
 10
245.7246018199
 20
106.5631750457
 30
0.0
 11
246.310783699
 21
99.9003070824
 31
0.0
  0
LINE
  5
92
330
1F
100
AcDbEntity
  8
0
  6
Continuous
 62
     7
370
    15
100
AcDbLine
 10
253.5021138934
 20
107.166074165
 30
0.0
 11
246.8020153789
 21
107.6517421238
 31
0.0
  0
ARC
  5
93
330
1F
100
AcDbEntity
  8
0
  6
Continuous
 62
     7
370
    15
100
AcDbCircle
 10
253.4352521523
 20
106.193698353
 30
0.0
 40
0.9746718484798778
100
AcDbArc
 50
5.0270991441
 51
86.066464247
  0
LINE
  5
94
330
1F
100
AcDbEntity
  8
0
  6
Continuous
 62
     7
370
    15
100
AcDbLine
 10
254.9923566727
 20
99.6162369334
 30
0.0
 11
254.4061747936
 21
106.279105828
 31
0.0
  0
ARC
  5
95
330
1F
100
AcDbEntity
  8
0
  6
Continuous
 62
     7
370
    15
100
AcDbCircle
 10
253.9871440319
 20
99.5336794105
 30
0.0
 40
1.008597143491889
100
AcDbArc
 50
265.8949425433
 51
4.6951309919
  0
LINE
  5
96
330
1F
100
AcDbEntity
  8
0
  6
Continuous
 62
     7
370
    15
100
AcDbLine
 10
247.2148445992
 20
99.0133378141
 30
0.0
 11
253.9149431137
 21
98.5276698552
 31
0.0
  0
ARC
  5
97
330
1F
100
AcDbEntity
  8
0
  6
Continuous
 62
     7
370
    15
100
AcDbCircle
 10
247.2817091127
 20
99.9857163623
 30
0.0
 40
0.9746747684321446
100
AcDbArc
 50
185.027190554
 51
266.0663126873
  0
CIRCLE
  5
98
330
1F
100
AcDbEntity
  8
0
  6
Continuous
 62
     7
370
    15
100
AcDbCircle
 10
250.3195365477
 20
103.0912634904
 30
0.0
 40
2.556677445261177
  0
ARC
  5
99
330
1F
100
AcDbEntity
  8
0
  6
Continuous
 62
     7
370
    15
100
AcDbCircle
 10
249.8350952689
 20
103.7799654915
 30
0.0
 40
2.587437026479822
100
AcDbArc
 50
265.6157008553
 51
26.9671894036
  0
ARC
  5
9A
330
1F
100
AcDbEntity
  8
0
  6
Continuous
 62
     7
370
    15
100
AcDbCircle
 10
249.8157678215
 20
103.7235299499
 30
0.0
 40
2.529733342483427
100
AcDbArc
 50
226.6184134949
 51
265.954454649
  0
LINE
  5
9B
330
1F
100
AcDbEntity
  8
0
  6
Continuous
 62
     7
370
    15
100
AcDbLine
 10
255.8806819467
 20
97.6970623665
 30
0.0
 11
256.8450627474
 21
96.7336166136
 31
0.0
  0
SPLINE
  5
9C
330
1F
100
AcDbEntity
  8
0
  6
Continuous
 62
     7
370
    15
100
AcDbSpline
210
0.0
220
0.0
230
1.0
 70
     8
 71
     3
 72
    11
 73
     7
 74
     0
 42
0.00000001
 43
0.00000001
 12
1.0
 22
0.0
 32
0.0
 13
1.0
 23
0.0
 33
0.0
 40
0.0
 40
0.0
 40
0.0
 40
0.0
 40
0.3372309067154529
 40
0.673626187863728
 40
0.991878975861016
 40
1.0
 40
1.0
 40
1.0
 40
1.0
 10
255.1896182445697
 20
108.1119505174828
 30
0.0
 10
255.1323927407115
 20
108.0602565077616
 30
0.0
 10
255.0180835322585
 20
107.956996581075
 30
0.0
 10
254.8502959171879
 20
107.7810900015884
 30
0.0
 10
254.7516355479936
 20
107.6668978631434
 30
0.0
 10
254.7079595477441
 20
107.6133471763039
 30
0.0
 10
254.7068727759532
 20
107.6120146967841
 30
0.0
  0
ARC
  5
9D
330
1F
100
AcDbEntity
  8
0
  6
Continuous
 62
     7
370
    15
100
AcDbCircle
 10
255.3302627553
 20
109.2717980057
 30
0.0
 40
0.3914840760248308
100
AcDbArc
 50
37.1601896488
 51
85.9773486222
  0
SPLINE
  5
9E
330
1F
100
AcDbEntity
  8
0
  6
Continuous
 62
     7
370
    15
100
AcDbSpline
210
0.0
220
0.0
230
1.0
 70
     8
 71
     3
 72
    11
 73
     7
 74
     0
 42
0.00000001
 43
0.00000001
 12
1.0
 22
0.0
 32
0.0
 13
1.0
 23
0.0
 33
0.0
 40
0.0
 40
0.0
 40
0.0
 40
0.0
 40
0.008112460573259
 40
0.3263675365993776
 40
0.6627692802204184
 40
1.0
 40
1.0
 40
1.0
 40
1.0
 10
245.8996457604579
 20
98.71362703371769
 30
0.0
 10
245.8983599090919
 20
98.71256269913037
 30
0.0
 10
245.8466295938626
 20
98.6697440925881
 30
0.0
 10
245.7355090633463
 20
98.57195960622349
 30
0.0
 10
245.5622678464647
 20
98.40330750309074
 30
0.0
 10
245.458434926523
 20
98.28616851247051
 30
0.0
 10
245.4064545778446
 20
98.22752694118743
 30
0.0
  0
ARC
  5
9F
330
1F
100
AcDbEntity
  8
0
  6
Continuous
 62
     7
370
    15
100
AcDbCircle
 10
244.3902410835
 20
98.2232845808
 30
0.0
 40
0.3892087199912424
100
AcDbArc
 50
184.9721414709
 51
217.0447287766
  0
SPLINE
  5
A0
330
1F
100
AcDbEntity
  8
0
  6
Continuous
 62
     7
370
    15
100
AcDbSpline
210
0.0
220
0.0
230
1.0
 70
     8
 71
     3
 72
    11
 73
     7
 74
     0
 42
0.00000001
 43
0.00000001
 12
1.0
 22
0.0
 32
0.0
 13
1.0
 23
0.0
 33
0.0
 40
0.0
 40
0.0
 40
0.0
 40
0.0
 40
0.0076299008375415
 40
0.3209907373736039
 40
0.663217929351522
 40
1.0
 40
1.0
 40
1.0
 40
1.0
 10
255.4023099688701
 20
98.16369036663299
 30
0.0
 10
255.4033249221481
 20
98.16272698708018
 30
0.0
 10
255.4460241141869
 20
98.12219750712896
 30
0.0
 10
255.543124995437
 20
98.02913481630021
 30
0.0
 10
255.7078346930917
 20
97.86883635717938
 30
0.0
 10
255.823375043121
 20
97.75401343348061
 30
0.0
 10
255.8806819466762
 20
97.6970623664928
 30
0.0
  0
LINE
  5
A1
330
1F
100
AcDbEntity
  8
0
  6
Continuous
 62
     7
370
    15
100
AcDbLine
 10
247.8197423367
 20
103.423115746
 30
0.0
 11
248.0989900974
 21
102.6632580392
 31
0.0
  0
LINE
  5
A2
330
1F
100
AcDbEntity
  8
0
  6
Continuous
 62
     7
370
    15
100
AcDbLine
 10
248.0989900974
 20
102.6632580392
 30
0.0
 11
247.7936429528
 21
102.9798816376
 31
0.0
  0
ELLIPSE
  5
A3
330
1F
100
AcDbEntity
  8
0
  6
Continuous
 62
     7
370
    15
100
AcDbEllipse
 10
249.9943196451
 20
103.8756454164
 30
0.0
 11
1.759005141004963
 21
1.403439041303358
 31
0.0
210
0.0
220
0.0
230
1.0
 40
0.9859532801
 41
3.035761472810051
 42
5.754932365681502
  0
ELLIPSE
  5
A4
330
1F
100
AcDbEntity
  8
0
  6
Continuous
 62
     7
370
    15
100
AcDbEllipse
 10
249.9943196451
 20
103.8756454164
 30
0.0
 11
1.759005141004963
 21
1.403439041303358
 31
0.0
210
0.0
220
0.0
230
1.0
 40
0.9859532801
 41
6.177354126399865
 42
6.255267836896153
  0
LINE
  5
A5
330
1F
100
AcDbEntity
  8
0
  6
Continuous
 62
     7
370
    15
100
AcDbLine
 10
252.2109878806
 20
104.2136512183
 30
0.0
 11
251.8896517901
 21
105.0880317994
 31
0.0
  0
LINE
  5
A6
330
1F
100
AcDbEntity
  8
0
  6
Continuous
 62
     7
370
    15
100
AcDbLine
 10
251.8915293364
 20
105.1608593621
 30
0.0
 11
251.8992779402
 21
105.0618318327
 31
0.0
  0
LWPOLYLINE
  5
A7
330
1F
100
AcDbEntity
  8
0
  6
Continuous
 62
     7
370
    15
100
AcDbPolyline
 90
        3
 70
   128
 43
0.0
 10
248.786954358
 20
101.9807084881
 10
248.2926753906
 20
102.0569800817
 10
247.9540465025
 20
102.1626088255
  0
SPLINE
  5
A8
330
1F
100
AcDbEntity
  8
0
  6
Continuous
 62
     7
370
    15
100
AcDbSpline
210
0.0
220
0.0
230
1.0
 70
     8
 71
     3
 72
    12
 73
     8
 74
     0
 42
0.00000001
 43
0.00000001
 12
1.0
 22
0.0
 32
0.0
 13
1.0
 23
0.0
 33
0.0
 40
0.0
 40
0.0
 40
0.0
 40
0.0
 40
0.2499999999999989
 40
0.2499999999999989
 40
0.4999999999999978
 40
0.4999999999999978
 40
1.0
 40
1.0
 40
1.0
 40
1.0
 10
155.793561893902
 20
125.8759105267533
 30
0.0
 10
155.7298966573715
 20
125.8759105267533
 30
0.0
 10
155.6702904251481
 20
125.901982675233
 30
0.0
 10
155.5716299002173
 20
125.9775214260541
 30
0.0
 10
155.532662910202
 20
126.0247723631503
 30
0.0
 10
155.4332760782775
 20
126.1765961811168
 30
0.0
 10
155.3911998308541
 20
126.2893994308818
 30
0.0
 10
155.3605491920098
 20
126.4035535556169
 30
0.0
  0
LINE
  5
A9
330
1F
100
AcDbEntity
  8
0
  6
Continuous
 62
     7
370
    15
100
AcDbLine
 10
158.7380479647
 20
125.8759106927
 30
0.0
 11
155.793561749
 21
125.8759106927
 31
0.0
  0
SPLINE
  5
AA
330
1F
100
AcDbEntity
  8
0
  6
Continuous
 62
     7
370
    15
100
AcDbSpline
210
0.0
220
0.0
230
1.0
 70
     8
 71
     3
 72
    12
 73
     8
 74
     0
 42
0.00000001
 43
0.00000001
 12
1.0
 22
0.0
 32
0.0
 13
1.0
 23
0.0
 33
0.0
 40
0.0
 40
0.0
 40
0.0
 40
0.0
 40
0.4999999999999982
 40
0.4999999999999982
 40
0.7499999999999991
 40
0.7499999999999991
 40
1.0
 40
1.0
 40
1.0
 40
1.0
 10
159.1710609686613
 20
126.4035535556169
 30
0.0
 10
159.140361585294
 20
126.2892178885531
 30
0.0
 10
159.0990115171875
 20
126.1778645357117
 30
0.0
 10
158.9992555889681
 20
126.025127763463
 30
0.0
 10
158.9595586712354
 20
125.9772678776108
 30
0.0
 10
158.8623005195877
 20
125.9026647642614
 30
0.0
 10
158.801524361597
 20
125.8759105267533
 30
0.0
 10
158.7380482667691
 20
125.8759105267533
 30
0.0
  0
ELLIPSE
  5
AB
330
1F
100
AcDbEntity
  8
0
  6
Continuous
 62
     7
370
    15
100
AcDbEllipse
 10
146.2095474254
 20
118.3071005576
 30
0.0
 11
11.70927234972708
 21
24.67718644093743
 31
0.0
210
0.0
220
0.0
230
1.0
 40
0.3419987131
 41
5.20306880937045
 42
6.114256032590497
  0
SPLINE
  5
AC
330
1F
100
AcDbEntity
  8
0
  6
Continuous
 62
     7
370
    15
100
AcDbSpline
210
0.0
220
0.0
230
1.0
 70
     8
 71
     3
 72
    12
 73
     8
 74
     0
 42
0.00000001
 43
0.00000001
 12
1.0
 22
0.0
 32
0.0
 13
1.0
 23
0.0
 33
0.0
 40
0.0
 40
0.0
 40
0.0
 40
0.0
 40
0.2499999999999993
 40
0.2499999999999993
 40
0.4999999999999987
 40
0.4999999999999987
 40
1.0
 40
1.0
 40
1.0
 40
1.0
 10
158.7380482667691
 20
142.1338316730748
 30
0.0
 10
158.8017135032996
 20
142.1338316730748
 30
0.0
 10
158.861319735523
 20
142.1255668974089
 30
0.0
 10
158.9599802604538
 20
142.1013481158258
 30
0.0
 10
158.9989472504691
 20
142.0860907965166
 30
0.0
 10
159.0983340823935
 20
142.0364574422547
 30
0.0
 10
159.140410329817
 20
141.9988177340806
 30
0.0
 10
159.1710609686613
 20
141.9597420348044
 30
0.0
  0
LINE
  5
AD
330
1F
100
AcDbEntity
  8
0
  6
Continuous
 62
     7
370
    15
100
AcDbLine
 10
155.793561749
 20
142.1338319265
 30
0.0
 11
158.7380479647
 21
142.1338319265
 31
0.0
  0
SPLINE
  5
AE
330
1F
100
AcDbEntity
  8
0
  6
Continuous
 62
     7
370
    15
100
AcDbSpline
210
0.0
220
0.0
230
1.0
 70
     8
 71
     3
 72
    12
 73
     8
 74
     0
 42
0.00000001
 43
0.00000001
 12
1.0
 22
0.0
 32
0.0
 13
1.0
 23
0.0
 33
0.0
 40
0.0
 40
0.0
 40
0.0
 40
0.0
 40
0.5000000000000004
 40
0.5000000000000004
 40
0.7500000000000002
 40
0.7500000000000002
 40
1.0
 40
1.0
 40
1.0
 40
1.0
 10
155.3605491920098
 20
141.9597420348044
 30
0.0
 10
155.391248575377
 20
141.9988798772003
 30
0.0
 10
155.4325986434836
 20
142.0360396599258
 30
0.0
 10
155.532354571703
 20
142.0859761655536
 30
0.0
 10
155.5720514894357
 20
142.1014290356974
 30
0.0
 10
155.6693096410833
 20
142.1253485792964
 30
0.0
 10
155.7300857990741
 20
142.1338316730748
 30
0.0
 10
155.793561893902
 20
142.1338316730748
 30
0.0
  0
ELLIPSE
  5
AF
330
1F
100
AcDbEntity
  8
0
  6
Continuous
 62
     7
370
    15
100
AcDbEllipse
 10
168.3220627353
 20
118.3071005576
 30
0.0
 11
-11.70927234972695
 21
24.67718644093744
 31
0.0
210
0.0
220
0.0
230
1.0
 40
0.3419987131
 41
0.1689292745891327
 42
1.08011649780915
  0
SPLINE
  5
B0
330
1F
100
AcDbEntity
  8
0
  6
Continuous
 62
     7
370
    15
100
AcDbSpline
210
0.0
220
0.0
230
1.0
 70
     8
 71
     3
 72
    12
 73
     8
 74
     0
 42
0.00000001
 43
0.00000001
 12
1.0
 22
0.0
 32
0.0
 13
1.0
 23
0.0
 33
0.0
 40
0.0
 40
0.0
 40
0.0
 40
0.0
 40
0.2500000000000016
 40
0.2500000000000016
 40
0.5000000000000032
 40
0.5000000000000032
 40
1.0
 40
1.0
 40
1.0
 40
1.0
 10
155.793561893902
 20
94.4803694420709
 30
0.0
 10
155.7299253396883
 20
94.48036944207088
 30
0.0
 10
155.6703452128221
 20
94.48862621300263
 30
0.0
 10
155.5717084714557
 20
94.51282827501045
 30
0.0
 10
155.5327498470754
 20
94.5280750940446
 30
0.0
 10
155.4333709075675
 20
94.57767996610472
 30
0.0
 10
155.391413002402
 20
94.61511161422354
 30
0.0
 10
155.3605491920096
 20
94.6544590803412
 30
0.0
  0
LINE
  5
B1
330
1F
100
AcDbEntity
  8
0
  6
Continuous
 62
     7
370
    15
100
AcDbLine
 10
158.7380479647
 20
94.4803691887
 30
0.0
 11
155.793561749
 21
94.4803691887
 31
0.0
  0
SPLINE
  5
B2
330
1F
100
AcDbEntity
  8
0
  6
Continuous
 62
     7
370
    15
100
AcDbSpline
210
0.0
220
0.0
230
1.0
 70
     8
 71
     3
 72
    12
 73
     8
 74
     0
 42
0.00000001
 43
0.00000001
 12
1.0
 22
0.0
 32
0.0
 13
1.0
 23
0.0
 33
0.0
 40
0.0
 40
0.0
 40
0.0
 40
0.0
 40
0.4999999999999996
 40
0.4999999999999996
 40
0.7499999999999998
 40
0.7499999999999998
 40
1.0
 40
1.0
 40
1.0
 40
1.0
 10
159.1710609686613
 20
94.65445908034123
 30
0.0
 10
159.1402092580971
 20
94.61512703997873
 30
0.0
 10
159.0983163946365
 20
94.57771527445047
 30
0.0
 10
158.9987955168433
 20
94.52804434983456
 30
0.0
 10
158.9591813521189
 20
94.51265526722675
 30
0.0
 10
158.8620783183395
 20
94.48882205155948
 30
0.0
 10
158.8015796456891
 20
94.4803694420707
 30
0.0
 10
158.7380482667692
 20
94.48036944207068
 30
0.0
  0
ELLIPSE
  5
B3
330
1F
100
AcDbEntity
  8
0
  6
Continuous
 62
     7
370
    15
100
AcDbEllipse
 10
146.2095474254
 20
118.3071005576
 30
0.0
 11
-11.70927234972723
 21
24.67718644093744
 31
0.0
210
0.0
220
0.0
230
1.0
 40
0.3419987131
 41
3.310521928178945
 42
4.22170915139894
  0
SPLINE
  5
B4
330
1F
100
AcDbEntity
  8
0
  6
Continuous
 62
     7
370
    15
100
AcDbSpline
210
0.0
220
0.0
230
1.0
 70
     8
 71
     3
 72
    12
 73
     8
 74
     0
 42
0.00000001
 43
0.00000001
 12
1.0
 22
0.0
 32
0.0
 13
1.0
 23
0.0
 33
0.0
 40
0.0
 40
0.0
 40
0.0
 40
0.0
 40
0.2500000000000026
 40
0.2500000000000026
 40
0.5000000000000051
 40
0.5000000000000051
 40
1.0
 40
1.0
 40
1.0
 40
1.0
 10
158.7380482667691
 20
110.7382905883921
 30
0.0
 10
158.8016848209828
 20
110.7382905883921
 30
0.0
 10
158.861264947849
 20
110.7122436853342
 30
0.0
 10
158.9599016892154
 20
110.6367565264343
 30
0.0
 10
158.9988603135957
 20
110.5895374879036
 30
0.0
 10
159.0982392531036
 20
110.43779783681
 30
0.0
 10
159.140197158269
 20
110.3255956126258
 30
0.0
 10
159.1710609686615
 20
110.2106475595286
 30
0.0
  0
LINE
  5
B5
330
1F
100
AcDbEntity
  8
0
  6
Continuous
 62
     7
370
    15
100
AcDbLine
 10
155.793561749
 20
110.7382904224
 30
0.0
 11
158.7380479647
 21
110.7382904224
 31
0.0
  0
SPLINE
  5
B6
330
1F
100
AcDbEntity
  8
0
  6
Continuous
 62
     7
370
    15
100
AcDbSpline
210
0.0
220
0.0
230
1.0
 70
     8
 71
     3
 72
    12
 73
     8
 74
     0
 42
0.00000001
 43
0.00000001
 12
1.0
 22
0.0
 32
0.0
 13
1.0
 23
0.0
 33
0.0
 40
0.0
 40
0.0
 40
0.0
 40
0.0
 40
0.5000000000000014
 40
0.5000000000000014
 40
0.7500000000000007
 40
0.7500000000000007
 40
1.0
 40
1.0
 40
1.0
 40
1.0
 10
155.3605491920098
 20
110.2106475595285
 30
0.0
 10
155.391400902574
 20
110.3255505484654
 30
0.0
 10
155.4332937660346
 20
110.4376894445142
 30
0.0
 10
155.5328146438278
 20
110.5896317261151
 30
0.0
 10
155.5724288085521
 20
110.63729633564
 30
0.0
 10
155.6695318423316
 20
110.7116326662554
 30
0.0
 10
155.730030514982
 20
110.7382905883925
 30
0.0
 10
155.7935618939019
 20
110.7382905883925
 30
0.0
  0
ELLIPSE
  5
B7
330
1F
100
AcDbEntity
  8
0
  6
Continuous
 62
     7
370
    15
100
AcDbEllipse
 10
168.3220627353
 20
118.3071005576
 30
0.0
 11
11.70927234972708
 21
24.67718644093743
 31
0.0
210
0.0
220
0.0
230
1.0
 40
0.3419987131
 41
2.061476155780657
 42
2.972663379000677
  0
LINE
  5
B8
330
1F
100
AcDbEntity
  8
0
  6
Continuous
 62
     7
370
    15
100
AcDbLine
 10
167.2658046333
 20
93.9071010284
 30
0.0
 11
167.2658046333
 21
142.7071000867
 31
0.0
  0
LINE
  5
B9
330
1F
100
AcDbEntity
  8
0
  6
Continuous
 62
     7
370
    15
100
AcDbLine
 10
147.2658050803
 20
93.6070996754
 30
0.0
 11
147.2658050803
 21
143.0071014397
 31
0.0
  0
SPLINE
  5
BA
330
1F
100
AcDbEntity
  8
0
  6
Continuous
 62
     7
370
    15
100
AcDbSpline
210
0.0
220
0.0
230
1.0
 70
     8
 71
     3
 72
    16
 73
    12
 74
     0
 42
0.00000001
 43
0.00000001
 12
1.0
 22
0.0
 32
0.0
 13
1.0
 23
0.0
 33
0.0
 40
0.0
 40
0.0
 40
0.0
 40
0.0
 40
0.2500000000000006
 40
0.2500000000000006
 40
0.5000000000000011
 40
0.5000000000000011
 40
0.6250000000000009
 40
0.6250000000000009
 40
0.7500000000000008
 40
0.7500000000000008
 40
1.0
 40
1.0
 40
1.0
 40
1.0
 10
146.2249440522065
 20
100.9579432763803
 30
0.0
 10
146.2566720133991
 20
100.9571461595594
 30
0.0
 10
146.2912996037497
 20
100.9565550847041
 30
0.0
 10
146.3709933658133
 20
100.9555435592697
 30
0.0
 10
146.416034825817
 20
100.9551434510948
 30
0.0
 10
146.4988875526675
 20
100.9541855791909
 30
0.0
 10
146.5288020138673
 20
100.9538038979305
 30
0.0
 10
146.5947883444252
 20
100.952727683872
 30
0.0
 10
146.631521969887
 20
100.9520101179778
 30
0.0
 10
146.7440186894568
 20
100.9492492402962
 30
0.0
 10
146.8143600375551
 20
100.9467621484246
 30
0.0
 10
146.8708281914603
 20
100.9445888700175
 30
0.0
  0
SPLINE
  5
BB
330
1F
100
AcDbEntity
  8
0
  6
Continuous
 62
     7
370
    15
100
AcDbSpline
210
0.0
220
0.0
230
1.0
 70
     8
 71
     3
 72
    14
 73
    10
 74
     0
 42
0.00000001
 43
0.00000001
 12
1.0
 22
0.0
 32
0.0
 13
1.0
 23
0.0
 33
0.0
 40
0.0
 40
0.0
 40
0.0
 40
0.0
 40
0.1249999999999996
 40
0.1249999999999996
 40
0.2499999999999993
 40
0.2499999999999993
 40
0.5000000000000006
 40
0.5000000000000006
 40
1.0
 40
1.0
 40
1.0
 40
1.0
 10
146.8708281914287
 20
100.9445888700402
 30
0.0
 10
146.8834199853735
 20
100.9441042522179
 30
0.0
 10
146.8982910936675
 20
100.9423940742855
 30
0.0
 10
146.9304751851007
 20
100.9342785255346
 30
0.0
 10
146.9460793165765
 20
100.9280627372733
 30
0.0
 10
146.9819664562886
 20
100.9098436255717
 30
0.0
 10
146.9958184975573
 20
100.8980785972381
 30
0.0
 10
147.0293082394899
 20
100.8662834608208
 30
0.0
 10
147.0399705000656
 20
100.8484900289777
 30
0.0
 10
147.0481084569606
 20
100.8320588981333
 30
0.0
  0
LINE
  5
BC
330
1F
100
AcDbEntity
  8
0
  6
Continuous
 62
     7
370
    15
100
AcDbLine
 10
147.0658050854
 20
112.3226205305
 30
0.0
 11
147.0658050854
 21
100.467279502
 31
0.0
  0
SPLINE
  5
BD
330
1F
100
AcDbEntity
  8
0
  6
Continuous
 62
     7
370
    15
100
AcDbSpline
210
0.0
220
0.0
230
1.0
 70
     8
 71
     3
 72
    16
 73
    12
 74
     0
 42
0.00000001
 43
0.00000001
 12
1.0
 22
0.0
 32
0.0
 13
1.0
 23
0.0
 33
0.0
 40
0.0
 40
0.0
 40
0.0
 40
0.0
 40
0.4999999999999959
 40
0.4999999999999959
 40
0.7499999999999956
 40
0.7499999999999956
 40
0.8749999999999966
 40
0.8749999999999966
 40
0.9374999999999983
 40
0.9374999999999983
 40
1.0
 40
1.0
 40
1.0
 40
1.0
 10
147.0658050803355
 20
112.3226203249983
 30
0.0
 10
147.0658050803355
 20
112.4371500556972
 30
0.0
 10
147.0617477782205
 20
112.5524661308867
 30
0.0
 10
147.0360905354256
 20
112.7273892207143
 30
0.0
 10
147.0247750896836
 20
112.7872185237092
 30
0.0
 10
146.9907437223749
 20
112.8718097099574
 30
0.0
 10
146.9768647411711
 20
112.9004792961014
 30
0.0
 10
146.9409290594037
 20
112.9302870830477
 30
0.0
 10
146.9259787401409
 20
112.9366222364073
 30
0.0
 10
146.8960802273992
 20
112.9353967735371
 30
0.0
 10
146.8825473670339
 20
112.9287981875023
 30
0.0
 10
146.8708281914599
 20
112.9201504994458
 30
0.0
  0
SPLINE
  5
BE
330
1F
100
AcDbEntity
  8
0
  6
Continuous
 62
     7
370
    15
100
AcDbSpline
210
0.0
220
0.0
230
1.0
 70
     8
 71
     3
 72
    14
 73
    10
 74
     0
 42
0.00000001
 43
0.00000001
 12
1.0
 22
0.0
 32
0.0
 13
1.0
 23
0.0
 33
0.0
 40
0.0
 40
0.0
 40
0.0
 40
0.0
 40
0.25
 40
0.25
 40
0.5
 40
0.5
 40
0.75
 40
0.75
 40
1.0
 40
1.0
 40
1.0
 40
1.0
 10
146.8708281914667
 20
112.9201504994372
 30
0.0
 10
146.814368525583
 20
112.8784883897384
 30
0.0
 10
146.7434960507208
 20
112.8476549091502
 30
0.0
 10
146.5950296928388
 20
112.8533694177634
 30
0.0
 10
146.525834489631
 20
112.8889403451963
 30
0.0
 10
146.4161173035615
 20
112.9758842576702
 30
0.0
 10
146.3708714146295
 20
113.0283165710353
 30
0.0
 10
146.2912542836626
 20
113.1368696525538
 30
0.0
 10
146.2566516642057
 20
113.1938527387963
 30
0.0
 10
146.2249440522069
 20
113.2524188214542
 30
0.0
  0
SPLINE
  5
BF
330
1F
100
AcDbEntity
  8
0
  6
Continuous
 62
     7
370
    15
100
AcDbSpline
210
0.0
220
0.0
230
1.0
 70
     8
 71
     3
 72
    10
 73
     6
 74
     0
 42
0.00000001
 43
0.00000001
 12
1.0
 22
0.0
 32
0.0
 13
1.0
 23
0.0
 33
0.0
 40
0.0
 40
0.0
 40
0.0
 40
0.0
 40
0.5
 40
0.5
 40
1.0
 40
1.0
 40
1.0
 40
1.0
 10
145.9444847367759
 20
114.1052374131005
 30
0.0
 10
145.9753633203879
 20
113.9556088612408
 30
0.0
 10
146.0113560281112
 20
113.8091134437172
 30
0.0
 10
146.1006962796083
 20
113.5239218051765
 30
0.0
 10
146.1531545824539
 20
113.3850187794605
 30
0.0
 10
146.224944052207
 20
113.252418821454
 30
0.0
  0
SPLINE
  5
C0
330
1F
100
AcDbEntity
  8
0
  6
Continuous
 62
     7
370
    15
100
AcDbSpline
210
0.0
220
0.0
230
1.0
 70
     8
 71
     3
 72
    10
 73
     6
 74
     0
 42
0.00000001
 43
0.00000001
 12
1.0
 22
0.0
 32
0.0
 13
1.0
 23
0.0
 33
0.0
 40
0.0
 40
0.0
 40
0.0
 40
0.0
 40
0.5
 40
0.5
 40
1.0
 40
1.0
 40
1.0
 40
1.0
 10
146.2249440522063
 20
123.3617822936905
 30
0.0
 10
146.1531545824535
 20
123.2291823356841
 30
0.0
 10
146.100696279608
 20
123.0902793099684
 30
0.0
 10
146.0113560281111
 20
122.8050876714281
 30
0.0
 10
145.9753633203878
 20
122.6585922539047
 30
0.0
 10
145.9444847367759
 20
122.5089637020453
 30
0.0
  0
SPLINE
  5
C1
330
1F
100
AcDbEntity
  8
0
  6
Continuous
 62
     7
370
    15
100
AcDbSpline
210
0.0
220
0.0
230
1.0
 70
     8
 71
     3
 72
    14
 73
    10
 74
     0
 42
0.00000001
 43
0.00000001
 12
1.0
 22
0.0
 32
0.0
 13
1.0
 23
0.0
 33
0.0
 40
0.0
 40
0.0
 40
0.0
 40
0.0
 40
0.25
 40
0.25
 40
0.5
 40
0.5
 40
0.75
 40
0.75
 40
1.0
 40
1.0
 40
1.0
 40
1.0
 10
146.2249440522056
 20
123.3617822936893
 30
0.0
 10
146.256652751691
 20
123.4203503850079
 30
0.0
 10
146.2912605703316
 20
123.4773446469479
 30
0.0
 10
146.370918980821
 20
123.5859447817118
 30
0.0
 10
146.4159812507158
 20
123.6382729170904
 30
0.0
 10
146.5265630962942
 20
123.7257739284527
 30
0.0
 10
146.5942072171095
 20
123.7608193847069
 30
0.0
 10
146.7444555075066
 20
123.766563773463
 30
0.0
 10
146.814407905737
 20
123.735683666413
 30
0.0
 10
146.8708281914605
 20
123.6940506156999
 30
0.0
  0
SPLINE
  5
C2
330
1F
100
AcDbEntity
  8
0
  6
Continuous
 62
     7
370
    15
100
AcDbSpline
210
0.0
220
0.0
230
1.0
 70
     8
 71
     3
 72
    16
 73
    12
 74
     0
 42
0.00000001
 43
0.00000001
 12
1.0
 22
0.0
 32
0.0
 13
1.0
 23
0.0
 33
0.0
 40
0.0
 40
0.0
 40
0.0
 40
0.0
 40
0.0625000000000002
 40
0.0625000000000002
 40
0.1250000000000004
 40
0.1250000000000004
 40
0.2499999999999985
 40
0.2499999999999985
 40
0.4999999999999978
 40
0.4999999999999978
 40
1.0
 40
1.0
 40
1.0
 40
1.0
 10
146.8708281914287
 20
123.6940506156465
 30
0.0
 10
146.8825624258756
 20
123.6853918155023
 30
0.0
 10
146.8960941813545
 20
123.678787730267
 30
0.0
 10
146.9260816417844
 20
123.6775907630929
 30
0.0
 10
146.9410763481926
 20
123.6840125101587
 30
0.0
 10
146.9768167705874
 20
123.713729663568
 30
0.0
 10
146.9908301075886
 20
123.7425370609514
 30
0.0
 10
147.02497419637
 20
123.8276167825773
 30
0.0
 10
147.0359461004883
 20
123.885991731847
 30
0.0
 10
147.0617916407546
 20
124.0617072566357
 30
0.0
 10
147.0658050803355
 20
124.1775022645001
 30
0.0
 10
147.0658050803355
 20
124.2915807901475
 30
0.0
  0
LINE
  5
C3
330
1F
100
AcDbEntity
  8
0
  6
Continuous
 62
     7
370
    15
100
AcDbLine
 10
147.0658050854
 20
136.1469216131
 30
0.0
 11
147.0658050854
 21
124.2915805847
 31
0.0
  0
SPLINE
  5
C4
330
1F
100
AcDbEntity
  8
0
  6
Continuous
 62
     7
370
    15
100
AcDbSpline
210
0.0
220
0.0
230
1.0
 70
     8
 71
     3
 72
    16
 73
    12
 74
     0
 42
0.00000001
 43
0.00000001
 12
1.0
 22
0.0
 32
0.0
 13
1.0
 23
0.0
 33
0.0
 40
0.0
 40
0.0
 40
0.0
 40
0.0
 40
0.4999999999999991
 40
0.4999999999999991
 40
0.7499999999999996
 40
0.7499999999999996
 40
0.8749999999999998
 40
0.8749999999999998
 40
0.9374999999999999
 40
0.9374999999999999
 40
1.0
 40
1.0
 40
1.0
 40
1.0
 10
147.0658050803357
 20
135.8538550232405
 30
0.0
 10
147.0658050803354
 20
135.8318400086611
 30
0.0
 10
147.0616805374814
 20
135.8064863739574
 30
0.0
 10
147.0357640918483
 20
135.7593258717689
 30
0.0
 10
147.0244865108285
 20
135.7421268835401
 30
0.0
 10
146.9907511322871
 20
135.7121489179708
 30
0.0
 10
146.9763623170427
 20
135.700797509429
 30
0.0
 10
146.9411156276037
 20
135.6841096499515
 30
0.0
 10
146.9259102031467
 20
135.6785466230663
 30
0.0
 10
146.8962636239774
 20
135.6715770400311
 30
0.0
 10
146.88255828798
 20
135.6700636989758
 30
0.0
 10
146.8708281914562
 20
135.6696122451259
 30
0.0
  0
SPLINE
  5
C5
330
1F
100
AcDbEntity
  8
0
  6
Continuous
 62
     7
370
    15
100
AcDbSpline
210
0.0
220
0.0
230
1.0
 70
     8
 71
     3
 72
    14
 73
    10
 74
     0
 42
0.00000001
 43
0.00000001
 12
1.0
 22
0.0
 32
0.0
 13
1.0
 23
0.0
 33
0.0
 40
0.0
 40
0.0
 40
0.0
 40
0.0
 40
0.25
 40
0.25
 40
0.5
 40
0.5
 40
0.75
 40
0.75
 40
1.0
 40
1.0
 40
1.0
 40
1.0
 10
146.8708281914667
 20
135.6696122451284
 30
0.0
 10
146.8143811094085
 20
135.6674397777092
 30
0.0
 10
146.7435307253656
 20
135.6649416797917
 30
0.0
 10
146.5950942905492
 20
135.6612952210035
 30
0.0
 10
146.5259050388623
 20
135.6603274741522
 30
0.0
 10
146.4161934906214
 20
135.6590599147895
 30
0.0
 10
146.370951841279
 20
135.6586570738612
 30
0.0
 10
146.2913038230951
 20
135.6576460389336
 30
0.0
 10
146.2566769073291
 20
135.657055078539
 30
0.0
 10
146.2249440522078
 20
135.6562578387655
 30
0.0
  0
SPLINE
  5
C6
330
1F
100
AcDbEntity
  8
0
  6
Continuous
 62
     7
370
    15
100
AcDbSpline
210
0.0
220
0.0
230
1.0
 70
     8
 71
     3
 72
    18
 73
    14
 74
     0
 42
0.00000001
 43
0.00000001
 12
1.0
 22
0.0
 32
0.0
 13
1.0
 23
0.0
 33
0.0
 40
0.0
 40
0.0
 40
0.0
 40
0.0
 40
0.25
 40
0.25
 40
0.375
 40
0.375
 40
0.5
 40
0.5
 40
0.625
 40
0.625
 40
0.75
 40
0.75
 40
1.0
 40
1.0
 40
1.0
 40
1.0
 10
145.9444847367759
 20
122.5089637020453
 30
0.0
 10
145.8091991304736
 20
121.8534093666241
 30
0.0
 10
145.7080313842306
 20
121.1737882728265
 30
0.0
 10
145.6051700413617
 20
120.1184242663324
 30
0.0
 10
145.5790671958384
 20
119.7596102017478
 30
0.0
 10
145.5441772122935
 20
119.0334972576249
 30
0.0
 10
145.5355909540036
 20
118.6714075786088
 30
0.0
 10
145.5354912444379
 20
117.9490979211904
 30
0.0
 10
145.5439796155865
 20
117.588878119082
 30
0.0
 10
145.5781229951071
 20
116.8703120499881
 30
0.0
 10
145.6039199769608
 20
116.5105463340727
 30
0.0
 10
145.7073211083488
 20
115.4439017470783
 30
0.0
 10
145.8091791005202
 20
114.760888807796
 30
0.0
 10
145.9444847367759
 20
114.1052374131005
 30
0.0
  0
LINE
  5
C7
330
1F
100
AcDbEntity
  8
0
  6
Continuous
 62
     7
370
    15
100
AcDbLine
 10
145.0658050923
 20
123.4472528518
 30
0.0
 11
145.0658050923
 21
113.1669482634
 31
0.0
  0
LINE
  5
C8
330
1F
100
AcDbEntity
  8
0
  6
Continuous
 62
     7
370
    15
100
AcDbLine
 10
118.7658050654
 20
123.1168792069
 30
0.0
 11
118.7658050654
 21
113.4973219082
 31
0.0
  0
LINE
  5
C9
330
1F
100
AcDbEntity
  8
0
  6
Continuous
 62
     7
370
    15
100
AcDbLine
 10
117.2658057509
 20
122.6838663638
 30
0.0
 11
117.2658057509
 21
113.9303347513
 31
0.0
  0
LINE
  5
CA
330
1F
100
AcDbEntity
  8
0
  6
Continuous
 62
     7
370
    15
100
AcDbLine
 10
118.7658050654
 20
123.1168792069
 30
0.0
 11
118.7658050654
 21
135.1664512836
 31
0.0
  0
LINE
  5
CB
330
1F
100
AcDbEntity
  8
0
  6
Continuous
 62
     7
370
    15
100
AcDbLine
 10
118.7658050654
 20
135.1664512836
 30
0.0
 11
145.0658050923
 21
135.8271985732
 31
0.0
  0
LINE
  5
CC
330
1F
100
AcDbEntity
  8
0
  6
Continuous
 62
     7
370
    15
100
AcDbLine
 10
145.0658050923
 20
123.4472528518
 30
0.0
 11
145.0658050923
 21
135.8271985732
 31
0.0
  0
ARC
  5
CD
330
1F
100
AcDbEntity
  8
0
  6
Continuous
 62
     7
370
    15
100
AcDbCircle
 10
145.2657419913
 20
135.8322224533
 30
0.0
 40
0.1999999999999782
100
AcDbArc
 50
181.4391666667
 51
271.4391666667
  0
LINE
  5
CE
330
1F
100
AcDbEntity
  8
0
  6
Continuous
 62
     7
370
    15
100
AcDbLine
 10
118.7658050654
 20
101.4477498316
 30
0.0
 11
118.7658050654
 21
113.4973219082
 31
0.0
  0
LINE
  5
CF
330
1F
100
AcDbEntity
  8
0
  6
Continuous
 62
     7
370
    15
100
AcDbLine
 10
145.0658050923
 20
100.7870025419
 30
0.0
 11
145.0658050923
 21
113.1669482634
 31
0.0
  0
LINE
  5
D0
330
1F
100
AcDbEntity
  8
0
  6
Continuous
 62
     7
370
    15
100
AcDbLine
 10
118.7658050654
 20
101.4477498316
 30
0.0
 11
145.0658050923
 21
100.7870025419
 31
0.0
  0
ARC
  5
D1
330
1F
100
AcDbEntity
  8
0
  6
Continuous
 62
     7
370
    15
100
AcDbCircle
 10
145.2657419913
 20
100.7819786619
 30
0.0
 40
0.2000000000000059
100
AcDbArc
 50
88.5608333333
 51
178.5608333333
  0
LINE
  5
D2
330
1F
100
AcDbEntity
  8
0
  6
Continuous
 62
     7
370
    15
100
AcDbLine
 10
145.2707652094
 20
100.9819153183
 30
0.0
 11
146.2249440698
 21
100.9579430752
 31
0.0
  0
LINE
  5
D3
330
1F
100
AcDbEntity
  8
0
  6
Continuous
 62
     7
370
    15
100
AcDbLine
 10
145.2707652094
 20
135.6322857969
 30
0.0
 11
146.2249440698
 21
135.65625804
 31
0.0
  0
LINE
  5
D4
330
1F
100
AcDbEntity
  8
0
  6
Continuous
 62
     7
370
    15
100
AcDbLine
 10
117.2658057509
 20
134.3004255973
 30
0.0
 11
118.7658050654
 21
135.1664512836
 31
0.0
  0
LINE
  5
D5
330
1F
100
AcDbEntity
  8
0
  6
Continuous
 62
     7
370
    15
100
AcDbLine
 10
117.2658057509
 20
122.6838663638
 30
0.0
 11
117.2658057509
 21
134.3004255973
 31
0.0
  0
LINE
  5
D6
330
1F
100
AcDbEntity
  8
0
  6
Continuous
 62
     7
370
    15
100
AcDbLine
 10
117.2658057509
 20
102.3137755178
 30
0.0
 11
118.7658050654
 21
101.4477498316
 31
0.0
  0
LINE
  5
D7
330
1F
100
AcDbEntity
  8
0
  6
Continuous
 62
     7
370
    15
100
AcDbLine
 10
117.2658057509
 20
102.3137755178
 30
0.0
 11
117.2658057509
 21
113.9303347513
 31
0.0
  0
ELLIPSE
  5
D8
330
1F
100
AcDbEntity
  8
0
  6
Continuous
 62
     7
370
    15
100
AcDbEllipse
 10
228.8502644299
 20
118.3071005576
 30
0.0
 11
0.6417425547208779
 21
15.99909656657808
 31
0.0
210
0.0
220
0.0
230
1.0
 40
0.2649452246
 41
0.6670000683975248
 42
2.77509899370262
  0
SPLINE
  5
D9
330
1F
100
AcDbEntity
  8
0
  6
Continuous
 62
     7
370
    15
100
AcDbSpline
210
0.0
220
0.0
230
1.0
 70
     8
 71
     3
 72
    14
 73
    10
 74
     0
 42
0.00000001
 43
0.00000001
 12
1.0
 22
0.0
 32
0.0
 13
1.0
 23
0.0
 33
0.0
 40
0.0
 40
0.0
 40
0.0
 40
0.0
 40
0.25
 40
0.25
 40
0.5
 40
0.5
 40
0.75
 40
0.75
 40
1.0
 40
1.0
 40
1.0
 40
1.0
 10
229.3163529651325
 20
102.7085244424236
 30
0.0
 10
228.999276032882
 20
102.7164630980057
 30
0.0
 10
228.6972055801638
 20
102.7357779242978
 30
0.0
 10
228.1224160641218
 20
102.8014937400372
 30
0.0
 10
227.8646781413053
 20
102.8463661447067
 30
0.0
 10
227.4079713396576
 20
102.9666690047656
 30
0.0
 10
227.2189084163603
 20
103.0396958273778
 30
0.0
 10
226.9149572697556
 20
103.2161147297833
 30
0.0
 10
226.8044119656806
 20
103.3172318939931
 30
0.0
 10
226.7321608760682
 20
103.4314391056929
 30
0.0
  0
ELLIPSE
  5
DA
330
1F
100
AcDbEntity
  8
0
  6
Continuous
 62
     7
370
    15
100
AcDbEllipse
 10
283.526932715
 20
118.3071005576
 30
0.0
 11
152.2296510335275
 21
2.251148238946968
 31
0.0
210
0.0
220
0.0
230
1.0
 40
0.1040588589
 41
4.346748402400447
 42
4.35751902519453
  0
ELLIPSE
  5
DB
330
1F
100
AcDbEntity
  8
0
  6
Continuous
 62
     7
370
    15
100
AcDbEllipse
 10
283.526932715
 20
118.3071005576
 30
0.0
 11
152.2296510335275
 21
2.251148238946968
 31
0.0
210
0.0
220
0.0
230
1.0
 40
0.1040588589
 41
1.922588672196359
 42
1.933359294990443
  0
SPLINE
  5
DC
330
1F
100
AcDbEntity
  8
0
  6
Continuous
 62
     7
370
    15
100
AcDbSpline
210
0.0
220
0.0
230
1.0
 70
     8
 71
     3
 72
    18
 73
    14
 74
     0
 42
0.00000001
 43
0.00000001
 12
1.0
 22
0.0
 32
0.0
 13
1.0
 23
0.0
 33
0.0
 40
0.0
 40
0.0
 40
0.0
 40
0.0
 40
0.2499999999999954
 40
0.2499999999999954
 40
0.3749999999999963
 40
0.3749999999999963
 40
0.4999999999999971
 40
0.4999999999999971
 40
0.6249999999999979
 40
0.6249999999999979
 40
0.7499999999999988
 40
0.7499999999999988
 40
1.0
 40
1.0
 40
1.0
 40
1.0
 10
226.7321608760682
 20
130.9824714463714
 30
0.0
 10
226.8044673443988
 20
131.171878311183
 30
0.0
 10
226.9140230420398
 20
131.3446811872661
 30
0.0
 10
227.1407051164709
 20
131.5806752727735
 30
0.0
 10
227.2272286784122
 20
131.6555240249945
 30
0.0
 10
227.4166566617832
 20
131.7926645972632
 30
0.0
 10
227.5201351330677
 20
131.8556720383955
 30
0.0
 10
227.7452898275962
 20
131.9711407915493
 30
0.0
 10
227.8681584878724
 20
132.0240133020546
 30
0.0
 10
228.1279844106815
 20
132.1170860448334
 30
0.0
 10
228.2637771124978
 20
132.1570562610273
 30
0.0
 10
228.6886541112014
 20
132.2587498679145
 30
0.0
 10
228.9988050986536
 20
132.3024859669765
 30
0.0
 10
229.3163529651325
 20
132.3197263919806
 30
0.0
  0
ELLIPSE
  5
DD
330
1F
100
AcDbEntity
  8
0
  6
Continuous
 62
     7
370
    15
100
AcDbEllipse
 10
226.3130350362
 20
110.6300644758
 30
0.0
 11
-0.03534061625174445
 21
2.339706936174736
 31
0.0
210
0.0
220
0.0
230
1.0
 40
0.2506800175
 41
5.428798038846481
 42
10.15880079790581
  0
SPLINE
  5
DE
330
1F
100
AcDbEntity
  8
0
  6
Continuous
 62
     7
370
    15
100
AcDbSpline
210
0.0
220
0.0
230
1.0
 70
     8
 71
     3
 72
    18
 73
    14
 74
     0
 42
0.00000001
 43
0.00000001
 12
1.0
 22
0.0
 32
0.0
 13
1.0
 23
0.0
 33
0.0
 40
0.0
 40
0.0
 40
0.0
 40
0.0
 40
0.2499999999999992
 40
0.2499999999999992
 40
0.3749999999999996
 40
0.3749999999999996
 40
0.5
 40
0.5
 40
0.6250000000000003
 40
0.6250000000000003
 40
0.7500000000000008
 40
0.7500000000000008
 40
1.0
 40
1.0
 40
1.0
 40
1.0
 10
226.7321608760682
 20
112.173186269648
 30
0.0
 10
226.7819704338109
 20
111.9604635192516
 30
0.0
 10
226.8386018696836
 20
111.7209185117653
 30
0.0
 10
226.9105000179404
 20
111.324485214044
 30
0.0
 10
226.9322510300078
 20
111.1856715441572
 30
0.0
 10
226.9657833431715
 20
110.9021788639259
 30
0.0
 10
226.9777708851274
 20
110.7565275300122
 30
0.0
 10
226.9876089053981
 20
110.4555556606281
 30
0.0
 10
226.9851411141566
 20
110.3018772865084
 30
0.0
 10
226.9637423478732
 20
109.9975203621808
 30
0.0
 10
226.9443587992106
 20
109.8433266404654
 30
0.0
 10
226.8682543169441
 20
109.4024086559006
 30
0.0
 10
226.7927594130313
 20
109.1303972485918
 30
0.0
 10
226.7321608760682
 20
108.898800030813
 30
0.0
  0
SPLINE
  5
DF
330
1F
100
AcDbEntity
  8
0
  6
Continuous
 62
     7
370
    15
100
AcDbSpline
210
0.0
220
0.0
230
1.0
 70
     8
 71
     3
 72
     8
 73
     4
 74
     0
 42
0.00000001
 43
0.00000001
 12
1.0
 22
0.0
 32
0.0
 13
1.0
 23
0.0
 33
0.0
 40
0.0
 40
0.0
 40
0.0
 40
0.0
 40
1.0
 40
1.0
 40
1.0
 40
1.0
 10
234.5132926242149
 20
99.22534625262483
 30
0.0
 10
233.5213872213502
 20
100.2589595961628
 30
0.0
 10
232.5351890757858
 20
101.2979973470735
 30
0.0
 10
231.558698299149
 20
102.346261372675
 30
0.0
  0
SPLINE
  5
E0
330
1F
100
AcDbEntity
  8
0
  6
Continuous
 62
     7
370
    15
100
AcDbSpline
210
0.0
220
0.0
230
1.0
 70
     8
 71
     3
 72
    10
 73
     6
 74
     0
 42
0.00000001
 43
0.00000001
 12
1.0
 22
0.0
 32
0.0
 13
1.0
 23
0.0
 33
0.0
 40
0.0
 40
0.0
 40
0.0
 40
0.0
 40
0.5
 40
0.5
 40
1.0
 40
1.0
 40
1.0
 40
1.0
 10
231.558698299149
 20
102.346261372675
 30
0.0
 10
231.467508227467
 20
102.4441540245293
 30
0.0
 10
231.3595536905154
 20
102.5234773976031
 30
0.0
 10
231.1178731220669
 20
102.6360160986488
 30
0.0
 10
230.9867550888132
 20
102.6678588895638
 30
0.0
 10
230.8515915179624
 20
102.6710701558266
 30
0.0
  0
SPLINE
  5
E1
330
1F
100
AcDbEntity
  8
0
  6
Continuous
 62
     7
370
    15
100
AcDbSpline
210
0.0
220
0.0
230
1.0
 70
     8
 71
     3
 72
     8
 73
     4
 74
     0
 42
0.00000001
 43
0.00000001
 12
1.0
 22
0.0
 32
0.0
 13
1.0
 23
0.0
 33
0.0
 40
0.0
 40
0.0
 40
0.0
 40
0.0
 40
1.0
 40
1.0
 40
1.0
 40
1.0
 10
230.8515915179624
 20
132.4020946423298
 30
0.0
 10
231.1216733256341
 20
132.4164126878985
 30
0.0
 10
231.3764462331017
 20
132.5466104290273
 30
0.0
 10
231.5586982991494
 20
132.7475900922406
 30
0.0
  0
SPLINE
  5
E2
330
1F
100
AcDbEntity
  8
0
  6
Continuous
 62
     7
370
    15
100
AcDbSpline
210
0.0
220
0.0
230
1.0
 70
     8
 71
     3
 72
     8
 73
     4
 74
     0
 42
0.00000001
 43
0.00000001
 12
1.0
 22
0.0
 32
0.0
 13
1.0
 23
0.0
 33
0.0
 40
0.0
 40
0.0
 40
0.0
 40
0.0
 40
1.0
 40
1.0
 40
1.0
 40
1.0
 10
231.5586982991489
 20
132.747590092241
 30
0.0
 10
231.6276848401737
 20
132.8236654535912
 30
0.0
 10
231.6967210812943
 20
132.8996950319615
 30
0.0
 10
231.7658050803355
 20
132.9756806164546
 30
0.0
  0
ELLIPSE
  5
E3
330
1F
100
AcDbEntity
  8
0
  6
Continuous
 62
     7
370
    15
100
AcDbEllipse
 10
283.526932715
 20
118.3071005576
 30
0.0
 11
156.9868276283253
 21
2.321496621414056
 31
0.0
210
0.0
220
0.0
230
1.0
 40
0.1040588589
 41
1.827153513699242
 42
1.905260242420708
  0
LINE
  5
E4
330
1F
100
AcDbEntity
  8
0
  6
Continuous
 62
     7
370
    15
100
AcDbLine
 10
254.3458772449
 20
118.2388547309
 30
0.0
 11
243.487915173
 21
133.520480194
 31
0.0
  0
LINE
  5
E5
330
1F
100
AcDbEntity
  8
0
  6
Continuous
 62
     7
370
    15
100
AcDbLine
 10
255.1504356412
 20
109.0938252814
 30
0.0
 11
254.3458772449
 21
118.2388547309
 31
0.0
  0
LINE
  5
E6
330
1F
100
AcDbEntity
  8
0
  6
Continuous
 62
     7
370
    15
100
AcDbLine
 10
242.9044006018
 20
109.9815004923
 30
0.0
 11
255.1504356412
 21
109.0938252814
 31
0.0
  0
ARC
  5
E7
330
1F
100
AcDbEntity
  8
0
  6
Continuous
 62
     7
370
    15
100
AcDbCircle
 10
242.6973658928
 20
107.6605395497
 30
0.0
 40
2.330176617231924
100
AcDbArc
 50
84.9025847279
 51
265.0674461376
  0
LINE
  5
E8
330
1F
100
AcDbEntity
  8
0
  6
Continuous
 62
     7
370
    15
100
AcDbLine
 10
243.7936571984
 20
105.245002494
 30
0.0
 11
242.4970103053
 21
105.3389924996
 31
0.0
  0
LINE
  5
E9
330
1F
100
AcDbEntity
  8
0
  6
Continuous
 62
     7
370
    15
100
AcDbLine
 10
244.4186118988
 20
98.1414578341
 30
0.0
 11
243.7936571984
 21
105.245002494
 31
0.0
  0
ELLIPSE
  5
EA
330
1F
100
AcDbEntity
  8
0
  6
Continuous
 62
     7
370
    15
100
AcDbEllipse
 10
277.4242587414
 20
120.8136997874
 30
0.0
 11
217.1628490301422
 21
-19.44089462863657
 31
0.0
210
0.0
220
0.0
230
1.0
 40
0.1182598878
 41
4.52407966351865
 42
4.57040708972123
  0
CIRCLE
  5
EB
330
1F
100
AcDbEntity
  8
0
  6
Continuous
 62
     7
370
    15
100
AcDbCircle
 10
245.9848111239
 20
115.0035394065
 30
0.0
 40
3.979403297612713
  0
LINE
  5
EC
330
1F
100
AcDbEntity
  8
0
  6
Continuous
 62
     7
370
    15
100
AcDbLine
 10
231.7658049611
 20
134.8071004682
 30
0.0
 11
231.7658049611
 21
132.9756807022
 31
0.0
  0
LINE
  5
ED
330
1F
100
AcDbEntity
  8
0
  6
Continuous
 62
     7
370
    15
100
AcDbLine
 10
234.3718988446
 20
99.2545429103
 30
0.0
 11
234.5132959632
 21
99.2253459476
 31
0.0
  0
ELLIPSE
  5
EE
330
1F
100
AcDbEntity
  8
0
  6
Continuous
 62
     7
370
    15
100
AcDbEllipse
 10
254.2784801164
 20
118.3071005576
 30
0.0
 11
-11.7456050227652
 21
16.49993160123383
 31
0.0
210
0.0
220
0.0
230
1.0
 40
0.0040448756
 41
5.882783606930487
 42
6.280305938888285
  0
ARC
  5
EF
330
1F
100
AcDbEntity
  8
0
  6
Continuous
 62
     7
370
    15
100
AcDbCircle
 10
242.1682173128
 20
108.2879675804
 30
0.0
 40
2.304180967826219
100
AcDbArc
 50
227.4168155107
 51
265.9561451743
  0
LINE
  5
F0
330
1F
100
AcDbEntity
  8
0
  6
Continuous
 62
     7
370
    15
100
AcDbLine
 10
241.6984123735
 20
106.3964506098
 30
0.0
 11
243.2906237988
 21
106.2810355284
 31
0.0
  0
LINE
  5
F1
330
1F
100
AcDbEntity
  8
0
  6
Continuous
 62
     7
370
    15
100
AcDbLine
 10
243.3246804027
 20
105.8939163991
 30
0.0
 11
243.3023733644
 21
105.8955331751
 31
0.0
  0
LINE
  5
F2
330
1F
100
AcDbEntity
  8
0
  6
Continuous
 62
     7
370
    15
100
AcDbLine
 10
243.3023733644
 20
105.8955331751
 30
0.0
 11
243.7936571984
 21
105.245002494
 31
0.0
  0
ELLIPSE
  5
F3
330
1F
100
AcDbEntity
  8
0
  6
Continuous
 62
     7
370
    15
100
AcDbEllipse
 10
241.700790658
 20
124.5683875813
 30
0.0
 11
-2.733626938423214
 21
26.42588789006402
 31
0.0
210
0.0
220
0.0
230
1.0
 40
0.0894011665
 41
3.122745396089828
 42
3.134928372993576
  0
ARC
  5
F4
330
1F
100
AcDbEntity
  8
0
  6
Continuous
 62
     7
370
    15
100
AcDbCircle
 10
242.1495640046
 20
108.0391172453
 30
0.0
 40
2.054635020169996
100
AcDbArc
 50
217.1519556751
 51
265.9856470827
  0
ARC
  5
F5
330
1F
100
AcDbEntity
  8
0
  6
Continuous
 62
     7
370
    15
100
AcDbCircle
 10
241.8433728143
 20
108.4499409447
 30
0.0
 40
2.058600516158256
100
AcDbArc
 50
228.4379810877
 51
265.9620622237
  0
ARC
  5
F6
330
1F
100
AcDbEntity
  8
0
  6
Continuous
 62
     7
370
    15
100
AcDbCircle
 10
249.3777819585
 20
104.371939167
 30
0.0
 40
3.241196136694326
100
AcDbArc
 50
282.2843243365
 51
305.0039890941
  0
ARC
  5
F7
330
1F
100
AcDbEntity
  8
0
  6
Continuous
 62
     7
370
    15
100
AcDbCircle
 10
248.8525674929
 20
105.0185931195
 30
0.0
 40
3.181106358358361
100
AcDbArc
 50
255.3895031004
 51
273.4368419949
  0
SPLINE
  5
F8
330
1F
100
AcDbEntity
  8
0
  6
HIDDEN
 62
     7
370
     0
100
AcDbSpline
210
0.0
220
0.0
230
1.0
 70
     8
 71
     3
 72
    58
 73
    54
 74
     0
 42
0.00000001
 43
0.00000001
 12
1.0
 22
0.0
 32
0.0
 13
1.0
 23
0.0
 33
0.0
 40
-0.0624999999999998
 40
-0.0624999999999998
 40
0.0
 40
0.0
 40
0.0312500000000002
 40
0.0312500000000002
 40
0.0625000000000003
 40
0.0625000000000003
 40
0.0937500000000005
 40
0.0937500000000005
 40
0.1250000000000007
 40
0.1250000000000007
 40
0.187500000000001
 40
0.187500000000001
 40
0.2500000000000013
 40
0.2500000000000013
 40
0.2812500000000013
 40
0.2812500000000013
 40
0.3125000000000012
 40
0.3125000000000012
 40
0.3437500000000012
 40
0.3437500000000012
 40
0.3750000000000011
 40
0.3750000000000011
 40
0.4062500000000011
 40
0.4062500000000011
 40
0.4375000000000011
 40
0.4375000000000011
 40
0.468750000000001
 40
0.468750000000001
 40
0.5000000000000009
 40
0.5000000000000009
 40
0.5625000000000008
 40
0.5625000000000008
 40
0.6250000000000007
 40
0.6250000000000007
 40
0.6562500000000007
 40
0.6562500000000007
 40
0.6875000000000006
 40
0.6875000000000006
 40
0.7187500000000006
 40
0.7187500000000006
 40
0.7500000000000004
 40
0.7500000000000004
 40
0.7812500000000004
 40
0.7812500000000004
 40
0.8125000000000004
 40
0.8125000000000004
 40
0.8437500000000003
 40
0.8437500000000003
 40
0.8750000000000003
 40
0.8750000000000003
 40
0.9375000000000002
 40
0.9375000000000002
 40
1.0
 40
1.0
 40
1.03125
 40
1.03125
 10
157.2658050803355
 20
118.0427281870294
 30
0.0
 10
157.2658050803355
 20
118.4392867428446
 30
0.0
 10
157.278780972346
 20
118.5692534823894
 30
0.0
 10
157.3296132744519
 20
118.8249328205215
 30
0.0
 10
157.3680903457733
 20
118.9519739123629
 30
0.0
 10
157.4684953069297
 20
119.1941520983035
 30
0.0
 10
157.5299295492491
 20
119.309005756893
 30
0.0
 10
157.6750638154307
 20
119.5263708786988
 30
0.0
 10
157.7595057365781
 20
119.6292463507831
 30
0.0
 10
158.0361777661879
 20
119.9058643032002
 30
0.0
 10
158.2592239211561
 20
120.0548564230331
 30
0.0
 10
158.7404879197005
 20
120.2543802180244
 30
0.0
 10
159.0037457750203
 20
120.3069590825266
 30
0.0
 10
159.3952118063052
 20
120.3071708561142
 30
0.0
 10
159.5277605499187
 20
120.2941798845248
 30
0.0
 10
159.7843048589339
 20
120.2431436612349
 30
0.0
 10
159.9090007453056
 20
120.2053821198321
 30
0.0
 10
160.1512037157394
 20
120.1052225805387
 30
0.0
 10
160.26826707899
 20
120.0426247707882
 30
0.0
 10
160.4849533982361
 20
119.8979027867526
 30
0.0
 10
160.5859673663038
 20
119.8152786815843
 30
0.0
 10
160.7727605605893
 20
119.6286583109733
 30
0.0
 10
160.8555609245436
 20
119.5276099430821
 30
0.0
 10
161.0004393634382
 20
119.3110979222082
 30
0.0
 10
161.0630901467656
 20
119.1942085670093
 30
0.0
 10
161.1635305411395
 20
118.9519511649503
 30
0.0
 10
161.2013895529094
 20
118.827288500135
 30
0.0
 10
161.2526272573729
 20
118.5709573044802
 30
0.0
 10
161.265757632146
 20
118.4383693651298
 30
0.0
 10
161.2658995825849
 20
118.0467376965604
 30
0.0
 10
161.2135586663369
 20
117.7835248635262
 30
0.0
 10
161.0144284395987
 20
117.3020175328349
 30
0.0
 10
160.8655913519564
 20
117.0788170515593
 30
0.0
 10
160.5892793154171
 20
116.8019709715975
 30
0.0
 10
160.4865137781658
 20
116.7174588773788
 30
0.0
 10
160.269196845812
 20
116.5720802806473
 30
0.0
 10
160.1544099352751
 20
116.5105648490455
 30
0.0
 10
159.9124904451692
 20
116.4100087887999
 30
0.0
 10
159.7853635426692
 20
116.3713700629653
 30
0.0
 10
159.529694707033
 20
116.3203051960779
 30
0.0
 10
159.3997995016551
 20
116.3072307157016
 30
0.0
 10
159.1357247192307
 20
116.306972314428
 30
0.0
 10
159.0053955797454
 20
116.319848382391
 30
0.0
 10
158.7497062656015
 20
116.3704471737189
 30
0.0
 10
158.6227783992138
 20
116.4087525195566
 30
0.0
 10
158.3803261103717
 20
116.5090083519765
 30
0.0
 10
158.2654094163901
 20
116.5703593708885
 30
0.0
 10
158.0480186246197
 20
116.7152282064588
 30
0.0
 10
157.9450333449381
 20
116.7995921597281
 30
0.0
 10
157.6680689772808
 20
117.0761182135142
 30
0.0
 10
157.5189366989223
 20
117.2989780555099
 30
0.0
 10
157.3189845802079
 20
117.7800805755707
 30
0.0
 10
157.2658050803355
 20
118.0427281870294
 30
0.0
 10
157.2658050803355
 20
118.4392867428446
 30
0.0
  0
SPLINE
  5
F9
330
1F
100
AcDbEntity
  8
0
  6
HIDDEN
 62
     7
370
     0
100
AcDbSpline
210
0.0
220
0.0
230
1.0
 70
     8
 71
     3
 72
    12
 73
     8
 74
     0
 42
0.00000001
 43
0.00000001
 12
1.0
 22
0.0
 32
0.0
 13
1.0
 23
0.0
 33
0.0
 40
0.0
 40
0.0
 40
0.0
 40
0.0
 40
0.2499999999999991
 40
0.2499999999999991
 40
0.4999999999999982
 40
0.4999999999999982
 40
1.0
 40
1.0
 40
1.0
 40
1.0
 10
155.793561893902
 20
110.7382905883923
 30
0.0
 10
155.7298966573715
 20
110.7382905883923
 30
0.0
 10
155.6702904251481
 20
110.7122184399126
 30
0.0
 10
155.5716299002173
 20
110.6366796890915
 30
0.0
 10
155.532662910202
 20
110.5894287519953
 30
0.0
 10
155.4332760782775
 20
110.4376049340289
 30
0.0
 10
155.3911998308541
 20
110.3248016842638
 30
0.0
 10
155.3605491920098
 20
110.2106475595287
 30
0.0
  0
LINE
  5
FA
330
1F
100
AcDbEntity
  8
0
  6
HIDDEN
 62
     7
370
     0
100
AcDbLine
 10
158.7380479647
 20
110.7382904224
 30
0.0
 11
155.793561749
 21
110.7382904224
 31
0.0
  0
SPLINE
  5
FB
330
1F
100
AcDbEntity
  8
0
  6
HIDDEN
 62
     7
370
     0
100
AcDbSpline
210
0.0
220
0.0
230
1.0
 70
     8
 71
     3
 72
    12
 73
     8
 74
     0
 42
0.00000001
 43
0.00000001
 12
1.0
 22
0.0
 32
0.0
 13
1.0
 23
0.0
 33
0.0
 40
0.0
 40
0.0
 40
0.0
 40
0.0
 40
0.5
 40
0.5
 40
0.75
 40
0.75
 40
1.0
 40
1.0
 40
1.0
 40
1.0
 10
159.1710609686613
 20
110.2106475595287
 30
0.0
 10
159.140361585294
 20
110.3249832265925
 30
0.0
 10
159.0990115171875
 20
110.4363365794339
 30
0.0
 10
158.9992555889681
 20
110.5890733516826
 30
0.0
 10
158.9595586712353
 20
110.6369332375347
 30
0.0
 10
158.8623005195877
 20
110.7115363508842
 30
0.0
 10
158.801524361597
 20
110.7382905883923
 30
0.0
 10
158.7380482667691
 20
110.7382905883923
 30
0.0
  0
ELLIPSE
  5
FC
330
1F
100
AcDbEntity
  8
0
  6
HIDDEN
 62
     7
370
     0
100
AcDbEllipse
 10
146.2095474254
 20
118.3071005576
 30
0.0
 11
-11.70927234972717
 21
24.67718644093743
 31
0.0
210
0.0
220
0.0
230
1.0
 40
0.3419987131
 41
3.310521928178952
 42
4.221709151398946
  0
SPLINE
  5
FD
330
1F
100
AcDbEntity
  8
0
  6
HIDDEN
 62
     7
370
     0
100
AcDbSpline
210
0.0
220
0.0
230
1.0
 70
     8
 71
     3
 72
    12
 73
     8
 74
     0
 42
0.00000001
 43
0.00000001
 12
1.0
 22
0.0
 32
0.0
 13
1.0
 23
0.0
 33
0.0
 40
0.0
 40
0.0
 40
0.0
 40
0.0
 40
0.2499999999999993
 40
0.2499999999999993
 40
0.4999999999999987
 40
0.4999999999999987
 40
1.0
 40
1.0
 40
1.0
 40
1.0
 10
158.7380482667691
 20
94.48036944207094
 30
0.0
 10
158.8017135032996
 20
94.48036944207094
 30
0.0
 10
158.861319735523
 20
94.48863421773679
 30
0.0
 10
158.9599802604538
 20
94.51285299931995
 30
0.0
 10
158.998947250469
 20
94.52811031862909
 30
0.0
 10
159.0983340823935
 20
94.57774367289103
 30
0.0
 10
159.140410329817
 20
94.61538338106514
 30
0.0
 10
159.1710609686613
 20
94.65445908034128
 30
0.0
  0
LINE
  5
FE
330
1F
100
AcDbEntity
  8
0
  6
HIDDEN
 62
     7
370
     0
100
AcDbLine
 10
155.793561749
 20
94.4803691887
 30
0.0
 11
158.7380479647
 21
94.4803691887
 31
0.0
  0
SPLINE
  5
FF
330
1F
100
AcDbEntity
  8
0
  6
HIDDEN
 62
     7
370
     0
100
AcDbSpline
210
0.0
220
0.0
230
1.0
 70
     8
 71
     3
 72
    12
 73
     8
 74
     0
 42
0.00000001
 43
0.00000001
 12
1.0
 22
0.0
 32
0.0
 13
1.0
 23
0.0
 33
0.0
 40
0.0
 40
0.0
 40
0.0
 40
0.0
 40
0.5000000000000032
 40
0.5000000000000032
 40
0.7500000000000016
 40
0.7500000000000016
 40
1.0
 40
1.0
 40
1.0
 40
1.0
 10
155.3605491920098
 20
94.65445908034127
 30
0.0
 10
155.391248575377
 20
94.61532123794538
 30
0.0
 10
155.4325986434836
 20
94.57816145521988
 30
0.0
 10
155.532354571703
 20
94.52822494959213
 30
0.0
 10
155.5720514894357
 20
94.51277207944837
 30
0.0
 10
155.6693096410833
 20
94.48885253584932
 30
0.0
 10
155.7300857990741
 20
94.48036944207092
 30
0.0
 10
155.793561893902
 20
94.48036944207094
 30
0.0
  0
ELLIPSE
  5
100
330
1F
100
AcDbEntity
  8
0
  6
HIDDEN
 62
     7
370
     0
100
AcDbEllipse
 10
168.3220627353
 20
118.3071005576
 30
0.0
 11
11.70927234972706
 21
24.67718644093743
 31
0.0
210
0.0
220
0.0
230
1.0
 40
0.3419987131
 41
2.06147615578065
 42
2.972663379000674
  0
SPLINE
  5
101
330
1F
100
AcDbEntity
  8
0
  6
HIDDEN
 62
     7
370
     0
100
AcDbSpline
210
0.0
220
0.0
230
1.0
 70
     8
 71
     3
 72
    12
 73
     8
 74
     0
 42
0.00000001
 43
0.00000001
 12
1.0
 22
0.0
 32
0.0
 13
1.0
 23
0.0
 33
0.0
 40
0.0
 40
0.0
 40
0.0
 40
0.0
 40
0.25
 40
0.25
 40
0.5
 40
0.5
 40
1.0
 40
1.0
 40
1.0
 40
1.0
 10
155.793561893902
 20
142.133831673075
 30
0.0
 10
155.7298966573715
 20
142.1338316730749
 30
0.0
 10
155.6702904251481
 20
142.1255668974091
 30
0.0
 10
155.5716299002173
 20
142.1013481158259
 30
0.0
 10
155.532662910202
 20
142.0860907965168
 30
0.0
 10
155.4332760782775
 20
142.0364574422549
 30
0.0
 10
155.3911998308541
 20
141.9988177340807
 30
0.0
 10
155.3605491920098
 20
141.9597420348046
 30
0.0
  0
LINE
  5
102
330
1F
100
AcDbEntity
  8
0
  6
HIDDEN
 62
     7
370
     0
100
AcDbLine
 10
158.7380479647
 20
142.1338319265
 30
0.0
 11
155.793561749
 21
142.1338319265
 31
0.0
  0
SPLINE
  5
103
330
1F
100
AcDbEntity
  8
0
  6
HIDDEN
 62
     7
370
     0
100
AcDbSpline
210
0.0
220
0.0
230
1.0
 70
     8
 71
     3
 72
    12
 73
     8
 74
     0
 42
0.00000001
 43
0.00000001
 12
1.0
 22
0.0
 32
0.0
 13
1.0
 23
0.0
 33
0.0
 40
0.0
 40
0.0
 40
0.0
 40
0.0
 40
0.5000000000000013
 40
0.5000000000000013
 40
0.7500000000000007
 40
0.7500000000000007
 40
1.0
 40
1.0
 40
1.0
 40
1.0
 10
159.1710609686613
 20
141.9597420348046
 30
0.0
 10
159.140361585294
 20
141.9988798772005
 30
0.0
 10
159.0990115171875
 20
142.036039659926
 30
0.0
 10
158.9992555889681
 20
142.0859761655537
 30
0.0
 10
158.9595586712354
 20
142.1014290356975
 30
0.0
 10
158.8623005195877
 20
142.1253485792965
 30
0.0
 10
158.801524361597
 20
142.133831673075
 30
0.0
 10
158.7380482667691
 20
142.133831673075
 30
0.0
  0
ELLIPSE
  5
104
330
1F
100
AcDbEntity
  8
0
  6
HIDDEN
 62
     7
370
     0
100
AcDbEllipse
 10
146.2095474254
 20
118.3071005576
 30
0.0
 11
11.70927234972723
 21
24.67718644093744
 31
0.0
210
0.0
220
0.0
230
1.0
 40
0.3419987131
 41
5.20306880937047
 42
6.114256032590515
  0
SPLINE
  5
105
330
1F
100
AcDbEntity
  8
0
  6
HIDDEN
 62
     7
370
     0
100
AcDbSpline
210
0.0
220
0.0
230
1.0
 70
     8
 71
     3
 72
    12
 73
     8
 74
     0
 42
0.00000001
 43
0.00000001
 12
1.0
 22
0.0
 32
0.0
 13
1.0
 23
0.0
 33
0.0
 40
0.0
 40
0.0
 40
0.0
 40
0.0
 40
0.2500000000000002
 40
0.2500000000000002
 40
0.5000000000000004
 40
0.5000000000000004
 40
1.0
 40
1.0
 40
1.0
 40
1.0
 10
158.7380482667691
 20
125.8759105267538
 30
0.0
 10
158.8017135032996
 20
125.8759105267538
 30
0.0
 10
158.8613197355229
 20
125.9019826752335
 30
0.0
 10
158.9599802604538
 20
125.9775214260546
 30
0.0
 10
158.998947250469
 20
126.0247723631508
 30
0.0
 10
159.0983340823935
 20
126.1765961811173
 30
0.0
 10
159.140410329817
 20
126.2893994308824
 30
0.0
 10
159.1710609686613
 20
126.4035535556174
 30
0.0
  0
LINE
  5
106
330
1F
100
AcDbEntity
  8
0
  6
HIDDEN
 62
     7
370
     0
100
AcDbLine
 10
155.793561749
 20
125.8759106927
 30
0.0
 11
158.7380479647
 21
125.8759106927
 31
0.0
  0
SPLINE
  5
107
330
1F
100
AcDbEntity
  8
0
  6
HIDDEN
 62
     7
370
     0
100
AcDbSpline
210
0.0
220
0.0
230
1.0
 70
     8
 71
     3
 72
    12
 73
     8
 74
     0
 42
0.00000001
 43
0.00000001
 12
1.0
 22
0.0
 32
0.0
 13
1.0
 23
0.0
 33
0.0
 40
0.0
 40
0.0
 40
0.0
 40
0.0
 40
0.5000000000000028
 40
0.5000000000000028
 40
0.7500000000000013
 40
0.7500000000000013
 40
1.0
 40
1.0
 40
1.0
 40
1.0
 10
155.3605491920098
 20
126.4035535556174
 30
0.0
 10
155.3912485753771
 20
126.2892178885536
 30
0.0
 10
155.4325986434836
 20
126.1778645357122
 30
0.0
 10
155.532354571703
 20
126.0251277634635
 30
0.0
 10
155.5720514894357
 20
125.9772678776114
 30
0.0
 10
155.6693096410833
 20
125.9026647642619
 30
0.0
 10
155.7300857990741
 20
125.8759105267538
 30
0.0
 10
155.793561893902
 20
125.8759105267538
 30
0.0
  0
ELLIPSE
  5
108
330
1F
100
AcDbEntity
  8
0
  6
HIDDEN
 62
     7
370
     0
100
AcDbEllipse
 10
168.3220627353
 20
118.3071005576
 30
0.0
 11
-11.70927234972711
 21
24.67718644093746
 31
0.0
210
0.0
220
0.0
230
1.0
 40
0.3419987131
 41
0.1689292745891146
 42
1.080116497809133
  0
LINE
  5
109
330
1F
100
AcDbEntity
  8
0
  6
HIDDEN
 62
     7
370
     0
100
AcDbLine
 10
167.2658046333
 20
142.7071000867
 30
0.0
 11
167.2658046333
 21
93.9071010284
 31
0.0
  0
LINE
  5
10A
330
1F
100
AcDbEntity
  8
0
  6
HIDDEN
 62
     7
370
     0
100
AcDbLine
 10
147.2658050803
 20
143.0071014397
 30
0.0
 11
147.2658050803
 21
93.6070996754
 31
0.0
  0
LINE
  5
10B
330
1F
100
AcDbEntity
  8
0
  6
HIDDEN
 62
     7
370
     0
100
AcDbLine
 10
167.2658046333
 20
98.3071010046
 30
0.0
 11
167.2658046333
 21
138.3071001105
 31
0.0
  0
LINE
  5
10C
330
1F
100
AcDbEntity
  8
0
  6
HIDDEN
 62
     7
370
     0
100
AcDbLine
 10
147.2658050803
 20
98.7571011715
 30
0.0
 11
147.2658050803
 21
137.8368399524
 31
0.0
  0
SPLINE
  5
10D
330
1F
100
AcDbEntity
  8
0
  6
HIDDEN
 62
     7
370
     0
100
AcDbSpline
210
0.0
220
0.0
230
1.0
 70
     8
 71
     3
 72
    14
 73
    10
 74
     0
 42
0.00000001
 43
0.00000001
 12
1.0
 22
0.0
 32
0.0
 13
1.0
 23
0.0
 33
0.0
 40
0.0
 40
0.0
 40
0.0
 40
0.0
 40
0.25
 40
0.25
 40
0.5
 40
0.5
 40
0.75
 40
0.75
 40
1.0
 40
1.0
 40
1.0
 40
1.0
 10
146.2249440522071
 20
130.6015761026463
 30
0.0
 10
146.2566591865379
 20
130.5437929203031
 30
0.0
 10
146.2912737118382
 20
130.4873802592282
 30
0.0
 10
146.3709449072536
 20
130.3797808092128
 30
0.0
 10
146.416000784284
 20
130.3278681822917
 30
0.0
 10
146.5265551967894
 20
130.2416695575944
 30
0.0
 10
146.5939406109935
 20
130.2075801376227
 30
0.0
 10
146.7445701308916
 20
130.2054777456059
 30
0.0
 10
146.814397367657
 20
130.2388495184506
 30
0.0
 10
146.8708281914604
 20
130.2826621870013
 30
0.0
  0
SPLINE
  5
10E
330
1F
100
AcDbEntity
  8
0
  6
HIDDEN
 62
     7
370
     0
100
AcDbSpline
210
0.0
220
0.0
230
1.0
 70
     8
 71
     3
 72
    16
 73
    12
 74
     0
 42
0.00000001
 43
0.00000001
 12
1.0
 22
0.0
 32
0.0
 13
1.0
 23
0.0
 33
0.0
 40
0.0
 40
0.0
 40
0.0
 40
0.0
 40
0.0625000000000006
 40
0.0625000000000006
 40
0.1250000000000011
 40
0.1250000000000011
 40
0.2500000000000042
 40
0.2500000000000042
 40
0.5000000000000011
 40
0.5000000000000011
 40
1.0
 40
1.0
 40
1.0
 40
1.0
 10
146.8708281914287
 20
130.2826621870319
 30
0.0
 10
146.8825624258756
 20
130.2917726002799
 30
0.0
 10
146.8960941813545
 20
130.2998499562263
 30
0.0
 10
146.9260816417844
 20
130.3080967979032
 30
0.0
 10
146.9410763481926
 20
130.3071694803156
 30
0.0
 10
146.9768167705874
 20
130.2944029607839
 30
0.0
 10
146.9908301075886
 20
130.2767543142735
 30
0.0
 10
147.02497419637
 20
130.2221013942419
 30
0.0
 10
147.0359461004883
 20
130.1807017265835
 30
0.0
 10
147.0617916407546
 20
130.0522119828607
 30
0.0
 10
147.0658050803355
 20
129.961593895222
 30
0.0
 10
147.0658050803355
 20
129.8693747906679
 30
0.0
  0
LINE
  5
10F
330
1F
100
AcDbEntity
  8
0
  6
HIDDEN
 62
     7
370
     0
100
AcDbLine
 10
147.0658050854
 20
106.7448267199
 30
0.0
 11
147.0658050854
 21
129.8693743952
 31
0.0
  0
SPLINE
  5
110
330
1F
100
AcDbEntity
  8
0
  6
HIDDEN
 62
     7
370
     0
100
AcDbSpline
210
0.0
220
0.0
230
1.0
 70
     8
 71
     3
 72
    16
 73
    12
 74
     0
 42
0.00000001
 43
0.00000001
 12
1.0
 22
0.0
 32
0.0
 13
1.0
 23
0.0
 33
0.0
 40
0.0
 40
0.0
 40
0.0
 40
0.0
 40
0.4999999999999984
 40
0.4999999999999984
 40
0.7499999999999977
 40
0.7499999999999977
 40
0.8749999999999998
 40
0.8749999999999998
 40
0.9374999999999999
 40
0.9374999999999999
 40
1.0
 40
1.0
 40
1.0
 40
1.0
 10
147.0658050803355
 20
106.7448263244778
 30
0.0
 10
147.0658050803355
 20
106.6522424735739
 30
0.0
 10
147.0617477782205
 20
106.5620300177137
 30
0.0
 10
147.0360905354256
 20
106.4340888905953
 30
0.0
 10
147.0247750896836
 20
106.3916756761834
 30
0.0
 10
146.9907437223749
 20
106.3373616327323
 30
0.0
 10
146.9768647411711
 20
106.3197802973424
 30
0.0
 10
146.9409290594037
 20
106.3069966094074
 30
0.0
 10
146.925978740141
 20
106.3061211112593
 30
0.0
 10
146.8960802273992
 20
106.3143665463787
 30
0.0
 10
146.8825473670339
 20
106.3224402065504
 30
0.0
 10
146.8708281914599
 20
106.3315389281446
 30
0.0
  0
SPLINE
  5
111
330
1F
100
AcDbEntity
  8
0
  6
HIDDEN
 62
     7
370
     0
100
AcDbSpline
210
0.0
220
0.0
230
1.0
 70
     8
 71
     3
 72
    14
 73
    10
 74
     0
 42
0.00000001
 43
0.00000001
 12
1.0
 22
0.0
 32
0.0
 13
1.0
 23
0.0
 33
0.0
 40
0.0
 40
0.0
 40
0.0
 40
0.0
 40
0.25
 40
0.25
 40
0.5
 40
0.5
 40
0.75
 40
0.75
 40
1.0
 40
1.0
 40
1.0
 40
1.0
 10
146.8708281914667
 20
106.3315389281531
 30
0.0
 10
146.8143724268579
 20
106.3753709606478
 30
0.0
 10
146.7435068006081
 20
106.4087019970697
 30
0.0
 10
146.5950497194354
 20
106.4066429869222
 30
0.0
 10
146.5258563601279
 20
106.3720469625205
 30
0.0
 10
146.4161409219937
 20
106.2863816058577
 30
0.0
 10
146.3708963426623
 20
106.2343591611497
 30
0.0
 10
146.2912696332386
 20
106.1268109008197
 30
0.0
 10
146.2566594847051
 20
106.0704087380867
 30
0.0
 10
146.2249440522059
 20
106.0126250124972
 30
0.0
  0
SPLINE
  5
112
330
1F
100
AcDbEntity
  8
0
  6
HIDDEN
 62
     7
370
     0
100
AcDbSpline
210
0.0
220
0.0
230
1.0
 70
     8
 71
     3
 72
    10
 73
     6
 74
     0
 42
0.00000001
 43
0.00000001
 12
1.0
 22
0.0
 32
0.0
 13
1.0
 23
0.0
 33
0.0
 40
0.0
 40
0.0
 40
0.0
 40
0.0
 40
0.5
 40
0.5
 40
1.0
 40
1.0
 40
1.0
 40
1.0
 10
146.2249440522065
 20
106.0126250124982
 30
0.0
 10
146.153164264283
 20
105.8818462955963
 30
0.0
 10
146.1007047499749
 20
105.7477461460931
 30
0.0
 10
146.0113616858738
 20
105.4796535831044
 30
0.0
 10
145.975366076374
 20
105.3454082115155
 30
0.0
 10
145.9444847367759
 20
105.2120538340405
 30
0.0
  0
SPLINE
  5
113
330
1F
100
AcDbEntity
  8
0
  6
HIDDEN
 62
     7
370
     0
100
AcDbSpline
210
0.0
220
0.0
230
1.0
 70
     8
 71
     3
 72
    10
 73
     6
 74
     0
 42
0.00000001
 43
0.00000001
 12
1.0
 22
0.0
 32
0.0
 13
1.0
 23
0.0
 33
0.0
 40
0.0
 40
0.0
 40
0.0
 40
0.0
 40
0.5
 40
0.5
 40
1.0
 40
1.0
 40
1.0
 40
1.0
 10
145.9444847367759
 20
101.0101906895681
 30
0.0
 10
145.9753577685882
 20
100.9939075422009
 30
0.0
 10
146.0113446315011
 20
100.9816499524754
 30
0.0
 10
146.1006792173922
 20
100.9645469636466
 30
0.0
 10
146.1531350768149
 20
100.9597473677883
 30
0.0
 10
146.2249440522071
 20
100.9579432763803
 30
0.0
  0
SPLINE
  5
114
330
1F
100
AcDbEntity
  8
0
  6
HIDDEN
 62
     7
370
     0
100
AcDbSpline
210
0.0
220
0.0
230
1.0
 70
     8
 71
     3
 72
     8
 73
     4
 74
     0
 42
0.00000001
 43
0.00000001
 12
1.0
 22
0.0
 32
0.0
 13
1.0
 23
0.0
 33
0.0
 40
0.0
 40
0.0
 40
0.0
 40
0.0
 40
1.0
 40
1.0
 40
1.0
 40
1.0
 10
147.0481084569606
 20
100.8320588981333
 30
0.0
 10
147.0620952655026
 20
100.8038185075516
 30
0.0
 10
147.0658050803353
 20
100.7806864647408
 30
0.0
 10
147.0658050803356
 20
100.7603460919056
 30
0.0
  0
LINE
  5
115
330
1F
100
AcDbEntity
  8
0
  6
HIDDEN
 62
     7
370
     0
100
AcDbLine
 10
147.0658050854
 20
100.467279502
 30
0.0
 11
147.0658050854
 21
100.7603462272
 31
0.0
  0
LINE
  5
116
330
1F
100
AcDbEntity
  8
0
  6
HIDDEN
 62
     7
370
     0
100
AcDbLine
 10
147.0658050854
 20
135.853854888
 30
0.0
 11
147.0658050854
 21
136.1469216131
 31
0.0
  0
SPLINE
  5
117
330
1F
100
AcDbEntity
  8
0
  6
HIDDEN
 62
     7
370
     0
100
AcDbSpline
210
0.0
220
0.0
230
1.0
 70
     8
 71
     3
 72
    10
 73
     6
 74
     0
 42
0.00000001
 43
0.00000001
 12
1.0
 22
0.0
 32
0.0
 13
1.0
 23
0.0
 33
0.0
 40
0.0
 40
0.0
 40
0.0
 40
0.0
 40
0.5
 40
0.5
 40
1.0
 40
1.0
 40
1.0
 40
1.0
 10
146.2249440522079
 20
135.6562578387654
 30
0.0
 10
146.1531350768153
 20
135.6544537473575
 30
0.0
 10
146.1006792173926
 20
135.6496541514992
 30
0.0
 10
146.0113446315012
 20
135.6325511626705
 30
0.0
 10
145.9753577685882
 20
135.6202935729449
 30
0.0
 10
145.9444847367759
 20
135.6040104255777
 30
0.0
  0
SPLINE
  5
118
330
1F
100
AcDbEntity
  8
0
  6
HIDDEN
 62
     7
370
     0
100
AcDbSpline
210
0.0
220
0.0
230
1.0
 70
     8
 71
     3
 72
    10
 73
     6
 74
     0
 42
0.00000001
 43
0.00000001
 12
1.0
 22
0.0
 32
0.0
 13
1.0
 23
0.0
 33
0.0
 40
0.0
 40
0.0
 40
0.0
 40
0.0
 40
0.5
 40
0.5
 40
1.0
 40
1.0
 40
1.0
 40
1.0
 10
145.9444847367759
 20
131.4021472811053
 30
0.0
 10
145.9753660763741
 20
131.26879290363
 30
0.0
 10
146.0113616858739
 20
131.1345475320409
 30
0.0
 10
146.1007047499753
 20
130.8664549690517
 30
0.0
 10
146.1531642642834
 20
130.7323548195483
 30
0.0
 10
146.2249440522071
 20
130.6015761026463
 30
0.0
  0
LINE
  5
119
330
1F
100
AcDbEntity
  8
0
  6
HIDDEN
 62
     7
370
     0
100
AcDbLine
 10
147.0658050854
 20
100.7603462272
 30
0.0
 11
147.0658050854
 21
112.3226205305
 31
0.0
  0
LINE
  5
11A
330
1F
100
AcDbEntity
  8
0
  6
HIDDEN
 62
     7
370
     0
100
AcDbLine
 10
147.0658050854
 20
124.2915805847
 30
0.0
 11
147.0658050854
 21
135.853854888
 31
0.0
  0
SPLINE
  5
11B
330
1F
100
AcDbEntity
  8
0
  6
HIDDEN
 62
     7
370
     0
100
AcDbSpline
210
0.0
220
0.0
230
1.0
 70
     8
 71
     3
 72
    68
 73
    64
 74
     0
 42
0.00000001
 43
0.00000001
 12
1.0
 22
0.0
 32
0.0
 13
1.0
 23
0.0
 33
0.0
 40
-0.0312500000000006
 40
-0.0312500000000006
 40
0.0
 40
0.0
 40
0.0312499999999999
 40
0.0312499999999999
 40
0.0624999999999999
 40
0.0624999999999999
 40
0.0937499999999998
 40
0.0937499999999998
 40
0.1249999999999998
 40
0.1249999999999998
 40
0.1562499999999997
 40
0.1562499999999997
 40
0.1874999999999996
 40
0.1874999999999996
 40
0.2187499999999996
 40
0.2187499999999996
 40
0.2499999999999995
 40
0.2499999999999995
 40
0.2812499999999994
 40
0.2812499999999994
 40
0.3124999999999994
 40
0.3124999999999994
 40
0.3437499999999993
 40
0.3437499999999993
 40
0.3749999999999992
 40
0.3749999999999992
 40
0.406249999999999
 40
0.406249999999999
 40
0.4374999999999989
 40
0.4374999999999989
 40
0.4687499999999988
 40
0.4687499999999988
 40
0.4999999999999987
 40
0.4999999999999987
 40
0.5312499999999984
 40
0.5312499999999984
 40
0.5624999999999983
 40
0.5624999999999983
 40
0.5937499999999981
 40
0.5937499999999981
 40
0.624999999999998
 40
0.624999999999998
 40
0.6562499999999978
 40
0.6562499999999978
 40
0.6874999999999978
 40
0.6874999999999978
 40
0.7187499999999977
 40
0.7187499999999977
 40
0.7499999999999977
 40
0.7499999999999977
 40
0.7812499999999976
 40
0.7812499999999976
 40
0.8124999999999974
 40
0.8124999999999974
 40
0.8437499999999974
 40
0.8437499999999974
 40
0.8749999999999973
 40
0.8749999999999973
 40
0.9374999999999988
 40
0.9374999999999988
 40
0.9687499999999994
 40
0.9687499999999994
 40
1.0
 40
1.0
 40
1.03125
 40
1.03125
 10
217.46447142585
 20
126.0168533904855
 30
0.0
 10
217.0671387348211
 20
126.0168533904855
 30
0.0
 10
216.8718822383489
 20
125.9994346822897
 30
0.0
 10
216.4878817814702
 20
125.9311273558446
 30
0.0
 10
216.2971168221371
 20
125.8793793444227
 30
0.0
 10
215.934042294136
 20
125.7442213397757
 30
0.0
 10
215.7619105253048
 20
125.6614069354077
 30
0.0
 10
215.4361452801863
 20
125.4649957599652
 30
0.0
 10
215.2822534272572
 20
125.3505808117379
 30
0.0
 10
215.0062224835164
 20
125.099409780063
 30
0.0
 10
214.8821960787376
 20
124.9617219508125
 30
0.0
 10
214.6628627269826
 20
124.6606108196575
 30
0.0
 10
214.5699407617754
 20
124.50002758975
 30
0.0
 10
214.4201699300024
 20
124.1649321774298
 30
0.0
 10
214.3623253648828
 20
123.9879365344724
 30
0.0
 10
214.285082534107
 20
123.62384596415
 30
0.0
 10
214.2659203331951
 20
123.4395682032594
 30
0.0
 10
214.2656908541843
 20
123.0665149347761
 30
0.0
 10
214.2852715247806
 20
122.8758448183728
 30
0.0
 10
214.3619978294138
 20
122.5052377751669
 30
0.0
 10
214.418761830048
 20
122.32398266842
 30
0.0
 10
214.5694066386614
 20
121.9699388943965
 30
0.0
 10
214.6631420810104
 20
121.7986247139966
 30
0.0
 10
214.880053320702
 20
121.4794571855485
 30
0.0
 10
215.004516858997
 20
121.3291937719553
 30
0.0
 10
215.2834829253898
 20
121.0522262611124
 30
0.0
 10
215.4344767660821
 20
120.9287934148544
 30
0.0
 10
215.7589052815348
 20
120.711608819999
 30
0.0
 10
215.9344943985579
 20
120.6171068861149
 30
0.0
 10
216.2971616986135
 20
120.4657780453437
 30
0.0
 10
216.484144407253
 20
120.4083713518937
 30
0.0
 10
216.8694982309228
 20
120.3305308112077
 30
0.0
 10
217.068594387993
 20
120.3105939570332
 30
0.0
 10
217.4606087966433
 20
120.3104351160394
 30
0.0
 10
217.6557300723063
 20
120.3295808612039
 30
0.0
 10
218.044149904301
 20
120.4073707535675
 30
0.0
 10
218.2328345103427
 20
120.4652841564609
 30
0.0
 10
218.5940443566961
 20
120.6156480478683
 30
0.0
 10
218.7691499338524
 20
120.709449102771
 30
0.0
 10
219.0960078941444
 20
120.9278229966827
 30
0.0
 10
219.2467869884935
 20
121.0512054725294
 30
0.0
 10
219.5235817073477
 20
121.3254028659202
 30
0.0
 10
219.6501585126746
 20
121.4776298535783
 30
0.0
 10
219.8676062464014
 20
121.7971287820767
 30
0.0
 10
219.9599867100762
 20
121.9655342998191
 30
0.0
 10
220.1113410258659
 20
122.319654497073
 30
0.0
 10
220.1691056043137
 20
122.5035802543519
 30
0.0
 10
220.245877093816
 20
122.8728352829771
 30
0.0
 10
220.2656573804417
 20
123.0608017658611
 30
0.0
 10
220.2659511318613
 20
123.437713233019
 30
0.0
 10
220.246657097805
 20
123.6221481568926
 30
0.0
 10
220.1704792872789
 20
123.9833750467193
 30
0.0
 10
220.1125831505639
 20
124.1619790511006
 30
0.0
 10
219.9623904081961
 20
124.4988055048424
 30
0.0
 10
219.8703992222563
 20
124.6578604683362
 30
0.0
 10
219.6525526557135
 20
124.9578853799845
 30
0.0
 10
219.5265110081469
 20
125.0982293723091
 30
0.0
 10
219.1129959672753
 20
125.4749749122477
 30
0.0
 10
218.7791545079056
 20
125.6762945939468
 30
0.0
 10
218.2380315557745
 20
125.8782252691642
 30
0.0
 10
218.0479508332925
 20
125.9302185732299
 30
0.0
 10
217.660616107318
 20
125.9994323001503
 30
0.0
 10
217.46447142585
 20
126.0168533904855
 30
0.0
 10
217.0671387348211
 20
126.0168533904855
 30
0.0
  0
CIRCLE
  5
11C
330
1F
100
AcDbEntity
  8
0
  6
HIDDEN
 62
     7
370
     0
100
AcDbCircle
 10
133.2658050803
 20
118.3071005576
 30
0.0
 40
3.049999999999997
  0
SPLINE
  5
11D
330
1F
100
AcDbEntity
  8
0
  6
HIDDEN
 62
     7
370
     0
100
AcDbSpline
210
0.0
220
0.0
230
1.0
 70
     8
 71
     3
 72
    60
 73
    56
 74
     0
 42
0.00000001
 43
0.00000001
 12
1.0
 22
0.0
 32
0.0
 13
1.0
 23
0.0
 33
0.0
 40
-0.0312499999999993
 40
-0.0312499999999993
 40
0.0
 40
0.0
 40
0.0312499999999994
 40
0.0312499999999994
 40
0.0624999999999988
 40
0.0624999999999988
 40
0.1249999999999998
 40
0.1249999999999998
 40
0.1562499999999995
 40
0.1562499999999995
 40
0.1874999999999991
 40
0.1874999999999991
 40
0.2187499999999988
 40
0.2187499999999988
 40
0.2499999999999984
 40
0.2499999999999984
 40
0.3124999999999977
 40
0.3124999999999977
 40
0.374999999999997
 40
0.374999999999997
 40
0.4062499999999967
 40
0.4062499999999967
 40
0.4374999999999963
 40
0.4374999999999963
 40
0.468749999999996
 40
0.468749999999996
 40
0.4999999999999957
 40
0.4999999999999957
 40
0.5312499999999952
 40
0.5312499999999952
 40
0.5624999999999949
 40
0.5624999999999949
 40
0.6249999999999966
 40
0.6249999999999966
 40
0.6562499999999973
 40
0.6562499999999973
 40
0.6874999999999982
 40
0.6874999999999982
 40
0.718749999999999
 40
0.718749999999999
 40
0.7499999999999998
 40
0.7499999999999998
 40
0.7812500000000007
 40
0.7812500000000007
 40
0.8125000000000014
 40
0.8125000000000014
 40
0.8750000000000021
 40
0.8750000000000021
 40
0.9062500000000017
 40
0.9062500000000017
 40
0.9375000000000011
 40
0.9375000000000011
 40
0.9687500000000007
 40
0.9687500000000007
 40
1.0
 40
1.0
 40
1.031249999999999
 40
1.031249999999999
 10
217.4353326769061
 20
119.6226715224976
 30
0.0
 10
217.0962774837649
 20
119.6226715224976
 30
0.0
 10
216.9306796360574
 20
119.6025697860674
 30
0.0
 10
216.6065595593847
 20
119.5256763595886
 30
0.0
 10
216.4467494950592
 20
119.4679223389942
 30
0.0
 10
215.9974078925177
 20
119.250597568886
 30
0.0
 10
215.7277251527424
 20
119.0438415560919
 30
0.0
 10
215.3895403639848
 20
118.6760337517475
 30
0.0
 10
215.285973930361
 20
118.5415046697285
 30
0.0
 10
215.1055224680611
 20
118.259289991371
 30
0.0
 10
215.0284005017987
 20
118.1119509844286
 30
0.0
 10
214.9009826169915
 20
117.8046800558981
 30
0.0
 10
214.8505184241905
 20
117.6426754636361
 30
0.0
 10
214.783677011508
 20
117.3217207846286
 30
0.0
 10
214.7663588099589
 20
117.1614294540834
 30
0.0
 10
214.7647364180255
 20
116.6814261336641
 30
0.0
 10
214.8332243885692
 20
116.3751322861826
 30
0.0
 10
215.08727469494
 20
115.842588684144
 30
0.0
 10
215.2718575942954
 20
115.6149644763978
 30
0.0
 10
215.6092260647185
 20
115.3413581961231
 30
0.0
 10
215.7332152336853
 20
115.2601782571122
 30
0.0
 10
215.9993839789028
 20
115.1201803801892
 30
0.0
 10
216.1399206597268
 20
115.0619321462722
 30
0.0
 10
216.4375789950248
 20
114.9668866073618
 30
0.0
 10
216.5970463725673
 20
114.929814543472
 30
0.0
 10
216.9226637567008
 20
114.8804716058541
 30
0.0
 10
217.088630739088
 20
114.8677795014163
 30
0.0
 10
217.427463985151
 20
114.8670158643316
 30
0.0
 10
217.5944546639863
 20
114.8790570471264
 30
0.0
 10
217.920079577777
 20
114.9269048179654
 30
0.0
 10
218.080210750334
 20
114.9632621745326
 30
0.0
 10
218.5309159096923
 20
115.1049054962828
 30
0.0
 10
218.8011744108431
 20
115.2447251584554
 30
0.0
 10
219.1408891397449
 20
115.5177711689404
 30
0.0
 10
219.2448477836203
 20
115.6209812377945
 30
0.0
 10
219.4251568762419
 20
115.8451528064308
 30
0.0
 10
219.5025905848345
 20
115.9666854736356
 30
0.0
 10
219.6308394396791
 20
116.2316984408184
 30
0.0
 10
219.6811547305959
 20
116.3756423792344
 30
0.0
 10
219.7479029770873
 20
116.672263369972
 30
0.0
 10
219.7653764862835
 20
116.8267015828509
 30
0.0
 10
219.7662182688139
 20
117.1490534529496
 30
0.0
 10
219.749458171282
 20
117.3110324278564
 30
0.0
 10
219.683706027778
 20
117.6332845565537
 30
0.0
 10
219.6338511670045
 20
117.7955156285049
 30
0.0
 10
219.442886381437
 20
118.2600987240367
 30
0.0
 10
219.2575902484671
 20
118.549796375739
 30
0.0
 10
218.9187013476472
 20
118.9192623928253
 30
0.0
 10
218.7935194252441
 20
119.0336730913646
 30
0.0
 10
218.5275842892707
 20
119.2345972259667
 30
0.0
 10
218.3867287058719
 20
119.3217307651049
 30
0.0
 10
218.0870621093878
 20
119.4670473546403
 30
0.0
 10
217.9266839272531
 20
119.5251827437208
 30
0.0
 10
217.6019467872044
 20
119.6024339578745
 30
0.0
 10
217.4353326769061
 20
119.6226715224976
 30
0.0
 10
217.0962774837649
 20
119.6226715224976
 30
0.0
  0
SPLINE
  5
11E
330
1F
100
AcDbEntity
  8
0
  6
HIDDEN
 62
     7
370
     0
100
AcDbSpline
210
0.0
220
0.0
230
1.0
 70
     8
 71
     3
 72
    64
 73
    60
 74
     0
 42
0.00000001
 43
0.00000001
 12
1.0
 22
0.0
 32
0.0
 13
1.0
 23
0.0
 33
0.0
 40
-0.0312500000000006
 40
-0.0312500000000006
 40
0.0
 40
0.0
 40
0.0312499999999996
 40
0.0312499999999996
 40
0.0624999999999991
 40
0.0624999999999991
 40
0.1249999999999979
 40
0.1249999999999979
 40
0.1562499999999973
 40
0.1562499999999973
 40
0.1874999999999968
 40
0.1874999999999968
 40
0.2187499999999961
 40
0.2187499999999961
 40
0.2499999999999955
 40
0.2499999999999955
 40
0.3124999999999942
 40
0.3124999999999942
 40
0.3437499999999945
 40
0.3437499999999945
 40
0.3749999999999948
 40
0.3749999999999948
 40
0.4062499999999952
 40
0.4062499999999952
 40
0.4374999999999956
 40
0.4374999999999956
 40
0.4687499999999959
 40
0.4687499999999959
 40
0.4999999999999962
 40
0.4999999999999962
 40
0.5312499999999966
 40
0.5312499999999966
 40
0.5624999999999969
 40
0.5624999999999969
 40
0.5937499999999972
 40
0.5937499999999972
 40
0.6249999999999976
 40
0.6249999999999976
 40
0.6562499999999979
 40
0.6562499999999979
 40
0.6874999999999982
 40
0.6874999999999982
 40
0.7187499999999986
 40
0.7187499999999986
 40
0.7499999999999989
 40
0.7499999999999989
 40
0.812499999999999
 40
0.812499999999999
 40
0.874999999999999
 40
0.874999999999999
 40
0.9062499999999991
 40
0.9062499999999991
 40
0.9374999999999992
 40
0.9374999999999992
 40
0.9531249999999993
 40
0.9531249999999993
 40
0.9687499999999994
 40
0.9687499999999994
 40
1.0
 40
1.0
 40
1.03125
 40
1.03125
 10
219.3917102432741
 20
116.3835521964662
 30
0.0
 10
219.462596542366
 20
116.3486057897244
 30
0.0
 10
219.5021541072908
 20
116.3151650284033
 30
0.0
 10
219.578306206536
 20
116.2268661985679
 30
0.0
 10
219.6151292814517
 20
116.171742640572
 30
0.0
 10
219.7124912364081
 20
115.9764367205118
 30
0.0
 10
219.7576610080326
 20
115.8132043007262
 30
0.0
 10
219.7684215997204
 20
115.5140474699777
 30
0.0
 10
219.7621890413961
 20
115.4071008859541
 30
0.0
 10
219.7260862740703
 20
115.1801781572492
 30
0.0
 10
219.6954672971045
 20
115.0580955301106
 30
0.0
 10
219.6096105582857
 20
114.811763346276
 30
0.0
 10
219.554259853588
 20
114.6859933484877
 30
0.0
 10
219.4174730049854
 20
114.4312521196568
 30
0.0
 10
219.3392447790884
 20
114.3081081629527
 30
0.0
 10
219.0784345059365
 20
113.9496072136037
 30
0.0
 10
218.8738930010193
 20
113.7336310640618
 30
0.0
 10
218.5739389997596
 20
113.462036374552
 30
0.0
 10
218.4746996403705
 20
113.3794217561343
 30
0.0
 10
218.2805427869954
 20
113.2258307623198
 30
0.0
 10
218.1861666579819
 20
113.155397168121
 30
0.0
 10
218.0124842094491
 20
113.0264096115139
 30
0.0
 10
217.9322223077702
 20
112.9672689394043
 30
0.0
 10
217.7938703134886
 20
112.8544181578485
 30
0.0
 10
217.7376281792283
 20
112.8020323722306
 30
0.0
 10
217.666879612241
 20
112.7013407211661
 30
0.0
 10
217.6541099232777
 20
112.6536216313876
 30
0.0
 10
217.6805475950184
 20
112.5672896487563
 30
0.0
 10
217.7199232778767
 20
112.5282616055102
 30
0.0
 10
217.8333659719369
 20
112.4667018247917
 30
0.0
 10
217.9074874224288
 20
112.4436487995821
 30
0.0
 10
218.0714953802946
 20
112.4171034273174
 30
0.0
 10
218.1622296000967
 20
112.4131762789286
 30
0.0
 10
218.3550983437937
 20
112.4276816561864
 30
0.0
 10
218.4547561614807
 20
112.4459375959842
 30
0.0
 10
218.6565452089541
 20
112.5074431801375
 30
0.0
 10
218.759836625233
 20
112.5512960747275
 30
0.0
 10
218.9611656028167
 20
112.6672821386682
 30
0.0
 10
219.0584653519236
 20
112.7386396146529
 30
0.0
 10
219.2435155930756
 20
112.9126802044819
 30
0.0
 10
219.3297021511908
 20
113.0145319443883
 30
0.0
 10
219.4802531327134
 20
113.2408560770743
 30
0.0
 10
219.5465850313453
 20
113.3687588555248
 30
0.0
 10
219.6519983486601
 20
113.6376115809788
 30
0.0
 10
219.6919082411457
 20
113.7793460984306
 30
0.0
 10
219.7741613377877
 20
114.2173189359831
 30
0.0
 10
219.7767785814351
 20
114.5165327660132
 30
0.0
 10
219.7147975096312
 20
115.0789249905308
 30
0.0
 10
219.6490325774992
 20
115.3490869455418
 30
0.0
 10
219.5346300148266
 20
115.7101146183625
 30
0.0
 10
219.4937627336822
 20
115.823903769155
 30
0.0
 10
219.416657366208
 20
116.0346346122907
 30
0.0
 10
219.3813796226232
 20
116.1290501495752
 30
0.0
 10
219.3494773779865
 20
116.2421248719229
 30
0.0
 10
219.3426704525237
 20
116.2741958619177
 30
0.0
 10
219.3383124154281
 20
116.3260194320533
 30
0.0
 10
219.3409283485198
 20
116.3456458432452
 30
0.0
 10
219.3613629320947
 20
116.3839553712985
 30
0.0
 10
219.3917102432741
 20
116.3835521964662
 30
0.0
 10
219.462596542366
 20
116.3486057897244
 30
0.0
  0
LWPOLYLINE
  5
11F
330
1F
100
AcDbEntity
  8
0
  6
HIDDEN
 62
     7
370
     0
100
AcDbPolyline
 90
       25
 70
   128
 43
0.0
 10
217.2658053784
 20
116.667520902
 10
217.9128510503
 20
116.586504802
 10
218.5158041863
 20
116.3489773821
 10
219.0335748343
 20
115.9711258438
 10
219.430869594
 20
115.4787002083
 10
219.6806205062
 20
114.9052585893
 10
219.7658029942
 20
114.2898797475
 10
219.6806205062
 20
113.6745009058
 10
219.430869594
 20
113.1010590539
 10
219.0335748343
 20
112.6086334184
 10
218.5158041863
 20
112.2307818801
 10
217.9128510503
 20
111.9932545767
 10
217.2658053784
 20
111.9122383602
 10
216.6187597064
 20
111.9932545767
 10
216.0158065705
 20
112.2307818801
 10
215.4980359224
 20
112.6086334184
 10
215.1007411627
 20
113.1010590539
 10
214.8509902505
 20
113.6745009058
 10
214.7658077625
 20
114.2898797475
 10
214.8509902505
 20
114.9052585893
 10
215.1007411627
 20
115.4787002083
 10
215.4980359224
 20
115.9711258438
 10
216.0158065705
 20
116.3489773821
 10
216.6187597064
 20
116.586504802
 10
217.2658053784
 20
116.667520902
  0
LINE
  5
120
330
1F
100
AcDbEntity
  8
0
  6
HIDDEN
 62
     7
370
     0
100
AcDbLine
 10
122.2938449679
 20
129.0957759552
 30
0.0
 11
122.2938449679
 21
107.5184251599
 31
0.0
  0
LINE
  5
121
330
1F
100
AcDbEntity
  8
0
  6
HIDDEN
 62
     7
370
     0
100
AcDbLine
 10
118.2938443122
 20
129.4769737356
 30
0.0
 11
118.2938443122
 21
107.1372273796
 31
0.0
  0
LINE
  5
122
330
1F
100
AcDbEntity
  8
0
  6
HIDDEN
 62
     7
370
     0
100
AcDbLine
 10
117.2658057509
 20
106.5436880522
 30
0.0
 11
117.2658057509
 21
130.070513063
 31
0.0
  0
LINE
  5
123
330
1F
100
AcDbEntity
  8
0
  6
HIDDEN
 62
     7
370
     0
100
AcDbLine
 10
126.8938446043
 20
128.807100416
 30
0.0
 11
126.8938446043
 21
107.8071006991
 31
0.0
  0
LINE
  5
124
330
1F
100
AcDbEntity
  8
0
  6
HIDDEN
 62
     7
370
     0
100
AcDbLine
 10
120.7938456533
 20
128.807100416
 30
0.0
 11
120.7938456533
 21
107.8071006991
 31
0.0
  0
LINE
  5
125
330
1F
100
AcDbEntity
  8
0
  6
HIDDEN
 62
     7
370
     0
100
AcDbLine
 10
121.7938458172
 20
128.807100416
 30
0.0
 11
121.7938458172
 21
107.8071006991
 31
0.0
  0
SPLINE
  5
126
330
1F
100
AcDbEntity
  8
0
  6
HIDDEN
 62
     7
370
     0
100
AcDbSpline
210
0.0
220
0.0
230
1.0
 70
     8
 71
     3
 72
    66
 73
    62
 74
     0
 42
0.00000001
 43
0.00000001
 12
1.0
 22
0.0
 32
0.0
 13
1.0
 23
0.0
 33
0.0
 40
-0.03125
 40
-0.03125
 40
0.0
 40
0.0
 40
0.0312500000000002
 40
0.0312500000000002
 40
0.0625000000000003
 40
0.0625000000000003
 40
0.0937500000000005
 40
0.0937500000000005
 40
0.1250000000000006
 40
0.1250000000000006
 40
0.1875000000000007
 40
0.1875000000000007
 40
0.2187500000000008
 40
0.2187500000000008
 40
0.2500000000000009
 40
0.2500000000000009
 40
0.2812500000000009
 40
0.2812500000000009
 40
0.312500000000001
 40
0.312500000000001
 40
0.3437500000000011
 40
0.3437500000000011
 40
0.3750000000000011
 40
0.3750000000000011
 40
0.4062500000000011
 40
0.4062500000000011
 40
0.4375000000000012
 40
0.4375000000000012
 40
0.4687500000000012
 40
0.4687500000000012
 40
0.5000000000000012
 40
0.5000000000000012
 40
0.5312500000000013
 40
0.5312500000000013
 40
0.5625000000000014
 40
0.5625000000000014
 40
0.5937500000000014
 40
0.5937500000000014
 40
0.6250000000000013
 40
0.6250000000000013
 40
0.6562500000000011
 40
0.6562500000000011
 40
0.687500000000001
 40
0.687500000000001
 40
0.7187500000000008
 40
0.7187500000000008
 40
0.7500000000000006
 40
0.7500000000000006
 40
0.7812500000000004
 40
0.7812500000000004
 40
0.8125000000000002
 40
0.8125000000000002
 40
0.875
 40
0.875
 40
0.9062499999999999
 40
0.9062499999999999
 40
0.9374999999999999
 40
0.9374999999999999
 40
0.96875
 40
0.96875
 40
1.0
 40
1.0
 40
1.03125
 40
1.03125
 10
133.0631264333877
 20
121.3571005575729
 30
0.0
 10
133.4684837272833
 20
121.3571005575729
 30
0.0
 10
133.6675436186192
 20
121.3371009979563
 30
0.0
 10
134.0587976031989
 20
121.2589574952561
 30
0.0
 10
134.2530703619465
 20
121.1997963937354
 30
0.0
 10
134.6218337884978
 20
121.0463647068411
 30
0.0
 10
134.7965589468761
 20
120.9526378969988
 30
0.0
 10
135.1272362504099
 20
120.731383794594
 30
0.0
 10
135.2828837944127
 20
120.6034024275994
 30
0.0
 10
135.7023511640814
 20
120.1838473305993
 30
0.0
 10
135.9292393056117
 20
119.8453687718959
 30
0.0
 10
136.1580359289964
 20
119.2954898841777
 30
0.0
 10
136.2172281838453
 20
119.1020900384343
 30
0.0
 10
136.2960355941058
 20
118.7078618880764
 30
0.0
 10
136.3156750103862
 20
118.5092230606441
 30
0.0
 10
136.3159338748078
 20
118.1089227747457
 30
0.0
 10
136.2958631901748
 20
117.9055834480246
 30
0.0
 10
136.2175255075449
 20
117.513491927417
 30
0.0
 10
136.1595757395065
 20
117.3227860591018
 30
0.0
 10
136.0056325976265
 20
116.9520622425152
 30
0.0
 10
135.9106939839038
 20
116.7753355827064
 30
0.0
 10
135.6903365680266
 20
116.446082471782
 30
0.0
 10
135.5630565420983
 20
116.2909612481856
 30
0.0
 10
135.2813009507678
 20
116.0092845532552
 30
0.0
 10
135.1285126213103
 20
115.8838513683508
 30
0.0
 10
134.7990855391534
 20
115.6630757749967
 30
0.0
 10
134.6205395360017
 20
115.5672445222965
 30
0.0
 10
134.2529672104515
 20
115.4144153918014
 30
0.0
 10
134.0628131837405
 20
115.3562436338572
 30
0.0
 10
133.669272761038
 20
115.2772503415123
 30
0.0
 10
133.4668386897769
 20
115.25718721587
 30
0.0
 10
133.0674096144115
 20
115.2570144697513
 30
0.0
 10
132.8673906358556
 20
115.2764978438406
 30
0.0
 10
132.4712746884062
 20
115.3554894154418
 30
0.0
 10
132.2805418602144
 20
115.4137696352938
 30
0.0
 10
131.9129104196346
 20
115.5663372559018
 30
0.0
 10
131.7344239874669
 20
115.661946042675
 30
0.0
 10
131.4042187285028
 20
115.8829580877601
 30
0.0
 10
131.2513301504409
 20
116.0084079865302
 30
0.0
 10
130.9697337559028
 20
116.2896384755355
 30
0.0
 10
130.8421028330273
 20
116.4450213534495
 30
0.0
 10
130.6217773980275
 20
116.7738722114924
 30
0.0
 10
130.5275509410621
 20
116.9487603179064
 30
0.0
 10
130.3726164204591
 20
117.3209041692672
 30
0.0
 10
130.3146041348568
 20
117.5117102110761
 30
0.0
 10
130.2361848805787
 20
117.9025832289949
 30
0.0
 10
130.2158708006122
 20
118.1050407903772
 30
0.0
 10
130.2157396843082
 20
118.5071713952966
 30
0.0
 10
130.2353643776675
 20
118.7058954404717
 30
0.0
 10
130.3135308280812
 20
119.0987349116084
 30
0.0
 10
130.3728182734211
 20
119.293379189011
 30
0.0
 10
130.601899116504
 20
119.8448189424252
 30
0.0
 10
130.8287299673981
 20
120.1831585081244
 30
0.0
 10
131.2480686687188
 20
120.6028241707759
 30
0.0
 10
131.4034216644688
 20
120.7306701765491
 30
0.0
 10
131.734389497606
 20
120.9522712512509
 30
0.0
 10
131.9089507978023
 20
121.0459119852278
 30
0.0
 10
132.2765241053771
 20
121.1990661059271
 30
0.0
 10
132.4712109670152
 20
121.2585698515731
 30
0.0
 10
132.8636869169517
 20
121.3370926006361
 30
0.0
 10
133.0631264333877
 20
121.3571005575729
 30
0.0
 10
133.4684837272833
 20
121.3571005575729
 30
0.0
  0
SPLINE
  5
127
330
1F
100
AcDbEntity
  8
0
  6
HIDDEN
 62
     7
370
     0
100
AcDbSpline
210
0.0
220
0.0
230
1.0
 70
     8
 71
     3
 72
    66
 73
    62
 74
     0
 42
0.00000001
 43
0.00000001
 12
1.0
 22
0.0
 32
0.0
 13
1.0
 23
0.0
 33
0.0
 40
-0.03125
 40
-0.03125
 40
0.0
 40
0.0
 40
0.0312499999999998
 40
0.0312499999999998
 40
0.0624999999999997
 40
0.0624999999999997
 40
0.0937499999999995
 40
0.0937499999999995
 40
0.1249999999999993
 40
0.1249999999999993
 40
0.1874999999999994
 40
0.1874999999999994
 40
0.2187499999999995
 40
0.2187499999999995
 40
0.2499999999999996
 40
0.2499999999999996
 40
0.2812499999999996
 40
0.2812499999999996
 40
0.3124999999999997
 40
0.3124999999999997
 40
0.3437499999999997
 40
0.3437499999999997
 40
0.3749999999999998
 40
0.3749999999999998
 40
0.4062499999999998
 40
0.4062499999999998
 40
0.4374999999999999
 40
0.4374999999999999
 40
0.4687499999999999
 40
0.4687499999999999
 40
0.5
 40
0.5
 40
0.53125
 40
0.53125
 40
0.5625000000000001
 40
0.5625000000000001
 40
0.5937500000000001
 40
0.5937500000000001
 40
0.6250000000000002
 40
0.6250000000000002
 40
0.6562500000000002
 40
0.6562500000000002
 40
0.6875000000000003
 40
0.6875000000000003
 40
0.7187500000000003
 40
0.7187500000000003
 40
0.7500000000000004
 40
0.7500000000000004
 40
0.7812500000000004
 40
0.7812500000000004
 40
0.8125000000000006
 40
0.8125000000000006
 40
0.8750000000000006
 40
0.8750000000000006
 40
0.9062500000000003
 40
0.9062500000000003
 40
0.9375000000000002
 40
0.9375000000000002
 40
0.96875
 40
0.96875
 40
1.0
 40
1.0
 40
1.03125
 40
1.03125
 10
133.4684837272833
 20
121.3571005575729
 30
0.0
 10
133.0631264333877
 20
121.3571005575729
 30
0.0
 10
132.8640665420519
 20
121.3371009979563
 30
0.0
 10
132.4728125574722
 20
121.2589574952561
 30
0.0
 10
132.2785397987246
 20
121.1997963937354
 30
0.0
 10
131.9097763721732
 20
121.0463647068411
 30
0.0
 10
131.7350512137949
 20
120.9526378969988
 30
0.0
 10
131.4043739102612
 20
120.731383794594
 30
0.0
 10
131.2487263662583
 20
120.6034024275994
 30
0.0
 10
130.8292589965897
 20
120.1838473305993
 30
0.0
 10
130.6023708550594
 20
119.8453687718959
 30
0.0
 10
130.3735742316746
 20
119.2954898841777
 30
0.0
 10
130.3143819768258
 20
119.1020900384343
 30
0.0
 10
130.2355745665652
 20
118.7078618880764
 30
0.0
 10
130.2159351502848
 20
118.5092230606441
 30
0.0
 10
130.2156762858633
 20
118.1089227747457
 30
0.0
 10
130.2357469704962
 20
117.9055834480246
 30
0.0
 10
130.3140846531261
 20
117.513491927417
 30
0.0
 10
130.3720344211646
 20
117.3227860591018
 30
0.0
 10
130.5259775630446
 20
116.9520622425152
 30
0.0
 10
130.6209161767673
 20
116.7753355827064
 30
0.0
 10
130.8412735926445
 20
116.446082471782
 30
0.0
 10
130.9685536185727
 20
116.2909612481856
 30
0.0
 10
131.2503092099033
 20
116.0092845532552
 30
0.0
 10
131.4030975393608
 20
115.8838513683508
 30
0.0
 10
131.7325246215177
 20
115.6630757749967
 30
0.0
 10
131.9110706246694
 20
115.5672445222965
 30
0.0
 10
132.2786429502195
 20
115.4144153918014
 30
0.0
 10
132.4687969769305
 20
115.3562436338572
 30
0.0
 10
132.862337399633
 20
115.2772503415123
 30
0.0
 10
133.0647714708942
 20
115.25718721587
 30
0.0
 10
133.4642005462595
 20
115.2570144697513
 30
0.0
 10
133.6642195248155
 20
115.2764978438406
 30
0.0
 10
134.0603354722649
 20
115.3554894154418
 30
0.0
 10
134.2510683004567
 20
115.4137696352938
 30
0.0
 10
134.6186997410364
 20
115.5663372559018
 30
0.0
 10
134.7971861732042
 20
115.661946042675
 30
0.0
 10
135.1273914321682
 20
115.8829580877601
 30
0.0
 10
135.2802800102301
 20
116.0084079865302
 30
0.0
 10
135.5618764047682
 20
116.2896384755355
 30
0.0
 10
135.6895073276437
 20
116.4450213534495
 30
0.0
 10
135.9098327626435
 20
116.7738722114924
 30
0.0
 10
136.0040592196089
 20
116.9487603179064
 30
0.0
 10
136.158993740212
 20
117.3209041692672
 30
0.0
 10
136.2170060258142
 20
117.5117102110761
 30
0.0
 10
136.2954252800924
 20
117.9025832289949
 30
0.0
 10
136.3157393600589
 20
118.1050407903771
 30
0.0
 10
136.3158704763629
 20
118.5071713952966
 30
0.0
 10
136.2962457830035
 20
118.7058954404717
 30
0.0
 10
136.2180793325899
 20
119.0987349116084
 30
0.0
 10
136.15879188725
 20
119.293379189011
 30
0.0
 10
135.9297110441671
 20
119.8448189424252
 30
0.0
 10
135.7028801932729
 20
120.1831585081244
 30
0.0
 10
135.2835414919522
 20
120.6028241707758
 30
0.0
 10
135.1281884962023
 20
120.7306701765491
 30
0.0
 10
134.7972206630651
 20
120.9522712512509
 30
0.0
 10
134.6226593628687
 20
121.0459119852278
 30
0.0
 10
134.2550860552939
 20
121.1990661059271
 30
0.0
 10
134.0603991936559
 20
121.2585698515731
 30
0.0
 10
133.6679232437194
 20
121.3370926006361
 30
0.0
 10
133.4684837272833
 20
121.3571005575729
 30
0.0
 10
133.0631264333877
 20
121.3571005575729
 30
0.0
  0
LINE
  5
128
330
1F
100
AcDbEntity
  8
0
  6
HIDDEN
 62
     7
370
     0
100
AcDbLine
 10
137.2658053039
 20
128.3071003341
 30
0.0
 11
137.2658053039
 21
108.3071007811
 31
0.0
  0
LINE
  5
129
330
1F
100
AcDbEntity
  8
0
  6
HIDDEN
 62
     7
370
     0
100
AcDbLine
 10
138.2658054678
 20
125.557100349
 30
0.0
 11
138.2658054678
 21
111.0571007662
 31
0.0
  0
LINE
  5
12A
330
1F
100
AcDbEntity
  8
0
  6
HIDDEN
 62
     7
370
     0
100
AcDbLine
 10
137.2658053039
 20
110.0571006023
 30
0.0
 11
137.2658053039
 21
126.5370044344
 31
0.0
  0
SPLINE
  5
12B
330
1F
100
AcDbEntity
  8
0
  6
HIDDEN
 62
     7
370
     0
100
AcDbSpline
210
0.0
220
0.0
230
1.0
 70
     8
 71
     3
 72
    12
 73
     8
 74
     0
 42
0.00000001
 43
0.00000001
 12
1.0
 22
0.0
 32
0.0
 13
1.0
 23
0.0
 33
0.0
 40
0.0
 40
0.0
 40
0.0
 40
0.0
 40
0.2499999999999998
 40
0.2499999999999998
 40
0.4999999999999996
 40
0.4999999999999996
 40
1.0
 40
1.0
 40
1.0
 40
1.0
 10
235.4589306255943
 20
104.1864866958477
 30
0.0
 10
235.264976440476
 20
104.8109487359334
 30
0.0
 10
235.0643076601349
 20
105.4520897860039
 30
0.0
 10
234.6485430180642
 20
106.7667129506582
 30
0.0
 10
234.4328506382828
 20
107.4420503097511
 30
0.0
 10
233.7655983530491
 20
109.5052730962214
 30
0.0
 10
233.304310734023
 20
110.8982766790149
 30
0.0
 10
232.8228549464149
 20
112.3071005575729
 30
0.0
  0
SPLINE
  5
12C
330
1F
100
AcDbEntity
  8
0
  6
HIDDEN
 62
     7
370
     0
100
AcDbSpline
210
0.0
220
0.0
230
1.0
 70
     8
 71
     3
 72
    12
 73
     8
 74
     0
 42
0.00000001
 43
0.00000001
 12
1.0
 22
0.0
 32
0.0
 13
1.0
 23
0.0
 33
0.0
 40
0.0
 40
0.0
 40
0.0
 40
0.0
 40
0.2499999999999999
 40
0.2499999999999999
 40
0.5
 40
0.5
 40
1.0
 40
1.0
 40
1.0
 40
1.0
 10
231.7658050803355
 20
118.3071005575729
 30
0.0
 10
231.7658050803355
 20
117.7947636327043
 30
0.0
 10
231.7900683080889
 20
117.2781779856438
 30
0.0
 10
231.8846803401191
 20
116.25907191051
 30
0.0
 10
231.9548337489625
 20
115.7545988995156
 30
0.0
 10
232.22761159982
 20
114.2550359414853
 30
0.0
 10
232.4924958071041
 20
113.2737892046722
 30
0.0
 10
232.8228549464149
 20
112.3071005575729
 30
0.0
  0
LINE
  5
12D
330
1F
100
AcDbEntity
  8
0
  6
HIDDEN
 62
     7
370
     0
100
AcDbLine
 10
231.7658049611
 20
118.3071005576
 30
0.0
 11
231.7658049611
 21
134.8071004682
 31
0.0
  0
SPLINE
  5
12E
330
1F
100
AcDbEntity
  8
0
  6
HIDDEN
 62
     7
370
     0
100
AcDbSpline
210
0.0
220
0.0
230
1.0
 70
     8
 71
     3
 72
    14
 73
    10
 74
     0
 42
0.00000001
 43
0.00000001
 12
1.0
 22
0.0
 32
0.0
 13
1.0
 23
0.0
 33
0.0
 40
0.0
 40
0.0
 40
0.0
 40
0.0
 40
0.1928695192075688
 40
0.3884382340473437
 40
0.5261118648700859
 40
0.6637833653133208
 40
0.8057098760289634
 40
0.9476364993498424
 40
1.0
 40
1.0
 40
1.0
 40
1.0
 10
235.4589311031513
 20
104.1864864014459
 30
0.0
 10
235.2979544670009
 20
103.6363619076313
 30
0.0
 10
234.973748337769
 20
102.5284139656159
 30
0.0
 10
234.6517716403602
 20
101.3535913390629
 30
0.0
 10
234.4449412514138
 20
100.5030038467749
 30
0.0
 10
234.3271821286856
 20
99.90847063736044
 30
0.0
 10
234.2889107313978
 20
99.49848254019629
 30
0.0
 10
234.2936309415925
 20
99.25300076562854
 30
0.0
 10
234.3552829064056
 20
99.25421551967294
 30
0.0
 10
234.3718988446407
 20
99.25454291034465
 30
0.0
  0
ELLIPSE
  5
12F
330
1F
100
AcDbEntity
  8
0
  6
HIDDEN
 62
     7
370
     0
100
AcDbEllipse
 10
254.0553742796
 20
118.3071005576
 30
0.0
 11
-1.692802268121284
 21
16.49928264335408
 31
0.0
210
0.0
220
0.0
230
1.0
 40
0.090889472
 41
1.399896119359828
 42
1.56147147018563
  0
ELLIPSE
  5
130
330
1F
100
AcDbEntity
  8
0
  6
HIDDEN
 62
     7
370
     0
100
AcDbEllipse
 10
254.2784801164
 20
118.3071005576
 30
0.0
 11
-11.7456050227652
 21
16.49993160123383
 31
0.0
210
0.0
220
0.0
230
1.0
 40
0.0040448756
 41
6.280305938888285
 42
7.689526914853992
  0
SPLINE
  5
131
330
1F
100
AcDbEntity
  8
0
  6
HIDDEN
 62
     7
370
     0
100
AcDbSpline
210
0.0
220
0.0
230
1.0
 70
     8
 71
     3
 72
    38
 73
    34
 74
     0
 42
0.00000001
 43
0.00000001
 12
1.0
 22
0.0
 32
0.0
 13
1.0
 23
0.0
 33
0.0
 40
0.0
 40
0.0
 40
0.0
 40
0.0
 40
0.0625
 40
0.0625
 40
0.125
 40
0.125
 40
0.1875
 40
0.1875
 40
0.25
 40
0.25
 40
0.3125
 40
0.3125
 40
0.375
 40
0.375
 40
0.4375
 40
0.4375
 40
0.5
 40
0.5
 40
0.5625
 40
0.5625
 40
0.625
 40
0.625
 40
0.6875
 40
0.6875
 40
0.75
 40
0.75
 40
0.8125
 40
0.8125
 40
0.875
 40
0.875
 40
0.9375
 40
0.9375
 40
1.0
 40
1.0
 40
1.0
 40
1.0
 10
247.9938449582168
 20
118.3071005575729
 30
0.0
 10
247.9615250746643
 20
118.5639433216921
 30
0.0
 10
247.9071164999449
 20
118.8139739733111
 30
0.0
 10
247.7553148644013
 20
119.3008390626317
 30
0.0
 10
247.6570080356132
 20
119.5393652256178
 30
0.0
 10
247.4185334403835
 20
119.9945915766396
 30
0.0
 10
247.2803936938621
 20
120.2082218612429
 30
0.0
 10
246.9669537532405
 20
120.6083406794902
 30
0.0
 10
246.7895592775396
 20
120.7965107096484
 30
0.0
 10
246.4063976094515
 20
121.1341493231858
 30
0.0
 10
246.201360741351
 20
121.2837937299685
 30
0.0
 10
245.7645196756967
 20
121.5454852110304
 30
0.0
 10
245.5304150102323
 20
121.6580811225517
 30
0.0
 10
245.0519087155758
 20
121.8368067339119
 30
0.0
 10
244.8062188454021
 20
121.9041753094062
 30
0.0
 10
244.3019184893101
 20
121.9951208316944
 30
0.0
 10
244.0424092964437
 20
122.0181857438425
 30
0.0
 10
243.5311329096075
 20
122.0182151347528
 30
0.0
 10
243.2767865249074
 20
121.9958455728728
 30
0.0
 10
242.7707119135295
 20
121.9056101439485
 30
0.0
 10
242.520820231273
 20
121.837571977928
 30
0.0
 10
242.0431998991209
 20
121.660815455192
 30
0.0
 10
241.8130589346375
 20
121.5517401448358
 30
0.0
 10
241.3707320039645
 20
121.2902023744385
 30
0.0
 10
241.1631563378505
 20
121.1401776402175
 30
0.0
 10
240.7808993704875
 20
120.8067504635575
 30
0.0
 10
240.6047220977488
 20
120.6222314321313
 30
0.0
 10
240.2865054579497
 20
120.2177676281171
 30
0.0
 10
240.1488872255979
 20
120.003598804756
 30
0.0
 10
239.9153675812125
 20
119.551821765358
 30
0.0
 10
239.8189088715847
 20
119.3121527993606
 30
0.0
 10
239.6734391262702
 20
118.8175164489887
 30
0.0
 10
239.624667347296
 20
118.5649382796641
 30
0.0
 10
239.5997653995103
 20
118.3071005575729
 30
0.0
  0
LINE
  5
132
330
1F
100
AcDbEntity
  8
0
  6
HIDDEN
 62
     7
370
     0
100
AcDbLine
 10
162.2658047451
 20
125.557100349
 30
0.0
 11
162.2658047451
 21
111.0571007662
 31
0.0
  0
LINE
  5
133
330
1F
100
AcDbEntity
  8
0
  6
HIDDEN
 62
     7
370
     0
100
AcDbLine
 10
164.0683861075
 20
122.5571007885
 30
0.0
 11
164.0683861075
 21
114.0571003266
 31
0.0
  0
LINE
  5
134
330
1F
100
AcDbEntity
  8
0
  6
HIDDEN
 62
     7
370
     0
100
AcDbLine
 10
220.2658040075
 20
122.5571007885
 30
0.0
 11
220.2658040075
 21
114.0571003266
 31
0.0
  0
SPLINE
  5
135
330
1F
100
AcDbEntity
  8
0
  6
HIDDEN
 62
     7
370
     0
100
AcDbSpline
210
0.0
220
0.0
230
1.0
 70
     8
 71
     3
 72
    60
 73
    56
 74
     0
 42
0.00000001
 43
0.00000001
 12
1.0
 22
0.0
 32
0.0
 13
1.0
 23
0.0
 33
0.0
 40
-0.0312499999999986
 40
-0.0312499999999986
 40
0.0
 40
0.0
 40
0.0312500000000002
 40
0.0312500000000002
 40
0.0625000000000004
 40
0.0625000000000004
 40
0.125000000000003
 40
0.125000000000003
 40
0.1562500000000034
 40
0.1562500000000034
 40
0.1875000000000038
 40
0.1875000000000038
 40
0.2187500000000042
 40
0.2187500000000042
 40
0.2500000000000046
 40
0.2500000000000046
 40
0.3125000000000053
 40
0.3125000000000053
 40
0.3750000000000059
 40
0.3750000000000059
 40
0.4062500000000063
 40
0.4062500000000063
 40
0.4375000000000067
 40
0.4375000000000067
 40
0.468750000000007
 40
0.468750000000007
 40
0.5000000000000073
 40
0.5000000000000073
 40
0.5312500000000077
 40
0.5312500000000077
 40
0.5625000000000079
 40
0.5625000000000079
 40
0.6250000000000063
 40
0.6250000000000063
 40
0.6562500000000063
 40
0.6562500000000063
 40
0.6875000000000064
 40
0.6875000000000064
 40
0.7187500000000064
 40
0.7187500000000064
 40
0.7500000000000066
 40
0.7500000000000066
 40
0.7812500000000067
 40
0.7812500000000067
 40
0.8125000000000066
 40
0.8125000000000066
 40
0.8750000000000057
 40
0.8750000000000057
 40
0.9062500000000042
 40
0.9062500000000042
 40
0.9375000000000029
 40
0.9375000000000029
 40
0.9687500000000014
 40
0.9687500000000014
 40
1.0
 40
1.0
 40
1.03125
 40
1.03125
 10
217.0962774837649
 20
121.7468121741239
 30
0.0
 10
217.4353326769061
 20
121.7468121741239
 30
0.0
 10
217.6009305246136
 20
121.7344810485119
 30
0.0
 10
217.9250506012862
 20
121.6862669254356
 30
0.0
 10
218.0848606656119
 20
121.6497284436492
 30
0.0
 10
218.5342022681533
 20
121.507750461965
 30
0.0
 10
218.8038850079287
 20
121.3676783653259
 30
0.0
 10
219.1420697966862
 20
121.095288315424
 30
0.0
 10
219.2456362303101
 20
120.9924016348916
 30
0.0
 10
219.42608769261
 20
120.7677275053853
 30
0.0
 10
219.5032096588723
 20
120.6463181551262
 30
0.0
 10
219.6306275436795
 20
120.3828585078486
 30
0.0
 10
219.6810917364806
 20
120.2388131955471
 30
0.0
 10
219.7479331491631
 20
119.9418291301321
 30
0.0
 10
219.7652513507121
 20
119.7878725988682
 30
0.0
 10
219.7668737426455
 20
119.3084590960759
 30
0.0
 10
219.6983857721018
 20
118.9766678633491
 30
0.0
 10
219.444335465731
 20
118.3566554450027
 30
0.0
 10
219.2597525663757
 20
118.0675812431569
 30
0.0
 10
218.9223840959525
 20
117.6985528200133
 30
0.0
 10
218.7983949269857
 20
117.5846877480656
 30
0.0
 10
218.5322261817682
 20
117.3826516327975
 30
0.0
 10
218.3916895009442
 20
117.2953894800826
 30
0.0
 10
218.0940311656462
 20
117.1500399118109
 30
0.0
 10
217.9345637881037
 20
117.0915021735866
 30
0.0
 10
217.6089464039702
 20
117.0128502244559
 30
0.0
 10
217.4429794215831
 20
116.9921619003228
 30
0.0
 10
217.10414617552
 20
116.9909255907121
 30
0.0
 10
216.9371554966848
 20
117.0105606560635
 30
0.0
 10
216.611530582894
 20
117.086895887794
 30
0.0
 10
216.451399410337
 20
117.1443910878287
 30
0.0
 10
216.0006942509787
 20
117.3613065211532
 30
0.0
 10
215.7304357498279
 20
117.5678458681352
 30
0.0
 10
215.3907210209261
 20
117.9366685422231
 30
0.0
 10
215.2867623770507
 20
118.0716355943616
 30
0.0
 10
215.1064532844291
 20
118.3532847912529
 30
0.0
 10
215.0290195758365
 20
118.5008411314567
 30
0.0
 10
214.9007707209919
 20
118.8099484060945
 30
0.0
 10
214.8504554300751
 20
118.9718026488525
 30
0.0
 10
214.7837071835837
 20
119.2923609484079
 30
0.0
 10
214.7662336743875
 20
119.4531902202363
 30
0.0
 10
214.7653918918571
 20
119.7758481192565
 30
0.0
 10
214.7821519893891
 20
119.9316944904905
 30
0.0
 10
214.847904132893
 20
120.2303534245657
 30
0.0
 10
214.8977589936666
 20
120.3748245546477
 30
0.0
 10
215.088723779234
 20
120.7736819093994
 30
0.0
 10
215.2740199122039
 20
121.0017114393677
 30
0.0
 10
215.6129088130238
 20
121.2754613893796
 30
0.0
 10
215.7380907354271
 20
121.3569573670479
 30
0.0
 10
216.0040258714003
 20
121.4960786295073
 30
0.0
 10
216.1448814547992
 20
121.5542094488517
 30
0.0
 10
216.4445480512833
 20
121.6491688701506
 30
0.0
 10
216.604926233418
 20
121.6859554792975
 30
0.0
 10
216.9296633734666
 20
121.7343978015902
 30
0.0
 10
217.0962774837649
 20
121.7468121741239
 30
0.0
 10
217.4353326769061
 20
121.7468121741239
 30
0.0
  0
CIRCLE
  5
136
330
1F
100
AcDbEntity
  8
0
  6
HIDDEN
 62
     7
370
     0
100
AcDbCircle
 10
245.9254561354
 20
115.0744276405
 30
0.0
 40
3.482535816784218
  0
CIRCLE
  5
137
330
1F
100
AcDbEntity
  8
0
  6
HIDDEN
 62
     7
370
     0
100
AcDbCircle
 10
245.4990445691
 20
115.6390599365
 30
0.0
 40
3.482535789649289
  0
ARC
  5
138
330
1F
100
AcDbEntity
  8
0
  6
HIDDEN
 62
     7
370
     0
100
AcDbCircle
 10
242.2231746772
 20
108.2937920145
 30
0.0
 40
2.3459412528179
100
AcDbArc
 50
85.3558914317
 51
226.5247475544
  0
LINE
  5
139
330
1F
100
AcDbEntity
  8
0
  6
HIDDEN
 62
     7
370
     0
100
AcDbLine
 10
254.6591518072
 20
109.7443550311
 30
0.0
 11
255.1504356412
 21
109.0938252814
 31
0.0
  0
LINE
  5
13A
330
1F
100
AcDbEntity
  8
0
  6
HIDDEN
 62
     7
370
     0
100
AcDbLine
 10
252.2897181658
 20
120.9615088951
 30
0.0
 11
254.3458772449
 21
118.2388547309
 31
0.0
  0
LINE
  5
13B
330
1F
100
AcDbEntity
  8
0
  6
HIDDEN
 62
     7
370
     0
100
AcDbLine
 10
243.2906237988
 20
106.2810355284
 30
0.0
 11
243.4980703143
 21
106.2659983941
 31
0.0
  0
LINE
  5
13C
330
1F
100
AcDbEntity
  8
0
  6
HIDDEN
 62
     7
370
     0
100
AcDbLine
 10
243.4980703143
 20
106.2659983941
 30
0.0
 11
243.8053844122
 21
105.8590709649
 31
0.0
  0
LINE
  5
13D
330
1F
100
AcDbEntity
  8
0
  6
HIDDEN
 62
     7
370
     0
100
AcDbLine
 10
243.8053844122
 20
105.8590709649
 30
0.0
 11
243.3246804027
 21
105.8939163991
 31
0.0
  0
ELLIPSE
  5
13E
330
1F
100
AcDbEntity
  8
0
  6
HIDDEN
 62
     7
370
     0
100
AcDbEllipse
 10
241.700790658
 20
124.5683875813
 30
0.0
 11
-2.733626938423214
 21
26.42588789006402
 31
0.0
210
0.0
220
0.0
230
1.0
 40
0.0894011665
 41
2.95475511274211
 42
3.122745396089828
  0
ELLIPSE
  5
13F
330
1F
100
AcDbEntity
  8
0
  6
HIDDEN
 62
     7
370
     0
100
AcDbEllipse
 10
237.9536730502
 20
124.9622255119
 30
0.0
 11
217.1628490301422
 21
-19.4408946286366
 31
0.0
210
0.0
220
0.0
230
1.0
 40
0.1182598878
 41
4.750580349972688
 42
4.752899997360426
  0
ELLIPSE
  5
140
330
1F
100
AcDbEntity
  8
0
  6
HIDDEN
 62
     7
370
     0
100
AcDbEllipse
 10
242.2109203234
 20
124.514770793
 30
0.0
 11
-2.733626938423214
 21
26.42588789006401
 31
0.0
210
0.0
220
0.0
230
1.0
 40
0.0894011665
 41
2.839802196962487
 42
2.95243546535439
  0
ELLIPSE
  5
141
330
1F
100
AcDbEntity
  8
0
  6
HIDDEN
 62
     7
370
     0
100
AcDbEllipse
 10
213.2635620024
 20
127.5572607522
 30
0.0
 11
217.1628490301423
 21
-19.44089462863658
 31
0.0
210
0.0
220
0.0
230
1.0
 40
0.1182598878
 41
4.865533265752309
 42
4.915788586952488
  0
SPLINE
  5
142
330
1F
100
AcDbEntity
  8
0
  6
HIDDEN
 62
     7
370
     0
100
AcDbSpline
210
0.0
220
0.0
230
1.0
 70
     8
 71
     3
 72
    15
 73
    11
 74
     0
 42
0.00000001
 43
0.00000001
 12
1.0
 22
0.0
 32
0.0
 13
1.0
 23
0.0
 33
0.0
 40
0.0
 40
0.0
 40
0.0
 40
0.0
 40
0.1016176212836361
 40
0.2024794593095216
 40
0.302586079986853
 40
0.4019380621406709
 40
0.5005359978971833
 40
0.6688014872321818
 40
0.8352883972954155
 40
1.0
 40
1.0
 40
1.0
 40
1.0
 10
254.3196157795143
 20
100.3835627930502
 30
0.0
 10
254.3391513931405
 20
100.3077849681499
 30
0.0
 10
254.3780773238438
 20
100.1567929175622
 30
0.0
 10
254.4358254623497
 20
99.9400312182843
 30
0.0
 10
254.4928158025932
 20
99.7313785651835
 30
0.0
 10
254.5490091981137
 20
99.53139088011135
 30
0.0
 10
254.6175952215104
 20
99.29412870316536
 30
0.0
 10
254.697961555749
 20
99.02749685120784
 30
0.0
 10
254.7894968404826
 20
98.73890531608015
 30
0.0
 10
254.8491237799431
 20
98.56463007718547
 30
0.0
 10
254.8787774419744
 20
98.47795953730237
 30
0.0
  0
SPLINE
  5
143
330
1F
100
AcDbEntity
  8
0
  6
HIDDEN
 62
     7
370
     0
100
AcDbSpline
210
0.0
220
0.0
230
1.0
 70
     8
 71
     3
 72
    12
 73
     8
 74
     0
 42
0.00000001
 43
0.00000001
 12
1.0
 22
0.0
 32
0.0
 13
1.0
 23
0.0
 33
0.0
 40
0.0
 40
0.0
 40
0.0
 40
0.0
 40
0.2499999999999995
 40
0.2499999999999995
 40
0.499999999999999
 40
0.499999999999999
 40
1.0
 40
1.0
 40
1.0
 40
1.0
 10
254.3196118246128
 20
100.3835639987517
 30
0.0
 10
252.774076583411
 20
100.7438639061834
 30
0.0
 10
251.2195914414455
 20
101.0913415968317
 30
0.0
 10
248.0971305521017
 20
101.7639017133299
 30
0.0
 10
246.5291213696949
 20
102.0889795536858
 30
0.0
 10
241.8090436476575
 20
103.0346832874535
 30
0.0
 10
238.6411362756812
 20
103.6259388794093
 30
0.0
 10
235.4589306255951
 20
104.1864866958513
 30
0.0
  0
ELLIPSE
  5
144
330
1F
100
AcDbEntity
  8
0
  6
HIDDEN
 62
     7
370
     0
100
AcDbEllipse
 10
247.4562994011
 20
109.9637277851
 30
0.0
 11
2.967222170038099
 21
-0.5785035440251534
 31
0.0
210
0.0
220
0.0
230
1.0
 40
0.1845741307
 41
3.430111266356108
 42
4.018063484422763
  0
ELLIPSE
  5
145
330
1F
100
AcDbEntity
  8
0
  6
HIDDEN
 62
     7
370
     0
100
AcDbEllipse
 10
247.9271521783
 20
108.8993310683
 30
0.0
 11
-0.938287612369635
 21
2.75166689155327
 31
0.0
210
0.0
220
0.0
230
1.0
 40
0.8587453104
 41
0.7360393123551977
 42
0.9245808423814508
  0
ELLIPSE
  5
146
330
1F
100
AcDbEntity
  8
0
  6
HIDDEN
 62
     7
370
     0
100
AcDbEllipse
 10
247.9271521783
 20
108.8993310683
 30
0.0
 11
-0.938287612369635
 21
2.75166689155327
 31
0.0
210
0.0
220
0.0
230
1.0
 40
0.8587453104
 41
4.739814909466736
 42
4.848839927572614
  0
SPLINE
  5
147
330
1F
100
AcDbEntity
  8
0
  6
HIDDEN
 62
     7
370
     0
100
AcDbSpline
210
0.0
220
0.0
230
1.0
 70
     8
 71
     3
 72
    22
 73
    18
 74
     0
 42
0.00000001
 43
0.00000001
 12
1.0
 22
0.0
 32
0.0
 13
1.0
 23
0.0
 33
0.0
 40
0.0
 40
0.0
 40
0.0
 40
0.0
 40
0.1250000000000001
 40
0.1250000000000001
 40
0.2500000000000002
 40
0.2500000000000002
 40
0.5000000000000007
 40
0.5000000000000007
 40
0.6250000000000006
 40
0.6250000000000006
 40
0.7500000000000004
 40
0.7500000000000004
 40
0.8750000000000003
 40
0.8750000000000003
 40
0.9375000000000001
 40
0.9375000000000001
 40
1.0
 40
1.0
 40
1.0
 40
1.0
 10
248.2630396377471
 20
114.3024533980921
 30
0.0
 10
248.2923779280542
 20
114.2636052886075
 30
0.0
 10
248.3128158367176
 20
114.2111995802258
 30
0.0
 10
248.3396278478075
 20
114.0864664449004
 30
0.0
 10
248.3459106766503
 20
114.0138394637796
 30
0.0
 10
248.3444479554513
 20
113.7752072404151
 30
0.0
 10
248.3177811452094
 20
113.5886782289906
 30
0.0
 10
248.2264556611475
 20
113.2784407199679
 30
0.0
 10
248.1872656025473
 20
113.1697776289504
 30
0.0
 10
248.0838059725966
 20
112.9412171316617
 30
0.0
 10
248.0196749989552
 20
112.8212850799202
 30
0.0
 10
247.8527007089795
 20
112.572040484344
 30
0.0
 10
247.7501126598033
 20
112.4418368674035
 30
0.0
 10
247.5424284871162
 20
112.242409412184
 30
0.0
 10
247.4629374912666
 20
112.1742330520465
 30
0.0
 10
247.2754931341017
 20
112.0388777120572
 30
0.0
 10
247.1681475105498
 20
111.9722347756403
 30
0.0
 10
247.0443385063476
 20
111.9112905432206
 30
0.0
  0
SPLINE
  5
148
330
1F
100
AcDbEntity
  8
0
  6
HIDDEN
 62
     7
370
     0
100
AcDbSpline
210
0.0
220
0.0
230
1.0
 70
     8
 71
     3
 72
     8
 73
     4
 74
     0
 42
0.00000001
 43
0.00000001
 12
1.0
 22
0.0
 32
0.0
 13
1.0
 23
0.0
 33
0.0
 40
0.0
 40
0.0
 40
0.0
 40
0.0
 40
1.0
 40
1.0
 40
1.0
 40
1.0
 10
247.0443385063477
 20
111.9112905432206
 30
0.0
 10
246.901322034375
 20
111.8655080898041
 30
0.0
 10
246.7606993093941
 20
111.8124580251287
 30
0.0
 10
246.6224443891835
 20
111.7522191118967
 30
0.0
  0
SPLINE
  5
149
330
1F
100
AcDbEntity
  8
0
  6
HIDDEN
 62
     7
370
     0
100
AcDbSpline
210
0.0
220
0.0
230
1.0
 70
     8
 71
     3
 72
    22
 73
    18
 74
     0
 42
0.00000001
 43
0.00000001
 12
1.0
 22
0.0
 32
0.0
 13
1.0
 23
0.0
 33
0.0
 40
0.0
 40
0.0
 40
0.0
 40
0.0
 40
0.0624999999999987
 40
0.0624999999999987
 40
0.1249999999999973
 40
0.1249999999999973
 40
0.1874999999999959
 40
0.1874999999999959
 40
0.2499999999999946
 40
0.2499999999999946
 40
0.3749999999999953
 40
0.3749999999999953
 40
0.4999999999999961
 40
0.4999999999999961
 40
0.749999999999998
 40
0.749999999999998
 40
1.0
 40
1.0
 40
1.0
 40
1.0
 10
246.6224443891835
 20
111.7522191118967
 30
0.0
 10
246.4853639750889
 20
111.7148693072927
 30
0.0
 10
246.3568023406822
 20
111.6921870650273
 30
0.0
 10
246.1101499409695
 20
111.6643968864536
 30
0.0
 10
245.9975304948932
 20
111.6599511383212
 30
0.0
 10
245.7854803687306
 20
111.661615561567
 30
0.0
 10
245.6855945680607
 20
111.6679678566067
 30
0.0
 10
245.4991532897751
 20
111.6872526798417
 30
0.0
 10
245.4120336379252
 20
111.7002024944308
 30
0.0
 10
245.1636542614055
 20
111.7455441055209
 30
0.0
 10
245.0151424132916
 20
111.7842995039746
 30
0.0
 10
244.7402879844178
 20
111.8703082257846
 30
0.0
 10
244.6142333675575
 20
111.9177772229734
 30
0.0
 10
244.2686291809238
 20
112.0643017067417
 30
0.0
 10
244.0778078130236
 20
112.1682646615846
 30
0.0
 10
243.769037381552
 20
112.3667643095802
 30
0.0
 10
243.6497559507161
 20
112.4619360538381
 30
0.0
 10
243.5903152063061
 20
112.5406441354105
 30
0.0
  0
ELLIPSE
  5
14A
330
1F
100
AcDbEntity
  8
0
  6
HIDDEN
 62
     7
370
     0
100
AcDbEllipse
 10
246.9949499157
 20
111.006641624
 30
0.0
 11
-0.9382876123696634
 21
2.751666891553271
 31
0.0
210
0.0
220
0.0
230
1.0
 40
0.8587453104
 41
1.512533060448144
 42
1.598222255876947
  0
ELLIPSE
  5
14B
330
1F
100
AcDbEntity
  8
0
  6
HIDDEN
 62
     7
370
     0
100
AcDbEllipse
 10
247.1763575107
 20
110.5965566508
 30
0.0
 11
2.967222170038042
 21
-0.5785035440251391
 31
0.0
210
0.0
220
0.0
230
1.0
 40
0.1845741307
 41
4.206605014448978
 42
6.37698970641117
  0
LINE
  5
14C
330
1F
100
AcDbEntity
  8
0
  6
HIDDEN
 62
     7
370
     0
100
AcDbLine
 10
243.5903159527
 20
112.5406440765
 30
0.0
 11
243.292680159
 21
112.9347602323
 31
0.0
  0
LINE
  5
14D
330
1F
100
AcDbEntity
  8
0
  6
HIDDEN
 62
     7
370
     0
100
AcDbLine
 10
247.9654011873
 20
114.6965694566
 30
0.0
 11
248.263036981
 21
114.3024535336
 31
0.0
  0
ELLIPSE
  5
14E
330
1F
100
AcDbEntity
  8
0
  6
HIDDEN
 62
     7
370
     0
100
AcDbEllipse
 10
244.7015134626
 20
116.6474938433
 30
0.0
 11
3.671213746604366
 21
2.05839884117411
 31
0.0
210
0.0
220
0.0
230
1.0
 40
0.8772799171
 41
3.903713282588229
 42
5.178837123826606
  0
ELLIPSE
  5
14F
330
1F
100
AcDbEntity
  8
0
  6
HIDDEN
 62
     7
370
     0
100
AcDbEllipse
 10
243.8036913252
 20
117.8363392848
 30
0.0
 11
-2.570105550204802
 21
3.403188827857265
 31
0.0
210
0.0
220
0.0
230
1.0
 40
0.9848432766
 41
0.8200772694514941
 42
4.184118694494122
  0
ARC
  5
150
330
1F
100
AcDbEntity
  8
0
  6
HIDDEN
 62
     7
370
     0
100
AcDbCircle
 10
245.3610297294
 20
115.7368079569
 30
0.0
 40
4.179486681839798
100
AcDbArc
 50
293.7505078245
 51
287.5663610617
  0
ARC
  5
151
330
1F
100
AcDbEntity
  8
0
  6
HIDDEN
 62
     7
370
     0
100
AcDbCircle
 10
242.2048217093
 20
108.0432454959
 30
0.0
 40
2.101385932544218
100
AcDbArc
 50
85.4977520676
 51
216.3317349318
  0
LINE
  5
152
330
1F
100
AcDbEntity
  8
0
  6
HIDDEN
 62
     7
370
     0
100
AcDbLine
 10
242.3697767405
 20
110.1381470867
 30
0.0
 11
245.4756183175
 21
109.9130147554
 31
0.0
  0
LINE
  5
153
330
1F
100
AcDbEntity
  8
0
  6
HIDDEN
 62
     7
370
     0
100
AcDbLine
 10
245.6453499941
 20
110.3977364906
 30
0.0
 11
242.4131167678
 21
110.6320311733
 31
0.0
  0
ARC
  5
154
330
1F
100
AcDbEntity
  8
0
  6
HIDDEN
 62
     7
370
     0
100
AcDbCircle
 10
241.8921365337
 20
108.4561553966
 30
0.0
 40
2.095851633638123
100
AcDbArc
 50
85.3385338485
 51
227.5531879678
  0
LINE
  5
155
330
1F
100
AcDbEntity
  8
0
  6
HIDDEN
 62
     7
370
     0
100
AcDbLine
 10
244.4515658168
 20
98.5142867498
 30
0.0
 11
243.8053844122
 21
105.8590709649
 31
0.0
  0
LINE
  5
156
330
1F
100
AcDbEntity
  8
0
  6
HIDDEN
 62
     7
370
     0
100
AcDbLine
 10
243.3023733644
 20
105.8955331751
 30
0.0
 11
243.948003426
 21
98.5570046537
 31
0.0
  0
LWPOLYLINE
  5
157
330
1F
100
AcDbEntity
  8
0
  6
HIDDEN
 62
     7
370
     0
100
AcDbPolyline
 90
       25
 70
   128
 43
0.0
 10
217.2658053784
 20
123.4658946701
 10
217.9128510503
 20
123.3848784536
 10
218.5158041863
 20
123.1473511503
 10
219.0335748343
 20
122.7694996119
 10
219.430869594
 20
122.2770739764
 10
219.6806205062
 20
121.7036323574
 10
219.7658029942
 20
121.0882535156
 10
219.6806205062
 20
120.4728746739
 10
219.430869594
 20
119.899432822
 10
219.0335748343
 20
119.4070071865
 10
218.5158041863
 20
119.0291557646
 10
217.9128510503
 20
118.7916283739
 10
217.2658053784
 20
118.7106122157
 10
216.6187597064
 20
118.7916283739
 10
216.0158065705
 20
119.0291557646
 10
215.4980359224
 20
119.4070071865
 10
215.1007411627
 20
119.899432822
 10
214.8509902505
 20
120.4728746739
 10
214.7658077625
 20
121.0882535156
 10
214.8509902505
 20
121.7036323574
 10
215.1007411627
 20
122.2770739764
 10
215.4980359224
 20
122.7694996119
 10
216.0158065705
 20
123.1473511503
 10
216.6187597064
 20
123.3848784536
 10
217.2658053784
 20
123.4658946701
  0
LINE
  5
158
330
1F
100
AcDbEntity
  8
0
  6
HIDDEN
 62
     7
370
     0
100
AcDbLine
 10
250.2635178713
 20
109.780236096
 30
0.0
 11
250.3444162754
 21
109.5600909971
 31
0.0
  0
LINE
  5
159
330
1F
100
AcDbEntity
  8
0
  6
HIDDEN
 62
     7
370
     0
100
AcDbLine
 10
250.3444162754
 20
109.5600909971
 30
0.0
 11
254.7031623868
 21
109.2441398137
 31
0.0
  0
LINE
  5
15A
330
1F
100
AcDbEntity
  8
0
  6
HIDDEN
 62
     7
370
     0
100
AcDbLine
 10
254.7031623868
 20
109.2441398137
 30
0.0
 11
254.6591518072
 21
109.7443550311
 31
0.0
  0
LINE
  5
15B
330
1F
100
AcDbEntity
  8
0
  6
HIDDEN
 62
     7
370
     0
100
AcDbLine
 10
254.6591518072
 20
109.7443550311
 30
0.0
 11
250.140538588
 21
110.0718955927
 31
0.0
  0
LINE
  5
15C
330
1F
100
AcDbEntity
  8
0
  6
HIDDEN
 62
     7
370
     0
100
AcDbLine
 10
247.9654011873
 20
114.6965694566
 30
0.0
 11
249.0121332554
 21
111.500787963
 31
0.0
  0
LINE
  5
15D
330
1F
100
AcDbEntity
  8
0
  6
HIDDEN
 62
     7
370
     0
100
AcDbLine
 10
250.3444162754
 20
109.5600909971
 30
0.0
 11
250.0371021775
 21
109.9670184262
 31
0.0
  0
LINE
  5
15E
330
1F
100
AcDbEntity
  8
0
  6
HIDDEN
 62
     7
370
     0
100
AcDbLine
 10
250.0371021775
 20
109.9670184262
 30
0.0
 11
250.8933303503
 21
107.6371501618
 31
0.0
  0
SPLINE
  5
15F
330
1F
100
AcDbEntity
  8
0
  6
HIDDEN
 62
     7
370
     0
100
AcDbSpline
210
0.0
220
0.0
230
1.0
 70
     8
 71
     3
 72
     8
 73
     4
 74
     0
 42
0.00000001
 43
0.00000001
 12
1.0
 22
0.0
 32
0.0
 13
1.0
 23
0.0
 33
0.0
 40
0.0
 40
0.0
 40
0.0
 40
0.0
 40
1.0
 40
1.0
 40
1.0
 40
1.0
 10
251.0894168812511
 20
107.0305600663008
 30
0.0
 10
251.0205678951681
 20
107.240733512484
 30
0.0
 10
250.9558307322735
 20
107.4414974935733
 30
0.0
 10
250.8933272448972
 20
107.6371499484955
 30
0.0
  0
LINE
  5
160
330
1F
100
AcDbEntity
  8
0
  6
HIDDEN
 62
     7
370
     0
100
AcDbLine
 10
251.0894147305
 20
107.0305602111
 30
0.0
 11
250.8484778551
 21
107.3495950036
 31
0.0
  0
LINE
  5
161
330
1F
100
AcDbEntity
  8
0
  6
HIDDEN
 62
     7
370
     0
100
AcDbLine
 10
254.3958482889
 20
109.6510672428
 30
0.0
 11
254.7031623868
 21
109.2441398137
 31
0.0
  0
SPLINE
  5
162
330
1F
100
AcDbEntity
  8
0
  6
HIDDEN
 62
     7
370
     0
100
AcDbSpline
210
0.0
220
0.0
230
1.0
 70
     8
 71
     3
 72
    18
 73
    14
 74
     0
 42
0.00000001
 43
0.00000001
 12
1.0
 22
0.0
 32
0.0
 13
1.0
 23
0.0
 33
0.0
 40
0.0
 40
0.0
 40
0.0
 40
0.0
 40
0.2499999999999998
 40
0.2499999999999998
 40
0.3749999999999999
 40
0.3749999999999999
 40
0.5
 40
0.5
 40
0.625
 40
0.625
 40
0.7500000000000001
 40
0.7500000000000001
 40
1.0
 40
1.0
 40
1.0
 40
1.0
 10
145.9444847367759
 20
135.6040104255777
 30
0.0
 10
145.8091991304736
 20
135.5326576838882
 30
0.0
 10
145.7080313842306
 20
135.3872542772988
 30
0.0
 10
145.6051700413617
 20
135.0577870416931
 30
0.0
 10
145.5790671958384
 20
134.9288534648884
 30
0.0
 10
145.5441772122935
 20
134.6333114655523
 30
0.0
 10
145.5355909540036
 20
134.4689166920303
 30
0.0
 10
145.5354912444379
 20
134.1079550772897
 30
0.0
 10
145.5439796155865
 20
133.9113852851275
 30
0.0
 10
145.5781229951071
 20
133.4860304890025
 30
0.0
 10
145.6039199769608
 20
133.256260839203
 30
0.0
 10
145.7073211083488
 20
132.5236721447705
 30
0.0
 10
145.8091791005202
 20
131.9864353698529
 30
0.0
 10
145.9444847367759
 20
131.4021472811053
 30
0.0
  0
LINE
  5
163
330
1F
100
AcDbEntity
  8
0
  6
HIDDEN
 62
     7
370
     0
100
AcDbLine
 10
145.0658050923
 20
135.8271985732
 30
0.0
 11
145.0658050923
 21
130.6870467447
 31
0.0
  0
LINE
  5
164
330
1F
100
AcDbEntity
  8
0
  6
HIDDEN
 62
     7
370
     0
100
AcDbLine
 10
118.7658050654
 20
135.1664512836
 30
0.0
 11
118.7658050654
 21
130.3566730999
 31
0.0
  0
LINE
  5
165
330
1F
100
AcDbEntity
  8
0
  6
HIDDEN
 62
     7
370
     0
100
AcDbLine
 10
118.7658050654
 20
106.2575280153
 30
0.0
 11
118.7658050654
 21
101.4477498316
 31
0.0
  0
LINE
  5
166
330
1F
100
AcDbEntity
  8
0
  6
HIDDEN
 62
     7
370
     0
100
AcDbLine
 10
145.0658050923
 20
105.9271543704
 30
0.0
 11
145.0658050923
 21
100.7870025419
 31
0.0
  0
SPLINE
  5
167
330
1F
100
AcDbEntity
  8
0
  6
HIDDEN
 62
     7
370
     0
100
AcDbSpline
210
0.0
220
0.0
230
1.0
 70
     8
 71
     3
 72
    18
 73
    14
 74
     0
 42
0.00000001
 43
0.00000001
 12
1.0
 22
0.0
 32
0.0
 13
1.0
 23
0.0
 33
0.0
 40
0.0
 40
0.0
 40
0.0
 40
0.0
 40
0.2499999999999995
 40
0.2499999999999995
 40
0.3749999999999994
 40
0.3749999999999994
 40
0.4999999999999994
 40
0.4999999999999994
 40
0.6249999999999994
 40
0.6249999999999994
 40
0.7499999999999993
 40
0.7499999999999993
 40
1.0
 40
1.0
 40
1.0
 40
1.0
 10
145.9444847367759
 20
105.2120538340405
 30
0.0
 10
145.8091991304736
 20
104.6278522403088
 30
0.0
 10
145.7080313842306
 20
104.0936345531006
 30
0.0
 10
145.6051700413617
 20
103.3677377822122
 30
0.0
 10
145.5790671958384
 20
103.1378572944323
 30
0.0
 10
145.5441772122935
 20
102.7072863496455
 30
0.0
 10
145.5355909540036
 20
102.5095914441513
 30
0.0
 10
145.5354912444379
 20
102.1482434014735
 30
0.0
 10
145.5439796155865
 20
101.9845933915274
 30
0.0
 10
145.5781229951071
 20
101.6913821185584
 30
0.0
 10
145.6039199769608
 20
101.5613860524426
 30
0.0
 10
145.7073211083488
 20
101.2273301598807
 30
0.0
 10
145.8091791005202
 20
101.0815539955159
 30
0.0
 10
145.9444847367759
 20
101.0101906895681
 30
0.0
  0
LINE
  5
168
330
1F
100
AcDbEntity
  8
0
  6
HIDDEN
 62
     7
370
     0
100
AcDbLine
 10
117.2658057509
 20
134.3004255973
 30
0.0
 11
117.2658057509
 21
129.9236602568
 31
0.0
  0
LINE
  5
169
330
1F
100
AcDbEntity
  8
0
  6
HIDDEN
 62
     7
370
     0
100
AcDbLine
 10
117.2658057509
 20
106.6905408584
 30
0.0
 11
117.2658057509
 21
102.3137755178
 31
0.0
  0
LINE
  5
16A
330
1F
100
AcDbEntity
  8
0
  6
HIDDEN
 62
     7
370
     0
100
AcDbLine
 10
254.8787800221
 20
98.4779577189
 30
0.0
 11
255.3367895631
 21
98.9558044307
 31
0.0
  0
LINE
  5
16B
330
1F
100
AcDbEntity
  8
0
  6
HIDDEN
 62
     7
370
     0
100
AcDbLine
 10
246.2206018714
 20
105.875340239
 30
0.0
 11
244.6585876493
 21
110.1257372134
 31
0.0
  0
ARC
  5
16C
330
1F
100
AcDbEntity
  8
0
  6
HIDDEN
 62
     7
370
     0
100
AcDbCircle
 10
249.5098315805
 20
104.2290250054
 30
0.0
 40
3.678231358593092
100
AcDbArc
 50
153.4112583169
 51
67.9057347411
  0
LINE
  5
16D
330
1F
100
AcDbEntity
  8
0
  6
HIDDEN
 62
     7
370
     0
100
AcDbLine
 10
254.3958482889
 20
109.6510672428
 30
0.0
 11
250.0371021775
 21
109.9670184262
 31
0.0
  0
LINE
  5
16E
330
1F
100
AcDbEntity
  8
0
  6
HIDDEN
 62
     7
370
     0
100
AcDbLine
 10
243.4980703143
 20
106.2659983941
 30
0.0
 11
244.118793085
 21
99.2105379187
 31
0.0
  0
LINE
  5
16F
330
1F
100
AcDbEntity
  8
0
  6
HIDDEN
 62
     7
370
     0
100
AcDbLine
 10
244.5813400296
 20
110.3624887251
 30
0.0
 11
242.0624626426
 21
110.5450745158
 31
0.0
  0
LINE
  5
170
330
1F
100
AcDbEntity
  8
0
  6
HIDDEN
 62
     7
370
     0
100
AcDbLine
 10
255.3367895631
 20
98.9558044307
 30
0.0
 11
254.3958482889
 21
109.6510672428
 31
0.0
  0
ARC
  5
171
330
1F
100
AcDbEntity
  8
0
  6
HIDDEN
 62
     7
370
     0
100
AcDbCircle
 10
249.3824591703
 20
104.2613422686
 30
0.0
 40
3.13219373714935
100
AcDbArc
 50
161.2384423674
 51
282.6311678987
  0
ARC
  5
172
330
1F
100
AcDbEntity
  8
0
  6
HIDDEN
 62
     7
370
     0
100
AcDbCircle
 10
249.4562426314
 20
104.3263729712
 30
0.0
 40
3.159094764925827
100
AcDbArc
 50
304.3124209748
 51
58.8704610931
  0
SPLINE
  5
173
330
1F
100
AcDbEntity
  8
0
  6
HIDDEN
 62
     7
370
     0
100
AcDbSpline
210
0.0
220
0.0
230
1.0
 70
     8
 71
     3
 72
     8
 73
     4
 74
     0
 42
0.00000001
 43
0.00000001
 12
1.0
 22
0.0
 32
0.0
 13
1.0
 23
0.0
 33
0.0
 40
0.0
 40
0.0
 40
0.0
 40
0.0
 40
1.0
 40
1.0
 40
1.0
 40
1.0
 10
246.2206028134594
 20
105.8753406858134
 30
0.0
 10
246.2831063008357
 20
105.6796882308913
 30
0.0
 10
246.3478434637304
 20
105.4789242498021
 30
0.0
 10
246.4166924498134
 20
105.268750803619
 30
0.0
  0
SPLINE
  5
174
330
1F
100
AcDbEntity
  8
0
  6
HIDDEN
 62
     7
370
     0
100
AcDbSpline
210
0.0
220
0.0
230
1.0
 70
     8
 71
     3
 72
    10
 73
     6
 74
     0
 42
0.00000001
 43
0.00000001
 12
1.0
 22
0.0
 32
0.0
 13
1.0
 23
0.0
 33
0.0
 40
0.0
 40
0.0
 40
0.0
 40
0.0
 40
0.5
 40
0.5
 40
1.0
 40
1.0
 40
1.0
 40
1.0
 10
246.1757558704693
 20
105.5877854343089
 30
0.0
 10
246.1263598279579
 20
105.6531928881004
 30
0.0
 10
246.0946955046572
 20
105.7710626566186
 30
0.0
 10
246.0550868440262
 20
106.050772142642
 30
0.0
 10
246.0480598025763
 20
106.2140020572201
 30
0.0
 10
246.0569185074964
 20
106.3902457320897
 30
0.0
  0
ARC
  5
175
330
1F
100
AcDbEntity
  8
0
  6
HIDDEN
 62
     7
370
     0
100
AcDbCircle
 10
248.8423186117
 20
104.9665449157
 30
0.0
 40
3.12815764135042
100
AcDbArc
 50
152.927054102
 51
255.3306804008
  0
ARC
  5
176
330
1F
100
AcDbEntity
  8
0
  6
HIDDEN
 62
     7
370
     0
100
AcDbCircle
 10
248.8968917282
 20
105.018181546
 30
0.0
 40
3.178345991840676
100
AcDbArc
 50
272.6396688085
 51
66.6446303061
  0
SPLINE
  5
177
330
1F
100
AcDbEntity
  8
0
  6
HIDDEN
 62
     7
370
     0
100
AcDbSpline
210
0.0
220
0.0
230
1.0
 70
     8
 71
     3
 72
    10
 73
     6
 74
     0
 42
0.00000001
 43
0.00000001
 12
1.0
 22
0.0
 32
0.0
 13
1.0
 23
0.0
 33
0.0
 40
0.0
 40
0.0
 40
0.0
 40
0.0
 40
0.5
 40
0.5
 40
1.0
 40
1.0
 40
1.0
 40
1.0
 10
250.1568962922868
 20
107.936105956467
 30
0.0
 10
250.3202941022729
 20
107.8250269150847
 30
0.0
 10
250.4633159137187
 20
107.7139137357757
 30
0.0
 10
250.7018886085959
 20
107.5093399268626
 30
0.0
 10
250.7991721781351
 20
107.4148857337468
 30
0.0
 10
250.848480301907
 20
107.3495946969917
 30
0.0
  0
LINE
  5
178
330
1F
100
AcDbEntity
  8
0
  6
HIDDEN
 62
     7
370
     0
100
AcDbLine
 10
246.1757568268
 20
105.5877850809
 30
0.0
 11
246.4166937021
 21
105.2687512197
 31
0.0
  0
SPLINE
  5
179
330
1F
100
AcDbEntity
  8
0
  6
HIDDEN
 62
     7
370
     0
100
AcDbSpline
210
0.0
220
0.0
230
1.0
 70
     8
 71
     3
 72
    16
 73
    12
 74
     0
 42
0.00000001
 43
0.00000001
 12
1.0
 22
0.0
 32
0.0
 13
1.0
 23
0.0
 33
0.0
 40
0.0
 40
0.0
 40
0.0
 40
0.0
 40
0.0831303917756507
 40
0.1662785951160826
 40
0.2494737300455665
 40
0.3743129187328517
 40
0.4993001434452449
 40
0.6242836786917867
 40
0.7494787956075316
 40
0.8746443321805353
 40
1.0
 40
1.0
 40
1.0
 40
1.0
 10
255.3367884497286
 20
98.95580403405721
 30
0.0
 10
255.3172765561674
 20
99.01173796332678
 30
0.0
 10
255.2782485884155
 20
99.12361780630127
 30
0.0
 10
255.2189884152933
 20
99.30218500755734
 30
0.0
 10
255.1492493837941
 20
99.51966454710585
 30
0.0
 10
255.0686223707462
 20
99.78246389140308
 30
0.0
 10
254.9768075021519
 20
100.0966320064363
 30
0.0
 10
254.8839042072464
 20
100.4292267073588
 30
0.0
 10
254.7900138435664
 20
100.7802197879142
 30
0.0
 10
254.6952257839479
 20
101.1479601686237
 30
0.0
 10
254.6313757149292
 20
101.407751436297
 30
0.0
 10
254.599426451147
 20
101.5377456534805
 30
0.0
  0
LWPOLYLINE
  5
17A
330
1F
100
AcDbEntity
  8
0
  6
HIDDEN
 62
     7
370
     0
100
AcDbPolyline
 90
       28
 70
   128
 43
0.0
 10
217.2658053784
 20
123.9976593711
 10
217.9576513914
 20
123.9207521499
 10
218.612199798
 20
123.6941753373
 10
219.1941646485
 20
123.3301446259
 10
219.6721715478
 20
122.8482848451
 10
220.0204563884
 20
122.2745729097
 10
220.2202288059
 20
121.6399378095
 10
220.2607301621
 20
120.9785928436
 10
220.1397699861
 20
120.326191834
 10
219.8638824372
 20
119.7179052465
 10
219.447923973
 20
119.1865262295
 10
218.9143282918
 20
118.760701625
 10
218.2918620853
 20
118.4633876324
 10
217.6140827684
 20
118.3106125639
 10
216.9175279884
 20
118.3106125639
 10
216.2397412209
 20
118.4633876324
 10
215.6172750143
 20
118.760701625
 10
215.0836867837
 20
119.1865262295
 10
214.6677283196
 20
119.7179052465
 10
214.3918333201
 20
120.326191834
 10
214.2708805947
 20
120.9785928436
 10
214.3113819508
 20
121.6399378095
 10
214.5111543683
 20
122.2745729097
 10
214.8594392089
 20
122.8482848451
 10
215.3374386577
 20
123.3301446259
 10
215.9194109587
 20
123.6941753373
 10
216.5739593653
 20
123.9207521499
 10
217.2658053784
 20
123.9976593711
  0
LWPOLYLINE
  5
17B
330
1F
100
AcDbEntity
  8
0
  6
HIDDEN
 62
     7
370
     0
100
AcDbPolyline
 90
       13
 70
   128
 43
0.0
 10
244.3394122271
 20
109.7389785059
 10
244.5698288826
 20
109.3085668467
 10
244.9437586216
 20
108.9675183826
 10
245.435727909
 20
108.7390770622
 10
246.0122016815
 20
108.6388090112
 10
246.6338930277
 20
108.6735473432
 10
247.2584453968
 20
108.8409255676
 10
247.8432861714
 20
109.1295368456
 10
248.3485621957
 20
109.5197135069
 10
248.7398443369
 20
109.9848644294
 10
248.9904595164
 20
110.4932901867
 10
249.0833310036
 20
111.0103437163
 10
249.0121332554
 20
111.500787963
  0
ELLIPSE
  5
17C
330
1F
100
AcDbEntity
  8
0
  6
HIDDEN
 62
     7
370
     0
100
AcDbEllipse
 10
247.625887149
 20
108.4720791194
 30
0.0
 11
-0.938287612369635
 21
2.75166689155327
 31
0.0
210
0.0
220
0.0
230
1.0
 40
0.8587453104
 41
2.098545205328448
 42
4.239491960015245
  0
LINE
  5
17D
330
1F
100
AcDbEntity
  8
0
  6
HIDDEN
 62
     7
370
     0
100
AcDbLine
 10
244.3394122271
 20
109.7389785059
 30
0.0
 11
243.292680159
 21
112.9347602323
 31
0.0
  0
SPLINE
  5
17E
330
1F
100
AcDbEntity
  8
0
  6
HIDDEN
 62
     7
370
     0
100
AcDbSpline
210
0.0
220
0.0
230
1.0
 70
     8
 71
     3
 72
    11
 73
     7
 74
     0
 42
0.00000001
 43
0.00000001
 12
1.0
 22
0.0
 32
0.0
 13
1.0
 23
0.0
 33
0.0
 40
0.0
 40
0.0
 40
0.0
 40
0.0
 40
0.2505835439360222
 40
0.5007661998879007
 40
0.7505657354281363
 40
0.9999999999999999
 40
0.9999999999999999
 40
0.9999999999999999
 40
0.9999999999999999
 10
254.599428879109
 20
101.5377467969875
 30
0.0
 10
254.5741862955473
 20
101.4382552616982
 30
0.0
 10
254.5237415119554
 20
101.2394313594368
 30
0.0
 10
254.4523226617826
 20
100.9481874540181
 30
0.0
 10
254.3838179750892
 20
100.6620806497065
 30
0.0
 10
254.3410000102531
 20
100.476358810668
 30
0.0
 10
254.3196066919983
 20
100.3835658340604
 30
0.0
  0
ELLIPSE
  5
17F
330
1F
100
AcDbEntity
  8
0
  6
HIDDEN
 62
     7
370
     0
100
AcDbEllipse
 10
254.7117462006
 20
112.3071005576
 30
0.0
 11
-1.744099306549231
 21
16.99926090527391
 31
0.0
210
0.0
220
0.0
230
1.0
 40
0.090889472
 41
1.56147147018563
 42
2.247528719831009
  0
LINE
  5
180
330
1F
100
AcDbEntity
  8
0
  6
HIDDEN
 62
     7
370
     0
100
AcDbLine
 10
117.2658057509
 20
129.9236602568
 30
0.0
 11
117.2658057509
 21
120.6462715704
 31
0.0
  0
LINE
  5
181
330
1F
100
AcDbEntity
  8
0
  6
HIDDEN
 62
     7
370
     0
100
AcDbLine
 10
117.2658057509
 20
115.9679295447
 30
0.0
 11
117.2658057509
 21
106.6905408584
 31
0.0
  0
LINE
  5
182
330
1F
100
AcDbEntity
  8
0
  6
HIDDEN
 62
     7
370
     0
100
AcDbLine
 10
118.7658050654
 20
115.1586234987
 30
0.0
 11
118.7658050654
 21
106.2575280153
 31
0.0
  0
LINE
  5
183
330
1F
100
AcDbEntity
  8
0
  6
HIDDEN
 62
     7
370
     0
100
AcDbLine
 10
118.7658050654
 20
130.3566730999
 30
0.0
 11
118.7658050654
 21
121.4555776164
 31
0.0
  0
LINE
  5
184
330
1F
100
AcDbEntity
  8
0
  6
HIDDEN
 62
     7
370
     0
100
AcDbLine
 10
145.0658050923
 20
130.6870467447
 30
0.0
 11
145.0658050923
 21
105.9271543704
 31
0.0
  0
LINE
  5
185
330
1F
100
AcDbEntity
  8
0
  6
HIDDEN
 62
     7
370
     0
100
AcDbLine
 10
147.0658050854
 20
129.8693743952
 30
0.0
 11
147.0658050854
 21
106.7448267199
 31
0.0
  0
SPLINE
  5
186
330
1F
100
AcDbEntity
  8
0
  6
HIDDEN
 62
     7
370
     0
100
AcDbSpline
210
0.0
220
0.0
230
1.0
 70
     8
 71
     3
 72
     8
 73
     4
 74
     0
 42
0.00000001
 43
0.00000001
 12
1.0
 22
0.0
 32
0.0
 13
1.0
 23
0.0
 33
0.0
 40
0.0000202085968835
 40
0.0000202085968835
 40
0.0000202085968835
 40
0.0000202085968835
 40
0.0040218806502652
 40
0.0040218806502652
 40
0.0040218806502652
 40
0.0040218806502652
 10
118.7658050803355
 20
115.1586234392362
 30
0.0
 10
120.0991282061262
 20
115.1346252080725
 30
0.0
 10
121.4324620793487
 20
115.1112974679042
 30
0.0
 10
122.7658050803355
 20
115.0886027971238
 30
0.0
  0
SPLINE
  5
187
330
1F
100
AcDbEntity
  8
0
  6
HIDDEN
 62
     7
370
     0
100
AcDbSpline
210
0.0
220
0.0
230
1.0
 70
     8
 71
     3
 72
     8
 73
     4
 74
     0
 42
0.00000001
 43
0.00000001
 12
1.0
 22
0.0
 32
0.0
 13
1.0
 23
0.0
 33
0.0
 40
0.0000202082942178
 40
0.0000202082942178
 40
0.0000202082942178
 40
0.0000202082942178
 40
0.0040218803475994
 40
0.0040218803475994
 40
0.0040218803475994
 40
0.0040218803475994
 10
122.7658050803355
 20
121.5255983180219
 30
0.0
 10
121.4324620793487
 20
121.5029036472416
 30
0.0
 10
120.0991282061262
 20
121.4795759070733
 30
0.0
 10
118.7658050803355
 20
121.4555776759096
 30
0.0
  0
SPLINE
  5
188
330
1F
100
AcDbEntity
  8
0
  6
HIDDEN
 62
     7
370
     0
100
AcDbSpline
210
0.0
220
0.0
230
1.0
 70
     8
 71
     3
 72
     8
 73
     4
 74
     0
 42
0.00000001
 43
0.00000001
 12
1.0
 22
0.0
 32
0.0
 13
1.0
 23
0.0
 33
0.0
 40
0.0
 40
0.0
 40
0.0
 40
0.0
 40
1.0
 40
1.0
 40
1.0
 40
1.0
 10
117.2658050803346
 20
115.9679296293385
 30
0.0
 10
117.7400164907726
 20
115.6332004020434
 30
0.0
 10
118.2447528378745
 20
115.3741419882105
 30
0.0
 10
118.7658050803355
 20
115.1586234392362
 30
0.0
  0
SPLINE
  5
189
330
1F
100
AcDbEntity
  8
0
  6
HIDDEN
 62
     7
370
     0
100
AcDbSpline
210
0.0
220
0.0
230
1.0
 70
     8
 71
     3
 72
     8
 73
     4
 74
     0
 42
0.00000001
 43
0.00000001
 12
1.0
 22
0.0
 32
0.0
 13
1.0
 23
0.0
 33
0.0
 40
0.0
 40
0.0
 40
0.0
 40
0.0
 40
1.0
 40
1.0
 40
1.0
 40
1.0
 10
118.7658050803355
 20
121.4555776759096
 30
0.0
 10
118.2447528378748
 20
121.2400591269354
 30
0.0
 10
117.7400164907732
 20
120.9810007131027
 30
0.0
 10
117.2658050803355
 20
120.6462714858079
 30
0.0
  0
LINE
  5
18A
330
1F
100
AcDbEntity
  8
0
  6
HIDDEN
 62
     7
370
     0
100
AcDbLine
 10
117.2658057509
 20
115.9679295447
 30
0.0
 11
117.2658057509
 21
120.6462715704
 31
0.0
  0
LINE
  5
18B
330
1F
100
AcDbEntity
  8
0
  6
HIDDEN
 62
     7
370
     0
100
AcDbLine
 10
122.7658057211
 20
115.0886027094
 30
0.0
 11
122.7658057211
 21
121.5255984057
 31
0.0
  0
SPLINE
  5
18C
330
1F
100
AcDbEntity
  8
0
  6
HIDDEN
 62
     7
370
     0
100
AcDbSpline
210
0.0
220
0.0
230
1.0
 70
     8
 71
     3
 72
    26
 73
    22
 74
     0
 42
0.00000001
 43
0.00000001
 12
1.0
 22
0.0
 32
0.0
 13
1.0
 23
0.0
 33
0.0
 40
0.0
 40
0.0
 40
0.0
 40
0.0
 40
0.1250000000000002
 40
0.1250000000000002
 40
0.2500000000000004
 40
0.2500000000000004
 40
0.3750000000000007
 40
0.3750000000000007
 40
0.4375000000000008
 40
0.4375000000000008
 40
0.5000000000000009
 40
0.5000000000000009
 40
0.562500000000001
 40
0.562500000000001
 40
0.6250000000000011
 40
0.6250000000000011
 40
0.7500000000000008
 40
0.7500000000000008
 40
0.8750000000000004
 40
0.8750000000000004
 40
1.0
 40
1.0
 40
1.0
 40
1.0
 10
122.7658050803355
 20
115.0886027971238
 30
0.0
 10
122.9764484423355
 20
115.3232198280689
 30
0.0
 10
123.1836448800925
 20
115.5611029640283
 30
0.0
 10
123.5851440147248
 20
116.0484172702972
 30
0.0
 10
123.7804204337709
 20
116.2985424950862
 30
0.0
 10
124.1402009264663
 20
116.8171326405372
 30
0.0
 10
124.3054597866156
 20
117.084563624424
 30
0.0
 10
124.4981176960418
 20
117.5159787568225
 30
0.0
 10
124.5530824362519
 20
117.6659976387469
 30
0.0
 10
124.630818221216
 20
117.9787348174769
 30
0.0
 10
124.6520843595243
 20
118.1364890642841
 30
0.0
 10
124.6539782888101
 20
118.4551943441299
 30
0.0
 10
124.633752551743
 20
118.6176311443105
 30
0.0
 10
124.5592881414572
 20
118.9285831438931
 30
0.0
 10
124.5056490157112
 20
119.0792543822208
 30
0.0
 10
124.3109047103106
 20
119.5213381401894
 30
0.0
 10
124.1438545971323
 20
119.7913821533571
 30
0.0
 10
123.7835984784287
 20
120.3114897816385
 30
0.0
 10
123.5888461034083
 20
120.5611509944482
 30
0.0
 10
123.185836878936
 20
121.0505751062909
 30
0.0
 10
122.9774003605725
 20
121.2899210294549
 30
0.0
 10
122.7658050803365
 20
121.5255983180228
 30
0.0
  0
SPLINE
  5
18D
330
1F
100
AcDbEntity
  8
0
  6
HIDDEN
 62
     7
370
     0
100
AcDbSpline
210
0.0
220
0.0
230
1.0
 70
     8
 71
     3
 72
    68
 73
    64
 74
     0
 42
0.00000001
 43
0.00000001
 12
1.0
 22
0.0
 32
0.0
 13
1.0
 23
0.0
 33
0.0
 40
-0.03125
 40
-0.03125
 40
0.0
 40
0.0
 40
0.03125
 40
0.03125
 40
0.0625
 40
0.0625
 40
0.09375
 40
0.09375
 40
0.1249999999999999
 40
0.1249999999999999
 40
0.1874999999999999
 40
0.1874999999999999
 40
0.2187499999999999
 40
0.2187499999999999
 40
0.2499999999999999
 40
0.2499999999999999
 40
0.2812499999999999
 40
0.2812499999999999
 40
0.3124999999999999
 40
0.3124999999999999
 40
0.34375
 40
0.34375
 40
0.3750000000000001
 40
0.3750000000000001
 40
0.4062500000000001
 40
0.4062500000000001
 40
0.4375000000000001
 40
0.4375000000000001
 40
0.4687500000000002
 40
0.4687500000000002
 40
0.5000000000000002
 40
0.5000000000000002
 40
0.5312500000000002
 40
0.5312500000000002
 40
0.5625000000000002
 40
0.5625000000000002
 40
0.5937500000000002
 40
0.5937500000000002
 40
0.6250000000000001
 40
0.6250000000000001
 40
0.6562500000000001
 40
0.6562500000000001
 40
0.6875000000000001
 40
0.6875000000000001
 40
0.7187500000000001
 40
0.7187500000000001
 40
0.7500000000000001
 40
0.7500000000000001
 40
0.7812500000000001
 40
0.7812500000000001
 40
0.8125000000000001
 40
0.8125000000000001
 40
0.8437500000000001
 40
0.8437500000000001
 40
0.875
 40
0.875
 40
0.90625
 40
0.90625
 40
0.9375
 40
0.9375
 40
0.96875
 40
0.96875
 40
1.0
 40
1.0
 40
1.03125
 40
1.03125
 10
130.649631367672
 20
120.2039181341895
 30
0.0
 10
130.9400958499638
 20
120.52235037519
 30
0.0
 10
131.0990121483453
 20
120.6648679008937
 30
0.0
 10
131.4425928339831
 20
120.9185824379834
 30
0.0
 10
131.6287641868888
 20
121.0301462644924
 30
0.0
 10
132.0132942594745
 20
121.2143953011614
 30
0.0
 10
132.2129047616393
 20
121.2883095672502
 30
0.0
 10
132.6267443466128
 20
121.3999514568104
 30
0.0
 10
132.839554156284
 20
121.4368755110992
 30
0.0
 10
133.4754856306248
 20
121.4894773316747
 30
0.0
 10
133.9105518512525
 20
121.4472689410145
 30
0.0
 10
134.5227947182402
 20
121.2734343358191
 30
0.0
 10
134.7226398063522
 20
121.196816108007
 30
0.0
 10
135.1070171150803
 20
121.0066412396641
 30
0.0
 10
135.2875655059429
 20
120.8952818054456
 30
0.0
 10
135.6256254336524
 20
120.6401765367232
 30
0.0
 10
135.7846572500637
 20
120.4946707485305
 30
0.0
 10
136.0694539302861
 20
120.1764320943576
 30
0.0
 10
136.194399459161
 20
120.0053797758385
 30
0.0
 10
136.4087015995746
 20
119.6388191897254
 30
0.0
 10
136.4986003787494
 20
119.4407504559227
 30
0.0
 10
136.6322526678784
 20
119.0361677027133
 30
0.0
 10
136.6772606031924
 20
118.8285525226962
 30
0.0
 10
136.7220400838098
 20
118.4022627662674
 30
0.0
 10
136.720966422794
 20
118.185624468319
 30
0.0
 10
136.6729466290785
 20
117.7626644413617
 30
0.0
 10
136.6255336518537
 20
117.5516677561023
 30
0.0
 10
136.487218403037
 20
117.1458790406705
 30
0.0
 10
136.3975375448148
 20
116.952932382008
 30
0.0
 10
136.1788548344876
 20
116.5860257590246
 30
0.0
 10
136.049407116659
 20
116.4125206108025
 30
0.0
 10
135.7629015126295
 20
116.0985185128119
 30
0.0
 10
135.6040426943915
 20
115.9554155863575
 30
0.0
 10
135.2590448724386
 20
115.7000846705045
 30
0.0
 10
135.0768277683183
 20
115.590552492904
 30
0.0
 10
134.6939876916792
 20
115.4056256661158
 30
0.0
 10
134.4912434666061
 20
115.3298098392743
 30
0.0
 10
134.0794148921428
 20
115.2172293470322
 30
0.0
 10
133.8701961155432
 20
115.1798891274475
 30
0.0
 10
133.4452032813087
 20
115.1426581079174
 30
0.0
 10
133.2280460042356
 20
115.143224071849
 30
0.0
 10
132.8036681650824
 20
115.1826217757384
 30
0.0
 10
132.5945515172327
 20
115.2210510103726
 30
0.0
 10
132.1826105283387
 20
115.33625604491
 30
0.0
 10
131.9800424234456
 20
115.4135209754145
 30
0.0
 10
131.5984419809783
 20
115.6012032455464
 30
0.0
 10
131.4171310450991
 20
115.7121165973584
 30
0.0
 10
131.0745391481651
 20
115.9700700360892
 30
0.0
 10
130.9157155312109
 20
116.1157857316987
 30
0.0
 10
130.6326707521106
 20
116.4321068894081
 30
0.0
 10
130.5066608201247
 20
116.6041406008072
 30
0.0
 10
130.2895537763098
 20
116.9766831787963
 30
0.0
 10
130.2021184800359
 20
117.1708049640703
 30
0.0
 10
130.0689251994884
 20
117.5745796931499
 30
0.0
 10
130.0230246173838
 20
117.7870766197574
 30
0.0
 10
129.9787080764499
 20
118.2126724806156
 30
0.0
 10
129.9795502639323
 20
118.4255063188848
 30
0.0
 10
130.0273889583534
 20
118.8512460487146
 30
0.0
 10
130.0749248138225
 20
119.0630082141278
 30
0.0
 10
130.2116634090504
 20
119.4664977485851
 30
0.0
 10
130.3019469543261
 20
119.6622563695381
 30
0.0
 10
130.5216578465911
 20
120.0318565962863
 30
0.0
 10
130.649631367672
 20
120.2039181341895
 30
0.0
 10
130.9400958499638
 20
120.52235037519
 30
0.0
  0
CIRCLE
  5
18E
330
1F
100
AcDbEntity
  8
0
  6
HIDDEN
 62
     7
370
     0
100
AcDbCircle
 10
133.2658050803
 20
118.3071005576
 30
0.0
 40
3.049999999999983
  0
LINE
  5
18F
330
1F
100
AcDbEntity
  8
0
  6
HIDDEN
 62
     7
370
     0
100
AcDbLine
 10
252.5400427727
 20
118.3071005576
 30
0.0
 11
253.1504986433
 21
112.3071005054
 31
0.0
  0
CIRCLE
  5
190
330
1F
100
AcDbEntity
  8
0
  6
HIDDEN
 62
     7
370
     0
100
AcDbCircle
 10
159.2658050803
 20
118.3071005576
 30
0.0
 40
2.000000000000014
  0
LINE
  5
191
330
1F
100
AcDbEntity
  8
0
  6
HIDDEN
 62
     7
370
     0
100
AcDbLine
 10
147.2658050803
 20
98.7571011715
 30
0.0
 11
147.3586983008
 21
98.8499931477
 31
0.0
  0
LINE
  5
192
330
1F
100
AcDbEntity
  8
0
  6
HIDDEN
 62
     7
370
     0
100
AcDbLine
 10
147.3586983008
 20
137.7642079674
 30
0.0
 11
147.2658050803
 21
137.8570999436
 31
0.0
  0
ARC
  5
193
330
1F
100
AcDbEntity
  8
0
  6
HIDDEN
 62
     7
370
     0
100
AcDbCircle
 10
146.651591518
 20
99.5571005576
 30
0.0
 40
1.0
100
AcDbArc
 50
315.0
 51
0.0
  0
ARC
  5
194
330
1F
100
AcDbEntity
  8
0
  6
HIDDEN
 62
     7
370
     0
100
AcDbCircle
 10
146.651591518
 20
99.5571005576
 30
0.0
 40
1.000000000000032
100
AcDbArc
 50
0.0
 51
52.1052014664
  0
ARC
  5
195
330
1F
100
AcDbEntity
  8
0
  6
HIDDEN
 62
     7
370
     0
100
AcDbCircle
 10
146.651591518
 20
137.0571005576
 30
0.0
 40
1.000000000000006
100
AcDbArc
 50
351.8087250651
 51
45.0
  0
ARC
  5
196
330
1F
100
AcDbEntity
  8
0
  6
HIDDEN
 62
     7
370
     0
100
AcDbCircle
 10
146.651591518
 20
137.0571005576
 30
0.0
 40
1.000000000000021
100
AcDbArc
 50
307.8947985336
 51
351.8087250651
  0
LINE
  5
197
330
1F
100
AcDbEntity
  8
0
  6
HIDDEN
 62
     7
370
     0
100
AcDbLine
 10
147.6515915161
 20
99.5570998125
 30
0.0
 11
147.6515915161
 21
137.0571013026
 31
0.0
  0
LINE
  5
198
330
1F
100
AcDbEntity
  8
0
  6
HIDDEN
 62
     7
370
     0
100
AcDbLine
 10
147.6515915161
 20
99.5570998125
 30
0.0
 11
147.6515915161
 21
137.0571013026
 31
0.0
  0
LINE
  5
199
330
1F
100
AcDbEntity
  8
0
  6
HIDDEN
 62
     7
370
     0
100
AcDbLine
 10
214.7658077625
 20
116.9963292264
 30
0.0
 11
214.7658077625
 21
114.2898797475
 31
0.0
  0
LINE
  5
19A
330
1F
100
AcDbEntity
  8
0
  6
HIDDEN
 62
     7
370
     0
100
AcDbLine
 10
219.7658029942
 20
115.5577110544
 30
0.0
 11
219.7658029942
 21
116.9941770563
 31
0.0
  0
LINE
  5
19B
330
1F
100
AcDbEntity
  8
0
  6
HIDDEN
 62
     7
370
     0
100
AcDbLine
 10
219.7658029942
 20
114.2898797475
 30
0.0
 11
219.7658029942
 21
114.4411640194
 31
0.0
  0
LINE
  5
19C
330
1F
100
AcDbEntity
  8
0
  6
HIDDEN
 62
     7
370
     0
100
AcDbLine
 10
226.3526377825
 20
112.9518690937
 30
0.0
 11
219.4271517543
 21
116.3660790258
 31
0.0
  0
LINE
  5
19D
330
1F
100
AcDbEntity
  8
0
  6
HIDDEN
 62
     7
370
     0
100
AcDbLine
 10
217.7985740451
 20
112.4863014043
 30
0.0
 11
226.2734381108
 21
108.3082593464
 31
0.0
  0
ARC
  5
19E
330
1F
100
AcDbEntity
  8
0
  6
HIDDEN
 62
     7
370
     0
100
AcDbCircle
 10
124.7725245924
 20
107.8071005576
 30
0.0
 40
1.500000000000022
100
AcDbArc
 50
270.0
 51
315.0
  0
ARC
  5
19F
330
1F
100
AcDbEntity
  8
0
  6
HIDDEN
 62
     7
370
     0
100
AcDbCircle
 10
124.7725245924
 20
128.8071005576
 30
0.0
 40
1.500000000000012
100
AcDbArc
 50
45.0
 51
90.0
  0
LINE
  5
1A0
330
1F
100
AcDbEntity
  8
0
  6
HIDDEN
 62
     7
370
     0
100
AcDbLine
 10
123.765805885
 20
106.3071004533
 30
0.0
 11
124.77252461
 21
106.3071004533
 31
0.0
  0
LINE
  5
1A1
330
1F
100
AcDbEntity
  8
0
  6
HIDDEN
 62
     7
370
     0
100
AcDbLine
 10
124.77252461
 20
130.3071006619
 30
0.0
 11
123.765805885
 21
130.3071006619
 31
0.0
  0
ARC
  5
1A2
330
1F
100
AcDbEntity
  8
0
  6
HIDDEN
 62
     7
370
     0
100
AcDbCircle
 10
123.7658050803
 20
107.8071005576
 30
0.0
 40
1.500000000000006
100
AcDbArc
 50
191.0958032831
 51
270.0
  0
ARC
  5
1A3
330
1F
100
AcDbEntity
  8
0
  6
HIDDEN
 62
     7
370
     0
100
AcDbCircle
 10
123.7658050803
 20
128.8071005576
 30
0.0
 40
1.500000000000006
100
AcDbArc
 50
90.0
 51
168.9041967169
  0
LINE
  5
1A4
330
1F
100
AcDbEntity
  8
0
  6
HIDDEN
 62
     7
370
     0
100
AcDbLine
 10
117.2658057509
 20
106.5436880522
 30
0.0
 11
118.2938443122
 21
107.1372273796
 31
0.0
  0
LINE
  5
1A5
330
1F
100
AcDbEntity
  8
0
  6
HIDDEN
 62
     7
370
     0
100
AcDbLine
 10
118.2938443122
 20
129.4769737356
 30
0.0
 11
117.2658057509
 21
130.070513063
 31
0.0
  0
LINE
  5
1A6
330
1F
100
AcDbEntity
  8
0
  6
HIDDEN
 62
     7
370
     0
100
AcDbLine
 10
125.8331855385
 20
106.746440702
 30
0.0
 11
126.8938446043
 21
107.8071006991
 31
0.0
  0
LINE
  5
1A7
330
1F
100
AcDbEntity
  8
0
  6
HIDDEN
 62
     7
370
     0
100
AcDbLine
 10
126.8938446043
 20
128.807100416
 30
0.0
 11
125.8331855385
 21
129.8677604132
 31
0.0
  0
LINE
  5
1A8
330
1F
100
AcDbEntity
  8
0
  6
HIDDEN
 62
     7
370
     0
100
AcDbLine
 10
118.2938443122
 20
107.1372273796
 30
0.0
 11
120.7938456533
 21
107.8071006991
 31
0.0
  0
LINE
  5
1A9
330
1F
100
AcDbEntity
  8
0
  6
HIDDEN
 62
     7
370
     0
100
AcDbLine
 10
120.7938456533
 20
128.807100416
 30
0.0
 11
118.2938443122
 21
129.4769737356
 31
0.0
  0
LINE
  5
1AA
330
1F
100
AcDbEntity
  8
0
  6
HIDDEN
 62
     7
370
     0
100
AcDbLine
 10
122.2938449679
 20
129.0957759552
 30
0.0
 11
121.7938458172
 21
128.807100416
 31
0.0
  0
LINE
  5
1AB
330
1F
100
AcDbEntity
  8
0
  6
HIDDEN
 62
     7
370
     0
100
AcDbLine
 10
121.7938458172
 20
107.8071006991
 30
0.0
 11
122.2938449679
 21
107.5184251599
 31
0.0
  0
LINE
  5
1AC
330
1F
100
AcDbEntity
  8
0
  6
HIDDEN
 62
     7
370
     0
100
AcDbLine
 10
126.8938446043
 20
107.8071006991
 30
0.0
 11
136.7658052219
 21
107.8071006991
 31
0.0
  0
LINE
  5
1AD
330
1F
100
AcDbEntity
  8
0
  6
HIDDEN
 62
     7
370
     0
100
AcDbLine
 10
136.7658052219
 20
128.807100416
 30
0.0
 11
126.8938446043
 21
128.807100416
 31
0.0
  0
LINE
  5
1AE
330
1F
100
AcDbEntity
  8
0
  6
HIDDEN
 62
     7
370
     0
100
AcDbLine
 10
120.7938456533
 20
107.8071006991
 30
0.0
 11
121.7938458172
 21
107.8071006991
 31
0.0
  0
LINE
  5
1AF
330
1F
100
AcDbEntity
  8
0
  6
HIDDEN
 62
     7
370
     0
100
AcDbLine
 10
121.7938458172
 20
128.807100416
 30
0.0
 11
120.7938456533
 21
128.807100416
 31
0.0
  0
ARC
  5
1B0
330
1F
100
AcDbEntity
  8
0
  6
HIDDEN
 62
     7
370
     0
100
AcDbCircle
 10
136.7658050803
 20
108.3071005576
 30
0.0
 40
0.5
100
AcDbArc
 50
270.0
 51
0.0
  0
ARC
  5
1B1
330
1F
100
AcDbEntity
  8
0
  6
HIDDEN
 62
     7
370
     0
100
AcDbCircle
 10
136.7658050803
 20
128.3071005576
 30
0.0
 40
0.5
100
AcDbArc
 50
0.0
 51
90.0
  0
LINE
  5
1B2
330
1F
100
AcDbEntity
  8
0
  6
HIDDEN
 62
     7
370
     0
100
AcDbLine
 10
137.2658053039
 20
110.0571006023
 30
0.0
 11
138.2658054678
 21
111.0571007662
 31
0.0
  0
LINE
  5
1B3
330
1F
100
AcDbEntity
  8
0
  6
HIDDEN
 62
     7
370
     0
100
AcDbLine
 10
138.2658054678
 20
125.557100349
 30
0.0
 11
137.2658053039
 21
126.5571005129
 31
0.0
  0
LINE
  5
1B4
330
1F
100
AcDbEntity
  8
0
  6
HIDDEN
 62
     7
370
     0
100
AcDbLine
 10
138.2658054678
 20
111.0571007662
 30
0.0
 11
162.2658047451
 21
111.0571007662
 31
0.0
  0
LINE
  5
1B5
330
1F
100
AcDbEntity
  8
0
  6
HIDDEN
 62
     7
370
     0
100
AcDbLine
 10
162.2658047451
 20
125.557100349
 30
0.0
 11
138.2658054678
 21
125.557100349
 31
0.0
  0
LINE
  5
1B6
330
1F
100
AcDbEntity
  8
0
  6
HIDDEN
 62
     7
370
     0
100
AcDbLine
 10
162.2658047451
 20
111.0571007662
 30
0.0
 11
164.0683861075
 21
114.0571003266
 31
0.0
  0
LINE
  5
1B7
330
1F
100
AcDbEntity
  8
0
  6
HIDDEN
 62
     7
370
     0
100
AcDbLine
 10
164.0683861075
 20
122.5571007885
 30
0.0
 11
162.2658047451
 21
125.557100349
 31
0.0
  0
LINE
  5
1B8
330
1F
100
AcDbEntity
  8
0
  6
HIDDEN
 62
     7
370
     0
100
AcDbLine
 10
164.0683861075
 20
114.0571003266
 30
0.0
 11
220.2658040075
 21
114.0571003266
 31
0.0
  0
LINE
  5
1B9
330
1F
100
AcDbEntity
  8
0
  6
HIDDEN
 62
     7
370
     0
100
AcDbLine
 10
220.2658040075
 20
122.5571007885
 30
0.0
 11
164.0683861075
 21
122.5571007885
 31
0.0
  0
LINE
  5
1BA
330
1F
100
AcDbEntity
  8
0
  6
HIDDEN
 62
     7
370
     0
100
AcDbLine
 10
220.2658040075
 20
114.0571003266
 30
0.0
 11
222.8194607047
 21
118.3071005576
 31
0.0
  0
LINE
  5
1BB
330
1F
100
AcDbEntity
  8
0
  6
HIDDEN
 62
     7
370
     0
100
AcDbLine
 10
222.8194607047
 20
118.3071005576
 30
0.0
 11
220.2658040075
 21
122.5571007885
 31
0.0
  0
LINE
  5
1BC
330
1F
100
AcDbEntity
  8
0
  6
HIDDEN
 62
     7
370
     0
100
AcDbLine
 10
242.6578012852
 20
113.5460305445
 30
0.0
 11
243.0842129139
 21
112.9813985385
 31
0.0
  0
LINE
  5
1BD
330
1F
100
AcDbEntity
  8
0
  6
HIDDEN
 62
     7
370
     0
100
AcDbLine
 10
248.6702261118
 20
117.1999837457
 30
0.0
 11
248.2438144831
 21
117.7646160427
 31
0.0
  0
LINE
  5
1BE
330
1F
100
AcDbEntity
  8
0
  6
HIDDEN
 62
     7
370
     0
100
AcDbLine
 10
240.3341142086
 20
106.8945377551
 30
0.0
 11
240.8253980426
 21
106.2440070741
 31
0.0
  0
LINE
  5
1BF
330
1F
100
AcDbEntity
  8
0
  6
HIDDEN
 62
     7
370
     0
100
AcDbLine
 10
250.1820532231
 20
109.9816653364
 30
0.0
 11
248.3011094479
 21
114.2336655826
 31
0.0
  0
LINE
  5
1C0
330
1F
100
AcDbEntity
  8
0
  6
HIDDEN
 62
     7
370
     0
100
AcDbLine
 10
240.4520867018
 20
115.3051880606
 30
0.0
 11
242.0552355794
 21
113.1823881947
 31
0.0
  0
LINE
  5
1C1
330
1F
100
AcDbEntity
  8
0
  6
HIDDEN
 62
     7
370
     0
100
AcDbLine
 10
248.7584484367
 20
118.2446904491
 30
0.0
 11
247.1693364529
 21
120.3489005052
 31
0.0
  0
LINE
  5
1C2
330
1F
100
AcDbEntity
  8
0
  6
HIDDEN
 62
     7
370
     0
100
AcDbLine
 10
240.2046305684
 20
107.2051869192
 30
0.0
 11
240.5119446663
 21
106.79825949
 31
0.0
  0
LINE
  5
1C3
330
1F
100
AcDbEntity
  8
0
  6
HIDDEN
 62
     7
370
     0
100
AcDbLine
 10
214.7658077625
 20
121.0882535156
 30
0.0
 11
214.7658077625
 21
119.6200240588
 31
0.0
  0
LINE
  5
1C4
330
1F
100
AcDbEntity
  8
0
  6
HIDDEN
 62
     7
370
     0
100
AcDbLine
 10
219.7658029942
 20
119.6178718888
 30
0.0
 11
219.7658029942
 21
121.0882535156
 31
0.0
  0
LINE
  5
1C5
330
1F
100
AcDbEntity
  8
0
  6
HIDDEN
 62
     7
370
     0
100
AcDbLine
 10
251.9860995559
 20
106.2293229111
 30
0.0
 11
251.4530105142
 21
106.9352169939
 31
0.0
  0
LINE
  5
1C6
330
1F
100
AcDbEntity
  8
0
  6
HIDDEN
 62
     7
370
     0
100
AcDbLine
 10
246.3457939772
 20
103.0782255762
 30
0.0
 11
246.8788904695
 21
102.3723314934
 31
0.0
  0
LINE
  5
1C7
330
1F
100
AcDbEntity
  8
0
  6
HIDDEN
 62
     7
370
     0
100
AcDbLine
 10
214.2658067493
 20
123.2492648483
 30
0.0
 11
214.2658067493
 21
121.1444900323
 31
0.0
  0
LINE
  5
1C8
330
1F
100
AcDbEntity
  8
0
  6
HIDDEN
 62
     7
370
     0
100
AcDbLine
 10
220.2658040075
 20
122.5571007885
 30
0.0
 11
220.2658040075
 21
123.2509291217
 31
0.0
  0
LINE
  5
1C9
330
1F
100
AcDbEntity
  8
0
  6
HIDDEN
 62
     7
370
     0
100
AcDbLine
 10
244.3894801287
 20
109.6085076638
 30
0.0
 11
246.1296079306
 21
105.674830214
 31
0.0
  0
LINE
  5
1CA
330
1F
100
AcDbEntity
  8
VERMASSUNG
  6
CENTERX2
100
AcDbLine
 10
115.1089237043
 20
118.3071005576
 30
0.0
 11
257.2658050803
 21
118.3071005576
 31
0.0
  0
LINE
  5
1CB
330
1F
100
AcDbEntity
  8
VERMASSUNG
  6
CENTERX2
100
AcDbLine
 10
257.2658050803
 20
118.3071005576
 30
0.0
 11
257.2658050803
 21
96.3071005576
 31
0.0
  0
LINE
  5
1CC
330
1F
100
AcDbEntity
  8
VERMASSUNG
  6
CENTERX2
100
AcDbLine
 10
257.2658050803
 20
96.3071005576
 30
0.0
 11
277.0315078161
 21
96.3071005576
 31
0.0
  0
DIMENSION
  5
1CD
330
1F
100
AcDbEntity
  8
VERMASSUNG
100
AcDbDimension
  2
_D
 10
274.3304343199
 20
96.3071005576
 30
0.0
 11
274.3304343199
 21
107.3071005576
 31
0.0
 70
   160
  1
<>
 71
     2
 42
-1.0
  3
SLDDIMSTYLE0
100
AcDbAlignedDimension
 13
257.2658050803
 23
118.3071005576
 33
0.0
 14
257.2658050803
 24
96.3071005576
 34
0.0
 50
90.0
100
AcDbRotatedDimension
  0
DIMENSION
  5
1D8
330
1F
100
AcDbEntity
  8
VERMASSUNG
100
AcDbDimension
  2
_D_1
 10
257.2642912979
 20
96.7435704216
 30
0.0
 11
263.8657468618
 21
103.4729084314
 31
0.0
 70
   162
  1
<>
 71
     1
 42
-1.0
  3
SLDDIMSTYLE1
100
AcDb2LineAngularDimension
 13
257.2658050803
 23
96.3071005576
 33
0.0
 14
277.0315078161
 24
96.3071005576
 34
0.0
 15
256.2169074801
 25
108.6486956006
 35
0.0
 16
263.8657468618
 26
103.4729084314
 36
0.0
  0
DIMENSION
  5
1E1
330
1F
100
AcDbEntity
  8
VERMASSUNG
100
AcDbDimension
  2
_D_2
 10
257.2658050803
 20
81.7768137574
 30
0.0
 11
202.2658050803
 21
81.7768137574
 31
0.0
 70
   160
  1
<>
 71
     2
 42
-1.0
  3
SLDDIMSTYLE0
100
AcDbAlignedDimension
 13
147.2658050803
 23
93.6071005576
 33
0.0
 14
257.2658050803
 24
96.3071005576
 34
0.0
100
AcDbRotatedDimension
  0
DIMENSION
  5
1EB
330
1F
100
AcDbEntity
  8
VERMASSUNG
100
AcDbDimension
  2
_D_3
 10
117.2658050803
 20
71.422196502
 30
0.0
 11
187.2658050803
 21
71.422196502
 31
0.0
 70
   160
  1
<>
 71
     2
 42
-1.0
  3
SLDDIMSTYLE0
100
AcDbAlignedDimension
 13
257.2658050803
 23
96.3071005576
 33
0.0
 14
117.2658050803
 24
102.3137747194
 34
0.0
 50
0.0
100
AcDbRotatedDimension
  0
DIMENSION
  5
1F5
330
1F
100
AcDbEntity
  8
VERMASSUNG
100
AcDbDimension
  2
_D_4
 10
183.1148469495
 20
134.3071005576
 30
0.0
 11
183.1148469495
 21
108.7503684548
 31
0.0
 70
   160
  1
%%c<>
 71
     2
 42
-1.0
  3
SLDDIMSTYLE0
100
AcDbAlignedDimension
 13
171.2658050803
 23
102.3071005576
 33
0.0
 14
171.2658050803
 24
134.3071005576
 34
0.0
 50
90.0
100
AcDbRotatedDimension
  0
DIMENSION
  5
1FE
330
1F
100
AcDbEntity
  8
VERMASSUNG
100
AcDbDimension
  2
_D_5
 10
110.8229987487
 20
93.3071005576
 30
0.0
 11
110.8229987487
 21
118.3071005576
 31
0.0
 70
   160
  1
PSC%%c<>
 71
     2
 42
-1.0
  3
SLDDIMSTYLE0
100
AcDbAlignedDimension
 13
147.5658050803
 23
143.3071005576
 33
0.0
 14
147.5658050803
 24
93.3071005576
 34
0.0
 50
90.0
100
AcDbRotatedDimension
  0
LINE
  5
20A
330
1F
100
AcDbEntity
  8
0
  6
Continuous
 62
     7
370
    15
100
AcDbLine
 10
52.263560805
 20
118.6924432764
 30
0.0
 11
52.0925487927
 21
118.4628754049
 31
0.0
  0
LINE
  5
20B
330
1F
100
AcDbEntity
  8
0
  6
Continuous
 62
     7
370
    15
100
AcDbLine
 10
53.0613647844
 20
111.5693929091
 30
0.0
 11
53.2890293817
 21
111.3958553829
 31
0.0
  0
LINE
  5
20C
330
1F
100
AcDbEntity
  8
0
  6
Continuous
 62
     7
370
    15
100
AcDbLine
 10
60.7310941979
 20
97.6627207779
 30
0.0
 11
63.3942143596
 21
98.0369969689
 31
0.0
  0
LINE
  5
20D
330
1F
100
AcDbEntity
  8
0
  6
Continuous
 62
     7
370
    15
100
AcDbLine
 10
63.4043229348
 20
98.0440116905
 30
0.0
 11
63.6549911997
 21
98.3805115752
 31
0.0
  0
LINE
  5
20E
330
1F
100
AcDbEntity
  8
0
  6
Continuous
 62
     7
370
    15
100
AcDbLine
 10
56.1015299228
 20
96.3071435176
 30
0.0
 11
60.7893838152
 21
96.9659778707
 31
0.0
  0
LINE
  5
20F
330
1F
100
AcDbEntity
  8
0
  6
Continuous
 62
     7
370
    15
100
AcDbLine
 10
54.6850223164
 20
99.0247372024
 30
0.0
 11
55.1304576057
 21
98.4431579195
 31
0.0
  0
SPLINE
  5
210
330
1F
100
AcDbEntity
  8
0
  6
Continuous
 62
     7
370
    15
100
AcDbSpline
210
0.0
220
0.0
230
1.0
 70
     8
 71
     3
 72
    11
 73
     7
 74
     0
 42
0.00000001
 43
0.00000001
 12
1.0
 22
0.0
 32
0.0
 13
1.0
 23
0.0
 33
0.0
 40
0.0
 40
0.0
 40
0.0
 40
0.0
 40
0.1470514030236462
 40
0.528822573057746
 40
0.9200754224256206
 40
1.0
 40
1.0
 40
1.0
 40
1.0
 10
55.14046804282574
 20
98.4428133301807
 30
0.0
 10
55.15763638845327
 20
98.42403997415755
 30
0.0
 10
55.21937676306525
 20
98.35652770135391
 30
0.0
 10
55.2398277381587
 20
98.26469889577186
 30
0.0
 10
55.2474737862613
 20
98.22092968310992
 30
0.0
 10
55.24708328876704
 20
98.23162001611423
 30
0.0
 10
55.24701704971252
 20
98.23343338895565
 30
0.0
  0
SPLINE
  5
211
330
1F
100
AcDbEntity
  8
0
  6
Continuous
 62
     7
370
    15
100
AcDbSpline
210
0.0
220
0.0
230
1.0
 70
     8
 71
     3
 72
    12
 73
     8
 74
     0
 42
0.00000001
 43
0.00000001
 12
1.0
 22
0.0
 32
0.0
 13
1.0
 23
0.0
 33
0.0
 40
0.0
 40
0.0
 40
0.0
 40
0.0
 40
0.2787880882582277
 40
0.4978070335479596
 40
0.6904720558606112
 40
0.9360257817076234
 40
1.0
 40
1.0
 40
1.0
 40
1.0
 10
53.71831833153723
 20
108.8042854749036
 30
0.0
 10
53.71975023699191
 20
108.8013994677263
 30
0.0
 10
53.72230706289926
 20
108.7962461820147
 30
0.0
 10
53.74787199383633
 20
108.7181972044875
 30
0.0
 10
53.7607349175837
 20
108.5781781913702
 30
0.0
 10
53.75413542221528
 20
108.4381079829626
 30
0.0
 10
53.71183551615074
 20
108.3608427796258
 30
0.0
 10
53.70309283725677
 20
108.3448733620716
 30
0.0
  0
LINE
  5
212
330
1F
100
AcDbEntity
  8
0
  6
Continuous
 62
     7
370
    15
100
AcDbLine
 10
53.6923104501
 20
108.346729488
 30
0.0
 11
53.4127064585
 21
107.6350472354
 31
0.0
  0
LINE
  5
213
330
1F
100
AcDbEntity
  8
0
  6
Continuous
 62
     7
370
    15
100
AcDbLine
 10
53.1105330284
 20
109.9140466608
 30
0.0
 11
52.8132723249
 21
109.8722693928
 31
0.0
  0
LWPOLYLINE
  5
214
330
1F
100
AcDbEntity
  8
0
  6
Continuous
 62
     7
370
    15
100
AcDbPolyline
 90
       30
 70
   128
 43
0.0
 10
52.1958068549
 20
118.4466075715
 10
52.29999298
 20
118.2519968202
 10
52.4189100671
 20
117.9063309751
 10
52.5469978876
 20
117.4257729504
 10
52.6782668731
 20
116.8327931732
 10
52.8065793752
 20
116.1551186301
 10
52.925935348
 20
115.4244366985
 10
53.030754074
 20
114.6749131799
 10
53.1161342352
 20
113.9415949069
 10
53.1780834845
 20
113.258771547
 10
53.213705176
 20
112.6583702349
 10
53.2213336392
 20
112.1684661553
 10
53.2006124105
 20
111.8119656526
 10
53.152510298
 20
111.6055389353
 10
53.079276213
 20
111.5588377647
 10
52.9843348614
 20
111.6740465582
 10
52.8721253923
 20
111.9457776145
 10
52.7478946443
 20
112.361325831
 10
52.617451509
 20
112.901259628
 10
52.4868954509
 20
113.5403331787
 10
52.3623310565
 20
114.2486636013
 10
52.2495828173
 20
114.993130504
 10
52.1539224847
 20
115.7389231444
 10
52.0798236667
 20
116.4511691964
 10
52.0307504176
 20
117.0965647975
 10
52.0089979819
 20
117.6449321279
 10
52.0155828982
 20
118.0706300143
 10
52.0501973643
 20
118.3537532775
 10
52.1112232073
 20
118.4810634218
 10
52.1958068549
 20
118.4466075715
  0
LWPOLYLINE
  5
215
330
1F
100
AcDbEntity
  8
0
  6
Continuous
 62
     7
370
    15
100
AcDbPolyline
 90
       23
 70
   128
 43
0.0
 10
52.3754759762
 20
116.9786982423
 10
52.4558640155
 20
116.8136441334
 10
52.5491471472
 20
116.5033999782
 10
52.6477681543
 20
116.0730998449
 10
52.7437372203
 20
115.557604418
 10
52.8292796645
 20
114.9986758314
 10
52.8974652826
 20
114.4415949889
 10
52.9427699349
 20
113.9314933166
 10
52.9615235119
 20
113.5096968569
 10
52.9522067937
 20
113.2103763007
 10
52.9155741516
 20
113.0577809595
 10
52.8545939434
 20
113.0642732092
 10
52.774205904
 20
113.2293273181
 10
52.6809227723
 20
113.5395718225
 10
52.5823017652
 20
113.9698717229
 10
52.4863326992
 20
114.4853671499
 10
52.4007902551
 20
115.0442959693
 10
52.3326046369
 20
115.601376579
 10
52.2872999846
 20
116.1114780184
 10
52.2685461748
 20
116.5332748274
 10
52.2778631258
 20
116.8325953836
 10
52.3144955351
 20
116.9851906084
 10
52.3754759762
 20
116.9786982423
  0
LINE
  5
216
330
1F
100
AcDbEntity
  8
0
  6
Continuous
 62
     7
370
    15
100
AcDbLine
 10
52.7476247936
 20
115.5241433949
 30
0.0
 11
52.6616446278
 21
115.322233592
 31
0.0
  0
LINE
  5
217
330
1F
100
AcDbEntity
  8
0
  6
Continuous
 62
     7
370
    15
100
AcDbLine
 10
52.9548871401
 20
113.7231871903
 30
0.0
 11
52.9499529931
 21
113.7224938207
 31
0.0
  0
LINE
  5
218
330
1F
100
AcDbEntity
  8
0
  6
Continuous
 62
     7
370
    15
100
AcDbLine
 10
52.7793032653
 20
115.3387694572
 30
0.0
 11
52.6616446278
 21
115.322233592
 31
0.0
  0
ARC
  5
219
330
1F
100
AcDbEntity
  8
0
  6
Continuous
 62
     7
370
    15
100
AcDbCircle
 10
60.8096585403
 20
98.469451587
 30
0.0
 40
2.620485790784515
100
AcDbArc
 50
350.5011148094
 51
14.5563935658
  0
LINE
  5
21A
330
1F
100
AcDbEntity
  8
0
  6
Continuous
 62
     7
370
    15
100
AcDbLine
 10
63.3460286609
 20
99.1280655794
 30
0.0
 11
61.9035762339
 21
108.7522087105
 31
0.0
  0
ARC
  5
21B
330
1F
100
AcDbEntity
  8
0
  6
Continuous
 62
     7
370
    15
100
AcDbCircle
 10
61.5355711025
 20
98.6470575695
 30
0.0
 40
2.136115239303451
100
AcDbArc
 50
352.8319072713
 51
13.3242324504
  0
LINE
  5
21C
330
1F
100
AcDbEntity
  8
0
  6
Continuous
 62
     7
370
    15
100
AcDbLine
 10
62.1717328741
 20
108.7634916835
 30
0.0
 11
63.6141853011
 21
99.1393494837
 31
0.0
  0
ARC
  5
21D
330
1F
100
AcDbEntity
  8
0
  6
Continuous
 62
     7
370
    15
100
AcDbCircle
 10
58.453489728
 20
108.4111330996
 30
0.0
 40
3.466904883376009
100
AcDbArc
 50
5.6459163499
 51
20.1667048363
  0
LINE
  5
21E
330
1F
100
AcDbEntity
  8
0
  6
Continuous
 62
     7
370
    15
100
AcDbLine
 10
62.0173065528
 20
109.3843699851
 30
0.0
 11
61.723198609
 21
109.6085151144
 31
0.0
  0
ARC
  5
21F
330
1F
100
AcDbEntity
  8
0
  6
Continuous
 62
     7
370
    15
100
AcDbCircle
 10
60.3054689386
 20
108.6289538891
 30
0.0
 40
1.871107023979491
100
AcDbArc
 50
4.1232838788
 51
23.8113679504
  0
LINE
  5
220
330
1F
100
AcDbEntity
  8
0
  6
Continuous
 62
     7
370
    15
100
AcDbLine
 10
52.8325465112
 20
109.4358423211
 30
0.0
 11
54.6168691782
 21
97.5307169788
 31
0.0
  0
ARC
  5
221
330
1F
100
AcDbEntity
  8
0
  6
Continuous
 62
     7
370
    15
100
AcDbCircle
 10
53.708214459
 20
109.6849081683
 30
0.0
 40
0.9103999950965943
100
AcDbArc
 50
168.1879267533
 51
195.8773187795
  0
LINE
  5
222
330
1F
100
AcDbEntity
  8
0
  6
Continuous
 62
     7
370
    15
100
AcDbLine
 10
54.2096893606
 20
109.0034823351
 30
0.0
 11
52.8170928429
 21
109.8712691524
 31
0.0
  0
ARC
  5
223
330
1F
100
AcDbEntity
  8
0
  6
Continuous
 62
     7
370
    15
100
AcDbCircle
 10
53.2315166747
 20
108.5718203685
 30
0.0
 40
1.069183733905842
100
AcDbArc
 50
4.1231915582
 51
23.8115913289
  0
LINE
  5
224
330
1F
100
AcDbEntity
  8
0
  6
Continuous
 62
     7
370
    15
100
AcDbLine
 10
56.0822557146
 20
96.7435705893
 30
0.0
 11
54.2979331059
 21
108.6486959316
 31
0.0
  0
ARC
  5
225
330
1F
100
AcDbEntity
  8
0
  6
Continuous
 62
     7
370
    15
100
AcDbCircle
 10
55.2065955753
 20
96.4945048852
 30
0.0
 40
0.910392445327505
100
AcDbArc
 50
348.1878181835
 51
15.8774445609
  0
LINE
  5
226
330
1F
100
AcDbEntity
  8
0
  6
Continuous
 62
     7
370
    15
100
AcDbLine
 10
54.7051129234
 20
97.175929644
 30
0.0
 11
56.0977094484
 21
96.3081437581
 31
0.0
  0
ARC
  5
227
330
1F
100
AcDbEntity
  8
0
  6
Continuous
 62
     7
370
    15
100
AcDbCircle
 10
55.6832931818
 20
97.6075932923
 30
0.0
 40
1.069191340732584
100
AcDbArc
 50
184.1232024856
 51
203.811509943
  0
ARC
  5
228
330
1F
100
AcDbEntity
  8
0
  6
Continuous
 62
     7
370
    15
100
AcDbCircle
 10
55.2485463195
 20
96.5049420218
 30
0.0
 40
0.8648850649210067
100
AcDbArc
 50
348.1879892428
 51
15.8772666889
  0
LINE
  5
229
330
1F
100
AcDbEntity
  8
0
  6
Continuous
 62
     7
370
    15
100
AcDbLine
 10
56.0804359612
 20
96.7415552073
 30
0.0
 11
54.296113418
 21
108.6466796182
 31
0.0
  0
ARC
  5
22A
330
1F
100
AcDbEntity
  8
0
  6
Continuous
 62
     7
370
    15
100
AcDbCircle
 10
53.2830131315
 20
108.5736470515
 30
0.0
 40
1.015729268146145
100
AcDbArc
 50
4.1232165712
 51
23.8115478503
  0
LINE
  5
22B
330
1F
100
AcDbEntity
  8
0
  6
Continuous
 62
     7
370
    15
100
AcDbLine
 10
54.2122818134
 20
108.9837271206
 30
0.0
 11
52.8196854121
 21
109.8515139379
 31
0.0
  0
ARC
  5
22C
330
1F
100
AcDbEntity
  8
0
  6
Continuous
 62
     7
370
    15
100
AcDbCircle
 10
53.6662430697
 20
109.6744706662
 30
0.0
 40
0.8648723533890054
100
AcDbArc
 50
168.187798075
 51
195.8774267405
  0
LINE
  5
22D
330
1F
100
AcDbEntity
  8
0
  6
Continuous
 62
     7
370
    15
100
AcDbLine
 10
52.8343663155
 20
109.4378586345
 30
0.0
 11
54.618688866
 21
97.5327323608
 31
0.0
  0
ARC
  5
22E
330
1F
100
AcDbEntity
  8
0
  6
Continuous
 62
     7
370
    15
100
AcDbCircle
 10
55.6317996472
 20
97.6057675379
 30
0.0
 40
1.015739923437591
100
AcDbArc
 50
184.1233208665
 51
203.811443555
  0
LINE
  5
22F
330
1F
100
AcDbEntity
  8
0
  6
Continuous
 62
     7
370
    15
100
AcDbLine
 10
54.7025204706
 20
97.1956848584
 30
0.0
 11
56.0951170101
 21
96.3278989725
 31
0.0
  0
LINE
  5
230
330
1F
100
AcDbEntity
  8
0
  6
Continuous
 62
     7
370
    15
100
AcDbLine
 10
60.7701096288
 20
97.4024049424
 30
0.0
 11
58.9857870783
 21
109.3075302847
 31
0.0
  0
ARC
  5
231
330
1F
100
AcDbEntity
  8
0
  6
Continuous
 62
     7
370
    15
100
AcDbCircle
 10
59.7555726945
 20
97.1389602045
 30
0.0
 40
1.048183343209858
100
AcDbArc
 50
350.5009874806
 51
14.5565008002
  0
LINE
  5
232
330
1F
100
AcDbEntity
  8
0
  6
Continuous
 62
     7
370
    15
100
AcDbLine
 10
55.2022644389
 20
98.2275269412
 30
0.0
 11
54.8693319853
 21
97.6014024996
 31
0.0
  0
ARC
  5
233
330
1F
100
AcDbEntity
  8
0
  6
Continuous
 62
     7
370
    15
100
AcDbCircle
 10
57.9193658662
 20
109.2306546655
 30
0.0
 40
1.069188506538661
100
AcDbArc
 50
4.123176131
 51
23.8115362976
  0
LINE
  5
234
330
1F
100
AcDbEntity
  8
0
  6
Continuous
 62
     7
370
    15
100
AcDbLine
 10
55.4373921314
 20
99.6162369334
 30
0.0
 11
54.4387713145
 21
106.279105828
 31
0.0
  0
LINE
  5
235
330
1F
100
AcDbEntity
  8
0
  6
Continuous
 62
     7
370
    15
100
AcDbLine
 10
58.897543333
 20
109.6623176195
 30
0.0
 11
58.8192000124
 21
109.7111366175
 31
0.0
  0
LINE
  5
236
330
1F
100
AcDbEntity
  8
0
  6
Continuous
 62
     7
370
    15
100
AcDbLine
 10
53.7830485101
 20
108.6765992873
 30
0.0
 11
53.0850094347
 21
109.5065287732
 31
0.0
  0
ARC
  5
237
330
1F
100
AcDbEntity
  8
0
  6
Continuous
 62
     7
370
    15
100
AcDbCircle
 10
53.2482286237
 20
98.9935721837
 30
0.0
 40
2.275993904697978
100
AcDbArc
 50
348.1878981125
 51
15.8773657794
  0
LINE
  5
238
330
1F
100
AcDbEntity
  8
0
  6
Continuous
 62
     7
370
    15
100
AcDbLine
 10
53.4774100944
 20
106.5631750457
 30
0.0
 11
54.476031086
 21
99.9003070824
 31
0.0
  0
ARC
  5
239
330
1F
100
AcDbEntity
  8
0
  6
Continuous
 62
     7
370
    15
100
AcDbCircle
 10
55.6665793537
 20
107.1858398804
 30
0.0
 40
2.27599946011301
100
AcDbArc
 50
168.187929546
 51
195.8773282262
  0
LINE
  5
23A
330
1F
100
AcDbEntity
  8
0
  6
Continuous
 62
     7
370
    15
100
AcDbLine
 10
54.2181618349
 20
107.166074165
 30
0.0
 11
53.4387758072
 21
107.6517421238
 31
0.0
  0
ARC
  5
23B
330
1F
100
AcDbEntity
  8
0
  6
Continuous
 62
     7
370
    15
100
AcDbCircle
 10
51.7727094454
 20
106.0869142607
 30
0.0
 40
2.67298026332533
100
AcDbArc
 50
4.1232163718
 51
23.8115102208
  0
LINE
  5
23C
330
1F
100
AcDbEntity
  8
0
  6
Continuous
 62
     7
370
    15
100
AcDbLine
 10
54.6966405655
 20
99.0133378141
 30
0.0
 11
55.4760264768
 21
98.5276698552
 31
0.0
  0
ARC
  5
23D
330
1F
100
AcDbEntity
  8
0
  6
Continuous
 62
     7
370
    15
100
AcDbCircle
 10
57.1421026835
 20
100.0924999363
 30
0.0
 40
2.672990059107862
100
AcDbArc
 50
184.1232288844
 51
203.811469525
  0
LWPOLYLINE
  5
23E
330
1F
100
AcDbEntity
  8
0
  6
Continuous
 62
     7
370
    15
100
AcDbPolyline
 90
       26
 70
   128
 43
0.0
 10
54.7918256908
 20
100.54126563
 10
54.8552638921
 20
100.5752514534
 10
54.8937029508
 20
100.7672305636
 10
54.9047275982
 20
101.1051367455
 10
54.8876450467
 20
101.5677432947
 10
54.8435286456
 20
102.1259799086
 10
54.7751504765
 20
102.7447701849
 10
54.6868069633
 20
103.3852351316
 10
54.5840490214
 20
104.0071295061
 10
54.4733332773
 20
104.5713796698
 10
54.3616165943
 20
105.0425311037
 10
54.2559182341
 20
105.3909789257
 10
54.1628798074
 20
105.5948296048
 10
54.0883474588
 20
105.6412737303
 10
54.0370038781
 20
105.5273943998
 10
54.0120753995
 20
105.2603451021
 10
54.0151285078
 20
104.8569073387
 10
54.0459711175
 20
104.342428916
 10
54.102665612
 20
103.7492379032
 10
54.1816492169
 20
103.1146067612
 10
54.2779593798
 20
102.4784091346
 10
54.3855444831
 20
101.8806229763
 10
54.4976447546
 20
101.3588085257
 10
54.6072162525
 20
100.9457520627
 10
54.707374291
 20
100.6674076848
 10
54.7918256908
 20
100.54126563
  0
LINE
  5
23F
330
1F
100
AcDbEntity
  8
0
  6
Continuous
 62
     7
370
    15
100
AcDbLine
 10
55.1452583005
 20
98.4540432178
 30
0.0
 11
55.1504844171
 21
98.4232313417
 31
0.0
  0
SPLINE
  5
240
330
1F
100
AcDbEntity
  8
0
  6
Continuous
 62
     7
370
    15
100
AcDbSpline
210
0.0
220
0.0
230
1.0
 70
     8
 71
     3
 72
    16
 73
    12
 74
     0
 42
0.00000001
 43
0.00000001
 12
1.0
 22
0.0
 32
0.0
 13
1.0
 23
0.0
 33
0.0
 40
0.0
 40
0.0
 40
0.0
 40
0.0
 40
0.0831303917756507
 40
0.1662785951160826
 40
0.2494737300455665
 40
0.3743129187328517
 40
0.4993001434452449
 40
0.6242836786917867
 40
0.7494787956075316
 40
0.8746443321805353
 40
1.0
 40
1.0
 40
1.0
 40
1.0
 10
63.62896386370204
 20
98.95580403405721
 30
0.0
 10
63.77945735835526
 20
99.01173796332678
 30
0.0
 10
64.08047659248307
 20
99.12361780630127
 30
0.0
 10
64.52791950188251
 20
99.30218500755734
 30
0.0
 10
65.04635500346022
 20
99.51966454710585
 30
0.0
 10
65.6331394689545
 20
99.78246389140308
 30
0.0
 10
66.28483684879174
 20
100.0966320064363
 30
0.0
 10
66.92797206598092
 20
100.4292267073588
 30
0.0
 10
67.56147271558055
 20
100.7802197879142
 30
0.0
 10
68.18619477569277
 20
101.1479601686237
 30
0.0
 10
68.59363240661978
 20
101.407751436297
 30
0.0
 10
68.79750583299698
 20
101.5377456534805
 30
0.0
  0
SPLINE
  5
241
330
1F
100
AcDbEntity
  8
0
  6
Continuous
 62
     7
370
    15
100
AcDbSpline
210
0.0
220
0.0
230
1.0
 70
     8
 71
     3
 72
    11
 73
     7
 74
     0
 42
0.00000001
 43
0.00000001
 12
1.0
 22
0.0
 32
0.0
 13
1.0
 23
0.0
 33
0.0
 40
0.0
 40
0.0
 40
0.0
 40
0.0
 40
0.2505835439360222
 40
0.5007661998879007
 40
0.7505657354281363
 40
0.9999999999999999
 40
0.9999999999999999
 40
0.9999999999999999
 40
0.9999999999999999
 10
68.7975036783581
 20
101.5377467969875
 30
0.0
 10
68.71495933332938
 20
101.4382552616982
 30
0.0
 10
68.55000269917456
 20
101.2394313594368
 30
0.0
 10
68.29358467766974
 20
100.9481874540181
 30
0.0
 10
68.03157725058055
 20
100.6620806497065
 30
0.0
 10
67.85119715219464
 20
100.476358810668
 30
0.0
 10
67.76107309173604
 20
100.3835658340604
 30
0.0
  0
SPLINE
  5
242
330
1F
100
AcDbEntity
  8
0
  6
Continuous
 62
     7
370
    15
100
AcDbSpline
210
0.0
220
0.0
230
1.0
 70
     8
 71
     3
 72
    15
 73
    11
 74
     0
 42
0.00000001
 43
0.00000001
 12
1.0
 22
0.0
 32
0.0
 13
1.0
 23
0.0
 33
0.0
 40
0.0
 40
0.0
 40
0.0
 40
0.0
 40
0.1016176212836361
 40
0.2024794593095216
 40
0.302586079986853
 40
0.4019380621406709
 40
0.5005359978971833
 40
0.6688014872321818
 40
0.8352883972954155
 40
1.0
 40
1.0
 40
1.0
 40
1.0
 10
67.76106987014379
 20
100.3835627930502
 30
0.0
 10
67.62736938987302
 20
100.3077849681499
 30
0.0
 10
67.36096282954742
 20
100.1567929175622
 30
0.0
 10
66.95785168516593
 20
99.9400312182843
 30
0.0
 10
66.55431194945908
 20
99.7313785651835
 30
0.0
 10
66.15016779783194
 20
99.53139088011135
 30
0.0
 10
65.64944759780624
 20
99.29412870316536
 30
0.0
 10
65.05028751939285
 20
99.02749685120784
 30
0.0
 10
64.35146994179216
 20
98.73890531608015
 30
0.0
 10
63.88132198338267
 20
98.56463007718547
 30
0.0
 10
63.64750805985155
 20
98.47795953730237
 30
0.0
  0
LINE
  5
243
330
1F
100
AcDbEntity
  8
0
  6
Continuous
 62
     7
370
    15
100
AcDbLine
 10
62.1029416635
 20
109.1375266619
 30
0.0
 11
62.025972975
 21
109.6510672428
 31
0.0
  0
LINE
  5
244
330
1F
100
AcDbEntity
  8
0
  6
Continuous
 62
     7
370
    15
100
AcDbLine
 10
62.025972975
 20
109.6510672428
 30
0.0
 11
59.1305339313
 21
109.2441398137
 31
0.0
  0
LINE
  5
245
330
1F
100
AcDbEntity
  8
0
  6
Continuous
 62
     7
370
    15
100
AcDbLine
 10
59.1305339313
 20
109.2441398137
 30
0.0
 11
59.0555622312
 21
109.7443550311
 31
0.0
  0
LINE
  5
246
330
1F
100
AcDbEntity
  8
0
  6
Continuous
 62
     7
370
    15
100
AcDbLine
 10
59.0555622312
 20
109.7443550311
 30
0.0
 11
54.4267989299
 21
109.0938252814
 31
0.0
  0
LINE
  5
247
330
1F
100
AcDbEntity
  8
0
  6
Continuous
 62
     7
370
    15
100
AcDbLine
 10
54.4267989299
 20
109.0938252814
 30
0.0
 11
53.0561554316
 21
118.2388547309
 31
0.0
  0
LINE
  5
248
330
1F
100
AcDbEntity
  8
0
  6
Continuous
 62
     7
370
    15
100
AcDbLine
 10
72.4288461334
 20
120.9615088951
 30
0.0
 11
53.0561554316
 21
118.2388547309
 31
0.0
  0
ARC
  5
249
330
1F
100
AcDbEntity
  8
0
  6
Continuous
 62
     7
370
    15
100
AcDbCircle
 10
56.1437582201
 20
118.3071005576
 30
0.0
 40
16.50000000000002
100
AcDbArc
 50
0.0
 51
9.2575856757
  0
LINE
  5
24A
330
1F
100
AcDbEntity
  8
0
  6
Continuous
 62
     7
370
    15
100
AcDbLine
 10
72.6437581307
 20
118.3071005576
 30
0.0
 11
72.6437581307
 21
112.3071005054
 31
0.0
  0
ARC
  5
24B
330
1F
100
AcDbEntity
  8
0
  6
Continuous
 62
     7
370
    15
100
AcDbCircle
 10
55.6437582201
 20
112.3071005576
 30
0.0
 40
17.00000000000002
100
AcDbArc
 50
320.691815091
 51
0.0
  0
SPLINE
  5
24C
330
1F
100
AcDbEntity
  8
0
  6
Continuous
 62
     7
370
    15
100
AcDbSpline
210
0.0
220
0.0
230
1.0
 70
     8
 71
     3
 72
     8
 73
     4
 74
     0
 42
0.00000001
 43
0.00000001
 12
1.0
 22
0.0
 32
0.0
 13
1.0
 23
0.0
 33
0.0
 40
0.0
 40
0.0
 40
0.0
 40
0.0
 40
1.0
 40
1.0
 40
1.0
 40
1.0
 10
53.62335559410042
 20
99.22534625262483
 30
0.0
 10
53.37281269478919
 20
100.2589595961628
 30
0.0
 10
53.12211319678935
 20
101.2979973470735
 30
0.0
 10
52.87114734296146
 20
102.346261372675
 30
0.0
  0
SPLINE
  5
24D
330
1F
100
AcDbEntity
  8
0
  6
Continuous
 62
     7
370
    15
100
AcDbSpline
210
0.0
220
0.0
230
1.0
 70
     8
 71
     3
 72
    10
 73
     6
 74
     0
 42
0.00000001
 43
0.00000001
 12
1.0
 22
0.0
 32
0.0
 13
1.0
 23
0.0
 33
0.0
 40
0.0
 40
0.0
 40
0.0
 40
0.0
 40
0.5
 40
0.5
 40
1.0
 40
1.0
 40
1.0
 40
1.0
 10
52.87114734296146
 20
102.346261372675
 30
0.0
 10
52.84771077320797
 20
102.4441540245293
 30
0.0
 10
52.82510461274931
 20
102.5234773976031
 30
0.0
 10
52.78363704187218
 20
102.6360160986488
 30
0.0
 10
52.76524533447048
 20
102.6678588895638
 30
0.0
 10
52.7504481435922
 20
102.6710701558266
 30
0.0
  0
ARC
  5
24E
330
1F
100
AcDbEntity
  8
0
  6
Continuous
 62
     7
370
    15
100
AcDbCircle
 10
56.1437582201
 20
118.3071005576
 30
0.0
 40
16.00000000000001
100
AcDbArc
 50
257.1385050887
 51
257.7556163175
  0
ARC
  5
24F
330
1F
100
AcDbEntity
  8
0
  6
Continuous
 62
     7
370
    15
100
AcDbCircle
 10
56.1437582201
 20
118.3071005576
 30
0.0
 40
16.0
100
AcDbArc
 50
118.2443836825
 51
118.8614949113
  0
SPLINE
  5
250
330
1F
100
AcDbEntity
  8
0
  6
Continuous
 62
     7
370
    15
100
AcDbSpline
210
0.0
220
0.0
230
1.0
 70
     8
 71
     3
 72
     8
 73
     4
 74
     0
 42
0.00000001
 43
0.00000001
 12
1.0
 22
0.0
 32
0.0
 13
1.0
 23
0.0
 33
0.0
 40
0.0
 40
0.0
 40
0.0
 40
0.0
 40
1.0
 40
1.0
 40
1.0
 40
1.0
 10
48.57202514570221
 20
132.4020946423298
 30
0.0
 10
48.59867859024533
 20
132.4164126878985
 30
0.0
 10
48.60742136253921
 20
132.5466104290273
 30
0.0
 10
48.5985192286524
 20
132.7475900922406
 30
0.0
  0
SPLINE
  5
251
330
1F
100
AcDbEntity
  8
0
  6
Continuous
 62
     7
370
    15
100
AcDbSpline
210
0.0
220
0.0
230
1.0
 70
     8
 71
     3
 72
     8
 73
     4
 74
     0
 42
0.00000001
 43
0.00000001
 12
1.0
 22
0.0
 32
0.0
 13
1.0
 23
0.0
 33
0.0
 40
0.0
 40
0.0
 40
0.0
 40
0.0
 40
1.0
 40
1.0
 40
1.0
 40
1.0
 10
48.59851922865229
 20
132.747590092241
 30
0.0
 10
48.59514956904893
 20
132.8236654535912
 30
0.0
 10
48.59179161885054
 20
132.8996950319615
 30
0.0
 10
48.5884449204782
 20
132.9756806164546
 30
0.0
  0
ARC
  5
252
330
1F
100
AcDbEntity
  8
0
  6
Continuous
 62
     7
370
    15
100
AcDbCircle
 10
56.1437582201
 20
118.3071005576
 30
0.0
 40
16.49999999999999
100
AcDbArc
 50
112.7763518834
 51
117.2515377907
  0
LINE
  5
253
330
1F
100
AcDbEntity
  8
0
  6
Continuous
 62
     7
370
    15
100
AcDbLine
 10
53.0561554316
 20
118.2388547309
 30
0.0
 11
49.7560294881
 21
133.520480194
 31
0.0
  0
ARC
  5
254
330
1F
100
AcDbEntity
  8
0
  6
Continuous
 62
     7
370
    15
100
AcDbCircle
 10
72.8191289621
 20
110.4136430812
 30
0.0
 40
19.95233543464889
100
AcDbArc
 50
184.8237527139
 51
192.2241662475
  0
LWPOLYLINE
  5
255
330
1F
100
AcDbEntity
  8
0
  6
Continuous
 62
     7
370
    15
100
AcDbPolyline
 90
        3
 70
   128
 43
0.0
 10
52.9255108978
 20
109.8880432032
 10
52.9425680707
 20
109.9460860201
 10
53.0022849399
 20
109.9815004923
  0
ELLIPSE
  5
256
330
1F
100
AcDbEntity
  8
0
  6
Continuous
 62
     7
370
    15
100
AcDbEllipse
 10
55.1437582201
 20
120.8136997874
 30
0.0
 11
-22.7917864121388
 21
30.85594993360192
 31
0.0
210
0.0
220
0.0
230
1.0
 40
0.4054768606
 41
2.014316652696834
 42
2.047262060176211
  0
LWPOLYLINE
  5
257
330
1F
100
AcDbEntity
  8
0
  6
Continuous
 62
     7
370
    15
100
AcDbPolyline
 90
       32
 70
   128
 43
0.0
 10
52.0583427116
 20
118.9825580873
 10
52.1530847601
 20
118.9131882925
 10
52.2667391761
 20
118.6844917606
 10
52.3946528393
 20
118.3058313188
 10
52.5315889227
 20
117.7927093882
 10
52.6719413302
 20
117.1661331969
 10
52.8099640343
 20
116.4517549983
 10
52.940006468
 20
115.6788214062
 10
53.0567442603
 20
114.8789762006
 10
53.1553985621
 20
114.084965498
 10
53.2319302275
 20
113.3292959489
 10
53.2832062873
 20
112.6429051578
 10
53.3071273077
 20
112.0538934552
 10
53.30271377
 20
111.5863755763
 10
53.2701468165
 20
111.2594911315
 10
53.2107594027
 20
111.0866236918
 10
53.126982979
 20
111.0748494462
 10
53.0222473736
 20
111.2246512853
 10
52.9008403956
 20
111.5298959844
 10
52.7677325136
 20
111.9780865915
 10
52.6283731288
 20
112.5508741893
 10
52.4884677562
 20
113.2248094723
 10
52.3537440295
 20
113.9723006122
 10
52.2297177068
 20
114.7627452806
 10
52.121465893
 20
115.5637830448
 10
52.0334214508
 20
116.3426190101
 10
51.9691881328
 20
117.0673677184
 10
51.9313955284
 20
117.7083576981
 10
51.9215914956
 20
118.2393468912
 10
51.9401769689
 20
118.6385964461
 10
51.9863915234
 20
118.889761106
 10
52.0583427116
 20
118.9825580873
  0
LINE
  5
258
330
1F
100
AcDbEntity
  8
0
  6
Continuous
 62
     7
370
    15
100
AcDbLine
 10
53.0022849399
 20
109.9815004923
 30
0.0
 11
54.4267989299
 21
109.0938252814
 31
0.0
  0
LINE
  5
259
330
1F
100
AcDbEntity
  8
0
  6
Continuous
 62
     7
370
    15
100
AcDbLine
 10
58.981221735
 20
109.3371826642
 30
0.0
 11
59.1305339313
 21
109.2441398137
 31
0.0
  0
ARC
  5
25A
330
1F
100
AcDbEntity
  8
0
  6
Continuous
 62
     7
370
    15
100
AcDbCircle
 10
56.1437582201
 20
118.3071005576
 30
0.0
 40
16.49999999999999
100
AcDbArc
 50
9.2575856757
 51
112.7763518834
  0
SPLINE
  5
25B
330
1F
100
AcDbEntity
  8
0
  6
Continuous
 62
     7
370
    15
100
AcDbSpline
210
0.0
220
0.0
230
1.0
 70
     8
 71
     3
 72
    18
 73
    14
 74
     0
 42
0.00000001
 43
0.00000001
 12
1.0
 22
0.0
 32
0.0
 13
1.0
 23
0.0
 33
0.0
 40
0.0
 40
0.0
 40
0.0
 40
0.0
 40
0.2499999999999992
 40
0.2499999999999992
 40
0.3749999999999996
 40
0.3749999999999996
 40
0.5
 40
0.5
 40
0.6250000000000003
 40
0.6250000000000003
 40
0.7500000000000008
 40
0.7500000000000008
 40
1.0
 40
1.0
 40
1.0
 40
1.0
 10
49.02326789150529
 20
112.173186269648
 30
0.0
 10
49.24088278975147
 20
111.9604635192516
 30
0.0
 10
49.41926226767968
 20
111.7209185117653
 30
0.0
 10
49.63905348041565
 20
111.324485214044
 30
0.0
 10
49.70383512676791
 20
111.1856715441572
 30
0.0
 10
49.81110482317622
 20
110.9021788639259
 30
0.0
 10
49.85424147555222
 20
110.7565275300122
 30
0.0
 10
49.91517391185002
 20
110.4555556606281
 30
0.0
 10
49.93227677335337
 20
110.3018772865084
 30
0.0
 10
49.93394114868281
 20
109.9975203621808
 30
0.0
 10
49.91811957310878
 20
109.8433266404654
 30
0.0
 10
49.81792932815266
 20
109.4024086559006
 30
0.0
 10
49.67928339169567
 20
109.1303972485918
 30
0.0
 10
49.48345286664912
 20
108.898800030813
 30
0.0
  0
SPLINE
  5
25C
330
1F
100
AcDbEntity
  8
0
  6
Continuous
 62
     7
370
    15
100
AcDbSpline
210
0.0
220
0.0
230
1.0
 70
     8
 71
     3
 72
    14
 73
    10
 74
     0
 42
0.00000001
 43
0.00000001
 12
1.0
 22
0.0
 32
0.0
 13
1.0
 23
0.0
 33
0.0
 40
0.0
 40
0.0
 40
0.0
 40
0.0
 40
0.25
 40
0.25
 40
0.5
 40
0.5
 40
0.75
 40
0.75
 40
1.0
 40
1.0
 40
1.0
 40
1.0
 10
52.58223843501582
 20
102.7085244424236
 30
0.0
 10
52.54746908630487
 20
102.7164630980057
 30
0.0
 10
52.46233196981408
 20
102.7357779242978
 30
0.0
 10
52.19468934176901
 20
102.8014937400372
 30
0.0
 10
52.0188457672078
 20
102.8463661447067
 30
0.0
 10
51.59179478628333
 20
102.9666690047656
 30
0.0
 10
51.34957569266236
 20
103.0396958273778
 30
0.0
 10
50.82022743242048
 20
103.2161147297833
 30
0.0
 10
50.54018580209181
 20
103.3172318939931
 30
0.0
 10
50.25184033468469
 20
103.4314391056929
 30
0.0
  0
SPLINE
  5
25D
330
1F
100
AcDbEntity
  8
0
  6
Continuous
 62
     7
370
    15
100
AcDbSpline
210
0.0
220
0.0
230
1.0
 70
     8
 71
     3
 72
    18
 73
    14
 74
     0
 42
0.00000001
 43
0.00000001
 12
1.0
 22
0.0
 32
0.0
 13
1.0
 23
0.0
 33
0.0
 40
0.0
 40
0.0
 40
0.0
 40
0.0
 40
0.2499999999999954
 40
0.2499999999999954
 40
0.3749999999999963
 40
0.3749999999999963
 40
0.4999999999999971
 40
0.4999999999999971
 40
0.6249999999999979
 40
0.6249999999999979
 40
0.7499999999999988
 40
0.7499999999999988
 40
1.0
 40
1.0
 40
1.0
 40
1.0
 10
46.37979525261352
 20
130.9824714463714
 30
0.0
 10
46.62567925159565
 20
131.171878311183
 30
0.0
 10
46.86481069199744
 20
131.3446811872661
 30
0.0
 10
47.20890745158678
 20
131.5806752727735
 30
0.0
 10
47.32131909387353
 20
131.6555240249945
 30
0.0
 10
47.53240503183654
 20
131.7926645972632
 30
0.0
 10
47.63210434745184
 20
131.8556720383955
 30
0.0
 10
47.8187329767138
 20
131.9711407915493
 30
0.0
 10
47.90636584229127
 20
132.0240133020546
 30
0.0
 10
48.06337275482821
 20
132.1170860448334
 30
0.0
 10
48.13230525497304
 20
132.1570562610273
 30
0.0
 10
48.30985191966724
 20
132.2587498679145
 30
0.0
 10
48.389374753157
 20
132.3024859669765
 30
0.0
 10
48.42065539648441
 20
132.3197263919806
 30
0.0
  0
ELLIPSE
  5
25E
330
1F
100
AcDbEntity
  8
0
  6
Continuous
 62
     7
370
    15
100
AcDbEllipse
 10
47.6605683088
 20
110.6300644758
 30
0.0
 11
-1.618682318416887
 21
1.934502064879666
 31
0.0
210
0.0
220
0.0
230
1.0
 40
0.8130428287
 41
4.835196941576711
 42
9.56519970063609
  0
ARC
  5
25F
330
1F
100
AcDbEntity
  8
0
  6
Continuous
 62
     7
370
    15
100
AcDbCircle
 10
56.1437582201
 20
118.3071005576
 30
0.0
 40
15.99999999999999
100
AcDbArc
 50
127.607414392
 51
248.392585608
  0
CIRCLE
  5
260
330
1F
100
AcDbEntity
  8
0
  6
Continuous
 62
     7
370
    15
100
AcDbCircle
 10
56.1437582201
 20
118.3071005576
 30
0.0
 40
25.0
  0
LINE
  5
261
330
1F
100
AcDbEntity
  8
VERMASSUNG
100
AcDbLine
 10
56.1437582201
 20
96.3489671621
 30
0.0
 11
48.9125205279
 21
147.8018968926
 31
0.0
  0
CIRCLE
  5
262
330
1F
100
AcDbEntity
  8
VERMASSUNG
  6
CENTERX2
100
AcDbCircle
 10
56.1437582201
 20
116.3489671621
 30
0.0
 40
20.0
  0
DIMENSION
  5
263
330
1F
100
AcDbEntity
  8
VERMASSUNG
100
AcDbDimension
  2
_D_6
 10
48.9125205279
 20
147.8018968926
 30
0.0
 11
52.1915613435
 21
152.8680156761
 31
0.0
 70
   162
  1
<>
 71
     1
 42
-1.0
  3
SLDDIMSTYLE2
100
AcDb2LineAngularDimension
 13
56.1437582201
 23
145.8071005576
 33
0.0
 14
56.1437582201
 24
90.8071005576
 34
0.0
 15
56.1437582201
 25
96.3489671621
 35
0.0
 16
52.1915613435
 26
152.8680156761
 36
0.0
  0
DIMENSION
  5
270
330
1F
100
AcDbEntity
  8
VERMASSUNG
100
AcDbDimension
  2
_D_7
 10
43.6916723858
 20
100.6982304901
 30
0.0
 11
36.5111552395
 21
91.6732057255
 31
0.0
 70
   160
  1
%%c<> min. 
 71
     2
 42
-1.0
  3
SLDDIMSTYLE3
100
AcDbAlignedDimension
 13
68.5958440545
 23
131.999703834
 33
0.0
 14
43.6916723858
 24
100.6982304901
 34
0.0
 50
51.4934359338
100
AcDbRotatedDimension
  0
INSERT
  5
28A
330
1F
100
AcDbEntity
  8
VERMASSUNG
100
AcDbBlockReference
  2
SW_CENTERMARKSYMBOL_0
 10
56.1437582201
 20
118.3071005576
 30
0.0
  0
OLE2FRAME
  5
28B
330
1F
100
AcDbEntity
  8
0
100
AcDbOle2Frame
 70
     2
  3
Paintbrush-Bild
 10
13.8511154363
 20
38.264191557
 30
0.0
 11
51.6290888628
 21
31.9806341108
 31
0.0
 71
     2
 72
     0
 73
     1
 90
    12928
310
80552BED0767C5B32B40DDAF6807D121434000000000000000006FFBDDFB85D0
310
4940DDAF6807D121434000000000000000006FFBDDFB85D04940416F4BD60AFB
310
3F4000000000000000002BED0767C5B32B40416F4BD60AFB3F40000000000000
310
0000000000000100000000010000010000000100000000000100000000320000
310
D0CF11E0A1B11AE1000000000000000000000000000000003E000300FEFF0900
310
0600000000000000000000000100000001000000000000000010000002000000
310
01000000FEFFFFFF0000000000000000FFFFFFFFFFFFFFFFFFFFFFFFFFFFFFFF
310
FFFFFFFFFFFFFFFFFFFFFFFFFFFFFFFFFFFFFFFFFFFFFFFFFFFFFFFFFFFFFFFF
310
FFFFFFFFFFFFFFFFFFFFFFFFFFFFFFFFFFFFFFFFFFFFFFFFFFFFFFFFFFFFFFFF
310
FFFFFFFFFFFFFFFFFFFFFFFFFFFFFFFFFFFFFFFFFFFFFFFFFFFFFFFFFFFFFFFF
310
FFFFFFFFFFFFFFFFFFFFFFFFFFFFFFFFFFFFFFFFFFFFFFFFFFFFFFFFFFFFFFFF
310
FFFFFFFFFFFFFFFFFFFFFFFFFFFFFFFFFFFFFFFFFFFFFFFFFFFFFFFFFFFFFFFF
310
FFFFFFFFFFFFFFFFFFFFFFFFFFFFFFFFFFFFFFFFFFFFFFFFFFFFFFFFFFFFFFFF
310
FFFFFFFFFFFFFFFFFFFFFFFFFFFFFFFFFFFFFFFFFFFFFFFFFFFFFFFFFFFFFFFF
310
FFFFFFFFFFFFFFFFFFFFFFFFFFFFFFFFFFFFFFFFFFFFFFFFFFFFFFFFFFFFFFFF
310
FFFFFFFFFFFFFFFFFFFFFFFFFFFFFFFFFFFFFFFFFFFFFFFFFFFFFFFFFFFFFFFF
310
FFFFFFFFFFFFFFFFFFFFFFFFFFFFFFFFFFFFFFFFFFFFFFFFFFFFFFFFFFFFFFFF
310
FFFFFFFFFFFFFFFFFFFFFFFFFFFFFFFFFFFFFFFFFFFFFFFFFFFFFFFFFFFFFFFF
310
FFFFFFFFFFFFFFFFFFFFFFFFFFFFFFFFFFFFFFFFFFFFFFFFFFFFFFFFFFFFFFFF
310
FFFFFFFFFFFFFFFFFFFFFFFFFFFFFFFFFFFFFFFFFFFFFFFFFFFFFFFFFFFFFFFF
310
FDFFFFFFFEFFFFFFFEFFFFFFFEFFFFFF05000000060000000700000008000000
310
090000000A0000000B0000000C0000000D0000000E0000000F00000010000000
310
11000000120000001300000014000000150000001600000017000000FEFFFFFF
310
FFFFFFFFFFFFFFFFFFFFFFFFFFFFFFFFFFFFFFFFFFFFFFFFFFFFFFFFFFFFFFFF
310
FFFFFFFFFFFFFFFFFFFFFFFFFFFFFFFFFFFFFFFFFFFFFFFFFFFFFFFFFFFFFFFF
310
FFFFFFFFFFFFFFFFFFFFFFFFFFFFFFFFFFFFFFFFFFFFFFFFFFFFFFFFFFFFFFFF
310
FFFFFFFFFFFFFFFFFFFFFFFFFFFFFFFFFFFFFFFFFFFFFFFFFFFFFFFFFFFFFFFF
310
FFFFFFFFFFFFFFFFFFFFFFFFFFFFFFFFFFFFFFFFFFFFFFFFFFFFFFFFFFFFFFFF
310
FFFFFFFFFFFFFFFFFFFFFFFFFFFFFFFFFFFFFFFFFFFFFFFFFFFFFFFFFFFFFFFF
310
FFFFFFFFFFFFFFFFFFFFFFFFFFFFFFFFFFFFFFFFFFFFFFFFFFFFFFFFFFFFFFFF
310
FFFFFFFFFFFFFFFFFFFFFFFFFFFFFFFFFFFFFFFFFFFFFFFFFFFFFFFFFFFFFFFF
310
FFFFFFFFFFFFFFFFFFFFFFFFFFFFFFFFFFFFFFFFFFFFFFFFFFFFFFFFFFFFFFFF
310
FFFFFFFFFFFFFFFFFFFFFFFFFFFFFFFFFFFFFFFFFFFFFFFFFFFFFFFFFFFFFFFF
310
FFFFFFFFFFFFFFFFFFFFFFFFFFFFFFFFFFFFFFFFFFFFFFFFFFFFFFFFFFFFFFFF
310
FFFFFFFFFFFFFFFFFFFFFFFFFFFFFFFFFFFFFFFFFFFFFFFFFFFFFFFFFFFFFFFF
310
FFFFFFFFFFFFFFFFFFFFFFFFFFFFFFFFFFFFFFFFFFFFFFFFFFFFFFFFFFFFFFFF
310
52006F006F007400200045006E00740072007900000000000000000000000000
310
0000000000000000000000000000000000000000000000000000000000000000
310
16000500FFFFFFFFFFFFFFFF020000000A00030000000000C000000000000046
310
000000000000000000000000300EAA5EBF43CD0103000000C000000000000000
310
01004F006C006500000000000000000000000000000000000000000000000000
310
0000000000000000000000000000000000000000000000000000000000000000
310
0A000200FFFFFFFFFFFFFFFFFFFFFFFF00000000000000000000000000000000
310
0000000000000000000000000000000000000000000000001400000000000000
310
010043006F006D0070004F0062006A0000000000000000000000000000000000
310
0000000000000000000000000000000000000000000000000000000000000000
310
120002010100000003000000FFFFFFFF00000000000000000000000000000000
310
0000000000000000000000000000000000000000010000004D00000000000000
310
01004F006C006500310030004E00610074006900760065000000000000000000
310
0000000000000000000000000000000000000000000000000000000000000000
310
1A000200FFFFFFFFFFFFFFFFFFFFFFFF00000000000000000000000000000000
310
0000000000000000000000000000000000000000040000002426000000000000
310
FEFFFFFF02000000FEFFFFFFFFFFFFFFFFFFFFFFFFFFFFFFFFFFFFFFFFFFFFFF
310
FFFFFFFFFFFFFFFFFFFFFFFFFFFFFFFFFFFFFFFFFFFFFFFFFFFFFFFFFFFFFFFF
310
FFFFFFFFFFFFFFFFFFFFFFFFFFFFFFFFFFFFFFFFFFFFFFFFFFFFFFFFFFFFFFFF
310
FFFFFFFFFFFFFFFFFFFFFFFFFFFFFFFFFFFFFFFFFFFFFFFFFFFFFFFFFFFFFFFF
310
FFFFFFFFFFFFFFFFFFFFFFFFFFFFFFFFFFFFFFFFFFFFFFFFFFFFFFFFFFFFFFFF
310
FFFFFFFFFFFFFFFFFFFFFFFFFFFFFFFFFFFFFFFFFFFFFFFFFFFFFFFFFFFFFFFF
310
FFFFFFFFFFFFFFFFFFFFFFFFFFFFFFFFFFFFFFFFFFFFFFFFFFFFFFFFFFFFFFFF
310
FFFFFFFFFFFFFFFFFFFFFFFFFFFFFFFFFFFFFFFFFFFFFFFFFFFFFFFFFFFFFFFF
310
FFFFFFFFFFFFFFFFFFFFFFFFFFFFFFFFFFFFFFFFFFFFFFFFFFFFFFFFFFFFFFFF
310
FFFFFFFFFFFFFFFFFFFFFFFFFFFFFFFFFFFFFFFFFFFFFFFFFFFFFFFFFFFFFFFF
310
FFFFFFFFFFFFFFFFFFFFFFFFFFFFFFFFFFFFFFFFFFFFFFFFFFFFFFFFFFFFFFFF
310
FFFFFFFFFFFFFFFFFFFFFFFFFFFFFFFFFFFFFFFFFFFFFFFFFFFFFFFFFFFFFFFF
310
FFFFFFFFFFFFFFFFFFFFFFFFFFFFFFFFFFFFFFFFFFFFFFFFFFFFFFFFFFFFFFFF
310
FFFFFFFFFFFFFFFFFFFFFFFFFFFFFFFFFFFFFFFFFFFFFFFFFFFFFFFFFFFFFFFF
310
FFFFFFFFFFFFFFFFFFFFFFFFFFFFFFFFFFFFFFFFFFFFFFFFFFFFFFFFFFFFFFFF
310
FFFFFFFFFFFFFFFFFFFFFFFFFFFFFFFFFFFFFFFFFFFFFFFFFFFFFFFFFFFFFFFF
310
0100000200000000000000000000000000000000000000000000000000000000
310
0000000000000000000000000000000000000000000000000000000000000000
310
0100FEFF030A0000FFFFFFFF0A00030000000000C00000000000004607000000
310
5042727573680007000000504272757368000700000050427275736800F439B2
310
7100000000000000000000000000000000000000000000000000000000000000
310
0000000000000000000000000000000000000000000000000000000000000000
310
0000000000000000000000000000000000000000000000000000000000000000
310
0000000000000000000000000000000000000000000000000000000000000000
310
0000000000000000000000000000000000000000000000000000000000000000
310
0000000000000000000000000000000000000000000000000000000000000000
310
0000000000000000000000000000000000000000000000000000000000000000
310
0000000000000000000000000000000000000000000000000000000000000000
310
0000000000000000000000000000000000000000000000000000000000000000
310
0000000000000000000000000000000000000000000000000000000000000000
310
0000000000000000000000000000000000000000000000000000000000000000
310
0000000000000000000000000000000000000000000000000000000000000000
310
20260000424D0E260000000000003E00000028000000B40200006E0000000100
310
01000000000000000000130B0000130B00000200000002000000000000FFFFFF
310
FFFFFFFFFFFFFFFFFFFFFFFFFFFFFFFFFFFFFFFFFFFFFFFFFFFFFFFFFFFFFFFF
310
FFFFFFFFFFFFFFFFFFFFFFFFFFFFFFFFFFFFFFFFFFFFFFFFFFFFFFFFFFFFFFFF
310
FFFFFFFFFFFFFFFFFFFFFFFFFFFFFFFFFFFFFFFFFFFFFFFFF000FFFFFFFFFFFF
310
FFFFFFFFFFFFFFFFFFFFFFFFFFFFFFFFFFFFFFFFFFFFFFFFFFFFFFFFFFFFFFFF
310
FFFFFFFFFFFFFFFFFFFFFFFFFFFFFFFFFFFFFFFFFFFFFFFFFFFFFFFFFFFFFFFF
310
FFFFFFFFFFFFFFFFFFFFFFFFFFFFFFFFF000FFFFFFFFFFFFFFFFFFFFFFFFFFFF
310
FFFFFFFFFFFFFFFFFFFFFFFFFFFFFFFFFFFFFFFFFFFFFFFFFFFFFFFFFFFFFFFF
310
FFFFFFFFFFFFFFFFFFFFFFFFFFFFFFFFFFFFFFFFFFFFFFFFFFFFFFFFFFFFFFFF
310
FFFFFFFFFFFFFFFFF000FFFFFFFFFFFFFFFFFFFFFFFFFFFFFFFFFFFFFFFFFFFF
310
FFFFFFFFFFFFFFFFFFFFFFFFFFFFFFFFFFFFFFFFFFFFFFFFFFFFFFFFFFFFFFFF
310
FFFFFFFFFFFFFFFFFFFFFFFFFFFFFFFFFFFFFFFFFFFFFFFFFFFFFFFFFFFFFFFF
310
F000FFFFFFFFFFFFFFFFFFFFFFFFFFFFFFFFFFFFFFFFFFFFFFFFFFFFFFFFFFFF
310
FFFFFFFFFFFFFFFFFFFFFFFFFFFFFFFFFFFFFFFFFFFFFFFFFFFFFFFFFFFFFFFF
310
FFFFFFFFFFFFFFFFFFFFFFFFFFFFFFFFFFFFFFFFFFFFFFFFF000FFFFFFFFFFFF
310
FFFFFFFFFFFFFFFFFFFFFFFFFFFFFFFFFFFFFFFFFFFFFFFFFFFFFFFFFFFFFFFF
310
FFFFFFFFFFFFFFFFFFFFFFFFFFFFFFFFFFFFFFFFFFFFFFFFFFFFFFFFFFFFFFFF
310
FFFFFFFFFFFFFFFFFFFFFFFFFFFFFFFFF000FFFFFFFFFFFFFFFFFFFFFFFFFFFF
310
FFFFFFFFFFFFFFFFFFFFFFFFFFFFFFFFFFFFFFFFFFFFFFFFFFFFFFFFFFFFFFFF
310
FFFFFFFFFFFFFFFFFFFFFFFFFFFFFFFFFFFFFFFFFFFFFFFFFFFFFFFFFFFFFFFF
310
FFFFFFFFFFFFFFFFF000FFFFFFFFFFFFFFFFFFFFFFFFFFFFFFFFFFFFFFFFFFFF
310
FFFFFFFFFFFFFFFFFFFFFFFFFFFFFFFFFFFFFFFFFFFFFFFFFFFFFFFFFFFFFFFF
310
FFFFFFFFFFFFFFFFFFFFFFFFFFFFFFFFFFFFFFFFFFFFFFFFFFFFFFFFFFFFFFFF
310
F000FFFFFFFFFFFFFFFFFFFFFFFFFFFFFFFFFFFFFFFFFFFFFFFFFFFFFFFFFFFF
310
FFFFFFFFFFFFFFFFFFFFFFFFFFFFFFFFFFFFFFFFFFFFFFFFFFFFFFFFFFFFFFFF
310
FFFFFFFFFFFFFFFFFFFFFFFFFFFFFFFFFFFFFFFFFFFFFFFFF000FFFFFFFFFFFF
310
FFFFFFFFFFFFFFFFFFFFFFFFFFFFFFFFFFFFFFFFFFFFFFFFFFFFFFFFFFFFFFFF
310
FFFFFFFFFFFFFFFFFFFFFFFFFFFFFFFFFFFFFFFFFFFFFFFFFFFFFFFFFFFFFFFF
310
FFFFFFFFFFFFFFFFFFFFFFFFFFFFFFFFF000FFFFFFFFFFFFFFFFFFFFFFFFFFFF
310
FFFFFFFFFFFFFFFFFFFFFFFFFFFFFFFFFFFFFFFFFFFFFFFFFFFFFFFFFFFFFFFF
310
FFFFFFFFFFFFFFFFFFFFFFFFFFFFFFFFFFFFFFFFFFFFFFFFFFFFFFFFFFFFFFFF
310
FFFFFFFFFFFFFFFFF000FFFFFFFFFFFFFFFFFFFFFFFFFFFFFFFFFFFFFFFFFFFF
310
FFFFFFFFFFFFFFFFFFFFFFFFFFFFFFFFFFFFFFFFFFFFFFFFFFFFFFFFFFFFFFFF
310
FFFFFFFFFFFFFFFFFFFFFFFFFFFFFFFFFFFFFFFFFFFFFFFFFFFFFFFFFFFFFFFF
310
F000FFFFFFFFFFFFFFFFFFFFFFFFFFFFFFFFFFFFFFFFFFFFFFFFFFFFFFFFFFFF
310
FFFFFFFFFFFFFFFFFFFFFFFFFFFFFFFFFFFFFFFFFFFFFFFFFFFFFFFFFFFFFFFF
310
FFFFFFFFFFFFFFFFFFFFFFFFFFFFFFFFFFFFFFFFFFFFFFFFF000FFFFFFFFFFFF
310
FFFFFFFFFFFFFFFFFFFFFFFFFFFFFFFFFFFFFFFFFFFFFFFFFFFFFFFFFFFFFFFF
310
FFFFFFFFFFFFFFFFFFFFFFFFFFFFFFFFFFFFFFFFFFFFFFFFFFFFFFFFFFFFFFFF
310
FFFFFFFFFFFFFFFFFFFFFFFFFFFFFFFFF000FFFFFFFFFFFFFFFFFFFFFFFFFFFF
310
FFFFFFFFFFFFFFFFFFFFFFFFFFFFFFFFFFFFFFFFFFFFFFFFFFFFFFFFFFFFFFFF
310
FFFFFFFFFFFFFFFFFFFFFFFFFFFFFFFFFFFFFFFFFFFFFFFFFFFFFFFFFFFFFFFF
310
FFFFFFFFFFFFFFFFF000FFFFFFFFFFFFFFFFFFFFFFFFFFFFFFFFFFFFFFFFFFFF
310
FFFFFFFFFFFFFFFFFFFFFFFFFFFFFFFFFFFFFFFFFFFFFFFFFFFFFFFFFFFFFFFF
310
FFFFFFFFFFFFFFFFFFFFFFFFFFFFFFFFFFFFFFFFFFFFFFFFFFFFFFFFFFFFFFFF
310
F000FFFFFFFFFFFFFFFFFFFFFFFFFFFFFFFFFFFFFFFFFFFFFFFFFFFFFFFFFFFF
310
FFFFFFFFFFFFFFFFFFFFFFFFFFFFFFFFFFFFFFFFFFFFFFFFFFFFFFFFFFFFFFFF
310
FFFFFFFFFFFFFFFFFFFFFFFFFFFFFFFFFFFFFFFFFFFFFFFFF000FFFFFFFFFFFF
310
FFFFFFFFFFFFFFFFFFFFFFFFFFFFFFFFFFFFFFFFFFFFFFFFFFFFFFFFFFFFFFFF
310
FFFFFFFFFFFFFFFFFFFFFFFFFFFFFFFFFFFFFFFFFFFFFFFFFFFFFFFFFFFFFFFF
310
FFFFFFFFFFFFFFFFFFFFFFFFFFFFFFFFF000FFFFFFFFFFFFFFFFFFFFFFFFFFFF
310
FFFFFFFFFFFFFFFFFFFFFFFFFFFFFFFFFFFFFFFFFFFFFFFFFFFFFFFFFFFFFFFF
310
FFFFFFFFFFFFFFFFFFFFFFFFFFFFFFFFFFFFFFFFFFFFFFFFFFFFFFFFFFFFFFFF
310
FFFFFFFFFFFFFFFFF000FFFFF80003FFFFFFFFFFFFFFFFFFFFFFFFFFFFFFFFFF
310
FFFFF00007FFFFFFFFFF00007FFFFFF800000000000000007FFFFFFFFFFFFFFF
310
FFFFFFFC001FFFFFFFFFFFFFFC001FFFFFFFFFFFFFFFFFFFFFFFFFFE0007FFFF
310
F000FFFF8000007FFFFFFFF8000FFFFFC0007FFFFF80007FFFFF0000007FFFFF
310
FFF8000007FFFFF800000000000000007FFFFFF0001FFFFFFFFFFFC00001FFFF
310
FFFFFFFFC00001FFFFFFFF000000000003FFFFE000007FFFF000FFFE0000000F
310
FFFFFFF0000FFFFF80007FFFFF80007FFFFC0000001FFFFFFFC0000001FFFFF8
310
00000000000000007FFFFFF0001FFFFFFFFFFE0000003FFFFFFFFFFE0000003F
310
FFFFFF000000000003FFFF0000000FFFF000FFF800000003FFFFFFF00007FFFF
310
80007FFFFF80007FFFF000000007FFFFFF000000003FFFF80000000000000000
310
7FFFFFF0001FFFFFFFFFF80000000FFFFFFFFFF80000000FFFFFFF0000000000
310
03FFFC00000003FFF000FFE000000000FFFFFFF00007FFFF80003FFFFF80007F
310
FFC000000001FFFFFC000000001FFFF800000000000000007FFFFFF0001FFFFF
310
FFFFE000000003FFFFFFFFE000000003FFFFFF000000000003FFF000000000FF
310
F000FF80000000007FFFFFF00007FFFF80003FFFFF80007FFF8000000000FFFF
310
F80000000007FFF800000000000000007FFFFFF0001FFFFFFFFFC000000001FF
310
FFFFFFC000000001FFFFFF000000000003FFC0000000007FF000FF0000000000
310
3FFFFFE00007FFFF00003FFFFF80007FFE00000000003FFFF00000000003FFF8
310
00000000000000007FFFFFF0001FFFFFFFFF8000000000FFFFFFFF8000000000
310
FFFFFF000000000003FF80000000003FF000FE00000000001FFFFFE00003FFFF
310
00003FFFFF80007FFC00000000001FFFE00000000001FFF8000001FFFE000000
310
7FFFFFF0001FFFFFFFFE00000000003FFFFFFE00000000003FFFFF0000000000
310
03FF00000000001FF000FC00000000000FFFFFE00003FFFF00001FFFFF80007F
310
F800000000001FFFC00000000000FFF8000001FFFE0000007FFFFFF0001FFFFF
310
FFFC00000000001FFFFFFC00000000001FFFFF000000000003FE00000000000F
310
F000F8000000000007FFFFE00003FFFF00001FFFFF80007FF800000000000FFF
310
800000000000FFF8000001FFFE0000007FFFFFF0001FFFFFFFF800000000000F
310
FFFFF800000000000FFFFF000000000003FC000000000007F000F80000000000
310
03FFFFC00003FFFE00001FFFFF80007FF0000000000007FF0000000000007FF8
310
000001FFFE0000007FFFFFF0001FFFFFFFF0000000000007FFFFF00000000000
310
07FFFF000000000003F8000000000003F000F0000000000003FFFFC00001FFFE
310
00001FFFFF80007FE0000000000007FE0000000000003FF8000001FFFE000000
310
7FFFFFF0001FFFFFFFF0000000000007FFFFF0000000000007FFFF0000000000
310
03F800001F800003F000E00001FFF00001FFFFC00001FFFE00000FFFFF80007F
310
E00001FFE00003FE00001FFF00003FF8000001FFFE0000007FFFFFF0001FFFFF
310
FFE000003E000003FFFFE000003E000003FFFF000000000003F00001FFF80001
310
F000E00007FFFC0001FFFFC00001FFFE00000FFFFF80007FC0000FFFFC0003FC
310
0000FFFFC0001FF8000001FFFE0000007FFFFFF0001FFFFFFFC00003FFE00001
310
FFFFC00003FFE00001FFFF0001FFFFFFFFF00007FFFE0001F000E0000FFFFF00
310
00FFFF800001FFFC00000FFFFF80007FC0001FFFFE0001FC0001FFFFE0001FF8
310
000001FFFE0000007FFFFFF0001FFFFFFF80000FFFF80000FFFF80000FFFF800
310
00FFFF0003FFFFFFFFE0000FFFFF8000F000C0003FFFFF8000FFFF800000FFFC
310
000007FFFF80007F80003FFFFF0001FC0003FFFFF0001FF8000001FFFE000000
310
7FFFFFF0001FFFFFFF80003FFFFE0000FFFF80003FFFFE0000FFFF0003FFFFFF
310
FFE0003FFFFF8000F000C0003FFFFF8000FFFF800000FFFC000007FFFF80007F
310
80007FFFFF8001F80007FFFFF8000FF8000001FFFE0000007FFFFFF0001FFFFF
310
FF00007FFFFF00007FFF00007FFFFF00007FFF0003FFFFFFFFE0003FFFFFC000
310
F000C0007FFFFFC000FFFF000000FFFC000007FFFF80007F8000FFFFFF8000F8
310
000FFFFFF8000FF8000001FFFE0000007FFFFFF0001FFFFFFF0000FFFFFF8000
310
7FFF0000FFFFFF80007FFF0003FFFFFFFFC0007FFFFFC00070008000FFFFFFC0
310
00FFFF000000FFF8000007FFFF80007F8000FFFFFF8000F8000FFFFFF8000FF8
310
000001FFFE0000007FFFFFF0001FFFFFFE0001FFFFFFC0003FFE0001FFFFFFC0
310
003FFF0003FFFFFFFFC0007FFFFFE00070008000FFFFFFC0007FFF0000007FF8
310
000003FFFF80007F0001FFFFFF8000F8000FFFFFF8000FF8000001FFFE000000
310
7FFFFFF0001FFFFFFE0001FFFFFFC0003FFE0001FFFFFFC0003FFF0003FFFFFF
310
FFC000FFFFFFE00070008000FFFFFFC0007FFF0000007FF8000003FFFF80007F
310
0001FFFFFF8000F8001FFFFFF8000FF8000001FFFE0000007FFFFFF0001FFFFF
310
FE0003FFFFFFE0003FFE0003FFFFFFE0003FFF0003FFFFFFFFC000FFFFFFE000
310
70008000FFFFFFC0007FFE0000007FF8000003FFFF80007F0001FFFFFF8000F0
310
001FFFFFF8000FF8000001FFFE0000007FFFFFF0001FFFFFFC0003FFFFFFE000
310
1FFC0003FFFFFFE0001FFF0003FFFFFFFFC000FFFFFFC00070008000FFFFFF80
310
007FFE0000007FF0000003FFFF80007F0001FFFFFF0000F0001FFFFFF8000FF8
310
000001FFFE0000007FFFFFF0001FFFFFFC0007FFFFFFF0001FFC0007FFFFFFF0
310
001FFF0003FFFFFFFFC000FFFFFFC00070008001FFFFFF0000FFFE0000003FF0
310
000001FFFF80007F0001FFFFFF0000F8001FFFFFF0000FF8000001FFFE000000
310
7FFFFFF0001FFFFFFC0007FFFFFFF0001FFC0007FFFFFFF0001FFF0003FFFFFF
310
FFC001FFFFFF80007000FFFFFFFFFE0000FFFE0008003FF0008001FFFF80007F
310
FFFFFFFFFC0000FFFFFFFFFFE0000FF8000001FFFE0000007FFFFFF0001FFFFF
310
F8000FFFFFFFF8000FF8000FFFFFFFF8000FFF0003FFFFFFFFFFFFFFFFFF0000
310
7000FFFFFFFFFC0000FFFC0008003FF0008001FFFF80007FFFFFFFFFF80001FF
310
FFFFFFFF80000FF8000001FFFE0000007FFFFFF0001FFFFFF8000FFFFFFFF800
310
0FF8000FFFFFFFF8000FFF0003FFFFFFFFFFFFFFFFFE0000F000FFFFFFFFE000
310
00FFFC000C003FE000C001FFFF80007FFFFFFFFFC00001FFFFFFFFFE00001FF8
310
000001FFFE0000007FFFFFF0001FFFFFF8000FFFFFFFF8000FF8000FFFFFFFF8
310
000FFF0003FFFFFFFFFFFFFFFFF00000F000FFFFFFFE000001FFFC000C001FE0
310
00C000FFFF80007FFFFFFFFE000001FFFFFFFFE000001FF80FFFFFFFFFFFFFC0
310
7FFFFFF0001FFFFFF8000FFFFFFFF8000FF8000FFFFFFFF8000FFF0003FFFFFF
310
FFFFFFFFFF800000F000FFFFFFC0000001FFFC001C001FE001C000FFFF80007F
310
FFFFFF80000003FFFFFFF80000001FF80FFFFFFFFFFFFFC07FFFFFF0001FFFFF
310
F8001FFFFFFFFC000FF8001FFFFFFFFC000FFF0003FFFFFFFFFFFFFFF0000001
310
F000FFFFF800000001FFF8001C001FE001C000FFFF80007FFFFFF800000003FF
310
FFFF800000003FF80FFFFFFFFFFFFFC07FFFFFF0001FFFFFF8001FFFFFFFFC00
310
0FF8001FFFFFFFFC000FFF0003FFFFFFFFFFFFFE00000001F000FFFFC0000000
310
03FFF8001E001FC001E000FFFF80007FFFFF8000000007FFFFFC000000003FF8
310
0FFFFFFFFFFFFFC07FFFFFF0001FFFFFF8001FFFFFFFFC000FF8001FFFFFFFFC
310
000FFF0003FFFFFFFFFFFFE000000003F000FFFE0000000007FFF8001E000FC0
310
01E0007FFF80007FFFFE0000000007FFFFE0000000007FF80FFFFFFFFFFFFFC0
310
7FFFFFF0001FFFFFF0001FFFFFFFFC0007F0001FFFFFFFFC0007FF0003FFFFFF
310
FFFFFF0000000003F000FFF80000000007FFF8001E000FC003E0007FFF80007F
310
FFF0000000000FFFFF8000000000FFF80FFFFFFFFFFFFFC07FFFFFF0001FFFFF
310
F0001FFFFFFFFC0007F0001FFFFFFFFC0007FF0003FFFFFFFFFFFC0000000007
310
F000FFE0000000000FFFF0003E000FC003E0007FFF80007FFFC0000000001FFF
310
FE0000000001FFF80FFFFFFFFFFFFFC07FFFFFF0001FFFFFF0001FFFFFFFFC00
310
07F0001FFFFFFFFC0007FF0003FFFFFFFFFFF0000000000FF000FFC000000000
310
1FFFF0003F000F8003F0003FFF80007FFF80000000003FFFF80000000003FFF8
310
0FFFFFFFFFFFFFC07FFFFFF0001FFFFFF0001FFFFFFFFC0007F0001FFFFFFFFC
310
0007FF0003FFFFFFFFFFE0000000001FF000FF00000000007FFFF0003F000780
310
03F0003FFF80007FFF00000000007FFFF00000000007FFF80FFFFFFFFFFFFFC0
310
7FFFFFF0001FFFFFF0001FFFFFFFFC0007F0001FFFFFFFFC0007FF0003FFFFFF
310
FFFF80000000007FF000FE0000000000FFFFE0003F00078007F0003FFF80007F
310
FE0000000001FFFFE0000000001FFFF80FFFFFFFFFFFFFC07FFFFFF0001FFFFF
310
F0001FFFFFFFFC0007F0001FFFFFFFFC0007FF0003FFFFFFFFFF0000000000FF
310
F000FC0000000003FFFFE0007F00078007F0003FFF80007FFC0000000007FFFF
310
C0000000007FFFF80FFFFFFFFFFFFFC07FFFFFF0001FFFFFF8001FFFFFFFFC00
310
0FF8001FFFFFFFFC000FFF0003FFFFFFFFFE0000000003FFF000FC000000000F
310
FFFFE0007F80070007F8001FFF80007FF8000000001FFFFF8000000001FFFFF8
310
0FFFFFFFFFFFFFC07FFFFFF0001FFFFFF8001FFFFFFFFC000FF8001FFFFFFFFC
310
000FFF0003FFFFFFFFFC000000000FFFF000F8000000007FFFFFE0007F800700
310
07F8001FFF80007FF000000000FFFFFF800000000FFFFFF80FFFFFFFFFFFFFC0
310
7FFFFFF0001FFFFFF8000FFFFFFFF8000FF8000FFFFFFFF8000FFF0003FFFFFF
310
FFFC000000007FFFF000F800000007FFFFFFC0007F8003000FF8001FFF80007F
310
F000000007FFFFFF000000007FFFFFF80FFFFFFFFFFFFFC07FFFFFF0001FFFFF
310
F8000FFFFFFFF8000FF8000FFFFFFFF8000FFF0003FFFFFFFFF80000000FFFFF
310
F000F0000000FFFFFFFFC000FF8003000FF8001FFF80007FE0000000FFFFFFFF
310
0000000FFFFFFFF8000001FFFE0000007FFFFFF0001FFFFFF8000FFFFFFFF800
310
0FF8000FFFFFFFF8000FFF0003FFFFFFFFF8000000FFFFFFF000F000000FFFFF
310
FFFFC000FFC002000FF8000FFF80007FE000001FFFFFFFFE000001FFFFFFFFF8
310
000001FFFE0000007FFFFFF0001FFFFFF8000FFFFFFFF8000FF8000FFFFFFFF8
310
000FFF0003FFFFFFFFF000001FFFFFFFF000E00000FFFFFFFFFFC000FFC00200
310
0FFC000FFF80007FE00001FFFFFFFFFE00001FFFFFFFFFF8000001FFFE000000
310
7FFFFFF0001FFFFFFC000FFFFFFFF8001FFC000FFFFFFFF8001FFF0003FFFFFF
310
FFF00001FFFFFFFFF000E00007FFFFFFFFFF8000FFC000001FFC000FFF80007F
310
C0000FFFFFFFFFFE0000FFFFFFFFFFF8000001FFFE0000007FFFFFF0001FFFFF
310
FC0007FFFFFFF0001FFC0007FFFFFFF0001FFF0003FFFFFFFFF00007FFFFFFFF
310
F000E0001FFFFFFFFFFF8000FFC000001FFC000FFF80007FC0003FFFFFFFFFFE
310
0001FFFFFFFFFFF8000001FFFE0000007FFFFFF0001FFFFFFC0007FFFFFFF000
310
1FFC0007FFFFFFF0001FFF0003FFFFFFFFF0001FFFFFFFFFF000E0003FFFFF00
310
03FF8001FFE000001FFC0007FF80007FC0007FFFFF0007FC0003FFFFF0003FF8
310
000001FFFE0000007FFFFFF0001FFFFFFC0003FFFFFFE0001FFC0003FFFFFFE0
310
001FFF0003FFFFFFFFF0003FFFFFFFFFF000E0003FFFFF0001FF8001FFE00000
310
1FFE0007FF80007FC0007FFFFE0003FC0007FFFFE0003FF8000001FFFE000000
310
7FFFFFF0001FFFFFFE0003FFFFFFE0003FFE0003FFFFFFE0003FFF0003FFFFFF
310
FFF0003FFFFF8001F000E0003FFFFF0001FF0001FFE000001FFE0007FF80007F
310
C0007FFFFE0003FC0007FFFFE0003FF8000001FFFE0000007FFFFFF0001FFFFF
310
FE0001FFFFFFC0003FFE0001FFFFFFC0003FFF0003FFFFFFFFF0003FFFFF0001
310
F000E0003FFFFF0003FF0001FFE000003FFE0007FF80007FC0007FFFFE0003FC
310
0007FFFFE0003FF8000001FFFE0000007FFFFFF0001FFFFFFF0001FFFFFFC000
310
7FFF0001FFFFFFC0007FFF0003FFFFFFFFF0003FFFFF0001F000E0003FFFFE00
310
03FF0003FFF000003FFE0003FF80007FC0007FFFFC0003FE0007FFFFE0003FF8
310
000001FFFE0000007FFFFFF0001FFFFFFF0000FFFFFF80007FFF0000FFFFFF80
310
007FFF0003FFFFFFFFF0003FFFFF0001F000E0003FFFFE0003FF0003FFF00000
310
3FFF0003FF80007FC0007FFFFC0007FE0007FFFFC0003FF8000001FFFE000000
310
7FFFFFF0001FFFFFFF80007FFFFF0000FFFF80007FFFFF0000FFFF0003FFFFFF
310
FFF0003FFFFF0003F000E0003FFFFC0003FE0003FFF000003FFF0003FF80007F
310
E0003FFFF80007FE0003FFFFC0007FF8000001FFFE0000007FFFFFF0001FFFFF
310
FF80003FFFFE0000FFFF80003FFFFE0000FFFF0003FFFFFFFFF0001FFFFE0003
310
F000F0001FFFF80003FE0003FFF000007FFF0001FF80007FE0003FFFF00007FE
310
0001FFFF80007FF8000001FFFE0000007FFFFFF0001FFFFFFFC0000FFFF80001
310
FFFFC0000FFFF80001FFFF0003FFFFFFFFF0001FFFFC0003F000F0000FFFF000
310
07FE0007FFF800007FFF0001FF80007FE0001FFFE00007FF0000FFFE00007FF8
310
000001FFFE0000007FFFFFF0001FFFFFFFC00003FFE00001FFFFC00003FFE000
310
01FFFF0003FFFFFFFFF8000FFFF80003F000F00003FFC00007FC0007FFF80000
310
7FFF8001FF80007FF00007FF80000FFF00007FF80000FFF8000001FFFE000000
310
7F80000000000001FFE000003E000003FFFFE000003E000003FFFF0003FFFFFF
310
FFF80003FFE00007F000F800000000000FFC0007FFF800007FFF8001FF80007F
310
F000000000000FFF000000000000FFF8000001FFFE0000007F80000000000001
310
FFF0000000000007FFFFF0000000000007FFFF0003FFFFFFFFFC00007E000007
310
F000F800000000000FFC0007FFF80000FFFF8000FF80007FF800000000001FFF
310
800000000001FFF8000001FFFE0000007F80000000000001FFF800000000000F
310
FFFFF800000000000FFFFF0003FFFFFFFFFC00000000000FF000FC0000000000
310
1FFC0007FFFC0000FFFF8000FF80007FF800000000003FFFC00000000001FFF8
310
000001FFFE0000007F80000000000001FFF800000000000FFFFFF80000000000
310
0FFFFF0003FFFFFFFFFE00000000001FF000FE00000000003FF8000FFFFC0000
310
FFFF8000FF80007FFC00000000003FFFC00000000003FFF8000001FFFE000000
310
7F80000000000001FFFC00000000001FFFFFFC00000000001FFFFF0003FFFFFF
310
FFFF00000000001FF000FF00000000003FF8000FFFFC0000FFFFC000FF80007F
310
FE00000000007FFFE00000000007FFF8000001FFFE0000007F80000000000001
310
FFFE00000000003FFFFFFE00000000003FFFFF0003FFFFFFFFFF80000000003F
310
F000FF80000000007FF8000FFFFC0001FFFFC0007F80007FFF0000000000FFFF
310
F0000000000FFFF800000000000000007F80000000000001FFFF8000000000FF
310
FFFFFF8000000000FFFFFF0003FFFFFFFFFFC0000000007FF000FFC000000000
310
FFF8000FFFFE0001FFFFC0007F80007FFF8000000001FFFFF8000000001FFFF8
310
00000000000000007F80000000000001FFFFC000000001FFFFFFFFC000000001
310
FFFFFF0003FFFFFFFFFFE000000000FFF000FFE000000003FFF0001FFFFE0001
310
FFFFC0007F80007FFFC000000007FFFFFE000000003FFFF80000000000000000
310
7F80000000000001FFFFE000000003FFFFFFFFE000000003FFFFFF0003FFFFFF
310
FFFFF000000003FFF000FFF80000000FFFF0001FFFFE0001FFFFE0007F80007F
310
FFF00000000FFFFFFF00000000FFFFF800000000000000007F80000000000001
310
FFFFF80000000FFFFFFFFFF80000000FFFFFFF0003FFFFFFFFFFFC0000000FFF
310
F000FFFE0000003FFFF0001FFFFE0003FFFFE0003F80007FFFFC0000003FFFFF
310
FFC0000003FFFFF800000000000000007F80000000000001FFFFFE0000003FFF
310
FFFFFFFE0000003FFFFFFF0003FFFFFFFFFFFF0000003FFFF000FFFF800000FF
310
FFF0001FFFFF0003FFFFE0003F80007FFFFF000001FFFFFFFFF800001FFFFFF8
310
00000000000000007F80000000000001FFFFFFC00001FFFFFFFFFFFFC00001FF
310
FFFFFF0003FFFFFFFFFFFFC00000FFFFF000FFFFF8000FFFFFFFFFFFFFFFFFFF
310
FFFFFFFFFFFFFFFFFFFFF0001FFFFFFFFFFF0000FFFFFFF80000000000000000
310
7FFFFFFFFFFFFFFFFFFFFFFC001FFFFFFFFFFFFFFC001FFFFFFFFFFFFFFFFFFF
310
FFFFFFFC001FFFFFF000FFFFFFFFFFFFFFFFFFFFFFFFFFFFFFFFFFFFFFFFFFFF
310
FFFFFFFFFFFFFFFFFFFFFFFFFFFFFFFFFFFFFFFFFFFFFFFFFFFFFFFFFFFFFFFF
310
FFFFFFFFFFFFFFFFFFFFFFFFFFFFFFFFFFFFFFFFFFFFFFFFFFFFFFFFFFFFFFFF
310
F000FFFFFFFFFFFFFFFFFFFFFFFFFFFFFFFFFFFFFFFFFFFFFFFFFFFFFFFFFFFF
310
FFFFFFFFFFFFFFFFFFFFFFFFFFFFFFFFFFFFFFFFFFFFFFFFFFFFFFFFFFFFFFFF
310
FFFFFFFFFFFFFFFFFFFFFFFFFFFFFFFFFFFFFFFFFFFFFFFFF000FFFFFFFFFFFF
310
FFFFFFFFFFFFFFFFFFFFFFFFFFFFFFFFFFFFFFFFFFFFFFFFFFFFFFFFFFFFFFFF
310
FFFFFFFFFFFFFFFFFFFFFFFFFFFFFFFFFFFFFFFFFFFFFFFFFFFFFFFFFFFFFFFF
310
FFFFFFFFFFFFFFFFFFFFFFFFFFFFFFFFF000FFFFFFFFFFFFFFFFFFFFFFFFFFFF
310
FFFFFFFFFFFFFFFFFFFFFFFFFFFFFFFFFFFFFFFFFFFFFFFFFFFFFFFFFFFFFFFF
310
FFFFFFFFFFFFFFFFFFFFFFFFFFFFFFFFFFFFFFFFFFFFFFFFFFFFFFFFFFFFFFFF
310
FFFFFFFFFFFFFFFFF000FFFFFFFFFFFFFFFFFFFFFFFFFFFFFFFFFFFFFFFFFFFF
310
FFFFFFFFFFFFFFFFFFFFFFFFFFFFFFFFFFFFFFFFFFFFFFFFFFFFFFFFFFFFFFFF
310
FFFFFFFFFFFFFFFFFFFFFFFFFFFFFFFFFFFFFFFFFFFFFFFFFFFFFFFFFFFFFFFF
310
F000FFFFFFFFFFFFFFFFFFFFFFFFFFFFFFFFFFFFFFFFFFFFFFFFFFFFFFFFFFFF
310
FFFFFFFFFFFFFFFFFFFFFFFFFFFFFFFFFFFFFFFFFFFFFFFFFFFFFFFFFFFFFFFF
310
FFFFFFFFFFFFFFFFFFFFFFFFFFFFFFFFFFFFFFFFFFFFFFFFF000FFFFFFFFFFFF
310
FFFFFFFFFFFFFFFFFFFFFFFFFFFFFFFFFFFFFFFFFFFFFFFFFFFFFFFFFFFFFFFF
310
FFFFFFFFFFFFFFFFFFFFFFFFFFFFFFFFFFFFFFFFFFFFFFFFFFFFFFFFFFFFFFFF
310
FFFFFFFFFFFFFFFFFFFFFFFFFFFFFFFFF000FFFFFFFFFFFFFFFFFFFFFFFFFFFF
310
FFFFFFFFFFFFFFFFFFFFFFFFFFFFFFFFFFFFFFFFFFFFFFFFFFFFFFFFFFFFFFFF
310
FFFFFFFFFFFFFFFFFFFFFFFFFFFFFFFFFFFFFFFFFFFFFFFFFFFFFFFFFFFFFFFF
310
FFFFFFFFFFFFFFFFF000FFFFFFFFFFFFFFFFFFFFFFFFFFFFFFFFFFFFFFFFFFFF
310
FFFFFFFFFFFFFFFFFFFFFFFFFFFFFFFFFFFFFFFFFFFFFFFFFFFFFFFFFFFFFFFF
310
FFFFFFFFFFFFFFFFFFFFFFFFFFFFFFFFFFFFFFFFFFFFFFFFFFFFFFFFFFFFFFFF
310
F000FFFFFFFFFFFFFFFFFFFFFFFFFFFFFFFFFFFFFFFFFFFFFFFFFFFFFFFFFFFF
310
FFFFFFFFFFFFFFFFFFFFFFFFFFFFFFFFFFFFFFFFFFFFFFFFFFFFFFFFFFFFFFFF
310
FFFFFFFFFFFFFFFFFFFFFFFFFFFFFFFFFFFFFFFFFFFFFFFFF000FFFFFFFFFFFF
310
FFFFFFFFFFFFFFFFFFFFFFFFFFFFFFFFFFFFFFFFFFFFFFFFFFFFFFFFFFFFFFFF
310
FFFFFFFFFFFFFFFFFFFFFFFFFFFFFFFFFFFFFFFFFFFFFFFFFFFFFFFFFFFFFFFF
310
FFFFFFFFFFFFFFFFFFFFFFFFFFFFFFFFF000FFFFFFFFFFFFFFFFFFFFFFFFFFFF
310
FFFFFFFFFFFFFFFFFFFFFFFFFFFFFFFFFFFFFFFFFFFFFFFFFFFFFFFFFFFFFFFF
310
FFFFFFFFFFFFFFFFFFFFFFFFFFFFFFFFFFFFFFFFFFFFFFFFFFFFFFFFFFFFFFFF
310
FFFFFFFFFFFFFFFFF000FFFFFFFFFFFFFFFFFFFFFFFFFFFFFFFFFFFFFFFFFFFF
310
FFFFFFFFFFFFFFFFFFFFFFFFFFFFFFFFFFFFFFFFFFFFFFFFFFFFFFFFFFFFFFFF
310
FFFFFFFFFFFFFFFFFFFFFFFFFFFFFFFFFFFFFFFFFFFFFFFFFFFFFFFFFFFFFFFF
310
F000FFFFFFFFFFFFFFFFFFFFFFFFFFFFFFFFFFFFFFFFFFFFFFFFFFFFFFFFFFFF
310
FFFFFFFFFFFFFFFFFFFFFFFFFFFFFFFFFFFFFFFFFFFFFFFFFFFFFFFFFFFFFFFF
310
FFFFFFFFFFFFFFFFFFFFFFFFFFFFFFFFFFFFFFFFFFFFFFFFF000FFFFFFFFFFFF
310
FFFFFFFFFFFFFFFFFFFFFFFFFFFFFFFFFFFFFFFFFFFFFFFFFFFFFFFFFFFFFFFF
310
FFFFFFFFFFFFFFFFFFFFFFFFFFFFFFFFFFFFFFFFFFFFFFFFFFFFFFFFFFFFFFFF
310
FFFFFFFFFFFFFFFFFFFFFFFFFFFFFFFFF000FFFFFFFFFFFFFFFFFFFFFFFFFFFF
310
FFFFFFFFFFFFFFFFFFFFFFFFFFFFFFFFFFFFFFFFFFFFFFFFFFFFFFFFFFFFFFFF
310
FFFFFFFFFFFFFFFFFFFFFFFFFFFFFFFFFFFFFFFFFFFFFFFFFFFFFFFFFFFFFFFF
310
FFFFFFFFFFFFFFFFF000FFFFFFFFFFFFFFFFFFFFFFFFFFFFFFFFFFFFFFFFFFFF
310
FFFFFFFFFFFFFFFFFFFFFFFFFFFFFFFFFFFFFFFFFFFFFFFFFFFFFFFFFFFFFFFF
310
FFFFFFFFFFFFFFFFFFFFFFFFFFFFFFFFFFFFFFFFFFFFFFFFFFFFFFFFFFFFFFFF
310
F000FFFFFFFFFFFFFFFFFFFFFFFFFFFFFFFFFFFFFFFFFFFFFFFFFFFFFFFFFFFF
310
FFFFFFFFFFFFFFFFFFFFFFFFFFFFFFFFFFFFFFFFFFFFFFFFFFFFFFFFFFFFFFFF
310
FFFFFFFFFFFFFFFFFFFFFFFFFFFFFFFFFFFFFFFFFFFFFFFFF000FFFFFFFFFFFF
310
FFFFFFFFFFFFFFFFFFFFFFFFFFFFFFFFFFFFFFFFFFFFFFFFFFFFFFFFFFFFFFFF
310
FFFFFFFFFFFFFFFFFFFFFFFFFFFFFFFFFFFFFFFFFFFFFFFFFFFFFFFFFFFFFFFF
310
FFFFFFFFFFFFFFFFFFFFFFFFFFFFFFFFF000FFFFFFFFFFFFFFFFFFFFFFFFFFFF
310
FFFFFFFFFFFFFFFFFFFFFFFFFFFFFFFFFFFFFFFFFFFFFFFFFFFFFFFFFFFFFFFF
310
FFFFFFFFFFFFFFFFFFFFFFFFFFFFFFFFFFFFFFFFFFFFFFFFFFFFFFFFFFFFFFFF
310
FFFFFFFFFFFFFFFFF000FFFFFFFFFFFFFFFFFFFFFFFFFFFFFFFFFFFFFFFFFFFF
310
FFFFFFFFFFFFFFFFFFFFFFFFFFFFFFFFFFFFFFFFFFFFFFFFFFFFFFFFFFFFFFFF
310
FFFFFFFFFFFFFFFFFFFFFFFFFFFFFFFFFFFFFFFFFFFFFFFFFFFFFFFFFFFFFFFF
310
F000FFFFFFFFFFFFFFFFFFFFFFFFFFFFFFFFFFFFFFFFFFFFFFFFFFFFFFFFFFFF
310
FFFFFFFFFFFFFFFFFFFFFFFFFFFFFFFFFFFFFFFFFFFFFFFFFFFFFFFFFFFFFFFF
310
FFFFFFFFFFFFFFFFFFFFFFFFFFFFFFFFFFFFFFFFFFFFFFFFF000FFFFFFFFFFFF
310
FFFFFFFFFFFFFFFFFFFFFFFFFFFFFFFFFFFFFFFFFFFFFFFFFFFFFFFFFFFFFFFF
310
FFFFFFFFFFFFFFFFFFFFFFFFFFFFFFFFFFFFFFFFFFFFFFFFFFFFFFFFFFFFFFFF
310
FFFFFFFFFFFFFFFFFFFFFFFFFFFFFFFFF0000000000000000000000000000000
310
0000000000000000000000000000000000000000000000000000000000000000
310
0000000000000000000000000000000000000000000000000000000000000000
310
0000000000000000000000000000000000000000000000000000000000000000
310
0000000000000000000000000000000000000000000000000000000000000000
310
0000000000000000000000000000000000000000000000000000000000000000
310
0000000000000000000000000000000000000000000000000000000000000000
310
0000000000000000000000000000000000000000000000000000000000000000
310
0000000000000000000000000000000000000000000000000000000000000000
310
0000000000000000000000000000000000000000000000000000000000000000
310
0000000000000000000000000000000000000000000000000000000000000000
310
0000000000000000000000000000000000000000000000000000000000000000
310
0000000000000000000000000000000000000000000000000000000000000000
310
0000000000000000000000000000000000000000000000000000000000000000
310
0000000000000000000000000000000000000000000000000000000000000000
310
0000000000000000000000000000000000000000000000000000000000000000
  1
OLE
  0
ENDSEC
  0
SECTION
  2
OBJECTS
  0
DICTIONARY
  5
C
330
0
100
AcDbDictionary
281
     1
  3
ACAD_GROUP
350
D
  3
ACAD_LAYOUT
350
1A
  3
ACAD_MLINESTYLE
350
17
  3
ACAD_PLOTSETTINGS
350
19
  3
ACAD_PLOTSTYLENAME
350
E
  0
DICTIONARY
  5
D
102
{ACAD_REACTORS
330
C
102
}
330
C
100
AcDbDictionary
281
     1
  0
DICTIONARY
  5
1A
102
{ACAD_REACTORS
330
C
102
}
330
C
100
AcDbDictionary
281
     1
  3
Layout1
350
1E
  3
Layout2
350
26
  3
Model
350
22
  0
DICTIONARY
  5
17
102
{ACAD_REACTORS
330
C
102
}
330
C
100
AcDbDictionary
281
     1
  3
Standard
350
18
  0
DICTIONARY
  5
19
102
{ACAD_REACTORS
330
C
102
}
330
C
100
AcDbDictionary
281
     1
  0
ACDBDICTIONARYWDFLT
  5
E
102
{ACAD_REACTORS
330
C
102
}
330
C
100
AcDbDictionary
281
     1
  3
Normal
350
F
100
AcDbDictionaryWithDefault
340
F
  0
LAYOUT
  5
1E
102
{ACAD_REACTORS
330
1A
102
}
330
1A
100
AcDbPlotSettings
  1

  2
none_device
  4

  6

 40
0.0
 41
0.0
 42
0.0
 43
0.0
 44
0.0
 45
0.0
 46
0.0
 47
0.0
 48
0.0
 49
0.0
140
0.0
141
0.0
142
1.0
143
1.0
 70
   688
 72
     0
 73
     0
 74
     5
  7

 75
    16
147
1.0
148
0.0
149
0.0
100
AcDbLayout
  1
Layout1
 70
     1
 71
     1
 10
0.0
 20
0.0
 11
420.0
 21
297.0
 12
0.0
 22
0.0
 32
0.0
 14
1.0000000000E+20
 24
1.0000000000E+20
 34
1.0000000000E+20
 15
-1.0000000000E+20
 25
-1.0000000000E+20
 35
-1.0000000000E+20
146
0.0
 13
0.0
 23
0.0
 33
0.0
 16
1.0
 26
0.0
 36
0.0
 17
0.0
 27
1.0
 37
0.0
 76
     0
330
1B
  0
LAYOUT
  5
26
102
{ACAD_REACTORS
330
1A
102
}
330
1A
100
AcDbPlotSettings
  1

  2
none_device
  4

  6

 40
0.0
 41
0.0
 42
0.0
 43
0.0
 44
0.0
 45
0.0
 46
0.0
 47
0.0
 48
0.0
 49
0.0
140
0.0
141
0.0
142
1.0
143
1.0
 70
   688
 72
     0
 73
     0
 74
     5
  7

 75
    16
147
1.0
148
0.0
149
0.0
100
AcDbLayout
  1
Layout2
 70
     1
 71
     2
 10
0.0
 20
0.0
 11
0.0
 21
0.0
 12
0.0
 22
0.0
 32
0.0
 14
0.0
 24
0.0
 34
0.0
 15
0.0
 25
0.0
 35
0.0
146
0.0
 13
0.0
 23
0.0
 33
0.0
 16
1.0
 26
0.0
 36
0.0
 17
0.0
 27
1.0
 37
0.0
 76
     0
330
23
  0
LAYOUT
  5
22
102
{ACAD_REACTORS
330
1A
102
}
330
1A
100
AcDbPlotSettings
  1

  2
none_device
  4

  6

 40
0.0
 41
0.0
 42
0.0
 43
0.0
 44
0.0
 45
0.0
 46
0.0
 47
0.0
 48
0.0
 49
0.0
140
0.0
141
0.0
142
1.0
143
1.0
 70
  1712
 72
     0
 73
     0
 74
     0
  7

 75
     0
147
1.0
148
0.0
149
0.0
100
AcDbLayout
  1
Model
 70
     1
 71
     0
 10
0.0
 20
0.0
 11
297.0
 21
210.0
 12
0.0
 22
0.0
 32
0.0
 14
0.0
 24
0.0
 34
0.0
 15
297.0
 25
210.0
 35
0.0
146
0.0
 13
0.0
 23
0.0
 33
0.0
 16
1.0
 26
0.0
 36
0.0
 17
0.0
 27
1.0
 37
0.0
 76
     0
330
1F
331
29
  0
MLINESTYLE
  5
18
102
{ACAD_REACTORS
330
17
102
}
330
17
100
AcDbMlineStyle
  2
Standard
 70
     0
  3

 62
   256
 51
90.0
 52
90.0
 71
     2
 49
0.5
 62
   256
  6
BYLAYER
 49
-0.5
 62
   256
  6
BYLAYER
  0
ACDBPLACEHOLDER
  5
F
102
{ACAD_REACTORS
330
E
102
}
330
E
  0
ENDSEC
  0
EOF
