  0
SECTION
  2
HEADER
  9
$ACADVER
  1
AC1015
  9
$ACADMAINTVER
 70
     6
  9
$DWGCODEPAGE
  3
ANSI_1252
  9
$INSBASE
 10
0.0
 20
0.0
 30
0.0
  9
$EXTMIN
 10
0.0
 20
0.0
 30
0.0
  9
$EXTMAX
 10
297.0
 20
210.0
 30
0.0
  9
$LIMMIN
 10
0.0
 20
0.0
  9
$LIMMAX
 10
297.0
 20
210.0
  9
$ORTHOMODE
 70
     0
  9
$REGENMODE
 70
     1
  9
$FILLMODE
 70
     1
  9
$QTEXTMODE
 70
     0
  9
$MIRRTEXT
 70
     1
  9
$LTSCALE
 40
1.0
  9
$ATTMODE
 70
     1
  9
$TEXTSIZE
 40
2.0
  9
$TRACEWID
 40
1.0
  9
$TEXTSTYLE
  7
Standard
  9
$CLAYER
  8
0
  9
$CELTYPE
  6
ByLayer
  9
$CECOLOR
 62
   256
  9
$CELTSCALE
 40
1.0
  9
$DISPSILH
 70
     0
  9
$DIMSCALE
 40
1.0
  9
$DIMASZ
 40
3.0
  9
$DIMEXO
 40
0.0
  9
$DIMDLI
 40
3.75
  9
$DIMRND
 40
0.0
  9
$DIMDLE
 40
0.0
  9
$DIMEXE
 40
1.0
  9
$DIMTP
 40
0.0
  9
$DIMTM
 40
0.0
  9
$DIMTXT
 40
2.0
  9
$DIMCEN
 40
2.5
  9
$DIMTSZ
 40
0.0
  9
$DIMTOL
 70
     0
  9
$DIMLIM
 70
     0
  9
$DIMTIH
 70
     1
  9
$DIMTOH
 70
     1
  9
$DIMSE1
 70
     0
  9
$DIMSE2
 70
     0
  9
$DIMTAD
 70
     1
  9
$DIMZIN
 70
     0
  9
$DIMBLK
  1

  9
$DIMASO
 70
     1
  9
$DIMSHO
 70
     1
  9
$DIMPOST
  1

  9
$DIMAPOST
  1

  9
$DIMALT
 70
     0
  9
$DIMALTD
 70
     3
  9
$DIMALTF
 40
0.0393700787
  9
$DIMLFAC
 40
1.0
  9
$DIMTOFL
 70
     1
  9
$DIMTVP
 40
0.0
  9
$DIMTIX
 70
     0
  9
$DIMSOXD
 70
     0
  9
$DIMSAH
 70
     0
  9
$DIMBLK1
  1

  9
$DIMBLK2
  1

  9
$DIMSTYLE
  2
ISO-25
  9
$DIMCLRD
 70
     0
  9
$DIMCLRE
 70
     0
  9
$DIMCLRT
 70
     0
  9
$DIMTFAC
 40
1.0
  9
$DIMGAP
 40
1.524
  9
$DIMJUST
 70
     0
  9
$DIMSD1
 70
     0
  9
$DIMSD2
 70
     0
  9
$DIMTOLJ
 70
     0
  9
$DIMTZIN
 70
     0
  9
$DIMALTZ
 70
     0
  9
$DIMALTTZ
 70
     0
  9
$DIMUPT
 70
     0
  9
$DIMDEC
 70
     2
  9
$DIMTDEC
 70
     3
  9
$DIMALTU
 70
     2
  9
$DIMALTTD
 70
     3
  9
$DIMTXSTY
  7
Standard
  9
$DIMAUNIT
 70
     0
  9
$DIMADEC
 70
     2
  9
$DIMALTRND
 40
0.0
  9
$DIMAZIN
 70
     0
  9
$DIMDSEP
 70
    44
  9
$DIMATFIT
 70
     3
  9
$DIMFRAC
 70
     0
  9
$DIMLDRBLK
  1

  9
$DIMLUNIT
 70
     2
  9
$DIMLWD
 70
    -2
  9
$DIMLWE
 70
    -2
  9
$DIMTMOVE
 70
     0
  9
$LUNITS
 70
     2
  9
$LUPREC
 70
     2
  9
$SKETCHINC
 40
1.0
  9
$FILLETRAD
 40
10.0
  9
$AUNITS
 70
     0
  9
$AUPREC
 70
     2
  9
$MENU
  1
.
  9
$ELEVATION
 40
0.0
  9
$PELEVATION
 40
0.0
  9
$THICKNESS
 40
0.0
  9
$LIMCHECK
 70
     0
  9
$CHAMFERA
 40
10.0
  9
$CHAMFERB
 40
10.0
  9
$CHAMFERC
 40
20.0
  9
$CHAMFERD
 40
0.0
  9
$SKPOLY
 70
     0
  9
$TDCREATE
 40
2456084.569097523
  9
$TDUCREATE
 40
2456084.48576419
  9
$TDUPDATE
 40
2456084.569099144
  9
$TDUUPDATE
 40
2456084.48576581
  9
$TDINDWG
 40
0.0000000116
  9
$TDUSRTIMER
 40
0.0000000116
  9
$USRTIMER
 70
     1
  9
$ANGBASE
 50
0.0
  9
$ANGDIR
 70
     0
  9
$PDMODE
 70
     0
  9
$PDSIZE
 40
-1.0
  9
$PLINEWID
 40
0.0
  9
$SPLFRAME
 70
     0
  9
$SPLINETYPE
 70
     6
  9
$SPLINESEGS
 70
     8
  9
$HANDSEED
  5
291
  9
$SURFTAB1
 70
     6
  9
$SURFTAB2
 70
     6
  9
$SURFTYPE
 70
     6
  9
$SURFU
 70
     6
  9
$SURFV
 70
     6
  9
$UCSBASE
  2

  9
$UCSNAME
  2

  9
$UCSORG
 10
0.0
 20
0.0
 30
0.0
  9
$UCSXDIR
 10
1.0
 20
0.0
 30
0.0
  9
$UCSYDIR
 10
0.0
 20
1.0
 30
0.0
  9
$UCSORTHOREF
  2

  9
$UCSORTHOVIEW
 70
     0
  9
$UCSORGTOP
 10
0.0
 20
0.0
 30
0.0
  9
$UCSORGBOTTOM
 10
0.0
 20
0.0
 30
0.0
  9
$UCSORGLEFT
 10
0.0
 20
0.0
 30
0.0
  9
$UCSORGRIGHT
 10
0.0
 20
0.0
 30
0.0
  9
$UCSORGFRONT
 10
0.0
 20
0.0
 30
0.0
  9
$UCSORGBACK
 10
0.0
 20
0.0
 30
0.0
  9
$PUCSBASE
  2

  9
$PUCSNAME
  2

  9
$PUCSORG
 10
0.0
 20
0.0
 30
0.0
  9
$PUCSXDIR
 10
1.0
 20
0.0
 30
0.0
  9
$PUCSYDIR
 10
0.0
 20
1.0
 30
0.0
  9
$PUCSORTHOREF
  2

  9
$PUCSORTHOVIEW
 70
     0
  9
$PUCSORGTOP
 10
0.0
 20
0.0
 30
0.0
  9
$PUCSORGBOTTOM
 10
0.0
 20
0.0
 30
0.0
  9
$PUCSORGLEFT
 10
0.0
 20
0.0
 30
0.0
  9
$PUCSORGRIGHT
 10
0.0
 20
0.0
 30
0.0
  9
$PUCSORGFRONT
 10
0.0
 20
0.0
 30
0.0
  9
$PUCSORGBACK
 10
0.0
 20
0.0
 30
0.0
  9
$USERI1
 70
     0
  9
$USERI2
 70
     0
  9
$USERI3
 70
     0
  9
$USERI4
 70
     0
  9
$USERI5
 70
     0
  9
$USERR1
 40
0.0
  9
$USERR2
 40
0.0
  9
$USERR3
 40
0.0
  9
$USERR4
 40
0.0
  9
$USERR5
 40
0.0
  9
$WORLDVIEW
 70
     1
  9
$SHADEDGE
 70
     3
  9
$SHADEDIF
 70
    70
  9
$TILEMODE
 70
     1
  9
$MAXACTVP
 70
    64
  9
$PINSBASE
 10
0.0
 20
0.0
 30
0.0
  9
$PLIMCHECK
 70
     0
  9
$PEXTMIN
 10
1.0000000000E+20
 20
1.0000000000E+20
 30
1.0000000000E+20
  9
$PEXTMAX
 10
-1.0000000000E+20
 20
-1.0000000000E+20
 30
-1.0000000000E+20
  9
$PLIMMIN
 10
0.0
 20
0.0
  9
$PLIMMAX
 10
420.0
 20
297.0
  9
$UNITMODE
 70
     0
  9
$VISRETAIN
 70
     1
  9
$PLINEGEN
 70
     0
  9
$PSLTSCALE
 70
     1
  9
$TREEDEPTH
 70
  3020
  9
$CMLSTYLE
  2
Standard
  9
$CMLJUST
 70
     0
  9
$CMLSCALE
 40
20.0
  9
$PROXYGRAPHICS
 70
     1
  9
$MEASUREMENT
 70
     1
  9
$CELWEIGHT
370
    -1
  9
$ENDCAPS
280
     0
  9
$JOINSTYLE
280
     0
  9
$LWDISPLAY
290
     1
  9
$INSUNITS
 70
     4
  9
$HYPERLINKBASE
  1

  9
$STYLESHEET
  1

  9
$XEDIT
290
     1
  9
$CEPSNTYPE
380
     0
  9
$PSTYLEMODE
290
     1
  9
$FINGERPRINTGUID
  2
{7656AB64-E3EB-4AA1-90CB-005B0C3DC75B}
  9
$VERSIONGUID
  2
{FAEB1C32-E019-11D5-929B-00C0DF256EC4}
  9
$EXTNAMES
290
     1
  9
$PSVPSCALE
 40
0.0
  9
$OLESTARTUP
290
     0
  0
ENDSEC
  0
SECTION
  2
CLASSES
  0
CLASS
  1
ACDBDICTIONARYWDFLT
  2
AcDbDictionaryWithDefault
  3
ObjectDBX Classes
 90
        0
280
     0
281
     0
  0
CLASS
  1
VISUALSTYLE
  2
AcDbVisualStyle
  3
ObjectDBX Classes
 90
     4095
280
     0
281
     0
  0
CLASS
  1
MATERIAL
  2
AcDbMaterial
  3
ObjectDBX Classes
 90
     1153
280
     0
281
     0
  0
CLASS
  1
ACDBPLACEHOLDER
  2
AcDbPlaceHolder
  3
ObjectDBX Classes
 90
        0
280
     0
281
     0
  0
CLASS
  1
LAYOUT
  2
AcDbLayout
  3
ObjectDBX Classes
 90
        0
280
     0
281
     0
  0
ENDSEC
  0
SECTION
  2
TABLES
  0
TABLE
  2
VPORT
  5
8
330
0
100
AcDbSymbolTable
 70
     1
  0
VPORT
  5
29
330
8
100
AcDbSymbolTableRecord
100
AcDbViewportTableRecord
  2
*Active
 70
     0
 10
0.0
 20
0.0
 11
1.0
 21
1.0
 12
148.5
 22
105.0
 13
0.0
 23
0.0
 14
10.0
 24
10.0
 15
10.0
 25
10.0
 16
0.0
 26
0.0
 36
1.0
 17
0.0
 27
0.0
 37
0.0
 40
210.0
 41
1.4142857143
 42
50.0
 43
0.0
 44
0.0
 50
0.0
 51
0.0
 71
     0
 72
  2000
 73
     1
 74
     3
 75
     0
 76
     0
 77
     0
 78
     0
281
     0
 65
     1
110
0.0
120
0.0
130
0.0
111
1.0
121
0.0
131
0.0
112
0.0
122
1.0
132
0.0
 79
     0
146
0.0
  0
ENDTAB
  0
TABLE
  2
LTYPE
  5
5
330
0
100
AcDbSymbolTable
 70
     6
  0
LTYPE
  5
14
330
5
100
AcDbSymbolTableRecord
100
AcDbLinetypeTableRecord
  2
ByBlock
 70
     0
  3

 72
    65
 73
     0
 40
0.0
  0
LTYPE
  5
15
330
5
100
AcDbSymbolTableRecord
100
AcDbLinetypeTableRecord
  2
ByLayer
 70
     0
  3

 72
    65
 73
     0
 40
0.0
  0
LTYPE
  5
16
330
5
100
AcDbSymbolTableRecord
100
AcDbLinetypeTableRecord
  2
Continuous
 70
     0
  3
Solid line
 72
    65
 73
     0
 40
0.0
  0
LTYPE
  5
3F
330
5
100
AcDbSymbolTableRecord
100
AcDbLinetypeTableRecord
  2
HIDDEN
 70
     0
  3
Hidden __ __ __ __ __ __ __ __ __ __ __ __ __ __
 72
    65
 73
     2
 40
1.905
 49
1.27
 74
     0
 49
-0.635
 74
     0
  0
LTYPE
  5
40
330
5
100
AcDbSymbolTableRecord
100
AcDbLinetypeTableRecord
  2
PHANTOM
 70
     0
  3
Phantom ______  __  __  ______  __  __  ______
 72
    65
 73
     6
 40
12.7
 49
6.35
 74
     0
 49
-1.27
 74
     0
 49
1.27
 74
     0
 49
-1.27
 74
     0
 49
1.27
 74
     0
 49
-1.27
 74
     0
  0
LTYPE
  5
41
330
5
100
AcDbSymbolTableRecord
100
AcDbLinetypeTableRecord
  2
CENTER
 70
     0
  3
Center ____ _ ____ _ ____ _ ____ _ ____ _ ____
 72
    65
 73
     4
 40
10.16
 49
6.35
 74
     0
 49
-1.27
 74
     0
 49
1.27
 74
     0
 49
-1.27
 74
     0
  0
LTYPE
  5
42
330
5
100
AcDbSymbolTableRecord
100
AcDbLinetypeTableRecord
  2
CENTERX2
 70
     0
  3
Center (2x) ________  __  ________  __  _____
 72
    65
 73
     4
 40
20.32
 49
12.7
 74
     0
 49
-2.54
 74
     0
 49
2.54
 74
     0
 49
-2.54
 74
     0
  0
LTYPE
  5
43
330
5
100
AcDbSymbolTableRecord
100
AcDbLinetypeTableRecord
  2
DOT2
 70
     0
  3
Dot (.5x) ........................................
 72
    65
 73
     2
 40
0.635
 49
0.0
 74
     0
 49
-0.635
 74
     0
  0
ENDTAB
  0
TABLE
  2
LAYER
  5
2
330
0
100
AcDbSymbolTable
 70
     5
  0
LAYER
  5
10
330
2
100
AcDbSymbolTableRecord
100
AcDbLayerTableRecord
  2
0
 70
     0
 62
     7
  6
Continuous
370
    -3
390
F
  0
LAYER
  5
44
330
2
100
AcDbSymbolTableRecord
100
AcDbLayerTableRecord
  2
FORMAT
 70
     0
 62
     7
  6
Continuous
370
    -3
390
F
  0
LAYER
  5
45
330
2
100
AcDbSymbolTableRecord
100
AcDbLayerTableRecord
  2
VERMASSUNG
 70
     0
 62
     7
  6
Continuous
370
    -3
390
F
  0
LAYER
  5
46
330
2
100
AcDbSymbolTableRecord
100
AcDbLayerTableRecord
  2
KOPF_DÜNN
 70
     0
 62
     7
  6
Continuous
370
    -3
390
F
  0
LAYER
  5
47
330
2
100
AcDbSymbolTableRecord
100
AcDbLayerTableRecord
  2
KOPF_DICK
 70
     0
 62
     7
  6
Continuous
370
    15
390
F
  0
ENDTAB
  0
TABLE
  2
STYLE
  5
3
330
0
100
AcDbSymbolTable
 70
     2
  0
STYLE
  5
11
330
3
100
AcDbSymbolTableRecord
100
AcDbTextStyleTableRecord
  2
Standard
 70
     0
 40
0.0
 41
1.0
 50
0.0
 71
     0
 42
2.0
  3
txt
  4

  0
STYLE
  5
48
330
3
100
AcDbSymbolTableRecord
100
AcDbTextStyleTableRecord
  2
SLDTEXTSTYLE0
 70
     0
 40
0.0
 41
0.7
 50
0.0
 71
     0
 42
0.2
  3
TXT
  4

  0
ENDTAB
  0
TABLE
  2
VIEW
  5
6
330
0
100
AcDbSymbolTable
 70
     0
  0
ENDTAB
  0
TABLE
  2
UCS
  5
7
330
0
100
AcDbSymbolTable
 70
     0
  0
ENDTAB
  0
TABLE
  2
APPID
  5
9
330
0
100
AcDbSymbolTable
 70
     1
  0
APPID
  5
12
330
9
100
AcDbSymbolTableRecord
100
AcDbRegAppTableRecord
  2
ACAD
 70
     0
  0
ENDTAB
  0
TABLE
  2
DIMSTYLE
  5
A
330
0
100
AcDbSymbolTable
 70
     5
100
AcDbDimStyleTable
  0
DIMSTYLE
105
27
330
A
100
AcDbSymbolTableRecord
100
AcDbDimStyleTableRecord
  2
ISO-25
 70
     0
 41
2.5
 42
0.625
 43
3.75
 44
1.25
 73
     0
 74
     0
 77
     1
 78
     8
140
2.5
141
2.5
143
0.0393700787
147
0.625
171
     3
172
     1
178
     0
271
     2
272
     2
274
     3
278
    44
283
     0
284
     8
340
11
  0
DIMSTYLE
105
1CA
102
{ACAD_REACTORS
330
1C9
330
1D4
330
1DE
330
1F1
330
1FA
102
}
330
A
100
AcDbSymbolTableRecord
100
AcDbDimStyleTableRecord
  2
SLDDIMSTYLE0
 70
     0
 41
3.0
 44
0.0
 45
0.000000001
 73
     0
 74
     0
 77
     1
 78
    12
 79
     3
140
2.0
147
0.5
173
     1
178
     0
271
     2
272
     3
276
     2
284
    12
340
48
  0
DIMSTYLE
105
1E9
102
{ACAD_REACTORS
330
1E8
102
}
330
A
100
AcDbSymbolTableRecord
100
AcDbDimStyleTableRecord
  2
SLDDIMSTYLE1
 70
     0
 41
3.0
 44
0.0
 73
     0
 74
     0
 77
     1
 78
    12
 79
     3
140
2.0
147
0.5
173
     1
178
     0
179
     1
272
     3
276
     2
284
    12
340
48
  0
DIMSTYLE
105
269
102
{ACAD_REACTORS
330
268
102
}
330
A
100
AcDbSymbolTableRecord
100
AcDbDimStyleTableRecord
  2
SLDDIMSTYLE2
 70
     0
 41
3.0
 44
0.0
 45
0.000000001
 73
     0
 74
     0
 77
     1
 78
    12
 79
     3
140
2.0
147
0.5
172
     1
173
     1
178
     0
271
     2
272
     3
276
     2
284
    12
289
     0
340
48
  0
DIMSTYLE
105
278
102
{ACAD_REACTORS
330
277
102
}
330
A
100
AcDbSymbolTableRecord
100
AcDbDimStyleTableRecord
  2
SLDDIMSTYLE3
 70
     0
 41
3.0
 44
0.0
 73
     0
 74
     0
 77
     1
 78
    12
 79
     3
140
2.0
147
0.5
173
     1
178
     0
179
     2
272
     3
276
     2
284
    12
340
48
  0
ENDTAB
  0
TABLE
  2
BLOCK_RECORD
  5
1
330
0
100
AcDbSymbolTable
 70
    10
  0
BLOCK_RECORD
  5
1F
330
1
100
AcDbSymbolTableRecord
100
AcDbBlockTableRecord
  2
*Model_Space
340
22
  0
BLOCK_RECORD
  5
1B
330
1
100
AcDbSymbolTableRecord
100
AcDbBlockTableRecord
  2
*Paper_Space
340
1E
  0
BLOCK_RECORD
  5
23
330
1
100
AcDbSymbolTableRecord
100
AcDbBlockTableRecord
  2
*Paper_Space0
340
26
  0
BLOCK_RECORD
  5
1CB
330
1
100
AcDbSymbolTableRecord
100
AcDbBlockTableRecord
  2
_D
340
0
  0
BLOCK_RECORD
  5
1D5
330
1
100
AcDbSymbolTableRecord
100
AcDbBlockTableRecord
  2
_D_1
340
0
  0
BLOCK_RECORD
  5
1DF
330
1
100
AcDbSymbolTableRecord
100
AcDbBlockTableRecord
  2
_D_2
340
0
  0
BLOCK_RECORD
  5
1EA
330
1
100
AcDbSymbolTableRecord
100
AcDbBlockTableRecord
  2
_D_3
340
0
  0
BLOCK_RECORD
  5
1F2
330
1
100
AcDbSymbolTableRecord
100
AcDbBlockTableRecord
  2
_D_4
340
0
  0
BLOCK_RECORD
  5
1FB
330
1
100
AcDbSymbolTableRecord
100
AcDbBlockTableRecord
  2
_D_5
340
0
  0
BLOCK_RECORD
  5
26A
330
1
100
AcDbSymbolTableRecord
100
AcDbBlockTableRecord
  2
_D_6
340
0
  0
BLOCK_RECORD
  5
279
330
1
100
AcDbSymbolTableRecord
100
AcDbBlockTableRecord
  2
_D_7
340
0
  0
BLOCK_RECORD
  5
284
330
1
100
AcDbSymbolTableRecord
100
AcDbBlockTableRecord
  2
SW_CENTERMARKSYMBOL_0
340
0
102
{BLKREFS
331
28F
102
}
  0
ENDTAB
  0
ENDSEC
  0
SECTION
  2
BLOCKS
  0
BLOCK
  5
20
330
1F
100
AcDbEntity
  8
0
100
AcDbBlockBegin
  2
*Model_Space
 70
     0
 10
0.0
 20
0.0
 30
0.0
  3
*Model_Space
  1

  0
ENDBLK
  5
21
330
1F
100
AcDbEntity
  8
0
100
AcDbBlockEnd
  0
BLOCK
  5
1C
330
1B
100
AcDbEntity
 67
     1
  8
0
100
AcDbBlockBegin
  2
*Paper_Space
 70
     0
 10
0.0
 20
0.0
 30
0.0
  3
*Paper_Space
  1

  0
ENDBLK
  5
1D
330
1B
100
AcDbEntity
 67
     1
  8
0
100
AcDbBlockEnd
  0
BLOCK
  5
24
330
23
100
AcDbEntity
  8
0
100
AcDbBlockBegin
  2
*Paper_Space0
 70
     0
 10
0.0
 20
0.0
 30
0.0
  3
*Paper_Space0
  1

  0
ENDBLK
  5
25
330
23
100
AcDbEntity
  8
0
100
AcDbBlockEnd
  0
BLOCK
  5
1CC
330
1CB
100
AcDbEntity
  8
0
100
AcDbBlockBegin
  2
_D
 70
     0
 10
0.0
 20
0.0
 30
0.0
  3
_D
  1

  0
SOLID
  5
1CE
330
1CB
100
AcDbEntity
  8
VERMASSUNG
100
AcDbTrace
 10
152.8574557146
 20
151.4690316867
 30
0.0
 11
155.8574557146
 21
151.0190316867
 31
0.0
 12
155.8574557146
 22
151.9190316867
 32
0.0
 13
155.8574557146
 23
151.9190316867
 33
0.0
  0
SOLID
  5
1CF
330
1CB
100
AcDbEntity
  8
VERMASSUNG
100
AcDbTrace
 10
262.8574557146
 20
151.4690316867
 30
0.0
 11
259.8574557146
 21
151.9190316867
 31
0.0
 12
259.8574557146
 22
151.0190316867
 32
0.0
 13
259.8574557146
 23
151.0190316867
 33
0.0
  0
LINE
  5
1D0
330
1CB
100
AcDbEntity
  8
VERMASSUNG
100
AcDbLine
 10
152.8574557146
 20
141.1690316867
 30
0.0
 11
152.8574557146
 21
152.4690316867
 31
0.0
  0
LINE
  5
1D1
330
1CB
100
AcDbEntity
  8
VERMASSUNG
100
AcDbLine
 10
262.8574557146
 20
138.4690316867
 30
0.0
 11
262.8574557146
 21
152.4690316867
 31
0.0
  0
LINE
  5
1D2
330
1CB
100
AcDbEntity
  8
VERMASSUNG
100
AcDbLine
 10
152.8574557146
 20
151.4690316867
 30
0.0
 11
262.8574557146
 21
151.4690316867
 31
0.0
  0
MTEXT
  5
1D3
330
1CB
100
AcDbEntity
  8
VERMASSUNG
100
AcDbMText
 10
205.2574554747
 20
154.0471670498
 30
0.1
 40
2.0
 41
0.0
 71
     1
 72
     1
  1
110
  7
SLDTEXTSTYLE0
 73
     1
 44
1.0
  0
ENDBLK
  5
1CD
330
1CB
100
AcDbEntity
  8
0
100
AcDbBlockEnd
  0
BLOCK
  5
1D6
330
1D5
100
AcDbEntity
  8
0
100
AcDbBlockBegin
  2
_D_1
 70
     0
 10
0.0
 20
0.0
 30
0.0
  3
_D_1
  1

  0
SOLID
  5
1D8
330
1D5
100
AcDbEntity
  8
VERMASSUNG
100
AcDbTrace
 10
262.8574557146
 20
161.1836583595
 30
0.0
 11
259.8574557146
 21
161.6336583595
 31
0.0
 12
259.8574557146
 22
160.7336583595
 32
0.0
 13
259.8574557146
 23
160.7336583595
 33
0.0
  0
SOLID
  5
1D9
330
1D5
100
AcDbEntity
  8
VERMASSUNG
100
AcDbTrace
 10
122.8574557146
 20
161.1836583595
 30
0.0
 11
125.8574557146
 21
160.7336583595
 31
0.0
 12
125.8574557146
 22
161.6336583595
 32
0.0
 13
125.8574557146
 23
161.6336583595
 33
0.0
  0
LINE
  5
1DA
330
1D5
100
AcDbEntity
  8
VERMASSUNG
100
AcDbLine
 10
262.8574557146
 20
138.4690316867
 30
0.0
 11
262.8574557146
 21
162.1836583595
 31
0.0
  0
LINE
  5
1DB
330
1D5
100
AcDbEntity
  8
VERMASSUNG
100
AcDbLine
 10
122.8574557146
 20
132.4623575249
 30
0.0
 11
122.8574557146
 21
162.1836583595
 31
0.0
  0
LINE
  5
1DC
330
1D5
100
AcDbEntity
  8
VERMASSUNG
100
AcDbLine
 10
262.8574557146
 20
161.1836583595
 30
0.0
 11
122.8574557146
 21
161.1836583595
 31
0.0
  0
MTEXT
  5
1DD
330
1D5
100
AcDbEntity
  8
VERMASSUNG
100
AcDbMText
 10
189.9574555186
 20
163.7617937226
 30
0.1
 40
2.0
 41
0.0
 71
     1
 72
     1
  1
140
  7
SLDTEXTSTYLE0
 73
     1
 44
1.0
  0
ENDBLK
  5
1D7
330
1D5
100
AcDbEntity
  8
0
100
AcDbBlockEnd
  0
BLOCK
  5
1E0
330
1DF
100
AcDbEntity
  8
0
100
AcDbBlockBegin
  2
_D_2
 70
     0
 10
0.0
 20
0.0
 30
0.0
  3
_D_2
  1

  0
SOLID
  5
1E2
330
1DF
100
AcDbEntity
  8
VERMASSUNG
100
AcDbTrace
 10
280.0489806709
 20
116.4690316867
 30
0.0
 11
280.4989806709
 21
119.4690316867
 31
0.0
 12
279.5989806709
 22
119.4690316867
 32
0.0
 13
279.5989806709
 23
119.4690316867
 33
0.0
  0
SOLID
  5
1E3
330
1DF
100
AcDbEntity
  8
VERMASSUNG
100
AcDbTrace
 10
280.0489806709
 20
138.4690316867
 30
0.0
 11
279.5989806709
 21
135.4690316867
 31
0.0
 12
280.4989806709
 22
135.4690316867
 32
0.0
 13
280.4989806709
 23
135.4690316867
 33
0.0
  0
LINE
  5
1E4
330
1DF
100
AcDbEntity
  8
VERMASSUNG
100
AcDbLine
 10
262.8574557146
 20
116.4690316867
 30
0.0
 11
281.0489806709
 21
116.4690316867
 31
0.0
  0
LINE
  5
1E5
330
1DF
100
AcDbEntity
  8
VERMASSUNG
100
AcDbLine
 10
262.8574557146
 20
138.4690316867
 30
0.0
 11
281.0489806709
 21
138.4690316867
 31
0.0
  0
LINE
  5
1E6
330
1DF
100
AcDbEntity
  8
VERMASSUNG
100
AcDbLine
 10
280.0489806709
 20
116.4690316867
 30
0.0
 11
280.0489806709
 21
138.4690316867
 31
0.0
  0
MTEXT
  5
1E7
330
1DF
100
AcDbEntity
  8
VERMASSUNG
100
AcDbMText
 10
277.4708453077
 20
125.1690316357
 30
0.1
 40
2.0
 41
0.0
 71
     1
 72
     1
  1
22
  7
SLDTEXTSTYLE0
 11
2.503722994132712E-15
 21
1.0
 31
0.0
 73
     1
 44
1.0
  0
ENDBLK
  5
1E1
330
1DF
100
AcDbEntity
  8
0
100
AcDbBlockEnd
  0
BLOCK
  5
1EB
330
1EA
100
AcDbEntity
  8
0
100
AcDbBlockBegin
  2
_D_3
 70
     0
 10
0.0
 20
0.0
 30
0.0
  3
_D_3
  1

  0
ARC
  5
1ED
330
1EA
100
AcDbEntity
  8
VERMASSUNG
100
AcDbCircle
 10
262.8943414841
 20
138.4690316867
 30
0.0
 40
10.72700073443673
100
AcDbArc
 50
264.9722024819
 51
0.0
  0
SOLID
  5
1EE
330
1EA
100
AcDbEntity
  8
VERMASSUNG
100
AcDbTrace
 10
261.9542373892
 20
127.7833052703
 30
0.0
 11
264.9725561846
 21
127.4795757039
 31
0.0
 12
264.9288344478
 22
128.378513082
 32
0.0
 13
264.9288344478
 23
128.378513082
 33
0.0
  0
SOLID
  5
1EF
330
1EA
100
AcDbEntity
  8
VERMASSUNG
100
AcDbTrace
 10
273.6213422185
 20
138.4690316867
 30
0.0
 11
272.7677337459
 21
135.5580434395
 31
0.0
 12
273.6593805483
 22
135.4357079181
 32
0.0
 13
273.6593805483
 23
135.4357079181
 33
0.0
  0
MTEXT
  5
1F0
330
1EA
100
AcDbEntity
  8
VERMASSUNG
100
AcDbMText
 10
266.2595979391
 20
130.5010296179
 30
0.1
 40
2.0
 41
0.0
 71
     1
 72
     1
  1
95°
  7
SLDTEXTSTYLE0
 11
0.737441199185602
 21
0.6754113396617658
 31
0.0
 73
     1
 44
1.0
  0
ENDBLK
  5
1EC
330
1EA
100
AcDbEntity
  8
0
100
AcDbBlockEnd
  0
BLOCK
  5
1F3
330
1F2
100
AcDbEntity
  8
0
100
AcDbBlockBegin
  2
_D_4
 70
     0
 10
0.0
 20
0.0
 30
0.0
  3
_D_4
  1

  0
SOLID
  5
1F5
330
1F2
100
AcDbEntity
  8
VERMASSUNG
100
AcDbTrace
 10
199.4083855424
 20
132.4690316867
 30
0.0
 11
198.9583855424
 21
129.4690316867
 31
0.0
 12
199.8583855424
 22
129.4690316867
 32
0.0
 13
199.8583855424
 23
129.4690316867
 33
0.0
  0
SOLID
  5
1F6
330
1F2
100
AcDbEntity
  8
VERMASSUNG
100
AcDbTrace
 10
199.4083855424
 20
100.4690316867
 30
0.0
 11
199.8583855424
 21
103.4690316867
 31
0.0
 12
198.9583855424
 22
103.4690316867
 32
0.0
 13
198.9583855424
 23
103.4690316867
 33
0.0
  0
LINE
  5
1F7
330
1F2
100
AcDbEntity
  8
VERMASSUNG
100
AcDbLine
 10
199.4083855424
 20
132.4690316867
 30
0.0
 11
199.4083855424
 21
100.4690316867
 31
0.0
  0
MTEXT
  5
1F8
330
1F2
100
AcDbEntity
  8
VERMASSUNG
100
AcDbMText
 10
196.8302500629
 20
103.0663756079
 30
0.1
 40
2.0
 41
0.0
 71
     1
 72
     1
  1
%%c
  7
SLDTEXTSTYLE0
 11
-7.044195017643634E-15
 21
1.0
 31
0.0
 73
     1
 44
1.0
  0
MTEXT
  5
1F9
330
1F2
100
AcDbEntity
  8
VERMASSUNG
100
AcDbMText
 10
196.6302500534
 20
106.6763756222
 30
0.1
 40
2.0
 41
0.0
 71
     1
 72
     1
  1
32
  7
SLDTEXTSTYLE0
 11
-7.044195017643634E-15
 21
1.0
 31
0.0
 73
     1
 44
1.0
  0
ENDBLK
  5
1F4
330
1F2
100
AcDbEntity
  8
0
100
AcDbBlockEnd
  0
BLOCK
  5
1FC
330
1FB
100
AcDbEntity
  8
0
100
AcDbBlockBegin
  2
_D_5
 70
     0
 10
0.0
 20
0.0
 30
0.0
  3
_D_5
  1

  0
SOLID
  5
1FE
330
1FB
100
AcDbEntity
  8
VERMASSUNG
100
AcDbTrace
 10
114.1535269207
 20
141.4690316867
 30
0.0
 11
113.7035269207
 21
138.4690316867
 31
0.0
 12
114.6035269207
 22
138.4690316867
 32
0.0
 13
114.6035269207
 23
138.4690316867
 33
0.0
  0
SOLID
  5
1FF
330
1FB
100
AcDbEntity
  8
VERMASSUNG
100
AcDbTrace
 10
114.1535269207
 20
91.4690316867
 30
0.0
 11
114.6035269207
 21
94.4690316867
 31
0.0
 12
113.7035269207
 22
94.4690316867
 32
0.0
 13
113.7035269207
 23
94.4690316867
 33
0.0
  0
LINE
  5
200
330
1FB
100
AcDbEntity
  8
VERMASSUNG
100
AcDbLine
 10
153.1574557146
 20
141.4690316867
 30
0.0
 11
113.1535269207
 21
141.4690316867
 31
0.0
  0
LINE
  5
201
330
1FB
100
AcDbEntity
  8
VERMASSUNG
100
AcDbLine
 10
153.1574557146
 20
91.4690316867
 30
0.0
 11
113.1535269207
 21
91.4690316867
 31
0.0
  0
LINE
  5
202
330
1FB
100
AcDbEntity
  8
VERMASSUNG
100
AcDbLine
 10
114.1535269207
 20
141.4690316867
 30
0.0
 11
114.1535269207
 21
91.4690316867
 31
0.0
  0
MTEXT
  5
203
330
1FB
100
AcDbEntity
  8
VERMASSUNG
100
AcDbMText
 10
111.3753914316
 20
110.0640315775
 30
0.1
 40
2.0
 41
0.0
 71
     1
 72
     1
  1
PSC
  7
SLDTEXTSTYLE0
 11
-7.044195017643634E-15
 21
1.0
 31
0.0
 73
     1
 44
1.0
  0
MTEXT
  5
204
330
1FB
100
AcDbEntity
  8
VERMASSUNG
100
AcDbMText
 10
111.5753914411
 20
114.6640316796
 30
0.1
 40
2.0
 41
0.0
 71
     1
 72
     1
  1
%%c
  7
SLDTEXTSTYLE0
 11
-7.044195017643634E-15
 21
1.0
 31
0.0
 73
     1
 44
1.0
  0
MTEXT
  5
205
330
1FB
100
AcDbEntity
  8
VERMASSUNG
100
AcDbMText
 10
111.3753914316
 20
118.2740321595
 30
0.1
 40
2.0
 41
0.0
 71
     1
 72
     1
  1
50
  7
SLDTEXTSTYLE0
 11
-7.044195017643634E-15
 21
1.0
 31
0.0
 73
     1
 44
1.0
  0
ENDBLK
  5
1FD
330
1FB
100
AcDbEntity
  8
0
100
AcDbBlockEnd
  0
BLOCK
  5
26B
330
26A
100
AcDbEntity
  8
0
100
AcDbBlockBegin
  2
_D_6
 70
     0
 10
0.0
 20
0.0
 30
0.0
  3
_D_6
  1

  0
SOLID
  5
26D
330
26A
100
AcDbEntity
  8
VERMASSUNG
100
AcDbTrace
 10
79.898536855
 20
102.7913813099
 30
0.0
 11
81.417360219
 21
100.1654194693
 31
0.0
 12
82.1209704888
 22
100.726608019
 32
0.0
 13
82.1209704888
 23
100.726608019
 33
0.0
  0
SOLID
  5
26E
330
26A
100
AcDbEntity
  8
VERMASSUNG
100
AcDbTrace
 10
54.9568235356
 20
134.0629488545
 30
0.0
 11
53.4380001715
 21
136.6889106952
 31
0.0
 12
52.7343899017
 22
136.1277221455
 32
0.0
 13
52.7343899017
 23
136.1277221455
 33
0.0
  0
LINE
  5
26F
330
26A
100
AcDbEntity
  8
VERMASSUNG
100
AcDbLine
 10
79.898536855
 20
102.7913813099
 30
0.0
 11
79.1167476663
 21
102.167838477
 31
0.0
  0
LINE
  5
270
330
26A
100
AcDbEntity
  8
VERMASSUNG
100
AcDbLine
 10
54.9568235356
 20
134.0629488545
 30
0.0
 11
55.7386127242
 21
134.6864916875
 31
0.0
  0
LINE
  5
271
330
26A
100
AcDbEntity
  8
VERMASSUNG
100
AcDbLine
 10
79.898536855
 20
102.7913813099
 30
0.0
 11
83.6397938529
 21
98.1006461783
 31
0.0
  0
LINE
  5
272
330
26A
100
AcDbEntity
  8
VERMASSUNG
100
AcDbLine
 10
79.898536855
 20
102.7913813099
 30
0.0
 11
54.9568235356
 21
134.0629488545
 31
0.0
  0
LINE
  5
273
330
26A
100
AcDbEntity
  8
VERMASSUNG
100
AcDbLine
 10
54.9568235356
 20
134.0629488545
 30
0.0
 11
43.0479745315
 21
148.9940953736
 31
0.0
  0
MTEXT
  5
274
330
26A
100
AcDbEntity
  8
VERMASSUNG
100
AcDbMText
 10
45.0635329761
 20
150.6016732744
 30
0.1
 40
2.0
 41
0.0
 71
     1
 72
     1
  1
%%c
  7
SLDTEXTSTYLE0
 11
0.6235428329848397
 21
-0.7817891886136826
 31
0.0
 73
     1
 44
1.0
  0
MTEXT
  5
275
330
26A
100
AcDbEntity
  8
VERMASSUNG
100
AcDbMText
 10
47.4708804573
 20
147.9041228648
 30
0.1
 40
2.0
 41
0.0
 71
     1
 72
     1
  1
40
  7
SLDTEXTSTYLE0
 11
0.6235428329848397
 21
-0.7817891886136826
 31
0.0
 73
     1
 44
1.0
  0
MTEXT
  5
276
330
26A
100
AcDbEntity
  8
VERMASSUNG
100
AcDbMText
 10
51.2043433119
 20
143.2231599197
 30
0.1
 40
2.0
 41
0.0
 71
     1
 72
     1
  1
min.
  7
SLDTEXTSTYLE0
 11
0.6235428329848397
 21
-0.7817891886136826
 31
0.0
 73
     1
 44
1.0
  0
ENDBLK
  5
26C
330
26A
100
AcDbEntity
  8
0
100
AcDbBlockEnd
  0
BLOCK
  5
27A
330
279
100
AcDbEntity
  8
0
100
AcDbBlockBegin
  2
_D_7
 70
     0
 10
0.0
 20
0.0
 30
0.0
  3
_D_7
  1

  0
ARC
  5
27C
330
279
100
AcDbEntity
  8
VERMASSUNG
100
AcDbCircle
 10
67.4276801953
 20
139.2242367841
 30
0.0
 40
56.21361716894258
100
AcDbArc
 50
262.0
 51
270.0
  0
ARC
  5
27D
330
279
100
AcDbEntity
  8
VERMASSUNG
100
AcDbCircle
 10
67.4276801953
 20
139.2242367841
 30
0.0
 40
56.21361716894257
100
AcDbArc
 50
255.8924636029
 51
262.0
  0
ARC
  5
27E
330
279
100
AcDbEntity
  8
VERMASSUNG
100
AcDbCircle
 10
67.4276801953
 20
139.2242367841
 30
0.0
 40
56.21361716894258
100
AcDbArc
 50
270.0
 51
276.1075363971
  0
SOLID
  5
27F
330
279
100
AcDbEntity
  8
VERMASSUNG
100
AcDbTrace
 10
59.6042567777
 20
83.5576866732
 30
0.0
 11
56.7201212093
 21
84.4980387472
 31
0.0
 12
56.571153462
 22
83.6104529146
 32
0.0
 13
56.571153462
 23
83.6104529146
 33
0.0
  0
SOLID
  5
280
330
279
100
AcDbEntity
  8
VERMASSUNG
100
AcDbTrace
 10
67.4276801953
 20
83.0106196152
 30
0.0
 11
70.4386091994
 21
82.6407459451
 31
0.0
 12
70.4146192687
 22
83.5404261568
 32
0.0
 13
70.4146192687
 23
83.5404261568
 33
0.0
  0
LINE
  5
281
330
279
100
AcDbEntity
  8
VERMASSUNG
100
AcDbLine
 10
60.3652777195
 20
88.9726320409
 30
0.0
 11
59.4650836767
 21
82.5674186045
 31
0.0
  0
LINE
  5
282
330
279
100
AcDbEntity
  8
VERMASSUNG
100
AcDbLine
 10
67.4276801953
 20
88.9690316867
 30
0.0
 11
67.4276801953
 21
82.0106196152
 31
0.0
  0
MTEXT
  5
283
330
279
100
AcDbEntity
  8
VERMASSUNG
100
AcDbMText
 10
61.491616986
 20
85.8728725739
 30
0.1
 40
2.0
 41
0.0
 71
     1
 72
     1
  1
8°
  7
SLDTEXTSTYLE0
 11
0.9975640502598254
 21
-0.06975647374410793
 31
0.0
 73
     1
 44
1.0
  0
ENDBLK
  5
27B
330
279
100
AcDbEntity
  8
0
100
AcDbBlockEnd
  0
BLOCK
  5
285
330
284
100
AcDbEntity
  8
0
100
AcDbBlockBegin
  2
SW_CENTERMARKSYMBOL_0
 70
     0
 10
0.0
 20
0.0
 30
0.0
  3
SW_CENTERMARKSYMBOL_0
  1

  0
LINE
  5
287
330
284
100
AcDbEntity
  8
VERMASSUNG
 62
     0
100
AcDbLine
 10
0.0
 20
0.0
 30
0.0
 11
0.0
 21
2.5
 31
0.0
  0
LINE
  5
288
330
284
100
AcDbEntity
  8
VERMASSUNG
 62
     0
100
AcDbLine
 10
0.0
 20
0.0
 30
0.0
 11
-2.5
 21
0.0
 31
0.0
  0
LINE
  5
289
330
284
100
AcDbEntity
  8
VERMASSUNG
 62
     0
100
AcDbLine
 10
0.0
 20
0.0
 30
0.0
 11
0.0
 21
-2.5
 31
0.0
  0
LINE
  5
28A
330
284
100
AcDbEntity
  8
VERMASSUNG
 62
     0
100
AcDbLine
 10
0.0
 20
0.0
 30
0.0
 11
2.5
 21
0.0
 31
0.0
  0
LINE
  5
28B
330
284
100
AcDbEntity
  8
VERMASSUNG
 62
     0
100
AcDbLine
 10
0.0
 20
5.0
 30
0.0
 11
0.0
 21
27.5
 31
0.0
  0
LINE
  5
28C
330
284
100
AcDbEntity
  8
VERMASSUNG
 62
     0
100
AcDbLine
 10
-5.0
 20
0.0
 30
0.0
 11
-27.5
 21
0.0
 31
0.0
  0
LINE
  5
28D
330
284
100
AcDbEntity
  8
VERMASSUNG
 62
     0
100
AcDbLine
 10
0.0
 20
-5.0
 30
0.0
 11
0.0
 21
-27.5
 31
0.0
  0
LINE
  5
28E
330
284
100
AcDbEntity
  8
VERMASSUNG
 62
     0
100
AcDbLine
 10
5.0
 20
0.0
 30
0.0
 11
27.5
 21
0.0
 31
0.0
  0
ENDBLK
  5
286
330
284
100
AcDbEntity
  8
0
100
AcDbBlockEnd
  0
ENDSEC
  0
SECTION
  2
ENTITIES
  0
MTEXT
  5
49
330
1F
100
AcDbEntity
  8
KOPF_DÜNN
100
AcDbMText
 10
13.8892156294
 20
23.8442973028
 30
0.0
 40
3.0
 41
0.0
 71
     1
 72
     1
  1
PS5.PCD.RLB.110
  7
SLDTEXTSTYLE0
 73
     1
 44
1.0
  0
MTEXT
  5
4A
330
1F
100
AcDbEntity
  8
VERMASSUNG
100
AcDbMText
 10
13.9329988022
 20
28.8834360957
 30
0.0
 40
3.0
 41
0.0
 71
     1
 72
     1
  1
Bohrstange rechts_Boring bar right
  7
SLDTEXTSTYLE0
 73
     1
 44
1.0
  0
MTEXT
  5
4B
330
1F
100
AcDbEntity
  8
VERMASSUNG
100
AcDbMText
 10
98.8601118557
 20
13.8365368179
 30
0.0
 40
2.0
 41
0.0
 71
     1
 72
     1
  1
Datum: 05.06.2012
  7
SLDTEXTSTYLE0
 73
     1
 44
1.0
  0
MTEXT
  5
4C
330
1F
100
AcDbEntity
  8
VERMASSUNG
100
AcDbMText
 10
13.933048693
 20
18.0482802738
 30
0.0
 40
2.0
 41
0.0
 71
     1
 72
     1
  1
PSC ø50 / Wp.: CN..12 04..
  7
SLDTEXTSTYLE0
 73
     1
 44
1.0
  0
MTEXT
  5
4D
330
1F
100
AcDbEntity
  8
VERMASSUNG
100
AcDbMText
 10
13.9808475933
 20
13.9090973692
 30
0.0
 40
2.0
 41
0.0
 71
     1
 72
     1
  1
Gewicht: 894g
  7
SLDTEXTSTYLE0
 73
     1
 44
1.0
  0
ARC
  5
4E
330
1F
100
AcDbEntity
  8
0
  6
Continuous
 62
     7
370
    15
100
AcDbCircle
 10
172.2574557146
 20
92.0690316867
 30
0.0
 40
0.6000000000000227
100
AcDbArc
 50
270.0
 51
0.0
  0
ARC
  5
4F
330
1F
100
AcDbEntity
  8
0
  6
Continuous
 62
     7
370
    15
100
AcDbCircle
 10
172.2574557146
 20
140.8690316867
 30
0.0
 40
0.6000000000000227
100
AcDbArc
 50
0.0
 51
90.0
  0
ARC
  5
50
330
1F
100
AcDbEntity
  8
0
  6
Continuous
 62
     7
370
    15
100
AcDbCircle
 10
153.1574557146
 20
91.7690316867
 30
0.0
 40
0.2999999999999972
100
AcDbArc
 50
180.0
 51
270.0
  0
ARC
  5
51
330
1F
100
AcDbEntity
  8
0
  6
Continuous
 62
     7
370
    15
100
AcDbCircle
 10
153.1574557146
 20
141.1690316867
 30
0.0
 40
0.3000000000000114
100
AcDbArc
 50
90.0
 51
180.0
  0
LINE
  5
52
330
1F
100
AcDbEntity
  8
0
  6
Continuous
 62
     7
370
    15
100
AcDbLine
 10
153.1574557288
 20
91.4690313142
 30
0.0
 11
172.2574562868
 21
91.4690313142
 31
0.0
  0
LINE
  5
53
330
1F
100
AcDbEntity
  8
0
  6
Continuous
 62
     7
370
    15
100
AcDbLine
 10
172.2574562868
 20
141.4690320592
 30
0.0
 11
153.1574557288
 21
141.4690320592
 31
0.0
  0
ARC
  5
54
330
1F
100
AcDbEntity
  8
0
  6
Continuous
 62
     7
370
    15
100
AcDbCircle
 10
176.8574557146
 20
96.4690316867
 30
0.0
 40
4.0
100
AcDbArc
 50
90.0
 51
180.0
  0
ARC
  5
55
330
1F
100
AcDbEntity
  8
0
  6
Continuous
 62
     7
370
    15
100
AcDbCircle
 10
176.8574557146
 20
136.4690316867
 30
0.0
 40
4.0
100
AcDbArc
 50
180.0
 51
270.0
  0
LWPOLYLINE
  5
56
330
1F
100
AcDbEntity
  8
0
  6
Continuous
 62
     7
370
    15
100
AcDbPolyline
 90
        3
 70
   128
 43
0.0
 10
152.6574557196
 20
98.6292106312
 10
152.7829106548
 20
98.5609092962
 10
152.8574557146
 20
98.5081722241
  0
LWPOLYLINE
  5
57
330
1F
100
AcDbEntity
  8
0
  6
Continuous
 62
     7
370
    15
100
AcDbPolyline
 90
        3
 70
   128
 43
0.0
 10
152.8574557146
 20
134.4298911493
 10
152.7829106548
 20
134.3771540772
 10
152.6574557196
 20
134.3088527422
  0
LINE
  5
58
330
1F
100
AcDbEntity
  8
0
  6
Continuous
 62
     7
370
    15
100
AcDbLine
 10
176.8574559232
 20
100.4690309268
 30
0.0
 11
236.4432395538
 21
100.4690309268
 31
0.0
  0
LINE
  5
59
330
1F
100
AcDbEntity
  8
0
  6
Continuous
 62
     7
370
    15
100
AcDbLine
 10
236.4432395538
 20
132.4690324467
 30
0.0
 11
176.8574559232
 21
132.4690324467
 31
0.0
  0
ARC
  5
5A
330
1F
100
AcDbEntity
  8
0
  6
Continuous
 62
     7
370
    15
100
AcDbCircle
 10
236.4432421522
 20
99.4690316867
 30
0.0
 40
1.0
100
AcDbArc
 50
45.0
 51
90.0
  0
ARC
  5
5B
330
1F
100
AcDbEntity
  8
0
  6
Continuous
 62
     7
370
    15
100
AcDbCircle
 10
236.4432421522
 20
133.4690316867
 30
0.0
 40
1.0
100
AcDbArc
 50
270.0
 51
315.0
  0
LINE
  5
5C
330
1F
100
AcDbEntity
  8
0
  6
Continuous
 62
     7
370
    15
100
AcDbLine
 10
239.9418459376
 20
135.5534219395
 30
0.0
 11
237.1503518065
 21
132.7619240832
 31
0.0
  0
LINE
  5
5D
330
1F
100
AcDbEntity
  8
0
  6
Continuous
 62
     7
370
    15
100
AcDbLine
 10
237.1503518065
 20
100.1761392903
 30
0.0
 11
237.3574555954
 21
99.9690317761
 31
0.0
  0
LINE
  5
5E
330
1F
100
AcDbEntity
  8
0
  6
Continuous
 62
     7
370
    15
100
AcDbLine
 10
237.3574555954
 20
99.9690317761
 30
0.0
 11
248.1247664531
 21
99.9690317761
 31
0.0
  0
LINE
  5
5F
330
1F
100
AcDbEntity
  8
0
  6
Continuous
 62
     7
370
    15
100
AcDbLine
 10
249.9810562571
 20
136.6335456472
 30
0.0
 11
240.0110618313
 21
135.5856568765
 31
0.0
  0
LINE
  5
60
330
1F
100
AcDbEntity
  8
0
  6
Continuous
 62
     7
370
    15
100
AcDbLine
 10
261.2339065512
 20
125.2678600352
 30
0.0
 11
261.7314637741
 21
125.9266943883
 31
0.0
  0
LINE
  5
61
330
1F
100
AcDbEntity
  8
0
  6
Continuous
 62
     7
370
    15
100
AcDbLine
 10
250.168795987
 20
137.4461581212
 30
0.0
 11
249.6712387641
 21
136.7873219054
 31
0.0
  0
LINE
  5
62
330
1F
100
AcDbEntity
  8
0
  6
Continuous
 62
     7
370
    15
100
AcDbLine
 10
257.3024139842
 20
129.4665350791
 30
0.0
 11
257.3052973588
 21
129.4695227619
 31
0.0
  0
LINE
  5
63
330
1F
100
AcDbEntity
  8
0
  6
Continuous
 62
     7
370
    15
100
AcDbLine
 10
254.0580363115
 20
132.5848777991
 30
0.0
 11
253.3898235401
 21
131.8919933613
 31
0.0
  0
LINE
  5
64
330
1F
100
AcDbEntity
  8
0
  6
Continuous
 62
     7
370
    15
100
AcDbLine
 10
172.8574552675
 20
92.0690321576
 30
0.0
 11
172.8574552675
 21
140.8690312158
 31
0.0
  0
LINE
  5
65
330
1F
100
AcDbEntity
  8
0
  6
Continuous
 62
     7
370
    15
100
AcDbLine
 10
152.8574557146
 20
91.7690308046
 30
0.0
 11
152.8574557146
 21
141.1690325689
 31
0.0
  0
SPLINE
  5
66
330
1F
100
AcDbEntity
  8
0
  6
Continuous
 62
     7
370
    15
100
AcDbSpline
210
0.0
220
0.0
230
1.0
 70
     8
 71
     3
 72
    12
 73
     8
 74
     0
 42
0.00000001
 43
0.00000001
 12
1.0
 22
0.0
 32
0.0
 13
1.0
 23
0.0
 33
0.0
 40
0.0
 40
0.0
 40
0.0
 40
0.0
 40
0.2499999999999977
 40
0.2499999999999977
 40
0.4999999999999954
 40
0.4999999999999954
 40
1.0
 40
1.0
 40
1.0
 40
1.0
 10
161.385212528129
 20
124.0378416558939
 30
0.0
 10
161.3215472915985
 20
124.0378416558939
 30
0.0
 10
161.2619410593752
 20
124.0639138043736
 30
0.0
 10
161.1632805344443
 20
124.1394525551947
 30
0.0
 10
161.1243135444291
 20
124.1867034922909
 30
0.0
 10
161.0249267125046
 20
124.3385273102573
 30
0.0
 10
160.9828504650812
 20
124.4513305600224
 30
0.0
 10
160.9521998262368
 20
124.5654846847575
 30
0.0
  0
LINE
  5
67
330
1F
100
AcDbEntity
  8
0
  6
Continuous
 62
     7
370
    15
100
AcDbLine
 10
164.3296985989
 20
124.0378418218
 30
0.0
 11
161.3852123832
 21
124.0378418218
 31
0.0
  0
SPLINE
  5
68
330
1F
100
AcDbEntity
  8
0
  6
Continuous
 62
     7
370
    15
100
AcDbSpline
210
0.0
220
0.0
230
1.0
 70
     8
 71
     3
 72
    12
 73
     8
 74
     0
 42
0.00000001
 43
0.00000001
 12
1.0
 22
0.0
 32
0.0
 13
1.0
 23
0.0
 33
0.0
 40
0.0
 40
0.0
 40
0.0
 40
0.0
 40
0.4999999999999987
 40
0.4999999999999987
 40
0.7499999999999993
 40
0.7499999999999993
 40
1.0
 40
1.0
 40
1.0
 40
1.0
 10
164.7627116028884
 20
124.5654846847575
 30
0.0
 10
164.7320122195211
 20
124.4511490176937
 30
0.0
 10
164.6906621514146
 20
124.3397956648523
 30
0.0
 10
164.5909062231951
 20
124.1870588926036
 30
0.0
 10
164.5512093054624
 20
124.1391990067515
 30
0.0
 10
164.4539511538148
 20
124.064595893402
 30
0.0
 10
164.3931749958241
 20
124.0378416558939
 30
0.0
 10
164.3296989009962
 20
124.0378416558939
 30
0.0
  0
ELLIPSE
  5
69
330
1F
100
AcDbEntity
  8
0
  6
Continuous
 62
     7
370
    15
100
AcDbEllipse
 10
151.8011980596
 20
116.4690316867
 30
0.0
 11
11.70927234972706
 21
24.67718644093743
 31
0.0
210
0.0
220
0.0
230
1.0
 40
0.3419987131
 41
5.20306880937045
 42
6.114256032590494
  0
SPLINE
  5
6A
330
1F
100
AcDbEntity
  8
0
  6
Continuous
 62
     7
370
    15
100
AcDbSpline
210
0.0
220
0.0
230
1.0
 70
     8
 71
     3
 72
    12
 73
     8
 74
     0
 42
0.00000001
 43
0.00000001
 12
1.0
 22
0.0
 32
0.0
 13
1.0
 23
0.0
 33
0.0
 40
0.0
 40
0.0
 40
0.0
 40
0.0
 40
0.2500000000000023
 40
0.2500000000000023
 40
0.5000000000000047
 40
0.5000000000000047
 40
1.0
 40
1.0
 40
1.0
 40
1.0
 10
164.3296989009962
 20
140.2957628022154
 30
0.0
 10
164.3933641375267
 20
140.2957628022154
 30
0.0
 10
164.45297036975
 20
140.2874980265495
 30
0.0
 10
164.5516308946809
 20
140.2632792449664
 30
0.0
 10
164.5905978846961
 20
140.2480219256572
 30
0.0
 10
164.6899847166206
 20
140.1983885713953
 30
0.0
 10
164.7320609640441
 20
140.1607488632212
 30
0.0
 10
164.7627116028884
 20
140.121673163945
 30
0.0
  0
LINE
  5
6B
330
1F
100
AcDbEntity
  8
0
  6
Continuous
 62
     7
370
    15
100
AcDbLine
 10
161.3852123832
 20
140.2957630556
 30
0.0
 11
164.3296985989
 21
140.2957630556
 31
0.0
  0
SPLINE
  5
6C
330
1F
100
AcDbEntity
  8
0
  6
Continuous
 62
     7
370
    15
100
AcDbSpline
210
0.0
220
0.0
230
1.0
 70
     8
 71
     3
 72
    12
 73
     8
 74
     0
 42
0.00000001
 43
0.00000001
 12
1.0
 22
0.0
 32
0.0
 13
1.0
 23
0.0
 33
0.0
 40
0.0
 40
0.0
 40
0.0
 40
0.0
 40
0.5000000000000018
 40
0.5000000000000018
 40
0.7500000000000009
 40
0.7500000000000009
 40
1.0
 40
1.0
 40
1.0
 40
1.0
 10
160.9521998262368
 20
140.121673163945
 30
0.0
 10
160.9828992096041
 20
140.1608110063409
 30
0.0
 10
161.0242492777107
 20
140.1979707890664
 30
0.0
 10
161.1240052059301
 20
140.2479072946942
 30
0.0
 10
161.1637021236628
 20
140.2633601648379
 30
0.0
 10
161.2609602753104
 20
140.287279708437
 30
0.0
 10
161.3217364333011
 20
140.2957628022154
 30
0.0
 10
161.385212528129
 20
140.2957628022154
 30
0.0
  0
ELLIPSE
  5
6D
330
1F
100
AcDbEntity
  8
0
  6
Continuous
 62
     7
370
    15
100
AcDbEllipse
 10
173.9137133695
 20
116.4690316867
 30
0.0
 11
-11.70927234972697
 21
24.67718644093743
 31
0.0
210
0.0
220
0.0
230
1.0
 40
0.3419987131
 41
0.1689292745891358
 42
1.080116497809152
  0
SPLINE
  5
6E
330
1F
100
AcDbEntity
  8
0
  6
Continuous
 62
     7
370
    15
100
AcDbSpline
210
0.0
220
0.0
230
1.0
 70
     8
 71
     3
 72
    12
 73
     8
 74
     0
 42
0.00000001
 43
0.00000001
 12
1.0
 22
0.0
 32
0.0
 13
1.0
 23
0.0
 33
0.0
 40
0.0
 40
0.0
 40
0.0
 40
0.0
 40
0.2500000000000018
 40
0.2500000000000018
 40
0.5000000000000037
 40
0.5000000000000037
 40
1.0
 40
1.0
 40
1.0
 40
1.0
 10
161.385212528129
 20
92.64230057121148
 30
0.0
 10
161.3215759739154
 20
92.64230057121148
 30
0.0
 10
161.2619958470491
 20
92.65055734214323
 30
0.0
 10
161.1633591056828
 20
92.67475940415105
 30
0.0
 10
161.1244004813025
 20
92.69000622318518
 30
0.0
 10
161.0250215417946
 20
92.73961109524531
 30
0.0
 10
160.9830636366291
 20
92.77704274336412
 30
0.0
 10
160.9521998262367
 20
92.8163902094818
 30
0.0
  0
LINE
  5
6F
330
1F
100
AcDbEntity
  8
0
  6
Continuous
 62
     7
370
    15
100
AcDbLine
 10
164.3296985989
 20
92.6423003178
 30
0.0
 11
161.3852123832
 21
92.6423003178
 31
0.0
  0
SPLINE
  5
70
330
1F
100
AcDbEntity
  8
0
  6
Continuous
 62
     7
370
    15
100
AcDbSpline
210
0.0
220
0.0
230
1.0
 70
     8
 71
     3
 72
    12
 73
     8
 74
     0
 42
0.00000001
 43
0.00000001
 12
1.0
 22
0.0
 32
0.0
 13
1.0
 23
0.0
 33
0.0
 40
0.0
 40
0.0
 40
0.0
 40
0.0
 40
0.4999999999999963
 40
0.4999999999999963
 40
0.7499999999999981
 40
0.7499999999999981
 40
1.0
 40
1.0
 40
1.0
 40
1.0
 10
164.7627116028884
 20
92.81639020948182
 30
0.0
 10
164.7318598923242
 20
92.77705816911933
 30
0.0
 10
164.6899670288635
 20
92.73964640359105
 30
0.0
 10
164.5904461510704
 20
92.68997547897514
 30
0.0
 10
164.5508319863461
 20
92.67458639636732
 30
0.0
 10
164.4537289525666
 20
92.65075318070006
 30
0.0
 10
164.3932302799162
 20
92.64230057121128
 30
0.0
 10
164.3296989009962
 20
92.64230057121127
 30
0.0
  0
ELLIPSE
  5
71
330
1F
100
AcDbEntity
  8
0
  6
Continuous
 62
     7
370
    15
100
AcDbEllipse
 10
151.8011980596
 20
116.4690316867
 30
0.0
 11
-11.7092723497272
 21
24.67718644093743
 31
0.0
210
0.0
220
0.0
230
1.0
 40
0.3419987131
 41
3.310521928178949
 42
4.221709151398942
  0
SPLINE
  5
72
330
1F
100
AcDbEntity
  8
0
  6
Continuous
 62
     7
370
    15
100
AcDbSpline
210
0.0
220
0.0
230
1.0
 70
     8
 71
     3
 72
    12
 73
     8
 74
     0
 42
0.00000001
 43
0.00000001
 12
1.0
 22
0.0
 32
0.0
 13
1.0
 23
0.0
 33
0.0
 40
0.0
 40
0.0
 40
0.0
 40
0.0
 40
0.2499999999999974
 40
0.2499999999999974
 40
0.4999999999999949
 40
0.4999999999999949
 40
1.0
 40
1.0
 40
1.0
 40
1.0
 10
164.3296989009962
 20
108.9002217175327
 30
0.0
 10
164.3933354552099
 20
108.9002217175327
 30
0.0
 10
164.4529155820761
 20
108.8741748144748
 30
0.0
 10
164.5515523234425
 20
108.7986876555749
 30
0.0
 10
164.5905109478227
 20
108.7514686170441
 30
0.0
 10
164.6898898873306
 20
108.5997289659506
 30
0.0
 10
164.7318477924961
 20
108.4875267417664
 30
0.0
 10
164.7627116028886
 20
108.3725786886692
 30
0.0
  0
LINE
  5
73
330
1F
100
AcDbEntity
  8
0
  6
Continuous
 62
     7
370
    15
100
AcDbLine
 10
161.3852123832
 20
108.9002215516
 30
0.0
 11
164.3296985989
 21
108.9002215516
 31
0.0
  0
SPLINE
  5
74
330
1F
100
AcDbEntity
  8
0
  6
Continuous
 62
     7
370
    15
100
AcDbSpline
210
0.0
220
0.0
230
1.0
 70
     8
 71
     3
 72
    12
 73
     8
 74
     0
 42
0.00000001
 43
0.00000001
 12
1.0
 22
0.0
 32
0.0
 13
1.0
 23
0.0
 33
0.0
 40
0.0
 40
0.0
 40
0.0
 40
0.0
 40
0.5
 40
0.5
 40
0.75
 40
0.75
 40
1.0
 40
1.0
 40
1.0
 40
1.0
 10
160.9521998262368
 20
108.3725786886691
 30
0.0
 10
160.983051536801
 20
108.487481677606
 30
0.0
 10
161.0249444002617
 20
108.5996205736548
 30
0.0
 10
161.1244652780549
 20
108.7515628552557
 30
0.0
 10
161.1640794427792
 20
108.7992274647806
 30
0.0
 10
161.2611824765586
 20
108.873563795396
 30
0.0
 10
161.321681149209
 20
108.9002217175331
 30
0.0
 10
161.385212528129
 20
108.9002217175331
 30
0.0
  0
ELLIPSE
  5
75
330
1F
100
AcDbEntity
  8
0
  6
Continuous
 62
     7
370
    15
100
AcDbEllipse
 10
173.9137133695
 20
116.4690316867
 30
0.0
 11
11.70927234972706
 21
24.67718644093743
 31
0.0
210
0.0
220
0.0
230
1.0
 40
0.3419987131
 41
2.061476155780652
 42
2.972663379000668
  0
SPLINE
  5
76
330
1F
100
AcDbEntity
  8
0
  6
Continuous
 62
     7
370
    15
100
AcDbSpline
210
0.0
220
0.0
230
1.0
 70
     8
 71
     3
 72
    16
 73
    12
 74
     0
 42
0.00000001
 43
0.00000001
 12
1.0
 22
0.0
 32
0.0
 13
1.0
 23
0.0
 33
0.0
 40
0.0
 40
0.0
 40
0.0
 40
0.0
 40
0.2500000000000006
 40
0.2500000000000006
 40
0.5000000000000011
 40
0.5000000000000011
 40
0.6250000000000009
 40
0.6250000000000009
 40
0.7500000000000008
 40
0.7500000000000008
 40
1.0
 40
1.0
 40
1.0
 40
1.0
 10
151.8165946864335
 20
99.11987440552089
 30
0.0
 10
151.8483226476262
 20
99.11907728869997
 30
0.0
 10
151.8829502379768
 20
99.1184862138447
 30
0.0
 10
151.9626440000404
 20
99.11747468841025
 30
0.0
 10
152.0076854600441
 20
99.11707458023535
 30
0.0
 10
152.0905381868945
 20
99.11611670833153
 30
0.0
 10
152.1204526480944
 20
99.11573502707111
 30
0.0
 10
152.1864389786523
 20
99.11465881301255
 30
0.0
 10
152.2231726041141
 20
99.11394124711842
 30
0.0
 10
152.3356693236839
 20
99.11118036943677
 30
0.0
 10
152.4060106717822
 20
99.10869327756518
 30
0.0
 10
152.4624788256874
 20
99.10651999915807
 30
0.0
  0
SPLINE
  5
77
330
1F
100
AcDbEntity
  8
0
  6
Continuous
 62
     7
370
    15
100
AcDbSpline
210
0.0
220
0.0
230
1.0
 70
     8
 71
     3
 72
    14
 73
    10
 74
     0
 42
0.00000001
 43
0.00000001
 12
1.0
 22
0.0
 32
0.0
 13
1.0
 23
0.0
 33
0.0
 40
0.0
 40
0.0
 40
0.0
 40
0.0
 40
0.1250000000000004
 40
0.1250000000000004
 40
0.2500000000000007
 40
0.2500000000000007
 40
0.5000000000000014
 40
0.5000000000000014
 40
1.0
 40
1.0
 40
1.0
 40
1.0
 10
152.4624788256557
 20
99.10651999918078
 30
0.0
 10
152.4750706196005
 20
99.10603538135844
 30
0.0
 10
152.4899417278946
 20
99.10432520342609
 30
0.0
 10
152.5221258193278
 20
99.09620965467522
 30
0.0
 10
152.5377299508036
 20
99.0899938664139
 30
0.0
 10
152.5736170905157
 20
99.07177475471232
 30
0.0
 10
152.5874691317844
 20
99.06000972637868
 30
0.0
 10
152.620958873717
 20
99.02821458996138
 30
0.0
 10
152.6316211342927
 20
99.01042115811825
 30
0.0
 10
152.6397590911876
 20
98.99399002727384
 30
0.0
  0
LINE
  5
78
330
1F
100
AcDbEntity
  8
0
  6
Continuous
 62
     7
370
    15
100
AcDbLine
 10
152.6574557196
 20
110.4845516596
 30
0.0
 11
152.6574557196
 21
98.6292106312
 31
0.0
  0
SPLINE
  5
79
330
1F
100
AcDbEntity
  8
0
  6
Continuous
 62
     7
370
    15
100
AcDbSpline
210
0.0
220
0.0
230
1.0
 70
     8
 71
     3
 72
    16
 73
    12
 74
     0
 42
0.00000001
 43
0.00000001
 12
1.0
 22
0.0
 32
0.0
 13
1.0
 23
0.0
 33
0.0
 40
0.0
 40
0.0
 40
0.0
 40
0.0
 40
0.4999999999999983
 40
0.4999999999999983
 40
0.7499999999999992
 40
0.7499999999999992
 40
0.8750000000000004
 40
0.8750000000000004
 40
0.9375000000000002
 40
0.9375000000000002
 40
1.0
 40
1.0
 40
1.0
 40
1.0
 10
152.6574557145626
 20
110.4845514541388
 30
0.0
 10
152.6574557145626
 20
110.5990811848378
 30
0.0
 10
152.6533984124476
 20
110.7143972600273
 30
0.0
 10
152.6277411696528
 20
110.8893203498549
 30
0.0
 10
152.6164257239107
 20
110.9491496528498
 30
0.0
 10
152.582394356602
 20
111.033740839098
 30
0.0
 10
152.5685153753982
 20
111.062410425242
 30
0.0
 10
152.5325796936308
 20
111.0922182121883
 30
0.0
 10
152.5176293743681
 20
111.0985533655479
 30
0.0
 10
152.4877308616262
 20
111.0973279026777
 30
0.0
 10
152.474198001261
 20
111.0907293166429
 30
0.0
 10
152.462478825687
 20
111.0820816285864
 30
0.0
  0
SPLINE
  5
7A
330
1F
100
AcDbEntity
  8
0
  6
Continuous
 62
     7
370
    15
100
AcDbSpline
210
0.0
220
0.0
230
1.0
 70
     8
 71
     3
 72
    14
 73
    10
 74
     0
 42
0.00000001
 43
0.00000001
 12
1.0
 22
0.0
 32
0.0
 13
1.0
 23
0.0
 33
0.0
 40
0.0
 40
0.0
 40
0.0
 40
0.0
 40
0.25
 40
0.25
 40
0.5
 40
0.5
 40
0.75
 40
0.75
 40
1.0
 40
1.0
 40
1.0
 40
1.0
 10
152.4624788256938
 20
111.0820816285778
 30
0.0
 10
152.4060191598101
 20
111.040419518879
 30
0.0
 10
152.3351466849479
 20
111.0095860382908
 30
0.0
 10
152.1866803270659
 20
111.015300546904
 30
0.0
 10
152.1174851238581
 20
111.0508714743369
 30
0.0
 10
152.0077679377885
 20
111.1378153868108
 30
0.0
 10
151.9625220488566
 20
111.1902477001759
 30
0.0
 10
151.8829049178897
 20
111.2988007816944
 30
0.0
 10
151.8483022984328
 20
111.3557838679369
 30
0.0
 10
151.816594686434
 20
111.4143499505948
 30
0.0
  0
SPLINE
  5
7B
330
1F
100
AcDbEntity
  8
0
  6
Continuous
 62
     7
370
    15
100
AcDbSpline
210
0.0
220
0.0
230
1.0
 70
     8
 71
     3
 72
    10
 73
     6
 74
     0
 42
0.00000001
 43
0.00000001
 12
1.0
 22
0.0
 32
0.0
 13
1.0
 23
0.0
 33
0.0
 40
0.0
 40
0.0
 40
0.0
 40
0.0
 40
0.5
 40
0.5
 40
1.0
 40
1.0
 40
1.0
 40
1.0
 10
151.536135371003
 20
112.2671685422411
 30
0.0
 10
151.5670139546149
 20
112.1175399903814
 30
0.0
 10
151.6030066623383
 20
111.9710445728578
 30
0.0
 10
151.6923469138354
 20
111.685852934317
 30
0.0
 10
151.744805216681
 20
111.5469499086011
 30
0.0
 10
151.8165946864341
 20
111.4143499505946
 30
0.0
  0
SPLINE
  5
7C
330
1F
100
AcDbEntity
  8
0
  6
Continuous
 62
     7
370
    15
100
AcDbSpline
210
0.0
220
0.0
230
1.0
 70
     8
 71
     3
 72
    10
 73
     6
 74
     0
 42
0.00000001
 43
0.00000001
 12
1.0
 22
0.0
 32
0.0
 13
1.0
 23
0.0
 33
0.0
 40
0.0
 40
0.0
 40
0.0
 40
0.0
 40
0.5
 40
0.5
 40
1.0
 40
1.0
 40
1.0
 40
1.0
 10
151.8165946864334
 20
121.5237134228311
 30
0.0
 10
151.7448052166805
 20
121.3911134648247
 30
0.0
 10
151.6923469138351
 20
121.252210439109
 30
0.0
 10
151.6030066623382
 20
120.9670188005687
 30
0.0
 10
151.5670139546149
 20
120.8205233830453
 30
0.0
 10
151.536135371003
 20
120.6708948311859
 30
0.0
  0
SPLINE
  5
7D
330
1F
100
AcDbEntity
  8
0
  6
Continuous
 62
     7
370
    15
100
AcDbSpline
210
0.0
220
0.0
230
1.0
 70
     8
 71
     3
 72
    14
 73
    10
 74
     0
 42
0.00000001
 43
0.00000001
 12
1.0
 22
0.0
 32
0.0
 13
1.0
 23
0.0
 33
0.0
 40
0.0
 40
0.0
 40
0.0
 40
0.0
 40
0.25
 40
0.25
 40
0.5
 40
0.5
 40
0.75
 40
0.75
 40
1.0
 40
1.0
 40
1.0
 40
1.0
 10
151.8165946864328
 20
121.5237134228299
 30
0.0
 10
151.8483033859181
 20
121.5822815141484
 30
0.0
 10
151.8829112045587
 20
121.6392757760885
 30
0.0
 10
151.9625696150481
 20
121.7478759108524
 30
0.0
 10
152.0076318849429
 20
121.800204046231
 30
0.0
 10
152.1182137305213
 20
121.8877050575933
 30
0.0
 10
152.1858578513366
 20
121.9227505138475
 30
0.0
 10
152.3361061417337
 20
121.9284949026036
 30
0.0
 10
152.4060585399641
 20
121.8976147955536
 30
0.0
 10
152.4624788256876
 20
121.8559817448405
 30
0.0
  0
SPLINE
  5
7E
330
1F
100
AcDbEntity
  8
0
  6
Continuous
 62
     7
370
    15
100
AcDbSpline
210
0.0
220
0.0
230
1.0
 70
     8
 71
     3
 72
    16
 73
    12
 74
     0
 42
0.00000001
 43
0.00000001
 12
1.0
 22
0.0
 32
0.0
 13
1.0
 23
0.0
 33
0.0
 40
0.0
 40
0.0
 40
0.0
 40
0.0
 40
0.0625000000000005
 40
0.0625000000000005
 40
0.1250000000000011
 40
0.1250000000000011
 40
0.249999999999999
 40
0.249999999999999
 40
0.4999999999999982
 40
0.4999999999999982
 40
1.0
 40
1.0
 40
1.0
 40
1.0
 10
152.4624788256557
 20
121.8559817447871
 30
0.0
 10
152.4742130601026
 20
121.8473229446429
 30
0.0
 10
152.4877448155816
 20
121.8407188594076
 30
0.0
 10
152.5177322760115
 20
121.8395218922334
 30
0.0
 10
152.5327269824197
 20
121.8459436392993
 30
0.0
 10
152.5684674048145
 20
121.8756607927086
 30
0.0
 10
152.5824807418157
 20
121.904468190092
 30
0.0
 10
152.616624830597
 20
121.9895479117179
 30
0.0
 10
152.6275967347154
 20
122.0479228609876
 30
0.0
 10
152.6534422749817
 20
122.2236383857763
 30
0.0
 10
152.6574557145626
 20
122.3394333936407
 30
0.0
 10
152.6574557145626
 20
122.4535119192881
 30
0.0
  0
LINE
  5
7F
330
1F
100
AcDbEntity
  8
0
  6
Continuous
 62
     7
370
    15
100
AcDbLine
 10
152.6574557196
 20
134.3088527422
 30
0.0
 11
152.6574557196
 21
122.4535117138
 31
0.0
  0
SPLINE
  5
80
330
1F
100
AcDbEntity
  8
0
  6
Continuous
 62
     7
370
    15
100
AcDbSpline
210
0.0
220
0.0
230
1.0
 70
     8
 71
     3
 72
    16
 73
    12
 74
     0
 42
0.00000001
 43
0.00000001
 12
1.0
 22
0.0
 32
0.0
 13
1.0
 23
0.0
 33
0.0
 40
0.0
 40
0.0
 40
0.0
 40
0.0
 40
0.500000000000001
 40
0.500000000000001
 40
0.7499999999999996
 40
0.7499999999999996
 40
0.8749999999999998
 40
0.8749999999999998
 40
0.9374999999999999
 40
0.9374999999999999
 40
1.0
 40
1.0
 40
1.0
 40
1.0
 10
152.6574557145627
 20
134.0157861523811
 30
0.0
 10
152.6574557145625
 20
133.9937711378017
 30
0.0
 10
152.6533311717085
 20
133.968417503098
 30
0.0
 10
152.6274147260754
 20
133.9212570009094
 30
0.0
 10
152.6161371450556
 20
133.9040580126807
 30
0.0
 10
152.5824017665142
 20
133.8740800471114
 30
0.0
 10
152.5680129512698
 20
133.8627286385695
 30
0.0
 10
152.5327662618308
 20
133.8460407790922
 30
0.0
 10
152.5175608373738
 20
133.8404777522069
 30
0.0
 10
152.4879142582045
 20
133.8335081691717
 30
0.0
 10
152.4742089222071
 20
133.8319948281164
 30
0.0
 10
152.4624788256833
 20
133.8315433742665
 30
0.0
  0
SPLINE
  5
81
330
1F
100
AcDbEntity
  8
0
  6
Continuous
 62
     7
370
    15
100
AcDbSpline
210
0.0
220
0.0
230
1.0
 70
     8
 71
     3
 72
    14
 73
    10
 74
     0
 42
0.00000001
 43
0.00000001
 12
1.0
 22
0.0
 32
0.0
 13
1.0
 23
0.0
 33
0.0
 40
0.0
 40
0.0
 40
0.0
 40
0.0
 40
0.2500000000000005
 40
0.2500000000000005
 40
0.500000000000001
 40
0.500000000000001
 40
0.7500000000000004
 40
0.7500000000000004
 40
1.0
 40
1.0
 40
1.0
 40
1.0
 10
152.4624788256938
 20
133.831543374269
 30
0.0
 10
152.4060317436355
 20
133.8293709068498
 30
0.0
 10
152.3351813595927
 20
133.8268728089323
 30
0.0
 10
152.1867449247763
 20
133.8232263501441
 30
0.0
 10
152.1175556730894
 20
133.8222586032928
 30
0.0
 10
152.0078441248485
 20
133.8209910439301
 30
0.0
 10
151.9626024755061
 20
133.8205882030018
 30
0.0
 10
151.8829544573223
 20
133.8195771680741
 30
0.0
 10
151.8483275415562
 20
133.8189862076795
 30
0.0
 10
151.8165946864349
 20
133.8181889679061
 30
0.0
  0
SPLINE
  5
82
330
1F
100
AcDbEntity
  8
0
  6
Continuous
 62
     7
370
    15
100
AcDbSpline
210
0.0
220
0.0
230
1.0
 70
     8
 71
     3
 72
    18
 73
    14
 74
     0
 42
0.00000001
 43
0.00000001
 12
1.0
 22
0.0
 32
0.0
 13
1.0
 23
0.0
 33
0.0
 40
0.0
 40
0.0
 40
0.0
 40
0.0
 40
0.25
 40
0.25
 40
0.375
 40
0.375
 40
0.5
 40
0.5
 40
0.625
 40
0.625
 40
0.75
 40
0.75
 40
1.0
 40
1.0
 40
1.0
 40
1.0
 10
151.536135371003
 20
120.6708948311859
 30
0.0
 10
151.4008497647006
 20
120.0153404957647
 30
0.0
 10
151.2996820184577
 20
119.3357194019671
 30
0.0
 10
151.1968206755888
 20
118.280355395473
 30
0.0
 10
151.1707178300655
 20
117.9215413308884
 30
0.0
 10
151.1358278465206
 20
117.1954283867655
 30
0.0
 10
151.1272415882306
 20
116.8333387077493
 30
0.0
 10
151.127141878665
 20
116.111029050331
 30
0.0
 10
151.1356302498135
 20
115.7508092482226
 30
0.0
 10
151.1697736293341
 20
115.0322431791286
 30
0.0
 10
151.1955706111879
 20
114.6724774632133
 30
0.0
 10
151.2989717425759
 20
113.6058328762189
 30
0.0
 10
151.4008297347473
 20
112.9228199369365
 30
0.0
 10
151.536135371003
 20
112.2671685422411
 30
0.0
  0
LINE
  5
83
330
1F
100
AcDbEntity
  8
0
  6
Continuous
 62
     7
370
    15
100
AcDbLine
 10
150.6574557265
 20
121.6091839809
 30
0.0
 11
150.6574557265
 21
111.3288793925
 31
0.0
  0
LINE
  5
84
330
1F
100
AcDbEntity
  8
0
  6
Continuous
 62
     7
370
    15
100
AcDbLine
 10
124.3574556997
 20
121.2788103361
 30
0.0
 11
124.3574556997
 21
111.6592530374
 31
0.0
  0
LINE
  5
85
330
1F
100
AcDbEntity
  8
0
  6
Continuous
 62
     7
370
    15
100
AcDbLine
 10
122.8574563851
 20
120.8457974929
 30
0.0
 11
122.8574563851
 21
112.0922658805
 31
0.0
  0
LINE
  5
86
330
1F
100
AcDbEntity
  8
0
  6
Continuous
 62
     7
370
    15
100
AcDbLine
 10
124.3574556997
 20
121.2788103361
 30
0.0
 11
124.3574556997
 21
133.3283824127
 31
0.0
  0
LINE
  5
87
330
1F
100
AcDbEntity
  8
0
  6
Continuous
 62
     7
370
    15
100
AcDbLine
 10
124.3574556997
 20
133.3283824127
 30
0.0
 11
150.6574557265
 21
133.9891297024
 31
0.0
  0
LINE
  5
88
330
1F
100
AcDbEntity
  8
0
  6
Continuous
 62
     7
370
    15
100
AcDbLine
 10
150.6574557265
 20
121.6091839809
 30
0.0
 11
150.6574557265
 21
133.9891297024
 31
0.0
  0
LINE
  5
89
330
1F
100
AcDbEntity
  8
0
  6
Continuous
 62
     7
370
    15
100
AcDbLine
 10
124.3574556997
 20
99.6096809607
 30
0.0
 11
124.3574556997
 21
111.6592530374
 31
0.0
  0
LINE
  5
8A
330
1F
100
AcDbEntity
  8
0
  6
Continuous
 62
     7
370
    15
100
AcDbLine
 10
150.6574557265
 20
98.948933671
 30
0.0
 11
150.6574557265
 21
111.3288793925
 31
0.0
  0
LINE
  5
8B
330
1F
100
AcDbEntity
  8
0
  6
Continuous
 62
     7
370
    15
100
AcDbLine
 10
124.3574556997
 20
99.6096809607
 30
0.0
 11
150.6574557265
 21
98.948933671
 31
0.0
  0
ARC
  5
8C
330
1F
100
AcDbEntity
  8
0
  6
Continuous
 62
     7
370
    15
100
AcDbCircle
 10
150.8573926255
 20
133.9941535824
 30
0.0
 40
0.2000000000000059
100
AcDbArc
 50
181.4391666667
 51
271.4391666667
  0
ARC
  5
8D
330
1F
100
AcDbEntity
  8
0
  6
Continuous
 62
     7
370
    15
100
AcDbCircle
 10
150.8573926255
 20
98.943909791
 30
0.0
 40
0.2000000000000059
100
AcDbArc
 50
88.5608333333
 51
178.5608333333
  0
LINE
  5
8E
330
1F
100
AcDbEntity
  8
0
  6
Continuous
 62
     7
370
    15
100
AcDbLine
 10
150.8624158436
 20
99.1438464474
 30
0.0
 11
151.816594704
 21
99.1198742043
 31
0.0
  0
LINE
  5
8F
330
1F
100
AcDbEntity
  8
0
  6
Continuous
 62
     7
370
    15
100
AcDbLine
 10
150.8624158436
 20
133.794216926
 30
0.0
 11
151.816594704
 21
133.8181891691
 31
0.0
  0
LINE
  5
90
330
1F
100
AcDbEntity
  8
0
  6
Continuous
 62
     7
370
    15
100
AcDbLine
 10
122.8574563851
 20
132.4623567265
 30
0.0
 11
124.3574556997
 21
133.3283824127
 31
0.0
  0
LINE
  5
91
330
1F
100
AcDbEntity
  8
0
  6
Continuous
 62
     7
370
    15
100
AcDbLine
 10
122.8574563851
 20
120.8457974929
 30
0.0
 11
122.8574563851
 21
132.4623567265
 31
0.0
  0
LINE
  5
92
330
1F
100
AcDbEntity
  8
0
  6
Continuous
 62
     7
370
    15
100
AcDbLine
 10
122.8574563851
 20
100.475706647
 30
0.0
 11
124.3574556997
 21
99.6096809607
 31
0.0
  0
LINE
  5
93
330
1F
100
AcDbEntity
  8
0
  6
Continuous
 62
     7
370
    15
100
AcDbLine
 10
122.8574563851
 20
100.475706647
 30
0.0
 11
122.8574563851
 21
112.0922658805
 31
0.0
  0
ELLIPSE
  5
94
330
1F
100
AcDbEntity
  8
0
  6
Continuous
 62
     7
370
    15
100
AcDbEllipse
 10
234.4419150642
 20
116.4690316867
 30
0.0
 11
-0.6417425547209065
 21
15.99909656657808
 31
0.0
210
0.0
220
0.0
230
1.0
 40
0.2649452246
 41
0.3664936598871593
 42
2.474592585192273
  0
SPLINE
  5
95
330
1F
100
AcDbEntity
  8
0
  6
Continuous
 62
     7
370
    15
100
AcDbSpline
210
0.0
220
0.0
230
1.0
 70
     8
 71
     3
 72
    14
 73
    10
 74
     0
 42
0.00000001
 43
0.00000001
 12
1.0
 22
0.0
 32
0.0
 13
1.0
 23
0.0
 33
0.0
 40
0.0
 40
0.0
 40
0.0
 40
0.0
 40
0.25
 40
0.25
 40
0.5
 40
0.5
 40
0.75
 40
0.75
 40
1.0
 40
1.0
 40
1.0
 40
1.0
 10
234.9080035993596
 20
102.4564058523058
 30
0.0
 10
234.5909266671091
 20
102.4736207091764
 30
0.0
 10
234.2888562143909
 20
102.5156542815261
 30
0.0
 10
233.7140666983488
 20
102.6525966843119
 30
0.0
 10
233.4563287755324
 20
102.7441998660548
 30
0.0
 10
232.9996219738847
 20
102.9775536005223
 30
0.0
 10
232.8105590505874
 20
103.1145161183696
 30
0.0
 10
232.5066079039827
 20
103.4300090064508
 30
0.0
 10
232.3960625999077
 20
103.6043989977101
 30
0.0
 10
232.3238115102953
 20
103.7936607979149
 30
0.0
  0
ELLIPSE
  5
96
330
1F
100
AcDbEntity
  8
0
  6
Continuous
 62
     7
370
    15
100
AcDbEllipse
 10
289.1185833492
 20
116.4690316867
 30
0.0
 11
152.2296510335275
 21
-2.251148238946968
 31
0.0
210
0.0
220
0.0
230
1.0
 40
0.1040588589
 41
4.349826012189162
 42
4.360596634983245
  0
ELLIPSE
  5
97
330
1F
100
AcDbEntity
  8
0
  6
Continuous
 62
     7
370
    15
100
AcDbEllipse
 10
289.1185833492
 20
116.4690316867
 30
0.0
 11
152.2296510335275
 21
-2.251148238946968
 31
0.0
210
0.0
220
0.0
230
1.0
 40
0.1040588589
 41
1.925666281985073
 42
1.936436904779158
  0
SPLINE
  5
98
330
1F
100
AcDbEntity
  8
0
  6
Continuous
 62
     7
370
    15
100
AcDbSpline
210
0.0
220
0.0
230
1.0
 70
     8
 71
     3
 72
    18
 73
    14
 74
     0
 42
0.00000001
 43
0.00000001
 12
1.0
 22
0.0
 32
0.0
 13
1.0
 23
0.0
 33
0.0
 40
0.0
 40
0.0
 40
0.0
 40
0.0
 40
0.2499999999999963
 40
0.2499999999999963
 40
0.3749999999999969
 40
0.3749999999999969
 40
0.4999999999999976
 40
0.4999999999999976
 40
0.6249999999999981
 40
0.6249999999999981
 40
0.7499999999999988
 40
0.7499999999999988
 40
1.0
 40
1.0
 40
1.0
 40
1.0
 10
232.3238115102953
 20
131.3446931385935
 30
0.0
 10
232.3961179786259
 20
131.4589878873675
 30
0.0
 10
232.5056736762668
 20
131.5591831151691
 30
0.0
 10
232.732355750698
 20
131.6911892690769
 30
0.0
 10
232.8188793126393
 20
131.7321536597328
 30
0.0
 10
233.0083072960103
 20
131.8057984690235
 30
0.0
 10
233.1117857672949
 20
131.8388842530101
 30
0.0
 10
233.3369404618234
 20
131.8984381206051
 30
0.0
 10
233.4598091220996
 20
131.9251075483715
 30
0.0
 10
233.7196350449086
 20
131.971297840724
 30
0.0
 10
233.8554277467249
 20
131.9907193064598
 30
0.0
 10
234.2803047454285
 20
132.0395349822919
 30
0.0
 10
234.5904557328807
 20
132.0596573554997
 30
0.0
 10
234.9080035993596
 20
132.0676078018628
 30
0.0
  0
ELLIPSE
  5
99
330
1F
100
AcDbEntity
  8
0
  6
Continuous
 62
     7
370
    15
100
AcDbEllipse
 10
231.9046856704
 20
124.1460677685
 30
0.0
 11
0.03365772976354719
 21
2.228292320166403
 31
0.0
210
0.0
220
0.0
230
1.0
 40
0.2506800175
 41
5.496858230342969
 42
10.33146946880276
  0
SPLINE
  5
9A
330
1F
100
AcDbEntity
  8
0
  6
Continuous
 62
     7
370
    15
100
AcDbSpline
210
0.0
220
0.0
230
1.0
 70
     8
 71
     3
 72
    18
 73
    14
 74
     0
 42
0.00000001
 43
0.00000001
 12
1.0
 22
0.0
 32
0.0
 13
1.0
 23
0.0
 33
0.0
 40
0.0
 40
0.0
 40
0.0
 40
0.0
 40
0.1250000000000001
 40
0.1250000000000001
 40
0.2500000000000003
 40
0.2500000000000003
 40
0.5000000000000006
 40
0.5000000000000006
 40
0.6250000000000001
 40
0.6250000000000001
 40
0.7499999999999997
 40
0.7499999999999997
 40
1.0
 40
1.0
 40
1.0
 40
1.0
 10
232.3238115102953
 20
125.7142724394119
 30
0.0
 10
232.3491240473043
 20
125.6062030136813
 30
0.0
 10
232.3761159342303
 20
125.4918669623738
 30
0.0
 10
232.42732731055
 20
125.2493486632653
 30
0.0
 10
232.4517016486608
 20
125.1195798313925
 30
0.0
 10
232.5094528552999
 20
124.725535919662
 30
0.0
 10
232.5268767616674
 20
124.4479590571535
 30
0.0
 10
232.5170853952451
 20
124.0487443196423
 30
0.0
 10
232.5082952771568
 20
123.9165122727147
 30
0.0
 10
232.4831543666732
 20
123.6625450297423
 30
0.0
 10
232.4668734745238
 20
123.5401355499466
 30
0.0
 10
232.411507463823
 20
123.1849353388334
 30
0.0
 10
232.3654767937796
 20
122.9625948957133
 30
0.0
 10
232.3238115102953
 20
122.7660057486997
 30
0.0
  0
LINE
  5
9B
330
1F
100
AcDbEntity
  8
0
  6
Continuous
 62
     7
370
    15
100
AcDbLine
 10
249.3853078326
 20
129.5311297502
 30
0.0
 11
250.010262533
 21
136.6346744102
 31
0.0
  0
LINE
  5
9C
330
1F
100
AcDbEntity
  8
0
  6
Continuous
 62
     7
370
    15
100
AcDbLine
 10
248.0886609396
 20
129.4371397447
 30
0.0
 11
249.3853078326
 21
129.5311297502
 31
0.0
  0
ARC
  5
9D
330
1F
100
AcDbEntity
  8
0
  6
Continuous
 62
     7
370
    15
100
AcDbCircle
 10
248.2890165271
 20
127.1155926945
 30
0.0
 40
2.33017661723191
100
AcDbArc
 50
94.9325538624
 51
275.0974152721
  0
LINE
  5
9E
330
1F
100
AcDbEntity
  8
0
  6
Continuous
 62
     7
370
    15
100
AcDbLine
 10
260.7420862754
 20
125.6823069628
 30
0.0
 11
248.496051236
 21
124.794631752
 31
0.0
  0
LINE
  5
9F
330
1F
100
AcDbEntity
  8
0
  6
Continuous
 62
     7
370
    15
100
AcDbLine
 10
259.9375278791
 20
116.5372775134
 30
0.0
 11
260.7420862754
 21
125.6823069628
 31
0.0
  0
LINE
  5
A0
330
1F
100
AcDbEntity
  8
0
  6
Continuous
 62
     7
370
    15
100
AcDbLine
 10
249.0795658072
 20
101.2556520503
 30
0.0
 11
259.9375278791
 21
116.5372775134
 31
0.0
  0
ELLIPSE
  5
A1
330
1F
100
AcDbEntity
  8
0
  6
Continuous
 62
     7
370
    15
100
AcDbEllipse
 10
289.1185833492
 20
116.4690316867
 30
0.0
 11
156.9868276283252
 21
-2.32149662141407
 31
0.0
210
0.0
220
0.0
230
1.0
 40
0.1040588589
 41
4.377925064758895
 42
4.456031793480356
  0
SPLINE
  5
A2
330
1F
100
AcDbEntity
  8
0
  6
Continuous
 62
     7
370
    15
100
AcDbSpline
210
0.0
220
0.0
230
1.0
 70
     8
 71
     3
 72
     8
 73
     4
 74
     0
 42
0.00000001
 43
0.00000001
 12
1.0
 22
0.0
 32
0.0
 13
1.0
 23
0.0
 33
0.0
 40
0.0
 40
0.0
 40
0.0
 40
0.0
 40
1.0
 40
1.0
 40
1.0
 40
1.0
 10
237.3574557145626
 20
101.8004516278318
 30
0.0
 10
237.2883717155214
 20
101.8764372123248
 30
0.0
 10
237.2193354744008
 20
101.9524667906951
 30
0.0
 10
237.1503489333761
 20
102.0285421520453
 30
0.0
  0
SPLINE
  5
A3
330
1F
100
AcDbEntity
  8
0
  6
Continuous
 62
     7
370
    15
100
AcDbSpline
210
0.0
220
0.0
230
1.0
 70
     8
 71
     3
 72
    10
 73
     6
 74
     0
 42
0.00000001
 43
0.00000001
 12
1.0
 22
0.0
 32
0.0
 13
1.0
 23
0.0
 33
0.0
 40
0.0
 40
0.0
 40
0.0
 40
0.0
 40
0.5
 40
0.5
 40
1.0
 40
1.0
 40
1.0
 40
1.0
 10
237.1503489333761
 20
102.0285421520453
 30
0.0
 10
237.059158861694
 20
102.129102602703
 30
0.0
 10
236.9512043247425
 20
102.2115842251254
 30
0.0
 10
236.7095237562938
 20
102.3311933793402
 30
0.0
 10
236.5784057230403
 20
102.3668720761356
 30
0.0
 10
236.4432421521895
 20
102.3740376019567
 30
0.0
  0
SPLINE
  5
A4
330
1F
100
AcDbEntity
  8
0
  6
Continuous
 62
     7
370
    15
100
AcDbSpline
210
0.0
220
0.0
230
1.0
 70
     8
 71
     3
 72
     8
 73
     4
 74
     0
 42
0.00000001
 43
0.00000001
 12
1.0
 22
0.0
 32
0.0
 13
1.0
 23
0.0
 33
0.0
 40
0.0
 40
0.0
 40
0.0
 40
0.0
 40
1.0
 40
1.0
 40
1.0
 40
1.0
 10
236.4432421521895
 20
132.10506208846
 30
0.0
 10
236.7133239598612
 20
132.1114787922485
 30
0.0
 10
236.9680968673289
 20
132.2342230590558
 30
0.0
 10
237.1503489333765
 20
132.4298708716109
 30
0.0
  0
SPLINE
  5
A5
330
1F
100
AcDbEntity
  8
0
  6
Continuous
 62
     7
370
    15
100
AcDbSpline
210
0.0
220
0.0
230
1.0
 70
     8
 71
     3
 72
     8
 73
     4
 74
     0
 42
0.00000001
 43
0.00000001
 12
1.0
 22
0.0
 32
0.0
 13
1.0
 23
0.0
 33
0.0
 40
0.0
 40
0.0
 40
0.0
 40
0.0
 40
1.0
 40
1.0
 40
1.0
 40
1.0
 10
237.1503489333761
 20
132.4298708716114
 30
0.0
 10
238.1268397100129
 20
133.4781348972129
 30
0.0
 10
239.1130378555774
 20
134.5171726481236
 30
0.0
 10
240.1049432584421
 20
135.5507859916616
 30
0.0
  0
ELLIPSE
  5
A6
330
1F
100
AcDbEntity
  8
0
  6
Continuous
 62
     7
370
    15
100
AcDbEllipse
 10
283.0159093756
 20
113.9624324569
 30
0.0
 11
217.1628490301419
 21
19.4408946286368
 31
0.0
210
0.0
220
0.0
230
1.0
 40
0.1182598878
 41
1.71277821745836
 42
1.75910564366094
  0
CIRCLE
  5
A7
330
1F
100
AcDbEntity
  8
0
  6
Continuous
 62
     7
370
    15
100
AcDbCircle
 10
251.4614135145
 20
119.7484133888
 30
0.0
 40
3.967754870144672
  0
LINE
  5
A8
330
1F
100
AcDbEntity
  8
0
  6
Continuous
 62
     7
370
    15
100
AcDbLine
 10
237.3574555954
 20
101.8004515421
 30
0.0
 11
237.3574555954
 21
99.9690317761
 31
0.0
  0
LINE
  5
A9
330
1F
100
AcDbEntity
  8
0
  6
Continuous
 62
     7
370
    15
100
AcDbLine
 10
240.1049465974
 20
135.5507862967
 30
0.0
 11
239.9566278895
 21
135.5386399876
 31
0.0
  0
ELLIPSE
  5
AA
330
1F
100
AcDbEntity
  8
0
  6
Continuous
 62
     7
370
    15
100
AcDbEllipse
 10
259.8701307507
 20
116.4690316867
 30
0.0
 11
11.74560502278064
 21
16.49993160125571
 31
0.0
210
0.0
220
0.0
230
1.0
 40
0.0040448756
 41
3.144472021888252
 42
3.541994353845755
  0
ARC
  5
AB
330
1F
100
AcDbEntity
  8
0
  6
Continuous
 62
     7
370
    15
100
AcDbCircle
 10
247.759867947
 20
126.4881646639
 30
0.0
 40
2.304180967826221
100
AcDbArc
 50
94.0438548257
 51
132.5831844893
  0
LINE
  5
AC
330
1F
100
AcDbEntity
  8
0
  6
Continuous
 62
     7
370
    15
100
AcDbLine
 10
248.8940239986
 20
128.8805990692
 30
0.0
 11
249.3853078326
 21
129.5311297502
 31
0.0
  0
LINE
  5
AD
330
1F
100
AcDbEntity
  8
0
  6
Continuous
 62
     7
370
    15
100
AcDbLine
 10
248.8940239986
 20
128.8805990692
 30
0.0
 11
248.9163310369
 21
128.8822158452
 31
0.0
  0
LINE
  5
AE
330
1F
100
AcDbEntity
  8
0
  6
Continuous
 62
     7
370
    15
100
AcDbLine
 10
248.882274433
 20
128.4950967159
 30
0.0
 11
247.2900630077
 21
128.3796816345
 31
0.0
  0
ELLIPSE
  5
AF
330
1F
100
AcDbEntity
  8
0
  6
Continuous
 62
     7
370
    15
100
AcDbEllipse
 10
247.2924412922
 20
110.207744663
 30
0.0
 11
2.73362693842327
 21
26.42588789006401
 31
0.0
210
0.0
220
0.0
230
1.0
 40
0.0894011665
 41
0.006664280596216
 42
0.018847257499977
  0
ARC
  5
B0
330
1F
100
AcDbEntity
  8
0
  6
Continuous
 62
     7
370
    15
100
AcDbCircle
 10
247.7412146388
 20
126.737014999
 30
0.0
 40
2.054635020170016
100
AcDbArc
 50
94.0143529173
 51
142.8480443249
  0
ARC
  5
B1
330
1F
100
AcDbEntity
  8
0
  6
Continuous
 62
     7
370
    15
100
AcDbCircle
 10
247.4350234485
 20
126.3261912996
 30
0.0
 40
2.058600516158271
100
AcDbArc
 50
94.0379377763
 51
131.5620189123
  0
LINE
  5
B2
330
1F
100
AcDbEntity
  8
0
  6
Continuous
 62
     7
370
    15
100
AcDbLine
 10
257.6735125025
 20
129.7156508293
 30
0.0
 11
257.6580376466
 21
130.035327303
 31
0.0
  0
LWPOLYLINE
  5
B3
330
1F
100
AcDbEntity
  8
0
  6
Continuous
 62
     7
370
    15
100
AcDbPolyline
 90
        3
 70
   128
 43
0.0
 10
254.5002729734
 20
132.9381210011
 10
253.7993223508
 20
132.872628535
 10
253.6029101451
 20
132.8253620517
  0
ARC
  5
B4
330
1F
100
AcDbEntity
  8
0
  6
Continuous
 62
     7
370
    15
100
AcDbCircle
 10
255.1673637901
 20
130.6713545727
 30
0.0
 40
2.818130591893038
100
AcDbArc
 50
49.3301888187
 51
104.3659378407
  0
ARC
  5
B5
330
1F
100
AcDbEntity
  8
0
  6
Continuous
 62
     7
370
    15
100
AcDbCircle
 10
255.2118529503
 20
130.6756082722
 30
0.0
 40
2.779559417234271
100
AcDbArc
 50
358.7783557923
 51
18.4379952497
  0
CIRCLE
  5
B6
330
1F
100
AcDbEntity
  8
0
  6
Continuous
 62
     7
370
    15
100
AcDbCircle
 10
251.4713857701
 20
119.7465829011
 30
0.0
 40
3.474495247303668
  0
CIRCLE
  5
B7
330
1F
100
AcDbEntity
  8
0
  6
Continuous
 62
     7
370
    15
100
AcDbCircle
 10
251.4923395729
 20
119.7490954339
 30
0.0
 40
1.986414268661281
  0
SPLINE
  5
B8
330
1F
100
AcDbEntity
  8
0
  6
Continuous
 62
     7
370
    15
100
AcDbSpline
210
0.0
220
0.0
230
1.0
 70
     8
 71
     3
 72
    11
 73
     7
 74
     0
 42
0.00000001
 43
0.00000001
 12
1.0
 22
0.0
 32
0.0
 13
1.0
 23
0.0
 33
0.0
 40
0.0
 40
0.0
 40
0.0
 40
0.0
 40
0.1081102530818658
 40
0.4711554680154365
 40
0.8135800018894701
 40
0.9999999999999999
 40
0.9999999999999999
 40
0.9999999999999999
 40
0.9999999999999999
 10
250.4326135953457
 20
118.3814804747752
 30
0.0
 10
250.4873541894482
 20
118.3686961619416
 30
0.0
 10
250.7259192607395
 20
118.3129808275985
 30
0.0
 10
251.1910211190138
 20
118.22137455238
 30
0.0
 10
251.7355716721048
 20
118.1521187230256
 30
0.0
 10
252.0334172573572
 20
118.1267590669454
 30
0.0
 10
252.1384091218502
 20
118.1178196778572
 30
0.0
  0
SPLINE
  5
B9
330
1F
100
AcDbEntity
  8
0
  6
Continuous
 62
     7
370
    15
100
AcDbSpline
210
0.0
220
0.0
230
1.0
 70
     8
 71
     3
 72
    10
 73
     6
 74
     0
 42
0.00000001
 43
0.00000001
 12
1.0
 22
0.0
 32
0.0
 13
1.0
 23
0.0
 33
0.0
 40
0.0
 40
0.0
 40
0.0
 40
0.0
 40
0.4391154239447497
 40
0.7513662913000362
 40
1.0
 40
1.0
 40
1.0
 40
1.0
 10
252.1384091218502
 20
118.1178196778572
 30
0.0
 10
252.2794900642023
 20
118.2948703056445
 30
0.0
 10
252.5208923439853
 20
118.5978199774592
 30
0.0
 10
252.9066959569111
 20
119.0843929233737
 30
0.0
 10
253.1091702353444
 20
119.3404094556844
 30
0.0
 10
253.1989247640163
 20
119.4538986522756
 30
0.0
  0
SPLINE
  5
BA
330
1F
100
AcDbEntity
  8
0
  6
Continuous
 62
     7
370
    15
100
AcDbSpline
210
0.0
220
0.0
230
1.0
 70
     8
 71
     3
 72
    10
 73
     6
 74
     0
 42
0.00000001
 43
0.00000001
 12
1.0
 22
0.0
 32
0.0
 13
1.0
 23
0.0
 33
0.0
 40
0.0
 40
0.0
 40
0.0
 40
0.0
 40
0.4391166315626067
 40
0.7513668109308623
 40
0.9999999999999999
 40
0.9999999999999999
 40
0.9999999999999999
 40
0.9999999999999999
 10
253.1989247640163
 20
119.4538986522756
 30
0.0
 10
253.0958078088145
 20
119.6686940401663
 30
0.0
 10
252.9193657152705
 20
120.0362276610811
 30
0.0
 10
252.6977580207187
 20
120.616688277913
 30
0.0
 10
252.5979023202513
 20
120.9194344877172
 30
0.0
 10
252.5536374290974
 20
121.0536384236119
 30
0.0
  0
SPLINE
  5
BB
330
1F
100
AcDbEntity
  8
0
  6
Continuous
 62
     7
370
    15
100
AcDbSpline
210
0.0
220
0.0
230
1.0
 70
     8
 71
     3
 72
    11
 73
     7
 74
     0
 42
0.00000001
 43
0.00000001
 12
1.0
 22
0.0
 32
0.0
 13
1.0
 23
0.0
 33
0.0
 40
0.0
 40
0.0
 40
0.0
 40
0.0
 40
0.1864160834950553
 40
0.5288406529780774
 40
0.8918897408964069
 40
0.9999999999999999
 40
0.9999999999999999
 40
0.9999999999999999
 40
0.9999999999999999
 10
252.5536374290974
 20
121.0536384236119
 30
0.0
 10
252.4486480466942
 20
121.0625777531621
 30
0.0
 10
252.1508054329834
 20
121.0879375868624
 30
0.0
 10
251.6062548050379
 20
121.1571942112859
 30
0.0
 10
251.1411494698355
 20
121.2487988833323
 30
0.0
 10
250.9025824875577
 20
121.3045147692572
 30
0.0
 10
250.8478419025928
 20
121.3172991041146
 30
0.0
  0
SPLINE
  5
BC
330
1F
100
AcDbEntity
  8
0
  6
Continuous
 62
     7
370
    15
100
AcDbSpline
210
0.0
220
0.0
230
1.0
 70
     8
 71
     3
 72
    10
 73
     6
 74
     0
 42
0.00000001
 43
0.00000001
 12
1.0
 22
0.0
 32
0.0
 13
1.0
 23
0.0
 33
0.0
 40
0.0
 40
0.0
 40
0.0
 40
0.0
 40
0.4391164084113117
 40
0.751366658126077
 40
1.0
 40
1.0
 40
1.0
 40
1.0
 10
250.8478419025928
 20
121.3172991041146
 30
0.0
 10
250.6852821274998
 20
121.1118097404112
 30
0.0
 10
250.4071281058833
 20
120.7601994304143
 30
0.0
 10
250.0376625912259
 20
120.2952544097446
 30
0.0
 10
249.8642140387377
 20
120.0776720438926
 30
0.0
 10
249.7873262604267
 20
119.9812202461115
 30
0.0
  0
SPLINE
  5
BD
330
1F
100
AcDbEntity
  8
0
  6
Continuous
 62
     7
370
    15
100
AcDbSpline
210
0.0
220
0.0
230
1.0
 70
     8
 71
     3
 72
    10
 73
     6
 74
     0
 42
0.00000001
 43
0.00000001
 12
1.0
 22
0.0
 32
0.0
 13
1.0
 23
0.0
 33
0.0
 40
0.0
 40
0.0
 40
0.0
 40
0.0
 40
0.4391159452199253
 40
0.7513665538177645
 40
1.0
 40
1.0
 40
1.0
 40
1.0
 10
249.7873262604267
 20
119.9812202461115
 30
0.0
 10
249.8689642503066
 20
119.7379854939631
 30
0.0
 10
250.0086541335467
 20
119.3217891351654
 30
0.0
 10
250.2466006034591
 20
118.7629597504746
 30
0.0
 10
250.3754819692197
 20
118.4986471905676
 30
0.0
 10
250.4326135953457
 20
118.3814804747752
 30
0.0
  0
LINE
  5
BE
330
1F
100
AcDbEntity
  8
0
  6
Continuous
 62
     7
370
    15
100
AcDbLine
 10
250.4577369531
 20
120.8007433664
 30
0.0
 11
250.8478419026
 21
121.3172991041
 31
0.0
  0
LINE
  5
BF
330
1F
100
AcDbEntity
  8
0
  6
Continuous
 62
     7
370
    15
100
AcDbLine
 10
250.4577369531
 20
120.8007433664
 30
0.0
 11
249.927479132
 21
120.1327040538
 31
0.0
  0
LINE
  5
C0
330
1F
100
AcDbEntity
  8
0
  6
Continuous
 62
     7
370
    15
100
AcDbLine
 10
252.8088198145
 20
118.9373429146
 30
0.0
 11
252.4861798724
 21
119.7372128002
 31
0.0
  0
LINE
  5
C1
330
1F
100
AcDbEntity
  8
0
  6
Continuous
 62
     7
370
    15
100
AcDbLine
 10
252.4861798724
 20
119.7372128002
 30
0.0
 11
252.1635324796
 21
120.5370826859
 31
0.0
  0
LINE
  5
C2
330
1F
100
AcDbEntity
  8
0
  6
Continuous
 62
     7
370
    15
100
AcDbLine
 10
252.1635324796
 20
120.5370826859
 30
0.0
 11
252.5536374291
 21
121.0536384236
 31
0.0
  0
LINE
  5
C3
330
1F
100
AcDbEntity
  8
0
  6
Continuous
 62
     7
370
    15
100
AcDbLine
 10
252.1635324796
 20
120.5370826859
 30
0.0
 11
251.3106347164
 21
120.6689127933
 31
0.0
  0
LINE
  5
C4
330
1F
100
AcDbEntity
  8
0
  6
Continuous
 62
     7
370
    15
100
AcDbLine
 10
251.3106347164
 20
120.6689127933
 30
0.0
 11
250.4577369531
 21
120.8007433664
 31
0.0
  0
ARC
  5
C5
330
1F
100
AcDbEntity
  8
0
  6
Continuous
 62
     7
370
    15
100
AcDbCircle
 10
251.1215150991
 20
119.1812335883
 30
0.0
 40
1.473574846251481
100
AcDbArc
 50
326.5017728471
 51
22.1665141514
  0
ARC
  5
C6
330
1F
100
AcDbEntity
  8
0
  6
Continuous
 62
     7
370
    15
100
AcDbCircle
 10
251.0798126325
 20
119.2122846566
 30
0.0
 40
1.474803160813883
100
AcDbArc
 50
80.9955929725
 51
141.3841010146
  0
ARC
  5
C7
330
1F
100
AcDbEntity
  8
0
  6
Continuous
 62
     7
370
    15
100
AcDbCircle
 10
251.0775346219
 20
119.167350764
 30
0.0
 40
1.519547360893532
100
AcDbArc
 50
22.0256052971
 51
81.1759283674
  0
LINE
  5
C8
330
1F
100
AcDbEntity
  8
0
  6
Continuous
 62
     7
370
    15
100
AcDbLine
 10
249.4752810439
 20
124.9048630919
 30
0.0
 11
261.4469335516
 21
125.7726499092
 31
0.0
  0
ARC
  5
C9
330
1F
100
AcDbEntity
  8
0
  6
Continuous
 62
     7
370
    15
100
AcDbCircle
 10
249.4464017759
 20
125.3072666261
 30
0.0
 40
0.403438491459443
100
AcDbArc
 50
175.304823703
 51
274.1049046647
  0
LINE
  5
CA
330
1F
100
AcDbEntity
  8
0
  6
Continuous
 62
     7
370
    15
100
AcDbLine
 10
250.091697379
 20
137.2454152655
 30
0.0
 11
249.0443171104
 21
125.3402899232
 31
0.0
  0
ARC
  5
CB
330
1F
100
AcDbEntity
  8
0
  6
Continuous
 62
     7
370
    15
100
AcDbCircle
 10
250.4800771452
 20
137.2112410223
 30
0.0
 40
0.3898803940853589
100
AcDbArc
 50
93.934337063
 51
174.9713913971
  0
LINE
  5
CC
330
1F
100
AcDbEntity
  8
0
  6
Continuous
 62
     7
370
    15
100
AcDbLine
 10
262.4249787172
 20
138.4679884862
 30
0.0
 11
250.4533262094
 21
137.6002026003
 31
0.0
  0
ARC
  5
CD
330
1F
100
AcDbEntity
  8
0
  6
Continuous
 62
     7
370
    15
100
AcDbCircle
 10
262.4538589422
 20
138.0655858993
 30
0.0
 40
0.4034376151832001
100
AcDbArc
 50
355.3046785069
 51
94.1050498609
  0
LINE
  5
CE
330
1F
100
AcDbEntity
  8
0
  6
Continuous
 62
     7
370
    15
100
AcDbLine
 10
261.8085549315
 20
126.1274363127
 30
0.0
 11
262.8559426507
 21
138.032561655
 31
0.0
  0
ARC
  5
CF
330
1F
100
AcDbEntity
  8
0
  6
Continuous
 62
     7
370
    15
100
AcDbCircle
 10
261.4201882836
 20
126.1615976439
 30
0.0
 40
0.3898661946426987
100
AcDbArc
 50
273.9336456656
 51
354.9731126722
  0
ARC
  5
D0
330
1F
100
AcDbEntity
  8
0
  6
Continuous
 62
     7
370
    15
100
AcDbCircle
 10
262.4541445654
 20
138.0659508142
 30
0.0
 40
0.3832658131406272
100
AcDbArc
 50
355.3045677147
 51
94.1052138524
  0
LINE
  5
D1
330
1F
100
AcDbEntity
  8
0
  6
Continuous
 62
     7
370
    15
100
AcDbLine
 10
262.4267072519
 20
138.4482332718
 30
0.0
 11
250.4550547441
 21
137.5804473858
 31
0.0
  0
ARC
  5
D2
330
1F
100
AcDbEntity
  8
0
  6
Continuous
 62
     7
370
    15
100
AcDbCircle
 10
250.4804648475
 20
137.2109465702
 30
0.0
 40
0.3703734954555689
100
AcDbArc
 50
93.933964608
 51
174.9731134375
  0
LINE
  5
D3
330
1F
100
AcDbEntity
  8
0
  6
Continuous
 62
     7
370
    15
100
AcDbLine
 10
250.1115159234
 20
137.2433998834
 30
0.0
 11
249.0641282042
 21
125.3382736098
 31
0.0
  0
ARC
  5
D4
330
1F
100
AcDbEntity
  8
0
  6
Continuous
 62
     7
370
    15
100
AcDbCircle
 10
249.4461121321
 20
125.3069045412
 30
0.0
 40
0.3832698000342815
100
AcDbArc
 50
175.3053229332
 51
274.105630231
  0
LINE
  5
D5
330
1F
100
AcDbEntity
  8
0
  6
Continuous
 62
     7
370
    15
100
AcDbLine
 10
249.4735525092
 20
124.9246183064
 30
0.0
 11
261.4451975664
 21
125.7924051236
 31
0.0
  0
ARC
  5
D6
330
1F
100
AcDbEntity
  8
0
  6
Continuous
 62
     7
370
    15
100
AcDbCircle
 10
261.4197921526
 20
126.1619093152
 30
0.0
 40
0.3703765416863013
100
AcDbArc
 50
273.9332050338
 51
354.9726306356
  0
LINE
  5
D7
330
1F
100
AcDbEntity
  8
0
  6
Continuous
 62
     7
370
    15
100
AcDbLine
 10
261.7887438377
 20
126.129452626
 30
0.0
 11
262.8361241063
 21
138.034577037
 31
0.0
  0
LINE
  5
D8
330
1F
100
AcDbEntity
  8
0
  6
Continuous
 62
     7
370
    15
100
AcDbLine
 10
250.2812252482
 20
126.099532957
 30
0.0
 11
249.4176806053
 21
125.2696034711
 31
0.0
  0
LINE
  5
D9
330
1F
100
AcDbEntity
  8
0
  6
Continuous
 62
     7
370
    15
100
AcDbLine
 10
260.7812688788
 20
126.6641817268
 30
0.0
 11
261.3893331131
 21
126.1373902883
 31
0.0
  0
LINE
  5
DA
330
1F
100
AcDbEntity
  8
0
  6
Continuous
 62
     7
370
    15
100
AcDbLine
 10
260.690416499
 20
125.0950438183
 30
0.0
 11
260.9493763288
 21
125.1138146248
 31
0.0
  0
LINE
  5
DB
330
1F
100
AcDbEntity
  8
0
  6
Continuous
 62
     7
370
    15
100
AcDbLine
 10
248.9191101035
 20
128.9138174828
 30
0.0
 11
248.557108744
 21
124.7990573969
 31
0.0
  0
LINE
  5
DC
330
1F
100
AcDbEntity
  8
0
  6
Continuous
 62
     7
370
    15
100
AcDbLine
 10
250.9981052121
 20
136.5486053031
 30
0.0
 11
250.4650608738
 21
137.1747297447
 31
0.0
  0
ARC
  5
DD
330
1F
100
AcDbEntity
  8
0
  6
Continuous
 62
     7
370
    15
100
AcDbCircle
 10
252.3214622326
 20
128.1303968427
 30
0.0
 40
1.008594522659826
100
AcDbArc
 50
175.3046953024
 51
274.1052311624
  0
SPLINE
  5
DE
330
1F
100
AcDbEntity
  8
0
  6
Continuous
 62
     7
370
    15
100
AcDbSpline
210
0.0
220
0.0
230
1.0
 70
     8
 71
     3
 72
    11
 73
     7
 74
     0
 42
0.00000001
 43
0.00000001
 12
1.0
 22
0.0
 32
0.0
 13
1.0
 23
0.0
 33
0.0
 40
0.0
 40
0.0
 40
0.0
 40
0.0
 40
0.336786342577428
 40
0.6790120578130295
 40
0.9923722046618774
 40
0.9999999999999999
 40
0.9999999999999999
 40
0.9999999999999999
 40
0.9999999999999999
 10
250.2812252481968
 20
126.0995329570077
 30
0.0
 10
250.3342919025062
 20
126.1508660514098
 30
0.0
 10
250.4412822806438
 20
126.2543613113337
 30
0.0
 10
250.6136065224923
 20
126.4247432437034
 30
0.0
 10
250.7234836303531
 20
126.5347172065073
 30
0.0
 10
250.7741511662331
 20
126.5858057465881
 30
0.0
 10
250.7753552039654
 20
126.5870197888515
 30
0.0
  0
LINE
  5
DF
330
1F
100
AcDbEntity
  8
0
  6
Continuous
 62
     7
370
    15
100
AcDbLine
 10
252.3936660131
 20
127.1243901204
 30
0.0
 11
259.0937645277
 21
127.6100580793
 31
0.0
  0
LINE
  5
E0
330
1F
100
AcDbEntity
  8
0
  6
Continuous
 62
     7
370
    15
100
AcDbLine
 10
251.9024343332
 20
134.8758251619
 30
0.0
 11
251.3162524541
 21
128.2129571986
 31
0.0
  0
ARC
  5
E1
330
1F
100
AcDbEntity
  8
0
  6
Continuous
 62
     7
370
    15
100
AcDbCircle
 10
252.873359747
 20
134.790415882
 30
0.0
 40
0.9746747684321305
100
AcDbArc
 50
93.9336873127
 51
174.972809446
  0
LINE
  5
E2
330
1F
100
AcDbEntity
  8
0
  6
Continuous
 62
     7
370
    15
100
AcDbLine
 10
259.506593748
 20
136.248462389
 30
0.0
 11
252.8064952334
 21
135.7627944302
 31
0.0
  0
ARC
  5
E3
330
1F
100
AcDbEntity
  8
0
  6
Continuous
 62
     7
370
    15
100
AcDbCircle
 10
259.5787946661
 20
135.2424528338
 30
0.0
 40
1.008597143491916
100
AcDbArc
 50
355.3048690081
 51
94.1050574567
  0
LINE
  5
E4
330
1F
100
AcDbEntity
  8
0
  6
Continuous
 62
     7
370
    15
100
AcDbLine
 10
259.9978254279
 20
128.4970264163
 30
0.0
 11
260.5840073069
 21
135.1598953109
 31
0.0
  0
ARC
  5
E5
330
1F
100
AcDbEntity
  8
0
  6
Continuous
 62
     7
370
    15
100
AcDbCircle
 10
259.0269027865
 20
128.5824338913
 30
0.0
 40
0.9746718484799074
100
AcDbArc
 50
273.933535753
 51
354.9729008559
  0
CIRCLE
  5
E6
330
1F
100
AcDbEntity
  8
0
  6
Continuous
 62
     7
370
    15
100
AcDbCircle
 10
255.9635438401
 20
131.6534488903
 30
0.0
 40
2.552810571501202
  0
ARC
  5
E7
330
1F
100
AcDbEntity
  8
0
  6
Continuous
 62
     7
370
    15
100
AcDbCircle
 10
255.429442972
 20
130.9920606079
 30
0.0
 40
2.588988723500606
100
AcDbArc
 50
355.0247060681
 51
132.8155664545
  0
LWPOLYLINE
  5
E8
330
1F
100
AcDbEntity
  8
0
  6
Continuous
 62
     7
370
    15
100
AcDbPolyline
 90
        3
 70
   128
 43
0.0
 10
257.7328414758
 20
129.822815324
 10
257.8727559289
 20
130.1435535055
 10
258.0086768707
 20
130.7675275233
  0
LINE
  5
E9
330
1F
100
AcDbEntity
  8
0
  6
Continuous
 62
     7
370
    15
100
AcDbLine
 10
261.4723325809
 20
137.0790698778
 30
0.0
 11
262.4367133816
 21
138.0425156307
 31
0.0
  0
SPLINE
  5
EA
330
1F
100
AcDbEntity
  8
0
  6
Continuous
 62
     7
370
    15
100
AcDbSpline
210
0.0
220
0.0
230
1.0
 70
     8
 71
     3
 72
    11
 73
     7
 74
     0
 42
0.00000001
 43
0.00000001
 12
1.0
 22
0.0
 32
0.0
 13
1.0
 23
0.0
 33
0.0
 40
0.0
 40
0.0
 40
0.0
 40
0.0
 40
0.008121024138984
 40
0.3263738121362721
 40
0.6627690932845471
 40
1.0
 40
1.0
 40
1.0
 40
1.0
 10
260.2985234101803
 20
127.1641175475023
 30
0.0
 10
260.2996101819712
 20
127.1627850679825
 30
0.0
 10
260.3432861822207
 20
127.109234381143
 30
0.0
 10
260.441946551415
 20
126.995042242698
 30
0.0
 10
260.6097341664855
 20
126.8191356632113
 30
0.0
 10
260.7240433749386
 20
126.7158757365248
 30
0.0
 10
260.7812688787968
 20
126.6641817268035
 30
0.0
  0
ARC
  5
EB
330
1F
100
AcDbEntity
  8
0
  6
Continuous
 62
     7
370
    15
100
AcDbCircle
 10
260.9220363553
 20
125.5041071142
 30
0.0
 40
0.3912488996141103
100
AcDbArc
 50
274.0070215104
 51
322.8554402186
  0
SPLINE
  5
EC
330
1F
100
AcDbEntity
  8
0
  6
Continuous
 62
     7
370
    15
100
AcDbSpline
210
0.0
220
0.0
230
1.0
 70
     8
 71
     3
 72
    11
 73
     7
 74
     0
 42
0.00000001
 43
0.00000001
 12
1.0
 22
0.0
 32
0.0
 13
1.0
 23
0.0
 33
0.0
 40
0.0
 40
0.0
 40
0.0
 40
0.0
 40
0.3372307197795817
 40
0.6736324634006224
 40
0.9918875394267409
 40
1.0
 40
1.0
 40
1.0
 40
1.0
 10
250.9981052120716
 20
136.5486053030989
 30
0.0
 10
251.0500855607501
 20
136.4899637318159
 30
0.0
 10
251.1539184806918
 20
136.3728247411956
 30
0.0
 10
251.3271596975733
 20
136.2041726380629
 30
0.0
 10
251.4382802280897
 20
136.1063881516983
 30
0.0
 10
251.490010543319
 20
136.063569545156
 30
0.0
 10
251.491296394685
 20
136.0625052105687
 30
0.0
  0
ARC
  5
ED
330
1F
100
AcDbEntity
  8
0
  6
Continuous
 62
     7
370
    15
100
AcDbCircle
 10
249.9818917177
 20
136.5528476635
 30
0.0
 40
0.3892087199913002
100
AcDbArc
 50
142.9552712234
 51
175.0278585291
  0
SPLINE
  5
EE
330
1F
100
AcDbEntity
  8
0
  6
Continuous
 62
     7
370
    15
100
AcDbSpline
210
0.0
220
0.0
230
1.0
 70
     8
 71
     3
 72
    11
 73
     7
 74
     0
 42
0.00000001
 43
0.00000001
 12
1.0
 22
0.0
 32
0.0
 13
1.0
 23
0.0
 33
0.0
 40
0.0
 40
0.0
 40
0.0
 40
0.0
 40
0.0076299008375415
 40
0.3209907373736039
 40
0.663217929351522
 40
1.0
 40
1.0
 40
1.0
 40
1.0
 10
260.9939606030972
 20
136.6124418776534
 30
0.0
 10
260.9949755563752
 20
136.6134052572062
 30
0.0
 10
261.037674748414
 20
136.6539347371574
 30
0.0
 10
261.1347756296641
 20
136.7469974279861
 30
0.0
 10
261.2994853273187
 20
136.907295887107
 30
0.0
 10
261.4150256773481
 20
137.0221188108058
 30
0.0
 10
261.4723325809032
 20
137.0790698777936
 30
0.0
  0
LINE
  5
EF
330
1F
100
AcDbEntity
  8
0
  6
Continuous
 62
     7
370
    15
100
AcDbLine
 10
253.4579814514
 20
131.8991142537
 30
0.0
 11
253.7863359889
 21
132.2395862293
 31
0.0
  0
LINE
  5
F0
330
1F
100
AcDbEntity
  8
0
  6
Continuous
 62
     7
370
    15
100
AcDbLine
 10
253.7863359889
 20
132.2395862293
 30
0.0
 11
253.4649998983
 21
131.3652056482
 31
0.0
  0
LINE
  5
F1
330
1F
100
AcDbEntity
  8
0
  6
Continuous
 62
     7
370
    15
100
AcDbLine
 10
253.4649998983
 20
131.3652056482
 30
0.0
 11
253.4171671709
 21
131.3156099271
 31
0.0
  0
ELLIPSE
  5
F2
330
1F
100
AcDbEntity
  8
0
  6
Continuous
 62
     7
370
    15
100
AcDbEllipse
 10
255.6816649317
 20
131.0272002898
 30
0.0
 11
1.759005141004906
 21
-1.403439041303386
 31
0.0
210
0.0
220
0.0
230
1.0
 40
0.9859532801
 41
0.5282529414981075
 42
3.24742383436958
  0
ELLIPSE
  5
F3
330
1F
100
AcDbEntity
  8
0
  6
Continuous
 62
     7
370
    15
100
AcDbEllipse
 10
255.6816649317
 20
131.0272002898
 30
0.0
 11
1.759005141004906
 21
-1.403439041303386
 31
0.0
210
0.0
220
0.0
230
1.0
 40
0.9859532801
 41
3.669845595087949
 42
6.389016487959351
  0
LINE
  5
F4
330
1F
100
AcDbEntity
  8
0
  6
Continuous
 62
     7
370
    15
100
AcDbLine
 10
257.5769976815
 20
129.8148134004
 30
0.0
 11
257.898333772
 21
130.6891949128
 31
0.0
  0
LWPOLYLINE
  5
F5
330
1F
100
AcDbEntity
  8
0
  6
Continuous
 62
     7
370
    15
100
AcDbPolyline
 90
        3
 70
   128
 43
0.0
 10
253.5882846554
 20
132.7193589162
 10
253.9800212821
 20
132.8458660495
 10
254.4743002494
 20
132.922137643
  0
LWPOLYLINE
  5
F6
330
1F
100
AcDbEntity
  8
0
  6
Continuous
 62
     7
370
    15
100
AcDbPolyline
 90
        3
 70
   128
 43
0.0
 10
257.5866238316
 20
129.8410133671
 10
257.5752616962
 20
129.7065741595
 10
257.572653993
 20
129.6834633898
  0
LINE
  5
F7
330
1F
100
AcDbEntity
  8
0
  6
HIDDEN
 62
     7
370
     0
100
AcDbLine
 10
172.8574552675
 20
140.8690312158
 30
0.0
 11
172.8574552675
 21
92.0690321576
 31
0.0
  0
LINE
  5
F8
330
1F
100
AcDbEntity
  8
0
  6
HIDDEN
 62
     7
370
     0
100
AcDbLine
 10
152.8574557146
 20
141.1690325689
 30
0.0
 11
152.8574557146
 21
91.7690308046
 31
0.0
  0
SPLINE
  5
F9
330
1F
100
AcDbEntity
  8
0
  6
HIDDEN
 62
     7
370
     0
100
AcDbSpline
210
0.0
220
0.0
230
1.0
 70
     8
 71
     3
 72
    58
 73
    54
 74
     0
 42
0.00000001
 43
0.00000001
 12
1.0
 22
0.0
 32
0.0
 13
1.0
 23
0.0
 33
0.0
 40
-0.0624999999999998
 40
-0.0624999999999998
 40
0.0
 40
0.0
 40
0.0312500000000002
 40
0.0312500000000002
 40
0.0625000000000003
 40
0.0625000000000003
 40
0.0937500000000005
 40
0.0937500000000005
 40
0.1250000000000006
 40
0.1250000000000006
 40
0.1875000000000009
 40
0.1875000000000009
 40
0.2500000000000012
 40
0.2500000000000012
 40
0.2812500000000012
 40
0.2812500000000012
 40
0.3125000000000011
 40
0.3125000000000011
 40
0.3437500000000011
 40
0.3437500000000011
 40
0.375000000000001
 40
0.375000000000001
 40
0.406250000000001
 40
0.406250000000001
 40
0.4375000000000009
 40
0.4375000000000009
 40
0.4687500000000009
 40
0.4687500000000009
 40
0.5000000000000008
 40
0.5000000000000008
 40
0.5625000000000008
 40
0.5625000000000008
 40
0.6250000000000007
 40
0.6250000000000007
 40
0.6562500000000007
 40
0.6562500000000007
 40
0.6875000000000006
 40
0.6875000000000006
 40
0.7187500000000006
 40
0.7187500000000006
 40
0.7500000000000004
 40
0.7500000000000004
 40
0.7812500000000004
 40
0.7812500000000004
 40
0.8125000000000004
 40
0.8125000000000004
 40
0.8437500000000003
 40
0.8437500000000003
 40
0.8750000000000003
 40
0.8750000000000003
 40
0.9375000000000002
 40
0.9375000000000002
 40
1.0
 40
1.0
 40
1.03125
 40
1.03125
 10
162.8574557145626
 20
116.20465931617
 30
0.0
 10
162.8574557145626
 20
116.6012178719852
 30
0.0
 10
162.8704316065731
 20
116.73118461153
 30
0.0
 10
162.921263908679
 20
116.9868639496621
 30
0.0
 10
162.9597409800004
 20
117.1139050415035
 30
0.0
 10
163.0601459411568
 20
117.3560832274441
 30
0.0
 10
163.1215801834761
 20
117.4709368860336
 30
0.0
 10
163.2667144496578
 20
117.6883020078394
 30
0.0
 10
163.3511563708052
 20
117.7911774799237
 30
0.0
 10
163.627828400415
 20
118.0677954323408
 30
0.0
 10
163.8508745553832
 20
118.2167875521737
 30
0.0
 10
164.3321385539276
 20
118.416311347165
 30
0.0
 10
164.5953964092474
 20
118.4688902116672
 30
0.0
 10
164.9868624405323
 20
118.4691019852547
 30
0.0
 10
165.1194111841457
 20
118.4561110136653
 30
0.0
 10
165.375955493161
 20
118.4050747903755
 30
0.0
 10
165.5006513795327
 20
118.3673132489727
 30
0.0
 10
165.7428543499664
 20
118.2671537096793
 30
0.0
 10
165.8599177132171
 20
118.2045558999288
 30
0.0
 10
166.0766040324632
 20
118.0598339158932
 30
0.0
 10
166.1776180005309
 20
117.9772098107249
 30
0.0
 10
166.3644111948164
 20
117.7905894401139
 30
0.0
 10
166.4472115587707
 20
117.6895410722227
 30
0.0
 10
166.5920899976653
 20
117.4730290513488
 30
0.0
 10
166.6547407809926
 20
117.3561396961499
 30
0.0
 10
166.7551811753665
 20
117.1138822940909
 30
0.0
 10
166.7930401871365
 20
116.9892196292756
 30
0.0
 10
166.8442778916
 20
116.7328884336208
 30
0.0
 10
166.8574082663731
 20
116.6003004942704
 30
0.0
 10
166.857550216812
 20
116.208668825701
 30
0.0
 10
166.8052093005639
 20
115.9454559926668
 30
0.0
 10
166.6060790738258
 20
115.4639486619754
 30
0.0
 10
166.4572419861835
 20
115.2407481806999
 30
0.0
 10
166.1809299496441
 20
114.9639021007381
 30
0.0
 10
166.0781644123929
 20
114.8793900065194
 30
0.0
 10
165.860847480039
 20
114.7340114097879
 30
0.0
 10
165.7460605695022
 20
114.6724959781861
 30
0.0
 10
165.5041410793963
 20
114.5719399179405
 30
0.0
 10
165.3770141768963
 20
114.5333011921059
 30
0.0
 10
165.1213453412601
 20
114.4822363252185
 30
0.0
 10
164.9914501358822
 20
114.4691618448422
 30
0.0
 10
164.7273753534577
 20
114.4689034435686
 30
0.0
 10
164.5970462139724
 20
114.4817795115316
 30
0.0
 10
164.3413568998286
 20
114.5323783028595
 30
0.0
 10
164.214429033441
 20
114.5706836486972
 30
0.0
 10
163.9719767445988
 20
114.6709394811171
 30
0.0
 10
163.8570600506172
 20
114.7322905000291
 30
0.0
 10
163.6396692588467
 20
114.8771593355994
 30
0.0
 10
163.5366839791652
 20
114.9615232888687
 30
0.0
 10
163.2597196115079
 20
115.2380493426548
 30
0.0
 10
163.1105873331494
 20
115.4609091846505
 30
0.0
 10
162.910635214435
 20
115.9420117047112
 30
0.0
 10
162.8574557145626
 20
116.20465931617
 30
0.0
 10
162.8574557145626
 20
116.6012178719852
 30
0.0
  0
SPLINE
  5
FA
330
1F
100
AcDbEntity
  8
0
  6
HIDDEN
 62
     7
370
     0
100
AcDbSpline
210
0.0
220
0.0
230
1.0
 70
     8
 71
     3
 72
    12
 73
     8
 74
     0
 42
0.00000001
 43
0.00000001
 12
1.0
 22
0.0
 32
0.0
 13
1.0
 23
0.0
 33
0.0
 40
0.0
 40
0.0
 40
0.0
 40
0.0
 40
0.2500000000000016
 40
0.2500000000000016
 40
0.5000000000000032
 40
0.5000000000000032
 40
1.0
 40
1.0
 40
1.0
 40
1.0
 10
161.385212528129
 20
108.9002217175329
 30
0.0
 10
161.3215472915985
 20
108.9002217175329
 30
0.0
 10
161.2619410593752
 20
108.8741495690532
 30
0.0
 10
161.1632805344443
 20
108.7986108182321
 30
0.0
 10
161.1243135444291
 20
108.7513598811359
 30
0.0
 10
161.0249267125046
 20
108.5995360631694
 30
0.0
 10
160.9828504650812
 20
108.4867328134044
 30
0.0
 10
160.9521998262368
 20
108.3725786886693
 30
0.0
  0
LINE
  5
FB
330
1F
100
AcDbEntity
  8
0
  6
HIDDEN
 62
     7
370
     0
100
AcDbLine
 10
164.3296985989
 20
108.9002215516
 30
0.0
 11
161.3852123832
 21
108.9002215516
 31
0.0
  0
SPLINE
  5
FC
330
1F
100
AcDbEntity
  8
0
  6
HIDDEN
 62
     7
370
     0
100
AcDbSpline
210
0.0
220
0.0
230
1.0
 70
     8
 71
     3
 72
    12
 73
     8
 74
     0
 42
0.00000001
 43
0.00000001
 12
1.0
 22
0.0
 32
0.0
 13
1.0
 23
0.0
 33
0.0
 40
0.0
 40
0.0
 40
0.0
 40
0.0
 40
0.5000000000000004
 40
0.5000000000000004
 40
0.7500000000000002
 40
0.7500000000000002
 40
1.0
 40
1.0
 40
1.0
 40
1.0
 10
164.7627116028884
 20
108.3725786886693
 30
0.0
 10
164.7320122195211
 20
108.4869143557331
 30
0.0
 10
164.6906621514146
 20
108.5982677085745
 30
0.0
 10
164.5909062231951
 20
108.7510044808232
 30
0.0
 10
164.5512093054624
 20
108.7988643666753
 30
0.0
 10
164.4539511538148
 20
108.8734674800248
 30
0.0
 10
164.3931749958241
 20
108.9002217175329
 30
0.0
 10
164.3296989009962
 20
108.9002217175329
 30
0.0
  0
ELLIPSE
  5
FD
330
1F
100
AcDbEntity
  8
0
  6
HIDDEN
 62
     7
370
     0
100
AcDbEllipse
 10
151.8011980596
 20
116.4690316867
 30
0.0
 11
-11.70927234972714
 21
24.67718644093743
 31
0.0
210
0.0
220
0.0
230
1.0
 40
0.3419987131
 41
3.310521928178955
 42
4.221709151398947
  0
SPLINE
  5
FE
330
1F
100
AcDbEntity
  8
0
  6
HIDDEN
 62
     7
370
     0
100
AcDbSpline
210
0.0
220
0.0
230
1.0
 70
     8
 71
     3
 72
    12
 73
     8
 74
     0
 42
0.00000001
 43
0.00000001
 12
1.0
 22
0.0
 32
0.0
 13
1.0
 23
0.0
 33
0.0
 40
0.0
 40
0.0
 40
0.0
 40
0.0
 40
0.2500000000000002
 40
0.2500000000000002
 40
0.5000000000000004
 40
0.5000000000000004
 40
1.0
 40
1.0
 40
1.0
 40
1.0
 10
164.3296989009962
 20
92.64230057121154
 30
0.0
 10
164.3933641375267
 20
92.64230057121152
 30
0.0
 10
164.45297036975
 20
92.65056534687737
 30
0.0
 10
164.5516308946809
 20
92.67478412846054
 30
0.0
 10
164.5905978846961
 20
92.69004144776969
 30
0.0
 10
164.6899847166206
 20
92.7396748020316
 30
0.0
 10
164.7320609640441
 20
92.77731451020573
 30
0.0
 10
164.7627116028884
 20
92.81639020948188
 30
0.0
  0
LINE
  5
FF
330
1F
100
AcDbEntity
  8
0
  6
HIDDEN
 62
     7
370
     0
100
AcDbLine
 10
161.3852123832
 20
92.6423003178
 30
0.0
 11
164.3296985989
 21
92.6423003178
 31
0.0
  0
SPLINE
  5
100
330
1F
100
AcDbEntity
  8
0
  6
HIDDEN
 62
     7
370
     0
100
AcDbSpline
210
0.0
220
0.0
230
1.0
 70
     8
 71
     3
 72
    12
 73
     8
 74
     0
 42
0.00000001
 43
0.00000001
 12
1.0
 22
0.0
 32
0.0
 13
1.0
 23
0.0
 33
0.0
 40
0.0
 40
0.0
 40
0.0
 40
0.0
 40
0.5000000000000018
 40
0.5000000000000018
 40
0.7500000000000009
 40
0.7500000000000009
 40
1.0
 40
1.0
 40
1.0
 40
1.0
 10
160.9521998262368
 20
92.81639020948187
 30
0.0
 10
160.9828992096041
 20
92.77725236708598
 30
0.0
 10
161.0242492777107
 20
92.74009258436045
 30
0.0
 10
161.1240052059301
 20
92.69015607873273
 30
0.0
 10
161.1637021236628
 20
92.67470320858897
 30
0.0
 10
161.2609602753104
 20
92.65078366498992
 30
0.0
 10
161.3217364333011
 20
92.64230057121152
 30
0.0
 10
161.385212528129
 20
92.64230057121152
 30
0.0
  0
ELLIPSE
  5
101
330
1F
100
AcDbEntity
  8
0
  6
HIDDEN
 62
     7
370
     0
100
AcDbEllipse
 10
173.9137133695
 20
116.4690316867
 30
0.0
 11
11.709272349727
 21
24.67718644093743
 31
0.0
210
0.0
220
0.0
230
1.0
 40
0.3419987131
 41
2.061476155780647
 42
2.972663379000663
  0
SPLINE
  5
102
330
1F
100
AcDbEntity
  8
0
  6
HIDDEN
 62
     7
370
     0
100
AcDbSpline
210
0.0
220
0.0
230
1.0
 70
     8
 71
     3
 72
    12
 73
     8
 74
     0
 42
0.00000001
 43
0.00000001
 12
1.0
 22
0.0
 32
0.0
 13
1.0
 23
0.0
 33
0.0
 40
0.0
 40
0.0
 40
0.0
 40
0.0
 40
0.25
 40
0.25
 40
0.5
 40
0.5
 40
1.0
 40
1.0
 40
1.0
 40
1.0
 10
161.385212528129
 20
140.2957628022155
 30
0.0
 10
161.3215472915985
 20
140.2957628022155
 30
0.0
 10
161.2619410593752
 20
140.2874980265497
 30
0.0
 10
161.1632805344443
 20
140.2632792449665
 30
0.0
 10
161.1243135444291
 20
140.2480219256574
 30
0.0
 10
161.0249267125046
 20
140.1983885713954
 30
0.0
 10
160.9828504650812
 20
140.1607488632213
 30
0.0
 10
160.9521998262368
 20
140.1216731639452
 30
0.0
  0
LINE
  5
103
330
1F
100
AcDbEntity
  8
0
  6
HIDDEN
 62
     7
370
     0
100
AcDbLine
 10
164.3296985989
 20
140.2957630556
 30
0.0
 11
161.3852123832
 21
140.2957630556
 31
0.0
  0
SPLINE
  5
104
330
1F
100
AcDbEntity
  8
0
  6
HIDDEN
 62
     7
370
     0
100
AcDbSpline
210
0.0
220
0.0
230
1.0
 70
     8
 71
     3
 72
    12
 73
     8
 74
     0
 42
0.00000001
 43
0.00000001
 12
1.0
 22
0.0
 32
0.0
 13
1.0
 23
0.0
 33
0.0
 40
0.0
 40
0.0
 40
0.0
 40
0.0
 40
0.5000000000000013
 40
0.5000000000000013
 40
0.7500000000000007
 40
0.7500000000000007
 40
1.0
 40
1.0
 40
1.0
 40
1.0
 10
164.7627116028884
 20
140.1216731639452
 30
0.0
 10
164.7320122195211
 20
140.1608110063411
 30
0.0
 10
164.6906621514146
 20
140.1979707890666
 30
0.0
 10
164.5909062231951
 20
140.2479072946943
 30
0.0
 10
164.5512093054624
 20
140.2633601648381
 30
0.0
 10
164.4539511538148
 20
140.2872797084371
 30
0.0
 10
164.3931749958241
 20
140.2957628022155
 30
0.0
 10
164.3296989009962
 20
140.2957628022155
 30
0.0
  0
ELLIPSE
  5
105
330
1F
100
AcDbEntity
  8
0
  6
HIDDEN
 62
     7
370
     0
100
AcDbEllipse
 10
151.8011980596
 20
116.4690316867
 30
0.0
 11
11.70927234972723
 21
24.67718644093744
 31
0.0
210
0.0
220
0.0
230
1.0
 40
0.3419987131
 41
5.203068809370471
 42
6.114256032590516
  0
SPLINE
  5
106
330
1F
100
AcDbEntity
  8
0
  6
HIDDEN
 62
     7
370
     0
100
AcDbSpline
210
0.0
220
0.0
230
1.0
 70
     8
 71
     3
 72
    12
 73
     8
 74
     0
 42
0.00000001
 43
0.00000001
 12
1.0
 22
0.0
 32
0.0
 13
1.0
 23
0.0
 33
0.0
 40
0.0
 40
0.0
 40
0.0
 40
0.0
 40
0.2500000000000002
 40
0.2500000000000002
 40
0.5000000000000004
 40
0.5000000000000004
 40
1.0
 40
1.0
 40
1.0
 40
1.0
 10
164.3296989009962
 20
124.0378416558944
 30
0.0
 10
164.3933641375267
 20
124.0378416558944
 30
0.0
 10
164.45297036975
 20
124.0639138043741
 30
0.0
 10
164.5516308946809
 20
124.1394525551952
 30
0.0
 10
164.5905978846961
 20
124.1867034922914
 30
0.0
 10
164.6899847166206
 20
124.3385273102578
 30
0.0
 10
164.7320609640441
 20
124.4513305600229
 30
0.0
 10
164.7627116028884
 20
124.565484684758
 30
0.0
  0
LINE
  5
107
330
1F
100
AcDbEntity
  8
0
  6
HIDDEN
 62
     7
370
     0
100
AcDbLine
 10
161.3852123832
 20
124.0378418218
 30
0.0
 11
164.3296985989
 21
124.0378418218
 31
0.0
  0
SPLINE
  5
108
330
1F
100
AcDbEntity
  8
0
  6
HIDDEN
 62
     7
370
     0
100
AcDbSpline
210
0.0
220
0.0
230
1.0
 70
     8
 71
     3
 72
    12
 73
     8
 74
     0
 42
0.00000001
 43
0.00000001
 12
1.0
 22
0.0
 32
0.0
 13
1.0
 23
0.0
 33
0.0
 40
0.0
 40
0.0
 40
0.0
 40
0.0
 40
0.5
 40
0.5
 40
0.75
 40
0.75
 40
1.0
 40
1.0
 40
1.0
 40
1.0
 10
160.9521998262368
 20
124.565484684758
 30
0.0
 10
160.9828992096041
 20
124.4511490176942
 30
0.0
 10
161.0242492777107
 20
124.3397956648528
 30
0.0
 10
161.1240052059301
 20
124.1870588926041
 30
0.0
 10
161.1637021236628
 20
124.139199006752
 30
0.0
 10
161.2609602753104
 20
124.0645958934025
 30
0.0
 10
161.3217364333011
 20
124.0378416558944
 30
0.0
 10
161.385212528129
 20
124.0378416558944
 30
0.0
  0
ELLIPSE
  5
109
330
1F
100
AcDbEntity
  8
0
  6
HIDDEN
 62
     7
370
     0
100
AcDbEllipse
 10
173.9137133695
 20
116.4690316867
 30
0.0
 11
-11.70927234972714
 21
24.67718644093743
 31
0.0
210
0.0
220
0.0
230
1.0
 40
0.3419987131
 41
0.1689292745891151
 42
1.080116497809132
  0
LINE
  5
10A
330
1F
100
AcDbEntity
  8
0
  6
HIDDEN
 62
     7
370
     0
100
AcDbLine
 10
172.8574552675
 20
96.4690321337
 30
0.0
 11
172.8574552675
 21
136.4690312397
 31
0.0
  0
LINE
  5
10B
330
1F
100
AcDbEntity
  8
0
  6
HIDDEN
 62
     7
370
     0
100
AcDbLine
 10
152.8574557146
 20
96.9190323006
 30
0.0
 11
152.8574557146
 21
136.0190310728
 31
0.0
  0
SPLINE
  5
10C
330
1F
100
AcDbEntity
  8
0
  6
HIDDEN
 62
     7
370
     0
100
AcDbSpline
210
0.0
220
0.0
230
1.0
 70
     8
 71
     3
 72
    14
 73
    10
 74
     0
 42
0.00000001
 43
0.00000001
 12
1.0
 22
0.0
 32
0.0
 13
1.0
 23
0.0
 33
0.0
 40
0.0
 40
0.0
 40
0.0
 40
0.0
 40
0.25
 40
0.25
 40
0.5
 40
0.5
 40
0.75
 40
0.75
 40
1.0
 40
1.0
 40
1.0
 40
1.0
 10
151.8165946864342
 20
128.7635072317869
 30
0.0
 10
151.848309820765
 20
128.7057240494437
 30
0.0
 10
151.8829243460653
 20
128.6493113883688
 30
0.0
 10
151.9625955414807
 20
128.5417119383534
 30
0.0
 10
152.0076514185111
 20
128.4897993114323
 30
0.0
 10
152.1182058310165
 20
128.403600686735
 30
0.0
 10
152.1855912452206
 20
128.3695112667633
 30
0.0
 10
152.3362207651187
 20
128.3674088747465
 30
0.0
 10
152.4060480018841
 20
128.4007806475913
 30
0.0
 10
152.4624788256875
 20
128.4445933161419
 30
0.0
  0
SPLINE
  5
10D
330
1F
100
AcDbEntity
  8
0
  6
HIDDEN
 62
     7
370
     0
100
AcDbSpline
210
0.0
220
0.0
230
1.0
 70
     8
 71
     3
 72
    16
 73
    12
 74
     0
 42
0.00000001
 43
0.00000001
 12
1.0
 22
0.0
 32
0.0
 13
1.0
 23
0.0
 33
0.0
 40
0.0
 40
0.0
 40
0.0
 40
0.0
 40
0.0624999999999999
 40
0.0624999999999999
 40
0.1249999999999998
 40
0.1249999999999998
 40
0.2499999999999998
 40
0.2499999999999998
 40
0.4999999999999999
 40
0.4999999999999999
 40
1.0
 40
1.0
 40
1.0
 40
1.0
 10
152.4624788256557
 20
128.4445933161726
 30
0.0
 10
152.4742130601026
 20
128.4537037294205
 30
0.0
 10
152.4877448155816
 20
128.4617810853669
 30
0.0
 10
152.5177322760115
 20
128.4700279270438
 30
0.0
 10
152.5327269824197
 20
128.4691006094562
 30
0.0
 10
152.5684674048145
 20
128.4563340899244
 30
0.0
 10
152.5824807418157
 20
128.4386854434141
 30
0.0
 10
152.616624830597
 20
128.3840325233825
 30
0.0
 10
152.6275967347154
 20
128.3426328557241
 30
0.0
 10
152.6534422749817
 20
128.2141431120013
 30
0.0
 10
152.6574557145626
 20
128.1235250243626
 30
0.0
 10
152.6574557145626
 20
128.0313059198085
 30
0.0
  0
LINE
  5
10E
330
1F
100
AcDbEntity
  8
0
  6
HIDDEN
 62
     7
370
     0
100
AcDbLine
 10
152.6574557196
 20
104.9067578491
 30
0.0
 11
152.6574557196
 21
128.0313055243
 31
0.0
  0
SPLINE
  5
10F
330
1F
100
AcDbEntity
  8
0
  6
HIDDEN
 62
     7
370
     0
100
AcDbSpline
210
0.0
220
0.0
230
1.0
 70
     8
 71
     3
 72
    16
 73
    12
 74
     0
 42
0.00000001
 43
0.00000001
 12
1.0
 22
0.0
 32
0.0
 13
1.0
 23
0.0
 33
0.0
 40
0.0
 40
0.0
 40
0.0
 40
0.0
 40
0.5000000000000067
 40
0.5000000000000067
 40
0.75000000000001
 40
0.75000000000001
 40
0.8750000000000071
 40
0.8750000000000071
 40
0.9375000000000036
 40
0.9375000000000036
 40
1.0
 40
1.0
 40
1.0
 40
1.0
 10
152.6574557145626
 20
104.9067574536184
 30
0.0
 10
152.6574557145626
 20
104.8141736027145
 30
0.0
 10
152.6533984124476
 20
104.7239611468543
 30
0.0
 10
152.6277411696528
 20
104.5960200197359
 30
0.0
 10
152.6164257239107
 20
104.553606805324
 30
0.0
 10
152.582394356602
 20
104.4992927618728
 30
0.0
 10
152.5685153753982
 20
104.4817114264829
 30
0.0
 10
152.5325796936309
 20
104.468927738548
 30
0.0
 10
152.5176293743681
 20
104.4680522403999
 30
0.0
 10
152.4877308616262
 20
104.4762976755193
 30
0.0
 10
152.474198001261
 20
104.484371335691
 30
0.0
 10
152.462478825687
 20
104.4934700572851
 30
0.0
  0
SPLINE
  5
110
330
1F
100
AcDbEntity
  8
0
  6
HIDDEN
 62
     7
370
     0
100
AcDbSpline
210
0.0
220
0.0
230
1.0
 70
     8
 71
     3
 72
    14
 73
    10
 74
     0
 42
0.00000001
 43
0.00000001
 12
1.0
 22
0.0
 32
0.0
 13
1.0
 23
0.0
 33
0.0
 40
0.0
 40
0.0
 40
0.0
 40
0.0
 40
0.25
 40
0.25
 40
0.5
 40
0.5
 40
0.75
 40
0.75
 40
1.0
 40
1.0
 40
1.0
 40
1.0
 10
152.4624788256938
 20
104.4934700572937
 30
0.0
 10
152.406023061085
 20
104.5373020897884
 30
0.0
 10
152.3351574348351
 20
104.5706331262103
 30
0.0
 10
152.1867003536625
 20
104.5685741160628
 30
0.0
 10
152.117506994355
 20
104.5339780916611
 30
0.0
 10
152.0077915562208
 20
104.4483127349982
 30
0.0
 10
151.9625469768894
 20
104.3962902902902
 30
0.0
 10
151.8829202674657
 20
104.2887420299603
 30
0.0
 10
151.8483101189322
 20
104.2323398672273
 30
0.0
 10
151.816594686433
 20
104.1745561416378
 30
0.0
  0
SPLINE
  5
111
330
1F
100
AcDbEntity
  8
0
  6
HIDDEN
 62
     7
370
     0
100
AcDbSpline
210
0.0
220
0.0
230
1.0
 70
     8
 71
     3
 72
    10
 73
     6
 74
     0
 42
0.00000001
 43
0.00000001
 12
1.0
 22
0.0
 32
0.0
 13
1.0
 23
0.0
 33
0.0
 40
0.0
 40
0.0
 40
0.0
 40
0.0
 40
0.5
 40
0.5
 40
1.0
 40
1.0
 40
1.0
 40
1.0
 10
151.8165946864335
 20
104.1745561416388
 30
0.0
 10
151.7448148985101
 20
104.0437774247369
 30
0.0
 10
151.692355384202
 20
103.9096772752337
 30
0.0
 10
151.6030123201009
 20
103.641584712245
 30
0.0
 10
151.5670167106011
 20
103.5073393406561
 30
0.0
 10
151.536135371003
 20
103.3739849631811
 30
0.0
  0
SPLINE
  5
112
330
1F
100
AcDbEntity
  8
0
  6
HIDDEN
 62
     7
370
     0
100
AcDbSpline
210
0.0
220
0.0
230
1.0
 70
     8
 71
     3
 72
    10
 73
     6
 74
     0
 42
0.00000001
 43
0.00000001
 12
1.0
 22
0.0
 32
0.0
 13
1.0
 23
0.0
 33
0.0
 40
0.0
 40
0.0
 40
0.0
 40
0.0
 40
0.5
 40
0.5
 40
1.0
 40
1.0
 40
1.0
 40
1.0
 10
151.536135371003
 20
99.17212181870866
 30
0.0
 10
151.5670084028152
 20
99.15583867134153
 30
0.0
 10
151.6029952657282
 20
99.14358108161595
 30
0.0
 10
151.6923298516193
 20
99.12647809278721
 30
0.0
 10
151.7447857110419
 20
99.12167849692887
 30
0.0
 10
151.8165946864342
 20
99.11987440552093
 30
0.0
  0
SPLINE
  5
113
330
1F
100
AcDbEntity
  8
0
  6
HIDDEN
 62
     7
370
     0
100
AcDbSpline
210
0.0
220
0.0
230
1.0
 70
     8
 71
     3
 72
     8
 73
     4
 74
     0
 42
0.00000001
 43
0.00000001
 12
1.0
 22
0.0
 32
0.0
 13
1.0
 23
0.0
 33
0.0
 40
0.0
 40
0.0
 40
0.0
 40
0.0
 40
1.0
 40
1.0
 40
1.0
 40
1.0
 10
152.6397590911876
 20
98.99399002727384
 30
0.0
 10
152.6537458997297
 20
98.96574963669215
 30
0.0
 10
152.6574557145624
 20
98.94261759388138
 30
0.0
 10
152.6574557145627
 20
98.92227722104624
 30
0.0
  0
LINE
  5
114
330
1F
100
AcDbEntity
  8
0
  6
HIDDEN
 62
     7
370
     0
100
AcDbLine
 10
152.6574557196
 20
98.6292106312
 30
0.0
 11
152.6574557196
 21
98.9222773563
 31
0.0
  0
LINE
  5
115
330
1F
100
AcDbEntity
  8
0
  6
HIDDEN
 62
     7
370
     0
100
AcDbLine
 10
152.6574557196
 20
134.0157860171
 30
0.0
 11
152.6574557196
 21
134.3088527422
 31
0.0
  0
SPLINE
  5
116
330
1F
100
AcDbEntity
  8
0
  6
HIDDEN
 62
     7
370
     0
100
AcDbSpline
210
0.0
220
0.0
230
1.0
 70
     8
 71
     3
 72
    10
 73
     6
 74
     0
 42
0.00000001
 43
0.00000001
 12
1.0
 22
0.0
 32
0.0
 13
1.0
 23
0.0
 33
0.0
 40
0.0
 40
0.0
 40
0.0
 40
0.0
 40
0.5
 40
0.5
 40
1.0
 40
1.0
 40
1.0
 40
1.0
 10
151.8165946864351
 20
133.818188967906
 30
0.0
 10
151.7447857110425
 20
133.8163848764981
 30
0.0
 10
151.6923298516197
 20
133.8115852806398
 30
0.0
 10
151.6029952657283
 20
133.7944822918111
 30
0.0
 10
151.5670084028153
 20
133.7822247020854
 30
0.0
 10
151.536135371003
 20
133.7659415547183
 30
0.0
  0
SPLINE
  5
117
330
1F
100
AcDbEntity
  8
0
  6
HIDDEN
 62
     7
370
     0
100
AcDbSpline
210
0.0
220
0.0
230
1.0
 70
     8
 71
     3
 72
    10
 73
     6
 74
     0
 42
0.00000001
 43
0.00000001
 12
1.0
 22
0.0
 32
0.0
 13
1.0
 23
0.0
 33
0.0
 40
0.0
 40
0.0
 40
0.0
 40
0.0
 40
0.5
 40
0.5
 40
1.0
 40
1.0
 40
1.0
 40
1.0
 10
151.536135371003
 20
129.5640784102459
 30
0.0
 10
151.5670167106012
 20
129.4307240327707
 30
0.0
 10
151.603012320101
 20
129.2964786611815
 30
0.0
 10
151.6923553842023
 20
129.0283860981923
 30
0.0
 10
151.7448148985105
 20
128.8942859486889
 30
0.0
 10
151.8165946864342
 20
128.7635072317869
 30
0.0
  0
LINE
  5
118
330
1F
100
AcDbEntity
  8
0
  6
HIDDEN
 62
     7
370
     0
100
AcDbLine
 10
152.6574557196
 20
98.9222773563
 30
0.0
 11
152.6574557196
 21
110.4845516596
 31
0.0
  0
LINE
  5
119
330
1F
100
AcDbEntity
  8
0
  6
HIDDEN
 62
     7
370
     0
100
AcDbLine
 10
152.6574557196
 20
122.4535117138
 30
0.0
 11
152.6574557196
 21
134.0157860171
 31
0.0
  0
SPLINE
  5
11A
330
1F
100
AcDbEntity
  8
0
  6
HIDDEN
 62
     7
370
     0
100
AcDbSpline
210
0.0
220
0.0
230
1.0
 70
     8
 71
     3
 72
    68
 73
    64
 74
     0
 42
0.00000001
 43
0.00000001
 12
1.0
 22
0.0
 32
0.0
 13
1.0
 23
0.0
 33
0.0
 40
-0.0312500000000008
 40
-0.0312500000000008
 40
0.0
 40
0.0
 40
0.0312499999999998
 40
0.0312499999999998
 40
0.0624999999999996
 40
0.0624999999999996
 40
0.0937499999999994
 40
0.0937499999999994
 40
0.1249999999999992
 40
0.1249999999999992
 40
0.156249999999999
 40
0.156249999999999
 40
0.1874999999999988
 40
0.1874999999999988
 40
0.2187499999999987
 40
0.2187499999999987
 40
0.2499999999999986
 40
0.2499999999999986
 40
0.2812499999999984
 40
0.2812499999999984
 40
0.3124999999999984
 40
0.3124999999999984
 40
0.3437499999999983
 40
0.3437499999999983
 40
0.3749999999999982
 40
0.3749999999999982
 40
0.4062499999999981
 40
0.4062499999999981
 40
0.437499999999998
 40
0.437499999999998
 40
0.4687499999999979
 40
0.4687499999999979
 40
0.4999999999999979
 40
0.4999999999999979
 40
0.5312499999999978
 40
0.5312499999999978
 40
0.5624999999999977
 40
0.5624999999999977
 40
0.5937499999999977
 40
0.5937499999999977
 40
0.6249999999999976
 40
0.6249999999999976
 40
0.6562499999999974
 40
0.6562499999999974
 40
0.6874999999999973
 40
0.6874999999999973
 40
0.7187499999999972
 40
0.7187499999999972
 40
0.7499999999999971
 40
0.7499999999999971
 40
0.7812499999999971
 40
0.7812499999999971
 40
0.812499999999997
 40
0.812499999999997
 40
0.8437499999999969
 40
0.8437499999999969
 40
0.8749999999999969
 40
0.8749999999999969
 40
0.9374999999999984
 40
0.9374999999999984
 40
0.9687499999999992
 40
0.9687499999999992
 40
1.0
 40
1.0
 40
1.03125
 40
1.03125
 10
223.056122060077
 20
114.4656179515718
 30
0.0
 10
222.6587893690482
 20
114.4656179515718
 30
0.0
 10
222.463532872576
 20
114.4458722496858
 30
0.0
 10
222.0795324156973
 20
114.3687232467825
 30
0.0
 10
221.8887674563641
 20
114.3103544919465
 30
0.0
 10
221.5256929283632
 20
114.1588176657392
 30
0.0
 10
221.3535611595319
 20
114.0663161967096
 30
0.0
 10
221.0277959144134
 20
113.8486717242457
 30
0.0
 10
220.8739040614843
 20
113.7226551621967
 30
0.0
 10
220.5978731177435
 20
113.4486619567216
 30
0.0
 10
220.4738467129647
 20
113.2996366548681
 30
0.0
 10
220.2545133612097
 20
112.9772861649794
 30
0.0
 10
220.1615913960026
 20
112.8070342757755
 30
0.0
 10
220.0118205642295
 20
112.4558678970618
 30
0.0
 10
219.9539759991099
 20
112.2723628129644
 30
0.0
 10
219.8767331683341
 20
111.8994880838501
 30
0.0
 10
219.8575709674221
 20
111.7129688680595
 30
0.0
 10
219.8573414884114
 20
111.3398890072377
 30
0.0
 10
219.8769221590077
 20
111.1515083310144
 30
0.0
 10
219.953648463641
 20
110.7896269050373
 30
0.0
 10
220.0104124642752
 20
110.6147645286568
 30
0.0
 10
220.1610572728885
 20
110.2768909966491
 30
0.0
 10
220.2547927152375
 20
110.1153232661944
 30
0.0
 10
220.4717039549292
 20
109.8171682052995
 30
0.0
 10
220.5961674932241
 20
109.6783036559917
 30
0.0
 10
220.8751335596169
 20
109.424403536006
 30
0.0
 10
221.0261274003092
 20
109.3123458616081
 30
0.0
 10
221.350555915762
 20
109.1163367532855
 30
0.0
 10
221.5261450327851
 20
109.031725363777
 30
0.0
 10
221.8888123328406
 20
108.8967534582933
 30
0.0
 10
222.0757950414801
 20
108.8458578632024
 30
0.0
 10
222.4611488651499
 20
108.7769364447531
 30
0.0
 10
222.6602450222201
 20
108.7593492132789
 30
0.0
 10
223.0522594308705
 20
108.759208925009
 30
0.0
 10
223.2473807065334
 20
108.7760967887895
 30
0.0
 10
223.6358005385282
 20
108.844970504331
 30
0.0
 10
223.8244851445698
 20
108.8963157487031
 30
0.0
 10
224.1856949909232
 20
109.030421450014
 30
0.0
 10
224.3608005680795
 20
109.1143941723465
 30
0.0
 10
224.6876585283715
 20
109.3114635886018
 30
0.0
 10
224.8384376227205
 20
109.4234806079592
 30
0.0
 10
225.1152323415749
 20
109.6748158574684
 30
0.0
 10
225.2418091469016
 20
109.8154716520814
 30
0.0
 10
225.4592568806285
 20
110.1139154517667
 30
0.0
 10
225.5516373443033
 20
110.2727189972072
 30
0.0
 10
225.7029916600931
 20
110.6106033793298
 30
0.0
 10
225.7607562385408
 20
110.7880263128202
 30
0.0
 10
225.8375277280431
 20
111.14855197363
 30
0.0
 10
225.8573080146688
 20
111.3342061906658
 30
0.0
 10
225.8576017660884
 20
111.7110836175148
 30
0.0
 10
225.8383077320321
 20
111.89777460317
 30
0.0
 10
225.762129921506
 20
112.2676664194433
 30
0.0
 10
225.704233784791
 20
112.4527894862008
 30
0.0
 10
225.5540410424233
 20
112.805737436253
 30
0.0
 10
225.4620498564834
 20
112.9743658688323
 30
0.0
 10
225.2442032899407
 20
113.2955059321234
 30
0.0
 10
225.1181616423739
 20
113.447381779323
 30
0.0
 10
224.7046466015024
 20
113.858337227636
 30
0.0
 10
224.3708051421326
 20
114.0826657448246
 30
0.0
 10
223.8296821900016
 20
114.309057405888
 30
0.0
 10
223.6396014675197
 20
114.3676976929796
 30
0.0
 10
223.2522667415451
 20
114.445868709152
 30
0.0
 10
223.056122060077
 20
114.4656179515718
 30
0.0
 10
222.6587893690482
 20
114.4656179515718
 30
0.0
  0
CIRCLE
  5
11B
330
1F
100
AcDbEntity
  8
0
  6
HIDDEN
 62
     7
370
     0
100
AcDbCircle
 10
138.8574557146
 20
116.4690316867
 30
0.0
 40
3.049999999999997
  0
SPLINE
  5
11C
330
1F
100
AcDbEntity
  8
0
  6
HIDDEN
 62
     7
370
     0
100
AcDbSpline
210
0.0
220
0.0
230
1.0
 70
     8
 71
     3
 72
    60
 73
    56
 74
     0
 42
0.00000001
 43
0.00000001
 12
1.0
 22
0.0
 32
0.0
 13
1.0
 23
0.0
 33
0.0
 40
-0.0312499999999994
 40
-0.0312499999999994
 40
0.0
 40
0.0
 40
0.0312499999999994
 40
0.0312499999999994
 40
0.0624999999999988
 40
0.0624999999999988
 40
0.1249999999999999
 40
0.1249999999999999
 40
0.1562499999999996
 40
0.1562499999999996
 40
0.1874999999999992
 40
0.1874999999999992
 40
0.2187499999999988
 40
0.2187499999999988
 40
0.2499999999999984
 40
0.2499999999999984
 40
0.3124999999999978
 40
0.3124999999999978
 40
0.3749999999999971
 40
0.3749999999999971
 40
0.4062499999999968
 40
0.4062499999999968
 40
0.4374999999999964
 40
0.4374999999999964
 40
0.4687499999999962
 40
0.4687499999999962
 40
0.4999999999999958
 40
0.4999999999999958
 40
0.5312499999999954
 40
0.5312499999999954
 40
0.562499999999995
 40
0.562499999999995
 40
0.6249999999999968
 40
0.6249999999999968
 40
0.6562499999999976
 40
0.6562499999999976
 40
0.6874999999999984
 40
0.6874999999999984
 40
0.7187499999999993
 40
0.7187499999999993
 40
0.7500000000000001
 40
0.7500000000000001
 40
0.781250000000001
 40
0.781250000000001
 40
0.8125000000000018
 40
0.8125000000000018
 40
0.8750000000000023
 40
0.8750000000000023
 40
0.9062500000000018
 40
0.9062500000000018
 40
0.9375000000000012
 40
0.9375000000000012
 40
0.9687500000000006
 40
0.9687500000000006
 40
1.0
 40
1.0
 40
1.031249999999999
 40
1.031249999999999
 10
223.0269833111332
 20
119.9087433032645
 30
0.0
 10
222.687928117992
 20
119.9087433032645
 30
0.0
 10
222.5223302702846
 20
119.8964121776525
 30
0.0
 10
222.1982101936119
 20
119.8481980545762
 30
0.0
 10
222.0384001292862
 20
119.8116595727898
 30
0.0
 10
221.5890585267449
 20
119.6696815911056
 30
0.0
 10
221.3193757869694
 20
119.5296094944665
 30
0.0
 10
220.981190998212
 20
119.2572194445646
 30
0.0
 10
220.877624564588
 20
119.1543327640322
 30
0.0
 10
220.6971731022881
 20
118.9296586345259
 30
0.0
 10
220.6200511360258
 20
118.8082492842668
 30
0.0
 10
220.4926332512186
 20
118.5447896369892
 30
0.0
 10
220.4421690584175
 20
118.4007443246877
 30
0.0
 10
220.3753276457351
 20
118.1037602592727
 30
0.0
 10
220.3580094441861
 20
117.9498037280088
 30
0.0
 10
220.3563870522526
 20
117.4703902252165
 30
0.0
 10
220.4248750227963
 20
117.1385989924897
 30
0.0
 10
220.6789253291671
 20
116.5185865741433
 30
0.0
 10
220.8635082285225
 20
116.2295123722975
 30
0.0
 10
221.2008766989456
 20
115.8604839491539
 30
0.0
 10
221.3248658679124
 20
115.7466188772062
 30
0.0
 10
221.5910346131299
 20
115.5445827619381
 30
0.0
 10
221.7315712939539
 20
115.4573206092232
 30
0.0
 10
222.0292296292519
 20
115.3119710409514
 30
0.0
 10
222.1886970067944
 20
115.2534333027272
 30
0.0
 10
222.514314390928
 20
115.1747813535964
 30
0.0
 10
222.680281373315
 20
115.1540930294634
 30
0.0
 10
223.0191146193781
 20
115.1528567198527
 30
0.0
 10
223.1861052982133
 20
115.1724917852041
 30
0.0
 10
223.5117302120041
 20
115.2488270169346
 30
0.0
 10
223.6718613845612
 20
115.3063222169693
 30
0.0
 10
224.1225665439194
 20
115.5232376502938
 30
0.0
 10
224.3928250450702
 20
115.7297769972758
 30
0.0
 10
224.732539773972
 20
116.0985996713637
 30
0.0
 10
224.8364984178474
 20
116.2335667235022
 30
0.0
 10
225.016807510469
 20
116.5152159203935
 30
0.0
 10
225.0942412190616
 20
116.6627722605973
 30
0.0
 10
225.2224900739062
 20
116.9718795352351
 30
0.0
 10
225.272805364823
 20
117.1337337779931
 30
0.0
 10
225.3395536113144
 20
117.4542920775485
 30
0.0
 10
225.3570271205106
 20
117.6151213493769
 30
0.0
 10
225.357868903041
 20
117.9377792483971
 30
0.0
 10
225.3411088055091
 20
118.0936256196311
 30
0.0
 10
225.2753566620051
 20
118.3922845537063
 30
0.0
 10
225.2255018012315
 20
118.5367556837883
 30
0.0
 10
225.0345370156641
 20
118.93561303854
 30
0.0
 10
224.8492408826942
 20
119.1636425685083
 30
0.0
 10
224.5103519818743
 20
119.4373925185201
 30
0.0
 10
224.3851700594711
 20
119.5188884961885
 30
0.0
 10
224.1192349234978
 20
119.6580097586479
 30
0.0
 10
223.978379340099
 20
119.7161405779922
 30
0.0
 10
223.6787127436149
 20
119.8110999992912
 30
0.0
 10
223.5183345614802
 20
119.8478866084381
 30
0.0
 10
223.1935974214315
 20
119.8963289307307
 30
0.0
 10
223.0269833111332
 20
119.9087433032645
 30
0.0
 10
222.687928117992
 20
119.9087433032645
 30
0.0
  0
SPLINE
  5
11D
330
1F
100
AcDbEntity
  8
0
  6
HIDDEN
 62
     7
370
     0
100
AcDbSpline
210
0.0
220
0.0
230
1.0
 70
     8
 71
     3
 72
    64
 73
    60
 74
     0
 42
0.00000001
 43
0.00000001
 12
1.0
 22
0.0
 32
0.0
 13
1.0
 23
0.0
 33
0.0
 40
-0.0312499999999991
 40
-0.0312499999999991
 40
0.0
 40
0.0
 40
0.0312500000000002
 40
0.0312500000000002
 40
0.0625000000000004
 40
0.0625000000000004
 40
0.0937500000000007
 40
0.0937500000000007
 40
0.1250000000000009
 40
0.1250000000000009
 40
0.1562500000000011
 40
0.1562500000000011
 40
0.1875000000000013
 40
0.1875000000000013
 40
0.2187500000000016
 40
0.2187500000000016
 40
0.2500000000000018
 40
0.2500000000000018
 40
0.281250000000002
 40
0.281250000000002
 40
0.3125000000000023
 40
0.3125000000000023
 40
0.3437500000000027
 40
0.3437500000000027
 40
0.375000000000003
 40
0.375000000000003
 40
0.4375000000000033
 40
0.4375000000000033
 40
0.5000000000000037
 40
0.5000000000000037
 40
0.5312500000000037
 40
0.5312500000000037
 40
0.5625000000000037
 40
0.5625000000000037
 40
0.5937500000000037
 40
0.5937500000000037
 40
0.6250000000000037
 40
0.6250000000000037
 40
0.6562500000000037
 40
0.6562500000000037
 40
0.6875000000000037
 40
0.6875000000000037
 40
0.7187500000000037
 40
0.7187500000000037
 40
0.7500000000000038
 40
0.7500000000000038
 40
0.7812500000000038
 40
0.7812500000000038
 40
0.8125000000000038
 40
0.8125000000000038
 40
0.8437500000000038
 40
0.8437500000000038
 40
0.8750000000000038
 40
0.8750000000000038
 40
0.9375000000000018
 40
0.9375000000000018
 40
0.9687500000000009
 40
0.9687500000000009
 40
1.0
 40
1.0
 40
1.03125
 40
1.03125
 10
223.5765696453519
 20
122.2702052848712
 30
0.0
 10
223.4708434696094
 20
122.2180830837113
 30
0.0
 10
223.4342188242182
 20
122.1848058537523
 30
0.0
 10
223.4029691150373
 20
122.1058302897156
 30
0.0
 10
223.4095687117035
 20
122.0611097444086
 30
0.0
 10
223.4628406486871
 20
121.9648287935882
 30
0.0
 10
223.5094726315842
 20
121.9127247275551
 30
0.0
 10
223.6261189513849
 20
121.802957832166
 30
0.0
 10
223.6972567633169
 20
121.7439061068438
 30
0.0
 10
223.8527736140851
 20
121.6167869580242
 30
0.0
 10
223.9366109150412
 20
121.5491487601244
 30
0.0
 10
224.1117871995618
 20
121.4016660827123
 30
0.0
 10
224.2041296523278
 20
121.3209708989649
 30
0.0
 10
224.3890182811167
 20
121.1471016520185
 30
0.0
 10
224.481223038691
 20
121.0543990230207
 30
0.0
 10
224.6626446583152
 20
120.8537634775676
 30
0.0
 10
224.7517237312218
 20
120.7456478119702
 30
0.0
 10
224.9152523283875
 20
120.5220674277775
 30
0.0
 10
224.9918993220566
 20
120.4034121797662
 30
0.0
 10
225.1234371701297
 20
120.1662493202564
 30
0.0
 10
225.1789594636277
 20
120.0472836139527
 30
0.0
 10
225.2685324637126
 20
119.8102951503101
 30
0.0
 10
225.3009148244918
 20
119.696901622962
 30
0.0
 10
225.3445681067274
 20
119.4792530427343
 30
0.0
 10
225.3553768717719
 20
119.3762708330085
 30
0.0
 10
225.3607824138593
 20
119.09294352104
 30
0.0
 10
225.3282239124935
 20
118.9319914605142
 30
0.0
 10
225.2299086023378
 20
118.686374903519
 30
0.0
 10
225.1611336986387
 20
118.5958500531193
 30
0.0
 10
225.0786040378632
 20
118.5492745647886
 30
0.0
 10
225.0550875552998
 20
118.5495065170207
 30
0.0
 10
225.0318192695821
 20
118.5942414560521
 30
0.0
 10
225.0329034371624
 20
118.6399550637038
 30
0.0
 10
225.06010782528
 20
118.7709007238419
 30
0.0
 10
225.0854820962129
 20
118.8561060701729
 30
0.0
 10
225.143071360672
 20
119.0460441859164
 30
0.0
 10
225.1757696068621
 20
119.1530761565235
 30
0.0
 10
225.2367186203935
 20
119.3776384267268
 30
0.0
 10
225.2653384708114
 20
119.4959410953474
 30
0.0
 10
225.3132084841038
 20
119.743912782663
 30
0.0
 10
225.3325259083431
 20
119.874614855772
 30
0.0
 10
225.3559683263172
 20
120.138652430444
 30
0.0
 10
225.3604061864299
 20
120.272874707427
 30
0.0
 10
225.3505584425369
 20
120.5460781083049
 30
0.0
 10
225.3358456250811
 20
120.686584943295
 30
0.0
 10
225.2844464384685
 20
120.9589664829916
 30
0.0
 10
225.2475248540822
 20
121.0932363681334
 30
0.0
 10
225.1500353204253
 20
121.3498886334249
 30
0.0
 10
225.0909642441497
 20
121.468885672173
 30
0.0
 10
224.9524893430823
 20
121.6883256184085
 30
0.0
 10
224.8731361435389
 20
121.787817411324
 30
0.0
 10
224.70458415748
 20
121.9579949041689
 30
0.0
 10
224.613369391461
 20
122.0308188664772
 30
0.0
 10
224.3362470115212
 20
122.2070409804171
 30
0.0
 10
224.142461936006
 20
122.2717445886539
 30
0.0
 10
223.8787741035639
 20
122.3048847034879
 30
0.0
 10
223.7940902248343
 20
122.3054108265894
 30
0.0
 10
223.6432728011852
 20
122.2879576502312
 30
0.0
 10
223.5765696453519
 20
122.2702052848712
 30
0.0
 10
223.4708434696094
 20
122.2180830837113
 30
0.0
  0
LWPOLYLINE
  5
11E
330
1F
100
AcDbEntity
  8
0
  6
HIDDEN
 62
     7
370
     0
100
AcDbPolyline
 90
       26
 70
   128
 43
0.0
 10
222.8574560126
 20
122.8638938841
 10
223.4791771611
 20
122.78919576
 10
224.0618423661
 20
122.5697957192
 10
224.5688245734
 20
122.2194787327
 10
224.9682725509
 20
121.7602566097
 10
225.2351001938
 20
121.2209840518
 10
225.352521344
 20
120.6355458338
 10
225.3131748279
 20
120.040727102
 10
225.1195267876
 20
119.473902297
 10
224.7837365707
 20
118.9706870567
 10
224.3269191226
 20
118.562700481
 10
223.7777666291
 20
118.2755776893
 10
223.1707901796
 20
118.1273596807
 10
222.5441218456
 20
118.1273596807
 10
221.9371453961
 20
118.2755776893
 10
221.3879929026
 20
118.562700481
 10
220.9311754545
 20
118.9706870567
 10
220.5953852376
 20
119.473902297
 10
220.4017371973
 20
120.040727102
 10
220.3623906811
 20
120.6355458338
 10
220.4798118313
 20
121.2209840518
 10
220.7466394743
 20
121.7602566097
 10
221.1460874518
 20
122.2194787327
 10
221.6530696591
 20
122.5697957192
 10
222.2357274135
 20
122.78919576
 10
222.8574560126
 20
122.8638938841
  0
LINE
  5
11F
330
1F
100
AcDbEntity
  8
0
  6
HIDDEN
 62
     7
370
     0
100
AcDbLine
 10
127.8854956021
 20
127.2577070843
 30
0.0
 11
127.8854956021
 21
105.6803562891
 31
0.0
  0
LINE
  5
120
330
1F
100
AcDbEntity
  8
0
  6
HIDDEN
 62
     7
370
     0
100
AcDbLine
 10
123.8854949465
 20
127.6389048647
 30
0.0
 11
123.8854949465
 21
105.2991585087
 31
0.0
  0
LINE
  5
121
330
1F
100
AcDbEntity
  8
0
  6
HIDDEN
 62
     7
370
     0
100
AcDbLine
 10
122.8574563851
 20
104.7056191813
 30
0.0
 11
122.8574563851
 21
128.2324441921
 31
0.0
  0
LINE
  5
122
330
1F
100
AcDbEntity
  8
0
  6
HIDDEN
 62
     7
370
     0
100
AcDbLine
 10
132.4854952385
 20
126.9690315452
 30
0.0
 11
132.4854952385
 21
105.9690318283
 31
0.0
  0
LINE
  5
123
330
1F
100
AcDbEntity
  8
0
  6
HIDDEN
 62
     7
370
     0
100
AcDbLine
 10
126.3854962876
 20
126.9690315452
 30
0.0
 11
126.3854962876
 21
105.9690318283
 31
0.0
  0
LINE
  5
124
330
1F
100
AcDbEntity
  8
0
  6
HIDDEN
 62
     7
370
     0
100
AcDbLine
 10
127.3854964515
 20
126.9690315452
 30
0.0
 11
127.3854964515
 21
105.9690318283
 31
0.0
  0
SPLINE
  5
125
330
1F
100
AcDbEntity
  8
0
  6
HIDDEN
 62
     7
370
     0
100
AcDbSpline
210
0.0
220
0.0
230
1.0
 70
     8
 71
     3
 72
    66
 73
    62
 74
     0
 42
0.00000001
 43
0.00000001
 12
1.0
 22
0.0
 32
0.0
 13
1.0
 23
0.0
 33
0.0
 40
-0.0312500000000007
 40
-0.0312500000000007
 40
0.0
 40
0.0
 40
0.0312499999999998
 40
0.0312499999999998
 40
0.0624999999999996
 40
0.0624999999999996
 40
0.0937499999999994
 40
0.0937499999999994
 40
0.1249999999999992
 40
0.1249999999999992
 40
0.1874999999999988
 40
0.1874999999999988
 40
0.2187499999999987
 40
0.2187499999999987
 40
0.2499999999999986
 40
0.2499999999999986
 40
0.2812499999999984
 40
0.2812499999999984
 40
0.3124999999999983
 40
0.3124999999999983
 40
0.3437499999999981
 40
0.3437499999999981
 40
0.374999999999998
 40
0.374999999999998
 40
0.4062499999999978
 40
0.4062499999999978
 40
0.4374999999999977
 40
0.4374999999999977
 40
0.4687499999999976
 40
0.4687499999999976
 40
0.4999999999999974
 40
0.4999999999999974
 40
0.5312499999999973
 40
0.5312499999999973
 40
0.5624999999999971
 40
0.5624999999999971
 40
0.593749999999997
 40
0.593749999999997
 40
0.624999999999997
 40
0.624999999999997
 40
0.656249999999997
 40
0.656249999999997
 40
0.687499999999997
 40
0.687499999999997
 40
0.7187499999999971
 40
0.7187499999999971
 40
0.7499999999999971
 40
0.7499999999999971
 40
0.7812499999999972
 40
0.7812499999999972
 40
0.8124999999999973
 40
0.8124999999999973
 40
0.8749999999999978
 40
0.8749999999999978
 40
0.9062499999999981
 40
0.9062499999999981
 40
0.9374999999999987
 40
0.9374999999999987
 40
0.9687499999999993
 40
0.9687499999999993
 40
1.0
 40
1.0
 40
1.03125
 40
1.03125
 10
138.6547770676148
 20
119.5190316867135
 30
0.0
 10
139.0601343615104
 20
119.5190316867135
 30
0.0
 10
139.2591942528463
 20
119.4990321270969
 30
0.0
 10
139.650448237426
 20
119.4208886243967
 30
0.0
 10
139.8447209961736
 20
119.361727522876
 30
0.0
 10
140.2134844227249
 20
119.2082958359816
 30
0.0
 10
140.3882095811032
 20
119.1145690261394
 30
0.0
 10
140.718886884637
 20
118.8933149237346
 30
0.0
 10
140.8745344286398
 20
118.76533355674
 30
0.0
 10
141.2940017983085
 20
118.3457784597399
 30
0.0
 10
141.5208899398388
 20
118.0072999010365
 30
0.0
 10
141.7496865632235
 20
117.4574210133183
 30
0.0
 10
141.8088788180724
 20
117.2640211675749
 30
0.0
 10
141.8876862283329
 20
116.869793017217
 30
0.0
 10
141.9073256446133
 20
116.6711541897847
 30
0.0
 10
141.9075845090349
 20
116.2708539038862
 30
0.0
 10
141.8875138244019
 20
116.0675145771652
 30
0.0
 10
141.809176141772
 20
115.6754230565576
 30
0.0
 10
141.7512263737335
 20
115.4847171882424
 30
0.0
 10
141.5972832318536
 20
115.1139933716558
 30
0.0
 10
141.5023446181309
 20
114.937266711847
 30
0.0
 10
141.2819872022537
 20
114.6080136009226
 30
0.0
 10
141.1547071763254
 20
114.4528923773262
 30
0.0
 10
140.8729515849949
 20
114.1712156823958
 30
0.0
 10
140.7201632555374
 20
114.0457824974914
 30
0.0
 10
140.3907361733804
 20
113.8250069041373
 30
0.0
 10
140.2121901702287
 20
113.7291756514371
 30
0.0
 10
139.8446178446786
 20
113.576346520942
 30
0.0
 10
139.6544638179676
 20
113.5181747629978
 30
0.0
 10
139.2609233952651
 20
113.4391814706529
 30
0.0
 10
139.058489324004
 20
113.4191183450106
 30
0.0
 10
138.6590602486386
 20
113.4189455988919
 30
0.0
 10
138.4590412700827
 20
113.4384289729812
 30
0.0
 10
138.0629253226333
 20
113.5174205445824
 30
0.0
 10
137.8721924944414
 20
113.5757007644343
 30
0.0
 10
137.5045610538617
 20
113.7282683850424
 30
0.0
 10
137.326074621694
 20
113.8238771718156
 30
0.0
 10
136.9958693627299
 20
114.0448892169006
 30
0.0
 10
136.842980784668
 20
114.1703391156708
 30
0.0
 10
136.5613843901299
 20
114.4515696046761
 30
0.0
 10
136.4337534672544
 20
114.6069524825901
 30
0.0
 10
136.2134280322546
 20
114.935803340633
 30
0.0
 10
136.1192015752892
 20
115.110691447047
 30
0.0
 10
135.9642670546862
 20
115.4828352984078
 30
0.0
 10
135.9062547690839
 20
115.6736413402167
 30
0.0
 10
135.8278355148058
 20
116.0645143581355
 30
0.0
 10
135.8075214348392
 20
116.2669719195177
 30
0.0
 10
135.8073903185352
 20
116.6691025244372
 30
0.0
 10
135.8270150118946
 20
116.8678265696123
 30
0.0
 10
135.9051814623083
 20
117.260666040749
 30
0.0
 10
135.9644689076481
 20
117.4553103181516
 30
0.0
 10
136.193549750731
 20
118.0067500715658
 30
0.0
 10
136.4203806016252
 20
118.3450896372649
 30
0.0
 10
136.8397193029459
 20
118.7647552999164
 30
0.0
 10
136.9950722986959
 20
118.8926013056897
 30
0.0
 10
137.326040131833
 20
119.1142023803915
 30
0.0
 10
137.5006014320294
 20
119.2078431143684
 30
0.0
 10
137.8681747396042
 20
119.3609972350677
 30
0.0
 10
138.0628616012423
 20
119.4205009807137
 30
0.0
 10
138.4553375511788
 20
119.4990237297767
 30
0.0
 10
138.6547770676148
 20
119.5190316867135
 30
0.0
 10
139.0601343615104
 20
119.5190316867135
 30
0.0
  0
SPLINE
  5
126
330
1F
100
AcDbEntity
  8
0
  6
HIDDEN
 62
     7
370
     0
100
AcDbSpline
210
0.0
220
0.0
230
1.0
 70
     8
 71
     3
 72
    66
 73
    62
 74
     0
 42
0.00000001
 43
0.00000001
 12
1.0
 22
0.0
 32
0.0
 13
1.0
 23
0.0
 33
0.0
 40
-0.03125
 40
-0.03125
 40
0.0
 40
0.0
 40
0.0312499999999999
 40
0.0312499999999999
 40
0.0624999999999998
 40
0.0624999999999998
 40
0.0937499999999998
 40
0.0937499999999998
 40
0.1249999999999997
 40
0.1249999999999997
 40
0.1874999999999996
 40
0.1874999999999996
 40
0.2187499999999996
 40
0.2187499999999996
 40
0.2499999999999996
 40
0.2499999999999996
 40
0.2812499999999996
 40
0.2812499999999996
 40
0.3124999999999996
 40
0.3124999999999996
 40
0.3437499999999996
 40
0.3437499999999996
 40
0.3749999999999995
 40
0.3749999999999995
 40
0.4062499999999995
 40
0.4062499999999995
 40
0.4374999999999995
 40
0.4374999999999995
 40
0.4687499999999994
 40
0.4687499999999994
 40
0.4999999999999994
 40
0.4999999999999994
 40
0.5312499999999994
 40
0.5312499999999994
 40
0.5624999999999996
 40
0.5624999999999996
 40
0.5937499999999996
 40
0.5937499999999996
 40
0.6249999999999996
 40
0.6249999999999996
 40
0.6562499999999997
 40
0.6562499999999997
 40
0.6874999999999997
 40
0.6874999999999997
 40
0.7187499999999997
 40
0.7187499999999997
 40
0.7499999999999997
 40
0.7499999999999997
 40
0.7812499999999998
 40
0.7812499999999998
 40
0.8124999999999998
 40
0.8124999999999998
 40
0.8749999999999999
 40
0.8749999999999999
 40
0.9062499999999999
 40
0.9062499999999999
 40
0.9374999999999999
 40
0.9374999999999999
 40
0.96875
 40
0.96875
 40
1.0
 40
1.0
 40
1.03125
 40
1.03125
 10
139.0601343615104
 20
119.5190316867135
 30
0.0
 10
138.6547770676148
 20
119.5190316867135
 30
0.0
 10
138.4557171762789
 20
119.4990321270969
 30
0.0
 10
138.0644631916992
 20
119.4208886243967
 30
0.0
 10
137.8701904329516
 20
119.361727522876
 30
0.0
 10
137.5014270064003
 20
119.2082958359816
 30
0.0
 10
137.326701848022
 20
119.1145690261394
 30
0.0
 10
136.9960245444882
 20
118.8933149237346
 30
0.0
 10
136.8403770004854
 20
118.76533355674
 30
0.0
 10
136.4209096308168
 20
118.3457784597399
 30
0.0
 10
136.1940214892865
 20
118.0072999010365
 30
0.0
 10
135.9652248659017
 20
117.4574210133183
 30
0.0
 10
135.9060326110528
 20
117.2640211675749
 30
0.0
 10
135.8272252007923
 20
116.869793017217
 30
0.0
 10
135.8075857845119
 20
116.6711541897847
 30
0.0
 10
135.8073269200903
 20
116.2708539038862
 30
0.0
 10
135.8273976047233
 20
116.0675145771652
 30
0.0
 10
135.9057352873532
 20
115.6754230565576
 30
0.0
 10
135.9636850553917
 20
115.4847171882424
 30
0.0
 10
136.1176281972717
 20
115.1139933716558
 30
0.0
 10
136.2125668109944
 20
114.937266711847
 30
0.0
 10
136.4329242268715
 20
114.6080136009226
 30
0.0
 10
136.5602042527998
 20
114.4528923773262
 30
0.0
 10
136.8419598441303
 20
114.1712156823958
 30
0.0
 10
136.9947481735879
 20
114.0457824974914
 30
0.0
 10
137.3241752557448
 20
113.8250069041373
 30
0.0
 10
137.5027212588965
 20
113.7291756514371
 30
0.0
 10
137.8702935844466
 20
113.576346520942
 30
0.0
 10
138.0604476111576
 20
113.5181747629978
 30
0.0
 10
138.4539880338601
 20
113.4391814706529
 30
0.0
 10
138.6564221051212
 20
113.4191183450106
 30
0.0
 10
139.0558511804866
 20
113.4189455988919
 30
0.0
 10
139.2558701590426
 20
113.4384289729812
 30
0.0
 10
139.6519861064919
 20
113.5174205445824
 30
0.0
 10
139.8427189346837
 20
113.5757007644343
 30
0.0
 10
140.2103503752635
 20
113.7282683850424
 30
0.0
 10
140.3888368074313
 20
113.8238771718156
 30
0.0
 10
140.7190420663953
 20
114.0448892169006
 30
0.0
 10
140.8719306444573
 20
114.1703391156708
 30
0.0
 10
141.1535270389953
 20
114.4515696046761
 30
0.0
 10
141.2811579618708
 20
114.6069524825901
 30
0.0
 10
141.5014833968706
 20
114.935803340633
 30
0.0
 10
141.595709853836
 20
115.110691447047
 30
0.0
 10
141.7506443744391
 20
115.4828352984078
 30
0.0
 10
141.8086566600413
 20
115.6736413402167
 30
0.0
 10
141.8870759143195
 20
116.0645143581355
 30
0.0
 10
141.907389994286
 20
116.2669719195177
 30
0.0
 10
141.90752111059
 20
116.6691025244372
 30
0.0
 10
141.8878964172306
 20
116.8678265696123
 30
0.0
 10
141.8097299668169
 20
117.260666040749
 30
0.0
 10
141.7504425214771
 20
117.4553103181516
 30
0.0
 10
141.5213616783942
 20
118.0067500715658
 30
0.0
 10
141.2945308275
 20
118.3450896372649
 30
0.0
 10
140.8751921261793
 20
118.7647552999164
 30
0.0
 10
140.7198391304293
 20
118.8926013056897
 30
0.0
 10
140.3888712972922
 20
119.1142023803915
 30
0.0
 10
140.2143099970958
 20
119.2078431143684
 30
0.0
 10
139.846736689521
 20
119.3609972350677
 30
0.0
 10
139.6520498278829
 20
119.4205009807137
 30
0.0
 10
139.2595738779465
 20
119.4990237297767
 30
0.0
 10
139.0601343615104
 20
119.5190316867135
 30
0.0
 10
138.6547770676148
 20
119.5190316867135
 30
0.0
  0
LINE
  5
127
330
1F
100
AcDbEntity
  8
0
  6
HIDDEN
 62
     7
370
     0
100
AcDbLine
 10
142.8574559381
 20
126.4690314632
 30
0.0
 11
142.8574559381
 21
106.4690319102
 31
0.0
  0
LINE
  5
128
330
1F
100
AcDbEntity
  8
0
  6
HIDDEN
 62
     7
370
     0
100
AcDbLine
 10
143.857456102
 20
123.7190314781
 30
0.0
 11
143.857456102
 21
109.2190318953
 31
0.0
  0
LINE
  5
129
330
1F
100
AcDbEntity
  8
0
  6
HIDDEN
 62
     7
370
     0
100
AcDbLine
 10
142.8574559381
 20
108.2190317314
 30
0.0
 11
142.8574559381
 21
124.6989355635
 31
0.0
  0
LINE
  5
12A
330
1F
100
AcDbEntity
  8
0
  6
HIDDEN
 62
     7
370
     0
100
AcDbLine
 10
237.3574555954
 20
99.9690317761
 30
0.0
 11
237.3574555954
 21
116.4690316867
 31
0.0
  0
SPLINE
  5
12B
330
1F
100
AcDbEntity
  8
0
  6
HIDDEN
 62
     7
370
     0
100
AcDbSpline
210
0.0
220
0.0
230
1.0
 70
     8
 71
     3
 72
    12
 73
     8
 74
     0
 42
0.00000001
 43
0.00000001
 12
1.0
 22
0.0
 32
0.0
 13
1.0
 23
0.0
 33
0.0
 40
0.0
 40
0.0
 40
0.0
 40
0.0
 40
0.2500000000000001
 40
0.2500000000000001
 40
0.5000000000000001
 40
0.5000000000000001
 40
1.0
 40
1.0
 40
1.0
 40
1.0
 10
238.414505580642
 20
122.4690316867135
 30
0.0
 10
238.2497624821595
 20
121.9869645541883
 30
0.0
 10
238.0994834332388
 20
121.4953876868895
 30
0.0
 10
237.837877403415
 20
120.5077759866359
 30
0.0
 10
237.7261719370862
 20
120.010986480243
 30
0.0
 10
237.4541786283338
 20
118.5107560878034
 30
0.0
 10
237.3574557145626
 20
117.4951838894386
 30
0.0
 10
237.3574557145626
 20
116.4690316867135
 30
0.0
  0
SPLINE
  5
12C
330
1F
100
AcDbEntity
  8
0
  6
HIDDEN
 62
     7
370
     0
100
AcDbSpline
210
0.0
220
0.0
230
1.0
 70
     8
 71
     3
 72
    14
 73
    10
 74
     0
 42
0.00000001
 43
0.00000001
 12
1.0
 22
0.0
 32
0.0
 13
1.0
 23
0.0
 33
0.0
 40
0.0
 40
0.0
 40
0.0
 40
0.0
 40
0.5000000000000007
 40
0.5000000000000007
 40
0.6250000000000004
 40
0.6250000000000004
 40
0.7500000000000003
 40
0.7500000000000003
 40
1.0
 40
1.0
 40
1.0
 40
1.0
 10
238.414505580642
 20
122.4690316867135
 30
0.0
 10
238.8964041367598
 20
123.8791511834055
 30
0.0
 10
239.3572366504605
 20
125.2708802872209
 30
0.0
 10
239.9118172339123
 20
126.9856348701825
 30
0.0
 10
240.0219938215237
 20
127.3283974172628
 30
0.0
 10
240.2382996239145
 20
128.0050880106794
 30
0.0
 10
240.3443905529874
 20
128.3388788981322
 30
0.0
 10
240.6568034686393
 20
129.3267245246525
 30
0.0
 10
240.8572852091989
 20
129.9673024624226
 30
0.0
 10
241.0505812598201
 20
130.5896455484347
 30
0.0
  0
SPLINE
  5
12D
330
1F
100
AcDbEntity
  8
0
  6
HIDDEN
 62
     7
370
     0
100
AcDbSpline
210
0.0
220
0.0
230
1.0
 70
     8
 71
     3
 72
    14
 73
    10
 74
     0
 42
0.00000001
 43
0.00000001
 12
1.0
 22
0.0
 32
0.0
 13
1.0
 23
0.0
 33
0.0
 40
0.0
 40
0.0
 40
0.0
 40
0.0
 40
0.0289420510249929
 40
0.223138198948502
 40
0.3574076077496437
 40
0.4916782428688579
 40
0.6298574631912719
 40
0.7680394363256793
 40
1.0
 40
1.0
 40
1.0
 40
1.0
 10
239.9566278894932
 20
135.5386399876378
 30
0.0
 10
239.9474221847123
 20
135.5388928339975
 30
0.0
 10
239.8764477958177
 20
135.5408422356232
 30
0.0
 10
239.8767651550651
 20
135.2658517857275
 30
0.0
 10
239.9341655244319
 20
134.7803386879513
 30
0.0
 10
240.0577795539421
 20
134.1792126340449
 30
0.0
 10
240.2470381846223
 20
133.4160029585932
 30
0.0
 10
240.5519794994629
 20
132.2950451669223
 30
0.0
 10
240.8584949401781
 20
131.246651907394
 30
0.0
 10
241.0505817373783
 20
130.5896458428405
 30
0.0
  0
ELLIPSE
  5
12E
330
1F
100
AcDbEntity
  8
0
  6
HIDDEN
 62
     7
370
     0
100
AcDbEllipse
 10
259.8701307507
 20
116.4690316867
 30
0.0
 11
11.74560502278064
 21
16.49993160125571
 31
0.0
210
0.0
220
0.0
230
1.0
 40
0.0040448756
 41
1.735251045915267
 42
3.144472021888252
  0
ELLIPSE
  5
12F
330
1F
100
AcDbEntity
  8
0
  6
HIDDEN
 62
     7
370
     0
100
AcDbEllipse
 10
259.6470249139
 20
116.4690316867
 30
0.0
 11
1.692802268121284
 21
16.49928264335408
 31
0.0
210
0.0
220
0.0
230
1.0
 40
0.090889472
 41
1.580121183404162
 42
1.741696534229973
  0
SPLINE
  5
130
330
1F
100
AcDbEntity
  8
0
  6
HIDDEN
 62
     7
370
     0
100
AcDbSpline
210
0.0
220
0.0
230
1.0
 70
     8
 71
     3
 72
    38
 73
    34
 74
     0
 42
0.00000001
 43
0.00000001
 12
1.0
 22
0.0
 32
0.0
 13
1.0
 23
0.0
 33
0.0
 40
0.0
 40
0.0
 40
0.0
 40
0.0
 40
0.0625
 40
0.0625
 40
0.125
 40
0.125
 40
0.1875
 40
0.1875
 40
0.25
 40
0.25
 40
0.3125
 40
0.3125
 40
0.375
 40
0.375
 40
0.4375
 40
0.4375
 40
0.5
 40
0.5
 40
0.5625
 40
0.5625
 40
0.625
 40
0.625
 40
0.6875
 40
0.6875
 40
0.75
 40
0.75
 40
0.8125
 40
0.8125
 40
0.875
 40
0.875
 40
0.9375
 40
0.9375
 40
1.0
 40
1.0
 40
1.0
 40
1.0
 10
245.1914160337375
 20
116.4690316867135
 30
0.0
 10
245.2163114549436
 20
116.2112615416026
 30
0.0
 10
245.2649345850375
 20
115.9600816181562
 30
0.0
 10
245.4083717249794
 20
115.4704954793207
 30
0.0
 10
245.5044865846327
 20
115.2297543176235
 30
0.0
 10
245.7394875963349
 20
114.7740275380004
 30
0.0
 10
245.8771155612717
 20
114.5601651447327
 30
0.0
 10
246.1916477902212
 20
114.1594370642864
 30
0.0
 10
246.3703194082916
 20
113.9714987865683
 30
0.0
 10
246.7538924321179
 20
113.63658237146
 30
0.0
 10
246.9598099199241
 20
113.4877530463712
 30
0.0
 10
247.3999603994442
 20
113.2269031677468
 30
0.0
 10
247.6336320187849
 20
113.1158475424671
 30
0.0
 10
248.111325927697
 20
112.9389045673171
 30
0.0
 10
248.3574755653591
 20
112.871654564187
 30
0.0
 10
248.8648695623383
 20
112.7806660120618
 30
0.0
 10
249.1217269542452
 20
112.7580101199066
 30
0.0
 10
249.6319585668646
 20
112.7578538827995
 30
0.0
 10
249.887059719423
 20
112.7800991989551
 30
0.0
 10
250.3960101043768
 20
112.8713641913061
 30
0.0
 10
250.6422934748582
 20
112.9389963811496
 30
0.0
 10
251.1191418904702
 20
113.11681665085
 30
0.0
 10
251.3513555566292
 20
113.228024404346
 30
0.0
 10
251.7915719488193
 20
113.4912182426267
 30
0.0
 10
251.9967069201995
 20
113.641049709678
 30
0.0
 10
252.3779816238619
 20
113.9765310101268
 30
0.0
 10
252.5556862230466
 20
114.1643805170672
 30
0.0
 10
252.8710765606963
 20
114.5663647291887
 30
0.0
 10
253.0089888322755
 20
114.7797924291662
 30
0.0
 10
253.2460714466951
 20
115.231303323697
 30
0.0
 10
253.3456370686759
 20
115.4715130277444
 30
0.0
 10
253.4986734174118
 20
115.9613816994268
 30
0.0
 10
253.5531794916384
 20
116.2122189836911
 30
0.0
 10
253.585495592444
 20
116.4690316867134
 30
0.0
  0
LINE
  5
131
330
1F
100
AcDbEntity
  8
0
  6
HIDDEN
 62
     7
370
     0
100
AcDbLine
 10
167.8574553793
 20
123.7190314781
 30
0.0
 11
167.8574553793
 21
109.2190318953
 31
0.0
  0
LINE
  5
132
330
1F
100
AcDbEntity
  8
0
  6
HIDDEN
 62
     7
370
     0
100
AcDbLine
 10
169.6600367417
 20
120.7190319177
 30
0.0
 11
169.6600367417
 21
112.2190314557
 31
0.0
  0
LINE
  5
133
330
1F
100
AcDbEntity
  8
0
  6
HIDDEN
 62
     7
370
     0
100
AcDbLine
 10
225.8574546417
 20
120.7190319177
 30
0.0
 11
225.8574546417
 21
112.2190314557
 31
0.0
  0
SPLINE
  5
134
330
1F
100
AcDbEntity
  8
0
  6
HIDDEN
 62
     7
370
     0
100
AcDbSpline
210
0.0
220
0.0
230
1.0
 70
     8
 71
     3
 72
    60
 73
    56
 74
     0
 42
0.00000001
 43
0.00000001
 12
1.0
 22
0.0
 32
0.0
 13
1.0
 23
0.0
 33
0.0
 40
-0.0312499999999994
 40
-0.0312499999999994
 40
0.0
 40
0.0
 40
0.0312499999999994
 40
0.0312499999999994
 40
0.0624999999999987
 40
0.0624999999999987
 40
0.1249999999999998
 40
0.1249999999999998
 40
0.1562499999999994
 40
0.1562499999999994
 40
0.1874999999999991
 40
0.1874999999999991
 40
0.2187499999999988
 40
0.2187499999999988
 40
0.2499999999999984
 40
0.2499999999999984
 40
0.3124999999999977
 40
0.3124999999999977
 40
0.3749999999999969
 40
0.3749999999999969
 40
0.4062499999999966
 40
0.4062499999999966
 40
0.4374999999999962
 40
0.4374999999999962
 40
0.4687499999999958
 40
0.4687499999999958
 40
0.4999999999999956
 40
0.4999999999999956
 40
0.5312499999999952
 40
0.5312499999999952
 40
0.5624999999999949
 40
0.5624999999999949
 40
0.6249999999999966
 40
0.6249999999999966
 40
0.6562499999999973
 40
0.6562499999999973
 40
0.6874999999999981
 40
0.6874999999999981
 40
0.718749999999999
 40
0.718749999999999
 40
0.7499999999999998
 40
0.7499999999999998
 40
0.7812500000000006
 40
0.7812500000000006
 40
0.8125000000000013
 40
0.8125000000000013
 40
0.8750000000000021
 40
0.8750000000000021
 40
0.9062500000000016
 40
0.9062500000000016
 40
0.937500000000001
 40
0.937500000000001
 40
0.9687500000000006
 40
0.9687500000000006
 40
1.0
 40
1.0
 40
1.031249999999999
 40
1.031249999999999
 10
222.687928117992
 20
117.7846026516382
 30
0.0
 10
223.0269833111332
 20
117.7846026516382
 30
0.0
 10
223.1925811588407
 20
117.764500915208
 30
0.0
 10
223.5167012355134
 20
117.6876074887292
 30
0.0
 10
223.676511299839
 20
117.6298534681348
 30
0.0
 10
224.1258529023804
 20
117.4125286980266
 30
0.0
 10
224.3955356421558
 20
117.2057726852325
 30
0.0
 10
224.7337204309133
 20
116.8379648808881
 30
0.0
 10
224.8372868645372
 20
116.7034357988691
 30
0.0
 10
225.0177383268371
 20
116.4212211205116
 30
0.0
 10
225.0948602930994
 20
116.2738821135692
 30
0.0
 10
225.2222781779066
 20
115.9666111850387
 30
0.0
 10
225.2727423707077
 20
115.8046065927767
 30
0.0
 10
225.3395837833902
 20
115.4836519137692
 30
0.0
 10
225.3569019849392
 20
115.323360583224
 30
0.0
 10
225.3585243768727
 20
114.8433572628047
 30
0.0
 10
225.290036406329
 20
114.5370634153232
 30
0.0
 10
225.0359860999581
 20
114.0045198132845
 30
0.0
 10
224.8514032006027
 20
113.7768956055383
 30
0.0
 10
224.5140347301797
 20
113.5032893252637
 30
0.0
 10
224.3900455612128
 20
113.4221093862527
 30
0.0
 10
224.1238768159953
 20
113.2821115093298
 30
0.0
 10
223.9833401351713
 20
113.2238632754128
 30
0.0
 10
223.6856817998733
 20
113.1288177365024
 30
0.0
 10
223.5262144223308
 20
113.0917456726126
 30
0.0
 10
223.2005970381973
 20
113.0424027349947
 30
0.0
 10
223.0346300558102
 20
113.0297106305569
 30
0.0
 10
222.6957968097471
 20
113.0289469934722
 30
0.0
 10
222.5288061309119
 20
113.040988176267
 30
0.0
 10
222.2031812171211
 20
113.088835947106
 30
0.0
 10
222.0430500445642
 20
113.1251933036732
 30
0.0
 10
221.5923448852058
 20
113.2668366254234
 30
0.0
 10
221.3220863840551
 20
113.406656287596
 30
0.0
 10
220.9823716551533
 20
113.679702298081
 30
0.0
 10
220.8784130112778
 20
113.782912366935
 30
0.0
 10
220.6981039186562
 20
114.0070839355714
 30
0.0
 10
220.6206702100636
 20
114.1286166027761
 30
0.0
 10
220.4924213552191
 20
114.393629569959
 30
0.0
 10
220.4421060643023
 20
114.537573508375
 30
0.0
 10
220.3753578178109
 20
114.8341944991125
 30
0.0
 10
220.3578843086146
 20
114.9886327119915
 30
0.0
 10
220.3570425260843
 20
115.3109845820901
 30
0.0
 10
220.3738026236162
 20
115.472963556997
 30
0.0
 10
220.4395547671201
 20
115.7952156856943
 30
0.0
 10
220.4894096278937
 20
115.9574467576455
 30
0.0
 10
220.6803744134612
 20
116.4220298531773
 30
0.0
 10
220.865670546431
 20
116.7117275048796
 30
0.0
 10
221.2045594472509
 20
117.0811935219659
 30
0.0
 10
221.3297413696542
 20
117.1956042205052
 30
0.0
 10
221.5956765056274
 20
117.3965283551073
 30
0.0
 10
221.7365320890262
 20
117.4836618942455
 30
0.0
 10
222.0361986855104
 20
117.6289784837809
 30
0.0
 10
222.196576867645
 20
117.6871138728614
 30
0.0
 10
222.5213140076937
 20
117.7643650870151
 30
0.0
 10
222.687928117992
 20
117.7846026516382
 30
0.0
 10
223.0269833111332
 20
117.7846026516382
 30
0.0
  0
CIRCLE
  5
135
330
1F
100
AcDbEntity
  8
0
  6
HIDDEN
 62
     7
370
     0
100
AcDbCircle
 10
251.4165425268
 20
119.6805180828
 30
0.0
 40
3.471255540325423
  0
CIRCLE
  5
136
330
1F
100
AcDbEntity
  8
0
  6
HIDDEN
 62
     7
370
     0
100
AcDbCircle
 10
250.9901309015
 20
119.1158860401
 30
0.0
 40
3.471255577003164
  0
ARC
  5
137
330
1F
100
AcDbEntity
  8
0
  6
HIDDEN
 62
     7
370
     0
100
AcDbCircle
 10
247.8148253115
 20
126.4823402298
 30
0.0
 40
2.345941252817914
100
AcDbArc
 50
133.4752524456
 51
274.6441085683
  0
LINE
  5
138
330
1F
100
AcDbEntity
  8
0
  6
HIDDEN
 62
     7
370
     0
100
AcDbLine
 10
260.7420862754
 20
125.6823069628
 30
0.0
 11
260.2508024415
 21
125.0317772131
 31
0.0
  0
LINE
  5
139
330
1F
100
AcDbEntity
  8
0
  6
HIDDEN
 62
     7
370
     0
100
AcDbLine
 10
257.8813688
 20
113.8146233492
 30
0.0
 11
259.9375278791
 21
116.5372775134
 31
0.0
  0
LINE
  5
13A
330
1F
100
AcDbEntity
  8
0
  6
HIDDEN
 62
     7
370
     0
100
AcDbLine
 10
248.9163310369
 20
128.8822158452
 30
0.0
 11
249.3970350464
 21
128.9170612793
 31
0.0
  0
LINE
  5
13B
330
1F
100
AcDbEntity
  8
0
  6
HIDDEN
 62
     7
370
     0
100
AcDbLine
 10
249.0897209486
 20
128.5101338502
 30
0.0
 11
249.3970350464
 21
128.9170612793
 31
0.0
  0
LINE
  5
13C
330
1F
100
AcDbEntity
  8
0
  6
HIDDEN
 62
     7
370
     0
100
AcDbLine
 10
249.0897209486
 20
128.5101338502
 30
0.0
 11
248.882274433
 21
128.4950967159
 31
0.0
  0
ELLIPSE
  5
13D
330
1F
100
AcDbEntity
  8
0
  6
HIDDEN
 62
     7
370
     0
100
AcDbEllipse
 10
247.8025709576
 20
110.2613614513
 30
0.0
 11
2.733626938423214
 21
26.42588789006401
 31
0.0
210
0.0
220
0.0
230
1.0
 40
0.0894011665
 41
0.1891571882354061
 42
0.301790456627276
  0
ELLIPSE
  5
13E
330
1F
100
AcDbEntity
  8
0
  6
HIDDEN
 62
     7
370
     0
100
AcDbEllipse
 10
243.5453236844
 20
109.8139067323
 30
0.0
 11
217.1628490301419
 21
19.44089462863677
 31
0.0
210
0.0
220
0.0
230
1.0
 40
0.1182598878
 41
1.530285309819162
 42
1.5326049572069
  0
ELLIPSE
  5
13F
330
1F
100
AcDbEntity
  8
0
  6
HIDDEN
 62
     7
370
     0
100
AcDbEllipse
 10
247.2924412922
 20
110.207744663
 30
0.0
 11
2.73362693842327
 21
26.42588789006401
 31
0.0
210
0.0
220
0.0
230
1.0
 40
0.0894011665
 41
0.018847257499977
 42
0.1868375408476695
  0
SPLINE
  5
140
330
1F
100
AcDbEntity
  8
0
  6
HIDDEN
 62
     7
370
     0
100
AcDbSpline
210
0.0
220
0.0
230
1.0
 70
     8
 71
     3
 72
    12
 73
     8
 74
     0
 42
0.00000001
 43
0.00000001
 12
1.0
 22
0.0
 32
0.0
 13
1.0
 23
0.0
 33
0.0
 40
0.0
 40
0.0
 40
0.0
 40
0.0
 40
0.5
 40
0.5
 40
0.75
 40
0.75
 40
1.0
 40
1.0
 40
1.0
 40
1.0
 10
241.0505812598201
 20
130.5896455484347
 30
0.0
 10
244.2327869099066
 20
131.1501933648767
 30
0.0
 10
247.4006942818833
 20
131.7414489568326
 30
0.0
 10
252.1207720039214
 20
132.6871526906004
 30
0.0
 10
253.6887811863284
 20
133.0122305309564
 30
0.0
 10
256.8112420756725
 20
133.6847906474547
 30
0.0
 10
258.3657272176383
 20
134.032268338103
 30
0.0
 10
259.9112624588402
 20
134.3925682455347
 30
0.0
  0
SPLINE
  5
141
330
1F
100
AcDbEntity
  8
0
  6
HIDDEN
 62
     7
370
     0
100
AcDbSpline
210
0.0
220
0.0
230
1.0
 70
     8
 71
     3
 72
    15
 73
    11
 74
     0
 42
0.00000001
 43
0.00000001
 12
1.0
 22
0.0
 32
0.0
 13
1.0
 23
0.0
 33
0.0
 40
0.0
 40
0.0
 40
0.0
 40
0.0
 40
0.0986128938076712
 40
0.1978661352646405
 40
0.2977604452169593
 40
0.3982965307150105
 40
0.4994750853484591
 40
0.6642152858651911
 40
0.8310560316337665
 40
1.0
 40
1.0
 40
1.0
 40
1.0
 10
260.4704280762015
 20
136.298172706984
 30
0.0
 10
260.4527053575254
 20
136.2467522136112
 30
0.0
 10
260.4171448368326
 20
136.1435773253768
 30
0.0
 10
260.3630437700273
 20
135.9790934943732
 30
0.0
 10
260.3081804836999
 20
135.806779468754
 30
0.0
 10
260.2525188013566
 20
135.6258707274562
 30
0.0
 10
260.184383746538
 20
135.3972810861947
 30
0.0
 10
260.1031320508226
 20
135.1132817909063
 30
0.0
 10
260.0081986108169
 20
134.7667445171858
 30
0.0
 10
259.9437117860853
 20
134.5178142068781
 30
0.0
 10
259.9112664137415
 20
134.3925694512365
 30
0.0
  0
ELLIPSE
  5
142
330
1F
100
AcDbEntity
  8
0
  6
HIDDEN
 62
     7
370
     0
100
AcDbEllipse
 10
218.8552126366
 20
107.218871492
 30
0.0
 11
217.162849030142
 21
19.44089462863678
 31
0.0
210
0.0
220
0.0
230
1.0
 40
0.1182598878
 41
1.367396722434434
 42
1.417652041427281
  0
ELLIPSE
  5
143
330
1F
100
AcDbEntity
  8
0
  6
HIDDEN
 62
     7
370
     0
100
AcDbEllipse
 10
253.5188028125
 20
125.876801176
 30
0.0
 11
0.938287612369578
 21
2.751666891553327
 31
0.0
210
0.0
220
0.0
230
1.0
 40
0.8587453104
 41
4.575938033196759
 42
4.684963051302645
  0
ELLIPSE
  5
144
330
1F
100
AcDbEntity
  8
0
  6
HIDDEN
 62
     7
370
     0
100
AcDbEllipse
 10
253.5188028125
 20
125.876801176
 30
0.0
 11
0.938287612369578
 21
2.751666891553327
 31
0.0
210
0.0
220
0.0
230
1.0
 40
0.8587453104
 41
2.217011811208263
 42
2.405553341234559
  0
ELLIPSE
  5
145
330
1F
100
AcDbEntity
  8
0
  6
HIDDEN
 62
     7
370
     0
100
AcDbEllipse
 10
253.0479500353
 20
124.8124044592
 30
0.0
 11
2.967222170038042
 21
0.5785035440251391
 31
0.0
210
0.0
220
0.0
230
1.0
 40
0.1845741307
 41
2.265121822756917
 42
2.853074040823591
  0
ELLIPSE
  5
146
330
1F
100
AcDbEntity
  8
0
  6
HIDDEN
 62
     7
370
     0
100
AcDbEllipse
 10
252.5866005499
 20
123.7694906203
 30
0.0
 11
0.9382876123695781
 21
2.751666891553299
 31
0.0
210
0.0
220
0.0
230
1.0
 40
0.8587453104
 41
1.543370397712832
 42
1.629059593141561
  0
SPLINE
  5
147
330
1F
100
AcDbEntity
  8
0
  6
HIDDEN
 62
     7
370
     0
100
AcDbSpline
210
0.0
220
0.0
230
1.0
 70
     8
 71
     3
 72
    22
 73
    18
 74
     0
 42
0.00000001
 43
0.00000001
 12
1.0
 22
0.0
 32
0.0
 13
1.0
 23
0.0
 33
0.0
 40
0.0
 40
0.0
 40
0.0
 40
0.0
 40
0.1249999999999989
 40
0.1249999999999989
 40
0.2499999999999978
 40
0.2499999999999978
 40
0.4999999999999953
 40
0.4999999999999953
 40
0.6249999999999953
 40
0.6249999999999953
 40
0.7499999999999953
 40
0.7499999999999953
 40
0.8749999999999954
 40
0.8749999999999954
 40
0.9374999999999978
 40
0.9374999999999978
 40
1.0
 40
1.0
 40
1.0
 40
1.0
 10
249.1819658405364
 20
122.2354881088767
 30
0.0
 10
249.2113041308434
 20
122.2743362183613
 30
0.0
 10
249.2560987518893
 20
122.3175584445767
 30
0.0
 10
249.3691443304546
 20
122.4097779788624
 30
0.0
 10
249.4377271238558
 20
122.4589153114422
 30
0.0
 10
249.6712220272001
 20
122.6089588484136
 30
0.0
 10
249.8629987270313
 20
122.7131256736945
 30
0.0
 10
250.2075881165447
 20
122.8590053496641
 30
0.0
 10
250.3321922267625
 20
122.9059113034845
 30
0.0
 10
250.6069418379354
 20
122.9918713641284
 30
0.0
 10
250.7570183279641
 20
123.0310383934152
 30
0.0
 10
251.0904149086414
 20
123.0916225944768
 30
0.0
 10
251.2743523512292
 20
123.1137943185054
 30
0.0
 10
251.589374293998
 20
123.1161400734485
 30
0.0
 10
251.7026624108166
 20
123.1116307806368
 30
0.0
 10
251.9472656156538
 20
123.0840864230678
 30
0.0
 10
252.0777031310741
 20
123.0610753379608
 30
0.0
 10
252.2140950234115
 20
123.0239131323895
 30
0.0
  0
SPLINE
  5
148
330
1F
100
AcDbEntity
  8
0
  6
HIDDEN
 62
     7
370
     0
100
AcDbSpline
210
0.0
220
0.0
230
1.0
 70
     8
 71
     3
 72
     8
 73
     4
 74
     0
 42
0.00000001
 43
0.00000001
 12
1.0
 22
0.0
 32
0.0
 13
1.0
 23
0.0
 33
0.0
 40
0.0
 40
0.0
 40
0.0
 40
0.0
 40
1.0
 40
1.0
 40
1.0
 40
1.0
 10
252.2140950234115
 20
123.0239131323895
 30
0.0
 10
252.3513556215522
 20
122.9641074542337
 30
0.0
 10
252.4925649347644
 20
122.9107546782969
 30
0.0
 10
252.6359891405739
 20
122.8648417010662
 30
0.0
  0
SPLINE
  5
149
330
1F
100
AcDbEntity
  8
0
  6
HIDDEN
 62
     7
370
     0
100
AcDbSpline
210
0.0
220
0.0
230
1.0
 70
     8
 71
     3
 72
    22
 73
    18
 74
     0
 42
0.00000001
 43
0.00000001
 12
1.0
 22
0.0
 32
0.0
 13
1.0
 23
0.0
 33
0.0
 40
0.0
 40
0.0
 40
0.0
 40
0.0
 40
0.0625
 40
0.0625
 40
0.1249999999999999
 40
0.1249999999999999
 40
0.1874999999999999
 40
0.1874999999999999
 40
0.2499999999999999
 40
0.2499999999999999
 40
0.3749999999999998
 40
0.3749999999999998
 40
0.4999999999999998
 40
0.4999999999999998
 40
0.7499999999999999
 40
0.7499999999999999
 40
1.0
 40
1.0
 40
1.0
 40
1.0
 10
252.6359891405739
 20
122.8648417010662
 30
0.0
 10
252.7604231466858
 20
122.8035898152422
 30
0.0
 10
252.8662271803329
 20
122.7379065630535
 30
0.0
 10
253.0552552493516
 20
122.6014272888393
 30
0.0
 10
253.1342445534152
 20
122.5336286588235
 30
0.0
 10
253.2739660024224
 20
122.3993318861687
 30
0.0
 10
253.334785966664
 20
122.3323869092061
 30
0.0
 10
253.4415477824379
 20
122.2025524623969
 30
0.0
 10
253.4878511449179
 20
122.139296684777
 30
0.0
 10
253.6120551347479
 20
121.9534758231793
 30
0.0
 10
253.6755203623478
 20
121.8347963502486
 30
0.0
 10
253.7790039969984
 20
121.6061386204513
 30
0.0
 10
253.8186327231642
 20
121.4962001897022
 30
0.0
 10
253.9100007752931
 20
121.184919202724
 30
0.0
 10
253.9361652413618
 20
120.9991436655715
 30
0.0
 10
253.9379881409619
 20
120.6835375595258
 30
0.0
 10
253.9141310163859
 20
120.5523869277643
 30
0.0
 10
253.8546902719762
 20
120.4736788461918
 30
0.0
  0
ELLIPSE
  5
14A
330
1F
100
AcDbEntity
  8
0
  6
HIDDEN
 62
     7
370
     0
100
AcDbEllipse
 10
252.768008145
 20
124.1795755935
 30
0.0
 11
2.96722217003807
 21
0.5785035440251249
 31
0.0
210
0.0
220
0.0
230
1.0
 40
0.1845741307
 41
6.189380907948113
 42
8.3597655999102
  0
LINE
  5
14B
330
1F
100
AcDbEntity
  8
0
  6
HIDDEN
 62
     7
370
     0
100
AcDbLine
 10
249.1819665869
 20
122.2354881678
 30
0.0
 11
248.8843307932
 21
121.841372012
 31
0.0
  0
ELLIPSE
  5
14C
330
1F
100
AcDbEntity
  8
0
  6
HIDDEN
 62
     7
370
     0
100
AcDbEllipse
 10
250.2931640969
 20
118.128638401
 30
0.0
 11
3.671213746604395
 21
-2.058398841174011
 31
0.0
210
0.0
220
0.0
230
1.0
 40
0.8772799171
 41
1.104348183352987
 42
2.379472024591353
  0
LINE
  5
14D
330
1F
100
AcDbEntity
  8
0
  6
HIDDEN
 62
     7
370
     0
100
AcDbLine
 10
253.5570518216
 20
120.0795627877
 30
0.0
 11
253.8546876153
 21
120.4736787107
 31
0.0
  0
ELLIPSE
  5
14E
330
1F
100
AcDbEntity
  8
0
  6
HIDDEN
 62
     7
370
     0
100
AcDbEllipse
 10
249.3953419594
 20
116.9397929595
 30
0.0
 11
-2.570105550204687
 21
-3.403188827857335
 31
0.0
210
0.0
220
0.0
230
1.0
 40
0.9848432766
 41
2.099066612685441
 42
5.463108037728074
  0
ARC
  5
14F
330
1F
100
AcDbEntity
  8
0
  6
HIDDEN
 62
     7
370
     0
100
AcDbCircle
 10
250.9534642743
 20
119.0414034073
 30
0.0
 40
4.177267924920374
100
AcDbArc
 50
72.4352828914
 51
66.2478482224
  0
ARC
  5
150
330
1F
100
AcDbEntity
  8
0
  6
HIDDEN
 62
     7
370
     0
100
AcDbCircle
 10
247.794271426
 20
126.7316624751
 30
0.0
 40
2.100339453776061
100
AcDbArc
 50
143.6057892147
 51
274.5647237859
  0
LINE
  5
151
330
1F
100
AcDbEntity
  8
0
  6
HIDDEN
 62
     7
370
     0
100
AcDbLine
 10
251.0672689518
 20
124.8631174889
 30
0.0
 11
247.9614273747
 21
124.6379851576
 31
0.0
  0
LINE
  5
152
330
1F
100
AcDbEntity
  8
0
  6
HIDDEN
 62
     7
370
     0
100
AcDbLine
 10
248.004767402
 20
124.144101071
 30
0.0
 11
251.2370006283
 21
124.3783957537
 31
0.0
  0
ARC
  5
153
330
1F
100
AcDbEntity
  8
0
  6
HIDDEN
 62
     7
370
     0
100
AcDbCircle
 10
247.4862332417
 20
126.3210431803
 30
0.0
 40
2.096717170957769
100
AcDbArc
 50
132.5158014748
 51
274.5924767089
  0
LINE
  5
154
330
1F
100
AcDbEntity
  8
0
  6
HIDDEN
 62
     7
370
     0
100
AcDbLine
 10
249.3970350464
 20
128.9170612793
 30
0.0
 11
250.043216451
 21
136.2618454944
 31
0.0
  0
LINE
  5
155
330
1F
100
AcDbEntity
  8
0
  6
HIDDEN
 62
     7
370
     0
100
AcDbLine
 10
249.5396540602
 20
136.2191275906
 30
0.0
 11
248.8940239986
 21
128.8805990692
 31
0.0
  0
LWPOLYLINE
  5
156
330
1F
100
AcDbEntity
  8
0
  6
HIDDEN
 62
     7
370
     0
100
AcDbPolyline
 90
       26
 70
   128
 43
0.0
 10
222.8574560126
 20
116.0655200286
 10
223.4791771611
 20
115.9908220501
 10
224.0618423661
 20
115.77142166
 10
224.5688245734
 20
115.4211046154
 10
224.9682725509
 20
114.9618826088
 10
225.2351001938
 20
114.4226102836
 10
225.352521344
 20
113.8371720657
 10
225.3131748279
 20
113.2423531011
 10
225.1195267876
 20
112.6755282961
 10
224.7837365707
 20
112.1723130558
 10
224.3269191226
 20
111.7643267129
 10
223.7777666291
 20
111.4772036884
 10
223.1707901796
 20
111.328986029
 10
222.5441218456
 20
111.328986029
 10
221.9371453961
 20
111.4772036884
 10
221.3879929026
 20
111.7643267129
 10
220.9311754545
 20
112.1723130558
 10
220.5953852376
 20
112.6755282961
 10
220.4017371973
 20
113.2423531011
 10
220.3623906811
 20
113.8371720657
 10
220.4798118313
 20
114.4226102836
 10
220.7466394743
 20
114.9618826088
 10
221.1460874518
 20
115.4211046154
 10
221.6530696591
 20
115.77142166
 10
222.2357274135
 20
115.9908220501
 10
222.8574560126
 20
116.0655200286
  0
LINE
  5
157
330
1F
100
AcDbEntity
  8
0
  6
HIDDEN
 62
     7
370
     0
100
AcDbLine
 10
255.8551685055
 20
124.9958961483
 30
0.0
 11
255.9360669097
 21
125.2160412472
 31
0.0
  0
LINE
  5
158
330
1F
100
AcDbEntity
  8
0
  6
HIDDEN
 62
     7
370
     0
100
AcDbLine
 10
260.294813021
 20
125.5319924306
 30
0.0
 11
255.9360669097
 21
125.2160412472
 31
0.0
  0
LINE
  5
159
330
1F
100
AcDbEntity
  8
0
  6
HIDDEN
 62
     7
370
     0
100
AcDbLine
 10
260.2508024415
 20
125.0317772131
 30
0.0
 11
260.294813021
 21
125.5319924306
 31
0.0
  0
LINE
  5
15A
330
1F
100
AcDbEntity
  8
0
  6
HIDDEN
 62
     7
370
     0
100
AcDbLine
 10
255.7321892222
 20
124.7042366516
 30
0.0
 11
260.2508024415
 21
125.0317772131
 31
0.0
  0
LINE
  5
15B
330
1F
100
AcDbEntity
  8
0
  6
HIDDEN
 62
     7
370
     0
100
AcDbLine
 10
253.5570518216
 20
120.0795627877
 30
0.0
 11
254.6037838896
 21
123.2753442813
 31
0.0
  0
LINE
  5
15C
330
1F
100
AcDbEntity
  8
0
  6
HIDDEN
 62
     7
370
     0
100
AcDbLine
 10
256.7333311876
 20
127.8147776824
 30
0.0
 11
256.4401284894
 21
127.4265372407
 31
0.0
  0
LINE
  5
15D
330
1F
100
AcDbEntity
  8
0
  6
HIDDEN
 62
     7
370
     0
100
AcDbLine
 10
255.6287528118
 20
124.809113818
 30
0.0
 11
256.7333311876
 21
127.8147776824
 31
0.0
  0
LINE
  5
15E
330
1F
100
AcDbEntity
  8
0
  6
HIDDEN
 62
     7
370
     0
100
AcDbLine
 10
255.9360669097
 20
125.2160412472
 30
0.0
 11
255.6287528118
 21
124.809113818
 31
0.0
  0
LINE
  5
15F
330
1F
100
AcDbEntity
  8
0
  6
HIDDEN
 62
     7
370
     0
100
AcDbLine
 10
260.294813021
 20
125.5319924306
 30
0.0
 11
259.9874989232
 21
125.1250650015
 31
0.0
  0
LINE
  5
160
330
1F
100
AcDbEntity
  8
0
  6
HIDDEN
 62
     7
370
     0
100
AcDbLine
 10
124.3574556997
 20
133.3283824127
 30
0.0
 11
124.3574556997
 21
128.518604229
 31
0.0
  0
LINE
  5
161
330
1F
100
AcDbEntity
  8
0
  6
HIDDEN
 62
     7
370
     0
100
AcDbLine
 10
122.8574563851
 20
132.4623567265
 30
0.0
 11
122.8574563851
 21
128.0855913859
 31
0.0
  0
LINE
  5
162
330
1F
100
AcDbEntity
  8
0
  6
HIDDEN
 62
     7
370
     0
100
AcDbLine
 10
150.6574557265
 20
133.9891297024
 30
0.0
 11
150.6574557265
 21
128.8489778739
 31
0.0
  0
LINE
  5
163
330
1F
100
AcDbEntity
  8
0
  6
HIDDEN
 62
     7
370
     0
100
AcDbLine
 10
150.6574557265
 20
104.0890854996
 30
0.0
 11
150.6574557265
 21
98.948933671
 31
0.0
  0
SPLINE
  5
164
330
1F
100
AcDbEntity
  8
0
  6
HIDDEN
 62
     7
370
     0
100
AcDbSpline
210
0.0
220
0.0
230
1.0
 70
     8
 71
     3
 72
    18
 73
    14
 74
     0
 42
0.00000001
 43
0.00000001
 12
1.0
 22
0.0
 32
0.0
 13
1.0
 23
0.0
 33
0.0
 40
0.0
 40
0.0
 40
0.0
 40
0.0
 40
0.2499999999999997
 40
0.2499999999999997
 40
0.3749999999999997
 40
0.3749999999999997
 40
0.4999999999999998
 40
0.4999999999999998
 40
0.6249999999999998
 40
0.6249999999999998
 40
0.7499999999999999
 40
0.7499999999999999
 40
1.0
 40
1.0
 40
1.0
 40
1.0
 10
151.536135371003
 20
103.3739849631811
 30
0.0
 10
151.4008497647006
 20
102.7897833694494
 30
0.0
 10
151.2996820184577
 20
102.2555656822412
 30
0.0
 10
151.1968206755888
 20
101.5296689113528
 30
0.0
 10
151.1707178300655
 20
101.2997884235729
 30
0.0
 10
151.1358278465206
 20
100.8692174787861
 30
0.0
 10
151.1272415882306
 20
100.6715225732919
 30
0.0
 10
151.127141878665
 20
100.3101745306141
 30
0.0
 10
151.1356302498135
 20
100.146524520668
 30
0.0
 10
151.1697736293341
 20
99.85331324769902
 30
0.0
 10
151.1955706111879
 20
99.72331718158321
 30
0.0
 10
151.2989717425759
 20
99.38926128902128
 30
0.0
 10
151.4008297347473
 20
99.2434851246565
 30
0.0
 10
151.536135371003
 20
99.17212181870866
 30
0.0
  0
SPLINE
  5
165
330
1F
100
AcDbEntity
  8
0
  6
HIDDEN
 62
     7
370
     0
100
AcDbSpline
210
0.0
220
0.0
230
1.0
 70
     8
 71
     3
 72
    18
 73
    14
 74
     0
 42
0.00000001
 43
0.00000001
 12
1.0
 22
0.0
 32
0.0
 13
1.0
 23
0.0
 33
0.0
 40
0.0
 40
0.0
 40
0.0
 40
0.0
 40
0.2499999999999994
 40
0.2499999999999994
 40
0.3749999999999994
 40
0.3749999999999994
 40
0.4999999999999994
 40
0.4999999999999994
 40
0.6249999999999994
 40
0.6249999999999994
 40
0.7499999999999994
 40
0.7499999999999994
 40
1.0
 40
1.0
 40
1.0
 40
1.0
 10
151.536135371003
 20
133.7659415547183
 30
0.0
 10
151.4008497647006
 20
133.6945888130288
 30
0.0
 10
151.2996820184577
 20
133.5491854064393
 30
0.0
 10
151.1968206755888
 20
133.2197181708337
 30
0.0
 10
151.1707178300655
 20
133.0907845940289
 30
0.0
 10
151.1358278465206
 20
132.7952425946929
 30
0.0
 10
151.1272415882306
 20
132.6308478211709
 30
0.0
 10
151.127141878665
 20
132.2698862064303
 30
0.0
 10
151.1356302498135
 20
132.0733164142681
 30
0.0
 10
151.1697736293341
 20
131.6479616181431
 30
0.0
 10
151.1955706111879
 20
131.4181919683435
 30
0.0
 10
151.2989717425759
 20
130.6856032739111
 30
0.0
 10
151.4008297347473
 20
130.1483664989935
 30
0.0
 10
151.536135371003
 20
129.5640784102459
 30
0.0
  0
LINE
  5
166
330
1F
100
AcDbEntity
  8
0
  6
HIDDEN
 62
     7
370
     0
100
AcDbLine
 10
124.3574556997
 20
104.4194591444
 30
0.0
 11
124.3574556997
 21
99.6096809607
 31
0.0
  0
LINE
  5
167
330
1F
100
AcDbEntity
  8
0
  6
HIDDEN
 62
     7
370
     0
100
AcDbLine
 10
122.8574563851
 20
104.8524719875
 30
0.0
 11
122.8574563851
 21
100.475706647
 31
0.0
  0
ARC
  5
168
330
1F
100
AcDbEntity
  8
0
  6
HIDDEN
 62
     7
370
     0
100
AcDbCircle
 10
255.0919361598
 20
130.5388898458
 30
0.0
 40
3.180403231691799
100
AcDbArc
 50
301.0707758513
 51
197.6121907711
  0
LINE
  5
169
330
1F
100
AcDbEntity
  8
0
  6
HIDDEN
 62
     7
370
     0
100
AcDbLine
 10
252.0606101593
 20
129.5765866738
 30
0.0
 11
250.2502382835
 21
124.6503950309
 31
0.0
  0
LINE
  5
16A
330
1F
100
AcDbEntity
  8
0
  6
HIDDEN
 62
     7
370
     0
100
AcDbLine
 10
260.9284401973
 20
135.8203278136
 30
0.0
 11
260.4704306563
 21
136.2981745254
 31
0.0
  0
LINE
  5
16B
330
1F
100
AcDbEntity
  8
0
  6
HIDDEN
 62
     7
370
     0
100
AcDbLine
 10
255.6287528118
 20
124.809113818
 30
0.0
 11
259.9874989232
 21
125.1250650015
 31
0.0
  0
LINE
  5
16C
330
1F
100
AcDbEntity
  8
0
  6
HIDDEN
 62
     7
370
     0
100
AcDbLine
 10
249.7104437192
 20
135.5655943256
 30
0.0
 11
249.0897209486
 21
128.5101338502
 31
0.0
  0
LINE
  5
16D
330
1F
100
AcDbEntity
  8
0
  6
HIDDEN
 62
     7
370
     0
100
AcDbLine
 10
247.6541132768
 20
124.2310577285
 30
0.0
 11
250.1729906639
 21
124.4136435192
 31
0.0
  0
LINE
  5
16E
330
1F
100
AcDbEntity
  8
0
  6
HIDDEN
 62
     7
370
     0
100
AcDbLine
 10
259.9874989232
 20
125.1250650015
 30
0.0
 11
260.9284401973
 21
135.8203278136
 31
0.0
  0
SPLINE
  5
16F
330
1F
100
AcDbEntity
  8
0
  6
HIDDEN
 62
     7
370
     0
100
AcDbSpline
210
0.0
220
0.0
230
1.0
 70
     8
 71
     3
 72
    10
 73
     6
 74
     0
 42
0.00000001
 43
0.00000001
 12
1.0
 22
0.0
 32
0.0
 13
1.0
 23
0.0
 33
0.0
 40
0.0
 40
0.0
 40
0.0
 40
0.0
 40
0.5
 40
0.5
 40
1.0
 40
1.0
 40
1.0
 40
1.0
 10
255.7485469265139
 20
126.8400262878194
 30
0.0
 10
255.9119447364999
 20
126.9511053292017
 30
0.0
 10
256.0549665479458
 20
127.0622185085107
 30
0.0
 10
256.2935392428229
 20
127.2667923174238
 30
0.0
 10
256.3908228123622
 20
127.3612465105396
 30
0.0
 10
256.440130936134
 20
127.4265375472947
 30
0.0
  0
ARC
  5
170
330
1F
100
AcDbEntity
  8
0
  6
HIDDEN
 62
     7
370
     0
100
AcDbCircle
 10
254.5582210347
 20
129.7189473797
 30
0.0
 40
3.115293211983224
100
AcDbArc
 50
292.463198878
 51
359.9393705669
  0
ARC
  5
171
330
1F
100
AcDbEntity
  8
0
  6
HIDDEN
 62
     7
370
     0
100
AcDbCircle
 10
254.4415885085
 20
129.7053193628
 30
0.0
 40
3.233334238626926
100
AcDbArc
 50
5.8580534985
 51
88.9600342733
  0
ARC
  5
172
330
1F
100
AcDbEntity
  8
0
  6
HIDDEN
 62
     7
370
     0
100
AcDbCircle
 10
254.4339699381
 20
129.8096079926
 30
0.0
 40
3.128167662421627
100
AcDbArc
 50
105.4067584107
 51
207.0732771409
  0
SPLINE
  5
173
330
1F
100
AcDbEntity
  8
0
  6
HIDDEN
 62
     7
370
     0
100
AcDbSpline
210
0.0
220
0.0
230
1.0
 70
     8
 71
     3
 72
    10
 73
     6
 74
     0
 42
0.00000001
 43
0.00000001
 12
1.0
 22
0.0
 32
0.0
 13
1.0
 23
0.0
 33
0.0
 40
0.0
 40
0.0
 40
0.0
 40
0.0
 40
0.5
 40
0.5
 40
1.0
 40
1.0
 40
1.0
 40
1.0
 10
251.7674065046963
 20
129.1883468099774
 30
0.0
 10
251.7180104621849
 20
129.1229393561857
 30
0.0
 10
251.6863461388843
 20
129.0050695876675
 30
0.0
 10
251.6467374782533
 20
128.7253601016443
 30
0.0
 10
251.6397104368035
 20
128.5621301870662
 30
0.0
 10
251.6485691417236
 20
128.3858865121967
 30
0.0
  0
LINE
  5
174
330
1F
100
AcDbEntity
  8
0
  6
HIDDEN
 62
     7
370
     0
100
AcDbLine
 10
251.767407461
 20
129.1883471634
 30
0.0
 11
252.0606101593
 21
129.5765866738
 31
0.0
  0
SPLINE
  5
175
330
1F
100
AcDbEntity
  8
0
  6
HIDDEN
 62
     7
370
     0
100
AcDbSpline
210
0.0
220
0.0
230
1.0
 70
     8
 71
     3
 72
    16
 73
    12
 74
     0
 42
0.00000001
 43
0.00000001
 12
1.0
 22
0.0
 32
0.0
 13
1.0
 23
0.0
 33
0.0
 40
0.0
 40
0.0
 40
0.0
 40
0.0
 40
0.0835560002564795
 40
0.167054971442346
 40
0.2505256748789202
 40
0.3756267725207423
 40
0.5007043409174465
 40
0.6255976893868374
 40
0.7505307682137892
 40
0.875254981634054
 40
1.0
 40
1.0
 40
1.0
 40
1.0
 10
260.1910770853742
 20
133.238386590806
 30
0.0
 10
260.2123875162143
 20
133.3253939666749
 30
0.0
 10
260.2549938329898
 20
133.4993493336913
 30
0.0
 10
260.3184692359662
 20
133.7505577449812
 30
0.0
 10
260.392078884929
 20
134.0350224314134
 30
0.0
 10
260.4755291815794
 20
134.3467591771958
 30
0.0
 10
260.5684111533751
 20
134.6793355028032
 30
0.0
 10
260.6602551758025
 20
134.9936631896663
 30
0.0
 10
260.7509125876639
 20
135.2888881366345
 30
0.0
 10
260.8404805993262
 20
135.5667036516447
 30
0.0
 10
260.8991179590224
 20
135.7357819905013
 30
0.0
 10
260.9284390839558
 20
135.8203282102292
 30
0.0
  0
LWPOLYLINE
  5
176
330
1F
100
AcDbEntity
  8
0
  6
HIDDEN
 62
     7
370
     0
100
AcDbPolyline
 90
       28
 70
   128
 43
0.0
 10
222.8574560126
 20
116.4848117927
 10
223.5493020257
 20
116.4079042349
 10
224.2038504323
 20
116.1813276916
 10
224.7858152827
 20
115.817296922
 10
225.263822182
 20
115.3354369083
 10
225.6121070226
 20
114.7617249729
 10
225.8118794402
 20
114.1270899892
 10
225.8523807963
 20
113.4657452561
 10
225.7314206203
 20
112.8133440137
 10
225.4555330714
 20
112.2050574262
 10
225.0395746072
 20
111.6736782927
 10
224.505978926
 20
111.2478538629
 10
223.8835127195
 20
110.9505398411
 10
223.2057334026
 20
110.7977647547
 10
222.5091786226
 20
110.7977647547
 10
221.8313918551
 20
110.9505398411
 10
221.2089256485
 20
111.2478538629
 10
220.6753374179
 20
111.6736782927
 10
220.2593789538
 20
112.2050574262
 10
219.9834839543
 20
112.8133440137
 10
219.8625312289
 20
113.4657452561
 10
219.903032585
 20
114.1270899892
 10
220.1028050025
 20
114.7617249729
 10
220.4510898431
 20
115.3354369083
 10
220.9290892919
 20
115.817296922
 10
221.5110615929
 20
116.1813276916
 10
222.1656099995
 20
116.4079042349
 10
222.8574560126
 20
116.4848117927
  0
LWPOLYLINE
  5
177
330
1F
100
AcDbEntity
  8
0
  6
HIDDEN
 62
     7
370
     0
100
AcDbPolyline
 90
       13
 70
   128
 43
0.0
 10
249.9310628613
 20
125.0371537384
 10
250.1614795168
 20
125.4675653976
 10
250.5354092558
 20
125.8086138617
 10
251.0273785432
 20
126.0370551821
 10
251.6038523158
 20
126.1373232331
 10
252.2255436619
 20
126.1025849011
 10
252.850096031
 20
125.9352066767
 10
253.4349368056
 20
125.6465953987
 10
253.9402128299
 20
125.2564187374
 10
254.3314949711
 20
124.7912678149
 10
254.5821101507
 20
124.2828420576
 10
254.6749816378
 20
123.765788528
 10
254.6037838896
 20
123.2753442813
  0
ELLIPSE
  5
178
330
1F
100
AcDbEntity
  8
0
  6
HIDDEN
 62
     7
370
     0
100
AcDbEllipse
 10
253.2175377833
 20
126.3040531249
 30
0.0
 11
0.9382876123695781
 21
2.751666891553299
 31
0.0
210
0.0
220
0.0
230
1.0
 40
0.8587453104
 41
5.185286000754187
 42
7.326232755440884
  0
LINE
  5
179
330
1F
100
AcDbEntity
  8
0
  6
HIDDEN
 62
     7
370
     0
100
AcDbLine
 10
249.9310628613
 20
125.0371537384
 30
0.0
 11
248.8843307932
 21
121.841372012
 31
0.0
  0
SPLINE
  5
17A
330
1F
100
AcDbEntity
  8
0
  6
HIDDEN
 62
     7
370
     0
100
AcDbSpline
210
0.0
220
0.0
230
1.0
 70
     8
 71
     3
 72
    11
 73
     7
 74
     0
 42
0.00000001
 43
0.00000001
 12
1.0
 22
0.0
 32
0.0
 13
1.0
 23
0.0
 33
0.0
 40
0.0
 40
0.0
 40
0.0
 40
0.0
 40
0.2494342645719586
 40
0.4992338001122477
 40
0.7494164560640882
 40
1.0
 40
1.0
 40
1.0
 40
1.0
 10
259.9112573262254
 20
134.3925664102264
 30
0.0
 10
259.9326506444808
 20
134.2997734336188
 30
0.0
 10
259.9754686093181
 20
134.1140515945804
 30
0.0
 10
260.043973296012
 20
133.8279447902687
 30
0.0
 10
260.1153921461844
 20
133.53670088485
 30
0.0
 10
260.1658369297751
 20
133.3378769825885
 30
0.0
 10
260.1910795133362
 20
133.2383854472991
 30
0.0
  0
ELLIPSE
  5
17B
330
1F
100
AcDbEntity
  8
0
  6
HIDDEN
 62
     7
370
     0
100
AcDbEllipse
 10
260.3033968348
 20
122.4690316867
 30
0.0
 11
1.744099306549231
 21
16.99926090527391
 31
0.0
210
0.0
220
0.0
230
1.0
 40
0.090889472
 41
0.8940639337587742
 42
1.580121183404164
  0
LINE
  5
17C
330
1F
100
AcDbEntity
  8
0
  6
HIDDEN
 62
     7
370
     0
100
AcDbLine
 10
122.8574563851
 20
128.0855913859
 30
0.0
 11
122.8574563851
 21
118.8082026996
 31
0.0
  0
LINE
  5
17D
330
1F
100
AcDbEntity
  8
0
  6
HIDDEN
 62
     7
370
     0
100
AcDbLine
 10
122.8574563851
 20
114.1298606738
 30
0.0
 11
122.8574563851
 21
104.8524719875
 31
0.0
  0
LINE
  5
17E
330
1F
100
AcDbEntity
  8
0
  6
HIDDEN
 62
     7
370
     0
100
AcDbLine
 10
124.3574556997
 20
113.3205546279
 30
0.0
 11
124.3574556997
 21
104.4194591444
 31
0.0
  0
LINE
  5
17F
330
1F
100
AcDbEntity
  8
0
  6
HIDDEN
 62
     7
370
     0
100
AcDbLine
 10
124.3574556997
 20
128.518604229
 30
0.0
 11
124.3574556997
 21
119.6175087456
 31
0.0
  0
LINE
  5
180
330
1F
100
AcDbEntity
  8
0
  6
HIDDEN
 62
     7
370
     0
100
AcDbLine
 10
150.6574557265
 20
128.8489778739
 30
0.0
 11
150.6574557265
 21
104.0890854996
 31
0.0
  0
LINE
  5
181
330
1F
100
AcDbEntity
  8
0
  6
HIDDEN
 62
     7
370
     0
100
AcDbLine
 10
152.6574557196
 20
128.0313055243
 30
0.0
 11
152.6574557196
 21
104.9067578491
 31
0.0
  0
SPLINE
  5
182
330
1F
100
AcDbEntity
  8
0
  6
HIDDEN
 62
     7
370
     0
100
AcDbSpline
210
0.0
220
0.0
230
1.0
 70
     8
 71
     3
 72
    26
 73
    22
 74
     0
 42
0.00000001
 43
0.00000001
 12
1.0
 22
0.0
 32
0.0
 13
1.0
 23
0.0
 33
0.0
 40
0.0
 40
0.0
 40
0.0
 40
0.0
 40
0.1250000000000002
 40
0.1250000000000002
 40
0.2500000000000003
 40
0.2500000000000003
 40
0.3750000000000005
 40
0.3750000000000005
 40
0.4375000000000006
 40
0.4375000000000006
 40
0.5000000000000007
 40
0.5000000000000007
 40
0.5625000000000008
 40
0.5625000000000008
 40
0.6250000000000009
 40
0.6250000000000009
 40
0.7500000000000006
 40
0.7500000000000006
 40
0.8750000000000002
 40
0.8750000000000002
 40
1.0
 40
1.0
 40
1.0
 40
1.0
 10
128.3574557145626
 20
113.2505339262644
 30
0.0
 10
128.5680990765626
 20
113.4851509572095
 30
0.0
 10
128.7752955143196
 20
113.7230340931689
 30
0.0
 10
129.1767946489519
 20
114.2103483994378
 30
0.0
 10
129.3720710679979
 20
114.4604736242268
 30
0.0
 10
129.7318515606934
 20
114.9790637696777
 30
0.0
 10
129.8971104208427
 20
115.2464947535646
 30
0.0
 10
130.0897683302689
 20
115.6779098859631
 30
0.0
 10
130.1447330704789
 20
115.8279287678875
 30
0.0
 10
130.2224688554431
 20
116.1406659466175
 30
0.0
 10
130.2437349937514
 20
116.2984201934247
 30
0.0
 10
130.2456289230372
 20
116.6171254732705
 30
0.0
 10
130.2254031859701
 20
116.7795622734511
 30
0.0
 10
130.1509387756843
 20
117.0905142730337
 30
0.0
 10
130.0972996499383
 20
117.2411855113614
 30
0.0
 10
129.9025553445377
 20
117.68326926933
 30
0.0
 10
129.7355052313594
 20
117.9533132824977
 30
0.0
 10
129.3752491126558
 20
118.4734209107791
 30
0.0
 10
129.1804967376354
 20
118.7230821235888
 30
0.0
 10
128.7774875131631
 20
119.2125062354315
 30
0.0
 10
128.5690509947996
 20
119.4518521585955
 30
0.0
 10
128.3574557145635
 20
119.6875294471634
 30
0.0
  0
LINE
  5
183
330
1F
100
AcDbEntity
  8
0
  6
HIDDEN
 62
     7
370
     0
100
AcDbLine
 10
128.3574563553
 20
113.2505338386
 30
0.0
 11
128.3574563553
 21
119.6875295349
 31
0.0
  0
SPLINE
  5
184
330
1F
100
AcDbEntity
  8
0
  6
HIDDEN
 62
     7
370
     0
100
AcDbSpline
210
0.0
220
0.0
230
1.0
 70
     8
 71
     3
 72
     8
 73
     4
 74
     0
 42
0.00000001
 43
0.00000001
 12
1.0
 22
0.0
 32
0.0
 13
1.0
 23
0.0
 33
0.0
 40
0.0000202085968836
 40
0.0000202085968836
 40
0.0000202085968836
 40
0.0000202085968836
 40
0.0040218806502652
 40
0.0040218806502652
 40
0.0040218806502652
 40
0.0040218806502652
 10
124.3574557145626
 20
113.3205545683768
 30
0.0
 10
125.6907788403532
 20
113.2965563372131
 30
0.0
 10
127.0241127135758
 20
113.2732285970448
 30
0.0
 10
128.3574557145626
 20
113.2505339262644
 30
0.0
  0
SPLINE
  5
185
330
1F
100
AcDbEntity
  8
0
  6
HIDDEN
 62
     7
370
     0
100
AcDbSpline
210
0.0
220
0.0
230
1.0
 70
     8
 71
     3
 72
     8
 73
     4
 74
     0
 42
0.00000001
 43
0.00000001
 12
1.0
 22
0.0
 32
0.0
 13
1.0
 23
0.0
 33
0.0
 40
0.0000202082942178
 40
0.0000202082942178
 40
0.0000202082942178
 40
0.0000202082942178
 40
0.0040218803475994
 40
0.0040218803475994
 40
0.0040218803475994
 40
0.0040218803475994
 10
128.3574557145626
 20
119.6875294471625
 30
0.0
 10
127.0241127135758
 20
119.6648347763821
 30
0.0
 10
125.6907788403532
 20
119.6415070362138
 30
0.0
 10
124.3574557145626
 20
119.6175088050502
 30
0.0
  0
SPLINE
  5
186
330
1F
100
AcDbEntity
  8
0
  6
HIDDEN
 62
     7
370
     0
100
AcDbSpline
210
0.0
220
0.0
230
1.0
 70
     8
 71
     3
 72
     8
 73
     4
 74
     0
 42
0.00000001
 43
0.00000001
 12
1.0
 22
0.0
 32
0.0
 13
1.0
 23
0.0
 33
0.0
 40
0.0
 40
0.0
 40
0.0
 40
0.0
 40
1.0
 40
1.0
 40
1.0
 40
1.0
 10
122.8574557145617
 20
114.1298607584791
 30
0.0
 10
123.3316671249997
 20
113.795131531184
 30
0.0
 10
123.8364034721016
 20
113.5360731173511
 30
0.0
 10
124.3574557145626
 20
113.3205545683767
 30
0.0
  0
SPLINE
  5
187
330
1F
100
AcDbEntity
  8
0
  6
HIDDEN
 62
     7
370
     0
100
AcDbSpline
210
0.0
220
0.0
230
1.0
 70
     8
 71
     3
 72
     8
 73
     4
 74
     0
 42
0.00000001
 43
0.00000001
 12
1.0
 22
0.0
 32
0.0
 13
1.0
 23
0.0
 33
0.0
 40
0.0
 40
0.0
 40
0.0
 40
0.0
 40
1.0
 40
1.0
 40
1.0
 40
1.0
 10
124.3574557145626
 20
119.6175088050502
 30
0.0
 10
123.8364034721019
 20
119.401990256076
 30
0.0
 10
123.3316671250003
 20
119.1429318422433
 30
0.0
 10
122.8574557145626
 20
118.8082026149485
 30
0.0
  0
LINE
  5
188
330
1F
100
AcDbEntity
  8
0
  6
HIDDEN
 62
     7
370
     0
100
AcDbLine
 10
122.8574563851
 20
114.1298606738
 30
0.0
 11
122.8574563851
 21
118.8082026996
 31
0.0
  0
SPLINE
  5
189
330
1F
100
AcDbEntity
  8
0
  6
HIDDEN
 62
     7
370
     0
100
AcDbSpline
210
0.0
220
0.0
230
1.0
 70
     8
 71
     3
 72
    68
 73
    64
 74
     0
 42
0.00000001
 43
0.00000001
 12
1.0
 22
0.0
 32
0.0
 13
1.0
 23
0.0
 33
0.0
 40
-0.03125
 40
-0.03125
 40
0.0
 40
0.0
 40
0.0312500000000006
 40
0.0312500000000006
 40
0.0625000000000011
 40
0.0625000000000011
 40
0.0937500000000012
 40
0.0937500000000012
 40
0.1250000000000013
 40
0.1250000000000013
 40
0.1875000000000013
 40
0.1875000000000013
 40
0.2187500000000013
 40
0.2187500000000013
 40
0.2500000000000012
 40
0.2500000000000012
 40
0.2812500000000012
 40
0.2812500000000012
 40
0.3125000000000012
 40
0.3125000000000012
 40
0.3437500000000011
 40
0.3437500000000011
 40
0.3750000000000011
 40
0.3750000000000011
 40
0.4062500000000011
 40
0.4062500000000011
 40
0.437500000000001
 40
0.437500000000001
 40
0.468750000000001
 40
0.468750000000001
 40
0.500000000000001
 40
0.500000000000001
 40
0.5312500000000009
 40
0.5312500000000009
 40
0.5625000000000008
 40
0.5625000000000008
 40
0.5937500000000007
 40
0.5937500000000007
 40
0.6250000000000006
 40
0.6250000000000006
 40
0.6562500000000004
 40
0.6562500000000004
 40
0.6875000000000003
 40
0.6875000000000003
 40
0.7187500000000002
 40
0.7187500000000002
 40
0.7500000000000001
 40
0.7500000000000001
 40
0.7812500000000001
 40
0.7812500000000001
 40
0.8125000000000001
 40
0.8125000000000001
 40
0.8437500000000001
 40
0.8437500000000001
 40
0.875
 40
0.875
 40
0.90625
 40
0.90625
 40
0.9375
 40
0.9375
 40
0.96875
 40
0.96875
 40
1.0
 40
1.0
 40
1.031250000000001
 40
1.031250000000001
 10
136.2412820018991
 20
118.3658492633301
 30
0.0
 10
136.5317464841909
 20
118.6842815043306
 30
0.0
 10
136.6906627825724
 20
118.8267990300343
 30
0.0
 10
137.0342434682102
 20
119.080513567124
 30
0.0
 10
137.2204148211159
 20
119.192077393633
 30
0.0
 10
137.6049448937017
 20
119.376326430302
 30
0.0
 10
137.8045553958663
 20
119.4502406963908
 30
0.0
 10
138.2183949808399
 20
119.561882585951
 30
0.0
 10
138.4312047905111
 20
119.5988066402398
 30
0.0
 10
139.0671362648519
 20
119.6514084608153
 30
0.0
 10
139.5022024854796
 20
119.6092000701551
 30
0.0
 10
140.1144453524672
 20
119.4353654649597
 30
0.0
 10
140.3142904405793
 20
119.3587472371476
 30
0.0
 10
140.6986677493074
 20
119.1685723688047
 30
0.0
 10
140.87921614017
 20
119.0572129345861
 30
0.0
 10
141.2172760678795
 20
118.8021076658638
 30
0.0
 10
141.3763078842908
 20
118.6566018776711
 30
0.0
 10
141.6611045645132
 20
118.3383632234982
 30
0.0
 10
141.786050093388
 20
118.1673109049791
 30
0.0
 10
142.0003522338017
 20
117.800750318866
 30
0.0
 10
142.0902510129765
 20
117.6026815850633
 30
0.0
 10
142.2239033021055
 20
117.1980988318539
 30
0.0
 10
142.2689112374195
 20
116.9904836518368
 30
0.0
 10
142.3136907180369
 20
116.564193895408
 30
0.0
 10
142.3126170570211
 20
116.3475555974596
 30
0.0
 10
142.2645972633056
 20
115.9245955705023
 30
0.0
 10
142.2171842860808
 20
115.7135988852429
 30
0.0
 10
142.0788690372641
 20
115.3078101698111
 30
0.0
 10
141.9891881790419
 20
115.1148635111486
 30
0.0
 10
141.7705054687147
 20
114.7479568881651
 30
0.0
 10
141.6410577508861
 20
114.5744517399431
 30
0.0
 10
141.3545521468565
 20
114.2604496419524
 30
0.0
 10
141.1956933286185
 20
114.1173467154981
 30
0.0
 10
140.8506955066657
 20
113.8620157996451
 30
0.0
 10
140.6684784025454
 20
113.7524836220446
 30
0.0
 10
140.2856383259063
 20
113.5675567952564
 30
0.0
 10
140.0828941008331
 20
113.4917409684149
 30
0.0
 10
139.6710655263699
 20
113.3791604761728
 30
0.0
 10
139.4618467497703
 20
113.3418202565881
 30
0.0
 10
139.0368539155358
 20
113.304589237058
 30
0.0
 10
138.8196966384627
 20
113.3051552009896
 30
0.0
 10
138.3953187993095
 20
113.344552904879
 30
0.0
 10
138.1862021514598
 20
113.3829821395132
 30
0.0
 10
137.7742611625658
 20
113.4981871740506
 30
0.0
 10
137.5716930576727
 20
113.5754521045551
 30
0.0
 10
137.1900926152054
 20
113.763134374687
 30
0.0
 10
137.0087816793262
 20
113.874047726499
 30
0.0
 10
136.6661897823921
 20
114.1320011652298
 30
0.0
 10
136.507366165438
 20
114.2777168608392
 30
0.0
 10
136.2243213863376
 20
114.5940380185487
 30
0.0
 10
136.0983114543518
 20
114.7660717299478
 30
0.0
 10
135.8812044105369
 20
115.1386143079369
 30
0.0
 10
135.793769114263
 20
115.3327360932109
 30
0.0
 10
135.6605758337154
 20
115.7365108222904
 30
0.0
 10
135.6146752516109
 20
115.949007748898
 30
0.0
 10
135.570358710677
 20
116.3746036097561
 30
0.0
 10
135.5712008981594
 20
116.5874374480254
 30
0.0
 10
135.6190395925804
 20
117.0131771778552
 30
0.0
 10
135.6665754480496
 20
117.2249393432684
 30
0.0
 10
135.8033140432775
 20
117.6284288777257
 30
0.0
 10
135.8935975885531
 20
117.8241874986787
 30
0.0
 10
136.1133084808181
 20
118.1937877254269
 30
0.0
 10
136.2412820018991
 20
118.3658492633301
 30
0.0
 10
136.5317464841909
 20
118.6842815043306
 30
0.0
  0
CIRCLE
  5
18A
330
1F
100
AcDbEntity
  8
0
  6
HIDDEN
 62
     7
370
     0
100
AcDbCircle
 10
138.8574557146
 20
116.4690316867
 30
0.0
 40
3.049999999999983
  0
LINE
  5
18B
330
1F
100
AcDbEntity
  8
0
  6
HIDDEN
 62
     7
370
     0
100
AcDbLine
 10
258.7421492775
 20
122.4690317389
 30
0.0
 11
258.1316934069
 21
116.4690316867
 31
0.0
  0
CIRCLE
  5
18C
330
1F
100
AcDbEntity
  8
0
  6
HIDDEN
 62
     7
370
     0
100
AcDbCircle
 10
164.8574557146
 20
116.4690316867
 30
0.0
 40
2.0
  0
LINE
  5
18D
330
1F
100
AcDbEntity
  8
0
  6
HIDDEN
 62
     7
370
     0
100
AcDbLine
 10
152.8574557146
 20
96.9190323006
 30
0.0
 11
152.950348935
 21
97.0119242769
 31
0.0
  0
LINE
  5
18E
330
1F
100
AcDbEntity
  8
0
  6
HIDDEN
 62
     7
370
     0
100
AcDbLine
 10
152.950348935
 20
135.9261390965
 30
0.0
 11
152.8574557146
 21
136.0190310728
 31
0.0
  0
ARC
  5
18F
330
1F
100
AcDbEntity
  8
0
  6
HIDDEN
 62
     7
370
     0
100
AcDbCircle
 10
152.2432421522
 20
97.7190316867
 30
0.0
 40
1.000000000000008
100
AcDbArc
 50
315.0
 51
0.0
  0
ARC
  5
190
330
1F
100
AcDbEntity
  8
0
  6
HIDDEN
 62
     7
370
     0
100
AcDbCircle
 10
152.2432421522
 20
97.7190316867
 30
0.0
 40
1.0
100
AcDbArc
 50
0.0
 51
52.1052014664
  0
ARC
  5
191
330
1F
100
AcDbEntity
  8
0
  6
HIDDEN
 62
     7
370
     0
100
AcDbCircle
 10
152.2432421522
 20
135.2190316867
 30
0.0
 40
0.999999999999988
100
AcDbArc
 50
351.8087250651
 51
45.0
  0
ARC
  5
192
330
1F
100
AcDbEntity
  8
0
  6
HIDDEN
 62
     7
370
     0
100
AcDbCircle
 10
152.2432421522
 20
135.2190316867
 30
0.0
 40
1.000000000000026
100
AcDbArc
 50
307.8947985336
 51
351.8087250651
  0
LINE
  5
193
330
1F
100
AcDbEntity
  8
0
  6
HIDDEN
 62
     7
370
     0
100
AcDbLine
 10
153.2432421504
 20
97.7190309417
 30
0.0
 11
153.2432421504
 21
135.2190324318
 31
0.0
  0
LINE
  5
194
330
1F
100
AcDbEntity
  8
0
  6
HIDDEN
 62
     7
370
     0
100
AcDbLine
 10
153.2432421504
 20
97.7190309417
 30
0.0
 11
153.2432421504
 21
135.2190324318
 31
0.0
  0
LINE
  5
195
330
1F
100
AcDbEntity
  8
0
  6
HIDDEN
 62
     7
370
     0
100
AcDbLine
 10
225.3574536284
 20
120.2889923219
 30
0.0
 11
225.3574536284
 21
120.4862524968
 31
0.0
  0
LINE
  5
196
330
1F
100
AcDbEntity
  8
0
  6
HIDDEN
 62
     7
370
     0
100
AcDbLine
 10
225.3574536284
 20
117.781955188
 30
0.0
 11
225.3574536284
 21
119.2606527105
 31
0.0
  0
LINE
  5
197
330
1F
100
AcDbEntity
  8
0
  6
HIDDEN
 62
     7
370
     0
100
AcDbLine
 10
220.3574583968
 20
120.4862524968
 30
0.0
 11
220.3574583968
 21
117.7798030179
 31
0.0
  0
ARC
  5
198
330
1F
100
AcDbEntity
  8
0
  6
HIDDEN
 62
     7
370
     0
100
AcDbCircle
 10
130.3641752266
 20
105.9690316867
 30
0.0
 40
1.500000000000022
100
AcDbArc
 50
270.0
 51
315.0
  0
ARC
  5
199
330
1F
100
AcDbEntity
  8
0
  6
HIDDEN
 62
     7
370
     0
100
AcDbCircle
 10
130.3641752266
 20
126.9690316867
 30
0.0
 40
1.500000000000002
100
AcDbArc
 50
45.0
 51
90.0
  0
LINE
  5
19A
330
1F
100
AcDbEntity
  8
0
  6
HIDDEN
 62
     7
370
     0
100
AcDbLine
 10
129.3574565192
 20
104.4690315824
 30
0.0
 11
130.3641752442
 21
104.4690315824
 31
0.0
  0
LINE
  5
19B
330
1F
100
AcDbEntity
  8
0
  6
HIDDEN
 62
     7
370
     0
100
AcDbLine
 10
130.3641752442
 20
128.469031791
 30
0.0
 11
129.3574565192
 21
128.469031791
 31
0.0
  0
ARC
  5
19C
330
1F
100
AcDbEntity
  8
0
  6
HIDDEN
 62
     7
370
     0
100
AcDbCircle
 10
129.3574557146
 20
105.9690316867
 30
0.0
 40
1.5
100
AcDbArc
 50
191.0958032831
 51
270.0
  0
ARC
  5
19D
330
1F
100
AcDbEntity
  8
0
  6
HIDDEN
 62
     7
370
     0
100
AcDbCircle
 10
129.3574557146
 20
126.9690316867
 30
0.0
 40
1.499999999999986
100
AcDbArc
 50
90.0
 51
168.9041967169
  0
LINE
  5
19E
330
1F
100
AcDbEntity
  8
0
  6
HIDDEN
 62
     7
370
     0
100
AcDbLine
 10
231.8669737419
 20
126.3573100071
 30
0.0
 11
223.5237092813
 21
122.2441443455
 31
0.0
  0
LINE
  5
19F
330
1F
100
AcDbEntity
  8
0
  6
HIDDEN
 62
     7
370
     0
100
AcDbLine
 10
225.1082466086
 20
118.5656378724
 30
0.0
 11
231.9424034198
 21
121.9348251101
 31
0.0
  0
LINE
  5
1A0
330
1F
100
AcDbEntity
  8
0
  6
HIDDEN
 62
     7
370
     0
100
AcDbLine
 10
122.8574563851
 20
104.7056191813
 30
0.0
 11
123.8854949465
 21
105.2991585087
 31
0.0
  0
LINE
  5
1A1
330
1F
100
AcDbEntity
  8
0
  6
HIDDEN
 62
     7
370
     0
100
AcDbLine
 10
123.8854949465
 20
127.6389048647
 30
0.0
 11
122.8574563851
 21
128.2324441921
 31
0.0
  0
LINE
  5
1A2
330
1F
100
AcDbEntity
  8
0
  6
HIDDEN
 62
     7
370
     0
100
AcDbLine
 10
131.4248361727
 20
104.9083718311
 30
0.0
 11
132.4854952385
 21
105.9690318283
 31
0.0
  0
LINE
  5
1A3
330
1F
100
AcDbEntity
  8
0
  6
HIDDEN
 62
     7
370
     0
100
AcDbLine
 10
132.4854952385
 20
126.9690315452
 30
0.0
 11
131.4248361727
 21
128.0296915423
 31
0.0
  0
LINE
  5
1A4
330
1F
100
AcDbEntity
  8
0
  6
HIDDEN
 62
     7
370
     0
100
AcDbLine
 10
123.8854949465
 20
105.2991585087
 30
0.0
 11
126.3854962876
 21
105.9690318283
 31
0.0
  0
LINE
  5
1A5
330
1F
100
AcDbEntity
  8
0
  6
HIDDEN
 62
     7
370
     0
100
AcDbLine
 10
126.3854962876
 20
126.9690315452
 30
0.0
 11
123.8854949465
 21
127.6389048647
 31
0.0
  0
LINE
  5
1A6
330
1F
100
AcDbEntity
  8
0
  6
HIDDEN
 62
     7
370
     0
100
AcDbLine
 10
127.8854956021
 20
127.2577070843
 30
0.0
 11
127.3854964515
 21
126.9690315452
 31
0.0
  0
LINE
  5
1A7
330
1F
100
AcDbEntity
  8
0
  6
HIDDEN
 62
     7
370
     0
100
AcDbLine
 10
127.3854964515
 20
105.9690318283
 30
0.0
 11
127.8854956021
 21
105.6803562891
 31
0.0
  0
LINE
  5
1A8
330
1F
100
AcDbEntity
  8
0
  6
HIDDEN
 62
     7
370
     0
100
AcDbLine
 10
132.4854952385
 20
105.9690318283
 30
0.0
 11
142.3574558561
 21
105.9690318283
 31
0.0
  0
LINE
  5
1A9
330
1F
100
AcDbEntity
  8
0
  6
HIDDEN
 62
     7
370
     0
100
AcDbLine
 10
142.3574558561
 20
126.9690315452
 30
0.0
 11
132.4854952385
 21
126.9690315452
 31
0.0
  0
LINE
  5
1AA
330
1F
100
AcDbEntity
  8
0
  6
HIDDEN
 62
     7
370
     0
100
AcDbLine
 10
126.3854962876
 20
105.9690318283
 30
0.0
 11
127.3854964515
 21
105.9690318283
 31
0.0
  0
LINE
  5
1AB
330
1F
100
AcDbEntity
  8
0
  6
HIDDEN
 62
     7
370
     0
100
AcDbLine
 10
127.3854964515
 20
126.9690315452
 30
0.0
 11
126.3854962876
 21
126.9690315452
 31
0.0
  0
ARC
  5
1AC
330
1F
100
AcDbEntity
  8
0
  6
HIDDEN
 62
     7
370
     0
100
AcDbCircle
 10
142.3574557146
 20
106.4690316867
 30
0.0
 40
0.5
100
AcDbArc
 50
270.0
 51
0.0
  0
ARC
  5
1AD
330
1F
100
AcDbEntity
  8
0
  6
HIDDEN
 62
     7
370
     0
100
AcDbCircle
 10
142.3574557146
 20
126.4690316867
 30
0.0
 40
0.5
100
AcDbArc
 50
0.0
 51
90.0
  0
LINE
  5
1AE
330
1F
100
AcDbEntity
  8
0
  6
HIDDEN
 62
     7
370
     0
100
AcDbLine
 10
142.8574559381
 20
108.2190317314
 30
0.0
 11
143.857456102
 21
109.2190318953
 31
0.0
  0
LINE
  5
1AF
330
1F
100
AcDbEntity
  8
0
  6
HIDDEN
 62
     7
370
     0
100
AcDbLine
 10
143.857456102
 20
123.7190314781
 30
0.0
 11
142.8574559381
 21
124.719031642
 31
0.0
  0
LINE
  5
1B0
330
1F
100
AcDbEntity
  8
0
  6
HIDDEN
 62
     7
370
     0
100
AcDbLine
 10
143.857456102
 20
109.2190318953
 30
0.0
 11
167.8574553793
 21
109.2190318953
 31
0.0
  0
LINE
  5
1B1
330
1F
100
AcDbEntity
  8
0
  6
HIDDEN
 62
     7
370
     0
100
AcDbLine
 10
167.8574553793
 20
123.7190314781
 30
0.0
 11
143.857456102
 21
123.7190314781
 31
0.0
  0
LINE
  5
1B2
330
1F
100
AcDbEntity
  8
0
  6
HIDDEN
 62
     7
370
     0
100
AcDbLine
 10
167.8574553793
 20
109.2190318953
 30
0.0
 11
169.6600367417
 21
112.2190314557
 31
0.0
  0
LINE
  5
1B3
330
1F
100
AcDbEntity
  8
0
  6
HIDDEN
 62
     7
370
     0
100
AcDbLine
 10
169.6600367417
 20
120.7190319177
 30
0.0
 11
167.8574553793
 21
123.7190314781
 31
0.0
  0
LINE
  5
1B4
330
1F
100
AcDbEntity
  8
0
  6
HIDDEN
 62
     7
370
     0
100
AcDbLine
 10
169.6600367417
 20
112.2190314557
 30
0.0
 11
225.8574546417
 21
112.2190314557
 31
0.0
  0
LINE
  5
1B5
330
1F
100
AcDbEntity
  8
0
  6
HIDDEN
 62
     7
370
     0
100
AcDbLine
 10
225.8574546417
 20
120.7190319177
 30
0.0
 11
169.6600367417
 21
120.7190319177
 31
0.0
  0
LINE
  5
1B6
330
1F
100
AcDbEntity
  8
0
  6
HIDDEN
 62
     7
370
     0
100
AcDbLine
 10
225.8574546417
 20
112.2190314557
 30
0.0
 11
228.411111339
 21
116.4690316867
 31
0.0
  0
LINE
  5
1B7
330
1F
100
AcDbEntity
  8
0
  6
HIDDEN
 62
     7
370
     0
100
AcDbLine
 10
228.411111339
 20
116.4690316867
 30
0.0
 11
225.8574546417
 21
120.7190319177
 31
0.0
  0
LINE
  5
1B8
330
1F
100
AcDbEntity
  8
0
  6
HIDDEN
 62
     7
370
     0
100
AcDbLine
 10
253.8354651173
 20
117.0115162016
 30
0.0
 11
254.261876746
 21
117.5761484986
 31
0.0
  0
LINE
  5
1B9
330
1F
100
AcDbEntity
  8
0
  6
HIDDEN
 62
     7
370
     0
100
AcDbLine
 10
248.6758635481
 20
121.7947337057
 30
0.0
 11
248.2494519194
 21
121.2301016998
 31
0.0
  0
LINE
  5
1BA
330
1F
100
AcDbEntity
  8
0
  6
HIDDEN
 62
     7
370
     0
100
AcDbLine
 10
246.4170486768
 20
128.5321251702
 30
0.0
 11
245.9257648428
 21
127.8815944891
 31
0.0
  0
LINE
  5
1BB
330
1F
100
AcDbEntity
  8
0
  6
HIDDEN
 62
     7
370
     0
100
AcDbLine
 10
253.8936318
 20
120.5444284927
 30
0.0
 11
255.7737038573
 21
124.7944669079
 31
0.0
  0
LINE
  5
1BC
330
1F
100
AcDbEntity
  8
0
  6
HIDDEN
 62
     7
370
     0
100
AcDbLine
 10
252.7608678778
 20
114.4270727158
 30
0.0
 11
254.3500990709
 21
116.5314417952
 31
0.0
  0
LINE
  5
1BD
330
1F
100
AcDbEntity
  8
0
  6
HIDDEN
 62
     7
370
     0
100
AcDbLine
 10
247.6468862136
 20
121.5937440496
 30
0.0
 11
246.043737336
 21
119.4709441837
 31
0.0
  0
LINE
  5
1BE
330
1F
100
AcDbEntity
  8
0
  6
HIDDEN
 62
     7
370
     0
100
AcDbLine
 10
246.1035953005
 20
127.9778727543
 30
0.0
 11
245.7962812027
 21
127.5709453251
 31
0.0
  0
LINE
  5
1BF
330
1F
100
AcDbEntity
  8
0
  6
HIDDEN
 62
     7
370
     0
100
AcDbLine
 10
225.3574536284
 20
113.6878787287
 30
0.0
 11
225.3574536284
 21
115.1582603555
 31
0.0
  0
LINE
  5
1C0
330
1F
100
AcDbEntity
  8
0
  6
HIDDEN
 62
     7
370
     0
100
AcDbLine
 10
220.3574583968
 20
115.1561081855
 30
0.0
 11
220.3574583968
 21
113.6878787287
 31
0.0
  0
LINE
  5
1C1
330
1F
100
AcDbEntity
  8
0
  6
HIDDEN
 62
     7
370
     0
100
AcDbLine
 10
252.5228069266
 20
132.4730073314
 30
0.0
 11
251.9374446114
 21
131.6979066681
 31
0.0
  0
LINE
  5
1C2
330
1F
100
AcDbEntity
  8
0
  6
HIDDEN
 62
     7
370
     0
100
AcDbLine
 10
257.0446611484
 20
127.8409152504
 30
0.0
 11
257.630016013
 21
128.6160149824
 31
0.0
  0
LINE
  5
1C3
330
1F
100
AcDbEntity
  8
0
  6
HIDDEN
 62
     7
370
     0
100
AcDbLine
 10
225.8574546417
 20
111.5252031226
 30
0.0
 11
225.8574546417
 21
112.2190314557
 31
0.0
  0
LINE
  5
1C4
330
1F
100
AcDbEntity
  8
0
  6
HIDDEN
 62
     7
370
     0
100
AcDbLine
 10
219.8574573835
 20
113.631642212
 30
0.0
 11
219.8574573835
 21
111.526867396
 31
0.0
  0
LINE
  5
1C5
330
1F
100
AcDbEntity
  8
0
  6
HIDDEN
 62
     7
370
     0
100
AcDbLine
 10
251.7212585648
 20
129.1013020303
 30
0.0
 11
249.9811307629
 21
125.1676245805
 31
0.0
  0
LINE
  5
1C6
330
1F
100
AcDbEntity
  8
VERMASSUNG
  6
CENTERX2
100
AcDbLine
 10
117.7615064024
 20
116.4690316867
 30
0.0
 11
262.8574557146
 21
116.4690316867
 31
0.0
  0
LINE
  5
1C7
330
1F
100
AcDbEntity
  8
VERMASSUNG
  6
CENTERX2
100
AcDbLine
 10
262.8574557146
 20
116.4690316867
 30
0.0
 11
262.8574557146
 21
138.4690316867
 31
0.0
  0
LINE
  5
1C8
330
1F
100
AcDbEntity
  8
VERMASSUNG
  6
CENTERX2
100
AcDbLine
 10
262.8574557146
 20
138.4690316867
 30
0.0
 11
275.4078239107
 21
138.4690316867
 31
0.0
  0
DIMENSION
  5
1C9
330
1F
100
AcDbEntity
  8
VERMASSUNG
100
AcDbDimension
  2
_D
 10
262.8574557146
 20
151.4690316867
 30
0.0
 11
207.8574557146
 21
151.4690316867
 31
0.0
 70
   160
  1
<>
 71
     2
 42
-1.0
  3
SLDDIMSTYLE0
100
AcDbAlignedDimension
 13
152.8574557146
 23
141.1690316867
 33
0.0
 14
262.8574557146
 24
138.4690316867
 34
0.0
100
AcDbRotatedDimension
  0
DIMENSION
  5
1D4
330
1F
100
AcDbEntity
  8
VERMASSUNG
100
AcDbDimension
  2
_D_1
 10
122.8574557146
 20
161.1836583595
 30
0.0
 11
192.8574557146
 21
161.1836583595
 31
0.0
 70
   160
  1
<>
 71
     2
 42
-1.0
  3
SLDDIMSTYLE0
100
AcDbAlignedDimension
 13
262.8574557146
 23
138.4690316867
 33
0.0
 14
122.8574557146
 24
132.4623575249
 34
0.0
 50
0.0
100
AcDbRotatedDimension
  0
DIMENSION
  5
1DE
330
1F
100
AcDbEntity
  8
VERMASSUNG
100
AcDbDimension
  2
_D_2
 10
280.0489806709
 20
138.4690316867
 30
0.0
 11
280.0489806709
 21
127.4690316867
 31
0.0
 70
   160
  1
<>
 71
     2
 42
-1.0
  3
SLDDIMSTYLE0
100
AcDbAlignedDimension
 13
262.8574557146
 23
116.4690316867
 33
0.0
 14
262.8574557146
 24
138.4690316867
 34
0.0
 50
90.0
100
AcDbRotatedDimension
  0
DIMENSION
  5
1E8
330
1F
100
AcDbEntity
  8
VERMASSUNG
100
AcDbDimension
  2
_D_3
 10
275.4078239107
 20
138.4690316867
 30
0.0
 11
270.1394794207
 21
130.5584994014
 31
0.0
 70
   162
  1
<>
 71
     1
 42
-1.0
  3
SLDDIMSTYLE1
100
AcDb2LineAngularDimension
 13
261.8085581143
 23
126.1274366437
 33
0.0
 14
262.8559419321
 24
138.0325618227
 34
0.0
 15
262.8574557146
 25
138.4690316867
 35
0.0
 16
270.1394794207
 26
130.5584994014
 36
0.0
  0
DIMENSION
  5
1F1
330
1F
100
AcDbEntity
  8
VERMASSUNG
100
AcDbDimension
  2
_D_4
 10
199.4083855424
 20
100.4690316867
 30
0.0
 11
199.4083855424
 21
107.1713754333
 31
0.0
 70
   160
  1
%%c<>
 71
     2
 42
-1.0
  3
SLDDIMSTYLE0
100
AcDbAlignedDimension
 13
176.8574557146
 23
132.4690316867
 33
0.0
 14
176.8574557146
 24
100.4690316867
 34
0.0
 50
90.0
100
AcDbRotatedDimension
  0
DIMENSION
  5
1FA
330
1F
100
AcDbEntity
  8
VERMASSUNG
100
AcDbDimension
  2
_D_5
 10
114.1535269207
 20
91.4690316867
 30
0.0
 11
114.1535269207
 21
116.4690316867
 31
0.0
 70
   160
  1
PSC%%c<>
 71
     2
 42
-1.0
  3
SLDDIMSTYLE0
100
AcDbAlignedDimension
 13
153.1574557146
 23
141.4690316867
 33
0.0
 14
153.1574557146
 24
91.4690316867
 34
0.0
 50
90.0
100
AcDbRotatedDimension
  0
LINE
  5
206
330
1F
100
AcDbEntity
  8
0
  6
Continuous
 62
     7
370
    15
100
AcDbLine
 10
64.5729513568
 20
123.3802768614
 30
0.0
 11
64.3452867595
 21
123.2067393351
 31
0.0
  0
LINE
  5
207
330
1F
100
AcDbEntity
  8
0
  6
Continuous
 62
     7
370
    15
100
AcDbLine
 10
63.3764707678
 20
116.3132568393
 30
0.0
 11
63.5474827801
 21
116.0836889679
 31
0.0
  0
LINE
  5
208
330
1F
100
AcDbEntity
  8
0
  6
Continuous
 62
     7
370
    15
100
AcDbLine
 10
74.6781363347
 20
136.7391352754
 30
0.0
 11
72.015016173
 21
137.1134114664
 31
0.0
  0
LINE
  5
209
330
1F
100
AcDbEntity
  8
0
  6
Continuous
 62
     7
370
    15
100
AcDbLine
 10
74.9389131749
 20
136.3956206691
 30
0.0
 11
74.6882449099
 21
136.7321205538
 31
0.0
  0
LINE
  5
20A
330
1F
100
AcDbEntity
  8
0
  6
Continuous
 62
     7
370
    15
100
AcDbLine
 10
72.0733057903
 20
137.8101543736
 30
0.0
 11
67.3854518979
 21
138.4689887267
 31
0.0
  0
LINE
  5
20B
330
1F
100
AcDbEntity
  8
0
  6
Continuous
 62
     7
370
    15
100
AcDbLine
 10
66.4143795808
 20
136.3329743248
 30
0.0
 11
65.9689442915
 21
135.7513950419
 31
0.0
  0
SPLINE
  5
20C
330
1F
100
AcDbEntity
  8
0
  6
Continuous
 62
     7
370
    15
100
AcDbSpline
210
0.0
220
0.0
230
1.0
 70
     8
 71
     3
 72
     9
 73
     5
 74
     0
 42
0.00000001
 43
0.00000001
 12
1.0
 22
0.0
 32
0.0
 13
1.0
 23
0.0
 33
0.0
 40
0.0
 40
0.0
 40
0.0
 40
0.0
 40
0.6880366243071419
 40
1.0
 40
1.0
 40
1.0
 40
1.0
 10
66.52980089043116
 20
136.5365521263383
 30
0.0
 10
66.53160803753843
 20
136.5418608436028
 30
0.0
 10
66.53423456502757
 20
136.5495765916851
 30
0.0
 10
66.52307950300074
 20
136.5156782627604
 30
0.0
 10
66.51959953219479
 20
136.5051032256386
 30
0.0
  0
LINE
  5
20D
330
1F
100
AcDbEntity
  8
0
  6
Continuous
 62
     7
370
    15
100
AcDbLine
 10
64.6966284336
 20
127.1410850089
 30
0.0
 11
64.9756901627
 21
126.4307829764
 31
0.0
  0
SPLINE
  5
20E
330
1F
100
AcDbEntity
  8
0
  6
Continuous
 62
     7
370
    15
100
AcDbSpline
210
0.0
220
0.0
230
1.0
 70
     8
 71
     3
 72
    13
 73
     9
 74
     0
 42
0.00000001
 43
0.00000001
 12
1.0
 22
0.0
 32
0.0
 13
1.0
 23
0.0
 33
0.0
 40
0.0
 40
0.0
 40
0.0
 40
0.0
 40
0.17242054665503
 40
0.3700004170914479
 40
0.5387466134096643
 40
0.7045351378047461
 40
0.9236264671987935
 40
1.0
 40
1.0
 40
1.0
 40
1.0
 10
64.9888897975426
 20
126.436896177759
 30
0.0
 10
65.00598569483265
 20
126.3911843339728
 30
0.0
 10
65.04267209474607
 20
126.2930904490211
 30
0.0
 10
65.04418919710008
 20
126.1534196277768
 30
0.0
 10
65.0286767438973
 20
126.0507320870452
 30
0.0
 10
65.0114388014575
 20
125.99283986444
 30
0.0
 10
65.00147506159138
 20
125.9700755608362
 30
0.0
 10
65.00449897093823
 20
125.9762539729395
 30
0.0
 10
65.00528060919454
 20
125.9778510060213
 30
0.0
  0
LINE
  5
20F
330
1F
100
AcDbEntity
  8
0
  6
Continuous
 62
     7
370
    15
100
AcDbLine
 10
64.0971943
 20
124.9038628515
 30
0.0
 11
64.3944550035
 21
124.8620855834
 31
0.0
  0
LINE
  5
210
330
1F
100
AcDbEntity
  8
0
  6
Continuous
 62
     7
370
    15
100
AcDbLine
 10
66.1730359504
 20
133.2333130043
 30
0.0
 11
65.8989505106
 21
133.2581141245
 31
0.0
  0
LINE
  5
211
330
1F
100
AcDbEntity
  8
0
  6
Continuous
 62
     7
370
    15
100
AcDbLine
 10
65.2739145522
 20
128.7962864365
 30
0.0
 11
65.3069371553
 21
128.7932987537
 31
0.0
  0
SPLINE
  5
212
330
1F
100
AcDbEntity
  8
0
  6
Continuous
 62
     7
370
    15
100
AcDbSpline
210
0.0
220
0.0
230
1.0
 70
     8
 71
     3
 72
    16
 73
    12
 74
     0
 42
0.00000001
 43
0.00000001
 12
1.0
 22
0.0
 32
0.0
 13
1.0
 23
0.0
 33
0.0
 40
0.0
 40
0.0
 40
0.0
 40
0.0
 40
0.0835560002564795
 40
0.167054971442346
 40
0.2505256748789202
 40
0.3756267725207423
 40
0.5007043409174465
 40
0.6255976893868374
 40
0.7505307682137892
 40
0.875254981634054
 40
1.0
 40
1.0
 40
1.0
 40
1.0
 10
80.08142780810928
 20
133.238386590806
 30
0.0
 10
79.94577499030545
 20
133.3253939666749
 30
0.0
 10
79.674561941156
 20
133.4993493336913
 30
0.0
 10
79.26169550260852
 20
133.7505577449812
 30
0.0
 10
78.77532283953943
 20
134.0350224314134
 30
0.0
 10
78.21201130100467
 20
134.3467591771958
 30
0.0
 10
77.5690879080839
 20
134.6793355028032
 30
0.0
 10
76.91724986074372
 20
134.9936631896663
 30
0.0
 10
76.25716967982427
 20
135.2888881366345
 30
0.0
 10
75.58966478521806
 20
135.5667036516447
 30
0.0
 10
75.13849136309499
 20
135.7357819905013
 30
0.0
 10
74.91288583881455
 20
135.8203282102292
 30
0.0
  0
SPLINE
  5
213
330
1F
100
AcDbEntity
  8
0
  6
Continuous
 62
     7
370
    15
100
AcDbSpline
210
0.0
220
0.0
230
1.0
 70
     8
 71
     3
 72
    15
 73
    11
 74
     0
 42
0.00000001
 43
0.00000001
 12
1.0
 22
0.0
 32
0.0
 13
1.0
 23
0.0
 33
0.0
 40
0.0
 40
0.0
 40
0.0
 40
0.0
 40
0.0986128938076712
 40
0.1978661352646405
 40
0.2977604452169593
 40
0.3982965307150105
 40
0.4994750853484591
 40
0.6642152858651911
 40
0.8310560316337665
 40
1.0
 40
1.0
 40
1.0
 40
1.0
 10
74.93143003496404
 20
136.298172706984
 30
0.0
 10
75.07158431845829
 20
136.2467522136112
 30
0.0
 10
75.35280298414192
 20
136.1435773253768
 30
0.0
 10
75.77244894600292
 20
135.9790934943732
 30
0.0
 10
76.19201811110905
 20
135.806779468754
 30
0.0
 10
76.61107779695175
 20
135.6258707274562
 30
0.0
 10
77.11628313570493
 20
135.3972810861947
 30
0.0
 10
77.70627520412077
 20
135.1132817909063
 30
0.0
 10
78.37960721509427
 20
134.7667445171858
 30
0.0
 10
78.82227274129608
 20
134.5178142068781
 30
0.0
 10
79.04499184525577
 20
134.3925694512365
 30
0.0
  0
SPLINE
  5
214
330
1F
100
AcDbEntity
  8
0
  6
Continuous
 62
     7
370
    15
100
AcDbSpline
210
0.0
220
0.0
230
1.0
 70
     8
 71
     3
 72
    11
 73
     7
 74
     0
 42
0.00000001
 43
0.00000001
 12
1.0
 22
0.0
 32
0.0
 13
1.0
 23
0.0
 33
0.0
 40
0.0
 40
0.0
 40
0.0
 40
0.0
 40
0.2494342645719586
 40
0.4992338001122477
 40
0.7494164560640882
 40
1.0
 40
1.0
 40
1.0
 40
1.0
 10
79.04499506684812
 20
134.3925664102264
 30
0.0
 10
79.13511912730672
 20
134.2997734336188
 30
0.0
 10
79.31549922569258
 20
134.1140515945804
 30
0.0
 10
79.57750665278179
 20
133.8279447902687
 30
0.0
 10
79.83392467428668
 20
133.53670088485
 30
0.0
 10
79.99888130844164
 20
133.3378769825885
 30
0.0
 10
80.08142565347042
 20
133.2383854472991
 30
0.0
  0
LINE
  5
215
330
1F
100
AcDbEntity
  8
0
  6
Continuous
 62
     7
370
    15
100
AcDbLine
 10
73.3098949501
 20
125.1250650015
 30
0.0
 11
73.3868636386
 21
125.6386055823
 31
0.0
  0
LINE
  5
216
330
1F
100
AcDbEntity
  8
0
  6
Continuous
 62
     7
370
    15
100
AcDbLine
 10
83.9276801059
 20
122.4690317389
 30
0.0
 11
83.9276801059
 21
116.4690316867
 31
0.0
  0
ARC
  5
217
330
1F
100
AcDbEntity
  8
0
  6
Continuous
 62
     7
370
    15
100
AcDbCircle
 10
67.4276801953
 20
116.4690316867
 30
0.0
 40
16.50000000000001
100
AcDbArc
 50
350.7424143243
 51
0.0
  0
LINE
  5
218
330
1F
100
AcDbEntity
  8
0
  6
Continuous
 62
     7
370
    15
100
AcDbLine
 10
83.7127681085
 20
113.8146233492
 30
0.0
 11
64.3400774067
 21
116.5372775134
 31
0.0
  0
LINE
  5
219
330
1F
100
AcDbEntity
  8
0
  6
Continuous
 62
     7
370
    15
100
AcDbLine
 10
64.3400774067
 20
116.5372775134
 30
0.0
 11
65.7107209051
 21
125.6823069628
 31
0.0
  0
LINE
  5
21A
330
1F
100
AcDbEntity
  8
0
  6
Continuous
 62
     7
370
    15
100
AcDbLine
 10
65.7107209051
 20
125.6823069628
 30
0.0
 11
70.3394842064
 21
125.0317772131
 31
0.0
  0
LINE
  5
21B
330
1F
100
AcDbEntity
  8
0
  6
Continuous
 62
     7
370
    15
100
AcDbLine
 10
70.3394842064
 20
125.0317772131
 30
0.0
 11
70.4144559064
 21
125.5319924306
 31
0.0
  0
LINE
  5
21C
330
1F
100
AcDbEntity
  8
0
  6
Continuous
 62
     7
370
    15
100
AcDbLine
 10
70.4144559064
 20
125.5319924306
 30
0.0
 11
73.3098949501
 21
125.1250650015
 31
0.0
  0
ARC
  5
21D
330
1F
100
AcDbEntity
  8
0
  6
Continuous
 62
     7
370
    15
100
AcDbCircle
 10
66.9276801953
 20
122.4690316867
 30
0.0
 40
17.00000000000001
100
AcDbArc
 50
0.0
 51
39.308184909
  0
LWPOLYLINE
  5
21E
330
1F
100
AcDbEntity
  8
0
  6
Continuous
 62
     7
370
    15
100
AcDbPolyline
 90
        3
 70
   128
 43
0.0
 10
64.286206915
 20
124.794631752
 10
64.2264900458
 20
124.8300462242
 10
64.2094328729
 20
124.888089041
  0
ARC
  5
21F
330
1F
100
AcDbEntity
  8
0
  6
Continuous
 62
     7
370
    15
100
AcDbCircle
 10
83.9786024388
 20
124.3811413223
 30
0.0
 40
19.82676090787403
100
AcDbArc
 50
167.7523652222
 51
175.1997158165
  0
LINE
  5
220
330
1F
100
AcDbEntity
  8
0
  6
Continuous
 62
     7
370
    15
100
AcDbLine
 10
61.0399514632
 20
101.2556520503
 30
0.0
 11
64.3400774067
 21
116.5372775134
 31
0.0
  0
ARC
  5
221
330
1F
100
AcDbEntity
  8
0
  6
Continuous
 62
     7
370
    15
100
AcDbCircle
 10
67.4276801953
 20
116.4690316867
 30
0.0
 40
16.5
100
AcDbArc
 50
242.7484622093
 51
247.2236481166
  0
SPLINE
  5
222
330
1F
100
AcDbEntity
  8
0
  6
Continuous
 62
     7
370
    15
100
AcDbSpline
210
0.0
220
0.0
230
1.0
 70
     8
 71
     3
 72
     8
 73
     4
 74
     0
 42
0.00000001
 43
0.00000001
 12
1.0
 22
0.0
 32
0.0
 13
1.0
 23
0.0
 33
0.0
 40
0.0
 40
0.0
 40
0.0
 40
0.0
 40
1.0
 40
1.0
 40
1.0
 40
1.0
 10
59.87236689559068
 20
101.8004516278318
 30
0.0
 10
59.87571359396302
 20
101.8764372123248
 30
0.0
 10
59.87907154416141
 20
101.9524667906951
 30
0.0
 10
59.88244120376477
 20
102.0285421520453
 30
0.0
  0
SPLINE
  5
223
330
1F
100
AcDbEntity
  8
0
  6
Continuous
 62
     7
370
    15
100
AcDbSpline
210
0.0
220
0.0
230
1.0
 70
     8
 71
     3
 72
    10
 73
     6
 74
     0
 42
0.00000001
 43
0.00000001
 12
1.0
 22
0.0
 32
0.0
 13
1.0
 23
0.0
 33
0.0
 40
0.0
 40
0.0
 40
0.0
 40
0.0
 40
0.5
 40
0.5
 40
1.0
 40
1.0
 40
1.0
 40
1.0
 10
59.88244120376476
 20
102.0285421520453
 30
0.0
 10
59.88689539868758
 20
102.129102602703
 30
0.0
 10
59.88702944735498
 20
102.2115842251254
 30
0.0
 10
59.87818812983051
 20
102.3311933793402
 30
0.0
 10
59.869285948672
 20
102.3668720761356
 30
0.0
 10
59.8559471208147
 20
102.3740376019567
 30
0.0
  0
ARC
  5
224
330
1F
100
AcDbEntity
  8
0
  6
Continuous
 62
     7
370
    15
100
AcDbCircle
 10
67.4276801953
 20
116.4690316867
 30
0.0
 40
16.00000000000001
100
AcDbArc
 50
241.1385050887
 51
241.7556163175
  0
ARC
  5
225
330
1F
100
AcDbEntity
  8
0
  6
Continuous
 62
     7
370
    15
100
AcDbCircle
 10
67.4276801953
 20
116.4690316867
 30
0.0
 40
16.00000000000002
100
AcDbArc
 50
102.2443836825
 51
102.8614949113
  0
SPLINE
  5
226
330
1F
100
AcDbEntity
  8
0
  6
Continuous
 62
     7
370
    15
100
AcDbSpline
210
0.0
220
0.0
230
1.0
 70
     8
 71
     3
 72
     8
 73
     4
 74
     0
 42
0.00000001
 43
0.00000001
 12
1.0
 22
0.0
 32
0.0
 13
1.0
 23
0.0
 33
0.0
 40
0.0
 40
0.0
 40
0.0
 40
0.0
 40
1.0
 40
1.0
 40
1.0
 40
1.0
 10
64.0343701187047
 20
132.10506208846
 30
0.0
 10
64.06393764222983
 20
132.1114787922485
 30
0.0
 10
64.10822909545034
 20
132.2342230590558
 30
0.0
 10
64.15506931807393
 20
132.4298708716109
 30
0.0
  0
SPLINE
  5
227
330
1F
100
AcDbEntity
  8
0
  6
Continuous
 62
     7
370
    15
100
AcDbSpline
210
0.0
220
0.0
230
1.0
 70
     8
 71
     3
 72
     8
 73
     4
 74
     0
 42
0.00000001
 43
0.00000001
 12
1.0
 22
0.0
 32
0.0
 13
1.0
 23
0.0
 33
0.0
 40
0.0
 40
0.0
 40
0.0
 40
0.0
 40
1.0
 40
1.0
 40
1.0
 40
1.0
 10
64.15506931807394
 20
132.4298708716114
 30
0.0
 10
64.40603517190183
 20
133.4781348972129
 30
0.0
 10
64.65673466990168
 20
134.5171726481236
 30
0.0
 10
64.90727756921292
 20
135.5507859916616
 30
0.0
  0
ELLIPSE
  5
228
330
1F
100
AcDbEntity
  8
0
  6
Continuous
 62
     7
370
    15
100
AcDbEllipse
 10
66.4276801953
 20
113.9624324569
 30
0.0
 11
22.79178641213882
 21
30.85594993360202
 31
0.0
210
0.0
220
0.0
230
1.0
 40
0.4054768606
 41
1.094330593413588
 42
1.12727600089296
  0
LWPOLYLINE
  5
229
330
1F
100
AcDbEntity
  8
0
  6
Continuous
 62
     7
370
    15
100
AcDbPolyline
 90
       32
 70
   128
 43
0.0
 10
64.4556494159
 20
123.7157187637
 10
64.5276003712
 20
123.6229217824
 10
64.5738146929
 20
123.3717571225
 10
64.592400399
 20
122.9725075167
 10
64.5825961334
 20
122.4415181417
 10
64.5448039947
 20
121.8005283948
 10
64.4805704439
 20
121.0757796865
 10
64.3925257688
 20
120.2969437212
 10
64.2842741878
 20
119.495905957
 10
64.1602478651
 20
118.7054610558
 10
64.0255241384
 20
117.9579699159
 10
63.8856187658
 20
117.2840350404
 10
63.746259381
 20
116.7112471952
 10
63.613151499
 20
116.2630564862
 10
63.4917447539
 20
115.9578119035
 10
63.3870091484
 20
115.8080101226
 10
63.3032324919
 20
115.8197841354
 10
63.2438453109
 20
115.9926518952
 10
63.2112778918
 20
116.3195361217
 10
63.2068648198
 20
116.7870541898
 10
63.2307853745
 20
117.3760658342
 10
63.2820616671
 20
118.0624568582
 10
63.3585930997
 20
118.8181261744
 10
63.4572476344
 20
119.612136877
 10
63.5739854266
 20
120.4119818498
 10
63.7040276275
 20
121.1849157911
 10
63.8420503316
 20
121.8992937569
 10
63.9824029719
 20
122.5258698899
 10
64.1193390553
 20
123.0389918413
 10
64.2472527185
 20
123.4176522333
 10
64.3609071346
 20
123.6463487361
 10
64.4556494159
 20
123.7157187637
  0
LINE
  5
22A
330
1F
100
AcDbEntity
  8
0
  6
Continuous
 62
     7
370
    15
100
AcDbLine
 10
65.7107209051
 20
125.6823069628
 30
0.0
 11
64.286206915
 21
124.794631752
 31
0.0
  0
LINE
  5
22B
330
1F
100
AcDbEntity
  8
0
  6
Continuous
 62
     7
370
    15
100
AcDbLine
 10
70.4144559064
 20
125.5319924306
 30
0.0
 11
70.2651437101
 21
125.4389495801
 31
0.0
  0
ARC
  5
22C
330
1F
100
AcDbEntity
  8
0
  6
Continuous
 62
     7
370
    15
100
AcDbCircle
 10
67.4276801953
 20
116.4690316867
 30
0.0
 40
16.50000000000001
100
AcDbArc
 50
247.2236481166
 51
350.7424143243
  0
SPLINE
  5
22D
330
1F
100
AcDbEntity
  8
0
  6
Continuous
 62
     7
370
    15
100
AcDbSpline
210
0.0
220
0.0
230
1.0
 70
     8
 71
     3
 72
    18
 73
    14
 74
     0
 42
0.00000001
 43
0.00000001
 12
1.0
 22
0.0
 32
0.0
 13
1.0
 23
0.0
 33
0.0
 40
0.0
 40
0.0
 40
0.0
 40
0.0
 40
0.1250000000000001
 40
0.1250000000000001
 40
0.2500000000000003
 40
0.2500000000000003
 40
0.5000000000000006
 40
0.5000000000000006
 40
0.6250000000000001
 40
0.6250000000000001
 40
0.7499999999999997
 40
0.7499999999999997
 40
1.0
 40
1.0
 40
1.0
 40
1.0
 10
60.74445828500863
 20
125.7142724394119
 30
0.0
 10
60.82466617981517
 20
125.6062030136813
 30
0.0
 10
60.8918513773401
 20
125.4918669623738
 30
0.0
 10
61.00019376271576
 20
125.2493486632653
 30
0.0
 10
61.0414036942858
 20
125.1195798313925
 30
0.0
 10
61.11998208473375
 20
124.725535919662
 30
0.0
 10
61.11397766292344
 20
124.4479590571535
 30
0.0
 10
61.03740688375917
 20
124.0487443196423
 30
0.0
 10
61.00050531489983
 20
123.9165122727147
 30
0.0
 10
60.90957568271897
 20
123.6625450297423
 30
0.0
 10
60.85556934286367
 20
123.5401355499466
 30
0.0
 10
60.67015820895676
 20
123.1849353388334
 30
0.0
 10
60.51476033866054
 20
122.9625948957133
 30
0.0
 10
60.33010642337073
 20
122.7660057486997
 30
0.0
  0
SPLINE
  5
22E
330
1F
100
AcDbEntity
  8
0
  6
Continuous
 62
     7
370
    15
100
AcDbSpline
210
0.0
220
0.0
230
1.0
 70
     8
 71
     3
 72
    14
 73
    10
 74
     0
 42
0.00000001
 43
0.00000001
 12
1.0
 22
0.0
 32
0.0
 13
1.0
 23
0.0
 33
0.0
 40
0.0
 40
0.0
 40
0.0
 40
0.0
 40
0.25
 40
0.25
 40
0.5
 40
0.5
 40
0.75
 40
0.75
 40
1.0
 40
1.0
 40
1.0
 40
1.0
 10
59.70457737159689
 20
102.4564058523058
 30
0.0
 10
59.67334311852173
 20
102.4736207091764
 30
0.0
 10
59.59682795718372
 20
102.5156542815261
 30
0.0
 10
59.35766708432948
 20
102.6525966843119
 30
0.0
 10
59.20100390259916
 20
102.7441998660548
 30
0.0
 10
58.82365611466746
 20
102.9775536005223
 30
0.0
 10
58.61094909823325
 20
103.1145161183696
 30
0.0
 10
58.15073453162632
 20
103.4300090064508
 30
0.0
 10
57.90941290689376
 20
103.6043989977101
 30
0.0
 10
57.663717227726
 20
103.7936607979149
 30
0.0
  0
SPLINE
  5
22F
330
1F
100
AcDbEntity
  8
0
  6
Continuous
 62
     7
370
    15
100
AcDbSpline
210
0.0
220
0.0
230
1.0
 70
     8
 71
     3
 72
    18
 73
    14
 74
     0
 42
0.00000001
 43
0.00000001
 12
1.0
 22
0.0
 32
0.0
 13
1.0
 23
0.0
 33
0.0
 40
0.0
 40
0.0
 40
0.0
 40
0.0
 40
0.2499999999999963
 40
0.2499999999999963
 40
0.3749999999999969
 40
0.3749999999999969
 40
0.4999999999999976
 40
0.4999999999999976
 40
0.6249999999999981
 40
0.6249999999999981
 40
0.7499999999999988
 40
0.7499999999999988
 40
1.0
 40
1.0
 40
1.0
 40
1.0
 10
61.53576230979717
 20
131.3446931385935
 30
0.0
 10
61.82432878705307
 20
131.4589878873675
 30
0.0
 10
62.10182760884697
 20
131.5591831151691
 30
0.0
 10
62.49764342925442
 20
131.6911892690769
 30
0.0
 10
62.62633154731056
 20
131.7321536597328
 30
0.0
 10
62.86704143874101
 20
131.8057984690235
 30
0.0
 10
62.98024577642376
 20
131.8388842530101
 30
0.0
 10
63.19147223089755
 20
131.8984381206051
 30
0.0
 10
63.29028398687357
 20
131.9251075483715
 30
0.0
 10
63.46686304261105
 20
131.971297840724
 30
0.0
 10
63.54414249930865
 20
131.9907193064598
 30
0.0
 10
63.74284186422667
 20
132.0395349822919
 30
0.0
 10
63.83133942071208
 20
132.0596573554997
 30
0.0
 10
63.86616041012829
 20
132.0676078018628
 30
0.0
  0
ELLIPSE
  5
230
330
1F
100
AcDbEntity
  8
0
  6
Continuous
 62
     7
370
    15
100
AcDbEllipse
 10
58.9444902839
 20
124.1460677685
 30
0.0
 11
1.54160220801608
 21
1.842382918933027
 31
0.0
210
0.0
220
0.0
230
1.0
 40
0.8130428287
 41
6.090459327612688
 42
10.9250705660725
  0
SPLINE
  5
231
330
1F
100
AcDbEntity
  8
0
  6
Continuous
 62
     7
370
    15
100
AcDbSpline
210
0.0
220
0.0
230
1.0
 70
     8
 71
     3
 72
    10
 73
     6
 74
     0
 42
0.00000001
 43
0.00000001
 12
1.0
 22
0.0
 32
0.0
 13
1.0
 23
0.0
 33
0.0
 40
0.0
 40
0.0
 40
0.0
 40
0.0
 40
0.4764427150169565
 40
0.9545722301769256
 40
1.0
 40
1.0
 40
1.0
 40
1.0
 10
57.45129875927081
 20
122.2441443454526
 30
0.0
 10
57.5990391474021
 20
122.2076932480238
 30
0.0
 10
57.89504298446499
 20
122.1346620015208
 30
0.0
 10
58.23416153700305
 20
122.0263411075299
 30
0.0
 10
58.37567871680032
 20
121.9557660732801
 30
0.0
 10
58.38795781223884
 20
121.9496424522302
 30
0.0
  0
ARC
  5
232
330
1F
100
AcDbEntity
  8
0
  6
Continuous
 62
     7
370
    15
100
AcDbCircle
 10
67.4276801953
 20
116.4690316867
 30
0.0
 40
16.0
100
AcDbArc
 50
111.607414392
 51
232.392585608
  0
CIRCLE
  5
233
330
1F
100
AcDbEntity
  8
0
  6
Continuous
 62
     7
370
    15
100
AcDbCircle
 10
67.4276801953
 20
116.4690316867
 30
0.0
 40
25.00000000000001
  0
LWPOLYLINE
  5
234
330
1F
100
AcDbEntity
  8
0
  6
Continuous
 62
     7
370
    15
100
AcDbPolyline
 90
       30
 70
   128
 43
0.0
 10
64.4317432967
 20
123.1797682334
 10
64.4818372754
 20
122.9851576712
 10
64.5046763317
 20
122.6394917097
 10
64.4991927044
 20
122.1589334521
 10
64.46564274
 20
121.5659538496
 10
64.4055952513
 20
120.8882793065
 10
64.3218577103
 20
120.1575973749
 10
64.2183460956
 20
119.4080738563
 10
64.0999000249
 20
118.6747558162
 10
63.9720580736
 20
117.991932107
 10
63.8407979356
 20
117.3915310859
 10
63.7122572595
 20
116.901626657
 10
63.5924465684
 20
116.5451262562
 10
63.4869680004
 20
116.3386994661
 10
63.400753607
 20
116.2919985576
 10
63.3378343852
 20
116.40720722
 10
63.3011528486
 20
116.6789384218
 10
63.2924235621
 20
117.0944863328
 10
63.3120553763
 20
117.6344203044
 10
63.3591304728
 20
118.2734937387
 10
63.4314467394
 20
118.9818242777
 10
63.5256234752
 20
119.7262909476
 10
63.6372566884
 20
120.4720838208
 10
63.7611267818
 20
121.1843299892
 10
63.8914418602
 20
121.8297253575
 10
64.0221080472
 20
122.3780927461
 10
64.1470158668
 20
122.803790516
 10
64.260324995
 20
123.0869139757
 10
64.3567366721
 20
123.214223909
 10
64.4317432967
 20
123.1797682334
  0
LWPOLYLINE
  5
235
330
1F
100
AcDbEntity
  8
0
  6
Continuous
 62
     7
370
    15
100
AcDbPolyline
 90
       23
 70
   128
 43
0.0
 10
64.2034062845
 20
121.7118590351
 10
64.2379173738
 20
121.5468049262
 10
64.2449679514
 20
121.2365604218
 10
64.2239868836
 20
120.8062605213
 10
64.1766736013
 20
120.2907650944
 10
64.1068614283
 20
119.731836275
 10
64.0202062865
 20
119.1747556653
 10
63.9237280199
 20
118.6646542259
 10
63.8252429859
 20
118.2428574169
 10
63.7327298251
 20
117.9435368607
 10
63.653683356
 20
117.7909416359
 10
63.5945075852
 20
117.797434002
 10
63.5599964959
 20
117.9624881109
 10
63.5529459184
 20
118.272732266
 10
63.5739269861
 20
118.7030323993
 10
63.6212402684
 20
119.2185278263
 10
63.6910522086
 20
119.7774564128
 10
63.7777075832
 20
120.3345372554
 10
63.8741858499
 20
120.8446389277
 10
63.9726708838
 20
121.2664353874
 10
64.0651840446
 20
121.5657559436
 10
64.144230281
 20
121.7183512848
 10
64.2034062845
 20
121.7118590351
  0
LINE
  5
236
330
1F
100
AcDbEntity
  8
0
  6
Continuous
 62
     7
370
    15
100
AcDbLine
 10
64.1618450833
 20
120.162017199
 30
0.0
 11
64.018851445
 21
119.9812202461
 31
0.0
  0
LINE
  5
237
330
1F
100
AcDbEntity
  8
0
  6
Continuous
 62
     7
370
    15
100
AcDbLine
 10
64.1380183594
 20
119.9644725051
 30
0.0
 11
64.018851445
 21
119.9812202461
 31
0.0
  0
LINE
  5
238
330
1F
100
AcDbEntity
  8
0
  6
Continuous
 62
     7
370
    15
100
AcDbLine
 10
73.187498209
 20
126.0239235338
 30
0.0
 11
74.629950636
 21
135.6480666649
 31
0.0
  0
LINE
  5
239
330
1F
100
AcDbEntity
  8
0
  6
Continuous
 62
     7
370
    15
100
AcDbLine
 10
74.8981072763
 20
135.6367827606
 30
0.0
 11
73.4556548493
 21
126.0126405608
 31
0.0
  0
ARC
  5
23A
330
1F
100
AcDbEntity
  8
0
  6
Continuous
 62
     7
370
    15
100
AcDbCircle
 10
72.0935805154
 20
136.3066806573
 30
0.0
 40
2.620485790784504
100
AcDbArc
 50
345.4436064342
 51
9.4988851906
  0
ARC
  5
23B
330
1F
100
AcDbEntity
  8
0
  6
Continuous
 62
     7
370
    15
100
AcDbCircle
 10
72.8194930776
 20
136.1290746748
 30
0.0
 40
2.136115239303468
100
AcDbArc
 50
346.6757675496
 51
7.1680927287
  0
ARC
  5
23C
330
1F
100
AcDbEntity
  8
0
  6
Continuous
 62
     7
370
    15
100
AcDbCircle
 10
69.1491894414
 20
126.4997882143
 30
0.0
 40
4.066249487809311
100
AcDbArc
 50
340.9079844903
 51
353.2793943235
  0
LINE
  5
23D
330
1F
100
AcDbEntity
  8
0
  6
Continuous
 62
     7
370
    15
100
AcDbLine
 10
73.0071205841
 20
125.1676171299
 30
0.0
 11
73.3012285279
 21
125.3917622592
 31
0.0
  0
ARC
  5
23E
330
1F
100
AcDbEntity
  8
0
  6
Continuous
 62
     7
370
    15
100
AcDbCircle
 10
71.5893909137
 20
126.1471783552
 30
0.0
 40
1.871107023979484
100
AcDbArc
 50
336.1886320496
 51
355.8767161212
  0
LINE
  5
23F
330
1F
100
AcDbEntity
  8
0
  6
Continuous
 62
     7
370
    15
100
AcDbLine
 10
64.101014818
 20
124.9048630919
 30
0.0
 11
65.4936113357
 21
125.7726499092
 31
0.0
  0
ARC
  5
240
330
1F
100
AcDbEntity
  8
0
  6
Continuous
 62
     7
370
    15
100
AcDbCircle
 10
64.9921364341
 20
125.0912240759
 30
0.0
 40
0.9103999950965568
100
AcDbArc
 50
164.1226812205
 51
191.8120732467
  0
LINE
  5
241
330
1F
100
AcDbEntity
  8
0
  6
Continuous
 62
     7
370
    15
100
AcDbLine
 10
65.9007911533
 20
137.2454152655
 30
0.0
 11
64.1164684863
 21
125.3402899232
 31
0.0
  0
ARC
  5
242
330
1F
100
AcDbEntity
  8
0
  6
Continuous
 62
     7
370
    15
100
AcDbCircle
 10
66.9672151569
 20
137.168538952
 30
0.0
 40
1.069191340732585
100
AcDbArc
 50
156.188490057
 51
175.8767975144
  0
LINE
  5
243
330
1F
100
AcDbEntity
  8
0
  6
Continuous
 62
     7
370
    15
100
AcDbLine
 10
67.3816314235
 20
138.4679884862
 30
0.0
 11
65.9890348985
 21
137.6002026003
 31
0.0
  0
ARC
  5
244
330
1F
100
AcDbEntity
  8
0
  6
Continuous
 62
     7
370
    15
100
AcDbCircle
 10
66.4905175504
 20
138.2816273591
 30
0.0
 40
0.9103924453275195
100
AcDbArc
 50
344.1225554391
 51
11.8121818165
  0
LINE
  5
245
330
1F
100
AcDbEntity
  8
0
  6
Continuous
 62
     7
370
    15
100
AcDbLine
 10
65.581855081
 20
126.1274363127
 30
0.0
 11
67.3661776897
 21
138.032561655
 31
0.0
  0
ARC
  5
246
330
1F
100
AcDbEntity
  8
0
  6
Continuous
 62
     7
370
    15
100
AcDbCircle
 10
64.5154386498
 20
126.2043118758
 30
0.0
 40
1.069183733905836
100
AcDbArc
 50
336.1884086711
 51
355.8768084418
  0
ARC
  5
247
330
1F
100
AcDbEntity
  8
0
  6
Continuous
 62
     7
370
    15
100
AcDbCircle
 10
66.5324682946
 20
138.2711902225
 30
0.0
 40
0.8648850649210124
100
AcDbArc
 50
344.1227333111
 51
11.8120107572
  0
LINE
  5
248
330
1F
100
AcDbEntity
  8
0
  6
Continuous
 62
     7
370
    15
100
AcDbLine
 10
67.3790389852
 20
138.4482332718
 30
0.0
 11
65.9864424457
 21
137.5804473858
 31
0.0
  0
ARC
  5
249
330
1F
100
AcDbEntity
  8
0
  6
Continuous
 62
     7
370
    15
100
AcDbCircle
 10
66.9157216224
 20
137.1703647064
 30
0.0
 40
1.015739923437591
100
AcDbArc
 50
156.188556445
 51
175.8766791335
  0
LINE
  5
24A
330
1F
100
AcDbEntity
  8
0
  6
Continuous
 62
     7
370
    15
100
AcDbLine
 10
65.9026108412
 20
137.2433998834
 30
0.0
 11
64.1182882906
 21
125.3382736098
 31
0.0
  0
ARC
  5
24B
330
1F
100
AcDbEntity
  8
0
  6
Continuous
 62
     7
370
    15
100
AcDbCircle
 10
64.9501650448
 20
125.1016615781
 30
0.0
 40
0.8648723533889765
100
AcDbArc
 50
164.1225732595
 51
191.812201925
  0
LINE
  5
24C
330
1F
100
AcDbEntity
  8
0
  6
Continuous
 62
     7
370
    15
100
AcDbLine
 10
64.1036073872
 20
124.9246183064
 30
0.0
 11
65.4962037885
 21
125.7924051236
 31
0.0
  0
ARC
  5
24D
330
1F
100
AcDbEntity
  8
0
  6
Continuous
 62
     7
370
    15
100
AcDbCircle
 10
64.5669351066
 20
126.2024851927
 30
0.0
 40
1.015729268146133
100
AcDbArc
 50
336.1884521497
 51
355.8767834288
  0
LINE
  5
24E
330
1F
100
AcDbEntity
  8
0
  6
Continuous
 62
     7
370
    15
100
AcDbLine
 10
65.5800353931
 20
126.129452626
 30
0.0
 11
67.3643579363
 21
138.034577037
 31
0.0
  0
ARC
  5
24F
330
1F
100
AcDbEntity
  8
0
  6
Continuous
 62
     7
370
    15
100
AcDbCircle
 10
71.0394946696
 20
137.6371720398
 30
0.0
 40
1.04818334320984
100
AcDbArc
 50
345.4434991998
 51
9.4990125194
  0
LINE
  5
250
330
1F
100
AcDbEntity
  8
0
  6
Continuous
 62
     7
370
    15
100
AcDbLine
 10
70.2697090534
 20
125.4686019596
 30
0.0
 11
72.0540316039
 21
137.3737273019
 31
0.0
  0
LINE
  5
251
330
1F
100
AcDbEntity
  8
0
  6
Continuous
 62
     7
370
    15
100
AcDbLine
 10
66.486186414
 20
136.5486053031
 30
0.0
 11
66.1532539604
 21
137.1747297447
 31
0.0
  0
ARC
  5
252
330
1F
100
AcDbEntity
  8
0
  6
Continuous
 62
     7
370
    15
100
AcDbCircle
 10
69.2032878413
 20
125.5454775787
 30
0.0
 40
1.069188506538656
100
AcDbArc
 50
336.1884637024
 51
355.876823869
  0
LINE
  5
253
330
1F
100
AcDbEntity
  8
0
  6
Continuous
 62
     7
370
    15
100
AcDbLine
 10
65.0669704852
 20
126.099532957
 30
0.0
 11
64.3689314099
 21
125.2696034711
 31
0.0
  0
ARC
  5
254
330
1F
100
AcDbEntity
  8
0
  6
Continuous
 62
     7
370
    15
100
AcDbCircle
 10
64.5321505988
 20
135.7825600606
 30
0.0
 40
2.275993904697978
100
AcDbArc
 50
344.1226342206
 51
11.8121018875
  0
LINE
  5
255
330
1F
100
AcDbEntity
  8
0
  6
Continuous
 62
     7
370
    15
100
AcDbLine
 10
70.1031219875
 20
125.0649956267
 30
0.0
 11
70.1814653081
 21
125.1138146248
 31
0.0
  0
LINE
  5
256
330
1F
100
AcDbEntity
  8
0
  6
Continuous
 62
     7
370
    15
100
AcDbLine
 10
65.7226932896
 20
128.4970264163
 30
0.0
 11
66.7213141066
 21
135.1598953109
 31
0.0
  0
ARC
  5
257
330
1F
100
AcDbEntity
  8
0
  6
Continuous
 62
     7
370
    15
100
AcDbCircle
 10
63.0566314205
 20
128.6892179836
 30
0.0
 40
2.67298026332532
100
AcDbArc
 50
336.1884897792
 51
355.8767836282
  0
LINE
  5
258
330
1F
100
AcDbEntity
  8
0
  6
Continuous
 62
     7
370
    15
100
AcDbLine
 10
64.7226977823
 20
127.1243901204
 30
0.0
 11
65.50208381
 21
127.6100580793
 31
0.0
  0
ARC
  5
259
330
1F
100
AcDbEntity
  8
0
  6
Continuous
 62
     7
370
    15
100
AcDbCircle
 10
66.9505013288
 20
127.5902923639
 30
0.0
 40
2.275999460113007
100
AcDbArc
 50
164.1226717738
 51
191.812070454
  0
LINE
  5
25A
330
1F
100
AcDbEntity
  8
0
  6
Continuous
 62
     7
370
    15
100
AcDbLine
 10
65.7599530611
 20
134.8758251619
 30
0.0
 11
64.7613320695
 21
128.2129571986
 31
0.0
  0
ARC
  5
25B
330
1F
100
AcDbEntity
  8
0
  6
Continuous
 62
     7
370
    15
100
AcDbCircle
 10
68.4260246586
 20
134.683632308
 30
0.0
 40
2.672990059107889
100
AcDbArc
 50
156.188530475
 51
175.8767711156
  0
LINE
  5
25C
330
1F
100
AcDbEntity
  8
0
  6
Continuous
 62
     7
370
    15
100
AcDbLine
 10
66.759948452
 20
136.248462389
 30
0.0
 11
65.9805625407
 21
135.7627944302
 31
0.0
  0
LWPOLYLINE
  5
25D
330
1F
100
AcDbEntity
  8
0
  6
Continuous
 62
     7
370
    15
100
AcDbPolyline
 90
       14
 70
   128
 43
0.0
 10
65.9760711211
 20
131.4263628077
 10
66.0634409366
 20
132.0666778114
 10
66.1305709006
 20
132.6830988031
 10
66.1732430532
 20
133.2368967336
 10
66.1887760004
 20
133.6932727348
 10
66.1761939488
 20
134.0235513847
 10
66.1362872421
 20
134.2069790911
 10
66.0715635828
 20
134.2320316684
 10
65.9860897073
 20
134.0971333187
 10
65.8852362036
 20
133.8107628029
 10
65.7753401398
 20
133.3909114104
 10
65.6633065743
 20
132.8639616471
 10
65.556175258
 20
132.2630220305
 10
65.526715313
 20
132.0783919867
  0
ARC
  5
25E
330
1F
100
AcDbEntity
  8
0
  6
Continuous
 62
     7
370
    15
100
AcDbCircle
 10
51.9760090798
 20
133.3046184836
 30
0.0
 40
14.12549402834303
100
AcDbArc
 50
344.5202371004
 51
352.3587949395
  0
LINE
  5
25F
330
1F
100
AcDbEntity
  8
0
  6
Continuous
 62
     7
370
    15
100
AcDbLine
 10
66.4344063922
 20
136.3529009026
 30
0.0
 11
66.4291802756
 21
136.3220890265
 31
0.0
  0
LINE
  5
260
330
1F
100
AcDbEntity
  8
0
  6
Continuous
 62
     7
370
    15
100
AcDbLine
 10
65.7741996189
 20
130.6891949128
 30
0.0
 11
65.8521421216
 21
130.682142007
 31
0.0
  0
ELLIPSE
  5
261
330
1F
100
AcDbEntity
  8
0
  6
Continuous
 62
     7
370
    15
100
AcDbEllipse
 10
65.5864325604
 20
131.0272002898
 30
0.0
 11
0.3137265769723854
 21
2.230774236460974
 31
0.0
210
0.0
220
0.0
230
1.0
 40
0.1044186664
 41
4.574984257398377
 42
7.294155150269912
  0
LINE
  5
262
330
1F
100
AcDbEntity
  8
0
  6
Continuous
 62
     7
370
    15
100
AcDbLine
 10
65.5556573262
 20
132.2395862293
 30
0.0
 11
65.3986654439
 21
131.3652056482
 31
0.0
  0
LINE
  5
263
330
1F
100
AcDbEntity
  8
0
  6
Continuous
 62
     7
370
    15
100
AcDbLine
 10
65.6172078531
 20
129.8148134004
 30
0.0
 11
65.7741996189
 21
130.6891949128
 31
0.0
  0
ELLIPSE
  5
264
330
1F
100
AcDbEntity
  8
0
  6
Continuous
 62
     7
370
    15
100
AcDbEllipse
 10
65.5864325604
 20
131.0272002898
 30
0.0
 11
0.3137265769723854
 21
2.230774236460974
 31
0.0
210
0.0
220
0.0
230
1.0
 40
0.1044186664
 41
1.433391603808638
 42
4.152562496680059
  0
LINE
  5
265
330
1F
100
AcDbEntity
  8
0
  6
Continuous
 62
     7
370
    15
100
AcDbLine
 10
65.6654872661
 20
129.8104445662
 30
0.0
 11
65.6172078531
 21
129.8148134004
 31
0.0
  0
LINE
  5
266
330
1F
100
AcDbEntity
  8
VERMASSUNG
100
AcDbLine
 10
67.3156149476
 20
138.4268511143
 30
0.0
 11
60.3652777195
 21
88.9726320409
 31
0.0
  0
CIRCLE
  5
267
330
1F
100
AcDbEntity
  8
VERMASSUNG
  6
CENTERX2
100
AcDbCircle
 10
67.4276801953
 20
118.4271650822
 30
0.0
 40
19.99999999999999
  0
DIMENSION
  5
268
330
1F
100
AcDbEntity
  8
VERMASSUNG
100
AcDbDimension
  2
_D_6
 10
54.9568235356
 20
134.0629488545
 30
0.0
 11
47.4158920898
 21
143.5176620907
 31
0.0
 70
   160
  1
%%c<> min. 
 71
     2
 42
-1.0
  3
SLDDIMSTYLE2
100
AcDbAlignedDimension
 13
79.898536855
 23
102.7913813099
 33
0.0
 14
54.9568235356
 24
134.0629488545
 34
0.0
 50
-51.4246849876
100
AcDbRotatedDimension
  0
DIMENSION
  5
277
330
1F
100
AcDbEntity
  8
VERMASSUNG
100
AcDbDimension
  2
_D_7
 10
67.4276801953
 20
143.9690316867
 30
0.0
 11
63.5064164852
 21
83.1475531613
 31
0.0
 70
   162
  1
<>
 71
     1
 42
-1.0
  3
SLDDIMSTYLE3
100
AcDb2LineAngularDimension
 13
60.3652777195
 23
88.9726320409
 33
0.0
 14
67.3156149476
 24
138.4268511143
 34
0.0
 15
67.4276801953
 25
88.9690316867
 35
0.0
 16
63.5064164852
 26
83.1475531613
 36
0.0
  0
INSERT
  5
28F
330
1F
100
AcDbEntity
  8
VERMASSUNG
100
AcDbBlockReference
  2
SW_CENTERMARKSYMBOL_0
 10
67.4276801953
 20
116.4690316867
 30
0.0
  0
OLE2FRAME
  5
290
330
1F
100
AcDbEntity
  8
0
100
AcDbOle2Frame
 70
     2
  3
Paintbrush-Bild
 10
13.8511154363
 20
38.264191557
 30
0.0
 11
51.6290888628
 21
31.9806341108
 31
0.0
 71
     2
 72
     0
 73
     1
 90
    12928
310
80552BED0767C5B32B40DDAF6807D121434000000000000000006FFBDDFB85D0
310
4940DDAF6807D121434000000000000000006FFBDDFB85D04940416F4BD60AFB
310
3F4000000000000000002BED0767C5B32B40416F4BD60AFB3F40000000000000
310
0000000000000100000000010000010000000100000000000100000000320000
310
D0CF11E0A1B11AE1000000000000000000000000000000003E000300FEFF0900
310
0600000000000000000000000100000001000000000000000010000002000000
310
01000000FEFFFFFF0000000000000000FFFFFFFFFFFFFFFFFFFFFFFFFFFFFFFF
310
FFFFFFFFFFFFFFFFFFFFFFFFFFFFFFFFFFFFFFFFFFFFFFFFFFFFFFFFFFFFFFFF
310
FFFFFFFFFFFFFFFFFFFFFFFFFFFFFFFFFFFFFFFFFFFFFFFFFFFFFFFFFFFFFFFF
310
FFFFFFFFFFFFFFFFFFFFFFFFFFFFFFFFFFFFFFFFFFFFFFFFFFFFFFFFFFFFFFFF
310
FFFFFFFFFFFFFFFFFFFFFFFFFFFFFFFFFFFFFFFFFFFFFFFFFFFFFFFFFFFFFFFF
310
FFFFFFFFFFFFFFFFFFFFFFFFFFFFFFFFFFFFFFFFFFFFFFFFFFFFFFFFFFFFFFFF
310
FFFFFFFFFFFFFFFFFFFFFFFFFFFFFFFFFFFFFFFFFFFFFFFFFFFFFFFFFFFFFFFF
310
FFFFFFFFFFFFFFFFFFFFFFFFFFFFFFFFFFFFFFFFFFFFFFFFFFFFFFFFFFFFFFFF
310
FFFFFFFFFFFFFFFFFFFFFFFFFFFFFFFFFFFFFFFFFFFFFFFFFFFFFFFFFFFFFFFF
310
FFFFFFFFFFFFFFFFFFFFFFFFFFFFFFFFFFFFFFFFFFFFFFFFFFFFFFFFFFFFFFFF
310
FFFFFFFFFFFFFFFFFFFFFFFFFFFFFFFFFFFFFFFFFFFFFFFFFFFFFFFFFFFFFFFF
310
FFFFFFFFFFFFFFFFFFFFFFFFFFFFFFFFFFFFFFFFFFFFFFFFFFFFFFFFFFFFFFFF
310
FFFFFFFFFFFFFFFFFFFFFFFFFFFFFFFFFFFFFFFFFFFFFFFFFFFFFFFFFFFFFFFF
310
FFFFFFFFFFFFFFFFFFFFFFFFFFFFFFFFFFFFFFFFFFFFFFFFFFFFFFFFFFFFFFFF
310
FDFFFFFFFEFFFFFFFEFFFFFFFEFFFFFF05000000060000000700000008000000
310
090000000A0000000B0000000C0000000D0000000E0000000F00000010000000
310
11000000120000001300000014000000150000001600000017000000FEFFFFFF
310
FFFFFFFFFFFFFFFFFFFFFFFFFFFFFFFFFFFFFFFFFFFFFFFFFFFFFFFFFFFFFFFF
310
FFFFFFFFFFFFFFFFFFFFFFFFFFFFFFFFFFFFFFFFFFFFFFFFFFFFFFFFFFFFFFFF
310
FFFFFFFFFFFFFFFFFFFFFFFFFFFFFFFFFFFFFFFFFFFFFFFFFFFFFFFFFFFFFFFF
310
FFFFFFFFFFFFFFFFFFFFFFFFFFFFFFFFFFFFFFFFFFFFFFFFFFFFFFFFFFFFFFFF
310
FFFFFFFFFFFFFFFFFFFFFFFFFFFFFFFFFFFFFFFFFFFFFFFFFFFFFFFFFFFFFFFF
310
FFFFFFFFFFFFFFFFFFFFFFFFFFFFFFFFFFFFFFFFFFFFFFFFFFFFFFFFFFFFFFFF
310
FFFFFFFFFFFFFFFFFFFFFFFFFFFFFFFFFFFFFFFFFFFFFFFFFFFFFFFFFFFFFFFF
310
FFFFFFFFFFFFFFFFFFFFFFFFFFFFFFFFFFFFFFFFFFFFFFFFFFFFFFFFFFFFFFFF
310
FFFFFFFFFFFFFFFFFFFFFFFFFFFFFFFFFFFFFFFFFFFFFFFFFFFFFFFFFFFFFFFF
310
FFFFFFFFFFFFFFFFFFFFFFFFFFFFFFFFFFFFFFFFFFFFFFFFFFFFFFFFFFFFFFFF
310
FFFFFFFFFFFFFFFFFFFFFFFFFFFFFFFFFFFFFFFFFFFFFFFFFFFFFFFFFFFFFFFF
310
FFFFFFFFFFFFFFFFFFFFFFFFFFFFFFFFFFFFFFFFFFFFFFFFFFFFFFFFFFFFFFFF
310
FFFFFFFFFFFFFFFFFFFFFFFFFFFFFFFFFFFFFFFFFFFFFFFFFFFFFFFFFFFFFFFF
310
52006F006F007400200045006E00740072007900000000000000000000000000
310
0000000000000000000000000000000000000000000000000000000000000000
310
16000500FFFFFFFFFFFFFFFF020000000A00030000000000C000000000000046
310
000000000000000000000000609997DE0F43CD0103000000C000000000000000
310
01004F006C006500000000000000000000000000000000000000000000000000
310
0000000000000000000000000000000000000000000000000000000000000000
310
0A000200FFFFFFFFFFFFFFFFFFFFFFFF00000000000000000000000000000000
310
0000000000000000000000000000000000000000000000001400000000000000
310
010043006F006D0070004F0062006A0000000000000000000000000000000000
310
0000000000000000000000000000000000000000000000000000000000000000
310
120002010100000003000000FFFFFFFF00000000000000000000000000000000
310
0000000000000000000000000000000000000000010000004D00000000000000
310
01004F006C006500310030004E00610074006900760065000000000000000000
310
0000000000000000000000000000000000000000000000000000000000000000
310
1A000200FFFFFFFFFFFFFFFFFFFFFFFF00000000000000000000000000000000
310
0000000000000000000000000000000000000000040000002426000000000000
310
FEFFFFFF02000000FEFFFFFFFFFFFFFFFFFFFFFFFFFFFFFFFFFFFFFFFFFFFFFF
310
FFFFFFFFFFFFFFFFFFFFFFFFFFFFFFFFFFFFFFFFFFFFFFFFFFFFFFFFFFFFFFFF
310
FFFFFFFFFFFFFFFFFFFFFFFFFFFFFFFFFFFFFFFFFFFFFFFFFFFFFFFFFFFFFFFF
310
FFFFFFFFFFFFFFFFFFFFFFFFFFFFFFFFFFFFFFFFFFFFFFFFFFFFFFFFFFFFFFFF
310
FFFFFFFFFFFFFFFFFFFFFFFFFFFFFFFFFFFFFFFFFFFFFFFFFFFFFFFFFFFFFFFF
310
FFFFFFFFFFFFFFFFFFFFFFFFFFFFFFFFFFFFFFFFFFFFFFFFFFFFFFFFFFFFFFFF
310
FFFFFFFFFFFFFFFFFFFFFFFFFFFFFFFFFFFFFFFFFFFFFFFFFFFFFFFFFFFFFFFF
310
FFFFFFFFFFFFFFFFFFFFFFFFFFFFFFFFFFFFFFFFFFFFFFFFFFFFFFFFFFFFFFFF
310
FFFFFFFFFFFFFFFFFFFFFFFFFFFFFFFFFFFFFFFFFFFFFFFFFFFFFFFFFFFFFFFF
310
FFFFFFFFFFFFFFFFFFFFFFFFFFFFFFFFFFFFFFFFFFFFFFFFFFFFFFFFFFFFFFFF
310
FFFFFFFFFFFFFFFFFFFFFFFFFFFFFFFFFFFFFFFFFFFFFFFFFFFFFFFFFFFFFFFF
310
FFFFFFFFFFFFFFFFFFFFFFFFFFFFFFFFFFFFFFFFFFFFFFFFFFFFFFFFFFFFFFFF
310
FFFFFFFFFFFFFFFFFFFFFFFFFFFFFFFFFFFFFFFFFFFFFFFFFFFFFFFFFFFFFFFF
310
FFFFFFFFFFFFFFFFFFFFFFFFFFFFFFFFFFFFFFFFFFFFFFFFFFFFFFFFFFFFFFFF
310
FFFFFFFFFFFFFFFFFFFFFFFFFFFFFFFFFFFFFFFFFFFFFFFFFFFFFFFFFFFFFFFF
310
FFFFFFFFFFFFFFFFFFFFFFFFFFFFFFFFFFFFFFFFFFFFFFFFFFFFFFFFFFFFFFFF
310
0100000200000000000000000000000000000000000000000000000000000000
310
0000000000000000000000000000000000000000000000000000000000000000
310
0100FEFF030A0000FFFFFFFF0A00030000000000C00000000000004607000000
310
5042727573680007000000504272757368000700000050427275736800F439B2
310
7100000000000000000000000000000000000000000000000000000000000000
310
0000000000000000000000000000000000000000000000000000000000000000
310
0000000000000000000000000000000000000000000000000000000000000000
310
0000000000000000000000000000000000000000000000000000000000000000
310
0000000000000000000000000000000000000000000000000000000000000000
310
0000000000000000000000000000000000000000000000000000000000000000
310
0000000000000000000000000000000000000000000000000000000000000000
310
0000000000000000000000000000000000000000000000000000000000000000
310
0000000000000000000000000000000000000000000000000000000000000000
310
0000000000000000000000000000000000000000000000000000000000000000
310
0000000000000000000000000000000000000000000000000000000000000000
310
0000000000000000000000000000000000000000000000000000000000000000
310
20260000424D0E260000000000003E00000028000000B40200006E0000000100
310
01000000000000000000130B0000130B00000200000002000000000000FFFFFF
310
FFFFFFFFFFFFFFFFFFFFFFFFFFFFFFFFFFFFFFFFFFFFFFFFFFFFFFFFFFFFFFFF
310
FFFFFFFFFFFFFFFFFFFFFFFFFFFFFFFFFFFFFFFFFFFFFFFFFFFFFFFFFFFFFFFF
310
FFFFFFFFFFFFFFFFFFFFFFFFFFFFFFFFFFFFFFFFFFFFFFFFF000FFFFFFFFFFFF
310
FFFFFFFFFFFFFFFFFFFFFFFFFFFFFFFFFFFFFFFFFFFFFFFFFFFFFFFFFFFFFFFF
310
FFFFFFFFFFFFFFFFFFFFFFFFFFFFFFFFFFFFFFFFFFFFFFFFFFFFFFFFFFFFFFFF
310
FFFFFFFFFFFFFFFFFFFFFFFFFFFFFFFFF000FFFFFFFFFFFFFFFFFFFFFFFFFFFF
310
FFFFFFFFFFFFFFFFFFFFFFFFFFFFFFFFFFFFFFFFFFFFFFFFFFFFFFFFFFFFFFFF
310
FFFFFFFFFFFFFFFFFFFFFFFFFFFFFFFFFFFFFFFFFFFFFFFFFFFFFFFFFFFFFFFF
310
FFFFFFFFFFFFFFFFF000FFFFFFFFFFFFFFFFFFFFFFFFFFFFFFFFFFFFFFFFFFFF
310
FFFFFFFFFFFFFFFFFFFFFFFFFFFFFFFFFFFFFFFFFFFFFFFFFFFFFFFFFFFFFFFF
310
FFFFFFFFFFFFFFFFFFFFFFFFFFFFFFFFFFFFFFFFFFFFFFFFFFFFFFFFFFFFFFFF
310
F000FFFFFFFFFFFFFFFFFFFFFFFFFFFFFFFFFFFFFFFFFFFFFFFFFFFFFFFFFFFF
310
FFFFFFFFFFFFFFFFFFFFFFFFFFFFFFFFFFFFFFFFFFFFFFFFFFFFFFFFFFFFFFFF
310
FFFFFFFFFFFFFFFFFFFFFFFFFFFFFFFFFFFFFFFFFFFFFFFFF000FFFFFFFFFFFF
310
FFFFFFFFFFFFFFFFFFFFFFFFFFFFFFFFFFFFFFFFFFFFFFFFFFFFFFFFFFFFFFFF
310
FFFFFFFFFFFFFFFFFFFFFFFFFFFFFFFFFFFFFFFFFFFFFFFFFFFFFFFFFFFFFFFF
310
FFFFFFFFFFFFFFFFFFFFFFFFFFFFFFFFF000FFFFFFFFFFFFFFFFFFFFFFFFFFFF
310
FFFFFFFFFFFFFFFFFFFFFFFFFFFFFFFFFFFFFFFFFFFFFFFFFFFFFFFFFFFFFFFF
310
FFFFFFFFFFFFFFFFFFFFFFFFFFFFFFFFFFFFFFFFFFFFFFFFFFFFFFFFFFFFFFFF
310
FFFFFFFFFFFFFFFFF000FFFFFFFFFFFFFFFFFFFFFFFFFFFFFFFFFFFFFFFFFFFF
310
FFFFFFFFFFFFFFFFFFFFFFFFFFFFFFFFFFFFFFFFFFFFFFFFFFFFFFFFFFFFFFFF
310
FFFFFFFFFFFFFFFFFFFFFFFFFFFFFFFFFFFFFFFFFFFFFFFFFFFFFFFFFFFFFFFF
310
F000FFFFFFFFFFFFFFFFFFFFFFFFFFFFFFFFFFFFFFFFFFFFFFFFFFFFFFFFFFFF
310
FFFFFFFFFFFFFFFFFFFFFFFFFFFFFFFFFFFFFFFFFFFFFFFFFFFFFFFFFFFFFFFF
310
FFFFFFFFFFFFFFFFFFFFFFFFFFFFFFFFFFFFFFFFFFFFFFFFF000FFFFFFFFFFFF
310
FFFFFFFFFFFFFFFFFFFFFFFFFFFFFFFFFFFFFFFFFFFFFFFFFFFFFFFFFFFFFFFF
310
FFFFFFFFFFFFFFFFFFFFFFFFFFFFFFFFFFFFFFFFFFFFFFFFFFFFFFFFFFFFFFFF
310
FFFFFFFFFFFFFFFFFFFFFFFFFFFFFFFFF000FFFFFFFFFFFFFFFFFFFFFFFFFFFF
310
FFFFFFFFFFFFFFFFFFFFFFFFFFFFFFFFFFFFFFFFFFFFFFFFFFFFFFFFFFFFFFFF
310
FFFFFFFFFFFFFFFFFFFFFFFFFFFFFFFFFFFFFFFFFFFFFFFFFFFFFFFFFFFFFFFF
310
FFFFFFFFFFFFFFFFF000FFFFFFFFFFFFFFFFFFFFFFFFFFFFFFFFFFFFFFFFFFFF
310
FFFFFFFFFFFFFFFFFFFFFFFFFFFFFFFFFFFFFFFFFFFFFFFFFFFFFFFFFFFFFFFF
310
FFFFFFFFFFFFFFFFFFFFFFFFFFFFFFFFFFFFFFFFFFFFFFFFFFFFFFFFFFFFFFFF
310
F000FFFFFFFFFFFFFFFFFFFFFFFFFFFFFFFFFFFFFFFFFFFFFFFFFFFFFFFFFFFF
310
FFFFFFFFFFFFFFFFFFFFFFFFFFFFFFFFFFFFFFFFFFFFFFFFFFFFFFFFFFFFFFFF
310
FFFFFFFFFFFFFFFFFFFFFFFFFFFFFFFFFFFFFFFFFFFFFFFFF000FFFFFFFFFFFF
310
FFFFFFFFFFFFFFFFFFFFFFFFFFFFFFFFFFFFFFFFFFFFFFFFFFFFFFFFFFFFFFFF
310
FFFFFFFFFFFFFFFFFFFFFFFFFFFFFFFFFFFFFFFFFFFFFFFFFFFFFFFFFFFFFFFF
310
FFFFFFFFFFFFFFFFFFFFFFFFFFFFFFFFF000FFFFFFFFFFFFFFFFFFFFFFFFFFFF
310
FFFFFFFFFFFFFFFFFFFFFFFFFFFFFFFFFFFFFFFFFFFFFFFFFFFFFFFFFFFFFFFF
310
FFFFFFFFFFFFFFFFFFFFFFFFFFFFFFFFFFFFFFFFFFFFFFFFFFFFFFFFFFFFFFFF
310
FFFFFFFFFFFFFFFFF000FFFFFFFFFFFFFFFFFFFFFFFFFFFFFFFFFFFFFFFFFFFF
310
FFFFFFFFFFFFFFFFFFFFFFFFFFFFFFFFFFFFFFFFFFFFFFFFFFFFFFFFFFFFFFFF
310
FFFFFFFFFFFFFFFFFFFFFFFFFFFFFFFFFFFFFFFFFFFFFFFFFFFFFFFFFFFFFFFF
310
F000FFFFFFFFFFFFFFFFFFFFFFFFFFFFFFFFFFFFFFFFFFFFFFFFFFFFFFFFFFFF
310
FFFFFFFFFFFFFFFFFFFFFFFFFFFFFFFFFFFFFFFFFFFFFFFFFFFFFFFFFFFFFFFF
310
FFFFFFFFFFFFFFFFFFFFFFFFFFFFFFFFFFFFFFFFFFFFFFFFF000FFFFFFFFFFFF
310
FFFFFFFFFFFFFFFFFFFFFFFFFFFFFFFFFFFFFFFFFFFFFFFFFFFFFFFFFFFFFFFF
310
FFFFFFFFFFFFFFFFFFFFFFFFFFFFFFFFFFFFFFFFFFFFFFFFFFFFFFFFFFFFFFFF
310
FFFFFFFFFFFFFFFFFFFFFFFFFFFFFFFFF000FFFFFFFFFFFFFFFFFFFFFFFFFFFF
310
FFFFFFFFFFFFFFFFFFFFFFFFFFFFFFFFFFFFFFFFFFFFFFFFFFFFFFFFFFFFFFFF
310
FFFFFFFFFFFFFFFFFFFFFFFFFFFFFFFFFFFFFFFFFFFFFFFFFFFFFFFFFFFFFFFF
310
FFFFFFFFFFFFFFFFF000FFFFF80003FFFFFFFFFFFFFFFFFFFFFFFFFFFFFFFFFF
310
FFFFF00007FFFFFFFFFF00007FFFFFF800000000000000007FFFFFFFFFFFFFFF
310
FFFFFFFC001FFFFFFFFFFFFFFC001FFFFFFFFFFFFFFFFFFFFFFFFFFE0007FFFF
310
F000FFFF8000007FFFFFFFF8000FFFFFC0007FFFFF80007FFFFF0000007FFFFF
310
FFF8000007FFFFF800000000000000007FFFFFF0001FFFFFFFFFFFC00001FFFF
310
FFFFFFFFC00001FFFFFFFF000000000003FFFFE000007FFFF000FFFE0000000F
310
FFFFFFF0000FFFFF80007FFFFF80007FFFFC0000001FFFFFFFC0000001FFFFF8
310
00000000000000007FFFFFF0001FFFFFFFFFFE0000003FFFFFFFFFFE0000003F
310
FFFFFF000000000003FFFF0000000FFFF000FFF800000003FFFFFFF00007FFFF
310
80007FFFFF80007FFFF000000007FFFFFF000000003FFFF80000000000000000
310
7FFFFFF0001FFFFFFFFFF80000000FFFFFFFFFF80000000FFFFFFF0000000000
310
03FFFC00000003FFF000FFE000000000FFFFFFF00007FFFF80003FFFFF80007F
310
FFC000000001FFFFFC000000001FFFF800000000000000007FFFFFF0001FFFFF
310
FFFFE000000003FFFFFFFFE000000003FFFFFF000000000003FFF000000000FF
310
F000FF80000000007FFFFFF00007FFFF80003FFFFF80007FFF8000000000FFFF
310
F80000000007FFF800000000000000007FFFFFF0001FFFFFFFFFC000000001FF
310
FFFFFFC000000001FFFFFF000000000003FFC0000000007FF000FF0000000000
310
3FFFFFE00007FFFF00003FFFFF80007FFE00000000003FFFF00000000003FFF8
310
00000000000000007FFFFFF0001FFFFFFFFF8000000000FFFFFFFF8000000000
310
FFFFFF000000000003FF80000000003FF000FE00000000001FFFFFE00003FFFF
310
00003FFFFF80007FFC00000000001FFFE00000000001FFF8000001FFFE000000
310
7FFFFFF0001FFFFFFFFE00000000003FFFFFFE00000000003FFFFF0000000000
310
03FF00000000001FF000FC00000000000FFFFFE00003FFFF00001FFFFF80007F
310
F800000000001FFFC00000000000FFF8000001FFFE0000007FFFFFF0001FFFFF
310
FFFC00000000001FFFFFFC00000000001FFFFF000000000003FE00000000000F
310
F000F8000000000007FFFFE00003FFFF00001FFFFF80007FF800000000000FFF
310
800000000000FFF8000001FFFE0000007FFFFFF0001FFFFFFFF800000000000F
310
FFFFF800000000000FFFFF000000000003FC000000000007F000F80000000000
310
03FFFFC00003FFFE00001FFFFF80007FF0000000000007FF0000000000007FF8
310
000001FFFE0000007FFFFFF0001FFFFFFFF0000000000007FFFFF00000000000
310
07FFFF000000000003F8000000000003F000F0000000000003FFFFC00001FFFE
310
00001FFFFF80007FE0000000000007FE0000000000003FF8000001FFFE000000
310
7FFFFFF0001FFFFFFFF0000000000007FFFFF0000000000007FFFF0000000000
310
03F800001F800003F000E00001FFF00001FFFFC00001FFFE00000FFFFF80007F
310
E00001FFE00003FE00001FFF00003FF8000001FFFE0000007FFFFFF0001FFFFF
310
FFE000003E000003FFFFE000003E000003FFFF000000000003F00001FFF80001
310
F000E00007FFFC0001FFFFC00001FFFE00000FFFFF80007FC0000FFFFC0003FC
310
0000FFFFC0001FF8000001FFFE0000007FFFFFF0001FFFFFFFC00003FFE00001
310
FFFFC00003FFE00001FFFF0001FFFFFFFFF00007FFFE0001F000E0000FFFFF00
310
00FFFF800001FFFC00000FFFFF80007FC0001FFFFE0001FC0001FFFFE0001FF8
310
000001FFFE0000007FFFFFF0001FFFFFFF80000FFFF80000FFFF80000FFFF800
310
00FFFF0003FFFFFFFFE0000FFFFF8000F000C0003FFFFF8000FFFF800000FFFC
310
000007FFFF80007F80003FFFFF0001FC0003FFFFF0001FF8000001FFFE000000
310
7FFFFFF0001FFFFFFF80003FFFFE0000FFFF80003FFFFE0000FFFF0003FFFFFF
310
FFE0003FFFFF8000F000C0003FFFFF8000FFFF800000FFFC000007FFFF80007F
310
80007FFFFF8001F80007FFFFF8000FF8000001FFFE0000007FFFFFF0001FFFFF
310
FF00007FFFFF00007FFF00007FFFFF00007FFF0003FFFFFFFFE0003FFFFFC000
310
F000C0007FFFFFC000FFFF000000FFFC000007FFFF80007F8000FFFFFF8000F8
310
000FFFFFF8000FF8000001FFFE0000007FFFFFF0001FFFFFFF0000FFFFFF8000
310
7FFF0000FFFFFF80007FFF0003FFFFFFFFC0007FFFFFC00070008000FFFFFFC0
310
00FFFF000000FFF8000007FFFF80007F8000FFFFFF8000F8000FFFFFF8000FF8
310
000001FFFE0000007FFFFFF0001FFFFFFE0001FFFFFFC0003FFE0001FFFFFFC0
310
003FFF0003FFFFFFFFC0007FFFFFE00070008000FFFFFFC0007FFF0000007FF8
310
000003FFFF80007F0001FFFFFF8000F8000FFFFFF8000FF8000001FFFE000000
310
7FFFFFF0001FFFFFFE0001FFFFFFC0003FFE0001FFFFFFC0003FFF0003FFFFFF
310
FFC000FFFFFFE00070008000FFFFFFC0007FFF0000007FF8000003FFFF80007F
310
0001FFFFFF8000F8001FFFFFF8000FF8000001FFFE0000007FFFFFF0001FFFFF
310
FE0003FFFFFFE0003FFE0003FFFFFFE0003FFF0003FFFFFFFFC000FFFFFFE000
310
70008000FFFFFFC0007FFE0000007FF8000003FFFF80007F0001FFFFFF8000F0
310
001FFFFFF8000FF8000001FFFE0000007FFFFFF0001FFFFFFC0003FFFFFFE000
310
1FFC0003FFFFFFE0001FFF0003FFFFFFFFC000FFFFFFC00070008000FFFFFF80
310
007FFE0000007FF0000003FFFF80007F0001FFFFFF0000F0001FFFFFF8000FF8
310
000001FFFE0000007FFFFFF0001FFFFFFC0007FFFFFFF0001FFC0007FFFFFFF0
310
001FFF0003FFFFFFFFC000FFFFFFC00070008001FFFFFF0000FFFE0000003FF0
310
000001FFFF80007F0001FFFFFF0000F8001FFFFFF0000FF8000001FFFE000000
310
7FFFFFF0001FFFFFFC0007FFFFFFF0001FFC0007FFFFFFF0001FFF0003FFFFFF
310
FFC001FFFFFF80007000FFFFFFFFFE0000FFFE0008003FF0008001FFFF80007F
310
FFFFFFFFFC0000FFFFFFFFFFE0000FF8000001FFFE0000007FFFFFF0001FFFFF
310
F8000FFFFFFFF8000FF8000FFFFFFFF8000FFF0003FFFFFFFFFFFFFFFFFF0000
310
7000FFFFFFFFFC0000FFFC0008003FF0008001FFFF80007FFFFFFFFFF80001FF
310
FFFFFFFF80000FF8000001FFFE0000007FFFFFF0001FFFFFF8000FFFFFFFF800
310
0FF8000FFFFFFFF8000FFF0003FFFFFFFFFFFFFFFFFE0000F000FFFFFFFFE000
310
00FFFC000C003FE000C001FFFF80007FFFFFFFFFC00001FFFFFFFFFE00001FF8
310
000001FFFE0000007FFFFFF0001FFFFFF8000FFFFFFFF8000FF8000FFFFFFFF8
310
000FFF0003FFFFFFFFFFFFFFFFF00000F000FFFFFFFE000001FFFC000C001FE0
310
00C000FFFF80007FFFFFFFFE000001FFFFFFFFE000001FF80FFFFFFFFFFFFFC0
310
7FFFFFF0001FFFFFF8000FFFFFFFF8000FF8000FFFFFFFF8000FFF0003FFFFFF
310
FFFFFFFFFF800000F000FFFFFFC0000001FFFC001C001FE001C000FFFF80007F
310
FFFFFF80000003FFFFFFF80000001FF80FFFFFFFFFFFFFC07FFFFFF0001FFFFF
310
F8001FFFFFFFFC000FF8001FFFFFFFFC000FFF0003FFFFFFFFFFFFFFF0000001
310
F000FFFFF800000001FFF8001C001FE001C000FFFF80007FFFFFF800000003FF
310
FFFF800000003FF80FFFFFFFFFFFFFC07FFFFFF0001FFFFFF8001FFFFFFFFC00
310
0FF8001FFFFFFFFC000FFF0003FFFFFFFFFFFFFE00000001F000FFFFC0000000
310
03FFF8001E001FC001E000FFFF80007FFFFF8000000007FFFFFC000000003FF8
310
0FFFFFFFFFFFFFC07FFFFFF0001FFFFFF8001FFFFFFFFC000FF8001FFFFFFFFC
310
000FFF0003FFFFFFFFFFFFE000000003F000FFFE0000000007FFF8001E000FC0
310
01E0007FFF80007FFFFE0000000007FFFFE0000000007FF80FFFFFFFFFFFFFC0
310
7FFFFFF0001FFFFFF0001FFFFFFFFC0007F0001FFFFFFFFC0007FF0003FFFFFF
310
FFFFFF0000000003F000FFF80000000007FFF8001E000FC003E0007FFF80007F
310
FFF0000000000FFFFF8000000000FFF80FFFFFFFFFFFFFC07FFFFFF0001FFFFF
310
F0001FFFFFFFFC0007F0001FFFFFFFFC0007FF0003FFFFFFFFFFFC0000000007
310
F000FFE0000000000FFFF0003E000FC003E0007FFF80007FFFC0000000001FFF
310
FE0000000001FFF80FFFFFFFFFFFFFC07FFFFFF0001FFFFFF0001FFFFFFFFC00
310
07F0001FFFFFFFFC0007FF0003FFFFFFFFFFF0000000000FF000FFC000000000
310
1FFFF0003F000F8003F0003FFF80007FFF80000000003FFFF80000000003FFF8
310
0FFFFFFFFFFFFFC07FFFFFF0001FFFFFF0001FFFFFFFFC0007F0001FFFFFFFFC
310
0007FF0003FFFFFFFFFFE0000000001FF000FF00000000007FFFF0003F000780
310
03F0003FFF80007FFF00000000007FFFF00000000007FFF80FFFFFFFFFFFFFC0
310
7FFFFFF0001FFFFFF0001FFFFFFFFC0007F0001FFFFFFFFC0007FF0003FFFFFF
310
FFFF80000000007FF000FE0000000000FFFFE0003F00078007F0003FFF80007F
310
FE0000000001FFFFE0000000001FFFF80FFFFFFFFFFFFFC07FFFFFF0001FFFFF
310
F0001FFFFFFFFC0007F0001FFFFFFFFC0007FF0003FFFFFFFFFF0000000000FF
310
F000FC0000000003FFFFE0007F00078007F0003FFF80007FFC0000000007FFFF
310
C0000000007FFFF80FFFFFFFFFFFFFC07FFFFFF0001FFFFFF8001FFFFFFFFC00
310
0FF8001FFFFFFFFC000FFF0003FFFFFFFFFE0000000003FFF000FC000000000F
310
FFFFE0007F80070007F8001FFF80007FF8000000001FFFFF8000000001FFFFF8
310
0FFFFFFFFFFFFFC07FFFFFF0001FFFFFF8001FFFFFFFFC000FF8001FFFFFFFFC
310
000FFF0003FFFFFFFFFC000000000FFFF000F8000000007FFFFFE0007F800700
310
07F8001FFF80007FF000000000FFFFFF800000000FFFFFF80FFFFFFFFFFFFFC0
310
7FFFFFF0001FFFFFF8000FFFFFFFF8000FF8000FFFFFFFF8000FFF0003FFFFFF
310
FFFC000000007FFFF000F800000007FFFFFFC0007F8003000FF8001FFF80007F
310
F000000007FFFFFF000000007FFFFFF80FFFFFFFFFFFFFC07FFFFFF0001FFFFF
310
F8000FFFFFFFF8000FF8000FFFFFFFF8000FFF0003FFFFFFFFF80000000FFFFF
310
F000F0000000FFFFFFFFC000FF8003000FF8001FFF80007FE0000000FFFFFFFF
310
0000000FFFFFFFF8000001FFFE0000007FFFFFF0001FFFFFF8000FFFFFFFF800
310
0FF8000FFFFFFFF8000FFF0003FFFFFFFFF8000000FFFFFFF000F000000FFFFF
310
FFFFC000FFC002000FF8000FFF80007FE000001FFFFFFFFE000001FFFFFFFFF8
310
000001FFFE0000007FFFFFF0001FFFFFF8000FFFFFFFF8000FF8000FFFFFFFF8
310
000FFF0003FFFFFFFFF000001FFFFFFFF000E00000FFFFFFFFFFC000FFC00200
310
0FFC000FFF80007FE00001FFFFFFFFFE00001FFFFFFFFFF8000001FFFE000000
310
7FFFFFF0001FFFFFFC000FFFFFFFF8001FFC000FFFFFFFF8001FFF0003FFFFFF
310
FFF00001FFFFFFFFF000E00007FFFFFFFFFF8000FFC000001FFC000FFF80007F
310
C0000FFFFFFFFFFE0000FFFFFFFFFFF8000001FFFE0000007FFFFFF0001FFFFF
310
FC0007FFFFFFF0001FFC0007FFFFFFF0001FFF0003FFFFFFFFF00007FFFFFFFF
310
F000E0001FFFFFFFFFFF8000FFC000001FFC000FFF80007FC0003FFFFFFFFFFE
310
0001FFFFFFFFFFF8000001FFFE0000007FFFFFF0001FFFFFFC0007FFFFFFF000
310
1FFC0007FFFFFFF0001FFF0003FFFFFFFFF0001FFFFFFFFFF000E0003FFFFF00
310
03FF8001FFE000001FFC0007FF80007FC0007FFFFF0007FC0003FFFFF0003FF8
310
000001FFFE0000007FFFFFF0001FFFFFFC0003FFFFFFE0001FFC0003FFFFFFE0
310
001FFF0003FFFFFFFFF0003FFFFFFFFFF000E0003FFFFF0001FF8001FFE00000
310
1FFE0007FF80007FC0007FFFFE0003FC0007FFFFE0003FF8000001FFFE000000
310
7FFFFFF0001FFFFFFE0003FFFFFFE0003FFE0003FFFFFFE0003FFF0003FFFFFF
310
FFF0003FFFFF8001F000E0003FFFFF0001FF0001FFE000001FFE0007FF80007F
310
C0007FFFFE0003FC0007FFFFE0003FF8000001FFFE0000007FFFFFF0001FFFFF
310
FE0001FFFFFFC0003FFE0001FFFFFFC0003FFF0003FFFFFFFFF0003FFFFF0001
310
F000E0003FFFFF0003FF0001FFE000003FFE0007FF80007FC0007FFFFE0003FC
310
0007FFFFE0003FF8000001FFFE0000007FFFFFF0001FFFFFFF0001FFFFFFC000
310
7FFF0001FFFFFFC0007FFF0003FFFFFFFFF0003FFFFF0001F000E0003FFFFE00
310
03FF0003FFF000003FFE0003FF80007FC0007FFFFC0003FE0007FFFFE0003FF8
310
000001FFFE0000007FFFFFF0001FFFFFFF0000FFFFFF80007FFF0000FFFFFF80
310
007FFF0003FFFFFFFFF0003FFFFF0001F000E0003FFFFE0003FF0003FFF00000
310
3FFF0003FF80007FC0007FFFFC0007FE0007FFFFC0003FF8000001FFFE000000
310
7FFFFFF0001FFFFFFF80007FFFFF0000FFFF80007FFFFF0000FFFF0003FFFFFF
310
FFF0003FFFFF0003F000E0003FFFFC0003FE0003FFF000003FFF0003FF80007F
310
E0003FFFF80007FE0003FFFFC0007FF8000001FFFE0000007FFFFFF0001FFFFF
310
FF80003FFFFE0000FFFF80003FFFFE0000FFFF0003FFFFFFFFF0001FFFFE0003
310
F000F0001FFFF80003FE0003FFF000007FFF0001FF80007FE0003FFFF00007FE
310
0001FFFF80007FF8000001FFFE0000007FFFFFF0001FFFFFFFC0000FFFF80001
310
FFFFC0000FFFF80001FFFF0003FFFFFFFFF0001FFFFC0003F000F0000FFFF000
310
07FE0007FFF800007FFF0001FF80007FE0001FFFE00007FF0000FFFE00007FF8
310
000001FFFE0000007FFFFFF0001FFFFFFFC00003FFE00001FFFFC00003FFE000
310
01FFFF0003FFFFFFFFF8000FFFF80003F000F00003FFC00007FC0007FFF80000
310
7FFF8001FF80007FF00007FF80000FFF00007FF80000FFF8000001FFFE000000
310
7F80000000000001FFE000003E000003FFFFE000003E000003FFFF0003FFFFFF
310
FFF80003FFE00007F000F800000000000FFC0007FFF800007FFF8001FF80007F
310
F000000000000FFF000000000000FFF8000001FFFE0000007F80000000000001
310
FFF0000000000007FFFFF0000000000007FFFF0003FFFFFFFFFC00007E000007
310
F000F800000000000FFC0007FFF80000FFFF8000FF80007FF800000000001FFF
310
800000000001FFF8000001FFFE0000007F80000000000001FFF800000000000F
310
FFFFF800000000000FFFFF0003FFFFFFFFFC00000000000FF000FC0000000000
310
1FFC0007FFFC0000FFFF8000FF80007FF800000000003FFFC00000000001FFF8
310
000001FFFE0000007F80000000000001FFF800000000000FFFFFF80000000000
310
0FFFFF0003FFFFFFFFFE00000000001FF000FE00000000003FF8000FFFFC0000
310
FFFF8000FF80007FFC00000000003FFFC00000000003FFF8000001FFFE000000
310
7F80000000000001FFFC00000000001FFFFFFC00000000001FFFFF0003FFFFFF
310
FFFF00000000001FF000FF00000000003FF8000FFFFC0000FFFFC000FF80007F
310
FE00000000007FFFE00000000007FFF8000001FFFE0000007F80000000000001
310
FFFE00000000003FFFFFFE00000000003FFFFF0003FFFFFFFFFF80000000003F
310
F000FF80000000007FF8000FFFFC0001FFFFC0007F80007FFF0000000000FFFF
310
F0000000000FFFF800000000000000007F80000000000001FFFF8000000000FF
310
FFFFFF8000000000FFFFFF0003FFFFFFFFFFC0000000007FF000FFC000000000
310
FFF8000FFFFE0001FFFFC0007F80007FFF8000000001FFFFF8000000001FFFF8
310
00000000000000007F80000000000001FFFFC000000001FFFFFFFFC000000001
310
FFFFFF0003FFFFFFFFFFE000000000FFF000FFE000000003FFF0001FFFFE0001
310
FFFFC0007F80007FFFC000000007FFFFFE000000003FFFF80000000000000000
310
7F80000000000001FFFFE000000003FFFFFFFFE000000003FFFFFF0003FFFFFF
310
FFFFF000000003FFF000FFF80000000FFFF0001FFFFE0001FFFFE0007F80007F
310
FFF00000000FFFFFFF00000000FFFFF800000000000000007F80000000000001
310
FFFFF80000000FFFFFFFFFF80000000FFFFFFF0003FFFFFFFFFFFC0000000FFF
310
F000FFFE0000003FFFF0001FFFFE0003FFFFE0003F80007FFFFC0000003FFFFF
310
FFC0000003FFFFF800000000000000007F80000000000001FFFFFE0000003FFF
310
FFFFFFFE0000003FFFFFFF0003FFFFFFFFFFFF0000003FFFF000FFFF800000FF
310
FFF0001FFFFF0003FFFFE0003F80007FFFFF000001FFFFFFFFF800001FFFFFF8
310
00000000000000007F80000000000001FFFFFFC00001FFFFFFFFFFFFC00001FF
310
FFFFFF0003FFFFFFFFFFFFC00000FFFFF000FFFFF8000FFFFFFFFFFFFFFFFFFF
310
FFFFFFFFFFFFFFFFFFFFF0001FFFFFFFFFFF0000FFFFFFF80000000000000000
310
7FFFFFFFFFFFFFFFFFFFFFFC001FFFFFFFFFFFFFFC001FFFFFFFFFFFFFFFFFFF
310
FFFFFFFC001FFFFFF000FFFFFFFFFFFFFFFFFFFFFFFFFFFFFFFFFFFFFFFFFFFF
310
FFFFFFFFFFFFFFFFFFFFFFFFFFFFFFFFFFFFFFFFFFFFFFFFFFFFFFFFFFFFFFFF
310
FFFFFFFFFFFFFFFFFFFFFFFFFFFFFFFFFFFFFFFFFFFFFFFFFFFFFFFFFFFFFFFF
310
F000FFFFFFFFFFFFFFFFFFFFFFFFFFFFFFFFFFFFFFFFFFFFFFFFFFFFFFFFFFFF
310
FFFFFFFFFFFFFFFFFFFFFFFFFFFFFFFFFFFFFFFFFFFFFFFFFFFFFFFFFFFFFFFF
310
FFFFFFFFFFFFFFFFFFFFFFFFFFFFFFFFFFFFFFFFFFFFFFFFF000FFFFFFFFFFFF
310
FFFFFFFFFFFFFFFFFFFFFFFFFFFFFFFFFFFFFFFFFFFFFFFFFFFFFFFFFFFFFFFF
310
FFFFFFFFFFFFFFFFFFFFFFFFFFFFFFFFFFFFFFFFFFFFFFFFFFFFFFFFFFFFFFFF
310
FFFFFFFFFFFFFFFFFFFFFFFFFFFFFFFFF000FFFFFFFFFFFFFFFFFFFFFFFFFFFF
310
FFFFFFFFFFFFFFFFFFFFFFFFFFFFFFFFFFFFFFFFFFFFFFFFFFFFFFFFFFFFFFFF
310
FFFFFFFFFFFFFFFFFFFFFFFFFFFFFFFFFFFFFFFFFFFFFFFFFFFFFFFFFFFFFFFF
310
FFFFFFFFFFFFFFFFF000FFFFFFFFFFFFFFFFFFFFFFFFFFFFFFFFFFFFFFFFFFFF
310
FFFFFFFFFFFFFFFFFFFFFFFFFFFFFFFFFFFFFFFFFFFFFFFFFFFFFFFFFFFFFFFF
310
FFFFFFFFFFFFFFFFFFFFFFFFFFFFFFFFFFFFFFFFFFFFFFFFFFFFFFFFFFFFFFFF
310
F000FFFFFFFFFFFFFFFFFFFFFFFFFFFFFFFFFFFFFFFFFFFFFFFFFFFFFFFFFFFF
310
FFFFFFFFFFFFFFFFFFFFFFFFFFFFFFFFFFFFFFFFFFFFFFFFFFFFFFFFFFFFFFFF
310
FFFFFFFFFFFFFFFFFFFFFFFFFFFFFFFFFFFFFFFFFFFFFFFFF000FFFFFFFFFFFF
310
FFFFFFFFFFFFFFFFFFFFFFFFFFFFFFFFFFFFFFFFFFFFFFFFFFFFFFFFFFFFFFFF
310
FFFFFFFFFFFFFFFFFFFFFFFFFFFFFFFFFFFFFFFFFFFFFFFFFFFFFFFFFFFFFFFF
310
FFFFFFFFFFFFFFFFFFFFFFFFFFFFFFFFF000FFFFFFFFFFFFFFFFFFFFFFFFFFFF
310
FFFFFFFFFFFFFFFFFFFFFFFFFFFFFFFFFFFFFFFFFFFFFFFFFFFFFFFFFFFFFFFF
310
FFFFFFFFFFFFFFFFFFFFFFFFFFFFFFFFFFFFFFFFFFFFFFFFFFFFFFFFFFFFFFFF
310
FFFFFFFFFFFFFFFFF000FFFFFFFFFFFFFFFFFFFFFFFFFFFFFFFFFFFFFFFFFFFF
310
FFFFFFFFFFFFFFFFFFFFFFFFFFFFFFFFFFFFFFFFFFFFFFFFFFFFFFFFFFFFFFFF
310
FFFFFFFFFFFFFFFFFFFFFFFFFFFFFFFFFFFFFFFFFFFFFFFFFFFFFFFFFFFFFFFF
310
F000FFFFFFFFFFFFFFFFFFFFFFFFFFFFFFFFFFFFFFFFFFFFFFFFFFFFFFFFFFFF
310
FFFFFFFFFFFFFFFFFFFFFFFFFFFFFFFFFFFFFFFFFFFFFFFFFFFFFFFFFFFFFFFF
310
FFFFFFFFFFFFFFFFFFFFFFFFFFFFFFFFFFFFFFFFFFFFFFFFF000FFFFFFFFFFFF
310
FFFFFFFFFFFFFFFFFFFFFFFFFFFFFFFFFFFFFFFFFFFFFFFFFFFFFFFFFFFFFFFF
310
FFFFFFFFFFFFFFFFFFFFFFFFFFFFFFFFFFFFFFFFFFFFFFFFFFFFFFFFFFFFFFFF
310
FFFFFFFFFFFFFFFFFFFFFFFFFFFFFFFFF000FFFFFFFFFFFFFFFFFFFFFFFFFFFF
310
FFFFFFFFFFFFFFFFFFFFFFFFFFFFFFFFFFFFFFFFFFFFFFFFFFFFFFFFFFFFFFFF
310
FFFFFFFFFFFFFFFFFFFFFFFFFFFFFFFFFFFFFFFFFFFFFFFFFFFFFFFFFFFFFFFF
310
FFFFFFFFFFFFFFFFF000FFFFFFFFFFFFFFFFFFFFFFFFFFFFFFFFFFFFFFFFFFFF
310
FFFFFFFFFFFFFFFFFFFFFFFFFFFFFFFFFFFFFFFFFFFFFFFFFFFFFFFFFFFFFFFF
310
FFFFFFFFFFFFFFFFFFFFFFFFFFFFFFFFFFFFFFFFFFFFFFFFFFFFFFFFFFFFFFFF
310
F000FFFFFFFFFFFFFFFFFFFFFFFFFFFFFFFFFFFFFFFFFFFFFFFFFFFFFFFFFFFF
310
FFFFFFFFFFFFFFFFFFFFFFFFFFFFFFFFFFFFFFFFFFFFFFFFFFFFFFFFFFFFFFFF
310
FFFFFFFFFFFFFFFFFFFFFFFFFFFFFFFFFFFFFFFFFFFFFFFFF000FFFFFFFFFFFF
310
FFFFFFFFFFFFFFFFFFFFFFFFFFFFFFFFFFFFFFFFFFFFFFFFFFFFFFFFFFFFFFFF
310
FFFFFFFFFFFFFFFFFFFFFFFFFFFFFFFFFFFFFFFFFFFFFFFFFFFFFFFFFFFFFFFF
310
FFFFFFFFFFFFFFFFFFFFFFFFFFFFFFFFF000FFFFFFFFFFFFFFFFFFFFFFFFFFFF
310
FFFFFFFFFFFFFFFFFFFFFFFFFFFFFFFFFFFFFFFFFFFFFFFFFFFFFFFFFFFFFFFF
310
FFFFFFFFFFFFFFFFFFFFFFFFFFFFFFFFFFFFFFFFFFFFFFFFFFFFFFFFFFFFFFFF
310
FFFFFFFFFFFFFFFFF000FFFFFFFFFFFFFFFFFFFFFFFFFFFFFFFFFFFFFFFFFFFF
310
FFFFFFFFFFFFFFFFFFFFFFFFFFFFFFFFFFFFFFFFFFFFFFFFFFFFFFFFFFFFFFFF
310
FFFFFFFFFFFFFFFFFFFFFFFFFFFFFFFFFFFFFFFFFFFFFFFFFFFFFFFFFFFFFFFF
310
F000FFFFFFFFFFFFFFFFFFFFFFFFFFFFFFFFFFFFFFFFFFFFFFFFFFFFFFFFFFFF
310
FFFFFFFFFFFFFFFFFFFFFFFFFFFFFFFFFFFFFFFFFFFFFFFFFFFFFFFFFFFFFFFF
310
FFFFFFFFFFFFFFFFFFFFFFFFFFFFFFFFFFFFFFFFFFFFFFFFF000FFFFFFFFFFFF
310
FFFFFFFFFFFFFFFFFFFFFFFFFFFFFFFFFFFFFFFFFFFFFFFFFFFFFFFFFFFFFFFF
310
FFFFFFFFFFFFFFFFFFFFFFFFFFFFFFFFFFFFFFFFFFFFFFFFFFFFFFFFFFFFFFFF
310
FFFFFFFFFFFFFFFFFFFFFFFFFFFFFFFFF000FFFFFFFFFFFFFFFFFFFFFFFFFFFF
310
FFFFFFFFFFFFFFFFFFFFFFFFFFFFFFFFFFFFFFFFFFFFFFFFFFFFFFFFFFFFFFFF
310
FFFFFFFFFFFFFFFFFFFFFFFFFFFFFFFFFFFFFFFFFFFFFFFFFFFFFFFFFFFFFFFF
310
FFFFFFFFFFFFFFFFF000FFFFFFFFFFFFFFFFFFFFFFFFFFFFFFFFFFFFFFFFFFFF
310
FFFFFFFFFFFFFFFFFFFFFFFFFFFFFFFFFFFFFFFFFFFFFFFFFFFFFFFFFFFFFFFF
310
FFFFFFFFFFFFFFFFFFFFFFFFFFFFFFFFFFFFFFFFFFFFFFFFFFFFFFFFFFFFFFFF
310
F000FFFFFFFFFFFFFFFFFFFFFFFFFFFFFFFFFFFFFFFFFFFFFFFFFFFFFFFFFFFF
310
FFFFFFFFFFFFFFFFFFFFFFFFFFFFFFFFFFFFFFFFFFFFFFFFFFFFFFFFFFFFFFFF
310
FFFFFFFFFFFFFFFFFFFFFFFFFFFFFFFFFFFFFFFFFFFFFFFFF000FFFFFFFFFFFF
310
FFFFFFFFFFFFFFFFFFFFFFFFFFFFFFFFFFFFFFFFFFFFFFFFFFFFFFFFFFFFFFFF
310
FFFFFFFFFFFFFFFFFFFFFFFFFFFFFFFFFFFFFFFFFFFFFFFFFFFFFFFFFFFFFFFF
310
FFFFFFFFFFFFFFFFFFFFFFFFFFFFFFFFF0000000000000000000000000000000
310
0000000000000000000000000000000000000000000000000000000000000000
310
0000000000000000000000000000000000000000000000000000000000000000
310
0000000000000000000000000000000000000000000000000000000000000000
310
0000000000000000000000000000000000000000000000000000000000000000
310
0000000000000000000000000000000000000000000000000000000000000000
310
0000000000000000000000000000000000000000000000000000000000000000
310
0000000000000000000000000000000000000000000000000000000000000000
310
0000000000000000000000000000000000000000000000000000000000000000
310
0000000000000000000000000000000000000000000000000000000000000000
310
0000000000000000000000000000000000000000000000000000000000000000
310
0000000000000000000000000000000000000000000000000000000000000000
310
0000000000000000000000000000000000000000000000000000000000000000
310
0000000000000000000000000000000000000000000000000000000000000000
310
0000000000000000000000000000000000000000000000000000000000000000
310
0000000000000000000000000000000000000000000000000000000000000000
  1
OLE
  0
ENDSEC
  0
SECTION
  2
OBJECTS
  0
DICTIONARY
  5
C
330
0
100
AcDbDictionary
281
     1
  3
ACAD_GROUP
350
D
  3
ACAD_LAYOUT
350
1A
  3
ACAD_MLINESTYLE
350
17
  3
ACAD_PLOTSETTINGS
350
19
  3
ACAD_PLOTSTYLENAME
350
E
  0
DICTIONARY
  5
D
102
{ACAD_REACTORS
330
C
102
}
330
C
100
AcDbDictionary
281
     1
  0
DICTIONARY
  5
1A
102
{ACAD_REACTORS
330
C
102
}
330
C
100
AcDbDictionary
281
     1
  3
Layout1
350
1E
  3
Layout2
350
26
  3
Model
350
22
  0
DICTIONARY
  5
17
102
{ACAD_REACTORS
330
C
102
}
330
C
100
AcDbDictionary
281
     1
  3
Standard
350
18
  0
DICTIONARY
  5
19
102
{ACAD_REACTORS
330
C
102
}
330
C
100
AcDbDictionary
281
     1
  0
ACDBDICTIONARYWDFLT
  5
E
102
{ACAD_REACTORS
330
C
102
}
330
C
100
AcDbDictionary
281
     1
  3
Normal
350
F
100
AcDbDictionaryWithDefault
340
F
  0
LAYOUT
  5
1E
102
{ACAD_REACTORS
330
1A
102
}
330
1A
100
AcDbPlotSettings
  1

  2
none_device
  4

  6

 40
0.0
 41
0.0
 42
0.0
 43
0.0
 44
0.0
 45
0.0
 46
0.0
 47
0.0
 48
0.0
 49
0.0
140
0.0
141
0.0
142
1.0
143
1.0
 70
   688
 72
     0
 73
     0
 74
     5
  7

 75
    16
147
1.0
148
0.0
149
0.0
100
AcDbLayout
  1
Layout1
 70
     1
 71
     1
 10
0.0
 20
0.0
 11
420.0
 21
297.0
 12
0.0
 22
0.0
 32
0.0
 14
1.0000000000E+20
 24
1.0000000000E+20
 34
1.0000000000E+20
 15
-1.0000000000E+20
 25
-1.0000000000E+20
 35
-1.0000000000E+20
146
0.0
 13
0.0
 23
0.0
 33
0.0
 16
1.0
 26
0.0
 36
0.0
 17
0.0
 27
1.0
 37
0.0
 76
     0
330
1B
  0
LAYOUT
  5
26
102
{ACAD_REACTORS
330
1A
102
}
330
1A
100
AcDbPlotSettings
  1

  2
none_device
  4

  6

 40
0.0
 41
0.0
 42
0.0
 43
0.0
 44
0.0
 45
0.0
 46
0.0
 47
0.0
 48
0.0
 49
0.0
140
0.0
141
0.0
142
1.0
143
1.0
 70
   688
 72
     0
 73
     0
 74
     5
  7

 75
    16
147
1.0
148
0.0
149
0.0
100
AcDbLayout
  1
Layout2
 70
     1
 71
     2
 10
0.0
 20
0.0
 11
0.0
 21
0.0
 12
0.0
 22
0.0
 32
0.0
 14
0.0
 24
0.0
 34
0.0
 15
0.0
 25
0.0
 35
0.0
146
0.0
 13
0.0
 23
0.0
 33
0.0
 16
1.0
 26
0.0
 36
0.0
 17
0.0
 27
1.0
 37
0.0
 76
     0
330
23
  0
LAYOUT
  5
22
102
{ACAD_REACTORS
330
1A
102
}
330
1A
100
AcDbPlotSettings
  1

  2
none_device
  4

  6

 40
0.0
 41
0.0
 42
0.0
 43
0.0
 44
0.0
 45
0.0
 46
0.0
 47
0.0
 48
0.0
 49
0.0
140
0.0
141
0.0
142
1.0
143
1.0
 70
  1712
 72
     0
 73
     0
 74
     0
  7

 75
     0
147
1.0
148
0.0
149
0.0
100
AcDbLayout
  1
Model
 70
     1
 71
     0
 10
0.0
 20
0.0
 11
297.0
 21
210.0
 12
0.0
 22
0.0
 32
0.0
 14
0.0
 24
0.0
 34
0.0
 15
297.0
 25
210.0
 35
0.0
146
0.0
 13
0.0
 23
0.0
 33
0.0
 16
1.0
 26
0.0
 36
0.0
 17
0.0
 27
1.0
 37
0.0
 76
     0
330
1F
331
29
  0
MLINESTYLE
  5
18
102
{ACAD_REACTORS
330
17
102
}
330
17
100
AcDbMlineStyle
  2
Standard
 70
     0
  3

 62
   256
 51
90.0
 52
90.0
 71
     2
 49
0.5
 62
   256
  6
BYLAYER
 49
-0.5
 62
   256
  6
BYLAYER
  0
ACDBPLACEHOLDER
  5
F
102
{ACAD_REACTORS
330
E
102
}
330
E
  0
ENDSEC
  0
EOF
