  0
SECTION
  2
HEADER
  9
$ACADVER
  1
AC1015
  9
$ACADMAINTVER
 70
     6
  9
$DWGCODEPAGE
  3
ANSI_1252
  9
$INSBASE
 10
0.0
 20
0.0
 30
0.0
  9
$EXTMIN
 10
0.0
 20
0.0
 30
0.0
  9
$EXTMAX
 10
297.0
 20
210.0
 30
0.0
  9
$LIMMIN
 10
0.0
 20
0.0
  9
$LIMMAX
 10
297.0
 20
210.0
  9
$ORTHOMODE
 70
     0
  9
$REGENMODE
 70
     1
  9
$FILLMODE
 70
     1
  9
$QTEXTMODE
 70
     0
  9
$MIRRTEXT
 70
     1
  9
$LTSCALE
 40
1.0
  9
$ATTMODE
 70
     1
  9
$TEXTSIZE
 40
2.0
  9
$TRACEWID
 40
1.0
  9
$TEXTSTYLE
  7
Standard
  9
$CLAYER
  8
0
  9
$CELTYPE
  6
ByLayer
  9
$CECOLOR
 62
   256
  9
$CELTSCALE
 40
1.0
  9
$DISPSILH
 70
     0
  9
$DIMSCALE
 40
1.0
  9
$DIMASZ
 40
3.0
  9
$DIMEXO
 40
0.0
  9
$DIMDLI
 40
3.75
  9
$DIMRND
 40
0.0
  9
$DIMDLE
 40
0.0
  9
$DIMEXE
 40
1.0
  9
$DIMTP
 40
0.0
  9
$DIMTM
 40
0.0
  9
$DIMTXT
 40
2.0
  9
$DIMCEN
 40
2.5
  9
$DIMTSZ
 40
0.0
  9
$DIMTOL
 70
     0
  9
$DIMLIM
 70
     0
  9
$DIMTIH
 70
     1
  9
$DIMTOH
 70
     1
  9
$DIMSE1
 70
     0
  9
$DIMSE2
 70
     0
  9
$DIMTAD
 70
     1
  9
$DIMZIN
 70
     0
  9
$DIMBLK
  1

  9
$DIMASO
 70
     1
  9
$DIMSHO
 70
     1
  9
$DIMPOST
  1

  9
$DIMAPOST
  1

  9
$DIMALT
 70
     0
  9
$DIMALTD
 70
     3
  9
$DIMALTF
 40
0.0393700787
  9
$DIMLFAC
 40
1.0
  9
$DIMTOFL
 70
     1
  9
$DIMTVP
 40
0.0
  9
$DIMTIX
 70
     0
  9
$DIMSOXD
 70
     0
  9
$DIMSAH
 70
     0
  9
$DIMBLK1
  1

  9
$DIMBLK2
  1

  9
$DIMSTYLE
  2
ISO-25
  9
$DIMCLRD
 70
     0
  9
$DIMCLRE
 70
     0
  9
$DIMCLRT
 70
     0
  9
$DIMTFAC
 40
1.0
  9
$DIMGAP
 40
1.524
  9
$DIMJUST
 70
     0
  9
$DIMSD1
 70
     0
  9
$DIMSD2
 70
     0
  9
$DIMTOLJ
 70
     0
  9
$DIMTZIN
 70
     0
  9
$DIMALTZ
 70
     0
  9
$DIMALTTZ
 70
     0
  9
$DIMUPT
 70
     0
  9
$DIMDEC
 70
     2
  9
$DIMTDEC
 70
     3
  9
$DIMALTU
 70
     2
  9
$DIMALTTD
 70
     3
  9
$DIMTXSTY
  7
Standard
  9
$DIMAUNIT
 70
     0
  9
$DIMADEC
 70
     2
  9
$DIMALTRND
 40
0.0
  9
$DIMAZIN
 70
     0
  9
$DIMDSEP
 70
    44
  9
$DIMATFIT
 70
     3
  9
$DIMFRAC
 70
     0
  9
$DIMLDRBLK
  1

  9
$DIMLUNIT
 70
     2
  9
$DIMLWD
 70
    -2
  9
$DIMLWE
 70
    -2
  9
$DIMTMOVE
 70
     0
  9
$LUNITS
 70
     2
  9
$LUPREC
 70
     2
  9
$SKETCHINC
 40
1.0
  9
$FILLETRAD
 40
10.0
  9
$AUNITS
 70
     0
  9
$AUPREC
 70
     2
  9
$MENU
  1
.
  9
$ELEVATION
 40
0.0
  9
$PELEVATION
 40
0.0
  9
$THICKNESS
 40
0.0
  9
$LIMCHECK
 70
     0
  9
$CHAMFERA
 40
10.0
  9
$CHAMFERB
 40
10.0
  9
$CHAMFERC
 40
20.0
  9
$CHAMFERD
 40
0.0
  9
$SKPOLY
 70
     0
  9
$TDCREATE
 40
2456044.68071706
  9
$TDUCREATE
 40
2456044.597383727
  9
$TDUPDATE
 40
2456044.680718496
  9
$TDUUPDATE
 40
2456044.597385162
  9
$TDINDWG
 40
0.0000000116
  9
$TDUSRTIMER
 40
0.0000000116
  9
$USRTIMER
 70
     1
  9
$ANGBASE
 50
0.0
  9
$ANGDIR
 70
     0
  9
$PDMODE
 70
     0
  9
$PDSIZE
 40
-1.0
  9
$PLINEWID
 40
0.0
  9
$SPLFRAME
 70
     0
  9
$SPLINETYPE
 70
     6
  9
$SPLINESEGS
 70
     8
  9
$HANDSEED
  5
26A
  9
$SURFTAB1
 70
     6
  9
$SURFTAB2
 70
     6
  9
$SURFTYPE
 70
     6
  9
$SURFU
 70
     6
  9
$SURFV
 70
     6
  9
$UCSBASE
  2

  9
$UCSNAME
  2

  9
$UCSORG
 10
0.0
 20
0.0
 30
0.0
  9
$UCSXDIR
 10
1.0
 20
0.0
 30
0.0
  9
$UCSYDIR
 10
0.0
 20
1.0
 30
0.0
  9
$UCSORTHOREF
  2

  9
$UCSORTHOVIEW
 70
     0
  9
$UCSORGTOP
 10
0.0
 20
0.0
 30
0.0
  9
$UCSORGBOTTOM
 10
0.0
 20
0.0
 30
0.0
  9
$UCSORGLEFT
 10
0.0
 20
0.0
 30
0.0
  9
$UCSORGRIGHT
 10
0.0
 20
0.0
 30
0.0
  9
$UCSORGFRONT
 10
0.0
 20
0.0
 30
0.0
  9
$UCSORGBACK
 10
0.0
 20
0.0
 30
0.0
  9
$PUCSBASE
  2

  9
$PUCSNAME
  2

  9
$PUCSORG
 10
0.0
 20
0.0
 30
0.0
  9
$PUCSXDIR
 10
1.0
 20
0.0
 30
0.0
  9
$PUCSYDIR
 10
0.0
 20
1.0
 30
0.0
  9
$PUCSORTHOREF
  2

  9
$PUCSORTHOVIEW
 70
     0
  9
$PUCSORGTOP
 10
0.0
 20
0.0
 30
0.0
  9
$PUCSORGBOTTOM
 10
0.0
 20
0.0
 30
0.0
  9
$PUCSORGLEFT
 10
0.0
 20
0.0
 30
0.0
  9
$PUCSORGRIGHT
 10
0.0
 20
0.0
 30
0.0
  9
$PUCSORGFRONT
 10
0.0
 20
0.0
 30
0.0
  9
$PUCSORGBACK
 10
0.0
 20
0.0
 30
0.0
  9
$USERI1
 70
     0
  9
$USERI2
 70
     0
  9
$USERI3
 70
     0
  9
$USERI4
 70
     0
  9
$USERI5
 70
     0
  9
$USERR1
 40
0.0
  9
$USERR2
 40
0.0
  9
$USERR3
 40
0.0
  9
$USERR4
 40
0.0
  9
$USERR5
 40
0.0
  9
$WORLDVIEW
 70
     1
  9
$SHADEDGE
 70
     3
  9
$SHADEDIF
 70
    70
  9
$TILEMODE
 70
     1
  9
$MAXACTVP
 70
    64
  9
$PINSBASE
 10
0.0
 20
0.0
 30
0.0
  9
$PLIMCHECK
 70
     0
  9
$PEXTMIN
 10
1.0000000000E+20
 20
1.0000000000E+20
 30
1.0000000000E+20
  9
$PEXTMAX
 10
-1.0000000000E+20
 20
-1.0000000000E+20
 30
-1.0000000000E+20
  9
$PLIMMIN
 10
0.0
 20
0.0
  9
$PLIMMAX
 10
420.0
 20
297.0
  9
$UNITMODE
 70
     0
  9
$VISRETAIN
 70
     1
  9
$PLINEGEN
 70
     0
  9
$PSLTSCALE
 70
     1
  9
$TREEDEPTH
 70
  3020
  9
$CMLSTYLE
  2
Standard
  9
$CMLJUST
 70
     0
  9
$CMLSCALE
 40
20.0
  9
$PROXYGRAPHICS
 70
     1
  9
$MEASUREMENT
 70
     1
  9
$CELWEIGHT
370
    -1
  9
$ENDCAPS
280
     0
  9
$JOINSTYLE
280
     0
  9
$LWDISPLAY
290
     1
  9
$INSUNITS
 70
     4
  9
$HYPERLINKBASE
  1

  9
$STYLESHEET
  1

  9
$XEDIT
290
     1
  9
$CEPSNTYPE
380
     0
  9
$PSTYLEMODE
290
     1
  9
$FINGERPRINTGUID
  2
{60F31409-031C-4ED3-9542-E5AD9E3F7B73}
  9
$VERSIONGUID
  2
{FAEB1C32-E019-11D5-929B-00C0DF256EC4}
  9
$EXTNAMES
290
     1
  9
$PSVPSCALE
 40
0.0
  9
$OLESTARTUP
290
     0
  0
ENDSEC
  0
SECTION
  2
CLASSES
  0
CLASS
  1
ACDBDICTIONARYWDFLT
  2
AcDbDictionaryWithDefault
  3
ObjectDBX Classes
 90
        0
280
     0
281
     0
  0
CLASS
  1
VISUALSTYLE
  2
AcDbVisualStyle
  3
ObjectDBX Classes
 90
     4095
280
     0
281
     0
  0
CLASS
  1
MATERIAL
  2
AcDbMaterial
  3
ObjectDBX Classes
 90
     1153
280
     0
281
     0
  0
CLASS
  1
ACDBPLACEHOLDER
  2
AcDbPlaceHolder
  3
ObjectDBX Classes
 90
        0
280
     0
281
     0
  0
CLASS
  1
LAYOUT
  2
AcDbLayout
  3
ObjectDBX Classes
 90
        0
280
     0
281
     0
  0
ENDSEC
  0
SECTION
  2
TABLES
  0
TABLE
  2
VPORT
  5
8
330
0
100
AcDbSymbolTable
 70
     1
  0
VPORT
  5
29
330
8
100
AcDbSymbolTableRecord
100
AcDbViewportTableRecord
  2
*Active
 70
     0
 10
0.0
 20
0.0
 11
1.0
 21
1.0
 12
148.5
 22
105.0
 13
0.0
 23
0.0
 14
10.0
 24
10.0
 15
10.0
 25
10.0
 16
0.0
 26
0.0
 36
1.0
 17
0.0
 27
0.0
 37
0.0
 40
210.0
 41
1.4142857143
 42
50.0
 43
0.0
 44
0.0
 50
0.0
 51
0.0
 71
     0
 72
  2000
 73
     1
 74
     3
 75
     0
 76
     0
 77
     0
 78
     0
281
     0
 65
     1
110
0.0
120
0.0
130
0.0
111
1.0
121
0.0
131
0.0
112
0.0
122
1.0
132
0.0
 79
     0
146
0.0
  0
ENDTAB
  0
TABLE
  2
LTYPE
  5
5
330
0
100
AcDbSymbolTable
 70
     6
  0
LTYPE
  5
14
330
5
100
AcDbSymbolTableRecord
100
AcDbLinetypeTableRecord
  2
ByBlock
 70
     0
  3

 72
    65
 73
     0
 40
0.0
  0
LTYPE
  5
15
330
5
100
AcDbSymbolTableRecord
100
AcDbLinetypeTableRecord
  2
ByLayer
 70
     0
  3

 72
    65
 73
     0
 40
0.0
  0
LTYPE
  5
16
330
5
100
AcDbSymbolTableRecord
100
AcDbLinetypeTableRecord
  2
Continuous
 70
     0
  3
Solid line
 72
    65
 73
     0
 40
0.0
  0
LTYPE
  5
3F
330
5
100
AcDbSymbolTableRecord
100
AcDbLinetypeTableRecord
  2
HIDDEN
 70
     0
  3
Hidden __ __ __ __ __ __ __ __ __ __ __ __ __ __
 72
    65
 73
     2
 40
1.905
 49
1.27
 74
     0
 49
-0.635
 74
     0
  0
LTYPE
  5
40
330
5
100
AcDbSymbolTableRecord
100
AcDbLinetypeTableRecord
  2
PHANTOM
 70
     0
  3
Phantom ______  __  __  ______  __  __  ______
 72
    65
 73
     6
 40
12.7
 49
6.35
 74
     0
 49
-1.27
 74
     0
 49
1.27
 74
     0
 49
-1.27
 74
     0
 49
1.27
 74
     0
 49
-1.27
 74
     0
  0
LTYPE
  5
41
330
5
100
AcDbSymbolTableRecord
100
AcDbLinetypeTableRecord
  2
CENTER
 70
     0
  3
Center ____ _ ____ _ ____ _ ____ _ ____ _ ____
 72
    65
 73
     4
 40
10.16
 49
6.35
 74
     0
 49
-1.27
 74
     0
 49
1.27
 74
     0
 49
-1.27
 74
     0
  0
LTYPE
  5
42
330
5
100
AcDbSymbolTableRecord
100
AcDbLinetypeTableRecord
  2
CENTERX2
 70
     0
  3
Center (2x) ________  __  ________  __  _____
 72
    65
 73
     4
 40
20.32
 49
12.7
 74
     0
 49
-2.54
 74
     0
 49
2.54
 74
     0
 49
-2.54
 74
     0
  0
LTYPE
  5
43
330
5
100
AcDbSymbolTableRecord
100
AcDbLinetypeTableRecord
  2
DOT2
 70
     0
  3
Dot (.5x) ........................................
 72
    65
 73
     2
 40
0.635
 49
0.0
 74
     0
 49
-0.635
 74
     0
  0
ENDTAB
  0
TABLE
  2
LAYER
  5
2
330
0
100
AcDbSymbolTable
 70
     5
  0
LAYER
  5
10
330
2
100
AcDbSymbolTableRecord
100
AcDbLayerTableRecord
  2
0
 70
     0
 62
     7
  6
Continuous
370
    -3
390
F
  0
LAYER
  5
44
330
2
100
AcDbSymbolTableRecord
100
AcDbLayerTableRecord
  2
FORMAT
 70
     0
 62
     7
  6
Continuous
370
    -3
390
F
  0
LAYER
  5
45
330
2
100
AcDbSymbolTableRecord
100
AcDbLayerTableRecord
  2
VERMASSUNG
 70
     0
 62
     7
  6
Continuous
370
    -3
390
F
  0
LAYER
  5
46
330
2
100
AcDbSymbolTableRecord
100
AcDbLayerTableRecord
  2
KOPF_DÜNN
 70
     0
 62
     7
  6
Continuous
370
    -3
390
F
  0
LAYER
  5
47
330
2
100
AcDbSymbolTableRecord
100
AcDbLayerTableRecord
  2
KOPF_DICK
 70
     0
 62
     7
  6
Continuous
370
    15
390
F
  0
ENDTAB
  0
TABLE
  2
STYLE
  5
3
330
0
100
AcDbSymbolTable
 70
     2
  0
STYLE
  5
11
330
3
100
AcDbSymbolTableRecord
100
AcDbTextStyleTableRecord
  2
Standard
 70
     0
 40
0.0
 41
1.0
 50
0.0
 71
     0
 42
2.0
  3
txt
  4

  0
STYLE
  5
48
330
3
100
AcDbSymbolTableRecord
100
AcDbTextStyleTableRecord
  2
SLDTEXTSTYLE0
 70
     0
 40
0.0
 41
0.7
 50
0.0
 71
     0
 42
0.2
  3
TXT
  4

  0
ENDTAB
  0
TABLE
  2
VIEW
  5
6
330
0
100
AcDbSymbolTable
 70
     0
  0
ENDTAB
  0
TABLE
  2
UCS
  5
7
330
0
100
AcDbSymbolTable
 70
     0
  0
ENDTAB
  0
TABLE
  2
APPID
  5
9
330
0
100
AcDbSymbolTable
 70
     1
  0
APPID
  5
12
330
9
100
AcDbSymbolTableRecord
100
AcDbRegAppTableRecord
  2
ACAD
 70
     0
  0
ENDTAB
  0
TABLE
  2
DIMSTYLE
  5
A
330
0
100
AcDbSymbolTable
 70
     4
100
AcDbDimStyleTable
  0
DIMSTYLE
105
27
330
A
100
AcDbSymbolTableRecord
100
AcDbDimStyleTableRecord
  2
ISO-25
 70
     0
 41
2.5
 42
0.625
 43
3.75
 44
1.25
 73
     0
 74
     0
 77
     1
 78
     8
140
2.5
141
2.5
143
0.0393700787
147
0.625
171
     3
172
     1
178
     0
271
     2
272
     2
274
     3
278
    44
283
     0
284
     8
340
11
  0
DIMSTYLE
105
1C1
102
{ACAD_REACTORS
330
1C0
330
1EF
102
}
330
A
100
AcDbSymbolTableRecord
100
AcDbDimStyleTableRecord
  2
SLDDIMSTYLE0
 70
     0
 41
3.0
 44
0.0
 45
0.000000001
 73
     0
 74
     0
 77
     1
 78
    12
 79
     3
140
2.0
147
0.5
173
     1
178
     0
271
     2
272
     3
276
     2
284
    12
340
48
  0
DIMSTYLE
105
1CC
102
{ACAD_REACTORS
330
1CB
330
1D8
102
}
330
A
100
AcDbSymbolTableRecord
100
AcDbDimStyleTableRecord
  2
SLDDIMSTYLE1
 70
     0
 41
3.0
 44
0.0
 45
0.000000001
 47
0.1
 48
0.1
 71
     1
 73
     0
 74
     0
 77
     1
 78
    12
 79
     3
140
2.0
147
0.5
173
     1
178
     0
271
     2
272
     1
276
     2
284
     8
340
48
  0
DIMSTYLE
105
1E5
102
{ACAD_REACTORS
330
1E4
102
}
330
A
100
AcDbSymbolTableRecord
100
AcDbDimStyleTableRecord
  2
SLDDIMSTYLE2
 70
     0
 41
3.0
 44
0.0
 73
     0
 74
     0
 77
     1
 78
    12
 79
     3
140
2.0
147
0.5
173
     1
178
     0
179
     1
272
     3
276
     2
284
    12
340
48
  0
ENDTAB
  0
TABLE
  2
BLOCK_RECORD
  5
1
330
0
100
AcDbSymbolTable
 70
     7
  0
BLOCK_RECORD
  5
1F
330
1
100
AcDbSymbolTableRecord
100
AcDbBlockTableRecord
  2
*Model_Space
340
22
  0
BLOCK_RECORD
  5
1B
330
1
100
AcDbSymbolTableRecord
100
AcDbBlockTableRecord
  2
*Paper_Space
340
1E
  0
BLOCK_RECORD
  5
23
330
1
100
AcDbSymbolTableRecord
100
AcDbBlockTableRecord
  2
*Paper_Space0
340
26
  0
BLOCK_RECORD
  5
1C2
330
1
100
AcDbSymbolTableRecord
100
AcDbBlockTableRecord
  2
_D
340
0
  0
BLOCK_RECORD
  5
1CD
330
1
100
AcDbSymbolTableRecord
100
AcDbBlockTableRecord
  2
_D_1
340
0
  0
BLOCK_RECORD
  5
1D9
330
1
100
AcDbSymbolTableRecord
100
AcDbBlockTableRecord
  2
_D_2
340
0
  0
BLOCK_RECORD
  5
1E6
330
1
100
AcDbSymbolTableRecord
100
AcDbBlockTableRecord
  2
_D_3
340
0
  0
BLOCK_RECORD
  5
1F0
330
1
100
AcDbSymbolTableRecord
100
AcDbBlockTableRecord
  2
_D_4
340
0
  0
BLOCK_RECORD
  5
25D
330
1
100
AcDbSymbolTableRecord
100
AcDbBlockTableRecord
  2
SW_CENTERMARKSYMBOL_0
340
0
102
{BLKREFS
331
268
102
}
  0
ENDTAB
  0
ENDSEC
  0
SECTION
  2
BLOCKS
  0
BLOCK
  5
20
330
1F
100
AcDbEntity
  8
0
100
AcDbBlockBegin
  2
*Model_Space
 70
     0
 10
0.0
 20
0.0
 30
0.0
  3
*Model_Space
  1

  0
ENDBLK
  5
21
330
1F
100
AcDbEntity
  8
0
100
AcDbBlockEnd
  0
BLOCK
  5
1C
330
1B
100
AcDbEntity
 67
     1
  8
0
100
AcDbBlockBegin
  2
*Paper_Space
 70
     0
 10
0.0
 20
0.0
 30
0.0
  3
*Paper_Space
  1

  0
ENDBLK
  5
1D
330
1B
100
AcDbEntity
 67
     1
  8
0
100
AcDbBlockEnd
  0
BLOCK
  5
24
330
23
100
AcDbEntity
  8
0
100
AcDbBlockBegin
  2
*Paper_Space0
 70
     0
 10
0.0
 20
0.0
 30
0.0
  3
*Paper_Space0
  1

  0
ENDBLK
  5
25
330
23
100
AcDbEntity
  8
0
100
AcDbBlockEnd
  0
BLOCK
  5
1C3
330
1C2
100
AcDbEntity
  8
0
100
AcDbBlockBegin
  2
_D
 70
     0
 10
0.0
 20
0.0
 30
0.0
  3
_D
  1

  0
SOLID
  5
1C5
330
1C2
100
AcDbEntity
  8
VERMASSUNG
100
AcDbTrace
 10
142.1936463544
 20
161.4571588497
 30
0.0
 11
145.1936463544
 21
161.0071588497
 31
0.0
 12
145.1936463544
 22
161.9071588497
 32
0.0
 13
145.1936463544
 23
161.9071588497
 33
0.0
  0
SOLID
  5
1C6
330
1C2
100
AcDbEntity
  8
VERMASSUNG
100
AcDbTrace
 10
232.1936463544
 20
161.4571588497
 30
0.0
 11
229.1936463544
 21
161.9071588497
 31
0.0
 12
229.1936463544
 22
161.0071588497
 32
0.0
 13
229.1936463544
 23
161.0071588497
 33
0.0
  0
LINE
  5
1C7
330
1C2
100
AcDbEntity
  8
VERMASSUNG
100
AcDbLine
 10
142.1936463544
 20
126.2866271198
 30
0.0
 11
142.1936463544
 21
162.4571588497
 31
0.0
  0
LINE
  5
1C8
330
1C2
100
AcDbEntity
  8
VERMASSUNG
100
AcDbLine
 10
232.1936463544
 20
145.2933012816
 30
0.0
 11
232.1936463544
 21
162.4571588497
 31
0.0
  0
LINE
  5
1C9
330
1C2
100
AcDbEntity
  8
VERMASSUNG
100
AcDbLine
 10
142.1936463544
 20
161.4571588497
 30
0.0
 11
232.1936463544
 21
161.4571588497
 31
0.0
  0
MTEXT
  5
1CA
330
1C2
100
AcDbEntity
  8
VERMASSUNG
100
AcDbMText
 10
184.8936463034
 20
164.0352942128
 30
0.1
 40
2.0
 41
0.0
 71
     1
 72
     1
  1
90
  7
SLDTEXTSTYLE0
 73
     1
 44
1.0
  0
ENDBLK
  5
1C4
330
1C2
100
AcDbEntity
  8
0
100
AcDbBlockEnd
  0
BLOCK
  5
1CE
330
1CD
100
AcDbEntity
  8
0
100
AcDbBlockBegin
  2
_D_1
 70
     0
 10
0.0
 20
0.0
 30
0.0
  3
_D_1
  1

  0
SOLID
  5
1D0
330
1CD
100
AcDbEntity
  8
VERMASSUNG
100
AcDbTrace
 10
251.6264572654
 20
145.2933012816
 30
0.0
 11
251.1764572654
 21
142.2933012816
 31
0.0
 12
252.0764572654
 22
142.2933012816
 32
0.0
 13
252.0764572654
 23
142.2933012816
 33
0.0
  0
SOLID
  5
1D1
330
1CD
100
AcDbEntity
  8
VERMASSUNG
100
AcDbTrace
 10
251.6264572654
 20
110.2933012816
 30
0.0
 11
252.0764572654
 21
113.2933012816
 31
0.0
 12
251.1764572654
 22
113.2933012816
 32
0.0
 13
251.1764572654
 23
113.2933012816
 33
0.0
  0
LINE
  5
1D2
330
1CD
100
AcDbEntity
  8
VERMASSUNG
100
AcDbLine
 10
232.1936463544
 20
145.2933012816
 30
0.0
 11
252.6264572654
 21
145.2933012816
 31
0.0
  0
LINE
  5
1D3
330
1CD
100
AcDbEntity
  8
VERMASSUNG
100
AcDbLine
 10
232.1936463544
 20
110.2933012816
 30
0.0
 11
252.6264572654
 21
110.2933012816
 31
0.0
  0
LINE
  5
1D4
330
1CD
100
AcDbEntity
  8
VERMASSUNG
100
AcDbLine
 10
251.6264572654
 20
145.2933012816
 30
0.0
 11
251.6264572654
 21
110.2933012816
 31
0.0
  0
MTEXT
  5
1D5
330
1CD
100
AcDbEntity
  8
VERMASSUNG
100
AcDbMText
 10
249.0483219022
 20
123.2433010946
 30
0.1
 40
2.0
 41
0.0
 71
     1
 72
     1
  1
35
  7
SLDTEXTSTYLE0
 11
-7.044195017643634E-15
 21
1.0
 31
0.0
 73
     1
 44
1.0
  0
MTEXT
  5
1D6
330
1CD
100
AcDbEntity
  8
VERMASSUNG
100
AcDbMText
 10
249.0483219022
 20
129.0308011967
 30
0.1
 40
2.0
 41
0.0
 71
     1
 72
     1
  1

  7
SLDTEXTSTYLE0
 11
-7.044195017643634E-15
 21
1.0
 31
0.0
 73
     1
 44
1.0
  0
MTEXT
  5
1D7
330
1CD
100
AcDbEntity
  8
VERMASSUNG
100
AcDbMText
 10
249.542855765
 20
129.0433014865
 30
0.1
 40
1.5
 41
0.0
 71
     1
 72
     1
  1
±0.1
  7
SLDTEXTSTYLE0
 11
-7.044195017643634E-15
 21
1.0
 31
0.0
 73
     1
 44
1.0
  0
ENDBLK
  5
1CF
330
1CD
100
AcDbEntity
  8
0
100
AcDbBlockEnd
  0
BLOCK
  5
1DA
330
1D9
100
AcDbEntity
  8
0
100
AcDbBlockBegin
  2
_D_2
 70
     0
 10
0.0
 20
0.0
 30
0.0
  3
_D_2
  1

  0
SOLID
  5
1DC
330
1D9
100
AcDbEntity
  8
VERMASSUNG
100
AcDbTrace
 10
232.1936463544
 20
155.5824154577
 30
0.0
 11
229.1936463544
 21
156.0324154577
 31
0.0
 12
229.1936463544
 22
155.1324154577
 32
0.0
 13
229.1936463544
 23
155.1324154577
 33
0.0
  0
SOLID
  5
1DD
330
1D9
100
AcDbEntity
  8
VERMASSUNG
100
AcDbTrace
 10
172.1936463544
 20
155.5824154577
 30
0.0
 11
175.1936463544
 21
155.1324154577
 31
0.0
 12
175.1936463544
 22
156.0324154577
 32
0.0
 13
175.1936463544
 23
156.0324154577
 33
0.0
  0
LINE
  5
1DE
330
1D9
100
AcDbEntity
  8
VERMASSUNG
100
AcDbLine
 10
232.1936463544
 20
145.2933012816
 30
0.0
 11
232.1936463544
 21
156.5824154577
 31
0.0
  0
LINE
  5
1DF
330
1D9
100
AcDbEntity
  8
VERMASSUNG
100
AcDbLine
 10
172.1936463544
 20
134.9933012816
 30
0.0
 11
172.1936463544
 21
156.5824154577
 31
0.0
  0
LINE
  5
1E0
330
1D9
100
AcDbEntity
  8
VERMASSUNG
100
AcDbLine
 10
232.1936463544
 20
155.5824154577
 30
0.0
 11
172.1936463544
 21
155.5824154577
 31
0.0
  0
MTEXT
  5
1E1
330
1D9
100
AcDbEntity
  8
VERMASSUNG
100
AcDbMText
 10
197.6436461674
 20
158.1605508209
 30
0.1
 40
2.0
 41
0.0
 71
     1
 72
     1
  1
60
  7
SLDTEXTSTYLE0
 73
     1
 44
1.0
  0
MTEXT
  5
1E2
330
1D9
100
AcDbEntity
  8
VERMASSUNG
100
AcDbMText
 10
203.4311462695
 20
158.1605508209
 30
0.1
 40
2.0
 41
0.0
 71
     1
 72
     1
  1

  7
SLDTEXTSTYLE0
 73
     1
 44
1.0
  0
MTEXT
  5
1E3
330
1D9
100
AcDbEntity
  8
VERMASSUNG
100
AcDbMText
 10
203.4436465593
 20
157.6660169581
 30
0.1
 40
1.5
 41
0.0
 71
     1
 72
     1
  1
±0.1
  7
SLDTEXTSTYLE0
 73
     1
 44
1.0
  0
ENDBLK
  5
1DB
330
1D9
100
AcDbEntity
  8
0
100
AcDbBlockEnd
  0
BLOCK
  5
1E7
330
1E6
100
AcDbEntity
  8
0
100
AcDbBlockBegin
  2
_D_3
 70
     0
 10
0.0
 20
0.0
 30
0.0
  3
_D_3
  1

  0
ARC
  5
1E9
330
1E6
100
AcDbEntity
  8
VERMASSUNG
100
AcDbCircle
 10
232.2305321239
 20
145.2933012816
 30
0.0
 40
15.22725522813599
100
AcDbArc
 50
264.9722024819
 51
0.0
  0
SOLID
  5
1EA
330
1E6
100
AcDbEntity
  8
VERMASSUNG
100
AcDbTrace
 10
230.8960300252
 20
130.1246360163
 30
0.0
 11
233.9001739346
 21
129.7031868835
 31
0.0
 12
233.8916147795
 22
130.6031461831
 32
0.0
 13
233.8916147795
 23
130.6031461831
 33
0.0
  0
SOLID
  5
1EB
330
1E6
100
AcDbEntity
  8
VERMASSUNG
100
AcDbTrace
 10
247.4577873521
 20
145.2933012816
 30
0.0
 11
246.7185881649
 21
142.351178823
 31
0.0
 12
247.6143345718
 22
142.2637810279
 32
0.0
 13
247.6143345718
 23
142.2637810279
 33
0.0
  0
LINE
  5
1EC
330
1E6
100
AcDbEntity
  8
VERMASSUNG
100
AcDbLine
 10
231.480450883
 20
136.7674763496
 30
0.0
 11
230.8083909807
 21
129.1284837198
 31
0.0
  0
LINE
  5
1ED
330
1E6
100
AcDbEntity
  8
VERMASSUNG
100
AcDbLine
 10
244.1249444846
 20
145.2933012816
 30
0.0
 11
248.4577873521
 21
145.2933012816
 31
0.0
  0
MTEXT
  5
1EE
330
1E6
100
AcDbEntity
  8
VERMASSUNG
100
AcDbMText
 10
238.6353114953
 20
134.0066261424
 30
0.1
 40
2.0
 41
0.0
 71
     1
 72
     1
  1
95°
  7
SLDTEXTSTYLE0
 11
0.7374411991855996
 21
0.6754113396617686
 31
0.0
 73
     1
 44
1.0
  0
ENDBLK
  5
1E8
330
1E6
100
AcDbEntity
  8
0
100
AcDbBlockEnd
  0
BLOCK
  5
1F1
330
1F0
100
AcDbEntity
  8
0
100
AcDbBlockBegin
  2
_D_4
 70
     0
 10
0.0
 20
0.0
 30
0.0
  3
_D_4
  1

  0
SOLID
  5
1F3
330
1F0
100
AcDbEntity
  8
VERMASSUNG
100
AcDbTrace
 10
133.3972471946
 20
135.2933012816
 30
0.0
 11
132.9472471946
 21
132.2933012816
 31
0.0
 12
133.8472471946
 22
132.2933012816
 32
0.0
 13
133.8472471946
 23
132.2933012816
 33
0.0
  0
SOLID
  5
1F4
330
1F0
100
AcDbEntity
  8
VERMASSUNG
100
AcDbTrace
 10
133.3972471946
 20
85.2933012816
 30
0.0
 11
133.8472471946
 21
88.2933012816
 31
0.0
 12
132.9472471946
 22
88.2933012816
 32
0.0
 13
132.9472471946
 23
88.2933012816
 33
0.0
  0
LINE
  5
1F5
330
1F0
100
AcDbEntity
  8
VERMASSUNG
100
AcDbLine
 10
172.4936463544
 20
135.2933012816
 30
0.0
 11
132.3972471946
 21
135.2933012816
 31
0.0
  0
LINE
  5
1F6
330
1F0
100
AcDbEntity
  8
VERMASSUNG
100
AcDbLine
 10
172.4936463544
 20
85.2933012816
 30
0.0
 11
132.3972471946
 21
85.2933012816
 31
0.0
  0
LINE
  5
1F7
330
1F0
100
AcDbEntity
  8
VERMASSUNG
100
AcDbLine
 10
133.3972471946
 20
135.2933012816
 30
0.0
 11
133.3972471946
 21
85.2933012816
 31
0.0
  0
MTEXT
  5
1F8
330
1F0
100
AcDbEntity
  8
VERMASSUNG
100
AcDbMText
 10
130.6191117055
 20
103.8883011724
 30
0.5096974052
 40
2.0
 41
0.0
 71
     1
 72
     1
  1
PSC
  7
SLDTEXTSTYLE0
 11
-7.044195017643634E-15
 21
1.0
 31
0.0
 73
     1
 44
1.0
  0
MTEXT
  5
1F9
330
1F0
100
AcDbEntity
  8
VERMASSUNG
100
AcDbMText
 10
130.819111715
 20
108.4883012745
 30
0.5096974052
 40
2.0
 41
0.0
 71
     1
 72
     1
  1
%%c
  7
SLDTEXTSTYLE0
 11
-7.044195017643634E-15
 21
1.0
 31
0.0
 73
     1
 44
1.0
  0
MTEXT
  5
1FA
330
1F0
100
AcDbEntity
  8
VERMASSUNG
100
AcDbMText
 10
130.6191117055
 20
112.0983017544
 30
0.5096974052
 40
2.0
 41
0.0
 71
     1
 72
     1
  1
50
  7
SLDTEXTSTYLE0
 11
-7.044195017643634E-15
 21
1.0
 31
0.0
 73
     1
 44
1.0
  0
ENDBLK
  5
1F2
330
1F0
100
AcDbEntity
  8
0
100
AcDbBlockEnd
  0
BLOCK
  5
25E
330
25D
100
AcDbEntity
  8
0
100
AcDbBlockBegin
  2
SW_CENTERMARKSYMBOL_0
 70
     0
 10
0.0
 20
0.0
 30
0.0
  3
SW_CENTERMARKSYMBOL_0
  1

  0
LINE
  5
260
330
25D
100
AcDbEntity
  8
VERMASSUNG
 62
     0
100
AcDbLine
 10
0.0
 20
0.0
 30
0.0
 11
0.0
 21
2.5
 31
0.0
  0
LINE
  5
261
330
25D
100
AcDbEntity
  8
VERMASSUNG
 62
     0
100
AcDbLine
 10
0.0
 20
0.0
 30
0.0
 11
-2.5
 21
0.0
 31
0.0
  0
LINE
  5
262
330
25D
100
AcDbEntity
  8
VERMASSUNG
 62
     0
100
AcDbLine
 10
0.0
 20
0.0
 30
0.0
 11
0.0
 21
-2.5
 31
0.0
  0
LINE
  5
263
330
25D
100
AcDbEntity
  8
VERMASSUNG
 62
     0
100
AcDbLine
 10
0.0
 20
0.0
 30
0.0
 11
2.5
 21
0.0
 31
0.0
  0
LINE
  5
264
330
25D
100
AcDbEntity
  8
VERMASSUNG
 62
     0
100
AcDbLine
 10
0.0
 20
5.0
 30
0.0
 11
0.0
 21
37.9740975593
 31
0.0
  0
LINE
  5
265
330
25D
100
AcDbEntity
  8
VERMASSUNG
 62
     0
100
AcDbLine
 10
-5.0
 20
0.0
 30
0.0
 11
-27.5
 21
0.0
 31
0.0
  0
LINE
  5
266
330
25D
100
AcDbEntity
  8
VERMASSUNG
 62
     0
100
AcDbLine
 10
0.0
 20
-5.0
 30
0.0
 11
0.0
 21
-27.5
 31
0.0
  0
LINE
  5
267
330
25D
100
AcDbEntity
  8
VERMASSUNG
 62
     0
100
AcDbLine
 10
5.0
 20
0.0
 30
0.0
 11
27.5
 21
0.0
 31
0.0
  0
ENDBLK
  5
25F
330
25D
100
AcDbEntity
  8
0
100
AcDbBlockEnd
  0
ENDSEC
  0
SECTION
  2
ENTITIES
  0
MTEXT
  5
49
330
1F
100
AcDbEntity
  8
KOPF_DÜNN
100
AcDbMText
 10
13.8892156294
 20
23.8442973028
 30
0.0
 40
3.0
 41
0.0
 71
     1
 72
     1
  1
PS5.PWE.RLA.060
  7
SLDTEXTSTYLE0
 73
     1
 44
1.0
  0
MTEXT
  5
4A
330
1F
100
AcDbEntity
  8
VERMASSUNG
100
AcDbMText
 10
13.9329988022
 20
28.8834360957
 30
0.0
 40
3.0
 41
0.0
 71
     1
 72
     1
  1
Klemmhalter rechts_Turning tool right 95° /80°
  7
SLDTEXTSTYLE0
 73
     1
 44
1.0
  0
MTEXT
  5
4B
330
1F
100
AcDbEntity
  8
VERMASSUNG
100
AcDbMText
 10
98.8601118557
 20
13.8365368179
 30
0.0
 40
2.0
 41
0.0
 71
     1
 72
     1
  1
Datum: 26.04.2012
  7
SLDTEXTSTYLE0
 73
     1
 44
1.0
  0
MTEXT
  5
4C
330
1F
100
AcDbEntity
  8
VERMASSUNG
100
AcDbMText
 10
13.933048693
 20
18.0482802738
 30
0.0
 40
2.0
 41
0.0
 71
     1
 72
     1
  1
PSC ø50 / WN..08 04..
  7
SLDTEXTSTYLE0
 73
     1
 44
1.0
  0
MTEXT
  5
4D
330
1F
100
AcDbEntity
  8
VERMASSUNG
100
AcDbMText
 10
13.9808475933
 20
13.9090973692
 30
0.0
 40
2.0
 41
0.0
 71
     1
 72
     1
  1
Gewicht: 789g
  7
SLDTEXTSTYLE0
 73
     1
 44
1.0
  0
LINE
  5
4E
330
1F
100
AcDbEntity
  8
0
  6
Continuous
 62
     7
370
    15
100
AcDbLine
 10
204.4263193664
 20
135.2933012816
 30
0.0
 11
172.4936463544
 21
135.2933012816
 31
0.0
  0
LINE
  5
4F
330
1F
100
AcDbEntity
  8
0
  6
Continuous
 62
     7
370
    15
100
AcDbLine
 10
172.4936463544
 20
85.2933012816
 30
0.0
 11
204.4263193664
 21
85.2933012816
 31
0.0
  0
ARC
  5
50
330
1F
100
AcDbEntity
  8
0
  6
Continuous
 62
     7
370
    15
100
AcDbCircle
 10
172.4936463544
 20
85.5933012816
 30
0.0
 40
0.3000000000000114
100
AcDbArc
 50
180.0
 51
270.0
  0
ARC
  5
51
330
1F
100
AcDbEntity
  8
0
  6
Continuous
 62
     7
370
    15
100
AcDbCircle
 10
172.4936463544
 20
134.9933012816
 30
0.0
 40
0.2999999999999829
100
AcDbArc
 50
90.0
 51
180.0
  0
LWPOLYLINE
  5
52
330
1F
100
AcDbEntity
  8
0
  6
Continuous
 62
     7
370
    15
100
AcDbPolyline
 90
        3
 70
   128
 43
0.0
 10
171.9936463544
 20
92.4534810028
 10
172.1191012979
 20
92.3851788878
 10
172.1936463544
 20
92.3324411297
  0
LWPOLYLINE
  5
53
330
1F
100
AcDbEntity
  8
0
  6
Continuous
 62
     7
370
    15
100
AcDbPolyline
 90
        3
 70
   128
 43
0.0
 10
172.1936463544
 20
128.2541614336
 10
172.1191012979
 20
128.2014236754
 10
171.9936463544
 20
128.1331215605
  0
ARC
  5
54
330
1F
100
AcDbEntity
  8
0
  6
Continuous
 62
     7
370
    15
100
AcDbCircle
 10
204.4263193664
 20
136.2933012816
 30
0.0
 40
1.000000000000028
100
AcDbArc
 50
270.0
 51
345.0
  0
ARC
  5
55
330
1F
100
AcDbEntity
  8
0
  6
Continuous
 62
     7
370
    15
100
AcDbCircle
 10
204.4263193664
 20
84.2933012816
 30
0.0
 40
1.0
100
AcDbArc
 50
30.0
 51
90.0
  0
LINE
  5
56
330
1F
100
AcDbEntity
  8
0
  6
Continuous
 62
     7
370
    15
100
AcDbLine
 10
205.2923447702
 20
84.7933012816
 30
0.0
 11
208.8411164464
 21
84.7933012816
 31
0.0
  0
LINE
  5
57
330
1F
100
AcDbEntity
  8
0
  6
Continuous
 62
     7
370
    15
100
AcDbLine
 10
205.5359128758
 20
136.5706573293
 30
0.0
 11
205.3922451927
 21
136.0344822365
 31
0.0
  0
LINE
  5
58
330
1F
100
AcDbEntity
  8
0
  6
Continuous
 62
     7
370
    15
100
AcDbLine
 10
226.4534779801
 20
136.2183553869
 30
0.0
 11
226.8411963947
 21
136.8041851693
 31
0.0
  0
LINE
  5
59
330
1F
100
AcDbEntity
  8
0
  6
Continuous
 62
     7
370
    15
100
AcDbLine
 10
222.9252568157
 20
139.4033111365
 30
0.0
 11
222.8163394996
 21
139.2387406515
 31
0.0
  0
LINE
  5
5A
330
1F
100
AcDbEntity
  8
0
  6
Continuous
 62
     7
370
    15
100
AcDbLine
 10
227.4906139079
 20
128.721813364
 30
0.0
 11
227.988169393
 21
129.3806482776
 31
0.0
  0
LINE
  5
5B
330
1F
100
AcDbEntity
  8
0
  6
Continuous
 62
     7
370
    15
100
AcDbLine
 10
216.0749523443
 20
141.2542870316
 30
0.0
 11
215.6037763678
 21
140.6303823756
 31
0.0
  0
ELLIPSE
  5
5C
330
1F
100
AcDbEntity
  8
0
  6
Continuous
 62
     7
370
    15
100
AcDbEllipse
 10
275.6686408509
 20
110.2933012816
 30
0.0
 11
237.8588297399029
 21
-3.517419123355041
 31
0.0
210
0.0
220
0.0
230
1.0
 40
0.1040588589
 41
1.87651918673713
 42
1.890572564701102
  0
SPLINE
  5
5D
330
1F
100
AcDbEntity
  8
0
  6
Continuous
 62
     7
370
    15
100
AcDbSpline
210
0.0
220
0.0
230
1.0
 70
     8
 71
     3
 72
    18
 73
    14
 74
     0
 42
0.00000001
 43
0.00000001
 12
1.0
 22
0.0
 32
0.0
 13
1.0
 23
0.0
 33
0.0
 40
0.0
 40
0.0
 40
0.0
 40
0.0
 40
0.2500000000000002
 40
0.2500000000000002
 40
0.3749999999999997
 40
0.3749999999999997
 40
0.4999999999999992
 40
0.4999999999999992
 40
0.6249999999999988
 40
0.6249999999999988
 40
0.7499999999999982
 40
0.7499999999999982
 40
1.0
 40
1.0
 40
1.0
 40
1.0
 10
198.6600021501588
 20
134.3662775608277
 30
0.0
 10
198.7347298936596
 20
134.4484186318327
 30
0.0
 10
198.8482646806294
 20
134.5207156244088
 30
0.0
 10
199.0802079020393
 20
134.6165881004781
 30
0.0
 10
199.1682353141252
 20
134.6464054787657
 30
0.0
 10
199.3600102435281
 20
134.700255583795
 30
0.0
 10
199.464367491514
 20
134.724578954107
 30
0.0
 10
199.6904951525444
 20
134.7685645221313
 30
0.0
 10
199.8135288761242
 20
134.788379822565
 30
0.0
 10
200.0716197666712
 20
134.822730990459
 30
0.0
 10
200.2062236683252
 20
134.8372912984668
 30
0.0
 10
200.626599029927
 20
134.8740608757736
 30
0.0
 10
200.9320217878725
 20
134.8894488572363
 30
0.0
 10
201.244194239223
 20
134.8955862619824
 30
0.0
  0
ELLIPSE
  5
5E
330
1F
100
AcDbEntity
  8
0
  6
Continuous
 62
     7
370
    15
100
AcDbEllipse
 10
201.347380649
 20
110.2933012816
 30
0.0
 11
-1.002722741751541
 21
24.99858838527823
 31
0.0
210
0.0
220
0.0
230
1.0
 40
0.2649452246
 41
0.2625485681169908
 42
2.578537676962402
  0
SPLINE
  5
5F
330
1F
100
AcDbEntity
  8
0
  6
Continuous
 62
     7
370
    15
100
AcDbSpline
210
0.0
220
0.0
230
1.0
 70
     8
 71
     3
 72
    18
 73
    14
 74
     0
 42
0.00000001
 43
0.00000001
 12
1.0
 22
0.0
 32
0.0
 13
1.0
 23
0.0
 33
0.0
 40
0.0
 40
0.0
 40
0.0
 40
0.0
 40
0.2499999999999986
 40
0.2499999999999986
 40
0.4999999999999971
 40
0.4999999999999971
 40
0.6249999999999978
 40
0.6249999999999978
 40
0.7499999999999986
 40
0.7499999999999986
 40
0.8749999999999992
 40
0.8749999999999992
 40
1.0
 40
1.0
 40
1.0
 40
1.0
 10
201.244194239223
 20
87.86833062888962
 30
0.0
 10
200.9323620566284
 20
87.88358410807363
 30
0.0
 10
200.6347242270078
 20
87.92053370925288
 30
0.0
 10
200.0671381223597
 20
88.0393516645972
 30
0.0
 10
199.8097745533787
 20
88.11892268373859
 30
0.0
 10
199.4672072664734
 20
88.26877010228998
 30
0.0
 10
199.3611627253855
 20
88.32360478402666
 30
0.0
 10
199.1693002999139
 20
88.44067454017241
 30
0.0
 10
199.0826780151831
 20
88.50325264190069
 30
0.0
 10
198.9277034513154
 20
88.63691496875596
 30
0.0
 10
198.8595376000355
 20
88.70805344076446
 30
0.0
 10
198.744638018894
 20
88.8554498396167
 30
0.0
 10
198.697341513691
 20
88.93214780464864
 30
0.0
 10
198.6600021501588
 20
89.01197961238417
 30
0.0
  0
ELLIPSE
  5
60
330
1F
100
AcDbEntity
  8
0
  6
Continuous
 62
     7
370
    15
100
AcDbEllipse
 10
275.6686408509
 20
110.2933012816
 30
0.0
 11
237.8588297399029
 21
-3.517419123355041
 31
0.0
210
0.0
220
0.0
230
1.0
 40
0.1040588589
 41
4.395690352267214
 42
4.409743730231185
  0
SPLINE
  5
61
330
1F
100
AcDbEntity
  8
0
  6
Continuous
 62
     7
370
    15
100
AcDbSpline
210
0.0
220
0.0
230
1.0
 70
     8
 71
     3
 72
    12
 73
     8
 74
     0
 42
0.00000001
 43
0.00000001
 12
1.0
 22
0.0
 32
0.0
 13
1.0
 23
0.0
 33
0.0
 40
0.0
 40
0.0
 40
0.0
 40
0.0
 40
0.5000000000000032
 40
0.5000000000000032
 40
0.7500000000000016
 40
0.7500000000000016
 40
1.0
 40
1.0
 40
1.0
 40
1.0
 10
180.2883904661002
 20
86.6406598043946
 30
0.0
 10
180.3192421766644
 20
86.60132776403209
 30
0.0
 10
180.3611350401251
 20
86.56391599850384
 30
0.0
 10
180.4606559179183
 20
86.5142450738879
 30
0.0
 10
180.5002700826426
 20
86.4988559912801
 30
0.0
 10
180.597373116422
 20
86.47502277561283
 30
0.0
 10
180.6578717890724
 20
86.46657016612404
 30
0.0
 10
180.7214031679923
 20
86.46657016612406
 30
0.0
  0
LINE
  5
62
330
1F
100
AcDbEntity
  8
0
  6
Continuous
 62
     7
370
    15
100
AcDbLine
 10
180.721403168
 20
86.4665701661
 30
0.0
 11
183.6658895409
 21
86.4665701661
 31
0.0
  0
SPLINE
  5
63
330
1F
100
AcDbEntity
  8
0
  6
Continuous
 62
     7
370
    15
100
AcDbSpline
210
0.0
220
0.0
230
1.0
 70
     8
 71
     3
 72
    12
 73
     8
 74
     0
 42
0.00000001
 43
0.00000001
 12
1.0
 22
0.0
 32
0.0
 13
1.0
 23
0.0
 33
0.0
 40
0.0
 40
0.0
 40
0.0
 40
0.0
 40
0.2499999999999986
 40
0.2499999999999986
 40
0.4999999999999971
 40
0.4999999999999971
 40
1.0
 40
1.0
 40
1.0
 40
1.0
 10
183.6658895408596
 20
86.46657016612426
 30
0.0
 10
183.7295260950732
 20
86.46657016612424
 30
0.0
 10
183.7891062219395
 20
86.47482693705601
 30
0.0
 10
183.8877429633058
 20
86.49902899906384
 30
0.0
 10
183.9267015876862
 20
86.51427581809797
 30
0.0
 10
184.026080527194
 20
86.56388069015809
 30
0.0
 10
184.0680384323595
 20
86.60131233827691
 30
0.0
 10
184.098902242752
 20
86.64065980439457
 30
0.0
  0
ELLIPSE
  5
64
330
1F
100
AcDbEntity
  8
0
  6
Continuous
 62
     7
370
    15
100
AcDbEllipse
 10
171.1373886994
 20
110.2933012816
 30
0.0
 11
-11.70927234972723
 21
24.67718644093742
 31
0.0
210
0.0
220
0.0
230
1.0
 40
0.3419987131
 41
3.310521928178944
 42
4.221709151398939
  0
SPLINE
  5
65
330
1F
100
AcDbEntity
  8
0
  6
Continuous
 62
     7
370
    15
100
AcDbSpline
210
0.0
220
0.0
230
1.0
 70
     8
 71
     3
 72
    12
 73
     8
 74
     0
 42
0.00000001
 43
0.00000001
 12
1.0
 22
0.0
 32
0.0
 13
1.0
 23
0.0
 33
0.0
 40
0.0
 40
0.0
 40
0.0
 40
0.0
 40
0.5
 40
0.5
 40
0.75
 40
0.75
 40
1.0
 40
1.0
 40
1.0
 40
1.0
 10
184.0989022427518
 20
102.1968482835819
 30
0.0
 10
184.0680505321876
 20
102.3117512725187
 30
0.0
 10
184.026157668727
 20
102.4238901685675
 30
0.0
 10
183.9266367909337
 20
102.5758324501684
 30
0.0
 10
183.8870226262094
 20
102.6234970596933
 30
0.0
 10
183.78991959243
 20
102.6978333903087
 30
0.0
 10
183.7294209197796
 20
102.7244913124459
 30
0.0
 10
183.6658895408596
 20
102.7244913124459
 30
0.0
  0
LINE
  5
66
330
1F
100
AcDbEntity
  8
0
  6
Continuous
 62
     7
370
    15
100
AcDbLine
 10
183.6658895409
 20
102.7244913124
 30
0.0
 11
180.721403168
 21
102.7244913124
 31
0.0
  0
SPLINE
  5
67
330
1F
100
AcDbEntity
  8
0
  6
Continuous
 62
     7
370
    15
100
AcDbSpline
210
0.0
220
0.0
230
1.0
 70
     8
 71
     3
 72
    12
 73
     8
 74
     0
 42
0.00000001
 43
0.00000001
 12
1.0
 22
0.0
 32
0.0
 13
1.0
 23
0.0
 33
0.0
 40
0.0
 40
0.0
 40
0.0
 40
0.0
 40
0.2500000000000009
 40
0.2500000000000009
 40
0.5000000000000019
 40
0.5000000000000019
 40
1.0
 40
1.0
 40
1.0
 40
1.0
 10
180.7214031679925
 20
102.7244913124455
 30
0.0
 10
180.6577666137787
 20
102.7244913124455
 30
0.0
 10
180.5981864869126
 20
102.6984444093875
 30
0.0
 10
180.4995497455461
 20
102.6229572504876
 30
0.0
 10
180.4605911211659
 20
102.5757382119569
 30
0.0
 10
180.3612121816579
 20
102.4239985608634
 30
0.0
 10
180.3192542764925
 20
102.3117963366792
 30
0.0
 10
180.2883904661001
 20
102.1968482835819
 30
0.0
  0
ELLIPSE
  5
68
330
1F
100
AcDbEntity
  8
0
  6
Continuous
 62
     7
370
    15
100
AcDbEllipse
 10
193.2499040094
 20
110.2933012816
 30
0.0
 11
11.70927234972706
 21
24.67718644093745
 31
0.0
210
0.0
220
0.0
230
1.0
 40
0.3419987131
 41
2.061476155780653
 42
2.972663379000666
  0
SPLINE
  5
69
330
1F
100
AcDbEntity
  8
0
  6
Continuous
 62
     7
370
    15
100
AcDbSpline
210
0.0
220
0.0
230
1.0
 70
     8
 71
     3
 72
    12
 73
     8
 74
     0
 42
0.00000001
 43
0.00000001
 12
1.0
 22
0.0
 32
0.0
 13
1.0
 23
0.0
 33
0.0
 40
0.0
 40
0.0
 40
0.0
 40
0.0
 40
0.4999999999999982
 40
0.4999999999999982
 40
0.7499999999999991
 40
0.7499999999999991
 40
1.0
 40
1.0
 40
1.0
 40
1.0
 10
180.2883904661002
 20
118.3897542796703
 30
0.0
 10
180.3190898494675
 20
118.2754186126065
 30
0.0
 10
180.360439917574
 20
118.1640652597651
 30
0.0
 10
180.4601958457935
 20
118.0113284875164
 30
0.0
 10
180.4998927635262
 20
117.9634686016642
 30
0.0
 10
180.5971509151738
 20
117.8888654883148
 30
0.0
 10
180.6579270731645
 20
117.8621112508067
 30
0.0
 10
180.7214031679925
 20
117.8621112508067
 30
0.0
  0
LINE
  5
6A
330
1F
100
AcDbEntity
  8
0
  6
Continuous
 62
     7
370
    15
100
AcDbLine
 10
180.721403168
 20
117.8621112508
 30
0.0
 11
183.6658895409
 21
117.8621112508
 31
0.0
  0
SPLINE
  5
6B
330
1F
100
AcDbEntity
  8
0
  6
Continuous
 62
     7
370
    15
100
AcDbSpline
210
0.0
220
0.0
230
1.0
 70
     8
 71
     3
 72
    12
 73
     8
 74
     0
 42
0.00000001
 43
0.00000001
 12
1.0
 22
0.0
 32
0.0
 13
1.0
 23
0.0
 33
0.0
 40
0.0
 40
0.0
 40
0.0
 40
0.0
 40
0.2500000000000007
 40
0.2500000000000007
 40
0.5000000000000014
 40
0.5000000000000014
 40
1.0
 40
1.0
 40
1.0
 40
1.0
 10
183.6658895408596
 20
117.8621112508067
 30
0.0
 10
183.7295547773901
 20
117.8621112508067
 30
0.0
 10
183.7891610096134
 20
117.8881833992864
 30
0.0
 10
183.8878215345443
 20
117.9637221501075
 30
0.0
 10
183.9267885245595
 20
118.0109730872037
 30
0.0
 10
184.026175356484
 20
118.1627969051702
 30
0.0
 10
184.0682516039074
 20
118.2756001549352
 30
0.0
 10
184.0989022427518
 20
118.3897542796703
 30
0.0
  0
ELLIPSE
  5
6C
330
1F
100
AcDbEntity
  8
0
  6
Continuous
 62
     7
370
    15
100
AcDbEllipse
 10
171.1373886994
 20
110.2933012816
 30
0.0
 11
11.70927234972706
 21
24.67718644093742
 31
0.0
210
0.0
220
0.0
230
1.0
 40
0.3419987131
 41
5.20306880937045
 42
6.114256032590494
  0
SPLINE
  5
6D
330
1F
100
AcDbEntity
  8
0
  6
Continuous
 62
     7
370
    15
100
AcDbSpline
210
0.0
220
0.0
230
1.0
 70
     8
 71
     3
 72
    12
 73
     8
 74
     0
 42
0.00000001
 43
0.00000001
 12
1.0
 22
0.0
 32
0.0
 13
1.0
 23
0.0
 33
0.0
 40
0.0
 40
0.0
 40
0.0
 40
0.0
 40
0.4999999999999982
 40
0.4999999999999982
 40
0.7499999999999991
 40
0.7499999999999991
 40
1.0
 40
1.0
 40
1.0
 40
1.0
 10
184.0989022427518
 20
133.9459427588578
 30
0.0
 10
184.0682028593845
 20
133.9850806012537
 30
0.0
 10
184.026852791278
 20
134.0222403839792
 30
0.0
 10
183.9270968630585
 20
134.0721768896069
 30
0.0
 10
183.8873999453258
 20
134.0876297597507
 30
0.0
 10
183.7901417936782
 20
134.1115493033497
 30
0.0
 10
183.7293656356875
 20
134.1200323971281
 30
0.0
 10
183.6658895408596
 20
134.1200323971281
 30
0.0
  0
LINE
  5
6E
330
1F
100
AcDbEntity
  8
0
  6
Continuous
 62
     7
370
    15
100
AcDbLine
 10
183.6658895409
 20
134.1200323971
 30
0.0
 11
180.721403168
 21
134.1200323971
 31
0.0
  0
SPLINE
  5
6F
330
1F
100
AcDbEntity
  8
0
  6
Continuous
 62
     7
370
    15
100
AcDbSpline
210
0.0
220
0.0
230
1.0
 70
     8
 71
     3
 72
    12
 73
     8
 74
     0
 42
0.00000001
 43
0.00000001
 12
1.0
 22
0.0
 32
0.0
 13
1.0
 23
0.0
 33
0.0
 40
0.0
 40
0.0
 40
0.0
 40
0.0
 40
0.2500000000000009
 40
0.2500000000000009
 40
0.5000000000000019
 40
0.5000000000000019
 40
1.0
 40
1.0
 40
1.0
 40
1.0
 10
180.7214031679925
 20
134.1200323971281
 30
0.0
 10
180.657737931462
 20
134.1200323971281
 30
0.0
 10
180.5981316992386
 20
134.1117676214623
 30
0.0
 10
180.4994711743077
 20
134.0875488398791
 30
0.0
 10
180.4605041842925
 20
134.07229152057
 30
0.0
 10
180.361117352368
 20
134.022658166308
 30
0.0
 10
180.3190411049446
 20
133.9850184581339
 30
0.0
 10
180.2883904661002
 20
133.9459427588578
 30
0.0
  0
ELLIPSE
  5
70
330
1F
100
AcDbEntity
  8
0
  6
Continuous
 62
     7
370
    15
100
AcDbEllipse
 10
193.2499040094
 20
110.2933012816
 30
0.0
 11
-11.70927234972694
 21
24.67718644093745
 31
0.0
210
0.0
220
0.0
230
1.0
 40
0.3419987131
 41
0.1689292745891374
 42
1.080116497809151
  0
LINE
  5
71
330
1F
100
AcDbEntity
  8
0
  6
Continuous
 62
     7
370
    15
100
AcDbLine
 10
172.1936463544
 20
85.5933012816
 30
0.0
 11
172.1936463544
 21
134.9933012816
 31
0.0
  0
ELLIPSE
  5
72
330
1F
100
AcDbEntity
  8
0
  6
Continuous
 62
     7
370
    15
100
AcDbEllipse
 10
197.0423536795
 20
124.1205861231
 30
0.0
 11
0.1624247525353439
 21
2.974278904359863
 31
0.0
210
0.0
220
0.0
230
1.0
 40
0.2525873267
 41
0.0
 42
6.283185307179586
  0
SPLINE
  5
73
330
1F
100
AcDbEntity
  8
0
  6
Continuous
 62
     7
370
    15
100
AcDbSpline
210
0.0
220
0.0
230
1.0
 70
     8
 71
     3
 72
    16
 73
    12
 74
     0
 42
0.00000001
 43
0.00000001
 12
1.0
 22
0.0
 32
0.0
 13
1.0
 23
0.0
 33
0.0
 40
0.0
 40
0.0
 40
0.0
 40
0.0
 40
0.2500000000000001
 40
0.2500000000000001
 40
0.5000000000000001
 40
0.5000000000000001
 40
0.625
 40
0.625
 40
0.7499999999999999
 40
0.7499999999999999
 40
1.0
 40
1.0
 40
1.0
 40
1.0
 10
171.1527853262969
 20
92.94414400043365
 30
0.0
 10
171.1845132874896
 20
92.94334688361273
 30
0.0
 10
171.2191408778401
 20
92.94275580875747
 30
0.0
 10
171.2988346399038
 20
92.941744283323
 30
0.0
 10
171.3438760999075
 20
92.94134417514813
 30
0.0
 10
171.4267288267579
 20
92.94038630324428
 30
0.0
 10
171.4566432879578
 20
92.94000462198386
 30
0.0
 10
171.5226296185157
 20
92.93892840792532
 30
0.0
 10
171.5593632439775
 20
92.93821084203118
 30
0.0
 10
171.6718599635473
 20
92.93544996434952
 30
0.0
 10
171.7422013116456
 20
92.93296287247793
 30
0.0
 10
171.7986694655508
 20
92.93078959407083
 30
0.0
  0
SPLINE
  5
74
330
1F
100
AcDbEntity
  8
0
  6
Continuous
 62
     7
370
    15
100
AcDbSpline
210
0.0
220
0.0
230
1.0
 70
     8
 71
     3
 72
    14
 73
    10
 74
     0
 42
0.00000001
 43
0.00000001
 12
1.0
 22
0.0
 32
0.0
 13
1.0
 23
0.0
 33
0.0
 40
0.0
 40
0.0
 40
0.0
 40
0.0
 40
0.1249999999999959
 40
0.1249999999999959
 40
0.2499999999999919
 40
0.2499999999999919
 40
0.4999999999999938
 40
0.4999999999999938
 40
1.0
 40
1.0
 40
1.0
 40
1.0
 10
171.7986694655191
 20
92.93078959409354
 30
0.0
 10
171.8112612594639
 20
92.93030497627119
 30
0.0
 10
171.826132367758
 20
92.92859479833885
 30
0.0
 10
171.8583164591912
 20
92.92047924958798
 30
0.0
 10
171.873920590667
 20
92.91426346132667
 30
0.0
 10
171.9098077303791
 20
92.89604434962509
 30
0.0
 10
171.9236597716477
 20
92.88427932129147
 30
0.0
 10
171.9571495135804
 20
92.85248418487416
 30
0.0
 10
171.9678117741561
 20
92.83469075303103
 30
0.0
 10
171.975949731051
 20
92.81825962218663
 30
0.0
  0
LINE
  5
75
330
1F
100
AcDbEntity
  8
0
  6
Continuous
 62
     7
370
    15
100
AcDbLine
 10
171.9936463544
 20
104.3088210491
 30
0.0
 11
171.9936463544
 21
92.4534810028
 31
0.0
  0
SPLINE
  5
76
330
1F
100
AcDbEntity
  8
0
  6
Continuous
 62
     7
370
    15
100
AcDbSpline
210
0.0
220
0.0
230
1.0
 70
     8
 71
     3
 72
    16
 73
    12
 74
     0
 42
0.00000001
 43
0.00000001
 12
1.0
 22
0.0
 32
0.0
 13
1.0
 23
0.0
 33
0.0
 40
0.0
 40
0.0
 40
0.0
 40
0.0
 40
0.500000000000001
 40
0.500000000000001
 40
0.7500000000000033
 40
0.7500000000000033
 40
0.8750000000000017
 40
0.8750000000000017
 40
0.9375000000000009
 40
0.9375000000000009
 40
1.0
 40
1.0
 40
1.0
 40
1.0
 10
171.993646354426
 20
104.3088210490516
 30
0.0
 10
171.993646354426
 20
104.4233507797506
 30
0.0
 10
171.9895890523109
 20
104.5386668549401
 30
0.0
 10
171.9639318095162
 20
104.7135899447676
 30
0.0
 10
171.952616363774
 20
104.7734192477625
 30
0.0
 10
171.9185849964654
 20
104.8580104340107
 30
0.0
 10
171.9047060152616
 20
104.8866800201548
 30
0.0
 10
171.8687703334943
 20
104.9164878071011
 30
0.0
 10
171.8538200142315
 20
104.9228229604607
 30
0.0
 10
171.8239215014896
 20
104.9215974975904
 30
0.0
 10
171.8103886411243
 20
104.9149989115556
 30
0.0
 10
171.7986694655503
 20
104.9063512234992
 30
0.0
  0
SPLINE
  5
77
330
1F
100
AcDbEntity
  8
0
  6
Continuous
 62
     7
370
    15
100
AcDbSpline
210
0.0
220
0.0
230
1.0
 70
     8
 71
     3
 72
    14
 73
    10
 74
     0
 42
0.00000001
 43
0.00000001
 12
1.0
 22
0.0
 32
0.0
 13
1.0
 23
0.0
 33
0.0
 40
0.0
 40
0.0
 40
0.0
 40
0.0
 40
0.25
 40
0.25
 40
0.5
 40
0.5
 40
0.75
 40
0.75
 40
1.0
 40
1.0
 40
1.0
 40
1.0
 10
171.7986694655572
 20
104.9063512234906
 30
0.0
 10
171.7422097996734
 20
104.8646891137918
 30
0.0
 10
171.6713373248113
 20
104.8338556332036
 30
0.0
 10
171.5228709669293
 20
104.8395701418167
 30
0.0
 10
171.4536757637215
 20
104.8751410692497
 30
0.0
 10
171.3439585776519
 20
104.9620849817236
 30
0.0
 10
171.29871268872
 20
105.0145172950887
 30
0.0
 10
171.2190955577531
 20
105.1230703766072
 30
0.0
 10
171.1844929382962
 20
105.1800534628496
 30
0.0
 10
171.1527853262974
 20
105.2386195455075
 30
0.0
  0
SPLINE
  5
78
330
1F
100
AcDbEntity
  8
0
  6
Continuous
 62
     7
370
    15
100
AcDbSpline
210
0.0
220
0.0
230
1.0
 70
     8
 71
     3
 72
    10
 73
     6
 74
     0
 42
0.00000001
 43
0.00000001
 12
1.0
 22
0.0
 32
0.0
 13
1.0
 23
0.0
 33
0.0
 40
0.0
 40
0.0
 40
0.0
 40
0.0
 40
0.5
 40
0.5
 40
1.0
 40
1.0
 40
1.0
 40
1.0
 10
170.8723260108664
 20
106.0914381371538
 30
0.0
 10
170.9032045944784
 20
105.9418095852941
 30
0.0
 10
170.9391973022017
 20
105.7953141677706
 30
0.0
 10
171.0285375536988
 20
105.5101225292298
 30
0.0
 10
171.0809958565444
 20
105.3712195035139
 30
0.0
 10
171.1527853262975
 20
105.2386195455074
 30
0.0
  0
SPLINE
  5
79
330
1F
100
AcDbEntity
  8
0
  6
Continuous
 62
     7
370
    15
100
AcDbSpline
210
0.0
220
0.0
230
1.0
 70
     8
 71
     3
 72
    10
 73
     6
 74
     0
 42
0.00000001
 43
0.00000001
 12
1.0
 22
0.0
 32
0.0
 13
1.0
 23
0.0
 33
0.0
 40
0.0
 40
0.0
 40
0.0
 40
0.0
 40
0.5
 40
0.5
 40
1.0
 40
1.0
 40
1.0
 40
1.0
 10
171.1527853262968
 20
115.3479830177438
 30
0.0
 10
171.0809958565439
 20
115.2153830597375
 30
0.0
 10
171.0285375536985
 20
115.0764800340218
 30
0.0
 10
170.9391973022016
 20
114.7912883954815
 30
0.0
 10
170.9032045944783
 20
114.6447929779581
 30
0.0
 10
170.8723260108664
 20
114.4951644260987
 30
0.0
  0
SPLINE
  5
7A
330
1F
100
AcDbEntity
  8
0
  6
Continuous
 62
     7
370
    15
100
AcDbSpline
210
0.0
220
0.0
230
1.0
 70
     8
 71
     3
 72
    14
 73
    10
 74
     0
 42
0.00000001
 43
0.00000001
 12
1.0
 22
0.0
 32
0.0
 13
1.0
 23
0.0
 33
0.0
 40
0.0
 40
0.0
 40
0.0
 40
0.0
 40
0.25
 40
0.25
 40
0.5
 40
0.5
 40
0.75
 40
0.75
 40
1.0
 40
1.0
 40
1.0
 40
1.0
 10
171.1527853262962
 20
115.3479830177426
 30
0.0
 10
171.1844940257815
 20
115.4065511090612
 30
0.0
 10
171.2191018444221
 20
115.4635453710012
 30
0.0
 10
171.2987602549115
 20
115.5721455057652
 30
0.0
 10
171.3438225248063
 20
115.6244736411438
 30
0.0
 10
171.4544043703847
 20
115.711974652506
 30
0.0
 10
171.5220484912
 20
115.7470201087603
 30
0.0
 10
171.6722967815971
 20
115.7527644975163
 30
0.0
 10
171.7422491798275
 20
115.7218843904663
 30
0.0
 10
171.798669465551
 20
115.6802513397533
 30
0.0
  0
SPLINE
  5
7B
330
1F
100
AcDbEntity
  8
0
  6
Continuous
 62
     7
370
    15
100
AcDbSpline
210
0.0
220
0.0
230
1.0
 70
     8
 71
     3
 72
    16
 73
    12
 74
     0
 42
0.00000001
 43
0.00000001
 12
1.0
 22
0.0
 32
0.0
 13
1.0
 23
0.0
 33
0.0
 40
0.0
 40
0.0
 40
0.0
 40
0.0
 40
0.0624999999999992
 40
0.0624999999999992
 40
0.1249999999999983
 40
0.1249999999999983
 40
0.2499999999999994
 40
0.2499999999999994
 40
0.4999999999999984
 40
0.4999999999999984
 40
1.0
 40
1.0
 40
1.0
 40
1.0
 10
171.7986694655191
 20
115.6802513396998
 30
0.0
 10
171.810403699966
 20
115.6715925395556
 30
0.0
 10
171.823935455445
 20
115.6649884543203
 30
0.0
 10
171.8539229158749
 20
115.6637914871461
 30
0.0
 10
171.8689176222832
 20
115.6702132342121
 30
0.0
 10
171.9046580446779
 20
115.6999303876214
 30
0.0
 10
171.9186713816791
 20
115.7287377850048
 30
0.0
 10
171.9528154704605
 20
115.8138175066307
 30
0.0
 10
171.9637873745788
 20
115.8721924559004
 30
0.0
 10
171.9896329148451
 20
116.047907980689
 30
0.0
 10
171.993646354426
 20
116.1637029885535
 30
0.0
 10
171.993646354426
 20
116.2777815142008
 30
0.0
  0
LINE
  5
7C
330
1F
100
AcDbEntity
  8
0
  6
Continuous
 62
     7
370
    15
100
AcDbLine
 10
171.9936463544
 20
128.1331215605
 30
0.0
 11
171.9936463544
 21
116.2777815142
 31
0.0
  0
SPLINE
  5
7D
330
1F
100
AcDbEntity
  8
0
  6
Continuous
 62
     7
370
    15
100
AcDbSpline
210
0.0
220
0.0
230
1.0
 70
     8
 71
     3
 72
    14
 73
    10
 74
     0
 42
0.00000001
 43
0.00000001
 12
1.0
 22
0.0
 32
0.0
 13
1.0
 23
0.0
 33
0.0
 40
0.0
 40
0.0
 40
0.0
 40
0.0
 40
0.4999999999999996
 40
0.4999999999999996
 40
0.7500000000000031
 40
0.7500000000000031
 40
0.8750000000000016
 40
0.8750000000000016
 40
1.0
 40
1.0
 40
1.0
 40
1.0
 10
171.9810465734727
 20
127.7795635633112
 30
0.0
 10
171.9738119680946
 20
127.7620880420383
 30
0.0
 10
171.9636060158575
 20
127.7427387385185
 30
0.0
 10
171.9312121234614
 20
127.7087692089278
 30
0.0
 10
171.918056873868
 20
127.6963166473989
 30
0.0
 10
171.8817749751
 20
127.6758717268429
 30
0.0
 10
171.8659424769714
 20
127.6686759520349
 30
0.0
 10
171.8299667859835
 20
127.6585174308871
 30
0.0
 10
171.8127693826618
 20
127.6563556298344
 30
0.0
 10
171.7986694655467
 20
127.6558129691792
 30
0.0
  0
SPLINE
  5
7E
330
1F
100
AcDbEntity
  8
0
  6
Continuous
 62
     7
370
    15
100
AcDbSpline
210
0.0
220
0.0
230
1.0
 70
     8
 71
     3
 72
    14
 73
    10
 74
     0
 42
0.00000001
 43
0.00000001
 12
1.0
 22
0.0
 32
0.0
 13
1.0
 23
0.0
 33
0.0
 40
0.0
 40
0.0
 40
0.0
 40
0.0
 40
0.25
 40
0.25
 40
0.5
 40
0.5
 40
0.75
 40
0.75
 40
1.0
 40
1.0
 40
1.0
 40
1.0
 10
171.7986694655572
 20
127.6558129691818
 30
0.0
 10
171.7422223834989
 20
127.6536405017625
 30
0.0
 10
171.6713719994561
 20
127.6511424038451
 30
0.0
 10
171.5229355646397
 20
127.6474959450569
 30
0.0
 10
171.4537463129528
 20
127.6465281982056
 30
0.0
 10
171.3440347647119
 20
127.6452606388429
 30
0.0
 10
171.2987931153695
 20
127.6448577979146
 30
0.0
 10
171.2191450971856
 20
127.6438467629869
 30
0.0
 10
171.1845181814196
 20
127.6432558025923
 30
0.0
 10
171.1527853262983
 20
127.6424585628189
 30
0.0
  0
SPLINE
  5
7F
330
1F
100
AcDbEntity
  8
0
  6
Continuous
 62
     7
370
    15
100
AcDbSpline
210
0.0
220
0.0
230
1.0
 70
     8
 71
     3
 72
    18
 73
    14
 74
     0
 42
0.00000001
 43
0.00000001
 12
1.0
 22
0.0
 32
0.0
 13
1.0
 23
0.0
 33
0.0
 40
0.0
 40
0.0
 40
0.0
 40
0.0
 40
0.25
 40
0.25
 40
0.375
 40
0.375
 40
0.5
 40
0.5
 40
0.625
 40
0.625
 40
0.75
 40
0.75
 40
1.0
 40
1.0
 40
1.0
 40
1.0
 10
170.8723260108664
 20
114.4951644260987
 30
0.0
 10
170.737040404564
 20
113.8396100906774
 30
0.0
 10
170.6358726583211
 20
113.1599889968798
 30
0.0
 10
170.5330113154522
 20
112.1046249903858
 30
0.0
 10
170.5069084699289
 20
111.7458109258012
 30
0.0
 10
170.4720184863841
 20
111.0196979816782
 30
0.0
 10
170.463432228094
 20
110.6576083026621
 30
0.0
 10
170.4633325185284
 20
109.9352986452437
 30
0.0
 10
170.4718208896769
 20
109.5750788431354
 30
0.0
 10
170.5059642691975
 20
108.8565127740414
 30
0.0
 10
170.5317612510514
 20
108.496747058126
 30
0.0
 10
170.6351623824393
 20
107.4301024711317
 30
0.0
 10
170.7370203746107
 20
106.7470895318493
 30
0.0
 10
170.8723260108664
 20
106.0914381371538
 30
0.0
  0
LINE
  5
80
330
1F
100
AcDbEntity
  8
0
  6
Continuous
 62
     7
370
    15
100
AcDbLine
 10
169.9936463544
 20
115.4334537694
 30
0.0
 11
169.9936463544
 21
105.1531487938
 31
0.0
  0
LINE
  5
81
330
1F
100
AcDbEntity
  8
0
  6
Continuous
 62
     7
370
    15
100
AcDbLine
 10
143.6936463544
 20
115.1030799981
 30
0.0
 11
143.6936463544
 21
105.4835225651
 31
0.0
  0
LINE
  5
82
330
1F
100
AcDbEntity
  8
0
  6
Continuous
 62
     7
370
    15
100
AcDbLine
 10
142.1936463544
 20
114.6700672962
 30
0.0
 11
142.1936463544
 21
105.916535267
 31
0.0
  0
LINE
  5
83
330
1F
100
AcDbEntity
  8
0
  6
Continuous
 62
     7
370
    15
100
AcDbLine
 10
143.6936463544
 20
93.4339500397
 30
0.0
 11
143.6936463544
 21
105.4835225651
 31
0.0
  0
LINE
  5
84
330
1F
100
AcDbEntity
  8
0
  6
Continuous
 62
     7
370
    15
100
AcDbLine
 10
169.9936463544
 20
92.7732024971
 30
0.0
 11
169.9936463544
 21
105.1531487938
 31
0.0
  0
LINE
  5
85
330
1F
100
AcDbEntity
  8
0
  6
Continuous
 62
     7
370
    15
100
AcDbLine
 10
143.6936463544
 20
93.4339500397
 30
0.0
 11
169.9936463544
 21
92.7732024971
 31
0.0
  0
ARC
  5
86
330
1F
100
AcDbEntity
  8
0
  6
Continuous
 62
     7
370
    15
100
AcDbCircle
 10
170.1935832654
 20
92.7681793859
 30
0.0
 40
0.2000000000000059
100
AcDbArc
 50
88.5608333333
 51
178.5608333333
  0
LINE
  5
87
330
1F
100
AcDbEntity
  8
0
  6
Continuous
 62
     7
370
    15
100
AcDbLine
 10
169.9936463544
 20
115.4334537694
 30
0.0
 11
169.9936463544
 21
127.8134000662
 31
0.0
  0
ARC
  5
88
330
1F
100
AcDbEntity
  8
0
  6
Continuous
 62
     7
370
    15
100
AcDbCircle
 10
170.1935832654
 20
127.8184231773
 30
0.0
 40
0.2000000000000063
100
AcDbArc
 50
181.4391666667
 51
271.4391666667
  0
LINE
  5
89
330
1F
100
AcDbEntity
  8
0
  6
Continuous
 62
     7
370
    15
100
AcDbLine
 10
143.6936463544
 20
115.1030799981
 30
0.0
 11
143.6936463544
 21
127.1526525236
 31
0.0
  0
LINE
  5
8A
330
1F
100
AcDbEntity
  8
0
  6
Continuous
 62
     7
370
    15
100
AcDbLine
 10
143.6936463544
 20
127.1526525236
 30
0.0
 11
169.9936463544
 21
127.8134000662
 31
0.0
  0
LINE
  5
8B
330
1F
100
AcDbEntity
  8
0
  6
Continuous
 62
     7
370
    15
100
AcDbLine
 10
170.1986063765
 20
92.9681162969
 30
0.0
 11
171.1527853263
 21
92.9441440004
 31
0.0
  0
LINE
  5
8C
330
1F
100
AcDbEntity
  8
0
  6
Continuous
 62
     7
370
    15
100
AcDbLine
 10
170.1986063765
 20
127.6184862664
 30
0.0
 11
171.1527853263
 21
127.6424585628
 31
0.0
  0
LINE
  5
8D
330
1F
100
AcDbEntity
  8
0
  6
Continuous
 62
     7
370
    15
100
AcDbLine
 10
142.1936463544
 20
126.2866271198
 30
0.0
 11
143.6936463544
 21
127.1526525236
 31
0.0
  0
LINE
  5
8E
330
1F
100
AcDbEntity
  8
0
  6
Continuous
 62
     7
370
    15
100
AcDbLine
 10
142.1936463544
 20
114.6700672962
 30
0.0
 11
142.1936463544
 21
126.2866271198
 31
0.0
  0
LINE
  5
8F
330
1F
100
AcDbEntity
  8
0
  6
Continuous
 62
     7
370
    15
100
AcDbLine
 10
142.1936463544
 20
94.2999754435
 30
0.0
 11
143.6936463544
 21
93.4339500397
 31
0.0
  0
LINE
  5
90
330
1F
100
AcDbEntity
  8
0
  6
Continuous
 62
     7
370
    15
100
AcDbLine
 10
142.1936463544
 20
94.2999754435
 30
0.0
 11
142.1936463544
 21
105.916535267
 31
0.0
  0
LINE
  5
91
330
1F
100
AcDbEntity
  8
0
  6
Continuous
 62
     7
370
    15
100
AcDbLine
 10
228.9639076533
 20
113.0228342722
 30
0.0
 11
210.4215984918
 21
86.9261701699
 31
0.0
  0
ELLIPSE
  5
92
330
1F
100
AcDbEntity
  8
0
  6
Continuous
 62
     7
370
    15
100
AcDbEllipse
 10
275.6686408509
 20
110.2933012816
 30
0.0
 11
242.6160063347012
 21
-3.587767505822129
 31
0.0
210
0.0
220
0.0
230
1.0
 40
0.1040588589
 41
4.419625271903656
 42
4.44164481538061
  0
SPLINE
  5
93
330
1F
100
AcDbEntity
  8
0
  6
Continuous
 62
     7
370
    15
100
AcDbSpline
210
0.0
220
0.0
230
1.0
 70
     8
 71
     3
 72
    10
 73
     6
 74
     0
 42
0.00000001
 43
0.00000001
 12
1.0
 22
0.0
 32
0.0
 13
1.0
 23
0.0
 33
0.0
 40
0.0
 40
0.0
 40
0.0
 40
0.0
 40
0.5
 40
0.5
 40
1.0
 40
1.0
 40
1.0
 40
1.0
 10
205.2923447702315
 20
87.15661796891419
 30
0.0
 10
205.2069264260263
 20
87.31365346897185
 30
0.0
 10
205.0818789946366
 20
87.45103196286426
 30
0.0
 10
204.7814697360868
 20
87.64748621034366
 30
0.0
 10
204.6066288395572
 20
87.70671982158538
 30
0.0
 10
204.4263193664479
 20
87.71524874753703
 30
0.0
  0
SPLINE
  5
94
330
1F
100
AcDbEntity
  8
0
  6
Continuous
 62
     7
370
    15
100
AcDbSpline
210
0.0
220
0.0
230
1.0
 70
     8
 71
     3
 72
    10
 73
     6
 74
     0
 42
0.00000001
 43
0.00000001
 12
1.0
 22
0.0
 32
0.0
 13
1.0
 23
0.0
 33
0.0
 40
0.0
 40
0.0
 40
0.0
 40
0.0
 40
0.5
 40
0.5
 40
1.0
 40
1.0
 40
1.0
 40
1.0
 10
204.426319366447
 20
134.955573912248
 30
0.0
 10
204.6526174809519
 20
134.9596577404918
 30
0.0
 10
204.8684573532856
 20
135.0430822681182
 30
0.0
 10
205.2141541047769
 20
135.3284830788577
 30
0.0
 10
205.3361591436891
 20
135.5226744678786
 30
0.0
 10
205.3922451927361
 20
135.739981041867
 30
0.0
  0
SPLINE
  5
95
330
1F
100
AcDbEntity
  8
0
  6
Continuous
 62
     7
370
    15
100
AcDbSpline
210
0.0
220
0.0
230
1.0
 70
     8
 71
     3
 72
     8
 73
     4
 74
     0
 42
0.00000001
 43
0.00000001
 12
1.0
 22
0.0
 32
0.0
 13
1.0
 23
0.0
 33
0.0
 40
0.0
 40
0.0
 40
0.0
 40
0.0
 40
1.0
 40
1.0
 40
1.0
 40
1.0
 10
205.3922451927361
 20
135.739981041867
 30
0.0
 10
205.5039292614522
 20
136.172703309778
 30
0.0
 10
205.6158857879152
 20
136.6053512162271
 30
0.0
 10
205.7280785812236
 20
137.0379346387399
 30
0.0
  0
ARC
  5
96
330
1F
100
AcDbEntity
  8
0
  6
Continuous
 62
     7
370
    15
100
AcDbCircle
 10
201.2396021832
 20
162.2548250917
 30
0.0
 40
25.61323846163213
100
AcDbArc
 50
280.0926533016
 51
294.2004977487
  0
LINE
  5
97
330
1F
100
AcDbEntity
  8
0
  6
Continuous
 62
     7
370
    15
100
AcDbLine
 10
211.7392615565
 20
138.8925662639
 30
0.0
 11
215.9966954902
 21
140.807072391
 31
0.0
  0
LINE
  5
98
330
1F
100
AcDbEntity
  8
0
  6
Continuous
 62
     7
370
    15
100
AcDbLine
 10
215.9966954902
 20
140.807072391
 30
0.0
 11
220.0422001143
 21
134.9950288662
 31
0.0
  0
ARC
  5
99
330
1F
100
AcDbEntity
  8
0
  6
Continuous
 62
     7
370
    15
100
AcDbCircle
 10
222.0379387289
 20
135.3231191696
 30
0.0
 40
2.022527098699324
100
AcDbArc
 50
189.3356604554
 51
260.0743624041
  0
LINE
  5
9A
330
1F
100
AcDbEntity
  8
0
  6
Continuous
 62
     7
370
    15
100
AcDbLine
 10
221.6893159746
 20
133.3308646577
 30
0.0
 11
224.3234131357
 21
131.4558082698
 31
0.0
  0
LINE
  5
9B
330
1F
100
AcDbEntity
  8
0
  6
Continuous
 62
     7
370
    15
100
AcDbLine
 10
224.3234131357
 20
131.4558082698
 30
0.0
 11
223.8304236384
 21
130.410322175
 31
0.0
  0
ARC
  5
9C
330
1F
100
AcDbEntity
  8
0
  6
Continuous
 62
     7
370
    15
100
AcDbCircle
 10
225.7334790213
 20
129.5251438426
 30
0.0
 40
2.098847414753875
100
AcDbArc
 50
155.0551963809
 51
333.761477728
  0
LINE
  5
9D
330
1F
100
AcDbEntity
  8
0
  6
Continuous
 62
     7
370
    15
100
AcDbLine
 10
227.6160639787
 20
128.5972244771
 30
0.0
 11
227.9810103632
 21
129.3711686941
 31
0.0
  0
LINE
  5
9E
330
1F
100
AcDbEntity
  8
0
  6
Continuous
 62
     7
370
    15
100
AcDbLine
 10
230.7071131854
 20
132.837041556
 30
0.0
 11
229.8260658685
 21
133.2590110825
 31
0.0
  0
LINE
  5
9F
330
1F
100
AcDbEntity
  8
0
  6
Continuous
 62
     7
370
    15
100
AcDbLine
 10
230.7071131854
 20
132.837041556
 30
0.0
 11
228.9639076533
 21
113.0228342722
 31
0.0
  0
CIRCLE
  5
A0
330
1F
100
AcDbEntity
  8
0
  6
Continuous
 62
     7
370
    15
100
AcDbCircle
 10
214.3331281058
 20
127.7216629872
 30
0.0
 40
3.481810242575247
  0
LINE
  5
A1
330
1F
100
AcDbEntity
  8
0
  6
Continuous
 62
     7
370
    15
100
AcDbLine
 10
205.2923447702
 20
87.1566179689
 30
0.0
 11
205.2923447702
 21
84.7933012816
 31
0.0
  0
ELLIPSE
  5
A2
330
1F
100
AcDbEntity
  8
0
  6
Continuous
 62
     7
370
    15
100
AcDbEllipse
 10
226.993042881
 20
110.2933012816
 30
0.0
 11
18.15229867158573
 21
25.49989429287246
 31
0.0
210
0.0
220
0.0
230
1.0
 40
0.0040448756
 41
3.144472021887493
 42
3.556381331945294
  0
SPLINE
  5
A3
330
1F
100
AcDbEntity
  8
0
  6
Continuous
 62
     7
370
    15
100
AcDbSpline
210
0.0
220
0.0
230
1.0
 70
     8
 71
     3
 72
     9
 73
     5
 74
     0
 42
0.00000001
 43
0.00000001
 12
1.0
 22
0.0
 32
0.0
 13
1.0
 23
0.0
 33
0.0
 40
0.0
 40
0.0
 40
0.0
 40
0.0
 40
0.1819052843954225
 40
1.0
 40
1.0
 40
1.0
 40
1.0
 10
205.5530413065866
 20
136.5660677800889
 30
0.0
 10
205.5538435619112
 20
136.5925211653019
 30
0.0
 10
205.558253853384
 20
136.7379451165678
 30
0.0
 10
205.651661928542
 20
136.9029472584239
 30
0.0
 10
205.7280785812236
 20
137.0379346387399
 30
0.0
  0
LINE
  5
A4
330
1F
100
AcDbEntity
  8
0
  6
Continuous
 62
     7
370
    15
100
AcDbLine
 10
226.847344071
 20
127.7346846244
 30
0.0
 11
227.2421979376
 21
128.5720538368
 31
0.0
  0
LINE
  5
A5
330
1F
100
AcDbEntity
  8
0
  6
Continuous
 62
     7
370
    15
100
AcDbLine
 10
229.8900603866
 20
133.2283614954
 30
0.0
 11
229.90805371
 21
133.4328832413
 31
0.0
  0
LINE
  5
A6
330
1F
100
AcDbEntity
  8
0
  6
Continuous
 62
     7
370
    15
100
AcDbLine
 10
223.3765672809
 20
140.005636304
 30
0.0
 11
223.6627626809
 21
140.1064251419
 31
0.0
  0
LWPOLYLINE
  5
A7
330
1F
100
AcDbEntity
  8
0
  6
Continuous
 62
     7
370
    15
100
AcDbPolyline
 90
        3
 70
   128
 43
0.0
 10
227.2168869228
 20
137.9195385872
 10
227.2652815665
 20
137.4328430694
 10
227.2467477025
 20
137.0828563216
  0
CIRCLE
  5
A8
330
1F
100
AcDbEntity
  8
0
  6
Continuous
 62
     7
370
    15
100
AcDbCircle
 10
214.2350403959
 20
127.6974666415
 30
0.0
 40
3.475047247386347
  0
CIRCLE
  5
A9
330
1F
100
AcDbEntity
  8
0
  6
Continuous
 62
     7
370
    15
100
AcDbCircle
 10
214.2558474476
 20
127.7015285422
 30
0.0
 40
1.985458021034165
  0
SPLINE
  5
AA
330
1F
100
AcDbEntity
  8
0
  6
Continuous
 62
     7
370
    15
100
AcDbSpline
210
0.0
220
0.0
230
1.0
 70
     8
 71
     3
 72
    11
 73
     7
 74
     0
 42
0.00000001
 43
0.00000001
 12
1.0
 22
0.0
 32
0.0
 13
1.0
 23
0.0
 33
0.0
 40
0.0
 40
0.0
 40
0.0
 40
0.0
 40
0.1081100880371202
 40
0.4711580666043573
 40
0.8135808430835973
 40
1.0
 40
1.0
 40
1.0
 40
1.0
 10
213.1960000314669
 20
126.332964300527
 30
0.0
 10
213.2507406341153
 20
126.3201799577524
 30
0.0
 10
213.4893074226253
 20
126.2644641005755
 30
0.0
 10
213.9544115505607
 20
126.1728592126135
 30
0.0
 10
214.4989626450636
 20
126.1036024375651
 30
0.0
 10
214.7968071117728
 20
126.0782428401828
 30
0.0
 10
214.901798624113
 20
126.0693034681981
 30
0.0
  0
SPLINE
  5
AB
330
1F
100
AcDbEntity
  8
0
  6
Continuous
 62
     7
370
    15
100
AcDbSpline
210
0.0
220
0.0
230
1.0
 70
     8
 71
     3
 72
    11
 73
     7
 74
     0
 42
0.00000001
 43
0.00000001
 12
1.0
 22
0.0
 32
0.0
 13
1.0
 23
0.0
 33
0.0
 40
0.0
 40
0.0
 40
0.0
 40
0.0
 40
0.2164499953511923
 40
0.4402998152333227
 40
0.751891476001032
 40
0.9999999999999999
 40
0.9999999999999999
 40
0.9999999999999999
 40
0.9999999999999999
 10
214.901798624113
 20
126.0693034681981
 30
0.0
 10
214.9687643083659
 20
126.1533042981997
 30
0.0
 10
215.1049850477364
 20
126.3241777134158
 30
0.0
 10
215.3695855363811
 20
126.6569126281643
 30
0.0
 10
215.6695576149203
 20
127.0352025111144
 30
0.0
 10
215.8723974472524
 20
127.2916861812346
 30
0.0
 10
215.9623139646628
 20
127.4053823824425
 30
0.0
  0
SPLINE
  5
AC
330
1F
100
AcDbEntity
  8
0
  6
Continuous
 62
     7
370
    15
100
AcDbSpline
210
0.0
220
0.0
230
1.0
 70
     8
 71
     3
 72
    11
 73
     7
 74
     0
 42
0.00000001
 43
0.00000001
 12
1.0
 22
0.0
 32
0.0
 13
1.0
 23
0.0
 33
0.0
 40
0.0
 40
0.0
 40
0.0
 40
0.0
 40
0.2164499953511768
 40
0.44029981523329
 40
0.7518914760010245
 40
1.0
 40
1.0
 40
1.0
 40
1.0
 10
215.9623139646628
 20
127.4053823824425
 30
0.0
 10
215.9124337545387
 20
127.507443777096
 30
0.0
 10
215.8109680683613
 20
127.7150557621898
 30
0.0
 10
215.6344809520371
 20
128.1159684357648
 30
0.0
 10
215.461295978249
 20
128.5673929682432
 30
0.0
 10
215.3613400171634
 20
128.8706789931445
 30
0.0
 10
215.3170307125663
 20
129.0051221290158
 30
0.0
  0
SPLINE
  5
AD
330
1F
100
AcDbEntity
  8
0
  6
Continuous
 62
     7
370
    15
100
AcDbSpline
210
0.0
220
0.0
230
1.0
 70
     8
 71
     3
 72
    11
 73
     7
 74
     0
 42
0.00000001
 43
0.00000001
 12
1.0
 22
0.0
 32
0.0
 13
1.0
 23
0.0
 33
0.0
 40
0.0
 40
0.0
 40
0.0
 40
0.0
 40
0.1864191569163753
 40
0.5288419333956546
 40
0.8918899119628748
 40
1.0
 40
1.0
 40
1.0
 40
1.0
 10
215.3170307125663
 20
129.0051221290158
 30
0.0
 10
215.2120392002261
 20
129.0140615010005
 30
0.0
 10
214.9141947335168
 20
129.0394210983828
 30
0.0
 10
214.369643639014
 20
129.1086778734314
 30
0.0
 10
213.9045395110786
 20
129.2002827613933
 30
0.0
 10
213.6659727225685
 20
129.2559986185701
 30
0.0
 10
213.6112321199201
 20
129.2687829613447
 30
0.0
  0
SPLINE
  5
AE
330
1F
100
AcDbEntity
  8
0
  6
Continuous
 62
     7
370
    15
100
AcDbSpline
210
0.0
220
0.0
230
1.0
 70
     8
 71
     3
 72
    11
 73
     7
 74
     0
 42
0.00000001
 43
0.00000001
 12
1.0
 22
0.0
 32
0.0
 13
1.0
 23
0.0
 33
0.0
 40
0.0
 40
0.0
 40
0.0
 40
0.0
 40
0.2164499953511933
 40
0.4402998152333312
 40
0.7518914760010578
 40
1.0
 40
1.0
 40
1.0
 40
1.0
 10
213.6112321199201
 20
129.2687829613447
 30
0.0
 10
213.5329088304323
 20
129.1697430310057
 30
0.0
 10
213.3735845955947
 20
128.9682772700192
 30
0.0
 10
213.0897262291172
 20
128.6100421594972
 30
0.0
 10
212.8013635363116
 20
128.2471247704214
 30
0.0
 10
212.6276998525101
 20
128.0292745107898
 30
0.0
 10
212.5507167793704
 20
127.9327040471003
 30
0.0
  0
SPLINE
  5
AF
330
1F
100
AcDbEntity
  8
0
  6
Continuous
 62
     7
370
    15
100
AcDbSpline
210
0.0
220
0.0
230
1.0
 70
     8
 71
     3
 72
    11
 73
     7
 74
     0
 42
0.00000001
 43
0.00000001
 12
1.0
 22
0.0
 32
0.0
 13
1.0
 23
0.0
 33
0.0
 40
0.0
 40
0.0
 40
0.0
 40
0.0
 40
0.2164499953512002
 40
0.4402998152333403
 40
0.7518914760010778
 40
1.0
 40
1.0
 40
1.0
 40
1.0
 10
212.5507167793704
 20
127.9327040471003
 30
0.0
 10
212.5892393842594
 20
127.8156035521094
 30
0.0
 10
212.6676015749697
 20
127.5773992212452
 30
0.0
 10
212.8248308134611
 20
127.1509863518966
 30
0.0
 10
213.0096251729827
 20
126.7149343132926
 30
0.0
 10
213.1387572825992
 20
126.4502816988798
 30
0.0
 10
213.1960000314669
 20
126.332964300527
 30
0.0
  0
LINE
  5
B0
330
1F
100
AcDbEntity
  8
0
  6
Continuous
 62
     7
370
    15
100
AcDbLine
 10
213.2211265842
 20
128.752227211
 30
0.0
 11
213.6112321199
 21
129.2687829613
 31
0.0
  0
LINE
  5
B1
330
1F
100
AcDbEntity
  8
0
  6
Continuous
 62
     7
370
    15
100
AcDbLine
 10
213.2211265842
 20
128.752227211
 30
0.0
 11
212.6908689139
 21
128.0841877539
 31
0.0
  0
LINE
  5
B2
330
1F
100
AcDbEntity
  8
0
  6
Continuous
 62
     7
370
    15
100
AcDbLine
 10
215.5722084289
 20
126.8888266321
 30
0.0
 11
215.2495668029
 21
127.6886965054
 31
0.0
  0
LINE
  5
B3
330
1F
100
AcDbEntity
  8
0
  6
Continuous
 62
     7
370
    15
100
AcDbLine
 10
215.2495668029
 20
127.6886965054
 30
0.0
 11
214.9269251768
 21
128.4885663787
 31
0.0
  0
LINE
  5
B4
330
1F
100
AcDbEntity
  8
0
  6
Continuous
 62
     7
370
    15
100
AcDbLine
 10
214.9269251768
 20
128.4885663787
 30
0.0
 11
215.3170307126
 21
129.005122129
 31
0.0
  0
LINE
  5
B5
330
1F
100
AcDbEntity
  8
0
  6
Continuous
 62
     7
370
    15
100
AcDbLine
 10
214.9269251768
 20
128.4885663787
 30
0.0
 11
214.0740258805
 21
128.6203967948
 31
0.0
  0
LINE
  5
B6
330
1F
100
AcDbEntity
  8
0
  6
Continuous
 62
     7
370
    15
100
AcDbLine
 10
214.0740258805
 20
128.6203967948
 30
0.0
 11
213.2211265842
 21
128.752227211
 31
0.0
  0
ARC
  5
B7
330
1F
100
AcDbEntity
  8
0
  6
Continuous
 62
     7
370
    15
100
AcDbCircle
 10
213.8849298214
 20
127.1327161933
 30
0.0
 40
1.473549523618286
100
AcDbArc
 50
326.4465547576
 51
22.1669614838
  0
ARC
  5
B8
330
1F
100
AcDbEntity
  8
0
  6
Continuous
 62
     7
370
    15
100
AcDbCircle
 10
213.8432037247
 20
127.1637663906
 30
0.0
 40
1.474805411581537
100
AcDbArc
 50
80.9956039981
 51
141.384073106
  0
ARC
  5
B9
330
1F
100
AcDbEntity
  8
0
  6
Continuous
 62
     7
370
    15
100
AcDbCircle
 10
213.8409348417
 20
127.1188527733
 30
0.0
 40
1.519528177128577
100
AcDbArc
 50
22.025153407
 51
81.1761616207
  0
ELLIPSE
  5
BA
330
1F
100
AcDbEntity
  8
0
  6
Continuous
 62
     7
370
    15
100
AcDbEllipse
 10
224.8832266052
 20
138.1037481529
 30
0.0
 11
1.895184197371663
 21
-1.389650252276113
 31
0.0
210
0.0
220
0.0
230
1.0
 40
0.9861321518
 41
1.410764123840566
 42
3.290169262183633
  0
ELLIPSE
  5
BB
330
1F
100
AcDbEntity
  8
0
  6
Continuous
 62
     7
370
    15
100
AcDbEllipse
 10
224.8832266052
 20
138.1037481529
 30
0.0
 11
1.895184197371663
 21
-1.389650252276113
 31
0.0
210
0.0
220
0.0
230
1.0
 40
0.9861321518
 41
5.842599443267445
 42
7.693949431020161
  0
SPLINE
  5
BC
330
1F
100
AcDbEntity
  8
0
  6
Continuous
 62
     7
370
    15
100
AcDbSpline
210
0.0
220
0.0
230
1.0
 70
     8
 71
     3
 72
    12
 73
     8
 74
     0
 42
0.00000001
 43
0.00000001
 12
1.0
 22
0.0
 32
0.0
 13
1.0
 23
0.0
 33
0.0
 40
0.0
 40
0.0
 40
0.0
 40
0.0
 40
0.0531547061030411
 40
0.2534114888916598
 40
0.488298364101912
 40
0.963651559632383
 40
1.0
 40
1.0
 40
1.0
 40
1.0
 10
226.5605122300194
 20
136.241030972907
 30
0.0
 10
226.5671608759558
 20
136.2488663449258
 30
0.0
 10
226.5988578486115
 20
136.2862209544207
 30
0.0
 10
226.6570315806651
 20
136.3764894393553
 30
0.0
 10
226.7576193350764
 20
136.5491265535239
 30
0.0
 10
226.8309304196808
 20
136.7070258984539
 30
0.0
 10
226.8651939362662
 20
136.8239706532833
 30
0.0
 10
226.8676278260606
 20
136.8322777587312
 30
0.0
  0
ARC
  5
BD
330
1F
100
AcDbEntity
  8
0
  6
Continuous
 62
     7
370
    15
100
AcDbCircle
 10
227.6731761682
 20
129.6205634804
 30
0.0
 40
0.3954656593102405
100
AcDbArc
 50
234.0121140989
 51
334.2948736829
  0
LINE
  5
BE
330
1F
100
AcDbEntity
  8
0
  6
Continuous
 62
     7
370
    15
100
AcDbLine
 10
220.7519011001
 20
134.0619997776
 30
0.0
 11
227.4407949359
 21
129.3005759016
 31
0.0
  0
LINE
  5
BF
330
1F
100
AcDbEntity
  8
0
  6
Continuous
 62
     7
370
    15
100
AcDbLine
 10
216.068287214
 20
140.7907939055
 30
0.0
 11
220.7519011001
 21
134.0619997776
 31
0.0
  0
ARC
  5
C0
330
1F
100
AcDbEntity
  8
0
  6
Continuous
 62
     7
370
    15
100
AcDbCircle
 10
216.388184264
 20
141.0176204798
 30
0.0
 40
0.3921535635118533
100
AcDbArc
 50
114.4243987549
 51
215.3389728063
  0
LINE
  5
C1
330
1F
100
AcDbEntity
  8
0
  6
Continuous
 62
     7
370
    15
100
AcDbLine
 10
223.6266073504
 20
144.7026104963
 30
0.0
 11
216.2260318256
 21
141.3746793042
 31
0.0
  0
LINE
  5
C2
330
1F
100
AcDbEntity
  8
0
  6
Continuous
 62
     7
370
    15
100
AcDbLine
 10
231.7611662785
 20
145.2922583951
 30
0.0
 11
223.6266073504
 21
144.7026104963
 31
0.0
  0
ARC
  5
C3
330
1F
100
AcDbEntity
  8
0
  6
Continuous
 62
     7
370
    15
100
AcDbCircle
 10
231.7900472218
 20
144.8898543288
 30
0.0
 40
0.4034391422338827
100
AcDbArc
 50
355.3048862805
 51
94.105136579
  0
LINE
  5
C4
330
1F
100
AcDbEntity
  8
0
  6
Continuous
 62
     7
370
    15
100
AcDbLine
 10
231.480450883
 20
136.7674763496
 30
0.0
 11
232.192132572
 21
144.8568314176
 31
0.0
  0
LINE
  5
C5
330
1F
100
AcDbEntity
  8
0
  6
Continuous
 62
     7
370
    15
100
AcDbLine
 10
228.029505841
 20
129.4490343227
 30
0.0
 11
231.480450883
 21
136.7674763496
 31
0.0
  0
ARC
  5
C6
330
1F
100
AcDbEntity
  8
0
  6
Continuous
 62
     7
370
    15
100
AcDbCircle
 10
227.6729657931
 20
129.6206208211
 30
0.0
 40
0.3756923763447466
100
AcDbArc
 50
234.0121140989
 51
334.2948736829
  0
LINE
  5
C7
330
1F
100
AcDbEntity
  8
0
  6
Continuous
 62
     7
370
    15
100
AcDbLine
 10
228.0114789823
 20
129.4576681213
 30
0.0
 11
231.4609418087
 21
136.7729668037
 31
0.0
  0
LINE
  5
C8
330
1F
100
AcDbEntity
  8
0
  6
Continuous
 62
     7
370
    15
100
AcDbLine
 10
231.4609418087
 20
136.7729668037
 30
0.0
 11
232.1723178229
 21
144.8588474124
 31
0.0
  0
ARC
  5
C9
330
1F
100
AcDbEntity
  8
0
  6
Continuous
 62
     7
370
    15
100
AcDbCircle
 10
231.79033674
 20
144.8902191779
 30
0.0
 40
0.3832671853187333
100
AcDbArc
 50
355.3048863191
 51
94.1051364978
  0
LINE
  5
CA
330
1F
100
AcDbEntity
  8
0
  6
Continuous
 62
     7
370
    15
100
AcDbLine
 10
231.7628998444
 20
145.2725030411
 30
0.0
 11
223.6318347912
 21
144.683108402
 31
0.0
  0
LINE
  5
CB
330
1F
100
AcDbEntity
  8
0
  6
Continuous
 62
     7
370
    15
100
AcDbLine
 10
223.6318347912
 20
144.683108402
 30
0.0
 11
216.234437888
 21
141.3566065898
 31
0.0
  0
ARC
  5
CC
330
1F
100
AcDbEntity
  8
0
  6
Continuous
 62
     7
370
    15
100
AcDbCircle
 10
216.3884827044
 20
141.0174007066
 30
0.0
 40
0.3725458853362133
100
AcDbArc
 50
114.4243987549
 51
215.3389728063
  0
LINE
  5
CD
330
1F
100
AcDbEntity
  8
0
  6
Continuous
 62
     7
370
    15
100
AcDbLine
 10
216.0845805069
 20
140.8019154611
 30
0.0
 11
220.7661827338
 21
134.0760114178
 31
0.0
  0
LINE
  5
CE
330
1F
100
AcDbEntity
  8
0
  6
Continuous
 62
     7
370
    15
100
AcDbLine
 10
220.7661827338
 20
134.0760114178
 30
0.0
 11
227.4522036224
 21
129.3166326213
 31
0.0
  0
LINE
  5
CF
330
1F
100
AcDbEntity
  8
0
  6
Continuous
 62
     7
370
    15
100
AcDbLine
 10
227.646035842
 20
129.591343942
 30
0.0
 11
227.4522036224
 21
129.3166326213
 31
0.0
  0
LINE
  5
D0
330
1F
100
AcDbEntity
  8
0
  6
Continuous
 62
     7
370
    15
100
AcDbLine
 10
220.9484295056
 20
134.2490413143
 30
0.0
 11
220.7661827338
 21
134.0760114178
 31
0.0
  0
LINE
  5
D1
330
1F
100
AcDbEntity
  8
0
  6
Continuous
 62
     7
370
    15
100
AcDbLine
 10
227.3710579298
 20
130.4351655979
 30
0.0
 11
227.646035842
 21
129.591343942
 31
0.0
  0
LINE
  5
D2
330
1F
100
AcDbEntity
  8
0
  6
Continuous
 62
     7
370
    15
100
AcDbLine
 10
223.9883191385
 20
130.7451722087
 30
0.0
 11
226.9432394508
 21
128.641740988
 31
0.0
  0
LINE
  5
D3
330
1F
100
AcDbEntity
  8
0
  6
Continuous
 62
     7
370
    15
100
AcDbLine
 10
220.617317334
 20
133.8837915444
 30
0.0
 11
220.7519011001
 21
134.0619997776
 31
0.0
  0
LINE
  5
D4
330
1F
100
AcDbEntity
  8
0
  6
Continuous
 62
     7
370
    15
100
AcDbLine
 10
216.3712202477
 20
140.9828586633
 30
0.0
 11
216.0845805069
 21
140.8019154611
 31
0.0
  0
LINE
  5
D5
330
1F
100
AcDbEntity
  8
0
  6
Continuous
 62
     7
370
    15
100
AcDbLine
 10
217.2270345003
 20
140.6841839756
 30
0.0
 11
216.3712202477
 21
140.9828586633
 31
0.0
  0
ARC
  5
D6
330
1F
100
AcDbEntity
  8
0
  6
Continuous
 62
     7
370
    15
100
AcDbCircle
 10
228.5527925874
 20
137.5809555614
 30
0.0
 40
0.9762522099143723
100
AcDbArc
 50
334.7712890703
 51
354.992082491
  0
LINE
  5
D7
330
1F
100
AcDbEntity
  8
0
  6
Continuous
 62
     7
370
    15
100
AcDbLine
 10
227.5211452029
 20
133.1041617689
 30
0.0
 11
229.4359235948
 21
137.1648449977
 31
0.0
  0
ARC
  5
D8
330
1F
100
AcDbEntity
  8
0
  6
Continuous
 62
     7
370
    15
100
AcDbCircle
 10
226.6303210208
 20
133.5329846631
 30
0.0
 40
0.9886641482755918
100
AcDbArc
 50
234.0121140989
 51
334.2948736829
  0
LINE
  5
D9
330
1F
100
AcDbEntity
  8
0
  6
Continuous
 62
     7
370
    15
100
AcDbLine
 10
222.3379934538
 20
135.374921467
 30
0.0
 11
226.0493679401
 21
132.7330157161
 31
0.0
  0
ARC
  5
DA
330
1F
100
AcDbEntity
  8
0
  6
Continuous
 62
     7
370
    15
100
AcDbCircle
 10
222.9260443451
 20
136.2011914027
 30
0.0
 40
1.014162638511983
100
AcDbArc
 50
214.8492313998
 51
234.5607914597
  0
LINE
  5
DB
330
1F
100
AcDbEntity
  8
0
  6
Continuous
 62
     7
370
    15
100
AcDbLine
 10
219.4950307422
 20
139.355193086
 30
0.0
 11
222.0937631347
 21
135.6216796735
 31
0.0
  0
ARC
  5
DC
330
1F
100
AcDbEntity
  8
0
  6
Continuous
 62
     7
370
    15
100
AcDbCircle
 10
220.2947733672
 20
139.9222595216
 30
0.0
 40
0.9803839087795351
100
AcDbArc
 50
114.4243987549
 51
215.3389728063
  0
LINE
  5
DD
330
1F
100
AcDbEntity
  8
0
  6
Continuous
 62
     7
370
    15
100
AcDbLine
 10
223.9956477839
 20
142.6614299723
 30
0.0
 11
219.8893922712
 21
140.8149065827
 31
0.0
  0
ARC
  5
DE
330
1F
100
AcDbEntity
  8
0
  6
Continuous
 62
     7
370
    15
100
AcDbCircle
 10
224.4002082988
 20
141.7607073994
 30
0.0
 40
0.9874058757820882
100
AcDbArc
 50
94.1197041613
 51
114.1872837139
  0
LINE
  5
DF
330
1F
100
AcDbEntity
  8
0
  6
Continuous
 62
     7
370
    15
100
AcDbLine
 10
228.8427833885
 20
143.0727317686
 30
0.0
 11
224.329272604
 21
142.7455619525
 31
0.0
  0
ARC
  5
E0
330
1F
100
AcDbEntity
  8
0
  6
Continuous
 62
     7
370
    15
100
AcDbCircle
 10
228.9149857469
 20
142.0667216028
 30
0.0
 40
1.008597855584773
100
AcDbArc
 50
355.3048862805
 51
94.105136579
  0
LINE
  5
E1
330
1F
100
AcDbEntity
  8
0
  6
Continuous
 62
     7
370
    15
100
AcDbLine
 10
229.5253180959
 20
137.4957351841
 30
0.0
 11
229.9201991223
 21
141.9841643247
 31
0.0
  0
CIRCLE
  5
E2
330
1F
100
AcDbEntity
  8
0
  6
Continuous
 62
     7
370
    15
100
AcDbCircle
 10
225.292638031
 20
138.4723825105
 30
0.0
 40
2.559569971374502
  0
SPLINE
  5
E3
330
1F
100
AcDbEntity
  8
0
  6
Continuous
 62
     7
370
    15
100
AcDbSpline
210
0.0
220
0.0
230
1.0
 70
     8
 71
     3
 72
    11
 73
     7
 74
     0
 42
0.00000001
 43
0.00000001
 12
1.0
 22
0.0
 32
0.0
 13
1.0
 23
0.0
 33
0.0
 40
0.0
 40
0.0
 40
0.0
 40
0.0
 40
0.0048811438300567
 40
0.3156500457815682
 40
0.657180197077607
 40
1.0
 40
1.0
 40
1.0
 40
1.0
 10
227.0121613365024
 20
131.8631414789905
 30
0.0
 10
227.0125826895084
 20
131.8609194484788
 30
0.0
 10
227.0398304208324
 20
131.7172268925648
 30
0.0
 10
227.1050704142638
 20
131.4043645812069
 30
0.0
 10
227.226869814526
 20
130.9047513829931
 30
0.0
 10
227.322934880114
 20
130.5918907206602
 30
0.0
 10
227.3710579298047
 20
130.4351655978747
 30
0.0
  0
LINE
  5
E4
330
1F
100
AcDbEntity
  8
0
  6
Continuous
 62
     7
370
    15
100
AcDbLine
 10
227.646035842
 20
129.591343942
 30
0.0
 11
228.0114789823
 21
129.4576681213
 31
0.0
  0
LINE
  5
E5
330
1F
100
AcDbEntity
  8
0
  6
Continuous
 62
     7
370
    15
100
AcDbLine
 10
231.1721816481
 20
136.8272203282
 30
0.0
 11
231.4609418087
 21
136.7729668037
 31
0.0
  0
ARC
  5
E6
330
1F
100
AcDbEntity
  8
0
  6
Continuous
 62
     7
370
    15
100
AcDbCircle
 10
227.1758295574
 20
128.962716945
 30
0.0
 40
0.3963883483458302
100
AcDbArc
 50
234.0716341271
 51
322.5732711489
  0
SPLINE
  5
E7
330
1F
100
AcDbEntity
  8
0
  6
Continuous
 62
     7
370
    15
100
AcDbSpline
210
0.0
220
0.0
230
1.0
 70
     8
 71
     3
 72
    11
 73
     7
 74
     0
 42
0.00000001
 43
0.00000001
 12
1.0
 22
0.0
 32
0.0
 13
1.0
 23
0.0
 33
0.0
 40
0.0
 40
0.0
 40
0.0
 40
0.0
 40
0.3219798907253708
 40
0.6440235861688476
 40
0.9911766261994326
 40
1.0
 40
1.0
 40
1.0
 40
1.0
 10
220.9484295055764
 20
134.2490413142828
 30
0.0
 10
221.0498653308112
 20
134.3460945542851
 30
0.0
 10
221.2527570821766
 20
134.5402202667163
 30
0.0
 10
221.6254213080261
 20
134.9059333231813
 30
0.0
 10
221.8770185968937
 20
135.1569704126184
 30
0.0
 10
221.9995719370827
 20
135.280508989734
 30
0.0
 10
222.0026095931997
 20
135.2835710663277
 30
0.0
  0
SPLINE
  5
E8
330
1F
100
AcDbEntity
  8
0
  6
Continuous
 62
     7
370
    15
100
AcDbSpline
210
0.0
220
0.0
230
1.0
 70
     8
 71
     3
 72
    11
 73
     7
 74
     0
 42
0.00000001
 43
0.00000001
 12
1.0
 22
0.0
 32
0.0
 13
1.0
 23
0.0
 33
0.0
 40
0.0
 40
0.0
 40
0.0
 40
0.0
 40
0.3428198029224086
 40
0.6843499542184722
 40
0.9951188561699892
 40
1.0
 40
1.0
 40
1.0
 40
1.0
 10
217.2270345002795
 20
140.6841839755564
 30
0.0
 10
217.3852804398456
 20
140.6324041024526
 30
0.0
 10
217.7011770145888
 20
140.5290391466186
 30
0.0
 10
218.1980654177226
 20
140.4035608600665
 30
0.0
 10
218.5065783891206
 20
140.3388017047704
 30
0.0
 10
218.6476226740951
 20
140.3124603505838
 30
0.0
 10
218.6498037523195
 20
140.3120530135973
 30
0.0
  0
LINE
  5
E9
330
1F
100
AcDbEntity
  8
0
  6
Continuous
 62
     7
370
    15
100
AcDbLine
 10
216.3712202477
 20
140.9828586633
 30
0.0
 11
216.234437888
 21
141.3566065898
 31
0.0
  0
LINE
  5
EA
330
1F
100
AcDbEntity
  8
0
  6
Continuous
 62
     7
370
    15
100
AcDbLine
 10
223.6878756358
 20
144.3889920845
 30
0.0
 11
223.6318347912
 21
144.683108402
 31
0.0
  0
LWPOLYLINE
  5
EB
330
1F
100
AcDbEntity
  8
0
  6
Continuous
 62
     7
370
    15
100
AcDbPolyline
 90
        3
 70
   128
 43
0.0
 10
227.2594118984
 20
138.5052695642
 10
227.0433694475
 20
139.038560638
 10
226.8212859476
 20
139.3814855861
  0
ARC
  5
EC
330
1F
100
AcDbEntity
  8
0
  6
Continuous
 62
     7
370
    15
100
AcDbCircle
 10
224.7412710321
 20
137.8804505361
 30
0.0
 40
2.525528220818419
100
AcDbArc
 50
99.888753242
 51
133.398816849
  0
ARC
  5
ED
330
1F
100
AcDbEntity
  8
0
  6
Continuous
 62
     7
370
    15
100
AcDbCircle
 10
224.8227194102
 20
137.816072925
 30
0.0
 40
2.532284006505766
100
AcDbArc
 50
332.5074141596
 51
15.7930803557
  0
SPLINE
  5
EE
330
1F
100
AcDbEntity
  8
0
  6
Continuous
 62
     7
370
    15
100
AcDbSpline
210
0.0
220
0.0
230
1.0
 70
     8
 71
     3
 72
    11
 73
     7
 74
     0
 42
0.00000001
 43
0.00000001
 12
1.0
 22
0.0
 32
0.0
 13
1.0
 23
0.0
 33
0.0
 40
0.0
 40
0.0
 40
0.0
 40
0.0
 40
0.0088233741927914
 40
0.3559983152955999
 40
0.678041986944254
 40
1.0
 40
1.0
 40
1.0
 40
1.0
 10
229.7340682917993
 20
137.2332549285409
 30
0.0
 10
229.7376533024783
 20
137.2318629257684
 30
0.0
 10
229.8822983933641
 20
137.1756995316907
 30
0.0
 10
230.1970579811774
 20
137.0674767635574
 30
0.0
 10
230.7054791991544
 20
136.9239534341633
 30
0.0
 10
231.0166279604097
 20
136.8594618375015
 30
0.0
 10
231.1721816481062
 20
136.8272203281807
 30
0.0
  0
LINE
  5
EF
330
1F
100
AcDbEntity
  8
0
  6
Continuous
 62
     7
370
    15
100
AcDbLine
 10
231.7729047725
 20
144.8667849622
 30
0.0
 11
232.1723178229
 21
144.8588474124
 31
0.0
  0
LINE
  5
F0
330
1F
100
AcDbEntity
  8
0
  6
Continuous
 62
     7
370
    15
100
AcDbLine
 10
231.0840282016
 20
144.1785772138
 30
0.0
 11
231.7729047725
 21
144.8667849622
 31
0.0
  0
LINE
  5
F1
330
1F
100
AcDbEntity
  8
0
  6
Continuous
 62
     7
370
    15
100
AcDbLine
 10
231.7729047725
 20
144.8667849622
 30
0.0
 11
231.7628998444
 21
145.2725030411
 31
0.0
  0
SPLINE
  5
F2
330
1F
100
AcDbEntity
  8
0
  6
Continuous
 62
     7
370
    15
100
AcDbSpline
210
0.0
220
0.0
230
1.0
 70
     8
 71
     3
 72
    11
 73
     7
 74
     0
 42
0.00000001
 43
0.00000001
 12
1.0
 22
0.0
 32
0.0
 13
1.0
 23
0.0
 33
0.0
 40
0.0
 40
0.0
 40
0.0
 40
0.0
 40
0.3224837050121966
 40
0.6449232485211618
 40
0.9911766421304062
 40
0.9999999999999999
 40
0.9999999999999999
 40
0.9999999999999999
 40
0.9999999999999999
 10
223.6878756357825
 20
144.3889920844656
 30
0.0
 10
223.7205054081139
 20
144.2308927984601
 30
0.0
 10
223.7857604843965
 20
143.914715876852
 30
0.0
 10
223.9223937257295
 20
143.4065786354064
 30
0.0
 10
224.0221531471365
 20
143.0962670694313
 30
0.0
 10
224.0729845893268
 20
142.9551633659615
 30
0.0
 10
224.0742477078036
 20
142.9516570579105
 30
0.0
  0
SPLINE
  5
F3
330
1F
100
AcDbEntity
  8
0
  6
Continuous
 62
     7
370
    15
100
AcDbSpline
210
0.0
220
0.0
230
1.0
 70
     8
 71
     3
 72
    11
 73
     7
 74
     0
 42
0.00000001
 43
0.00000001
 12
1.0
 22
0.0
 32
0.0
 13
1.0
 23
0.0
 33
0.0
 40
0.0
 40
0.0
 40
0.0
 40
0.0
 40
0.0048811438300619
 40
0.3156500457815688
 40
0.6571801970776048
 40
1.0
 40
1.0
 40
1.0
 40
1.0
 10
230.0729966478428
 20
143.1927015058907
 30
0.0
 10
230.0743705567907
 20
143.1940053232687
 30
0.0
 10
230.1632174413346
 20
143.2783195802094
 30
0.0
 10
230.3652605146326
 20
143.4718284216767
 30
0.0
 10
230.7135153679496
 20
143.8104310658178
 30
0.0
 10
230.9603688592836
 20
144.0557077572066
 30
0.0
 10
231.0840282015954
 20
144.1785772138129
 30
0.0
  0
LINE
  5
F4
330
1F
100
AcDbEntity
  8
0
  6
Continuous
 62
     7
370
    15
100
AcDbLine
 10
223.9883191385
 20
130.7451722087
 30
0.0
 11
226.3607117413
 21
129.0564076597
 31
0.0
  0
LINE
  5
F5
330
1F
100
AcDbEntity
  8
0
  6
Continuous
 62
     7
370
    15
100
AcDbLine
 10
223.6899329212
 20
130.0084060723
 30
0.0
 11
225.8945147951
 21
128.4390959549
 31
0.0
  0
ARC
  5
F6
330
1F
100
AcDbEntity
  8
0
  6
Continuous
 62
     7
370
    15
100
AcDbCircle
 10
226.4762467395
 20
129.2427884191
 30
0.0
 40
0.9921358940236635
100
AcDbArc
 50
234.102075866
 51
317.1115602348
  0
SPLINE
  5
F7
330
1F
100
AcDbEntity
  8
0
  6
HIDDEN
 62
     7
370
     0
100
AcDbSpline
210
0.0
220
0.0
230
1.0
 70
     8
 71
     3
 72
    12
 73
     8
 74
     0
 42
0.00000001
 43
0.00000001
 12
1.0
 22
0.0
 32
0.0
 13
1.0
 23
0.0
 33
0.0
 40
0.0
 40
0.0
 40
0.0
 40
0.0
 40
0.500000000000005
 40
0.500000000000005
 40
0.7500000000000024
 40
0.7500000000000024
 40
1.0
 40
1.0
 40
1.0
 40
1.0
 10
180.2883904661002
 20
133.945942758858
 30
0.0
 10
180.3190898494675
 20
133.9850806012539
 30
0.0
 10
180.360439917574
 20
134.0222403839794
 30
0.0
 10
180.4601958457935
 20
134.0721768896071
 30
0.0
 10
180.4998927635262
 20
134.0876297597509
 30
0.0
 10
180.5971509151738
 20
134.1115493033499
 30
0.0
 10
180.6579270731645
 20
134.1200323971283
 30
0.0
 10
180.7214031679925
 20
134.1200323971283
 30
0.0
  0
LINE
  5
F8
330
1F
100
AcDbEntity
  8
0
  6
HIDDEN
 62
     7
370
     0
100
AcDbLine
 10
180.721403168
 20
134.1200323971
 30
0.0
 11
183.6658895409
 21
134.1200323971
 31
0.0
  0
SPLINE
  5
F9
330
1F
100
AcDbEntity
  8
0
  6
HIDDEN
 62
     7
370
     0
100
AcDbSpline
210
0.0
220
0.0
230
1.0
 70
     8
 71
     3
 72
    12
 73
     8
 74
     0
 42
0.00000001
 43
0.00000001
 12
1.0
 22
0.0
 32
0.0
 13
1.0
 23
0.0
 33
0.0
 40
0.0
 40
0.0
 40
0.0
 40
0.0
 40
0.25
 40
0.25
 40
0.5
 40
0.5
 40
1.0
 40
1.0
 40
1.0
 40
1.0
 10
183.6658895408596
 20
134.1200323971283
 30
0.0
 10
183.7295547773901
 20
134.1200323971283
 30
0.0
 10
183.7891610096134
 20
134.1117676214624
 30
0.0
 10
183.8878215345443
 20
134.0875488398793
 30
0.0
 10
183.9267885245595
 20
134.0722915205701
 30
0.0
 10
184.026175356484
 20
134.0226581663082
 30
0.0
 10
184.0682516039074
 20
133.9850184581341
 30
0.0
 10
184.0989022427518
 20
133.945942758858
 30
0.0
  0
ELLIPSE
  5
FA
330
1F
100
AcDbEntity
  8
0
  6
HIDDEN
 62
     7
370
     0
100
AcDbEllipse
 10
171.1373886994
 20
110.2933012816
 30
0.0
 11
11.70927234972723
 21
24.67718644093745
 31
0.0
210
0.0
220
0.0
230
1.0
 40
0.3419987131
 41
5.203068809370468
 42
6.114256032590515
  0
SPLINE
  5
FB
330
1F
100
AcDbEntity
  8
0
  6
HIDDEN
 62
     7
370
     0
100
AcDbSpline
210
0.0
220
0.0
230
1.0
 70
     8
 71
     3
 72
    12
 73
     8
 74
     0
 42
0.00000001
 43
0.00000001
 12
1.0
 22
0.0
 32
0.0
 13
1.0
 23
0.0
 33
0.0
 40
0.0
 40
0.0
 40
0.0
 40
0.0
 40
0.5000000000000013
 40
0.5000000000000013
 40
0.7500000000000007
 40
0.7500000000000007
 40
1.0
 40
1.0
 40
1.0
 40
1.0
 10
184.0989022427518
 20
118.3897542796708
 30
0.0
 10
184.0682028593845
 20
118.275418612607
 30
0.0
 10
184.026852791278
 20
118.1640652597656
 30
0.0
 10
183.9270968630585
 20
118.0113284875169
 30
0.0
 10
183.8873999453258
 20
117.9634686016647
 30
0.0
 10
183.7901417936782
 20
117.8888654883153
 30
0.0
 10
183.7293656356875
 20
117.8621112508072
 30
0.0
 10
183.6658895408596
 20
117.8621112508072
 30
0.0
  0
LINE
  5
FC
330
1F
100
AcDbEntity
  8
0
  6
HIDDEN
 62
     7
370
     0
100
AcDbLine
 10
183.6658895409
 20
117.8621112508
 30
0.0
 11
180.721403168
 21
117.8621112508
 31
0.0
  0
SPLINE
  5
FD
330
1F
100
AcDbEntity
  8
0
  6
HIDDEN
 62
     7
370
     0
100
AcDbSpline
210
0.0
220
0.0
230
1.0
 70
     8
 71
     3
 72
    12
 73
     8
 74
     0
 42
0.00000001
 43
0.00000001
 12
1.0
 22
0.0
 32
0.0
 13
1.0
 23
0.0
 33
0.0
 40
0.0
 40
0.0
 40
0.0
 40
0.0
 40
0.2499999999999998
 40
0.2499999999999998
 40
0.4999999999999996
 40
0.4999999999999996
 40
1.0
 40
1.0
 40
1.0
 40
1.0
 10
180.7214031679925
 20
117.8621112508072
 30
0.0
 10
180.657737931462
 20
117.8621112508072
 30
0.0
 10
180.5981316992386
 20
117.8881833992868
 30
0.0
 10
180.4994711743077
 20
117.9637221501079
 30
0.0
 10
180.4605041842925
 20
118.0109730872042
 30
0.0
 10
180.361117352368
 20
118.1627969051706
 30
0.0
 10
180.3190411049446
 20
118.2756001549357
 30
0.0
 10
180.2883904661002
 20
118.3897542796708
 30
0.0
  0
ELLIPSE
  5
FE
330
1F
100
AcDbEntity
  8
0
  6
HIDDEN
 62
     7
370
     0
100
AcDbEllipse
 10
193.2499040094
 20
110.2933012816
 30
0.0
 11
-11.70927234972714
 21
24.67718644093745
 31
0.0
210
0.0
220
0.0
230
1.0
 40
0.3419987131
 41
0.1689292745891142
 42
1.080116497809133
  0
SPLINE
  5
FF
330
1F
100
AcDbEntity
  8
0
  6
HIDDEN
 62
     7
370
     0
100
AcDbSpline
210
0.0
220
0.0
230
1.0
 70
     8
 71
     3
 72
    12
 73
     8
 74
     0
 42
0.00000001
 43
0.00000001
 12
1.0
 22
0.0
 32
0.0
 13
1.0
 23
0.0
 33
0.0
 40
0.0
 40
0.0
 40
0.0
 40
0.0
 40
0.5000000000000018
 40
0.5000000000000018
 40
0.7500000000000009
 40
0.7500000000000009
 40
1.0
 40
1.0
 40
1.0
 40
1.0
 10
180.2883904661002
 20
102.196848283582
 30
0.0
 10
180.3190898494675
 20
102.3111839506458
 30
0.0
 10
180.360439917574
 20
102.4225373034872
 30
0.0
 10
180.4601958457935
 20
102.5752740757359
 30
0.0
 10
180.4998927635262
 20
102.6231339615881
 30
0.0
 10
180.5971509151738
 20
102.6977370749375
 30
0.0
 10
180.6579270731645
 20
102.7244913124456
 30
0.0
 10
180.7214031679925
 20
102.7244913124456
 30
0.0
  0
LINE
  5
100
330
1F
100
AcDbEntity
  8
0
  6
HIDDEN
 62
     7
370
     0
100
AcDbLine
 10
180.721403168
 20
102.7244913124
 30
0.0
 11
183.6658895409
 21
102.7244913124
 31
0.0
  0
SPLINE
  5
101
330
1F
100
AcDbEntity
  8
0
  6
HIDDEN
 62
     7
370
     0
100
AcDbSpline
210
0.0
220
0.0
230
1.0
 70
     8
 71
     3
 72
    12
 73
     8
 74
     0
 42
0.00000001
 43
0.00000001
 12
1.0
 22
0.0
 32
0.0
 13
1.0
 23
0.0
 33
0.0
 40
0.0
 40
0.0
 40
0.0
 40
0.0
 40
0.2499999999999984
 40
0.2499999999999984
 40
0.4999999999999968
 40
0.4999999999999968
 40
1.0
 40
1.0
 40
1.0
 40
1.0
 10
183.6658895408596
 20
102.7244913124456
 30
0.0
 10
183.7295547773901
 20
102.7244913124456
 30
0.0
 10
183.7891610096134
 20
102.6984191639659
 30
0.0
 10
183.8878215345443
 20
102.6228804131448
 30
0.0
 10
183.9267885245595
 20
102.5756294760486
 30
0.0
 10
184.026175356484
 20
102.4238056580822
 30
0.0
 10
184.0682516039074
 20
102.3110024083171
 30
0.0
 10
184.0989022427518
 20
102.196848283582
 30
0.0
  0
ELLIPSE
  5
102
330
1F
100
AcDbEntity
  8
0
  6
HIDDEN
 62
     7
370
     0
100
AcDbEllipse
 10
171.1373886994
 20
110.2933012816
 30
0.0
 11
-11.70927234972715
 21
24.67718644093742
 31
0.0
210
0.0
220
0.0
230
1.0
 40
0.3419987131
 41
3.310521928178955
 42
4.221709151398947
  0
SPLINE
  5
103
330
1F
100
AcDbEntity
  8
0
  6
HIDDEN
 62
     7
370
     0
100
AcDbSpline
210
0.0
220
0.0
230
1.0
 70
     8
 71
     3
 72
    12
 73
     8
 74
     0
 42
0.00000001
 43
0.00000001
 12
1.0
 22
0.0
 32
0.0
 13
1.0
 23
0.0
 33
0.0
 40
0.0
 40
0.0
 40
0.0
 40
0.0
 40
0.5
 40
0.5
 40
0.75
 40
0.75
 40
1.0
 40
1.0
 40
1.0
 40
1.0
 10
184.0989022427518
 20
86.64065980439466
 30
0.0
 10
184.0682028593845
 20
86.60152196199874
 30
0.0
 10
184.0268527912779
 20
86.56436217927327
 30
0.0
 10
183.9270968630585
 20
86.5144256736455
 30
0.0
 10
183.8873999453258
 20
86.49897280350174
 30
0.0
 10
183.7901417936782
 20
86.4750532599027
 30
0.0
 10
183.7293656356875
 20
86.4665701661243
 30
0.0
 10
183.6658895408596
 20
86.4665701661243
 30
0.0
  0
LINE
  5
104
330
1F
100
AcDbEntity
  8
0
  6
HIDDEN
 62
     7
370
     0
100
AcDbLine
 10
183.6658895409
 20
86.4665701661
 30
0.0
 11
180.721403168
 21
86.4665701661
 31
0.0
  0
SPLINE
  5
105
330
1F
100
AcDbEntity
  8
0
  6
HIDDEN
 62
     7
370
     0
100
AcDbSpline
210
0.0
220
0.0
230
1.0
 70
     8
 71
     3
 72
    12
 73
     8
 74
     0
 42
0.00000001
 43
0.00000001
 12
1.0
 22
0.0
 32
0.0
 13
1.0
 23
0.0
 33
0.0
 40
0.0
 40
0.0
 40
0.0
 40
0.0
 40
0.2499999999999984
 40
0.2499999999999984
 40
0.4999999999999968
 40
0.4999999999999968
 40
1.0
 40
1.0
 40
1.0
 40
1.0
 10
180.7214031679925
 20
86.4665701661243
 30
0.0
 10
180.657737931462
 20
86.4665701661243
 30
0.0
 10
180.5981316992386
 20
86.47483494179018
 30
0.0
 10
180.4994711743078
 20
86.49905372337332
 30
0.0
 10
180.4605041842925
 20
86.51431104268248
 30
0.0
 10
180.361117352368
 20
86.5639443969444
 30
0.0
 10
180.3190411049446
 20
86.60158410511852
 30
0.0
 10
180.2883904661002
 20
86.64065980439466
 30
0.0
  0
ELLIPSE
  5
106
330
1F
100
AcDbEntity
  8
0
  6
HIDDEN
 62
     7
370
     0
100
AcDbEllipse
 10
193.2499040094
 20
110.2933012816
 30
0.0
 11
11.70927234972697
 21
24.67718644093745
 31
0.0
210
0.0
220
0.0
230
1.0
 40
0.3419987131
 41
2.061476155780646
 42
2.972663379000657
  0
SPLINE
  5
107
330
1F
100
AcDbEntity
  8
0
  6
HIDDEN
 62
     7
370
     0
100
AcDbSpline
210
0.0
220
0.0
230
1.0
 70
     8
 71
     3
 72
    58
 73
    54
 74
     0
 42
0.00000001
 43
0.00000001
 12
1.0
 22
0.0
 32
0.0
 13
1.0
 23
0.0
 33
0.0
 40
-0.0624999999999999
 40
-0.0624999999999999
 40
0.0
 40
0.0
 40
0.0312499999999999
 40
0.0312499999999999
 40
0.0624999999999999
 40
0.0624999999999999
 40
0.0937499999999998
 40
0.0937499999999998
 40
0.1249999999999998
 40
0.1249999999999998
 40
0.1874999999999994
 40
0.1874999999999994
 40
0.2499999999999989
 40
0.2499999999999989
 40
0.2812499999999989
 40
0.2812499999999989
 40
0.3124999999999989
 40
0.3124999999999989
 40
0.3437499999999989
 40
0.3437499999999989
 40
0.3749999999999989
 40
0.3749999999999989
 40
0.4062499999999989
 40
0.4062499999999989
 40
0.4374999999999989
 40
0.4374999999999989
 40
0.4687499999999989
 40
0.4687499999999989
 40
0.4999999999999989
 40
0.4999999999999989
 40
0.5624999999999989
 40
0.5624999999999989
 40
0.6249999999999989
 40
0.6249999999999989
 40
0.656249999999999
 40
0.656249999999999
 40
0.6874999999999992
 40
0.6874999999999992
 40
0.7187499999999993
 40
0.7187499999999993
 40
0.7499999999999994
 40
0.7499999999999994
 40
0.7812499999999997
 40
0.7812499999999997
 40
0.8124999999999998
 40
0.8124999999999998
 40
0.84375
 40
0.84375
 40
0.8750000000000001
 40
0.8750000000000001
 40
0.9375000000000001
 40
0.9375000000000001
 40
1.0
 40
1.0
 40
1.03125
 40
1.03125
 10
186.193646354426
 20
110.0289289110828
 30
0.0
 10
186.193646354426
 20
110.4254874668979
 30
0.0
 10
186.1806704624155
 20
110.5554542064427
 30
0.0
 10
186.1298381603096
 20
110.8111335445748
 30
0.0
 10
186.0913610889882
 20
110.9381746364163
 30
0.0
 10
185.9909561278318
 20
111.1803528223568
 30
0.0
 10
185.9295218855125
 20
111.2952064809463
 30
0.0
 10
185.7843876193308
 20
111.5125716027522
 30
0.0
 10
185.6999456981835
 20
111.6154470748364
 30
0.0
 10
185.4232736685736
 20
111.8920650272536
 30
0.0
 10
185.2002275136055
 20
112.0410571470865
 30
0.0
 10
184.718963515061
 20
112.2405809420777
 30
0.0
 10
184.4557056597412
 20
112.29315980658
 30
0.0
 10
184.0642396284564
 20
112.2933715801675
 30
0.0
 10
183.9316908848429
 20
112.2803806085781
 30
0.0
 10
183.6751465758276
 20
112.2293443852883
 30
0.0
 10
183.5504506894559
 20
112.1915828438855
 30
0.0
 10
183.3082477190222
 20
112.0914233045921
 30
0.0
 10
183.1911843557715
 20
112.0288254948415
 30
0.0
 10
182.9744980365254
 20
111.8841035108059
 30
0.0
 10
182.8734840684577
 20
111.8014794056376
 30
0.0
 10
182.6866908741722
 20
111.6148590350266
 30
0.0
 10
182.6038905102179
 20
111.5138106671354
 30
0.0
 10
182.4590120713233
 20
111.2972986462616
 30
0.0
 10
182.396361287996
 20
111.1804092910626
 30
0.0
 10
182.2959208936221
 20
110.9381518890037
 30
0.0
 10
182.2580618818521
 20
110.8134892241883
 30
0.0
 10
182.2068241773886
 20
110.5571580285335
 30
0.0
 10
182.1936938026155
 20
110.4245700891831
 30
0.0
 10
182.1935518521766
 20
110.0329384206138
 30
0.0
 10
182.2458927684247
 20
109.7697255875795
 30
0.0
 10
182.4450229951628
 20
109.2882182568882
 30
0.0
 10
182.5938600828051
 20
109.0650177756126
 30
0.0
 10
182.8701721193445
 20
108.7881716956509
 30
0.0
 10
182.9729376565957
 20
108.7036596014321
 30
0.0
 10
183.1902545889495
 20
108.5582810047007
 30
0.0
 10
183.3050414994864
 20
108.4967655730988
 30
0.0
 10
183.5469609895923
 20
108.3962095128532
 30
0.0
 10
183.6740878920923
 20
108.3575707870186
 30
0.0
 10
183.9297567277285
 20
108.3065059201313
 30
0.0
 10
184.0596519331064
 20
108.293431439755
 30
0.0
 10
184.3237267155309
 20
108.2931730384814
 30
0.0
 10
184.4540558550162
 20
108.3060491064443
 30
0.0
 10
184.70974516916
 20
108.3566478977723
 30
0.0
 10
184.8366730355477
 20
108.3949532436099
 30
0.0
 10
185.0791253243898
 20
108.4952090760298
 30
0.0
 10
185.1940420183714
 20
108.5565600949419
 30
0.0
 10
185.4114328101419
 20
108.7014289305121
 30
0.0
 10
185.5144180898234
 20
108.7857928837815
 30
0.0
 10
185.7913824574807
 20
109.0623189375676
 30
0.0
 10
185.9405147358392
 20
109.2851787795633
 30
0.0
 10
186.1404668545536
 20
109.766281299624
 30
0.0
 10
186.193646354426
 20
110.0289289110828
 30
0.0
 10
186.193646354426
 20
110.4254874668979
 30
0.0
  0
SPLINE
  5
108
330
1F
100
AcDbEntity
  8
0
  6
HIDDEN
 62
     7
370
     0
100
AcDbSpline
210
0.0
220
0.0
230
1.0
 70
     8
 71
     3
 72
    70
 73
    66
 74
     0
 42
0.00000001
 43
0.00000001
 12
1.0
 22
0.0
 32
0.0
 13
1.0
 23
0.0
 33
0.0
 40
-0.03125
 40
-0.03125
 40
0.0
 40
0.0
 40
0.03125
 40
0.03125
 40
0.0625
 40
0.0625
 40
0.09375
 40
0.09375
 40
0.125
 40
0.125
 40
0.15625
 40
0.15625
 40
0.1875
 40
0.1875
 40
0.21875
 40
0.21875
 40
0.25
 40
0.25
 40
0.28125
 40
0.28125
 40
0.3125
 40
0.3125
 40
0.34375
 40
0.34375
 40
0.375
 40
0.375
 40
0.40625
 40
0.40625
 40
0.4375
 40
0.4375
 40
0.46875
 40
0.46875
 40
0.5
 40
0.5
 40
0.53125
 40
0.53125
 40
0.5625
 40
0.5625
 40
0.59375
 40
0.59375
 40
0.625
 40
0.625
 40
0.65625
 40
0.65625
 40
0.6875
 40
0.6875
 40
0.71875
 40
0.71875
 40
0.75
 40
0.75
 40
0.78125
 40
0.78125
 40
0.8125
 40
0.8125
 40
0.84375
 40
0.84375
 40
0.875
 40
0.875
 40
0.90625
 40
0.90625
 40
0.9375
 40
0.9375
 40
0.96875
 40
0.96875
 40
1.0
 40
1.0
 40
1.03125
 40
1.03125
 10
195.193646354426
 20
96.47794789576136
 30
0.0
 10
195.193646354426
 20
96.1490094939537
 30
0.0
 10
195.1741619920375
 20
95.98863746041253
 30
0.0
 10
195.0978517184867
 20
95.6755978505624
 30
0.0
 10
195.0400866226444
 20
95.52133046025862
 30
0.0
 10
194.8894445073687
 20
95.22955662237909
 30
0.0
 10
194.7972866813344
 20
95.09230172015754
 30
0.0
 10
194.5795877397318
 20
94.83423459345067
 30
0.0
 10
194.4529927243129
 20
94.71307439575375
 30
0.0
 10
194.1764800219286
 20
94.49705109467622
 30
0.0
 10
194.0255705511906
 20
94.40070681187738
 30
0.0
 10
193.6977088605214
 20
94.23118069255271
 30
0.0
 10
193.5233638206428
 20
94.1596285436756
 30
0.0
 10
193.1624650179659
 20
94.0448773138919
 30
0.0
 10
192.9732380088085
 20
94.0008340475405
 30
0.0
 10
192.5859139186176
 20
93.94199907789121
 30
0.0
 10
192.3911490613088
 20
93.92746861037222
 30
0.0
 10
191.9994659030708
 20
93.92730346901007
 30
0.0
 10
191.800513747512
 20
93.94214885052621
 30
0.0
 10
191.4156251321526
 20
94.00057715909524
 30
0.0
 10
191.2285347366088
 20
94.04384523698927
 30
0.0
 10
190.8651091176812
 20
94.15910862348036
 30
0.0
 10
190.6896718610414
 20
94.23125310366501
 30
0.0
 10
190.3647849334791
 20
94.39900637360293
 30
0.0
 10
190.2131906512577
 20
94.49525892494628
 30
0.0
 10
189.9331541896101
 20
94.71390423118359
 30
0.0
 10
189.809145293709
 20
94.83281289548175
 30
0.0
 10
189.5918540012857
 20
95.08982966089134
 30
0.0
 10
189.4978144311955
 20
95.22961367393786
 30
0.0
 10
189.3471944927237
 20
95.5213612748386
 30
0.0
 10
189.2903650642382
 20
95.67267954142243
 30
0.0
 10
189.2134257974488
 20
95.98656831114029
 30
0.0
 10
189.1937197292418
 20
96.15017550104515
 30
0.0
 10
189.1935733982325
 20
96.47492378709832
 30
0.0
 10
189.2124967955417
 20
96.63769351588442
 30
0.0
 10
189.2892703528788
 20
96.96389815870445
 30
0.0
 10
189.3467922195339
 20
97.12460228431787
 30
0.0
 10
189.4961922386877
 20
97.43327647663739
 30
0.0
 10
189.5892324802097
 20
97.58361297967983
 30
0.0
 10
189.8081860638424
 20
97.86771065264729
 30
0.0
 10
189.9321591829403
 20
97.99944633684859
 30
0.0
 10
190.2084494987696
 20
98.24210822887879
 30
0.0
 10
190.3625879550912
 20
98.35387538039258
 30
0.0
 10
190.6882351041596
 20
98.54671709161298
 30
0.0
 10
190.8603600661238
 20
98.62880302987067
 30
0.0
 10
191.2234678642824
 20
98.76337486334941
 30
0.0
 10
191.4140011697056
 20
98.81518878885903
 30
0.0
 10
191.7975278576062
 20
98.88380644869818
 30
0.0
 10
191.992524147638
 20
98.90144704865703
 30
0.0
 10
192.3892718710269
 20
98.90177294348797
 30
0.0
 10
192.5843615513371
 20
98.88444822510839
 30
0.0
 10
192.9681026433175
 20
98.81643323853906
 30
0.0
 10
193.1587802793213
 20
98.76490621914844
 30
0.0
 10
193.5221308732528
 20
98.63091179064634
 30
0.0
 10
193.6944624397157
 20
98.54907916457203
 30
0.0
 10
194.0206580771674
 20
98.35662143861408
 30
0.0
 10
194.1749596467352
 20
98.2451037662135
 30
0.0
 10
194.4516480810964
 20
98.00291197009776
 30
0.0
 10
194.5759070583302
 20
97.87134355067862
 30
0.0
 10
194.7955388475472
 20
97.58738982577788
 30
0.0
 10
194.8887579757921
 20
97.43734919402037
 30
0.0
 10
195.0387557481197
 20
97.12895350719616
 30
0.0
 10
195.0965769408337
 20
96.9685201199631
 30
0.0
 10
195.1741596045463
 20
96.6418762225788
 30
0.0
 10
195.193646354426
 20
96.47794789576136
 30
0.0
 10
195.193646354426
 20
96.1490094939537
 30
0.0
  0
LINE
  5
109
330
1F
100
AcDbEntity
  8
0
  6
HIDDEN
 62
     7
370
     0
100
AcDbLine
 10
172.1936463544
 20
134.9933012816
 30
0.0
 11
172.1936463544
 21
85.5933012816
 31
0.0
  0
LINE
  5
10A
330
1F
100
AcDbEntity
  8
0
  6
HIDDEN
 62
     7
370
     0
100
AcDbLine
 10
172.1936463544
 20
90.7433012816
 30
0.0
 11
172.1936463544
 21
129.8433012816
 31
0.0
  0
LWPOLYLINE
  5
10B
330
1F
100
AcDbEntity
  8
0
  6
HIDDEN
 62
     7
370
     0
100
AcDbPolyline
 90
       28
 70
   128
 43
0.0
 10
188.790065701
 20
122.0684553278
 10
188.9871631938
 20
122.1085053022
 10
189.2431743894
 20
122.0309459073
 10
189.544297658
 20
121.8399583901
 10
189.8742993662
 20
121.5458389373
 10
190.2153890365
 20
121.1644436046
 10
190.5491784365
 20
120.716333513
 10
190.8576728932
 20
120.2256663937
 10
191.1242413907
 20
119.7188942381
 10
191.3345131522
 20
119.2233372642
 10
191.4771523727
 20
118.7657110767
 10
191.5444693348
 20
118.3706864219
 10
191.5328349637
 20
118.0595591812
 10
191.4428764713
 20
117.8491023047
 10
191.2794435433
 20
117.7506615769
 10
191.0513468912
 20
117.7695439632
 10
190.7708832644
 20
117.904731509
 10
190.4531725297
 20
118.1489362189
 10
190.115342555
 20
118.4889929536
 10
189.7756058417
 20
118.9065691667
 10
189.452277684
 20
119.3791532164
 10
189.1627887866
 20
119.8812679743
 10
188.9227455707
 20
120.3858443037
 10
188.7450888284
 20
120.8656803641
 10
188.6393960806
 20
121.2949080695
 10
188.6113652506
 20
121.6503876429
 10
188.6625074879
 20
121.9129550887
 10
188.790065701
 20
122.0684553278
  0
SPLINE
  5
10C
330
1F
100
AcDbEntity
  8
0
  6
HIDDEN
 62
     7
370
     0
100
AcDbSpline
210
0.0
220
0.0
230
1.0
 70
     8
 71
     3
 72
    36
 73
    32
 74
     0
 42
0.00000001
 43
0.00000001
 12
1.0
 22
0.0
 32
0.0
 13
1.0
 23
0.0
 33
0.0
 40
0.0
 40
0.0
 40
0.0
 40
0.0
 40
0.0624999999999997
 40
0.0624999999999997
 40
0.1249999999999993
 40
0.1249999999999993
 40
0.187499999999999
 40
0.187499999999999
 40
0.2499999999999987
 40
0.2499999999999987
 40
0.3124999999999983
 40
0.3124999999999983
 40
0.374999999999998
 40
0.374999999999998
 40
0.4374999999999977
 40
0.4374999999999977
 40
0.4999999999999973
 40
0.4999999999999973
 40
0.562499999999997
 40
0.562499999999997
 40
0.6249999999999967
 40
0.6249999999999967
 40
0.6874999999999968
 40
0.6874999999999968
 40
0.7499999999999969
 40
0.7499999999999969
 40
0.8749999999999989
 40
0.8749999999999989
 40
0.9374999999999994
 40
0.9374999999999994
 40
1.0
 40
1.0
 40
1.0
 40
1.0
 10
190.2102084458463
 20
122.1796227432622
 30
0.0
 10
190.1454144086542
 20
122.0376459316393
 30
0.0
 10
190.0820374764816
 20
121.8921686402853
 30
0.0
 10
189.9666882666144
 20
121.5939382224199
 30
0.0
 10
189.9143416554356
 20
121.4411880090801
 30
0.0
 10
189.8237297185966
 20
121.1275620529137
 30
0.0
 10
189.7852637766171
 20
120.9656146103615
 30
0.0
 10
189.7273264264722
 20
120.6403111608087
 30
0.0
 10
189.7075520575576
 20
120.4764419733327
 30
0.0
 10
189.6899402831777
 20
120.1458295623124
 30
0.0
 10
189.6923224111181
 20
119.9774844848726
 30
0.0
 10
189.7240795826857
 20
119.649354902317
 30
0.0
 10
189.7531197455776
 20
119.4887680190543
 30
0.0
 10
189.843676651082
 20
119.1761161966869
 30
0.0
 10
189.9041298687507
 20
119.0286167357301
 30
0.0
 10
190.0567258551781
 20
118.7585808848937
 30
0.0
 10
190.149851988483
 20
118.6356801803347
 30
0.0
 10
190.3584578823409
 20
118.4303974586026
 30
0.0
 10
190.4770355797131
 20
118.3449098094459
 30
0.0
 10
190.7266553255382
 20
118.2163880722641
 30
0.0
 10
190.8593342708878
 20
118.171958540019
 30
0.0
 10
191.1300566513976
 20
118.1200704576761
 30
0.0
 10
191.2663908647501
 20
118.1124775187573
 30
0.0
 10
191.5408176621831
 20
118.127278656422
 30
0.0
 10
191.6796811744124
 20
118.1501519810307
 30
0.0
 10
192.0852340436451
 20
118.2550534784941
 30
0.0
 10
192.3471044396578
 20
118.3732575006151
 30
0.0
 10
192.7264420789086
 20
118.6028940876404
 30
0.0
 10
192.8493755698357
 20
118.68753518643
 30
0.0
 10
193.0920244240857
 20
118.8709098166631
 30
0.0
 10
193.2107229519
 20
118.9697861070386
 30
0.0
 10
193.3357472699076
 20
119.0742932217572
 30
0.0
  0
SPLINE
  5
10D
330
1F
100
AcDbEntity
  8
0
  6
HIDDEN
 62
     7
370
     0
100
AcDbSpline
210
0.0
220
0.0
230
1.0
 70
     8
 71
     3
 72
     8
 73
     4
 74
     0
 42
0.00000001
 43
0.00000001
 12
1.0
 22
0.0
 32
0.0
 13
1.0
 23
0.0
 33
0.0
 40
0.0
 40
0.0
 40
0.0
 40
0.0
 40
1.0
 40
1.0
 40
1.0
 40
1.0
 10
193.3357472699077
 20
119.0742932217572
 30
0.0
 10
193.5441339796768
 20
119.2063503254944
 30
0.0
 10
193.7537291246528
 20
119.3325734336836
 30
0.0
 10
193.955745468323
 20
119.4477373899477
 30
0.0
  0
SPLINE
  5
10E
330
1F
100
AcDbEntity
  8
0
  6
HIDDEN
 62
     7
370
     0
100
AcDbSpline
210
0.0
220
0.0
230
1.0
 70
     8
 71
     3
 72
    38
 73
    34
 74
     0
 42
0.00000001
 43
0.00000001
 12
1.0
 22
0.0
 32
0.0
 13
1.0
 23
0.0
 33
0.0
 40
0.0
 40
0.0
 40
0.0
 40
0.0
 40
0.0625
 40
0.0625
 40
0.125
 40
0.125
 40
0.1875
 40
0.1875
 40
0.25
 40
0.25
 40
0.3125
 40
0.3125
 40
0.375
 40
0.375
 40
0.4375
 40
0.4375
 40
0.5
 40
0.5
 40
0.5625
 40
0.5625
 40
0.625
 40
0.625
 40
0.6875
 40
0.6875
 40
0.75
 40
0.75
 40
0.8125
 40
0.8125
 40
0.875
 40
0.875
 40
0.9375
 40
0.9375
 40
1.0
 40
1.0
 40
1.0
 40
1.0
 10
193.955745468323
 20
119.4477373899477
 30
0.0
 10
194.0554487590615
 20
119.4785897549491
 30
0.0
 10
194.1380133747752
 20
119.5009981179061
 30
0.0
 10
194.2880849757299
 20
119.5542296907016
 30
0.0
 10
194.3544471227068
 20
119.5836107641907
 30
0.0
 10
194.4717735444821
 20
119.6532910436994
 30
0.0
 10
194.5228639985774
 20
119.6937884534549
 30
0.0
 10
194.6059468792793
 20
119.7864762691831
 30
0.0
 10
194.6382356250387
 20
119.838655184472
 30
0.0
 10
194.6823795537571
 20
119.9569502100496
 30
0.0
 10
194.6942877910238
 20
120.0230120450761
 30
0.0
 10
194.6929523408146
 20
120.1728816104194
 30
0.0
 10
194.6795412769552
 20
120.2552383445936
 30
0.0
 10
194.6234887716751
 20
120.4344777279043
 30
0.0
 10
194.5798372260158
 20
120.5333225356547
 30
0.0
 10
194.4622388048927
 20
120.7393552453255
 30
0.0
 10
194.388550672542
 20
120.846977646456
 30
0.0
 10
194.207553877552
 20
121.0728293442831
 30
0.0
 10
194.1038925919191
 20
121.1863061395806
 30
0.0
 10
193.8752821346967
 20
121.4106130269219
 30
0.0
 10
193.7496207293953
 20
121.5218658000571
 30
0.0
 10
193.4914562582629
 20
121.7313656479691
 30
0.0
 10
193.3559633425107
 20
121.832105357696
 30
0.0
 10
193.0870290270412
 20
122.0177214213229
 30
0.0
 10
192.9525168060369
 20
122.1035749733063
 30
0.0
 10
192.6836326746266
 20
122.2638485361532
 30
0.0
 10
192.5497875224404
 20
122.3378318206549
 30
0.0
 10
192.2910011222637
 20
122.4718144244514
 30
0.0
 10
192.164856882467
 20
122.5324995502248
 30
0.0
 10
191.919010638881
 20
122.6437276112123
 30
0.0
 10
191.7987412593692
 20
122.6943848459757
 30
0.0
 10
191.5692393114424
 20
122.7873052686751
 30
0.0
 10
191.4596271888496
 20
122.8291584091855
 30
0.0
 10
191.359213689392
 20
122.8717042824008
 30
0.0
  0
SPLINE
  5
10F
330
1F
100
AcDbEntity
  8
0
  6
HIDDEN
 62
     7
370
     0
100
AcDbSpline
210
0.0
220
0.0
230
1.0
 70
     8
 71
     3
 72
    10
 73
     6
 74
     0
 42
0.00000001
 43
0.00000001
 12
1.0
 22
0.0
 32
0.0
 13
1.0
 23
0.0
 33
0.0
 40
0.0
 40
0.0
 40
0.0
 40
0.0
 40
0.5
 40
0.5
 40
1.0
 40
1.0
 40
1.0
 40
1.0
 10
191.3592136893919
 20
122.8717042824007
 30
0.0
 10
191.1649281272835
 20
122.7828362895274
 30
0.0
 10
190.9712143282669
 20
122.6809932676708
 30
0.0
 10
190.5835940067822
 20
122.4475022142455
 30
0.0
 10
190.3942305385955
 20
122.3185384126706
 30
0.0
 10
190.2102084458463
 20
122.1796227432622
 30
0.0
  0
SPLINE
  5
110
330
1F
100
AcDbEntity
  8
0
  6
HIDDEN
 62
     7
370
     0
100
AcDbSpline
210
0.0
220
0.0
230
1.0
 70
     8
 71
     3
 72
    14
 73
    10
 74
     0
 42
0.00000001
 43
0.00000001
 12
1.0
 22
0.0
 32
0.0
 13
1.0
 23
0.0
 33
0.0
 40
0.0
 40
0.0
 40
0.0
 40
0.0
 40
0.25
 40
0.25
 40
0.5
 40
0.5
 40
0.75
 40
0.75
 40
1.0
 40
1.0
 40
1.0
 40
1.0
 10
171.1527853262976
 20
122.5877768266997
 30
0.0
 10
171.1845004606284
 20
122.5299936443565
 30
0.0
 10
171.2191149859287
 20
122.4735809832816
 30
0.0
 10
171.2987861813441
 20
122.3659815332662
 30
0.0
 10
171.3438420583745
 20
122.3140689063451
 30
0.0
 10
171.4543964708799
 20
122.2278702816478
 30
0.0
 10
171.521781885084
 20
122.1937808616761
 30
0.0
 10
171.6724114049821
 20
122.1916784696593
 30
0.0
 10
171.7422386417475
 20
122.225050242504
 30
0.0
 10
171.7986694655509
 20
122.2688629110547
 30
0.0
  0
SPLINE
  5
111
330
1F
100
AcDbEntity
  8
0
  6
HIDDEN
 62
     7
370
     0
100
AcDbSpline
210
0.0
220
0.0
230
1.0
 70
     8
 71
     3
 72
    16
 73
    12
 74
     0
 42
0.00000001
 43
0.00000001
 12
1.0
 22
0.0
 32
0.0
 13
1.0
 23
0.0
 33
0.0
 40
0.0
 40
0.0
 40
0.0
 40
0.0
 40
0.0624999999999991
 40
0.0624999999999991
 40
0.1249999999999981
 40
0.1249999999999981
 40
0.2499999999999981
 40
0.2499999999999981
 40
0.500000000000002
 40
0.500000000000002
 40
1.0
 40
1.0
 40
1.0
 40
1.0
 10
171.7986694655191
 20
122.2688629110853
 30
0.0
 10
171.810403699966
 20
122.2779733243333
 30
0.0
 10
171.823935455445
 20
122.2860506802797
 30
0.0
 10
171.8539229158748
 20
122.2942975219566
 30
0.0
 10
171.8689176222831
 20
122.2933702043691
 30
0.0
 10
171.9046580446779
 20
122.2806036848372
 30
0.0
 10
171.9186713816791
 20
122.2629550383269
 30
0.0
 10
171.9528154704604
 20
122.2083021182953
 30
0.0
 10
171.9637873745788
 20
122.1669024506369
 30
0.0
 10
171.9896329148451
 20
122.0384127069141
 30
0.0
 10
171.993646354426
 20
121.9477946192754
 30
0.0
 10
171.993646354426
 20
121.8555755147213
 30
0.0
  0
LINE
  5
112
330
1F
100
AcDbEntity
  8
0
  6
HIDDEN
 62
     7
370
     0
100
AcDbLine
 10
171.9936463544
 20
98.7310270485
 30
0.0
 11
171.9936463544
 21
121.8555755147
 31
0.0
  0
SPLINE
  5
113
330
1F
100
AcDbEntity
  8
0
  6
HIDDEN
 62
     7
370
     0
100
AcDbSpline
210
0.0
220
0.0
230
1.0
 70
     8
 71
     3
 72
    16
 73
    12
 74
     0
 42
0.00000001
 43
0.00000001
 12
1.0
 22
0.0
 32
0.0
 13
1.0
 23
0.0
 33
0.0
 40
0.0
 40
0.0
 40
0.0
 40
0.0
 40
0.4999999999999954
 40
0.4999999999999954
 40
0.7499999999999931
 40
0.7499999999999931
 40
0.8749999999999944
 40
0.8749999999999944
 40
0.9374999999999972
 40
0.9374999999999972
 40
1.0
 40
1.0
 40
1.0
 40
1.0
 10
171.993646354426
 20
98.73102704853119
 30
0.0
 10
171.993646354426
 20
98.63844319762728
 30
0.0
 10
171.9895890523109
 20
98.54823074176701
 30
0.0
 10
171.9639318095161
 20
98.42028961464864
 30
0.0
 10
171.952616363774
 20
98.37787640023672
 30
0.0
 10
171.9185849964654
 20
98.32356235678557
 30
0.0
 10
171.9047060152616
 20
98.30598102139571
 30
0.0
 10
171.8687703334942
 20
98.29319733346072
 30
0.0
 10
171.8538200142314
 20
98.2923218353126
 30
0.0
 10
171.8239215014896
 20
98.300567270432
 30
0.0
 10
171.8103886411243
 20
98.30864093060373
 30
0.0
 10
171.7986694655503
 20
98.31773965219787
 30
0.0
  0
SPLINE
  5
114
330
1F
100
AcDbEntity
  8
0
  6
HIDDEN
 62
     7
370
     0
100
AcDbSpline
210
0.0
220
0.0
230
1.0
 70
     8
 71
     3
 72
    14
 73
    10
 74
     0
 42
0.00000001
 43
0.00000001
 12
1.0
 22
0.0
 32
0.0
 13
1.0
 23
0.0
 33
0.0
 40
0.0
 40
0.0
 40
0.0
 40
0.0
 40
0.25
 40
0.25
 40
0.5
 40
0.5
 40
0.75
 40
0.75
 40
1.0
 40
1.0
 40
1.0
 40
1.0
 10
171.7986694655572
 20
98.3177396522064
 30
0.0
 10
171.7422137009484
 20
98.36157168470113
 30
0.0
 10
171.6713480746985
 20
98.39490272112297
 30
0.0
 10
171.5228909935259
 20
98.39284371097554
 30
0.0
 10
171.4536976342184
 20
98.35824768657385
 30
0.0
 10
171.3439821960842
 20
98.27258232991099
 30
0.0
 10
171.2987376167528
 20
98.22055988520297
 30
0.0
 10
171.2191109073291
 20
98.11301162487305
 30
0.0
 10
171.1845007587956
 20
98.05660946214003
 30
0.0
 10
171.1527853262964
 20
97.99882573655054
 30
0.0
  0
SPLINE
  5
115
330
1F
100
AcDbEntity
  8
0
  6
HIDDEN
 62
     7
370
     0
100
AcDbSpline
210
0.0
220
0.0
230
1.0
 70
     8
 71
     3
 72
    10
 73
     6
 74
     0
 42
0.00000001
 43
0.00000001
 12
1.0
 22
0.0
 32
0.0
 13
1.0
 23
0.0
 33
0.0
 40
0.0
 40
0.0
 40
0.0
 40
0.0
 40
0.5
 40
0.5
 40
1.0
 40
1.0
 40
1.0
 40
1.0
 10
171.1527853262969
 20
97.99882573655154
 30
0.0
 10
171.0810055383735
 20
97.86804701964968
 30
0.0
 10
171.0285460240654
 20
97.73394687014648
 30
0.0
 10
170.9392029599643
 20
97.46585430715776
 30
0.0
 10
170.9032073504645
 20
97.33160893556888
 30
0.0
 10
170.8723260108664
 20
97.19825455809385
 30
0.0
  0
SPLINE
  5
116
330
1F
100
AcDbEntity
  8
0
  6
HIDDEN
 62
     7
370
     0
100
AcDbSpline
210
0.0
220
0.0
230
1.0
 70
     8
 71
     3
 72
    10
 73
     6
 74
     0
 42
0.00000001
 43
0.00000001
 12
1.0
 22
0.0
 32
0.0
 13
1.0
 23
0.0
 33
0.0
 40
0.0
 40
0.0
 40
0.0
 40
0.0
 40
0.5
 40
0.5
 40
1.0
 40
1.0
 40
1.0
 40
1.0
 10
170.8723260108664
 20
92.99639141362142
 30
0.0
 10
170.9031990426786
 20
92.98010826625429
 30
0.0
 10
170.9391859055916
 20
92.96785067652871
 30
0.0
 10
171.0285204914827
 20
92.95074768769999
 30
0.0
 10
171.0809763509053
 20
92.94594809184163
 30
0.0
 10
171.1527853262976
 20
92.9441440004337
 30
0.0
  0
SPLINE
  5
117
330
1F
100
AcDbEntity
  8
0
  6
HIDDEN
 62
     7
370
     0
100
AcDbSpline
210
0.0
220
0.0
230
1.0
 70
     8
 71
     3
 72
     8
 73
     4
 74
     0
 42
0.00000001
 43
0.00000001
 12
1.0
 22
0.0
 32
0.0
 13
1.0
 23
0.0
 33
0.0
 40
0.0
 40
0.0
 40
0.0
 40
0.0
 40
1.0
 40
1.0
 40
1.0
 40
1.0
 10
171.975949731051
 20
92.81825962218663
 30
0.0
 10
171.9899365395931
 20
92.79001923160493
 30
0.0
 10
171.9936463544258
 20
92.76688718879416
 30
0.0
 10
171.9936463544261
 20
92.746546815959
 30
0.0
  0
LINE
  5
118
330
1F
100
AcDbEntity
  8
0
  6
HIDDEN
 62
     7
370
     0
100
AcDbLine
 10
171.9936463544
 20
92.4534810028
 30
0.0
 11
171.9936463544
 21
92.746546816
 31
0.0
  0
LINE
  5
119
330
1F
100
AcDbEntity
  8
0
  6
HIDDEN
 62
     7
370
     0
100
AcDbLine
 10
171.9936463544
 20
127.8400557473
 30
0.0
 11
171.9936463544
 21
128.1331215605
 31
0.0
  0
SPLINE
  5
11A
330
1F
100
AcDbEntity
  8
0
  6
HIDDEN
 62
     7
370
     0
100
AcDbSpline
210
0.0
220
0.0
230
1.0
 70
     8
 71
     3
 72
     8
 73
     4
 74
     0
 42
0.00000001
 43
0.00000001
 12
1.0
 22
0.0
 32
0.0
 13
1.0
 23
0.0
 33
0.0
 40
0.0
 40
0.0
 40
0.0
 40
0.0
 40
1.0
 40
1.0
 40
1.0
 40
1.0
 10
171.9936463544261
 20
127.8400557472938
 30
0.0
 10
171.9936463544259
 20
127.8224884058229
 30
0.0
 10
171.9906520061923
 20
127.8027659268207
 30
0.0
 10
171.9810465734727
 20
127.7795635633112
 30
0.0
  0
SPLINE
  5
11B
330
1F
100
AcDbEntity
  8
0
  6
HIDDEN
 62
     7
370
     0
100
AcDbSpline
210
0.0
220
0.0
230
1.0
 70
     8
 71
     3
 72
    10
 73
     6
 74
     0
 42
0.00000001
 43
0.00000001
 12
1.0
 22
0.0
 32
0.0
 13
1.0
 23
0.0
 33
0.0
 40
0.0
 40
0.0
 40
0.0
 40
0.0
 40
0.5
 40
0.5
 40
1.0
 40
1.0
 40
1.0
 40
1.0
 10
171.1527853262985
 20
127.6424585628188
 30
0.0
 10
171.0809763509058
 20
127.6406544714109
 30
0.0
 10
171.0285204914831
 20
127.6358548755526
 30
0.0
 10
170.9391859055917
 20
127.6187518867238
 30
0.0
 10
170.9031990426787
 20
127.6064942969982
 30
0.0
 10
170.8723260108664
 20
127.5902111496311
 30
0.0
  0
SPLINE
  5
11C
330
1F
100
AcDbEntity
  8
0
  6
HIDDEN
 62
     7
370
     0
100
AcDbSpline
210
0.0
220
0.0
230
1.0
 70
     8
 71
     3
 72
    10
 73
     6
 74
     0
 42
0.00000001
 43
0.00000001
 12
1.0
 22
0.0
 32
0.0
 13
1.0
 23
0.0
 33
0.0
 40
0.0
 40
0.0
 40
0.0
 40
0.0
 40
0.5
 40
0.5
 40
1.0
 40
1.0
 40
1.0
 40
1.0
 10
170.8723260108664
 20
123.3883480051586
 30
0.0
 10
170.9032073504646
 20
123.2549936276834
 30
0.0
 10
170.9392029599644
 20
123.1207482560943
 30
0.0
 10
171.0285460240657
 20
122.8526556931051
 30
0.0
 10
171.0810055383739
 20
122.7185555436017
 30
0.0
 10
171.1527853262976
 20
122.5877768266997
 30
0.0
  0
ARC
  5
11D
330
1F
100
AcDbEntity
  8
0
  6
HIDDEN
 62
     7
370
     0
100
AcDbCircle
 10
192.3498237406
 20
121.4125275356
 30
0.0
 40
2.537594315904902
100
AcDbArc
 50
292.8628667959
 51
309.2608553865
  0
ARC
  5
11E
330
1F
100
AcDbEntity
  8
0
  6
HIDDEN
 62
     7
370
     0
100
AcDbCircle
 10
192.0438677949
 20
120.4351906419
 30
0.0
 40
2.530879286840609
100
AcDbArc
 50
105.695227284
 51
136.4284948984
  0
SPLINE
  5
11F
330
1F
100
AcDbEntity
  8
0
  6
HIDDEN
 62
     7
370
     0
100
AcDbSpline
210
0.0
220
0.0
230
1.0
 70
     8
 71
     3
 72
    66
 73
    62
 74
     0
 42
0.00000001
 43
0.00000001
 12
1.0
 22
0.0
 32
0.0
 13
1.0
 23
0.0
 33
0.0
 40
-0.0312500000000001
 40
-0.0312500000000001
 40
0.0
 40
0.0
 40
0.03125
 40
0.03125
 40
0.0625
 40
0.0625
 40
0.09375
 40
0.09375
 40
0.125
 40
0.125
 40
0.1874999999999999
 40
0.1874999999999999
 40
0.2187499999999999
 40
0.2187499999999999
 40
0.2499999999999999
 40
0.2499999999999999
 40
0.2812499999999999
 40
0.2812499999999999
 40
0.3124999999999999
 40
0.3124999999999999
 40
0.3437499999999999
 40
0.3437499999999999
 40
0.3749999999999999
 40
0.3749999999999999
 40
0.4062499999999998
 40
0.4062499999999998
 40
0.4374999999999998
 40
0.4374999999999998
 40
0.4687499999999998
 40
0.4687499999999998
 40
0.4999999999999998
 40
0.4999999999999998
 40
0.5312499999999999
 40
0.5312499999999999
 40
0.5624999999999999
 40
0.5624999999999999
 40
0.5937499999999999
 40
0.5937499999999999
 40
0.6249999999999999
 40
0.6249999999999999
 40
0.6874999999999999
 40
0.6874999999999999
 40
0.7187499999999999
 40
0.7187499999999999
 40
0.7499999999999998
 40
0.7499999999999998
 40
0.7812499999999998
 40
0.7812499999999998
 40
0.8124999999999998
 40
0.8124999999999998
 40
0.8437499999999998
 40
0.8437499999999998
 40
0.8749999999999998
 40
0.8749999999999998
 40
0.9062499999999998
 40
0.9062499999999998
 40
0.9374999999999998
 40
0.9374999999999998
 40
0.9687499999999999
 40
0.9687499999999999
 40
1.0
 40
1.0
 40
1.03125
 40
1.03125
 10
192.3601992621828
 20
112.0261989178568
 30
0.0
 10
192.0270934466692
 20
112.0261989178568
 30
0.0
 10
191.8636024930794
 20
112.0432768036522
 30
0.0
 10
191.5424003477104
 20
112.1094907258144
 30
0.0
 10
191.3829879901542
 20
112.1594937147894
 30
0.0
 10
191.0809492630137
 20
112.28747797248
 30
0.0
 10
190.9379012256521
 20
112.3650834313123
 30
0.0
 10
190.6671680037012
 20
112.5457164453442
 30
0.0
 10
190.5400984887347
 20
112.6487786755413
 30
0.0
 10
190.1970904777619
 20
112.981409748952
 30
0.0
 10
190.011258216358
 20
113.2427404380405
 30
0.0
 10
189.8234528531993
 20
113.6500293977453
 30
0.0
 10
189.7747127764209
 20
113.790937367059
 30
0.0
 10
189.7099487243062
 20
114.0712829847299
 30
0.0
 10
189.6937566137721
 20
114.2096494415715
 30
0.0
 10
189.6935372066053
 20
114.4824860341703
 30
0.0
 10
189.7100853006387
 20
114.6177720161995
 30
0.0
 10
189.7745144543423
 20
114.8723356303231
 30
0.0
 10
189.8221729235272
 20
114.993177875199
 30
0.0
 10
189.9488688913259
 20
115.2228282251309
 30
0.0
 10
190.0264424771249
 20
115.3287428914516
 30
0.0
 10
190.207049103305
 20
115.5227317825332
 30
0.0
 10
190.3116021524207
 20
115.612030948664
 30
0.0
 10
190.5416107927649
 20
115.7702352432408
 30
0.0
 10
190.6664908511397
 20
115.8392018279146
 30
0.0
 10
190.9363904227695
 20
115.9589736390818
 30
0.0
 10
191.0824867892526
 20
116.0098130412683
 30
0.0
 10
191.3831994130612
 20
116.0900878580866
 30
0.0
 10
191.5391471014186
 20
116.1202709394341
 30
0.0
 10
191.862926965167
 20
116.1611485835168
 30
0.0
 10
192.0286253089171
 20
116.1713457782449
 30
0.0
 10
192.3566691889244
 20
116.1714275340199
 30
0.0
 10
192.5219947402612
 20
116.1613554307589
 30
0.0
 10
192.8463231962715
 20
116.1205923280612
 30
0.0
 10
193.0026759971332
 20
116.0904188849964
 30
0.0
 10
193.3043921753624
 20
116.0099705223849
 30
0.0
 10
193.450482705077
 20
115.9591251221735
 30
0.0
 10
193.7201964824821
 20
115.839505052199
 30
0.0
 10
193.8453778161252
 20
115.770467148399
 30
0.0
 10
194.1919883565527
 20
115.5319935749934
 30
0.0
 10
194.3751311914411
 20
115.3374096930831
 30
0.0
 10
194.5647977515804
 20
114.9938331123773
 30
0.0
 10
194.6124354990089
 20
114.8732689269676
 30
0.0
 10
194.6769537339411
 20
114.6191913715079
 30
0.0
 10
194.6936508396828
 20
114.4839749425587
 30
0.0
 10
194.6936418673154
 20
114.2108118434688
 30
0.0
 10
194.6775110313689
 20
114.0723189807378
 30
0.0
 10
194.6128513547002
 20
113.7918014944189
 30
0.0
 10
194.564181000061
 20
113.6508538213422
 30
0.0
 10
194.4387516277422
 20
113.3786692912824
 30
0.0
 10
194.3610079752521
 20
113.2449701302617
 30
0.0
 10
194.1787084882392
 20
112.9899009165679
 30
0.0
 10
194.0757453349449
 20
112.8703708557034
 30
0.0
 10
193.8465443626525
 20
112.6481932620376
 30
0.0
 10
193.7189133845444
 20
112.5448405968955
 30
0.0
 10
193.4490677231078
 20
112.3649354610234
 30
0.0
 10
193.3062129797207
 20
112.2873992229585
 30
0.0
 10
193.0038154524746
 20
112.1593099104213
 30
0.0
 10
192.8446002215299
 20
112.1094211270452
 30
0.0
 10
192.5237124902118
 20
112.0432907792009
 30
0.0
 10
192.3601992621828
 20
112.0261989178568
 30
0.0
 10
192.0270934466692
 20
112.0261989178568
 30
0.0
  0
LINE
  5
120
330
1F
100
AcDbEntity
  8
0
  6
HIDDEN
 62
     7
370
     0
100
AcDbLine
 10
171.9936463544
 20
92.746546816
 30
0.0
 11
171.9936463544
 21
104.3088210491
 31
0.0
  0
LINE
  5
121
330
1F
100
AcDbEntity
  8
0
  6
HIDDEN
 62
     7
370
     0
100
AcDbLine
 10
171.9936463544
 20
116.2777815142
 30
0.0
 11
171.9936463544
 21
127.8400557473
 31
0.0
  0
CIRCLE
  5
122
330
1F
100
AcDbEntity
  8
0
  6
HIDDEN
 62
     7
370
     0
100
AcDbCircle
 10
158.1936463544
 20
110.2933012816
 30
0.0
 40
3.049999999999997
  0
LINE
  5
123
330
1F
100
AcDbEntity
  8
0
  6
HIDDEN
 62
     7
370
     0
100
AcDbLine
 10
147.22168621
 20
121.0819764162
 30
0.0
 11
147.22168621
 21
99.504626147
 31
0.0
  0
LINE
  5
124
330
1F
100
AcDbEntity
  8
0
  6
HIDDEN
 62
     7
370
     0
100
AcDbLine
 10
143.22168621
 20
121.4631742627
 30
0.0
 11
143.22168621
 21
99.1234283005
 31
0.0
  0
LINE
  5
125
330
1F
100
AcDbEntity
  8
0
  6
HIDDEN
 62
     7
370
     0
100
AcDbLine
 10
142.1936463544
 20
98.5298892132
 30
0.0
 11
142.1936463544
 21
122.0567133501
 31
0.0
  0
LINE
  5
126
330
1F
100
AcDbEntity
  8
0
  6
HIDDEN
 62
     7
370
     0
100
AcDbLine
 10
151.82168621
 20
120.7933012816
 30
0.0
 11
151.82168621
 21
99.7933012816
 31
0.0
  0
LINE
  5
127
330
1F
100
AcDbEntity
  8
0
  6
HIDDEN
 62
     7
370
     0
100
AcDbLine
 10
145.72168621
 20
120.7933012816
 30
0.0
 11
145.72168621
 21
99.7933012816
 31
0.0
  0
LINE
  5
128
330
1F
100
AcDbEntity
  8
0
  6
HIDDEN
 62
     7
370
     0
100
AcDbLine
 10
227.9810103632
 20
129.3711686941
 30
0.0
 11
229.8164572377
 21
133.263613048
 31
0.0
  0
LINE
  5
129
330
1F
100
AcDbEntity
  8
0
  6
HIDDEN
 62
     7
370
     0
100
AcDbLine
 10
229.8260658685
 20
133.2590110825
 30
0.0
 11
229.8164572377
 21
133.263613048
 31
0.0
  0
SPLINE
  5
12A
330
1F
100
AcDbEntity
  8
0
  6
HIDDEN
 62
     7
370
     0
100
AcDbSpline
210
0.0
220
0.0
230
1.0
 70
     8
 71
     3
 72
    10
 73
     6
 74
     0
 42
0.00000001
 43
0.00000001
 12
1.0
 22
0.0
 32
0.0
 13
1.0
 23
0.0
 33
0.0
 40
0.0
 40
0.0
 40
0.0
 40
0.0
 40
0.5
 40
0.5
 40
1.0
 40
1.0
 40
1.0
 40
1.0
 10
205.3922451927361
 20
113.8087524550571
 30
0.0
 10
205.3708059992436
 20
113.2228795836179
 30
0.0
 10
205.3442844073169
 20
112.6370445532294
 30
0.0
 10
205.3048567888123
 20
111.4652731176182
 30
0.0
 10
205.2923447702315
 20
110.8793337788048
 30
0.0
 10
205.2923447702315
 20
110.2933012816262
 30
0.0
  0
LINE
  5
12B
330
1F
100
AcDbEntity
  8
0
  6
HIDDEN
 62
     7
370
     0
100
AcDbLine
 10
205.2923447702
 20
84.7933012816
 30
0.0
 11
205.2923447702
 21
110.2933012816
 31
0.0
  0
LINE
  5
12C
330
1F
100
AcDbEntity
  8
0
  6
HIDDEN
 62
     7
370
     0
100
AcDbLine
 10
146.72168621
 20
120.7933012816
 30
0.0
 11
146.72168621
 21
99.7933012816
 31
0.0
  0
ELLIPSE
  5
12D
330
1F
100
AcDbEntity
  8
0
  6
HIDDEN
 62
     7
370
     0
100
AcDbEllipse
 10
226.993042881
 20
110.2933012816
 30
0.0
 11
18.15229867158573
 21
25.49989429287246
 31
0.0
210
0.0
220
0.0
230
1.0
 40
0.0040448756
 41
1.632175362983149
 42
3.144472021887493
  0
ELLIPSE
  5
12E
330
1F
100
AcDbEntity
  8
0
  6
HIDDEN
 62
     7
370
     0
100
AcDbEllipse
 10
228.2661773026
 20
110.2933012816
 30
0.0
 11
2.616148959823704
 21
25.49889135791085
 31
0.0
210
0.0
220
0.0
230
1.0
 40
0.090889472
 41
1.580121183404162
 42
1.638620851297987
  0
SPLINE
  5
12F
330
1F
100
AcDbEntity
  8
0
  6
HIDDEN
 62
     7
370
     0
100
AcDbSpline
210
0.0
220
0.0
230
1.0
 70
     8
 71
     3
 72
    66
 73
    62
 74
     0
 42
0.00000001
 43
0.00000001
 12
1.0
 22
0.0
 32
0.0
 13
1.0
 23
0.0
 33
0.0
 40
-0.03125
 40
-0.03125
 40
0.0
 40
0.0
 40
0.0312499999999999
 40
0.0312499999999999
 40
0.0624999999999999
 40
0.0624999999999999
 40
0.0937499999999998
 40
0.0937499999999998
 40
0.1249999999999998
 40
0.1249999999999998
 40
0.1874999999999996
 40
0.1874999999999996
 40
0.2187499999999996
 40
0.2187499999999996
 40
0.2499999999999995
 40
0.2499999999999995
 40
0.2812499999999994
 40
0.2812499999999994
 40
0.3124999999999994
 40
0.3124999999999994
 40
0.3437499999999993
 40
0.3437499999999993
 40
0.3749999999999993
 40
0.3749999999999993
 40
0.4062499999999992
 40
0.4062499999999992
 40
0.4374999999999992
 40
0.4374999999999992
 40
0.4687499999999991
 40
0.4687499999999991
 40
0.4999999999999991
 40
0.4999999999999991
 40
0.531249999999999
 40
0.531249999999999
 40
0.5624999999999989
 40
0.5624999999999989
 40
0.5937499999999989
 40
0.5937499999999989
 40
0.624999999999999
 40
0.624999999999999
 40
0.6562499999999991
 40
0.6562499999999991
 40
0.6874999999999993
 40
0.6874999999999993
 40
0.7187499999999994
 40
0.7187499999999994
 40
0.7499999999999997
 40
0.7499999999999997
 40
0.7812499999999998
 40
0.7812499999999998
 40
0.8125
 40
0.8125
 40
0.875
 40
0.875
 40
0.9062500000000001
 40
0.9062500000000001
 40
0.9375000000000001
 40
0.9375000000000001
 40
0.96875
 40
0.96875
 40
1.0
 40
1.0
 40
1.03125
 40
1.03125
 10
157.9909677074782
 20
113.3433012816262
 30
0.0
 10
158.3963250013738
 20
113.3433012816262
 30
0.0
 10
158.5953848927096
 20
113.3233017220096
 30
0.0
 10
158.9866388772894
 20
113.2451582193095
 30
0.0
 10
159.180911636037
 20
113.1859971177887
 30
0.0
 10
159.5496750625883
 20
113.0325654308944
 30
0.0
 10
159.7244002209666
 20
112.9388386210522
 30
0.0
 10
160.0550775245004
 20
112.7175845186473
 30
0.0
 10
160.2107250685032
 20
112.5896031516527
 30
0.0
 10
160.6301924381718
 20
112.1700480546527
 30
0.0
 10
160.8570805797022
 20
111.8315694959493
 30
0.0
 10
161.0858772030869
 20
111.2816906082311
 30
0.0
 10
161.1450694579358
 20
111.0882907624877
 30
0.0
 10
161.2238768681963
 20
110.6940626121298
 30
0.0
 10
161.2435162844767
 20
110.4954237846974
 30
0.0
 10
161.2437751488983
 20
110.095123498799
 30
0.0
 10
161.2237044642653
 20
109.8917841720779
 30
0.0
 10
161.1453667816354
 20
109.4996926514703
 30
0.0
 10
161.0874170135969
 20
109.3089867831551
 30
0.0
 10
160.933473871717
 20
108.9382629665685
 30
0.0
 10
160.8385352579943
 20
108.7615363067597
 30
0.0
 10
160.6181778421171
 20
108.4322831958354
 30
0.0
 10
160.4908978161888
 20
108.2771619722389
 30
0.0
 10
160.2091422248583
 20
107.9954852773085
 30
0.0
 10
160.0563538954008
 20
107.8700520924041
 30
0.0
 10
159.7269268132439
 20
107.64927649905
 30
0.0
 10
159.5483808100921
 20
107.5534452463498
 30
0.0
 10
159.180808484542
 20
107.4006161158547
 30
0.0
 10
158.990654457831
 20
107.3424443579105
 30
0.0
 10
158.5971140351286
 20
107.2634510655656
 30
0.0
 10
158.3946799638674
 20
107.2433879399234
 30
0.0
 10
157.995250888502
 20
107.2432151938046
 30
0.0
 10
157.7952319099461
 20
107.2626985678939
 30
0.0
 10
157.3991159624967
 20
107.3416901394951
 30
0.0
 10
157.2083831343049
 20
107.3999703593471
 30
0.0
 10
156.8407516937251
 20
107.5525379799551
 30
0.0
 10
156.6622652615574
 20
107.6481467667284
 30
0.0
 10
156.3320600025933
 20
107.8691588118134
 30
0.0
 10
156.1791714245314
 20
107.9946087105835
 30
0.0
 10
155.8975750299933
 20
108.2758391995889
 30
0.0
 10
155.7699441071178
 20
108.4312220775028
 30
0.0
 10
155.549618672118
 20
108.7600729355457
 30
0.0
 10
155.4553922151526
 20
108.9349610419597
 30
0.0
 10
155.3004576945495
 20
109.3071048933205
 30
0.0
 10
155.2424454089473
 20
109.4979109351295
 30
0.0
 10
155.1640261546691
 20
109.8887839530482
 30
0.0
 10
155.1437120747026
 20
110.0912415144305
 30
0.0
 10
155.1435809583986
 20
110.4933721193499
 30
0.0
 10
155.163205651758
 20
110.692096164525
 30
0.0
 10
155.2413721021716
 20
111.0849356356617
 30
0.0
 10
155.3006595475115
 20
111.2795799130643
 30
0.0
 10
155.5297403905944
 20
111.8310196664785
 30
0.0
 10
155.7565712414886
 20
112.1693592321777
 30
0.0
 10
156.1759099428093
 20
112.5890248948292
 30
0.0
 10
156.3312629385592
 20
112.7168709006024
 30
0.0
 10
156.6622307716964
 20
112.9384719753043
 30
0.0
 10
156.8367920718928
 20
113.0321127092812
 30
0.0
 10
157.2043653794676
 20
113.1852668299804
 30
0.0
 10
157.3990522411057
 20
113.2447705756265
 30
0.0
 10
157.7915281910421
 20
113.3232933246895
 30
0.0
 10
157.9909677074782
 20
113.3433012816262
 30
0.0
 10
158.3963250013738
 20
113.3433012816262
 30
0.0
  0
SPLINE
  5
130
330
1F
100
AcDbEntity
  8
0
  6
HIDDEN
 62
     7
370
     0
100
AcDbSpline
210
0.0
220
0.0
230
1.0
 70
     8
 71
     3
 72
    66
 73
    62
 74
     0
 42
0.00000001
 43
0.00000001
 12
1.0
 22
0.0
 32
0.0
 13
1.0
 23
0.0
 33
0.0
 40
-0.0312499999999999
 40
-0.0312499999999999
 40
0.0
 40
0.0
 40
0.0312499999999997
 40
0.0312499999999997
 40
0.0624999999999994
 40
0.0624999999999994
 40
0.0937499999999991
 40
0.0937499999999991
 40
0.1249999999999989
 40
0.1249999999999989
 40
0.1874999999999986
 40
0.1874999999999986
 40
0.2187499999999985
 40
0.2187499999999985
 40
0.2499999999999984
 40
0.2499999999999984
 40
0.2812499999999983
 40
0.2812499999999983
 40
0.3124999999999983
 40
0.3124999999999983
 40
0.3437499999999982
 40
0.3437499999999982
 40
0.3749999999999981
 40
0.3749999999999981
 40
0.4062499999999981
 40
0.4062499999999981
 40
0.4374999999999982
 40
0.4374999999999982
 40
0.4687499999999984
 40
0.4687499999999984
 40
0.4999999999999986
 40
0.4999999999999986
 40
0.5312499999999987
 40
0.5312499999999987
 40
0.5624999999999989
 40
0.5624999999999989
 40
0.593749999999999
 40
0.593749999999999
 40
0.6249999999999992
 40
0.6249999999999992
 40
0.6562499999999993
 40
0.6562499999999993
 40
0.6874999999999996
 40
0.6874999999999996
 40
0.7187499999999997
 40
0.7187499999999997
 40
0.7499999999999998
 40
0.7499999999999998
 40
0.78125
 40
0.78125
 40
0.8125000000000001
 40
0.8125000000000001
 40
0.8750000000000002
 40
0.8750000000000002
 40
0.9062500000000002
 40
0.9062500000000002
 40
0.9375000000000001
 40
0.9375000000000001
 40
0.9687500000000001
 40
0.9687500000000001
 40
1.0
 40
1.0
 40
1.03125
 40
1.03125
 10
158.3963250013738
 20
113.3433012816262
 30
0.0
 10
157.9909677074782
 20
113.3433012816262
 30
0.0
 10
157.7919078161423
 20
113.3233017220096
 30
0.0
 10
157.4006538315626
 20
113.2451582193095
 30
0.0
 10
157.206381072815
 20
113.1859971177887
 30
0.0
 10
156.8376176462637
 20
113.0325654308944
 30
0.0
 10
156.6628924878854
 20
112.9388386210522
 30
0.0
 10
156.3322151843516
 20
112.7175845186473
 30
0.0
 10
156.1765676403488
 20
112.5896031516527
 30
0.0
 10
155.7571002706801
 20
112.1700480546527
 30
0.0
 10
155.5302121291498
 20
111.8315694959493
 30
0.0
 10
155.3014155057651
 20
111.2816906082311
 30
0.0
 10
155.2422232509162
 20
111.0882907624877
 30
0.0
 10
155.1634158406557
 20
110.6940626121298
 30
0.0
 10
155.1437764243753
 20
110.4954237846974
 30
0.0
 10
155.1435175599537
 20
110.095123498799
 30
0.0
 10
155.1635882445867
 20
109.8917841720779
 30
0.0
 10
155.2419259272166
 20
109.4996926514703
 30
0.0
 10
155.2998756952551
 20
109.3089867831551
 30
0.0
 10
155.4538188371351
 20
108.9382629665685
 30
0.0
 10
155.5487574508577
 20
108.7615363067597
 30
0.0
 10
155.7691148667349
 20
108.4322831958353
 30
0.0
 10
155.8963948926632
 20
108.2771619722389
 30
0.0
 10
156.1781504839937
 20
107.9954852773085
 30
0.0
 10
156.3309388134512
 20
107.8700520924041
 30
0.0
 10
156.6603658956082
 20
107.64927649905
 30
0.0
 10
156.8389118987599
 20
107.5534452463498
 30
0.0
 10
157.2064842243101
 20
107.4006161158547
 30
0.0
 10
157.396638251021
 20
107.3424443579105
 30
0.0
 10
157.7901786737235
 20
107.2634510655656
 30
0.0
 10
157.9926127449847
 20
107.2433879399234
 30
0.0
 10
158.39204182035
 20
107.2432151938046
 30
0.0
 10
158.5920607989059
 20
107.2626985678939
 30
0.0
 10
158.9881767463553
 20
107.3416901394951
 30
0.0
 10
159.1789095745472
 20
107.3999703593471
 30
0.0
 10
159.5465410151269
 20
107.5525379799551
 30
0.0
 10
159.7250274472947
 20
107.6481467667284
 30
0.0
 10
160.0552327062587
 20
107.8691588118134
 30
0.0
 10
160.2081212843206
 20
107.9946087105836
 30
0.0
 10
160.4897176788587
 20
108.2758391995889
 30
0.0
 10
160.6173486017342
 20
108.4312220775028
 30
0.0
 10
160.837674036734
 20
108.7600729355458
 30
0.0
 10
160.9319004936994
 20
108.9349610419598
 30
0.0
 10
161.0868350143025
 20
109.3071048933206
 30
0.0
 10
161.1448472999047
 20
109.4979109351295
 30
0.0
 10
161.2232665541829
 20
109.8887839530482
 30
0.0
 10
161.2435806341494
 20
110.0912415144305
 30
0.0
 10
161.2437117504534
 20
110.49337211935
 30
0.0
 10
161.224087057094
 20
110.6920961645251
 30
0.0
 10
161.1459206066804
 20
111.0849356356618
 30
0.0
 10
161.0866331613404
 20
111.2795799130643
 30
0.0
 10
160.8575523182576
 20
111.8310196664786
 30
0.0
 10
160.6307214673634
 20
112.1693592321777
 30
0.0
 10
160.2113827660427
 20
112.5890248948292
 30
0.0
 10
160.0560297702928
 20
112.7168709006025
 30
0.0
 10
159.7250619371555
 20
112.9384719753043
 30
0.0
 10
159.5505006369592
 20
113.0321127092812
 30
0.0
 10
159.1829273293844
 20
113.1852668299804
 30
0.0
 10
158.9882404677463
 20
113.2447705756265
 30
0.0
 10
158.5957645178098
 20
113.3232933246895
 30
0.0
 10
158.3963250013738
 20
113.3433012816262
 30
0.0
 10
157.9909677074782
 20
113.3433012816262
 30
0.0
  0
LINE
  5
131
330
1F
100
AcDbEntity
  8
0
  6
HIDDEN
 62
     7
370
     0
100
AcDbLine
 10
162.1936463544
 20
120.293275578
 30
0.0
 11
162.1936463544
 21
100.2933012816
 31
0.0
  0
LINE
  5
132
330
1F
100
AcDbEntity
  8
0
  6
HIDDEN
 62
     7
370
     0
100
AcDbLine
 10
163.1936463544
 20
117.5433012816
 30
0.0
 11
163.1936463544
 21
103.0433012816
 31
0.0
  0
LINE
  5
133
330
1F
100
AcDbEntity
  8
0
  6
HIDDEN
 62
     7
370
     0
100
AcDbLine
 10
162.1936463544
 20
102.0433012816
 30
0.0
 11
162.1936463544
 21
118.5433012816
 31
0.0
  0
LINE
  5
134
330
1F
100
AcDbEntity
  8
0
  6
HIDDEN
 62
     7
370
     0
100
AcDbLine
 10
196.1936463544
 20
103.0433012816
 30
0.0
 11
196.1936463544
 21
117.5433012816
 31
0.0
  0
SPLINE
  5
135
330
1F
100
AcDbEntity
  8
0
  6
HIDDEN
 62
     7
370
     0
100
AcDbSpline
210
0.0
220
0.0
230
1.0
 70
     8
 71
     3
 72
    66
 73
    62
 74
     0
 42
0.00000001
 43
0.00000001
 12
1.0
 22
0.0
 32
0.0
 13
1.0
 23
0.0
 33
0.0
 40
-0.0312499999999999
 40
-0.0312499999999999
 40
0.0
 40
0.0
 40
0.0312500000000001
 40
0.0312500000000001
 40
0.0625000000000002
 40
0.0625000000000002
 40
0.0937500000000002
 40
0.0937500000000002
 40
0.1250000000000003
 40
0.1250000000000003
 40
0.1875000000000005
 40
0.1875000000000005
 40
0.2187500000000006
 40
0.2187500000000006
 40
0.2500000000000007
 40
0.2500000000000007
 40
0.2812500000000008
 40
0.2812500000000008
 40
0.3125000000000008
 40
0.3125000000000008
 40
0.3437500000000009
 40
0.3437500000000009
 40
0.375000000000001
 40
0.375000000000001
 40
0.4062500000000011
 40
0.4062500000000011
 40
0.4375000000000012
 40
0.4375000000000012
 40
0.4687500000000012
 40
0.4687500000000012
 40
0.5000000000000013
 40
0.5000000000000013
 40
0.5312500000000014
 40
0.5312500000000014
 40
0.5625000000000016
 40
0.5625000000000016
 40
0.5937500000000016
 40
0.5937500000000016
 40
0.6250000000000017
 40
0.6250000000000017
 40
0.6875000000000013
 40
0.6875000000000013
 40
0.7187500000000012
 40
0.7187500000000012
 40
0.7500000000000011
 40
0.7500000000000011
 40
0.781250000000001
 40
0.781250000000001
 40
0.8125000000000008
 40
0.8125000000000008
 40
0.8437500000000007
 40
0.8437500000000007
 40
0.8750000000000006
 40
0.8750000000000006
 40
0.9062500000000004
 40
0.9062500000000004
 40
0.9375000000000002
 40
0.9375000000000002
 40
0.9687500000000001
 40
0.9687500000000001
 40
1.0
 40
1.0
 40
1.03125
 40
1.03125
 10
192.0270934466692
 20
104.4152157826205
 30
0.0
 10
192.3601992621828
 20
104.4152157826205
 30
0.0
 10
192.5236902157726
 20
104.4254544880983
 30
0.0
 10
192.8448923611416
 20
104.4658361455463
 30
0.0
 10
193.0043047186979
 20
104.4965261384525
 30
0.0
 10
193.3063434458383
 20
104.5772452295759
 30
0.0
 10
193.4493914831999
 20
104.6270329973325
 30
0.0
 10
193.7201247051508
 20
104.747026325413
 30
0.0
 10
193.8471942201173
 20
104.8173245447392
 30
0.0
 10
194.1902022310902
 20
105.0535017659732
 30
0.0
 10
194.3760344924941
 20
105.2510729707604
 30
0.0
 10
194.5638398556528
 20
105.5909128411781
 30
0.0
 10
194.6125799324311
 20
105.7135270923671
 30
0.0
 10
194.6773439845459
 20
105.9693264680032
 30
0.0
 10
194.6935360950799
 20
106.1013948627849
 30
0.0
 10
194.6937555022467
 20
106.3741468409653
 30
0.0
 10
194.6772074082133
 20
106.5158671271299
 30
0.0
 10
194.6127782545097
 20
106.7948503255706
 30
0.0
 10
194.5651197853248
 20
106.9335969008636
 30
0.0
 10
194.4384238175261
 20
107.2087587321858
 30
0.0
 10
194.3608502317271
 20
107.3417287525441
 30
0.0
 10
194.180243605547
 20
107.5946771929645
 30
0.0
 10
194.0756905564313
 20
107.7163380587291
 30
0.0
 10
193.8456819160871
 20
107.9391918558886
 30
0.0
 10
193.7208018577123
 20
108.0403371289515
 30
0.0
 10
193.4509022860825
 20
108.2206075339722
 30
0.0
 10
193.3048059195995
 20
108.2998418173485
 30
0.0
 10
193.0040932957908
 20
108.4271323287561
 30
0.0
 10
192.8481456074334
 20
108.4763025505084
 30
0.0
 10
192.5243657436849
 20
108.5433234808346
 30
0.0
 10
192.3586673999349
 20
108.5603356297782
 30
0.0
 10
192.0306235199276
 20
108.5604712479682
 30
0.0
 10
191.8652979685908
 20
108.5436659711638
 30
0.0
 10
191.5409695125805
 20
108.4768261723377
 30
0.0
 10
191.3846167117188
 20
108.4276628439509
 30
0.0
 10
191.0829005334896
 20
108.3000859555969
 30
0.0
 10
190.936810003775
 20
108.2208423662816
 30
0.0
 10
190.6670962263699
 20
108.040786709668
 30
0.0
 10
190.5419148927269
 20
107.9395131646154
 30
0.0
 10
190.1953043522992
 20
107.6036045004081
 30
0.0
 10
190.0121615174109
 20
107.3460725892683
 30
0.0
 10
189.8224949572716
 20
106.9343695473705
 30
0.0
 10
189.7748572098431
 20
106.7959122088223
 30
0.0
 10
189.7103389749109
 20
106.5173839391999
 30
0.0
 10
189.6936418691692
 20
106.3756761124923
 30
0.0
 10
189.6936508415366
 20
106.1025164735984
 30
0.0
 10
189.7097816774831
 20
105.970298178248
 30
0.0
 10
189.7744413541518
 20
105.7142893146154
 30
0.0
 10
189.823111708791
 20
105.5916127432593
 30
0.0
 10
189.9485410811098
 20
105.3644793623381
 30
0.0
 10
190.0262847335999
 20
105.2579134880446
 30
0.0
 10
190.2085842206128
 20
105.0623384097172
 30
0.0
 10
190.3115473739071
 20
104.974654721485
 30
0.0
 10
190.5407483461996
 20
104.81691527929
 30
0.0
 10
190.6683793243076
 20
104.7464377526248
 30
0.0
 10
190.9382249857442
 20
104.6269414925766
 30
0.0
 10
191.0810797291313
 20
104.577194363269
 30
0.0
 10
191.3834772563773
 20
104.4964114156723
 30
0.0
 10
191.5426924873221
 20
104.4657935704953
 30
0.0
 10
191.8635802186402
 20
104.4254631405155
 30
0.0
 10
192.0270934466692
 20
104.4152157826205
 30
0.0
 10
192.3601992621828
 20
104.4152157826205
 30
0.0
  0
CIRCLE
  5
136
330
1F
100
AcDbEntity
  8
0
  6
HIDDEN
 62
     7
370
     0
100
AcDbCircle
 10
213.8544507155
 20
127.087825382
 30
0.0
 40
3.481810242575232
  0
LINE
  5
137
330
1F
100
AcDbEntity
  8
0
  6
HIDDEN
 62
     7
370
     0
100
AcDbLine
 10
228.9639076533
 20
113.0228342722
 30
0.0
 11
225.7766220674
 21
108.8024104472
 31
0.0
  0
SPLINE
  5
138
330
1F
100
AcDbEntity
  8
0
  6
HIDDEN
 62
     7
370
     0
100
AcDbSpline
210
0.0
220
0.0
230
1.0
 70
     8
 71
     3
 72
     8
 73
     4
 74
     0
 42
0.00000001
 43
0.00000001
 12
1.0
 22
0.0
 32
0.0
 13
1.0
 23
0.0
 33
0.0
 40
0.0
 40
0.0
 40
0.0
 40
0.0
 40
1.0
 40
1.0
 40
1.0
 40
1.0
 10
206.4355010486694
 20
125.3917567877298
 30
0.0
 10
205.9117966675853
 20
121.5555567032734
 30
0.0
 10
205.5345925950068
 20
117.6987066802182
 30
0.0
 10
205.3922451927361
 20
113.808752455057
 30
0.0
  0
SPLINE
  5
139
330
1F
100
AcDbEntity
  8
0
  6
HIDDEN
 62
     7
370
     0
100
AcDbSpline
210
0.0
220
0.0
230
1.0
 70
     8
 71
     3
 72
    14
 73
    10
 74
     0
 42
0.00000001
 43
0.00000001
 12
1.0
 22
0.0
 32
0.0
 13
1.0
 23
0.0
 33
0.0
 40
0.0
 40
0.0
 40
0.0
 40
0.0
 40
0.2499999999999991
 40
0.2499999999999991
 40
0.3749999999999991
 40
0.3749999999999991
 40
0.499999999999999
 40
0.499999999999999
 40
1.0
 40
1.0
 40
1.0
 40
1.0
 10
206.96965442128
 20
134.7239109490398
 30
0.0
 10
206.9400574863801
 20
134.0686952124752
 30
0.0
 10
206.9065181585296
 20
133.375804899496
 30
0.0
 10
206.8499975742145
 20
132.2784148138387
 30
0.0
 10
206.8301436988805
 20
131.9034796441208
 30
0.0
 10
206.7888585484892
 20
131.1440507108491
 30
0.0
 10
206.767368742525
 20
130.7584071373743
 30
0.0
 10
206.6556910744035
 20
128.801122931574
 30
0.0
 10
206.5530253868793
 20
127.1434662915227
 30
0.0
 10
206.4355010486694
 20
125.3917567877298
 30
0.0
  0
SPLINE
  5
13A
330
1F
100
AcDbEntity
  8
0
  6
HIDDEN
 62
     7
370
     0
100
AcDbSpline
210
0.0
220
0.0
230
1.0
 70
     8
 71
     3
 72
    11
 73
     7
 74
     0
 42
0.00000001
 43
0.00000001
 12
1.0
 22
0.0
 32
0.0
 13
1.0
 23
0.0
 33
0.0
 40
0.0
 40
0.0
 40
0.0
 40
0.0
 40
0.1464266642016071
 40
0.439797796603374
 40
0.7353145585841738
 40
1.0
 40
1.0
 40
1.0
 40
1.0
 10
206.9696544212797
 20
134.723910949039
 30
0.0
 10
206.8184450521441
 20
134.7738187303684
 30
0.0
 10
206.36428222781
 20
134.9237185616713
 30
0.0
 10
205.801078211717
 20
135.3094500003533
 30
0.0
 10
205.4341782616231
 20
135.8837094718549
 30
0.0
 10
205.5149011820229
 20
136.3471163736101
 30
0.0
 10
205.5530413065866
 20
136.5660677800889
 30
0.0
  0
ARC
  5
13B
330
1F
100
AcDbEntity
  8
0
  6
HIDDEN
 62
     7
370
     0
100
AcDbCircle
 10
224.76972659
 20
128.2489972241
 30
0.0
 40
2.098847414753877
100
AcDbArc
 50
155.0551963809
 51
333.761477728
  0
LINE
  5
13C
330
1F
100
AcDbEntity
  8
0
  6
HIDDEN
 62
     7
370
     0
100
AcDbLine
 10
226.6523115473
 20
127.3210778586
 30
0.0
 11
226.847344071
 21
127.7346846244
 31
0.0
  0
LINE
  5
13D
330
1F
100
AcDbEntity
  8
0
  6
HIDDEN
 62
     7
370
     0
100
AcDbLine
 10
227.2421979376
 20
128.5720538368
 30
0.0
 11
228.8527048064
 21
131.9874664295
 31
0.0
  0
LINE
  5
13E
330
1F
100
AcDbEntity
  8
0
  6
HIDDEN
 62
     7
370
     0
100
AcDbLine
 10
229.8164572377
 20
133.263613048
 30
0.0
 11
228.8527048064
 21
131.9874664295
 31
0.0
  0
LINE
  5
13F
330
1F
100
AcDbEntity
  8
0
  6
HIDDEN
 62
     7
370
     0
100
AcDbLine
 10
221.6727510012
 20
133.3089302541
 30
0.0
 11
221.6893159746
 21
133.3308646577
 31
0.0
  0
LINE
  5
140
330
1F
100
AcDbEntity
  8
0
  6
HIDDEN
 62
     7
370
     0
100
AcDbLine
 10
223.3596607044
 20
130.1796616513
 30
0.0
 11
224.3234131357
 21
131.4558082698
 31
0.0
  0
ELLIPSE
  5
141
330
1F
100
AcDbEntity
  8
0
  6
HIDDEN
 62
     7
370
     0
100
AcDbEllipse
 10
220.291700928
 20
133.4526286627
 30
0.0
 11
-1.334428566009251
 21
2.209358540186201
 31
0.0
210
0.0
220
0.0
230
1.0
 40
0.2605793844
 41
5.303806342098944
 42
6.38707743038827
  0
SPLINE
  5
142
330
1F
100
AcDbEntity
  8
0
  6
HIDDEN
 62
     7
370
     0
100
AcDbSpline
210
0.0
220
0.0
230
1.0
 70
     8
 71
     3
 72
    36
 73
    32
 74
     0
 42
0.00000001
 43
0.00000001
 12
1.0
 22
0.0
 32
0.0
 13
1.0
 23
0.0
 33
0.0
 40
0.0
 40
0.0
 40
0.0
 40
0.0
 40
0.1250000000000017
 40
0.1250000000000017
 40
0.2500000000000035
 40
0.2500000000000035
 40
0.3125000000000043
 40
0.3125000000000043
 40
0.375000000000005
 40
0.375000000000005
 40
0.4062500000000049
 40
0.4062500000000049
 40
0.4375000000000049
 40
0.4375000000000049
 40
0.4687500000000048
 40
0.4687500000000048
 40
0.5000000000000048
 40
0.5000000000000048
 40
0.5312500000000047
 40
0.5312500000000047
 40
0.5625000000000046
 40
0.5625000000000046
 40
0.6250000000000038
 40
0.6250000000000038
 40
0.6875000000000031
 40
0.6875000000000031
 40
0.7500000000000023
 40
0.7500000000000023
 40
0.8750000000000012
 40
0.8750000000000012
 40
1.0
 40
1.0
 40
1.0
 40
1.0
 10
213.6695769137557
 20
130.1819133513398
 30
0.0
 10
213.724710926795
 20
130.2549187021104
 30
0.0
 10
213.8483068130373
 20
130.3158740852151
 30
0.0
 10
214.1732456953892
 20
130.4114928519942
 30
0.0
 10
214.3776175418747
 20
130.4459622628145
 30
0.0
 10
214.73354315413
 20
130.4553440552605
 30
0.0
 10
214.8608368340188
 20
130.4514053929127
 30
0.0
 10
215.1367221532313
 20
130.4212167274202
 30
0.0
 10
215.2865307531612
 20
130.3948852385581
 30
0.0
 10
215.5279721211471
 20
130.3268923193953
 30
0.0
 10
215.611369920202
 20
130.2994383106043
 30
0.0
 10
215.7860536364113
 20
130.230650406371
 30
0.0
 10
215.8783494129014
 20
130.1888369348013
 30
0.0
 10
216.0686778592024
 20
130.0862494193727
 30
0.0
 10
216.1682475917328
 20
130.0244999725777
 30
0.0
 10
216.3662093633475
 20
129.8786462424908
 30
0.0
 10
216.4660832908947
 20
129.7930788974742
 30
0.0
 10
216.6515714169593
 20
129.6051841948382
 30
0.0
 10
216.7367150994856
 20
129.5033519913561
 30
0.0
 10
216.8833396570797
 20
129.3000715261493
 30
0.0
 10
216.9453380926067
 20
129.1986138908767
 30
0.0
 10
217.1033760915596
 20
128.9035991742307
 30
0.0
 10
217.1717182563344
 20
128.7223228886955
 30
0.0
 10
217.2732320600144
 20
128.3826309316327
 30
0.0
 10
217.3050532672805
 20
128.2256138467034
 30
0.0
 10
217.3473074084841
 20
127.934767032103
 30
0.0
 10
217.3577100238957
 20
127.7998675572857
 30
0.0
 10
217.3687035969518
 20
127.4207715197951
 30
0.0
 10
217.3491787200527
 20
127.1999921684728
 30
0.0
 10
217.2849291280911
 20
126.8418703785478
 30
0.0
 10
217.2405247294944
 20
126.7018928089414
 30
0.0
 10
217.1857427950228
 20
126.6293536607546
 30
0.0
  0
ELLIPSE
  5
143
330
1F
100
AcDbEntity
  8
0
  6
HIDDEN
 62
     7
370
     0
100
AcDbEllipse
 10
220.291700928
 20
133.4526286627
 30
0.0
 11
2.137853599931617
 21
-1.378829910960405
 31
0.0
210
0.0
220
0.0
230
1.0
 40
0.2825155173
 41
6.262243946044646
 42
7.345515034334072
  0
SPLINE
  5
144
330
1F
100
AcDbEntity
  8
0
  6
HIDDEN
 62
     7
370
     0
100
AcDbSpline
210
0.0
220
0.0
230
1.0
 70
     8
 71
     3
 72
    14
 73
    10
 74
     0
 42
0.00000001
 43
0.00000001
 12
1.0
 22
0.0
 32
0.0
 13
1.0
 23
0.0
 33
0.0
 40
0.0
 40
0.0
 40
0.0
 40
0.0
 40
0.25
 40
0.25
 40
0.5
 40
0.5
 40
0.75
 40
0.75
 40
1.0
 40
1.0
 40
1.0
 40
1.0
 10
220.0256351409265
 20
134.9730944626256
 30
0.0
 10
220.057502863891
 20
134.7654273188924
 30
0.0
 10
220.1213413314558
 20
134.5688738904542
 30
0.0
 10
220.3106558883794
 20
134.1959384611002
 30
0.0
 10
220.432940661644
 20
134.0268686813584
 30
0.0
 10
220.7266864229717
 20
133.7296251614564
 30
0.0
 10
220.8956003660928
 20
133.6045580720755
 30
0.0
 10
221.2648095621543
 20
133.4112657779902
 30
0.0
 10
221.4651682020959
 20
133.3432197118377
 30
0.0
 10
221.6727510011634
 20
133.308930254112
 30
0.0
  0
LINE
  5
145
330
1F
100
AcDbEntity
  8
0
  6
HIDDEN
 62
     7
370
     0
100
AcDbLine
 10
220.0256351409
 20
134.9730944626
 30
0.0
 11
220.0422001143
 21
134.9950288662
 31
0.0
  0
LINE
  5
146
330
1F
100
AcDbEntity
  8
0
  6
HIDDEN
 62
     7
370
     0
100
AcDbLine
 10
215.0329430589
 20
139.5309257725
 30
0.0
 11
215.9966954902
 21
140.807072391
 31
0.0
  0
LINE
  5
147
330
1F
100
AcDbEntity
  8
0
  6
HIDDEN
 62
     7
370
     0
100
AcDbLine
 10
230.7071131854
 20
132.837041556
 30
0.0
 11
229.743360754
 21
131.5608949375
 31
0.0
  0
SPLINE
  5
148
330
1F
100
AcDbEntity
  8
0
  6
HIDDEN
 62
     7
370
     0
100
AcDbSpline
210
0.0
220
0.0
230
1.0
 70
     8
 71
     3
 72
    30
 73
    26
 74
     0
 42
0.00000001
 43
0.00000001
 12
1.0
 22
0.0
 32
0.0
 13
1.0
 23
0.0
 33
0.0
 40
0.0
 40
0.0
 40
0.0
 40
0.0
 40
0.1250000000000002
 40
0.1250000000000002
 40
0.1875000000000002
 40
0.1875000000000002
 40
0.2500000000000003
 40
0.2500000000000003
 40
0.3125000000000004
 40
0.3125000000000004
 40
0.3750000000000005
 40
0.3750000000000005
 40
0.5000000000000002
 40
0.5000000000000002
 40
0.562499999999999
 40
0.562499999999999
 40
0.6249999999999977
 40
0.6249999999999977
 40
0.7499999999999979
 40
0.7499999999999979
 40
0.874999999999998
 40
0.874999999999998
 40
0.937499999999999
 40
0.937499999999999
 40
1.0
 40
1.0
 40
1.0
 40
1.0
 10
207.4217211196242
 20
125.4954126940912
 30
0.0
 10
207.5866397590734
 20
125.8022270935693
 30
0.0
 10
207.7833079132355
 20
126.0881719849478
 30
0.0
 10
208.1277882500143
 20
126.4857729015033
 30
0.0
 10
208.2513708012063
 20
126.6132174532138
 30
0.0
 10
208.5095668777696
 20
126.8507944574096
 30
0.0
 10
208.6448598379789
 20
126.9618027815679
 30
0.0
 10
208.9281705980744
 20
127.168065961158
 30
0.0
 10
209.0761840402297
 20
127.2633257345137
 30
0.0
 10
209.3859302461491
 20
127.4370752303595
 30
0.0
 10
209.5489503654006
 20
127.5159724602832
 30
0.0
 10
210.0453194616417
 20
127.7186045978185
 30
0.0
 10
210.3887662603115
 20
127.8112102291969
 30
0.0
 10
210.9245122811799
 20
127.8808148880398
 30
0.0
 10
211.1072382337503
 20
127.8920728501288
 30
0.0
 10
211.4663770472125
 20
127.8894409102899
 30
0.0
 10
211.6444274443909
 20
127.875872490132
 30
0.0
 10
212.1740894663465
 20
127.7985976018877
 30
0.0
 10
212.523272449193
 20
127.6962826658881
 30
0.0
 10
213.1669667723164
 20
127.4076028576632
 30
0.0
 10
213.4704168948461
 20
127.2177293103983
 30
0.0
 10
213.8745629220647
 20
126.8849890373868
 30
0.0
 10
214.0015020572471
 20
126.76589503948
 30
0.0
 10
214.240388664272
 20
126.5116307104655
 30
0.0
 10
214.3528142481954
 20
126.3756551000781
 30
0.0
 10
214.4554249629248
 20
126.2346847576266
 30
0.0
  0
ELLIPSE
  5
149
330
1F
100
AcDbEntity
  8
0
  6
HIDDEN
 62
     7
370
     0
100
AcDbEllipse
 10
211.1462685734
 20
123.5506298072
 30
0.0
 11
2.570105550204403
 21
3.403188827857548
 31
3.552713678800501E-15
210
-5.020498430340037E-16
220
-6.647860889234968E-16
230
1.0
 40
0.9848432766
 41
1.73394250478774
 42
6.037101119675022
  0
LINE
  5
14A
330
1F
100
AcDbEntity
  8
0
  6
HIDDEN
 62
     7
370
     0
100
AcDbLine
 10
213.2764140406
 20
129.6613092472
 30
0.0
 11
213.6695769138
 21
130.1819133513
 31
0.0
  0
ELLIPSE
  5
14B
330
1F
100
AcDbEntity
  8
0
  6
HIDDEN
 62
     7
370
     0
100
AcDbEllipse
 10
212.9269843161
 20
125.9085531698
 30
0.0
 11
3.16707802678414
 21
-2.762841112032576
 31
0.0
210
0.0
220
0.0
230
1.0
 40
0.8543839535
 41
0.8476007917787257
 42
2.122724633017136
  0
LINE
  5
14C
330
1F
100
AcDbEntity
  8
0
  6
HIDDEN
 62
     7
370
     0
100
AcDbLine
 10
217.185742795
 20
126.6293536608
 30
0.0
 11
216.7925799218
 21
126.1087495566
 31
0.0
  0
CIRCLE
  5
14D
330
1F
100
AcDbEntity
  8
0
  6
HIDDEN
 62
     7
370
     0
100
AcDbCircle
 10
213.820217331
 20
127.0297559359
 30
0.0
 40
4.175212610404882
  0
LINE
  5
14E
330
1F
100
AcDbEntity
  8
0
  6
HIDDEN
 62
     7
370
     0
100
AcDbLine
 10
222.4209288579
 20
132.0614539049
 30
0.0
 11
221.8248705272
 21
131.2721870783
 31
0.0
  0
LINE
  5
14F
330
1F
100
AcDbEntity
  8
0
  6
HIDDEN
 62
     7
370
     0
100
AcDbLine
 10
220.9649789554
 20
137.4308043712
 30
0.0
 11
218.308704646
 21
134.8247467689
 31
0.0
  0
LINE
  5
150
330
1F
100
AcDbEntity
  8
0
  6
HIDDEN
 62
     7
370
     0
100
AcDbLine
 10
220.7128513166
 20
137.0969511707
 30
0.0
 11
220.9649789554
 21
137.4308043712
 31
0.0
  0
LINE
  5
151
330
1F
100
AcDbEntity
  8
0
  6
HIDDEN
 62
     7
370
     0
100
AcDbLine
 10
216.0873971898
 20
132.2975170742
 30
0.0
 11
213.2764140406
 21
129.6613092472
 31
0.0
  0
LINE
  5
152
330
1F
100
AcDbEntity
  8
0
  6
HIDDEN
 62
     7
370
     0
100
AcDbLine
 10
218.308704646
 20
134.8247467689
 30
0.0
 11
218.9047629767
 21
135.6140135955
 31
0.0
  0
LWPOLYLINE
  5
153
330
1F
100
AcDbEntity
  8
0
  6
HIDDEN
 62
     7
370
     0
100
AcDbPolyline
 90
       28
 70
   128
 43
0.0
 10
192.1936463544
 20
98.3232335848
 10
192.7701860313
 20
98.3791006225
 10
193.3156443049
 20
98.543689929
 10
193.8006153786
 20
98.8081284522
 10
194.1989543363
 20
99.158160243
 10
194.4891866216
 20
99.5749149968
 10
194.655665737
 20
100.035925357
 10
194.6894167501
 20
100.5163381358
 10
194.5886201352
 20
100.9902541558
 10
194.3587098639
 20
101.4321244819
 10
194.0120804584
 20
101.8181277703
 10
193.5674187996
 20
102.1274544839
 10
193.0486967127
 20
102.3434287394
 10
192.4838786397
 20
102.4544073089
 10
191.9034140691
 20
102.4544073089
 10
191.3385959961
 20
102.3434287394
 10
190.8198739092
 20
102.1274544839
 10
190.3752122505
 20
101.8181277703
 10
190.028582845
 20
101.4321244819
 10
189.7986725736
 20
100.9902541558
 10
189.6978759587
 20
100.5163381358
 10
189.7316269719
 20
100.035925357
 10
189.8981060872
 20
99.5749149968
 10
190.1883383725
 20
99.158160243
 10
190.5866773302
 20
98.8081284522
 10
191.0716484039
 20
98.543689929
 10
191.6171066776
 20
98.3791006225
 10
192.1936463544
 20
98.3232335848
  0
SPLINE
  5
154
330
1F
100
AcDbEntity
  8
0
  6
HIDDEN
 62
     7
370
     0
100
AcDbSpline
210
0.0
220
0.0
230
1.0
 70
     8
 71
     3
 72
    18
 73
    14
 74
     0
 42
0.00000001
 43
0.00000001
 12
1.0
 22
0.0
 32
0.0
 13
1.0
 23
0.0
 33
0.0
 40
0.0
 40
0.0
 40
0.0
 40
0.0
 40
0.2499999999999999
 40
0.2499999999999999
 40
0.375
 40
0.375
 40
0.5000000000000001
 40
0.5000000000000001
 40
0.6250000000000002
 40
0.6250000000000002
 40
0.7500000000000002
 40
0.7500000000000002
 40
1.0
 40
1.0
 40
1.0
 40
1.0
 10
170.8723260108664
 20
127.5902111496311
 30
0.0
 10
170.737040404564
 20
127.5188584079415
 30
0.0
 10
170.6358726583211
 20
127.3734550013521
 30
0.0
 10
170.5330113154521
 20
127.0439877657465
 30
0.0
 10
170.5069084699288
 20
126.9150541889417
 30
0.0
 10
170.472018486384
 20
126.6195121896056
 30
0.0
 10
170.463432228094
 20
126.4551174160837
 30
0.0
 10
170.4633325185284
 20
126.0941558013431
 30
0.0
 10
170.4718208896769
 20
125.8975860091809
 30
0.0
 10
170.5059642691975
 20
125.4722312130559
 30
0.0
 10
170.5317612510513
 20
125.2424615632563
 30
0.0
 10
170.6351623824393
 20
124.5098728688239
 30
0.0
 10
170.7370203746107
 20
123.9726360939063
 30
0.0
 10
170.8723260108664
 20
123.3883480051586
 30
0.0
  0
LINE
  5
155
330
1F
100
AcDbEntity
  8
0
  6
HIDDEN
 62
     7
370
     0
100
AcDbLine
 10
169.9936463544
 20
127.8134000662
 30
0.0
 11
169.9936463544
 21
122.6732475784
 31
0.0
  0
LINE
  5
156
330
1F
100
AcDbEntity
  8
0
  6
HIDDEN
 62
     7
370
     0
100
AcDbLine
 10
143.6936463544
 20
127.1526525236
 30
0.0
 11
143.6936463544
 21
122.3428738071
 31
0.0
  0
LINE
  5
157
330
1F
100
AcDbEntity
  8
0
  6
HIDDEN
 62
     7
370
     0
100
AcDbLine
 10
142.1936463544
 20
126.2866271198
 30
0.0
 11
142.1936463544
 21
121.9098611052
 31
0.0
  0
LINE
  5
158
330
1F
100
AcDbEntity
  8
0
  6
HIDDEN
 62
     7
370
     0
100
AcDbLine
 10
169.9936463544
 20
97.9133549849
 30
0.0
 11
169.9936463544
 21
92.7732024971
 31
0.0
  0
SPLINE
  5
159
330
1F
100
AcDbEntity
  8
0
  6
HIDDEN
 62
     7
370
     0
100
AcDbSpline
210
0.0
220
0.0
230
1.0
 70
     8
 71
     3
 72
    18
 73
    14
 74
     0
 42
0.00000001
 43
0.00000001
 12
1.0
 22
0.0
 32
0.0
 13
1.0
 23
0.0
 33
0.0
 40
0.0
 40
0.0
 40
0.0
 40
0.0
 40
0.2500000000000001
 40
0.2500000000000001
 40
0.3750000000000002
 40
0.3750000000000002
 40
0.5000000000000002
 40
0.5000000000000002
 40
0.6250000000000002
 40
0.6250000000000002
 40
0.7500000000000003
 40
0.7500000000000003
 40
1.0
 40
1.0
 40
1.0
 40
1.0
 10
170.8723260108664
 20
97.19825455809385
 30
0.0
 10
170.7370404045641
 20
96.61405296436217
 30
0.0
 10
170.6358726583211
 20
96.07983527715398
 30
0.0
 10
170.5330113154522
 20
95.35393850626558
 30
0.0
 10
170.5069084699289
 20
95.12405801848566
 30
0.0
 10
170.4720184863841
 20
94.69348707369888
 30
0.0
 10
170.4634322280941
 20
94.4957921682047
 30
0.0
 10
170.4633325185284
 20
94.13444412552688
 30
0.0
 10
170.4718208896769
 20
93.97079411558076
 30
0.0
 10
170.5059642691976
 20
93.6775828426118
 30
0.0
 10
170.5317612510514
 20
93.54758677649596
 30
0.0
 10
170.6351623824393
 20
93.21353088393404
 30
0.0
 10
170.7370203746107
 20
93.06775471956927
 30
0.0
 10
170.8723260108664
 20
92.99639141362141
 30
0.0
  0
LINE
  5
15A
330
1F
100
AcDbEntity
  8
0
  6
HIDDEN
 62
     7
370
     0
100
AcDbLine
 10
143.6936463544
 20
98.2437287562
 30
0.0
 11
143.6936463544
 21
93.4339500397
 31
0.0
  0
LINE
  5
15B
330
1F
100
AcDbEntity
  8
0
  6
HIDDEN
 62
     7
370
     0
100
AcDbLine
 10
142.1936463544
 20
98.6767414581
 30
0.0
 11
142.1936463544
 21
94.2999754435
 31
0.0
  0
ARC
  5
15C
330
1F
100
AcDbEntity
  8
0
  6
HIDDEN
 62
     7
370
     0
100
AcDbCircle
 10
224.2870981921
 20
137.2025382232
 30
0.0
 40
3.329952200503432
100
AcDbArc
 50
273.3406953273
 51
176.0693275322
  0
ELLIPSE
  5
15D
330
1F
100
AcDbEntity
  8
0
  6
HIDDEN
 62
     7
370
     0
100
AcDbEllipse
 10
209.0187163851
 20
118.9181090651
 30
0.0
 11
192.1055972189804
 21
17.19771447917977
 31
0.0
210
0.0
220
0.0
230
1.0
 40
0.1182598878
 41
1.449426050835981
 42
1.489105714182217
  0
LINE
  5
15E
330
1F
100
AcDbEntity
  8
0
  6
HIDDEN
 62
     7
370
     0
100
AcDbLine
 10
230.7540584449
 20
143.0489216054
 30
0.0
 11
230.2586927617
 21
143.5527019201
 31
0.0
  0
LINE
  5
15F
330
1F
100
AcDbEntity
  8
0
  6
HIDDEN
 62
     7
370
     0
100
AcDbLine
 10
221.8248705272
 20
131.2721870783
 30
0.0
 11
224.4811448366
 21
133.8782446806
 31
0.0
  0
LINE
  5
160
330
1F
100
AcDbEntity
  8
0
  6
HIDDEN
 62
     7
370
     0
100
AcDbLine
 10
228.8527048064
 20
131.9874664295
 30
0.0
 11
229.743360754
 21
131.5608949375
 31
0.0
  0
LINE
  5
161
330
1F
100
AcDbEntity
  8
0
  6
HIDDEN
 62
     7
370
     0
100
AcDbLine
 10
215.0329430589
 20
139.5309257725
 30
0.0
 11
218.308704646
 21
134.8247467689
 31
0.0
  0
LINE
  5
162
330
1F
100
AcDbEntity
  8
0
  6
HIDDEN
 62
     7
370
     0
100
AcDbLine
 10
221.8248705272
 20
131.2721870783
 30
0.0
 11
223.3596607044
 21
130.1796616513
 31
0.0
  0
LINE
  5
163
330
1F
100
AcDbEntity
  8
0
  6
HIDDEN
 62
     7
370
     0
100
AcDbLine
 10
223.3596607044
 20
130.1796616513
 30
0.0
 11
222.8666712071
 21
129.1341755564
 31
0.0
  0
LINE
  5
164
330
1F
100
AcDbEntity
  8
0
  6
HIDDEN
 62
     7
370
     0
100
AcDbLine
 10
222.6674742958
 20
142.964063446
 30
0.0
 11
215.0329430589
 21
139.5309257725
 31
0.0
  0
LINE
  5
165
330
1F
100
AcDbEntity
  8
0
  6
HIDDEN
 62
     7
370
     0
100
AcDbLine
 10
229.743360754
 20
131.5608949375
 30
0.0
 11
229.8900603866
 21
133.2283614954
 31
0.0
  0
LINE
  5
166
330
1F
100
AcDbEntity
  8
0
  6
HIDDEN
 62
     7
370
     0
100
AcDbLine
 10
229.90805371
 20
133.4328832413
 30
0.0
 11
230.7540484038
 21
143.0489118254
 31
0.0
  0
SPLINE
  5
167
330
1F
100
AcDbEntity
  8
0
  6
HIDDEN
 62
     7
370
     0
100
AcDbSpline
210
0.0
220
0.0
230
1.0
 70
     8
 71
     3
 72
    12
 73
     8
 74
     0
 42
0.00000001
 43
0.00000001
 12
1.0
 22
0.0
 32
0.0
 13
1.0
 23
0.0
 33
0.0
 40
0.0
 40
0.0
 40
0.0
 40
0.0
 40
0.2500000000000001
 40
0.2500000000000001
 40
0.5000000000000001
 40
0.5000000000000001
 40
1.0
 40
1.0
 40
1.0
 40
1.0
 10
224.2290171978207
 20
133.5443914800704
 30
0.0
 10
224.2003418712161
 20
133.5064212297325
 30
0.0
 10
224.1474415115552
 20
133.4670765539967
 30
0.0
 10
224.0145415137399
 20
133.3903721731825
 30
0.0
 10
223.9340464120469
 20
133.352760062112
 30
0.0
 10
223.6624449265405
 20
133.246867023768
 30
0.0
 10
223.4415642736263
 20
133.184734167309
 30
0.0
 10
223.1881806954511
 20
133.1483901866476
 30
0.0
  0
ARC
  5
168
330
1F
100
AcDbEntity
  8
0
  6
HIDDEN
 62
     7
370
     0
100
AcDbCircle
 10
223.7078216672
 20
136.4363712487
 30
0.0
 40
3.32879050167446
100
AcDbArc
 50
261.0191094816
 51
188.3909133779
  0
SPLINE
  5
169
330
1F
100
AcDbEntity
  8
0
  6
HIDDEN
 62
     7
370
     0
100
AcDbSpline
210
0.0
220
0.0
230
1.0
 70
     8
 71
     3
 72
    12
 73
     8
 74
     0
 42
0.00000001
 43
0.00000001
 12
1.0
 22
0.0
 32
0.0
 13
1.0
 23
0.0
 33
0.0
 40
0.0
 40
0.0
 40
0.0
 40
0.0
 40
0.5000000000000002
 40
0.5000000000000002
 40
0.7500000000000001
 40
0.7500000000000001
 40
1.0
 40
1.0
 40
1.0
 40
1.0
 10
220.4146642432496
 20
135.9506137113567
 30
0.0
 10
220.4365485313435
 20
136.221279410667
 30
0.0
 10
220.483070101352
 20
136.4577887697149
 30
0.0
 10
220.5647077879686
 20
136.755727371439
 30
0.0
 10
220.594058432234
 20
136.8452452945645
 30
0.0
 10
220.6537279740496
 20
136.9966748337685
 30
0.0
 10
220.6841187628274
 20
137.0589051433905
 30
0.0
 10
220.7128513165536
 20
137.0969511706555
 30
0.0
  0
LINE
  5
16A
330
1F
100
AcDbEntity
  8
0
  6
HIDDEN
 62
     7
370
     0
100
AcDbLine
 10
224.4811448366
 20
133.8782446806
 30
0.0
 11
224.2290171978
 21
133.5443914801
 31
0.0
  0
ELLIPSE
  5
16B
330
1F
100
AcDbEntity
  8
0
  6
HIDDEN
 62
     7
370
     0
100
AcDbEllipse
 10
158.6388381297
 20
113.6229704882
 30
0.0
 11
64.49581397978051
 21
29.83499904393469
 31
0.0
210
0.0
220
0.0
230
1.0
 40
0.026675174
 41
5.605978338881794
 42
6.149783886612532
  0
SPLINE
  5
16C
330
1F
100
AcDbEntity
  8
0
  6
HIDDEN
 62
     7
370
     0
100
AcDbSpline
210
0.0
220
0.0
230
1.0
 70
     8
 71
     3
 72
     8
 73
     4
 74
     0
 42
0.00000001
 43
0.00000001
 12
1.0
 22
0.0
 32
0.0
 13
1.0
 23
0.0
 33
0.0
 40
0.0
 40
0.0
 40
0.0
 40
0.0
 40
1.0
 40
1.0
 40
1.0
 40
1.0
 10
206.9696544212801
 20
134.7239109490389
 30
0.0
 10
207.8061561863591
 20
135.0422287147512
 30
0.0
 10
208.6166887972834
 20
135.4013101106786
 30
0.0
 10
209.4007947889233
 20
135.7961004486932
 30
0.0
  0
SPLINE
  5
16D
330
1F
100
AcDbEntity
  8
0
  6
HIDDEN
 62
     7
370
     0
100
AcDbSpline
210
0.0
220
0.0
230
1.0
 70
     8
 71
     3
 72
    40
 73
    36
 74
     0
 42
0.00000001
 43
0.00000001
 12
1.0
 22
0.0
 32
0.0
 13
1.0
 23
0.0
 33
0.0
 40
0.0
 40
0.0
 40
0.0
 40
0.0
 40
0.0200206524215885
 40
0.0402889040239283
 40
0.0608050311421738
 40
0.0815693002015096
 40
0.1025819681747165
 40
0.1238432830142
 40
0.1453534840601381
 40
0.1671128024262671
 40
0.1891214613647419
 40
0.2113796766113729
 40
0.2338876567124827
 40
0.2566456033345055
 40
0.2796537115573995
 40
0.3029121701528548
 40
0.3264211618482121
 40
0.3501808635769518
 40
0.3741914467165481
 40
0.3984530773144357
 40
0.4229659163027725
 40
0.4477301197026646
 40
0.4727458388184405
 40
0.4980132204225526
 40
0.5527309453054197
 40
0.6127732214374884
 40
0.6781404782950663
 40
0.7488329184285419
 40
0.7847051216721792
 40
0.8205802530228273
 40
0.8564583172993481
 40
0.892339319319422
 40
0.9282232638995457
 40
0.9641101558550292
 40
1.0
 40
1.0
 40
1.0
 40
1.0
 10
230.2587854056407
 20
143.5515559763994
 30
0.0
 10
230.2408060327697
 20
143.5090873315748
 30
0.0
 10
230.2046249327358
 20
143.4236248241932
 30
0.0
 10
230.1490043043354
 20
143.2823055888755
 30
0.0
 10
230.0920162108171
 20
143.1300852546499
 30
0.0
 10
230.0336115937092
 20
142.9657912190839
 30
0.0
 10
229.9738399983243
 20
142.7893993043676
 30
0.0
 10
229.9127232935918
 20
142.6005793490024
 30
0.0
 10
229.8502900390111
 20
142.3990928396059
 30
0.0
 10
229.7865660209639
 20
142.1846852929673
 30
0.0
 10
229.7215767419374
 20
141.9571164793733
 30
0.0
 10
229.655346647391
 20
141.7161530793884
 30
0.0
 10
229.5878992395922
 20
141.4615716079427
 30
0.0
 10
229.5192569472039
 20
141.1931585629943
 30
0.0
 10
229.4494410589653
 20
140.9107113532127
 30
0.0
 10
229.3784716379733
 20
140.6140390357792
 30
0.0
 10
229.3063674377244
 20
140.3029631241972
 30
0.0
 10
229.2331458207389
 20
139.9773184058346
 30
0.0
 10
229.1588226551645
 20
139.6369537399659
 30
0.0
 10
229.083412289151
 20
139.2817330110614
 30
0.0
 10
229.0069272236583
 20
138.911535550567
 30
0.0
 10
228.9293789225713
 20
138.5262586292981
 30
0.0
 10
228.8507743077219
 20
138.12581215114
 30
0.0
 10
228.7404496012682
 20
137.5500299137362
 30
0.0
 10
228.5925361132163
 20
136.749958209369
 30
0.0
 10
228.4023826915535
 20
135.664916485925
 30
0.0
 10
228.1966978827383
 20
134.4217354986721
 30
0.0
 10
228.0179010468527
 20
133.2777150738181
 30
0.0
 10
227.8715723984144
 20
132.2988054889819
 30
0.0
 10
227.7624016209248
 20
131.5440754029252
 30
0.0
 10
227.6543573219932
 20
130.7752290454989
 30
0.0
 10
227.5473718393941
 20
129.9933100164891
 30
0.0
 10
227.4413421808858
 20
129.1991244248218
 30
0.0
 10
227.3361057914692
 20
128.3945142157719
 30
0.0
 10
227.266547175929
 20
127.8498683137199
 30
0.0
 10
227.23176643768
 20
127.5775341620041
 30
0.0
  0
SPLINE
  5
16E
330
1F
100
AcDbEntity
  8
0
  6
HIDDEN
 62
     7
370
     0
100
AcDbSpline
210
0.0
220
0.0
230
1.0
 70
     8
 71
     3
 72
    31
 73
    27
 74
     0
 42
0.00000001
 43
0.00000001
 12
1.0
 22
0.0
 32
0.0
 13
1.0
 23
0.0
 33
0.0
 40
0.0
 40
0.0
 40
0.0
 40
0.0
 40
0.0192972833420168
 40
0.0385689542518794
 40
0.0578231438641141
 40
0.0770680054712977
 40
0.0963117042224558
 40
0.1155624067462833
 40
0.1348282707649664
 40
0.1541174347645226
 40
0.1734380077867463
 40
0.1927980594060546
 40
0.2122056099518448
 40
0.231668621033443
 40
0.2511949864204613
 40
0.3770326002209712
 40
0.5020170487527482
 40
0.6266802597606641
 40
0.7517505934066233
 40
0.7876257742183891
 40
0.8232751024967728
 40
0.8587512600273124
 40
0.8941077026873421
 40
0.929398430365033
 40
0.9646777447075552
 40
1.0
 40
1.0
 40
1.0
 40
1.0
 10
227.5112234919543
 20
125.8907828174865
 30
0.0
 10
227.530424016553
 20
126.0465881895578
 30
0.0
 10
227.5687995817416
 20
126.3579921401091
 30
0.0
 10
227.6271354257045
 20
126.8217793470074
 30
0.0
 10
227.6859764409836
 20
127.2826412531362
 30
0.0
 10
227.7453817120821
 20
127.7403718511803
 30
0.0
 10
227.8053353859204
 20
128.1950259577948
 30
0.0
 10
227.8658416677765
 20
128.6465885856348
 30
0.0
 10
227.9268993853847
 20
129.095063436216
 30
0.0
 10
227.9885088206947
 20
129.5404492820437
 30
0.0
 10
228.0506698132695
 20
129.9827459807915
 30
0.0
 10
228.1133825152184
 20
130.4219540577271
 30
0.0
 10
228.1766462684856
 20
130.8580703511789
 30
0.0
 10
228.2404633551091
 20
131.2911059239485
 30
0.0
 10
228.4215370114594
 20
132.5006114532336
 30
0.0
 10
228.7243870882284
 20
134.4070305885768
 30
0.0
 10
229.1510721807102
 20
136.8053840006156
 30
0.0
 10
229.5754775911012
 20
138.9110022085846
 30
0.0
 10
229.8920550081892
 20
140.263112070159
 30
0.0
 10
230.1042353987738
 20
141.0741389634958
 30
0.0
 10
230.2182295111228
 20
141.4858344465448
 30
0.0
 10
230.3299741665935
 20
141.8648292463974
 30
0.0
 10
230.4394915844691
 20
142.2113696690525
 30
0.0
 10
230.5467178464583
 20
142.5246342911833
 30
0.0
 10
230.6518812944172
 20
142.8076386847605
 30
0.0
 10
230.7199687063453
 20
142.9684413507372
 30
0.0
 10
230.7540331182098
 20
143.0488915850407
 30
0.0
  0
ELLIPSE
  5
16F
330
1F
100
AcDbEntity
  8
0
  6
HIDDEN
 62
     7
370
     0
100
AcDbEllipse
 10
220.4483294006
 20
133.2219890239
 30
0.0
 11
2.219475038682531
 21
2.141201758675748
 31
0.0
210
0.0
220
0.0
230
1.0
 40
0.8103652656
 41
5.384719722770164
 42
7.202395580435211
  0
LWPOLYLINE
  5
170
330
1F
100
AcDbEntity
  8
0
  6
HIDDEN
 62
     7
370
     0
100
AcDbPolyline
 90
       14
 70
   128
 43
0.0
 10
219.603563071
 20
128.7449573836
 10
219.850855258
 20
129.0763997632
 10
219.9816023318
 20
129.4918108445
 10
219.9882057477
 20
129.9670484455
 10
219.8702817393
 20
130.4744934841
 10
219.6346836211
 20
130.9846550993
 10
219.2951034996
 20
131.4678845523
 10
218.8712765371
 20
131.8960983039
 10
218.387834016
 20
132.2444101271
 10
217.8728718584
 20
132.492577405
 10
217.3563177932
 20
132.6261775574
 10
216.868192065
 20
132.637446229
 10
216.4368627669
 20
132.5257285257
 10
216.0873971898
 20
132.2975170742
  0
LINE
  5
171
330
1F
100
AcDbEntity
  8
0
  6
HIDDEN
 62
     7
370
     0
100
AcDbLine
 10
216.7925799218
 20
126.1087495566
 30
0.0
 11
219.603563071
 21
128.7449573836
 31
0.0
  0
LINE
  5
172
330
1F
100
AcDbEntity
  8
0
  6
HIDDEN
 62
     7
370
     0
100
AcDbLine
 10
142.1936463544
 20
121.9098611052
 30
0.0
 11
142.1936463544
 21
112.6324722099
 31
0.0
  0
LINE
  5
173
330
1F
100
AcDbEntity
  8
0
  6
HIDDEN
 62
     7
370
     0
100
AcDbLine
 10
142.1936463544
 20
107.9541303534
 30
0.0
 11
142.1936463544
 21
98.6767414581
 31
0.0
  0
LINE
  5
174
330
1F
100
AcDbEntity
  8
0
  6
HIDDEN
 62
     7
370
     0
100
AcDbLine
 10
143.6936463544
 20
107.1448241633
 30
0.0
 11
143.6936463544
 21
98.2437287562
 31
0.0
  0
LINE
  5
175
330
1F
100
AcDbEntity
  8
0
  6
HIDDEN
 62
     7
370
     0
100
AcDbLine
 10
143.6936463544
 20
122.3428738071
 30
0.0
 11
143.6936463544
 21
113.4417784
 31
0.0
  0
LINE
  5
176
330
1F
100
AcDbEntity
  8
0
  6
HIDDEN
 62
     7
370
     0
100
AcDbLine
 10
169.9936463544
 20
122.6732475784
 30
0.0
 11
169.9936463544
 21
97.9133549849
 31
0.0
  0
LINE
  5
177
330
1F
100
AcDbEntity
  8
0
  6
HIDDEN
 62
     7
370
     0
100
AcDbLine
 10
171.9936463544
 20
121.8555755147
 30
0.0
 11
171.9936463544
 21
98.7310270485
 31
0.0
  0
LWPOLYLINE
  5
178
330
1F
100
AcDbEntity
  8
0
  6
HIDDEN
 62
     7
370
     0
100
AcDbPolyline
 90
       31
 70
   128
 43
0.0
 10
192.1936463544
 20
97.7407163015
 10
192.8173814269
 20
97.7950656816
 10
193.4138562837
 20
97.9557384933
 10
193.9570021113
 20
98.2157125636
 10
194.4230808309
 20
98.5636257783
 10
194.7917225658
 20
98.9842726603
 10
195.0468159033
 20
99.4592689225
 10
195.1772120405
 20
99.9678549488
 10
195.1772120405
 20
100.4878030895
 10
195.0468159033
 20
100.9963891158
 10
194.7917225658
 20
101.471385378
 10
194.4230808309
 20
101.89203226
 10
193.9570021113
 20
102.2399454747
 10
193.4138562837
 20
102.499919545
 10
192.8173814269
 20
102.6605923567
 10
192.1936463544
 20
102.7149417368
 10
191.569911282
 20
102.6605923567
 10
190.9734364252
 20
102.499919545
 10
190.4302905975
 20
102.2399454747
 10
189.964211878
 20
101.89203226
 10
189.5955701431
 20
101.471385378
 10
189.3404768055
 20
100.9963891158
 10
189.2100806683
 20
100.4878030895
 10
189.2100806683
 20
99.9678549488
 10
189.3404768055
 20
99.4592689225
 10
189.5955701431
 20
98.9842726603
 10
189.964211878
 20
98.5636257783
 10
190.4302905975
 20
98.2157125636
 10
190.9734364252
 20
97.9557384933
 10
191.569911282
 20
97.7950656816
 10
192.1936463544
 20
97.7407163015
  0
SPLINE
  5
179
330
1F
100
AcDbEntity
  8
0
  6
HIDDEN
 62
     7
370
     0
100
AcDbSpline
210
0.0
220
0.0
230
1.0
 70
     8
 71
     3
 72
    26
 73
    22
 74
     0
 42
0.00000001
 43
0.00000001
 12
1.0
 22
0.0
 32
0.0
 13
1.0
 23
0.0
 33
0.0
 40
0.0
 40
0.0
 40
0.0
 40
0.0
 40
0.1249999999999997
 40
0.1249999999999997
 40
0.2499999999999993
 40
0.2499999999999993
 40
0.374999999999999
 40
0.374999999999999
 40
0.4374999999999991
 40
0.4374999999999991
 40
0.4999999999999992
 40
0.4999999999999992
 40
0.5624999999999992
 40
0.5624999999999992
 40
0.6249999999999993
 40
0.6249999999999993
 40
0.7499999999999996
 40
0.7499999999999996
 40
0.8749999999999998
 40
0.8749999999999998
 40
1.0
 40
1.0
 40
1.0
 40
1.0
 10
147.693646354426
 20
107.0748035211772
 30
0.0
 10
147.904289716426
 20
107.3094205521222
 30
0.0
 10
148.111486154183
 20
107.5473036880817
 30
0.0
 10
148.5129852888153
 20
108.0346179943505
 30
0.0
 10
148.7082617078613
 20
108.2847432191396
 30
0.0
 10
149.0680422005567
 20
108.8033333645905
 30
0.0
 10
149.2333010607061
 20
109.0707643484773
 30
0.0
 10
149.4259589701323
 20
109.5021794808758
 30
0.0
 10
149.4809237103423
 20
109.6521983628002
 30
0.0
 10
149.5586594953064
 20
109.9649355415302
 30
0.0
 10
149.5799256336147
 20
110.1226897883375
 30
0.0
 10
149.5818195629005
 20
110.4413950681833
 30
0.0
 10
149.5615938258335
 20
110.6038318683638
 30
0.0
 10
149.4871294155477
 20
110.9147838679465
 30
0.0
 10
149.4334902898017
 20
111.0654551062741
 30
0.0
 10
149.238745984401
 20
111.5075388642427
 30
0.0
 10
149.0716958712228
 20
111.7775828774105
 30
0.0
 10
148.7114397525192
 20
112.2976905056918
 30
0.0
 10
148.5166873774987
 20
112.5473517185015
 30
0.0
 10
148.1136781530265
 20
113.0367758303443
 30
0.0
 10
147.905241634663
 20
113.2761217535082
 30
0.0
 10
147.6936463544269
 20
113.5117990420761
 30
0.0
  0
LINE
  5
17A
330
1F
100
AcDbEntity
  8
0
  6
HIDDEN
 62
     7
370
     0
100
AcDbLine
 10
147.6936463544
 20
107.0748035212
 30
0.0
 11
147.6936463544
 21
113.5117990421
 31
0.0
  0
SPLINE
  5
17B
330
1F
100
AcDbEntity
  8
0
  6
HIDDEN
 62
     7
370
     0
100
AcDbSpline
210
0.0
220
0.0
230
1.0
 70
     8
 71
     3
 72
     8
 73
     4
 74
     0
 42
0.00000001
 43
0.00000001
 12
1.0
 22
0.0
 32
0.0
 13
1.0
 23
0.0
 33
0.0
 40
0.0000202085968835
 40
0.0000202085968835
 40
0.0000202085968835
 40
0.0000202085968835
 40
0.0040218806502652
 40
0.0040218806502652
 40
0.0040218806502652
 40
0.0040218806502652
 10
143.693646354426
 20
107.1448241632895
 30
0.0
 10
145.0269694802166
 20
107.1208259321259
 30
0.0
 10
146.3603033534392
 20
107.0974981919576
 30
0.0
 10
147.693646354426
 20
107.0748035211772
 30
0.0
  0
SPLINE
  5
17C
330
1F
100
AcDbEntity
  8
0
  6
HIDDEN
 62
     7
370
     0
100
AcDbSpline
210
0.0
220
0.0
230
1.0
 70
     8
 71
     3
 72
     8
 73
     4
 74
     0
 42
0.00000001
 43
0.00000001
 12
1.0
 22
0.0
 32
0.0
 13
1.0
 23
0.0
 33
0.0
 40
0.0000202082942178
 40
0.0000202082942178
 40
0.0000202082942178
 40
0.0000202082942178
 40
0.0040218803475995
 40
0.0040218803475995
 40
0.0040218803475995
 40
0.0040218803475995
 10
147.693646354426
 20
113.5117990420753
 30
0.0
 10
146.3603033534392
 20
113.4891043712949
 30
0.0
 10
145.0269694802166
 20
113.4657766311266
 30
0.0
 10
143.693646354426
 20
113.4417783999629
 30
0.0
  0
SPLINE
  5
17D
330
1F
100
AcDbEntity
  8
0
  6
HIDDEN
 62
     7
370
     0
100
AcDbSpline
210
0.0
220
0.0
230
1.0
 70
     8
 71
     3
 72
     8
 73
     4
 74
     0
 42
0.00000001
 43
0.00000001
 12
1.0
 22
0.0
 32
0.0
 13
1.0
 23
0.0
 33
0.0
 40
0.0
 40
0.0
 40
0.0
 40
0.0
 40
1.0
 40
1.0
 40
1.0
 40
1.0
 10
142.1936463544251
 20
107.9541303533918
 30
0.0
 10
142.6678577648631
 20
107.6194011260968
 30
0.0
 10
143.1725941119649
 20
107.3603427122638
 30
0.0
 10
143.693646354426
 20
107.1448241632895
 30
0.0
  0
SPLINE
  5
17E
330
1F
100
AcDbEntity
  8
0
  6
HIDDEN
 62
     7
370
     0
100
AcDbSpline
210
0.0
220
0.0
230
1.0
 70
     8
 71
     3
 72
     8
 73
     4
 74
     0
 42
0.00000001
 43
0.00000001
 12
1.0
 22
0.0
 32
0.0
 13
1.0
 23
0.0
 33
0.0
 40
0.0
 40
0.0
 40
0.0
 40
0.0
 40
1.0
 40
1.0
 40
1.0
 40
1.0
 10
143.693646354426
 20
113.4417783999629
 30
0.0
 10
143.1725941119653
 20
113.2262598509888
 30
0.0
 10
142.6678577648637
 20
112.967201437156
 30
0.0
 10
142.193646354426
 20
112.6324722098612
 30
0.0
  0
LINE
  5
17F
330
1F
100
AcDbEntity
  8
0
  6
HIDDEN
 62
     7
370
     0
100
AcDbLine
 10
142.1936463544
 20
107.9541303534
 30
0.0
 11
142.1936463544
 21
112.6324722099
 31
0.0
  0
SPLINE
  5
180
330
1F
100
AcDbEntity
  8
0
  6
HIDDEN
 62
     7
370
     0
100
AcDbSpline
210
0.0
220
0.0
230
1.0
 70
     8
 71
     3
 72
    68
 73
    64
 74
     0
 42
0.00000001
 43
0.00000001
 12
1.0
 22
0.0
 32
0.0
 13
1.0
 23
0.0
 33
0.0
 40
-0.03125
 40
-0.03125
 40
0.0
 40
0.0
 40
0.0312500000000003
 40
0.0312500000000003
 40
0.0625000000000004
 40
0.0625000000000004
 40
0.0937500000000005
 40
0.0937500000000005
 40
0.1250000000000006
 40
0.1250000000000006
 40
0.1562500000000007
 40
0.1562500000000007
 40
0.1875000000000008
 40
0.1875000000000008
 40
0.2500000000000007
 40
0.2500000000000007
 40
0.2812500000000007
 40
0.2812500000000007
 40
0.3125000000000006
 40
0.3125000000000006
 40
0.3437500000000006
 40
0.3437500000000006
 40
0.3750000000000005
 40
0.3750000000000005
 40
0.4062500000000004
 40
0.4062500000000004
 40
0.4375000000000003
 40
0.4375000000000003
 40
0.4687500000000003
 40
0.4687500000000003
 40
0.5000000000000002
 40
0.5000000000000002
 40
0.5312500000000002
 40
0.5312500000000002
 40
0.5625000000000002
 40
0.5625000000000002
 40
0.5937500000000002
 40
0.5937500000000002
 40
0.6250000000000001
 40
0.6250000000000001
 40
0.6562500000000001
 40
0.6562500000000001
 40
0.6875000000000001
 40
0.6875000000000001
 40
0.7187500000000001
 40
0.7187500000000001
 40
0.7500000000000001
 40
0.7500000000000001
 40
0.7812500000000001
 40
0.7812500000000001
 40
0.8125000000000001
 40
0.8125000000000001
 40
0.8437500000000001
 40
0.8437500000000001
 40
0.875
 40
0.875
 40
0.90625
 40
0.90625
 40
0.9375
 40
0.9375
 40
0.96875
 40
0.96875
 40
1.0
 40
1.0
 40
1.03125
 40
1.03125
 10
155.9134070191696
 20
112.551188972618
 30
0.0
 10
156.2482945388425
 20
112.8224302093649
 30
0.0
 10
156.4265607607782
 20
112.9400715022366
 30
0.0
 10
156.8035854576715
 20
113.1414030262464
 30
0.0
 10
157.0037741790479
 20
113.22521122946
 30
0.0
 10
157.4104422186788
 20
113.3533032530284
 30
0.0
 10
157.6183573846989
 20
113.3986080499885
 30
0.0
 10
158.0433456839223
 20
113.4517657612941
 30
0.0
 10
158.2593823349063
 20
113.4590479453296
 30
0.0
 10
158.6838933037578
 20
113.4355005077923
 30
0.0
 10
158.8944202771476
 20
113.4049963053154
 30
0.0
 10
159.3119054879346
 20
113.3051366918481
 30
0.0
 10
159.514769021513
 20
113.2365408040874
 30
0.0
 10
160.0960855405278
 20
112.9791993608685
 30
0.0
 10
160.4564927933036
 20
112.7326494695586
 30
0.0
 10
160.9012317900652
 20
112.2794109134837
 30
0.0
 10
161.0364210102078
 20
112.1118303340072
 30
0.0
 10
161.26936088481
 20
111.7529682590959
 30
0.0
 10
161.3660442304648
 20
111.5642097387417
 30
0.0
 10
161.5192754951142
 20
111.1676960625335
 30
0.0
 10
161.5758924524823
 20
110.9573516534466
 30
0.0
 10
161.6413446543172
 20
110.5359631251637
 30
0.0
 10
161.6513030129444
 20
110.323447006
 30
0.0
 10
161.6244690037773
 20
109.8946722308998
 30
0.0
 10
161.5874493400044
 20
109.6821060027529
 30
0.0
 10
161.4702860609677
 20
109.2728113586749
 30
0.0
 10
161.3887471834728
 20
109.0719626869672
 30
0.0
 10
161.1875079720688
 20
108.6948359284561
 30
0.0
 10
161.0685762368979
 20
108.5186156069265
 30
0.0
 10
160.7954024238057
 20
108.1898594859444
 30
0.0
 10
160.6415416490955
 20
108.0385613180449
 30
0.0
 10
160.3116190510795
 20
107.7709741645656
 30
0.0
 10
160.133297226008
 20
107.6525030038548
 30
0.0
 10
159.7552732260856
 20
107.44961619992
 30
0.0
 10
159.5593442273044
 20
107.366997245472
 30
0.0
 10
159.1542589394701
 20
107.2375570689412
 30
0.0
 10
158.9429241416001
 20
107.1905818385106
 30
0.0
 10
158.5190393519477
 20
107.1358668835925
 30
0.0
 10
158.3066040786854
 20
107.1276371351494
 30
0.0
 10
157.8807520113904
 20
107.1491286329501
 30
0.0
 10
157.6656078479809
 20
107.1795262551685
 30
0.0
 10
157.2504783082405
 20
107.2772687120567
 30
0.0
 10
157.0488533424967
 20
107.3443872258055
 30
0.0
 10
156.6577668432257
 20
107.5160303259658
 30
0.0
 10
156.4679472343347
 20
107.6213763847505
 30
0.0
 10
156.117356614163
 20
107.8620793264451
 30
0.0
 10
155.9543501345165
 20
107.9982022027777
 30
0.0
 10
155.6542878118279
 20
108.3038556720118
 30
0.0
 10
155.5190189146236
 20
108.4723073515006
 30
0.0
 10
155.2880749617908
 20
108.8285880377841
 30
0.0
 10
155.1905927423185
 20
109.0183417171908
 30
0.0
 10
155.0356101829139
 20
109.420950079475
 30
0.0
 10
154.9807436620968
 20
109.626789823148
 30
0.0
 10
154.9153357914327
 20
110.0473694594704
 30
0.0
 10
154.9051895455996
 20
110.2648712767681
 30
0.0
 10
154.9318579081392
 20
110.6916114157288
 30
0.0
 10
154.9678952999656
 20
110.901514124816
 30
0.0
 10
155.0853064455336
 20
111.3144029454744
 30
0.0
 10
155.1664339801518
 20
111.5147258902583
 30
0.0
 10
155.3661910243412
 20
111.8909644087234
 30
0.0
 10
155.4866935234672
 20
112.0704191539712
 30
0.0
 10
155.7607739688332
 20
112.4007670820609
 30
0.0
 10
155.9134070191696
 20
112.551188972618
 30
0.0
 10
156.2482945388425
 20
112.8224302093649
 30
0.0
  0
CIRCLE
  5
181
330
1F
100
AcDbEntity
  8
0
  6
HIDDEN
 62
     7
370
     0
100
AcDbCircle
 10
158.1936463544
 20
110.2933012816
 30
0.0
 40
3.049999999999997
  0
CIRCLE
  5
182
330
1F
100
AcDbEntity
  8
0
  6
HIDDEN
 62
     7
370
     0
100
AcDbCircle
 10
184.1936463544
 20
110.2933012816
 30
0.0
 40
2.0
  0
SPLINE
  5
183
330
1F
100
AcDbEntity
  8
0
  6
HIDDEN
 62
     7
370
     0
100
AcDbSpline
210
0.0
220
0.0
230
1.0
 70
     8
 71
     3
 72
    11
 73
     7
 74
     0
 42
0.00000001
 43
0.00000001
 12
1.0
 22
0.0
 32
0.0
 13
1.0
 23
0.0
 33
0.0
 40
0.0
 40
0.0
 40
0.0
 40
0.0
 40
0.2528031759758519
 40
0.5036834259028137
 40
0.7527215116346947
 40
1.0
 40
1.0
 40
1.0
 40
1.0
 10
227.2320295506033
 20
127.5776679257289
 30
0.0
 10
227.259968057849
 20
127.4358781653803
 30
0.0
 10
227.3156325604398
 20
127.1533771565434
 30
0.0
 10
227.3891670996788
 20
126.7293937056288
 30
0.0
 10
227.4556309376136
 20
126.3074389756496
 30
0.0
 10
227.4931374567111
 20
126.0262068487817
 30
0.0
 10
227.511824230094
 20
125.8860893132387
 30
0.0
  0
LINE
  5
184
330
1F
100
AcDbEntity
  8
0
  6
HIDDEN
 62
     7
370
     0
100
AcDbLine
 10
206.4355010487
 20
125.3917567877
 30
0.0
 11
207.4217211196
 21
125.4954126941
 31
0.0
  0
LINE
  5
185
330
1F
100
AcDbEntity
  8
0
  6
HIDDEN
 62
     7
370
     0
100
AcDbLine
 10
214.4554249629
 20
126.2346847576
 30
0.0
 11
227.2317737102
 21
127.5775331222
 31
0.0
  0
LINE
  5
186
330
1F
100
AcDbEntity
  8
0
  6
HIDDEN
 62
     7
370
     0
100
AcDbLine
 10
227.5112234915
 20
125.8907828175
 30
0.0
 11
225.9243024304
 21
110.2933012816
 31
0.0
  0
LINE
  5
187
330
1F
100
AcDbEntity
  8
0
  6
HIDDEN
 62
     7
370
     0
100
AcDbLine
 10
172.1936463544
 20
90.7433012816
 30
0.0
 11
172.2865395732
 21
90.8361945004
 31
0.0
  0
LINE
  5
188
330
1F
100
AcDbEntity
  8
0
  6
HIDDEN
 62
     7
370
     0
100
AcDbLine
 10
172.2865395732
 20
129.7504080628
 30
0.0
 11
172.1936463544
 21
129.8433012816
 31
0.0
  0
LINE
  5
189
330
1F
100
AcDbEntity
  8
0
  6
HIDDEN
 62
     7
370
     0
100
AcDbLine
 10
197.0753945119
 20
127.0589661614
 30
0.0
 11
188.790065701
 21
122.0684553278
 31
0.0
  0
LINE
  5
18A
330
1F
100
AcDbEntity
  8
0
  6
HIDDEN
 62
     7
370
     0
100
AcDbLine
 10
194.4164990983
 20
119.6204738474
 30
0.0
 11
197.009312847
 21
121.1822060849
 31
0.0
  0
LINE
  5
18B
330
1F
100
AcDbEntity
  8
0
  6
HIDDEN
 62
     7
370
     0
100
AcDbLine
 10
191.3698819045
 20
117.7854017026
 30
0.0
 11
192.5940335865
 21
118.5227462752
 31
0.0
  0
LINE
  5
18C
330
1F
100
AcDbEntity
  8
0
  6
HIDDEN
 62
     7
370
     0
100
AcDbLine
 10
188.6207683572
 20
121.4270942607
 30
0.0
 11
188.8647076726
 21
119.1949359864
 31
0.0
  0
LINE
  5
18D
330
1F
100
AcDbEntity
  8
0
  6
HIDDEN
 62
     7
370
     0
100
AcDbLine
 10
188.8647076726
 20
119.1949359864
 30
0.0
 11
190.7237875091
 21
117.9356270042
 31
0.0
  0
ARC
  5
18E
330
1F
100
AcDbEntity
  8
0
  6
HIDDEN
 62
     7
370
     0
100
AcDbCircle
 10
171.5794327921
 20
91.5433012816
 30
0.0
 40
1.000000000000008
100
AcDbArc
 50
315.0
 51
0.0
  0
ARC
  5
18F
330
1F
100
AcDbEntity
  8
0
  6
HIDDEN
 62
     7
370
     0
100
AcDbCircle
 10
171.5794327921
 20
91.5433012816
 30
0.0
 40
1.000000000000016
100
AcDbArc
 50
0.0
 51
52.1052014664
  0
ARC
  5
190
330
1F
100
AcDbEntity
  8
0
  6
HIDDEN
 62
     7
370
     0
100
AcDbCircle
 10
171.5794327921
 20
129.0433012816
 30
0.0
 40
1.000000000000028
100
AcDbArc
 50
351.8087250651
 51
45.0
  0
ARC
  5
191
330
1F
100
AcDbEntity
  8
0
  6
HIDDEN
 62
     7
370
     0
100
AcDbCircle
 10
171.5794327921
 20
129.0433012816
 30
0.0
 40
1.000000000000016
100
AcDbArc
 50
307.8947985336
 51
351.8087250651
  0
LINE
  5
192
330
1F
100
AcDbEntity
  8
0
  6
HIDDEN
 62
     7
370
     0
100
AcDbLine
 10
172.5794327921
 20
91.5433012816
 30
0.0
 11
172.5794327921
 21
129.0433012816
 31
0.0
  0
LINE
  5
193
330
1F
100
AcDbEntity
  8
0
  6
HIDDEN
 62
     7
370
     0
100
AcDbLine
 10
172.5794327921
 20
91.5433012816
 30
0.0
 11
172.5794327921
 21
129.0433012816
 31
0.0
  0
LINE
  5
194
330
1F
100
AcDbEntity
  8
0
  6
HIDDEN
 62
     7
370
     0
100
AcDbLine
 10
189.6936463544
 20
120.1229114026
 30
0.0
 11
189.6936463544
 21
114.3473935136
 31
0.0
  0
LINE
  5
195
330
1F
100
AcDbEntity
  8
0
  6
HIDDEN
 62
     7
370
     0
100
AcDbLine
 10
194.6936463544
 20
114.3459003406
 30
0.0
 11
194.6936463544
 21
120.0930629308
 31
0.0
  0
ARC
  5
196
330
1F
100
AcDbEntity
  8
0
  6
HIDDEN
 62
     7
370
     0
100
AcDbCircle
 10
148.6936463544
 20
99.7933012816
 30
0.0
 40
1.500000000000003
100
AcDbArc
 50
191.0958032831
 51
270.0
  0
ARC
  5
197
330
1F
100
AcDbEntity
  8
0
  6
HIDDEN
 62
     7
370
     0
100
AcDbCircle
 10
148.6936463544
 20
120.7933012816
 30
0.0
 40
1.5
100
AcDbArc
 50
90.0
 51
168.9041967169
  0
LINE
  5
198
330
1F
100
AcDbEntity
  8
0
  6
HIDDEN
 62
     7
370
     0
100
AcDbLine
 10
148.6936463544
 20
98.2933012816
 30
0.0
 11
149.7003658665
 21
98.2933012816
 31
0.0
  0
LINE
  5
199
330
1F
100
AcDbEntity
  8
0
  6
HIDDEN
 62
     7
370
     0
100
AcDbLine
 10
149.7003658665
 20
122.2933012816
 30
0.0
 11
148.6936463544
 21
122.2933012816
 31
0.0
  0
ARC
  5
19A
330
1F
100
AcDbEntity
  8
0
  6
HIDDEN
 62
     7
370
     0
100
AcDbCircle
 10
149.7003658665
 20
99.7933012816
 30
0.0
 40
1.500000000000002
100
AcDbArc
 50
270.0
 51
315.0
  0
ARC
  5
19B
330
1F
100
AcDbEntity
  8
0
  6
HIDDEN
 62
     7
370
     0
100
AcDbCircle
 10
149.7003658665
 20
120.7933012816
 30
0.0
 40
1.5
100
AcDbArc
 50
45.0
 51
90.0
  0
LINE
  5
19C
330
1F
100
AcDbEntity
  8
0
  6
HIDDEN
 62
     7
370
     0
100
AcDbLine
 10
142.1936463544
 20
98.5298892132
 30
0.0
 11
143.22168621
 21
99.1234283005
 31
0.0
  0
LINE
  5
19D
330
1F
100
AcDbEntity
  8
0
  6
HIDDEN
 62
     7
370
     0
100
AcDbLine
 10
143.22168621
 20
121.4631742627
 30
0.0
 11
142.1936463544
 21
122.0567133501
 31
0.0
  0
LINE
  5
19E
330
1F
100
AcDbEntity
  8
0
  6
HIDDEN
 62
     7
370
     0
100
AcDbLine
 10
150.7610260383
 20
98.7326411098
 30
0.0
 11
151.82168621
 21
99.7933012816
 31
0.0
  0
LINE
  5
19F
330
1F
100
AcDbEntity
  8
0
  6
HIDDEN
 62
     7
370
     0
100
AcDbLine
 10
151.82168621
 20
120.7933012816
 30
0.0
 11
150.7610260383
 21
121.8539614534
 31
0.0
  0
LINE
  5
1A0
330
1F
100
AcDbEntity
  8
0
  6
HIDDEN
 62
     7
370
     0
100
AcDbLine
 10
143.22168621
 20
99.1234283005
 30
0.0
 11
145.72168621
 21
99.7933012816
 31
0.0
  0
LINE
  5
1A1
330
1F
100
AcDbEntity
  8
0
  6
HIDDEN
 62
     7
370
     0
100
AcDbLine
 10
145.72168621
 20
120.7933012816
 30
0.0
 11
143.22168621
 21
121.4631742627
 31
0.0
  0
LINE
  5
1A2
330
1F
100
AcDbEntity
  8
0
  6
HIDDEN
 62
     7
370
     0
100
AcDbLine
 10
147.22168621
 20
121.0819764162
 30
0.0
 11
146.72168621
 21
120.7933012816
 31
0.0
  0
LINE
  5
1A3
330
1F
100
AcDbEntity
  8
0
  6
HIDDEN
 62
     7
370
     0
100
AcDbLine
 10
146.72168621
 20
99.7933012816
 30
0.0
 11
147.22168621
 21
99.504626147
 31
0.0
  0
LINE
  5
1A4
330
1F
100
AcDbEntity
  8
0
  6
HIDDEN
 62
     7
370
     0
100
AcDbLine
 10
145.72168621
 20
99.7933012816
 30
0.0
 11
146.72168621
 21
99.7933012816
 31
0.0
  0
LINE
  5
1A5
330
1F
100
AcDbEntity
  8
0
  6
HIDDEN
 62
     7
370
     0
100
AcDbLine
 10
146.72168621
 20
120.7933012816
 30
0.0
 11
145.72168621
 21
120.7933012816
 31
0.0
  0
LINE
  5
1A6
330
1F
100
AcDbEntity
  8
0
  6
HIDDEN
 62
     7
370
     0
100
AcDbLine
 10
151.82168621
 20
99.7933012816
 30
0.0
 11
161.6936463544
 21
99.7933012816
 31
0.0
  0
LINE
  5
1A7
330
1F
100
AcDbEntity
  8
0
  6
HIDDEN
 62
     7
370
     0
100
AcDbLine
 10
161.6936463544
 20
120.7933012816
 30
0.0
 11
151.82168621
 21
120.7933012816
 31
0.0
  0
ARC
  5
1A8
330
1F
100
AcDbEntity
  8
0
  6
HIDDEN
 62
     7
370
     0
100
AcDbCircle
 10
161.6936463544
 20
100.2933012816
 30
0.0
 40
0.5
100
AcDbArc
 50
270.0
 51
360.0
  0
ARC
  5
1A9
330
1F
100
AcDbEntity
  8
0
  6
HIDDEN
 62
     7
370
     0
100
AcDbCircle
 10
161.6936463544
 20
120.2933012816
 30
0.0
 40
0.5
100
AcDbArc
 50
0.0
 51
90.0
  0
LINE
  5
1AA
330
1F
100
AcDbEntity
  8
0
  6
HIDDEN
 62
     7
370
     0
100
AcDbLine
 10
162.1936463544
 20
102.0433012816
 30
0.0
 11
163.1936463544
 21
103.0433012816
 31
0.0
  0
LINE
  5
1AB
330
1F
100
AcDbEntity
  8
0
  6
HIDDEN
 62
     7
370
     0
100
AcDbLine
 10
163.1936463544
 20
117.5433012816
 30
0.0
 11
162.1936463544
 21
118.5433012816
 31
0.0
  0
LINE
  5
1AC
330
1F
100
AcDbEntity
  8
0
  6
HIDDEN
 62
     7
370
     0
100
AcDbLine
 10
196.1936463544
 20
103.0433012816
 30
0.0
 11
200.5498858424
 21
110.2933012816
 31
0.0
  0
LINE
  5
1AD
330
1F
100
AcDbEntity
  8
0
  6
HIDDEN
 62
     7
370
     0
100
AcDbLine
 10
200.5498858424
 20
110.2933012816
 30
0.0
 11
196.1936463544
 21
117.5433012816
 31
0.0
  0
LINE
  5
1AE
330
1F
100
AcDbEntity
  8
0
  6
HIDDEN
 62
     7
370
     0
100
AcDbLine
 10
196.1936463544
 20
117.5433012816
 30
0.0
 11
163.1936463544
 21
117.5433012816
 31
0.0
  0
LINE
  5
1AF
330
1F
100
AcDbEntity
  8
0
  6
HIDDEN
 62
     7
370
     0
100
AcDbLine
 10
163.1936463544
 20
103.0433012816
 30
0.0
 11
196.1936463544
 21
103.0433012816
 31
0.0
  0
LINE
  5
1B0
330
1F
100
AcDbEntity
  8
0
  6
HIDDEN
 62
     7
370
     0
100
AcDbLine
 10
211.4915173258
 20
129.8154228919
 30
0.0
 11
211.0128399354
 21
129.1815852867
 31
0.0
  0
LINE
  5
1B1
330
1F
100
AcDbEntity
  8
0
  6
HIDDEN
 62
     7
370
     0
100
AcDbLine
 10
216.5988526626
 20
124.963000001
 30
0.0
 11
217.0775300529
 21
125.5968376062
 31
0.0
  0
LINE
  5
1B2
330
1F
100
AcDbEntity
  8
0
  6
HIDDEN
 62
     7
370
     0
100
AcDbLine
 10
226.4352951954
 20
126.9620511218
 30
0.0
 11
227.3990476267
 21
128.2381977404
 31
0.0
  0
LINE
  5
1B3
330
1F
100
AcDbEntity
  8
0
  6
HIDDEN
 62
     7
370
     0
100
AcDbLine
 10
218.9205862006
 20
135.6325810157
 30
0.0
 11
213.6889899223
 21
130.2042055809
 31
0.0
  0
LINE
  5
1B4
330
1F
100
AcDbEntity
  8
0
  6
HIDDEN
 62
     7
370
     0
100
AcDbLine
 10
210.4102737367
 20
129.5452279397
 30
0.0
 11
207.8137971506
 21
126.1071200733
 31
0.0
  0
LINE
  5
1B5
330
1F
100
AcDbEntity
  8
0
  6
HIDDEN
 62
     7
370
     0
100
AcDbLine
 10
214.4978762097
 20
121.0194786358
 30
0.0
 11
217.1134890093
 21
124.4829255969
 31
0.0
  0
LINE
  5
1B6
330
1F
100
AcDbEntity
  8
0
  6
HIDDEN
 62
     7
370
     0
100
AcDbLine
 10
189.6936463544
 20
106.2391945603
 30
0.0
 11
189.6936463544
 21
100.3958275162
 31
0.0
  0
LINE
  5
1B7
330
1F
100
AcDbEntity
  8
0
  6
HIDDEN
 62
     7
370
     0
100
AcDbLine
 10
194.6936463544
 20
100.3958275162
 30
0.0
 11
194.6936463544
 21
106.2392650732
 31
0.0
  0
LINE
  5
1B8
330
1F
100
AcDbEntity
  8
0
  6
HIDDEN
 62
     7
370
     0
100
AcDbLine
 10
221.6179027167
 20
139.2119201005
 30
0.0
 11
221.0325433224
 21
138.436820202
 31
0.0
  0
LINE
  5
1B9
330
1F
100
AcDbEntity
  8
0
  6
HIDDEN
 62
     7
370
     0
100
AcDbLine
 10
226.3791555041
 20
134.3990314286
 30
0.0
 11
226.9645148984
 21
135.1741313271
 31
0.0
  0
LINE
  5
1BA
330
1F
100
AcDbEntity
  8
0
  6
HIDDEN
 62
     7
370
     0
100
AcDbLine
 10
219.6455727392
 20
128.7863981586
 30
0.0
 11
224.2102707521
 21
133.5227908852
 31
0.0
  0
LINE
  5
1BB
330
1F
100
AcDbEntity
  8
0
  6
HIDDEN
 62
     7
370
     0
100
AcDbLine
 10
189.1936463544
 20
100.2278290192
 30
0.0
 11
189.1936463544
 21
96.3138903303
 31
0.0
  0
LINE
  5
1BC
330
1F
100
AcDbEntity
  8
0
  6
HIDDEN
 62
     7
370
     0
100
AcDbLine
 10
195.1936463544
 20
96.3134786949
 30
0.0
 11
195.1936463544
 21
100.2278290192
 31
0.0
  0
LINE
  5
1BD
330
1F
100
AcDbEntity
  8
VERMASSUNG
  6
CENTERX2
100
AcDbLine
 10
232.1936463544
 20
110.2933012816
 30
0.0
 11
138.1079571975
 21
110.2933012816
 31
0.0
  0
LINE
  5
1BE
330
1F
100
AcDbEntity
  8
VERMASSUNG
  6
CENTERX2
100
AcDbLine
 10
232.1936463544
 20
145.2933012816
 30
0.0
 11
232.1936463544
 21
110.2933012816
 31
0.0
  0
LINE
  5
1BF
330
1F
100
AcDbEntity
  8
VERMASSUNG
  6
CENTERX2
100
AcDbLine
 10
232.1936463544
 20
145.2933012816
 30
0.0
 11
244.1249444846
 21
145.2933012816
 31
0.0
  0
DIMENSION
  5
1C0
330
1F
100
AcDbEntity
  8
VERMASSUNG
100
AcDbDimension
  2
_D
 10
232.1936463544
 20
161.4571588497
 30
0.0
 11
187.1936463544
 21
161.4571588497
 31
0.0
 70
   160
  1
<>
 71
     2
 42
-1.0
  3
SLDDIMSTYLE0
100
AcDbAlignedDimension
 13
142.1936463544
 23
126.2866271198
 33
0.0
 14
232.1936463544
 24
145.2933012816
 34
0.0
100
AcDbRotatedDimension
  0
DIMENSION
  5
1CB
330
1F
100
AcDbEntity
  8
VERMASSUNG
100
AcDbDimension
  2
_D_1
 10
251.6264572654
 20
110.2933012816
 30
0.0
 11
251.6264572654
 21
127.7933012816
 31
0.0
 70
   160
  1
<>
 71
     2
 42
-1.0
  3
SLDDIMSTYLE1
100
AcDbAlignedDimension
 13
232.1936463544
 23
145.2933012816
 33
0.0
 14
232.1936463544
 24
110.2933012816
 34
0.0
 50
90.0
100
AcDbRotatedDimension
  0
DIMENSION
  5
1D8
330
1F
100
AcDbEntity
  8
VERMASSUNG
100
AcDbDimension
  2
_D_2
 10
172.1936463544
 20
155.5824154577
 30
0.0
 11
202.1936463544
 21
155.5824154577
 31
0.0
 70
   160
  1
<>
 71
     2
 42
-1.0
  3
SLDDIMSTYLE1
100
AcDbAlignedDimension
 13
232.1936463544
 23
145.2933012816
 33
0.0
 14
172.1936463544
 24
134.9933012816
 34
0.0
100
AcDbRotatedDimension
  0
DIMENSION
  5
1E4
330
1F
100
AcDbEntity
  8
VERMASSUNG
100
AcDbDimension
  2
_D_3
 10
244.1249444846
 20
145.2933012816
 30
0.0
 11
242.5151929769
 21
134.0640959259
 31
0.0
 70
   162
  1
<>
 71
     1
 42
-1.0
  3
SLDDIMSTYLE2
100
AcDb2LineAngularDimension
 13
231.480450883
 23
136.7674763496
 33
0.0
 14
232.192132572
 24
144.8568314176
 34
0.0
 15
232.1936463544
 25
145.2933012816
 35
0.0
 16
242.5151929769
 26
134.0640959259
 36
0.0
  0
DIMENSION
  5
1EF
330
1F
100
AcDbEntity
  8
VERMASSUNG
100
AcDbDimension
  2
_D_4
 10
133.3972471946
 20
85.2933012816
 30
0.0
 11
133.3972471946
 21
110.2933012816
 31
0.0
 70
   160
  1
PSC%%c<>
 71
     2
 42
-1.0
  3
SLDDIMSTYLE0
100
AcDbAlignedDimension
 13
172.4936463544
 23
135.2933012816
 33
0.0
 14
172.4936463544
 24
85.2933012816
 34
0.0
 50
90.0
100
AcDbRotatedDimension
  0
LINE
  5
1FB
330
1F
100
AcDbEntity
  8
0
  6
Continuous
 62
     7
370
    15
100
AcDbLine
 10
81.4969202981
 20
144.6344242367
 30
0.0
 11
76.8090664057
 21
145.2932567272
 31
0.0
  0
LINE
  5
1FC
330
1F
100
AcDbEntity
  8
0
  6
Continuous
 62
     7
370
    15
100
AcDbLine
 10
74.1128906153
 20
129.2256028327
 30
0.0
 11
74.4347210054
 21
129.1803722206
 31
0.0
  0
LINE
  5
1FD
330
1F
100
AcDbEntity
  8
0
  6
Continuous
 62
     7
370
    15
100
AcDbLine
 10
74.4516096089
 20
132.5647798303
 30
0.0
 11
74.5934567891
 21
132.2037340078
 31
0.0
  0
SPLINE
  5
1FE
330
1F
100
AcDbEntity
  8
0
  6
Continuous
 62
     7
370
    15
100
AcDbSpline
210
0.0
220
0.0
230
1.0
 70
     8
 71
     3
 72
     9
 73
     5
 74
     0
 42
0.00000001
 43
0.00000001
 12
1.0
 22
0.0
 32
0.0
 13
1.0
 23
0.0
 33
0.0
 40
0.0
 40
0.0
 40
0.0
 40
0.0
 40
0.1351535073011678
 40
1.0
 40
1.0
 40
1.0
 40
1.0
 10
75.99066847583319
 20
143.2505235943151
 30
0.0
 10
75.98613910558407
 20
143.2372106618288
 30
0.0
 10
75.95262632193851
 20
143.1387083532159
 30
0.0
 10
75.87710467708938
 20
143.0349013866229
 30
0.0
 10
75.81179004741873
 20
142.9451242956472
 30
0.0
  0
LINE
  5
1FF
330
1F
100
AcDbEntity
  8
0
  6
Continuous
 62
     7
370
    15
100
AcDbLine
 10
75.8218582265
 20
142.962581006
 30
0.0
 11
75.6469128898
 21
142.7341648313
 31
0.0
  0
LINE
  5
200
330
1F
100
AcDbEntity
  8
0
  6
Continuous
 62
     7
370
    15
100
AcDbLine
 10
85.8126444288
 20
143.9672619972
 30
0.0
 11
81.5103821002
 21
144.5719026896
 31
0.0
  0
LINE
  5
201
330
1F
100
AcDbEntity
  8
0
  6
Continuous
 62
     7
370
    15
100
AcDbLine
 10
86.0734212689
 20
143.6237455282
 30
0.0
 11
85.822753004
 21
143.9602472755
 31
0.0
  0
SPLINE
  5
202
330
1F
100
AcDbEntity
  8
0
  6
Continuous
 62
     7
370
    15
100
AcDbSpline
210
0.0
220
0.0
230
1.0
 70
     8
 71
     3
 72
    40
 73
    36
 74
     0
 42
0.00000001
 43
0.00000001
 12
1.0
 22
0.0
 32
0.0
 13
1.0
 23
0.0
 33
0.0
 40
0.0
 40
0.0
 40
0.0
 40
0.0
 40
0.0200206524215885
 40
0.0402889040239283
 40
0.0608050311421738
 40
0.0815693002015096
 40
0.1025819681747165
 40
0.1238432830142
 40
0.1453534840601381
 40
0.1671128024262671
 40
0.1891214613647419
 40
0.2113796766113729
 40
0.2338876567124827
 40
0.2566456033345055
 40
0.2796537115573995
 40
0.3029121701528548
 40
0.3264211618482121
 40
0.3501808635769518
 40
0.3741914467165481
 40
0.3984530773144357
 40
0.4229659163027725
 40
0.4477301197026646
 40
0.4727458388184405
 40
0.4980132204225526
 40
0.5527309453054197
 40
0.6127732214374884
 40
0.6781404782950663
 40
0.7488329184285419
 40
0.7847051216721792
 40
0.8205802530228273
 40
0.8564583172993481
 40
0.892339319319422
 40
0.9282232638995457
 40
0.9641101558550292
 40
1.0
 40
1.0
 40
1.0
 40
1.0
 10
86.0676641455989
 20
143.5515559763994
 30
0.0
 10
86.22112597240996
 20
143.5090873315748
 30
0.0
 10
86.52994751735926
 20
143.4236248241932
 30
0.0
 10
86.99235531777585
 20
143.2823055888755
 30
0.0
 10
87.45740444318338
 20
143.1300852546499
 30
0.0
 10
87.92452758180072
 20
142.9657912190839
 30
0.0
 10
88.39346349038912
 20
142.7893993043676
 30
0.0
 10
88.86384895261106
 20
142.6005793490024
 30
0.0
 10
89.33532994360571
 20
142.3990928396059
 30
0.0
 10
89.80753117247001
 20
142.1846852929673
 30
0.0
 10
90.2800642848128
 20
141.9571164793733
 30
0.0
 10
90.75252555408495
 20
141.7161530793884
 30
0.0
 10
91.22449647280934
 20
141.4615716079427
 30
0.0
 10
91.69554358897685
 20
141.1931585629943
 30
0.0
 10
92.16521858601888
 20
140.9107113532127
 30
0.0
 10
92.6330583354604
 20
140.6140390357792
 30
0.0
 10
93.09858500076813
 20
140.3029631241972
 30
0.0
 10
93.56130616260461
 20
139.9773184058346
 30
0.0
 10
94.02071501488831
 20
139.6369537399659
 30
0.0
 10
94.47629047113054
 20
139.2817330110614
 30
0.0
 10
94.92749779174972
 20
138.911535550567
 30
0.0
 10
95.37378742643342
 20
138.5262586292981
 30
0.0
 10
95.81460081737791
 20
138.12581215114
 30
0.0
 10
96.41681254524113
 20
137.5500299137362
 30
0.0
 10
97.18841278182083
 20
136.749958209369
 30
0.0
 10
98.11973695678086
 20
135.664916485925
 30
0.0
 10
99.05726209211606
 20
134.4217354986721
 30
0.0
 10
99.80308119000938
 20
133.2777150738181
 30
0.0
 10
100.3691364341708
 20
132.2988054889819
 30
0.0
 10
100.7701078457867
 20
131.5440754029252
 30
0.0
 10
101.1437452625049
 20
130.7752290454989
 30
0.0
 10
101.4897550285943
 20
129.9933100164891
 30
0.0
 10
101.8069539686788
 20
129.1991244248218
 30
0.0
 10
102.0975964031589
 20
128.3945142157719
 30
0.0
 10
102.2667259195719
 20
127.8498683137199
 30
0.0
 10
102.3512941559415
 20
127.5775341620041
 30
0.0
  0
SPLINE
  5
203
330
1F
100
AcDbEntity
  8
0
  6
Continuous
 62
     7
370
    15
100
AcDbSpline
210
0.0
220
0.0
230
1.0
 70
    24
 71
     3
 72
    11
 73
     7
 74
     0
 42
0.00000001
 43
0.00000001
 12
1.0
 22
0.0
 32
0.0
 13
1.0
 23
0.0
 33
0.0
 40
0.0
 40
0.0
 40
0.0
 40
0.0
 40
0.2528031759758519
 40
0.5036834259028137
 40
0.7527215116346947
 40
1.0
 40
1.0
 40
1.0
 40
1.0
 10
102.3512947030556
 20
127.5776679257289
 30
0.0
 10
102.3512947030556
 20
127.4358781653803
 30
0.0
 10
102.3512947030556
 20
127.1533771565434
 30
0.0
 10
102.3512947030556
 20
126.7293937056288
 30
0.0
 10
102.3512947030556
 20
126.3074389756496
 30
0.0
 10
102.3512947030556
 20
126.0262068487817
 30
0.0
 10
102.3512947030556
 20
125.8860893132387
 30
0.0
  0
SPLINE
  5
204
330
1F
100
AcDbEntity
  8
0
  6
Continuous
 62
     7
370
    15
100
AcDbSpline
210
0.0
220
0.0
230
1.0
 70
     8
 71
     3
 72
    31
 73
    27
 74
     0
 42
0.00000001
 43
0.00000001
 12
1.0
 22
0.0
 32
0.0
 13
1.0
 23
0.0
 33
0.0
 40
0.0
 40
0.0
 40
0.0
 40
0.0
 40
0.0192972833420168
 40
0.0385689542518794
 40
0.0578231438641141
 40
0.0770680054712977
 40
0.0963117042224558
 40
0.1155624067462833
 40
0.1348282707649664
 40
0.1541174347645226
 40
0.1734380077867463
 40
0.1927980594060546
 40
0.2122056099518448
 40
0.231668621033443
 40
0.2511949864204613
 40
0.3770326002209712
 40
0.5020170487527482
 40
0.6266802597606641
 40
0.7517505934066233
 40
0.7876257742183891
 40
0.8232751024967728
 40
0.8587512600273124
 40
0.8941077026873421
 40
0.929398430365033
 40
0.9646777447075552
 40
1.0
 40
1.0
 40
1.0
 40
1.0
 10
102.3512946982163
 20
125.8907828174865
 30
0.0
 10
102.3148332648985
 20
126.0465881895578
 30
0.0
 10
102.2419587919135
 20
126.3579921401091
 30
0.0
 10
102.1205589822708
 20
126.8217793470074
 30
0.0
 10
101.9904177404627
 20
127.2826412531362
 30
0.0
 10
101.8506634890809
 20
127.7403718511803
 30
0.0
 10
101.7015295758599
 20
128.1950259577948
 30
0.0
 10
101.542953607148
 20
128.6465885856348
 30
0.0
 10
101.3749524480978
 20
129.095063436216
 30
0.0
 10
101.1975216687739
 20
129.5404492820437
 30
0.0
 10
101.010662858453
 20
129.9827459807915
 30
0.0
 10
100.8143749427718
 20
130.4219540577271
 30
0.0
 10
100.6086615844837
 20
130.8580703511789
 30
0.0
 10
100.3935101909569
 20
131.2911059239485
 30
0.0
 10
99.76179089300088
 20
132.5006114532336
 30
0.0
 10
98.57615257283564
 20
134.4070305885768
 30
0.0
 10
96.58709532525287
 20
136.8053840006156
 30
0.0
 10
94.29855688916797
 20
138.9110022085846
 30
0.0
 10
92.3493591158538
 20
140.263112070159
 30
0.0
 10
90.93747668858848
 20
141.0741389634958
 30
0.0
 10
90.15232071375299
 20
141.4858344465448
 30
0.0
 10
89.35543127650408
 20
141.8648292463974
 30
0.0
 10
88.54683930530106
 20
142.2113696690525
 30
0.0
 10
87.72633078174383
 20
142.5246342911833
 30
0.0
 10
86.89476013074967
 20
142.8076386847605
 30
0.0
 10
86.33151968793258
 20
142.9684413507372
 30
0.0
 10
86.04972818081626
 20
143.0488915850407
 30
0.0
  0
ARC
  5
205
330
1F
100
AcDbEntity
  8
0
  6
Continuous
 62
     7
370
    15
100
AcDbCircle
 10
76.8512947031
 20
110.2933012816
 30
0.0
 40
25.50000000000001
100
AcDbArc
 50
356.6482159268
 51
0.0
  0
LINE
  5
206
330
1F
100
AcDbEntity
  8
0
  6
Continuous
 62
     7
370
    15
100
AcDbLine
 10
72.2777981788
 20
113.022834289
 30
0.0
 11
102.3076748021
 21
108.8024104183
 31
0.0
  0
LINE
  5
207
330
1F
100
AcDbEntity
  8
0
  6
Continuous
 62
     7
370
    15
100
AcDbLine
 10
75.2475221886
 20
132.8370408091
 30
0.0
 11
72.2777981788
 21
113.022834289
 31
0.0
  0
LINE
  5
208
330
1F
100
AcDbEntity
  8
0
  6
Continuous
 62
     7
370
    15
100
AcDbLine
 10
75.2475221886
 20
132.8370408091
 30
0.0
 11
84.3277772434
 21
131.5608941886
 31
0.0
  0
LINE
  5
209
330
1F
100
AcDbEntity
  8
0
  6
Continuous
 62
     7
370
    15
100
AcDbLine
 10
84.3277772434
 20
131.5608941886
 30
0.0
 11
84.8839249008
 21
135.2715534094
 31
0.0
  0
LINE
  5
20A
330
1F
100
AcDbEntity
  8
0
  6
Continuous
 62
     7
370
    15
100
AcDbLine
 10
102.3512942262
 20
125.8907825622
 30
0.0
 11
102.3512942262
 21
110.2933012816
 31
0.0
  0
LINE
  5
20B
330
1F
100
AcDbEntity
  8
0
  6
Continuous
 62
     7
370
    15
100
AcDbLine
 10
84.2931963049
 20
131.9874660048
 30
0.0
 11
84.3277772434
 21
131.5608941886
 31
0.0
  0
LINE
  5
20C
330
1F
100
AcDbEntity
  8
0
  6
Continuous
 62
     7
370
    15
100
AcDbLine
 10
75.2475221886
 20
132.8370408091
 30
0.0
 11
75.2129411336
 21
133.2636126253
 31
0.0
  0
LINE
  5
20D
330
1F
100
AcDbEntity
  8
0
  6
Continuous
 62
     7
370
    15
100
AcDbLine
 10
75.2129411336
 20
133.2636126253
 30
0.0
 11
84.2931963049
 21
131.9874660048
 31
0.0
  0
LINE
  5
20E
330
1F
100
AcDbEntity
  8
0
  6
Continuous
 62
     7
370
    15
100
AcDbLine
 10
72.2777981788
 20
113.022834289
 30
0.0
 11
66.6421236016
 21
86.9261701527
 31
0.0
  0
ARC
  5
20F
330
1F
100
AcDbEntity
  8
0
  6
Continuous
 62
     7
370
    15
100
AcDbCircle
 10
76.8512947031
 20
110.2933012816
 30
0.0
 40
25.5
100
AcDbArc
 50
245.1377080835
 51
246.3993349915
  0
SPLINE
  5
210
330
1F
100
AcDbEntity
  8
0
  6
Continuous
 62
     7
370
    15
100
AcDbSpline
210
0.0
220
0.0
230
1.0
 70
     8
 71
     3
 72
    10
 73
     6
 74
     0
 42
0.00000001
 43
0.00000001
 12
1.0
 22
0.0
 32
0.0
 13
1.0
 23
0.0
 33
0.0
 40
0.0
 40
0.0
 40
0.0
 40
0.0
 40
0.5
 40
0.5
 40
1.0
 40
1.0
 40
1.0
 40
1.0
 10
66.13010608950762
 20
87.15661796891419
 30
0.0
 10
66.14310992974539
 20
87.31365346897185
 30
0.0
 10
66.14914503936947
 20
87.45103196286426
 30
0.0
 10
66.1448702993251
 20
87.64748621034366
 30
0.0
 10
66.13463792519815
 20
87.70671982158538
 30
0.0
 10
66.11669905311845
 20
87.71524874753703
 30
0.0
  0
ARC
  5
211
330
1F
100
AcDbEntity
  8
0
  6
Continuous
 62
     7
370
    15
100
AcDbCircle
 10
76.8512947031
 20
110.2933012816
 30
0.0
 40
25.00000000000001
100
AcDbArc
 50
243.7663382053
 51
244.5715374506
  0
ARC
  5
212
330
1F
100
AcDbEntity
  8
0
  6
Continuous
 62
     7
370
    15
100
AcDbCircle
 10
76.8512947031
 20
110.2933012816
 30
0.0
 40
24.99999999999999
100
AcDbArc
 50
99.4284625494
 51
100.2336617947
  0
SPLINE
  5
213
330
1F
100
AcDbEntity
  8
0
  6
Continuous
 62
     7
370
    15
100
AcDbSpline
210
0.0
220
0.0
230
1.0
 70
     8
 71
     3
 72
    10
 73
     6
 74
     0
 42
0.00000001
 43
0.00000001
 12
1.0
 22
0.0
 32
0.0
 13
1.0
 23
0.0
 33
0.0
 40
0.0
 40
0.0
 40
0.0
 40
0.0
 40
0.5
 40
0.5
 40
1.0
 40
1.0
 40
1.0
 40
1.0
 10
72.75589378337926
 20
134.955573912248
 30
0.0
 10
72.78048636601048
 20
134.9596577404918
 30
0.0
 10
72.81511954869094
 20
135.0430822681182
 30
0.0
 10
72.89192128647
 20
135.3284830788577
 30
0.0
 10
72.93216237407151
 20
135.5226744678786
 30
0.0
 10
72.96865563503371
 20
135.739981041867
 30
0.0
  0
SPLINE
  5
214
330
1F
100
AcDbEntity
  8
0
  6
Continuous
 62
     7
370
    15
100
AcDbSpline
210
0.0
220
0.0
230
1.0
 70
     8
 71
     3
 72
     8
 73
     4
 74
     0
 42
0.00000001
 43
0.00000001
 12
1.0
 22
0.0
 32
0.0
 13
1.0
 23
0.0
 33
0.0
 40
0.0
 40
0.0
 40
0.0
 40
0.0
 40
1.0
 40
1.0
 40
1.0
 40
1.0
 10
72.96865563503371
 20
135.739981041867
 30
0.0
 10
73.04132461304576
 20
136.172703309778
 30
0.0
 10
73.11401205812594
 20
136.6053512162271
 30
0.0
 10
73.1867155172706
 20
137.0379346387399
 30
0.0
  0
ARC
  5
215
330
1F
100
AcDbEntity
  8
0
  6
Continuous
 62
     7
370
    15
100
AcDbCircle
 10
66.239406212
 20
141.5492932242
 30
0.0
 40
8.28356548026478
100
AcDbArc
 50
327.0016088774
 51
341.2933610606
  0
LINE
  5
216
330
1F
100
AcDbEntity
  8
0
  6
Continuous
 62
     7
370
    15
100
AcDbLine
 10
74.0853767853
 20
138.8925653818
 30
0.0
 11
74.4439434271
 21
139.8447663459
 31
0.0
  0
LWPOLYLINE
  5
217
330
1F
100
AcDbEntity
  8
0
  6
Continuous
 62
     7
370
    15
100
AcDbPolyline
 90
       13
 70
   128
 43
0.0
 10
74.093748444
 20
129.9384445819
 10
74.0867679484
 20
129.8949723068
 10
74.0080693282
 20
129.3529611948
 10
73.9458637323
 20
128.8212281588
 10
73.9043907739
 20
128.3360090974
 10
73.8864763186
 20
127.9303734127
 10
73.8933413301
 20
127.631960896
 10
73.9245182846
 20
127.461107907
 10
73.9778821368
 20
127.4294615659
 10
74.0497963049
 20
127.5391750905
 10
74.1353601694
 20
127.7827718231
 10
74.228742487
 20
128.1436537328
 10
74.3235795304
 20
128.5972245905
  0
LINE
  5
218
330
1F
100
AcDbEntity
  8
0
  6
Continuous
 62
     7
370
    15
100
AcDbLine
 10
74.3235795304
 20
128.5972245905
 30
0.0
 11
75.2129411336
 21
133.2636126253
 31
0.0
  0
LWPOLYLINE
  5
219
330
1F
100
AcDbEntity
  8
0
  6
Continuous
 62
     7
370
    15
100
AcDbPolyline
 90
       34
 70
   128
 43
0.0
 10
72.2962667711
 20
124.2401921126
 10
72.3736331344
 20
124.2931899551
 10
72.4658084579
 20
124.4695405412
 10
72.5694614008
 20
124.7628698993
 10
72.6808457181
 20
125.1625767845
 10
72.7959357679
 20
125.6542135897
 10
72.9105713323
 20
126.2200125429
 10
73.0206098885
 20
126.8395227316
 10
73.1220739905
 20
127.4903551611
 10
73.2112967886
 20
128.1489864859
 10
73.2850528799
 20
128.7916121009
 10
73.3406772848
 20
129.3950048211
 10
73.3761590451
 20
129.9373567972
 10
73.3902159624
 20
130.3990674141
 10
73.382340233
 20
130.7634473714
 10
73.3528159104
 20
131.0173296305
 10
73.3027107559
 20
131.1515350762
 10
73.2338350278
 20
131.161215243
 10
73.1486786168
 20
131.0460180911
 10
73.0503190786
 20
130.8101103577
 10
72.9423112713
 20
130.4620155069
 10
72.8285590664
 20
130.0143175694
 10
72.7131737873
 20
129.4831936184
 10
72.6003258966
 20
128.8878437999
 10
72.4940936558
 20
128.2497835281
 10
72.3983164422
 20
127.5920723501
 10
72.3164564476
 20
126.9384850684
 10
72.2514715523
 20
126.3126418862
 10
72.2057114832
 20
125.7371636975
 10
72.180829338
 20
125.232848798
 10
72.1777247742
 20
124.8179250333
 10
72.1965100162
 20
124.507387628
 10
72.2365056642
 20
124.3124618131
 10
72.2962667711
 20
124.2401921126
  0
ARC
  5
21A
330
1F
100
AcDbEntity
  8
0
  6
Continuous
 62
     7
370
    15
100
AcDbCircle
 10
76.8512947031
 20
110.2933012816
 30
0.0
 40
25.50000000000001
100
AcDbArc
 50
246.3993349915
 51
356.6482159268
  0
SPLINE
  5
21B
330
1F
100
AcDbEntity
  8
0
  6
Continuous
 62
     7
370
    15
100
AcDbSpline
210
0.0
220
0.0
230
1.0
 70
     8
 71
     3
 72
    18
 73
    14
 74
     0
 42
0.00000001
 43
0.00000001
 12
1.0
 22
0.0
 32
0.0
 13
1.0
 23
0.0
 33
0.0
 40
0.0
 40
0.0
 40
0.0
 40
0.0
 40
0.2500000000000002
 40
0.2500000000000002
 40
0.3749999999999997
 40
0.3749999999999997
 40
0.4999999999999992
 40
0.4999999999999992
 40
0.6249999999999988
 40
0.6249999999999988
 40
0.7499999999999982
 40
0.7499999999999982
 40
1.0
 40
1.0
 40
1.0
 40
1.0
 10
70.10653280503377
 20
134.3662775608277
 30
0.0
 10
70.39970550464145
 20
134.4484186318327
 30
0.0
 10
70.67833055641564
 20
134.5207156244088
 30
0.0
 10
71.07236821528875
 20
134.6165881004781
 30
0.0
 10
71.19964748602436
 20
134.6464054787657
 30
0.0
 10
71.43692659640125
 20
134.700255583795
 30
0.0
 10
71.54810207124851
 20
134.724578954107
 30
0.0
 10
71.75495581048864
 20
134.7685645221313
 30
0.0
 10
71.85141849889644
 20
134.788379822565
 30
0.0
 10
72.02276356583523
 20
134.822730990459
 30
0.0
 10
72.09768307296447
 20
134.8372912984668
 30
0.0
 10
72.29022731912559
 20
134.8740608757736
 30
0.0
 10
72.37572571007931
 20
134.8894488572363
 30
0.0
 10
72.40972136184595
 20
134.8955862619824
 30
0.0
  0
SPLINE
  5
21C
330
1F
100
AcDbEntity
  8
0
  6
Continuous
 62
     7
370
    15
100
AcDbSpline
210
0.0
220
0.0
230
1.0
 70
     8
 71
     3
 72
    18
 73
    14
 74
     0
 42
0.00000001
 43
0.00000001
 12
1.0
 22
0.0
 32
0.0
 13
1.0
 23
0.0
 33
0.0
 40
0.0
 40
0.0
 40
0.0
 40
0.0
 40
0.2499999999999986
 40
0.2499999999999986
 40
0.4999999999999971
 40
0.4999999999999971
 40
0.6249999999999978
 40
0.6249999999999978
 40
0.7499999999999986
 40
0.7499999999999986
 40
0.8749999999999992
 40
0.8749999999999992
 40
1.0
 40
1.0
 40
1.0
 40
1.0
 10
65.80047160140836
 20
87.86833062888962
 30
0.0
 10
65.76951835748189
 20
87.88358410807363
 30
0.0
 10
65.69438541791094
 20
87.92053370925288
 30
0.0
 10
65.45923255052493
 20
88.0393516645972
 30
0.0
 10
65.30390433402582
 20
88.11892268373859
 30
0.0
 10
65.02203652831149
 20
88.26877010228998
 30
0.0
 10
64.92035951061365
 20
88.32360478402666
 30
0.0
 10
64.70726393639559
 20
88.44067454017241
 30
0.0
 10
64.59519364030884
 20
88.50325264190069
 30
0.0
 10
64.36053152182473
 20
88.63691496875596
 30
0.0
 10
64.2378892344858
 20
88.70805344076446
 30
0.0
 10
63.98896803109211
 20
88.8554498396167
 30
0.0
 10
63.86190418278291
 20
88.93214780464864
 30
0.0
 10
63.73240191401855
 20
89.01197961238417
 30
0.0
  0
ELLIPSE
  5
21D
330
1F
100
AcDbEntity
  8
0
  6
Continuous
 62
     7
370
    15
100
AcDbEllipse
 10
62.570118004
 20
124.1205861231
 30
0.0
 11
2.479230308848181
 21
2.397818863585315
 31
0.0
210
0.0
220
0.0
230
1.0
 40
0.7099989018
 41
0.0
 42
6.283185307179586
  0
ARC
  5
21E
330
1F
100
AcDbEntity
  8
0
  6
Continuous
 62
     7
370
    15
100
AcDbCircle
 10
76.8512947031
 20
110.2933012816
 30
0.0
 40
25.00000000000001
100
AcDbArc
 50
105.6517993324
 51
238.3482006676
  0
ARC
  5
21F
330
1F
100
AcDbEntity
  8
0
  6
Continuous
 62
     7
370
    15
100
AcDbCircle
 10
59.1755684245
 20
119.0851180695
 30
0.0
 40
3.037359115846872
100
AcDbArc
 50
42.8815059682
 51
77.3133718622
  0
LINE
  5
220
330
1F
100
AcDbEntity
  8
0
  6
Continuous
 62
     7
370
    15
100
AcDbLine
 10
61.9505786814
 20
122.1796222898
 30
0.0
 11
62.1815783449
 21
121.2581391382
 31
0.0
  0
SPLINE
  5
221
330
1F
100
AcDbEntity
  8
0
  6
Continuous
 62
     7
370
    15
100
AcDbSpline
210
0.0
220
0.0
230
1.0
 70
     8
 71
     3
 72
    10
 73
     6
 74
     0
 42
0.00000001
 43
0.00000001
 12
1.0
 22
0.0
 32
0.0
 13
1.0
 23
0.0
 33
0.0
 40
0.0
 40
0.0
 40
0.0
 40
0.0
 40
0.2738840751421294
 40
0.7429448131698785
 40
1.0
 40
1.0
 40
1.0
 40
1.0
 10
63.67170005219097
 20
121.8795501562905
 30
0.0
 10
63.62575809096644
 20
122.0085125151845
 30
0.0
 10
63.50113477440114
 20
122.3583390452036
 30
0.0
 10
63.01622621276739
 20
122.6575912891156
 30
0.0
 10
62.57396169758979
 20
122.8157230676075
 30
0.0
 10
62.41739387737628
 20
122.8717039275122
 30
0.0
  0
SPLINE
  5
222
330
1F
100
AcDbEntity
  8
0
  6
Continuous
 62
     7
370
    15
100
AcDbSpline
210
0.0
220
0.0
230
1.0
 70
     8
 71
     3
 72
    10
 73
     6
 74
     0
 42
0.00000001
 43
0.00000001
 12
1.0
 22
0.0
 32
0.0
 13
1.0
 23
0.0
 33
0.0
 40
0.0
 40
0.0
 40
0.0
 40
0.0
 40
0.5
 40
0.5
 40
1.0
 40
1.0
 40
1.0
 40
1.0
 10
62.41739363378007
 20
122.8717042824007
 30
0.0
 10
62.31499469536921
 20
122.7828362895274
 30
0.0
 10
62.22293594023271
 20
122.6809932676708
 30
0.0
 10
62.06546801714659
 20
122.4475022142455
 30
0.0
 10
62.00194665607492
 20
122.3185384126706
 30
0.0
 10
61.95057874128175
 20
122.1796227432622
 30
0.0
  0
LWPOLYLINE
  5
223
330
1F
100
AcDbEntity
  8
0
  6
Continuous
 62
     7
370
    15
100
AcDbPolyline
 90
        9
 70
   128
 43
0.0
 10
62.4173938774
 20
122.8717039275
 10
62.3804101266
 20
122.8168741736
 10
62.3367897712
 20
122.7522040653
 10
62.2867572598
 20
122.6780279475
 10
62.2305724316
 20
122.5947304565
 10
62.168525859
 20
122.5027437258
 10
62.1009407111
 20
122.4025436613
 10
62.0281662338
 20
122.294649941
 10
61.9505786814
 20
122.1796222898
  0
LWPOLYLINE
  5
224
330
1F
100
AcDbEntity
  8
0
  6
Continuous
 62
     7
370
    15
100
AcDbPolyline
 90
       34
 70
   128
 43
0.0
 10
73.3161590539
 20
131.1312527332
 10
73.3615975838
 20
130.9685246023
 10
73.386137468
 20
130.6878873083
 10
73.3888920874
 20
130.2994792286
 10
73.3697615575
 20
129.8173428449
 10
73.3294373855
 20
129.2589013401
 10
73.2693770912
 20
128.6443383369
 10
73.1917511217
 20
127.9958658788
 10
73.0993655522
 20
127.3369216296
 10
72.995558941
 20
126.6913213703
 10
72.884083587
 20
126.0823984566
 10
72.7689679258
 20
125.532162835
 10
72.6543733396
 20
125.0604991737
 10
72.5444409542
 20
124.6844562638
 10
72.4431442574
 20
124.4176239642
 10
72.3541442782
 20
124.2696470517
 10
72.2806573391
 20
124.2458731803
 10
72.2253405035
 20
124.3471619609
 10
72.1901919238
 20
124.5698532957
 10
72.1764823899
 20
124.9058977637
 10
72.1847078309
 20
125.3431490558
 10
72.2145702236
 20
125.8658054221
 10
72.2649910964
 20
126.4549759152
 10
72.3341469199
 20
127.089366776
 10
72.4195394211
 20
127.7460479113
 10
72.5180817314
 20
128.4012873593
 10
72.6262124732
 20
129.0314015868
 10
72.7400233515
 20
129.6136160317
 10
72.8554007143
 20
130.1268902543
 10
72.9681750305
 20
130.552672309
 10
73.0742699012
 20
130.8755711588
 10
73.1698513042
 20
131.0839210573
 10
73.2514640328
 20
131.1701857421
 10
73.3161590539
 20
131.1312527332
  0
LWPOLYLINE
  5
225
330
1F
100
AcDbEntity
  8
0
  6
Continuous
 62
     7
370
    15
100
AcDbPolyline
 90
       25
 70
   128
 43
0.0
 10
73.0878220417
 20
129.6633430693
 10
73.1204818946
 20
129.5178555819
 10
73.130168115
 20
129.2489007983
 10
73.1162210938
 20
128.8748108718
 10
73.0795907799
 20
128.4210761014
 10
73.0227738165
 20
127.9186182591
 10
72.9496419441
 20
127.4016802135
 10
72.8651791357
 20
126.9054901722
 10
72.7751416631
 20
126.4638625953
 10
72.6856648468
 20
126.106894103
 10
72.6028465212
 20
125.8589099097
 10
72.5323309668
 20
125.7368107262
 10
72.4789233424
 20
125.7489179197
 10
72.4462637223
 20
125.894405407
 10
72.4365770363
 20
126.163358328
 10
72.4505245231
 20
126.5374501172
 10
72.4871543713
 20
126.9911848876
 10
72.5439715676
 20
127.4936427298
 10
72.6171032071
 20
128.0105789128
 10
72.7015662484
 20
128.5067689541
 10
72.791603721
 20
128.948396531
 10
72.8810805373
 20
129.305366886
 10
72.9638988629
 20
129.5533501479
 10
73.0344144173
 20
129.6754502627
 10
73.0878220417
 20
129.6633430693
  0
LINE
  5
226
330
1F
100
AcDbEntity
  8
0
  6
Continuous
 62
     7
370
    15
100
AcDbLine
 10
73.0462608405
 20
128.1135012332
 30
0.0
 11
72.9032669693
 21
127.9327035817
 31
0.0
  0
LINE
  5
227
330
1F
100
AcDbEntity
  8
0
  6
Continuous
 62
     7
370
    15
100
AcDbLine
 10
72.9032669693
 20
127.9327035817
 30
0.0
 11
72.9751771793
 21
127.5964104506
 31
0.0
  0
LINE
  5
228
330
1F
100
AcDbEntity
  8
0
  6
Continuous
 62
     7
370
    15
100
AcDbLine
 10
73.0224343494
 20
127.9159565392
 30
0.0
 11
72.9032669693
 21
127.9327035817
 31
0.0
  0
ELLIPSE
  5
229
330
1F
100
AcDbEntity
  8
0
  6
Continuous
 62
     7
370
    15
100
AcDbEllipse
 10
75.3898865483
 20
138.1037481529
 30
0.0
 11
0.3276187943153985
 21
2.328679888184524
 31
0.0
210
0.0
220
0.0
230
1.0
 40
0.1045283628
 41
0.3692499247538674
 42
1.139330894868504
  0
LWPOLYLINE
  5
22A
330
1F
100
AcDbEntity
  8
0
  6
Continuous
 62
     7
370
    15
100
AcDbPolyline
 90
        9
 70
   128
 43
0.0
 10
74.0992094867
 20
129.3005761626
 10
74.1012833093
 20
129.2579811934
 10
74.106546446
 20
129.2326305929
 10
74.1147495352
 20
129.2257257673
 10
74.1255037498
 20
129.2375945422
 10
74.1382989578
 20
129.2676725361
 10
74.1525288683
 20
129.3145348254
 10
74.1675189708
 20
129.3759592745
 10
74.1825582005
 20
129.449034569
  0
LINE
  5
22B
330
1F
100
AcDbEntity
  8
0
  6
Continuous
 62
     7
370
    15
100
AcDbLine
 10
74.0584438678
 20
134.0620000783
 30
0.0
 11
74.0992094867
 21
129.3005761626
 31
0.0
  0
LINE
  5
22C
330
1F
100
AcDbEntity
  8
0
  6
Continuous
 62
     7
370
    15
100
AcDbLine
 10
74.5070088666
 20
140.790794504
 30
0.0
 11
74.0584438678
 21
134.0620000783
 31
0.0
  0
ARC
  5
22D
330
1F
100
AcDbEntity
  8
0
  6
Continuous
 62
     7
370
    15
100
AcDbCircle
 10
77.204989123
 20
140.6345577565
 30
0.0
 40
2.702500209974026
100
AcDbArc
 50
164.1055740965
 51
176.6857726255
  0
LINE
  5
22E
330
1F
100
AcDbEntity
  8
0
  6
Continuous
 62
     7
370
    15
100
AcDbLine
 10
75.8589973917
 20
144.7026119503
 30
0.0
 11
74.6058110159
 21
141.3746797416
 31
0.0
  0
LINE
  5
22F
330
1F
100
AcDbEntity
  8
0
  6
Continuous
 62
     7
370
    15
100
AcDbLine
 10
76.8052459313
 20
145.2922583494
 30
0.0
 11
75.8589973917
 21
144.7026119503
 31
0.0
  0
ARC
  5
230
330
1F
100
AcDbEntity
  8
0
  6
Continuous
 62
     7
370
    15
100
AcDbCircle
 10
75.9141320582
 20
145.1058972222
 30
0.0
 40
0.9103924453274981
100
AcDbArc
 50
344.1225554391
 51
11.8121818165
  0
LINE
  5
231
330
1F
100
AcDbEntity
  8
0
  6
Continuous
 62
     7
370
    15
100
AcDbLine
 10
75.5773716152
 20
136.7674772564
 30
0.0
 11
76.7897921975
 21
144.8568315181
 31
0.0
  0
LINE
  5
232
330
1F
100
AcDbEntity
  8
0
  6
Continuous
 62
     7
370
    15
100
AcDbLine
 10
74.1825582005
 20
129.449034569
 30
0.0
 11
75.5773716152
 21
136.7674772564
 31
0.0
  0
LWPOLYLINE
  5
233
330
1F
100
AcDbEntity
  8
0
  6
Continuous
 62
     7
370
    15
100
AcDbPolyline
 90
        9
 70
   128
 43
0.0
 10
74.1026770335
 20
129.3166321638
 10
74.1046472464
 20
129.2761680606
 10
74.1096470516
 20
129.2520859215
 10
74.1174401261
 20
129.2455256852
 10
74.1276565019
 20
129.2568002763
 10
74.1398121242
 20
129.2853732529
 10
74.1533305042
 20
129.3298923346
 10
74.167570892
 20
129.3882471445
 10
74.1818583116
 20
129.4576679292
  0
LINE
  5
234
330
1F
100
AcDbEntity
  8
0
  6
Continuous
 62
     7
370
    15
100
AcDbLine
 10
74.1818583116
 20
129.4576679292
 30
0.0
 11
75.576072653
 21
136.7729664716
 31
0.0
  0
LINE
  5
235
330
1F
100
AcDbEntity
  8
0
  6
Continuous
 62
     7
370
    15
100
AcDbLine
 10
75.576072653
 20
136.7729664716
 30
0.0
 11
76.7879724441
 21
144.8588469002
 31
0.0
  0
ARC
  5
236
330
1F
100
AcDbEntity
  8
0
  6
Continuous
 62
     7
370
    15
100
AcDbCircle
 10
75.9560940877
 20
145.0954596851
 30
0.0
 40
0.864874100590103
100
AcDbArc
 50
344.1225542998
 51
11.8121897685
  0
LINE
  5
237
330
1F
100
AcDbEntity
  8
0
  6
Continuous
 62
     7
370
    15
100
AcDbLine
 10
76.802653493
 20
145.2725031349
 30
0.0
 11
75.8568113448
 21
144.6831100556
 31
0.0
  0
LINE
  5
238
330
1F
100
AcDbEntity
  8
0
  6
Continuous
 62
     7
370
    15
100
AcDbLine
 10
75.8568113448
 20
144.6831100556
 30
0.0
 11
74.6041632734
 21
141.3566064957
 31
0.0
  0
ARC
  5
239
330
1F
100
AcDbEntity
  8
0
  6
Continuous
 62
     7
370
    15
100
AcDbCircle
 10
77.0733818571
 20
140.6534898447
 30
0.0
 40
2.567374814588173
100
AcDbArc
 50
164.1055538948
 51
176.6857362853
  0
LINE
  5
23A
330
1F
100
AcDbEntity
  8
0
  6
Continuous
 62
     7
370
    15
100
AcDbLine
 10
74.5103010919
 20
140.8019163582
 30
0.0
 11
74.0619288769
 21
134.0760108951
 31
0.0
  0
LINE
  5
23B
330
1F
100
AcDbEntity
  8
0
  6
Continuous
 62
     7
370
    15
100
AcDbLine
 10
74.0619288769
 20
134.0760108951
 30
0.0
 11
74.1026770335
 21
129.3166321638
 31
0.0
  0
LINE
  5
23C
330
1F
100
AcDbEntity
  8
0
  6
Continuous
 62
     7
370
    15
100
AcDbLine
 10
80.265225704
 20
136.1086410406
 30
0.0
 11
75.5773716152
 21
136.7674772564
 31
0.0
  0
LINE
  5
23D
330
1F
100
AcDbEntity
  8
0
  6
Continuous
 62
     7
370
    15
100
AcDbLine
 10
80.265225704
 20
136.1086410406
 30
0.0
 11
81.4776461117
 21
144.1979953024
 31
0.0
  0
LINE
  5
23E
330
1F
100
AcDbEntity
  8
0
  6
Continuous
 62
     7
370
    15
100
AcDbLine
 10
79.6053422161
 20
132.6463022205
 30
0.0
 11
80.265225704
 21
136.1086410406
 31
0.0
  0
ARC
  5
23F
330
1F
100
AcDbEntity
  8
0
  6
Continuous
 62
     7
370
    15
100
AcDbCircle
 10
67.0128887753
 20
138.7570014933
 30
0.0
 40
8.55283003200964
100
AcDbArc
 50
349.2714886887
 51
351.519788336
  0
LINE
  5
240
330
1F
100
AcDbEntity
  8
0
  6
Continuous
 62
     7
370
    15
100
AcDbLine
 10
74.6422969748
 20
133.1041608873
 30
0.0
 11
75.4162177688
 21
137.1648446593
 31
0.0
  0
LWPOLYLINE
  5
241
330
1F
100
AcDbEntity
  8
0
  6
Continuous
 62
     7
370
    15
100
AcDbPolyline
 90
        9
 70
   128
 43
0.0
 10
74.433925423
 20
132.7330158028
 10
74.439109863
 20
132.6265302423
 10
74.4522675883
 20
132.5631537411
 10
74.4727753114
 20
132.5458907458
 10
74.4996607315
 20
132.5755608204
 10
74.5316491008
 20
132.6507558051
 10
74.5672239933
 20
132.767910597
 10
74.6046987839
 20
132.9214726511
 10
74.6422969748
 20
133.1041608873
  0
LINE
  5
242
330
1F
100
AcDbEntity
  8
0
  6
Continuous
 62
     7
370
    15
100
AcDbLine
 10
74.4113063917
 20
135.3749209019
 30
0.0
 11
74.433925423
 21
132.7330158028
 31
0.0
  0
ARC
  5
243
330
1F
100
AcDbEntity
  8
0
  6
Continuous
 62
     7
370
    15
100
AcDbCircle
 10
77.7993515774
 20
135.3782116338
 30
0.0
 40
3.388046783838377
100
AcDbArc
 50
175.8791102724
 51
180.0556500809
  0
LINE
  5
244
330
1F
100
AcDbEntity
  8
0
  6
Continuous
 62
     7
370
    15
100
AcDbLine
 10
74.6689530567
 20
139.3551924202
 30
0.0
 11
74.4200640835
 21
135.621680406
 31
0.0
  0
ARC
  5
245
330
1F
100
AcDbEntity
  8
0
  6
Continuous
 62
     7
370
    15
100
AcDbCircle
 10
81.4137860673
 20
138.964619564
 30
0.0
 40
6.756131992259239
100
AcDbArc
 50
164.1054472904
 51
176.6858759207
  0
LINE
  5
246
330
1F
100
AcDbEntity
  8
0
  6
Continuous
 62
     7
370
    15
100
AcDbLine
 10
75.611297019
 20
142.6614285383
 30
0.0
 11
74.9159588956
 21
140.8149064454
 31
0.0
  0
ARC
  5
247
330
1F
100
AcDbEntity
  8
0
  6
Continuous
 62
     7
370
    15
100
AcDbCircle
 10
75.7984801383
 20
142.6116639811
 30
0.0
 40
0.1936853925622031
100
AcDbArc
 50
136.2661590769
 51
165.1117264464
  0
LINE
  5
248
330
1F
100
AcDbEntity
  8
0
  6
Continuous
 62
     7
370
    15
100
AcDbLine
 10
76.1835629597
 20
143.0727303895
 30
0.0
 11
75.6585310225
 21
142.7455604944
 31
0.0
  0
ARC
  5
249
330
1F
100
AcDbEntity
  8
0
  6
Continuous
 62
     7
370
    15
100
AcDbCircle
 10
73.9557684196
 20
142.6068279435
 30
0.0
 40
2.275990685934417
100
AcDbArc
 50
344.1226142508
 51
11.8121218573
  0
LINE
  5
24A
330
1F
100
AcDbEntity
  8
0
  6
Continuous
 62
     7
370
    15
100
AcDbLine
 10
75.472209464
 20
137.4957342568
 30
0.0
 11
76.1449286143
 21
141.9841633114
 31
0.0
  0
LWPOLYLINE
  5
24B
330
1F
100
AcDbEntity
  8
0
  6
Continuous
 62
     7
370
    15
100
AcDbPolyline
 90
       29
 70
   128
 43
0.0
 10
75.5189957341
 20
139.1641036543
 10
75.571014873
 20
139.6973957244
 10
75.6026714586
 20
140.1711800072
 10
75.6123782845
 20
140.5617021891
 10
75.5996486183
 20
140.8493765566
 10
75.5651206488
 20
141.019780648
 10
75.5105259374
 20
141.0643686476
 10
75.438601874
 20
140.9809053811
 10
75.3529552382
 20
140.7735743496
 10
75.2578804746
 20
140.4527747008
 10
75.1581452565
 20
140.0345903757
 10
75.0587506697
 20
139.5399910334
 10
74.9646806868
 20
138.9937777939
 10
74.8806524567
 20
138.423342717
 10
74.8108793993
 20
137.8572867188
 10
74.7588603769
 20
137.3239946487
 10
74.7272037912
 20
136.8502103659
 10
74.7174970817
 20
136.4596900466
 10
74.7302266315
 20
136.1720138165
 10
74.7647547174
 20
136.0016097251
 10
74.8193493124
 20
135.9570217255
 10
74.8912734922
 20
136.040484992
 10
74.9769201281
 20
136.2478160235
 10
75.0719947752
 20
136.5686175349
 10
75.1717299933
 20
136.98680186
 10
75.2711245801
 20
137.4814012024
 10
75.365194563
 20
138.0276125792
 10
75.4492227931
 20
138.5980495188
 10
75.5189957341
 20
139.1641036543
  0
ARC
  5
24C
330
1F
100
AcDbEntity
  8
0
  6
Continuous
 62
     7
370
    15
100
AcDbCircle
 10
80.463091109
 20
144.4614415765
 30
0.0
 40
1.048201217752193
100
AcDbArc
 50
345.4436661505
 51
9.4988671257
  0
LINE
  5
24D
330
1F
100
AcDbEntity
  8
0
  6
Continuous
 62
     7
370
    15
100
AcDbLine
 10
75.984854229
 20
144.388990936
 30
0.0
 11
75.8568113448
 21
144.6831100556
 31
0.0
  0
LINE
  5
24E
330
1F
100
AcDbEntity
  8
0
  6
Continuous
 62
     7
370
    15
100
AcDbLine
 10
74.2690200929
 20
134.2490413162
 30
0.0
 11
74.0619288769
 21
134.0760108951
 31
0.0
  0
LINE
  5
24F
330
1F
100
AcDbEntity
  8
0
  6
Continuous
 62
     7
370
    15
100
AcDbLine
 10
74.6232958988
 20
132.1028438333
 30
0.0
 11
74.6224849496
 21
132.1353879693
 31
0.0
  0
SPLINE
  5
250
330
1F
100
AcDbEntity
  8
0
  6
Continuous
 62
     7
370
    15
100
AcDbSpline
210
0.0
220
0.0
230
1.0
 70
     8
 71
     3
 72
    11
 73
     7
 74
     0
 42
0.00000001
 43
0.00000001
 12
1.0
 22
0.0
 32
0.0
 13
1.0
 23
0.0
 33
0.0
 40
0.0
 40
0.0
 40
0.0
 40
0.0
 40
0.322483656550874
 40
0.6449227944737829
 40
0.9911766715086225
 40
1.0
 40
1.0
 40
1.0
 40
1.0
 10
75.98485422899986
 20
144.3889909359766
 30
0.0
 10
76.0359849122382
 20
144.2308914862974
 30
0.0
 10
76.13823922016222
 20
143.9147144124501
 30
0.0
 10
76.07824713911259
 20
143.4065843412998
 30
0.0
 10
75.92634224865833
 20
143.0962576802715
 30
0.0
 10
75.8186379073756
 20
142.9551644855902
 30
0.0
 10
75.81596155764575
 20
142.9516584548307
 30
0.0
  0
LINE
  5
251
330
1F
100
AcDbEntity
  8
0
  6
Continuous
 62
     7
370
    15
100
AcDbLine
 10
74.9373367068
 20
140.8716780069
 30
0.0
 11
74.7889237024
 21
140.9828592959
 31
0.0
  0
LINE
  5
252
330
1F
100
AcDbEntity
  8
0
  6
Continuous
 62
     7
370
    15
100
AcDbLine
 10
75.925808436
 20
143.2110615942
 30
0.0
 11
75.8082341414
 21
142.9447927448
 31
0.0
  0
LINE
  5
253
330
1F
100
AcDbEntity
  8
0
  6
Continuous
 62
     7
370
    15
100
AcDbLine
 10
74.2690200929
 20
134.2490413162
 30
0.0
 11
74.4193895731
 21
134.4308112684
 31
0.0
  0
LINE
  5
254
330
1F
100
AcDbEntity
  8
0
  6
Continuous
 62
     7
370
    15
100
AcDbLine
 10
80.265225704
 20
136.1086410406
 30
0.0
 11
81.3720578805
 21
143.493505654
 31
0.0
  0
LINE
  5
255
330
1F
100
AcDbEntity
  8
0
  6
Continuous
 62
     7
370
    15
100
AcDbLine
 10
84.6576265536
 20
135.4913306358
 30
0.0
 11
85.7644587301
 21
142.876191524
 31
0.0
  0
LINE
  5
256
330
1F
100
AcDbEntity
  8
0
  6
Continuous
 62
     7
370
    15
100
AcDbLine
 10
84.6576265536
 20
135.4913306358
 30
0.0
 11
80.265225704
 21
136.1086410406
 31
0.0
  0
LINE
  5
257
330
1F
100
AcDbEntity
  8
0
  6
Continuous
 62
     7
370
    15
100
AcDbLine
 10
84.9335941963
 20
135.5321635428
 30
0.0
 11
84.6576265536
 21
135.4913306358
 31
0.0
  0
LINE
  5
258
330
1F
100
AcDbEntity
  8
0
  6
Continuous
 62
     7
370
    15
100
AcDbLine
 10
86.0326153703
 20
142.8649076197
 30
0.0
 11
84.9335941963
 21
135.5321635428
 31
0.0
  0
LINE
  5
259
330
1F
100
AcDbEntity
  8
0
  6
Continuous
 62
     7
370
    15
100
AcDbLine
 10
83.9977430657
 20
132.0289899531
 30
0.0
 11
84.6576265536
 21
135.4913306358
 31
0.0
  0
LINE
  5
25A
330
1F
100
AcDbEntity
  8
0
  6
Continuous
 62
     7
370
    15
100
AcDbLine
 10
84.9335941963
 20
135.5321635428
 30
0.0
 11
84.2589324817
 21
131.9922809425
 31
0.0
  0
ARC
  5
25B
330
1F
100
AcDbEntity
  8
0
  6
Continuous
 62
     7
370
    15
100
AcDbCircle
 10
83.2280996618
 20
143.5348057666
 30
0.0
 40
2.620475156136191
100
AcDbArc
 50
345.4435404042
 51
9.4989598434
  0
ARC
  5
25C
330
1F
100
AcDbEntity
  8
0
  6
Continuous
 62
     7
370
    15
100
AcDbCircle
 10
83.9540393051
 20
143.3571974833
 30
0.0
 40
2.136077659810221
100
AcDbArc
 50
346.6755853448
 51
7.1682749334
  0
INSERT
  5
268
330
1F
100
AcDbEntity
  8
VERMASSUNG
100
AcDbBlockReference
  2
SW_CENTERMARKSYMBOL_0
 10
76.8512947031
 20
110.2933012816
 30
0.0
  0
OLE2FRAME
  5
269
330
1F
100
AcDbEntity
  8
0
100
AcDbOle2Frame
 70
     2
  3
Paintbrush-Bild
 10
13.8511154363
 20
38.264191557
 30
0.0
 11
51.6290888628
 21
31.9806341108
 31
0.0
 71
     2
 72
     0
 73
     1
 90
    12928
310
80552BED0767C5B32B40DDAF6807D121434000000000000000006FFBDDFB85D0
310
4940DDAF6807D121434000000000000000006FFBDDFB85D04940416F4BD60AFB
310
3F4000000000000000002BED0767C5B32B40416F4BD60AFB3F40000000000000
310
0000000000000100000000010000010000000100000000000100000000320000
310
D0CF11E0A1B11AE1000000000000000000000000000000003E000300FEFF0900
310
0600000000000000000000000100000001000000000000000010000002000000
310
01000000FEFFFFFF0000000000000000FFFFFFFFFFFFFFFFFFFFFFFFFFFFFFFF
310
FFFFFFFFFFFFFFFFFFFFFFFFFFFFFFFFFFFFFFFFFFFFFFFFFFFFFFFFFFFFFFFF
310
FFFFFFFFFFFFFFFFFFFFFFFFFFFFFFFFFFFFFFFFFFFFFFFFFFFFFFFFFFFFFFFF
310
FFFFFFFFFFFFFFFFFFFFFFFFFFFFFFFFFFFFFFFFFFFFFFFFFFFFFFFFFFFFFFFF
310
FFFFFFFFFFFFFFFFFFFFFFFFFFFFFFFFFFFFFFFFFFFFFFFFFFFFFFFFFFFFFFFF
310
FFFFFFFFFFFFFFFFFFFFFFFFFFFFFFFFFFFFFFFFFFFFFFFFFFFFFFFFFFFFFFFF
310
FFFFFFFFFFFFFFFFFFFFFFFFFFFFFFFFFFFFFFFFFFFFFFFFFFFFFFFFFFFFFFFF
310
FFFFFFFFFFFFFFFFFFFFFFFFFFFFFFFFFFFFFFFFFFFFFFFFFFFFFFFFFFFFFFFF
310
FFFFFFFFFFFFFFFFFFFFFFFFFFFFFFFFFFFFFFFFFFFFFFFFFFFFFFFFFFFFFFFF
310
FFFFFFFFFFFFFFFFFFFFFFFFFFFFFFFFFFFFFFFFFFFFFFFFFFFFFFFFFFFFFFFF
310
FFFFFFFFFFFFFFFFFFFFFFFFFFFFFFFFFFFFFFFFFFFFFFFFFFFFFFFFFFFFFFFF
310
FFFFFFFFFFFFFFFFFFFFFFFFFFFFFFFFFFFFFFFFFFFFFFFFFFFFFFFFFFFFFFFF
310
FFFFFFFFFFFFFFFFFFFFFFFFFFFFFFFFFFFFFFFFFFFFFFFFFFFFFFFFFFFFFFFF
310
FFFFFFFFFFFFFFFFFFFFFFFFFFFFFFFFFFFFFFFFFFFFFFFFFFFFFFFFFFFFFFFF
310
FDFFFFFFFEFFFFFFFEFFFFFFFEFFFFFF05000000060000000700000008000000
310
090000000A0000000B0000000C0000000D0000000E0000000F00000010000000
310
11000000120000001300000014000000150000001600000017000000FEFFFFFF
310
FFFFFFFFFFFFFFFFFFFFFFFFFFFFFFFFFFFFFFFFFFFFFFFFFFFFFFFFFFFFFFFF
310
FFFFFFFFFFFFFFFFFFFFFFFFFFFFFFFFFFFFFFFFFFFFFFFFFFFFFFFFFFFFFFFF
310
FFFFFFFFFFFFFFFFFFFFFFFFFFFFFFFFFFFFFFFFFFFFFFFFFFFFFFFFFFFFFFFF
310
FFFFFFFFFFFFFFFFFFFFFFFFFFFFFFFFFFFFFFFFFFFFFFFFFFFFFFFFFFFFFFFF
310
FFFFFFFFFFFFFFFFFFFFFFFFFFFFFFFFFFFFFFFFFFFFFFFFFFFFFFFFFFFFFFFF
310
FFFFFFFFFFFFFFFFFFFFFFFFFFFFFFFFFFFFFFFFFFFFFFFFFFFFFFFFFFFFFFFF
310
FFFFFFFFFFFFFFFFFFFFFFFFFFFFFFFFFFFFFFFFFFFFFFFFFFFFFFFFFFFFFFFF
310
FFFFFFFFFFFFFFFFFFFFFFFFFFFFFFFFFFFFFFFFFFFFFFFFFFFFFFFFFFFFFFFF
310
FFFFFFFFFFFFFFFFFFFFFFFFFFFFFFFFFFFFFFFFFFFFFFFFFFFFFFFFFFFFFFFF
310
FFFFFFFFFFFFFFFFFFFFFFFFFFFFFFFFFFFFFFFFFFFFFFFFFFFFFFFFFFFFFFFF
310
FFFFFFFFFFFFFFFFFFFFFFFFFFFFFFFFFFFFFFFFFFFFFFFFFFFFFFFFFFFFFFFF
310
FFFFFFFFFFFFFFFFFFFFFFFFFFFFFFFFFFFFFFFFFFFFFFFFFFFFFFFFFFFFFFFF
310
FFFFFFFFFFFFFFFFFFFFFFFFFFFFFFFFFFFFFFFFFFFFFFFFFFFFFFFFFFFFFFFF
310
52006F006F007400200045006E00740072007900000000000000000000000000
310
0000000000000000000000000000000000000000000000000000000000000000
310
16000500FFFFFFFFFFFFFFFF020000000A00030000000000C000000000000046
310
000000000000000000000000E0C949B2B723CD0103000000C000000000000000
310
01004F006C006500000000000000000000000000000000000000000000000000
310
0000000000000000000000000000000000000000000000000000000000000000
310
0A000200FFFFFFFFFFFFFFFFFFFFFFFF00000000000000000000000000000000
310
0000000000000000000000000000000000000000000000001400000000000000
310
010043006F006D0070004F0062006A0000000000000000000000000000000000
310
0000000000000000000000000000000000000000000000000000000000000000
310
120002010100000003000000FFFFFFFF00000000000000000000000000000000
310
0000000000000000000000000000000000000000010000004D00000000000000
310
01004F006C006500310030004E00610074006900760065000000000000000000
310
0000000000000000000000000000000000000000000000000000000000000000
310
1A000200FFFFFFFFFFFFFFFFFFFFFFFF00000000000000000000000000000000
310
0000000000000000000000000000000000000000040000002426000000000000
310
FEFFFFFF02000000FEFFFFFFFFFFFFFFFFFFFFFFFFFFFFFFFFFFFFFFFFFFFFFF
310
FFFFFFFFFFFFFFFFFFFFFFFFFFFFFFFFFFFFFFFFFFFFFFFFFFFFFFFFFFFFFFFF
310
FFFFFFFFFFFFFFFFFFFFFFFFFFFFFFFFFFFFFFFFFFFFFFFFFFFFFFFFFFFFFFFF
310
FFFFFFFFFFFFFFFFFFFFFFFFFFFFFFFFFFFFFFFFFFFFFFFFFFFFFFFFFFFFFFFF
310
FFFFFFFFFFFFFFFFFFFFFFFFFFFFFFFFFFFFFFFFFFFFFFFFFFFFFFFFFFFFFFFF
310
FFFFFFFFFFFFFFFFFFFFFFFFFFFFFFFFFFFFFFFFFFFFFFFFFFFFFFFFFFFFFFFF
310
FFFFFFFFFFFFFFFFFFFFFFFFFFFFFFFFFFFFFFFFFFFFFFFFFFFFFFFFFFFFFFFF
310
FFFFFFFFFFFFFFFFFFFFFFFFFFFFFFFFFFFFFFFFFFFFFFFFFFFFFFFFFFFFFFFF
310
FFFFFFFFFFFFFFFFFFFFFFFFFFFFFFFFFFFFFFFFFFFFFFFFFFFFFFFFFFFFFFFF
310
FFFFFFFFFFFFFFFFFFFFFFFFFFFFFFFFFFFFFFFFFFFFFFFFFFFFFFFFFFFFFFFF
310
FFFFFFFFFFFFFFFFFFFFFFFFFFFFFFFFFFFFFFFFFFFFFFFFFFFFFFFFFFFFFFFF
310
FFFFFFFFFFFFFFFFFFFFFFFFFFFFFFFFFFFFFFFFFFFFFFFFFFFFFFFFFFFFFFFF
310
FFFFFFFFFFFFFFFFFFFFFFFFFFFFFFFFFFFFFFFFFFFFFFFFFFFFFFFFFFFFFFFF
310
FFFFFFFFFFFFFFFFFFFFFFFFFFFFFFFFFFFFFFFFFFFFFFFFFFFFFFFFFFFFFFFF
310
FFFFFFFFFFFFFFFFFFFFFFFFFFFFFFFFFFFFFFFFFFFFFFFFFFFFFFFFFFFFFFFF
310
FFFFFFFFFFFFFFFFFFFFFFFFFFFFFFFFFFFFFFFFFFFFFFFFFFFFFFFFFFFFFFFF
310
0100000200000000000000000000000000000000000000000000000000000000
310
0000000000000000000000000000000000000000000000000000000000000000
310
0100FEFF030A0000FFFFFFFF0A00030000000000C00000000000004607000000
310
5042727573680007000000504272757368000700000050427275736800F439B2
310
7100000000000000000000000000000000000000000000000000000000000000
310
0000000000000000000000000000000000000000000000000000000000000000
310
0000000000000000000000000000000000000000000000000000000000000000
310
0000000000000000000000000000000000000000000000000000000000000000
310
0000000000000000000000000000000000000000000000000000000000000000
310
0000000000000000000000000000000000000000000000000000000000000000
310
0000000000000000000000000000000000000000000000000000000000000000
310
0000000000000000000000000000000000000000000000000000000000000000
310
0000000000000000000000000000000000000000000000000000000000000000
310
0000000000000000000000000000000000000000000000000000000000000000
310
0000000000000000000000000000000000000000000000000000000000000000
310
0000000000000000000000000000000000000000000000000000000000000000
310
20260000424D0E260000000000003E00000028000000B40200006E0000000100
310
01000000000000000000130B0000130B00000200000002000000000000FFFFFF
310
FFFFFFFFFFFFFFFFFFFFFFFFFFFFFFFFFFFFFFFFFFFFFFFFFFFFFFFFFFFFFFFF
310
FFFFFFFFFFFFFFFFFFFFFFFFFFFFFFFFFFFFFFFFFFFFFFFFFFFFFFFFFFFFFFFF
310
FFFFFFFFFFFFFFFFFFFFFFFFFFFFFFFFFFFFFFFFFFFFFFFFF000FFFFFFFFFFFF
310
FFFFFFFFFFFFFFFFFFFFFFFFFFFFFFFFFFFFFFFFFFFFFFFFFFFFFFFFFFFFFFFF
310
FFFFFFFFFFFFFFFFFFFFFFFFFFFFFFFFFFFFFFFFFFFFFFFFFFFFFFFFFFFFFFFF
310
FFFFFFFFFFFFFFFFFFFFFFFFFFFFFFFFF000FFFFFFFFFFFFFFFFFFFFFFFFFFFF
310
FFFFFFFFFFFFFFFFFFFFFFFFFFFFFFFFFFFFFFFFFFFFFFFFFFFFFFFFFFFFFFFF
310
FFFFFFFFFFFFFFFFFFFFFFFFFFFFFFFFFFFFFFFFFFFFFFFFFFFFFFFFFFFFFFFF
310
FFFFFFFFFFFFFFFFF000FFFFFFFFFFFFFFFFFFFFFFFFFFFFFFFFFFFFFFFFFFFF
310
FFFFFFFFFFFFFFFFFFFFFFFFFFFFFFFFFFFFFFFFFFFFFFFFFFFFFFFFFFFFFFFF
310
FFFFFFFFFFFFFFFFFFFFFFFFFFFFFFFFFFFFFFFFFFFFFFFFFFFFFFFFFFFFFFFF
310
F000FFFFFFFFFFFFFFFFFFFFFFFFFFFFFFFFFFFFFFFFFFFFFFFFFFFFFFFFFFFF
310
FFFFFFFFFFFFFFFFFFFFFFFFFFFFFFFFFFFFFFFFFFFFFFFFFFFFFFFFFFFFFFFF
310
FFFFFFFFFFFFFFFFFFFFFFFFFFFFFFFFFFFFFFFFFFFFFFFFF000FFFFFFFFFFFF
310
FFFFFFFFFFFFFFFFFFFFFFFFFFFFFFFFFFFFFFFFFFFFFFFFFFFFFFFFFFFFFFFF
310
FFFFFFFFFFFFFFFFFFFFFFFFFFFFFFFFFFFFFFFFFFFFFFFFFFFFFFFFFFFFFFFF
310
FFFFFFFFFFFFFFFFFFFFFFFFFFFFFFFFF000FFFFFFFFFFFFFFFFFFFFFFFFFFFF
310
FFFFFFFFFFFFFFFFFFFFFFFFFFFFFFFFFFFFFFFFFFFFFFFFFFFFFFFFFFFFFFFF
310
FFFFFFFFFFFFFFFFFFFFFFFFFFFFFFFFFFFFFFFFFFFFFFFFFFFFFFFFFFFFFFFF
310
FFFFFFFFFFFFFFFFF000FFFFFFFFFFFFFFFFFFFFFFFFFFFFFFFFFFFFFFFFFFFF
310
FFFFFFFFFFFFFFFFFFFFFFFFFFFFFFFFFFFFFFFFFFFFFFFFFFFFFFFFFFFFFFFF
310
FFFFFFFFFFFFFFFFFFFFFFFFFFFFFFFFFFFFFFFFFFFFFFFFFFFFFFFFFFFFFFFF
310
F000FFFFFFFFFFFFFFFFFFFFFFFFFFFFFFFFFFFFFFFFFFFFFFFFFFFFFFFFFFFF
310
FFFFFFFFFFFFFFFFFFFFFFFFFFFFFFFFFFFFFFFFFFFFFFFFFFFFFFFFFFFFFFFF
310
FFFFFFFFFFFFFFFFFFFFFFFFFFFFFFFFFFFFFFFFFFFFFFFFF000FFFFFFFFFFFF
310
FFFFFFFFFFFFFFFFFFFFFFFFFFFFFFFFFFFFFFFFFFFFFFFFFFFFFFFFFFFFFFFF
310
FFFFFFFFFFFFFFFFFFFFFFFFFFFFFFFFFFFFFFFFFFFFFFFFFFFFFFFFFFFFFFFF
310
FFFFFFFFFFFFFFFFFFFFFFFFFFFFFFFFF000FFFFFFFFFFFFFFFFFFFFFFFFFFFF
310
FFFFFFFFFFFFFFFFFFFFFFFFFFFFFFFFFFFFFFFFFFFFFFFFFFFFFFFFFFFFFFFF
310
FFFFFFFFFFFFFFFFFFFFFFFFFFFFFFFFFFFFFFFFFFFFFFFFFFFFFFFFFFFFFFFF
310
FFFFFFFFFFFFFFFFF000FFFFFFFFFFFFFFFFFFFFFFFFFFFFFFFFFFFFFFFFFFFF
310
FFFFFFFFFFFFFFFFFFFFFFFFFFFFFFFFFFFFFFFFFFFFFFFFFFFFFFFFFFFFFFFF
310
FFFFFFFFFFFFFFFFFFFFFFFFFFFFFFFFFFFFFFFFFFFFFFFFFFFFFFFFFFFFFFFF
310
F000FFFFFFFFFFFFFFFFFFFFFFFFFFFFFFFFFFFFFFFFFFFFFFFFFFFFFFFFFFFF
310
FFFFFFFFFFFFFFFFFFFFFFFFFFFFFFFFFFFFFFFFFFFFFFFFFFFFFFFFFFFFFFFF
310
FFFFFFFFFFFFFFFFFFFFFFFFFFFFFFFFFFFFFFFFFFFFFFFFF000FFFFFFFFFFFF
310
FFFFFFFFFFFFFFFFFFFFFFFFFFFFFFFFFFFFFFFFFFFFFFFFFFFFFFFFFFFFFFFF
310
FFFFFFFFFFFFFFFFFFFFFFFFFFFFFFFFFFFFFFFFFFFFFFFFFFFFFFFFFFFFFFFF
310
FFFFFFFFFFFFFFFFFFFFFFFFFFFFFFFFF000FFFFFFFFFFFFFFFFFFFFFFFFFFFF
310
FFFFFFFFFFFFFFFFFFFFFFFFFFFFFFFFFFFFFFFFFFFFFFFFFFFFFFFFFFFFFFFF
310
FFFFFFFFFFFFFFFFFFFFFFFFFFFFFFFFFFFFFFFFFFFFFFFFFFFFFFFFFFFFFFFF
310
FFFFFFFFFFFFFFFFF000FFFFFFFFFFFFFFFFFFFFFFFFFFFFFFFFFFFFFFFFFFFF
310
FFFFFFFFFFFFFFFFFFFFFFFFFFFFFFFFFFFFFFFFFFFFFFFFFFFFFFFFFFFFFFFF
310
FFFFFFFFFFFFFFFFFFFFFFFFFFFFFFFFFFFFFFFFFFFFFFFFFFFFFFFFFFFFFFFF
310
F000FFFFFFFFFFFFFFFFFFFFFFFFFFFFFFFFFFFFFFFFFFFFFFFFFFFFFFFFFFFF
310
FFFFFFFFFFFFFFFFFFFFFFFFFFFFFFFFFFFFFFFFFFFFFFFFFFFFFFFFFFFFFFFF
310
FFFFFFFFFFFFFFFFFFFFFFFFFFFFFFFFFFFFFFFFFFFFFFFFF000FFFFFFFFFFFF
310
FFFFFFFFFFFFFFFFFFFFFFFFFFFFFFFFFFFFFFFFFFFFFFFFFFFFFFFFFFFFFFFF
310
FFFFFFFFFFFFFFFFFFFFFFFFFFFFFFFFFFFFFFFFFFFFFFFFFFFFFFFFFFFFFFFF
310
FFFFFFFFFFFFFFFFFFFFFFFFFFFFFFFFF000FFFFFFFFFFFFFFFFFFFFFFFFFFFF
310
FFFFFFFFFFFFFFFFFFFFFFFFFFFFFFFFFFFFFFFFFFFFFFFFFFFFFFFFFFFFFFFF
310
FFFFFFFFFFFFFFFFFFFFFFFFFFFFFFFFFFFFFFFFFFFFFFFFFFFFFFFFFFFFFFFF
310
FFFFFFFFFFFFFFFFF000FFFFF80003FFFFFFFFFFFFFFFFFFFFFFFFFFFFFFFFFF
310
FFFFF00007FFFFFFFFFF00007FFFFFF800000000000000007FFFFFFFFFFFFFFF
310
FFFFFFFC001FFFFFFFFFFFFFFC001FFFFFFFFFFFFFFFFFFFFFFFFFFE0007FFFF
310
F000FFFF8000007FFFFFFFF8000FFFFFC0007FFFFF80007FFFFF0000007FFFFF
310
FFF8000007FFFFF800000000000000007FFFFFF0001FFFFFFFFFFFC00001FFFF
310
FFFFFFFFC00001FFFFFFFF000000000003FFFFE000007FFFF000FFFE0000000F
310
FFFFFFF0000FFFFF80007FFFFF80007FFFFC0000001FFFFFFFC0000001FFFFF8
310
00000000000000007FFFFFF0001FFFFFFFFFFE0000003FFFFFFFFFFE0000003F
310
FFFFFF000000000003FFFF0000000FFFF000FFF800000003FFFFFFF00007FFFF
310
80007FFFFF80007FFFF000000007FFFFFF000000003FFFF80000000000000000
310
7FFFFFF0001FFFFFFFFFF80000000FFFFFFFFFF80000000FFFFFFF0000000000
310
03FFFC00000003FFF000FFE000000000FFFFFFF00007FFFF80003FFFFF80007F
310
FFC000000001FFFFFC000000001FFFF800000000000000007FFFFFF0001FFFFF
310
FFFFE000000003FFFFFFFFE000000003FFFFFF000000000003FFF000000000FF
310
F000FF80000000007FFFFFF00007FFFF80003FFFFF80007FFF8000000000FFFF
310
F80000000007FFF800000000000000007FFFFFF0001FFFFFFFFFC000000001FF
310
FFFFFFC000000001FFFFFF000000000003FFC0000000007FF000FF0000000000
310
3FFFFFE00007FFFF00003FFFFF80007FFE00000000003FFFF00000000003FFF8
310
00000000000000007FFFFFF0001FFFFFFFFF8000000000FFFFFFFF8000000000
310
FFFFFF000000000003FF80000000003FF000FE00000000001FFFFFE00003FFFF
310
00003FFFFF80007FFC00000000001FFFE00000000001FFF8000001FFFE000000
310
7FFFFFF0001FFFFFFFFE00000000003FFFFFFE00000000003FFFFF0000000000
310
03FF00000000001FF000FC00000000000FFFFFE00003FFFF00001FFFFF80007F
310
F800000000001FFFC00000000000FFF8000001FFFE0000007FFFFFF0001FFFFF
310
FFFC00000000001FFFFFFC00000000001FFFFF000000000003FE00000000000F
310
F000F8000000000007FFFFE00003FFFF00001FFFFF80007FF800000000000FFF
310
800000000000FFF8000001FFFE0000007FFFFFF0001FFFFFFFF800000000000F
310
FFFFF800000000000FFFFF000000000003FC000000000007F000F80000000000
310
03FFFFC00003FFFE00001FFFFF80007FF0000000000007FF0000000000007FF8
310
000001FFFE0000007FFFFFF0001FFFFFFFF0000000000007FFFFF00000000000
310
07FFFF000000000003F8000000000003F000F0000000000003FFFFC00001FFFE
310
00001FFFFF80007FE0000000000007FE0000000000003FF8000001FFFE000000
310
7FFFFFF0001FFFFFFFF0000000000007FFFFF0000000000007FFFF0000000000
310
03F800001F800003F000E00001FFF00001FFFFC00001FFFE00000FFFFF80007F
310
E00001FFE00003FE00001FFF00003FF8000001FFFE0000007FFFFFF0001FFFFF
310
FFE000003E000003FFFFE000003E000003FFFF000000000003F00001FFF80001
310
F000E00007FFFC0001FFFFC00001FFFE00000FFFFF80007FC0000FFFFC0003FC
310
0000FFFFC0001FF8000001FFFE0000007FFFFFF0001FFFFFFFC00003FFE00001
310
FFFFC00003FFE00001FFFF0001FFFFFFFFF00007FFFE0001F000E0000FFFFF00
310
00FFFF800001FFFC00000FFFFF80007FC0001FFFFE0001FC0001FFFFE0001FF8
310
000001FFFE0000007FFFFFF0001FFFFFFF80000FFFF80000FFFF80000FFFF800
310
00FFFF0003FFFFFFFFE0000FFFFF8000F000C0003FFFFF8000FFFF800000FFFC
310
000007FFFF80007F80003FFFFF0001FC0003FFFFF0001FF8000001FFFE000000
310
7FFFFFF0001FFFFFFF80003FFFFE0000FFFF80003FFFFE0000FFFF0003FFFFFF
310
FFE0003FFFFF8000F000C0003FFFFF8000FFFF800000FFFC000007FFFF80007F
310
80007FFFFF8001F80007FFFFF8000FF8000001FFFE0000007FFFFFF0001FFFFF
310
FF00007FFFFF00007FFF00007FFFFF00007FFF0003FFFFFFFFE0003FFFFFC000
310
F000C0007FFFFFC000FFFF000000FFFC000007FFFF80007F8000FFFFFF8000F8
310
000FFFFFF8000FF8000001FFFE0000007FFFFFF0001FFFFFFF0000FFFFFF8000
310
7FFF0000FFFFFF80007FFF0003FFFFFFFFC0007FFFFFC00070008000FFFFFFC0
310
00FFFF000000FFF8000007FFFF80007F8000FFFFFF8000F8000FFFFFF8000FF8
310
000001FFFE0000007FFFFFF0001FFFFFFE0001FFFFFFC0003FFE0001FFFFFFC0
310
003FFF0003FFFFFFFFC0007FFFFFE00070008000FFFFFFC0007FFF0000007FF8
310
000003FFFF80007F0001FFFFFF8000F8000FFFFFF8000FF8000001FFFE000000
310
7FFFFFF0001FFFFFFE0001FFFFFFC0003FFE0001FFFFFFC0003FFF0003FFFFFF
310
FFC000FFFFFFE00070008000FFFFFFC0007FFF0000007FF8000003FFFF80007F
310
0001FFFFFF8000F8001FFFFFF8000FF8000001FFFE0000007FFFFFF0001FFFFF
310
FE0003FFFFFFE0003FFE0003FFFFFFE0003FFF0003FFFFFFFFC000FFFFFFE000
310
70008000FFFFFFC0007FFE0000007FF8000003FFFF80007F0001FFFFFF8000F0
310
001FFFFFF8000FF8000001FFFE0000007FFFFFF0001FFFFFFC0003FFFFFFE000
310
1FFC0003FFFFFFE0001FFF0003FFFFFFFFC000FFFFFFC00070008000FFFFFF80
310
007FFE0000007FF0000003FFFF80007F0001FFFFFF0000F0001FFFFFF8000FF8
310
000001FFFE0000007FFFFFF0001FFFFFFC0007FFFFFFF0001FFC0007FFFFFFF0
310
001FFF0003FFFFFFFFC000FFFFFFC00070008001FFFFFF0000FFFE0000003FF0
310
000001FFFF80007F0001FFFFFF0000F8001FFFFFF0000FF8000001FFFE000000
310
7FFFFFF0001FFFFFFC0007FFFFFFF0001FFC0007FFFFFFF0001FFF0003FFFFFF
310
FFC001FFFFFF80007000FFFFFFFFFE0000FFFE0008003FF0008001FFFF80007F
310
FFFFFFFFFC0000FFFFFFFFFFE0000FF8000001FFFE0000007FFFFFF0001FFFFF
310
F8000FFFFFFFF8000FF8000FFFFFFFF8000FFF0003FFFFFFFFFFFFFFFFFF0000
310
7000FFFFFFFFFC0000FFFC0008003FF0008001FFFF80007FFFFFFFFFF80001FF
310
FFFFFFFF80000FF8000001FFFE0000007FFFFFF0001FFFFFF8000FFFFFFFF800
310
0FF8000FFFFFFFF8000FFF0003FFFFFFFFFFFFFFFFFE0000F000FFFFFFFFE000
310
00FFFC000C003FE000C001FFFF80007FFFFFFFFFC00001FFFFFFFFFE00001FF8
310
000001FFFE0000007FFFFFF0001FFFFFF8000FFFFFFFF8000FF8000FFFFFFFF8
310
000FFF0003FFFFFFFFFFFFFFFFF00000F000FFFFFFFE000001FFFC000C001FE0
310
00C000FFFF80007FFFFFFFFE000001FFFFFFFFE000001FF80FFFFFFFFFFFFFC0
310
7FFFFFF0001FFFFFF8000FFFFFFFF8000FF8000FFFFFFFF8000FFF0003FFFFFF
310
FFFFFFFFFF800000F000FFFFFFC0000001FFFC001C001FE001C000FFFF80007F
310
FFFFFF80000003FFFFFFF80000001FF80FFFFFFFFFFFFFC07FFFFFF0001FFFFF
310
F8001FFFFFFFFC000FF8001FFFFFFFFC000FFF0003FFFFFFFFFFFFFFF0000001
310
F000FFFFF800000001FFF8001C001FE001C000FFFF80007FFFFFF800000003FF
310
FFFF800000003FF80FFFFFFFFFFFFFC07FFFFFF0001FFFFFF8001FFFFFFFFC00
310
0FF8001FFFFFFFFC000FFF0003FFFFFFFFFFFFFE00000001F000FFFFC0000000
310
03FFF8001E001FC001E000FFFF80007FFFFF8000000007FFFFFC000000003FF8
310
0FFFFFFFFFFFFFC07FFFFFF0001FFFFFF8001FFFFFFFFC000FF8001FFFFFFFFC
310
000FFF0003FFFFFFFFFFFFE000000003F000FFFE0000000007FFF8001E000FC0
310
01E0007FFF80007FFFFE0000000007FFFFE0000000007FF80FFFFFFFFFFFFFC0
310
7FFFFFF0001FFFFFF0001FFFFFFFFC0007F0001FFFFFFFFC0007FF0003FFFFFF
310
FFFFFF0000000003F000FFF80000000007FFF8001E000FC003E0007FFF80007F
310
FFF0000000000FFFFF8000000000FFF80FFFFFFFFFFFFFC07FFFFFF0001FFFFF
310
F0001FFFFFFFFC0007F0001FFFFFFFFC0007FF0003FFFFFFFFFFFC0000000007
310
F000FFE0000000000FFFF0003E000FC003E0007FFF80007FFFC0000000001FFF
310
FE0000000001FFF80FFFFFFFFFFFFFC07FFFFFF0001FFFFFF0001FFFFFFFFC00
310
07F0001FFFFFFFFC0007FF0003FFFFFFFFFFF0000000000FF000FFC000000000
310
1FFFF0003F000F8003F0003FFF80007FFF80000000003FFFF80000000003FFF8
310
0FFFFFFFFFFFFFC07FFFFFF0001FFFFFF0001FFFFFFFFC0007F0001FFFFFFFFC
310
0007FF0003FFFFFFFFFFE0000000001FF000FF00000000007FFFF0003F000780
310
03F0003FFF80007FFF00000000007FFFF00000000007FFF80FFFFFFFFFFFFFC0
310
7FFFFFF0001FFFFFF0001FFFFFFFFC0007F0001FFFFFFFFC0007FF0003FFFFFF
310
FFFF80000000007FF000FE0000000000FFFFE0003F00078007F0003FFF80007F
310
FE0000000001FFFFE0000000001FFFF80FFFFFFFFFFFFFC07FFFFFF0001FFFFF
310
F0001FFFFFFFFC0007F0001FFFFFFFFC0007FF0003FFFFFFFFFF0000000000FF
310
F000FC0000000003FFFFE0007F00078007F0003FFF80007FFC0000000007FFFF
310
C0000000007FFFF80FFFFFFFFFFFFFC07FFFFFF0001FFFFFF8001FFFFFFFFC00
310
0FF8001FFFFFFFFC000FFF0003FFFFFFFFFE0000000003FFF000FC000000000F
310
FFFFE0007F80070007F8001FFF80007FF8000000001FFFFF8000000001FFFFF8
310
0FFFFFFFFFFFFFC07FFFFFF0001FFFFFF8001FFFFFFFFC000FF8001FFFFFFFFC
310
000FFF0003FFFFFFFFFC000000000FFFF000F8000000007FFFFFE0007F800700
310
07F8001FFF80007FF000000000FFFFFF800000000FFFFFF80FFFFFFFFFFFFFC0
310
7FFFFFF0001FFFFFF8000FFFFFFFF8000FF8000FFFFFFFF8000FFF0003FFFFFF
310
FFFC000000007FFFF000F800000007FFFFFFC0007F8003000FF8001FFF80007F
310
F000000007FFFFFF000000007FFFFFF80FFFFFFFFFFFFFC07FFFFFF0001FFFFF
310
F8000FFFFFFFF8000FF8000FFFFFFFF8000FFF0003FFFFFFFFF80000000FFFFF
310
F000F0000000FFFFFFFFC000FF8003000FF8001FFF80007FE0000000FFFFFFFF
310
0000000FFFFFFFF8000001FFFE0000007FFFFFF0001FFFFFF8000FFFFFFFF800
310
0FF8000FFFFFFFF8000FFF0003FFFFFFFFF8000000FFFFFFF000F000000FFFFF
310
FFFFC000FFC002000FF8000FFF80007FE000001FFFFFFFFE000001FFFFFFFFF8
310
000001FFFE0000007FFFFFF0001FFFFFF8000FFFFFFFF8000FF8000FFFFFFFF8
310
000FFF0003FFFFFFFFF000001FFFFFFFF000E00000FFFFFFFFFFC000FFC00200
310
0FFC000FFF80007FE00001FFFFFFFFFE00001FFFFFFFFFF8000001FFFE000000
310
7FFFFFF0001FFFFFFC000FFFFFFFF8001FFC000FFFFFFFF8001FFF0003FFFFFF
310
FFF00001FFFFFFFFF000E00007FFFFFFFFFF8000FFC000001FFC000FFF80007F
310
C0000FFFFFFFFFFE0000FFFFFFFFFFF8000001FFFE0000007FFFFFF0001FFFFF
310
FC0007FFFFFFF0001FFC0007FFFFFFF0001FFF0003FFFFFFFFF00007FFFFFFFF
310
F000E0001FFFFFFFFFFF8000FFC000001FFC000FFF80007FC0003FFFFFFFFFFE
310
0001FFFFFFFFFFF8000001FFFE0000007FFFFFF0001FFFFFFC0007FFFFFFF000
310
1FFC0007FFFFFFF0001FFF0003FFFFFFFFF0001FFFFFFFFFF000E0003FFFFF00
310
03FF8001FFE000001FFC0007FF80007FC0007FFFFF0007FC0003FFFFF0003FF8
310
000001FFFE0000007FFFFFF0001FFFFFFC0003FFFFFFE0001FFC0003FFFFFFE0
310
001FFF0003FFFFFFFFF0003FFFFFFFFFF000E0003FFFFF0001FF8001FFE00000
310
1FFE0007FF80007FC0007FFFFE0003FC0007FFFFE0003FF8000001FFFE000000
310
7FFFFFF0001FFFFFFE0003FFFFFFE0003FFE0003FFFFFFE0003FFF0003FFFFFF
310
FFF0003FFFFF8001F000E0003FFFFF0001FF0001FFE000001FFE0007FF80007F
310
C0007FFFFE0003FC0007FFFFE0003FF8000001FFFE0000007FFFFFF0001FFFFF
310
FE0001FFFFFFC0003FFE0001FFFFFFC0003FFF0003FFFFFFFFF0003FFFFF0001
310
F000E0003FFFFF0003FF0001FFE000003FFE0007FF80007FC0007FFFFE0003FC
310
0007FFFFE0003FF8000001FFFE0000007FFFFFF0001FFFFFFF0001FFFFFFC000
310
7FFF0001FFFFFFC0007FFF0003FFFFFFFFF0003FFFFF0001F000E0003FFFFE00
310
03FF0003FFF000003FFE0003FF80007FC0007FFFFC0003FE0007FFFFE0003FF8
310
000001FFFE0000007FFFFFF0001FFFFFFF0000FFFFFF80007FFF0000FFFFFF80
310
007FFF0003FFFFFFFFF0003FFFFF0001F000E0003FFFFE0003FF0003FFF00000
310
3FFF0003FF80007FC0007FFFFC0007FE0007FFFFC0003FF8000001FFFE000000
310
7FFFFFF0001FFFFFFF80007FFFFF0000FFFF80007FFFFF0000FFFF0003FFFFFF
310
FFF0003FFFFF0003F000E0003FFFFC0003FE0003FFF000003FFF0003FF80007F
310
E0003FFFF80007FE0003FFFFC0007FF8000001FFFE0000007FFFFFF0001FFFFF
310
FF80003FFFFE0000FFFF80003FFFFE0000FFFF0003FFFFFFFFF0001FFFFE0003
310
F000F0001FFFF80003FE0003FFF000007FFF0001FF80007FE0003FFFF00007FE
310
0001FFFF80007FF8000001FFFE0000007FFFFFF0001FFFFFFFC0000FFFF80001
310
FFFFC0000FFFF80001FFFF0003FFFFFFFFF0001FFFFC0003F000F0000FFFF000
310
07FE0007FFF800007FFF0001FF80007FE0001FFFE00007FF0000FFFE00007FF8
310
000001FFFE0000007FFFFFF0001FFFFFFFC00003FFE00001FFFFC00003FFE000
310
01FFFF0003FFFFFFFFF8000FFFF80003F000F00003FFC00007FC0007FFF80000
310
7FFF8001FF80007FF00007FF80000FFF00007FF80000FFF8000001FFFE000000
310
7F80000000000001FFE000003E000003FFFFE000003E000003FFFF0003FFFFFF
310
FFF80003FFE00007F000F800000000000FFC0007FFF800007FFF8001FF80007F
310
F000000000000FFF000000000000FFF8000001FFFE0000007F80000000000001
310
FFF0000000000007FFFFF0000000000007FFFF0003FFFFFFFFFC00007E000007
310
F000F800000000000FFC0007FFF80000FFFF8000FF80007FF800000000001FFF
310
800000000001FFF8000001FFFE0000007F80000000000001FFF800000000000F
310
FFFFF800000000000FFFFF0003FFFFFFFFFC00000000000FF000FC0000000000
310
1FFC0007FFFC0000FFFF8000FF80007FF800000000003FFFC00000000001FFF8
310
000001FFFE0000007F80000000000001FFF800000000000FFFFFF80000000000
310
0FFFFF0003FFFFFFFFFE00000000001FF000FE00000000003FF8000FFFFC0000
310
FFFF8000FF80007FFC00000000003FFFC00000000003FFF8000001FFFE000000
310
7F80000000000001FFFC00000000001FFFFFFC00000000001FFFFF0003FFFFFF
310
FFFF00000000001FF000FF00000000003FF8000FFFFC0000FFFFC000FF80007F
310
FE00000000007FFFE00000000007FFF8000001FFFE0000007F80000000000001
310
FFFE00000000003FFFFFFE00000000003FFFFF0003FFFFFFFFFF80000000003F
310
F000FF80000000007FF8000FFFFC0001FFFFC0007F80007FFF0000000000FFFF
310
F0000000000FFFF800000000000000007F80000000000001FFFF8000000000FF
310
FFFFFF8000000000FFFFFF0003FFFFFFFFFFC0000000007FF000FFC000000000
310
FFF8000FFFFE0001FFFFC0007F80007FFF8000000001FFFFF8000000001FFFF8
310
00000000000000007F80000000000001FFFFC000000001FFFFFFFFC000000001
310
FFFFFF0003FFFFFFFFFFE000000000FFF000FFE000000003FFF0001FFFFE0001
310
FFFFC0007F80007FFFC000000007FFFFFE000000003FFFF80000000000000000
310
7F80000000000001FFFFE000000003FFFFFFFFE000000003FFFFFF0003FFFFFF
310
FFFFF000000003FFF000FFF80000000FFFF0001FFFFE0001FFFFE0007F80007F
310
FFF00000000FFFFFFF00000000FFFFF800000000000000007F80000000000001
310
FFFFF80000000FFFFFFFFFF80000000FFFFFFF0003FFFFFFFFFFFC0000000FFF
310
F000FFFE0000003FFFF0001FFFFE0003FFFFE0003F80007FFFFC0000003FFFFF
310
FFC0000003FFFFF800000000000000007F80000000000001FFFFFE0000003FFF
310
FFFFFFFE0000003FFFFFFF0003FFFFFFFFFFFF0000003FFFF000FFFF800000FF
310
FFF0001FFFFF0003FFFFE0003F80007FFFFF000001FFFFFFFFF800001FFFFFF8
310
00000000000000007F80000000000001FFFFFFC00001FFFFFFFFFFFFC00001FF
310
FFFFFF0003FFFFFFFFFFFFC00000FFFFF000FFFFF8000FFFFFFFFFFFFFFFFFFF
310
FFFFFFFFFFFFFFFFFFFFF0001FFFFFFFFFFF0000FFFFFFF80000000000000000
310
7FFFFFFFFFFFFFFFFFFFFFFC001FFFFFFFFFFFFFFC001FFFFFFFFFFFFFFFFFFF
310
FFFFFFFC001FFFFFF000FFFFFFFFFFFFFFFFFFFFFFFFFFFFFFFFFFFFFFFFFFFF
310
FFFFFFFFFFFFFFFFFFFFFFFFFFFFFFFFFFFFFFFFFFFFFFFFFFFFFFFFFFFFFFFF
310
FFFFFFFFFFFFFFFFFFFFFFFFFFFFFFFFFFFFFFFFFFFFFFFFFFFFFFFFFFFFFFFF
310
F000FFFFFFFFFFFFFFFFFFFFFFFFFFFFFFFFFFFFFFFFFFFFFFFFFFFFFFFFFFFF
310
FFFFFFFFFFFFFFFFFFFFFFFFFFFFFFFFFFFFFFFFFFFFFFFFFFFFFFFFFFFFFFFF
310
FFFFFFFFFFFFFFFFFFFFFFFFFFFFFFFFFFFFFFFFFFFFFFFFF000FFFFFFFFFFFF
310
FFFFFFFFFFFFFFFFFFFFFFFFFFFFFFFFFFFFFFFFFFFFFFFFFFFFFFFFFFFFFFFF
310
FFFFFFFFFFFFFFFFFFFFFFFFFFFFFFFFFFFFFFFFFFFFFFFFFFFFFFFFFFFFFFFF
310
FFFFFFFFFFFFFFFFFFFFFFFFFFFFFFFFF000FFFFFFFFFFFFFFFFFFFFFFFFFFFF
310
FFFFFFFFFFFFFFFFFFFFFFFFFFFFFFFFFFFFFFFFFFFFFFFFFFFFFFFFFFFFFFFF
310
FFFFFFFFFFFFFFFFFFFFFFFFFFFFFFFFFFFFFFFFFFFFFFFFFFFFFFFFFFFFFFFF
310
FFFFFFFFFFFFFFFFF000FFFFFFFFFFFFFFFFFFFFFFFFFFFFFFFFFFFFFFFFFFFF
310
FFFFFFFFFFFFFFFFFFFFFFFFFFFFFFFFFFFFFFFFFFFFFFFFFFFFFFFFFFFFFFFF
310
FFFFFFFFFFFFFFFFFFFFFFFFFFFFFFFFFFFFFFFFFFFFFFFFFFFFFFFFFFFFFFFF
310
F000FFFFFFFFFFFFFFFFFFFFFFFFFFFFFFFFFFFFFFFFFFFFFFFFFFFFFFFFFFFF
310
FFFFFFFFFFFFFFFFFFFFFFFFFFFFFFFFFFFFFFFFFFFFFFFFFFFFFFFFFFFFFFFF
310
FFFFFFFFFFFFFFFFFFFFFFFFFFFFFFFFFFFFFFFFFFFFFFFFF000FFFFFFFFFFFF
310
FFFFFFFFFFFFFFFFFFFFFFFFFFFFFFFFFFFFFFFFFFFFFFFFFFFFFFFFFFFFFFFF
310
FFFFFFFFFFFFFFFFFFFFFFFFFFFFFFFFFFFFFFFFFFFFFFFFFFFFFFFFFFFFFFFF
310
FFFFFFFFFFFFFFFFFFFFFFFFFFFFFFFFF000FFFFFFFFFFFFFFFFFFFFFFFFFFFF
310
FFFFFFFFFFFFFFFFFFFFFFFFFFFFFFFFFFFFFFFFFFFFFFFFFFFFFFFFFFFFFFFF
310
FFFFFFFFFFFFFFFFFFFFFFFFFFFFFFFFFFFFFFFFFFFFFFFFFFFFFFFFFFFFFFFF
310
FFFFFFFFFFFFFFFFF000FFFFFFFFFFFFFFFFFFFFFFFFFFFFFFFFFFFFFFFFFFFF
310
FFFFFFFFFFFFFFFFFFFFFFFFFFFFFFFFFFFFFFFFFFFFFFFFFFFFFFFFFFFFFFFF
310
FFFFFFFFFFFFFFFFFFFFFFFFFFFFFFFFFFFFFFFFFFFFFFFFFFFFFFFFFFFFFFFF
310
F000FFFFFFFFFFFFFFFFFFFFFFFFFFFFFFFFFFFFFFFFFFFFFFFFFFFFFFFFFFFF
310
FFFFFFFFFFFFFFFFFFFFFFFFFFFFFFFFFFFFFFFFFFFFFFFFFFFFFFFFFFFFFFFF
310
FFFFFFFFFFFFFFFFFFFFFFFFFFFFFFFFFFFFFFFFFFFFFFFFF000FFFFFFFFFFFF
310
FFFFFFFFFFFFFFFFFFFFFFFFFFFFFFFFFFFFFFFFFFFFFFFFFFFFFFFFFFFFFFFF
310
FFFFFFFFFFFFFFFFFFFFFFFFFFFFFFFFFFFFFFFFFFFFFFFFFFFFFFFFFFFFFFFF
310
FFFFFFFFFFFFFFFFFFFFFFFFFFFFFFFFF000FFFFFFFFFFFFFFFFFFFFFFFFFFFF
310
FFFFFFFFFFFFFFFFFFFFFFFFFFFFFFFFFFFFFFFFFFFFFFFFFFFFFFFFFFFFFFFF
310
FFFFFFFFFFFFFFFFFFFFFFFFFFFFFFFFFFFFFFFFFFFFFFFFFFFFFFFFFFFFFFFF
310
FFFFFFFFFFFFFFFFF000FFFFFFFFFFFFFFFFFFFFFFFFFFFFFFFFFFFFFFFFFFFF
310
FFFFFFFFFFFFFFFFFFFFFFFFFFFFFFFFFFFFFFFFFFFFFFFFFFFFFFFFFFFFFFFF
310
FFFFFFFFFFFFFFFFFFFFFFFFFFFFFFFFFFFFFFFFFFFFFFFFFFFFFFFFFFFFFFFF
310
F000FFFFFFFFFFFFFFFFFFFFFFFFFFFFFFFFFFFFFFFFFFFFFFFFFFFFFFFFFFFF
310
FFFFFFFFFFFFFFFFFFFFFFFFFFFFFFFFFFFFFFFFFFFFFFFFFFFFFFFFFFFFFFFF
310
FFFFFFFFFFFFFFFFFFFFFFFFFFFFFFFFFFFFFFFFFFFFFFFFF000FFFFFFFFFFFF
310
FFFFFFFFFFFFFFFFFFFFFFFFFFFFFFFFFFFFFFFFFFFFFFFFFFFFFFFFFFFFFFFF
310
FFFFFFFFFFFFFFFFFFFFFFFFFFFFFFFFFFFFFFFFFFFFFFFFFFFFFFFFFFFFFFFF
310
FFFFFFFFFFFFFFFFFFFFFFFFFFFFFFFFF000FFFFFFFFFFFFFFFFFFFFFFFFFFFF
310
FFFFFFFFFFFFFFFFFFFFFFFFFFFFFFFFFFFFFFFFFFFFFFFFFFFFFFFFFFFFFFFF
310
FFFFFFFFFFFFFFFFFFFFFFFFFFFFFFFFFFFFFFFFFFFFFFFFFFFFFFFFFFFFFFFF
310
FFFFFFFFFFFFFFFFF000FFFFFFFFFFFFFFFFFFFFFFFFFFFFFFFFFFFFFFFFFFFF
310
FFFFFFFFFFFFFFFFFFFFFFFFFFFFFFFFFFFFFFFFFFFFFFFFFFFFFFFFFFFFFFFF
310
FFFFFFFFFFFFFFFFFFFFFFFFFFFFFFFFFFFFFFFFFFFFFFFFFFFFFFFFFFFFFFFF
310
F000FFFFFFFFFFFFFFFFFFFFFFFFFFFFFFFFFFFFFFFFFFFFFFFFFFFFFFFFFFFF
310
FFFFFFFFFFFFFFFFFFFFFFFFFFFFFFFFFFFFFFFFFFFFFFFFFFFFFFFFFFFFFFFF
310
FFFFFFFFFFFFFFFFFFFFFFFFFFFFFFFFFFFFFFFFFFFFFFFFF000FFFFFFFFFFFF
310
FFFFFFFFFFFFFFFFFFFFFFFFFFFFFFFFFFFFFFFFFFFFFFFFFFFFFFFFFFFFFFFF
310
FFFFFFFFFFFFFFFFFFFFFFFFFFFFFFFFFFFFFFFFFFFFFFFFFFFFFFFFFFFFFFFF
310
FFFFFFFFFFFFFFFFFFFFFFFFFFFFFFFFF000FFFFFFFFFFFFFFFFFFFFFFFFFFFF
310
FFFFFFFFFFFFFFFFFFFFFFFFFFFFFFFFFFFFFFFFFFFFFFFFFFFFFFFFFFFFFFFF
310
FFFFFFFFFFFFFFFFFFFFFFFFFFFFFFFFFFFFFFFFFFFFFFFFFFFFFFFFFFFFFFFF
310
FFFFFFFFFFFFFFFFF000FFFFFFFFFFFFFFFFFFFFFFFFFFFFFFFFFFFFFFFFFFFF
310
FFFFFFFFFFFFFFFFFFFFFFFFFFFFFFFFFFFFFFFFFFFFFFFFFFFFFFFFFFFFFFFF
310
FFFFFFFFFFFFFFFFFFFFFFFFFFFFFFFFFFFFFFFFFFFFFFFFFFFFFFFFFFFFFFFF
310
F000FFFFFFFFFFFFFFFFFFFFFFFFFFFFFFFFFFFFFFFFFFFFFFFFFFFFFFFFFFFF
310
FFFFFFFFFFFFFFFFFFFFFFFFFFFFFFFFFFFFFFFFFFFFFFFFFFFFFFFFFFFFFFFF
310
FFFFFFFFFFFFFFFFFFFFFFFFFFFFFFFFFFFFFFFFFFFFFFFFF000FFFFFFFFFFFF
310
FFFFFFFFFFFFFFFFFFFFFFFFFFFFFFFFFFFFFFFFFFFFFFFFFFFFFFFFFFFFFFFF
310
FFFFFFFFFFFFFFFFFFFFFFFFFFFFFFFFFFFFFFFFFFFFFFFFFFFFFFFFFFFFFFFF
310
FFFFFFFFFFFFFFFFFFFFFFFFFFFFFFFFF0000000000000000000000000000000
310
0000000000000000000000000000000000000000000000000000000000000000
310
0000000000000000000000000000000000000000000000000000000000000000
310
0000000000000000000000000000000000000000000000000000000000000000
310
0000000000000000000000000000000000000000000000000000000000000000
310
0000000000000000000000000000000000000000000000000000000000000000
310
0000000000000000000000000000000000000000000000000000000000000000
310
0000000000000000000000000000000000000000000000000000000000000000
310
0000000000000000000000000000000000000000000000000000000000000000
310
0000000000000000000000000000000000000000000000000000000000000000
310
0000000000000000000000000000000000000000000000000000000000000000
310
0000000000000000000000000000000000000000000000000000000000000000
310
0000000000000000000000000000000000000000000000000000000000000000
310
0000000000000000000000000000000000000000000000000000000000000000
310
0000000000000000000000000000000000000000000000000000000000000000
310
0000000000000000000000000000000000000000000000000000000000000000
  1
OLE
  0
ENDSEC
  0
SECTION
  2
OBJECTS
  0
DICTIONARY
  5
C
330
0
100
AcDbDictionary
281
     1
  3
ACAD_GROUP
350
D
  3
ACAD_LAYOUT
350
1A
  3
ACAD_MLINESTYLE
350
17
  3
ACAD_PLOTSETTINGS
350
19
  3
ACAD_PLOTSTYLENAME
350
E
  0
DICTIONARY
  5
D
102
{ACAD_REACTORS
330
C
102
}
330
C
100
AcDbDictionary
281
     1
  0
DICTIONARY
  5
1A
102
{ACAD_REACTORS
330
C
102
}
330
C
100
AcDbDictionary
281
     1
  3
Layout1
350
1E
  3
Layout2
350
26
  3
Model
350
22
  0
DICTIONARY
  5
17
102
{ACAD_REACTORS
330
C
102
}
330
C
100
AcDbDictionary
281
     1
  3
Standard
350
18
  0
DICTIONARY
  5
19
102
{ACAD_REACTORS
330
C
102
}
330
C
100
AcDbDictionary
281
     1
  0
ACDBDICTIONARYWDFLT
  5
E
102
{ACAD_REACTORS
330
C
102
}
330
C
100
AcDbDictionary
281
     1
  3
Normal
350
F
100
AcDbDictionaryWithDefault
340
F
  0
LAYOUT
  5
1E
102
{ACAD_REACTORS
330
1A
102
}
330
1A
100
AcDbPlotSettings
  1

  2
none_device
  4

  6

 40
0.0
 41
0.0
 42
0.0
 43
0.0
 44
0.0
 45
0.0
 46
0.0
 47
0.0
 48
0.0
 49
0.0
140
0.0
141
0.0
142
1.0
143
1.0
 70
   688
 72
     0
 73
     0
 74
     5
  7

 75
    16
147
1.0
148
0.0
149
0.0
100
AcDbLayout
  1
Layout1
 70
     1
 71
     1
 10
0.0
 20
0.0
 11
420.0
 21
297.0
 12
0.0
 22
0.0
 32
0.0
 14
1.0000000000E+20
 24
1.0000000000E+20
 34
1.0000000000E+20
 15
-1.0000000000E+20
 25
-1.0000000000E+20
 35
-1.0000000000E+20
146
0.0
 13
0.0
 23
0.0
 33
0.0
 16
1.0
 26
0.0
 36
0.0
 17
0.0
 27
1.0
 37
0.0
 76
     0
330
1B
  0
LAYOUT
  5
26
102
{ACAD_REACTORS
330
1A
102
}
330
1A
100
AcDbPlotSettings
  1

  2
none_device
  4

  6

 40
0.0
 41
0.0
 42
0.0
 43
0.0
 44
0.0
 45
0.0
 46
0.0
 47
0.0
 48
0.0
 49
0.0
140
0.0
141
0.0
142
1.0
143
1.0
 70
   688
 72
     0
 73
     0
 74
     5
  7

 75
    16
147
1.0
148
0.0
149
0.0
100
AcDbLayout
  1
Layout2
 70
     1
 71
     2
 10
0.0
 20
0.0
 11
0.0
 21
0.0
 12
0.0
 22
0.0
 32
0.0
 14
0.0
 24
0.0
 34
0.0
 15
0.0
 25
0.0
 35
0.0
146
0.0
 13
0.0
 23
0.0
 33
0.0
 16
1.0
 26
0.0
 36
0.0
 17
0.0
 27
1.0
 37
0.0
 76
     0
330
23
  0
LAYOUT
  5
22
102
{ACAD_REACTORS
330
1A
102
}
330
1A
100
AcDbPlotSettings
  1

  2
none_device
  4

  6

 40
0.0
 41
0.0
 42
0.0
 43
0.0
 44
0.0
 45
0.0
 46
0.0
 47
0.0
 48
0.0
 49
0.0
140
0.0
141
0.0
142
1.0
143
1.0
 70
  1712
 72
     0
 73
     0
 74
     0
  7

 75
     0
147
1.0
148
0.0
149
0.0
100
AcDbLayout
  1
Model
 70
     1
 71
     0
 10
0.0
 20
0.0
 11
297.0
 21
210.0
 12
0.0
 22
0.0
 32
0.0
 14
0.0
 24
0.0
 34
0.0
 15
297.0
 25
210.0
 35
0.0
146
0.0
 13
0.0
 23
0.0
 33
0.0
 16
1.0
 26
0.0
 36
0.0
 17
0.0
 27
1.0
 37
0.0
 76
     0
330
1F
331
29
  0
MLINESTYLE
  5
18
102
{ACAD_REACTORS
330
17
102
}
330
17
100
AcDbMlineStyle
  2
Standard
 70
     0
  3

 62
   256
 51
90.0
 52
90.0
 71
     2
 49
0.5
 62
   256
  6
BYLAYER
 49
-0.5
 62
   256
  6
BYLAYER
  0
ACDBPLACEHOLDER
  5
F
102
{ACAD_REACTORS
330
E
102
}
330
E
  0
ENDSEC
  0
EOF
