  0
SECTION
  2
HEADER
  9
$ACADVER
  1
AC1015
  9
$ACADMAINTVER
 70
     6
  9
$DWGCODEPAGE
  3
ANSI_1252
  9
$INSBASE
 10
0.0
 20
0.0
 30
0.0
  9
$EXTMIN
 10
0.0
 20
0.0
 30
0.0
  9
$EXTMAX
 10
297.0
 20
210.0
 30
0.0
  9
$LIMMIN
 10
0.0
 20
0.0
  9
$LIMMAX
 10
297.0
 20
210.0
  9
$ORTHOMODE
 70
     0
  9
$REGENMODE
 70
     1
  9
$FILLMODE
 70
     1
  9
$QTEXTMODE
 70
     0
  9
$MIRRTEXT
 70
     1
  9
$LTSCALE
 40
1.0
  9
$ATTMODE
 70
     1
  9
$TEXTSIZE
 40
2.0
  9
$TRACEWID
 40
1.0
  9
$TEXTSTYLE
  7
Standard
  9
$CLAYER
  8
0
  9
$CELTYPE
  6
ByLayer
  9
$CECOLOR
 62
   256
  9
$CELTSCALE
 40
1.0
  9
$DISPSILH
 70
     0
  9
$DIMSCALE
 40
1.0
  9
$DIMASZ
 40
3.0
  9
$DIMEXO
 40
0.0
  9
$DIMDLI
 40
3.75
  9
$DIMRND
 40
0.0
  9
$DIMDLE
 40
0.0
  9
$DIMEXE
 40
1.0
  9
$DIMTP
 40
0.0
  9
$DIMTM
 40
0.0
  9
$DIMTXT
 40
2.0
  9
$DIMCEN
 40
2.5
  9
$DIMTSZ
 40
0.0
  9
$DIMTOL
 70
     0
  9
$DIMLIM
 70
     0
  9
$DIMTIH
 70
     1
  9
$DIMTOH
 70
     1
  9
$DIMSE1
 70
     0
  9
$DIMSE2
 70
     0
  9
$DIMTAD
 70
     1
  9
$DIMZIN
 70
     0
  9
$DIMBLK
  1

  9
$DIMASO
 70
     1
  9
$DIMSHO
 70
     1
  9
$DIMPOST
  1

  9
$DIMAPOST
  1

  9
$DIMALT
 70
     0
  9
$DIMALTD
 70
     3
  9
$DIMALTF
 40
0.0393700787
  9
$DIMLFAC
 40
1.0
  9
$DIMTOFL
 70
     1
  9
$DIMTVP
 40
0.0
  9
$DIMTIX
 70
     0
  9
$DIMSOXD
 70
     0
  9
$DIMSAH
 70
     0
  9
$DIMBLK1
  1

  9
$DIMBLK2
  1

  9
$DIMSTYLE
  2
ISO-25
  9
$DIMCLRD
 70
     0
  9
$DIMCLRE
 70
     0
  9
$DIMCLRT
 70
     0
  9
$DIMTFAC
 40
1.0
  9
$DIMGAP
 40
1.524
  9
$DIMJUST
 70
     0
  9
$DIMSD1
 70
     0
  9
$DIMSD2
 70
     0
  9
$DIMTOLJ
 70
     0
  9
$DIMTZIN
 70
     0
  9
$DIMALTZ
 70
     0
  9
$DIMALTTZ
 70
     0
  9
$DIMUPT
 70
     0
  9
$DIMDEC
 70
     2
  9
$DIMTDEC
 70
     3
  9
$DIMALTU
 70
     2
  9
$DIMALTTD
 70
     3
  9
$DIMTXSTY
  7
Standard
  9
$DIMAUNIT
 70
     0
  9
$DIMADEC
 70
     2
  9
$DIMALTRND
 40
0.0
  9
$DIMAZIN
 70
     0
  9
$DIMDSEP
 70
    44
  9
$DIMATFIT
 70
     3
  9
$DIMFRAC
 70
     0
  9
$DIMLDRBLK
  1

  9
$DIMLUNIT
 70
     2
  9
$DIMLWD
 70
    -2
  9
$DIMLWE
 70
    -2
  9
$DIMTMOVE
 70
     0
  9
$LUNITS
 70
     2
  9
$LUPREC
 70
     2
  9
$SKETCHINC
 40
1.0
  9
$FILLETRAD
 40
10.0
  9
$AUNITS
 70
     0
  9
$AUPREC
 70
     2
  9
$MENU
  1
.
  9
$ELEVATION
 40
0.0
  9
$PELEVATION
 40
0.0
  9
$THICKNESS
 40
0.0
  9
$LIMCHECK
 70
     0
  9
$CHAMFERA
 40
10.0
  9
$CHAMFERB
 40
10.0
  9
$CHAMFERC
 40
20.0
  9
$CHAMFERD
 40
0.0
  9
$SKPOLY
 70
     0
  9
$TDCREATE
 40
2456084.471975463
  9
$TDUCREATE
 40
2456084.388642129
  9
$TDUPDATE
 40
2456084.471977095
  9
$TDUUPDATE
 40
2456084.388643762
  9
$TDINDWG
 40
0.0000000116
  9
$TDUSRTIMER
 40
0.0000000116
  9
$USRTIMER
 70
     1
  9
$ANGBASE
 50
0.0
  9
$ANGDIR
 70
     0
  9
$PDMODE
 70
     0
  9
$PDSIZE
 40
-1.0
  9
$PLINEWID
 40
0.0
  9
$SPLFRAME
 70
     0
  9
$SPLINETYPE
 70
     6
  9
$SPLINESEGS
 70
     8
  9
$HANDSEED
  5
221
  9
$SURFTAB1
 70
     6
  9
$SURFTAB2
 70
     6
  9
$SURFTYPE
 70
     6
  9
$SURFU
 70
     6
  9
$SURFV
 70
     6
  9
$UCSBASE
  2

  9
$UCSNAME
  2

  9
$UCSORG
 10
0.0
 20
0.0
 30
0.0
  9
$UCSXDIR
 10
1.0
 20
0.0
 30
0.0
  9
$UCSYDIR
 10
0.0
 20
1.0
 30
0.0
  9
$UCSORTHOREF
  2

  9
$UCSORTHOVIEW
 70
     0
  9
$UCSORGTOP
 10
0.0
 20
0.0
 30
0.0
  9
$UCSORGBOTTOM
 10
0.0
 20
0.0
 30
0.0
  9
$UCSORGLEFT
 10
0.0
 20
0.0
 30
0.0
  9
$UCSORGRIGHT
 10
0.0
 20
0.0
 30
0.0
  9
$UCSORGFRONT
 10
0.0
 20
0.0
 30
0.0
  9
$UCSORGBACK
 10
0.0
 20
0.0
 30
0.0
  9
$PUCSBASE
  2

  9
$PUCSNAME
  2

  9
$PUCSORG
 10
0.0
 20
0.0
 30
0.0
  9
$PUCSXDIR
 10
1.0
 20
0.0
 30
0.0
  9
$PUCSYDIR
 10
0.0
 20
1.0
 30
0.0
  9
$PUCSORTHOREF
  2

  9
$PUCSORTHOVIEW
 70
     0
  9
$PUCSORGTOP
 10
0.0
 20
0.0
 30
0.0
  9
$PUCSORGBOTTOM
 10
0.0
 20
0.0
 30
0.0
  9
$PUCSORGLEFT
 10
0.0
 20
0.0
 30
0.0
  9
$PUCSORGRIGHT
 10
0.0
 20
0.0
 30
0.0
  9
$PUCSORGFRONT
 10
0.0
 20
0.0
 30
0.0
  9
$PUCSORGBACK
 10
0.0
 20
0.0
 30
0.0
  9
$USERI1
 70
     0
  9
$USERI2
 70
     0
  9
$USERI3
 70
     0
  9
$USERI4
 70
     0
  9
$USERI5
 70
     0
  9
$USERR1
 40
0.0
  9
$USERR2
 40
0.0
  9
$USERR3
 40
0.0
  9
$USERR4
 40
0.0
  9
$USERR5
 40
0.0
  9
$WORLDVIEW
 70
     1
  9
$SHADEDGE
 70
     3
  9
$SHADEDIF
 70
    70
  9
$TILEMODE
 70
     1
  9
$MAXACTVP
 70
    64
  9
$PINSBASE
 10
0.0
 20
0.0
 30
0.0
  9
$PLIMCHECK
 70
     0
  9
$PEXTMIN
 10
1.0000000000E+20
 20
1.0000000000E+20
 30
1.0000000000E+20
  9
$PEXTMAX
 10
-1.0000000000E+20
 20
-1.0000000000E+20
 30
-1.0000000000E+20
  9
$PLIMMIN
 10
0.0
 20
0.0
  9
$PLIMMAX
 10
420.0
 20
297.0
  9
$UNITMODE
 70
     0
  9
$VISRETAIN
 70
     1
  9
$PLINEGEN
 70
     0
  9
$PSLTSCALE
 70
     1
  9
$TREEDEPTH
 70
  3020
  9
$CMLSTYLE
  2
Standard
  9
$CMLJUST
 70
     0
  9
$CMLSCALE
 40
20.0
  9
$PROXYGRAPHICS
 70
     1
  9
$MEASUREMENT
 70
     1
  9
$CELWEIGHT
370
    -1
  9
$ENDCAPS
280
     0
  9
$JOINSTYLE
280
     0
  9
$LWDISPLAY
290
     1
  9
$INSUNITS
 70
     4
  9
$HYPERLINKBASE
  1

  9
$STYLESHEET
  1

  9
$XEDIT
290
     1
  9
$CEPSNTYPE
380
     0
  9
$PSTYLEMODE
290
     1
  9
$FINGERPRINTGUID
  2
{B5374CAF-0179-43E6-9FCE-84A98F5CEE70}
  9
$VERSIONGUID
  2
{FAEB1C32-E019-11D5-929B-00C0DF256EC4}
  9
$EXTNAMES
290
     1
  9
$PSVPSCALE
 40
0.0
  9
$OLESTARTUP
290
     0
  0
ENDSEC
  0
SECTION
  2
CLASSES
  0
CLASS
  1
ACDBDICTIONARYWDFLT
  2
AcDbDictionaryWithDefault
  3
ObjectDBX Classes
 90
        0
280
     0
281
     0
  0
CLASS
  1
VISUALSTYLE
  2
AcDbVisualStyle
  3
ObjectDBX Classes
 90
     4095
280
     0
281
     0
  0
CLASS
  1
MATERIAL
  2
AcDbMaterial
  3
ObjectDBX Classes
 90
     1153
280
     0
281
     0
  0
CLASS
  1
ACDBPLACEHOLDER
  2
AcDbPlaceHolder
  3
ObjectDBX Classes
 90
        0
280
     0
281
     0
  0
CLASS
  1
LAYOUT
  2
AcDbLayout
  3
ObjectDBX Classes
 90
        0
280
     0
281
     0
  0
ENDSEC
  0
SECTION
  2
TABLES
  0
TABLE
  2
VPORT
  5
8
330
0
100
AcDbSymbolTable
 70
     1
  0
VPORT
  5
29
330
8
100
AcDbSymbolTableRecord
100
AcDbViewportTableRecord
  2
*Active
 70
     0
 10
0.0
 20
0.0
 11
1.0
 21
1.0
 12
148.5
 22
105.0
 13
0.0
 23
0.0
 14
10.0
 24
10.0
 15
10.0
 25
10.0
 16
0.0
 26
0.0
 36
1.0
 17
0.0
 27
0.0
 37
0.0
 40
210.0
 41
1.4142857143
 42
50.0
 43
0.0
 44
0.0
 50
0.0
 51
0.0
 71
     0
 72
  2000
 73
     1
 74
     3
 75
     0
 76
     0
 77
     0
 78
     0
281
     0
 65
     1
110
0.0
120
0.0
130
0.0
111
1.0
121
0.0
131
0.0
112
0.0
122
1.0
132
0.0
 79
     0
146
0.0
  0
ENDTAB
  0
TABLE
  2
LTYPE
  5
5
330
0
100
AcDbSymbolTable
 70
     6
  0
LTYPE
  5
14
330
5
100
AcDbSymbolTableRecord
100
AcDbLinetypeTableRecord
  2
ByBlock
 70
     0
  3

 72
    65
 73
     0
 40
0.0
  0
LTYPE
  5
15
330
5
100
AcDbSymbolTableRecord
100
AcDbLinetypeTableRecord
  2
ByLayer
 70
     0
  3

 72
    65
 73
     0
 40
0.0
  0
LTYPE
  5
16
330
5
100
AcDbSymbolTableRecord
100
AcDbLinetypeTableRecord
  2
Continuous
 70
     0
  3
Solid line
 72
    65
 73
     0
 40
0.0
  0
LTYPE
  5
3F
330
5
100
AcDbSymbolTableRecord
100
AcDbLinetypeTableRecord
  2
HIDDEN
 70
     0
  3
Hidden __ __ __ __ __ __ __ __ __ __ __ __ __ __
 72
    65
 73
     2
 40
1.905
 49
1.27
 74
     0
 49
-0.635
 74
     0
  0
LTYPE
  5
40
330
5
100
AcDbSymbolTableRecord
100
AcDbLinetypeTableRecord
  2
PHANTOM
 70
     0
  3
Phantom ______  __  __  ______  __  __  ______
 72
    65
 73
     6
 40
12.7
 49
6.35
 74
     0
 49
-1.27
 74
     0
 49
1.27
 74
     0
 49
-1.27
 74
     0
 49
1.27
 74
     0
 49
-1.27
 74
     0
  0
LTYPE
  5
41
330
5
100
AcDbSymbolTableRecord
100
AcDbLinetypeTableRecord
  2
CENTER
 70
     0
  3
Center ____ _ ____ _ ____ _ ____ _ ____ _ ____
 72
    65
 73
     4
 40
10.16
 49
6.35
 74
     0
 49
-1.27
 74
     0
 49
1.27
 74
     0
 49
-1.27
 74
     0
  0
LTYPE
  5
42
330
5
100
AcDbSymbolTableRecord
100
AcDbLinetypeTableRecord
  2
CENTERX2
 70
     0
  3
Center (2x) ________  __  ________  __  _____
 72
    65
 73
     4
 40
20.32
 49
12.7
 74
     0
 49
-2.54
 74
     0
 49
2.54
 74
     0
 49
-2.54
 74
     0
  0
LTYPE
  5
43
330
5
100
AcDbSymbolTableRecord
100
AcDbLinetypeTableRecord
  2
DOT2
 70
     0
  3
Dot (.5x) ........................................
 72
    65
 73
     2
 40
0.635
 49
0.0
 74
     0
 49
-0.635
 74
     0
  0
ENDTAB
  0
TABLE
  2
LAYER
  5
2
330
0
100
AcDbSymbolTable
 70
     5
  0
LAYER
  5
10
330
2
100
AcDbSymbolTableRecord
100
AcDbLayerTableRecord
  2
0
 70
     0
 62
     7
  6
Continuous
370
    -3
390
F
  0
LAYER
  5
44
330
2
100
AcDbSymbolTableRecord
100
AcDbLayerTableRecord
  2
FORMAT
 70
     0
 62
     7
  6
Continuous
370
    -3
390
F
  0
LAYER
  5
45
330
2
100
AcDbSymbolTableRecord
100
AcDbLayerTableRecord
  2
VERMASSUNG
 70
     0
 62
     7
  6
Continuous
370
    -3
390
F
  0
LAYER
  5
46
330
2
100
AcDbSymbolTableRecord
100
AcDbLayerTableRecord
  2
KOPF_DÜNN
 70
     0
 62
     7
  6
Continuous
370
    -3
390
F
  0
LAYER
  5
47
330
2
100
AcDbSymbolTableRecord
100
AcDbLayerTableRecord
  2
KOPF_DICK
 70
     0
 62
     7
  6
Continuous
370
    15
390
F
  0
ENDTAB
  0
TABLE
  2
STYLE
  5
3
330
0
100
AcDbSymbolTable
 70
     2
  0
STYLE
  5
11
330
3
100
AcDbSymbolTableRecord
100
AcDbTextStyleTableRecord
  2
Standard
 70
     0
 40
0.0
 41
1.0
 50
0.0
 71
     0
 42
2.0
  3
txt
  4

  0
STYLE
  5
48
330
3
100
AcDbSymbolTableRecord
100
AcDbTextStyleTableRecord
  2
SLDTEXTSTYLE0
 70
     0
 40
0.0
 41
0.7
 50
0.0
 71
     0
 42
0.2
  3
TXT
  4

  0
ENDTAB
  0
TABLE
  2
VIEW
  5
6
330
0
100
AcDbSymbolTable
 70
     0
  0
ENDTAB
  0
TABLE
  2
UCS
  5
7
330
0
100
AcDbSymbolTable
 70
     0
  0
ENDTAB
  0
TABLE
  2
APPID
  5
9
330
0
100
AcDbSymbolTable
 70
     1
  0
APPID
  5
12
330
9
100
AcDbSymbolTableRecord
100
AcDbRegAppTableRecord
  2
ACAD
 70
     0
  0
ENDTAB
  0
TABLE
  2
DIMSTYLE
  5
A
330
0
100
AcDbSymbolTable
 70
     5
100
AcDbDimStyleTable
  0
DIMSTYLE
105
27
330
A
100
AcDbSymbolTableRecord
100
AcDbDimStyleTableRecord
  2
ISO-25
 70
     0
 41
2.5
 42
0.625
 43
3.75
 44
1.25
 73
     0
 74
     0
 77
     1
 78
     8
140
2.5
141
2.5
143
0.0393700787
147
0.625
171
     3
172
     1
178
     0
271
     2
272
     2
274
     3
278
    44
283
     0
284
     8
340
11
  0
DIMSTYLE
105
19A
102
{ACAD_REACTORS
330
199
330
1A4
330
1AE
330
1C1
330
1CA
102
}
330
A
100
AcDbSymbolTableRecord
100
AcDbDimStyleTableRecord
  2
SLDDIMSTYLE0
 70
     0
 41
3.0
 44
0.0
 45
0.000000001
 73
     0
 74
     0
 77
     1
 78
    12
 79
     3
140
2.0
147
0.5
173
     1
178
     0
271
     2
272
     3
276
     2
284
    12
340
48
  0
DIMSTYLE
105
1B9
102
{ACAD_REACTORS
330
1B8
102
}
330
A
100
AcDbSymbolTableRecord
100
AcDbDimStyleTableRecord
  2
SLDDIMSTYLE1
 70
     0
 41
3.0
 44
0.0
 73
     0
 74
     0
 77
     1
 78
    12
 79
     3
140
2.0
147
0.5
173
     1
178
     0
179
     1
272
     3
276
     2
284
    12
340
48
  0
DIMSTYLE
105
1F9
102
{ACAD_REACTORS
330
1F8
102
}
330
A
100
AcDbSymbolTableRecord
100
AcDbDimStyleTableRecord
  2
SLDDIMSTYLE2
 70
     0
 41
3.0
 44
0.0
 45
0.000000001
 73
     0
 74
     0
 77
     1
 78
    12
 79
     3
140
2.0
147
0.5
172
     1
173
     1
178
     0
271
     2
272
     3
276
     2
284
    12
289
     0
340
48
  0
DIMSTYLE
105
208
102
{ACAD_REACTORS
330
207
102
}
330
A
100
AcDbSymbolTableRecord
100
AcDbDimStyleTableRecord
  2
SLDDIMSTYLE3
 70
     0
 41
3.0
 44
0.0
 73
     0
 74
     0
 77
     1
 78
    12
 79
     3
140
2.0
147
0.5
173
     1
178
     0
179
     2
272
     3
276
     2
284
    12
340
48
  0
ENDTAB
  0
TABLE
  2
BLOCK_RECORD
  5
1
330
0
100
AcDbSymbolTable
 70
    10
  0
BLOCK_RECORD
  5
1F
330
1
100
AcDbSymbolTableRecord
100
AcDbBlockTableRecord
  2
*Model_Space
340
22
  0
BLOCK_RECORD
  5
1B
330
1
100
AcDbSymbolTableRecord
100
AcDbBlockTableRecord
  2
*Paper_Space
340
1E
  0
BLOCK_RECORD
  5
23
330
1
100
AcDbSymbolTableRecord
100
AcDbBlockTableRecord
  2
*Paper_Space0
340
26
  0
BLOCK_RECORD
  5
19B
330
1
100
AcDbSymbolTableRecord
100
AcDbBlockTableRecord
  2
_D
340
0
  0
BLOCK_RECORD
  5
1A5
330
1
100
AcDbSymbolTableRecord
100
AcDbBlockTableRecord
  2
_D_1
340
0
  0
BLOCK_RECORD
  5
1AF
330
1
100
AcDbSymbolTableRecord
100
AcDbBlockTableRecord
  2
_D_2
340
0
  0
BLOCK_RECORD
  5
1BA
330
1
100
AcDbSymbolTableRecord
100
AcDbBlockTableRecord
  2
_D_3
340
0
  0
BLOCK_RECORD
  5
1C2
330
1
100
AcDbSymbolTableRecord
100
AcDbBlockTableRecord
  2
_D_4
340
0
  0
BLOCK_RECORD
  5
1CB
330
1
100
AcDbSymbolTableRecord
100
AcDbBlockTableRecord
  2
_D_5
340
0
  0
BLOCK_RECORD
  5
1FA
330
1
100
AcDbSymbolTableRecord
100
AcDbBlockTableRecord
  2
_D_6
340
0
  0
BLOCK_RECORD
  5
209
330
1
100
AcDbSymbolTableRecord
100
AcDbBlockTableRecord
  2
_D_7
340
0
  0
BLOCK_RECORD
  5
214
330
1
100
AcDbSymbolTableRecord
100
AcDbBlockTableRecord
  2
SW_CENTERMARKSYMBOL_0
340
0
102
{BLKREFS
331
21F
102
}
  0
ENDTAB
  0
ENDSEC
  0
SECTION
  2
BLOCKS
  0
BLOCK
  5
20
330
1F
100
AcDbEntity
  8
0
100
AcDbBlockBegin
  2
*Model_Space
 70
     0
 10
0.0
 20
0.0
 30
0.0
  3
*Model_Space
  1

  0
ENDBLK
  5
21
330
1F
100
AcDbEntity
  8
0
100
AcDbBlockEnd
  0
BLOCK
  5
1C
330
1B
100
AcDbEntity
 67
     1
  8
0
100
AcDbBlockBegin
  2
*Paper_Space
 70
     0
 10
0.0
 20
0.0
 30
0.0
  3
*Paper_Space
  1

  0
ENDBLK
  5
1D
330
1B
100
AcDbEntity
 67
     1
  8
0
100
AcDbBlockEnd
  0
BLOCK
  5
24
330
23
100
AcDbEntity
  8
0
100
AcDbBlockBegin
  2
*Paper_Space0
 70
     0
 10
0.0
 20
0.0
 30
0.0
  3
*Paper_Space0
  1

  0
ENDBLK
  5
25
330
23
100
AcDbEntity
  8
0
100
AcDbBlockEnd
  0
BLOCK
  5
19C
330
19B
100
AcDbEntity
  8
0
100
AcDbBlockBegin
  2
_D
 70
     0
 10
0.0
 20
0.0
 30
0.0
  3
_D
  1

  0
SOLID
  5
19E
330
19B
100
AcDbEntity
  8
VERMASSUNG
100
AcDbTrace
 10
91.8534204452
 20
127.9174054697
 30
0.0
 11
94.8534204452
 21
127.4674054697
 31
0.0
 12
94.8534204452
 22
128.3674054697
 32
0.0
 13
94.8534204452
 23
128.3674054697
 33
0.0
  0
SOLID
  5
19F
330
19B
100
AcDbEntity
  8
VERMASSUNG
100
AcDbTrace
 10
251.8534204452
 20
127.9174054697
 30
0.0
 11
248.8534204452
 21
128.3674054697
 31
0.0
 12
248.8534204452
 22
127.4674054697
 32
0.0
 13
248.8534204452
 23
127.4674054697
 33
0.0
  0
LINE
  5
1A0
330
19B
100
AcDbEntity
  8
VERMASSUNG
100
AcDbLine
 10
91.8534204452
 20
135.3408293326
 30
0.0
 11
91.8534204452
 21
126.9174054697
 31
0.0
  0
LINE
  5
1A1
330
19B
100
AcDbEntity
  8
VERMASSUNG
100
AcDbLine
 10
251.8534204452
 20
144.3408293326
 30
0.0
 11
251.8534204452
 21
126.9174054697
 31
0.0
  0
LINE
  5
1A2
330
19B
100
AcDbEntity
  8
VERMASSUNG
100
AcDbLine
 10
91.8534204452
 20
127.9174054697
 30
0.0
 11
251.8534204452
 21
127.9174054697
 31
0.0
  0
MTEXT
  5
1A3
330
19B
100
AcDbEntity
  8
VERMASSUNG
100
AcDbMText
 10
169.0534203122
 20
130.4955408328
 30
0.1
 40
2.0
 41
0.0
 71
     1
 72
     1
  1
160
  7
SLDTEXTSTYLE0
 73
     1
 44
1.0
  0
ENDBLK
  5
19D
330
19B
100
AcDbEntity
  8
0
100
AcDbBlockEnd
  0
BLOCK
  5
1A6
330
1A5
100
AcDbEntity
  8
0
100
AcDbBlockBegin
  2
_D_1
 70
     0
 10
0.0
 20
0.0
 30
0.0
  3
_D_1
  1

  0
SOLID
  5
1A8
330
1A5
100
AcDbEntity
  8
VERMASSUNG
100
AcDbTrace
 10
251.8534204452
 20
118.8408293326
 30
0.0
 11
248.8534204452
 21
119.2908293326
 31
0.0
 12
248.8534204452
 22
118.3908293326
 32
0.0
 13
248.8534204452
 23
118.3908293326
 33
0.0
  0
SOLID
  5
1A9
330
1A5
100
AcDbEntity
  8
VERMASSUNG
100
AcDbTrace
 10
53.8534204452
 20
118.8408293326
 30
0.0
 11
56.8534204452
 21
118.3908293326
 31
0.0
 12
56.8534204452
 22
119.2908293326
 32
0.0
 13
56.8534204452
 23
119.2908293326
 33
0.0
  0
LINE
  5
1AA
330
1A5
100
AcDbEntity
  8
VERMASSUNG
100
AcDbLine
 10
251.8534204452
 20
144.3408293326
 30
0.0
 11
251.8534204452
 21
117.8408293326
 31
0.0
  0
LINE
  5
1AB
330
1A5
100
AcDbEntity
  8
VERMASSUNG
100
AcDbLine
 10
53.8534204452
 20
146.0484913401
 30
0.0
 11
53.8534204452
 21
117.8408293326
 31
0.0
  0
LINE
  5
1AC
330
1A5
100
AcDbEntity
  8
VERMASSUNG
100
AcDbLine
 10
251.8534204452
 20
118.8408293326
 30
0.0
 11
53.8534204452
 21
118.8408293326
 31
0.0
  0
MTEXT
  5
1AD
330
1A5
100
AcDbEntity
  8
VERMASSUNG
100
AcDbMText
 10
150.0534203122
 20
121.4189646957
 30
0.1
 40
2.0
 41
0.0
 71
     1
 72
     1
  1
198
  7
SLDTEXTSTYLE0
 73
     1
 44
1.0
  0
ENDBLK
  5
1A7
330
1A5
100
AcDbEntity
  8
0
100
AcDbBlockEnd
  0
BLOCK
  5
1B0
330
1AF
100
AcDbEntity
  8
0
100
AcDbBlockBegin
  2
_D_2
 70
     0
 10
0.0
 20
0.0
 30
0.0
  3
_D_2
  1

  0
SOLID
  5
1B2
330
1AF
100
AcDbEntity
  8
VERMASSUNG
100
AcDbTrace
 10
269.2830921472
 20
144.3408293326
 30
0.0
 11
269.7330921472
 21
147.3408293326
 31
0.0
 12
268.8330921472
 22
147.3408293326
 32
0.0
 13
268.8330921472
 23
147.3408293326
 33
0.0
  0
SOLID
  5
1B3
330
1AF
100
AcDbEntity
  8
VERMASSUNG
100
AcDbTrace
 10
269.2830921472
 20
166.3408293326
 30
0.0
 11
268.8330921472
 21
163.3408293326
 31
0.0
 12
269.7330921472
 22
163.3408293326
 32
0.0
 13
269.7330921472
 23
163.3408293326
 33
0.0
  0
LINE
  5
1B4
330
1AF
100
AcDbEntity
  8
VERMASSUNG
100
AcDbLine
 10
251.8534204452
 20
144.3408293326
 30
0.0
 11
270.2830921472
 21
144.3408293326
 31
0.0
  0
LINE
  5
1B5
330
1AF
100
AcDbEntity
  8
VERMASSUNG
100
AcDbLine
 10
251.8534204452
 20
166.3408293326
 30
0.0
 11
270.2830921472
 21
166.3408293326
 31
0.0
  0
LINE
  5
1B6
330
1AF
100
AcDbEntity
  8
VERMASSUNG
100
AcDbLine
 10
269.2830921472
 20
144.3408293326
 30
0.0
 11
269.2830921472
 21
166.3408293326
 31
0.0
  0
MTEXT
  5
1B7
330
1AF
100
AcDbEntity
  8
VERMASSUNG
100
AcDbMText
 10
266.7049567841
 20
153.0408292816
 30
0.1
 40
2.0
 41
0.0
 71
     1
 72
     1
  1
22
  7
SLDTEXTSTYLE0
 11
6.123233995736766E-17
 21
1.0
 31
0.0
 73
     1
 44
1.0
  0
ENDBLK
  5
1B1
330
1AF
100
AcDbEntity
  8
0
100
AcDbBlockEnd
  0
BLOCK
  5
1BB
330
1BA
100
AcDbEntity
  8
0
100
AcDbBlockBegin
  2
_D_3
 70
     0
 10
0.0
 20
0.0
 30
0.0
  3
_D_3
  1

  0
ARC
  5
1BD
330
1BA
100
AcDbEntity
  8
VERMASSUNG
100
AcDbCircle
 10
251.8899438456
 20
144.3408293326
 30
0.0
 40
10.30378181243864
100
AcDbArc
 50
0.0
 51
95.0121473722
  0
SOLID
  5
1BE
330
1BA
100
AcDbEntity
  8
VERMASSUNG
100
AcDbTrace
 10
262.1937256581
 20
144.3408293326
 30
0.0
 11
262.2156538564
 21
147.3743123397
 31
0.0
 12
261.324669337
 22
147.2472431213
 32
0.0
 13
261.324669337
 23
147.2472431213
 33
0.0
  0
SOLID
  5
1BF
330
1BA
100
AcDbEntity
  8
VERMASSUNG
100
AcDbTrace
 10
250.9897339
 20
154.6052115202
 30
0.0
 11
253.9609609332
 21
153.9934027942
 31
0.0
 12
254.0097016679
 22
154.8920820144
 32
0.0
 13
254.0097016679
 23
154.8920820144
 33
0.0
  0
MTEXT
  5
1C0
330
1BA
100
AcDbEntity
  8
VERMASSUNG
100
AcDbMText
 10
258.4535220037
 20
155.7982824971
 30
0.1
 40
2.0
 41
0.0
 71
     1
 72
     1
  1
95°
  7
SLDTEXTSTYLE0
 11
0.7373489491614819
 21
-0.6755120481312368
 31
0.0
 73
     1
 44
1.0
  0
ENDBLK
  5
1BC
330
1BA
100
AcDbEntity
  8
0
100
AcDbBlockEnd
  0
BLOCK
  5
1C3
330
1C2
100
AcDbEntity
  8
0
100
AcDbBlockBegin
  2
_D_4
 70
     0
 10
0.0
 20
0.0
 30
0.0
  3
_D_4
  1

  0
SOLID
  5
1C5
330
1C2
100
AcDbEntity
  8
VERMASSUNG
100
AcDbTrace
 10
150.9467653868
 20
182.3408293326
 30
0.0
 11
150.4967653868
 21
179.3408293326
 31
0.0
 12
151.3967653868
 22
179.3408293326
 32
0.0
 13
151.3967653868
 23
179.3408293326
 33
0.0
  0
SOLID
  5
1C6
330
1C2
100
AcDbEntity
  8
VERMASSUNG
100
AcDbTrace
 10
150.9467653868
 20
150.3408293326
 30
0.0
 11
151.3967653868
 21
153.3408293326
 31
0.0
 12
150.4967653868
 22
153.3408293326
 32
0.0
 13
150.4967653868
 23
153.3408293326
 33
0.0
  0
LINE
  5
1C7
330
1C2
100
AcDbEntity
  8
VERMASSUNG
100
AcDbLine
 10
150.9467653868
 20
182.3408293326
 30
0.0
 11
150.9467653868
 21
150.3408293326
 31
0.0
  0
MTEXT
  5
1C8
330
1C2
100
AcDbEntity
  8
VERMASSUNG
100
AcDbMText
 10
148.3686299073
 20
153.7339789444
 30
0.1
 40
2.0
 41
0.0
 71
     1
 72
     1
  1
%%c
  7
SLDTEXTSTYLE0
 11
-7.044195017643634E-15
 21
1.0
 31
0.0
 73
     1
 44
1.0
  0
MTEXT
  5
1C9
330
1C2
100
AcDbEntity
  8
VERMASSUNG
100
AcDbMText
 10
148.1686298978
 20
157.3439789587
 30
0.1
 40
2.0
 41
0.0
 71
     1
 72
     1
  1
32
  7
SLDTEXTSTYLE0
 11
-7.044195017643634E-15
 21
1.0
 31
0.0
 73
     1
 44
1.0
  0
ENDBLK
  5
1C4
330
1C2
100
AcDbEntity
  8
0
100
AcDbBlockEnd
  0
BLOCK
  5
1CC
330
1CB
100
AcDbEntity
  8
0
100
AcDbBlockBegin
  2
_D_5
 70
     0
 10
0.0
 20
0.0
 30
0.0
  3
_D_5
  1

  0
SOLID
  5
1CE
330
1CB
100
AcDbEntity
  8
VERMASSUNG
100
AcDbTrace
 10
43.8534204452
 20
197.8408293326
 30
0.0
 11
43.4034204452
 21
194.8408293326
 31
0.0
 12
44.3034204452
 22
194.8408293326
 32
0.0
 13
44.3034204452
 23
194.8408293326
 33
0.0
  0
SOLID
  5
1CF
330
1CB
100
AcDbEntity
  8
VERMASSUNG
100
AcDbTrace
 10
43.8534204452
 20
134.8408293326
 30
0.0
 11
44.3034204452
 21
137.8408293326
 31
0.0
 12
43.4034204452
 22
137.8408293326
 32
0.0
 13
43.4034204452
 23
137.8408293326
 33
0.0
  0
LINE
  5
1D0
330
1CB
100
AcDbEntity
  8
VERMASSUNG
100
AcDbLine
 10
92.3534204452
 20
197.8408293326
 30
0.0
 11
42.8534204452
 21
197.8408293326
 31
0.0
  0
LINE
  5
1D1
330
1CB
100
AcDbEntity
  8
VERMASSUNG
100
AcDbLine
 10
92.3534204452
 20
134.8408293326
 30
0.0
 11
42.8534204452
 21
134.8408293326
 31
0.0
  0
LINE
  5
1D2
330
1CB
100
AcDbEntity
  8
VERMASSUNG
100
AcDbLine
 10
43.8534204452
 20
197.8408293326
 30
0.0
 11
43.8534204452
 21
134.8408293326
 31
0.0
  0
MTEXT
  5
1D3
330
1CB
100
AcDbEntity
  8
VERMASSUNG
100
AcDbMText
 10
41.0752849562
 20
159.9358292234
 30
0.1
 40
2.0
 41
0.0
 71
     1
 72
     1
  1
PSC
  7
SLDTEXTSTYLE0
 11
-7.044195017643634E-15
 21
1.0
 31
0.0
 73
     1
 44
1.0
  0
MTEXT
  5
1D4
330
1CB
100
AcDbEntity
  8
VERMASSUNG
100
AcDbMText
 10
41.2752849657
 20
164.5358293255
 30
0.1
 40
2.0
 41
0.0
 71
     1
 72
     1
  1
%%c
  7
SLDTEXTSTYLE0
 11
-7.044195017643634E-15
 21
1.0
 31
0.0
 73
     1
 44
1.0
  0
MTEXT
  5
1D5
330
1CB
100
AcDbEntity
  8
VERMASSUNG
100
AcDbMText
 10
41.0752849562
 20
168.1458298054
 30
0.1
 40
2.0
 41
0.0
 71
     1
 72
     1
  1
63
  7
SLDTEXTSTYLE0
 11
-7.044195017643634E-15
 21
1.0
 31
0.0
 73
     1
 44
1.0
  0
ENDBLK
  5
1CD
330
1CB
100
AcDbEntity
  8
0
100
AcDbBlockEnd
  0
BLOCK
  5
1FB
330
1FA
100
AcDbEntity
  8
0
100
AcDbBlockBegin
  2
_D_6
 70
     0
 10
0.0
 20
0.0
 30
0.0
  3
_D_6
  1

  0
SOLID
  5
1FD
330
1FA
100
AcDbEntity
  8
VERMASSUNG
100
AcDbTrace
 10
172.426570273
 20
77.6302062511
 30
0.0
 11
174.8660886681
 21
79.4333285431
 31
0.0
 12
174.229692565
 22
80.0697246462
 32
0.0
 13
174.229692565
 23
80.0697246462
 33
0.0
  0
SOLID
  5
1FE
330
1FA
100
AcDbEntity
  8
VERMASSUNG
100
AcDbTrace
 10
144.1422990255
 20
49.3459350036
 30
0.0
 11
141.7027806304
 21
47.5428127116
 31
0.0
 12
142.3391767335
 22
46.9064166085
 32
0.0
 13
142.3391767335
 23
46.9064166085
 33
0.0
  0
LINE
  5
1FF
330
1FA
100
AcDbEntity
  8
VERMASSUNG
100
AcDbLine
 10
172.426570273
 20
77.6302062511
 30
0.0
 11
173.1336770542
 21
76.9230994699
 31
0.0
  0
LINE
  5
200
330
1FA
100
AcDbEntity
  8
VERMASSUNG
100
AcDbLine
 10
144.1422990255
 20
49.3459350036
 30
0.0
 11
143.4351922443
 21
50.0530417848
 31
0.0
  0
LINE
  5
201
330
1FA
100
AcDbEntity
  8
VERMASSUNG
100
AcDbLine
 10
172.426570273
 20
77.6302062511
 30
0.0
 11
176.6692109601
 21
81.8728469382
 31
0.0
  0
LINE
  5
202
330
1FA
100
AcDbEntity
  8
VERMASSUNG
100
AcDbLine
 10
172.426570273
 20
77.6302062511
 30
0.0
 11
144.1422990255
 21
49.3459350036
 31
0.0
  0
LINE
  5
203
330
1FA
100
AcDbEntity
  8
VERMASSUNG
100
AcDbLine
 10
144.1422990255
 20
49.3459350036
 30
0.0
 11
125.4140237056
 21
30.6176596837
 31
0.0
  0
MTEXT
  5
204
330
1FA
100
AcDbEntity
  8
VERMASSUNG
100
AcDbMText
 10
123.5910066252
 20
32.4406767641
 30
0.1
 40
2.0
 41
0.0
 71
     1
 72
     1
  1
%%c
  7
SLDTEXTSTYLE0
 11
0.7071067811865464
 21
0.7071067811865488
 31
0.0
 73
     1
 44
1.0
  0
MTEXT
  5
205
330
1FA
100
AcDbEntity
  8
VERMASSUNG
100
AcDbMText
 10
126.0022407524
 20
35.1347536172
 30
0.1
 40
2.0
 41
0.0
 71
     1
 72
     1
  1
40
  7
SLDTEXTSTYLE0
 11
0.7071067811865464
 21
0.7071067811865488
 31
0.0
 73
     1
 44
1.0
  0
MTEXT
  5
206
330
1FA
100
AcDbEntity
  8
VERMASSUNG
100
AcDbMText
 10
130.236042766
 20
39.3685556308
 30
0.1
 40
2.0
 41
0.0
 71
     1
 72
     1
  1
min.
  7
SLDTEXTSTYLE0
 11
0.7071067811865464
 21
0.7071067811865488
 31
0.0
 73
     1
 44
1.0
  0
ENDBLK
  5
1FC
330
1FA
100
AcDbEntity
  8
0
100
AcDbBlockEnd
  0
BLOCK
  5
20A
330
209
100
AcDbEntity
  8
0
100
AcDbBlockBegin
  2
_D_7
 70
     0
 10
0.0
 20
0.0
 30
0.0
  3
_D_7
  1

  0
ARC
  5
20C
330
209
100
AcDbEntity
  8
VERMASSUNG
100
AcDbCircle
 10
158.2844346493
 20
47.7379059369
 30
0.0
 40
55.42707587242929
100
AcDbArc
 50
90.0
 51
94.0
  0
ARC
  5
20D
330
209
100
AcDbEntity
  8
VERMASSUNG
100
AcDbCircle
 10
158.2844346493
 20
47.7379059369
 30
0.0
 40
55.4270758724293
100
AcDbArc
 50
83.8060248187
 51
90.0
  0
ARC
  5
20E
330
209
100
AcDbEntity
  8
VERMASSUNG
100
AcDbCircle
 10
158.2844346493
 20
47.7379059369
 30
0.0
 40
55.42707587242931
100
AcDbArc
 50
94.0
 51
104.6209422252
  0
SOLID
  5
20F
330
209
100
AcDbEntity
  8
VERMASSUNG
100
AcDbTrace
 10
158.2844346493
 20
103.1649818093
 30
0.0
 11
161.2711734712
 21
102.6340475294
 31
0.0
 12
161.2955030917
 22
103.533718619
 32
0.0
 13
161.2955030917
 23
103.533718619
 33
0.0
  0
SOLID
  5
210
330
209
100
AcDbEntity
  8
VERMASSUNG
100
AcDbTrace
 10
154.4180372865
 20
103.0299642383
 30
0.0
 11
151.3885818758
 21
103.1877613069
 31
0.0
 12
151.4756101133
 22
102.2919789193
 32
0.0
 13
151.4756101133
 23
102.2919789193
 33
0.0
  0
LINE
  5
211
330
209
100
AcDbEntity
  8
VERMASSUNG
100
AcDbLine
 10
158.2844346493
 20
99.437229829
 30
0.0
 11
158.2844346493
 21
104.1649818093
 31
0.0
  0
LINE
  5
212
330
209
100
AcDbEntity
  8
VERMASSUNG
100
AcDbLine
 10
157.5969752584
 20
57.5690332512
 30
0.0
 11
154.3482808127
 21
104.0275282885
 31
0.0
  0
MTEXT
  5
213
330
209
100
AcDbEntity
  8
VERMASSUNG
100
AcDbMText
 10
143.7345301736
 20
103.935724493
 30
-61.4352467575
 40
2.0
 41
0.0
 71
     1
 72
     1
  1
4°
  7
SLDTEXTSTYLE0
 11
0.9772505006741768
 21
0.2120883281372896
 31
0.0
 73
     1
 44
1.0
  0
ENDBLK
  5
20B
330
209
100
AcDbEntity
  8
0
100
AcDbBlockEnd
  0
BLOCK
  5
215
330
214
100
AcDbEntity
  8
0
100
AcDbBlockBegin
  2
SW_CENTERMARKSYMBOL_0
 70
     0
 10
0.0
 20
0.0
 30
0.0
  3
SW_CENTERMARKSYMBOL_0
  1

  0
LINE
  5
217
330
214
100
AcDbEntity
  8
VERMASSUNG
 62
     0
100
AcDbLine
 10
0.0
 20
0.0
 30
0.0
 11
0.0
 21
2.5
 31
0.0
  0
LINE
  5
218
330
214
100
AcDbEntity
  8
VERMASSUNG
 62
     0
100
AcDbLine
 10
0.0
 20
0.0
 30
0.0
 11
-2.5
 21
0.0
 31
0.0
  0
LINE
  5
219
330
214
100
AcDbEntity
  8
VERMASSUNG
 62
     0
100
AcDbLine
 10
0.0
 20
0.0
 30
0.0
 11
0.0
 21
-2.5
 31
0.0
  0
LINE
  5
21A
330
214
100
AcDbEntity
  8
VERMASSUNG
 62
     0
100
AcDbLine
 10
0.0
 20
0.0
 30
0.0
 11
2.5
 21
0.0
 31
0.0
  0
LINE
  5
21B
330
214
100
AcDbEntity
  8
VERMASSUNG
 62
     0
100
AcDbLine
 10
0.0
 20
5.0
 30
0.0
 11
0.0
 21
34.0
 31
0.0
  0
LINE
  5
21C
330
214
100
AcDbEntity
  8
VERMASSUNG
 62
     0
100
AcDbLine
 10
-5.0
 20
0.0
 30
0.0
 11
-34.0
 21
0.0
 31
0.0
  0
LINE
  5
21D
330
214
100
AcDbEntity
  8
VERMASSUNG
 62
     0
100
AcDbLine
 10
0.0
 20
-5.0
 30
0.0
 11
0.0
 21
-34.0
 31
0.0
  0
LINE
  5
21E
330
214
100
AcDbEntity
  8
VERMASSUNG
 62
     0
100
AcDbLine
 10
5.0
 20
0.0
 30
0.0
 11
34.0
 21
0.0
 31
0.0
  0
ENDBLK
  5
216
330
214
100
AcDbEntity
  8
0
100
AcDbBlockEnd
  0
ENDSEC
  0
SECTION
  2
ENTITIES
  0
MTEXT
  5
49
330
1F
100
AcDbEntity
  8
KOPF_DÜNN
100
AcDbMText
 10
13.8892156294
 20
23.8442973028
 30
0.0
 40
3.0
 41
0.0
 71
     1
 72
     1
  1
PS6.BCC.LLB.160
  7
SLDTEXTSTYLE0
 73
     1
 44
1.0
  0
MTEXT
  5
4A
330
1F
100
AcDbEntity
  8
VERMASSUNG
100
AcDbMText
 10
13.9329988022
 20
28.8834360957
 30
0.0
 40
3.0
 41
0.0
 71
     1
 72
     1
  1
Bohrstange links_Boring bar left
  7
SLDTEXTSTYLE0
 73
     1
 44
1.0
  0
MTEXT
  5
4B
330
1F
100
AcDbEntity
  8
VERMASSUNG
100
AcDbMText
 10
98.8601118557
 20
13.8365368179
 30
0.0
 40
2.0
 41
0.0
 71
     1
 72
     1
  1
Datum: 05.06.2012
  7
SLDTEXTSTYLE0
 73
     1
 44
1.0
  0
MTEXT
  5
4C
330
1F
100
AcDbEntity
  8
VERMASSUNG
100
AcDbMText
 10
13.933048693
 20
18.0482802738
 30
0.0
 40
2.0
 41
0.0
 71
     1
 72
     1
  1
PSC ø63 / Wp.: CC..12 04..
  7
SLDTEXTSTYLE0
 73
     1
 44
1.0
  0
MTEXT
  5
4D
330
1F
100
AcDbEntity
  8
VERMASSUNG
100
AcDbMText
 10
13.9808475933
 20
13.9090973692
 30
0.0
 40
2.0
 41
0.0
 71
     1
 72
     1
  1
Gewicht: 1464g
  7
SLDTEXTSTYLE0
 73
     1
 44
1.0
  0
ARC
  5
4E
330
1F
100
AcDbEntity
  8
0
  6
Continuous
 62
     7
370
    15
100
AcDbCircle
 10
92.3534204452
 20
135.3408293326
 30
0.0
 40
0.5000000000000568
100
AcDbArc
 50
180.0
 51
270.0
  0
ARC
  5
4F
330
1F
100
AcDbEntity
  8
0
  6
Continuous
 62
     7
370
    15
100
AcDbCircle
 10
92.3534204452
 20
197.3408293326
 30
0.0
 40
0.5000000000000568
100
AcDbArc
 50
90.0
 51
180.0
  0
ARC
  5
50
330
1F
100
AcDbEntity
  8
0
  6
Continuous
 62
     7
370
    15
100
AcDbCircle
 10
112.8534204452
 20
135.8408293326
 30
0.0
 40
1.000000000000057
100
AcDbArc
 50
270.0
 51
360.0
  0
ARC
  5
51
330
1F
100
AcDbEntity
  8
0
  6
Continuous
 62
     7
370
    15
100
AcDbCircle
 10
112.8534204452
 20
196.8408293326
 30
0.0
 40
1.000000000000057
100
AcDbArc
 50
0.0
 51
90.0
  0
LINE
  5
52
330
1F
100
AcDbEntity
  8
0
  6
Continuous
 62
     7
370
    15
100
AcDbLine
 10
92.3534204452
 20
134.8408293326
 30
0.0
 11
112.8534204452
 21
134.8408293326
 31
0.0
  0
LINE
  5
53
330
1F
100
AcDbEntity
  8
0
  6
Continuous
 62
     7
370
    15
100
AcDbLine
 10
112.8534204452
 20
197.8408293326
 30
0.0
 11
92.3534204452
 21
197.8408293326
 31
0.0
  0
LWPOLYLINE
  5
54
330
1F
100
AcDbEntity
  8
0
  6
Continuous
 62
     7
370
    15
100
AcDbPolyline
 90
        3
 70
   128
 43
0.0
 10
91.6534204452
 20
143.8010090537
 10
91.7788753887
 20
143.7327069388
 10
91.8534204452
 20
143.6799691807
  0
LWPOLYLINE
  5
55
330
1F
100
AcDbEntity
  8
0
  6
Continuous
 62
     7
370
    15
100
AcDbPolyline
 90
        3
 70
   128
 43
0.0
 10
91.8534204452
 20
189.0016894846
 10
91.7788753887
 20
188.9489517264
 10
91.6534204452
 20
188.8806496115
  0
LINE
  5
56
330
1F
100
AcDbEntity
  8
0
  6
Continuous
 62
     7
370
    15
100
AcDbLine
 10
91.6534204452
 20
172.8918982637
 30
0.0
 11
91.6534204452
 21
173.3627166584
 31
0.0
  0
ARC
  5
57
330
1F
100
AcDbEntity
  8
0
  6
Continuous
 62
     7
370
    15
100
AcDbCircle
 10
117.8534204452
 20
146.3408293326
 30
0.0
 40
4.000000000000014
100
AcDbArc
 50
90.0
 51
180.0
  0
ARC
  5
58
330
1F
100
AcDbEntity
  8
0
  6
Continuous
 62
     7
370
    15
100
AcDbCircle
 10
117.8534204452
 20
186.3408293326
 30
0.0
 40
4.000000000000014
100
AcDbArc
 50
180.0
 51
270.0
  0
LINE
  5
59
330
1F
100
AcDbEntity
  8
0
  6
Continuous
 62
     7
370
    15
100
AcDbLine
 10
225.4392068828
 20
182.3408293326
 30
0.0
 11
117.8534204452
 21
182.3408293326
 31
0.0
  0
LINE
  5
5A
330
1F
100
AcDbEntity
  8
0
  6
Continuous
 62
     7
370
    15
100
AcDbLine
 10
117.8534204452
 20
150.3408293326
 30
0.0
 11
225.4392068828
 21
150.3408293326
 31
0.0
  0
ARC
  5
5B
330
1F
100
AcDbEntity
  8
0
  6
Continuous
 62
     7
370
    15
100
AcDbCircle
 10
225.4392068828
 20
183.3408293326
 30
0.0
 40
0.9999999999999276
100
AcDbArc
 50
270.0
 51
315.0
  0
LINE
  5
5C
330
1F
100
AcDbEntity
  8
0
  6
Continuous
 62
     7
370
    15
100
AcDbLine
 10
233.006002355
 20
182.8408293326
 30
0.0
 11
226.3534204452
 21
182.8408293326
 31
0.0
  0
LINE
  5
5D
330
1F
100
AcDbEntity
  8
0
  6
Continuous
 62
     7
370
    15
100
AcDbLine
 10
226.3534204452
 20
182.8408293326
 30
0.0
 11
226.146313664
 21
182.6337225514
 31
0.0
  0
LINE
  5
5E
330
1F
100
AcDbEntity
  8
0
  6
Continuous
 62
     7
370
    15
100
AcDbLine
 10
246.2737080397
 20
151.495949266
 30
0.0
 11
246.2737080397
 21
151.3843051678
 31
0.0
  0
LINE
  5
5F
330
1F
100
AcDbEntity
  8
0
  6
Continuous
 62
     7
370
    15
100
AcDbLine
 10
243.4354509997
 20
151.2729235114
 30
0.0
 11
243.4354509997
 21
151.3845322786
 31
0.0
  0
LINE
  5
60
330
1F
100
AcDbEntity
  8
0
  6
Continuous
 62
     7
370
    15
100
AcDbLine
 10
248.3530432395
 20
151.3590322082
 30
0.0
 11
248.3530432395
 21
151.372983503
 31
0.0
  0
LINE
  5
61
330
1F
100
AcDbEntity
  8
0
  6
Continuous
 62
     7
370
    15
100
AcDbLine
 10
241.3530432395
 20
151.372983503
 30
0.0
 11
241.3530432395
 21
151.3590322082
 31
0.0
  0
LINE
  5
62
330
1F
100
AcDbEntity
  8
0
  6
Continuous
 62
     7
370
    15
100
AcDbLine
 10
91.8534204452
 20
135.3408293326
 30
0.0
 11
91.8534204452
 21
197.3408293326
 31
0.0
  0
LINE
  5
63
330
1F
100
AcDbEntity
  8
0
  6
Continuous
 62
     7
370
    15
100
AcDbLine
 10
113.8534204452
 20
196.8408293297
 30
0.0
 11
113.8534204452
 21
135.8408293326
 31
0.0
  0
SPLINE
  5
64
330
1F
100
AcDbEntity
  8
0
  6
Continuous
 62
     7
370
    15
100
AcDbSpline
210
0.0
220
0.0
230
1.0
 70
     8
 71
     3
 72
    12
 73
     8
 74
     0
 42
0.00000001
 43
0.00000001
 12
1.0
 22
0.0
 32
0.0
 13
1.0
 23
0.0
 33
0.0
 40
0.0
 40
0.0
 40
0.0
 40
0.0
 40
0.2500000000000009
 40
0.2500000000000009
 40
0.5000000000000018
 40
0.5000000000000018
 40
1.0
 40
1.0
 40
1.0
 40
1.0
 10
102.3811772587828
 20
175.7288957639468
 30
0.0
 10
102.3180972202894
 20
175.7288957639468
 30
0.0
 10
102.2589485981081
 20
175.7542600831618
 30
0.0
 10
102.160476048039
 20
175.8284249435347
 30
0.0
 10
102.1214394360543
 20
175.8749452840888
 30
0.0
 10
102.0215429692753
 20
176.025087626934
 30
0.0
 10
101.9791220882085
 20
176.1367808339061
 30
0.0
 10
101.9481645568906
 20
176.2501986532959
 30
0.0
  0
LINE
  5
65
330
1F
100
AcDbEntity
  8
0
  6
Continuous
 62
     7
370
    15
100
AcDbLine
 10
105.3256636316
 20
175.7288957639
 30
0.0
 11
102.3811772588
 21
175.7288957639
 31
0.0
  0
SPLINE
  5
66
330
1F
100
AcDbEntity
  8
0
  6
Continuous
 62
     7
370
    15
100
AcDbSpline
210
0.0
220
0.0
230
1.0
 70
     8
 71
     3
 72
    12
 73
     8
 74
     0
 42
0.00000001
 43
0.00000001
 12
1.0
 22
0.0
 32
0.0
 13
1.0
 23
0.0
 33
0.0
 40
0.0
 40
0.0
 40
0.0
 40
0.0
 40
0.5
 40
0.5
 40
0.75
 40
0.75
 40
1.0
 40
1.0
 40
1.0
 40
1.0
 10
105.7586763335421
 20
176.2501986532959
 30
0.0
 10
105.727954091623
 20
176.1376428538867
 30
0.0
 10
105.6851168770877
 20
176.0248849941472
 30
0.0
 10
105.585689852888
 20
175.8753441083508
 30
0.0
 10
105.5459376580713
 20
175.828051376644
 30
0.0
 10
105.4478962012131
 20
175.7543150833226
 30
0.0
 10
105.3883401456257
 20
175.7288957639468
 30
0.0
 10
105.3256636316499
 20
175.7288957639468
 30
0.0
  0
ELLIPSE
  5
67
330
1F
100
AcDbEntity
  8
0
  6
Continuous
 62
     7
370
    15
100
AcDbEllipse
 10
89.5062662559
 20
166.3408293326
 30
0.0
 11
14.75368316065601
 21
31.09325491558118
 31
0.0
210
0.0
220
0.0
230
1.0
 40
0.3419987131
 41
5.193281737408618
 42
6.124043104552324
  0
SPLINE
  5
68
330
1F
100
AcDbEntity
  8
0
  6
Continuous
 62
     7
370
    15
100
AcDbSpline
210
0.0
220
0.0
230
1.0
 70
     8
 71
     3
 72
    12
 73
     8
 74
     0
 42
0.00000001
 43
0.00000001
 12
1.0
 22
0.0
 32
0.0
 13
1.0
 23
0.0
 33
0.0
 40
0.0
 40
0.0
 40
0.0
 40
0.0
 40
0.2499999999999991
 40
0.2499999999999991
 40
0.4999999999999982
 40
0.4999999999999982
 40
1.0
 40
1.0
 40
1.0
 40
1.0
 10
105.3256636316499
 20
196.409321291484
 30
0.0
 10
105.3887436701433
 20
196.409321291484
 30
0.0
 10
105.4478922923246
 20
196.4014153652714
 30
0.0
 10
105.5463648423937
 20
196.3780902038352
 30
0.0
 10
105.5854014543783
 20
196.3633774140035
 30
0.0
 10
105.6852979211575
 20
196.3154216132726
 30
0.0
 10
105.727718802224
 20
196.2791594566925
 30
0.0
 10
105.7586763335421
 20
196.241571792728
 30
0.0
  0
LINE
  5
69
330
1F
100
AcDbEntity
  8
0
  6
Continuous
 62
     7
370
    15
100
AcDbLine
 10
102.3811772588
 20
196.4093212915
 30
0.0
 11
105.3256636316
 21
196.4093212915
 31
0.0
  0
SPLINE
  5
6A
330
1F
100
AcDbEntity
  8
0
  6
Continuous
 62
     7
370
    15
100
AcDbSpline
210
0.0
220
0.0
230
1.0
 70
     8
 71
     3
 72
    12
 73
     8
 74
     0
 42
0.00000001
 43
0.00000001
 12
1.0
 22
0.0
 32
0.0
 13
1.0
 23
0.0
 33
0.0
 40
0.0
 40
0.0
 40
0.0
 40
0.0
 40
0.4999999999999953
 40
0.4999999999999953
 40
0.7499999999999977
 40
0.7499999999999977
 40
1.0
 40
1.0
 40
1.0
 40
1.0
 10
101.9481645568906
 20
196.241571792728
 30
0.0
 10
101.9788867988098
 20
196.2788737756811
 30
0.0
 10
102.0217240133448
 20
196.3154856077275
 30
0.0
 10
102.1211510375447
 20
196.3632503910127
 30
0.0
 10
102.1609032323613
 20
196.378207906495
 30
0.0
 10
102.2589446892196
 20
196.4013978522641
 30
0.0
 10
102.3185007448069
 20
196.409321291484
 30
0.0
 10
102.3811772587828
 20
196.409321291484
 30
0.0
  0
ELLIPSE
  5
6B
330
1F
100
AcDbEntity
  8
0
  6
Continuous
 62
     7
370
    15
100
AcDbEllipse
 10
118.2005746346
 20
166.3408293326
 30
0.0
 11
-14.75368316065603
 21
31.09325491558118
 31
0.0
210
0.0
220
0.0
230
1.0
 40
0.3419987131
 41
0.1591422026273042
 42
1.08990356977098
  0
SPLINE
  5
6C
330
1F
100
AcDbEntity
  8
0
  6
Continuous
 62
     7
370
    15
100
AcDbSpline
210
0.0
220
0.0
230
1.0
 70
     8
 71
     3
 72
    12
 73
     8
 74
     0
 42
0.00000001
 43
0.00000001
 12
1.0
 22
0.0
 32
0.0
 13
1.0
 23
0.0
 33
0.0
 40
0.0
 40
0.0
 40
0.0
 40
0.0
 40
0.2500000000000005
 40
0.2500000000000005
 40
0.500000000000001
 40
0.500000000000001
 40
1.0
 40
1.0
 40
1.0
 40
1.0
 10
102.3811772587828
 20
136.2723373737377
 30
0.0
 10
102.318120303885
 20
136.2723373737377
 30
0.0
 10
102.2589901541394
 20
136.2802377048173
 30
0.0
 10
102.1605426036062
 20
136.3035484528224
 30
0.0
 10
102.1215103654181
 20
136.318253579106
 30
0.0
 10
102.0216204809612
 20
136.3661871072926
 30
0.0
 10
101.9793215073518
 20
136.4022570800573
 30
0.0
 10
101.9481645568905
 20
136.4400868724935
 30
0.0
  0
LINE
  5
6D
330
1F
100
AcDbEntity
  8
0
  6
Continuous
 62
     7
370
    15
100
AcDbLine
 10
105.3256636316
 20
136.2723373737
 30
0.0
 11
102.3811772588
 21
136.2723373737
 31
0.0
  0
SPLINE
  5
6E
330
1F
100
AcDbEntity
  8
0
  6
Continuous
 62
     7
370
    15
100
AcDbSpline
210
0.0
220
0.0
230
1.0
 70
     8
 71
     3
 72
    12
 73
     8
 74
     0
 42
0.00000001
 43
0.00000001
 12
1.0
 22
0.0
 32
0.0
 13
1.0
 23
0.0
 33
0.0
 40
0.0
 40
0.0
 40
0.0
 40
0.0
 40
0.5000000000000001
 40
0.5000000000000001
 40
0.75
 40
0.75
 40
1.0
 40
1.0
 40
1.0
 40
1.0
 10
105.7586763335421
 20
136.4400868724935
 30
0.0
 10
105.72753113558
 20
136.4022713495733
 30
0.0
 10
105.6852568692454
 20
136.3662044914898
 30
0.0
 10
105.5853113354202
 20
136.3182444264785
 30
0.0
 10
105.5455810307161
 20
136.3033834525809
 30
0.0
 10
105.4486929807099
 20
136.2804323064498
 30
0.0
 10
105.3886277389635
 20
136.2723373737376
 30
0.0
 10
105.3256636316499
 20
136.2723373737376
 30
0.0
  0
ELLIPSE
  5
6F
330
1F
100
AcDbEntity
  8
0
  6
Continuous
 62
     7
370
    15
100
AcDbEllipse
 10
89.5062662559
 20
166.3408293326
 30
0.0
 11
-14.75368316065617
 21
31.09325491558119
 31
0.0
210
0.0
220
0.0
230
1.0
 40
0.3419987131
 41
3.300734856217121
 42
4.231496223360773
  0
SPLINE
  5
70
330
1F
100
AcDbEntity
  8
0
  6
Continuous
 62
     7
370
    15
100
AcDbSpline
210
0.0
220
0.0
230
1.0
 70
     8
 71
     3
 72
    12
 73
     8
 74
     0
 42
0.00000001
 43
0.00000001
 12
1.0
 22
0.0
 32
0.0
 13
1.0
 23
0.0
 33
0.0
 40
0.0
 40
0.0
 40
0.0
 40
0.0
 40
0.2500000000000014
 40
0.2500000000000014
 40
0.5000000000000029
 40
0.5000000000000029
 40
1.0
 40
1.0
 40
1.0
 40
1.0
 10
105.3256636316499
 20
156.9527629012746
 30
0.0
 10
105.3887205865477
 20
156.9527629012746
 30
0.0
 10
105.4478507362932
 20
156.9274165478938
 30
0.0
 10
105.5462982868265
 20
156.8532971657543
 30
0.0
 10
105.5853305250145
 20
156.8068006510563
 30
0.0
 10
105.6852204094716
 20
156.6567261440478
 30
0.0
 10
105.7275193830809
 20
156.5456084349329
 30
0.0
 10
105.7586763335422
 20
156.4314600119255
 30
0.0
  0
LINE
  5
71
330
1F
100
AcDbEntity
  8
0
  6
Continuous
 62
     7
370
    15
100
AcDbLine
 10
102.3811772588
 20
156.9527629013
 30
0.0
 11
105.3256636316
 21
156.9527629013
 31
0.0
  0
SPLINE
  5
72
330
1F
100
AcDbEntity
  8
0
  6
Continuous
 62
     7
370
    15
100
AcDbSpline
210
0.0
220
0.0
230
1.0
 70
     8
 71
     3
 72
    12
 73
     8
 74
     0
 42
0.00000001
 43
0.00000001
 12
1.0
 22
0.0
 32
0.0
 13
1.0
 23
0.0
 33
0.0
 40
0.0
 40
0.0
 40
0.0
 40
0.0
 40
0.4999999999999972
 40
0.4999999999999972
 40
0.7499999999999986
 40
0.7499999999999986
 40
1.0
 40
1.0
 40
1.0
 40
1.0
 10
101.9481645568905
 20
156.4314600119255
 30
0.0
 10
101.9793097548526
 20
156.5455653777908
 30
0.0
 10
102.0215840211871
 20
156.6566717050095
 30
0.0
 10
102.1215295550125
 20
156.8068293124398
 30
0.0
 10
102.1612598597165
 20
156.8538220040571
 30
0.0
 10
102.2581479097228
 20
156.9267975885956
 30
0.0
 10
102.3182131514692
 20
156.9527629012747
 30
0.0
 10
102.3811772587827
 20
156.9527629012747
 30
0.0
  0
ELLIPSE
  5
73
330
1F
100
AcDbEntity
  8
0
  6
Continuous
 62
     7
370
    15
100
AcDbEllipse
 10
118.2005746346
 20
166.3408293326
 30
0.0
 11
14.75368316065612
 21
31.09325491558118
 31
0.0
210
0.0
220
0.0
230
1.0
 40
0.3419987131
 41
2.051689083818824
 42
2.982450450962498
  0
SPLINE
  5
74
330
1F
100
AcDbEntity
  8
0
  6
Continuous
 62
     7
370
    15
100
AcDbSpline
210
0.0
220
0.0
230
1.0
 70
     8
 71
     3
 72
    12
 73
     8
 74
     0
 42
0.00000001
 43
0.00000001
 12
1.0
 22
0.0
 32
0.0
 13
1.0
 23
0.0
 33
0.0
 40
0.0
 40
0.0
 40
0.0
 40
0.0
 40
0.5000000000000001
 40
0.5000000000000001
 40
0.7499999999999999
 40
0.7499999999999999
 40
1.0
 40
1.0
 40
1.0
 40
1.0
 10
91.03690815875987
 20
144.486035630135
 30
0.0
 10
91.09334465966704
 20
144.4846177487933
 30
0.0
 10
91.16242929035579
 20
144.483053412545
 30
0.0
 10
91.2812315620737
 20
144.4801092205705
 30
0.0
 10
91.32141683754378
 20
144.4790710174732
 30
0.0
 10
91.3947978849476
 20
144.4771371222585
 30
0.0
 10
91.42820744869023
 20
144.4762422349697
 30
0.0
 10
91.4584435563467
 20
144.4754584446974
 30
0.0
  0
SPLINE
  5
75
330
1F
100
AcDbEntity
  8
0
  6
Continuous
 62
     7
370
    15
100
AcDbSpline
210
0.0
220
0.0
230
1.0
 70
     8
 71
     3
 72
    16
 73
    12
 74
     0
 42
0.00000001
 43
0.00000001
 12
1.0
 22
0.0
 32
0.0
 13
1.0
 23
0.0
 33
0.0
 40
0.0
 40
0.0
 40
0.0
 40
0.0
 40
0.062500000000004
 40
0.062500000000004
 40
0.1250000000000081
 40
0.1250000000000081
 40
0.2500000000000109
 40
0.2500000000000109
 40
0.5000000000000083
 40
0.5000000000000083
 40
1.0
 40
1.0
 40
1.0
 40
1.0
 10
91.45844355630948
 20
144.4754584447216
 30
0.0
 10
91.47002396389742
 20
144.4751582536102
 30
0.0
 10
91.48333349065868
 20
144.4738305053513
 30
0.0
 10
91.51263492074483
 20
144.4671318305762
 30
0.0
 10
91.52744902062918
 20
144.4617736474706
 30
0.0
 10
91.563277422332
 20
144.4447279983032
 30
0.0
 10
91.57739704669504
 20
144.4332654605275
 30
0.0
 10
91.61190119078353
 20
144.4017021351552
 30
0.0
 10
91.62300574148811
 20
144.38380483611
 30
0.0
 10
91.6491819187043
 20
144.3336434184957
 30
0.0
 10
91.65342044521633
 20
144.3058990062991
 30
0.0
 10
91.65342044521633
 20
144.2812348443696
 30
0.0
  0
LINE
  5
76
330
1F
100
AcDbEntity
  8
0
  6
Continuous
 62
     7
370
    15
100
AcDbLine
 10
91.6534204452
 20
159.3189420069
 30
0.0
 11
91.6534204452
 21
143.8010090537
 31
0.0
  0
SPLINE
  5
77
330
1F
100
AcDbEntity
  8
0
  6
Continuous
 62
     7
370
    15
100
AcDbSpline
210
0.0
220
0.0
230
1.0
 70
     8
 71
     3
 72
    16
 73
    12
 74
     0
 42
0.00000001
 43
0.00000001
 12
1.0
 22
0.0
 32
0.0
 13
1.0
 23
0.0
 33
0.0
 40
0.0
 40
0.0
 40
0.0
 40
0.0
 40
0.5000000000000011
 40
0.5000000000000011
 40
0.7500000000000017
 40
0.7500000000000017
 40
0.8750000000000003
 40
0.8750000000000003
 40
0.9375000000000002
 40
0.9375000000000002
 40
1.0
 40
1.0
 40
1.0
 40
1.0
 10
91.65342044521633
 20
159.3189420068608
 30
0.0
 10
91.65342044521633
 20
159.4326345509887
 30
0.0
 10
91.64927417013838
 20
159.5469547123382
 30
0.0
 10
91.62330857474488
 20
159.7200030028353
 30
0.0
 10
91.61184766936748
 20
159.779178509997
 30
0.0
 10
91.5775359315931
 20
159.8623016294651
 30
0.0
 10
91.56351119566355
 20
159.8904229455658
 30
0.0
 10
91.52748823262971
 20
159.9190387595433
 30
0.0
 10
91.51273372354002
 20
159.9248318074451
 30
0.0
 10
91.4833815623931
 20
159.9232383815081
 30
0.0
 10
91.470041687889
 20
159.9167419781843
 30
0.0
 10
91.45844355634065
 20
159.9082262319811
 30
0.0
  0
SPLINE
  5
78
330
1F
100
AcDbEntity
  8
0
  6
Continuous
 62
     7
370
    15
100
AcDbSpline
210
0.0
220
0.0
230
1.0
 70
     8
 71
     3
 72
    12
 73
     8
 74
     0
 42
0.00000001
 43
0.00000001
 12
1.0
 22
0.0
 32
0.0
 13
1.0
 23
0.0
 33
0.0
 40
0.0
 40
0.0
 40
0.0
 40
0.0
 40
0.25
 40
0.25
 40
0.5
 40
0.5
 40
1.0
 40
1.0
 40
1.0
 40
1.0
 10
91.45844355634772
 20
159.908226231972
 30
0.0
 10
91.42824511490707
 20
159.8860534999269
 30
0.0
 10
91.39487775957112
 20
159.8669738440497
 30
0.0
 10
91.32172248374121
 20
159.841800799607
 30
0.0
 10
91.28146978471727
 20
159.8362442631902
 30
0.0
 10
91.16374104144242
 20
159.847156074177
 30
0.0
 10
91.0932825933835
 20
159.8890918295878
 30
0.0
 10
91.03690815876524
 20
159.9383036119693
 30
0.0
  0
SPLINE
  5
79
330
1F
100
AcDbEntity
  8
0
  6
Continuous
 62
     7
370
    15
100
AcDbSpline
210
0.0
220
0.0
230
1.0
 70
     8
 71
     3
 72
    12
 73
     8
 74
     0
 42
0.00000001
 43
0.00000001
 12
1.0
 22
0.0
 32
0.0
 13
1.0
 23
0.0
 33
0.0
 40
0.0
 40
0.0
 40
0.0
 40
0.0
 40
0.4999999999999991
 40
0.4999999999999991
 40
0.7499999999999994
 40
0.7499999999999994
 40
1.0
 40
1.0
 40
1.0
 40
1.0
 10
90.53210010165665
 20
161.1546550038498
 30
0.0
 10
90.57585045354112
 20
160.9342080188753
 30
0.0
 10
90.6287406046656
 20
160.7186630290697
 30
0.0
 10
90.74035214780726
 20
160.4062489524978
 30
0.0
 10
90.7829114917108
 20
160.3041694768819
 30
0.0
 10
90.88788872704822
 20
160.1097294642401
 30
0.0
 10
90.94945597014281
 20
160.0146445651764
 30
0.0
 10
91.03690815876519
 20
159.9383036119692
 30
0.0
  0
SPLINE
  5
7A
330
1F
100
AcDbEntity
  8
0
  6
Continuous
 62
     7
370
    15
100
AcDbSpline
210
0.0
220
0.0
230
1.0
 70
     8
 71
     3
 72
    12
 73
     8
 74
     0
 42
0.00000001
 43
0.00000001
 12
1.0
 22
0.0
 32
0.0
 13
1.0
 23
0.0
 33
0.0
 40
0.0
 40
0.0
 40
0.0
 40
0.0
 40
0.2500000000000008
 40
0.2500000000000008
 40
0.5000000000000016
 40
0.5000000000000016
 40
1.0
 40
1.0
 40
1.0
 40
1.0
 10
91.03690815876506
 20
172.7433550532525
 30
0.0
 10
90.94841475119719
 20
172.6661051731442
 30
0.0
 10
90.88835671043131
 20
172.5727858492549
 30
0.0
 10
90.78250843744875
 20
172.3767527962855
 30
0.0
 10
90.73997491617128
 20
172.2744264380738
 30
0.0
 10
90.62882360934763
 20
171.9630820322978
 30
0.0
 10
90.57589275229985
 20
171.7476637791198
 30
0.0
 10
90.53210010165665
 20
171.527003661372
 30
0.0
  0
SPLINE
  5
7B
330
1F
100
AcDbEntity
  8
0
  6
Continuous
 62
     7
370
    15
100
AcDbSpline
210
0.0
220
0.0
230
1.0
 70
     8
 71
     3
 72
    12
 73
     8
 74
     0
 42
0.00000001
 43
0.00000001
 12
1.0
 22
0.0
 32
0.0
 13
1.0
 23
0.0
 33
0.0
 40
0.0
 40
0.0
 40
0.0
 40
0.0
 40
0.4999999999999999
 40
0.4999999999999999
 40
0.7499999999999999
 40
0.7499999999999999
 40
1.0
 40
1.0
 40
1.0
 40
1.0
 10
91.03690815876514
 20
172.7433550532524
 30
0.0
 10
91.09321670706078
 20
172.7925093204962
 30
0.0
 10
91.16349136777885
 20
172.8344666390999
 30
0.0
 10
91.28152928210243
 20
172.8454263166324
 30
0.0
 10
91.32170552295635
 20
172.839917558385
 30
0.0
 10
91.39566261763427
 20
172.8143603295961
 30
0.0
 10
91.4282790053457
 20
172.7955802817568
 30
0.0
 10
91.45844355634145
 20
172.7734324332401
 30
0.0
  0
SPLINE
  5
7C
330
1F
100
AcDbEntity
  8
0
  6
Continuous
 62
     7
370
    15
100
AcDbSpline
210
0.0
220
0.0
230
1.0
 70
     8
 71
     3
 72
    16
 73
    12
 74
     0
 42
0.00000001
 43
0.00000001
 12
1.0
 22
0.0
 32
0.0
 13
1.0
 23
0.0
 33
0.0
 40
0.0
 40
0.0
 40
0.0
 40
0.0
 40
0.0625000000000012
 40
0.0625000000000012
 40
0.1250000000000024
 40
0.1250000000000024
 40
0.2500000000000039
 40
0.2500000000000039
 40
0.5000000000000038
 40
0.5000000000000038
 40
1.0
 40
1.0
 40
1.0
 40
1.0
 10
91.45844355630969
 20
172.7734324331855
 30
0.0
 10
91.47005645614905
 20
172.7649058435903
 30
0.0
 10
91.48340764058156
 20
172.7584055820575
 30
0.0
 10
91.51280748020073
 20
172.7568361849399
 30
0.0
 10
91.52764820475608
 20
172.7627195755706
 30
0.0
 10
91.56348141272463
 20
172.7912672116212
 30
0.0
 10
91.57759462054624
 20
172.819434230927
 30
0.0
 10
91.6120859917651
 20
172.9031884893489
 30
0.0
 10
91.62317006287549
 20
172.9609019029704
 30
0.0
 10
91.64929288067147
 20
173.1344924396162
 30
0.0
 10
91.65342044521636
 20
173.2495204922581
 30
0.0
 10
91.65342044521634
 20
173.3627166583609
 30
0.0
  0
LINE
  5
7D
330
1F
100
AcDbEntity
  8
0
  6
Continuous
 62
     7
370
    15
100
AcDbLine
 10
91.6534204452
 20
188.8806496115
 30
0.0
 11
91.6534204452
 21
173.3627166584
 31
0.0
  0
SPLINE
  5
7E
330
1F
100
AcDbEntity
  8
0
  6
Continuous
 62
     7
370
    15
100
AcDbSpline
210
0.0
220
0.0
230
1.0
 70
     8
 71
     3
 72
    16
 73
    12
 74
     0
 42
0.00000001
 43
0.00000001
 12
1.0
 22
0.0
 32
0.0
 13
1.0
 23
0.0
 33
0.0
 40
0.0
 40
0.0
 40
0.0
 40
0.0
 40
0.4999999999999981
 40
0.4999999999999981
 40
0.7499999999999989
 40
0.7499999999999989
 40
0.8749999999999968
 40
0.8749999999999968
 40
0.9374999999999984
 40
0.9374999999999984
 40
1.0
 40
1.0
 40
1.0
 40
1.0
 10
91.65342044521634
 20
188.4004238208522
 30
0.0
 10
91.65342044521634
 20
188.3757526648092
 30
0.0
 10
91.64925474675637
 20
188.348170833418
 30
0.0
 10
91.62299641843141
 20
188.2978279625947
 30
0.0
 10
91.61149263669382
 20
188.2795384645328
 30
0.0
 10
91.57736187734733
 20
188.2483834334957
 30
0.0
 10
91.56293999067664
 20
188.236744058284
 30
0.0
 10
91.52737302223882
 20
188.2198620323529
 30
0.0
 10
91.5124212539441
 20
188.2144729285452
 30
0.0
 10
91.48341743558433
 20
188.2078524326007
 30
0.0
 10
91.47000208157506
 20
188.2064998443943
 30
0.0
 10
91.45844355633848
 20
188.2062002205227
 30
0.0
  0
SPLINE
  5
7F
330
1F
100
AcDbEntity
  8
0
  6
Continuous
 62
     7
370
    15
100
AcDbSpline
210
0.0
220
0.0
230
1.0
 70
     8
 71
     3
 72
    12
 73
     8
 74
     0
 42
0.00000001
 43
0.00000001
 12
1.0
 22
0.0
 32
0.0
 13
1.0
 23
0.0
 33
0.0
 40
0.0
 40
0.0
 40
0.0
 40
0.0
 40
0.2499999999999999
 40
0.2499999999999999
 40
0.4999999999999998
 40
0.4999999999999998
 40
1.0
 40
1.0
 40
1.0
 40
1.0
 10
91.45844355634772
 20
188.2062002205244
 30
0.0
 10
91.42825577979806
 20
188.2054176831068
 30
0.0
 10
91.39490197570638
 20
188.2045243512883
 30
0.0
 10
91.32177577251042
 20
188.2025970424847
 30
0.0
 10
91.28154056948628
 20
188.2015575112721
 30
0.0
 10
91.1638489393532
 20
188.1986396279248
 30
0.0
 10
91.0934682661932
 20
188.1970440218546
 30
0.0
 10
91.03690815876259
 20
188.1956230350868
 30
0.0
  0
SPLINE
  5
80
330
1F
100
AcDbEntity
  8
0
  6
Continuous
 62
     7
370
    15
100
AcDbSpline
210
0.0
220
0.0
230
1.0
 70
     8
 71
     3
 72
    16
 73
    12
 74
     0
 42
0.00000001
 43
0.00000001
 12
1.0
 22
0.0
 32
0.0
 13
1.0
 23
0.0
 33
0.0
 40
0.0
 40
0.0
 40
0.0
 40
0.0
 40
0.2500000000000002
 40
0.2500000000000002
 40
0.3750000000000002
 40
0.3750000000000002
 40
0.5000000000000001
 40
0.5000000000000001
 40
0.75
 40
0.75
 40
1.0
 40
1.0
 40
1.0
 40
1.0
 10
90.53210010165665
 20
171.527003661372
 30
0.0
 10
90.37086762417219
 20
170.7145938861251
 30
0.0
 10
90.25038778453256
 20
169.8745155917404
 30
0.0
 10
90.12800726721925
 20
168.5732205423776
 30
0.0
 10
90.09702960682178
 20
168.1325395067929
 30
0.0
 10
90.05541586919384
 20
167.2366998658617
 30
0.0
 10
90.04517995626102
 20
166.7900417346592
 30
0.0
 10
90.0449915592049
 20
165.4547317775194
 30
0.0
 10
90.08513626184252
 20
164.5702364042118
 30
0.0
 10
90.24929001678208
 20
162.8129865161858
 30
0.0
 10
90.37084166719166
 20
161.9671955697727
 30
0.0
 10
90.53210010165665
 20
161.1546550038498
 30
0.0
  0
LINE
  5
81
330
1F
100
AcDbEntity
  8
0
  6
Continuous
 62
     7
370
    15
100
AcDbLine
 10
89.6534204452
 20
172.8260075943
 30
0.0
 11
89.6534204452
 21
159.8556510709
 31
0.0
  0
LINE
  5
82
330
1F
100
AcDbEntity
  8
0
  6
Continuous
 62
     7
370
    15
100
AcDbLine
 10
55.3534204452
 20
172.3951399002
 30
0.0
 11
55.3534204452
 21
160.2865187651
 31
0.0
  0
LINE
  5
83
330
1F
100
AcDbEntity
  8
0
  6
Continuous
 62
     7
370
    15
100
AcDbLine
 10
53.8534204452
 20
171.9621271983
 30
0.0
 11
53.8534204452
 21
160.719531467
 31
0.0
  0
LINE
  5
84
330
1F
100
AcDbEntity
  8
0
  6
Continuous
 62
     7
370
    15
100
AcDbLine
 10
55.3534204452
 20
172.3951399002
 30
0.0
 11
55.3534204452
 21
187.4991927289
 31
0.0
  0
LINE
  5
85
330
1F
100
AcDbEntity
  8
0
  6
Continuous
 62
     7
370
    15
100
AcDbLine
 10
55.3534204452
 20
187.4991927289
 30
0.0
 11
89.6534204452
 21
188.3609281172
 31
0.0
  0
LINE
  5
86
330
1F
100
AcDbEntity
  8
0
  6
Continuous
 62
     7
370
    15
100
AcDbLine
 10
89.6534204452
 20
172.8260075943
 30
0.0
 11
89.6534204452
 21
188.3609281172
 31
0.0
  0
ARC
  5
87
330
1F
100
AcDbEntity
  8
0
  6
Continuous
 62
     7
370
    15
100
AcDbCircle
 10
89.8533573562
 20
188.3659512283
 30
0.0
 40
0.2000000000000052
100
AcDbArc
 50
181.4391666667
 51
271.4391666667
  0
LINE
  5
88
330
1F
100
AcDbEntity
  8
0
  6
Continuous
 62
     7
370
    15
100
AcDbLine
 10
55.3534204452
 20
145.1824659363
 30
0.0
 11
55.3534204452
 21
160.2865187651
 31
0.0
  0
LINE
  5
89
330
1F
100
AcDbEntity
  8
0
  6
Continuous
 62
     7
370
    15
100
AcDbLine
 10
89.6534204452
 20
144.320730548
 30
0.0
 11
89.6534204452
 21
159.8556510709
 31
0.0
  0
LINE
  5
8A
330
1F
100
AcDbEntity
  8
0
  6
Continuous
 62
     7
370
    15
100
AcDbLine
 10
55.3534204452
 20
145.1824659363
 30
0.0
 11
89.6534204452
 21
144.320730548
 31
0.0
  0
ARC
  5
8B
330
1F
100
AcDbEntity
  8
0
  6
Continuous
 62
     7
370
    15
100
AcDbCircle
 10
89.8533573562
 20
144.3157074369
 30
0.0
 40
0.2000000000000343
100
AcDbArc
 50
88.5608333333
 51
178.5608333333
  0
LINE
  5
8C
330
1F
100
AcDbEntity
  8
0
  6
Continuous
 62
     7
370
    15
100
AcDbLine
 10
89.8583804673
 20
188.1660143174
 30
0.0
 11
91.0369081588
 21
188.1956230351
 31
0.0
  0
LINE
  5
8D
330
1F
100
AcDbEntity
  8
0
  6
Continuous
 62
     7
370
    15
100
AcDbLine
 10
89.8583804673
 20
144.5156443479
 30
0.0
 11
91.0369081588
 21
144.4860356301
 31
0.0
  0
LINE
  5
8E
330
1F
100
AcDbEntity
  8
0
  6
Continuous
 62
     7
370
    15
100
AcDbLine
 10
53.8534204452
 20
146.0484913401
 30
0.0
 11
55.3534204452
 21
145.1824659363
 31
0.0
  0
LINE
  5
8F
330
1F
100
AcDbEntity
  8
0
  6
Continuous
 62
     7
370
    15
100
AcDbLine
 10
53.8534204452
 20
146.0484913401
 30
0.0
 11
53.8534204452
 21
160.719531467
 31
0.0
  0
LINE
  5
90
330
1F
100
AcDbEntity
  8
0
  6
Continuous
 62
     7
370
    15
100
AcDbLine
 10
53.8534204452
 20
186.6331673251
 30
0.0
 11
55.3534204452
 21
187.4991927289
 31
0.0
  0
LINE
  5
91
330
1F
100
AcDbEntity
  8
0
  6
Continuous
 62
     7
370
    15
100
AcDbLine
 10
53.8534204452
 20
171.9621271983
 30
0.0
 11
53.8534204452
 21
186.6331673251
 31
0.0
  0
LINE
  5
92
330
1F
100
AcDbEntity
  8
0
  6
Continuous
 62
     7
370
    15
100
AcDbLine
 10
223.4573823731
 20
182.1681392386
 30
0.0
 11
225.4392068828
 21
182.1681392386
 31
0.0
  0
SPLINE
  5
93
330
1F
100
AcDbEntity
  8
0
  6
Continuous
 62
     7
370
    15
100
AcDbSpline
210
0.0
220
0.0
230
1.0
 70
     8
 71
     3
 72
    14
 73
    10
 74
     0
 42
0.00000001
 43
0.00000001
 12
1.0
 22
0.0
 32
0.0
 13
1.0
 23
0.0
 33
0.0
 40
0.0
 40
0.0
 40
0.0
 40
0.0
 40
0.2499999999999999
 40
0.2499999999999999
 40
0.4999999999999999
 40
0.4999999999999999
 40
0.7499999999999999
 40
0.7499999999999999
 40
1.0
 40
1.0
 40
1.0
 40
1.0
 10
217.6618274153557
 20
180.86526147203
 30
0.0
 10
217.8245135305094
 20
181.1376890040828
 30
0.0
 10
218.0806834556771
 20
181.3568145577175
 30
0.0
 10
218.7990152965085
 20
181.7112394738947
 30
0.0
 10
219.2409819504947
 20
181.8370403508721
 30
0.0
 10
220.2915393401437
 20
182.0238209866635
 30
0.0
 10
220.8729944912317
 20
182.0803474040059
 30
0.0
 10
222.1369123853696
 20
182.1532289428238
 30
0.0
 10
222.7877176742283
 20
182.1681392386026
 30
0.0
 10
223.4573823730901
 20
182.1681392386026
 30
0.0
  0
ELLIPSE
  5
94
330
1F
100
AcDbEntity
  8
0
  6
Continuous
 62
     7
370
    15
100
AcDbEllipse
 10
219.1842418852
 20
166.3408293326
 30
0.0
 11
0.3220561513868745
 21
15.99976859320066
 31
0.0
210
0.0
220
0.0
230
1.0
 40
0.2671959542
 41
0.4382210567923945
 42
2.853754501398436
  0
SPLINE
  5
95
330
1F
100
AcDbEntity
  8
0
  6
Continuous
 62
     7
370
    15
100
AcDbSpline
210
0.0
220
0.0
230
1.0
 70
     8
 71
     3
 72
    14
 73
    10
 74
     0
 42
0.00000001
 43
0.00000001
 12
1.0
 22
0.0
 32
0.0
 13
1.0
 23
0.0
 33
0.0
 40
0.0
 40
0.0
 40
0.0
 40
0.0
 40
0.25
 40
0.25
 40
0.5
 40
0.5
 40
0.75
 40
0.75
 40
1.0
 40
1.0
 40
1.0
 40
1.0
 10
223.4573823730901
 20
150.3412708231803
 30
0.0
 10
222.7877224590629
 20
150.3412708231803
 30
0.0
 10
222.1366205261479
 20
150.3409600216883
 30
0.0
 10
220.8716091570649
 20
150.3531837108393
 30
0.0
 10
220.2917263514782
 20
150.3656373582298
 30
0.0
 10
219.2418052231397
 20
150.437969158777
 30
0.0
 10
218.799274556267
 20
150.4965105585037
 30
0.0
 10
218.0815327667893
 20
150.6977954987512
 30
0.0
 10
217.8245169866593
 20
150.8359967151667
 30
0.0
 10
217.6618274153557
 20
151.0237225519136
 30
0.0
  0
LINE
  5
96
330
1F
100
AcDbEntity
  8
0
  6
Continuous
 62
     7
370
    15
100
AcDbLine
 10
225.4392068828
 20
150.3412708232
 30
0.0
 11
223.4573823731
 21
150.3412708232
 31
0.0
  0
ELLIPSE
  5
97
330
1F
100
AcDbEntity
  8
0
  6
Continuous
 62
     7
370
    15
100
AcDbEllipse
 10
216.6483619571
 20
159.8696009293
 30
0.0
 11
-0.08858572008304577
 21
2.327551996844733
 31
0.0
210
0.0
220
0.0
230
1.0
 40
0.2575917467
 41
0.0
 42
6.283185307179586
  0
SPLINE
  5
98
330
1F
100
AcDbEntity
  8
0
  6
Continuous
 62
     7
370
    15
100
AcDbSpline
210
0.0
220
0.0
230
1.0
 70
     8
 71
     3
 72
    10
 73
     6
 74
     0
 42
0.00000001
 43
0.00000001
 12
1.0
 22
0.0
 32
0.0
 13
1.0
 23
0.0
 33
0.0
 40
0.0
 40
0.0
 40
0.0
 40
0.0
 40
0.5
 40
0.5
 40
1.0
 40
1.0
 40
1.0
 40
1.0
 10
226.1463136640298
 20
150.0482330637356
 30
0.0
 10
226.0530687043643
 20
150.1415191072553
 30
0.0
 10
225.94317265481
 20
150.2148007084152
 30
0.0
 10
225.7012090653211
 20
150.3151696094947
 30
0.0
 10
225.5712759922129
 20
150.3412708231805
 30
0.0
 10
225.4392068828433
 20
150.3412708231805
 30
0.0
  0
SPLINE
  5
99
330
1F
100
AcDbEntity
  8
0
  6
Continuous
 62
     7
370
    15
100
AcDbSpline
210
0.0
220
0.0
230
1.0
 70
     8
 71
     3
 72
    10
 73
     6
 74
     0
 42
0.00000001
 43
0.00000001
 12
1.0
 22
0.0
 32
0.0
 13
1.0
 23
0.0
 33
0.0
 40
0.0
 40
0.0
 40
0.0
 40
0.0
 40
0.5
 40
0.5
 40
1.0
 40
1.0
 40
1.0
 40
1.0
 10
225.4392068828433
 20
182.1681392386026
 30
0.0
 10
225.5712693735308
 20
182.1681392386026
 30
0.0
 10
225.7008677981419
 20
182.1941495418423
 30
0.0
 10
225.942855015147
 20
182.2944270804476
 30
0.0
 10
226.0530675465737
 20
182.3678897962263
 30
0.0
 10
226.1463136640301
 20
182.461176998047
 30
0.0
  0
LINE
  5
9A
330
1F
100
AcDbEntity
  8
0
  6
Continuous
 62
     7
370
    15
100
AcDbLine
 10
226.146313664
 20
182.461176998
 30
0.0
 11
226.3534204452
 21
182.6683675211
 31
0.0
  0
LINE
  5
9B
330
1F
100
AcDbEntity
  8
0
  6
Continuous
 62
     7
370
    15
100
AcDbLine
 10
226.3534204452
 20
182.6683675211
 30
0.0
 11
233.3678349441
 21
182.6683675211
 31
0.0
  0
LINE
  5
9C
330
1F
100
AcDbEntity
  8
0
  6
Continuous
 62
     7
370
    15
100
AcDbLine
 10
233.3678349441
 20
182.6683675211
 30
0.0
 11
250.3512415449
 21
158.4726327548
 31
0.0
  0
LINE
  5
9D
330
1F
100
AcDbEntity
  8
0
  6
Continuous
 62
     7
370
    15
100
AcDbLine
 10
250.3512415449
 20
158.4726327548
 30
0.0
 11
250.467994486
 21
157.1413912878
 31
0.0
  0
ARC
  5
9E
330
1F
100
AcDbEntity
  8
0
  6
Continuous
 62
     7
370
    15
100
AcDbCircle
 10
239.1883990184
 20
156.9980930182
 30
0.0
 40
2.097665590294303
100
AcDbArc
 50
26.9264172218
 51
241.6811707873
  0
ELLIPSE
  5
9F
330
1F
100
AcDbEntity
  8
0
  6
Continuous
 62
     7
370
    15
100
AcDbEllipse
 10
260.8686005385
 20
162.9421716972
 30
0.0
 11
3113.331223476319
 21
-271.0557416021262
 31
0.0
210
0.0
220
0.0
230
1.0
 40
0.0060650906
 41
4.702857618506777
 42
4.705909117463257
  0
SPLINE
  5
A0
330
1F
100
AcDbEntity
  8
0
  6
Continuous
 62
     7
370
    15
100
AcDbSpline
210
0.0
220
0.0
230
1.0
 70
     8
 71
     3
 72
     8
 73
     4
 74
     0
 42
0.00000001
 43
0.00000001
 12
1.0
 22
0.0
 32
0.0
 13
1.0
 23
0.0
 33
0.0
 40
0.0
 40
0.0
 40
0.0
 40
0.0
 40
1.0
 40
1.0
 40
1.0
 40
1.0
 10
229.5508603490286
 20
146.6438847411943
 30
0.0
 10
228.4157769552687
 20
147.7784340457758
 30
0.0
 10
227.280878930742
 20
148.9131679060473
 30
0.0
 10
226.1463136640298
 20
150.0482330637356
 30
0.0
  0
ELLIPSE
  5
A1
330
1F
100
AcDbEntity
  8
0
  6
Continuous
 62
     7
370
    15
100
AcDbEllipse
 10
244.7038064537
 20
166.3408293326
 30
0.0
 11
-11.76369068746817
 21
16.48124712370796
 31
0.0
210
0.0
220
0.0
230
1.0
 40
0.0668534593
 41
6.090794017965145
 42
6.235504004580413
  0
LINE
  5
A2
330
1F
100
AcDbEntity
  8
0
  6
Continuous
 62
     7
370
    15
100
AcDbLine
 10
226.3534204452
 20
182.8408293326
 30
0.0
 11
226.3534204452
 21
182.6683675211
 31
0.0
  0
ARC
  5
A3
330
1F
100
AcDbEntity
  8
0
  6
Continuous
 62
     7
370
    15
100
AcDbCircle
 10
239.1822291383
 20
157.33278383
 30
0.0
 40
2.09460277711506
100
AcDbArc
 50
184.6213824943
 51
240.8661313932
  0
CIRCLE
  5
A4
330
1F
100
AcDbEntity
  8
0
  6
Continuous
 62
     7
370
    15
100
AcDbCircle
 10
244.8589823342
 20
151.3601271029
 30
0.0
 40
3.494029506979977
  0
CIRCLE
  5
A5
330
1F
100
AcDbEntity
  8
0
  6
Continuous
 62
     7
370
    15
100
AcDbCircle
 10
244.8575297015
 20
151.3251651922
 30
0.0
 40
2.629459796464539
  0
CIRCLE
  5
A6
330
1F
100
AcDbEntity
  8
0
  6
Continuous
 62
     7
370
    15
100
AcDbCircle
 10
244.8567432102
 20
151.325023357
 30
0.0
 40
1.996276054108096
  0
SPLINE
  5
A7
330
1F
100
AcDbEntity
  8
0
  6
Continuous
 62
     7
370
    15
100
AcDbSpline
210
0.0
220
0.0
230
1.0
 70
     8
 71
     3
 72
    23
 73
    19
 74
     0
 42
0.00000001
 43
0.00000001
 12
1.0
 22
0.0
 32
0.0
 13
1.0
 23
0.0
 33
0.0
 40
0.0
 40
0.0
 40
0.0
 40
0.0
 40
0.0622380365739616
 40
0.1262427985727619
 40
0.1888841417535539
 40
0.2533713644384638
 40
0.3154877530924219
 40
0.3794398619493386
 40
0.4409678503654746
 40
0.5042994652700902
 40
0.5655044719036613
 40
0.6284849097756093
 40
0.689698807642175
 40
0.7526700378671172
 40
0.8142179657123612
 40
0.877518680703817
 40
0.9379502666014244
 40
1.0
 40
1.0
 40
1.0
 40
1.0
 10
245.1937856418063
 20
152.9995068349137
 30
0.0
 10
245.1872369953977
 20
153.0199845534197
 30
0.0
 10
245.1739538088609
 20
153.0615212829646
 30
0.0
 10
245.141010809564
 20
153.1186059463249
 30
0.0
 10
245.0989639069381
 20
153.1704165068611
 30
0.0
 10
245.0488069672503
 20
153.2140618961808
 30
0.0
 10
244.9914782405549
 20
153.2490285179241
 30
0.0
 10
244.9298336257391
 20
153.2736125027138
 30
0.0
 10
244.8644283115948
 20
153.287720594736
 30
0.0
 10
244.7984616183456
 20
153.2907804900146
 30
0.0
 10
244.7324219476591
 20
153.282865506936
 30
0.0
 10
244.6693665620599
 20
153.2644235207172
 30
0.0
 10
244.6098135566448
 20
153.2356605028805
 30
0.0
 10
244.5564094715071
 20
153.1978733019558
 30
0.0
 10
244.5096338766862
 20
153.1514557208366
 30
0.0
 10
244.4721127307523
 20
153.0988033490108
 30
0.0
 10
244.4431234989368
 20
153.0409152782703
 30
0.0
 10
244.4324293508288
 20
152.9999901909741
 30
0.0
 10
244.4270116345367
 20
152.9792573088445
 30
0.0
  0
SPLINE
  5
A8
330
1F
100
AcDbEntity
  8
0
  6
Continuous
 62
     7
370
    15
100
AcDbSpline
210
0.0
220
0.0
230
1.0
 70
     8
 71
     3
 72
    17
 73
    13
 74
     0
 42
0.00000001
 43
0.00000001
 12
1.0
 22
0.0
 32
0.0
 13
1.0
 23
0.0
 33
0.0
 40
0.0
 40
0.0
 40
0.0
 40
0.0
 40
0.1015021851812612
 40
0.2058851588162825
 40
0.3074937179050953
 40
0.4121649835731307
 40
0.5117335401582671
 40
0.6142795520905782
 40
0.7124580058479926
 40
0.8133988273150632
 40
0.9056223946750006
 40
1.0
 40
1.0
 40
1.0
 40
1.0
 10
244.4270116345367
 20
152.9792573088445
 30
0.0
 10
244.4175593049023
 20
152.9430797611768
 30
0.0
 10
244.3983863739503
 20
152.8696978912805
 30
0.0
 10
244.3466806596919
 20
152.7674210631154
 30
0.0
 10
244.2787886789694
 20
152.6732911840193
 30
0.0
 10
244.1965304665843
 20
152.5926730443989
 30
0.0
 10
244.1015718719887
 20
152.5262239556945
 30
0.0
 10
243.9990706916342
 20
152.4770652012515
 30
0.0
 10
243.8896843849582
 20
152.4448445659915
 30
0.0
 10
243.7808600329317
 20
152.4312889335284
 30
0.0
 10
243.672901667881
 20
152.4335385648684
 30
0.0
 10
243.6050063221973
 20
152.4480682474768
 30
0.0
 10
243.5706667730608
 20
152.455416950762
 30
0.0
  0
SPLINE
  5
A9
330
1F
100
AcDbEntity
  8
0
  6
Continuous
 62
     7
370
    15
100
AcDbSpline
210
0.0
220
0.0
230
1.0
 70
     8
 71
     3
 72
    33
 73
    29
 74
     0
 42
0.00000001
 43
0.00000001
 12
1.0
 22
0.0
 32
0.0
 13
1.0
 23
0.0
 33
0.0
 40
0.0
 40
0.0
 40
0.0
 40
0.0
 40
0.0311735145349072
 40
0.0625601683817392
 40
0.0946218433101983
 40
0.1269181748236241
 40
0.1581394978147384
 40
0.1895799066159744
 40
0.2217151557218535
 40
0.25409216368835
 40
0.2850514985921452
 40
0.3480402921215749
 40
0.3801487768199808
 40
0.4108152430517638
 40
0.4732006444638969
 40
0.5049958830708936
 40
0.535501891510677
 40
0.5975511071700496
 40
0.6291679348980781
 40
0.659678897485433
 40
0.7217285050117446
 40
0.7533387002686376
 40
0.7840165688264256
 40
0.8463980355217933
 40
0.8781721310855819
 40
0.9081467141968984
 40
0.9690291809638866
 40
1.0
 40
1.0
 40
1.0
 40
1.0
 10
243.5706667730608
 20
152.455416950762
 30
0.0
 10
243.5600948490217
 20
152.4579016412933
 30
0.0
 10
243.5388787186664
 20
152.462888010663
 30
0.0
 10
243.5060556244885
 20
152.4670491936775
 30
0.0
 10
243.4725805428768
 20
152.4686601522613
 30
0.0
 10
243.4390704701531
 20
152.4673695387442
 30
0.0
 10
243.4059499722983
 20
152.4633087263877
 30
0.0
 10
243.3732799360562
 20
152.4565195562271
 30
0.0
 10
243.3408576342995
 20
152.4468834399721
 30
0.0
 10
243.3094898736985
 20
152.4345624656082
 30
0.0
 10
243.2694752851184
 20
152.414834702672
 30
0.0
 10
243.2320829598198
 20
152.3901925532268
 30
0.0
 10
243.1983272839168
 20
152.3612165226119
 30
0.0
 10
243.1672575885259
 20
152.3296855962427
 30
0.0
 10
243.1402916492786
 20
152.2944832594721
 30
0.0
 10
243.1181281209393
 20
152.256430878632
 30
0.0
 10
243.0992814354334
 20
152.21681253039
 30
0.0
 10
243.0854840268172
 20
152.1750929243615
 30
0.0
 10
243.0771101669068
 20
152.1322495468447
 30
0.0
 10
243.0723535729938
 20
152.0889223522
 30
0.0
 10
243.0730526917105
 20
152.0452379924357
 30
0.0
 10
243.0792382620666
 20
152.0022315733205
 30
0.0
 10
243.089026251104
 20
151.9598491518798
 30
0.0
 10
243.1041344656653
 20
151.9188838366821
 30
0.0
 10
243.1240746032334
 20
151.8806211758271
 30
0.0
 10
243.1468618861918
 20
151.8446773919738
 30
0.0
 10
243.1735677399791
 20
151.8116485283975
 30
0.0
 10
243.1969741356828
 20
151.7901130929521
 30
0.0
 10
243.2048662349069
 20
151.7828518385701
 30
0.0
  0
SPLINE
  5
AA
330
1F
100
AcDbEntity
  8
0
  6
Continuous
 62
     7
370
    15
100
AcDbSpline
210
0.0
220
0.0
230
1.0
 70
     8
 71
     3
 72
    12
 73
     8
 74
     0
 42
0.00000001
 43
0.00000001
 12
1.0
 22
0.0
 32
0.0
 13
1.0
 23
0.0
 33
0.0
 40
0.0
 40
0.0
 40
0.0
 40
0.0
 40
0.2057949882088507
 40
0.4120010155283154
 40
0.6140549927929817
 40
0.8131810826683739
 40
1.0
 40
1.0
 40
1.0
 40
1.0
 10
243.204866234907
 20
151.7828518385701
 30
0.0
 10
243.2571929188931
 20
151.7271619462009
 30
0.0
 10
243.3619508001668
 20
151.615670930747
 30
0.0
 10
243.437555274671
 20
151.3930459808781
 30
0.0
 10
243.4386668932955
 20
151.1626392951082
 30
0.0
 10
243.3697134429469
 20
150.9465236321113
 30
0.0
 10
243.2765546867707
 20
150.8350586742428
 30
0.0
 10
243.2314606509785
 20
150.7811034154351
 30
0.0
  0
SPLINE
  5
AB
330
1F
100
AcDbEntity
  8
0
  6
Continuous
 62
     7
370
    15
100
AcDbSpline
210
0.0
220
0.0
230
1.0
 70
     8
 71
     3
 72
    23
 73
    19
 74
     0
 42
0.00000001
 43
0.00000001
 12
1.0
 22
0.0
 32
0.0
 13
1.0
 23
0.0
 33
0.0
 40
0.0
 40
0.0
 40
0.0
 40
0.0
 40
0.06250652241352
 40
0.1268032294229482
 40
0.1894476925803971
 40
0.2539381432714509
 40
0.3160572949800158
 40
0.3800123143128961
 40
0.4415418845482729
 40
0.5048752096398128
 40
0.5660803612052534
 40
0.6290610219317971
 40
0.6902737759324906
 40
0.753243879922118
 40
0.8147897755422203
 40
0.8780884206729147
 40
0.9382463322173429
 40
1.0
 40
1.0
 40
1.0
 40
1.0
 10
243.2314606509785
 20
150.7811034154351
 30
0.0
 10
243.2166936788275
 20
150.764781655629
 30
0.0
 10
243.1867368089643
 20
150.7316706813919
 30
0.0
 10
243.1530660526486
 20
150.6735055311725
 30
0.0
 10
243.1286775933582
 20
150.6102965379044
 30
0.0
 10
243.1155577547316
 20
150.5444188692437
 30
0.0
 10
243.1136441568252
 20
150.4768440230863
 30
0.0
 10
243.1229947940246
 20
150.4109120139581
 30
0.0
 10
243.1434098553503
 20
150.3471449116132
 30
0.0
 10
243.1737853575504
 20
150.28859847084
 30
0.0
 10
243.2138117125267
 20
150.2356551985256
 30
0.0
 10
243.2615647442487
 20
150.1907255342889
 30
0.0
 10
243.3166065222182
 20
150.1541534482301
 30
0.0
 10
243.376477363903
 20
150.1275598795932
 30
0.0
 10
243.4405959586629
 20
150.111162133272
 30
0.0
 10
243.5054579329199
 20
150.106005641094
 30
0.0
 10
243.5705407027091
 20
150.1109038645143
 30
0.0
 10
243.6116237294776
 20
150.1227747289985
 30
0.0
 10
243.6324341200949
 20
150.128787852819
 30
0.0
  0
SPLINE
  5
AC
330
1F
100
AcDbEntity
  8
0
  6
Continuous
 62
     7
370
    15
100
AcDbSpline
210
0.0
220
0.0
230
1.0
 70
     8
 71
     3
 72
    12
 73
     8
 74
     0
 42
0.00000001
 43
0.00000001
 12
1.0
 22
0.0
 32
0.0
 13
1.0
 23
0.0
 33
0.0
 40
0.0
 40
0.0
 40
0.0
 40
0.0
 40
0.2058497400954079
 40
0.4120524486337568
 40
0.6141081262895323
 40
0.8132431903673826
 40
1.0
 40
1.0
 40
1.0
 40
1.0
 10
243.6324341200949
 20
150.128787852819
 30
0.0
 10
243.7076600395883
 20
150.146551667896
 30
0.0
 10
243.8582408676895
 20
150.1821097574819
 30
0.0
 10
244.0904438424106
 20
150.1367288374882
 30
0.0
 10
244.2909293826816
 20
150.0224177234977
 30
0.0
 10
244.4428569933798
 20
149.8541085592081
 30
0.0
 10
244.4917237627092
 20
149.717158414981
 30
0.0
 10
244.5153733976426
 20
149.6508798178997
 30
0.0
  0
SPLINE
  5
AD
330
1F
100
AcDbEntity
  8
0
  6
Continuous
 62
     7
370
    15
100
AcDbSpline
210
0.0
220
0.0
230
1.0
 70
     8
 71
     3
 72
    15
 73
    11
 74
     0
 42
0.00000001
 43
0.00000001
 12
1.0
 22
0.0
 32
0.0
 13
1.0
 23
0.0
 33
0.0
 40
0.0
 40
0.0
 40
0.0
 40
0.0
 40
0.1262564375372533
 40
0.2533820972842713
 40
0.3794454811305196
 40
0.504300237903687
 40
0.6284814530464043
 40
0.7526634908999204
 40
0.8775104621122145
 40
1.0
 40
1.0
 40
1.0
 40
1.0
 10
244.5153733976426
 20
149.6508798178997
 30
0.0
 10
244.5307898310335
 20
149.6089323504088
 30
0.0
 10
244.5617288334432
 20
149.5247486248424
 30
0.0
 10
244.6577666180362
 20
149.426801092158
 30
0.0
 10
244.7779206781405
 20
149.3651190356752
 30
0.0
 10
244.9114490246895
 20
149.3475618714452
 30
0.0
 10
245.0425833944723
 20
149.3749867306015
 30
0.0
 10
245.1564865148023
 20
149.4442001388425
 30
0.0
 10
245.2438818995402
 20
149.5460057373729
 30
0.0
 10
245.2694735434896
 20
149.6296873550284
 30
0.0
 10
245.2821474049124
 20
149.6711293674252
 30
0.0
  0
SPLINE
  5
AE
330
1F
100
AcDbEntity
  8
0
  6
Continuous
 62
     7
370
    15
100
AcDbSpline
210
0.0
220
0.0
230
1.0
 70
     8
 71
     3
 72
    12
 73
     8
 74
     0
 42
0.00000001
 43
0.00000001
 12
1.0
 22
0.0
 32
0.0
 13
1.0
 23
0.0
 33
0.0
 40
0.0
 40
0.0
 40
0.0
 40
0.0
 40
0.2058713741444319
 40
0.4120924153880436
 40
0.6141683533434822
 40
0.8133068872803682
 40
1.0
 40
1.0
 40
1.0
 40
1.0
 10
245.2821474049124
 20
149.6711293674252
 30
0.0
 10
245.305036290737
 20
149.7454071236843
 30
0.0
 10
245.3508529385551
 20
149.8940887950125
 30
0.0
 10
245.5074841640878
 20
150.0726550993874
 30
0.0
 10
245.7068996158451
 20
150.188652817938
 30
0.0
 10
245.9277899049225
 20
150.2350508630336
 30
0.0
 10
246.0697848802441
 20
150.2080396796077
 30
0.0
 10
246.1384922663879
 20
150.1949697255079
 30
0.0
  0
SPLINE
  5
AF
330
1F
100
AcDbEntity
  8
0
  6
Continuous
 62
     7
370
    15
100
AcDbSpline
210
0.0
220
0.0
230
1.0
 70
     8
 71
     3
 72
    23
 73
    19
 74
     0
 42
0.00000001
 43
0.00000001
 12
1.0
 22
0.0
 32
0.0
 13
1.0
 23
0.0
 33
0.0
 40
0.0
 40
0.0
 40
0.0
 40
0.0
 40
0.062538490697447
 40
0.1268703322469763
 40
0.1895089567158091
 40
0.2539934004621853
 40
0.3161067687093311
 40
0.3800557579599471
 40
0.4415809685727797
 40
0.5049096679480926
 40
0.566112932344891
 40
0.6290914837167425
 40
0.6903053232553394
 40
0.7532763836342911
 40
0.8148262267671366
 40
0.8781288171897921
 40
0.9382674905200168
 40
1.0
 40
1.0
 40
1.0
 40
1.0
 10
246.1384922663879
 20
150.1949697255079
 30
0.0
 10
246.1598520691056
 20
150.190017122969
 30
0.0
 10
246.2031841872507
 20
150.1799698972909
 30
0.0
 10
246.2699887012622
 20
150.1790221433606
 30
0.0
 10
246.3365752846321
 20
150.1887248545814
 30
0.0
 10
246.3999124390287
 20
150.2096386035586
 30
0.0
 10
246.4592007030009
 20
150.241222741043
 30
0.0
 10
246.5115243673875
 20
150.2818775276442
 30
0.0
 10
246.5565279869282
 20
150.331165452225
 30
0.0
 10
246.5921157284719
 20
150.3866122880926
 30
0.0
 10
246.6181088556279
 20
150.447757271121
 30
0.0
 10
246.6333749715618
 20
150.5117298635944
 30
0.0
 10
246.6378341754792
 20
150.5779796389466
 30
0.0
 10
246.6313013321762
 20
150.643559142408
 30
0.0
 10
246.613878676925
 20
150.7078575171338
 30
0.0
 10
246.5863977247242
 20
150.7672888226849
 30
0.0
 10
246.5501476040787
 20
150.8219834615471
 30
0.0
 10
246.5197104239362
 20
150.8522192218548
 30
0.0
 10
246.504292804542
 20
150.8675348142433
 30
0.0
  0
SPLINE
  5
B0
330
1F
100
AcDbEntity
  8
0
  6
Continuous
 62
     7
370
    15
100
AcDbSpline
210
0.0
220
0.0
230
1.0
 70
     8
 71
     3
 72
    12
 73
     8
 74
     0
 42
0.00000001
 43
0.00000001
 12
1.0
 22
0.0
 32
0.0
 13
1.0
 23
0.0
 33
0.0
 40
0.0
 40
0.0
 40
0.0
 40
0.0
 40
0.2058321750921928
 40
0.4120750343577625
 40
0.6141697879284735
 40
0.8133029339857109
 40
1.0
 40
1.0
 40
1.0
 40
1.0
 10
246.504292804542
 20
150.8675348142433
 30
0.0
 10
246.4519595033339
 20
150.9248356205037
 30
0.0
 10
246.3471884835273
 20
151.0395515617694
 30
0.0
 10
246.2715886697485
 20
151.2647900562918
 30
0.0
 10
246.2705037909634
 20
151.4950402215448
 30
0.0
 10
246.3394895401031
 20
151.7084066316478
 30
0.0
 10
246.4326294677829
 20
151.8168225022201
 30
0.0
 10
246.4776983884702
 20
151.8692832072452
 30
0.0
  0
SPLINE
  5
B1
330
1F
100
AcDbEntity
  8
0
  6
Continuous
 62
     7
370
    15
100
AcDbSpline
210
0.0
220
0.0
230
1.0
 70
     8
 71
     3
 72
    23
 73
    19
 74
     0
 42
0.00000001
 43
0.00000001
 12
1.0
 22
0.0
 32
0.0
 13
1.0
 23
0.0
 33
0.0
 40
0.0
 40
0.0
 40
0.0
 40
0.0
 40
0.0624988066046724
 40
0.1267875659926247
 40
0.1894243117292763
 40
0.2539068068158779
 40
0.3160185992639084
 40
0.3799659197983716
 40
0.4414903780362706
 40
0.5048182513710336
 40
0.566021661016545
 40
0.6290003214447742
 40
0.6902150064542593
 40
0.7531869152439761
 40
0.814737973880243
 40
0.8780418128574907
 40
0.938222304307519
 40
1.0
 40
1.0
 40
1.0
 40
1.0
 10
246.4776983884702
 20
151.8692832072452
 30
0.0
 10
246.492464228245
 20
151.8851317786463
 30
0.0
 10
246.5224187983653
 20
151.9172828212271
 30
0.0
 10
246.5560882072512
 20
151.9741750726593
 30
0.0
 10
246.5804768453432
 20
152.0362505127481
 30
0.0
 10
246.5935986423924
 20
152.1011884202932
 30
0.0
 10
246.5955160471922
 20
152.1680136093923
 30
0.0
 10
246.5861709956202
 20
152.2334144180988
 30
0.0
 10
246.5657631062478
 20
152.296863625777
 30
0.0
 10
246.5353952933542
 20
152.3553158118549
 30
0.0
 10
246.4953769816977
 20
152.4083851986221
 30
0.0
 10
246.4476305871792
 20
152.4536564774692
 30
0.0
 10
246.3925943419186
 20
152.4907851747518
 30
0.0
 10
246.3327261775247
 20
152.5181325549322
 30
0.0
 10
246.2686082216385
 20
152.5354815452498
 30
0.0
 10
246.2037384264952
 20
152.5417483912039
 30
0.0
 10
246.1386398879532
 20
152.538100446894
 30
0.0
 10
246.097542649837
 20
152.5271471448789
 30
0.0
 10
246.0767249193538
 20
152.5215987698614
 30
0.0
  0
SPLINE
  5
B2
330
1F
100
AcDbEntity
  8
0
  6
Continuous
 62
     7
370
    15
100
AcDbSpline
210
0.0
220
0.0
230
1.0
 70
     8
 71
     3
 72
    12
 73
     8
 74
     0
 42
0.00000001
 43
0.00000001
 12
1.0
 22
0.0
 32
0.0
 13
1.0
 23
0.0
 33
0.0
 40
0.0
 40
0.0
 40
0.0
 40
0.0
 40
0.2058903596434769
 40
0.4121336430766037
 40
0.6142239121175171
 40
0.8133482777365894
 40
1.0
 40
1.0
 40
1.0
 40
1.0
 10
246.0767249193538
 20
152.5215987698614
 30
0.0
 10
246.0014872262305
 20
152.5054360396221
 30
0.0
 10
245.8508828724507
 20
152.4730828740483
 30
0.0
 10
245.6186493476479
 20
152.5210637441789
 30
0.0
 10
245.418153173214
 20
152.6352229323277
 30
0.0
 10
245.2662671953783
 20
152.8008202805245
 30
0.0
 10
245.2174197255576
 20
152.9347210454919
 30
0.0
 10
245.1937856418063
 20
152.9995068349137
 30
0.0
  0
LWPOLYLINE
  5
B3
330
1F
100
AcDbEntity
  8
0
  6
Continuous
 62
     7
370
    15
100
AcDbPolyline
 90
        3
 70
   128
 43
0.0
 10
246.5901392169
 20
152.2066926777
 10
246.5542376754
 20
152.090811498
 10
246.4776983885
 20
151.9843387645
  0
ARC
  5
B4
330
1F
100
AcDbEntity
  8
0
  6
Continuous
 62
     7
370
    15
100
AcDbCircle
 10
243.4657358071
 20
152.1913261557
 30
0.0
 40
0.3926420659628791
100
AcDbArc
 50
186.6599038298
 51
228.3640431757
  0
ARC
  5
B5
330
1F
100
AcDbEntity
  8
0
  6
Continuous
 62
     7
370
    15
100
AcDbCircle
 10
246.9606890913
 20
151.495807326
 30
0.0
 40
0.6869810662739702
100
AcDbArc
 50
134.6732371703
 51
179.9881618795
  0
ARC
  5
B6
330
1F
100
AcDbEntity
  8
0
  6
Continuous
 62
     7
370
    15
100
AcDbCircle
 10
242.748392161
 20
151.3843737553
 30
0.0
 40
0.687058857006029
100
AcDbArc
 50
0.0132197031
 51
48.3645622673
  0
ARC
  5
B7
330
1F
100
AcDbEntity
  8
0
  6
Continuous
 62
     7
370
    15
100
AcDbCircle
 10
246.2423011223
 20
150.6899348899
 30
0.0
 40
0.3938115076682452
100
AcDbArc
 50
254.7161973502
 51
354.329190995
  0
ARC
  5
B8
330
1F
100
AcDbEntity
  8
0
  6
Continuous
 62
     7
370
    15
100
AcDbCircle
 10
243.5087036395
 20
150.6177748593
 30
0.0
 40
0.3938704870291461
100
AcDbArc
 50
185.6756058455
 51
288.3089050775
  0
ARC
  5
B9
330
1F
100
AcDbEntity
  8
0
  6
Continuous
 62
     7
370
    15
100
AcDbCircle
 10
245.9570316601
 20
149.6448208731
 30
0.0
 40
0.6895360957956655
100
AcDbArc
 50
74.7421546755
 51
168.1674797951
  0
ARC
  5
BA
330
1F
100
AcDbEntity
  8
0
  6
Continuous
 62
     7
370
    15
100
AcDbCircle
 10
243.8487638816
 20
149.5889347023
 30
0.0
 40
0.6897129701925322
100
AcDbArc
 50
14.8717374618
 51
108.2794474723
  0
ARC
  5
BB
330
1F
100
AcDbEntity
  8
0
  6
Continuous
 62
     7
370
    15
100
AcDbCircle
 10
244.8963548667
 20
149.8671347032
 30
0.0
 40
0.3941883688611511
100
AcDbArc
 50
194.8732623077
 51
348.1534626333
  0
ARC
  5
BC
330
1F
100
AcDbEntity
  8
0
  6
Continuous
 62
     7
370
    15
100
AcDbCircle
 10
244.8530432395
 20
151.3670928938
 30
0.0
 40
3.500004957036001
100
AcDbArc
 50
0.0964304933
 51
179.9035695067
  0
LINE
  5
BD
330
1F
100
AcDbEntity
  8
0
  6
Continuous
 62
     7
370
    15
100
AcDbLine
 10
251.8518983245
 20
144.774632327
 30
0.0
 11
250.7987452237
 21
156.7829043746
 31
0.0
  0
ARC
  5
BE
330
1F
100
AcDbEntity
  8
0
  6
Continuous
 62
     7
370
    15
100
AcDbCircle
 10
251.4538627804
 20
144.7402983681
 30
0.0
 40
0.3995135980497468
100
AcDbArc
 50
264.9302140243
 51
4.9300462062
  0
LINE
  5
BF
330
1F
100
AcDbEntity
  8
0
  6
Continuous
 62
     7
370
    15
100
AcDbLine
 10
239.3809631241
 20
145.3929354183
 30
0.0
 11
251.4185581481
 21
144.3423477456
 31
0.0
  0
ARC
  5
C0
330
1F
100
AcDbEntity
  8
0
  6
Continuous
 62
     7
370
    15
100
AcDbCircle
 10
239.4152982666
 20
145.7909710673
 30
0.0
 40
0.3995138043828994
100
AcDbArc
 50
185.0699537939
 51
265.0697859756
  0
LINE
  5
C1
330
1F
100
AcDbEntity
  8
0
  6
Continuous
 62
     7
370
    15
100
AcDbLine
 10
237.9641944412
 20
157.7639372987
 30
0.0
 11
239.0173475419
 21
145.7556652511
 31
0.0
  0
ARC
  5
C2
330
1F
100
AcDbEntity
  8
0
  6
Continuous
 62
     7
370
    15
100
AcDbCircle
 10
238.3622299852
 20
157.7982712576
 30
0.0
 40
0.3995135980504076
100
AcDbArc
 50
84.9302140244
 51
184.9300462061
  0
LINE
  5
C3
330
1F
100
AcDbEntity
  8
0
  6
Continuous
 62
     7
370
    15
100
AcDbLine
 10
250.4351296416
 20
157.1456342074
 30
0.0
 11
238.3975346176
 21
158.1962218801
 31
0.0
  0
ARC
  5
C4
330
1F
100
AcDbEntity
  8
0
  6
Continuous
 62
     7
370
    15
100
AcDbCircle
 10
250.4007944991
 20
156.7475985584
 30
0.0
 40
0.3995138043821438
100
AcDbArc
 50
5.0699537938
 51
85.0697859758
  0
ARC
  5
C5
330
1F
100
AcDbEntity
  8
0
  6
Continuous
 62
     7
370
    15
100
AcDbCircle
 10
238.362252102
 20
157.7982934284
 30
0.0
 40
0.3795379181480732
100
AcDbArc
 50
84.9302140244
 51
184.930046206
  0
LINE
  5
C6
330
1F
100
AcDbEntity
  8
0
  6
Continuous
 62
     7
370
    15
100
AcDbLine
 10
237.9841183352
 20
157.7656761674
 30
0.0
 11
239.0372714362
 21
145.7574041199
 31
0.0
  0
ARC
  5
C7
330
1F
100
AcDbEntity
  8
0
  6
Continuous
 62
     7
370
    15
100
AcDbCircle
 10
239.415324625
 20
145.7909446456
 30
0.0
 40
0.3795381146294254
100
AcDbArc
 50
185.0699538433
 51
265.0697858712
  0
LINE
  5
C8
330
1F
100
AcDbEntity
  8
0
  6
Continuous
 62
     7
370
    15
100
AcDbLine
 10
239.3827062389
 20
145.4128107786
 30
0.0
 11
251.420301263
 21
144.3622231059
 31
0.0
  0
ARC
  5
C9
330
1F
100
AcDbEntity
  8
0
  6
Continuous
 62
     7
370
    15
100
AcDbCircle
 10
251.4538406637
 20
144.7402761973
 30
0.0
 40
0.3795379181476749
100
AcDbArc
 50
264.9302140243
 51
4.9300462061
  0
LINE
  5
CA
330
1F
100
AcDbEntity
  8
0
  6
Continuous
 62
     7
370
    15
100
AcDbLine
 10
251.8319744305
 20
144.7728934583
 30
0.0
 11
250.7788213298
 21
156.7811655058
 31
0.0
  0
ARC
  5
CB
330
1F
100
AcDbEntity
  8
0
  6
Continuous
 62
     7
370
    15
100
AcDbCircle
 10
250.4007681414
 20
156.7476249805
 30
0.0
 40
0.3795381141636419
100
AcDbArc
 50
5.0699537939
 51
85.0697859757
  0
LINE
  5
CC
330
1F
100
AcDbEntity
  8
0
  6
Continuous
 62
     7
370
    15
100
AcDbLine
 10
250.4333865267
 20
157.1257588471
 30
0.0
 11
238.3957915027
 21
158.1763465198
 31
0.0
  0
LINE
  5
CD
330
1F
100
AcDbEntity
  8
0
  6
Continuous
 62
     7
370
    15
100
AcDbLine
 10
238.3626723205
 20
157.8140187621
 30
0.0
 11
237.9841183352
 21
157.7656761674
 31
0.0
  0
LINE
  5
CE
330
1F
100
AcDbEntity
  8
0
  6
Continuous
 62
     7
370
    15
100
AcDbLine
 10
238.3626723205
 20
157.8140187621
 30
0.0
 11
238.3957915027
 21
158.1763465198
 31
0.0
  0
LINE
  5
CF
330
1F
100
AcDbEntity
  8
0
  6
Continuous
 62
     7
370
    15
100
AcDbLine
 10
250.4002673445
 20
156.7634310894
 30
0.0
 11
250.4333865267
 21
157.1257588471
 31
0.0
  0
LINE
  5
D0
330
1F
100
AcDbEntity
  8
0
  6
Continuous
 62
     7
370
    15
100
AcDbLine
 10
249.8265730153
 20
156.2161649748
 30
0.0
 11
250.4002673445
 21
156.7634310894
 31
0.0
  0
LINE
  5
D1
330
1F
100
AcDbEntity
  8
0
  6
Continuous
 62
     7
370
    15
100
AcDbLine
 10
239.281672665
 20
156.9309021746
 30
0.0
 11
238.3626723205
 21
157.8140187621
 31
0.0
  0
LINE
  5
D2
330
1F
100
AcDbEntity
  8
0
  6
Continuous
 62
     7
370
    15
100
AcDbLine
 10
239.4158254212
 20
145.8057467146
 30
0.0
 11
239.0372714362
 21
145.7574041199
 31
0.0
  0
LINE
  5
D3
330
1F
100
AcDbEntity
  8
0
  6
Continuous
 62
     7
370
    15
100
AcDbLine
 10
239.9895197504
 20
146.4030742773
 30
0.0
 11
239.4158254212
 21
145.8057467146
 31
0.0
  0
LINE
  5
D4
330
1F
100
AcDbEntity
  8
0
  6
Continuous
 62
     7
370
    15
100
AcDbLine
 10
250.4002673445
 20
156.7634310894
 30
0.0
 11
250.7788213298
 21
156.7811655058
 31
0.0
  0
LINE
  5
D5
330
1F
100
AcDbEntity
  8
0
  6
Continuous
 62
     7
370
    15
100
AcDbLine
 10
251.4534204452
 20
144.7551590419
 30
0.0
 11
251.8319744305
 21
144.7728934583
 31
0.0
  0
LINE
  5
D6
330
1F
100
AcDbEntity
  8
0
  6
Continuous
 62
     7
370
    15
100
AcDbLine
 10
250.5344201007
 20
145.7055658661
 30
0.0
 11
251.4534204452
 21
144.7551590419
 31
0.0
  0
ARC
  5
D7
330
1F
100
AcDbEntity
  8
0
  6
Continuous
 62
     7
370
    15
100
AcDbCircle
 10
241.2437311953
 20
154.9224622302
 30
0.0
 40
0.998783994951622
100
AcDbArc
 50
84.9302140094
 51
184.9300462359
  0
LINE
  5
D8
330
1F
100
AcDbEntity
  8
0
  6
Continuous
 62
     7
370
    15
100
AcDbLine
 10
248.0689997394
 20
155.329362828
 30
0.0
 11
241.3319927764
 21
155.9173387863
 31
0.0
  0
ARC
  5
D9
330
1F
100
AcDbEntity
  8
0
  6
Continuous
 62
     7
370
    15
100
AcDbCircle
 10
247.9831618832
 20
154.3342737055
 30
0.0
 40
0.9987845109567125
100
AcDbArc
 50
5.0699537939
 51
85.0697859757
  0
LINE
  5
DA
330
1F
100
AcDbEntity
  8
0
  6
Continuous
 62
     7
370
    15
100
AcDbLine
 10
249.5674504301
 20
147.7019422932
 30
0.0
 11
248.9780386948
 21
154.4225382459
 31
0.0
  0
ARC
  5
DB
330
1F
100
AcDbEntity
  8
0
  6
Continuous
 62
     7
370
    15
100
AcDbCircle
 10
248.5723615701
 20
147.6161073959
 30
0.0
 40
0.9987839951263281
100
AcDbArc
 50
264.9302140244
 51
4.9300462061
  0
LINE
  5
DC
330
1F
100
AcDbEntity
  8
0
  6
Continuous
 62
     7
370
    15
100
AcDbLine
 10
241.7470930263
 20
147.2092067976
 30
0.0
 11
248.4840999893
 21
146.6212308396
 31
0.0
  0
ARC
  5
DD
330
1F
100
AcDbEntity
  8
0
  6
Continuous
 62
     7
370
    15
100
AcDbCircle
 10
241.8329308825
 20
148.2042959201
 30
0.0
 40
0.9987845109570519
100
AcDbArc
 50
185.0699537939
 51
265.0697859757
  0
LINE
  5
DE
330
1F
100
AcDbEntity
  8
0
  6
Continuous
 62
     7
370
    15
100
AcDbLine
 10
240.2486423356
 20
154.8366273324
 30
0.0
 11
240.8380540709
 21
148.1160313798
 31
0.0
  0
CIRCLE
  5
DF
330
1F
100
AcDbEntity
  8
0
  6
Continuous
 62
     7
370
    15
100
AcDbCircle
 10
244.9104048033
 20
151.2624776007
 30
0.0
 40
3.797390066527418
  0
ARC
  5
E0
330
1F
100
AcDbEntity
  8
0
  6
Continuous
 62
     7
370
    15
100
AcDbCircle
 10
244.9080463828
 20
151.3560787984
 30
0.0
 40
3.800005686576357
100
AcDbArc
 50
180.099122215
 51
359.900877785
  0
SPLINE
  5
E1
330
1F
100
AcDbEntity
  8
0
  6
Continuous
 62
     7
370
    15
100
AcDbSpline
210
0.0
220
0.0
230
1.0
 70
     8
 71
     3
 72
    11
 73
     7
 74
     0
 42
0.00000001
 43
0.00000001
 12
1.0
 22
0.0
 32
0.0
 13
1.0
 23
0.0
 33
0.0
 40
0.0
 40
0.0
 40
0.0
 40
0.0
 40
0.0076282660079975
 40
0.3209888652311533
 40
0.66321688685877
 40
0.9999999999999999
 40
0.9999999999999999
 40
0.9999999999999999
 40
0.9999999999999999
 10
239.7706002425533
 20
156.4379089897743
 30
0.0
 10
239.7694846818791
 20
156.4390850934145
 30
0.0
 10
239.722543141755
 20
156.4885742135499
 30
0.0
 10
239.6184871690421
 20
156.5966362308372
 30
0.0
 10
239.4490393049538
 20
156.768213123686
 30
0.0
 10
239.3371625027616
 20
156.8769631754897
 30
0.0
 10
239.2816726649648
 20
156.9309021746096
 30
0.0
  0
SPLINE
  5
E2
330
1F
100
AcDbEntity
  8
0
  6
Continuous
 62
     7
370
    15
100
AcDbSpline
210
0.0
220
0.0
230
1.0
 70
     8
 71
     3
 72
    11
 73
     7
 74
     0
 42
0.00000001
 43
0.00000001
 12
1.0
 22
0.0
 32
0.0
 13
1.0
 23
0.0
 33
0.0
 40
0.0
 40
0.0
 40
0.0
 40
0.0
 40
0.0081164391032138
 40
0.3263678516929516
 40
0.6627685813479206
 40
1.0
 40
1.0
 40
1.0
 40
1.0
 10
249.3359171818095
 20
155.7232181093225
 30
0.0
 10
249.3371098041664
 20
155.7244754023437
 30
0.0
 10
249.3850660065775
 20
155.7750320586618
 30
0.0
 10
249.4905446507711
 20
155.8843694594494
 30
0.0
 10
249.6619968198251
 20
156.0572391051939
 30
0.0
 10
249.7716692026447
 20
156.163146151883
 30
0.0
 10
249.8265730152643
 20
156.2161649748266
 30
0.0
  0
LINE
  5
E3
330
1F
100
AcDbEntity
  8
0
  6
Continuous
 62
     7
370
    15
100
AcDbLine
 10
251.4534204452
 20
144.7551590419
 30
0.0
 11
251.420301263
 21
144.3622231059
 31
0.0
  0
LINE
  5
E4
330
1F
100
AcDbEntity
  8
0
  6
Continuous
 62
     7
370
    15
100
AcDbLine
 10
239.4158254212
 20
145.8057467146
 30
0.0
 11
239.3827062389
 21
145.4128107786
 31
0.0
  0
SPLINE
  5
E5
330
1F
100
AcDbEntity
  8
0
  6
Continuous
 62
     7
370
    15
100
AcDbSpline
210
0.0
220
0.0
230
1.0
 70
     8
 71
     3
 72
    11
 73
     7
 74
     0
 42
0.00000001
 43
0.00000001
 12
1.0
 22
0.0
 32
0.0
 13
1.0
 23
0.0
 33
0.0
 40
0.0
 40
0.0
 40
0.0
 40
0.0
 40
0.3372314186522934
 40
0.6736321483073773
 40
0.991883560896925
 40
1.0
 40
1.0
 40
1.0
 40
1.0
 10
239.9895197504136
 20
146.4030742773206
 30
0.0
 10
240.0444235630335
 20
146.4595955937603
 30
0.0
 10
240.1540959458534
 20
146.5724989998858
 30
0.0
 10
240.3255481149062
 20
146.7416983945146
 30
0.0
 10
240.4310267591029
 20
146.8428044007657
 30
0.0
 10
240.4789829615114
 20
146.8879265114695
 30
0.0
 10
240.4801755838683
 20
146.8890486528257
 30
0.0
  0
SPLINE
  5
E6
330
1F
100
AcDbEntity
  8
0
  6
Continuous
 62
     7
370
    15
100
AcDbSpline
210
0.0
220
0.0
230
1.0
 70
     8
 71
     3
 72
    11
 73
     7
 74
     0
 42
0.00000001
 43
0.00000001
 12
1.0
 22
0.0
 32
0.0
 13
1.0
 23
0.0
 33
0.0
 40
0.0
 40
0.0
 40
0.0
 40
0.0
 40
0.3367831131415198
 40
0.6790111347688081
 40
0.9923717339915176
 40
1.0
 40
1.0
 40
1.0
 40
1.0
 10
250.5344201007137
 20
145.7055658660526
 30
0.0
 10
250.4789302629169
 20
145.7623362016148
 30
0.0
 10
250.3670534607247
 20
145.8767947016617
 30
0.0
 10
250.197605596633
 20
146.043288004029
 30
0.0
 10
250.0935496239292
 20
146.1428309819257
 30
0.0
 10
250.0466080837986
 20
146.1869962475756
 30
0.0
 10
250.0454925231243
 20
146.1880458303843
 30
0.0
  0
LINE
  5
E7
330
1F
100
AcDbEntity
  8
0
  6
HIDDEN
 62
     7
370
     0
100
AcDbLine
 10
91.8534204452
 20
197.3408293135
 30
0.0
 11
91.8534204452
 21
135.3408293326
 31
0.0
  0
LINE
  5
E8
330
1F
100
AcDbEntity
  8
0
  6
HIDDEN
 62
     7
370
     0
100
AcDbLine
 10
113.8534204452
 20
135.8408293326
 30
0.0
 11
113.8534204452
 21
196.8408293326
 31
0.0
  0
SPLINE
  5
E9
330
1F
100
AcDbEntity
  8
0
  6
HIDDEN
 62
     7
370
     0
100
AcDbSpline
210
0.0
220
0.0
230
1.0
 70
    11
 71
     3
 72
    47
 73
    43
 74
     0
 42
0.00000001
 43
0.00000001
 12
1.0
 22
0.0
 32
0.0
 13
1.0
 23
0.0
 33
0.0
 40
0.0
 40
0.0
 40
0.0
 40
0.0
 40
0.0156133930831392
 40
0.0420393300565369
 40
0.0617665812280601
 40
0.0692325612221232
 40
0.0956582295685095
 40
0.1228484187266758
 40
0.1493073065779515
 40
0.1765321394686719
 40
0.2030118209524057
 40
0.2302613972093066
 40
0.2567046168767249
 40
0.2839169291330864
 40
0.3103233301576309
 40
0.3374945172509497
 40
0.3639211978292243
 40
0.3911115864284254
 40
0.4175839659678999
 40
0.4448238644855263
 40
0.4712961214909136
 40
0.4985386688589255
 40
0.5249652486477154
 40
0.5521595154835679
 40
0.578566148732444
 40
0.6057365800096143
 40
0.6321799050274653
 40
0.6593878819913807
 40
0.6858675478253998
 40
0.7131161529500882
 40
0.7395750335653651
 40
0.7668038980306618
 40
0.7932171594781903
 40
0.8203965443636537
 40
0.8468106110190444
 40
0.8739880878341157
 40
0.900448045436918
 40
0.9276740539524009
 40
0.9541534544431796
 40
0.9814027956355922
 40
0.9984088421861917
 40
1.0
 40
1.0
 40
1.0
 40
1.0
 10
101.8640057831787
 20
166.1450913060652
 30
0.0
 10
101.8593533547321
 20
166.210239087115
 30
0.0
 10
101.8468266109303
 20
166.3856506107612
 30
0.0
 10
101.8643382321069
 20
166.6465140740902
 30
0.0
 10
101.9316368227522
 20
166.8611052311272
 30
0.0
 10
101.9822479846946
 20
167.0799457585772
 30
0.0
 10
102.097338737391
 20
167.3115057490432
 30
0.0
 10
102.2804420782691
 20
167.5925308974055
 30
0.0
 10
102.5147827760995
 20
167.839293299766
 30
0.0
 10
102.783742319726
 20
168.0420306771629
 30
0.0
 10
103.0861237811501
 20
168.1980831091881
 30
0.0
 10
103.4073949949615
 20
168.300218290453
 30
0.0
 10
103.744235901833
 20
168.3473604241989
 30
0.0
 10
104.0808112229204
 20
168.3374087603284
 30
0.0
 10
104.4137891325825
 20
168.2705841323167
 30
0.0
 10
104.7278539587539
 20
168.1500689029198
 30
0.0
 10
105.0199526208201
 20
167.9770445584801
 30
0.0
 10
105.2767506416152
 20
167.759345880297
 30
0.0
 10
105.495509825426
 20
167.4991369494184
 30
0.0
 10
105.6660325233527
 20
167.2083448001347
 30
0.0
 10
105.7864175725107
 20
166.8900884378072
 30
0.0
 10
105.8510136320887
 20
166.5593002995104
 30
0.0
 10
105.8592384203505
 20
166.2194447514424
 30
0.0
 10
105.8108373356132
 20
165.886380995498
 30
0.0
 10
105.7063843459533
 20
165.5633453128038
 30
0.0
 10
105.550717432944
 20
165.2651068848886
 30
0.0
 10
105.3453346092084
 20
164.994636685992
 30
0.0
 10
105.0995306393055
 20
164.7643442344731
 30
0.0
 10
104.8158259393789
 20
164.5767601216689
 30
0.0
 10
104.5073486928727
 20
164.4406907713614
 30
0.0
 10
104.1774235820661
 20
164.3576112324822
 30
0.0
 10
103.8415608859614
 20
164.3313690116733
 30
0.0
 10
103.503182170493
 20
164.3621103673157
 30
0.0
 10
103.177963209184
 20
164.4482807046746
 30
0.0
 10
102.8690318836318
 20
164.588985678997
 30
0.0
 10
102.5905036563044
 20
164.777812148353
 30
0.0
 10
102.3451374081091
 20
165.0129161954316
 30
0.0
 10
102.1446954835735
 20
165.2836474156257
 30
0.0
 10
101.9898611804227
 20
165.5869953803656
 30
0.0
 10
101.9050424465235
 20
165.8714373809732
 30
0.0
 10
101.8682261229396
 20
166.0606971239444
 30
0.0
 10
101.8643384117757
 20
166.1384397282336
 30
0.0
 10
101.8640057831787
 20
166.1450913060652
 30
0.0
  0
SPLINE
  5
EA
330
1F
100
AcDbEntity
  8
0
  6
HIDDEN
 62
     7
370
     0
100
AcDbSpline
210
0.0
220
0.0
230
1.0
 70
     8
 71
     3
 72
    12
 73
     8
 74
     0
 42
0.00000001
 43
0.00000001
 12
1.0
 22
0.0
 32
0.0
 13
1.0
 23
0.0
 33
0.0
 40
0.0
 40
0.0
 40
0.0
 40
0.0
 40
0.2500000000000013
 40
0.2500000000000013
 40
0.5000000000000027
 40
0.5000000000000027
 40
1.0
 40
1.0
 40
1.0
 40
1.0
 10
102.3811772587828
 20
156.9527629012748
 30
0.0
 10
102.3180972202894
 20
156.9527629012748
 30
0.0
 10
102.258948598108
 20
156.9273985820598
 30
0.0
 10
102.160476048039
 20
156.8532337216868
 30
0.0
 10
102.1214394360542
 20
156.8067133811328
 30
0.0
 10
102.0215429692753
 20
156.6565710382875
 30
0.0
 10
101.9791220882085
 20
156.5448778313154
 30
0.0
 10
101.9481645568906
 20
156.4314600119257
 30
0.0
  0
LINE
  5
EB
330
1F
100
AcDbEntity
  8
0
  6
HIDDEN
 62
     7
370
     0
100
AcDbLine
 10
105.3256636316
 20
156.9527629013
 30
0.0
 11
102.3811772588
 21
156.9527629013
 31
0.0
  0
SPLINE
  5
EC
330
1F
100
AcDbEntity
  8
0
  6
HIDDEN
 62
     7
370
     0
100
AcDbSpline
210
0.0
220
0.0
230
1.0
 70
     8
 71
     3
 72
    12
 73
     8
 74
     0
 42
0.00000001
 43
0.00000001
 12
1.0
 22
0.0
 32
0.0
 13
1.0
 23
0.0
 33
0.0
 40
0.0
 40
0.0
 40
0.0
 40
0.0
 40
0.5
 40
0.5
 40
0.75
 40
0.75
 40
1.0
 40
1.0
 40
1.0
 40
1.0
 10
105.7586763335421
 20
156.4314600119257
 30
0.0
 10
105.727954091623
 20
156.5440158113349
 30
0.0
 10
105.6851168770877
 20
156.6567736710744
 30
0.0
 10
105.585689852888
 20
156.8063145568708
 30
0.0
 10
105.5459376580713
 20
156.8536072885776
 30
0.0
 10
105.4478962012131
 20
156.9273435818991
 30
0.0
 10
105.3883401456257
 20
156.9527629012748
 30
0.0
 10
105.3256636316499
 20
156.9527629012748
 30
0.0
  0
ELLIPSE
  5
ED
330
1F
100
AcDbEntity
  8
0
  6
HIDDEN
 62
     7
370
     0
100
AcDbEllipse
 10
89.5062662559
 20
166.3408293326
 30
0.0
 11
-14.75368316065608
 21
31.09325491558119
 31
0.0
210
0.0
220
0.0
230
1.0
 40
0.3419987131
 41
3.300734856217131
 42
4.231496223360781
  0
SPLINE
  5
EE
330
1F
100
AcDbEntity
  8
0
  6
HIDDEN
 62
     7
370
     0
100
AcDbSpline
210
0.0
220
0.0
230
1.0
 70
     8
 71
     3
 72
    12
 73
     8
 74
     0
 42
0.00000001
 43
0.00000001
 12
1.0
 22
0.0
 32
0.0
 13
1.0
 23
0.0
 33
0.0
 40
0.0
 40
0.0
 40
0.0
 40
0.0
 40
0.2499999999999996
 40
0.2499999999999996
 40
0.4999999999999991
 40
0.4999999999999991
 40
1.0
 40
1.0
 40
1.0
 40
1.0
 10
105.3256636316499
 20
136.2723373737377
 30
0.0
 10
105.3887436701433
 20
136.2723373737377
 30
0.0
 10
105.4478922923246
 20
136.2802432999503
 30
0.0
 10
105.5463648423937
 20
136.3035684613865
 30
0.0
 10
105.5854014543784
 20
136.3182812512182
 30
0.0
 10
105.6852979211575
 20
136.3662370519491
 30
0.0
 10
105.727718802224
 20
136.4024992085292
 30
0.0
 10
105.7586763335421
 20
136.4400868724937
 30
0.0
  0
LINE
  5
EF
330
1F
100
AcDbEntity
  8
0
  6
HIDDEN
 62
     7
370
     0
100
AcDbLine
 10
102.3811772588
 20
136.2723373737
 30
0.0
 11
105.3256636316
 21
136.2723373737
 31
0.0
  0
SPLINE
  5
F0
330
1F
100
AcDbEntity
  8
0
  6
HIDDEN
 62
     7
370
     0
100
AcDbSpline
210
0.0
220
0.0
230
1.0
 70
     8
 71
     3
 72
    12
 73
     8
 74
     0
 42
0.00000001
 43
0.00000001
 12
1.0
 22
0.0
 32
0.0
 13
1.0
 23
0.0
 33
0.0
 40
0.0
 40
0.0
 40
0.0
 40
0.0
 40
0.4999999999999991
 40
0.4999999999999991
 40
0.7499999999999996
 40
0.7499999999999996
 40
1.0
 40
1.0
 40
1.0
 40
1.0
 10
101.9481645568906
 20
136.4400868724937
 30
0.0
 10
101.9788867988097
 20
136.4027848895406
 30
0.0
 10
102.0217240133448
 20
136.3661730574942
 30
0.0
 10
102.1211510375447
 20
136.318408274209
 30
0.0
 10
102.1609032323613
 20
136.3034507587267
 30
0.0
 10
102.2589446892195
 20
136.2802608129576
 30
0.0
 10
102.3185007448069
 20
136.2723373737377
 30
0.0
 10
102.3811772587828
 20
136.2723373737377
 30
0.0
  0
ELLIPSE
  5
F1
330
1F
100
AcDbEntity
  8
0
  6
HIDDEN
 62
     7
370
     0
100
AcDbEllipse
 10
118.2005746346
 20
166.3408293326
 30
0.0
 11
14.75368316065606
 21
31.09325491558118
 31
0.0
210
0.0
220
0.0
230
1.0
 40
0.3419987131
 41
2.051689083818818
 42
2.982450450962492
  0
SPLINE
  5
F2
330
1F
100
AcDbEntity
  8
0
  6
HIDDEN
 62
     7
370
     0
100
AcDbSpline
210
0.0
220
0.0
230
1.0
 70
     8
 71
     3
 72
    12
 73
     8
 74
     0
 42
0.00000001
 43
0.00000001
 12
1.0
 22
0.0
 32
0.0
 13
1.0
 23
0.0
 33
0.0
 40
0.0
 40
0.0
 40
0.0
 40
0.0
 40
0.25
 40
0.25
 40
0.5
 40
0.5
 40
1.0
 40
1.0
 40
1.0
 40
1.0
 10
102.3811772587828
 20
196.4093212914842
 30
0.0
 10
102.3180972202894
 20
196.4093212914841
 30
0.0
 10
102.258948598108
 20
196.4014153652716
 30
0.0
 10
102.160476048039
 20
196.3780902038354
 30
0.0
 10
102.1214394360543
 20
196.3633774140037
 30
0.0
 10
102.0215429692753
 20
196.3154216132728
 30
0.0
 10
101.9791220882085
 20
196.2791594566928
 30
0.0
 10
101.9481645568906
 20
196.2415717927283
 30
0.0
  0
LINE
  5
F3
330
1F
100
AcDbEntity
  8
0
  6
HIDDEN
 62
     7
370
     0
100
AcDbLine
 10
105.3256636316
 20
196.4093212915
 30
0.0
 11
102.3811772588
 21
196.4093212915
 31
0.0
  0
SPLINE
  5
F4
330
1F
100
AcDbEntity
  8
0
  6
HIDDEN
 62
     7
370
     0
100
AcDbSpline
210
0.0
220
0.0
230
1.0
 70
     8
 71
     3
 72
    12
 73
     8
 74
     0
 42
0.00000001
 43
0.00000001
 12
1.0
 22
0.0
 32
0.0
 13
1.0
 23
0.0
 33
0.0
 40
0.0
 40
0.0
 40
0.0
 40
0.0
 40
0.4999999999999981
 40
0.4999999999999981
 40
0.749999999999999
 40
0.749999999999999
 40
1.0
 40
1.0
 40
1.0
 40
1.0
 10
105.7586763335421
 20
196.2415717927283
 30
0.0
 10
105.727954091623
 20
196.2788737756813
 30
0.0
 10
105.6851168770877
 20
196.3154856077277
 30
0.0
 10
105.585689852888
 20
196.3632503910129
 30
0.0
 10
105.5459376580713
 20
196.3782079064952
 30
0.0
 10
105.4478962012131
 20
196.4013978522644
 30
0.0
 10
105.3883401456257
 20
196.4093212914842
 30
0.0
 10
105.3256636316499
 20
196.4093212914842
 30
0.0
  0
ELLIPSE
  5
F5
330
1F
100
AcDbEntity
  8
0
  6
HIDDEN
 62
     7
370
     0
100
AcDbEllipse
 10
89.5062662559
 20
166.3408293326
 30
0.0
 11
14.75368316065619
 21
31.09325491558119
 31
0.0
210
0.0
220
0.0
230
1.0
 40
0.3419987131
 41
5.193281737408637
 42
6.12404310455234
  0
SPLINE
  5
F6
330
1F
100
AcDbEntity
  8
0
  6
HIDDEN
 62
     7
370
     0
100
AcDbSpline
210
0.0
220
0.0
230
1.0
 70
     8
 71
     3
 72
    12
 73
     8
 74
     0
 42
0.00000001
 43
0.00000001
 12
1.0
 22
0.0
 32
0.0
 13
1.0
 23
0.0
 33
0.0
 40
0.0
 40
0.0
 40
0.0
 40
0.0
 40
0.2500000000000005
 40
0.2500000000000005
 40
0.500000000000001
 40
0.500000000000001
 40
1.0
 40
1.0
 40
1.0
 40
1.0
 10
105.3256636316499
 20
175.7288957639474
 30
0.0
 10
105.3887436701433
 20
175.7288957639474
 30
0.0
 10
105.4478922923246
 20
175.7542600831624
 30
0.0
 10
105.5463648423937
 20
175.8284249435353
 30
0.0
 10
105.5854014543784
 20
175.8749452840894
 30
0.0
 10
105.6852979211575
 20
176.0250876269346
 30
0.0
 10
105.727718802224
 20
176.1367808339068
 30
0.0
 10
105.7586763335421
 20
176.2501986532965
 30
0.0
  0
LINE
  5
F7
330
1F
100
AcDbEntity
  8
0
  6
HIDDEN
 62
     7
370
     0
100
AcDbLine
 10
102.3811772588
 20
175.7288957639
 30
0.0
 11
105.3256636316
 21
175.7288957639
 31
0.0
  0
SPLINE
  5
F8
330
1F
100
AcDbEntity
  8
0
  6
HIDDEN
 62
     7
370
     0
100
AcDbSpline
210
0.0
220
0.0
230
1.0
 70
     8
 71
     3
 72
    12
 73
     8
 74
     0
 42
0.00000001
 43
0.00000001
 12
1.0
 22
0.0
 32
0.0
 13
1.0
 23
0.0
 33
0.0
 40
0.0
 40
0.0
 40
0.0
 40
0.0
 40
0.4999999999999953
 40
0.4999999999999953
 40
0.7499999999999977
 40
0.7499999999999977
 40
1.0
 40
1.0
 40
1.0
 40
1.0
 10
101.9481645568906
 20
176.2501986532965
 30
0.0
 10
101.9788867988097
 20
176.1376428538873
 30
0.0
 10
102.0217240133448
 20
176.0248849941477
 30
0.0
 10
102.1211510375447
 20
175.8753441083514
 30
0.0
 10
102.1609032323613
 20
175.8280513766446
 30
0.0
 10
102.2589446892195
 20
175.7543150833232
 30
0.0
 10
102.3185007448069
 20
175.7288957639474
 30
0.0
 10
102.3811772587828
 20
175.7288957639474
 30
0.0
  0
ELLIPSE
  5
F9
330
1F
100
AcDbEntity
  8
0
  6
HIDDEN
 62
     7
370
     0
100
AcDbEllipse
 10
118.2005746346
 20
166.3408293326
 30
0.0
 11
-14.75368316065624
 21
31.09325491558118
 31
0.0
210
0.0
220
0.0
230
1.0
 40
0.3419987131
 41
0.1591422026272807
 42
1.08990356977096
  0
LINE
  5
FA
330
1F
100
AcDbEntity
  8
0
  6
HIDDEN
 62
     7
370
     0
100
AcDbLine
 10
91.8534204452
 20
142.0908293326
 30
0.0
 11
91.8534204452
 21
190.5908293326
 31
0.0
  0
SPLINE
  5
FB
330
1F
100
AcDbEntity
  8
0
  6
HIDDEN
 62
     7
370
     0
100
AcDbSpline
210
0.0
220
0.0
230
1.0
 70
     8
 71
     3
 72
    12
 73
     8
 74
     0
 42
0.00000001
 43
0.00000001
 12
1.0
 22
0.0
 32
0.0
 13
1.0
 23
0.0
 33
0.0
 40
0.0
 40
0.0
 40
0.0
 40
0.0
 40
0.5
 40
0.5
 40
0.75
 40
0.75
 40
1.0
 40
1.0
 40
1.0
 40
1.0
 10
91.03690815876932
 20
181.7930973144418
 30
0.0
 10
91.09331433744956
 20
181.745274940782
 30
0.0
 10
91.16347723892129
 20
181.7050040938435
 30
0.0
 10
91.28148795231047
 20
181.6969582253665
 30
0.0
 10
91.32169373590592
 20
181.7035208237053
 30
0.0
 10
91.39541443263899
 20
181.730902918159
 30
0.0
 10
91.42827515442552
 20
181.7506644086893
 30
0.0
 10
91.4584435563548
 20
181.7735971198773
 30
0.0
  0
SPLINE
  5
FC
330
1F
100
AcDbEntity
  8
0
  6
HIDDEN
 62
     7
370
     0
100
AcDbSpline
210
0.0
220
0.0
230
1.0
 70
     8
 71
     3
 72
    16
 73
    12
 74
     0
 42
0.00000001
 43
0.00000001
 12
1.0
 22
0.0
 32
0.0
 13
1.0
 23
0.0
 33
0.0
 40
0.0
 40
0.0
 40
0.0
 40
0.0
 40
0.0625000000000001
 40
0.0625000000000001
 40
0.1250000000000001
 40
0.1250000000000001
 40
0.2500000000000001
 40
0.2500000000000001
 40
0.5000000000000001
 40
0.5000000000000001
 40
1.0
 40
1.0
 40
1.0
 40
1.0
 10
91.45844355630966
 20
181.7735971199254
 30
0.0
 10
91.47005645614902
 20
181.7824247429068
 30
0.0
 10
91.4834076405815
 20
181.7902591247888
 30
0.0
 10
91.51280748020069
 20
181.7985692508611
 30
0.0
 10
91.527648204756
 20
181.7980734316261
 30
0.0
 10
91.56348141272461
 20
181.7866224606567
 30
0.0
 10
91.57759462054618
 20
181.7699419597981
 30
0.0
 10
91.61208599176507
 20
181.7178212740411
 30
0.0
 10
91.62317006287547
 20
181.678031780016
 30
0.0
 10
91.64929288067147
 20
181.5546951479189
 30
0.0
 10
91.65342044521636
 20
181.4672737374203
 30
0.0
 10
91.65342044521634
 20
181.3785364951021
 30
0.0
  0
LINE
  5
FD
330
1F
100
AcDbEntity
  8
0
  6
HIDDEN
 62
     7
370
     0
100
AcDbLine
 10
91.6534204452
 20
151.3031221701
 30
0.0
 11
91.6534204452
 21
181.3785364951
 31
0.0
  0
SPLINE
  5
FE
330
1F
100
AcDbEntity
  8
0
  6
HIDDEN
 62
     7
370
     0
100
AcDbSpline
210
0.0
220
0.0
230
1.0
 70
     8
 71
     3
 72
    16
 73
    12
 74
     0
 42
0.00000001
 43
0.00000001
 12
1.0
 22
0.0
 32
0.0
 13
1.0
 23
0.0
 33
0.0
 40
0.0
 40
0.0
 40
0.0
 40
0.0
 40
0.4999999999999979
 40
0.4999999999999979
 40
0.750000000000002
 40
0.750000000000002
 40
0.8750000000000042
 40
0.8750000000000042
 40
0.937500000000002
 40
0.937500000000002
 40
1.0
 40
1.0
 40
1.0
 40
1.0
 10
91.65342044521634
 20
151.3031221701197
 30
0.0
 10
91.65342044521634
 20
151.213995804931
 30
0.0
 10
91.64927417013841
 20
151.1271344373176
 30
0.0
 10
91.62330857474487
 20
151.0041521908235
 30
0.0
 10
91.61184766936742
 20
150.9633808955923
 30
0.0
 10
91.5775359315931
 20
150.9116765755925
 30
0.0
 10
91.56351119566344
 20
150.895006209002
 30
0.0
 10
91.52748823262971
 20
150.8835539885453
 30
0.0
 10
91.51273372353997
 20
150.8831009422703
 30
0.0
 10
91.4833815623931
 20
150.8914162634864
 30
0.0
 10
91.47004168788902
 20
150.8992451485647
 30
0.0
 10
91.45844355634067
 20
150.9080615453273
 30
0.0
  0
SPLINE
  5
FF
330
1F
100
AcDbEntity
  8
0
  6
HIDDEN
 62
     7
370
     0
100
AcDbSpline
210
0.0
220
0.0
230
1.0
 70
     8
 71
     3
 72
    12
 73
     8
 74
     0
 42
0.00000001
 43
0.00000001
 12
1.0
 22
0.0
 32
0.0
 13
1.0
 23
0.0
 33
0.0
 40
0.0
 40
0.0
 40
0.0
 40
0.0
 40
0.2499999999999993
 40
0.2499999999999993
 40
0.4999999999999986
 40
0.4999999999999986
 40
1.0
 40
1.0
 40
1.0
 40
1.0
 10
91.45844355634775
 20
150.9080615453362
 30
0.0
 10
91.42825171463052
 20
150.9310120744341
 30
0.0
 10
91.39489274521593
 20
150.9509815484582
 30
0.0
 10
91.32175546063532
 20
150.9780826820837
 30
0.0
 10
91.28151358798135
 20
150.9846834227291
 30
0.0
 10
91.16380781101286
 20
150.9767145482224
 30
0.0
 10
91.09339733323345
 20
150.9364540900546
 30
0.0
 10
91.03690815876516
 20
150.8885613507764
 30
0.0
  0
SPLINE
  5
100
330
1F
100
AcDbEntity
  8
0
  6
HIDDEN
 62
     7
370
     0
100
AcDbSpline
210
0.0
220
0.0
230
1.0
 70
     8
 71
     3
 72
    12
 73
     8
 74
     0
 42
0.00000001
 43
0.00000001
 12
1.0
 22
0.0
 32
0.0
 13
1.0
 23
0.0
 33
0.0
 40
0.0
 40
0.0
 40
0.0
 40
0.0
 40
0.2499999999999971
 40
0.2499999999999971
 40
0.4999999999999968
 40
0.4999999999999968
 40
1.0
 40
1.0
 40
1.0
 40
1.0
 10
91.03690815876472
 20
150.8885613507767
 30
0.0
 10
90.948754221027
 20
150.8138225429226
 30
0.0
 10
90.88840079639827
 20
150.7228420424402
 30
0.0
 10
90.78213883833146
 20
150.5339282196877
 30
0.0
 10
90.73990667176939
 20
150.4374237601471
 30
0.0
 10
90.62883597645222
 20
150.1466560059799
 30
0.0
 10
90.57589920002545
 20
149.9509891914362
 30
0.0
 10
90.53210010165665
 20
149.7569227063699
 30
0.0
  0
SPLINE
  5
101
330
1F
100
AcDbEntity
  8
0
  6
HIDDEN
 62
     7
370
     0
100
AcDbSpline
210
0.0
220
0.0
230
1.0
 70
     8
 71
     3
 72
    12
 73
     8
 74
     0
 42
0.00000001
 43
0.00000001
 12
1.0
 22
0.0
 32
0.0
 13
1.0
 23
0.0
 33
0.0
 40
0.0
 40
0.0
 40
0.0
 40
0.0
 40
0.4999999999999991
 40
0.4999999999999991
 40
0.7499999999999996
 40
0.7499999999999996
 40
1.0
 40
1.0
 40
1.0
 40
1.0
 10
90.53210010165665
 20
144.5707483776087
 30
0.0
 10
90.57584664249323
 20
144.5441542069676
 30
0.0
 10
90.62873099772473
 20
144.5243939816418
 30
0.0
 10
90.74029808506089
 20
144.5039429914127
 30
0.0
 10
90.78288168160387
 20
144.4986827667563
 30
0.0
 10
90.88779840868565
 20
144.4907999728337
 30
0.0
 10
90.94933201653045
 20
144.4882358476545
 30
0.0
 10
91.03690815875657
 20
144.4860356301349
 30
0.0
  0
LINE
  5
102
330
1F
100
AcDbEntity
  8
0
  6
HIDDEN
 62
     7
370
     0
100
AcDbLine
 10
91.6534204452
 20
143.8010090537
 30
0.0
 11
91.6534204452
 21
144.2812348444
 31
0.0
  0
LINE
  5
103
330
1F
100
AcDbEntity
  8
0
  6
HIDDEN
 62
     7
370
     0
100
AcDbLine
 10
91.6534204452
 20
188.4004238209
 30
0.0
 11
91.6534204452
 21
188.8806496115
 31
0.0
  0
SPLINE
  5
104
330
1F
100
AcDbEntity
  8
0
  6
HIDDEN
 62
     7
370
     0
100
AcDbSpline
210
0.0
220
0.0
230
1.0
 70
     8
 71
     3
 72
    12
 73
     8
 74
     0
 42
0.00000001
 43
0.00000001
 12
1.0
 22
0.0
 32
0.0
 13
1.0
 23
0.0
 33
0.0
 40
0.0
 40
0.0
 40
0.0
 40
0.0
 40
0.2499999999999996
 40
0.2499999999999996
 40
0.4999999999999991
 40
0.4999999999999991
 40
1.0
 40
1.0
 40
1.0
 40
1.0
 10
91.03690815876458
 20
188.1956230350868
 30
0.0
 10
90.94822349890822
 20
188.1933949677458
 30
0.0
 10
90.88830508318482
 20
188.1908931837155
 30
0.0
 10
90.78264585586409
 20
188.1829617478795
 30
0.0
 10
90.74000461774914
 20
188.1776695929826
 30
0.0
 10
90.6288152756466
 20
188.1572646524955
 30
0.0
 10
90.57588859352563
 20
188.1375299609086
 30
0.0
 10
90.53210010165665
 20
188.110910287613
 30
0.0
  0
SPLINE
  5
105
330
1F
100
AcDbEntity
  8
0
  6
HIDDEN
 62
     7
370
     0
100
AcDbSpline
210
0.0
220
0.0
230
1.0
 70
     8
 71
     3
 72
    12
 73
     8
 74
     0
 42
0.00000001
 43
0.00000001
 12
1.0
 22
0.0
 32
0.0
 13
1.0
 23
0.0
 33
0.0
 40
0.0
 40
0.0
 40
0.0
 40
0.0
 40
0.5000000000000041
 40
0.5000000000000041
 40
0.7500000000000034
 40
0.7500000000000034
 40
1.0
 40
1.0
 40
1.0
 40
1.0
 10
90.53210010165508
 20
182.9247359588521
 30
0.0
 10
90.57586157795382
 20
182.73083617089
 30
0.0
 10
90.62876789360685
 20
182.5349798069531
 30
0.0
 10
90.74047909125423
 20
182.2428376604542
 30
0.0
 10
90.78299853484059
 20
182.1461197237563
 30
0.0
 10
90.888121877408
 20
181.9593952873318
 30
0.0
 10
90.9496878411257
 20
181.8670445790621
 30
0.0
 10
91.03690815876841
 20
181.7930973144424
 30
0.0
  0
LINE
  5
106
330
1F
100
AcDbEntity
  8
0
  6
HIDDEN
 62
     7
370
     0
100
AcDbLine
 10
91.6534204452
 20
144.2812348444
 30
0.0
 11
91.6534204452
 21
159.3189420069
 31
0.0
  0
LINE
  5
107
330
1F
100
AcDbEntity
  8
0
  6
HIDDEN
 62
     7
370
     0
100
AcDbLine
 10
91.6534204452
 20
173.3627166584
 30
0.0
 11
91.6534204452
 21
188.4004238209
 31
0.0
  0
LINE
  5
108
330
1F
100
AcDbEntity
  8
0
  6
HIDDEN
 62
     7
370
     0
100
AcDbLine
 10
113.8534204452
 20
146.3408293326
 30
0.0
 11
113.8534204452
 21
186.3408293326
 31
0.0
  0
CIRCLE
  5
109
330
1F
100
AcDbEntity
  8
0
  6
HIDDEN
 62
     7
370
     0
100
AcDbCircle
 10
76.3534204452
 20
166.3408293326
 30
0.0
 40
4.05000000000004
  0
LINE
  5
10A
330
1F
100
AcDbEntity
  8
0
  6
HIDDEN
 62
     7
370
     0
100
AcDbLine
 10
55.3836488849
 20
181.6537803755
 30
0.0
 11
55.3836488849
 21
151.0278782897
 31
0.0
  0
LINE
  5
10B
330
1F
100
AcDbEntity
  8
0
  6
HIDDEN
 62
     7
370
     0
100
AcDbLine
 10
53.8534204452
 20
150.1444004882
 30
0.0
 11
53.8534204452
 21
182.5372581771
 31
0.0
  0
SPLINE
  5
10C
330
1F
100
AcDbEntity
  8
0
  6
HIDDEN
 62
     7
370
     0
100
AcDbSpline
210
0.0
220
0.0
230
1.0
 70
     8
 71
     3
 72
    66
 73
    62
 74
     0
 42
0.00000001
 43
0.00000001
 12
1.0
 22
0.0
 32
0.0
 13
1.0
 23
0.0
 33
0.0
 40
-0.0312500000000027
 40
-0.0312500000000027
 40
0.0
 40
0.0
 40
0.0312499999999992
 40
0.0312499999999992
 40
0.0624999999999983
 40
0.0624999999999983
 40
0.0937499999999975
 40
0.0937499999999975
 40
0.1249999999999966
 40
0.1249999999999966
 40
0.1562499999999958
 40
0.1562499999999958
 40
0.1874999999999949
 40
0.1874999999999949
 40
0.2187499999999941
 40
0.2187499999999941
 40
0.2499999999999932
 40
0.2499999999999932
 40
0.2812499999999924
 40
0.2812499999999924
 40
0.3124999999999916
 40
0.3124999999999916
 40
0.3437499999999907
 40
0.3437499999999907
 40
0.3749999999999898
 40
0.3749999999999898
 40
0.406249999999989
 40
0.406249999999989
 40
0.4374999999999881
 40
0.4374999999999881
 40
0.4687499999999873
 40
0.4687499999999873
 40
0.4999999999999865
 40
0.4999999999999865
 40
0.5624999999999875
 40
0.5624999999999875
 40
0.5937499999999878
 40
0.5937499999999878
 40
0.6249999999999881
 40
0.6249999999999881
 40
0.6562499999999886
 40
0.6562499999999886
 40
0.6874999999999889
 40
0.6874999999999889
 40
0.7187499999999893
 40
0.7187499999999893
 40
0.7499999999999897
 40
0.7499999999999897
 40
0.78124999999999
 40
0.78124999999999
 40
0.8124999999999905
 40
0.8124999999999905
 40
0.843749999999991
 40
0.843749999999991
 40
0.8749999999999916
 40
0.8749999999999916
 40
0.9374999999999946
 40
0.9374999999999946
 40
0.9687499999999973
 40
0.9687499999999973
 40
1.0
 40
1.0
 40
1.031249999999999
 40
1.031249999999999
 10
209.6879866974951
 20
168.8467321265954
 30
0.0
 10
210.0188541929377
 20
168.8467321265954
 30
0.0
 10
210.181471940665
 20
168.8629972806696
 30
0.0
 10
210.5013217994002
 20
168.9265882864769
 30
0.0
 10
210.6602302912567
 20
168.9747027189667
 30
0.0
 10
210.9628533405823
 20
169.0997837331868
 30
0.0
 10
211.1063433941082
 20
169.1761761199917
 30
0.0
 10
211.3779033694583
 20
169.3560515827859
 30
0.0
 10
211.506280926018
 20
169.4603301955827
 30
0.0
 10
211.7364880425159
 20
169.6872279900051
 30
0.0
 10
211.839882686428
 20
169.8106935729586
 30
0.0
 10
212.0226526535436
 20
170.0778681459144
 30
0.0
 10
212.1001608777191
 20
170.2192458632888
 30
0.0
 10
212.2249284515198
 20
170.5108076050052
 30
0.0
 10
212.2730642312479
 20
170.6631506738842
 30
0.0
 10
212.33738586614
 20
170.9732165509717
 30
0.0
 10
212.3533271469792
 20
171.1284202178686
 30
0.0
 10
212.35351293464
 20
171.4390774572191
 30
0.0
 10
212.337224922853
 20
171.5960889612547
 30
0.0
 10
212.2733410284238
 20
171.8981804361482
 30
0.0
 10
212.2260765956558
 20
172.0442907619894
 30
0.0
 10
212.1006684848308
 20
172.3268454058329
 30
0.0
 10
212.022501682071
 20
172.4623446282374
 30
0.0
 10
211.8416940485551
 20
172.7124134088782
 30
0.0
 10
211.7381575712292
 20
172.8287820572088
 30
0.0
 10
211.5053243647892
 20
173.0423575411267
 30
0.0
 10
211.3793540299966
 20
173.1366198912906
 30
0.0
 10
211.1088988145538
 20
173.3014802284014
 30
0.0
 10
210.962637562169
 20
173.3726459902937
 30
0.0
 10
210.6601954713712
 20
173.4863230098454
 30
0.0
 10
210.5043759907476
 20
173.5291565986151
 30
0.0
 10
210.1835252295473
 20
173.5871410667898
 30
0.0
 10
210.0176644739525
 20
173.6019574629206
 30
0.0
 10
209.5278384405126
 20
173.6021286904406
 30
0.0
 10
209.198396184486
 20
173.543080988777
 30
0.0
 10
208.7469382709492
 20
173.3738123836141
 30
0.0
 10
208.6012188926101
 20
173.3032926988949
 30
0.0
 10
208.328395857728
 20
173.1373561339986
 30
0.0
 10
208.2026506361828
 20
173.0431252017178
 30
0.0
 10
207.9719846874544
 20
172.8320778191867
 30
0.0
 10
207.8664139805518
 20
172.7139700690734
 30
0.0
 10
207.6850285929507
 20
172.4634918650604
 30
0.0
 10
207.6080831931015
 20
172.3304474889376
 30
0.0
 10
207.4821234268285
 20
172.048038018127
 30
0.0
 10
207.4339113100434
 20
171.8994832388992
 30
0.0
 10
207.369992361384
 20
171.5985037812552
 30
0.0
 10
207.3535584740348
 20
171.4442061727961
 30
0.0
 10
207.3532841394278
 20
171.129944007011
 30
0.0
 10
207.3693677453579
 20
170.9745503011519
 30
0.0
 10
207.432753631711
 20
170.6671850241164
 30
0.0
 10
207.4808796539047
 20
170.5135696132608
 30
0.0
 10
207.6060854188743
 20
170.2202912740891
 30
0.0
 10
207.6827461296323
 20
170.0804187555716
 30
0.0
 10
207.864092528319
 20
169.8144504909805
 30
0.0
 10
207.96932955596
 20
169.6883817038183
 30
0.0
 10
208.3142741117226
 20
169.3479626288207
 30
0.0
 10
208.5926696389815
 20
169.1626328122911
 30
0.0
 10
209.0435859828575
 20
168.9758014310008
 30
0.0
 10
209.2015341641571
 20
168.9275463441595
 30
0.0
 10
209.5245347443741
 20
168.8629997946949
 30
0.0
 10
209.6879866974951
 20
168.8467321265954
 30
0.0
 10
210.0188541929377
 20
168.8467321265954
 30
0.0
  0
LINE
  5
10D
330
1F
100
AcDbEntity
  8
0
  6
HIDDEN
 62
     7
370
     0
100
AcDbLine
 10
61.8836488849
 20
180.6872394941
 30
0.0
 11
61.8836488849
 21
151.9944191711
 31
0.0
  0
LINE
  5
10E
330
1F
100
AcDbEntity
  8
0
  6
HIDDEN
 62
     7
370
     0
100
AcDbLine
 10
67.6836488849
 20
180.3408293326
 30
0.0
 11
67.6836488849
 21
152.3408293326
 31
0.0
  0
LINE
  5
10F
330
1F
100
AcDbEntity
  8
0
  6
HIDDEN
 62
     7
370
     0
100
AcDbLine
 10
60.2836488849
 20
180.3408293326
 30
0.0
 11
60.2836488849
 21
152.3408293326
 31
0.0
  0
LINE
  5
110
330
1F
100
AcDbEntity
  8
0
  6
HIDDEN
 62
     7
370
     0
100
AcDbLine
 10
61.2836488849
 20
180.3408293326
 30
0.0
 11
61.2836488849
 21
152.3408293326
 31
0.0
  0
SPLINE
  5
111
330
1F
100
AcDbEntity
  8
0
  6
HIDDEN
 62
     7
370
     0
100
AcDbSpline
210
0.0
220
0.0
230
1.0
 70
     8
 71
     3
 72
    10
 73
     6
 74
     0
 42
0.00000001
 43
0.00000001
 12
1.0
 22
0.0
 32
0.0
 13
1.0
 23
0.0
 33
0.0
 40
0.0
 40
0.0
 40
0.0
 40
0.0
 40
0.5
 40
0.5
 40
1.0
 40
1.0
 40
1.0
 40
1.0
 10
80.35342044521633
 20
166.9752582096334
 30
0.0
 10
80.38656786329278
 20
166.7662676086254
 30
0.0
 10
80.40342670865441
 20
166.5547051426038
 30
0.0
 10
80.40341417830673
 20
166.1267163766362
 30
0.0
 10
80.38649922056636
 20
165.9149582722205
 30
0.0
 10
80.35342044521633
 20
165.7064004555884
 30
0.0
  0
LINE
  5
112
330
1F
100
AcDbEntity
  8
0
  6
HIDDEN
 62
     7
370
     0
100
AcDbLine
 10
80.8534204452
 20
179.8408292732
 30
0.0
 11
80.8534204452
 21
152.8408293326
 31
0.0
  0
SPLINE
  5
113
330
1F
100
AcDbEntity
  8
0
  6
HIDDEN
 62
     7
370
     0
100
AcDbSpline
210
0.0
220
0.0
230
1.0
 70
     8
 71
     3
 72
    10
 73
     6
 74
     0
 42
0.00000001
 43
0.00000001
 12
1.0
 22
0.0
 32
0.0
 13
1.0
 23
0.0
 33
0.0
 40
0.0
 40
0.0
 40
0.0
 40
0.0
 40
0.5
 40
0.5
 40
1.0
 40
1.0
 40
1.0
 40
1.0
 10
80.35342044521633
 20
165.7064004555884
 30
0.0
 10
80.38660940769003
 20
165.9156529891709
 30
0.0
 10
80.40331018394468
 20
166.1264697500698
 30
0.0
 10
80.40352962438935
 20
166.5510020312731
 30
0.0
 10
80.38664990899593
 20
166.7657503200457
 30
0.0
 10
80.35342044521633
 20
166.9752582096334
 30
0.0
  0
SPLINE
  5
114
330
1F
100
AcDbEntity
  8
0
  6
HIDDEN
 62
     7
370
     0
100
AcDbSpline
210
0.0
220
0.0
230
1.0
 70
     8
 71
     3
 72
    68
 73
    64
 74
     0
 42
0.00000001
 43
0.00000001
 12
1.0
 22
0.0
 32
0.0
 13
1.0
 23
0.0
 33
0.0
 40
0.0
 40
0.0
 40
0.0
 40
0.0
 40
0.0312499999999999
 40
0.0312499999999999
 40
0.0624999999999998
 40
0.0624999999999998
 40
0.0937499999999997
 40
0.0937499999999997
 40
0.1249999999999996
 40
0.1249999999999996
 40
0.1562499999999995
 40
0.1562499999999995
 40
0.1874999999999994
 40
0.1874999999999994
 40
0.2187499999999993
 40
0.2187499999999993
 40
0.2499999999999992
 40
0.2499999999999992
 40
0.2812499999999991
 40
0.2812499999999991
 40
0.3124999999999989
 40
0.3124999999999989
 40
0.3437499999999988
 40
0.3437499999999988
 40
0.3749999999999988
 40
0.3749999999999988
 40
0.4062499999999987
 40
0.4062499999999987
 40
0.4374999999999986
 40
0.4374999999999986
 40
0.4687499999999984
 40
0.4687499999999984
 40
0.4999999999999983
 40
0.4999999999999983
 40
0.5624999999999981
 40
0.5624999999999981
 40
0.593749999999998
 40
0.593749999999998
 40
0.6249999999999979
 40
0.6249999999999979
 40
0.6562499999999978
 40
0.6562499999999978
 40
0.6874999999999977
 40
0.6874999999999977
 40
0.7187499999999976
 40
0.7187499999999976
 40
0.7499999999999976
 40
0.7499999999999976
 40
0.7812499999999979
 40
0.7812499999999979
 40
0.8124999999999982
 40
0.8124999999999982
 40
0.8437499999999986
 40
0.8437499999999986
 40
0.8749999999999989
 40
0.8749999999999989
 40
0.9062499999999992
 40
0.9062499999999992
 40
0.9374999999999996
 40
0.9374999999999996
 40
0.9687499999999998
 40
0.9687499999999998
 40
1.0
 40
1.0
 40
1.0
 40
1.0
 10
80.35342044521633
 20
165.7064004555884
 30
0.0
 10
80.31340549286664
 20
165.4541108527728
 30
0.0
 10
80.25046369145534
 20
165.210112002397
 30
0.0
 10
80.08107702938328
 20
164.7376936133344
 30
0.0
 10
79.9733834667978
 20
164.5072802271745
 30
0.0
 10
79.71809869825992
 20
164.0725756313774
 30
0.0
 10
79.57205946778768
 20
163.8699336647261
 30
0.0
 10
79.24383803122844
 20
163.4929443739683
 30
0.0
 10
79.05959074345346
 20
163.3172864203909
 30
0.0
 10
78.66663057614517
 20
163.0070284514447
 30
0.0
 10
78.457335979186
 20
162.8710832437948
 30
0.0
 10
78.01245055224865
 20
162.6376931483889
 30
0.0
 10
77.7756529597496
 20
162.5404465419745
 30
0.0
 10
77.29491789083035
 20
162.3937750841031
 30
0.0
 10
77.04867479764755
 20
162.3428827391607
 30
0.0
 10
76.54395801766813
 20
162.2873553889252
 30
0.0
 10
76.28776331673164
 20
162.2835305018553
 30
0.0
 10
75.78538456753154
 20
162.3229542844997
 30
0.0
 10
75.53613486834793
 20
162.365981733711
 30
0.0
 10
75.04460707086919
 20
162.4996867031622
 30
0.0
 10
74.80931146964333
 20
162.5883565490674
 30
0.0
 10
74.3583975749812
 20
162.8073879128449
 30
0.0
 10
74.14078522451783
 20
162.9393894785284
 30
0.0
 10
73.73757805496955
 20
163.2387467595313
 30
0.0
 10
73.5519665625351
 20
163.4053656869692
 30
0.0
 10
73.2119784921326
 20
163.7724771123966
 30
0.0
 10
73.0569055613097
 20
163.9747808579373
 30
0.0
 10
72.79056248464634
 20
164.3988615375314
 30
0.0
 10
72.67757838392954
 20
164.6220211429976
 30
0.0
 10
72.49272312699867
 20
165.0913763845917
 30
0.0
 10
72.42158236549525
 20
165.3375868879272
 30
0.0
 10
72.3276219542071
 20
165.8321127142984
 30
0.0
 10
72.3036126242507
 20
166.0830437093904
 30
0.0
 10
72.30303950357813
 20
166.8472890889466
 30
0.0
 10
72.39843861489675
 20
167.3495133909976
 30
0.0
 10
72.67630240709788
 20
168.05707789727
 30
0.0
 10
72.78946436317842
 20
168.2807841610108
 30
0.0
 10
73.0555955452223
 20
168.7050540723314
 30
0.0
 10
73.21042331942202
 20
168.9073060343874
 30
0.0
 10
73.55060442520984
 20
169.2750167757556
 30
0.0
 10
73.73610688215958
 20
169.441633651005
 30
0.0
 10
74.1384006832189
 20
169.7406830298004
 30
0.0
 10
74.35640873147092
 20
169.8731397378288
 30
0.0
 10
74.8070070986212
 20
170.0923461385335
 30
0.0
 10
75.04155609750198
 20
170.1808312685371
 30
0.0
 10
75.5300160910543
 20
170.3143174984758
 30
0.0
 10
75.78228148676818
 20
170.3582592109695
 30
0.0
 10
76.28446212492845
 20
170.398068207443
 30
0.0
 10
76.53694424228016
 20
170.3947239946295
 30
0.0
 10
77.04480928534964
 20
170.339544674639
 30
0.0
 10
77.29235475853345
 20
170.2884987461696
 30
0.0
 10
77.77332229600417
 20
170.1420883579339
 30
0.0
 10
78.00928216110943
 20
170.0454421531604
 30
0.0
 10
78.45585261063106
 20
169.8115372088473
 30
0.0
 10
78.66549747320451
 20
169.6754121950208
 30
0.0
 10
79.05848417995897
 20
169.3653579306917
 30
0.0
 10
79.24288008377397
 20
169.1897006831166
 30
0.0
 10
79.57143050163435
 20
168.8125607604522
 30
0.0
 10
79.71737259815754
 20
168.6100945551823
 30
0.0
 10
79.97225795335969
 20
168.176518257049
 30
0.0
 10
80.08056926616801
 20
167.9452264134674
 30
0.0
 10
80.25040424358495
 20
167.4718667333342
 30
0.0
 10
80.31339960472202
 20
167.2275849365134
 30
0.0
 10
80.35342044521633
 20
166.9752582096334
 30
0.0
  0
SPLINE
  5
115
330
1F
100
AcDbEntity
  8
0
  6
HIDDEN
 62
     7
370
     0
100
AcDbSpline
210
0.0
220
0.0
230
1.0
 70
     8
 71
     3
 72
    68
 73
    64
 74
     0
 42
0.00000001
 43
0.00000001
 12
1.0
 22
0.0
 32
0.0
 13
1.0
 23
0.0
 33
0.0
 40
0.0
 40
0.0
 40
0.0
 40
0.0
 40
0.03125
 40
0.03125
 40
0.0625
 40
0.0625
 40
0.0937500000000001
 40
0.0937500000000001
 40
0.1250000000000001
 40
0.1250000000000001
 40
0.1562500000000001
 40
0.1562500000000001
 40
0.1875000000000002
 40
0.1875000000000002
 40
0.2187500000000002
 40
0.2187500000000002
 40
0.2500000000000002
 40
0.2500000000000002
 40
0.2812500000000001
 40
0.2812500000000001
 40
0.3124999999999998
 40
0.3124999999999998
 40
0.3437499999999996
 40
0.3437499999999996
 40
0.3749999999999994
 40
0.3749999999999994
 40
0.4062499999999992
 40
0.4062499999999992
 40
0.437499999999999
 40
0.437499999999999
 40
0.4687499999999988
 40
0.4687499999999988
 40
0.4999999999999987
 40
0.4999999999999987
 40
0.5624999999999982
 40
0.5624999999999982
 40
0.5937499999999981
 40
0.5937499999999981
 40
0.624999999999998
 40
0.624999999999998
 40
0.6562499999999979
 40
0.6562499999999979
 40
0.6874999999999978
 40
0.6874999999999978
 40
0.7187499999999977
 40
0.7187499999999977
 40
0.7499999999999976
 40
0.7499999999999976
 40
0.781249999999998
 40
0.781249999999998
 40
0.8124999999999983
 40
0.8124999999999983
 40
0.8437499999999987
 40
0.8437499999999987
 40
0.874999999999999
 40
0.874999999999999
 40
0.9062499999999993
 40
0.9062499999999993
 40
0.9374999999999997
 40
0.9374999999999997
 40
0.9687499999999999
 40
0.9687499999999999
 40
1.0
 40
1.0
 40
1.0
 40
1.0
 10
80.35342044521633
 20
166.9752582096334
 30
0.0
 10
80.31340549286664
 20
167.227547812449
 30
0.0
 10
80.25046369145534
 20
167.4715466628248
 30
0.0
 10
80.08107702938328
 20
167.9439650518873
 30
0.0
 10
79.9733834667978
 20
168.1743784380472
 30
0.0
 10
79.71809869825991
 20
168.6090830338443
 30
0.0
 10
79.57205946778768
 20
168.8117250004956
 30
0.0
 10
79.24383803122844
 20
169.1887142912535
 30
0.0
 10
79.05959074345346
 20
169.3643722448308
 30
0.0
 10
78.66663057614517
 20
169.6746302137771
 30
0.0
 10
78.457335979186
 20
169.810575421427
 30
0.0
 10
78.01245055224865
 20
170.0439655168329
 30
0.0
 10
77.7756529597496
 20
170.1412121232473
 30
0.0
 10
77.29491789083035
 20
170.2878835811186
 30
0.0
 10
77.04867479764755
 20
170.338775926061
 30
0.0
 10
76.54395801766812
 20
170.3943032762965
 30
0.0
 10
76.28776331673164
 20
170.3981281633665
 30
0.0
 10
75.78538456753154
 20
170.358704380722
 30
0.0
 10
75.53613486834794
 20
170.3156769315108
 30
0.0
 10
75.04460707086919
 20
170.1819719620595
 30
0.0
 10
74.80931146964335
 20
170.0933021161543
 30
0.0
 10
74.3583975749812
 20
169.8742707523769
 30
0.0
 10
74.14078522451784
 20
169.7422691866934
 30
0.0
 10
73.73757805496953
 20
169.4429119056905
 30
0.0
 10
73.55196656253511
 20
169.2762929782526
 30
0.0
 10
73.21197849213262
 20
168.9091815528251
 30
0.0
 10
73.0569055613097
 20
168.7068778072844
 30
0.0
 10
72.79056248464634
 20
168.2827971276904
 30
0.0
 10
72.67757838392956
 20
168.0596375222242
 30
0.0
 10
72.49272312699867
 20
167.59028228063
 30
0.0
 10
72.42158236549527
 20
167.3440717772945
 30
0.0
 10
72.3276219542071
 20
166.8495459509234
 30
0.0
 10
72.3036126242507
 20
166.5986149558313
 30
0.0
 10
72.30303950357813
 20
165.8343695762751
 30
0.0
 10
72.39843861489675
 20
165.3321452742242
 30
0.0
 10
72.67630240709788
 20
164.6245807679518
 30
0.0
 10
72.78946436317842
 20
164.4008745042109
 30
0.0
 10
73.05559554522232
 20
163.9766045928904
 30
0.0
 10
73.21042331942202
 20
163.7743526308343
 30
0.0
 10
73.55060442520985
 20
163.4066418894662
 30
0.0
 10
73.73610688215958
 20
163.2400250142168
 30
0.0
 10
74.13840068321892
 20
162.9409756354214
 30
0.0
 10
74.35640873147092
 20
162.808518927393
 30
0.0
 10
74.80700709862121
 20
162.5893125266883
 30
0.0
 10
75.04155609750198
 20
162.5008273966847
 30
0.0
 10
75.5300160910543
 20
162.367341166746
 30
0.0
 10
75.78228148676818
 20
162.3233994542523
 30
0.0
 10
76.28446212492845
 20
162.2835904577788
 30
0.0
 10
76.53694424228016
 20
162.2869346705923
 30
0.0
 10
77.04480928534964
 20
162.3421139905828
 30
0.0
 10
77.29235475853346
 20
162.3931599190522
 30
0.0
 10
77.77332229600417
 20
162.5395703072878
 30
0.0
 10
78.00928216110944
 20
162.6362165120614
 30
0.0
 10
78.45585261063106
 20
162.8701214563744
 30
0.0
 10
78.66549747320451
 20
163.0062464702009
 30
0.0
 10
79.05848417995897
 20
163.31630073453
 30
0.0
 10
79.24288008377397
 20
163.4919579821052
 30
0.0
 10
79.57143050163435
 20
163.8690979047696
 30
0.0
 10
79.71737259815754
 20
164.0715641100394
 30
0.0
 10
79.97225795335969
 20
164.5051404081728
 30
0.0
 10
80.08056926616801
 20
164.7364322517543
 30
0.0
 10
80.25040424358495
 20
165.2097919318876
 30
0.0
 10
80.31339960472202
 20
165.4540737287084
 30
0.0
 10
80.35342044521633
 20
165.7064004555884
 30
0.0
  0
SPLINE
  5
116
330
1F
100
AcDbEntity
  8
0
  6
HIDDEN
 62
     7
370
     0
100
AcDbSpline
210
0.0
220
0.0
230
1.0
 70
     8
 71
     3
 72
    62
 73
    58
 74
     0
 42
0.00000001
 43
0.00000001
 12
1.0
 22
0.0
 32
0.0
 13
1.0
 23
0.0
 33
0.0
 40
-0.031250000000001
 40
-0.031250000000001
 40
0.0
 40
0.0
 40
0.0312499999999994
 40
0.0312499999999994
 40
0.0624999999999987
 40
0.0624999999999987
 40
0.1249999999999947
 40
0.1249999999999947
 40
0.1874999999999906
 40
0.1874999999999906
 40
0.2187499999999892
 40
0.2187499999999892
 40
0.2499999999999877
 40
0.2499999999999877
 40
0.2812499999999863
 40
0.2812499999999863
 40
0.3124999999999849
 40
0.3124999999999849
 40
0.3437499999999835
 40
0.3437499999999835
 40
0.3749999999999821
 40
0.3749999999999821
 40
0.4374999999999814
 40
0.4374999999999814
 40
0.4687499999999824
 40
0.4687499999999824
 40
0.4999999999999835
 40
0.4999999999999835
 40
0.5312499999999845
 40
0.5312499999999845
 40
0.5624999999999856
 40
0.5624999999999856
 40
0.5937499999999866
 40
0.5937499999999866
 40
0.6249999999999876
 40
0.6249999999999876
 40
0.6562499999999887
 40
0.6562499999999887
 40
0.6874999999999897
 40
0.6874999999999897
 40
0.7187499999999907
 40
0.7187499999999907
 40
0.7499999999999917
 40
0.7499999999999917
 40
0.7812499999999928
 40
0.7812499999999928
 40
0.8124999999999938
 40
0.8124999999999938
 40
0.8749999999999959
 40
0.8749999999999959
 40
0.9062499999999969
 40
0.9062499999999969
 40
0.9374999999999979
 40
0.9374999999999979
 40
0.968749999999999
 40
0.968749999999999
 40
1.0
 40
1.0
 40
1.031249999999999
 40
1.031249999999999
 10
209.7122222212365
 20
163.2018148075561
 30
0.0
 10
209.9946186691962
 20
163.2018148075561
 30
0.0
 10
210.13289654621
 20
163.2127103120777
 30
0.0
 10
210.4040626174178
 20
163.2553541140964
 30
0.0
 10
210.5382659448773
 20
163.2876937274314
 30
0.0
 10
210.9173291246675
 20
163.4135543881627
 30
0.0
 10
211.1463360463613
 20
163.5378916592989
 30
0.0
 10
211.5273666653641
 20
163.8556770307717
 30
0.0
 10
211.6829897422857
 20
164.0527491731901
 30
0.0
 10
211.8420602188543
 20
164.3894654925145
 30
0.0
 10
211.8837873639977
 20
164.5111575801135
 30
0.0
 10
211.9390580651397
 20
164.7617228124055
 30
0.0
 10
211.9531379966295
 20
164.8906929109723
 30
0.0
 10
211.9536945629507
 20
165.1563666529154
 30
0.0
 10
211.9397052855301
 20
165.2928847506523
 30
0.0
 10
211.8852237662945
 20
165.5595833605727
 30
0.0
 10
211.8443733081396
 20
165.6925986490254
 30
0.0
 10
211.7377593412801
 20
165.9505597652408
 30
0.0
 10
211.6730071990071
 20
166.073693199241
 30
0.0
 10
211.5214486570545
 20
166.3084958689213
 30
0.0
 10
211.4341105338815
 20
166.4203456767418
 30
0.0
 10
211.14833411292
 20
166.7252608899846
 30
0.0
 10
210.9187977644541
 20
166.8954063542119
 30
0.0
 10
210.5424796284599
 20
167.0710426591146
 30
0.0
 10
210.4101467200992
 20
167.1172547558162
 30
0.0
 10
210.1361140611084
 20
167.1799729255897
 30
0.0
 10
209.9980889014863
 20
167.195823487417
 30
0.0
 10
209.7200175202675
 20
167.1966638419195
 30
0.0
 10
209.5783045815971
 20
167.1810447019708
 30
0.0
 10
209.3058823259168
 20
167.119980640558
 30
0.0
 10
209.1740541814198
 20
167.0749268595653
 30
0.0
 10
208.9186552858151
 20
166.9569695464665
 30
0.0
 10
208.7984892826258
 20
166.885595846072
 30
0.0
 10
208.5733178700695
 20
166.7213948236809
 30
0.0
 10
208.4671668087352
 20
166.6273511663036
 30
0.0
 10
208.2757195200329
 20
166.423971575665
 30
0.0
 10
208.1897855061135
 20
166.3144770859621
 30
0.0
 10
208.0373731880734
 20
166.0799599021645
 30
0.0
 10
207.9711896977859
 20
165.9546668663752
 30
0.0
 10
207.8650079992348
 20
165.6996964141837
 30
0.0
 10
207.8240279360191
 20
165.5686866803868
 30
0.0
 10
207.7679477952217
 20
165.299406580526
 30
0.0
 10
207.7537236197805
 20
165.164096385473
 30
0.0
 10
207.7531269359089
 20
164.8994887428441
 30
0.0
 10
207.7668955034074
 20
164.7675432572416
 30
0.0
 10
207.8217455703495
 20
164.5153593395812
 30
0.0
 10
207.862242083626
 20
164.3958582755567
 30
0.0
 10
208.0217045548021
 20
164.0553221805081
 30
0.0
 10
208.1763729791163
 20
163.8585934915656
 30
0.0
 10
208.4646810104609
 20
163.6176470264039
 30
0.0
 10
208.5687058258087
 20
163.5473352780234
 30
0.0
 10
208.7931250839875
 20
163.4246677703056
 30
0.0
 10
208.915055871848
 20
163.3719290996845
 30
0.0
 10
209.1675130232739
 20
163.2879875311192
 30
0.0
 10
209.2983995531911
 20
163.2562624306524
 30
0.0
 10
209.570340470904
 20
163.2130636994681
 30
0.0
 10
209.7122222212365
 20
163.2018148075561
 30
0.0
 10
209.9946186691962
 20
163.2018148075561
 30
0.0
  0
SPLINE
  5
117
330
1F
100
AcDbEntity
  8
0
  6
HIDDEN
 62
     7
370
     0
100
AcDbSpline
210
0.0
220
0.0
230
1.0
 70
     8
 71
     3
 72
     8
 73
     4
 74
     0
 42
0.00000001
 43
0.00000001
 12
1.0
 22
0.0
 32
0.0
 13
1.0
 23
0.0
 33
0.0
 40
0.0
 40
0.0
 40
0.0
 40
0.0
 40
1.0
 40
1.0
 40
1.0
 40
1.0
 10
211.0134934575325
 20
164.4097133989044
 30
0.0
 10
210.9552191422497
 20
164.5495622564953
 30
0.0
 10
210.9334979103847
 20
164.6649998858207
 30
0.0
 10
210.952546391954
 20
164.7588827596376
 30
0.0
  0
SPLINE
  5
118
330
1F
100
AcDbEntity
  8
0
  6
HIDDEN
 62
     7
370
     0
100
AcDbSpline
210
0.0
220
0.0
230
1.0
 70
     8
 71
     3
 72
    54
 73
    50
 74
     0
 42
0.00000001
 43
0.00000001
 12
1.0
 22
0.0
 32
0.0
 13
1.0
 23
0.0
 33
0.0
 40
0.0
 40
0.0
 40
0.0
 40
0.0
 40
0.0312499999999988
 40
0.0312499999999988
 40
0.0624999999999977
 40
0.0624999999999977
 40
0.1249999999999949
 40
0.1249999999999949
 40
0.1874999999999922
 40
0.1874999999999922
 40
0.2499999999999895
 40
0.2499999999999895
 40
0.2812499999999884
 40
0.2812499999999884
 40
0.3124999999999872
 40
0.3124999999999872
 40
0.3437499999999861
 40
0.3437499999999861
 40
0.3749999999999849
 40
0.3749999999999849
 40
0.4374999999999823
 40
0.4374999999999823
 40
0.4687499999999811
 40
0.4687499999999811
 40
0.4999999999999798
 40
0.4999999999999798
 40
0.5624999999999805
 40
0.5624999999999805
 40
0.6249999999999811
 40
0.6249999999999811
 40
0.6562499999999827
 40
0.6562499999999827
 40
0.6874999999999843
 40
0.6874999999999843
 40
0.703124999999985
 40
0.703124999999985
 40
0.7187499999999856
 40
0.7187499999999856
 40
0.7499999999999863
 40
0.7499999999999863
 40
0.781249999999987
 40
0.781249999999987
 40
0.8124999999999878
 40
0.8124999999999878
 40
0.8749999999999919
 40
0.8749999999999919
 40
0.937499999999996
 40
0.937499999999996
 40
1.0
 40
1.0
 40
1.0
 40
1.0
 10
210.9525463919546
 20
164.758882759638
 30
0.0
 10
211.0406132375907
 20
164.7209354736943
 30
0.0
 10
211.1132485299024
 20
164.6897472860468
 30
0.0
 10
211.2487593938128
 20
164.6248545017841
 30
0.0
 10
211.3106909599884
 20
164.5917918282229
 30
0.0
 10
211.4851906887617
 20
164.4845290585942
 30
0.0
 10
211.5837625436677
 20
164.4042070585945
 30
0.0
 10
211.7520181351149
 20
164.2148514169159
 30
0.0
 10
211.8218807725298
 20
164.1051319077356
 30
0.0
 10
211.9218601640941
 20
163.8507090584031
 30
0.0
 10
211.9515857087231
 20
163.7076817233619
 30
0.0
 10
211.9542168460011
 20
163.4649264722226
 30
0.0
 10
211.9480069198598
 20
163.3807961635967
 30
0.0
 10
211.919594503318
 20
163.205144664646
 30
0.0
 10
211.896907466522
 20
163.112398267354
 30
0.0
 10
211.8353096975957
 20
162.9265751181551
 30
0.0
 10
211.7965425822216
 20
162.833095617337
 30
0.0
 10
211.7023302128859
 20
162.6448720984445
 30
0.0
 10
211.6465579198492
 20
162.5500843173658
 30
0.0
 10
211.4635190813475
 20
162.2792208902206
 30
0.0
 10
211.3163904121575
 20
162.1102543464924
 30
0.0
 10
211.0836594397275
 20
161.8899691394152
 30
0.0
 10
211.0032546235596
 20
161.8211447641082
 30
0.0
 10
210.8428940487565
 20
161.6954729696779
 30
0.0
 10
210.7622642215621
 20
161.6379700782576
 30
0.0
 10
210.5194696759085
 20
161.4789595542401
 30
0.0
 10
210.355962268049
 20
161.3910525817178
 30
0.0
 10
210.0434866249298
 20
161.2490952325888
 30
0.0
 10
209.8919565002955
 20
161.1940323863062
 30
0.0
 10
209.6781181367988
 20
161.1267477796455
 30
0.0
 10
209.6093149131974
 20
161.1070103095013
 30
0.0
 10
209.483553339243
 20
161.069268195723
 30
0.0
 10
209.4253371730082
 20
161.0516202940637
 30
0.0
 10
209.365711359209
 20
161.0173055055084
 30
0.0
 10
209.3508547925721
 20
161.0042023987972
 30
0.0
 10
209.3394975374494
 20
160.9732105288971
 30
0.0
 10
209.3434384223907
 20
160.9548721532448
 30
0.0
 10
209.3814967308422
 20
160.8967053621519
 30
0.0
 10
209.4378744623348
 20
160.8545376721384
 30
0.0
 10
209.5645710243699
 20
160.7789011852478
 30
0.0
 10
209.6360180961161
 20
160.7447982255691
 30
0.0
 10
209.7841793488225
 20
160.6861039664422
 30
0.0
 10
209.8615146906346
 20
160.6613200003607
 30
0.0
 10
210.0996925557806
 20
160.6020534260372
 30
0.0
 10
210.2683232931115
 20
160.5827252367777
 30
0.0
 10
210.6028633987434
 20
160.5950037399762
 30
0.0
 10
210.7703456838225
 20
160.6255028494943
 30
0.0
 10
211.1035570951393
 20
160.7524976179061
 30
0.0
 10
211.2608669399389
 20
160.8458638568838
 30
0.0
 10
211.404429255315
 20
160.9771422130909
 30
0.0
  0
SPLINE
  5
119
330
1F
100
AcDbEntity
  8
0
  6
HIDDEN
 62
     7
370
     0
100
AcDbSpline
210
0.0
220
0.0
230
1.0
 70
     8
 71
     3
 72
    16
 73
    12
 74
     0
 42
0.00000001
 43
0.00000001
 12
1.0
 22
0.0
 32
0.0
 13
1.0
 23
0.0
 33
0.0
 40
0.0
 40
0.0
 40
0.0
 40
0.0
 40
0.2500000000000019
 40
0.2500000000000019
 40
0.5000000000000039
 40
0.5000000000000039
 40
0.7500000000000058
 40
0.7500000000000058
 40
0.8750000000000029
 40
0.8750000000000029
 40
1.0
 40
1.0
 40
1.0
 40
1.0
 10
211.9334372743326
 20
162.0487382795656
 30
0.0
 10
211.9641098574016
 20
162.2775136760589
 30
0.0
 10
211.9586022198638
 20
162.5037150265142
 30
0.0
 10
211.8917462917562
 20
162.952296900857
 30
0.0
 10
211.8315374447482
 20
163.1649213684938
 30
0.0
 10
211.6697139918732
 20
163.5679632280085
 30
0.0
 10
211.5676386128482
 20
163.7586307425116
 30
0.0
 10
211.3879029451218
 20
164.019948723143
 30
0.0
 10
211.3233137280495
 20
164.1034837640359
 30
0.0
 10
211.1805637170802
 20
164.2636084755877
 30
0.0
 10
211.1030601626761
 20
164.340181801603
 30
0.0
 10
211.0134934575316
 20
164.4097133989044
 30
0.0
  0
LWPOLYLINE
  5
11A
330
1F
100
AcDbEntity
  8
0
  6
HIDDEN
 62
     7
370
     0
100
AcDbPolyline
 90
       18
 70
   128
 43
0.0
 10
211.9334372743
 20
162.0487382796
 10
211.9131570335
 20
162.7128278487
 10
211.6649580969
 20
163.3338486156
 10
211.2163047424
 20
163.8430819664
 10
210.6168423897
 20
164.1841790448
 10
209.9329041215
 20
164.3193959947
 10
209.2401706434
 20
164.2337704802
 10
208.6152958884
 20
163.936777332
 10
208.1274249308
 20
163.4612801169
 10
207.8305427864
 20
162.8598946431
 10
207.7575007389
 20
162.199166795
 10
207.9163812046
 20
161.5522089452
 10
208.2896033777
 20
160.9906097573
 10
208.8358686226
 20
160.5765125923
 10
209.494730345
 20
160.3557390792
 10
210.1932826668
 20
160.3527187549
 10
210.8542277747
 20
160.5677858313
 10
211.4044292553
 20
160.9771422131
  0
ARC
  5
11B
330
1F
100
AcDbEntity
  8
0
  6
HIDDEN
 62
     7
370
     0
100
AcDbCircle
 10
210.599919093
 20
164.5174283188
 30
0.0
 40
0.4273713361371473
100
AcDbArc
 50
345.4017038209
 51
34.4006073097
  0
SPLINE
  5
11C
330
1F
100
AcDbEntity
  8
0
  6
HIDDEN
 62
     7
370
     0
100
AcDbSpline
210
0.0
220
0.0
230
1.0
 70
     8
 71
     3
 72
    12
 73
     8
 74
     0
 42
0.00000001
 43
0.00000001
 12
1.0
 22
0.0
 32
0.0
 13
1.0
 23
0.0
 33
0.0
 40
0.0
 40
0.0
 40
0.0
 40
0.0
 40
0.2499999999999997
 40
0.2499999999999997
 40
0.4999999999999994
 40
0.4999999999999994
 40
1.0
 40
1.0
 40
1.0
 40
1.0
 10
211.4044292553151
 20
160.977142213091
 30
0.0
 10
211.42301534054
 20
161.0616531585972
 30
0.0
 10
211.450967506487
 20
161.1501942955757
 30
0.0
 10
211.5190262250819
 20
161.3285457771235
 30
0.0
 10
211.5590296440313
 20
161.4189149062517
 30
0.0
 10
211.6946153674086
 20
161.6948565853938
 30
0.0
 10
211.8014848499699
 20
161.8800126715927
 30
0.0
 10
211.9334372743326
 20
162.0487382795656
 30
0.0
  0
LINE
  5
11D
330
1F
100
AcDbEntity
  8
0
  6
HIDDEN
 62
     7
370
     0
100
AcDbLine
 10
82.1034204452
 20
175.3408293326
 30
0.0
 11
82.1034204452
 21
157.3408293326
 31
0.0
  0
LINE
  5
11E
330
1F
100
AcDbEntity
  8
0
  6
HIDDEN
 62
     7
370
     0
100
AcDbLine
 10
80.8534204452
 20
156.0908293326
 30
0.0
 11
80.8534204452
 21
176.5634852402
 31
0.0
  0
LINE
  5
11F
330
1F
100
AcDbEntity
  8
0
  6
HIDDEN
 62
     7
370
     0
100
AcDbLine
 10
107.8534204452
 20
175.3408293326
 30
0.0
 11
107.8534204452
 21
157.3408293326
 31
0.0
  0
LINE
  5
120
330
1F
100
AcDbEntity
  8
0
  6
HIDDEN
 62
     7
370
     0
100
AcDbLine
 10
110.7075083856
 20
170.5908293326
 30
0.0
 11
110.7075083856
 21
162.0908293326
 31
0.0
  0
SPLINE
  5
121
330
1F
100
AcDbEntity
  8
0
  6
HIDDEN
 62
     7
370
     0
100
AcDbSpline
210
0.0
220
0.0
230
1.0
 70
     8
 71
     3
 72
    62
 73
    58
 74
     0
 42
0.00000001
 43
0.00000001
 12
1.0
 22
0.0
 32
0.0
 13
1.0
 23
0.0
 33
0.0
 40
-0.0312499999999981
 40
-0.0312499999999981
 40
0.0
 40
0.0
 40
0.0312500000000018
 40
0.0312500000000018
 40
0.0625000000000036
 40
0.0625000000000036
 40
0.1250000000000043
 40
0.1250000000000043
 40
0.1875000000000051
 40
0.1875000000000051
 40
0.2187500000000061
 40
0.2187500000000061
 40
0.2500000000000071
 40
0.2500000000000071
 40
0.281250000000008
 40
0.281250000000008
 40
0.312500000000009
 40
0.312500000000009
 40
0.34375000000001
 40
0.34375000000001
 40
0.3750000000000109
 40
0.3750000000000109
 40
0.4375000000000106
 40
0.4375000000000106
 40
0.4687500000000105
 40
0.4687500000000105
 40
0.5000000000000103
 40
0.5000000000000103
 40
0.5312500000000101
 40
0.5312500000000101
 40
0.5625000000000099
 40
0.5625000000000099
 40
0.5937500000000097
 40
0.5937500000000097
 40
0.6250000000000094
 40
0.6250000000000094
 40
0.6562500000000093
 40
0.6562500000000093
 40
0.6875000000000091
 40
0.6875000000000091
 40
0.7187500000000089
 40
0.7187500000000089
 40
0.7500000000000088
 40
0.7500000000000088
 40
0.7812500000000087
 40
0.7812500000000087
 40
0.8125000000000085
 40
0.8125000000000085
 40
0.8750000000000071
 40
0.8750000000000071
 40
0.9062500000000054
 40
0.9062500000000054
 40
0.9375000000000037
 40
0.9375000000000037
 40
0.9687500000000019
 40
0.9687500000000019
 40
1.0
 40
1.0
 40
1.031250000000002
 40
1.031250000000002
 10
209.9946186691962
 20
165.485406489226
 30
0.0
 10
209.7122222212365
 20
165.485406489226
 30
0.0
 10
209.5739443442227
 20
165.5013105512438
 30
0.0
 10
209.3027782730149
 20
165.5626624094407
 30
0.0
 10
209.1685749455553
 20
165.6089262222726
 30
0.0
 10
208.7895117657651
 20
165.785023889732
 30
0.0
 10
208.5605048440713
 20
165.954781742737
 30
0.0
 10
208.1794742250686
 20
166.3603041402023
 30
0.0
 10
208.023851148147
 20
166.6002939322127
 30
0.0
 10
207.8647806715784
 20
166.9826305042504
 30
0.0
 10
207.8230535264349
 20
167.1167632917051
 30
0.0
 10
207.767782825293
 20
167.3839501622949
 30
0.0
 10
207.7537028938031
 20
167.5172511087144
 30
0.0
 10
207.7531463274819
 20
167.7830948154609
 30
0.0
 10
207.7671356049026
 20
167.9153099651726
 30
0.0
 10
207.8216171241382
 20
168.1656179394483
 30
0.0
 10
207.8624675822931
 20
168.2864398515207
 30
0.0
 10
207.9690815491525
 20
168.5137997110488
 30
0.0
 10
208.0338336914255
 20
168.6188153589848
 30
0.0
 10
208.1853922333781
 20
168.8136401839637
 30
0.0
 10
208.2727303565511
 20
168.9035251379054
 30
0.0
 10
208.5585067775127
 20
169.1425603898885
 30
0.0
 10
208.7880431259784
 20
169.267200291402
 30
0.0
 10
209.1643612619727
 20
169.3927699636974
 30
0.0
 10
209.2966941703334
 20
169.4250891549642
 30
0.0
 10
209.5707268293243
 20
169.468692340189
 30
0.0
 10
209.7087519889464
 20
169.4795488172946
 30
0.0
 10
209.9868233701651
 20
169.4801271823851
 30
0.0
 10
210.1285363088354
 20
169.4694287273027
 30
0.0
 10
210.4009585645158
 20
169.4269924665145
 30
0.0
 10
210.5327867090129
 20
169.3955168404964
 30
0.0
 10
210.7881856046174
 20
169.3112427566253
 30
0.0
 10
210.9083516078068
 20
169.2595105667511
 30
0.0
 10
211.1335230203631
 20
169.1372388329623
 30
0.0
 10
211.2396740816975
 20
169.0657522357354
 30
0.0
 10
211.4311213703997
 20
168.9064185490154
 30
0.0
 10
211.5170553843192
 20
168.8185009413285
 30
0.0
 10
211.6694677023592
 20
168.6241119767325
 30
0.0
 10
211.7356511926467
 20
168.5173163693939
 30
0.0
 10
211.8418328911977
 20
168.2927944160537
 30
0.0
 10
211.8828129544136
 20
168.1740011562167
 30
0.0
 10
211.9388930952109
 20
167.9215825551186
 30
0.0
 10
211.9531172706522
 20
167.7906482539165
 30
0.0
 10
211.9537139545237
 20
167.5262228271865
 30
0.0
 10
211.9399453870253
 20
167.3900408765958
 30
0.0
 10
211.8850953200832
 20
167.1213551051973
 30
0.0
 10
211.8445988068067
 20
166.9897665471557
 30
0.0
 10
211.6851363356306
 20
166.6034531550159
 30
0.0
 10
211.5304679113165
 20
166.363971085681
 30
0.0
 10
211.2421598799718
 20
166.0565837435103
 30
0.0
 10
211.138135064624
 20
165.9641210213322
 30
0.0
 10
210.9137158064451
 20
165.7995020452095
 30
0.0
 10
210.7917850185847
 20
165.7267788031681
 30
0.0
 10
210.5393278671587
 20
165.6093424144623
 30
0.0
 10
210.4084413372415
 20
165.5639631933775
 30
0.0
 10
210.1365004195286
 20
165.5018248140969
 30
0.0
 10
209.9946186691962
 20
165.485406489226
 30
0.0
 10
209.7122222212365
 20
165.485406489226
 30
0.0
  0
LINE
  5
122
330
1F
100
AcDbEntity
  8
0
  6
HIDDEN
 62
     7
370
     0
100
AcDbLine
 10
212.8534204452
 20
162.0908293326
 30
0.0
 11
212.8534204452
 21
170.5908293326
 31
0.0
  0
LINE
  5
123
330
1F
100
AcDbEntity
  8
0
  6
HIDDEN
 62
     7
370
     0
100
AcDbLine
 10
250.467994486
 20
157.1413912878
 30
0.0
 11
250.4692834407
 21
157.1266943566
 31
0.0
  0
LINE
  5
124
330
1F
100
AcDbEntity
  8
0
  6
HIDDEN
 62
     7
370
     0
100
AcDbLine
 10
250.4692834407
 20
157.1266943566
 30
0.0
 11
241.0586542317
 21
157.9480121546
 31
0.0
  0
LINE
  5
125
330
1F
100
AcDbEntity
  8
0
  6
HIDDEN
 62
     7
370
     0
100
AcDbLine
 10
238.1933135838
 20
155.1514728877
 30
0.0
 11
238.2339883131
 21
155.1302269803
 31
0.0
  0
LINE
  5
126
330
1F
100
AcDbEntity
  8
0
  6
HIDDEN
 62
     7
370
     0
100
AcDbLine
 10
238.2339883131
 20
155.1302269803
 30
0.0
 11
239.0508390468
 21
145.8163239735
 31
0.0
  0
ELLIPSE
  5
127
330
1F
100
AcDbEntity
  8
0
  6
HIDDEN
 62
     7
370
     0
100
AcDbEllipse
 10
244.7038064537
 20
166.3408293326
 30
0.0
 11
-11.76369068746817
 21
16.48124712370796
 31
0.0
210
0.0
220
0.0
230
1.0
 40
0.0668534593
 41
6.235504004580413
 42
7.806300331375068
  0
LINE
  5
128
330
1F
100
AcDbEntity
  8
0
  6
HIDDEN
 62
     7
370
     0
100
AcDbLine
 10
226.3534204452
 20
166.3408293326
 30
0.0
 11
226.3534204452
 21
182.8408293326
 31
0.0
  0
SPLINE
  5
129
330
1F
100
AcDbEntity
  8
0
  6
HIDDEN
 62
     7
370
     0
100
AcDbSpline
210
0.0
220
0.0
230
1.0
 70
     8
 71
     3
 72
    20
 73
    16
 74
     0
 42
0.00000001
 43
0.00000001
 12
1.0
 22
0.0
 32
0.0
 13
1.0
 23
0.0
 33
0.0
 40
0.0
 40
0.0
 40
0.0
 40
0.0
 40
0.2500000000000003
 40
0.2500000000000003
 40
0.3750000000000002
 40
0.3750000000000002
 40
0.5000000000000002
 40
0.5000000000000002
 40
0.6250000000000002
 40
0.6250000000000002
 40
0.7500000000000001
 40
0.7500000000000001
 40
0.8750000000000001
 40
0.8750000000000001
 40
1.0
 40
1.0
 40
1.0
 40
1.0
 10
228.1757293970189
 20
158.3748387899786
 30
0.0
 10
228.2700409978567
 20
156.7305401698281
 30
0.0
 10
228.3752770559027
 20
155.2120582503903
 30
0.0
 10
228.5477237719785
 20
153.1225878942799
 30
0.0
 10
228.6066369946725
 20
152.4705173356429
 30
0.0
 10
228.7261813552292
 20
151.258919658037
 30
0.0
 10
228.7869155776249
 20
150.6981667809451
 30
0.0
 10
228.9098725352545
 20
149.6681754031831
 30
0.0
 10
228.9724738625616
 20
149.1969780384685
 30
0.0
 10
229.0950811919906
 20
148.3755248534964
 30
0.0
 10
229.1554551158134
 20
148.0215856248877
 30
0.0
 10
229.2739424818535
 20
147.4262580821037
 30
0.0
 10
229.3321582586505
 20
147.1845282321836
 30
0.0
 10
229.4454456285423
 20
146.8205912691556
 30
0.0
 10
229.4994846541545
 20
146.7015078976938
 30
0.0
 10
229.5508603490286
 20
146.6438847411943
 30
0.0
  0
SPLINE
  5
12A
330
1F
100
AcDbEntity
  8
0
  6
HIDDEN
 62
     7
370
     0
100
AcDbSpline
210
0.0
220
0.0
230
1.0
 70
     8
 71
     3
 72
    14
 73
    10
 74
     0
 42
0.00000001
 43
0.00000001
 12
1.0
 22
0.0
 32
0.0
 13
1.0
 23
0.0
 33
0.0
 40
0.0
 40
0.0
 40
0.0
 40
0.0
 40
0.2499999999999999
 40
0.2499999999999999
 40
0.4999999999999999
 40
0.4999999999999999
 40
0.7499999999999999
 40
0.7499999999999999
 40
1.0
 40
1.0
 40
1.0
 40
1.0
 10
228.1757293970189
 20
158.3748387899786
 30
0.0
 10
227.9043923398921
 20
158.9989320981673
 30
0.0
 10
227.6541592892208
 20
159.6336312059656
 30
0.0
 10
227.2073016304368
 20
160.9299702965266
 30
0.0
 10
227.0104698117077
 20
161.5934557311266
 30
0.0
 10
226.6889603224628
 20
162.9336874062736
 30
0.0
 10
226.5634914816579
 20
163.6145482726767
 30
0.0
 10
226.3960198156354
 20
164.9756449842462
 30
0.0
 10
226.3534204452164
 20
165.6575399230925
 30
0.0
 10
226.3534204452163
 20
166.3408293326109
 30
0.0
  0
ELLIPSE
  5
12B
330
1F
100
AcDbEntity
  8
0
  6
HIDDEN
 62
     7
370
     0
100
AcDbEllipse
 10
239.1877194712
 20
157.6290163166
 30
0.0
 11
1.616902374425223
 21
2.318196838028314
 31
0.0
210
0.0
220
0.0
230
1.0
 40
0.57803977
 41
3.548934393834067
 42
3.686857627939816
  0
ELLIPSE
  5
12C
330
1F
100
AcDbEntity
  8
0
  6
HIDDEN
 62
     7
370
     0
100
AcDbEllipse
 10
239.1877194712
 20
157.6290163166
 30
0.0
 11
2.099281448397761
 21
-0.1276543563555208
 31
0.0
210
0.0
220
0.0
230
1.0
 40
0.4303093993
 41
0.3596638604384773
 42
0.4975870945442381
  0
LINE
  5
12D
330
1F
100
AcDbEntity
  8
0
  6
HIDDEN
 62
     7
370
     0
100
AcDbLine
 10
241.1720122306
 20
157.8274692948
 30
0.0
 11
241.1720122306
 21
157.9934897024
 31
0.0
  0
ARC
  5
12E
330
1F
100
AcDbEntity
  8
0
  6
HIDDEN
 62
     7
370
     0
100
AcDbCircle
 10
239.1892970739
 20
157.3092995657
 30
0.0
 40
2.09744500181009
100
AcDbArc
 50
250.8218643824
 51
19.038395848
  0
LINE
  5
12F
330
1F
100
AcDbEntity
  8
0
  6
HIDDEN
 62
     7
370
     0
100
AcDbLine
 10
238.5002732952
 20
155.3282589887
 30
0.0
 11
238.5002732952
 21
155.1622385812
 31
0.0
  0
ARC
  5
130
330
1F
100
AcDbEntity
  8
0
  6
HIDDEN
 62
     7
370
     0
100
AcDbCircle
 10
239.1846159618
 20
157.3335958678
 30
0.0
 40
2.097047358136198
100
AcDbArc
 50
270.0847944873
 51
184.6382426807
  0
LWPOLYLINE
  5
131
330
1F
100
AcDbEntity
  8
0
  6
HIDDEN
 62
     7
370
     0
100
AcDbPolyline
 90
        3
 70
   128
 43
0.0
 10
238.1624680091
 20
155.5031805853
 10
238.5058505859
 20
155.350057427
 10
239.1877194712
 20
155.2365508062
  0
LINE
  5
132
330
1F
100
AcDbEntity
  8
0
  6
HIDDEN
 62
     7
370
     0
100
AcDbLine
 10
248.2994257136
 20
158.9258734974
 30
0.0
 11
250.3512415449
 21
158.4726327548
 31
0.0
  0
LINE
  5
133
330
1F
100
AcDbEntity
  8
0
  6
HIDDEN
 62
     7
370
     0
100
AcDbLine
 10
250.2335408065
 20
157.036619445
 30
0.0
 11
241.1720122306
 21
157.8274692948
 31
0.0
  0
LINE
  5
134
330
1F
100
AcDbEntity
  8
0
  6
HIDDEN
 62
     7
370
     0
100
AcDbLine
 10
250.2335408065
 20
157.036619445
 30
0.0
 11
250.4692834407
 21
157.1266943566
 31
0.0
  0
LINE
  5
135
330
1F
100
AcDbEntity
  8
0
  6
HIDDEN
 62
     7
370
     0
100
AcDbLine
 10
238.5002732952
 20
155.1622385812
 30
0.0
 11
239.3002588661
 21
146.0406356889
 31
0.0
  0
ELLIPSE
  5
136
330
1F
100
AcDbEntity
  8
0
  6
HIDDEN
 62
     7
370
     0
100
AcDbEllipse
 10
237.3872307307
 20
164.9965253594
 30
0.0
 11
-1.563905465413512
 21
19.20496181771455
 31
0.0
210
0.0
220
0.0
230
1.0
 40
0.1268365588
 41
3.183087968823086
 42
3.292820353496265
  0
LINE
  5
137
330
1F
100
AcDbEntity
  8
0
  6
HIDDEN
 62
     7
370
     0
100
AcDbLine
 10
249.9379346426
 20
157.2284390417
 30
0.0
 11
250.2335408065
 21
157.036619445
 31
0.0
  0
LINE
  5
138
330
1F
100
AcDbEntity
  8
0
  6
HIDDEN
 62
     7
370
     0
100
AcDbLine
 10
238.5002732952
 20
155.3282589887
 30
0.0
 11
239.2648049263
 21
146.6109093366
 31
0.0
  0
ELLIPSE
  5
139
330
1F
100
AcDbEntity
  8
0
  6
HIDDEN
 62
     7
370
     0
100
AcDbEllipse
 10
237.627772067
 20
164.9754807194
 30
0.0
 11
-1.677499657206767
 21
19.21932851201851
 31
0.0
210
0.0
220
0.0
230
1.0
 40
0.0059876405
 41
3.313341589854542
 42
3.440427958461375
  0
LWPOLYLINE
  5
13A
330
1F
100
AcDbEntity
  8
0
  6
HIDDEN
 62
     7
370
     0
100
AcDbPolyline
 90
       20
 70
   128
 43
0.0
 10
209.8534204452
 20
167.4337805921
 10
210.5352893305
 20
167.5419954094
 10
211.1432671419
 20
167.8549131065
 10
211.6114700496
 20
168.3386241957
 10
211.8891610037
 20
168.9407110747
 10
211.9462478805
 20
169.5959282881
 10
211.7765444312
 20
170.2332728838
 10
211.3984406576
 20
170.7836786857
 10
210.8529099706
 20
171.1875006846
 10
210.1990690848
 20
171.4009785009
 10
209.5077718056
 20
171.4009785009
 10
208.8539309198
 20
171.1875006846
 10
208.3084002328
 20
170.7836786857
 10
207.9302964592
 20
170.2332728838
 10
207.7605930099
 20
169.5959282881
 10
207.8176798867
 20
168.9407110747
 10
208.0953708409
 20
168.3386241957
 10
208.5635737486
 20
167.8549131065
 10
209.1715515599
 20
167.5419954094
 10
209.8534204452
 20
167.4337805921
  0
LINE
  5
13B
330
1F
100
AcDbEntity
  8
0
  6
HIDDEN
 62
     7
370
     0
100
AcDbLine
 10
250.4088125893
 20
145.6567851257
 30
0.0
 11
250.9079817406
 21
146.1677579494
 31
0.0
  0
CIRCLE
  5
13C
330
1F
100
AcDbEntity
  8
0
  6
HIDDEN
 62
     7
370
     0
100
AcDbCircle
 10
244.8517725482
 20
151.6612894633
 30
0.0
 40
2.99778709698721
  0
LINE
  5
13D
330
1F
100
AcDbEntity
  8
0
  6
HIDDEN
 62
     7
370
     0
100
AcDbLine
 10
249.9379346426
 20
157.2284390417
 30
0.0
 11
241.1720122306
 21
157.9934897024
 31
0.0
  0
ELLIPSE
  5
13E
330
1F
100
AcDbEntity
  8
0
  6
HIDDEN
 62
     7
370
     0
100
AcDbEllipse
 10
-469.931431833
 20
226.8788898341
 30
0.0
 11
3113.331223476199
 21
-271.0557416021157
 31
0.0
210
0.0
220
0.0
230
1.0
 40
0.0060650906
 41
4.942727870743417
 42
4.946405554949569
  0
LINE
  5
13F
330
1F
100
AcDbEntity
  8
0
  6
HIDDEN
 62
     7
370
     0
100
AcDbLine
 10
249.9379346426
 20
157.2284390417
 30
0.0
 11
250.9079818632
 21
146.1677576311
 31
0.0
  0
CIRCLE
  5
140
330
1F
100
AcDbEntity
  8
0
  6
HIDDEN
 62
     7
370
     0
100
AcDbCircle
 10
244.849914332
 20
151.7220657827
 30
0.0
 40
2.097331976021501
  0
SPLINE
  5
141
330
1F
100
AcDbEntity
  8
0
  6
HIDDEN
 62
     7
370
     0
100
AcDbSpline
210
0.0
220
0.0
230
1.0
 70
     8
 71
     3
 72
    25
 73
    21
 74
     0
 42
0.00000001
 43
0.00000001
 12
1.0
 22
0.0
 32
0.0
 13
1.0
 23
0.0
 33
0.0
 40
0.0
 40
0.0
 40
0.0
 40
0.0
 40
0.0199998917700876
 40
0.040882848201181
 40
0.0626488720923081
 40
0.0923707219366592
 40
0.1253136303744083
 40
0.1879819105472772
 40
0.2506511419271781
 40
0.3133132887856824
 40
0.3759603830168345
 40
0.5011343245869806
 40
0.6261581682073857
 40
0.6898548609838053
 40
0.7510243910057325
 40
0.8143052691476026
 40
0.8756460386477638
 40
0.917787000909165
 40
0.9592380417091307
 40
0.9999999999999999
 40
0.9999999999999999
 40
0.9999999999999999
 40
0.9999999999999999
 10
248.0581818230848
 20
156.6353496247169
 30
0.0
 10
248.0724596030999
 20
156.5329824796558
 30
0.0
 10
248.1016455766902
 20
156.3237283246617
 30
0.0
 10
248.1468842506997
 20
156.0061608578526
 30
0.0
 10
248.1995775192784
 20
155.6422132058755
 30
0.0
 10
248.2617094034031
 20
155.2221971865843
 30
0.0
 10
248.3550150876478
 20
154.6072829829458
 30
0.0
 10
248.474848427347
 20
153.8480496585004
 30
0.0
 10
248.6198394664319
 20
152.9759785989046
 30
0.0
 10
248.767084768208
 20
152.1360933812825
 30
0.0
 10
248.9657335167804
 20
151.0629951109553
 30
0.0
 10
249.2175519225699
 20
149.8138291396029
 30
0.0
 10
249.4721746763948
 20
148.6978599367742
 30
0.0
 10
249.6741845013133
 20
147.9002459533796
 30
0.0
 10
249.8255998776723
 20
147.3464736777752
 30
0.0
 10
249.9739549457463
 20
146.8474620216977
 30
0.0
 10
250.1057443775079
 20
146.4437198267539
 30
0.0
 10
250.2189382246076
 20
146.1263393929342
 30
0.0
 10
250.3151313680649
 20
145.8755878263112
 30
0.0
 10
250.377760370057
 20
145.7293068656391
 30
0.0
 10
250.4088124031325
 20
145.6567794249228
 30
0.0
  0
SPLINE
  5
142
330
1F
100
AcDbEntity
  8
0
  6
HIDDEN
 62
     7
370
     0
100
AcDbSpline
210
0.0
220
0.0
230
1.0
 70
     8
 71
     3
 72
    29
 73
    25
 74
     0
 42
0.00000001
 43
0.00000001
 12
1.0
 22
0.0
 32
0.0
 13
1.0
 23
0.0
 33
0.0
 40
0.0
 40
0.0
 40
0.0
 40
0.0
 40
0.0248585524672145
 40
0.0497062406974982
 40
0.0745560622323042
 40
0.0994210112676871
 40
0.1243140583100011
 40
0.1554263774926131
 40
0.1865867279805316
 40
0.2489251963033767
 40
0.3113303818025488
 40
0.373796082780511
 40
0.4363152917591069
 40
0.4988803158591518
 40
0.5614828870091172
 40
0.6241142219351291
 40
0.6867652256274526
 40
0.74942647860895
 40
0.8120885030433335
 40
0.8434043211227497
 40
0.8747479337716945
 40
0.9164935886807613
 40
0.9582246595432095
 40
1.0
 40
1.0
 40
1.0
 40
1.0
 10
250.9079820512485
 20
146.1677575402947
 30
0.0
 10
250.8877710428493
 20
146.2135361093904
 30
0.0
 10
250.8473578591148
 20
146.3050732404146
 30
0.0
 10
250.786104791706
 20
146.4541691547576
 30
0.0
 10
250.7244210332568
 20
146.6118243359082
 30
0.0
 10
250.6622585407105
 20
146.7788919616983
 30
0.0
 10
250.594450764513
 20
146.9697122124648
 30
0.0
 10
250.5208818705536
 20
147.1871487041582
 30
0.0
 10
250.4150377135009
 20
147.5163368498708
 30
0.0
 10
250.2814833236601
 20
147.9622427234047
 30
0.0
 10
250.1198718924258
 20
148.5501698018238
 30
0.0
 10
249.9573726615469
 20
149.1892131510861
 30
0.0
 10
249.7945269070998
 20
149.8773067631545
 30
0.0
 10
249.6318724430877
 20
150.6120913302869
 30
0.0
 10
249.4699493449851
 20
151.3912287595601
 30
0.0
 10
249.3092913498635
 20
152.2120413835788
 30
0.0
 10
249.1504327379644
 20
153.0719043033513
 30
0.0
 10
248.9938992412494
 20
153.9678815312984
 30
0.0
 10
248.8658223725749
 20
154.7422095733352
 30
0.0
 10
248.7650366763431
 20
155.3767463422445
 30
0.0
 10
248.6820541813751
 20
155.9133370795772
 30
0.0
 10
248.5921803326182
 20
156.513322516013
 30
0.0
 10
248.4958243482019
 20
157.1783452588982
 30
0.0
 10
248.4332681392343
 20
157.6302093152452
 30
0.0
 10
248.4019734531614
 20
157.8562611176861
 30
0.0
  0
SPLINE
  5
143
330
1F
100
AcDbEntity
  8
0
  6
HIDDEN
 62
     7
370
     0
100
AcDbSpline
210
0.0
220
0.0
230
1.0
 70
     8
 71
     3
 72
    62
 73
    58
 74
     0
 42
0.00000001
 43
0.00000001
 12
1.0
 22
0.0
 32
0.0
 13
1.0
 23
0.0
 33
0.0
 40
-0.031249999999996
 40
-0.031249999999996
 40
0.0
 40
0.0
 40
0.0312500000000011
 40
0.0312500000000011
 40
0.0625000000000022
 40
0.0625000000000022
 40
0.0937500000000032
 40
0.0937500000000032
 40
0.1250000000000043
 40
0.1250000000000043
 40
0.1562500000000054
 40
0.1562500000000054
 40
0.1875000000000064
 40
0.1875000000000064
 40
0.250000000000007
 40
0.250000000000007
 40
0.2812500000000073
 40
0.2812500000000073
 40
0.3125000000000077
 40
0.3125000000000077
 40
0.3437500000000079
 40
0.3437500000000079
 40
0.3750000000000082
 40
0.3750000000000082
 40
0.4062500000000085
 40
0.4062500000000085
 40
0.4375000000000088
 40
0.4375000000000088
 40
0.4687500000000092
 40
0.4687500000000092
 40
0.5000000000000094
 40
0.5000000000000094
 40
0.5312500000000098
 40
0.5312500000000098
 40
0.56250000000001
 40
0.56250000000001
 40
0.5937500000000103
 40
0.5937500000000103
 40
0.6250000000000107
 40
0.6250000000000107
 40
0.6562500000000109
 40
0.6562500000000109
 40
0.6875000000000112
 40
0.6875000000000112
 40
0.7500000000000118
 40
0.7500000000000118
 40
0.8125000000000124
 40
0.8125000000000124
 40
0.843750000000012
 40
0.843750000000012
 40
0.8750000000000114
 40
0.8750000000000114
 40
0.937500000000008
 40
0.937500000000008
 40
0.968750000000004
 40
0.968750000000004
 40
1.0
 40
1.0
 40
1.031250000000001
 40
1.031250000000001
 10
244.6864142054454
 20
150.0627721445807
 30
0.0
 10
245.0196722734696
 20
150.0652617991665
 30
0.0
 10
245.1770785989218
 20
150.0875652181015
 30
0.0
 10
245.4777745234847
 20
150.1655336047662
 30
0.0
 10
245.6174490610302
 20
150.2206653055154
 30
0.0
 10
245.8725601492099
 20
150.3521935406863
 30
0.0
 10
245.9890314279335
 20
150.42914857645
 30
0.0
 10
246.1980868544062
 20
150.5959295032516
 30
0.0
 10
246.291960079104
 20
150.6865056407659
 30
0.0
 10
246.4619413872326
 20
150.8806525145179
 30
0.0
 10
246.5375739251133
 20
150.9839994434901
 30
0.0
 10
246.6689740130618
 20
151.1974708899678
 30
0.0
 10
246.7253390597048
 20
151.3082885277334
 30
0.0
 10
246.8678731614421
 20
151.6529612328476
 30
0.0
 10
246.9277299922848
 20
151.9018082315849
 30
0.0
 10
246.9559442150964
 20
152.2819295833237
 30
0.0
 10
246.9553303726695
 20
152.4103764588639
 30
0.0
 10
246.9320163675364
 20
152.6707777439494
 30
0.0
 10
246.9089927517178
 20
152.8039008404684
 30
0.0
 10
246.8382704366314
 20
153.0673805725775
 30
0.0
 10
246.7909353204962
 20
153.1973275858869
 30
0.0
 10
246.6691548699803
 20
153.4524305231782
 30
0.0
 10
246.5936749401028
 20
153.578848611764
 30
0.0
 10
246.4159980488624
 20
153.8159017055027
 30
0.0
 10
246.3139452313377
 20
153.9271306240641
 30
0.0
 10
246.0787391369029
 20
154.1314418652068
 30
0.0
 10
245.9481470779098
 20
154.2218315046957
 30
0.0
 10
245.6665592298424
 20
154.3711560421916
 30
0.0
 10
245.5114461023435
 20
154.4316574173545
 30
0.0
 10
245.192732429392
 20
154.5120189060682
 30
0.0
 10
245.0288564670421
 20
154.5327755567371
 30
0.0
 10
244.6951658786241
 20
154.5329934700768
 30
0.0
 10
244.5327154544018
 20
154.512593552948
 30
0.0
 10
244.2160909345196
 20
154.4337820138865
 30
0.0
 10
244.0654594127793
 20
154.3758414268495
 30
0.0
 10
243.7868569546997
 20
154.2310922981114
 30
0.0
 10
243.6576857184956
 20
154.1434745323488
 30
0.0
 10
243.4281588136804
 20
153.9501175345926
 30
0.0
 10
243.3252579660724
 20
153.8423206799528
 30
0.0
 10
243.1479615862319
 20
153.6165413654459
 30
0.0
 10
243.0730993585404
 20
153.4985958499362
 30
0.0
 10
242.9471420621537
 20
153.2547135173373
 30
0.0
 10
242.8958984432618
 20
153.1277816161912
 30
0.0
 10
242.7787464876682
 20
152.7476696317497
 30
0.0
 10
242.7465714583246
 20
152.4930723090676
 30
0.0
 10
242.7615815059924
 20
151.9837753607096
 30
0.0
 10
242.8085214813636
 20
151.7382995367363
 30
0.0
 10
242.9366756777411
 20
151.3831625254522
 30
0.0
 10
242.9896430675646
 20
151.2663825507568
 30
0.0
 10
243.1148543993532
 20
151.0426414593583
 30
0.0
 10
243.187158570419
 20
150.9350922623827
 30
0.0
 10
243.4382550296783
 20
150.6261968922972
 30
0.0
 10
243.6515157753957
 20
150.4370109660505
 30
0.0
 10
244.0576136358779
 20
150.2219224245764
 30
0.0
 10
244.2045855473829
 20
150.1635239562342
 30
0.0
 10
244.5233238102171
 20
150.0828634800483
 30
0.0
 10
244.6864142054454
 20
150.0627721445807
 30
0.0
 10
245.0196722734696
 20
150.0652617991665
 30
0.0
  0
LINE
  5
144
330
1F
100
AcDbEntity
  8
0
  6
HIDDEN
 62
     7
370
     0
100
AcDbLine
 10
89.6534204452
 20
150.8059088097
 30
0.0
 11
89.6534204452
 21
144.320730548
 31
0.0
  0
SPLINE
  5
145
330
1F
100
AcDbEntity
  8
0
  6
HIDDEN
 62
     7
370
     0
100
AcDbSpline
210
0.0
220
0.0
230
1.0
 70
     8
 71
     3
 72
    16
 73
    12
 74
     0
 42
0.00000001
 43
0.00000001
 12
1.0
 22
0.0
 32
0.0
 13
1.0
 23
0.0
 33
0.0
 40
0.0
 40
0.0
 40
0.0
 40
0.0
 40
0.2499999999999995
 40
0.2499999999999995
 40
0.3749999999999994
 40
0.3749999999999994
 40
0.4999999999999994
 40
0.4999999999999994
 40
0.7499999999999997
 40
0.7499999999999997
 40
1.0
 40
1.0
 40
1.0
 40
1.0
 10
90.53210010165665
 20
149.7569227063699
 30
0.0
 10
90.37086762417218
 20
149.0425285441777
 30
0.0
 10
90.25038778453255
 20
148.3891862814691
 30
0.0
 10
90.12800726721923
 20
147.5009310396652
 30
0.0
 10
90.09702960682176
 20
147.2202505033133
 30
0.0
 10
90.05541586919381
 20
146.6912165134733
 30
0.0
 10
90.04517995626101
 20
146.4478955348949
 30
0.0
 10
90.0449915592049
 20
145.7798728443816
 30
0.0
 10
90.08513626184252
 20
145.4161919349622
 30
0.0
 10
90.24929001678208
 20
144.8563010624138
 30
0.0
 10
90.37084166719164
 20
144.6687797702967
 30
0.0
 10
90.53210010165665
 20
144.5707483776087
 30
0.0
  0
LINE
  5
146
330
1F
100
AcDbEntity
  8
0
  6
HIDDEN
 62
     7
370
     0
100
AcDbLine
 10
55.3534204452
 20
151.2367765039
 30
0.0
 11
55.3534204452
 21
145.1824659363
 31
0.0
  0
LINE
  5
147
330
1F
100
AcDbEntity
  8
0
  6
HIDDEN
 62
     7
370
     0
100
AcDbLine
 10
53.8534204452
 20
151.6697892058
 30
0.0
 11
53.8534204452
 21
146.0484913401
 31
0.0
  0
SPLINE
  5
148
330
1F
100
AcDbEntity
  8
0
  6
HIDDEN
 62
     7
370
     0
100
AcDbSpline
210
0.0
220
0.0
230
1.0
 70
     8
 71
     3
 72
    16
 73
    12
 74
     0
 42
0.00000001
 43
0.00000001
 12
1.0
 22
0.0
 32
0.0
 13
1.0
 23
0.0
 33
0.0
 40
0.0
 40
0.0
 40
0.0
 40
0.0
 40
0.2499999999999998
 40
0.2499999999999998
 40
0.3749999999999997
 40
0.3749999999999997
 40
0.4999999999999996
 40
0.4999999999999996
 40
0.7499999999999998
 40
0.7499999999999998
 40
1.0
 40
1.0
 40
1.0
 40
1.0
 10
90.53210010165665
 20
188.110910287613
 30
0.0
 10
90.37086762417219
 20
188.0128946745583
 30
0.0
 10
90.25038778453256
 20
187.8261586428822
 30
0.0
 10
90.12800726721925
 20
187.4131188353233
 30
0.0
 10
90.09702960682178
 20
187.2531183360904
 30
0.0
 10
90.05541586919382
 20
186.8863126849992
 30
0.0
 10
90.04517995626102
 20
186.6829755323753
 30
0.0
 10
90.0449915592049
 20
186.0156882657486
 30
0.0
 10
90.08513626184252
 20
185.4948738018605
 30
0.0
 10
90.24929001678208
 20
184.2975147863828
 30
0.0
 10
90.37084166719166
 20
183.6392451320868
 30
0.0
 10
90.53210010165665
 20
182.9247359588519
 30
0.0
  0
LINE
  5
149
330
1F
100
AcDbEntity
  8
0
  6
HIDDEN
 62
     7
370
     0
100
AcDbLine
 10
89.6534204452
 20
188.3609281172
 30
0.0
 11
89.6534204452
 21
181.8757498555
 31
0.0
  0
LINE
  5
14A
330
1F
100
AcDbEntity
  8
0
  6
HIDDEN
 62
     7
370
     0
100
AcDbLine
 10
55.3534204452
 20
187.4991927289
 30
0.0
 11
55.3534204452
 21
181.4448821613
 31
0.0
  0
LINE
  5
14B
330
1F
100
AcDbEntity
  8
0
  6
HIDDEN
 62
     7
370
     0
100
AcDbLine
 10
53.8534204452
 20
186.6331673251
 30
0.0
 11
53.8534204452
 21
181.0118694595
 31
0.0
  0
LWPOLYLINE
  5
14C
330
1F
100
AcDbEntity
  8
0
  6
HIDDEN
 62
     7
370
     0
100
AcDbPolyline
 90
       22
 70
   128
 43
0.0
 10
209.8534204452
 20
167.1276284426
 10
210.5903083812
 20
167.233260374
 10
211.2617205904
 20
167.5407703075
 10
211.8079991514
 20
168.0228346361
 10
212.1806048168
 20
168.6366198286
 10
212.3464299382
 20
169.3275883772
 10
212.2907402257
 20
170.034344694
 10
212.0184839547
 20
170.6940903787
 10
211.5538522896
 20
171.2482041321
 10
210.938129793
 20
171.6474505154
 10
210.2260261107
 20
171.8563547354
 10
209.4808147798
 20
171.8563547354
 10
208.7687110974
 20
171.6474505154
 10
208.1529886008
 20
171.2482041321
 10
207.6883569358
 20
170.6940903787
 10
207.4161006648
 20
170.034344694
 10
207.3604109523
 20
169.3275883772
 10
207.5262360736
 20
168.6366198286
 10
207.898841739
 20
168.0228346361
 10
208.4451203001
 20
167.5407703075
 10
209.1165325092
 20
167.233260374
 10
209.8534204452
 20
167.1276284426
  0
LINE
  5
14D
330
1F
100
AcDbEntity
  8
0
  6
HIDDEN
 62
     7
370
     0
100
AcDbLine
 10
53.8534204452
 20
181.0118694595
 30
0.0
 11
53.8534204452
 21
169.2428166656
 31
0.0
  0
LINE
  5
14E
330
1F
100
AcDbEntity
  8
0
  6
HIDDEN
 62
     7
370
     0
100
AcDbLine
 10
53.8534204452
 20
163.4388419996
 30
0.0
 11
53.8534204452
 21
151.6697892058
 31
0.0
  0
LINE
  5
14F
330
1F
100
AcDbEntity
  8
0
  6
HIDDEN
 62
     7
370
     0
100
AcDbLine
 10
55.3534204452
 20
162.3756184358
 30
0.0
 11
55.3534204452
 21
151.2367765039
 31
0.0
  0
LINE
  5
150
330
1F
100
AcDbEntity
  8
0
  6
HIDDEN
 62
     7
370
     0
100
AcDbLine
 10
55.3534204452
 20
181.4448821613
 30
0.0
 11
55.3534204452
 21
170.3060402294
 31
0.0
  0
LINE
  5
151
330
1F
100
AcDbEntity
  8
0
  6
HIDDEN
 62
     7
370
     0
100
AcDbLine
 10
91.6534204452
 20
181.3785364951
 30
0.0
 11
91.6534204452
 21
151.3031221701
 31
0.0
  0
LINE
  5
152
330
1F
100
AcDbEntity
  8
0
  6
HIDDEN
 62
     7
370
     0
100
AcDbLine
 10
89.6534204452
 20
181.8757498555
 30
0.0
 11
89.6534204452
 21
150.8059088097
 31
0.0
  0
SPLINE
  5
153
330
1F
100
AcDbEntity
  8
0
  6
HIDDEN
 62
     7
370
     0
100
AcDbSpline
210
0.0
220
0.0
230
1.0
 70
     8
 71
     3
 72
    10
 73
     6
 74
     0
 42
0.00000001
 43
0.00000001
 12
1.0
 22
0.0
 32
0.0
 13
1.0
 23
0.0
 33
0.0
 40
0.0
 40
0.0
 40
0.0
 40
0.0
 40
0.3293635822210593
 40
0.6626577436960533
 40
1.0
 40
1.0
 40
1.0
 40
1.0
 10
248.4019690897834
 20
157.8562622121492
 30
0.0
 10
248.3672882773526
 20
157.7213762317253
 30
0.0
 10
248.2975127764913
 20
157.4499945603179
 30
0.0
 10
248.1828036375902
 20
157.0429528938483
 30
0.0
 10
248.0998870874704
 20
156.7717647007538
 30
0.0
 10
248.0581785620149
 20
156.6353521312657
 30
0.0
  0
LINE
  5
154
330
1F
100
AcDbEntity
  8
0
  6
HIDDEN
 62
     7
370
     0
100
AcDbLine
 10
228.175729397
 20
158.37483879
 30
0.0
 11
248.058178367
 21
156.635349902
 31
0.0
  0
LINE
  5
155
330
1F
100
AcDbEntity
  8
0
  6
HIDDEN
 62
     7
370
     0
100
AcDbLine
 10
248.4019728221
 20
157.85626257
 30
0.0
 11
248.2994257136
 21
158.9258734974
 31
0.0
  0
LINE
  5
156
330
1F
100
AcDbEntity
  8
0
  6
HIDDEN
 62
     7
370
     0
100
AcDbLine
 10
248.2994257136
 20
158.9258734974
 30
0.0
 11
243.0425347584
 21
166.3408293326
 31
0.0
  0
SPLINE
  5
157
330
1F
100
AcDbEntity
  8
0
  6
HIDDEN
 62
     7
370
     0
100
AcDbSpline
210
0.0
220
0.0
230
1.0
 70
     8
 71
     3
 72
     8
 73
     4
 74
     0
 42
0.00000001
 43
0.00000001
 12
1.0
 22
0.0
 32
0.0
 13
1.0
 23
0.0
 33
0.0
 40
0.0000249638557296
 40
0.0000249638557296
 40
0.0000249638557296
 40
0.0000249638557296
 40
0.0049776420541172
 40
0.0049776420541172
 40
0.0049776420541172
 40
0.0049776420541172
 10
55.35342044521632
 20
162.3756184357744
 30
0.0
 10
57.00339667972587
 20
162.3343391980062
 30
0.0
 10
58.65339799947092
 20
162.2941175167667
 30
0.0
 10
60.30342044521633
 20
162.2548682795117
 30
0.0
  0
SPLINE
  5
158
330
1F
100
AcDbEntity
  8
0
  6
HIDDEN
 62
     7
370
     0
100
AcDbSpline
210
0.0
220
0.0
230
1.0
 70
     8
 71
     3
 72
     8
 73
     4
 74
     0
 42
0.00000001
 43
0.00000001
 12
1.0
 22
0.0
 32
0.0
 13
1.0
 23
0.0
 33
0.0
 40
0.0000249631533153
 40
0.0000249631533153
 40
0.0000249631533153
 40
0.0000249631533153
 40
0.0049776413517029
 40
0.0049776413517029
 40
0.0049776413517029
 40
0.0049776413517029
 10
60.30342044521633
 20
170.42679038571
 30
0.0
 10
58.65339799947089
 20
170.387541148455
 30
0.0
 10
57.00339667972587
 20
170.3473194672155
 30
0.0
 10
55.35342044521632
 20
170.3060402294473
 30
0.0
  0
SPLINE
  5
159
330
1F
100
AcDbEntity
  8
0
  6
HIDDEN
 62
     7
370
     0
100
AcDbSpline
210
0.0
220
0.0
230
1.0
 70
     8
 71
     3
 72
     8
 73
     4
 74
     0
 42
0.00000001
 43
0.00000001
 12
1.0
 22
0.0
 32
0.0
 13
1.0
 23
0.0
 33
0.0
 40
0.0
 40
0.0
 40
0.0
 40
0.0
 40
1.0
 40
1.0
 40
1.0
 40
1.0
 10
53.85342044521416
 20
163.4388419996306
 30
0.0
 10
54.32018105659193
 20
163.0234787540076
 30
0.0
 10
54.82592860337201
 20
162.678888324703
 30
0.0
 10
55.35342044521638
 20
162.3756184357744
 30
0.0
  0
SPLINE
  5
15A
330
1F
100
AcDbEntity
  8
0
  6
HIDDEN
 62
     7
370
     0
100
AcDbSpline
210
0.0
220
0.0
230
1.0
 70
     8
 71
     3
 72
     8
 73
     4
 74
     0
 42
0.00000001
 43
0.00000001
 12
1.0
 22
0.0
 32
0.0
 13
1.0
 23
0.0
 33
0.0
 40
0.0
 40
0.0
 40
0.0
 40
0.0
 40
1.0
 40
1.0
 40
1.0
 40
1.0
 10
55.35342044521638
 20
170.3060402294474
 30
0.0
 10
54.82592860337284
 20
170.0027703405193
 30
0.0
 10
54.32018105659356
 20
169.6581799112153
 30
0.0
 10
53.85342044521638
 20
169.2428166655932
 30
0.0
  0
LINE
  5
15B
330
1F
100
AcDbEntity
  8
0
  6
HIDDEN
 62
     7
370
     0
100
AcDbLine
 10
53.8534204452
 20
163.4388419996
 30
0.0
 11
53.8534204452
 21
169.2428166656
 31
0.0
  0
LINE
  5
15C
330
1F
100
AcDbEntity
  8
0
  6
HIDDEN
 62
     7
370
     0
100
AcDbLine
 10
60.3034204452
 20
162.2548682795
 30
0.0
 11
60.3034204452
 21
170.4267903857
 31
0.0
  0
SPLINE
  5
15D
330
1F
100
AcDbEntity
  8
0
  6
HIDDEN
 62
     7
370
     0
100
AcDbSpline
210
0.0
220
0.0
230
1.0
 70
     8
 71
     3
 72
    24
 73
    20
 74
     0
 42
0.00000001
 43
0.00000001
 12
1.0
 22
0.0
 32
0.0
 13
1.0
 23
0.0
 33
0.0
 40
0.0
 40
0.0
 40
0.0
 40
0.0
 40
0.1250000000000002
 40
0.1250000000000002
 40
0.2500000000000004
 40
0.2500000000000004
 40
0.3750000000000006
 40
0.3750000000000006
 40
0.4375000000000006
 40
0.4375000000000006
 40
0.5000000000000006
 40
0.5000000000000006
 40
0.6250000000000004
 40
0.6250000000000004
 40
0.7500000000000002
 40
0.7500000000000002
 40
0.8750000000000001
 40
0.8750000000000001
 40
1.0
 40
1.0
 40
1.0
 40
1.0
 10
60.30342044521629
 20
162.2548682795117
 30
0.0
 10
60.54122407749138
 20
162.5538753818418
 30
0.0
 10
60.77130973870266
 20
162.8582132331605
 30
0.0
 10
61.20606313731248
 20
163.4839467705565
 30
0.0
 10
61.41099592959866
 20
163.805171497884
 30
0.0
 10
61.77609788009735
 20
164.4770972686168
 30
0.0
 10
61.93789826588883
 20
164.8324125004956
 30
0.0
 10
62.10975847046856
 20
165.3826437218481
 30
0.0
 10
62.15534366212867
 20
165.5690475068286
 30
0.0
 10
62.21781840170352
 20
165.9491820089248
 30
0.0
 10
62.23448954745198
 20
166.1448518012107
 30
0.0
 10
62.23501059062847
 20
166.7233321798851
 30
0.0
 10
62.17056828974179
 20
167.1012440188538
 30
0.0
 10
61.94071919636848
 20
167.8432120439523
 30
0.0
 10
61.78219851870536
 20
168.1919275041132
 30
0.0
 10
61.4179641888052
 20
168.8650199018464
 30
0.0
 10
61.21122794874162
 20
169.189972389088
 30
0.0
 10
60.77329000300126
 20
169.8208961995498
 30
0.0
 10
60.5420172757217
 20
170.1267859398905
 30
0.0
 10
60.30342044521639
 20
170.42679038571
 30
0.0
  0
SPLINE
  5
15E
330
1F
100
AcDbEntity
  8
0
  6
HIDDEN
 62
     7
370
     0
100
AcDbSpline
210
0.0
220
0.0
230
1.0
 70
     8
 71
     3
 72
    72
 73
    68
 74
     0
 42
0.00000001
 43
0.00000001
 12
1.0
 22
0.0
 32
0.0
 13
1.0
 23
0.0
 33
0.0
 40
-0.0312499999999998
 40
-0.0312499999999998
 40
0.0
 40
0.0
 40
0.0312500000000001
 40
0.0312500000000001
 40
0.0625000000000002
 40
0.0625000000000002
 40
0.0937500000000002
 40
0.0937500000000002
 40
0.1250000000000003
 40
0.1250000000000003
 40
0.1562500000000004
 40
0.1562500000000004
 40
0.1875000000000004
 40
0.1875000000000004
 40
0.2187500000000005
 40
0.2187500000000005
 40
0.2500000000000006
 40
0.2500000000000006
 40
0.2812500000000007
 40
0.2812500000000007
 40
0.3125000000000008
 40
0.3125000000000008
 40
0.3437500000000008
 40
0.3437500000000008
 40
0.3750000000000009
 40
0.3750000000000009
 40
0.390625000000001
 40
0.390625000000001
 40
0.406250000000001
 40
0.406250000000001
 40
0.4375000000000011
 40
0.4375000000000011
 40
0.4687500000000011
 40
0.4687500000000011
 40
0.5000000000000012
 40
0.5000000000000012
 40
0.5312500000000013
 40
0.5312500000000013
 40
0.5625000000000013
 40
0.5625000000000013
 40
0.5937500000000014
 40
0.5937500000000014
 40
0.6250000000000016
 40
0.6250000000000016
 40
0.6562500000000017
 40
0.6562500000000017
 40
0.6875000000000014
 40
0.6875000000000014
 40
0.7187500000000013
 40
0.7187500000000013
 40
0.7500000000000012
 40
0.7500000000000012
 40
0.7812500000000011
 40
0.7812500000000011
 40
0.8125000000000009
 40
0.8125000000000009
 40
0.8437500000000008
 40
0.8437500000000008
 40
0.8750000000000007
 40
0.8750000000000007
 40
0.9062500000000006
 40
0.9062500000000006
 40
0.9375000000000003
 40
0.9375000000000003
 40
0.9687500000000002
 40
0.9687500000000002
 40
1.0
 40
1.0
 40
1.03125
 40
1.03125
 10
72.97736676404152
 20
168.7816629824257
 30
0.0
 10
73.3517969839154
 20
169.1920187829109
 30
0.0
 10
73.55664958518106
 20
169.3756678655693
 30
0.0
 10
73.99951778202802
 20
169.7026227690646
 30
0.0
 10
74.23947319934632
 20
169.8464009772445
 30
0.0
 10
74.73508418212086
 20
170.0839183326904
 30
0.0
 10
74.99235047327534
 20
170.1792378975881
 30
0.0
 10
75.5257042411124
 20
170.3233234302226
 30
0.0
 10
75.79998438101067
 20
170.3710594371921
 30
0.0
 10
76.34641291559024
 20
170.416641577726
 30
0.0
 10
76.62098923405799
 20
170.4152078176537
 30
0.0
 10
77.1729564083287
 20
170.3622945095629
 30
0.0
 10
77.44357337090038
 20
170.3113247833587
 30
0.0
 10
77.96985854197958
 20
170.1627181564151
 30
0.0
 10
78.22749010538715
 20
170.064432785658
 30
0.0
 10
78.72341627006067
 20
169.8201794264723
 30
0.0
 10
78.9563999478523
 20
169.6770992954501
 30
0.0
 10
79.3927332231773
 20
169.3492407449812
 30
0.0
 10
79.59801447703559
 20
169.162247107281
 30
0.0
 10
79.96604877489577
 20
168.752816487458
 30
0.0
 10
80.12756376488095
 20
168.5327110464736
 30
0.0
 10
80.40472144802808
 20
168.0609609650355
 30
0.0
 10
80.52111562746178
 20
167.8059444385943
 30
0.0
 10
80.6943896641084
 20
167.2847066151973
 30
0.0
 10
80.75283621857417
 20
167.0172224974164
 30
0.0
 10
80.79670094405006
 20
166.605306838084
 30
0.0
 10
80.80388116067941
 20
166.4655995350085
 30
0.0
 10
80.80291313338397
 20
166.1894764795461
 30
0.0
 10
80.79491034397032
 20
166.0522999132153
 30
0.0
 10
80.74883761205793
 20
165.643366471952
 30
0.0
 10
80.68790277960589
 20
165.3714402229478
 30
0.0
 10
80.50978262319738
 20
164.8482597064927
 30
0.0
 10
80.394214711855
 20
164.5995477061294
 30
0.0
 10
80.11236792791571
 20
164.1266631811374
 30
0.0
 10
79.94549798250105
 20
163.9030539639053
 30
0.0
 10
79.57617242770229
 20
163.4983965757177
 30
0.0
 10
79.37138727140481
 20
163.3139829875481
 30
0.0
 10
78.92673432388861
 20
162.9849569526538
 30
0.0
 10
78.69188519437782
 20
162.8437888766655
 30
0.0
 10
78.1984754319008
 20
162.605379347885
 30
0.0
 10
77.93718847819616
 20
162.5075967914801
 30
0.0
 10
77.4064501976835
 20
162.36226876329
 30
0.0
 10
77.13681049678625
 20
162.3139793730951
 30
0.0
 10
76.58905915704105
 20
162.2655641493084
 30
0.0
 10
76.30915511518243
 20
162.2660223349444
 30
0.0
 10
75.76207720734745
 20
162.3161741905465
 30
0.0
 10
75.49247210266
 20
162.3653477575786
 30
0.0
 10
74.96131734600392
 20
162.5130222808856
 30
0.0
 10
74.7000225295604
 20
162.6121774452512
 30
0.0
 10
74.20770855138502
 20
162.8531902157279
 30
0.0
 10
73.97375167580638
 20
162.9956783403526
 30
0.0
 10
73.53158305527592
 20
163.3271657693376
 30
0.0
 10
73.32638952416428
 20
163.5145993973259
 30
0.0
 10
72.9606953078063
 20
163.9215031163764
 30
0.0
 10
72.79792468541797
 20
164.1426821910453
 30
0.0
 10
72.5169722546524
 20
164.6224295202606
 30
0.0
 10
72.40376840237889
 20
164.8724414870709
 30
0.0
 10
72.23115967823996
 20
165.3925166970913
 30
0.0
 10
72.17155339556358
 20
165.666248161721
 30
0.0
 10
72.11366162549373
 20
166.2148658116195
 30
0.0
 10
72.1144511643537
 20
166.4892056755111
 30
0.0
 10
72.17564163997011
 20
167.0379476266501
 30
0.0
 10
72.23677036370412
 20
167.3110129405072
 30
0.0
 10
72.41285004933394
 20
167.8311781892756
 30
0.0
 10
72.5291806443239
 20
168.0834973228345
 30
0.0
 10
72.81238187406461
 20
168.5599016642415
 30
0.0
 10
72.97736676404152
 20
168.7816629824257
 30
0.0
 10
73.3517969839154
 20
169.1920187829109
 30
0.0
  0
CIRCLE
  5
15F
330
1F
100
AcDbEntity
  8
0
  6
HIDDEN
 62
     7
370
     0
100
AcDbCircle
 10
76.3534204452
 20
166.3408293326
 30
0.0
 40
4.05000000000004
  0
CIRCLE
  5
160
330
1F
100
AcDbEntity
  8
0
  6
HIDDEN
 62
     7
370
     0
100
AcDbCircle
 10
103.8534204452
 20
166.3408293326
 30
0.0
 40
2.0
  0
LINE
  5
161
330
1F
100
AcDbEntity
  8
0
  6
HIDDEN
 62
     7
370
     0
100
AcDbLine
 10
91.8534204452
 20
142.0908293326
 30
0.0
 11
91.946313664
 21
142.1837225514
 31
0.0
  0
LINE
  5
162
330
1F
100
AcDbEntity
  8
0
  6
HIDDEN
 62
     7
370
     0
100
AcDbLine
 10
91.946313664
 20
190.4979361138
 30
0.0
 11
91.8534204452
 21
190.5908293326
 31
0.0
  0
ARC
  5
163
330
1F
100
AcDbEntity
  8
0
  6
HIDDEN
 62
     7
370
     0
100
AcDbCircle
 10
91.2392068828
 20
142.8908293326
 30
0.0
 40
1.000000000000038
100
AcDbArc
 50
315.0
 51
0.0
  0
ARC
  5
164
330
1F
100
AcDbEntity
  8
0
  6
HIDDEN
 62
     7
370
     0
100
AcDbCircle
 10
91.2392068828
 20
142.8908293326
 30
0.0
 40
1.0
100
AcDbArc
 50
0.0
 51
52.1052014664
  0
ARC
  5
165
330
1F
100
AcDbEntity
  8
0
  6
HIDDEN
 62
     7
370
     0
100
AcDbCircle
 10
91.2392068828
 20
189.7908293326
 30
0.0
 40
1.000000000000018
100
AcDbArc
 50
351.8087250651
 51
45.0
  0
ARC
  5
166
330
1F
100
AcDbEntity
  8
0
  6
HIDDEN
 62
     7
370
     0
100
AcDbCircle
 10
91.2392068828
 20
189.7908293326
 30
0.0
 40
1.000000000000002
100
AcDbArc
 50
307.8947985336
 51
351.8087250651
  0
LINE
  5
167
330
1F
100
AcDbEntity
  8
0
  6
HIDDEN
 62
     7
370
     0
100
AcDbLine
 10
92.2392068828
 20
142.8908293326
 30
0.0
 11
92.2392068828
 21
189.7908293326
 31
0.0
  0
LINE
  5
168
330
1F
100
AcDbEntity
  8
0
  6
HIDDEN
 62
     7
370
     0
100
AcDbLine
 10
92.2392068828
 20
142.8908293326
 30
0.0
 11
92.2392068828
 21
189.7908293326
 31
0.0
  0
LINE
  5
169
330
1F
100
AcDbEntity
  8
0
  6
HIDDEN
 62
     7
370
     0
100
AcDbLine
 10
53.8534204452
 20
150.1444004882
 30
0.0
 11
55.3836488849
 21
151.0278782897
 31
0.0
  0
LINE
  5
16A
330
1F
100
AcDbEntity
  8
0
  6
HIDDEN
 62
     7
370
     0
100
AcDbLine
 10
55.3836488849
 20
181.6537803755
 30
0.0
 11
53.8534204452
 21
182.5372581771
 31
0.0
  0
LINE
  5
16B
330
1F
100
AcDbEntity
  8
0
  6
HIDDEN
 62
     7
370
     0
100
AcDbLine
 10
63.8534204452
 20
150.3408293326
 30
0.0
 11
64.8552217601
 21
150.3408293326
 31
0.0
  0
LINE
  5
16C
330
1F
100
AcDbEntity
  8
0
  6
HIDDEN
 62
     7
370
     0
100
AcDbLine
 10
64.8552217601
 20
182.3408293326
 30
0.0
 11
63.8534204452
 21
182.3408293326
 31
0.0
  0
ARC
  5
16D
330
1F
100
AcDbEntity
  8
0
  6
HIDDEN
 62
     7
370
     0
100
AcDbCircle
 10
63.8534204452
 20
152.3408293326
 30
0.0
 40
2.000000000000028
100
AcDbArc
 50
189.9742217944
 51
270.0
  0
ARC
  5
16E
330
1F
100
AcDbEntity
  8
0
  6
HIDDEN
 62
     7
370
     0
100
AcDbCircle
 10
63.8534204452
 20
180.3408293326
 30
0.0
 40
2.000000000000028
100
AcDbArc
 50
90.0
 51
170.0257782056
  0
ARC
  5
16F
330
1F
100
AcDbEntity
  8
0
  6
HIDDEN
 62
     7
370
     0
100
AcDbCircle
 10
64.8552217601
 20
152.3408293326
 30
0.0
 40
2.0
100
AcDbArc
 50
270.0
 51
315.0
  0
ARC
  5
170
330
1F
100
AcDbEntity
  8
0
  6
HIDDEN
 62
     7
370
     0
100
AcDbCircle
 10
64.8552217601
 20
180.3408293326
 30
0.0
 40
2.0
100
AcDbArc
 50
45.0
 51
90.0
  0
LINE
  5
171
330
1F
100
AcDbEntity
  8
0
  6
HIDDEN
 62
     7
370
     0
100
AcDbLine
 10
66.2694353225
 20
150.9266157702
 30
0.0
 11
67.6836488849
 21
152.3408293326
 31
0.0
  0
LINE
  5
172
330
1F
100
AcDbEntity
  8
0
  6
HIDDEN
 62
     7
370
     0
100
AcDbLine
 10
67.6836488849
 20
180.3408293326
 30
0.0
 11
66.2694353225
 21
181.755042895
 31
0.0
  0
LINE
  5
173
330
1F
100
AcDbEntity
  8
0
  6
HIDDEN
 62
     7
370
     0
100
AcDbLine
 10
55.3836488849
 20
151.0278782897
 30
0.0
 11
60.2836488849
 21
152.3408293326
 31
0.0
  0
LINE
  5
174
330
1F
100
AcDbEntity
  8
0
  6
HIDDEN
 62
     7
370
     0
100
AcDbLine
 10
60.2836488849
 20
180.3408293326
 30
0.0
 11
55.3836488849
 21
181.6537803755
 31
0.0
  0
LINE
  5
175
330
1F
100
AcDbEntity
  8
0
  6
HIDDEN
 62
     7
370
     0
100
AcDbLine
 10
61.8836488849
 20
180.6872394941
 30
0.0
 11
61.2836488849
 21
180.3408293326
 31
0.0
  0
LINE
  5
176
330
1F
100
AcDbEntity
  8
0
  6
HIDDEN
 62
     7
370
     0
100
AcDbLine
 10
61.2836488849
 20
152.3408293326
 30
0.0
 11
61.8836488849
 21
151.9944191711
 31
0.0
  0
ARC
  5
177
330
1F
100
AcDbEntity
  8
0
  6
HIDDEN
 62
     7
370
     0
100
AcDbCircle
 10
80.3534204452
 20
152.8408293326
 30
0.0
 40
0.5
100
AcDbArc
 50
270.0
 51
0.0
  0
ARC
  5
178
330
1F
100
AcDbEntity
  8
0
  6
HIDDEN
 62
     7
370
     0
100
AcDbCircle
 10
80.3534204452
 20
179.8408293326
 30
0.0
 40
0.5
100
AcDbArc
 50
0.0
 51
90.0
  0
LINE
  5
179
330
1F
100
AcDbEntity
  8
0
  6
HIDDEN
 62
     7
370
     0
100
AcDbLine
 10
67.6836488849
 20
152.3408293326
 30
0.0
 11
80.3534204452
 21
152.3408293326
 31
0.0
  0
LINE
  5
17A
330
1F
100
AcDbEntity
  8
0
  6
HIDDEN
 62
     7
370
     0
100
AcDbLine
 10
80.3534204452
 20
180.3408293326
 30
0.0
 11
67.6836488849
 21
180.3408293326
 31
0.0
  0
LINE
  5
17B
330
1F
100
AcDbEntity
  8
0
  6
HIDDEN
 62
     7
370
     0
100
AcDbLine
 10
60.2836488849
 20
152.3408293326
 30
0.0
 11
61.2836488849
 21
152.3408293326
 31
0.0
  0
LINE
  5
17C
330
1F
100
AcDbEntity
  8
0
  6
HIDDEN
 62
     7
370
     0
100
AcDbLine
 10
61.2836488849
 20
180.3408293326
 30
0.0
 11
60.2836488849
 21
180.3408293326
 31
0.0
  0
LINE
  5
17D
330
1F
100
AcDbEntity
  8
0
  6
HIDDEN
 62
     7
370
     0
100
AcDbLine
 10
211.9534204452
 20
163.5300632352
 30
0.0
 11
211.9534204452
 21
165.0277497249
 31
0.0
  0
LINE
  5
17E
330
1F
100
AcDbEntity
  8
0
  6
HIDDEN
 62
     7
370
     0
100
AcDbLine
 10
211.9534204452
 20
162.3236084057
 30
0.0
 11
211.9534204452
 21
162.35408627
 31
0.0
  0
LINE
  5
17F
330
1F
100
AcDbEntity
  8
0
  6
HIDDEN
 62
     7
370
     0
100
AcDbLine
 10
207.7534204452
 20
165.0285158014
 30
0.0
 11
207.7534204452
 21
162.3236084057
 31
0.0
  0
LINE
  5
180
330
1F
100
AcDbEntity
  8
0
  6
HIDDEN
 62
     7
370
     0
100
AcDbLine
 10
216.6371976858
 20
162.1809507206
 30
0.0
 11
211.1171077311
 21
164.6870191177
 31
0.0
  0
LINE
  5
181
330
1F
100
AcDbEntity
  8
0
  6
HIDDEN
 62
     7
370
     0
100
AcDbLine
 10
209.6362169323
 20
160.7467668351
 30
0.0
 11
216.6595262284
 21
157.558251138
 31
0.0
  0
LINE
  5
182
330
1F
100
AcDbEntity
  8
0
  6
HIDDEN
 62
     7
370
     0
100
AcDbLine
 10
80.8534204452
 20
156.0908293326
 30
0.0
 11
82.1034204452
 21
157.3408293326
 31
0.0
  0
LINE
  5
183
330
1F
100
AcDbEntity
  8
0
  6
HIDDEN
 62
     7
370
     0
100
AcDbLine
 10
82.1034204452
 20
175.3408293326
 30
0.0
 11
80.8534204452
 21
176.5908293326
 31
0.0
  0
LINE
  5
184
330
1F
100
AcDbEntity
  8
0
  6
HIDDEN
 62
     7
370
     0
100
AcDbLine
 10
82.1034204452
 20
157.3408293326
 30
0.0
 11
107.8534204452
 21
157.3408293326
 31
0.0
  0
LINE
  5
185
330
1F
100
AcDbEntity
  8
0
  6
HIDDEN
 62
     7
370
     0
100
AcDbLine
 10
107.8534204452
 20
175.3408293326
 30
0.0
 11
82.1034204452
 21
175.3408293326
 31
0.0
  0
LINE
  5
186
330
1F
100
AcDbEntity
  8
0
  6
HIDDEN
 62
     7
370
     0
100
AcDbLine
 10
107.8534204452
 20
157.3408293326
 30
0.0
 11
110.7075083856
 21
162.0908293326
 31
0.0
  0
LINE
  5
187
330
1F
100
AcDbEntity
  8
0
  6
HIDDEN
 62
     7
370
     0
100
AcDbLine
 10
110.7075083856
 20
170.5908293326
 30
0.0
 11
107.8534204452
 21
175.3408293326
 31
0.0
  0
LINE
  5
188
330
1F
100
AcDbEntity
  8
0
  6
HIDDEN
 62
     7
370
     0
100
AcDbLine
 10
212.8534204452
 20
170.5908293326
 30
0.0
 11
110.7075083856
 21
170.5908293326
 31
0.0
  0
LINE
  5
189
330
1F
100
AcDbEntity
  8
0
  6
HIDDEN
 62
     7
370
     0
100
AcDbLine
 10
110.7075083856
 20
162.0908293326
 30
0.0
 11
212.8534204452
 21
162.0908293326
 31
0.0
  0
LINE
  5
18A
330
1F
100
AcDbEntity
  8
0
  6
HIDDEN
 62
     7
370
     0
100
AcDbLine
 10
212.8534204452
 20
162.0908293326
 30
0.0
 11
215.4070780761
 21
166.3408293326
 31
0.0
  0
LINE
  5
18B
330
1F
100
AcDbEntity
  8
0
  6
HIDDEN
 62
     7
370
     0
100
AcDbLine
 10
215.4070780761
 20
166.3408293326
 30
0.0
 11
212.8534204452
 21
170.5908293326
 31
0.0
  0
LINE
  5
18C
330
1F
100
AcDbEntity
  8
0
  6
HIDDEN
 62
     7
370
     0
100
AcDbLine
 10
225.4392068828
 20
150.3408293326
 30
0.0
 11
225.4672801433
 21
150.340435201
 31
0.0
  0
ARC
  5
18D
330
1F
100
AcDbEntity
  8
0
  6
HIDDEN
 62
     7
370
     0
100
AcDbCircle
 10
225.4392068828
 20
149.3408293326
 30
0.0
 40
0.9999999999999445
100
AcDbArc
 50
45.0
 51
64.8454287542
  0
LINE
  5
18E
330
1F
100
AcDbEntity
  8
0
  6
HIDDEN
 62
     7
370
     0
100
AcDbLine
 10
241.2877194712
 20
157.3077181107
 30
0.0
 11
241.2877194712
 21
157.3314353117
 31
0.0
  0
LINE
  5
18F
330
1F
100
AcDbEntity
  8
0
  6
HIDDEN
 62
     7
370
     0
100
AcDbLine
 10
237.0877194712
 20
157.3314353117
 30
0.0
 11
237.0877194712
 21
156.9966042378
 31
0.0
  0
LINE
  5
190
330
1F
100
AcDbEntity
  8
0
  6
HIDDEN
 62
     7
370
     0
100
AcDbLine
 10
211.9534204452
 20
167.6531428638
 30
0.0
 11
211.9534204452
 21
169.4309992764
 31
0.0
  0
LINE
  5
191
330
1F
100
AcDbEntity
  8
0
  6
HIDDEN
 62
     7
370
     0
100
AcDbLine
 10
207.7534204452
 20
169.4309992764
 30
0.0
 11
207.7534204452
 21
167.6539089403
 31
0.0
  0
LINE
  5
192
330
1F
100
AcDbEntity
  8
0
  6
HIDDEN
 62
     7
370
     0
100
AcDbLine
 10
246.9530432395
 20
151.7189756127
 30
0.0
 11
246.9530432395
 21
152.3305188657
 31
0.0
  0
LINE
  5
193
330
1F
100
AcDbEntity
  8
0
  6
HIDDEN
 62
     7
370
     0
100
AcDbLine
 10
242.7530432395
 20
152.3085001721
 30
0.0
 11
242.7530432395
 21
151.7189756127
 31
0.0
  0
LINE
  5
194
330
1F
100
AcDbEntity
  8
0
  6
HIDDEN
 62
     7
370
     0
100
AcDbLine
 10
212.3534204452
 20
169.5052697334
 30
0.0
 11
212.3534204452
 21
171.2846999677
 31
0.0
  0
LINE
  5
195
330
1F
100
AcDbEntity
  8
0
  6
HIDDEN
 62
     7
370
     0
100
AcDbLine
 10
207.3534204452
 20
171.2850227535
 30
0.0
 11
207.3534204452
 21
169.5052697334
 31
0.0
  0
LINE
  5
196
330
1F
100
AcDbEntity
  8
VERMASSUNG
  6
CENTERX2
100
AcDbLine
 10
48.5810251423
 20
166.3408293326
 30
0.0
 11
251.8534204452
 21
166.3408293326
 31
0.0
  0
LINE
  5
197
330
1F
100
AcDbEntity
  8
VERMASSUNG
  6
CENTERX2
100
AcDbLine
 10
251.8534204452
 20
144.3408293326
 30
0.0
 11
251.8534204452
 21
166.3408293326
 31
0.0
  0
LINE
  5
198
330
1F
100
AcDbEntity
  8
VERMASSUNG
  6
CENTERX2
100
AcDbLine
 10
251.8534204452
 20
144.3408293326
 30
0.0
 11
264.805584811
 21
144.3408293326
 31
0.0
  0
DIMENSION
  5
199
330
1F
100
AcDbEntity
  8
VERMASSUNG
100
AcDbDimension
  2
_D
 10
251.8534204452
 20
127.9174054697
 30
0.0
 11
171.8534204452
 21
127.9174054697
 31
0.0
 70
   160
  1
<>
 71
     2
 42
-1.0
  3
SLDDIMSTYLE0
100
AcDbAlignedDimension
 13
91.8534204452
 23
135.3408293326
 33
0.0
 14
251.8534204452
 24
144.3408293326
 34
0.0
100
AcDbRotatedDimension
  0
DIMENSION
  5
1A4
330
1F
100
AcDbEntity
  8
VERMASSUNG
100
AcDbDimension
  2
_D_1
 10
53.8534204452
 20
118.8408293326
 30
0.0
 11
152.8534204452
 21
118.8408293326
 31
0.0
 70
   160
  1
<>
 71
     2
 42
-1.0
  3
SLDDIMSTYLE0
100
AcDbAlignedDimension
 13
251.8534204452
 23
144.3408293326
 33
0.0
 14
53.8534204452
 24
146.0484913401
 34
0.0
100
AcDbRotatedDimension
  0
DIMENSION
  5
1AE
330
1F
100
AcDbEntity
  8
VERMASSUNG
100
AcDbDimension
  2
_D_2
 10
269.2830921472
 20
166.3408293326
 30
0.0
 11
269.2830921472
 21
155.3408293326
 31
0.0
 70
   160
  1
<>
 71
     2
 42
-1.0
  3
SLDDIMSTYLE0
100
AcDbAlignedDimension
 13
251.8534204452
 23
144.3408293326
 33
0.0
 14
251.8534204452
 24
166.3408293326
 34
0.0
 50
90.0
100
AcDbRotatedDimension
  0
DIMENSION
  5
1B8
330
1F
100
AcDbEntity
  8
VERMASSUNG
100
AcDbDimension
  2
_D_3
 10
251.8518983245
 20
144.774632327
 30
0.0
 11
258.8502726013
 21
151.9383120244
 31
0.0
 70
   162
  1
<>
 71
     1
 42
-1.0
  3
SLDDIMSTYLE1
100
AcDb2LineAngularDimension
 13
264.805584811
 23
144.3408293326
 33
0.0
 14
251.8534204452
 24
144.3408293326
 34
0.0
 15
250.7987452237
 25
156.7829043746
 35
0.0
 16
258.8502726013
 26
151.9383120244
 36
0.0
  0
DIMENSION
  5
1C1
330
1F
100
AcDbEntity
  8
VERMASSUNG
100
AcDbDimension
  2
_D_4
 10
150.9467653868
 20
150.3408293326
 30
0.0
 11
150.9467653868
 21
157.8389787698
 31
0.0
 70
   160
  1
%%c<>
 71
     2
 42
-1.0
  3
SLDDIMSTYLE0
100
AcDbAlignedDimension
 13
117.8534204452
 23
182.3408293326
 33
0.0
 14
117.8534204452
 24
150.3408293326
 34
0.0
 50
90.0
100
AcDbRotatedDimension
  0
DIMENSION
  5
1CA
330
1F
100
AcDbEntity
  8
VERMASSUNG
100
AcDbDimension
  2
_D_5
 10
43.8534204452
 20
134.8408293326
 30
0.0
 11
43.8534204452
 21
166.3408293326
 31
0.0
 70
   160
  1
PSC%%c<>
 71
     2
 42
-1.0
  3
SLDDIMSTYLE0
100
AcDbAlignedDimension
 13
92.3534204452
 23
197.8408293326
 33
0.0
 14
92.3534204452
 24
134.8408293326
 34
0.0
 50
90.0
100
AcDbRotatedDimension
  0
LINE
  5
1D6
330
1F
100
AcDbEntity
  8
0
  6
Continuous
 62
     7
370
    15
100
AcDbLine
 10
158.2844346493
 20
43.437229829
 30
0.0
 11
161.5063349435
 21
44.0635038043
 31
0.0
  0
LINE
  5
1D7
330
1F
100
AcDbEntity
  8
0
  6
Continuous
 62
     7
370
    15
100
AcDbLine
 10
157.6173037629
 20
57.2783220925
 30
0.0
 11
157.3154650424
 21
57.2941407895
 31
0.0
  0
SPLINE
  5
1D8
330
1F
100
AcDbEntity
  8
0
  6
Continuous
 62
     7
370
    15
100
AcDbSpline
210
0.0
220
0.0
230
1.0
 70
     8
 71
     3
 72
    25
 73
    21
 74
     0
 42
0.00000001
 43
0.00000001
 12
1.0
 22
0.0
 32
0.0
 13
1.0
 23
0.0
 33
0.0
 40
0.0
 40
0.0
 40
0.0
 40
0.0
 40
0.0199998917700876
 40
0.040882848201181
 40
0.0626488720923081
 40
0.0923707219366592
 40
0.1253136303744083
 40
0.1879819105472772
 40
0.2506511419271781
 40
0.3133132887856824
 40
0.3759603830168345
 40
0.5011343245869806
 40
0.6261581682073857
 40
0.6898548609838053
 40
0.7510243910057325
 40
0.8143052691476026
 40
0.8756460386477638
 40
0.917787000909165
 40
0.9592380417091307
 40
0.9999999999999999
 40
0.9999999999999999
 40
0.9999999999999999
 40
0.9999999999999999
 10
174.7844346598371
 20
55.73175012114466
 30
0.0
 10
174.7412462463942
 20
55.62938297608353
 30
0.0
 10
174.6529625011052
 20
55.42012882108945
 30
0.0
 10
174.5106808409249
 20
55.10256135428037
 30
0.0
 10
174.3401632137382
 20
54.73861370230325
 30
0.0
 10
174.1318449412799
 20
54.31859768301204
 30
0.0
 10
173.8062100602933
 20
53.70368347937347
 30
0.0
 10
173.363614300235
 20
52.94445015492811
 30
0.0
 10
172.7907449934967
 20
52.07237909533228
 30
0.0
 10
172.172310213426
 20
51.23249387771025
 30
0.0
 10
171.2898744097483
 20
50.15939560738306
 30
0.0
 10
170.082127622754
 20
48.91022963603069
 30
0.0
 10
168.7430891800267
 20
47.79426043320191
 30
0.0
 10
167.6101757220833
 20
46.99664644980732
 30
0.0
 10
166.7259166878286
 20
46.44287417420288
 30
0.0
 10
165.8243482373304
 20
45.94386251812542
 30
0.0
 10
164.9919487292597
 20
45.54012032318164
 30
0.0
 10
164.253308148
 20
45.22273988936195
 30
0.0
 10
163.6104399177795
 20
44.97198832273891
 30
0.0
 10
163.1782977971597
 20
44.82570736206677
 30
0.0
 10
162.9640377739124
 20
44.75317992135053
 30
0.0
  0
SPLINE
  5
1D9
330
1F
100
AcDbEntity
  8
0
  6
Continuous
 62
     7
370
    15
100
AcDbSpline
210
0.0
220
0.0
230
1.0
 70
     8
 71
     3
 72
    29
 73
    25
 74
     0
 42
0.00000001
 43
0.00000001
 12
1.0
 22
0.0
 32
0.0
 13
1.0
 23
0.0
 33
0.0
 40
0.0
 40
0.0
 40
0.0
 40
0.0
 40
0.0248585524672145
 40
0.0497062406974982
 40
0.0745560622323042
 40
0.0994210112676871
 40
0.1243140583100011
 40
0.1554263774926131
 40
0.1865867279805316
 40
0.2489251963033767
 40
0.3113303818025488
 40
0.373796082780511
 40
0.4363152917591069
 40
0.4988803158591518
 40
0.5614828870091172
 40
0.6241142219351291
 40
0.6867652256274526
 40
0.74942647860895
 40
0.8120885030433335
 40
0.8434043211227497
 40
0.8747479337716945
 40
0.9164935886807613
 40
0.9582246595432095
 40
1.0
 40
1.0
 40
1.0
 40
1.0
 10
162.928305277567
 20
45.2641580367224
 30
0.0
 10
163.0637097065193
 20
45.30993660581817
 30
0.0
 10
163.3344593869716
 20
45.40147373684229
 30
0.0
 10
163.7363299650785
 20
45.55056965118529
 30
0.0
 10
164.1348636797992
 20
45.70822483233587
 30
0.0
 10
164.5297716670015
 20
45.87529245812609
 30
0.0
 10
164.9535031797055
 20
46.06611270889253
 30
0.0
 10
165.4046999847078
 20
46.28354920058592
 30
0.0
 10
166.040416983438
 20
46.61273734629847
 30
0.0
 10
166.817512325623
 20
47.05864321983241
 30
0.0
 10
167.7181930205943
 20
47.64657029825153
 30
0.0
 10
168.5845316540006
 20
48.28561364751384
 30
0.0
 10
169.4135911285158
 20
48.97370725958218
 30
0.0
 10
170.2027046211801
 20
49.70849182671463
 30
0.0
 10
170.9491685491786
 20
50.48762925598776
 30
0.0
 10
171.6506121869963
 20
51.3084418800065
 30
0.0
 10
172.304616865355
 20
52.16830479977905
 30
0.0
 10
172.9090923122316
 20
53.06428202772612
 30
0.0
 10
173.3698479594057
 20
53.83861006976289
 30
0.0
 10
173.711742909416
 20
54.4731468386722
 30
0.0
 10
173.9816416045394
 20
55.00973757600489
 30
0.0
 10
174.2585021564946
 20
55.6097230124407
 30
0.0
 10
174.5374747735719
 20
56.27474575532588
 30
0.0
 10
174.7020827964562
 20
56.72660981167292
 30
0.0
 10
174.7844304400596
 20
56.9526616141138
 30
0.0
  0
SPLINE
  5
1DA
330
1F
100
AcDbEntity
  8
0
  6
Continuous
 62
     7
370
    15
100
AcDbSpline
210
0.0
220
0.0
230
1.0
 70
    24
 71
     3
 72
    10
 73
     6
 74
     0
 42
0.00000001
 43
0.00000001
 12
1.0
 22
0.0
 32
0.0
 13
1.0
 23
0.0
 33
0.0
 40
0.0
 40
0.0
 40
0.0
 40
0.0
 40
0.3293635822210593
 40
0.6626577436960533
 40
1.0
 40
1.0
 40
1.0
 40
1.0
 10
174.7844346492595
 20
56.95266270857694
 30
0.0
 10
174.7844346492595
 20
56.81777672815308
 30
0.0
 10
174.7844346492595
 20
56.54639505674564
 30
0.0
 10
174.7844346492595
 20
56.13935339027606
 30
0.0
 10
174.7844346492595
 20
55.8681651971815
 30
0.0
 10
174.7844346492595
 20
55.73175262769342
 30
0.0
  0
LINE
  5
1DB
330
1F
100
AcDbEntity
  8
0
  6
Continuous
 62
     7
370
    15
100
AcDbLine
 10
162.1548686236
 20
56.3248395381
 30
0.0
 11
159.782470239
 21
56.1330199414
 31
0.0
  0
LINE
  5
1DC
330
1F
100
AcDbEntity
  8
0
  6
Continuous
 62
     7
370
    15
100
AcDbLine
 10
159.782470239
 20
56.1330199414
 30
0.0
 11
157.6910924396
 21
56.223094853
 31
0.0
  0
LINE
  5
1DD
330
1F
100
AcDbEntity
  8
0
  6
Continuous
 62
     7
370
    15
100
AcDbLine
 10
157.5969752584
 20
57.5690332512
 30
0.0
 11
157.6910924396
 21
56.223094853
 31
0.0
  0
LINE
  5
1DE
330
1F
100
AcDbEntity
  8
0
  6
Continuous
 62
     7
370
    15
100
AcDbLine
 10
174.7844346493
 20
58.0222739938
 30
0.0
 11
157.5969752584
 21
57.5690332512
 31
0.0
  0
LINE
  5
1DF
330
1F
100
AcDbEntity
  8
0
  6
Continuous
 62
     7
370
    15
100
AcDbLine
 10
174.7844346493
 20
56.9526630664
 30
0.0
 11
174.7844346493
 21
58.0222739938
 31
0.0
  0
LINE
  5
1E0
330
1F
100
AcDbEntity
  8
0
  6
Continuous
 62
     7
370
    15
100
AcDbLine
 10
162.1548686236
 20
56.3248395381
 30
0.0
 11
162.1771137051
 21
56.0067200511
 31
0.0
  0
ARC
  5
1E1
330
1F
100
AcDbEntity
  8
0
  6
Continuous
 62
     7
370
    15
100
AcDbCircle
 10
158.2844346493
 20
65.437229829
 30
0.0
 40
16.50000000000006
100
AcDbArc
 50
0.0
 51
98.2912714864
  0
LINE
  5
1E2
330
1F
100
AcDbEntity
  8
0
  6
Continuous
 62
     7
370
    15
100
AcDbLine
 10
174.7844346493
 20
58.0222739938
 30
0.0
 11
174.7844346493
 21
65.437229829
 31
0.0
  0
LINE
  5
1E3
330
1F
100
AcDbEntity
  8
0
  6
Continuous
 62
     7
370
    15
100
AcDbLine
 10
155.9050446635
 20
81.7647680175
 30
0.0
 11
157.5969752584
 21
57.5690332512
 31
0.0
  0
SPLINE
  5
1E4
330
1F
100
AcDbEntity
  8
0
  6
Continuous
 62
     7
370
    15
100
AcDbSpline
210
0.0
220
0.0
230
1.0
 70
     8
 71
     3
 72
    14
 73
    10
 74
     0
 42
0.00000001
 43
0.00000001
 12
1.0
 22
0.0
 32
0.0
 13
1.0
 23
0.0
 33
0.0
 40
0.0
 40
0.0
 40
0.0
 40
0.0
 40
0.2499999999999999
 40
0.2499999999999999
 40
0.4999999999999999
 40
0.4999999999999999
 40
0.7499999999999999
 40
0.7499999999999999
 40
1.0
 40
1.0
 40
1.0
 40
1.0
 10
151.5731850616333
 20
79.96166196845769
 30
0.0
 10
152.1627705256439
 20
80.23408950051056
 30
0.0
 10
152.731090013459
 20
80.45321505414525
 30
0.0
 10
153.8044858757447
 20
80.8076399703224
 30
0.0
 10
154.2794792131899
 20
80.93344084729986
 30
0.0
 10
155.0881873580909
 20
81.12022148309117
 30
0.0
 10
155.4008045498192
 20
81.17674790043367
 30
0.0
 10
155.8317279327708
 20
81.2496294392515
 30
0.0
 10
155.9400240325591
 20
81.26453973503037
 30
0.0
 10
155.9400240325591
 20
81.26453973503035
 30
0.0
  0
SPLINE
  5
1E5
330
1F
100
AcDbEntity
  8
0
  6
Continuous
 62
     7
370
    15
100
AcDbSpline
210
0.0
220
0.0
230
1.0
 70
     8
 71
     3
 72
    14
 73
    10
 74
     0
 42
0.00000001
 43
0.00000001
 12
1.0
 22
0.0
 32
0.0
 13
1.0
 23
0.0
 33
0.0
 40
0.0
 40
0.0
 40
0.0
 40
0.0
 40
0.0224649188957959
 40
0.185343472769054
 40
0.3530186588300296
 40
0.5144537165715155
 40
0.6807453188224816
 40
0.83818050555116
 40
1.0
 40
1.0
 40
1.0
 40
1.0
 10
157.864472045705
 20
49.4429748603259
 30
0.0
 10
157.8535601643528
 20
49.44318307592402
 30
0.0
 10
157.7635333098761
 20
49.44490092775425
 30
0.0
 10
157.4371434250473
 20
49.45721082831599
 30
0.0
 10
156.894138306171
 20
49.49377928765691
 30
0.0
 10
156.2004780850556
 20
49.5674136442904
 30
0.0
 10
155.4192503349609
 20
49.68917273941065
 30
0.0
 10
154.5610544835238
 20
49.86520138223572
 30
0.0
 10
153.9630282101485
 20
50.0343747433537
 30
0.0
 10
153.6599087418049
 20
50.12012304834128
 30
0.0
  0
ELLIPSE
  5
1E6
330
1F
100
AcDbEntity
  8
0
  6
Continuous
 62
     7
370
    15
100
AcDbEllipse
 10
149.2498040837
 20
58.9660014257
 30
0.0
 11
-1.733036295194182
 21
1.855089312013874
 31
0.0
210
0.0
220
0.0
230
1.0
 40
0.8112573031
 41
0.0
 42
6.283185307179586
  0
ARC
  5
1E7
330
1F
100
AcDbEntity
  8
0
  6
Continuous
 62
     7
370
    15
100
AcDbCircle
 10
158.2844346493
 20
65.437229829
 30
0.0
 40
16.00000000000006
100
AcDbArc
 50
114.8000641757
 51
253.1999358243
  0
SPLINE
  5
1E8
330
1F
100
AcDbEntity
  8
0
  6
Continuous
 62
     7
370
    15
100
AcDbSpline
210
0.0
220
0.0
230
1.0
 70
     8
 71
     3
 72
    30
 73
    26
 74
     0
 42
0.00000001
 43
0.00000001
 12
1.0
 22
0.0
 32
0.0
 13
1.0
 23
0.0
 33
0.0
 40
0.0
 40
0.0
 40
0.0
 40
0.0
 40
0.0383058374513786
 40
0.0837629113473076
 40
0.1294822573111269
 40
0.1922076424821949
 40
0.2554135576614804
 40
0.3199400193368137
 40
0.384866281163986
 40
0.4282563915027383
 40
0.4718478443224152
 40
0.5029089790613753
 40
0.5344269653236333
 40
0.5535214481662103
 40
0.5731147009944165
 40
0.5922384832149916
 40
0.6119338528834759
 40
0.6445486344466153
 40
0.6779048000143458
 40
0.7310499205035106
 40
0.7846471847322901
 40
0.8392569296832871
 40
0.8941771677140008
 40
0.9494515038860801
 40
1.0
 40
1.0
 40
1.0
 40
1.0
 10
150.0229345790348
 20
60.84705981411803
 30
0.0
 10
150.0016486157984
 20
60.81560768851896
 30
0.0
 10
149.9551028574979
 20
60.74683170596581
 30
0.0
 10
149.8683493692532
 20
60.65356726086867
 30
0.0
 10
149.7547284718985
 20
60.5532564412723
 30
0.0
 10
149.6134766723613
 20
60.45651010959083
 30
0.0
 10
149.4413188283164
 20
60.36658644763612
 30
0.0
 10
149.2528114888351
 20
60.29190341378795
 30
0.0
 10
149.0712969459233
 20
60.23770919221474
 30
0.0
 10
148.9018993296542
 20
60.19709377148604
 30
0.0
 10
148.7628321710716
 20
60.16802092024864
 30
0.0
 10
148.630246882789
 20
60.1409062711497
 30
0.0
 10
148.5218944802164
 20
60.11678895102133
 30
0.0
 10
148.424781263352
 20
60.09117250459818
 30
0.0
 10
148.3436836781422
 20
60.06617929043615
 30
0.0
 10
148.2634761754909
 20
60.03734598864194
 30
0.0
 10
148.1703705998437
 20
59.99947707218627
 30
0.0
 10
148.0676952915369
 20
59.952965474367
 30
0.0
 10
147.9367325578748
 20
59.89155294991829
 30
0.0
 10
147.7930552468226
 20
59.82704148867367
 30
0.0
 10
147.6342035550093
 20
59.7664699446713
 30
0.0
 10
147.4769803899571
 20
59.72048206525502
 30
0.0
 10
147.3203435390128
 20
59.69166507431883
 30
0.0
 10
147.1691266609996
 20
59.67984994956879
 30
0.0
 10
147.0715759578172
 20
59.68905452573514
 30
0.0
 10
147.0249788177275
 20
59.69345128466254
 30
0.0
  0
CIRCLE
  5
1E9
330
1F
100
AcDbEntity
  8
0
  6
Continuous
 62
     7
370
    15
100
AcDbCircle
 10
158.2844346493
 20
65.437229829
 30
0.0
 40
31.5000000000001
  0
LINE
  5
1EA
330
1F
100
AcDbEntity
  8
0
  6
Continuous
 62
     7
370
    15
100
AcDbLine
 10
160.6666347623
 20
56.0717758518
 30
0.0
 11
157.4144000076
 21
55.879304871
 31
0.0
  0
LINE
  5
1EB
330
1F
100
AcDbEntity
  8
0
  6
Continuous
 62
     7
370
    15
100
AcDbLine
 10
162.1771137051
 20
56.0067200511
 30
0.0
 11
160.6666347623
 21
56.0717758518
 31
0.0
  0
LINE
  5
1EC
330
1F
100
AcDbEntity
  8
0
  6
Continuous
 62
     7
370
    15
100
AcDbLine
 10
162.9907825443
 20
44.3707135389
 30
0.0
 11
162.1771137051
 21
56.0067200511
 31
0.0
  0
LINE
  5
1ED
330
1F
100
AcDbEntity
  8
0
  6
Continuous
 62
     7
370
    15
100
AcDbLine
 10
162.9907825443
 20
44.3707135389
 30
0.0
 11
161.5063349435
 21
44.0635038042
 31
0.0
  0
LINE
  5
1EE
330
1F
100
AcDbEntity
  8
0
  6
Continuous
 62
     7
370
    15
100
AcDbLine
 10
161.5063349435
 20
44.0635038042
 30
0.0
 11
158.2541001888
 21
43.8710328234
 31
0.0
  0
LINE
  5
1EF
330
1F
100
AcDbEntity
  8
0
  6
Continuous
 62
     7
370
    15
100
AcDbLine
 10
158.2541001888
 20
43.8710328234
 30
0.0
 11
157.4144000076
 21
55.879304871
 31
0.0
  0
LINE
  5
1F0
330
1F
100
AcDbEntity
  8
0
  6
Continuous
 62
     7
370
    15
100
AcDbLine
 10
158.2844346493
 20
43.437229829
 30
0.0
 11
158.2541001888
 21
43.8710328234
 31
0.0
  0
LINE
  5
1F1
330
1F
100
AcDbEntity
  8
0
  6
Continuous
 62
     7
370
    15
100
AcDbLine
 10
160.6666347623
 20
56.0717758518
 30
0.0
 11
158.0571281688
 21
56.2073298219
 31
0.0
  0
LINE
  5
1F2
330
1F
100
AcDbEntity
  8
0
  6
Continuous
 62
     7
370
    15
100
AcDbLine
 10
157.6908644095
 20
56.2263558351
 30
0.0
 11
157.3890354668
 21
56.2420347039
 31
0.0
  0
LINE
  5
1F3
330
1F
100
AcDbEntity
  8
0
  6
Continuous
 62
     7
370
    15
100
AcDbLine
 10
157.4144000076
 20
55.879304871
 30
0.0
 11
157.3890354668
 21
56.2420347039
 31
0.0
  0
LINE
  5
1F4
330
1F
100
AcDbEntity
  8
0
  6
Continuous
 62
     7
370
    15
100
AcDbLine
 10
157.6174001629
 20
57.2769435078
 30
0.0
 11
157.3155712202
 21
57.2926223766
 31
0.0
  0
LINE
  5
1F5
330
1F
100
AcDbEntity
  8
0
  6
Continuous
 62
     7
370
    15
100
AcDbLine
 10
157.3890354668
 20
56.2420347039
 30
0.0
 11
157.3155712202
 21
57.2926223766
 31
0.0
  0
LINE
  5
1F6
330
1F
100
AcDbEntity
  8
0
  6
Continuous
 62
     7
370
    15
100
AcDbLine
 10
157.3155712202
 20
57.2926223766
 30
0.0
 11
157.3154650424
 21
57.2941407895
 31
0.0
  0
CIRCLE
  5
1F7
330
1F
100
AcDbEntity
  8
VERMASSUNG
  6
CENTERX2
100
AcDbCircle
 10
158.2844346493
 20
63.4880706273
 30
0.0
 40
19.99999999999999
  0
DIMENSION
  5
1F8
330
1F
100
AcDbEntity
  8
VERMASSUNG
100
AcDbDimension
  2
_D_6
 10
144.1422990255
 20
49.3459350036
 30
0.0
 11
130.3673067229
 21
35.570942701
 31
0.0
 70
   160
  1
%%c<> min. 
 71
     2
 42
-1.0
  3
SLDDIMSTYLE2
100
AcDbAlignedDimension
 13
172.426570273
 23
77.6302062511
 33
0.0
 14
144.1422990255
 24
49.3459350036
 34
0.0
 50
45.0
100
AcDbRotatedDimension
  0
DIMENSION
  5
207
330
1F
100
AcDbEntity
  8
VERMASSUNG
100
AcDbDimension
  2
_D_7
 10
158.2844346493
 20
31.437229829
 30
0.0
 11
146.5289987939
 21
101.9040435841
 31
0.0
 70
   162
  1
<>
 71
     1
 42
-1.0
  3
SLDDIMSTYLE3
100
AcDb2LineAngularDimension
 13
157.5969752584
 23
57.5690332512
 33
0.0
 14
157.6910924396
 24
56.223094853
 34
0.0
 15
158.2844346493
 25
99.437229829
 35
0.0
 16
156.3500575976
 26
103.1312171323
 36
0.0
  0
INSERT
  5
21F
330
1F
100
AcDbEntity
  8
VERMASSUNG
100
AcDbBlockReference
  2
SW_CENTERMARKSYMBOL_0
 10
158.2844346493
 20
65.437229829
 30
0.0
  0
OLE2FRAME
  5
220
330
1F
100
AcDbEntity
  8
0
100
AcDbOle2Frame
 70
     2
  3
Paintbrush-Bild
 10
13.8511154363
 20
38.264191557
 30
0.0
 11
51.6290888628
 21
31.9806341108
 31
0.0
 71
     2
 72
     0
 73
     1
 90
    12928
310
80552BED0767C5B32B40DDAF6807D121434000000000000000006FFBDDFB85D0
310
4940DDAF6807D121434000000000000000006FFBDDFB85D04940416F4BD60AFB
310
3F4000000000000000002BED0767C5B32B40416F4BD60AFB3F40000000000000
310
0000000000000100000000010000010000000100000000000100000000320000
310
D0CF11E0A1B11AE1000000000000000000000000000000003E000300FEFF0900
310
0600000000000000000000000100000001000000000000000010000002000000
310
01000000FEFFFFFF0000000000000000FFFFFFFFFFFFFFFFFFFFFFFFFFFFFFFF
310
FFFFFFFFFFFFFFFFFFFFFFFFFFFFFFFFFFFFFFFFFFFFFFFFFFFFFFFFFFFFFFFF
310
FFFFFFFFFFFFFFFFFFFFFFFFFFFFFFFFFFFFFFFFFFFFFFFFFFFFFFFFFFFFFFFF
310
FFFFFFFFFFFFFFFFFFFFFFFFFFFFFFFFFFFFFFFFFFFFFFFFFFFFFFFFFFFFFFFF
310
FFFFFFFFFFFFFFFFFFFFFFFFFFFFFFFFFFFFFFFFFFFFFFFFFFFFFFFFFFFFFFFF
310
FFFFFFFFFFFFFFFFFFFFFFFFFFFFFFFFFFFFFFFFFFFFFFFFFFFFFFFFFFFFFFFF
310
FFFFFFFFFFFFFFFFFFFFFFFFFFFFFFFFFFFFFFFFFFFFFFFFFFFFFFFFFFFFFFFF
310
FFFFFFFFFFFFFFFFFFFFFFFFFFFFFFFFFFFFFFFFFFFFFFFFFFFFFFFFFFFFFFFF
310
FFFFFFFFFFFFFFFFFFFFFFFFFFFFFFFFFFFFFFFFFFFFFFFFFFFFFFFFFFFFFFFF
310
FFFFFFFFFFFFFFFFFFFFFFFFFFFFFFFFFFFFFFFFFFFFFFFFFFFFFFFFFFFFFFFF
310
FFFFFFFFFFFFFFFFFFFFFFFFFFFFFFFFFFFFFFFFFFFFFFFFFFFFFFFFFFFFFFFF
310
FFFFFFFFFFFFFFFFFFFFFFFFFFFFFFFFFFFFFFFFFFFFFFFFFFFFFFFFFFFFFFFF
310
FFFFFFFFFFFFFFFFFFFFFFFFFFFFFFFFFFFFFFFFFFFFFFFFFFFFFFFFFFFFFFFF
310
FFFFFFFFFFFFFFFFFFFFFFFFFFFFFFFFFFFFFFFFFFFFFFFFFFFFFFFFFFFFFFFF
310
FDFFFFFFFEFFFFFFFEFFFFFFFEFFFFFF05000000060000000700000008000000
310
090000000A0000000B0000000C0000000D0000000E0000000F00000010000000
310
11000000120000001300000014000000150000001600000017000000FEFFFFFF
310
FFFFFFFFFFFFFFFFFFFFFFFFFFFFFFFFFFFFFFFFFFFFFFFFFFFFFFFFFFFFFFFF
310
FFFFFFFFFFFFFFFFFFFFFFFFFFFFFFFFFFFFFFFFFFFFFFFFFFFFFFFFFFFFFFFF
310
FFFFFFFFFFFFFFFFFFFFFFFFFFFFFFFFFFFFFFFFFFFFFFFFFFFFFFFFFFFFFFFF
310
FFFFFFFFFFFFFFFFFFFFFFFFFFFFFFFFFFFFFFFFFFFFFFFFFFFFFFFFFFFFFFFF
310
FFFFFFFFFFFFFFFFFFFFFFFFFFFFFFFFFFFFFFFFFFFFFFFFFFFFFFFFFFFFFFFF
310
FFFFFFFFFFFFFFFFFFFFFFFFFFFFFFFFFFFFFFFFFFFFFFFFFFFFFFFFFFFFFFFF
310
FFFFFFFFFFFFFFFFFFFFFFFFFFFFFFFFFFFFFFFFFFFFFFFFFFFFFFFFFFFFFFFF
310
FFFFFFFFFFFFFFFFFFFFFFFFFFFFFFFFFFFFFFFFFFFFFFFFFFFFFFFFFFFFFFFF
310
FFFFFFFFFFFFFFFFFFFFFFFFFFFFFFFFFFFFFFFFFFFFFFFFFFFFFFFFFFFFFFFF
310
FFFFFFFFFFFFFFFFFFFFFFFFFFFFFFFFFFFFFFFFFFFFFFFFFFFFFFFFFFFFFFFF
310
FFFFFFFFFFFFFFFFFFFFFFFFFFFFFFFFFFFFFFFFFFFFFFFFFFFFFFFFFFFFFFFF
310
FFFFFFFFFFFFFFFFFFFFFFFFFFFFFFFFFFFFFFFFFFFFFFFFFFFFFFFFFFFFFFFF
310
FFFFFFFFFFFFFFFFFFFFFFFFFFFFFFFFFFFFFFFFFFFFFFFFFFFFFFFFFFFFFFFF
310
52006F006F007400200045006E00740072007900000000000000000000000000
310
0000000000000000000000000000000000000000000000000000000000000000
310
16000500FFFFFFFFFFFFFFFF020000000A00030000000000C000000000000046
310
00000000000000000000000050F7F554FC42CD0103000000C000000000000000
310
01004F006C006500000000000000000000000000000000000000000000000000
310
0000000000000000000000000000000000000000000000000000000000000000
310
0A000200FFFFFFFFFFFFFFFFFFFFFFFF00000000000000000000000000000000
310
0000000000000000000000000000000000000000000000001400000000000000
310
010043006F006D0070004F0062006A0000000000000000000000000000000000
310
0000000000000000000000000000000000000000000000000000000000000000
310
120002010100000003000000FFFFFFFF00000000000000000000000000000000
310
0000000000000000000000000000000000000000010000004D00000000000000
310
01004F006C006500310030004E00610074006900760065000000000000000000
310
0000000000000000000000000000000000000000000000000000000000000000
310
1A000200FFFFFFFFFFFFFFFFFFFFFFFF00000000000000000000000000000000
310
0000000000000000000000000000000000000000040000002426000000000000
310
FEFFFFFF02000000FEFFFFFFFFFFFFFFFFFFFFFFFFFFFFFFFFFFFFFFFFFFFFFF
310
FFFFFFFFFFFFFFFFFFFFFFFFFFFFFFFFFFFFFFFFFFFFFFFFFFFFFFFFFFFFFFFF
310
FFFFFFFFFFFFFFFFFFFFFFFFFFFFFFFFFFFFFFFFFFFFFFFFFFFFFFFFFFFFFFFF
310
FFFFFFFFFFFFFFFFFFFFFFFFFFFFFFFFFFFFFFFFFFFFFFFFFFFFFFFFFFFFFFFF
310
FFFFFFFFFFFFFFFFFFFFFFFFFFFFFFFFFFFFFFFFFFFFFFFFFFFFFFFFFFFFFFFF
310
FFFFFFFFFFFFFFFFFFFFFFFFFFFFFFFFFFFFFFFFFFFFFFFFFFFFFFFFFFFFFFFF
310
FFFFFFFFFFFFFFFFFFFFFFFFFFFFFFFFFFFFFFFFFFFFFFFFFFFFFFFFFFFFFFFF
310
FFFFFFFFFFFFFFFFFFFFFFFFFFFFFFFFFFFFFFFFFFFFFFFFFFFFFFFFFFFFFFFF
310
FFFFFFFFFFFFFFFFFFFFFFFFFFFFFFFFFFFFFFFFFFFFFFFFFFFFFFFFFFFFFFFF
310
FFFFFFFFFFFFFFFFFFFFFFFFFFFFFFFFFFFFFFFFFFFFFFFFFFFFFFFFFFFFFFFF
310
FFFFFFFFFFFFFFFFFFFFFFFFFFFFFFFFFFFFFFFFFFFFFFFFFFFFFFFFFFFFFFFF
310
FFFFFFFFFFFFFFFFFFFFFFFFFFFFFFFFFFFFFFFFFFFFFFFFFFFFFFFFFFFFFFFF
310
FFFFFFFFFFFFFFFFFFFFFFFFFFFFFFFFFFFFFFFFFFFFFFFFFFFFFFFFFFFFFFFF
310
FFFFFFFFFFFFFFFFFFFFFFFFFFFFFFFFFFFFFFFFFFFFFFFFFFFFFFFFFFFFFFFF
310
FFFFFFFFFFFFFFFFFFFFFFFFFFFFFFFFFFFFFFFFFFFFFFFFFFFFFFFFFFFFFFFF
310
FFFFFFFFFFFFFFFFFFFFFFFFFFFFFFFFFFFFFFFFFFFFFFFFFFFFFFFFFFFFFFFF
310
0100000200000000000000000000000000000000000000000000000000000000
310
0000000000000000000000000000000000000000000000000000000000000000
310
0100FEFF030A0000FFFFFFFF0A00030000000000C00000000000004607000000
310
5042727573680007000000504272757368000700000050427275736800F439B2
310
7100000000000000000000000000000000000000000000000000000000000000
310
0000000000000000000000000000000000000000000000000000000000000000
310
0000000000000000000000000000000000000000000000000000000000000000
310
0000000000000000000000000000000000000000000000000000000000000000
310
0000000000000000000000000000000000000000000000000000000000000000
310
0000000000000000000000000000000000000000000000000000000000000000
310
0000000000000000000000000000000000000000000000000000000000000000
310
0000000000000000000000000000000000000000000000000000000000000000
310
0000000000000000000000000000000000000000000000000000000000000000
310
0000000000000000000000000000000000000000000000000000000000000000
310
0000000000000000000000000000000000000000000000000000000000000000
310
0000000000000000000000000000000000000000000000000000000000000000
310
20260000424D0E260000000000003E00000028000000B40200006E0000000100
310
01000000000000000000130B0000130B00000200000002000000000000FFFFFF
310
FFFFFFFFFFFFFFFFFFFFFFFFFFFFFFFFFFFFFFFFFFFFFFFFFFFFFFFFFFFFFFFF
310
FFFFFFFFFFFFFFFFFFFFFFFFFFFFFFFFFFFFFFFFFFFFFFFFFFFFFFFFFFFFFFFF
310
FFFFFFFFFFFFFFFFFFFFFFFFFFFFFFFFFFFFFFFFFFFFFFFFF000FFFFFFFFFFFF
310
FFFFFFFFFFFFFFFFFFFFFFFFFFFFFFFFFFFFFFFFFFFFFFFFFFFFFFFFFFFFFFFF
310
FFFFFFFFFFFFFFFFFFFFFFFFFFFFFFFFFFFFFFFFFFFFFFFFFFFFFFFFFFFFFFFF
310
FFFFFFFFFFFFFFFFFFFFFFFFFFFFFFFFF000FFFFFFFFFFFFFFFFFFFFFFFFFFFF
310
FFFFFFFFFFFFFFFFFFFFFFFFFFFFFFFFFFFFFFFFFFFFFFFFFFFFFFFFFFFFFFFF
310
FFFFFFFFFFFFFFFFFFFFFFFFFFFFFFFFFFFFFFFFFFFFFFFFFFFFFFFFFFFFFFFF
310
FFFFFFFFFFFFFFFFF000FFFFFFFFFFFFFFFFFFFFFFFFFFFFFFFFFFFFFFFFFFFF
310
FFFFFFFFFFFFFFFFFFFFFFFFFFFFFFFFFFFFFFFFFFFFFFFFFFFFFFFFFFFFFFFF
310
FFFFFFFFFFFFFFFFFFFFFFFFFFFFFFFFFFFFFFFFFFFFFFFFFFFFFFFFFFFFFFFF
310
F000FFFFFFFFFFFFFFFFFFFFFFFFFFFFFFFFFFFFFFFFFFFFFFFFFFFFFFFFFFFF
310
FFFFFFFFFFFFFFFFFFFFFFFFFFFFFFFFFFFFFFFFFFFFFFFFFFFFFFFFFFFFFFFF
310
FFFFFFFFFFFFFFFFFFFFFFFFFFFFFFFFFFFFFFFFFFFFFFFFF000FFFFFFFFFFFF
310
FFFFFFFFFFFFFFFFFFFFFFFFFFFFFFFFFFFFFFFFFFFFFFFFFFFFFFFFFFFFFFFF
310
FFFFFFFFFFFFFFFFFFFFFFFFFFFFFFFFFFFFFFFFFFFFFFFFFFFFFFFFFFFFFFFF
310
FFFFFFFFFFFFFFFFFFFFFFFFFFFFFFFFF000FFFFFFFFFFFFFFFFFFFFFFFFFFFF
310
FFFFFFFFFFFFFFFFFFFFFFFFFFFFFFFFFFFFFFFFFFFFFFFFFFFFFFFFFFFFFFFF
310
FFFFFFFFFFFFFFFFFFFFFFFFFFFFFFFFFFFFFFFFFFFFFFFFFFFFFFFFFFFFFFFF
310
FFFFFFFFFFFFFFFFF000FFFFFFFFFFFFFFFFFFFFFFFFFFFFFFFFFFFFFFFFFFFF
310
FFFFFFFFFFFFFFFFFFFFFFFFFFFFFFFFFFFFFFFFFFFFFFFFFFFFFFFFFFFFFFFF
310
FFFFFFFFFFFFFFFFFFFFFFFFFFFFFFFFFFFFFFFFFFFFFFFFFFFFFFFFFFFFFFFF
310
F000FFFFFFFFFFFFFFFFFFFFFFFFFFFFFFFFFFFFFFFFFFFFFFFFFFFFFFFFFFFF
310
FFFFFFFFFFFFFFFFFFFFFFFFFFFFFFFFFFFFFFFFFFFFFFFFFFFFFFFFFFFFFFFF
310
FFFFFFFFFFFFFFFFFFFFFFFFFFFFFFFFFFFFFFFFFFFFFFFFF000FFFFFFFFFFFF
310
FFFFFFFFFFFFFFFFFFFFFFFFFFFFFFFFFFFFFFFFFFFFFFFFFFFFFFFFFFFFFFFF
310
FFFFFFFFFFFFFFFFFFFFFFFFFFFFFFFFFFFFFFFFFFFFFFFFFFFFFFFFFFFFFFFF
310
FFFFFFFFFFFFFFFFFFFFFFFFFFFFFFFFF000FFFFFFFFFFFFFFFFFFFFFFFFFFFF
310
FFFFFFFFFFFFFFFFFFFFFFFFFFFFFFFFFFFFFFFFFFFFFFFFFFFFFFFFFFFFFFFF
310
FFFFFFFFFFFFFFFFFFFFFFFFFFFFFFFFFFFFFFFFFFFFFFFFFFFFFFFFFFFFFFFF
310
FFFFFFFFFFFFFFFFF000FFFFFFFFFFFFFFFFFFFFFFFFFFFFFFFFFFFFFFFFFFFF
310
FFFFFFFFFFFFFFFFFFFFFFFFFFFFFFFFFFFFFFFFFFFFFFFFFFFFFFFFFFFFFFFF
310
FFFFFFFFFFFFFFFFFFFFFFFFFFFFFFFFFFFFFFFFFFFFFFFFFFFFFFFFFFFFFFFF
310
F000FFFFFFFFFFFFFFFFFFFFFFFFFFFFFFFFFFFFFFFFFFFFFFFFFFFFFFFFFFFF
310
FFFFFFFFFFFFFFFFFFFFFFFFFFFFFFFFFFFFFFFFFFFFFFFFFFFFFFFFFFFFFFFF
310
FFFFFFFFFFFFFFFFFFFFFFFFFFFFFFFFFFFFFFFFFFFFFFFFF000FFFFFFFFFFFF
310
FFFFFFFFFFFFFFFFFFFFFFFFFFFFFFFFFFFFFFFFFFFFFFFFFFFFFFFFFFFFFFFF
310
FFFFFFFFFFFFFFFFFFFFFFFFFFFFFFFFFFFFFFFFFFFFFFFFFFFFFFFFFFFFFFFF
310
FFFFFFFFFFFFFFFFFFFFFFFFFFFFFFFFF000FFFFFFFFFFFFFFFFFFFFFFFFFFFF
310
FFFFFFFFFFFFFFFFFFFFFFFFFFFFFFFFFFFFFFFFFFFFFFFFFFFFFFFFFFFFFFFF
310
FFFFFFFFFFFFFFFFFFFFFFFFFFFFFFFFFFFFFFFFFFFFFFFFFFFFFFFFFFFFFFFF
310
FFFFFFFFFFFFFFFFF000FFFFFFFFFFFFFFFFFFFFFFFFFFFFFFFFFFFFFFFFFFFF
310
FFFFFFFFFFFFFFFFFFFFFFFFFFFFFFFFFFFFFFFFFFFFFFFFFFFFFFFFFFFFFFFF
310
FFFFFFFFFFFFFFFFFFFFFFFFFFFFFFFFFFFFFFFFFFFFFFFFFFFFFFFFFFFFFFFF
310
F000FFFFFFFFFFFFFFFFFFFFFFFFFFFFFFFFFFFFFFFFFFFFFFFFFFFFFFFFFFFF
310
FFFFFFFFFFFFFFFFFFFFFFFFFFFFFFFFFFFFFFFFFFFFFFFFFFFFFFFFFFFFFFFF
310
FFFFFFFFFFFFFFFFFFFFFFFFFFFFFFFFFFFFFFFFFFFFFFFFF000FFFFFFFFFFFF
310
FFFFFFFFFFFFFFFFFFFFFFFFFFFFFFFFFFFFFFFFFFFFFFFFFFFFFFFFFFFFFFFF
310
FFFFFFFFFFFFFFFFFFFFFFFFFFFFFFFFFFFFFFFFFFFFFFFFFFFFFFFFFFFFFFFF
310
FFFFFFFFFFFFFFFFFFFFFFFFFFFFFFFFF000FFFFFFFFFFFFFFFFFFFFFFFFFFFF
310
FFFFFFFFFFFFFFFFFFFFFFFFFFFFFFFFFFFFFFFFFFFFFFFFFFFFFFFFFFFFFFFF
310
FFFFFFFFFFFFFFFFFFFFFFFFFFFFFFFFFFFFFFFFFFFFFFFFFFFFFFFFFFFFFFFF
310
FFFFFFFFFFFFFFFFF000FFFFF80003FFFFFFFFFFFFFFFFFFFFFFFFFFFFFFFFFF
310
FFFFF00007FFFFFFFFFF00007FFFFFF800000000000000007FFFFFFFFFFFFFFF
310
FFFFFFFC001FFFFFFFFFFFFFFC001FFFFFFFFFFFFFFFFFFFFFFFFFFE0007FFFF
310
F000FFFF8000007FFFFFFFF8000FFFFFC0007FFFFF80007FFFFF0000007FFFFF
310
FFF8000007FFFFF800000000000000007FFFFFF0001FFFFFFFFFFFC00001FFFF
310
FFFFFFFFC00001FFFFFFFF000000000003FFFFE000007FFFF000FFFE0000000F
310
FFFFFFF0000FFFFF80007FFFFF80007FFFFC0000001FFFFFFFC0000001FFFFF8
310
00000000000000007FFFFFF0001FFFFFFFFFFE0000003FFFFFFFFFFE0000003F
310
FFFFFF000000000003FFFF0000000FFFF000FFF800000003FFFFFFF00007FFFF
310
80007FFFFF80007FFFF000000007FFFFFF000000003FFFF80000000000000000
310
7FFFFFF0001FFFFFFFFFF80000000FFFFFFFFFF80000000FFFFFFF0000000000
310
03FFFC00000003FFF000FFE000000000FFFFFFF00007FFFF80003FFFFF80007F
310
FFC000000001FFFFFC000000001FFFF800000000000000007FFFFFF0001FFFFF
310
FFFFE000000003FFFFFFFFE000000003FFFFFF000000000003FFF000000000FF
310
F000FF80000000007FFFFFF00007FFFF80003FFFFF80007FFF8000000000FFFF
310
F80000000007FFF800000000000000007FFFFFF0001FFFFFFFFFC000000001FF
310
FFFFFFC000000001FFFFFF000000000003FFC0000000007FF000FF0000000000
310
3FFFFFE00007FFFF00003FFFFF80007FFE00000000003FFFF00000000003FFF8
310
00000000000000007FFFFFF0001FFFFFFFFF8000000000FFFFFFFF8000000000
310
FFFFFF000000000003FF80000000003FF000FE00000000001FFFFFE00003FFFF
310
00003FFFFF80007FFC00000000001FFFE00000000001FFF8000001FFFE000000
310
7FFFFFF0001FFFFFFFFE00000000003FFFFFFE00000000003FFFFF0000000000
310
03FF00000000001FF000FC00000000000FFFFFE00003FFFF00001FFFFF80007F
310
F800000000001FFFC00000000000FFF8000001FFFE0000007FFFFFF0001FFFFF
310
FFFC00000000001FFFFFFC00000000001FFFFF000000000003FE00000000000F
310
F000F8000000000007FFFFE00003FFFF00001FFFFF80007FF800000000000FFF
310
800000000000FFF8000001FFFE0000007FFFFFF0001FFFFFFFF800000000000F
310
FFFFF800000000000FFFFF000000000003FC000000000007F000F80000000000
310
03FFFFC00003FFFE00001FFFFF80007FF0000000000007FF0000000000007FF8
310
000001FFFE0000007FFFFFF0001FFFFFFFF0000000000007FFFFF00000000000
310
07FFFF000000000003F8000000000003F000F0000000000003FFFFC00001FFFE
310
00001FFFFF80007FE0000000000007FE0000000000003FF8000001FFFE000000
310
7FFFFFF0001FFFFFFFF0000000000007FFFFF0000000000007FFFF0000000000
310
03F800001F800003F000E00001FFF00001FFFFC00001FFFE00000FFFFF80007F
310
E00001FFE00003FE00001FFF00003FF8000001FFFE0000007FFFFFF0001FFFFF
310
FFE000003E000003FFFFE000003E000003FFFF000000000003F00001FFF80001
310
F000E00007FFFC0001FFFFC00001FFFE00000FFFFF80007FC0000FFFFC0003FC
310
0000FFFFC0001FF8000001FFFE0000007FFFFFF0001FFFFFFFC00003FFE00001
310
FFFFC00003FFE00001FFFF0001FFFFFFFFF00007FFFE0001F000E0000FFFFF00
310
00FFFF800001FFFC00000FFFFF80007FC0001FFFFE0001FC0001FFFFE0001FF8
310
000001FFFE0000007FFFFFF0001FFFFFFF80000FFFF80000FFFF80000FFFF800
310
00FFFF0003FFFFFFFFE0000FFFFF8000F000C0003FFFFF8000FFFF800000FFFC
310
000007FFFF80007F80003FFFFF0001FC0003FFFFF0001FF8000001FFFE000000
310
7FFFFFF0001FFFFFFF80003FFFFE0000FFFF80003FFFFE0000FFFF0003FFFFFF
310
FFE0003FFFFF8000F000C0003FFFFF8000FFFF800000FFFC000007FFFF80007F
310
80007FFFFF8001F80007FFFFF8000FF8000001FFFE0000007FFFFFF0001FFFFF
310
FF00007FFFFF00007FFF00007FFFFF00007FFF0003FFFFFFFFE0003FFFFFC000
310
F000C0007FFFFFC000FFFF000000FFFC000007FFFF80007F8000FFFFFF8000F8
310
000FFFFFF8000FF8000001FFFE0000007FFFFFF0001FFFFFFF0000FFFFFF8000
310
7FFF0000FFFFFF80007FFF0003FFFFFFFFC0007FFFFFC00070008000FFFFFFC0
310
00FFFF000000FFF8000007FFFF80007F8000FFFFFF8000F8000FFFFFF8000FF8
310
000001FFFE0000007FFFFFF0001FFFFFFE0001FFFFFFC0003FFE0001FFFFFFC0
310
003FFF0003FFFFFFFFC0007FFFFFE00070008000FFFFFFC0007FFF0000007FF8
310
000003FFFF80007F0001FFFFFF8000F8000FFFFFF8000FF8000001FFFE000000
310
7FFFFFF0001FFFFFFE0001FFFFFFC0003FFE0001FFFFFFC0003FFF0003FFFFFF
310
FFC000FFFFFFE00070008000FFFFFFC0007FFF0000007FF8000003FFFF80007F
310
0001FFFFFF8000F8001FFFFFF8000FF8000001FFFE0000007FFFFFF0001FFFFF
310
FE0003FFFFFFE0003FFE0003FFFFFFE0003FFF0003FFFFFFFFC000FFFFFFE000
310
70008000FFFFFFC0007FFE0000007FF8000003FFFF80007F0001FFFFFF8000F0
310
001FFFFFF8000FF8000001FFFE0000007FFFFFF0001FFFFFFC0003FFFFFFE000
310
1FFC0003FFFFFFE0001FFF0003FFFFFFFFC000FFFFFFC00070008000FFFFFF80
310
007FFE0000007FF0000003FFFF80007F0001FFFFFF0000F0001FFFFFF8000FF8
310
000001FFFE0000007FFFFFF0001FFFFFFC0007FFFFFFF0001FFC0007FFFFFFF0
310
001FFF0003FFFFFFFFC000FFFFFFC00070008001FFFFFF0000FFFE0000003FF0
310
000001FFFF80007F0001FFFFFF0000F8001FFFFFF0000FF8000001FFFE000000
310
7FFFFFF0001FFFFFFC0007FFFFFFF0001FFC0007FFFFFFF0001FFF0003FFFFFF
310
FFC001FFFFFF80007000FFFFFFFFFE0000FFFE0008003FF0008001FFFF80007F
310
FFFFFFFFFC0000FFFFFFFFFFE0000FF8000001FFFE0000007FFFFFF0001FFFFF
310
F8000FFFFFFFF8000FF8000FFFFFFFF8000FFF0003FFFFFFFFFFFFFFFFFF0000
310
7000FFFFFFFFFC0000FFFC0008003FF0008001FFFF80007FFFFFFFFFF80001FF
310
FFFFFFFF80000FF8000001FFFE0000007FFFFFF0001FFFFFF8000FFFFFFFF800
310
0FF8000FFFFFFFF8000FFF0003FFFFFFFFFFFFFFFFFE0000F000FFFFFFFFE000
310
00FFFC000C003FE000C001FFFF80007FFFFFFFFFC00001FFFFFFFFFE00001FF8
310
000001FFFE0000007FFFFFF0001FFFFFF8000FFFFFFFF8000FF8000FFFFFFFF8
310
000FFF0003FFFFFFFFFFFFFFFFF00000F000FFFFFFFE000001FFFC000C001FE0
310
00C000FFFF80007FFFFFFFFE000001FFFFFFFFE000001FF80FFFFFFFFFFFFFC0
310
7FFFFFF0001FFFFFF8000FFFFFFFF8000FF8000FFFFFFFF8000FFF0003FFFFFF
310
FFFFFFFFFF800000F000FFFFFFC0000001FFFC001C001FE001C000FFFF80007F
310
FFFFFF80000003FFFFFFF80000001FF80FFFFFFFFFFFFFC07FFFFFF0001FFFFF
310
F8001FFFFFFFFC000FF8001FFFFFFFFC000FFF0003FFFFFFFFFFFFFFF0000001
310
F000FFFFF800000001FFF8001C001FE001C000FFFF80007FFFFFF800000003FF
310
FFFF800000003FF80FFFFFFFFFFFFFC07FFFFFF0001FFFFFF8001FFFFFFFFC00
310
0FF8001FFFFFFFFC000FFF0003FFFFFFFFFFFFFE00000001F000FFFFC0000000
310
03FFF8001E001FC001E000FFFF80007FFFFF8000000007FFFFFC000000003FF8
310
0FFFFFFFFFFFFFC07FFFFFF0001FFFFFF8001FFFFFFFFC000FF8001FFFFFFFFC
310
000FFF0003FFFFFFFFFFFFE000000003F000FFFE0000000007FFF8001E000FC0
310
01E0007FFF80007FFFFE0000000007FFFFE0000000007FF80FFFFFFFFFFFFFC0
310
7FFFFFF0001FFFFFF0001FFFFFFFFC0007F0001FFFFFFFFC0007FF0003FFFFFF
310
FFFFFF0000000003F000FFF80000000007FFF8001E000FC003E0007FFF80007F
310
FFF0000000000FFFFF8000000000FFF80FFFFFFFFFFFFFC07FFFFFF0001FFFFF
310
F0001FFFFFFFFC0007F0001FFFFFFFFC0007FF0003FFFFFFFFFFFC0000000007
310
F000FFE0000000000FFFF0003E000FC003E0007FFF80007FFFC0000000001FFF
310
FE0000000001FFF80FFFFFFFFFFFFFC07FFFFFF0001FFFFFF0001FFFFFFFFC00
310
07F0001FFFFFFFFC0007FF0003FFFFFFFFFFF0000000000FF000FFC000000000
310
1FFFF0003F000F8003F0003FFF80007FFF80000000003FFFF80000000003FFF8
310
0FFFFFFFFFFFFFC07FFFFFF0001FFFFFF0001FFFFFFFFC0007F0001FFFFFFFFC
310
0007FF0003FFFFFFFFFFE0000000001FF000FF00000000007FFFF0003F000780
310
03F0003FFF80007FFF00000000007FFFF00000000007FFF80FFFFFFFFFFFFFC0
310
7FFFFFF0001FFFFFF0001FFFFFFFFC0007F0001FFFFFFFFC0007FF0003FFFFFF
310
FFFF80000000007FF000FE0000000000FFFFE0003F00078007F0003FFF80007F
310
FE0000000001FFFFE0000000001FFFF80FFFFFFFFFFFFFC07FFFFFF0001FFFFF
310
F0001FFFFFFFFC0007F0001FFFFFFFFC0007FF0003FFFFFFFFFF0000000000FF
310
F000FC0000000003FFFFE0007F00078007F0003FFF80007FFC0000000007FFFF
310
C0000000007FFFF80FFFFFFFFFFFFFC07FFFFFF0001FFFFFF8001FFFFFFFFC00
310
0FF8001FFFFFFFFC000FFF0003FFFFFFFFFE0000000003FFF000FC000000000F
310
FFFFE0007F80070007F8001FFF80007FF8000000001FFFFF8000000001FFFFF8
310
0FFFFFFFFFFFFFC07FFFFFF0001FFFFFF8001FFFFFFFFC000FF8001FFFFFFFFC
310
000FFF0003FFFFFFFFFC000000000FFFF000F8000000007FFFFFE0007F800700
310
07F8001FFF80007FF000000000FFFFFF800000000FFFFFF80FFFFFFFFFFFFFC0
310
7FFFFFF0001FFFFFF8000FFFFFFFF8000FF8000FFFFFFFF8000FFF0003FFFFFF
310
FFFC000000007FFFF000F800000007FFFFFFC0007F8003000FF8001FFF80007F
310
F000000007FFFFFF000000007FFFFFF80FFFFFFFFFFFFFC07FFFFFF0001FFFFF
310
F8000FFFFFFFF8000FF8000FFFFFFFF8000FFF0003FFFFFFFFF80000000FFFFF
310
F000F0000000FFFFFFFFC000FF8003000FF8001FFF80007FE0000000FFFFFFFF
310
0000000FFFFFFFF8000001FFFE0000007FFFFFF0001FFFFFF8000FFFFFFFF800
310
0FF8000FFFFFFFF8000FFF0003FFFFFFFFF8000000FFFFFFF000F000000FFFFF
310
FFFFC000FFC002000FF8000FFF80007FE000001FFFFFFFFE000001FFFFFFFFF8
310
000001FFFE0000007FFFFFF0001FFFFFF8000FFFFFFFF8000FF8000FFFFFFFF8
310
000FFF0003FFFFFFFFF000001FFFFFFFF000E00000FFFFFFFFFFC000FFC00200
310
0FFC000FFF80007FE00001FFFFFFFFFE00001FFFFFFFFFF8000001FFFE000000
310
7FFFFFF0001FFFFFFC000FFFFFFFF8001FFC000FFFFFFFF8001FFF0003FFFFFF
310
FFF00001FFFFFFFFF000E00007FFFFFFFFFF8000FFC000001FFC000FFF80007F
310
C0000FFFFFFFFFFE0000FFFFFFFFFFF8000001FFFE0000007FFFFFF0001FFFFF
310
FC0007FFFFFFF0001FFC0007FFFFFFF0001FFF0003FFFFFFFFF00007FFFFFFFF
310
F000E0001FFFFFFFFFFF8000FFC000001FFC000FFF80007FC0003FFFFFFFFFFE
310
0001FFFFFFFFFFF8000001FFFE0000007FFFFFF0001FFFFFFC0007FFFFFFF000
310
1FFC0007FFFFFFF0001FFF0003FFFFFFFFF0001FFFFFFFFFF000E0003FFFFF00
310
03FF8001FFE000001FFC0007FF80007FC0007FFFFF0007FC0003FFFFF0003FF8
310
000001FFFE0000007FFFFFF0001FFFFFFC0003FFFFFFE0001FFC0003FFFFFFE0
310
001FFF0003FFFFFFFFF0003FFFFFFFFFF000E0003FFFFF0001FF8001FFE00000
310
1FFE0007FF80007FC0007FFFFE0003FC0007FFFFE0003FF8000001FFFE000000
310
7FFFFFF0001FFFFFFE0003FFFFFFE0003FFE0003FFFFFFE0003FFF0003FFFFFF
310
FFF0003FFFFF8001F000E0003FFFFF0001FF0001FFE000001FFE0007FF80007F
310
C0007FFFFE0003FC0007FFFFE0003FF8000001FFFE0000007FFFFFF0001FFFFF
310
FE0001FFFFFFC0003FFE0001FFFFFFC0003FFF0003FFFFFFFFF0003FFFFF0001
310
F000E0003FFFFF0003FF0001FFE000003FFE0007FF80007FC0007FFFFE0003FC
310
0007FFFFE0003FF8000001FFFE0000007FFFFFF0001FFFFFFF0001FFFFFFC000
310
7FFF0001FFFFFFC0007FFF0003FFFFFFFFF0003FFFFF0001F000E0003FFFFE00
310
03FF0003FFF000003FFE0003FF80007FC0007FFFFC0003FE0007FFFFE0003FF8
310
000001FFFE0000007FFFFFF0001FFFFFFF0000FFFFFF80007FFF0000FFFFFF80
310
007FFF0003FFFFFFFFF0003FFFFF0001F000E0003FFFFE0003FF0003FFF00000
310
3FFF0003FF80007FC0007FFFFC0007FE0007FFFFC0003FF8000001FFFE000000
310
7FFFFFF0001FFFFFFF80007FFFFF0000FFFF80007FFFFF0000FFFF0003FFFFFF
310
FFF0003FFFFF0003F000E0003FFFFC0003FE0003FFF000003FFF0003FF80007F
310
E0003FFFF80007FE0003FFFFC0007FF8000001FFFE0000007FFFFFF0001FFFFF
310
FF80003FFFFE0000FFFF80003FFFFE0000FFFF0003FFFFFFFFF0001FFFFE0003
310
F000F0001FFFF80003FE0003FFF000007FFF0001FF80007FE0003FFFF00007FE
310
0001FFFF80007FF8000001FFFE0000007FFFFFF0001FFFFFFFC0000FFFF80001
310
FFFFC0000FFFF80001FFFF0003FFFFFFFFF0001FFFFC0003F000F0000FFFF000
310
07FE0007FFF800007FFF0001FF80007FE0001FFFE00007FF0000FFFE00007FF8
310
000001FFFE0000007FFFFFF0001FFFFFFFC00003FFE00001FFFFC00003FFE000
310
01FFFF0003FFFFFFFFF8000FFFF80003F000F00003FFC00007FC0007FFF80000
310
7FFF8001FF80007FF00007FF80000FFF00007FF80000FFF8000001FFFE000000
310
7F80000000000001FFE000003E000003FFFFE000003E000003FFFF0003FFFFFF
310
FFF80003FFE00007F000F800000000000FFC0007FFF800007FFF8001FF80007F
310
F000000000000FFF000000000000FFF8000001FFFE0000007F80000000000001
310
FFF0000000000007FFFFF0000000000007FFFF0003FFFFFFFFFC00007E000007
310
F000F800000000000FFC0007FFF80000FFFF8000FF80007FF800000000001FFF
310
800000000001FFF8000001FFFE0000007F80000000000001FFF800000000000F
310
FFFFF800000000000FFFFF0003FFFFFFFFFC00000000000FF000FC0000000000
310
1FFC0007FFFC0000FFFF8000FF80007FF800000000003FFFC00000000001FFF8
310
000001FFFE0000007F80000000000001FFF800000000000FFFFFF80000000000
310
0FFFFF0003FFFFFFFFFE00000000001FF000FE00000000003FF8000FFFFC0000
310
FFFF8000FF80007FFC00000000003FFFC00000000003FFF8000001FFFE000000
310
7F80000000000001FFFC00000000001FFFFFFC00000000001FFFFF0003FFFFFF
310
FFFF00000000001FF000FF00000000003FF8000FFFFC0000FFFFC000FF80007F
310
FE00000000007FFFE00000000007FFF8000001FFFE0000007F80000000000001
310
FFFE00000000003FFFFFFE00000000003FFFFF0003FFFFFFFFFF80000000003F
310
F000FF80000000007FF8000FFFFC0001FFFFC0007F80007FFF0000000000FFFF
310
F0000000000FFFF800000000000000007F80000000000001FFFF8000000000FF
310
FFFFFF8000000000FFFFFF0003FFFFFFFFFFC0000000007FF000FFC000000000
310
FFF8000FFFFE0001FFFFC0007F80007FFF8000000001FFFFF8000000001FFFF8
310
00000000000000007F80000000000001FFFFC000000001FFFFFFFFC000000001
310
FFFFFF0003FFFFFFFFFFE000000000FFF000FFE000000003FFF0001FFFFE0001
310
FFFFC0007F80007FFFC000000007FFFFFE000000003FFFF80000000000000000
310
7F80000000000001FFFFE000000003FFFFFFFFE000000003FFFFFF0003FFFFFF
310
FFFFF000000003FFF000FFF80000000FFFF0001FFFFE0001FFFFE0007F80007F
310
FFF00000000FFFFFFF00000000FFFFF800000000000000007F80000000000001
310
FFFFF80000000FFFFFFFFFF80000000FFFFFFF0003FFFFFFFFFFFC0000000FFF
310
F000FFFE0000003FFFF0001FFFFE0003FFFFE0003F80007FFFFC0000003FFFFF
310
FFC0000003FFFFF800000000000000007F80000000000001FFFFFE0000003FFF
310
FFFFFFFE0000003FFFFFFF0003FFFFFFFFFFFF0000003FFFF000FFFF800000FF
310
FFF0001FFFFF0003FFFFE0003F80007FFFFF000001FFFFFFFFF800001FFFFFF8
310
00000000000000007F80000000000001FFFFFFC00001FFFFFFFFFFFFC00001FF
310
FFFFFF0003FFFFFFFFFFFFC00000FFFFF000FFFFF8000FFFFFFFFFFFFFFFFFFF
310
FFFFFFFFFFFFFFFFFFFFF0001FFFFFFFFFFF0000FFFFFFF80000000000000000
310
7FFFFFFFFFFFFFFFFFFFFFFC001FFFFFFFFFFFFFFC001FFFFFFFFFFFFFFFFFFF
310
FFFFFFFC001FFFFFF000FFFFFFFFFFFFFFFFFFFFFFFFFFFFFFFFFFFFFFFFFFFF
310
FFFFFFFFFFFFFFFFFFFFFFFFFFFFFFFFFFFFFFFFFFFFFFFFFFFFFFFFFFFFFFFF
310
FFFFFFFFFFFFFFFFFFFFFFFFFFFFFFFFFFFFFFFFFFFFFFFFFFFFFFFFFFFFFFFF
310
F000FFFFFFFFFFFFFFFFFFFFFFFFFFFFFFFFFFFFFFFFFFFFFFFFFFFFFFFFFFFF
310
FFFFFFFFFFFFFFFFFFFFFFFFFFFFFFFFFFFFFFFFFFFFFFFFFFFFFFFFFFFFFFFF
310
FFFFFFFFFFFFFFFFFFFFFFFFFFFFFFFFFFFFFFFFFFFFFFFFF000FFFFFFFFFFFF
310
FFFFFFFFFFFFFFFFFFFFFFFFFFFFFFFFFFFFFFFFFFFFFFFFFFFFFFFFFFFFFFFF
310
FFFFFFFFFFFFFFFFFFFFFFFFFFFFFFFFFFFFFFFFFFFFFFFFFFFFFFFFFFFFFFFF
310
FFFFFFFFFFFFFFFFFFFFFFFFFFFFFFFFF000FFFFFFFFFFFFFFFFFFFFFFFFFFFF
310
FFFFFFFFFFFFFFFFFFFFFFFFFFFFFFFFFFFFFFFFFFFFFFFFFFFFFFFFFFFFFFFF
310
FFFFFFFFFFFFFFFFFFFFFFFFFFFFFFFFFFFFFFFFFFFFFFFFFFFFFFFFFFFFFFFF
310
FFFFFFFFFFFFFFFFF000FFFFFFFFFFFFFFFFFFFFFFFFFFFFFFFFFFFFFFFFFFFF
310
FFFFFFFFFFFFFFFFFFFFFFFFFFFFFFFFFFFFFFFFFFFFFFFFFFFFFFFFFFFFFFFF
310
FFFFFFFFFFFFFFFFFFFFFFFFFFFFFFFFFFFFFFFFFFFFFFFFFFFFFFFFFFFFFFFF
310
F000FFFFFFFFFFFFFFFFFFFFFFFFFFFFFFFFFFFFFFFFFFFFFFFFFFFFFFFFFFFF
310
FFFFFFFFFFFFFFFFFFFFFFFFFFFFFFFFFFFFFFFFFFFFFFFFFFFFFFFFFFFFFFFF
310
FFFFFFFFFFFFFFFFFFFFFFFFFFFFFFFFFFFFFFFFFFFFFFFFF000FFFFFFFFFFFF
310
FFFFFFFFFFFFFFFFFFFFFFFFFFFFFFFFFFFFFFFFFFFFFFFFFFFFFFFFFFFFFFFF
310
FFFFFFFFFFFFFFFFFFFFFFFFFFFFFFFFFFFFFFFFFFFFFFFFFFFFFFFFFFFFFFFF
310
FFFFFFFFFFFFFFFFFFFFFFFFFFFFFFFFF000FFFFFFFFFFFFFFFFFFFFFFFFFFFF
310
FFFFFFFFFFFFFFFFFFFFFFFFFFFFFFFFFFFFFFFFFFFFFFFFFFFFFFFFFFFFFFFF
310
FFFFFFFFFFFFFFFFFFFFFFFFFFFFFFFFFFFFFFFFFFFFFFFFFFFFFFFFFFFFFFFF
310
FFFFFFFFFFFFFFFFF000FFFFFFFFFFFFFFFFFFFFFFFFFFFFFFFFFFFFFFFFFFFF
310
FFFFFFFFFFFFFFFFFFFFFFFFFFFFFFFFFFFFFFFFFFFFFFFFFFFFFFFFFFFFFFFF
310
FFFFFFFFFFFFFFFFFFFFFFFFFFFFFFFFFFFFFFFFFFFFFFFFFFFFFFFFFFFFFFFF
310
F000FFFFFFFFFFFFFFFFFFFFFFFFFFFFFFFFFFFFFFFFFFFFFFFFFFFFFFFFFFFF
310
FFFFFFFFFFFFFFFFFFFFFFFFFFFFFFFFFFFFFFFFFFFFFFFFFFFFFFFFFFFFFFFF
310
FFFFFFFFFFFFFFFFFFFFFFFFFFFFFFFFFFFFFFFFFFFFFFFFF000FFFFFFFFFFFF
310
FFFFFFFFFFFFFFFFFFFFFFFFFFFFFFFFFFFFFFFFFFFFFFFFFFFFFFFFFFFFFFFF
310
FFFFFFFFFFFFFFFFFFFFFFFFFFFFFFFFFFFFFFFFFFFFFFFFFFFFFFFFFFFFFFFF
310
FFFFFFFFFFFFFFFFFFFFFFFFFFFFFFFFF000FFFFFFFFFFFFFFFFFFFFFFFFFFFF
310
FFFFFFFFFFFFFFFFFFFFFFFFFFFFFFFFFFFFFFFFFFFFFFFFFFFFFFFFFFFFFFFF
310
FFFFFFFFFFFFFFFFFFFFFFFFFFFFFFFFFFFFFFFFFFFFFFFFFFFFFFFFFFFFFFFF
310
FFFFFFFFFFFFFFFFF000FFFFFFFFFFFFFFFFFFFFFFFFFFFFFFFFFFFFFFFFFFFF
310
FFFFFFFFFFFFFFFFFFFFFFFFFFFFFFFFFFFFFFFFFFFFFFFFFFFFFFFFFFFFFFFF
310
FFFFFFFFFFFFFFFFFFFFFFFFFFFFFFFFFFFFFFFFFFFFFFFFFFFFFFFFFFFFFFFF
310
F000FFFFFFFFFFFFFFFFFFFFFFFFFFFFFFFFFFFFFFFFFFFFFFFFFFFFFFFFFFFF
310
FFFFFFFFFFFFFFFFFFFFFFFFFFFFFFFFFFFFFFFFFFFFFFFFFFFFFFFFFFFFFFFF
310
FFFFFFFFFFFFFFFFFFFFFFFFFFFFFFFFFFFFFFFFFFFFFFFFF000FFFFFFFFFFFF
310
FFFFFFFFFFFFFFFFFFFFFFFFFFFFFFFFFFFFFFFFFFFFFFFFFFFFFFFFFFFFFFFF
310
FFFFFFFFFFFFFFFFFFFFFFFFFFFFFFFFFFFFFFFFFFFFFFFFFFFFFFFFFFFFFFFF
310
FFFFFFFFFFFFFFFFFFFFFFFFFFFFFFFFF000FFFFFFFFFFFFFFFFFFFFFFFFFFFF
310
FFFFFFFFFFFFFFFFFFFFFFFFFFFFFFFFFFFFFFFFFFFFFFFFFFFFFFFFFFFFFFFF
310
FFFFFFFFFFFFFFFFFFFFFFFFFFFFFFFFFFFFFFFFFFFFFFFFFFFFFFFFFFFFFFFF
310
FFFFFFFFFFFFFFFFF000FFFFFFFFFFFFFFFFFFFFFFFFFFFFFFFFFFFFFFFFFFFF
310
FFFFFFFFFFFFFFFFFFFFFFFFFFFFFFFFFFFFFFFFFFFFFFFFFFFFFFFFFFFFFFFF
310
FFFFFFFFFFFFFFFFFFFFFFFFFFFFFFFFFFFFFFFFFFFFFFFFFFFFFFFFFFFFFFFF
310
F000FFFFFFFFFFFFFFFFFFFFFFFFFFFFFFFFFFFFFFFFFFFFFFFFFFFFFFFFFFFF
310
FFFFFFFFFFFFFFFFFFFFFFFFFFFFFFFFFFFFFFFFFFFFFFFFFFFFFFFFFFFFFFFF
310
FFFFFFFFFFFFFFFFFFFFFFFFFFFFFFFFFFFFFFFFFFFFFFFFF000FFFFFFFFFFFF
310
FFFFFFFFFFFFFFFFFFFFFFFFFFFFFFFFFFFFFFFFFFFFFFFFFFFFFFFFFFFFFFFF
310
FFFFFFFFFFFFFFFFFFFFFFFFFFFFFFFFFFFFFFFFFFFFFFFFFFFFFFFFFFFFFFFF
310
FFFFFFFFFFFFFFFFFFFFFFFFFFFFFFFFF000FFFFFFFFFFFFFFFFFFFFFFFFFFFF
310
FFFFFFFFFFFFFFFFFFFFFFFFFFFFFFFFFFFFFFFFFFFFFFFFFFFFFFFFFFFFFFFF
310
FFFFFFFFFFFFFFFFFFFFFFFFFFFFFFFFFFFFFFFFFFFFFFFFFFFFFFFFFFFFFFFF
310
FFFFFFFFFFFFFFFFF000FFFFFFFFFFFFFFFFFFFFFFFFFFFFFFFFFFFFFFFFFFFF
310
FFFFFFFFFFFFFFFFFFFFFFFFFFFFFFFFFFFFFFFFFFFFFFFFFFFFFFFFFFFFFFFF
310
FFFFFFFFFFFFFFFFFFFFFFFFFFFFFFFFFFFFFFFFFFFFFFFFFFFFFFFFFFFFFFFF
310
F000FFFFFFFFFFFFFFFFFFFFFFFFFFFFFFFFFFFFFFFFFFFFFFFFFFFFFFFFFFFF
310
FFFFFFFFFFFFFFFFFFFFFFFFFFFFFFFFFFFFFFFFFFFFFFFFFFFFFFFFFFFFFFFF
310
FFFFFFFFFFFFFFFFFFFFFFFFFFFFFFFFFFFFFFFFFFFFFFFFF000FFFFFFFFFFFF
310
FFFFFFFFFFFFFFFFFFFFFFFFFFFFFFFFFFFFFFFFFFFFFFFFFFFFFFFFFFFFFFFF
310
FFFFFFFFFFFFFFFFFFFFFFFFFFFFFFFFFFFFFFFFFFFFFFFFFFFFFFFFFFFFFFFF
310
FFFFFFFFFFFFFFFFFFFFFFFFFFFFFFFFF0000000000000000000000000000000
310
0000000000000000000000000000000000000000000000000000000000000000
310
0000000000000000000000000000000000000000000000000000000000000000
310
0000000000000000000000000000000000000000000000000000000000000000
310
0000000000000000000000000000000000000000000000000000000000000000
310
0000000000000000000000000000000000000000000000000000000000000000
310
0000000000000000000000000000000000000000000000000000000000000000
310
0000000000000000000000000000000000000000000000000000000000000000
310
0000000000000000000000000000000000000000000000000000000000000000
310
0000000000000000000000000000000000000000000000000000000000000000
310
0000000000000000000000000000000000000000000000000000000000000000
310
0000000000000000000000000000000000000000000000000000000000000000
310
0000000000000000000000000000000000000000000000000000000000000000
310
0000000000000000000000000000000000000000000000000000000000000000
310
0000000000000000000000000000000000000000000000000000000000000000
310
0000000000000000000000000000000000000000000000000000000000000000
  1
OLE
  0
ENDSEC
  0
SECTION
  2
OBJECTS
  0
DICTIONARY
  5
C
330
0
100
AcDbDictionary
281
     1
  3
ACAD_GROUP
350
D
  3
ACAD_LAYOUT
350
1A
  3
ACAD_MLINESTYLE
350
17
  3
ACAD_PLOTSETTINGS
350
19
  3
ACAD_PLOTSTYLENAME
350
E
  0
DICTIONARY
  5
D
102
{ACAD_REACTORS
330
C
102
}
330
C
100
AcDbDictionary
281
     1
  0
DICTIONARY
  5
1A
102
{ACAD_REACTORS
330
C
102
}
330
C
100
AcDbDictionary
281
     1
  3
Layout1
350
1E
  3
Layout2
350
26
  3
Model
350
22
  0
DICTIONARY
  5
17
102
{ACAD_REACTORS
330
C
102
}
330
C
100
AcDbDictionary
281
     1
  3
Standard
350
18
  0
DICTIONARY
  5
19
102
{ACAD_REACTORS
330
C
102
}
330
C
100
AcDbDictionary
281
     1
  0
ACDBDICTIONARYWDFLT
  5
E
102
{ACAD_REACTORS
330
C
102
}
330
C
100
AcDbDictionary
281
     1
  3
Normal
350
F
100
AcDbDictionaryWithDefault
340
F
  0
LAYOUT
  5
1E
102
{ACAD_REACTORS
330
1A
102
}
330
1A
100
AcDbPlotSettings
  1

  2
none_device
  4

  6

 40
0.0
 41
0.0
 42
0.0
 43
0.0
 44
0.0
 45
0.0
 46
0.0
 47
0.0
 48
0.0
 49
0.0
140
0.0
141
0.0
142
1.0
143
1.0
 70
   688
 72
     0
 73
     0
 74
     5
  7

 75
    16
147
1.0
148
0.0
149
0.0
100
AcDbLayout
  1
Layout1
 70
     1
 71
     1
 10
0.0
 20
0.0
 11
420.0
 21
297.0
 12
0.0
 22
0.0
 32
0.0
 14
1.0000000000E+20
 24
1.0000000000E+20
 34
1.0000000000E+20
 15
-1.0000000000E+20
 25
-1.0000000000E+20
 35
-1.0000000000E+20
146
0.0
 13
0.0
 23
0.0
 33
0.0
 16
1.0
 26
0.0
 36
0.0
 17
0.0
 27
1.0
 37
0.0
 76
     0
330
1B
  0
LAYOUT
  5
26
102
{ACAD_REACTORS
330
1A
102
}
330
1A
100
AcDbPlotSettings
  1

  2
none_device
  4

  6

 40
0.0
 41
0.0
 42
0.0
 43
0.0
 44
0.0
 45
0.0
 46
0.0
 47
0.0
 48
0.0
 49
0.0
140
0.0
141
0.0
142
1.0
143
1.0
 70
   688
 72
     0
 73
     0
 74
     5
  7

 75
    16
147
1.0
148
0.0
149
0.0
100
AcDbLayout
  1
Layout2
 70
     1
 71
     2
 10
0.0
 20
0.0
 11
0.0
 21
0.0
 12
0.0
 22
0.0
 32
0.0
 14
0.0
 24
0.0
 34
0.0
 15
0.0
 25
0.0
 35
0.0
146
0.0
 13
0.0
 23
0.0
 33
0.0
 16
1.0
 26
0.0
 36
0.0
 17
0.0
 27
1.0
 37
0.0
 76
     0
330
23
  0
LAYOUT
  5
22
102
{ACAD_REACTORS
330
1A
102
}
330
1A
100
AcDbPlotSettings
  1

  2
none_device
  4

  6

 40
0.0
 41
0.0
 42
0.0
 43
0.0
 44
0.0
 45
0.0
 46
0.0
 47
0.0
 48
0.0
 49
0.0
140
0.0
141
0.0
142
1.0
143
1.0
 70
  1712
 72
     0
 73
     0
 74
     0
  7

 75
     0
147
1.0
148
0.0
149
0.0
100
AcDbLayout
  1
Model
 70
     1
 71
     0
 10
0.0
 20
0.0
 11
297.0
 21
210.0
 12
0.0
 22
0.0
 32
0.0
 14
0.0
 24
0.0
 34
0.0
 15
297.0
 25
210.0
 35
0.0
146
0.0
 13
0.0
 23
0.0
 33
0.0
 16
1.0
 26
0.0
 36
0.0
 17
0.0
 27
1.0
 37
0.0
 76
     0
330
1F
331
29
  0
MLINESTYLE
  5
18
102
{ACAD_REACTORS
330
17
102
}
330
17
100
AcDbMlineStyle
  2
Standard
 70
     0
  3

 62
   256
 51
90.0
 52
90.0
 71
     2
 49
0.5
 62
   256
  6
BYLAYER
 49
-0.5
 62
   256
  6
BYLAYER
  0
ACDBPLACEHOLDER
  5
F
102
{ACAD_REACTORS
330
E
102
}
330
E
  0
ENDSEC
  0
EOF
