  0
SECTION
  2
HEADER
  9
$ACADVER
  1
AC1015
  9
$ACADMAINTVER
 70
     6
  9
$DWGCODEPAGE
  3
ANSI_1252
  9
$INSBASE
 10
0.0
 20
0.0
 30
0.0
  9
$EXTMIN
 10
0.0
 20
0.0
 30
0.0
  9
$EXTMAX
 10
297.0
 20
210.0
 30
0.0
  9
$LIMMIN
 10
0.0
 20
0.0
  9
$LIMMAX
 10
297.0
 20
210.0
  9
$ORTHOMODE
 70
     0
  9
$REGENMODE
 70
     1
  9
$FILLMODE
 70
     1
  9
$QTEXTMODE
 70
     0
  9
$MIRRTEXT
 70
     1
  9
$LTSCALE
 40
1.0
  9
$ATTMODE
 70
     1
  9
$TEXTSIZE
 40
2.0
  9
$TRACEWID
 40
1.0
  9
$TEXTSTYLE
  7
Standard
  9
$CLAYER
  8
0
  9
$CELTYPE
  6
ByLayer
  9
$CECOLOR
 62
   256
  9
$CELTSCALE
 40
1.0
  9
$DISPSILH
 70
     0
  9
$DIMSCALE
 40
1.0
  9
$DIMASZ
 40
3.0
  9
$DIMEXO
 40
0.0
  9
$DIMDLI
 40
3.75
  9
$DIMRND
 40
0.0
  9
$DIMDLE
 40
0.0
  9
$DIMEXE
 40
1.0
  9
$DIMTP
 40
0.0
  9
$DIMTM
 40
0.0
  9
$DIMTXT
 40
2.0
  9
$DIMCEN
 40
2.5
  9
$DIMTSZ
 40
0.0
  9
$DIMTOL
 70
     0
  9
$DIMLIM
 70
     0
  9
$DIMTIH
 70
     1
  9
$DIMTOH
 70
     1
  9
$DIMSE1
 70
     0
  9
$DIMSE2
 70
     0
  9
$DIMTAD
 70
     1
  9
$DIMZIN
 70
     0
  9
$DIMBLK
  1

  9
$DIMASO
 70
     1
  9
$DIMSHO
 70
     1
  9
$DIMPOST
  1

  9
$DIMAPOST
  1

  9
$DIMALT
 70
     0
  9
$DIMALTD
 70
     3
  9
$DIMALTF
 40
0.0393700787
  9
$DIMLFAC
 40
1.0
  9
$DIMTOFL
 70
     1
  9
$DIMTVP
 40
0.0
  9
$DIMTIX
 70
     0
  9
$DIMSOXD
 70
     0
  9
$DIMSAH
 70
     0
  9
$DIMBLK1
  1

  9
$DIMBLK2
  1

  9
$DIMSTYLE
  2
ISO-25
  9
$DIMCLRD
 70
     0
  9
$DIMCLRE
 70
     0
  9
$DIMCLRT
 70
     0
  9
$DIMTFAC
 40
1.0
  9
$DIMGAP
 40
1.524
  9
$DIMJUST
 70
     0
  9
$DIMSD1
 70
     0
  9
$DIMSD2
 70
     0
  9
$DIMTOLJ
 70
     0
  9
$DIMTZIN
 70
     0
  9
$DIMALTZ
 70
     0
  9
$DIMALTTZ
 70
     0
  9
$DIMUPT
 70
     0
  9
$DIMDEC
 70
     2
  9
$DIMTDEC
 70
     3
  9
$DIMALTU
 70
     2
  9
$DIMALTTD
 70
     3
  9
$DIMTXSTY
  7
Standard
  9
$DIMAUNIT
 70
     0
  9
$DIMADEC
 70
     2
  9
$DIMALTRND
 40
0.0
  9
$DIMAZIN
 70
     0
  9
$DIMDSEP
 70
    44
  9
$DIMATFIT
 70
     3
  9
$DIMFRAC
 70
     0
  9
$DIMLDRBLK
  1

  9
$DIMLUNIT
 70
     2
  9
$DIMLWD
 70
    -2
  9
$DIMLWE
 70
    -2
  9
$DIMTMOVE
 70
     0
  9
$LUNITS
 70
     2
  9
$LUPREC
 70
     2
  9
$SKETCHINC
 40
1.0
  9
$FILLETRAD
 40
10.0
  9
$AUNITS
 70
     0
  9
$AUPREC
 70
     2
  9
$MENU
  1
.
  9
$ELEVATION
 40
0.0
  9
$PELEVATION
 40
0.0
  9
$THICKNESS
 40
0.0
  9
$LIMCHECK
 70
     0
  9
$CHAMFERA
 40
10.0
  9
$CHAMFERB
 40
10.0
  9
$CHAMFERC
 40
20.0
  9
$CHAMFERD
 40
0.0
  9
$SKPOLY
 70
     0
  9
$TDCREATE
 40
2456084.443187546
  9
$TDUCREATE
 40
2456084.359854213
  9
$TDUPDATE
 40
2456084.443188993
  9
$TDUUPDATE
 40
2456084.35985566
  9
$TDINDWG
 40
0.0000000116
  9
$TDUSRTIMER
 40
0.0000000116
  9
$USRTIMER
 70
     1
  9
$ANGBASE
 50
0.0
  9
$ANGDIR
 70
     0
  9
$PDMODE
 70
     0
  9
$PDSIZE
 40
-1.0
  9
$PLINEWID
 40
0.0
  9
$SPLFRAME
 70
     0
  9
$SPLINETYPE
 70
     6
  9
$SPLINESEGS
 70
     8
  9
$HANDSEED
  5
226
  9
$SURFTAB1
 70
     6
  9
$SURFTAB2
 70
     6
  9
$SURFTYPE
 70
     6
  9
$SURFU
 70
     6
  9
$SURFV
 70
     6
  9
$UCSBASE
  2

  9
$UCSNAME
  2

  9
$UCSORG
 10
0.0
 20
0.0
 30
0.0
  9
$UCSXDIR
 10
1.0
 20
0.0
 30
0.0
  9
$UCSYDIR
 10
0.0
 20
1.0
 30
0.0
  9
$UCSORTHOREF
  2

  9
$UCSORTHOVIEW
 70
     0
  9
$UCSORGTOP
 10
0.0
 20
0.0
 30
0.0
  9
$UCSORGBOTTOM
 10
0.0
 20
0.0
 30
0.0
  9
$UCSORGLEFT
 10
0.0
 20
0.0
 30
0.0
  9
$UCSORGRIGHT
 10
0.0
 20
0.0
 30
0.0
  9
$UCSORGFRONT
 10
0.0
 20
0.0
 30
0.0
  9
$UCSORGBACK
 10
0.0
 20
0.0
 30
0.0
  9
$PUCSBASE
  2

  9
$PUCSNAME
  2

  9
$PUCSORG
 10
0.0
 20
0.0
 30
0.0
  9
$PUCSXDIR
 10
1.0
 20
0.0
 30
0.0
  9
$PUCSYDIR
 10
0.0
 20
1.0
 30
0.0
  9
$PUCSORTHOREF
  2

  9
$PUCSORTHOVIEW
 70
     0
  9
$PUCSORGTOP
 10
0.0
 20
0.0
 30
0.0
  9
$PUCSORGBOTTOM
 10
0.0
 20
0.0
 30
0.0
  9
$PUCSORGLEFT
 10
0.0
 20
0.0
 30
0.0
  9
$PUCSORGRIGHT
 10
0.0
 20
0.0
 30
0.0
  9
$PUCSORGFRONT
 10
0.0
 20
0.0
 30
0.0
  9
$PUCSORGBACK
 10
0.0
 20
0.0
 30
0.0
  9
$USERI1
 70
     0
  9
$USERI2
 70
     0
  9
$USERI3
 70
     0
  9
$USERI4
 70
     0
  9
$USERI5
 70
     0
  9
$USERR1
 40
0.0
  9
$USERR2
 40
0.0
  9
$USERR3
 40
0.0
  9
$USERR4
 40
0.0
  9
$USERR5
 40
0.0
  9
$WORLDVIEW
 70
     1
  9
$SHADEDGE
 70
     3
  9
$SHADEDIF
 70
    70
  9
$TILEMODE
 70
     1
  9
$MAXACTVP
 70
    64
  9
$PINSBASE
 10
0.0
 20
0.0
 30
0.0
  9
$PLIMCHECK
 70
     0
  9
$PEXTMIN
 10
1.0000000000E+20
 20
1.0000000000E+20
 30
1.0000000000E+20
  9
$PEXTMAX
 10
-1.0000000000E+20
 20
-1.0000000000E+20
 30
-1.0000000000E+20
  9
$PLIMMIN
 10
0.0
 20
0.0
  9
$PLIMMAX
 10
420.0
 20
297.0
  9
$UNITMODE
 70
     0
  9
$VISRETAIN
 70
     1
  9
$PLINEGEN
 70
     0
  9
$PSLTSCALE
 70
     1
  9
$TREEDEPTH
 70
  3020
  9
$CMLSTYLE
  2
Standard
  9
$CMLJUST
 70
     0
  9
$CMLSCALE
 40
20.0
  9
$PROXYGRAPHICS
 70
     1
  9
$MEASUREMENT
 70
     1
  9
$CELWEIGHT
370
    -1
  9
$ENDCAPS
280
     0
  9
$JOINSTYLE
280
     0
  9
$LWDISPLAY
290
     1
  9
$INSUNITS
 70
     4
  9
$HYPERLINKBASE
  1

  9
$STYLESHEET
  1

  9
$XEDIT
290
     1
  9
$CEPSNTYPE
380
     0
  9
$PSTYLEMODE
290
     1
  9
$FINGERPRINTGUID
  2
{2FBD3D95-1AFD-4515-87A9-45F66D6FA850}
  9
$VERSIONGUID
  2
{FAEB1C32-E019-11D5-929B-00C0DF256EC4}
  9
$EXTNAMES
290
     1
  9
$PSVPSCALE
 40
0.0
  9
$OLESTARTUP
290
     0
  0
ENDSEC
  0
SECTION
  2
CLASSES
  0
CLASS
  1
ACDBDICTIONARYWDFLT
  2
AcDbDictionaryWithDefault
  3
ObjectDBX Classes
 90
        0
280
     0
281
     0
  0
CLASS
  1
VISUALSTYLE
  2
AcDbVisualStyle
  3
ObjectDBX Classes
 90
     4095
280
     0
281
     0
  0
CLASS
  1
MATERIAL
  2
AcDbMaterial
  3
ObjectDBX Classes
 90
     1153
280
     0
281
     0
  0
CLASS
  1
ACDBPLACEHOLDER
  2
AcDbPlaceHolder
  3
ObjectDBX Classes
 90
        0
280
     0
281
     0
  0
CLASS
  1
LAYOUT
  2
AcDbLayout
  3
ObjectDBX Classes
 90
        0
280
     0
281
     0
  0
ENDSEC
  0
SECTION
  2
TABLES
  0
TABLE
  2
VPORT
  5
8
330
0
100
AcDbSymbolTable
 70
     1
  0
VPORT
  5
29
330
8
100
AcDbSymbolTableRecord
100
AcDbViewportTableRecord
  2
*Active
 70
     0
 10
0.0
 20
0.0
 11
1.0
 21
1.0
 12
148.5
 22
105.0
 13
0.0
 23
0.0
 14
10.0
 24
10.0
 15
10.0
 25
10.0
 16
0.0
 26
0.0
 36
1.0
 17
0.0
 27
0.0
 37
0.0
 40
210.0
 41
1.4142857143
 42
50.0
 43
0.0
 44
0.0
 50
0.0
 51
0.0
 71
     0
 72
  2000
 73
     1
 74
     3
 75
     0
 76
     0
 77
     0
 78
     0
281
     0
 65
     1
110
0.0
120
0.0
130
0.0
111
1.0
121
0.0
131
0.0
112
0.0
122
1.0
132
0.0
 79
     0
146
0.0
  0
ENDTAB
  0
TABLE
  2
LTYPE
  5
5
330
0
100
AcDbSymbolTable
 70
     6
  0
LTYPE
  5
14
330
5
100
AcDbSymbolTableRecord
100
AcDbLinetypeTableRecord
  2
ByBlock
 70
     0
  3

 72
    65
 73
     0
 40
0.0
  0
LTYPE
  5
15
330
5
100
AcDbSymbolTableRecord
100
AcDbLinetypeTableRecord
  2
ByLayer
 70
     0
  3

 72
    65
 73
     0
 40
0.0
  0
LTYPE
  5
16
330
5
100
AcDbSymbolTableRecord
100
AcDbLinetypeTableRecord
  2
Continuous
 70
     0
  3
Solid line
 72
    65
 73
     0
 40
0.0
  0
LTYPE
  5
3F
330
5
100
AcDbSymbolTableRecord
100
AcDbLinetypeTableRecord
  2
HIDDEN
 70
     0
  3
Hidden __ __ __ __ __ __ __ __ __ __ __ __ __ __
 72
    65
 73
     2
 40
1.905
 49
1.27
 74
     0
 49
-0.635
 74
     0
  0
LTYPE
  5
40
330
5
100
AcDbSymbolTableRecord
100
AcDbLinetypeTableRecord
  2
PHANTOM
 70
     0
  3
Phantom ______  __  __  ______  __  __  ______
 72
    65
 73
     6
 40
12.7
 49
6.35
 74
     0
 49
-1.27
 74
     0
 49
1.27
 74
     0
 49
-1.27
 74
     0
 49
1.27
 74
     0
 49
-1.27
 74
     0
  0
LTYPE
  5
41
330
5
100
AcDbSymbolTableRecord
100
AcDbLinetypeTableRecord
  2
CENTER
 70
     0
  3
Center ____ _ ____ _ ____ _ ____ _ ____ _ ____
 72
    65
 73
     4
 40
10.16
 49
6.35
 74
     0
 49
-1.27
 74
     0
 49
1.27
 74
     0
 49
-1.27
 74
     0
  0
LTYPE
  5
42
330
5
100
AcDbSymbolTableRecord
100
AcDbLinetypeTableRecord
  2
CENTERX2
 70
     0
  3
Center (2x) ________  __  ________  __  _____
 72
    65
 73
     4
 40
20.32
 49
12.7
 74
     0
 49
-2.54
 74
     0
 49
2.54
 74
     0
 49
-2.54
 74
     0
  0
LTYPE
  5
43
330
5
100
AcDbSymbolTableRecord
100
AcDbLinetypeTableRecord
  2
DOT2
 70
     0
  3
Dot (.5x) ........................................
 72
    65
 73
     2
 40
0.635
 49
0.0
 74
     0
 49
-0.635
 74
     0
  0
ENDTAB
  0
TABLE
  2
LAYER
  5
2
330
0
100
AcDbSymbolTable
 70
     5
  0
LAYER
  5
10
330
2
100
AcDbSymbolTableRecord
100
AcDbLayerTableRecord
  2
0
 70
     0
 62
     7
  6
Continuous
370
    -3
390
F
  0
LAYER
  5
44
330
2
100
AcDbSymbolTableRecord
100
AcDbLayerTableRecord
  2
FORMAT
 70
     0
 62
     7
  6
Continuous
370
    -3
390
F
  0
LAYER
  5
45
330
2
100
AcDbSymbolTableRecord
100
AcDbLayerTableRecord
  2
VERMASSUNG
 70
     0
 62
     7
  6
Continuous
370
    -3
390
F
  0
LAYER
  5
46
330
2
100
AcDbSymbolTableRecord
100
AcDbLayerTableRecord
  2
KOPF_DÜNN
 70
     0
 62
     7
  6
Continuous
370
    -3
390
F
  0
LAYER
  5
47
330
2
100
AcDbSymbolTableRecord
100
AcDbLayerTableRecord
  2
KOPF_DICK
 70
     0
 62
     7
  6
Continuous
370
    15
390
F
  0
ENDTAB
  0
TABLE
  2
STYLE
  5
3
330
0
100
AcDbSymbolTable
 70
     2
  0
STYLE
  5
11
330
3
100
AcDbSymbolTableRecord
100
AcDbTextStyleTableRecord
  2
Standard
 70
     0
 40
0.0
 41
1.0
 50
0.0
 71
     0
 42
2.0
  3
txt
  4

  0
STYLE
  5
48
330
3
100
AcDbSymbolTableRecord
100
AcDbTextStyleTableRecord
  2
SLDTEXTSTYLE0
 70
     0
 40
0.0
 41
0.7
 50
0.0
 71
     0
 42
0.2
  3
TXT
  4

  0
ENDTAB
  0
TABLE
  2
VIEW
  5
6
330
0
100
AcDbSymbolTable
 70
     0
  0
ENDTAB
  0
TABLE
  2
UCS
  5
7
330
0
100
AcDbSymbolTable
 70
     0
  0
ENDTAB
  0
TABLE
  2
APPID
  5
9
330
0
100
AcDbSymbolTable
 70
     1
  0
APPID
  5
12
330
9
100
AcDbSymbolTableRecord
100
AcDbRegAppTableRecord
  2
ACAD
 70
     0
  0
ENDTAB
  0
TABLE
  2
DIMSTYLE
  5
A
330
0
100
AcDbSymbolTable
 70
     5
100
AcDbDimStyleTable
  0
DIMSTYLE
105
27
330
A
100
AcDbSymbolTableRecord
100
AcDbDimStyleTableRecord
  2
ISO-25
 70
     0
 41
2.5
 42
0.625
 43
3.75
 44
1.25
 73
     0
 74
     0
 77
     1
 78
     8
140
2.5
141
2.5
143
0.0393700787
147
0.625
171
     3
172
     1
178
     0
271
     2
272
     2
274
     3
278
    44
283
     0
284
     8
340
11
  0
DIMSTYLE
105
19C
102
{ACAD_REACTORS
330
19B
330
1AF
330
1B9
330
1C3
330
1CF
102
}
330
A
100
AcDbSymbolTableRecord
100
AcDbDimStyleTableRecord
  2
SLDDIMSTYLE0
 70
     0
 41
3.0
 44
0.0
 45
0.000000001
 73
     0
 74
     0
 77
     1
 78
    12
 79
     3
140
2.0
147
0.5
173
     1
178
     0
271
     2
272
     3
276
     2
284
    12
340
48
  0
DIMSTYLE
105
1A7
102
{ACAD_REACTORS
330
1A6
102
}
330
A
100
AcDbSymbolTableRecord
100
AcDbDimStyleTableRecord
  2
SLDDIMSTYLE1
 70
     0
 41
3.0
 44
0.0
 73
     0
 74
     0
 77
     1
 78
    12
 79
     3
140
2.0
147
0.5
173
     1
178
     0
179
     1
272
     3
276
     2
284
    12
340
48
  0
DIMSTYLE
105
1FE
102
{ACAD_REACTORS
330
1FD
102
}
330
A
100
AcDbSymbolTableRecord
100
AcDbDimStyleTableRecord
  2
SLDDIMSTYLE2
 70
     0
 41
3.0
 44
0.0
 45
0.000000001
 73
     0
 74
     0
 77
     1
 78
    12
 79
     3
140
2.0
147
0.5
172
     1
173
     1
178
     0
271
     2
272
     3
276
     2
284
    12
289
     0
340
48
  0
DIMSTYLE
105
20D
102
{ACAD_REACTORS
330
20C
102
}
330
A
100
AcDbSymbolTableRecord
100
AcDbDimStyleTableRecord
  2
SLDDIMSTYLE3
 70
     0
 41
3.0
 44
0.0
 73
     0
 74
     0
 77
     1
 78
    12
 79
     3
140
2.0
147
0.5
173
     1
178
     0
179
     2
272
     3
276
     2
284
    12
340
48
  0
ENDTAB
  0
TABLE
  2
BLOCK_RECORD
  5
1
330
0
100
AcDbSymbolTable
 70
    10
  0
BLOCK_RECORD
  5
1F
330
1
100
AcDbSymbolTableRecord
100
AcDbBlockTableRecord
  2
*Model_Space
340
22
  0
BLOCK_RECORD
  5
1B
330
1
100
AcDbSymbolTableRecord
100
AcDbBlockTableRecord
  2
*Paper_Space
340
1E
  0
BLOCK_RECORD
  5
23
330
1
100
AcDbSymbolTableRecord
100
AcDbBlockTableRecord
  2
*Paper_Space0
340
26
  0
BLOCK_RECORD
  5
19D
330
1
100
AcDbSymbolTableRecord
100
AcDbBlockTableRecord
  2
_D
340
0
  0
BLOCK_RECORD
  5
1A8
330
1
100
AcDbSymbolTableRecord
100
AcDbBlockTableRecord
  2
_D_1
340
0
  0
BLOCK_RECORD
  5
1B0
330
1
100
AcDbSymbolTableRecord
100
AcDbBlockTableRecord
  2
_D_2
340
0
  0
BLOCK_RECORD
  5
1BA
330
1
100
AcDbSymbolTableRecord
100
AcDbBlockTableRecord
  2
_D_3
340
0
  0
BLOCK_RECORD
  5
1C4
330
1
100
AcDbSymbolTableRecord
100
AcDbBlockTableRecord
  2
_D_4
340
0
  0
BLOCK_RECORD
  5
1D0
330
1
100
AcDbSymbolTableRecord
100
AcDbBlockTableRecord
  2
_D_5
340
0
  0
BLOCK_RECORD
  5
1FF
330
1
100
AcDbSymbolTableRecord
100
AcDbBlockTableRecord
  2
_D_6
340
0
  0
BLOCK_RECORD
  5
20E
330
1
100
AcDbSymbolTableRecord
100
AcDbBlockTableRecord
  2
_D_7
340
0
  0
BLOCK_RECORD
  5
219
330
1
100
AcDbSymbolTableRecord
100
AcDbBlockTableRecord
  2
SW_CENTERMARKSYMBOL_0
340
0
102
{BLKREFS
331
224
102
}
  0
ENDTAB
  0
ENDSEC
  0
SECTION
  2
BLOCKS
  0
BLOCK
  5
20
330
1F
100
AcDbEntity
  8
0
100
AcDbBlockBegin
  2
*Model_Space
 70
     0
 10
0.0
 20
0.0
 30
0.0
  3
*Model_Space
  1

  0
ENDBLK
  5
21
330
1F
100
AcDbEntity
  8
0
100
AcDbBlockEnd
  0
BLOCK
  5
1C
330
1B
100
AcDbEntity
 67
     1
  8
0
100
AcDbBlockBegin
  2
*Paper_Space
 70
     0
 10
0.0
 20
0.0
 30
0.0
  3
*Paper_Space
  1

  0
ENDBLK
  5
1D
330
1B
100
AcDbEntity
 67
     1
  8
0
100
AcDbBlockEnd
  0
BLOCK
  5
24
330
23
100
AcDbEntity
  8
0
100
AcDbBlockBegin
  2
*Paper_Space0
 70
     0
 10
0.0
 20
0.0
 30
0.0
  3
*Paper_Space0
  1

  0
ENDBLK
  5
25
330
23
100
AcDbEntity
  8
0
100
AcDbBlockEnd
  0
BLOCK
  5
19E
330
19D
100
AcDbEntity
  8
0
100
AcDbBlockBegin
  2
_D
 70
     0
 10
0.0
 20
0.0
 30
0.0
  3
_D
  1

  0
SOLID
  5
1A0
330
19D
100
AcDbEntity
  8
VERMASSUNG
100
AcDbTrace
 10
287.5784782592
 20
95.0905633841
 30
0.0
 11
288.0284782592
 21
98.0905633841
 31
0.0
 12
287.1284782592
 22
98.0905633841
 32
0.0
 13
287.1284782592
 23
98.0905633841
 33
0.0
  0
SOLID
  5
1A1
330
19D
100
AcDbEntity
  8
VERMASSUNG
100
AcDbTrace
 10
287.5784782592
 20
122.0905633841
 30
0.0
 11
287.1284782592
 21
119.0905633841
 31
0.0
 12
288.0284782592
 22
119.0905633841
 32
0.0
 13
288.0284782592
 23
119.0905633841
 33
0.0
  0
LINE
  5
1A2
330
19D
100
AcDbEntity
  8
VERMASSUNG
100
AcDbLine
 10
272.6675952542
 20
95.0905633841
 30
0.0
 11
288.5784782592
 21
95.0905633841
 31
0.0
  0
LINE
  5
1A3
330
19D
100
AcDbEntity
  8
VERMASSUNG
100
AcDbLine
 10
272.6675952542
 20
122.0905633841
 30
0.0
 11
288.5784782592
 21
122.0905633841
 31
0.0
  0
LINE
  5
1A4
330
19D
100
AcDbEntity
  8
VERMASSUNG
100
AcDbLine
 10
287.5784782592
 20
95.0905633841
 30
0.0
 11
287.5784782592
 21
122.0905633841
 31
0.0
  0
MTEXT
  5
1A5
330
19D
100
AcDbEntity
  8
VERMASSUNG
100
AcDbMText
 10
285.000342896
 20
106.2905633331
 30
0.1
 40
2.0
 41
0.0
 71
     1
 72
     1
  1
27
  7
SLDTEXTSTYLE0
 11
6.123233995736766E-17
 21
1.0
 31
0.0
 73
     1
 44
1.0
  0
ENDBLK
  5
19F
330
19D
100
AcDbEntity
  8
0
100
AcDbBlockEnd
  0
BLOCK
  5
1A9
330
1A8
100
AcDbEntity
  8
0
100
AcDbBlockBegin
  2
_D_1
 70
     0
 10
0.0
 20
0.0
 30
0.0
  3
_D_1
  1

  0
ARC
  5
1AB
330
1A8
100
AcDbEntity
  8
VERMASSUNG
100
AcDbCircle
 10
272.7041186546
 20
95.0905633841
 30
0.0
 40
8.745370239498072
100
AcDbArc
 50
0.0
 51
95.0121473722
  0
SOLID
  5
1AC
330
1A8
100
AcDbEntity
  8
VERMASSUNG
100
AcDbTrace
 10
281.4494888941
 20
95.0905633841
 30
0.0
 11
281.3999228963
 21
98.123720685
 31
0.0
 12
280.5121803825
 22
97.9756895086
 32
0.0
 13
280.5121803825
 23
97.9756895086
 33
0.0
  0
SOLID
  5
1AD
330
1A8
100
AcDbEntity
  8
VERMASSUNG
100
AcDbTrace
 10
271.9400623681
 20
103.8024930565
 30
0.0
 11
274.8960461224
 21
103.1208332848
 31
0.0
 12
274.9659519049
 22
104.0181142784
 32
0.0
 13
274.9659519049
 23
104.0181142784
 33
0.0
  0
MTEXT
  5
1AE
330
1A8
100
AcDbEntity
  8
VERMASSUNG
100
AcDbMText
 10
278.2149710192
 20
105.398923413
 30
0.1
 40
2.0
 41
0.0
 71
     1
 72
     1
  1
95°
  7
SLDTEXTSTYLE0
 11
0.7373489491615023
 21
-0.6755120481312146
 31
0.0
 73
     1
 44
1.0
  0
ENDBLK
  5
1AA
330
1A8
100
AcDbEntity
  8
0
100
AcDbBlockEnd
  0
BLOCK
  5
1B1
330
1B0
100
AcDbEntity
  8
0
100
AcDbBlockBegin
  2
_D_2
 70
     0
 10
0.0
 20
0.0
 30
0.0
  3
_D_2
  1

  0
SOLID
  5
1B3
330
1B0
100
AcDbEntity
  8
VERMASSUNG
100
AcDbTrace
 10
132.6675952542
 20
80.5905633841
 30
0.0
 11
135.6675952542
 21
80.1405633841
 31
0.0
 12
135.6675952542
 22
81.0405633841
 32
0.0
 13
135.6675952542
 23
81.0405633841
 33
0.0
  0
SOLID
  5
1B4
330
1B0
100
AcDbEntity
  8
VERMASSUNG
100
AcDbTrace
 10
272.6675952542
 20
80.5905633841
 30
0.0
 11
269.6675952542
 21
81.0405633841
 31
0.0
 12
269.6675952542
 22
80.1405633841
 32
0.0
 13
269.6675952542
 23
80.1405633841
 33
0.0
  0
LINE
  5
1B5
330
1B0
100
AcDbEntity
  8
VERMASSUNG
100
AcDbLine
 10
132.6675952542
 20
91.0905633841
 30
0.0
 11
132.6675952542
 21
79.5905633841
 31
0.0
  0
LINE
  5
1B6
330
1B0
100
AcDbEntity
  8
VERMASSUNG
100
AcDbLine
 10
272.6675952542
 20
95.0905633841
 30
0.0
 11
272.6675952542
 21
79.5905633841
 31
0.0
  0
LINE
  5
1B7
330
1B0
100
AcDbEntity
  8
VERMASSUNG
100
AcDbLine
 10
132.6675952542
 20
80.5905633841
 30
0.0
 11
272.6675952542
 21
80.5905633841
 31
0.0
  0
MTEXT
  5
1B8
330
1B0
100
AcDbEntity
  8
VERMASSUNG
100
AcDbMText
 10
199.7675950582
 20
83.1686987473
 30
0.1
 40
2.0
 41
0.0
 71
     1
 72
     1
  1
140
  7
SLDTEXTSTYLE0
 73
     1
 44
1.0
  0
ENDBLK
  5
1B2
330
1B0
100
AcDbEntity
  8
0
100
AcDbBlockEnd
  0
BLOCK
  5
1BB
330
1BA
100
AcDbEntity
  8
0
100
AcDbBlockBegin
  2
_D_3
 70
     0
 10
0.0
 20
0.0
 30
0.0
  3
_D_3
  1

  0
SOLID
  5
1BD
330
1BA
100
AcDbEntity
  8
VERMASSUNG
100
AcDbTrace
 10
94.6675952542
 20
68.5905633841
 30
0.0
 11
97.6675952542
 21
68.1405633841
 31
0.0
 12
97.6675952542
 22
69.0405633841
 32
0.0
 13
97.6675952542
 23
69.0405633841
 33
0.0
  0
SOLID
  5
1BE
330
1BA
100
AcDbEntity
  8
VERMASSUNG
100
AcDbTrace
 10
272.6675952542
 20
68.5905633841
 30
0.0
 11
269.6675952542
 21
69.0405633841
 31
0.0
 12
269.6675952542
 22
68.1405633841
 32
0.0
 13
269.6675952542
 23
68.1405633841
 33
0.0
  0
LINE
  5
1BF
330
1BA
100
AcDbEntity
  8
VERMASSUNG
100
AcDbLine
 10
94.6675952542
 20
101.7982253916
 30
0.0
 11
94.6675952542
 21
67.5905633841
 31
0.0
  0
LINE
  5
1C0
330
1BA
100
AcDbEntity
  8
VERMASSUNG
100
AcDbLine
 10
272.6675952542
 20
95.0905633841
 30
0.0
 11
272.6675952542
 21
67.5905633841
 31
0.0
  0
LINE
  5
1C1
330
1BA
100
AcDbEntity
  8
VERMASSUNG
100
AcDbLine
 10
94.6675952542
 20
68.5905633841
 30
0.0
 11
272.6675952542
 21
68.5905633841
 31
0.0
  0
MTEXT
  5
1C2
330
1BA
100
AcDbEntity
  8
VERMASSUNG
100
AcDbMText
 10
180.8675951212
 20
71.1686987473
 30
0.1
 40
2.0
 41
0.0
 71
     1
 72
     1
  1
178
  7
SLDTEXTSTYLE0
 73
     1
 44
1.0
  0
ENDBLK
  5
1BC
330
1BA
100
AcDbEntity
  8
0
100
AcDbBlockEnd
  0
BLOCK
  5
1C5
330
1C4
100
AcDbEntity
  8
0
100
AcDbBlockBegin
  2
_D_4
 70
     0
 10
0.0
 20
0.0
 30
0.0
  3
_D_4
  1

  0
SOLID
  5
1C7
330
1C4
100
AcDbEntity
  8
VERMASSUNG
100
AcDbTrace
 10
88.7989259267
 20
153.5905633841
 30
0.0
 11
88.3489259267
 21
150.5905633841
 31
0.0
 12
89.2489259267
 22
150.5905633841
 32
0.0
 13
89.2489259267
 23
150.5905633841
 33
0.0
  0
SOLID
  5
1C8
330
1C4
100
AcDbEntity
  8
VERMASSUNG
100
AcDbTrace
 10
88.7989259267
 20
90.5905633841
 30
0.0
 11
89.2489259267
 21
93.5905633841
 31
0.0
 12
88.3489259267
 22
93.5905633841
 32
0.0
 13
88.3489259267
 23
93.5905633841
 33
0.0
  0
LINE
  5
1C9
330
1C4
100
AcDbEntity
  8
VERMASSUNG
100
AcDbLine
 10
133.1675952542
 20
153.5905633841
 30
0.0
 11
87.7989259267
 21
153.5905633841
 31
0.0
  0
LINE
  5
1CA
330
1C4
100
AcDbEntity
  8
VERMASSUNG
100
AcDbLine
 10
133.1675952542
 20
90.5905633841
 30
0.0
 11
87.7989259267
 21
90.5905633841
 31
0.0
  0
LINE
  5
1CB
330
1C4
100
AcDbEntity
  8
VERMASSUNG
100
AcDbLine
 10
88.7989259267
 20
153.5905633841
 30
0.0
 11
88.7989259267
 21
90.5905633841
 31
0.0
  0
MTEXT
  5
1CC
330
1C4
100
AcDbEntity
  8
VERMASSUNG
100
AcDbMText
 10
86.0207904377
 20
115.6855632749
 30
0.1
 40
2.0
 41
0.0
 71
     1
 72
     1
  1
PSC
  7
SLDTEXTSTYLE0
 11
-7.044195017643634E-15
 21
1.0
 31
0.0
 73
     1
 44
1.0
  0
MTEXT
  5
1CD
330
1C4
100
AcDbEntity
  8
VERMASSUNG
100
AcDbMText
 10
86.2207904472
 20
120.285563377
 30
0.1
 40
2.0
 41
0.0
 71
     1
 72
     1
  1
%%c
  7
SLDTEXTSTYLE0
 11
-7.044195017643634E-15
 21
1.0
 31
0.0
 73
     1
 44
1.0
  0
MTEXT
  5
1CE
330
1C4
100
AcDbEntity
  8
VERMASSUNG
100
AcDbMText
 10
86.0207904377
 20
123.8955638569
 30
0.1
 40
2.0
 41
0.0
 71
     1
 72
     1
  1
63
  7
SLDTEXTSTYLE0
 11
-7.044195017643634E-15
 21
1.0
 31
0.0
 73
     1
 44
1.0
  0
ENDBLK
  5
1C6
330
1C4
100
AcDbEntity
  8
0
100
AcDbBlockEnd
  0
BLOCK
  5
1D1
330
1D0
100
AcDbEntity
  8
0
100
AcDbBlockBegin
  2
_D_5
 70
     0
 10
0.0
 20
0.0
 30
0.0
  3
_D_5
  1

  0
SOLID
  5
1D3
330
1D0
100
AcDbEntity
  8
VERMASSUNG
100
AcDbTrace
 10
187.0408284214
 20
102.0905633841
 30
0.0
 11
187.4908284214
 21
105.0905633841
 31
0.0
 12
186.5908284214
 22
105.0905633841
 32
0.0
 13
186.5908284214
 23
105.0905633841
 33
0.0
  0
SOLID
  5
1D4
330
1D0
100
AcDbEntity
  8
VERMASSUNG
100
AcDbTrace
 10
187.0408284214
 20
142.0905633841
 30
0.0
 11
186.5908284214
 21
139.0905633841
 31
0.0
 12
187.4908284214
 22
139.0905633841
 32
0.0
 13
187.4908284214
 23
139.0905633841
 33
0.0
  0
LINE
  5
1D5
330
1D0
100
AcDbEntity
  8
VERMASSUNG
100
AcDbLine
 10
187.0408284214
 20
102.0905633841
 30
0.0
 11
187.0408284214
 21
142.0905633841
 31
0.0
  0
MTEXT
  5
1D6
330
1D0
100
AcDbEntity
  8
VERMASSUNG
100
AcDbMText
 10
184.4626929418
 20
107.7414586781
 30
0.1
 40
2.0
 41
0.0
 71
     1
 72
     1
  1
%%c
  7
SLDTEXTSTYLE0
 11
6.123233995736766E-17
 21
1.0
 31
0.0
 73
     1
 44
1.0
  0
MTEXT
  5
1D7
330
1D0
100
AcDbEntity
  8
VERMASSUNG
100
AcDbMText
 10
184.2626929323
 20
111.3514586924
 30
0.1
 40
2.0
 41
0.0
 71
     1
 72
     1
  1
40
  7
SLDTEXTSTYLE0
 11
6.123233995736766E-17
 21
1.0
 31
0.0
 73
     1
 44
1.0
  0
ENDBLK
  5
1D2
330
1D0
100
AcDbEntity
  8
0
100
AcDbBlockEnd
  0
BLOCK
  5
200
330
1FF
100
AcDbEntity
  8
0
100
AcDbBlockBegin
  2
_D_6
 70
     0
 10
0.0
 20
0.0
 30
0.0
  3
_D_6
  1

  0
SOLID
  5
202
330
1FF
100
AcDbEntity
  8
VERMASSUNG
100
AcDbTrace
 10
57.3122282421
 20
140.064870864
 30
0.0
 11
59.4830313391
 21
142.1838597536
 31
0.0
 12
58.7657865409
 22
142.7275139629
 32
0.0
 13
58.7657865409
 23
142.7275139629
 33
0.0
  0
SOLID
  5
203
330
1FF
100
AcDbEntity
  8
VERMASSUNG
100
AcDbTrace
 10
27.1092166105
 20
100.2179376272
 30
0.0
 11
24.9384135134
 21
98.0989487377
 31
0.0
 12
25.6556583117
 22
97.5552945283
 32
0.0
 13
25.6556583117
 23
97.5552945283
 33
0.0
  0
LINE
  5
204
330
1FF
100
AcDbEntity
  8
VERMASSUNG
100
AcDbLine
 10
57.3122282421
 20
140.064870864
 30
0.0
 11
56.5152895774
 21
140.6689310967
 31
0.0
  0
LINE
  5
205
330
1FF
100
AcDbEntity
  8
VERMASSUNG
100
AcDbLine
 10
27.1092166105
 20
100.2179376272
 30
0.0
 11
27.9061552752
 21
99.6138773946
 31
0.0
  0
LINE
  5
206
330
1FF
100
AcDbEntity
  8
VERMASSUNG
100
AcDbLine
 10
57.3122282421
 20
140.064870864
 30
0.0
 11
60.9365896379
 21
144.8465028524
 31
0.0
  0
LINE
  5
207
330
1FF
100
AcDbEntity
  8
VERMASSUNG
100
AcDbLine
 10
57.3122282421
 20
140.064870864
 30
0.0
 11
27.1092166105
 21
100.2179376272
 31
0.0
  0
LINE
  5
208
330
1FF
100
AcDbEntity
  8
VERMASSUNG
100
AcDbLine
 10
27.1092166105
 20
100.2179376272
 30
0.0
 11
15.0542592371
 21
84.313792455
 31
0.0
  0
MTEXT
  5
209
330
1FF
100
AcDbEntity
  8
VERMASSUNG
100
AcDbMText
 10
12.9996433905
 20
85.8711415725
 30
0.1
 40
2.0
 41
0.0
 71
     1
 72
     1
  1
%%c
  7
SLDTEXTSTYLE0
 11
0.6040602326329231
 21
0.7969386647361633
 31
0.0
 73
     1
 44
1.0
  0
MTEXT
  5
20A
330
1FF
100
AcDbEntity
  8
VERMASSUNG
100
AcDbMText
 10
15.0209130985
 20
88.8689022159
 30
0.1
 40
2.0
 41
0.0
 71
     1
 72
     1
  1
50
  7
SLDTEXTSTYLE0
 11
0.6040602326329231
 21
0.7969386647361633
 31
0.0
 73
     1
 44
1.0
  0
MTEXT
  5
20B
330
1FF
100
AcDbEntity
  8
VERMASSUNG
100
AcDbMText
 10
18.5169120378
 20
93.4811851905
 30
0.1
 40
2.0
 41
0.0
 71
     1
 72
     1
  1
min.
  7
SLDTEXTSTYLE0
 11
0.6040602326329231
 21
0.7969386647361633
 31
0.0
 73
     1
 44
1.0
  0
ENDBLK
  5
201
330
1FF
100
AcDbEntity
  8
0
100
AcDbBlockEnd
  0
BLOCK
  5
20F
330
20E
100
AcDbEntity
  8
0
100
AcDbBlockBegin
  2
_D_7
 70
     0
 10
0.0
 20
0.0
 30
0.0
  3
_D_7
  1

  0
ARC
  5
211
330
20E
100
AcDbEntity
  8
VERMASSUNG
100
AcDbCircle
 10
42.2107224263
 20
99.391239492
 30
0.0
 40
63.35714397466369
100
AcDbArc
 50
90.0
 51
94.0
  0
ARC
  5
212
330
20E
100
AcDbEntity
  8
VERMASSUNG
100
AcDbCircle
 10
42.2107224263
 20
99.391239492
 30
0.0
 40
63.3571439746637
100
AcDbArc
 50
84.5795867789
 51
90.0
  0
ARC
  5
213
330
20E
100
AcDbEntity
  8
VERMASSUNG
100
AcDbCircle
 10
42.2107224263
 20
99.391239492
 30
0.0
 40
63.35714397466366
100
AcDbArc
 50
94.0
 51
103.2545684063
  0
SOLID
  5
214
330
20E
100
AcDbEntity
  8
VERMASSUNG
100
AcDbTrace
 10
42.2107224263
 20
162.7483834667
 30
0.0
 11
45.1992379949
 21
162.2275430917
 31
0.0
 12
45.2205278843
 22
163.1272912457
 32
0.0
 13
45.2205278843
 23
163.1272912457
 33
0.0
  0
SOLID
  5
215
330
20E
100
AcDbEntity
  8
VERMASSUNG
100
AcDbTrace
 10
37.7911514761
 20
162.5940486482
 30
0.0
 11
34.7622464824
 21
162.7620800116
 31
0.0
 12
34.8462477692
 22
161.8660087065
 32
0.0
 13
34.8462477692
 23
161.8660087065
 33
0.0
  0
LINE
  5
216
330
20E
100
AcDbEntity
  8
VERMASSUNG
100
AcDbLine
 10
42.2107224263
 20
156.0905633841
 30
0.0
 11
42.2107224263
 21
163.7483834667
 31
0.0
  0
LINE
  5
217
330
20E
100
AcDbEntity
  8
VERMASSUNG
100
AcDbLine
 10
41.3638293676
 20
111.5023744793
 30
0.0
 11
37.7213950024
 21
163.5916126985
 31
0.0
  0
MTEXT
  5
218
330
20E
100
AcDbEntity
  8
VERMASSUNG
100
AcDbMText
 10
27.1750725224
 20
163.6304821211
 30
-51.4352467575
 40
2.0
 41
0.0
 71
     1
 72
     1
  1
4°
  7
SLDTEXTSTYLE0
 11
0.9810380475066471
 21
0.1938152453868001
 31
0.0
 73
     1
 44
1.0
  0
ENDBLK
  5
210
330
20E
100
AcDbEntity
  8
0
100
AcDbBlockEnd
  0
BLOCK
  5
21A
330
219
100
AcDbEntity
  8
0
100
AcDbBlockBegin
  2
SW_CENTERMARKSYMBOL_0
 70
     0
 10
0.0
 20
0.0
 30
0.0
  3
SW_CENTERMARKSYMBOL_0
  1

  0
LINE
  5
21C
330
219
100
AcDbEntity
  8
VERMASSUNG
 62
     0
100
AcDbLine
 10
0.0
 20
0.0
 30
0.0
 11
0.0
 21
2.5
 31
0.0
  0
LINE
  5
21D
330
219
100
AcDbEntity
  8
VERMASSUNG
 62
     0
100
AcDbLine
 10
0.0
 20
0.0
 30
0.0
 11
-2.5
 21
0.0
 31
0.0
  0
LINE
  5
21E
330
219
100
AcDbEntity
  8
VERMASSUNG
 62
     0
100
AcDbLine
 10
0.0
 20
0.0
 30
0.0
 11
0.0
 21
-2.5
 31
0.0
  0
LINE
  5
21F
330
219
100
AcDbEntity
  8
VERMASSUNG
 62
     0
100
AcDbLine
 10
0.0
 20
0.0
 30
0.0
 11
2.5
 21
0.0
 31
0.0
  0
LINE
  5
220
330
219
100
AcDbEntity
  8
VERMASSUNG
 62
     0
100
AcDbLine
 10
0.0
 20
5.0
 30
0.0
 11
0.0
 21
34.0
 31
0.0
  0
LINE
  5
221
330
219
100
AcDbEntity
  8
VERMASSUNG
 62
     0
100
AcDbLine
 10
-5.0
 20
0.0
 30
0.0
 11
-34.0
 21
0.0
 31
0.0
  0
LINE
  5
222
330
219
100
AcDbEntity
  8
VERMASSUNG
 62
     0
100
AcDbLine
 10
0.0
 20
-5.0
 30
0.0
 11
0.0
 21
-34.0
 31
0.0
  0
LINE
  5
223
330
219
100
AcDbEntity
  8
VERMASSUNG
 62
     0
100
AcDbLine
 10
5.0
 20
0.0
 30
0.0
 11
34.0
 21
0.0
 31
0.0
  0
ENDBLK
  5
21B
330
219
100
AcDbEntity
  8
0
100
AcDbBlockEnd
  0
ENDSEC
  0
SECTION
  2
ENTITIES
  0
MTEXT
  5
49
330
1F
100
AcDbEntity
  8
KOPF_DÜNN
100
AcDbMText
 10
13.8892156294
 20
23.8442973028
 30
0.0
 40
3.0
 41
0.0
 71
     1
 72
     1
  1
PS6.BCC.LLC.140
  7
SLDTEXTSTYLE0
 73
     1
 44
1.0
  0
MTEXT
  5
4A
330
1F
100
AcDbEntity
  8
VERMASSUNG
100
AcDbMText
 10
13.9329988022
 20
28.8834360957
 30
0.0
 40
3.0
 41
0.0
 71
     1
 72
     1
  1
Bohrstange links_Boring bar left
  7
SLDTEXTSTYLE0
 73
     1
 44
1.0
  0
MTEXT
  5
4B
330
1F
100
AcDbEntity
  8
VERMASSUNG
100
AcDbMText
 10
98.8601118557
 20
13.8365368179
 30
0.0
 40
2.0
 41
0.0
 71
     1
 72
     1
  1
Datum: 04.06.2012
  7
SLDTEXTSTYLE0
 73
     1
 44
1.0
  0
MTEXT
  5
4C
330
1F
100
AcDbEntity
  8
VERMASSUNG
100
AcDbMText
 10
13.933048693
 20
18.0482802738
 30
0.0
 40
2.0
 41
0.0
 71
     1
 72
     1
  1
PSC ø63 / Wp.: CC..12 04..
  7
SLDTEXTSTYLE0
 73
     1
 44
1.0
  0
MTEXT
  5
4D
330
1F
100
AcDbEntity
  8
VERMASSUNG
100
AcDbMText
 10
13.9808475933
 20
13.9090973692
 30
0.0
 40
2.0
 41
0.0
 71
     1
 72
     1
  1
Gewicht: 1683g
  7
SLDTEXTSTYLE0
 73
     1
 44
1.0
  0
LINE
  5
4E
330
1F
100
AcDbEntity
  8
0
  6
Continuous
 62
     7
370
    15
100
AcDbLine
 10
133.1675952779
 20
90.5905628775
 30
0.0
 11
153.6675949711
 21
90.5905628775
 31
0.0
  0
LINE
  5
4F
330
1F
100
AcDbEntity
  8
0
  6
Continuous
 62
     7
370
    15
100
AcDbLine
 10
153.6675949711
 20
153.5905638908
 30
0.0
 11
133.1675952779
 21
153.5905638908
 31
0.0
  0
ARC
  5
50
330
1F
100
AcDbEntity
  8
0
  6
Continuous
 62
     7
370
    15
100
AcDbCircle
 10
133.1675952542
 20
91.0905633841
 30
0.0
 40
0.5000000000000426
100
AcDbArc
 50
180.0
 51
270.0
  0
ARC
  5
51
330
1F
100
AcDbEntity
  8
0
  6
Continuous
 62
     7
370
    15
100
AcDbCircle
 10
133.1675952542
 20
153.0905633841
 30
0.0
 40
0.5000000000000568
100
AcDbArc
 50
90.0
 51
180.0
  0
ARC
  5
52
330
1F
100
AcDbEntity
  8
0
  6
Continuous
 62
     7
370
    15
100
AcDbCircle
 10
153.6675952542
 20
91.5905633841
 30
0.0
 40
1.000000000000043
100
AcDbArc
 50
270.0
 51
360.0
  0
ARC
  5
53
330
1F
100
AcDbEntity
  8
0
  6
Continuous
 62
     7
370
    15
100
AcDbCircle
 10
153.6675952542
 20
152.5905633841
 30
0.0
 40
1.000000000000057
100
AcDbArc
 50
0.0
 51
90.0
  0
LWPOLYLINE
  5
54
330
1F
100
AcDbEntity
  8
0
  6
Continuous
 62
     7
370
    15
100
AcDbPolyline
 90
        3
 70
   128
 43
0.0
 10
132.4675952592
 20
99.5507428621
 10
132.5930501944
 20
99.4824415271
 10
132.6675952542
 20
99.4297025923
  0
LWPOLYLINE
  5
55
330
1F
100
AcDbEntity
  8
0
  6
Continuous
 62
     7
370
    15
100
AcDbPolyline
 90
        3
 70
   128
 43
0.0
 10
132.6675952542
 20
144.7514241759
 10
132.5930501944
 20
144.6986852412
 10
132.4675952592
 20
144.6303839062
  0
ARC
  5
56
330
1F
100
AcDbEntity
  8
0
  6
Continuous
 62
     7
370
    15
100
AcDbCircle
 10
158.6675952542
 20
98.0905633841
 30
0.0
 40
3.999999999999986
100
AcDbArc
 50
90.0
 51
180.0
  0
ARC
  5
57
330
1F
100
AcDbEntity
  8
0
  6
Continuous
 62
     7
370
    15
100
AcDbCircle
 10
158.6675952542
 20
146.0905633841
 30
0.0
 40
3.999999999999972
100
AcDbArc
 50
180.0
 51
270.0
  0
LINE
  5
58
330
1F
100
AcDbEntity
  8
0
  6
Continuous
 62
     7
370
    15
100
AcDbLine
 10
246.2533802855
 20
142.0905629371
 30
0.0
 11
158.6675957906
 21
142.0905629371
 31
0.0
  0
LINE
  5
59
330
1F
100
AcDbEntity
  8
0
  6
Continuous
 62
     7
370
    15
100
AcDbLine
 10
158.6675957906
 20
102.0905638312
 30
0.0
 11
246.2533802855
 21
102.0905638312
 31
0.0
  0
ARC
  5
5A
330
1F
100
AcDbEntity
  8
0
  6
Continuous
 62
     7
370
    15
100
AcDbCircle
 10
246.2533816918
 20
143.0905633841
 30
0.0
 40
0.999999999999988
100
AcDbArc
 50
270.0
 51
315.0
  0
LINE
  5
5B
330
1F
100
AcDbEntity
  8
0
  6
Continuous
 62
     7
370
    15
100
AcDbLine
 10
246.2533802855
 20
102.0905638312
 30
0.0
 11
246.2835029829
 21
102.0901093457
 31
0.0
  0
LINE
  5
5C
330
1F
100
AcDbEntity
  8
0
  6
Continuous
 62
     7
370
    15
100
AcDbLine
 10
248.839968549
 20
142.5905639504
 30
0.0
 11
247.1675963271
 21
142.5905639504
 31
0.0
  0
LINE
  5
5D
330
1F
100
AcDbEntity
  8
0
  6
Continuous
 62
     7
370
    15
100
AcDbLine
 10
247.1675963271
 20
142.5905639504
 30
0.0
 11
246.9604850876
 21
142.3834564362
 31
0.0
  0
LINE
  5
5E
330
1F
100
AcDbEntity
  8
0
  6
Continuous
 62
     7
370
    15
100
AcDbLine
 10
246.9604850876
 20
101.797670332
 30
0.0
 11
247.9352221954
 21
100.8229406749
 31
0.0
  0
LINE
  5
5F
330
1F
100
AcDbEntity
  8
0
  6
Continuous
 62
     7
370
    15
100
AcDbLine
 10
267.0878858435
 20
102.2456830565
 30
0.0
 11
267.0878858435
 21
102.1340398316
 31
0.0
  0
LINE
  5
60
330
1F
100
AcDbEntity
  8
0
  6
Continuous
 62
     7
370
    15
100
AcDbLine
 10
264.2496318686
 20
102.022657377
 30
0.0
 11
264.2496318686
 21
102.1342670743
 31
0.0
  0
LINE
  5
61
330
1F
100
AcDbEntity
  8
0
  6
Continuous
 62
     7
370
    15
100
AcDbLine
 10
269.1672236788
 20
102.1087655996
 30
0.0
 11
269.1672236788
 21
102.1227168117
 31
0.0
  0
LINE
  5
62
330
1F
100
AcDbEntity
  8
0
  6
Continuous
 62
     7
370
    15
100
AcDbLine
 10
262.1672243941
 20
102.1227168117
 30
0.0
 11
262.1672243941
 21
102.1087655996
 31
0.0
  0
SPLINE
  5
63
330
1F
100
AcDbEntity
  8
0
  6
Continuous
 62
     7
370
    15
100
AcDbSpline
210
0.0
220
0.0
230
1.0
 70
     8
 71
     3
 72
    12
 73
     8
 74
     0
 42
0.00000001
 43
0.00000001
 12
1.0
 22
0.0
 32
0.0
 13
1.0
 23
0.0
 33
0.0
 40
0.0
 40
0.0
 40
0.0
 40
0.0
 40
0.2500000000000009
 40
0.2500000000000009
 40
0.5000000000000018
 40
0.5000000000000018
 40
1.0
 40
1.0
 40
1.0
 40
1.0
 10
143.1953520677488
 20
131.4786298154664
 30
0.0
 10
143.1322720292554
 20
131.4786298154664
 30
0.0
 10
143.073123407074
 20
131.5039941346814
 30
0.0
 10
142.9746508570049
 20
131.5781589950543
 30
0.0
 10
142.9356142450202
 20
131.6246793356084
 30
0.0
 10
142.8357177782411
 20
131.7748216784537
 30
0.0
 10
142.7932968971745
 20
131.8865148854258
 30
0.0
 10
142.7623393658565
 20
131.9999327048156
 30
0.0
  0
LINE
  5
64
330
1F
100
AcDbEntity
  8
0
  6
Continuous
 62
     7
370
    15
100
AcDbLine
 10
146.1398384663
 20
131.4786302124
 30
0.0
 11
143.1953522506
 21
131.4786302124
 31
0.0
  0
SPLINE
  5
65
330
1F
100
AcDbEntity
  8
0
  6
Continuous
 62
     7
370
    15
100
AcDbSpline
210
0.0
220
0.0
230
1.0
 70
     8
 71
     3
 72
    12
 73
     8
 74
     0
 42
0.00000001
 43
0.00000001
 12
1.0
 22
0.0
 32
0.0
 13
1.0
 23
0.0
 33
0.0
 40
0.0
 40
0.0
 40
0.0
 40
0.0
 40
0.5000000000000001
 40
0.5000000000000001
 40
0.75
 40
0.75
 40
1.0
 40
1.0
 40
1.0
 40
1.0
 10
146.5728511425081
 20
131.9999327048156
 30
0.0
 10
146.542128900589
 20
131.8873769054064
 30
0.0
 10
146.4992916860538
 20
131.7746190456668
 30
0.0
 10
146.399864661854
 20
131.6250781598704
 30
0.0
 10
146.3601124670374
 20
131.5777854281636
 30
0.0
 10
146.2620710101791
 20
131.5040491348421
 30
0.0
 10
146.2025149545917
 20
131.4786298154664
 30
0.0
 10
146.1398384406158
 20
131.4786298154664
 30
0.0
  0
ELLIPSE
  5
66
330
1F
100
AcDbEntity
  8
0
  6
Continuous
 62
     7
370
    15
100
AcDbEllipse
 10
130.3204410648
 20
122.0905633841
 30
0.0
 11
14.75368316065601
 21
31.09325491558116
 31
0.0
210
0.0
220
0.0
230
1.0
 40
0.3419987131
 41
5.193281737408619
 42
6.124043104552324
  0
SPLINE
  5
67
330
1F
100
AcDbEntity
  8
0
  6
Continuous
 62
     7
370
    15
100
AcDbSpline
210
0.0
220
0.0
230
1.0
 70
     8
 71
     3
 72
    12
 73
     8
 74
     0
 42
0.00000001
 43
0.00000001
 12
1.0
 22
0.0
 32
0.0
 13
1.0
 23
0.0
 33
0.0
 40
0.0
 40
0.0
 40
0.0
 40
0.0
 40
0.2500000000000009
 40
0.2500000000000009
 40
0.5000000000000018
 40
0.5000000000000018
 40
1.0
 40
1.0
 40
1.0
 40
1.0
 10
146.1398384406158
 20
152.1590553430036
 30
0.0
 10
146.2029184791092
 20
152.1590553430036
 30
0.0
 10
146.2620671012906
 20
152.1511494167912
 30
0.0
 10
146.3605396513597
 20
152.1278242553549
 30
0.0
 10
146.3995762633444
 20
152.1131114655232
 30
0.0
 10
146.4994727301234
 20
152.0651556647923
 30
0.0
 10
146.5418936111901
 20
152.0288935082122
 30
0.0
 10
146.5728511425081
 20
151.9913058442477
 30
0.0
  0
LINE
  5
68
330
1F
100
AcDbEntity
  8
0
  6
Continuous
 62
     7
370
    15
100
AcDbLine
 10
143.1953522506
 20
152.159055901
 30
0.0
 11
146.1398384663
 21
152.159055901
 31
0.0
  0
SPLINE
  5
69
330
1F
100
AcDbEntity
  8
0
  6
Continuous
 62
     7
370
    15
100
AcDbSpline
210
0.0
220
0.0
230
1.0
 70
     8
 71
     3
 72
    12
 73
     8
 74
     0
 42
0.00000001
 43
0.00000001
 12
1.0
 22
0.0
 32
0.0
 13
1.0
 23
0.0
 33
0.0
 40
0.0
 40
0.0
 40
0.0
 40
0.0
 40
0.5000000000000029
 40
0.5000000000000029
 40
0.7500000000000014
 40
0.7500000000000014
 40
1.0
 40
1.0
 40
1.0
 40
1.0
 10
142.7623393658565
 20
151.9913058442477
 30
0.0
 10
142.7930616077756
 20
152.0286078272008
 30
0.0
 10
142.8358988223108
 20
152.0652196592472
 30
0.0
 10
142.9353258465106
 20
152.1129844425323
 30
0.0
 10
142.9750780413272
 20
152.1279419580147
 30
0.0
 10
143.0731194981854
 20
152.1511319037839
 30
0.0
 10
143.1326755537729
 20
152.1590553430036
 30
0.0
 10
143.1953520677488
 20
152.1590553430036
 30
0.0
  0
ELLIPSE
  5
6A
330
1F
100
AcDbEntity
  8
0
  6
Continuous
 62
     7
370
    15
100
AcDbEllipse
 10
159.0147494435
 20
122.0905633841
 30
0.0
 11
-14.75368316065606
 21
31.09325491558118
 31
0.0
210
0.0
220
0.0
230
1.0
 40
0.3419987131
 41
0.1591422026273062
 42
1.089903569770981
  0
SPLINE
  5
6B
330
1F
100
AcDbEntity
  8
0
  6
Continuous
 62
     7
370
    15
100
AcDbSpline
210
0.0
220
0.0
230
1.0
 70
     8
 71
     3
 72
    12
 73
     8
 74
     0
 42
0.00000001
 43
0.00000001
 12
1.0
 22
0.0
 32
0.0
 13
1.0
 23
0.0
 33
0.0
 40
0.0
 40
0.0
 40
0.0
 40
0.0
 40
0.25
 40
0.25
 40
0.5
 40
0.5
 40
1.0
 40
1.0
 40
1.0
 40
1.0
 10
143.1953520677488
 20
92.02207142525742
 30
0.0
 10
143.132295112851
 20
92.02207142525744
 30
0.0
 10
143.0731649631053
 20
92.02997175633698
 30
0.0
 10
142.9747174125721
 20
92.05328250434202
 30
0.0
 10
142.935685174384
 20
92.06798763062567
 30
0.0
 10
142.835795289927
 20
92.1159211588123
 30
0.0
 10
142.7934963163177
 20
92.15199113157706
 30
0.0
 10
142.7623393658565
 20
92.18982092401328
 30
0.0
  0
LINE
  5
6C
330
1F
100
AcDbEntity
  8
0
  6
Continuous
 62
     7
370
    15
100
AcDbLine
 10
146.1398384663
 20
92.0220708673
 30
0.0
 11
143.1953522506
 21
92.0220708673
 31
0.0
  0
SPLINE
  5
6D
330
1F
100
AcDbEntity
  8
0
  6
Continuous
 62
     7
370
    15
100
AcDbSpline
210
0.0
220
0.0
230
1.0
 70
     8
 71
     3
 72
    12
 73
     8
 74
     0
 42
0.00000001
 43
0.00000001
 12
1.0
 22
0.0
 32
0.0
 13
1.0
 23
0.0
 33
0.0
 40
0.0
 40
0.0
 40
0.0
 40
0.0
 40
0.5000000000000019
 40
0.5000000000000019
 40
0.7500000000000009
 40
0.7500000000000009
 40
1.0
 40
1.0
 40
1.0
 40
1.0
 10
146.5728511425081
 20
92.18982092401329
 30
0.0
 10
146.541705944546
 20
92.15200540109309
 30
0.0
 10
146.4994316782116
 20
92.11593854300948
 30
0.0
 10
146.3994861443863
 20
92.06797847799822
 30
0.0
 10
146.3597558396822
 20
92.05311750410056
 30
0.0
 10
146.262867789676
 20
92.03016635796943
 30
0.0
 10
146.2028025479294
 20
92.02207142525737
 30
0.0
 10
146.1398384406159
 20
92.02207142525737
 30
0.0
  0
ELLIPSE
  5
6E
330
1F
100
AcDbEntity
  8
0
  6
Continuous
 62
     7
370
    15
100
AcDbEllipse
 10
130.3204410648
 20
122.0905633841
 30
0.0
 11
-14.75368316065615
 21
31.09325491558118
 31
0.0
210
0.0
220
0.0
230
1.0
 40
0.3419987131
 41
3.300734856217121
 42
4.231496223360773
  0
SPLINE
  5
6F
330
1F
100
AcDbEntity
  8
0
  6
Continuous
 62
     7
370
    15
100
AcDbSpline
210
0.0
220
0.0
230
1.0
 70
     8
 71
     3
 72
    12
 73
     8
 74
     0
 42
0.00000001
 43
0.00000001
 12
1.0
 22
0.0
 32
0.0
 13
1.0
 23
0.0
 33
0.0
 40
0.0
 40
0.0
 40
0.0
 40
0.0
 40
0.2499999999999991
 40
0.2499999999999991
 40
0.4999999999999982
 40
0.4999999999999982
 40
1.0
 40
1.0
 40
1.0
 40
1.0
 10
146.1398384406158
 20
112.7024969527943
 30
0.0
 10
146.2028953955137
 20
112.7024969527943
 30
0.0
 10
146.2620255452592
 20
112.6771505994136
 30
0.0
 10
146.3604730957925
 20
112.6030312172741
 30
0.0
 10
146.3995053339806
 20
112.5565347025761
 30
0.0
 10
146.4993952184376
 20
112.4064601955675
 30
0.0
 10
146.5416941920469
 20
112.2953424864527
 30
0.0
 10
146.5728511425081
 20
112.1811940634452
 30
0.0
  0
LINE
  5
70
330
1F
100
AcDbEntity
  8
0
  6
Continuous
 62
     7
370
    15
100
AcDbLine
 10
143.1953522506
 20
112.7024965559
 30
0.0
 11
146.1398384663
 21
112.7024965559
 31
0.0
  0
SPLINE
  5
71
330
1F
100
AcDbEntity
  8
0
  6
Continuous
 62
     7
370
    15
100
AcDbSpline
210
0.0
220
0.0
230
1.0
 70
     8
 71
     3
 72
    12
 73
     8
 74
     0
 42
0.00000001
 43
0.00000001
 12
1.0
 22
0.0
 32
0.0
 13
1.0
 23
0.0
 33
0.0
 40
0.0
 40
0.0
 40
0.0
 40
0.0
 40
0.5000000000000064
 40
0.5000000000000064
 40
0.7500000000000032
 40
0.7500000000000032
 40
1.0
 40
1.0
 40
1.0
 40
1.0
 10
142.7623393658565
 20
112.1811940634452
 30
0.0
 10
142.7934845638186
 20
112.2952994293105
 30
0.0
 10
142.8357588301531
 20
112.4064057565292
 30
0.0
 10
142.9357043639783
 20
112.5565633639595
 30
0.0
 10
142.9754346686824
 20
112.6035560555769
 30
0.0
 10
143.0723227186886
 20
112.6765316401154
 30
0.0
 10
143.1323879604352
 20
112.7024969527944
 30
0.0
 10
143.1953520677487
 20
112.7024969527944
 30
0.0
  0
ELLIPSE
  5
72
330
1F
100
AcDbEntity
  8
0
  6
Continuous
 62
     7
370
    15
100
AcDbEllipse
 10
159.0147494435
 20
122.0905633841
 30
0.0
 11
14.75368316065612
 21
31.09325491558118
 31
0.0
210
0.0
220
0.0
230
1.0
 40
0.3419987131
 41
2.051689083818824
 42
2.982450450962497
  0
LINE
  5
73
330
1F
100
AcDbEntity
  8
0
  6
Continuous
 62
     7
370
    15
100
AcDbLine
 10
132.6675952542
 20
91.0905638908
 30
0.0
 11
132.6675952542
 21
153.0905628775
 31
0.0
  0
LINE
  5
74
330
1F
100
AcDbEntity
  8
0
  6
Continuous
 62
     7
370
    15
100
AcDbLine
 10
154.667595135
 20
152.5905637269
 30
0.0
 11
154.667595135
 21
91.5905630414
 31
0.0
  0
SPLINE
  5
75
330
1F
100
AcDbEntity
  8
0
  6
Continuous
 62
     7
370
    15
100
AcDbSpline
210
0.0
220
0.0
230
1.0
 70
     8
 71
     3
 72
    12
 73
     8
 74
     0
 42
0.00000001
 43
0.00000001
 12
1.0
 22
0.0
 32
0.0
 13
1.0
 23
0.0
 33
0.0
 40
0.0
 40
0.0
 40
0.0
 40
0.0
 40
0.4999999999999993
 40
0.4999999999999993
 40
0.7499999999999997
 40
0.7499999999999997
 40
1.0
 40
1.0
 40
1.0
 40
1.0
 10
131.8510829677258
 20
100.2357696816547
 30
0.0
 10
131.907519468633
 20
100.234351800313
 30
0.0
 10
131.9766040993217
 20
100.2327874640647
 30
0.0
 10
132.0954063710397
 20
100.2298432720902
 30
0.0
 10
132.1355916465098
 20
100.2288050689928
 30
0.0
 10
132.2089726939136
 20
100.2268711737782
 30
0.0
 10
132.2423822576562
 20
100.2259762864894
 30
0.0
 10
132.2726183653127
 20
100.225192496217
 30
0.0
  0
SPLINE
  5
76
330
1F
100
AcDbEntity
  8
0
  6
Continuous
 62
     7
370
    15
100
AcDbSpline
210
0.0
220
0.0
230
1.0
 70
     8
 71
     3
 72
    16
 73
    12
 74
     0
 42
0.00000001
 43
0.00000001
 12
1.0
 22
0.0
 32
0.0
 13
1.0
 23
0.0
 33
0.0
 40
0.0
 40
0.0
 40
0.0
 40
0.0
 40
0.0624999999999979
 40
0.0624999999999979
 40
0.1249999999999958
 40
0.1249999999999958
 40
0.2499999999999986
 40
0.2499999999999986
 40
0.4999999999999991
 40
0.4999999999999991
 40
1.0
 40
1.0
 40
1.0
 40
1.0
 10
132.2726183652755
 20
100.2251924962413
 30
0.0
 10
132.2841987728634
 20
100.2248923051299
 30
0.0
 10
132.2975082996247
 20
100.2235645568709
 30
0.0
 10
132.3268097297108
 20
100.2168658820959
 30
0.0
 10
132.3416238295951
 20
100.2115076989902
 30
0.0
 10
132.377452231298
 20
100.1944620498229
 30
0.0
 10
132.391571855661
 20
100.1829995120472
 30
0.0
 10
132.4260759997495
 20
100.1514361866749
 30
0.0
 10
132.4371805504541
 20
100.1335388876297
 30
0.0
 10
132.4633567276703
 20
100.0833774700154
 30
0.0
 10
132.4675952541823
 20
100.0556330578188
 30
0.0
 10
132.4675952541823
 20
100.0309688958893
 30
0.0
  0
LINE
  5
77
330
1F
100
AcDbEntity
  8
0
  6
Continuous
 62
     7
370
    15
100
AcDbLine
 10
132.4675952592
 20
115.0686761562
 30
0.0
 11
132.4675952592
 21
99.5507428621
 31
0.0
  0
SPLINE
  5
78
330
1F
100
AcDbEntity
  8
0
  6
Continuous
 62
     7
370
    15
100
AcDbSpline
210
0.0
220
0.0
230
1.0
 70
     8
 71
     3
 72
    16
 73
    12
 74
     0
 42
0.00000001
 43
0.00000001
 12
1.0
 22
0.0
 32
0.0
 13
1.0
 23
0.0
 33
0.0
 40
0.0
 40
0.0
 40
0.0
 40
0.0
 40
0.5000000000000029
 40
0.5000000000000029
 40
0.7500000000000027
 40
0.7500000000000027
 40
0.8750000000000009
 40
0.8750000000000009
 40
0.9375000000000006
 40
0.9375000000000006
 40
1.0
 40
1.0
 40
1.0
 40
1.0
 10
132.4675952541823
 20
115.0686760583805
 30
0.0
 10
132.4675952541823
 20
115.1823686025083
 30
0.0
 10
132.4634489791043
 20
115.2966887638579
 30
0.0
 10
132.4374833837108
 20
115.4697370543549
 30
0.0
 10
132.4260224783334
 20
115.5289125615166
 30
0.0
 10
132.3917107405591
 20
115.6120356809848
 30
0.0
 10
132.3776860046295
 20
115.6401569970855
 30
0.0
 10
132.3416630415956
 20
115.6687728110629
 30
0.0
 10
132.326908532506
 20
115.6745658589647
 30
0.0
 10
132.2975563713591
 20
115.6729724330277
 30
0.0
 10
132.284216496855
 20
115.6664760297039
 30
0.0
 10
132.2726183653066
 20
115.6579602835008
 30
0.0
  0
SPLINE
  5
79
330
1F
100
AcDbEntity
  8
0
  6
Continuous
 62
     7
370
    15
100
AcDbSpline
210
0.0
220
0.0
230
1.0
 70
     8
 71
     3
 72
    12
 73
     8
 74
     0
 42
0.00000001
 43
0.00000001
 12
1.0
 22
0.0
 32
0.0
 13
1.0
 23
0.0
 33
0.0
 40
0.0
 40
0.0
 40
0.0
 40
0.0
 40
0.2499999999999999
 40
0.2499999999999999
 40
0.4999999999999998
 40
0.4999999999999998
 40
1.0
 40
1.0
 40
1.0
 40
1.0
 10
132.2726183653137
 20
115.6579602834916
 30
0.0
 10
132.2424199238731
 20
115.6357875514465
 30
0.0
 10
132.2090525685371
 20
115.6167078955693
 30
0.0
 10
132.1358972927072
 20
115.5915348511266
 30
0.0
 10
132.0956445936832
 20
115.5859783147098
 30
0.0
 10
131.9779158504084
 20
115.5968901256966
 30
0.0
 10
131.9074574023495
 20
115.6388258811074
 30
0.0
 10
131.8510829677312
 20
115.688037663489
 30
0.0
  0
SPLINE
  5
7A
330
1F
100
AcDbEntity
  8
0
  6
Continuous
 62
     7
370
    15
100
AcDbSpline
210
0.0
220
0.0
230
1.0
 70
     8
 71
     3
 72
    12
 73
     8
 74
     0
 42
0.00000001
 43
0.00000001
 12
1.0
 22
0.0
 32
0.0
 13
1.0
 23
0.0
 33
0.0
 40
0.0
 40
0.0
 40
0.0
 40
0.0
 40
0.4999999999999999
 40
0.4999999999999999
 40
0.7499999999999998
 40
0.7499999999999998
 40
1.0
 40
1.0
 40
1.0
 40
1.0
 10
131.3462749106226
 20
116.9043890553695
 30
0.0
 10
131.3900252625071
 20
116.6839420703949
 30
0.0
 10
131.4429154136316
 20
116.4683970805894
 30
0.0
 10
131.5545269567733
 20
116.1559830040175
 30
0.0
 10
131.5970863006768
 20
116.0539035284016
 30
0.0
 10
131.7020635360142
 20
115.8594635157598
 30
0.0
 10
131.7636307791088
 20
115.7643786166961
 30
0.0
 10
131.8510829677312
 20
115.688037663489
 30
0.0
  0
SPLINE
  5
7B
330
1F
100
AcDbEntity
  8
0
  6
Continuous
 62
     7
370
    15
100
AcDbSpline
210
0.0
220
0.0
230
1.0
 70
     8
 71
     3
 72
    12
 73
     8
 74
     0
 42
0.00000001
 43
0.00000001
 12
1.0
 22
0.0
 32
0.0
 13
1.0
 23
0.0
 33
0.0
 40
0.0
 40
0.0
 40
0.0
 40
0.0
 40
0.25
 40
0.25
 40
0.5
 40
0.5
 40
1.0
 40
1.0
 40
1.0
 40
1.0
 10
131.8510829677311
 20
128.4930891047721
 30
0.0
 10
131.7625895601632
 20
128.4158392246638
 30
0.0
 10
131.7025315193973
 20
128.3225199007746
 30
0.0
 10
131.5966832464148
 20
128.1264868478052
 30
0.0
 10
131.5541497251373
 20
128.0241604895934
 30
0.0
 10
131.4429984183136
 20
127.7128160838175
 30
0.0
 10
131.3900675612659
 20
127.4973978306395
 30
0.0
 10
131.3462749106226
 20
127.2767377128917
 30
0.0
  0
SPLINE
  5
7C
330
1F
100
AcDbEntity
  8
0
  6
Continuous
 62
     7
370
    15
100
AcDbSpline
210
0.0
220
0.0
230
1.0
 70
     8
 71
     3
 72
    12
 73
     8
 74
     0
 42
0.00000001
 43
0.00000001
 12
1.0
 22
0.0
 32
0.0
 13
1.0
 23
0.0
 33
0.0
 40
0.0
 40
0.0
 40
0.0
 40
0.0
 40
0.4999999999999993
 40
0.4999999999999993
 40
0.7499999999999997
 40
0.7499999999999997
 40
1.0
 40
1.0
 40
1.0
 40
1.0
 10
131.8510829677311
 20
128.4930891047721
 30
0.0
 10
131.9073915160267
 20
128.542243372016
 30
0.0
 10
131.9776661767448
 20
128.5842006906197
 30
0.0
 10
132.0957040910684
 20
128.5951603681522
 30
0.0
 10
132.1358803319223
 20
128.5896516099048
 30
0.0
 10
132.2098374266002
 20
128.5640943811158
 30
0.0
 10
132.2424538143117
 20
128.5453143332765
 30
0.0
 10
132.2726183653075
 20
128.5231664847598
 30
0.0
  0
SPLINE
  5
7D
330
1F
100
AcDbEntity
  8
0
  6
Continuous
 62
     7
370
    15
100
AcDbSpline
210
0.0
220
0.0
230
1.0
 70
     8
 71
     3
 72
    16
 73
    12
 74
     0
 42
0.00000001
 43
0.00000001
 12
1.0
 22
0.0
 32
0.0
 13
1.0
 23
0.0
 33
0.0
 40
0.0
 40
0.0
 40
0.0
 40
0.0
 40
0.062500000000001
 40
0.062500000000001
 40
0.125000000000002
 40
0.125000000000002
 40
0.2500000000000017
 40
0.2500000000000017
 40
0.5000000000000011
 40
0.5000000000000011
 40
1.0
 40
1.0
 40
1.0
 40
1.0
 10
132.2726183652757
 20
128.5231664847053
 30
0.0
 10
132.2842312651151
 20
128.5146398951101
 30
0.0
 10
132.2975824495475
 20
128.5081396335773
 30
0.0
 10
132.3269822891667
 20
128.5065702364598
 30
0.0
 10
132.341823013722
 20
128.5124536270903
 30
0.0
 10
132.3776562216906
 20
128.5410012631409
 30
0.0
 10
132.3917694295122
 20
128.5691682824467
 30
0.0
 10
132.4262608007311
 20
128.6529225408686
 30
0.0
 10
132.4373448718414
 20
128.7106359544901
 30
0.0
 10
132.4634676896374
 20
128.8842264911359
 30
0.0
 10
132.4675952541823
 20
128.9992545437778
 30
0.0
 10
132.4675952541823
 20
129.1124507098807
 30
0.0
  0
LINE
  5
7E
330
1F
100
AcDbEntity
  8
0
  6
Continuous
 62
     7
370
    15
100
AcDbLine
 10
132.4675952592
 20
144.6303839062
 30
0.0
 11
132.4675952592
 21
129.112450612
 31
0.0
  0
SPLINE
  5
7F
330
1F
100
AcDbEntity
  8
0
  6
Continuous
 62
     7
370
    15
100
AcDbSpline
210
0.0
220
0.0
230
1.0
 70
     8
 71
     3
 72
    16
 73
    12
 74
     0
 42
0.00000001
 43
0.00000001
 12
1.0
 22
0.0
 32
0.0
 13
1.0
 23
0.0
 33
0.0
 40
0.0
 40
0.0
 40
0.0
 40
0.0
 40
0.4999999999999999
 40
0.4999999999999999
 40
0.7500000000000016
 40
0.7500000000000016
 40
0.8750000000000024
 40
0.8750000000000024
 40
0.9375000000000012
 40
0.9375000000000012
 40
1.0
 40
1.0
 40
1.0
 40
1.0
 10
132.4675952541823
 20
144.1501578723718
 30
0.0
 10
132.4675952541823
 20
144.1254867163289
 30
0.0
 10
132.4634295557223
 20
144.0979048849377
 30
0.0
 10
132.4371712273974
 20
144.0475620141144
 30
0.0
 10
132.4256674456598
 20
144.0292725160524
 30
0.0
 10
132.3915366863133
 20
143.9981174850154
 30
0.0
 10
132.3771147996425
 20
143.9864781098037
 30
0.0
 10
132.3415478312047
 20
143.9695960838726
 30
0.0
 10
132.3265960629101
 20
143.9642069800649
 30
0.0
 10
132.2975922445503
 20
143.9575864841205
 30
0.0
 10
132.2841768905411
 20
143.956233895914
 30
0.0
 10
132.2726183653045
 20
143.9559342720424
 30
0.0
  0
SPLINE
  5
80
330
1F
100
AcDbEntity
  8
0
  6
Continuous
 62
     7
370
    15
100
AcDbSpline
210
0.0
220
0.0
230
1.0
 70
     8
 71
     3
 72
    12
 73
     8
 74
     0
 42
0.00000001
 43
0.00000001
 12
1.0
 22
0.0
 32
0.0
 13
1.0
 23
0.0
 33
0.0
 40
0.0
 40
0.0
 40
0.0
 40
0.0
 40
0.2500000000000001
 40
0.2500000000000001
 40
0.4999999999999999
 40
0.4999999999999999
 40
1.0
 40
1.0
 40
1.0
 40
1.0
 10
132.2726183653137
 20
143.9559342720441
 30
0.0
 10
132.2424305887641
 20
143.9551517346266
 30
0.0
 10
132.2090767846724
 20
143.9542584028081
 30
0.0
 10
132.1359505814764
 20
143.9523310940044
 30
0.0
 10
132.0957153784522
 20
143.9512915627918
 30
0.0
 10
131.9780237483191
 20
143.9483736794445
 30
0.0
 10
131.9076430751591
 20
143.9467780733743
 30
0.0
 10
131.8510829677285
 20
143.9453570866064
 30
0.0
  0
SPLINE
  5
81
330
1F
100
AcDbEntity
  8
0
  6
Continuous
 62
     7
370
    15
100
AcDbSpline
210
0.0
220
0.0
230
1.0
 70
     8
 71
     3
 72
    16
 73
    12
 74
     0
 42
0.00000001
 43
0.00000001
 12
1.0
 22
0.0
 32
0.0
 13
1.0
 23
0.0
 33
0.0
 40
0.0
 40
0.0
 40
0.0
 40
0.0
 40
0.2499999999999999
 40
0.2499999999999999
 40
0.3749999999999999
 40
0.3749999999999999
 40
0.5
 40
0.5
 40
0.75
 40
0.75
 40
1.0
 40
1.0
 40
1.0
 40
1.0
 10
131.3462749106226
 20
127.2767377128917
 30
0.0
 10
131.1850424331382
 20
126.4643279376448
 30
0.0
 10
131.0645625934986
 20
125.6242496432601
 30
0.0
 10
130.9421820761852
 20
124.3229545938973
 30
0.0
 10
130.9112044157878
 20
123.8822735583125
 30
0.0
 10
130.8695906781598
 20
122.9864339173814
 30
0.0
 10
130.859354765227
 20
122.5397757861789
 30
0.0
 10
130.8591663681709
 20
121.204465829039
 30
0.0
 10
130.8993110708085
 20
120.3199704557315
 30
0.0
 10
131.0634648257481
 20
118.5627205677055
 30
0.0
 10
131.1850164761577
 20
117.7169296212924
 30
0.0
 10
131.3462749106226
 20
116.9043890553695
 30
0.0
  0
LINE
  5
82
330
1F
100
AcDbEntity
  8
0
  6
Continuous
 62
     7
370
    15
100
AcDbLine
 10
130.4675952661
 20
128.5757415195
 30
0.0
 11
130.4675952661
 21
115.6053852488
 31
0.0
  0
LINE
  5
83
330
1F
100
AcDbEntity
  8
0
  6
Continuous
 62
     7
370
    15
100
AcDbLine
 10
96.1675957906
 20
128.1448739779
 30
0.0
 11
96.1675957906
 21
116.0362527904
 31
0.0
  0
LINE
  5
84
330
1F
100
AcDbEntity
  8
0
  6
Continuous
 62
     7
370
    15
100
AcDbLine
 10
94.6675964761
 20
127.7118611348
 30
0.0
 11
94.6675964761
 21
116.4692656335
 31
0.0
  0
LINE
  5
85
330
1F
100
AcDbEntity
  8
0
  6
Continuous
 62
     7
370
    15
100
AcDbLine
 10
96.1675957906
 20
128.1448739779
 30
0.0
 11
96.1675957906
 21
143.2489270542
 31
0.0
  0
LINE
  5
86
330
1F
100
AcDbEntity
  8
0
  6
Continuous
 62
     7
370
    15
100
AcDbLine
 10
96.1675957906
 20
143.2489270542
 30
0.0
 11
130.4675952661
 21
144.1106630687
 31
0.0
  0
LINE
  5
87
330
1F
100
AcDbEntity
  8
0
  6
Continuous
 62
     7
370
    15
100
AcDbLine
 10
130.4675952661
 20
128.5757415195
 30
0.0
 11
130.4675952661
 21
144.1106630687
 31
0.0
  0
ARC
  5
88
330
1F
100
AcDbEntity
  8
0
  6
Continuous
 62
     7
370
    15
100
AcDbCircle
 10
130.6675321651
 20
144.1156852798
 30
0.0
 40
0.1999999999999782
100
AcDbArc
 50
181.4391666667
 51
271.4391666667
  0
LINE
  5
89
330
1F
100
AcDbEntity
  8
0
  6
Continuous
 62
     7
370
    15
100
AcDbLine
 10
96.1675957906
 20
100.932199714
 30
0.0
 11
96.1675957906
 21
116.0362527904
 31
0.0
  0
LINE
  5
8A
330
1F
100
AcDbEntity
  8
0
  6
Continuous
 62
     7
370
    15
100
AcDbLine
 10
130.4675952661
 20
100.0704636995
 30
0.0
 11
130.4675952661
 21
115.6053852488
 31
0.0
  0
LINE
  5
8B
330
1F
100
AcDbEntity
  8
0
  6
Continuous
 62
     7
370
    15
100
AcDbLine
 10
96.1675957906
 20
100.932199714
 30
0.0
 11
130.4675952661
 21
100.0704636995
 31
0.0
  0
ARC
  5
8C
330
1F
100
AcDbEntity
  8
0
  6
Continuous
 62
     7
370
    15
100
AcDbCircle
 10
130.6675321651
 20
100.0654414884
 30
0.0
 40
0.2000000000000066
100
AcDbArc
 50
88.5608333333
 51
178.5608333333
  0
LINE
  5
8D
330
1F
100
AcDbEntity
  8
0
  6
Continuous
 62
     7
370
    15
100
AcDbLine
 10
130.6725553832
 20
143.9157484297
 30
0.0
 11
131.8510829834
 21
143.945357037
 31
0.0
  0
LINE
  5
8E
330
1F
100
AcDbEntity
  8
0
  6
Continuous
 62
     7
370
    15
100
AcDbLine
 10
130.6725553832
 20
100.2653783385
 30
0.0
 11
131.8510829834
 21
100.2357697312
 31
0.0
  0
LINE
  5
8F
330
1F
100
AcDbEntity
  8
0
  6
Continuous
 62
     7
370
    15
100
AcDbLine
 10
94.6675964761
 20
101.7982254003
 30
0.0
 11
96.1675957906
 21
100.932199714
 31
0.0
  0
LINE
  5
90
330
1F
100
AcDbEntity
  8
0
  6
Continuous
 62
     7
370
    15
100
AcDbLine
 10
94.6675964761
 20
101.7982254003
 30
0.0
 11
94.6675964761
 21
116.4692656335
 31
0.0
  0
LINE
  5
91
330
1F
100
AcDbEntity
  8
0
  6
Continuous
 62
     7
370
    15
100
AcDbLine
 10
94.6675964761
 20
142.382901368
 30
0.0
 11
96.1675957906
 21
143.2489270542
 31
0.0
  0
LINE
  5
92
330
1F
100
AcDbEntity
  8
0
  6
Continuous
 62
     7
370
    15
100
AcDbLine
 10
94.6675964761
 20
127.7118611348
 30
0.0
 11
94.6675964761
 21
142.382901368
 31
0.0
  0
LINE
  5
93
330
1F
100
AcDbEntity
  8
0
  6
Continuous
 62
     7
370
    15
100
AcDbLine
 10
244.271555649
 20
141.868762878
 30
0.0
 11
246.2533802855
 21
141.868762878
 31
0.0
  0
SPLINE
  5
94
330
1F
100
AcDbEntity
  8
0
  6
Continuous
 62
     7
370
    15
100
AcDbSpline
210
0.0
220
0.0
230
1.0
 70
     8
 71
     3
 72
    14
 73
    10
 74
     0
 42
0.00000001
 43
0.00000001
 12
1.0
 22
0.0
 32
0.0
 13
1.0
 23
0.0
 33
0.0
 40
0.0
 40
0.0
 40
0.0
 40
0.0
 40
0.25
 40
0.25
 40
0.5
 40
0.5
 40
0.75
 40
0.75
 40
1.0
 40
1.0
 40
1.0
 40
1.0
 10
238.4760022243216
 20
140.6926068061555
 30
0.0
 10
238.6411250222181
 20
140.9300036629536
 30
0.0
 10
238.9007813325653
 20
141.1226830561285
 30
0.0
 10
239.6228963408131
 20
141.4386302789337
 30
0.0
 10
240.0655930755788
 20
141.5534835130518
 30
0.0
 10
241.1141418414317
 20
141.7271745054369
 30
0.0
 10
241.6933841774922
 20
141.781900731879
 30
0.0
 10
242.953637056113
 20
141.8534471337637
 30
0.0
 10
243.6043331643748
 20
141.868763803884
 30
0.0
 10
244.2715571820561
 20
141.868763803884
 30
0.0
  0
ELLIPSE
  5
95
330
1F
100
AcDbEntity
  8
0
  6
Continuous
 62
     7
370
    15
100
AcDbEllipse
 10
240.0918726482
 20
122.0905633841
 30
0.0
 11
0.4025701892336429
 21
19.99971074150079
 31
0.0
210
0.0
220
0.0
230
1.0
 40
0.2671959542
 41
0.381483695131254
 42
2.910491863059593
  0
SPLINE
  5
96
330
1F
100
AcDbEntity
  8
0
  6
Continuous
 62
     7
370
    15
100
AcDbSpline
210
0.0
220
0.0
230
1.0
 70
     8
 71
     3
 72
    16
 73
    12
 74
     0
 42
0.00000001
 43
0.00000001
 12
1.0
 22
0.0
 32
0.0
 13
1.0
 23
0.0
 33
0.0
 40
0.0
 40
0.0
 40
0.0
 40
0.0
 40
0.2499999999999999
 40
0.2499999999999999
 40
0.4999999999999999
 40
0.4999999999999999
 40
0.7499999999999998
 40
0.7499999999999998
 40
0.8749999999999999
 40
0.8749999999999999
 40
1.0
 40
1.0
 40
1.0
 40
1.0
 10
244.2715571820561
 20
102.0914547046461
 30
0.0
 10
243.6043312158748
 20
102.0914547046461
 30
0.0
 10
242.955555184486
 20
102.0915955844875
 30
0.0
 10
241.6949125074117
 20
102.1027670286636
 30
0.0
 10
241.1161653732359
 20
102.1137149500693
 30
0.0
 10
240.0678404618798
 20
102.1735866251514
 30
0.0
 10
239.6239528231237
 20
102.2214993510016
 30
0.0
 10
239.0829298647973
 20
102.3434841831164
 30
0.0
 10
238.9270612145029
 20
102.3919333980951
 30
0.0
 10
238.6652397989039
 20
102.505850898324
 30
0.0
 10
238.558567294212
 20
102.5714710645163
 30
0.0
 10
238.4760022243216
 20
102.6471856645353
 30
0.0
  0
LINE
  5
97
330
1F
100
AcDbEntity
  8
0
  6
Continuous
 62
     7
370
    15
100
AcDbLine
 10
246.2533802855
 20
102.0914541755
 30
0.0
 11
244.271555649
 21
102.0914541755
 31
0.0
  0
ELLIPSE
  5
98
330
1F
100
AcDbEntity
  8
0
  6
Continuous
 62
     7
370
    15
100
AcDbEllipse
 10
237.462536766
 20
110.6193349808
 30
0.0
 11
-0.1054591905750328
 21
2.770895234338923
 31
0.0
210
0.0
220
0.0
230
1.0
 40
0.2575917467
 41
0.0
 42
6.283185307179586
  0
SPLINE
  5
99
330
1F
100
AcDbEntity
  8
0
  6
Continuous
 62
     7
370
    15
100
AcDbSpline
210
0.0
220
0.0
230
1.0
 70
     8
 71
     3
 72
    10
 73
     6
 74
     0
 42
0.00000001
 43
0.00000001
 12
1.0
 22
0.0
 32
0.0
 13
1.0
 23
0.0
 33
0.0
 40
0.0
 40
0.0
 40
0.0
 40
0.0
 40
0.5
 40
0.5
 40
1.0
 40
1.0
 40
1.0
 40
1.0
 10
246.2533816918092
 20
141.868763803884
 30
0.0
 10
246.3854481587616
 20
141.868763803884
 30
0.0
 10
246.5150509435788
 20
141.8947804068704
 30
0.0
 10
246.7570372115385
 20
141.9950762325866
 30
0.0
 10
246.8672478472132
 20
142.0685522900241
 30
0.0
 10
246.960488472996
 20
142.1618502400408
 30
0.0
  0
SPLINE
  5
9A
330
1F
100
AcDbEntity
  8
0
  6
Continuous
 62
     7
370
    15
100
AcDbSpline
210
0.0
220
0.0
230
1.0
 70
     8
 71
     3
 72
    10
 73
     6
 74
     0
 42
0.00000001
 43
0.00000001
 12
1.0
 22
0.0
 32
0.0
 13
1.0
 23
0.0
 33
0.0
 40
0.0
 40
0.0
 40
0.0
 40
0.0
 40
0.5
 40
0.5
 40
1.0
 40
1.0
 40
1.0
 40
1.0
 10
246.9604884729957
 20
101.798368268489
 30
0.0
 10
246.867248925082
 20
101.8916651399741
 30
0.0
 10
246.7573554729712
 20
101.9649596658959
 30
0.0
 10
246.5153921840823
 20
102.0653472305544
 30
0.0
 10
246.3854549490777
 20
102.0914547046463
 30
0.0
 10
246.2533816918092
 20
102.0914547046463
 30
0.0
  0
LINE
  5
9B
330
1F
100
AcDbEntity
  8
0
  6
Continuous
 62
     7
370
    15
100
AcDbLine
 10
246.9604850876
 20
142.1618500922
 30
0.0
 11
247.1675963271
 21
142.3690786783
 31
0.0
  0
LINE
  5
9C
330
1F
100
AcDbEntity
  8
0
  6
Continuous
 62
     7
370
    15
100
AcDbLine
 10
247.1675963271
 20
142.3690786783
 30
0.0
 11
249.2995799649
 21
142.3690786783
 31
0.0
  0
LINE
  5
9D
330
1F
100
AcDbEntity
  8
0
  6
Continuous
 62
     7
370
    15
100
AcDbLine
 10
249.2995799649
 20
142.3690786783
 30
0.0
 11
270.9654511082
 21
111.5023747285
 31
0.0
  0
LINE
  5
9E
330
1F
100
AcDbEntity
  8
0
  6
Continuous
 62
     7
370
    15
100
AcDbLine
 10
270.9654511082
 20
111.5023747285
 30
0.0
 11
271.2821752894
 21
107.8911248793
 31
0.0
  0
ARC
  5
9F
330
1F
100
AcDbEntity
  8
0
  6
Continuous
 62
     7
370
    15
100
AcDbCircle
 10
260.0029872571
 20
107.747399861
 30
0.0
 40
2.097484353750592
100
AcDbArc
 50
26.942020047
 51
241.6658088837
  0
ELLIPSE
  5
A0
330
1F
100
AcDbEntity
  8
0
  6
Continuous
 62
     7
370
    15
100
AcDbEllipse
 10
186.8493868284
 20
127.9925720054
 30
0.0
 11
4096.488451942511
 21
-356.6522915817437
 31
0.0
210
0.0
220
0.0
230
1.0
 40
0.0060650906
 41
4.728679648101402
 42
4.730741061245586
  0
SPLINE
  5
A1
330
1F
100
AcDbEntity
  8
0
  6
Continuous
 62
     7
370
    15
100
AcDbSpline
210
0.0
220
0.0
230
1.0
 70
     8
 71
     3
 72
     8
 73
     4
 74
     0
 42
0.00000001
 43
0.00000001
 12
1.0
 22
0.0
 32
0.0
 13
1.0
 23
0.0
 33
0.0
 40
0.0
 40
0.0
 40
0.0
 40
0.0
 40
1.0
 40
1.0
 40
1.0
 40
1.0
 10
251.418125877793
 20
97.34044821124073
 30
0.0
 10
249.9319103773456
 20
98.82608673060197
 30
0.0
 10
248.4459571494058
 20
100.3119863275736
 30
0.0
 10
246.9604884729958
 20
101.798368268489
 30
0.0
  0
ELLIPSE
  5
A2
330
1F
100
AcDbEntity
  8
0
  6
Continuous
 62
     7
370
    15
100
AcDbEllipse
 10
263.3736072182
 20
122.0905633841
 30
0.0
 11
-14.61549449049071
 21
20.47670097187961
 31
0.0
210
0.0
220
0.0
230
1.0
 40
0.0668534593
 41
6.088373590627717
 42
6.235504004580413
  0
LINE
  5
A3
330
1F
100
AcDbEntity
  8
0
  6
Continuous
 62
     7
370
    15
100
AcDbLine
 10
247.1675963271
 20
142.5905639504
 30
0.0
 11
247.1675963271
 21
142.3690786783
 31
0.0
  0
ARC
  5
A4
330
1F
100
AcDbEntity
  8
0
  6
Continuous
 62
     7
370
    15
100
AcDbCircle
 10
259.9965826401
 20
108.0826408594
 30
0.0
 40
2.094795101062262
100
AcDbArc
 50
184.6243228653
 51
240.8636102294
  0
CIRCLE
  5
A5
330
1F
100
AcDbEntity
  8
0
  6
Continuous
 62
     7
370
    15
100
AcDbCircle
 10
265.6734957508
 20
102.1097637251
 30
0.0
 40
3.49369362450926
  0
CIRCLE
  5
A6
330
1F
100
AcDbEntity
  8
0
  6
Continuous
 62
     7
370
    15
100
AcDbCircle
 10
265.6720048395
 20
102.0748203661
 30
0.0
 40
2.629161994477806
  0
CIRCLE
  5
A7
330
1F
100
AcDbEntity
  8
0
  6
Continuous
 62
     7
370
    15
100
AcDbCircle
 10
265.6706346005
 20
102.0747575383
 30
0.0
 40
1.996566271159413
  0
SPLINE
  5
A8
330
1F
100
AcDbEntity
  8
0
  6
Continuous
 62
     7
370
    15
100
AcDbSpline
210
0.0
220
0.0
230
1.0
 70
     8
 71
     3
 72
    15
 73
    11
 74
     0
 42
0.00000001
 43
0.00000001
 12
1.0
 22
0.0
 32
0.0
 13
1.0
 23
0.0
 33
0.0
 40
0.0
 40
0.0
 40
0.0
 40
0.0
 40
0.1262454952582651
 40
0.2533620193678403
 40
0.3794122085415148
 40
0.5042720533833855
 40
0.6284498653683841
 40
0.7526327069341183
 40
0.8774864735851945
 40
1.0
 40
1.0
 40
1.0
 40
1.0
 10
266.0079539883131
 20
103.7492400233298
 30
0.0
 10
265.9925420709474
 20
103.7902545522975
 30
0.0
 10
265.9616119019294
 20
103.8725665893443
 30
0.0
 10
265.8655771400377
 20
103.9684567533029
 30
0.0
 10
265.745433932949
 20
104.0288622536821
 30
0.0
 10
265.6119092084568
 20
104.0460103978539
 30
0.0
 10
265.4807734865702
 20
104.0190630595326
 30
0.0
 10
265.3668705490906
 20
103.9511667160104
 30
0.0
 10
265.2794611486357
 20
103.8513962770432
 30
0.0
 10
265.2538629493739
 20
103.7695347448586
 30
0.0
 10
265.2411849367613
 20
103.7289912079125
 30
0.0
  0
SPLINE
  5
A9
330
1F
100
AcDbEntity
  8
0
  6
Continuous
 62
     7
370
    15
100
AcDbSpline
210
0.0
220
0.0
230
1.0
 70
     8
 71
     3
 72
    12
 73
     8
 74
     0
 42
0.00000001
 43
0.00000001
 12
1.0
 22
0.0
 32
0.0
 13
1.0
 23
0.0
 33
0.0
 40
0.0
 40
0.0
 40
0.0
 40
0.0
 40
0.2058746095627082
 40
0.4120967667607259
 40
0.6141670191043579
 40
0.8132963330179557
 40
1.0
 40
1.0
 40
1.0
 40
1.0
 10
265.2411849367613
 20
103.7289912079125
 30
0.0
 10
265.2182958354537
 20
103.656315641882
 30
0.0
 10
265.172478992556
 20
103.5108418224182
 30
0.0
 10
265.0158537228342
 20
103.3348467355769
 30
0.0
 10
264.8164374498031
 20
103.2186637357698
 30
0.0
 10
264.5955504361028
 20
103.1695441822595
 30
0.0
 10
264.4535558497839
 20
103.193539110392
 30
0.0
 10
264.3848450052733
 20
103.2051501993686
 30
0.0
  0
SPLINE
  5
AA
330
1F
100
AcDbEntity
  8
0
  6
Continuous
 62
     7
370
    15
100
AcDbSpline
210
0.0
220
0.0
230
1.0
 70
     8
 71
     3
 72
    15
 73
    11
 74
     0
 42
0.00000001
 43
0.00000001
 12
1.0
 22
0.0
 32
0.0
 13
1.0
 23
0.0
 33
0.0
 40
0.0
 40
0.0
 40
0.0
 40
0.0
 40
0.1268830689732175
 40
0.2540027630583381
 40
0.3800520782136221
 40
0.504902956435639
 40
0.6290866624674598
 40
0.7532739824267924
 40
0.8781279900677738
 40
1.0
 40
1.0
 40
1.0
 40
1.0
 10
264.3848450052733
 20
103.2051501993686
 30
0.0
 10
264.3409002915747
 20
103.2121215258124
 30
0.0
 10
264.2529289113774
 20
103.2260771795748
 30
0.0
 10
264.1206081748126
 20
103.1902646105071
 30
0.0
 10
264.0076726689928
 20
103.1161527512687
 30
0.0
 10
263.9260320838748
 20
103.0091356250003
 30
0.0
 10
263.8842608984253
 20
102.8824218605027
 30
0.0
 10
263.8870597177745
 20
102.7503977592839
 30
0.0
 10
263.9309981251317
 20
102.6258042277332
 30
0.0
 10
263.9899277208311
 20
102.563407554115
 30
0.0
 10
264.0190363991255
 20
102.5325862888843
 30
0.0
  0
SPLINE
  5
AB
330
1F
100
AcDbEntity
  8
0
  6
Continuous
 62
     7
370
    15
100
AcDbSpline
210
0.0
220
0.0
230
1.0
 70
     8
 71
     3
 72
    12
 73
     8
 74
     0
 42
0.00000001
 43
0.00000001
 12
1.0
 22
0.0
 32
0.0
 13
1.0
 23
0.0
 33
0.0
 40
0.0
 40
0.0
 40
0.0
 40
0.0
 40
0.205795283157456
 40
0.4120025415200825
 40
0.614056694040135
 40
0.813183295002384
 40
0.9999999999999999
 40
0.9999999999999999
 40
0.9999999999999999
 40
0.9999999999999999
 10
264.0190363991255
 20
102.5325862888843
 30
0.0
 10
264.0713625628916
 20
102.4768961823809
 30
0.0
 10
264.176119640551
 20
102.3654044850745
 30
0.0
 10
264.2517254178832
 20
102.1427801912291
 30
0.0
 10
264.2528357673909
 20
101.9123729117284
 30
0.0
 10
264.1838800784242
 20
101.6962602166395
 30
0.0
 10
264.0907262750148
 20
101.5847930351977
 30
0.0
 10
264.0456349718565
 20
101.5308371011764
 30
0.0
  0
SPLINE
  5
AC
330
1F
100
AcDbEntity
  8
0
  6
Continuous
 62
     7
370
    15
100
AcDbSpline
210
0.0
220
0.0
230
1.0
 70
     8
 71
     3
 72
    15
 73
    11
 74
     0
 42
0.00000001
 43
0.00000001
 12
1.0
 22
0.0
 32
0.0
 13
1.0
 23
0.0
 33
0.0
 40
0.0
 40
0.0
 40
0.0
 40
0.0
 40
0.1268053935804265
 40
0.2539257867351607
 40
0.3799858947779698
 40
0.5048357970017838
 40
0.6290201267651274
 40
0.7531989413728334
 40
0.8780496918411316
 40
1.0
 40
1.0
 40
1.0
 40
1.0
 10
264.0456349718565
 20
101.5308371011764
 30
0.0
 10
264.0172174968844
 20
101.4961485554932
 30
0.0
 10
263.960311954576
 20
101.4266852936825
 30
0.0
 10
263.9243524698045
 20
101.2939766133473
 30
0.0
 10
263.9316352528506
 20
101.1590308025921
 30
0.0
 10
263.9835015851489
 20
101.0348619433965
 30
0.0
 10
264.0728269958021
 20
100.9355378439772
 30
0.0
 10
264.1893876042157
 20
100.8722364756713
 30
0.0
 10
264.3204277765487
 20
100.8483752287524
 30
0.0
 10
264.4048803039684
 20
100.8685521209243
 30
0.0
 10
264.4466103184218
 20
100.8785220061093
 30
0.0
  0
SPLINE
  5
AD
330
1F
100
AcDbEntity
  8
0
  6
Continuous
 62
     7
370
    15
100
AcDbSpline
210
0.0
220
0.0
230
1.0
 70
     8
 71
     3
 72
    12
 73
     8
 74
     0
 42
0.00000001
 43
0.00000001
 12
1.0
 22
0.0
 32
0.0
 13
1.0
 23
0.0
 33
0.0
 40
0.0
 40
0.0
 40
0.0
 40
0.0
 40
0.2058444169095317
 40
0.4120532722011318
 40
0.6141085123777135
 40
0.8132405732289923
 40
1.0
 40
1.0
 40
1.0
 40
1.0
 10
264.4466103184218
 20
100.8785220061093
 30
0.0
 10
264.5218340157017
 20
100.896284977539
 30
0.0
 10
264.6724145904707
 20
100.9318423689489
 30
0.0
 10
264.9046180340665
 20
100.8864656288603
 30
0.0
 10
265.1051046742982
 20
100.772152722841
 30
0.0
 10
265.2570241587796
 20
100.6038390841114
 30
0.0
 10
265.3058962547167
 20
100.4668919583161
 30
0.0
 10
265.3295488226408
 20
100.4006138269454
 30
0.0
  0
SPLINE
  5
AE
330
1F
100
AcDbEntity
  8
0
  6
Continuous
 62
     7
370
    15
100
AcDbSpline
210
0.0
220
0.0
230
1.0
 70
     8
 71
     3
 72
    15
 73
    11
 74
     0
 42
0.00000001
 43
0.00000001
 12
1.0
 22
0.0
 32
0.0
 13
1.0
 23
0.0
 33
0.0
 40
0.0
 40
0.0
 40
0.0
 40
0.0
 40
0.1262579622956089
 40
0.2533807017845869
 40
0.379444370649277
 40
0.5043040635202288
 40
0.6284828873551156
 40
0.7526658117753966
 40
0.8775112423673868
 40
1.0
 40
1.0
 40
1.0
 40
1.0
 10
265.3295488226408
 20
100.4006138269454
 30
0.0
 10
265.3449667767371
 20
100.358666828428
 30
0.0
 10
265.3759082869435
 20
100.274485524304
 30
0.0
 10
265.4719392504535
 20
100.1765333846495
 30
0.0
 10
265.5920952003356
 20
100.1148531088893
 30
0.0
 10
265.7256240376555
 20
100.0972952593199
 30
0.0
 10
265.8567578016284
 20
100.1247232652309
 30
0.0
 10
265.9706624475878
 20
100.1939318825941
 30
0.0
 10
266.0580512027714
 20
100.2957418274265
 30
0.0
 10
266.0836436010205
 20
100.3794214788351
 30
0.0
 10
266.0963178741927
 20
100.4208626423627
 30
0.0
  0
SPLINE
  5
AF
330
1F
100
AcDbEntity
  8
0
  6
Continuous
 62
     7
370
    15
100
AcDbSpline
210
0.0
220
0.0
230
1.0
 70
     8
 71
     3
 72
    12
 73
     8
 74
     0
 42
0.00000001
 43
0.00000001
 12
1.0
 22
0.0
 32
0.0
 13
1.0
 23
0.0
 33
0.0
 40
0.0
 40
0.0
 40
0.0
 40
0.0
 40
0.2058700776514605
 40
0.4120880755505363
 40
0.6141718048484945
 40
0.8132993998449014
 40
1.0
 40
1.0
 40
1.0
 40
1.0
 10
266.0963178741927
 20
100.4208626423627
 30
0.0
 10
266.119206923447
 20
100.495140405701
 30
0.0
 10
266.1650237044284
 20
100.6438214617314
 30
0.0
 10
266.3216545012669
 20
100.8223934491503
 30
0.0
 10
266.5210748311806
 20
100.9383828840555
 30
0.0
 10
266.7419662319139
 20
100.9847858665539
 30
0.0
 10
266.8839617081147
 20
100.9577743886202
 30
0.0
 10
266.9526727068419
 20
100.9447036509067
 30
0.0
  0
SPLINE
  5
B0
330
1F
100
AcDbEntity
  8
0
  6
Continuous
 62
     7
370
    15
100
AcDbSpline
210
0.0
220
0.0
230
1.0
 70
     8
 71
     3
 72
    15
 73
    11
 74
     0
 42
0.00000001
 43
0.00000001
 12
1.0
 22
0.0
 32
0.0
 13
1.0
 23
0.0
 33
0.0
 40
0.0
 40
0.0
 40
0.0
 40
0.0
 40
0.1268664175323276
 40
0.253982362862698
 40
0.380026742295954
 40
0.5048700290897123
 40
0.6290493186468487
 40
0.7532348801526725
 40
0.878090994679529
 40
1.0
 40
1.0
 40
1.0
 40
1.0
 10
266.9526727068419
 20
100.9447036509067
 30
0.0
 10
266.9966123341843
 20
100.9367969477403
 30
0.0
 10
267.0845780117276
 20
100.9209679900721
 30
0.0
 10
267.2168942389135
 20
100.9547269887516
 30
0.0
 10
267.3298285431107
 20
101.0275513856409
 30
0.0
 10
267.4114729110777
 20
101.1341565289792
 30
0.0
 10
267.4532381120259
 20
101.2613356041352
 30
0.0
 10
267.4504574502877
 20
101.3946734210538
 30
0.0
 10
267.4065346932276
 20
101.5213192840838
 30
0.0
 10
267.3475878387275
 20
101.5855417129671
 30
0.0
 10
267.3184664118285
 20
101.6172694240361
 30
0.0
  0
SPLINE
  5
B1
330
1F
100
AcDbEntity
  8
0
  6
Continuous
 62
     7
370
    15
100
AcDbSpline
210
0.0
220
0.0
230
1.0
 70
     8
 71
     3
 72
    12
 73
     8
 74
     0
 42
0.00000001
 43
0.00000001
 12
1.0
 22
0.0
 32
0.0
 13
1.0
 23
0.0
 33
0.0
 40
0.0
 40
0.0
 40
0.0
 40
0.0
 40
0.2058315156130719
 40
0.4120766148557535
 40
0.6141715124895841
 40
0.813305880485106
 40
1.0
 40
1.0
 40
1.0
 40
1.0
 10
267.3184664118285
 20
101.6172694240361
 30
0.0
 10
267.2661344500352
 20
101.6745704544027
 30
0.0
 10
267.1613653742194
 20
101.7892876518683
 30
0.0
 10
267.0857566628472
 20
102.0145229607489
 30
0.0
 10
267.0846758440764
 20
102.2447754526947
 30
0.0
 10
267.1536665592816
 20
102.4581377656448
 30
0.0
 10
267.2468017300313
 20
102.5665556588365
 30
0.0
 10
267.2918678390974
 20
102.6190167490989
 30
0.0
  0
SPLINE
  5
B2
330
1F
100
AcDbEntity
  8
0
  6
Continuous
 62
     7
370
    15
100
AcDbSpline
210
0.0
220
0.0
230
1.0
 70
     8
 71
     3
 72
    15
 73
    11
 74
     0
 42
0.00000001
 43
0.00000001
 12
1.0
 22
0.0
 32
0.0
 13
1.0
 23
0.0
 33
0.0
 40
0.0
 40
0.0
 40
0.0
 40
0.0
 40
0.1267916908148569
 40
0.2538968547141754
 40
0.3799418029344545
 40
0.5047797320863691
 40
0.628957995529404
 40
0.7531465284686338
 40
0.8780037204599853
 40
1.0
 40
1.0
 40
1.0
 40
1.0
 10
267.2918678390974
 20
102.6190167490989
 30
0.0
 10
267.3202834975254
 20
102.6527670550964
 30
0.0
 10
267.3771850677553
 20
102.7203511095667
 30
0.0
 10
267.4131718124331
 20
102.8509974781528
 30
0.0
 10
267.4058765734196
 20
102.9846520239923
 30
0.0
 10
267.3540305004572
 20
103.1084121210368
 30
0.0
 10
267.2647162816284
 20
103.2082119168495
 30
0.0
 10
267.1481614211874
 20
103.2728440035221
 30
0.0
 10
267.01710671579
 20
103.2987557214808
 30
0.0
 10
266.9326375814682
 20
103.2804034804994
 30
0.0
 10
266.8908924925322
 20
103.271333706811
 30
0.0
  0
SPLINE
  5
B3
330
1F
100
AcDbEntity
  8
0
  6
Continuous
 62
     7
370
    15
100
AcDbSpline
210
0.0
220
0.0
230
1.0
 70
     8
 71
     3
 72
    12
 73
     8
 74
     0
 42
0.00000001
 43
0.00000001
 12
1.0
 22
0.0
 32
0.0
 13
1.0
 23
0.0
 33
0.0
 40
0.0
 40
0.0
 40
0.0
 40
0.0
 40
0.2058815726672866
 40
0.4121296963582877
 40
0.614215371364868
 40
0.8133465021167339
 40
1.0
 40
1.0
 40
1.0
 40
1.0
 10
266.8908924925322
 20
103.271333706811
 30
0.0
 10
266.8156587887557
 20
103.2551708607087
 30
0.0
 10
266.6650574353096
 20
103.2228163922144
 30
0.0
 10
266.4328269056116
 20
103.2707958978977
 30
0.0
 10
266.2323334496089
 20
103.3849607901189
 30
0.0
 10
266.0804421285155
 20
103.5505529034796
 30
0.0
 10
266.0315900186491
 20
103.68445460079
 30
0.0
 10
266.0079539883131
 20
103.7492400233298
 30
0.0
  0
LWPOLYLINE
  5
B4
330
1F
100
AcDbEntity
  8
0
  6
Continuous
 62
     7
370
    15
100
AcDbPolyline
 90
        3
 70
   128
 43
0.0
 10
267.4033732283
 20
102.9502863262
 10
267.3684151042
 20
102.840544862
 10
267.2918678391
 20
102.73407234
  0
ARC
  5
B5
330
1F
100
AcDbEntity
  8
0
  6
Continuous
 62
     7
370
    15
100
AcDbCircle
 10
264.2798574405
 20
102.9410276102
 30
0.0
 40
0.3925857482653659
100
AcDbArc
 50
187.1797368363
 51
228.3662133348
  0
ARC
  5
B6
330
1F
100
AcDbEntity
  8
0
  6
Continuous
 62
     7
370
    15
100
AcDbCircle
 10
267.7748764825
 20
102.2455451581
 30
0.0
 40
0.6869906528230176
100
AcDbArc
 50
134.6745507916
 51
179.9884991132
  0
ARC
  5
B7
330
1F
100
AcDbEntity
  8
0
  6
Continuous
 62
     7
370
    15
100
AcDbCircle
 10
263.5622348001
 20
102.1339459673
 30
0.0
 40
0.6873971434910341
100
AcDbArc
 50
0.0267648394
 51
48.3530997435
  0
ARC
  5
B8
330
1F
100
AcDbEntity
  8
0
  6
Continuous
 62
     7
370
    15
100
AcDbCircle
 10
267.0564457466
 20
101.4397170457
 30
0.0
 40
0.3938489061576102
100
AcDbArc
 50
254.7230854164
 51
354.1034815028
  0
ARC
  5
B9
330
1F
100
AcDbEntity
  8
0
  6
Continuous
 62
     7
370
    15
100
AcDbCircle
 10
264.3228929412
 20
101.3675536839
 30
0.0
 40
0.3939087495909871
100
AcDbArc
 50
186.9331774514
 51
288.305055997
  0
ARC
  5
BA
330
1F
100
AcDbEntity
  8
0
  6
Continuous
 62
     7
370
    15
100
AcDbCircle
 10
266.7712090946
 20
100.3945462153
 30
0.0
 40
0.6895448552624281
100
AcDbArc
 50
74.7420943192
 51
168.1668281664
  0
ARC
  5
BB
330
1F
100
AcDbEntity
  8
0
  6
Continuous
 62
     7
370
    15
100
AcDbCircle
 10
264.6629406382
 20
100.3386709504
 30
0.0
 40
0.6897111881390112
100
AcDbArc
 50
14.8716109927
 51
108.2795452166
  0
ARC
  5
BC
330
1F
100
AcDbEntity
  8
0
  6
Continuous
 62
     7
370
    15
100
AcDbCircle
 10
265.7105278482
 20
100.6168651598
 30
0.0
 40
0.3941850157097454
100
AcDbArc
 50
194.8728108332
 51
348.15400752
  0
ARC
  5
BD
330
1F
100
AcDbEntity
  8
0
  6
Continuous
 62
     7
370
    15
100
AcDbCircle
 10
265.6672240365
 20
102.1166591485
 30
0.0
 40
3.500004884552077
100
AcDbArc
 50
0.0991652067
 51
179.9008347933
  0
LINE
  5
BE
330
1F
100
AcDbEntity
  8
0
  6
Continuous
 62
     7
370
    15
100
AcDbLine
 10
272.6660759318
 20
95.5243671511
 30
0.0
 11
271.6129214633
 21
107.5326383312
 31
0.0
  0
ARC
  5
BF
330
1F
100
AcDbEntity
  8
0
  6
Continuous
 62
     7
370
    15
100
AcDbCircle
 10
272.2680363572
 20
95.4900372223
 30
0.0
 40
0.3995172673644812
100
AcDbArc
 50
264.9307701253
 51
4.9294206918
  0
LINE
  5
C0
330
1F
100
AcDbEntity
  8
0
  6
Continuous
 62
     7
370
    15
100
AcDbLine
 10
260.195145117
 20
96.1426703457
 30
0.0
 11
272.2327352631
 21
95.0920826022
 31
0.0
  0
ARC
  5
C1
330
1F
100
AcDbEntity
  8
0
  6
Continuous
 62
     7
370
    15
100
AcDbCircle
 10
260.2294773571
 20
96.5407059039
 30
0.0
 40
0.3995134644401666
100
AcDbArc
 50
185.069970831
 51
265.070199564
  0
LINE
  5
C2
330
1F
100
AcDbEntity
  8
0
  6
Continuous
 62
     7
370
    15
100
AcDbLine
 10
258.7783725131
 20
108.5136711795
 30
0.0
 11
259.8315269816
 21
96.5053999995
 31
0.0
  0
ARC
  5
C3
330
1F
100
AcDbEntity
  8
0
  6
Continuous
 62
     7
370
    15
100
AcDbCircle
 10
259.1763961876
 20
108.5480170472
 30
0.0
 40
0.3995027960903912
100
AcDbArc
 50
84.9282967112
 51
184.9318941059
  0
LINE
  5
C4
330
1F
100
AcDbEntity
  8
0
  6
Continuous
 62
     7
370
    15
100
AcDbLine
 10
271.2493033278
 20
107.8953679849
 30
0.0
 11
259.2117131817
 21
108.9459557284
 31
0.0
  0
ARC
  5
C5
330
1F
100
AcDbEntity
  8
0
  6
Continuous
 62
     7
370
    15
100
AcDbCircle
 10
271.2149692277
 20
107.4973305622
 30
0.0
 40
0.3995154819267565
100
AcDbArc
 50
5.0702136118
 51
85.0699567833
  0
ARC
  5
C6
330
1F
100
AcDbEntity
  8
0
  6
Continuous
 62
     7
370
    15
100
AcDbCircle
 10
259.1764282997
 20
108.5480282108
 30
0.0
 40
0.3795371737001151
100
AcDbArc
 50
84.9298940506
 51
184.9302060651
  0
LINE
  5
C7
330
1F
100
AcDbEntity
  8
0
  6
Continuous
 62
     7
370
    15
100
AcDbLine
 10
258.7982953656
 20
108.5154099588
 30
0.0
 11
259.8514498341
 21
96.5071378474
 31
0.0
  0
ARC
  5
C8
330
1F
100
AcDbEntity
  8
0
  6
Continuous
 62
     7
370
    15
100
AcDbCircle
 10
260.2294986868
 20
96.5406732755
 30
0.0
 40
0.3795333450265438
100
AcDbArc
 50
185.069245152
 51
265.068716275
  0
LINE
  5
C9
330
1F
100
AcDbEntity
  8
0
  6
Continuous
 62
     7
370
    15
100
AcDbLine
 10
260.1968736517
 20
96.1625447695
 30
0.0
 11
272.234478699
 21
95.111957026
 31
0.0
  0
ARC
  5
CA
330
1F
100
AcDbEntity
  8
0
  6
Continuous
 62
     7
370
    15
100
AcDbCircle
 10
272.268014873
 20
95.4900144736
 30
0.0
 40
0.3795419722093145
100
AcDbArc
 50
264.9307573355
 51
4.9293427802
  0
LINE
  5
CB
330
1F
100
AcDbEntity
  8
0
  6
Continuous
 62
     7
370
    15
100
AcDbLine
 10
272.6461530793
 20
95.5226274405
 30
0.0
 11
271.5929986107
 21
107.5308995519
 31
0.0
  0
ARC
  5
CC
330
1F
100
AcDbEntity
  8
0
  6
Continuous
 62
     7
370
    15
100
AcDbCircle
 10
271.2149527191
 20
107.4973656817
 30
0.0
 40
0.379530257866712
100
AcDbArc
 50
5.0690503849
 51
85.0713826514
  0
LINE
  5
CD
330
1F
100
AcDbEntity
  8
0
  6
Continuous
 62
     7
370
    15
100
AcDbLine
 10
271.2475598919
 20
107.8754926298
 30
0.0
 11
259.2099697459
 21
108.9260803734
 31
0.0
  0
LINE
  5
CE
330
1F
100
AcDbEntity
  8
0
  6
Continuous
 62
     7
370
    15
100
AcDbLine
 10
259.1768444645
 20
108.563753051
 30
0.0
 11
258.7982953656
 21
108.5154099588
 31
0.0
  0
LINE
  5
CF
330
1F
100
AcDbEntity
  8
0
  6
Continuous
 62
     7
370
    15
100
AcDbLine
 10
259.1768444645
 20
108.563753051
 30
0.0
 11
259.2099697459
 21
108.9260803734
 31
0.0
  0
LINE
  5
D0
330
1F
100
AcDbEntity
  8
0
  6
Continuous
 62
     7
370
    15
100
AcDbLine
 10
271.2144495118
 20
107.5131653075
 30
0.0
 11
271.2475598919
 21
107.8754926298
 31
0.0
  0
LINE
  5
D1
330
1F
100
AcDbEntity
  8
0
  6
Continuous
 62
     7
370
    15
100
AcDbLine
 10
270.6407548058
 20
106.9658987422
 30
0.0
 11
271.2144495118
 21
107.5131653075
 31
0.0
  0
LINE
  5
D2
330
1F
100
AcDbEntity
  8
0
  6
Continuous
 62
     7
370
    15
100
AcDbLine
 10
260.0958437788
 20
107.6806366642
 30
0.0
 11
259.1768444645
 21
108.563753051
 31
0.0
  0
LINE
  5
D3
330
1F
100
AcDbEntity
  8
0
  6
Continuous
 62
     7
370
    15
100
AcDbLine
 10
260.2299989331
 20
96.5554809396
 30
0.0
 11
259.8514498341
 21
96.5071378474
 31
0.0
  0
LINE
  5
D4
330
1F
100
AcDbEntity
  8
0
  6
Continuous
 62
     7
370
    15
100
AcDbLine
 10
260.803693639
 20
97.1528088872
 30
0.0
 11
260.2299989331
 21
96.5554809396
 31
0.0
  0
LINE
  5
D5
330
1F
100
AcDbEntity
  8
0
  6
Continuous
 62
     7
370
    15
100
AcDbLine
 10
271.2144495118
 20
107.5131653075
 30
0.0
 11
271.5929986107
 21
107.5308995519
 31
0.0
  0
LINE
  5
D6
330
1F
100
AcDbEntity
  8
0
  6
Continuous
 62
     7
370
    15
100
AcDbLine
 10
272.2675890791
 20
95.5048931961
 30
0.0
 11
272.6461530793
 21
95.5226274405
 31
0.0
  0
LINE
  5
D7
330
1F
100
AcDbEntity
  8
0
  6
Continuous
 62
     7
370
    15
100
AcDbLine
 10
271.3485897648
 20
96.4553004329
 30
0.0
 11
272.2675890791
 21
95.5048931961
 31
0.0
  0
ARC
  5
D8
330
1F
100
AcDbEntity
  8
0
  6
Continuous
 62
     7
370
    15
100
AcDbCircle
 10
262.0579072072
 20
105.6721884407
 30
0.0
 40
0.998791709640556
100
AcDbArc
 50
84.9302380086
 51
184.9295587684
  0
LINE
  5
D9
330
1F
100
AcDbEntity
  8
0
  6
Continuous
 62
     7
370
    15
100
AcDbLine
 10
268.8831777441
 20
106.0790961806
 30
0.0
 11
262.1461690533
 21
106.6670727183
 31
0.0
  0
ARC
  5
DA
330
1F
100
AcDbEntity
  8
0
  6
Continuous
 62
     7
370
    15
100
AcDbCircle
 10
268.7973394012
 20
105.0840157809
 30
0.0
 40
0.9987758622862717
100
AcDbArc
 50
5.069574883
 51
85.0697151525
  0
LINE
  5
DB
330
1F
100
AcDbEntity
  8
0
  6
Continuous
 62
     7
370
    15
100
AcDbLine
 10
270.3816236126
 20
98.4516760532
 30
0.0
 11
269.7922081816
 21
105.1722729777
 31
0.0
  0
ARC
  5
DC
330
1F
100
AcDbEntity
  8
0
  6
Continuous
 62
     7
370
    15
100
AcDbCircle
 10
269.3865370524
 20
98.3658402908
 30
0.0
 40
0.9987817781988141
100
AcDbArc
 50
264.9304284949
 51
4.9301069896
  0
LINE
  5
DD
330
1F
100
AcDbEntity
  8
0
  6
Continuous
 62
     7
370
    15
100
AcDbLine
 10
262.5612707007
 20
97.9589412187
 30
0.0
 11
269.2982793915
 21
97.3709656124
 31
0.0
  0
ARC
  5
DE
330
1F
100
AcDbEntity
  8
0
  6
Continuous
 62
     7
370
    15
100
AcDbCircle
 10
262.6471027593
 20
98.9540314855
 30
0.0
 40
0.9987851527602681
100
AcDbArc
 50
185.0699885836
 51
265.070122968
  0
LINE
  5
DF
330
1F
100
AcDbEntity
  8
0
  6
Continuous
 62
     7
370
    15
100
AcDbLine
 10
261.062809931
 20
105.5863613461
 30
0.0
 11
261.6522253621
 21
98.8657662843
 31
0.0
  0
CIRCLE
  5
E0
330
1F
100
AcDbEntity
  8
0
  6
Continuous
 62
     7
370
    15
100
AcDbCircle
 10
265.7246186542
 20
102.0126373445
 30
0.0
 40
3.796962736870918
  0
ARC
  5
E1
330
1F
100
AcDbEntity
  8
0
  6
Continuous
 62
     7
370
    15
100
AcDbCircle
 10
265.7222167718
 20
102.1060079897
 30
0.0
 40
3.800003300430919
100
AcDbArc
 50
180.1020742063
 51
359.8979257937
  0
SPLINE
  5
E2
330
1F
100
AcDbEntity
  8
0
  6
Continuous
 62
     7
370
    15
100
AcDbSpline
210
0.0
220
0.0
230
1.0
 70
     8
 71
     3
 72
    11
 73
     7
 74
     0
 42
0.00000001
 43
0.00000001
 12
1.0
 22
0.0
 32
0.0
 13
1.0
 23
0.0
 33
0.0
 40
0.0
 40
0.0
 40
0.0
 40
0.0
 40
0.0076315932276855
 40
0.3209937990291242
 40
0.6632144422837345
 40
0.9999999999999999
 40
0.9999999999999999
 40
0.9999999999999999
 40
0.9999999999999999
 10
260.5847806799406
 20
107.1876429219395
 30
0.0
 10
260.5836637256031
 20
107.1888189553355
 30
0.0
 10
260.5366833107055
 20
107.2382843050101
 30
0.0
 10
260.4326770863981
 20
107.3463797309472
 30
0.0
 10
260.2632102424722
 20
107.5179464849091
 30
0.0
 10
260.1513340969302
 20
107.6266967672465
 30
0.0
 10
260.0958437788481
 20
107.680636664167
 30
0.0
  0
SPLINE
  5
E3
330
1F
100
AcDbEntity
  8
0
  6
Continuous
 62
     7
370
    15
100
AcDbSpline
210
0.0
220
0.0
230
1.0
 70
     8
 71
     3
 72
    11
 73
     7
 74
     0
 42
0.00000001
 43
0.00000001
 12
1.0
 22
0.0
 32
0.0
 13
1.0
 23
0.0
 33
0.0
 40
0.0
 40
0.0
 40
0.0
 40
0.0
 40
0.0081127537511502
 40
0.3263741340892157
 40
0.6627634910897375
 40
1.0
 40
1.0
 40
1.0
 40
1.0
 10
270.1500893700118
 20
106.4729524974376
 30
0.0
 10
270.1512806291447
 20
106.4742097355086
 30
0.0
 10
270.1992046978302
 20
106.5247881210199
 30
0.0
 10
270.3047440078983
 20
106.6340859885317
 30
0.0
 10
270.4761652903545
 20
106.8069814920304
 30
0.0
 10
270.5858456559763
 20
106.9128819320205
 30
0.0
 10
270.6407548058028
 20
106.9658987422138
 30
0.0
  0
LINE
  5
E4
330
1F
100
AcDbEntity
  8
0
  6
Continuous
 62
     7
370
    15
100
AcDbLine
 10
272.2675890791
 20
95.5048931961
 30
0.0
 11
272.234478699
 21
95.111957026
 31
0.0
  0
LINE
  5
E5
330
1F
100
AcDbEntity
  8
0
  6
Continuous
 62
     7
370
    15
100
AcDbLine
 10
260.2299989331
 20
96.5554809396
 30
0.0
 11
260.1968736517
 21
96.1625447695
 31
0.0
  0
SPLINE
  5
E6
330
1F
100
AcDbEntity
  8
0
  6
Continuous
 62
     7
370
    15
100
AcDbSpline
210
0.0
220
0.0
230
1.0
 70
     8
 71
     3
 72
    11
 73
     7
 74
     0
 42
0.00000001
 43
0.00000001
 12
1.0
 22
0.0
 32
0.0
 13
1.0
 23
0.0
 33
0.0
 40
0.0
 40
0.0
 40
0.0
 40
0.0
 40
0.337226956094044
 40
0.6736356655348843
 40
0.9918867844087913
 40
0.9999999999999999
 40
0.9999999999999999
 40
0.9999999999999999
 40
0.9999999999999999
 10
260.8036936390395
 20
97.15280888719855
 30
0.0
 10
260.8585960336182
 20
97.2093299676962
 30
0.0
 10
260.9682676077411
 20
97.32223498608143
 30
0.0
 10
261.1397057419261
 20
97.49144017106687
 30
0.0
 10
261.2452329838185
 20
97.59251733142521
 30
0.0
 10
261.293152913834
 20
97.63766009857527
 30
0.0
 10
261.2943441736693
 20
97.63878231985865
 30
0.0
  0
SPLINE
  5
E7
330
1F
100
AcDbEntity
  8
0
  6
Continuous
 62
     7
370
    15
100
AcDbSpline
210
0.0
220
0.0
230
1.0
 70
     8
 71
     3
 72
    11
 73
     7
 74
     0
 42
0.00000001
 43
0.00000001
 12
1.0
 22
0.0
 32
0.0
 13
1.0
 23
0.0
 33
0.0
 40
0.0
 40
0.0
 40
0.0
 40
0.0
 40
0.3367754677211464
 40
0.6790155927519922
 40
0.9923676559880062
 40
1.0
 40
1.0
 40
1.0
 40
1.0
 10
271.3485897648329
 20
96.45530043287573
 30
0.0
 10
271.2931061060025
 20
96.51207276345556
 30
0.0
 10
271.1812384876642
 20
96.62653863581089
 30
0.0
 10
271.0117558954025
 20
96.7930066641667
 30
0.0
 10
270.9077591380247
 20
96.89258084612278
 30
0.0
 10
270.860784719233
 20
96.93672977324108
 30
0.0
 10
270.8596677649016
 20
96.93777954323588
 30
0.0
  0
SPLINE
  5
E8
330
1F
100
AcDbEntity
  8
0
  6
HIDDEN
 62
     7
370
     0
100
AcDbSpline
210
0.0
220
0.0
230
1.0
 70
    11
 71
     3
 72
    47
 73
    43
 74
     0
 42
0.00000001
 43
0.00000001
 12
1.0
 22
0.0
 32
0.0
 13
1.0
 23
0.0
 33
0.0
 40
0.0
 40
0.0
 40
0.0
 40
0.0
 40
0.0156133938040336
 40
0.0420393344833699
 40
0.0617665734486939
 40
0.0692325458948747
 40
0.0956582344168335
 40
0.1228484315936965
 40
0.1493072951149044
 40
0.1765321686063443
 40
0.2030117943179719
 40
0.2302613939350079
 40
0.2567046277606323
 40
0.2839169520867506
 40
0.3103233553189818
 40
0.3374945132028316
 40
0.3639211854678256
 40
0.3911115918720475
 40
0.4175839566659292
 40
0.4448238460418494
 40
0.4712961254645631
 40
0.4985386724492072
 40
0.5249652506940056
 40
0.552159510809133
 40
0.5785661443935673
 40
0.6057365962576949
 40
0.6321799093813995
 40
0.6593878474720868
 40
0.6858675617258772
 40
0.7131161462402504
 40
0.7395750131965982
 40
0.7668038641140985
 40
0.7932171334921823
 40
0.820396515670868
 40
0.8468105743965688
 40
0.8739880841065314
 40
0.9004480581993441
 40
0.9276740303753086
 40
0.9541534574930629
 40
0.9814027881144595
 40
0.9984088440220467
 40
1.0
 40
1.0
 40
1.0
 40
1.0
 10
142.678180443048
 20
121.8948253541151
 30
0.0
 10
142.6735279345767
 20
121.9599731421085
 30
0.0
 10
142.6610009745661
 20
122.1353846948229
 30
0.0
 10
142.6785140427495
 20
122.396247955983
 30
0.0
 10
142.7458112093348
 20
122.61083929603
 30
0.0
 10
142.7964224138333
 20
122.8296799615205
 30
0.0
 10
142.9115136079578
 20
123.0612396875015
 30
0.0
 10
143.0946170965738
 20
123.3422646763308
 30
0.0
 10
143.3289575723456
 20
123.5890277374467
 30
0.0
 10
143.5979172276223
 20
123.7917643279255
 30
0.0
 10
143.9002984936274
 20
123.9478174392804
 30
0.0
 10
144.2215697194419
 20
124.0499523164785
 30
0.0
 10
144.5584108468765
 20
124.0970944669977
 30
0.0
 10
144.8949862980949
 20
124.0871427409251
 30
0.0
 10
145.2279641188843
 20
124.0203183564777
 30
0.0
 10
145.5420288107889
 20
123.8998028464465
 30
0.0
 10
145.8341272171946
 20
123.726778511027
 30
0.0
 10
146.0909256540341
 20
123.5090801312031
 30
0.0
 10
146.3096842586479
 20
123.2488708830969
 30
0.0
 10
146.4802068833881
 20
122.9580786724608
 30
0.0
 10
146.6005930056488
 20
122.6398226751298
 30
0.0
 10
146.665188877239
 20
122.3090343286853
 30
0.0
 10
146.6734125101864
 20
121.9691788510301
 30
0.0
 10
146.6250125138002
 20
121.6361150125358
 30
0.0
 10
146.5205596503563
 20
121.3130792060223
 30
0.0
 10
146.3648916322279
 20
121.0148412013872
 30
0.0
 10
146.1595094593674
 20
120.7443709727031
 30
0.0
 10
145.9137057024301
 20
120.5140778551587
 30
0.0
 10
145.6300007797732
 20
120.3264944952125
 30
0.0
 10
145.3215236104225
 20
120.1904247830916
 30
0.0
 10
144.9915986319627
 20
120.1073453829103
 30
0.0
 10
144.6557360572386
 20
120.0811029703762
 30
0.0
 10
144.3173573686981
 20
120.1118443325467
 30
0.0
 10
143.9921384708858
 20
120.1980147687379
 30
0.0
 10
143.6832069488889
 20
120.3387198063757
 30
0.0
 10
143.4046786557259
 20
120.5275462252108
 30
0.0
 10
143.1593117383905
 20
120.7626499127047
 30
0.0
 10
142.9588711271816
 20
121.0333819406168
 30
0.0
 10
142.8040351099665
 20
121.336729035276
 30
0.0
 10
142.7192185865762
 20
121.6211716882523
 30
0.0
 10
142.6823995438032
 20
121.8104310602333
 30
0.0
 10
142.6785129735147
 20
121.8881737770226
 30
0.0
 10
142.678180443048
 20
121.8948253541151
 30
0.0
  0
SPLINE
  5
E9
330
1F
100
AcDbEntity
  8
0
  6
HIDDEN
 62
     7
370
     0
100
AcDbSpline
210
0.0
220
0.0
230
1.0
 70
     8
 71
     3
 72
    12
 73
     8
 74
     0
 42
0.00000001
 43
0.00000001
 12
1.0
 22
0.0
 32
0.0
 13
1.0
 23
0.0
 33
0.0
 40
0.0
 40
0.0
 40
0.0
 40
0.0
 40
0.2500000000000032
 40
0.2500000000000032
 40
0.5000000000000064
 40
0.5000000000000064
 40
1.0
 40
1.0
 40
1.0
 40
1.0
 10
143.1953520677488
 20
112.7024969527945
 30
0.0
 10
143.1322720292554
 20
112.7024969527945
 30
0.0
 10
143.073123407074
 20
112.6771326335796
 30
0.0
 10
142.9746508570049
 20
112.6029677732067
 30
0.0
 10
142.9356142450202
 20
112.5564474326525
 30
0.0
 10
142.8357177782411
 20
112.4063050898073
 30
0.0
 10
142.7932968971745
 20
112.2946118828351
 30
0.0
 10
142.7623393658565
 20
112.1811940634454
 30
0.0
  0
LINE
  5
EA
330
1F
100
AcDbEntity
  8
0
  6
HIDDEN
 62
     7
370
     0
100
AcDbLine
 10
146.1398384663
 20
112.7024965559
 30
0.0
 11
143.1953522506
 21
112.7024965559
 31
0.0
  0
SPLINE
  5
EB
330
1F
100
AcDbEntity
  8
0
  6
HIDDEN
 62
     7
370
     0
100
AcDbSpline
210
0.0
220
0.0
230
1.0
 70
     8
 71
     3
 72
    12
 73
     8
 74
     0
 42
0.00000001
 43
0.00000001
 12
1.0
 22
0.0
 32
0.0
 13
1.0
 23
0.0
 33
0.0
 40
0.0
 40
0.0
 40
0.0
 40
0.0
 40
0.4999999999999971
 40
0.4999999999999971
 40
0.7499999999999986
 40
0.7499999999999986
 40
1.0
 40
1.0
 40
1.0
 40
1.0
 10
146.5728511425081
 20
112.1811940634454
 30
0.0
 10
146.542128900589
 20
112.2937498628546
 30
0.0
 10
146.4992916860538
 20
112.4065077225942
 30
0.0
 10
146.399864661854
 20
112.5560486083905
 30
0.0
 10
146.3601124670374
 20
112.6033413400974
 30
0.0
 10
146.2620710101791
 20
112.6770776334188
 30
0.0
 10
146.2025149545917
 20
112.7024969527945
 30
0.0
 10
146.1398384406158
 20
112.7024969527945
 30
0.0
  0
ELLIPSE
  5
EC
330
1F
100
AcDbEntity
  8
0
  6
HIDDEN
 62
     7
370
     0
100
AcDbEllipse
 10
130.3204410648
 20
122.0905633841
 30
0.0
 11
-14.7536831606561
 21
31.09325491558119
 31
0.0
210
0.0
220
0.0
230
1.0
 40
0.3419987131
 41
3.300734856217127
 42
4.231496223360779
  0
SPLINE
  5
ED
330
1F
100
AcDbEntity
  8
0
  6
HIDDEN
 62
     7
370
     0
100
AcDbSpline
210
0.0
220
0.0
230
1.0
 70
     8
 71
     3
 72
    12
 73
     8
 74
     0
 42
0.00000001
 43
0.00000001
 12
1.0
 22
0.0
 32
0.0
 13
1.0
 23
0.0
 33
0.0
 40
0.0
 40
0.0
 40
0.0
 40
0.0
 40
0.2499999999999999
 40
0.2499999999999999
 40
0.4999999999999999
 40
0.4999999999999999
 40
1.0
 40
1.0
 40
1.0
 40
1.0
 10
146.1398384406158
 20
92.02207142525748
 30
0.0
 10
146.2029184791092
 20
92.02207142525748
 30
0.0
 10
146.2620671012906
 20
92.02997735146992
 30
0.0
 10
146.3605396513597
 20
92.05330251290617
 30
0.0
 10
146.3995762633444
 20
92.06801530273786
 30
0.0
 10
146.4994727301235
 20
92.1159711034688
 30
0.0
 10
146.5418936111901
 20
92.15223326004887
 30
0.0
 10
146.5728511425081
 20
92.18982092401336
 30
0.0
  0
LINE
  5
EE
330
1F
100
AcDbEntity
  8
0
  6
HIDDEN
 62
     7
370
     0
100
AcDbLine
 10
143.1953522506
 20
92.0220708673
 30
0.0
 11
146.1398384663
 21
92.0220708673
 31
0.0
  0
SPLINE
  5
EF
330
1F
100
AcDbEntity
  8
0
  6
HIDDEN
 62
     7
370
     0
100
AcDbSpline
210
0.0
220
0.0
230
1.0
 70
     8
 71
     3
 72
    12
 73
     8
 74
     0
 42
0.00000001
 43
0.00000001
 12
1.0
 22
0.0
 32
0.0
 13
1.0
 23
0.0
 33
0.0
 40
0.0
 40
0.0
 40
0.0
 40
0.0
 40
0.5
 40
0.5
 40
0.75
 40
0.75
 40
1.0
 40
1.0
 40
1.0
 40
1.0
 10
142.7623393658565
 20
92.18982092401335
 30
0.0
 10
142.7930616077756
 20
92.15251894106032
 30
0.0
 10
142.8358988223108
 20
92.11590710901392
 30
0.0
 10
142.9353258465106
 20
92.06814232572872
 30
0.0
 10
142.9750780413272
 20
92.05318481024634
 30
0.0
 10
143.0731194981854
 20
92.0299948644772
 30
0.0
 10
143.1326755537729
 20
92.0220714252575
 30
0.0
 10
143.1953520677488
 20
92.0220714252575
 30
0.0
  0
ELLIPSE
  5
F0
330
1F
100
AcDbEntity
  8
0
  6
HIDDEN
 62
     7
370
     0
100
AcDbEllipse
 10
159.0147494435
 20
122.0905633841
 30
0.0
 11
14.7536831606561
 21
31.09325491558119
 31
0.0
210
0.0
220
0.0
230
1.0
 40
0.3419987131
 41
2.051689083818819
 42
2.982450450962495
  0
SPLINE
  5
F1
330
1F
100
AcDbEntity
  8
0
  6
HIDDEN
 62
     7
370
     0
100
AcDbSpline
210
0.0
220
0.0
230
1.0
 70
     8
 71
     3
 72
    12
 73
     8
 74
     0
 42
0.00000001
 43
0.00000001
 12
1.0
 22
0.0
 32
0.0
 13
1.0
 23
0.0
 33
0.0
 40
0.0
 40
0.0
 40
0.0
 40
0.0
 40
0.2499999999999991
 40
0.2499999999999991
 40
0.4999999999999981
 40
0.4999999999999981
 40
1.0
 40
1.0
 40
1.0
 40
1.0
 10
143.1953520677488
 20
152.1590553430038
 30
0.0
 10
143.1322720292554
 20
152.1590553430038
 30
0.0
 10
143.073123407074
 20
152.1511494167913
 30
0.0
 10
142.9746508570049
 20
152.1278242553551
 30
0.0
 10
142.9356142450202
 20
152.1131114655234
 30
0.0
 10
142.8357177782411
 20
152.0651556647925
 30
0.0
 10
142.7932968971745
 20
152.0288935082124
 30
0.0
 10
142.7623393658565
 20
151.9913058442479
 30
0.0
  0
LINE
  5
F2
330
1F
100
AcDbEntity
  8
0
  6
HIDDEN
 62
     7
370
     0
100
AcDbLine
 10
146.1398384663
 20
152.159055901
 30
0.0
 11
143.1953522506
 21
152.159055901
 31
0.0
  0
SPLINE
  5
F3
330
1F
100
AcDbEntity
  8
0
  6
HIDDEN
 62
     7
370
     0
100
AcDbSpline
210
0.0
220
0.0
230
1.0
 70
     8
 71
     3
 72
    12
 73
     8
 74
     0
 42
0.00000001
 43
0.00000001
 12
1.0
 22
0.0
 32
0.0
 13
1.0
 23
0.0
 33
0.0
 40
0.0
 40
0.0
 40
0.0
 40
0.0
 40
0.4999999999999953
 40
0.4999999999999953
 40
0.7499999999999977
 40
0.7499999999999977
 40
1.0
 40
1.0
 40
1.0
 40
1.0
 10
146.5728511425081
 20
151.9913058442479
 30
0.0
 10
146.542128900589
 20
152.0286078272009
 30
0.0
 10
146.4992916860538
 20
152.0652196592474
 30
0.0
 10
146.399864661854
 20
152.1129844425326
 30
0.0
 10
146.3601124670374
 20
152.1279419580149
 30
0.0
 10
146.2620710101791
 20
152.1511319037841
 30
0.0
 10
146.2025149545917
 20
152.1590553430038
 30
0.0
 10
146.1398384406158
 20
152.1590553430038
 30
0.0
  0
ELLIPSE
  5
F4
330
1F
100
AcDbEntity
  8
0
  6
HIDDEN
 62
     7
370
     0
100
AcDbEllipse
 10
130.3204410648
 20
122.0905633841
 30
0.0
 11
14.75368316065621
 21
31.09325491558119
 31
0.0
210
0.0
220
0.0
230
1.0
 40
0.3419987131
 41
5.193281737408638
 42
6.124043104552343
  0
SPLINE
  5
F5
330
1F
100
AcDbEntity
  8
0
  6
HIDDEN
 62
     7
370
     0
100
AcDbSpline
210
0.0
220
0.0
230
1.0
 70
     8
 71
     3
 72
    12
 73
     8
 74
     0
 42
0.00000001
 43
0.00000001
 12
1.0
 22
0.0
 32
0.0
 13
1.0
 23
0.0
 33
0.0
 40
0.0
 40
0.0
 40
0.0
 40
0.0
 40
0.2499999999999999
 40
0.2499999999999999
 40
0.4999999999999999
 40
0.4999999999999999
 40
1.0
 40
1.0
 40
1.0
 40
1.0
 10
146.1398384406158
 20
131.478629815467
 30
0.0
 10
146.2029184791092
 20
131.478629815467
 30
0.0
 10
146.2620671012906
 20
131.503994134682
 30
0.0
 10
146.3605396513597
 20
131.5781589950549
 30
0.0
 10
146.3995762633444
 20
131.624679335609
 30
0.0
 10
146.4994727301235
 20
131.7748216784543
 30
0.0
 10
146.5418936111901
 20
131.8865148854264
 30
0.0
 10
146.5728511425081
 20
131.9999327048162
 30
0.0
  0
LINE
  5
F6
330
1F
100
AcDbEntity
  8
0
  6
HIDDEN
 62
     7
370
     0
100
AcDbLine
 10
143.1953522506
 20
131.4786302124
 30
0.0
 11
146.1398384663
 21
131.4786302124
 31
0.0
  0
SPLINE
  5
F7
330
1F
100
AcDbEntity
  8
0
  6
HIDDEN
 62
     7
370
     0
100
AcDbSpline
210
0.0
220
0.0
230
1.0
 70
     8
 71
     3
 72
    12
 73
     8
 74
     0
 42
0.00000001
 43
0.00000001
 12
1.0
 22
0.0
 32
0.0
 13
1.0
 23
0.0
 33
0.0
 40
0.0
 40
0.0
 40
0.0
 40
0.0
 40
0.5
 40
0.5
 40
0.75
 40
0.75
 40
1.0
 40
1.0
 40
1.0
 40
1.0
 10
142.7623393658565
 20
131.9999327048162
 30
0.0
 10
142.7930616077756
 20
131.887376905407
 30
0.0
 10
142.8358988223108
 20
131.7746190456674
 30
0.0
 10
142.9353258465106
 20
131.6250781598711
 30
0.0
 10
142.9750780413272
 20
131.5777854281642
 30
0.0
 10
143.0731194981854
 20
131.5040491348428
 30
0.0
 10
143.1326755537729
 20
131.478629815467
 30
0.0
 10
143.1953520677488
 20
131.478629815467
 30
0.0
  0
ELLIPSE
  5
F8
330
1F
100
AcDbEntity
  8
0
  6
HIDDEN
 62
     7
370
     0
100
AcDbEllipse
 10
159.0147494435
 20
122.0905633841
 30
0.0
 11
-14.75368316065624
 21
31.09325491558118
 31
0.0
210
0.0
220
0.0
230
1.0
 40
0.3419987131
 41
0.1591422026272826
 42
1.089903569770962
  0
LINE
  5
F9
330
1F
100
AcDbEntity
  8
0
  6
HIDDEN
 62
     7
370
     0
100
AcDbLine
 10
132.6675952542
 20
153.0905628775
 30
0.0
 11
132.6675952542
 21
91.0905638908
 31
0.0
  0
LINE
  5
FA
330
1F
100
AcDbEntity
  8
0
  6
HIDDEN
 62
     7
370
     0
100
AcDbLine
 10
154.667595135
 20
91.5905630414
 30
0.0
 11
154.667595135
 21
152.5905637269
 31
0.0
  0
LINE
  5
FB
330
1F
100
AcDbEntity
  8
0
  6
HIDDEN
 62
     7
370
     0
100
AcDbLine
 10
132.6675952542
 20
97.8405626689
 30
0.0
 11
132.6675952542
 21
146.315433291
 31
0.0
  0
SPLINE
  5
FC
330
1F
100
AcDbEntity
  8
0
  6
HIDDEN
 62
     7
370
     0
100
AcDbSpline
210
0.0
220
0.0
230
1.0
 70
     8
 71
     3
 72
    12
 73
     8
 74
     0
 42
0.00000001
 43
0.00000001
 12
1.0
 22
0.0
 32
0.0
 13
1.0
 23
0.0
 33
0.0
 40
0.0
 40
0.0
 40
0.0
 40
0.0
 40
0.4999999999999994
 40
0.4999999999999994
 40
0.7499999999999998
 40
0.7499999999999998
 40
1.0
 40
1.0
 40
1.0
 40
1.0
 10
131.8510829677353
 20
137.5428313659615
 30
0.0
 10
131.9074891464155
 20
137.4950089923016
 30
0.0
 10
131.9776520478873
 20
137.4547381453631
 30
0.0
 10
132.0956627612765
 20
137.4466922768862
 30
0.0
 10
132.135868544872
 20
137.453254875225
 30
0.0
 10
132.209589241605
 20
137.4806369696786
 30
0.0
 10
132.2424499633915
 20
137.500398460209
 30
0.0
 10
132.2726183653208
 20
137.523331171397
 30
0.0
  0
SPLINE
  5
FD
330
1F
100
AcDbEntity
  8
0
  6
HIDDEN
 62
     7
370
     0
100
AcDbSpline
210
0.0
220
0.0
230
1.0
 70
     8
 71
     3
 72
    16
 73
    12
 74
     0
 42
0.00000001
 43
0.00000001
 12
1.0
 22
0.0
 32
0.0
 13
1.0
 23
0.0
 33
0.0
 40
0.0
 40
0.0
 40
0.0
 40
0.0
 40
0.0625000000000007
 40
0.0625000000000007
 40
0.1250000000000013
 40
0.1250000000000013
 40
0.2500000000000026
 40
0.2500000000000026
 40
0.5000000000000052
 40
0.5000000000000052
 40
1.0
 40
1.0
 40
1.0
 40
1.0
 10
132.2726183652757
 20
137.5233311714451
 30
0.0
 10
132.284231265115
 20
137.5321587944265
 30
0.0
 10
132.2975824495475
 20
137.5399931763084
 30
0.0
 10
132.3269822891666
 20
137.5483033023808
 30
0.0
 10
132.3418230137219
 20
137.5478074831458
 30
0.0
 10
132.3776562216905
 20
137.5363565121764
 30
0.0
 10
132.3917694295122
 20
137.5196760113178
 30
0.0
 10
132.426260800731
 20
137.4675553255607
 30
0.0
 10
132.4373448718414
 20
137.4277658315357
 30
0.0
 10
132.4634676896374
 20
137.3044291994386
 30
0.0
 10
132.4675952541823
 20
137.21700778894
 30
0.0
 10
132.4675952541823
 20
137.1282705466217
 30
0.0
  0
LINE
  5
FE
330
1F
100
AcDbEntity
  8
0
  6
HIDDEN
 62
     7
370
     0
100
AcDbLine
 10
132.4675952592
 20
107.052856331
 30
0.0
 11
132.4675952592
 21
137.1282704373
 31
0.0
  0
SPLINE
  5
FF
330
1F
100
AcDbEntity
  8
0
  6
HIDDEN
 62
     7
370
     0
100
AcDbSpline
210
0.0
220
0.0
230
1.0
 70
     8
 71
     3
 72
    16
 73
    12
 74
     0
 42
0.00000001
 43
0.00000001
 12
1.0
 22
0.0
 32
0.0
 13
1.0
 23
0.0
 33
0.0
 40
0.0
 40
0.0
 40
0.0
 40
0.0
 40
0.500000000000004
 40
0.500000000000004
 40
0.7500000000000008
 40
0.7500000000000008
 40
0.8750000000000044
 40
0.8750000000000044
 40
0.9375000000000021
 40
0.9375000000000021
 40
1.0
 40
1.0
 40
1.0
 40
1.0
 10
132.4675952541823
 20
107.0528562216394
 30
0.0
 10
132.4675952541823
 20
106.9637298564507
 30
0.0
 10
132.4634489791044
 20
106.8768684888372
 30
0.0
 10
132.4374833837108
 20
106.7538862423432
 30
0.0
 10
132.4260224783334
 20
106.7131149471119
 30
0.0
 10
132.3917107405591
 20
106.6614106271122
 30
0.0
 10
132.3776860046294
 20
106.6447402605218
 30
0.0
 10
132.3416630415956
 20
106.633288040065
 30
0.0
 10
132.3269085325059
 20
106.63283499379
 30
0.0
 10
132.2975563713591
 20
106.6411503150061
 30
0.0
 10
132.284216496855
 20
106.6489792000844
 30
0.0
 10
132.2726183653066
 20
106.6577955968471
 30
0.0
  0
SPLINE
  5
100
330
1F
100
AcDbEntity
  8
0
  6
HIDDEN
 62
     7
370
     0
100
AcDbSpline
210
0.0
220
0.0
230
1.0
 70
     8
 71
     3
 72
    12
 73
     8
 74
     0
 42
0.00000001
 43
0.00000001
 12
1.0
 22
0.0
 32
0.0
 13
1.0
 23
0.0
 33
0.0
 40
0.0
 40
0.0
 40
0.0
 40
0.0
 40
0.2499999999999996
 40
0.2499999999999996
 40
0.4999999999999994
 40
0.4999999999999994
 40
1.0
 40
1.0
 40
1.0
 40
1.0
 10
132.2726183653137
 20
106.6577955968559
 30
0.0
 10
132.2424265235965
 20
106.6807461259538
 30
0.0
 10
132.2090675541819
 20
106.700715599978
 30
0.0
 10
132.1359302696013
 20
106.7278167336035
 30
0.0
 10
132.0956883969473
 20
106.7344174742489
 30
0.0
 10
131.9779826199788
 20
106.7264485997422
 30
0.0
 10
131.9075721421994
 20
106.6861881415743
 30
0.0
 10
131.8510829677311
 20
106.6382954022962
 30
0.0
  0
SPLINE
  5
101
330
1F
100
AcDbEntity
  8
0
  6
HIDDEN
 62
     7
370
     0
100
AcDbSpline
210
0.0
220
0.0
230
1.0
 70
     8
 71
     3
 72
    12
 73
     8
 74
     0
 42
0.00000001
 43
0.00000001
 12
1.0
 22
0.0
 32
0.0
 13
1.0
 23
0.0
 33
0.0
 40
0.0
 40
0.0
 40
0.0
 40
0.0
 40
0.2499999999999991
 40
0.2499999999999991
 40
0.4999999999999982
 40
0.4999999999999982
 40
1.0
 40
1.0
 40
1.0
 40
1.0
 10
131.8510829677308
 20
106.6382954022964
 30
0.0
 10
131.762929029993
 20
106.5635565944423
 30
0.0
 10
131.7025756053643
 20
106.4725760939599
 30
0.0
 10
131.5963136472974
 20
106.2836622712073
 30
0.0
 10
131.5540814807354
 20
106.1871578116667
 30
0.0
 10
131.4430107854182
 20
105.8963900574996
 30
0.0
 10
131.3900740089914
 20
105.7007232429559
 30
0.0
 10
131.3462749106226
 20
105.5066567578896
 30
0.0
  0
SPLINE
  5
102
330
1F
100
AcDbEntity
  8
0
  6
HIDDEN
 62
     7
370
     0
100
AcDbSpline
210
0.0
220
0.0
230
1.0
 70
     8
 71
     3
 72
    12
 73
     8
 74
     0
 42
0.00000001
 43
0.00000001
 12
1.0
 22
0.0
 32
0.0
 13
1.0
 23
0.0
 33
0.0
 40
0.0
 40
0.0
 40
0.0
 40
0.0
 40
0.5
 40
0.5
 40
0.75
 40
0.75
 40
1.0
 40
1.0
 40
1.0
 40
1.0
 10
131.3462749106226
 20
100.3204824291285
 30
0.0
 10
131.3900214514592
 20
100.2938882584873
 30
0.0
 10
131.4429058066907
 20
100.2741280331616
 30
0.0
 10
131.5544728940269
 20
100.2536770429325
 30
0.0
 10
131.5970564905699
 20
100.248416818276
 30
0.0
 10
131.7019732176517
 20
100.2405340243534
 30
0.0
 10
131.7635068254965
 20
100.2379698991742
 30
0.0
 10
131.8510829677226
 20
100.2357696816546
 30
0.0
  0
LINE
  5
103
330
1F
100
AcDbEntity
  8
0
  6
HIDDEN
 62
     7
370
     0
100
AcDbLine
 10
132.4675952592
 20
99.5507428621
 30
0.0
 11
132.4675952592
 21
100.0309681718
 31
0.0
  0
LINE
  5
104
330
1F
100
AcDbEntity
  8
0
  6
HIDDEN
 62
     7
370
     0
100
AcDbLine
 10
132.4675952592
 20
144.1501585965
 30
0.0
 11
132.4675952592
 21
144.6303839062
 31
0.0
  0
SPLINE
  5
105
330
1F
100
AcDbEntity
  8
0
  6
HIDDEN
 62
     7
370
     0
100
AcDbSpline
210
0.0
220
0.0
230
1.0
 70
     8
 71
     3
 72
    12
 73
     8
 74
     0
 42
0.00000001
 43
0.00000001
 12
1.0
 22
0.0
 32
0.0
 13
1.0
 23
0.0
 33
0.0
 40
0.0
 40
0.0
 40
0.0
 40
0.0
 40
0.2499999999999999
 40
0.2499999999999999
 40
0.4999999999999999
 40
0.4999999999999999
 40
1.0
 40
1.0
 40
1.0
 40
1.0
 10
131.8510829677306
 20
143.9453570866065
 30
0.0
 10
131.7623983078742
 20
143.9431290192655
 30
0.0
 10
131.7024798921508
 20
143.9406272352352
 30
0.0
 10
131.5968206648301
 20
143.9326957993991
 30
0.0
 10
131.5541794267152
 20
143.9274036445023
 30
0.0
 10
131.4429900846126
 20
143.9069987040152
 30
0.0
 10
131.3900634024916
 20
143.8872640124283
 30
0.0
 10
131.3462749106226
 20
143.8606443391327
 30
0.0
  0
SPLINE
  5
106
330
1F
100
AcDbEntity
  8
0
  6
HIDDEN
 62
     7
370
     0
100
AcDbSpline
210
0.0
220
0.0
230
1.0
 70
     8
 71
     3
 72
    12
 73
     8
 74
     0
 42
0.00000001
 43
0.00000001
 12
1.0
 22
0.0
 32
0.0
 13
1.0
 23
0.0
 33
0.0
 40
0.0
 40
0.0
 40
0.0
 40
0.0
 40
0.5
 40
0.5
 40
0.75
 40
0.75
 40
1.0
 40
1.0
 40
1.0
 40
1.0
 10
131.3462749106211
 20
138.6744700103718
 30
0.0
 10
131.3900363869198
 20
138.4805702224097
 30
0.0
 10
131.4429427025729
 20
138.2847138584729
 30
0.0
 10
131.5546539002202
 20
137.9925717119739
 30
0.0
 10
131.5971733438066
 20
137.895853775276
 30
0.0
 10
131.702296686374
 20
137.7091293388515
 30
0.0
 10
131.7638626500917
 20
137.6167786305818
 30
0.0
 10
131.8510829677345
 20
137.5428313659621
 30
0.0
  0
LINE
  5
107
330
1F
100
AcDbEntity
  8
0
  6
HIDDEN
 62
     7
370
     0
100
AcDbLine
 10
154.667595135
 20
98.0905631755
 30
0.0
 11
154.667595135
 21
146.0905635927
 31
0.0
  0
LINE
  5
108
330
1F
100
AcDbEntity
  8
0
  6
HIDDEN
 62
     7
370
     0
100
AcDbLine
 10
132.4675952592
 20
100.0309681718
 30
0.0
 11
132.4675952592
 21
115.0686761562
 31
0.0
  0
LINE
  5
109
330
1F
100
AcDbEntity
  8
0
  6
HIDDEN
 62
     7
370
     0
100
AcDbLine
 10
132.4675952592
 20
129.112450612
 30
0.0
 11
132.4675952592
 21
144.1501585965
 31
0.0
  0
SPLINE
  5
10A
330
1F
100
AcDbEntity
  8
0
  6
HIDDEN
 62
     7
370
     0
100
AcDbSpline
210
0.0
220
0.0
230
1.0
 70
     8
 71
     3
 72
    70
 73
    66
 74
     0
 42
0.00000001
 43
0.00000001
 12
1.0
 22
0.0
 32
0.0
 13
1.0
 23
0.0
 33
0.0
 40
-0.03125
 40
-0.03125
 40
0.0
 40
0.0
 40
0.03125
 40
0.03125
 40
0.0625
 40
0.0625
 40
0.09375
 40
0.09375
 40
0.125
 40
0.125
 40
0.15625
 40
0.15625
 40
0.1875
 40
0.1875
 40
0.21875
 40
0.21875
 40
0.25
 40
0.25
 40
0.28125
 40
0.28125
 40
0.3125
 40
0.3125
 40
0.34375
 40
0.34375
 40
0.375
 40
0.375
 40
0.40625
 40
0.40625
 40
0.4375
 40
0.4375
 40
0.46875
 40
0.46875
 40
0.5
 40
0.5
 40
0.53125
 40
0.53125
 40
0.5625
 40
0.5625
 40
0.59375
 40
0.59375
 40
0.625
 40
0.625
 40
0.65625
 40
0.65625
 40
0.6875
 40
0.6875
 40
0.71875
 40
0.71875
 40
0.75
 40
0.75
 40
0.78125
 40
0.78125
 40
0.8125
 40
0.8125
 40
0.84375
 40
0.84375
 40
0.875
 40
0.875
 40
0.90625
 40
0.90625
 40
0.9375
 40
0.9375
 40
0.96875
 40
0.96875
 40
1.0
 40
1.0
 40
1.03125
 40
1.03125
 10
229.4691005820139
 20
131.2862133607523
 30
0.0
 10
229.8660899263508
 20
131.2862133607522
 30
0.0
 10
230.0612107895145
 20
131.3037493243684
 30
0.0
 10
230.444998522428
 20
131.3722126886984
 30
0.0
 10
230.6356752314197
 20
131.423985886555
 30
0.0
 10
230.998835749365
 20
131.5582729367285
 30
0.0
 10
231.1710337390719
 20
131.6401661281346
 30
0.0
 10
231.4969245628208
 20
131.8323680113069
 30
0.0
 10
231.6510058759212
 20
131.9435278275045
 30
0.0
 10
231.9272934040563
 20
132.1844229483598
 30
0.0
 10
232.0513754993001
 20
132.3150646889023
 30
0.0
 10
232.2706980430371
 20
132.5964109702441
 30
0.0
 10
232.3637232719661
 20
132.7446863964416
 30
0.0
 10
232.5134357572384
 20
133.0488377497318
 30
0.0
 10
232.5711841843157
 20
133.206963994078
 30
0.0
 10
232.6483601219228
 20
133.5270299462701
 30
0.0
 10
232.6674838918364
 20
133.6863549465016
 30
0.0
 10
232.6677056559463
 20
134.0034351020578
 30
0.0
 10
232.6481663002185
 20
134.1627566955471
 30
0.0
 10
232.5715171362864
 20
134.4675696238455
 30
0.0
 10
232.5148079736024
 20
134.6141124000118
 30
0.0
 10
232.364345394835
 20
134.895957460927
 30
0.0
 10
232.2705342257009
 20
135.0303452426386
 30
0.0
 10
232.0535539390551
 20
135.2771118237748
 30
0.0
 10
231.9293517582118
 20
135.3912578966627
 30
0.0
 10
231.6498733349456
 20
135.5999809843566
 30
0.0
 10
231.4986779639276
 20
135.6916086684489
 30
0.0
 10
231.1741096002706
 20
135.8513345662272
 30
0.0
 10
230.9986120769905
 20
135.9199762520208
 30
0.0
 10
230.6356340210254
 20
136.0294135762189
 30
0.0
 10
230.4486500881987
 20
136.0705044067995
 30
0.0
 10
230.0636868902488
 20
136.1260853049166
 30
0.0
 10
229.8646673704085
 20
136.1402608838635
 30
0.0
 10
229.4728325810792
 20
136.1403694501998
 30
0.0
 10
229.2779174363938
 20
136.1267593441119
 30
0.0
 10
228.8901430590574
 20
136.0712701142124
 30
0.0
 10
228.7010564450314
 20
136.0297289969329
 30
0.0
 10
228.3398961751852
 20
135.9211115475831
 30
0.0
 10
228.1650819188168
 20
135.8531189145835
 30
0.0
 10
227.837596695232
 20
135.6923239733275
 30
0.0
 10
227.6866807492752
 20
135.6007226304289
 30
0.0
 10
227.4098789997997
 20
135.394546640379
 30
0.0
 10
227.2831794474213
 20
135.2786671937789
 30
0.0
 10
227.0654765967492
 20
135.0314753225862
 30
0.0
 10
226.9731495664107
 20
134.8995530845951
 30
0.0
 10
226.8220329090642
 20
134.6179062556052
 30
0.0
 10
226.7641645904901
 20
134.4688703555524
 30
0.0
 10
226.6874736523497
 20
134.165188750839
 30
0.0
 10
226.6677641382801
 20
134.0087298446671
 30
0.0
 10
226.667428518614
 20
133.6879147166597
 30
0.0
 10
226.6867302221375
 20
133.5283777407845
 30
0.0
 10
226.7627741697724
 20
133.2111577720017
 30
0.0
 10
226.8204973149656
 20
133.0517522727839
 30
0.0
 10
226.9707560644798
 20
132.7457759184159
 30
0.0
 10
227.0627506717185
 20
132.5991066890398
 30
0.0
 10
227.280328740788
 20
132.3190864532067
 30
0.0
 10
227.406649818833
 20
132.1856628905517
 30
0.0
 10
227.6826599680126
 20
131.9447062714436
 30
0.0
 10
227.8334351784097
 20
131.8355285243739
 30
0.0
 10
228.1614648257147
 20
131.6414493713394
 30
0.0
 10
228.3351409477443
 20
131.5588856409185
 30
0.0
 10
228.6958769090519
 20
131.4251695775677
 30
0.0
 10
228.8853110798235
 20
131.3732652890359
 30
0.0
 10
229.2729585773652
 20
131.3037523305058
 30
0.0
 10
229.4691005820139
 20
131.2862133607523
 30
0.0
 10
229.8660899263508
 20
131.2862133607522
 30
0.0
  0
CIRCLE
  5
10B
330
1F
100
AcDbEntity
  8
0
  6
HIDDEN
 62
     7
370
     0
100
AcDbCircle
 10
117.1675952542
 20
122.0905633841
 30
0.0
 40
4.049999999999997
  0
LINE
  5
10C
330
1F
100
AcDbEntity
  8
0
  6
HIDDEN
 62
     7
370
     0
100
AcDbLine
 10
96.1978227961
 20
137.4035144423
 30
0.0
 11
96.1978227961
 21
106.777612326
 31
0.0
  0
LINE
  5
10D
330
1F
100
AcDbEntity
  8
0
  6
HIDDEN
 62
     7
370
     0
100
AcDbLine
 10
94.6675964761
 20
105.8941336547
 30
0.0
 11
94.6675964761
 21
138.2869931136
 31
0.0
  0
LINE
  5
10E
330
1F
100
AcDbEntity
  8
0
  6
HIDDEN
 62
     7
370
     0
100
AcDbLine
 10
102.6978229302
 20
136.4369739045
 30
0.0
 11
102.6978229302
 21
107.7441528638
 31
0.0
  0
LINE
  5
10F
330
1F
100
AcDbEntity
  8
0
  6
HIDDEN
 62
     7
370
     0
100
AcDbLine
 10
108.4978242534
 20
136.0905638163
 30
0.0
 11
108.4978242534
 21
108.090562952
 31
0.0
  0
LINE
  5
110
330
1F
100
AcDbEntity
  8
0
  6
HIDDEN
 62
     7
370
     0
100
AcDbLine
 10
101.0978237855
 20
136.0905638163
 30
0.0
 11
101.0978237855
 21
108.090562952
 31
0.0
  0
SPLINE
  5
111
330
1F
100
AcDbEntity
  8
0
  6
HIDDEN
 62
     7
370
     0
100
AcDbSpline
210
0.0
220
0.0
230
1.0
 70
     8
 71
     3
 72
    60
 73
    56
 74
     0
 42
0.00000001
 43
0.00000001
 12
1.0
 22
0.0
 32
0.0
 13
1.0
 23
0.0
 33
0.0
 40
-0.031250000000002
 40
-0.031250000000002
 40
0.0
 40
0.0
 40
0.0312499999999998
 40
0.0312499999999998
 40
0.0624999999999997
 40
0.0624999999999997
 40
0.1249999999999971
 40
0.1249999999999971
 40
0.1562499999999966
 40
0.1562499999999966
 40
0.1874999999999962
 40
0.1874999999999962
 40
0.2187499999999958
 40
0.2187499999999958
 40
0.2499999999999953
 40
0.2499999999999953
 40
0.3124999999999945
 40
0.3124999999999945
 40
0.3749999999999936
 40
0.3749999999999936
 40
0.4062499999999922
 40
0.4062499999999922
 40
0.437499999999991
 40
0.437499999999991
 40
0.4687499999999896
 40
0.4687499999999896
 40
0.4999999999999883
 40
0.4999999999999883
 40
0.531249999999987
 40
0.531249999999987
 40
0.5624999999999857
 40
0.5624999999999857
 40
0.6249999999999855
 40
0.6249999999999855
 40
0.6562499999999861
 40
0.6562499999999861
 40
0.6874999999999869
 40
0.6874999999999869
 40
0.7187499999999876
 40
0.7187499999999876
 40
0.7499999999999882
 40
0.7499999999999882
 40
0.7812499999999889
 40
0.7812499999999889
 40
0.8124999999999895
 40
0.8124999999999895
 40
0.8749999999999919
 40
0.8749999999999919
 40
0.9062499999999939
 40
0.9062499999999939
 40
0.937499999999996
 40
0.937499999999996
 40
0.968749999999998
 40
0.968749999999998
 40
1.0
 40
1.0
 40
1.03125
 40
1.03125
 10
229.4980676576118
 20
118.0478430899365
 30
0.0
 10
229.8371228507529
 20
118.0478430899365
 30
0.0
 10
230.0027206984605
 20
118.054247320039
 30
0.0
 10
230.3268407751331
 20
118.0801831007352
 30
0.0
 10
230.4866508394587
 20
118.100110920991
 30
0.0
 10
230.9359924420001
 20
118.1812724550061
 30
0.0
 10
231.2056751817755
 20
118.2653670878392
 30
0.0
 10
231.543859970533
 20
118.4469118218163
 30
0.0
 10
231.6474264041569
 20
118.5177970648561
 30
0.0
 10
231.8278778664568
 20
118.6786654379969
 30
0.0
 10
231.9049998327192
 20
118.7683103726914
 30
0.0
 10
232.0324177175263
 20
118.9693895809998
 30
0.0
 10
232.0828819103274
 20
119.0824800901219
 30
0.0
 10
232.1497233230099
 20
119.3225077280926
 30
0.0
 10
232.1670415245589
 20
119.4501405747921
 30
0.0
 10
232.1686639164923
 20
119.8576439730004
 30
0.0
 10
232.1001759459487
 20
120.1532872220246
 30
0.0
 10
231.8461256395778
 20
120.7266863649525
 30
0.0
 10
231.6615427402225
 20
121.0048937421641
 30
0.0
 10
231.3241742697994
 20
121.3689744579073
 30
0.0
 10
231.2001851008326
 20
121.4830174646913
 30
0.0
 10
230.9340163556151
 20
121.6874950814996
 30
0.0
 10
230.7934796747911
 20
121.7769782220415
 30
0.0
 10
230.495821339493
 20
121.9270663430858
 30
0.0
 10
230.3363539619506
 20
121.9881466902656
 30
0.0
 10
230.0107365778169
 20
122.0704606935898
 30
0.0
 10
229.8447695954299
 20
122.0922630947103
 30
0.0
 10
229.5059363493668
 20
122.0935632611327
 30
0.0
 10
229.3389456705316
 20
122.0728683365977
 30
0.0
 10
229.0133207567409
 20
121.9929569655244
 30
0.0
 10
228.8531895841838
 20
121.9329358051847
 30
0.0
 10
228.4024844248255
 20
121.7088436255536
 30
0.0
 10
228.1322259236747
 20
121.4980741489918
 30
0.0
 10
227.7925111947729
 20
121.1339820712693
 30
0.0
 10
227.6885525508975
 20
121.0024766051271
 30
0.0
 10
227.5082434582759
 20
120.7326737106954
 30
0.0
 10
227.4308097496833
 20
120.5934733360764
 30
0.0
 10
227.3025608948388
 20
120.3073492337418
 30
0.0
 10
227.252245603922
 20
120.1602517870844
 30
0.0
 10
227.1854973574306
 20
119.8749840224577
 30
0.0
 10
227.1680238482344
 20
119.734814493841
 30
0.0
 10
227.167182065704
 20
119.4601844022931
 30
0.0
 10
227.1839421632359
 20
119.3308376611732
 30
0.0
 10
227.2496943067398
 20
119.0891868739278
 30
0.0
 10
227.2995491675134
 20
118.97562934433
 30
0.0
 10
227.4905139530809
 20
118.6708950798886
 30
0.0
 10
227.6758100860508
 20
118.5093424261144
 30
0.0
 10
228.0146989868706
 20
118.3267977242412
 30
0.0
 10
228.1398809092739
 20
118.2747773977688
 30
0.0
 10
228.4058160452471
 20
118.1889254761024
 30
0.0
 10
228.5466716286459
 20
118.1547240797687
 30
0.0
 10
228.8463382251301
 20
118.1004211013402
 30
0.0
 10
229.0067164072648
 20
118.0803522603498
 30
0.0
 10
229.3314535473134
 20
118.0542904904901
 30
0.0
 10
229.4980676576118
 20
118.0478430899365
 30
0.0
 10
229.8371228507529
 20
118.0478430899365
 30
0.0
  0
SPLINE
  5
112
330
1F
100
AcDbEntity
  8
0
  6
HIDDEN
 62
     7
370
     0
100
AcDbSpline
210
0.0
220
0.0
230
1.0
 70
     8
 71
     3
 72
    10
 73
     6
 74
     0
 42
0.00000001
 43
0.00000001
 12
1.0
 22
0.0
 32
0.0
 13
1.0
 23
0.0
 33
0.0
 40
0.0
 40
0.0
 40
0.0
 40
0.0
 40
0.5
 40
0.5
 40
1.0
 40
1.0
 40
1.0
 40
1.0
 10
228.917187300057
 20
112.6083764418477
 30
0.0
 10
228.8806263648074
 20
112.5064813618822
 30
0.0
 10
228.854930886772
 20
112.4011454287495
 30
0.0
 10
228.8282114139885
 20
112.1803687418757
 30
0.0
 10
228.8274199234963
 20
112.0655680399099
 30
0.0
 10
228.8380522119482
 20
111.948310226743
 30
0.0
  0
SPLINE
  5
113
330
1F
100
AcDbEntity
  8
0
  6
HIDDEN
 62
     7
370
     0
100
AcDbSpline
210
0.0
220
0.0
230
1.0
 70
     8
 71
     3
 72
    20
 73
    16
 74
     0
 42
0.00000001
 43
0.00000001
 12
1.0
 22
0.0
 32
0.0
 13
1.0
 23
0.0
 33
0.0
 40
0.0
 40
0.0
 40
0.0
 40
0.0
 40
0.1249999999999978
 40
0.1249999999999978
 40
0.2499999999999956
 40
0.2499999999999956
 40
0.4999999999999919
 40
0.4999999999999919
 40
0.6249999999999939
 40
0.6249999999999939
 40
0.7499999999999959
 40
0.7499999999999959
 40
0.874999999999998
 40
0.874999999999998
 40
1.0
 40
1.0
 40
1.0
 40
1.0
 10
228.8380522119482
 20
111.9483102267429
 30
0.0
 10
228.9560061290063
 20
111.8683117308241
 30
0.0
 10
229.0638984362479
 20
111.7905201498713
 30
0.0
 10
229.2797215287192
 20
111.6446728995907
 30
0.0
 10
229.3865927911944
 20
111.5763699539526
 30
0.0
 10
229.7101851547067
 20
111.3880960981322
 30
0.0
 10
229.9314241054051
 20
111.284111971131
 30
0.0
 10
230.2629717401488
 20
111.177279105974
 30
0.0
 10
230.3737774210265
 20
111.1495754551237
 30
0.0
 10
230.59643734638
 20
111.1126441062056
 30
0.0
 10
230.7092466742722
 20
111.1034394314252
 30
0.0
 10
230.9309225385637
 20
111.1079974053157
 30
0.0
 10
231.0396178231203
 20
111.1215264166422
 30
0.0
 10
231.2521083228297
 20
111.1752363669165
 30
0.0
 10
231.3565640203219
 20
111.2158788091204
 30
0.0
 10
231.4549604387327
 20
111.2718789037174
 30
0.0
  0
SPLINE
  5
114
330
1F
100
AcDbEntity
  8
0
  6
HIDDEN
 62
     7
370
     0
100
AcDbSpline
210
0.0
220
0.0
230
1.0
 70
     8
 71
     3
 72
    54
 73
    50
 74
     0
 42
0.00000001
 43
0.00000001
 12
1.0
 22
0.0
 32
0.0
 13
1.0
 23
0.0
 33
0.0
 40
0.0
 40
0.0
 40
0.0
 40
0.0
 40
0.0624999999999993
 40
0.0624999999999993
 40
0.1249999999999986
 40
0.1249999999999986
 40
0.1874999999999979
 40
0.1874999999999979
 40
0.2499999999999972
 40
0.2499999999999972
 40
0.2812499999999976
 40
0.2812499999999976
 40
0.312499999999998
 40
0.312499999999998
 40
0.3281249999999984
 40
0.3281249999999984
 40
0.3437499999999989
 40
0.3437499999999989
 40
0.374999999999998
 40
0.374999999999998
 40
0.4374999999999976
 40
0.4374999999999976
 40
0.4999999999999971
 40
0.4999999999999971
 40
0.5624999999999967
 40
0.5624999999999967
 40
0.5937499999999962
 40
0.5937499999999962
 40
0.6249999999999959
 40
0.6249999999999959
 40
0.6562499999999956
 40
0.6562499999999956
 40
0.6874999999999952
 40
0.6874999999999952
 40
0.7187499999999949
 40
0.7187499999999949
 40
0.7499999999999946
 40
0.7499999999999946
 40
0.7812499999999943
 40
0.7812499999999943
 40
0.8124999999999941
 40
0.8124999999999941
 40
0.8749999999999962
 40
0.8749999999999962
 40
0.9374999999999982
 40
0.9374999999999982
 40
0.9687499999999991
 40
0.9687499999999991
 40
1.0
 40
1.0
 40
1.0
 40
1.0
 10
232.1220820029498
 20
112.3018271689251
 30
0.0
 10
232.1692746063686
 20
112.5444569593152
 30
0.0
 10
232.177464124784
 20
112.7949520740417
 30
0.0
 10
232.1380546705547
 20
113.3074367180334
 30
0.0
 10
232.0905658595872
 20
113.5605274075673
 30
0.0
 10
231.9580662001877
 20
114.0528365849622
 30
0.0
 10
231.8716333421189
 20
114.2950288169867
 30
0.0
 10
231.6767334209944
 20
114.7532354296566
 30
0.0
 10
231.5667568603085
 20
114.9717155769009
 30
0.0
 10
231.3970917604549
 20
115.28679447284
 30
0.0
 10
231.3390485008184
 20
115.3904309135046
 30
0.0
 10
231.2358071061167
 20
115.590506530748
 30
0.0
 10
231.1880346353077
 20
115.6905307293535
 30
0.0
 10
231.1782688474276
 20
115.8102249292639
 30
0.0
 10
231.1863468241516
 20
115.8429950993433
 30
0.0
 10
231.2193701332644
 20
115.8941289683718
 30
0.0
 10
231.2429407166318
 20
115.9123417699483
 30
0.0
 10
231.3221025848764
 20
115.9552616798585
 30
0.0
 10
231.3836197075811
 20
115.9680562092865
 30
0.0
 10
231.5643440393581
 20
115.9870747409779
 30
0.0
 10
231.6836838555985
 20
115.9719246276409
 30
0.0
 10
231.8879420846838
 20
115.903879683336
 30
0.0
 10
231.9747203421343
 20
115.850289291164
 30
0.0
 10
232.1065114816448
 20
115.6995754429292
 30
0.0
 10
232.1506465303186
 20
115.6020533000698
 30
0.0
 10
232.1700774092094
 20
115.4229269492608
 30
0.0
 10
232.1687858337638
 20
115.3567149272511
 30
0.0
 10
232.1483734470227
 20
115.2146017703946
 30
0.0
 10
232.1294599896905
 20
115.1388678868039
 30
0.0
 10
232.0723473971009
 20
114.9771818992986
 30
0.0
 10
232.0335947774121
 20
114.8904867626945
 30
0.0
 10
231.9386983815672
 20
114.7141659361689
 30
0.0
 10
231.8823868838458
 20
114.6237270527593
 30
0.0
 10
231.7514998357549
 20
114.4382487395016
 30
0.0
 10
231.6772349289733
 20
114.3439242712475
 30
0.0
 10
231.5177579163119
 20
114.159523469709
 30
0.0
 10
231.4312440733519
 20
114.0678304271891
 30
0.0
 10
231.2488940989823
 20
113.8890493118158
 30
0.0
 10
231.1543585489708
 20
113.8031323674253
 30
0.0
 10
230.9593602683162
 20
113.6374353294282
 30
0.0
 10
230.8581971102582
 20
113.55718741278
 30
0.0
 10
230.5544003335314
 20
113.3310370078885
 30
0.0
 10
230.3498371629473
 20
113.1976737188213
 30
0.0
 10
229.9358040159498
 20
112.960738692997
 30
0.0
 10
229.7318108170875
 20
112.8601279647465
 30
0.0
 10
229.4294957896847
 20
112.738135845395
 30
0.0
 10
229.3291138219717
 20
112.7021996106185
 30
0.0
 10
229.1262916989011
 20
112.6429460320242
 30
0.0
 10
229.0237506316384
 20
112.618950889812
 30
0.0
 10
228.9171873000568
 20
112.6083764418479
 30
0.0
  0
LWPOLYLINE
  5
115
330
1F
100
AcDbEntity
  8
0
  6
HIDDEN
 62
     7
370
     0
100
AcDbPolyline
 90
       21
 70
   128
 43
0.0
 10
232.1220801342
 20
112.3018276144
 10
232.1565837729
 20
112.8756284912
 10
231.9902793634
 20
113.4341314633
 10
231.6365854013
 20
113.9322763507
 10
231.1240376103
 20
114.3298742559
 10
230.4939867127
 20
114.5948476356
 10
229.7972605693
 20
114.705819377
 10
229.0900812614
 20
114.6538366762
 10
228.4294904339
 20
114.4430923474
 10
227.8687820899
 20
114.0905900125
 10
227.4532036054
 20
113.6247676064
 10
227.216282593
 20
113.0832081859
 10
227.1771223414
 20
112.5096019555
 10
227.3388893473
 20
111.9502281968
 10
227.6885301936
 20
111.450214145
 10
228.197836982
 20
111.0499009688
 10
228.8257272112
 20
110.7815841411
 10
229.5215294826
 20
110.6669122551
 10
230.2291185725
 20
110.7151352067
 10
230.8914081323
 20
110.9223637928
 10
231.4549625981
 20
111.2718789105
  0
LINE
  5
116
330
1F
100
AcDbEntity
  8
0
  6
HIDDEN
 62
     7
370
     0
100
AcDbLine
 10
102.0978239495
 20
136.0905638163
 30
0.0
 11
102.0978239495
 21
108.090562952
 31
0.0
  0
SPLINE
  5
117
330
1F
100
AcDbEntity
  8
0
  6
HIDDEN
 62
     7
370
     0
100
AcDbSpline
210
0.0
220
0.0
230
1.0
 70
     8
 71
     3
 72
    10
 73
     6
 74
     0
 42
0.00000001
 43
0.00000001
 12
1.0
 22
0.0
 32
0.0
 13
1.0
 23
0.0
 33
0.0
 40
0.0
 40
0.0
 40
0.0
 40
0.0
 40
0.5
 40
0.5
 40
1.0
 40
1.0
 40
1.0
 40
1.0
 10
121.1675952541823
 20
122.7249922611531
 30
0.0
 10
121.2007426722588
 20
122.5160016601451
 30
0.0
 10
121.2176015176204
 20
122.3044391941235
 30
0.0
 10
121.2175889872727
 20
121.8764504281558
 30
0.0
 10
121.2006740295323
 20
121.6646923237402
 30
0.0
 10
121.1675952541823
 20
121.4561345071081
 30
0.0
  0
LINE
  5
118
330
1F
100
AcDbEntity
  8
0
  6
HIDDEN
 62
     7
370
     0
100
AcDbLine
 10
121.6675953138
 20
135.5905637343
 30
0.0
 11
121.6675953138
 21
108.590563034
 31
0.0
  0
SPLINE
  5
119
330
1F
100
AcDbEntity
  8
0
  6
HIDDEN
 62
     7
370
     0
100
AcDbSpline
210
0.0
220
0.0
230
1.0
 70
     8
 71
     3
 72
    10
 73
     6
 74
     0
 42
0.00000001
 43
0.00000001
 12
1.0
 22
0.0
 32
0.0
 13
1.0
 23
0.0
 33
0.0
 40
0.0
 40
0.0
 40
0.0
 40
0.0
 40
0.5
 40
0.5
 40
1.0
 40
1.0
 40
1.0
 40
1.0
 10
121.1675952541823
 20
121.4561345071081
 30
0.0
 10
121.200784216656
 20
121.6653870406906
 30
0.0
 10
121.2174849929107
 20
121.8762038015895
 30
0.0
 10
121.2177044333553
 20
122.3007360827928
 30
0.0
 10
121.2008247179619
 20
122.5154843715654
 30
0.0
 10
121.1675952541823
 20
122.7249922611531
 30
0.0
  0
SPLINE
  5
11A
330
1F
100
AcDbEntity
  8
0
  6
HIDDEN
 62
     7
370
     0
100
AcDbSpline
210
0.0
220
0.0
230
1.0
 70
     8
 71
     3
 72
    68
 73
    64
 74
     0
 42
0.00000001
 43
0.00000001
 12
1.0
 22
0.0
 32
0.0
 13
1.0
 23
0.0
 33
0.0
 40
0.0
 40
0.0
 40
0.0
 40
0.0
 40
0.0312499999999999
 40
0.0312499999999999
 40
0.0624999999999998
 40
0.0624999999999998
 40
0.0937499999999997
 40
0.0937499999999997
 40
0.1249999999999996
 40
0.1249999999999996
 40
0.1562499999999994
 40
0.1562499999999994
 40
0.1874999999999993
 40
0.1874999999999993
 40
0.2187499999999992
 40
0.2187499999999992
 40
0.2499999999999991
 40
0.2499999999999991
 40
0.281249999999999
 40
0.281249999999999
 40
0.3124999999999989
 40
0.3124999999999989
 40
0.3437499999999988
 40
0.3437499999999988
 40
0.3749999999999987
 40
0.3749999999999987
 40
0.4062499999999986
 40
0.4062499999999986
 40
0.4374999999999984
 40
0.4374999999999984
 40
0.4687499999999983
 40
0.4687499999999983
 40
0.4999999999999982
 40
0.4999999999999982
 40
0.562499999999998
 40
0.562499999999998
 40
0.5937499999999979
 40
0.5937499999999979
 40
0.6249999999999978
 40
0.6249999999999978
 40
0.6562499999999977
 40
0.6562499999999977
 40
0.6874999999999976
 40
0.6874999999999976
 40
0.7187499999999974
 40
0.7187499999999974
 40
0.7499999999999973
 40
0.7499999999999973
 40
0.7812499999999977
 40
0.7812499999999977
 40
0.812499999999998
 40
0.812499999999998
 40
0.8437499999999983
 40
0.8437499999999983
 40
0.8749999999999987
 40
0.8749999999999987
 40
0.906249999999999
 40
0.906249999999999
 40
0.9374999999999993
 40
0.9374999999999993
 40
0.9687499999999997
 40
0.9687499999999997
 40
1.0
 40
1.0
 40
1.0
 40
1.0
 10
121.1675952541823
 20
121.4561345071081
 30
0.0
 10
121.1275803018326
 20
121.2038449042925
 30
0.0
 10
121.0646385004213
 20
120.9598460539167
 30
0.0
 10
120.8952518383493
 20
120.4874276648542
 30
0.0
 10
120.7875582757638
 20
120.2570142786942
 30
0.0
 10
120.5322735072259
 20
119.8223096828971
 30
0.0
 10
120.3862342767537
 20
119.6196677162458
 30
0.0
 10
120.0580128401944
 20
119.242678425488
 30
0.0
 10
119.8737655524194
 20
119.0670204719106
 30
0.0
 10
119.4808053851111
 20
118.7567625029643
 30
0.0
 10
119.271510788152
 20
118.6208172953144
 30
0.0
 10
118.8266253612146
 20
118.3874271999086
 30
0.0
 10
118.5898277687156
 20
118.2901805934942
 30
0.0
 10
118.1090926997963
 20
118.1435091356228
 30
0.0
 10
117.8628496066135
 20
118.0926167906804
 30
0.0
 10
117.3581328266341
 20
118.0370894404449
 30
0.0
 10
117.1019381256976
 20
118.033264553375
 30
0.0
 10
116.5995593764975
 20
118.0726883360194
 30
0.0
 10
116.3503096773139
 20
118.1157157852306
 30
0.0
 10
115.8587818798351
 20
118.2494207546819
 30
0.0
 10
115.6234862786093
 20
118.3380906005871
 30
0.0
 10
115.1725723839472
 20
118.5571219643645
 30
0.0
 10
114.9549600334838
 20
118.6891235300481
 30
0.0
 10
114.5517528639355
 20
118.988480811051
 30
0.0
 10
114.3661413715011
 20
119.1550997384889
 30
0.0
 10
114.0261533010986
 20
119.5222111639163
 30
0.0
 10
113.8710803702757
 20
119.7245149094571
 30
0.0
 10
113.6047372936123
 20
120.1485955890511
 30
0.0
 10
113.4917531928955
 20
120.3717551945173
 30
0.0
 10
113.3068979359646
 20
120.8411104361114
 30
0.0
 10
113.2357571744612
 20
121.0873209394469
 30
0.0
 10
113.1417967631731
 20
121.5818467658181
 30
0.0
 10
113.1177874332167
 20
121.8327777609101
 30
0.0
 10
113.1172143125441
 20
122.5970231404663
 30
0.0
 10
113.2126134238627
 20
123.0992474425173
 30
0.0
 10
113.4904772160638
 20
123.8068119487897
 30
0.0
 10
113.6036391721444
 20
124.0305182125305
 30
0.0
 10
113.8697703541883
 20
124.4547881238511
 30
0.0
 10
114.024598128388
 20
124.6570400859071
 30
0.0
 10
114.3647792341758
 20
125.0247508272753
 30
0.0
 10
114.5502816911255
 20
125.1913677025246
 30
0.0
 10
114.9525754921849
 20
125.4904170813201
 30
0.0
 10
115.1705835404369
 20
125.6228737893485
 30
0.0
 10
115.6211819075872
 20
125.8420801900532
 30
0.0
 10
115.8557309064679
 20
125.9305653200568
 30
0.0
 10
116.3441909000203
 20
126.0640515499955
 30
0.0
 10
116.5964562957341
 20
126.1079932624892
 30
0.0
 10
117.0986369338944
 20
126.1478022589627
 30
0.0
 10
117.3511190512461
 20
126.1444580461492
 30
0.0
 10
117.8589840943156
 20
126.0892787261587
 30
0.0
 10
118.1065295674994
 20
126.0382327976892
 30
0.0
 10
118.5874971049701
 20
125.8918224094537
 30
0.0
 10
118.8234569700754
 20
125.7951762046801
 30
0.0
 10
119.270027419597
 20
125.561271260367
 30
0.0
 10
119.4796722821705
 20
125.4251462465405
 30
0.0
 10
119.8726589889249
 20
125.1150919822114
 30
0.0
 10
120.0570548927399
 20
124.9394347346363
 30
0.0
 10
120.3856053106003
 20
124.5622948119719
 30
0.0
 10
120.5315474071235
 20
124.359828606702
 30
0.0
 10
120.7864327623257
 20
123.9262523085687
 30
0.0
 10
120.894744075134
 20
123.6949604649871
 30
0.0
 10
121.0645790525509
 20
123.2216007848539
 30
0.0
 10
121.127574413688
 20
122.9773189880331
 30
0.0
 10
121.1675952541823
 20
122.7249922611531
 30
0.0
  0
SPLINE
  5
11B
330
1F
100
AcDbEntity
  8
0
  6
HIDDEN
 62
     7
370
     0
100
AcDbSpline
210
0.0
220
0.0
230
1.0
 70
     8
 71
     3
 72
    68
 73
    64
 74
     0
 42
0.00000001
 43
0.00000001
 12
1.0
 22
0.0
 32
0.0
 13
1.0
 23
0.0
 33
0.0
 40
0.0
 40
0.0
 40
0.0
 40
0.0
 40
0.0312499999999999
 40
0.0312499999999999
 40
0.0624999999999998
 40
0.0624999999999998
 40
0.0937499999999997
 40
0.0937499999999997
 40
0.1249999999999996
 40
0.1249999999999996
 40
0.1562499999999994
 40
0.1562499999999994
 40
0.1874999999999993
 40
0.1874999999999993
 40
0.2187499999999992
 40
0.2187499999999992
 40
0.2499999999999991
 40
0.2499999999999991
 40
0.281249999999999
 40
0.281249999999999
 40
0.3124999999999989
 40
0.3124999999999989
 40
0.3437499999999988
 40
0.3437499999999988
 40
0.3749999999999987
 40
0.3749999999999987
 40
0.4062499999999986
 40
0.4062499999999986
 40
0.4374999999999984
 40
0.4374999999999984
 40
0.4687499999999983
 40
0.4687499999999983
 40
0.4999999999999982
 40
0.4999999999999982
 40
0.562499999999998
 40
0.562499999999998
 40
0.5937499999999979
 40
0.5937499999999979
 40
0.6249999999999978
 40
0.6249999999999978
 40
0.6562499999999977
 40
0.6562499999999977
 40
0.6874999999999976
 40
0.6874999999999976
 40
0.7187499999999974
 40
0.7187499999999974
 40
0.7499999999999973
 40
0.7499999999999973
 40
0.7812499999999977
 40
0.7812499999999977
 40
0.812499999999998
 40
0.812499999999998
 40
0.8437499999999983
 40
0.8437499999999983
 40
0.8749999999999987
 40
0.8749999999999987
 40
0.906249999999999
 40
0.906249999999999
 40
0.9374999999999993
 40
0.9374999999999993
 40
0.9687499999999997
 40
0.9687499999999997
 40
1.0
 40
1.0
 40
1.0
 40
1.0
 10
121.1675952541823
 20
122.7249922611531
 30
0.0
 10
121.1275803018326
 20
122.9772818639687
 30
0.0
 10
121.0646385004213
 20
123.2212807143445
 30
0.0
 10
120.8952518383493
 20
123.693699103407
 30
0.0
 10
120.7875582757638
 20
123.9241124895669
 30
0.0
 10
120.5322735072259
 20
124.358817085364
 30
0.0
 10
120.3862342767537
 20
124.5614590520154
 30
0.0
 10
120.0580128401944
 20
124.9384483427732
 30
0.0
 10
119.8737655524194
 20
125.1141062963506
 30
0.0
 10
119.4808053851111
 20
125.4243642652968
 30
0.0
 10
119.271510788152
 20
125.5603094729467
 30
0.0
 10
118.8266253612146
 20
125.7936995683525
 30
0.0
 10
118.5898277687156
 20
125.890946174767
 30
0.0
 10
118.1090926997963
 20
126.0376176326383
 30
0.0
 10
117.8628496066135
 20
126.0885099775807
 30
0.0
 10
117.3581328266341
 20
126.1440373278162
 30
0.0
 10
117.1019381256976
 20
126.1478622148862
 30
0.0
 10
116.5995593764975
 20
126.1084384322417
 30
0.0
 10
116.3503096773139
 20
126.0654109830305
 30
0.0
 10
115.8587818798351
 20
125.9317060135792
 30
0.0
 10
115.6234862786093
 20
125.843036167674
 30
0.0
 10
115.1725723839472
 20
125.6240048038966
 30
0.0
 10
114.9549600334838
 20
125.492003238213
 30
0.0
 10
114.5517528639355
 20
125.1926459572102
 30
0.0
 10
114.3661413715011
 20
125.0260270297723
 30
0.0
 10
114.0261533010986
 20
124.6589156043448
 30
0.0
 10
113.8710803702757
 20
124.4566118588041
 30
0.0
 10
113.6047372936123
 20
124.0325311792101
 30
0.0
 10
113.4917531928955
 20
123.8093715737439
 30
0.0
 10
113.3068979359646
 20
123.3400163321497
 30
0.0
 10
113.2357571744612
 20
123.0938058288142
 30
0.0
 10
113.1417967631731
 20
122.5992800024431
 30
0.0
 10
113.1177874332167
 20
122.348349007351
 30
0.0
 10
113.1172143125441
 20
121.5841036277948
 30
0.0
 10
113.2126134238627
 20
121.0818793257439
 30
0.0
 10
113.4904772160638
 20
120.3743148194715
 30
0.0
 10
113.6036391721444
 20
120.1506085557307
 30
0.0
 10
113.8697703541883
 20
119.7263386444101
 30
0.0
 10
114.024598128388
 20
119.524086682354
 30
0.0
 10
114.3647792341758
 20
119.1563759409858
 30
0.0
 10
114.5502816911255
 20
118.9897590657365
 30
0.0
 10
114.9525754921849
 20
118.6907096869411
 30
0.0
 10
115.1705835404369
 20
118.5582529789127
 30
0.0
 10
115.6211819075872
 20
118.339046578208
 30
0.0
 10
115.8557309064679
 20
118.2505614482044
 30
0.0
 10
116.3441909000203
 20
118.1170752182657
 30
0.0
 10
116.5964562957341
 20
118.0731335057719
 30
0.0
 10
117.0986369338944
 20
118.0333245092985
 30
0.0
 10
117.3511190512461
 20
118.036668722112
 30
0.0
 10
117.8589840943156
 20
118.0918480421025
 30
0.0
 10
118.1065295674994
 20
118.1428939705719
 30
0.0
 10
118.5874971049701
 20
118.2893043588075
 30
0.0
 10
118.8234569700754
 20
118.3859505635811
 30
0.0
 10
119.270027419597
 20
118.6198555078941
 30
0.0
 10
119.4796722821705
 20
118.7559805217206
 30
0.0
 10
119.8726589889249
 20
119.0660347860497
 30
0.0
 10
120.0570548927399
 20
119.2416920336249
 30
0.0
 10
120.3856053106003
 20
119.6188319562893
 30
0.0
 10
120.5315474071235
 20
119.8212981615591
 30
0.0
 10
120.7864327623257
 20
120.2548744596925
 30
0.0
 10
120.894744075134
 20
120.486166303274
 30
0.0
 10
121.0645790525509
 20
120.9595259834073
 30
0.0
 10
121.127574413688
 20
121.203807780228
 30
0.0
 10
121.1675952541823
 20
121.4561345071081
 30
0.0
  0
ARC
  5
11C
330
1F
100
AcDbEntity
  8
0
  6
HIDDEN
 62
     7
370
     0
100
AcDbCircle
 10
231.0390728204
 20
112.0191911255
 30
0.0
 40
2.202163351877115
100
AcDbArc
 50
164.4815722245
 51
181.8444845596
  0
SPLINE
  5
11D
330
1F
100
AcDbEntity
  8
0
  6
HIDDEN
 62
     7
370
     0
100
AcDbSpline
210
0.0
220
0.0
230
1.0
 70
     8
 71
     3
 72
    12
 73
     8
 74
     0
 42
0.00000001
 43
0.00000001
 12
1.0
 22
0.0
 32
0.0
 13
1.0
 23
0.0
 33
0.0
 40
0.0
 40
0.0
 40
0.0
 40
0.0
 40
0.2499999999999993
 40
0.2499999999999993
 40
0.4999999999999987
 40
0.4999999999999987
 40
1.0
 40
1.0
 40
1.0
 40
1.0
 10
231.4549604396432
 20
111.2718789034718
 30
0.0
 10
231.4881004110588
 20
111.3436266460851
 30
0.0
 10
231.5299319998547
 20
111.4203970041458
 30
0.0
 10
231.6238581561838
 20
111.5801900913596
 30
0.0
 10
231.6762138542065
 20
111.6638992504835
 30
0.0
 10
231.8473888829415
 20
111.9278270459116
 30
0.0
 10
231.9743837778225
 20
112.114241129947
 30
0.0
 10
232.122082000667
 20
112.3018271648177
 30
0.0
  0
LINE
  5
11E
330
1F
100
AcDbEntity
  8
0
  6
HIDDEN
 62
     7
370
     0
100
AcDbLine
 10
122.917595053
 20
131.0905629967
 30
0.0
 11
122.917595053
 21
113.0905637716
 31
0.0
  0
LINE
  5
11F
330
1F
100
AcDbEntity
  8
0
  6
HIDDEN
 62
     7
370
     0
100
AcDbLine
 10
121.6675953138
 20
111.840563101
 30
0.0
 11
121.6675953138
 21
132.3405636673
 31
0.0
  0
LINE
  5
120
330
1F
100
AcDbEntity
  8
0
  6
HIDDEN
 62
     7
370
     0
100
AcDbLine
 10
148.6675960141
 20
131.0905629967
 30
0.0
 11
148.6675960141
 21
113.0905637716
 31
0.0
  0
LINE
  5
121
330
1F
100
AcDbEntity
  8
0
  6
HIDDEN
 62
     7
370
     0
100
AcDbLine
 10
151.5216824728
 20
126.3405636151
 30
0.0
 11
151.5216824728
 21
117.8405631532
 31
0.0
  0
LINE
  5
122
330
1F
100
AcDbEntity
  8
0
  6
HIDDEN
 62
     7
370
     0
100
AcDbLine
 10
232.6675967443
 20
117.8405631532
 30
0.0
 11
232.6675967443
 21
126.3405636151
 31
0.0
  0
SPLINE
  5
123
330
1F
100
AcDbEntity
  8
0
  6
HIDDEN
 62
     7
370
     0
100
AcDbSpline
210
0.0
220
0.0
230
1.0
 70
     8
 71
     3
 72
    60
 73
    56
 74
     0
 42
0.00000001
 43
0.00000001
 12
1.0
 22
0.0
 32
0.0
 13
1.0
 23
0.0
 33
0.0
 40
-0.0312499999999998
 40
-0.0312499999999998
 40
0.0
 40
0.0
 40
0.0312499999999986
 40
0.0312499999999986
 40
0.0624999999999971
 40
0.0624999999999971
 40
0.1249999999999966
 40
0.1249999999999966
 40
0.1562499999999972
 40
0.1562499999999972
 40
0.1874999999999978
 40
0.1874999999999978
 40
0.2187499999999984
 40
0.2187499999999984
 40
0.2499999999999989
 40
0.2499999999999989
 40
0.3125000000000001
 40
0.3125000000000001
 40
0.3750000000000013
 40
0.3750000000000013
 40
0.4062500000000019
 40
0.4062500000000019
 40
0.4375000000000026
 40
0.4375000000000026
 40
0.4687500000000032
 40
0.4687500000000032
 40
0.5000000000000039
 40
0.5000000000000039
 40
0.5312500000000046
 40
0.5312500000000046
 40
0.5625000000000052
 40
0.5625000000000052
 40
0.6250000000000041
 40
0.6250000000000041
 40
0.6562500000000037
 40
0.6562500000000037
 40
0.6875000000000031
 40
0.6875000000000031
 40
0.7187500000000026
 40
0.7187500000000026
 40
0.750000000000002
 40
0.750000000000002
 40
0.7812500000000014
 40
0.7812500000000014
 40
0.8125000000000008
 40
0.8125000000000008
 40
0.8750000000000004
 40
0.8750000000000004
 40
0.9062500000000004
 40
0.9062500000000004
 40
0.9375000000000003
 40
0.9375000000000003
 40
0.9687500000000002
 40
0.9687500000000002
 40
1.0
 40
1.0
 40
1.031249999999999
 40
1.031249999999999
 10
229.8371228507529
 20
122.0881987064499
 30
0.0
 10
229.4980676576118
 20
122.0881987064499
 30
0.0
 10
229.3324698099042
 20
122.1093835166608
 30
0.0
 10
229.0083497332315
 20
122.1898705741246
 30
0.0
 10
228.848539668906
 20
122.2501527472405
 30
0.0
 10
228.3991980663646
 20
122.4746323894808
 30
0.0
 10
228.1295153265892
 20
122.6855673682963
 30
0.0
 10
227.7913305378316
 20
123.048607456539
 30
0.0
 10
227.6877641042078
 20
123.1796801238291
 30
0.0
 10
227.5073126419079
 20
123.4499971248421
 30
0.0
 10
227.4301906756455
 20
123.5889631974444
 30
0.0
 10
227.3027727908384
 20
123.8733764147984
 30
0.0
 10
227.2523085980372
 20
124.0206275043893
 30
0.0
 10
227.1854671853548
 20
124.3062499588737
 30
0.0
 10
227.1681489838058
 20
124.4459323098449
 30
0.0
 10
227.1665265918723
 20
124.8545576078482
 30
0.0
 10
227.235014562416
 20
125.1017019481006
 30
0.0
 10
227.4890648687868
 20
125.5087255155842
 30
0.0
 10
227.6736477681422
 20
125.6700480581663
 30
0.0
 10
228.0110162385653
 20
125.8526250723608
 30
0.0
 10
228.1350054075321
 20
125.9044972618139
 30
0.0
 10
228.4011741527496
 20
125.9909711369469
 30
0.0
 10
228.5417108335736
 20
126.0252665244169
 30
0.0
 10
228.8393691688716
 20
126.079670695621
 30
0.0
 10
228.9988365464141
 20
126.0999209038959
 30
0.0
 10
229.3244539305477
 20
126.1264858544494
 30
0.0
 10
229.4904209129348
 20
126.1330785418759
 30
0.0
 10
229.8292541589978
 20
126.1334796317265
 30
0.0
 10
229.9962448378331
 20
126.1272291301703
 30
0.0
 10
230.3218697516238
 20
126.1015041297243
 30
0.0
 10
230.4820009241809
 20
126.0816895369247
 30
0.0
 10
230.9327060835391
 20
126.0007734217098
 30
0.0
 10
231.20296458469
 20
125.9169123271543
 30
0.0
 10
231.5426793135917
 20
125.7349982894889
 30
0.0
 10
231.6466379574672
 20
125.6638981951279
 30
0.0
 10
231.8269470500887
 20
125.5034242464822
 30
0.0
 10
231.9043807586813
 20
125.4137238394305
 30
0.0
 10
232.0326296135259
 20
125.2114720939691
 30
0.0
 10
232.0829449044427
 20
125.0984420706183
 30
0.0
 10
232.1496931509341
 20
124.8587057730591
 30
0.0
 10
232.1671666601303
 20
124.7306927609623
 30
0.0
 10
232.1680084426607
 20
124.4566447710144
 30
0.0
 10
232.1512483451288
 20
124.3156331245247
 30
0.0
 10
232.0854962016249
 20
124.029105414308
 30
0.0
 10
232.0356413408513
 20
123.8817664678228
 30
0.0
 10
231.8446765552838
 20
123.4520144152669
 30
0.0
 10
231.6593804223139
 20
123.1731620234471
 30
0.0
 10
231.3204915214941
 20
122.8085545429633
 30
0.0
 10
231.1953095990909
 20
122.6939266969582
 30
0.0
 10
230.9293744631176
 20
122.4905187267377
 30
0.0
 10
230.7885188797188
 20
122.4011508791036
 30
0.0
 10
230.4888522832346
 20
122.2510628746882
 30
0.0
 10
230.3284741010999
 20
122.1903862411561
 30
0.0
 10
230.0037369610513
 20
122.1095267026331
 30
0.0
 10
229.8371228507529
 20
122.0881987064499
 30
0.0
 10
229.4980676576118
 20
122.0881987064499
 30
0.0
  0
LINE
  5
124
330
1F
100
AcDbEntity
  8
0
  6
HIDDEN
 62
     7
370
     0
100
AcDbLine
 10
271.2821752894
 20
107.8911248793
 30
0.0
 11
271.2834567893
 21
107.876428609
 31
0.0
  0
LINE
  5
125
330
1F
100
AcDbEntity
  8
0
  6
HIDDEN
 62
     7
370
     0
100
AcDbLine
 10
271.2834567893
 20
107.876428609
 30
0.0
 11
261.8728221524
 21
108.6977461551
 31
0.0
  0
LINE
  5
126
330
1F
100
AcDbEntity
  8
0
  6
HIDDEN
 62
     7
370
     0
100
AcDbLine
 10
259.0074927676
 20
105.9012061183
 30
0.0
 11
259.0481580365
 21
105.8799607877
 31
0.0
  0
LINE
  5
127
330
1F
100
AcDbEntity
  8
0
  6
HIDDEN
 62
     7
370
     0
100
AcDbLine
 10
259.0481580365
 20
105.8799607877
 30
0.0
 11
259.8614932168
 21
96.6062380199
 31
0.0
  0
ELLIPSE
  5
128
330
1F
100
AcDbEntity
  8
0
  6
HIDDEN
 62
     7
370
     0
100
AcDbEllipse
 10
263.3736072182
 20
122.0905633841
 30
0.0
 11
-14.61549449049071
 21
20.47670097187961
 31
0.0
210
0.0
220
0.0
230
1.0
 40
0.0668534593
 41
6.235504004580413
 42
7.806300331375068
  0
LINE
  5
129
330
1F
100
AcDbEntity
  8
0
  6
HIDDEN
 62
     7
370
     0
100
AcDbLine
 10
247.1675963271
 20
122.0905633841
 30
0.0
 11
247.1675963271
 21
142.5905639504
 31
0.0
  0
SPLINE
  5
12A
330
1F
100
AcDbEntity
  8
0
  6
HIDDEN
 62
     7
370
     0
100
AcDbSpline
210
0.0
220
0.0
230
1.0
 70
     8
 71
     3
 72
    26
 73
    22
 74
     0
 42
0.00000001
 43
0.00000001
 12
1.0
 22
0.0
 32
0.0
 13
1.0
 23
0.0
 33
0.0
 40
0.0
 40
0.0
 40
0.0
 40
0.0
 40
0.2500000000000003
 40
0.2500000000000003
 40
0.3125000000000002
 40
0.3125000000000002
 40
0.3750000000000001
 40
0.3750000000000001
 40
0.5000000000000001
 40
0.5000000000000001
 40
0.6250000000000001
 40
0.6250000000000001
 40
0.6875000000000002
 40
0.6875000000000002
 40
0.7500000000000002
 40
0.7500000000000002
 40
0.8750000000000002
 40
0.8750000000000002
 40
0.9375000000000001
 40
0.9375000000000001
 40
1.0
 40
1.0
 40
1.0
 40
1.0
 10
249.7171071276609
 20
111.5534861040858
 30
0.0
 10
249.7745337163195
 20
109.5821888621153
 30
0.0
 10
249.8583444884752
 20
107.7753180216598
 30
0.0
 10
249.9943209717821
 20
105.7151544228652
 30
0.0
 10
250.0230944142786
 20
105.3132007575956
 30
0.0
 10
250.083823667997
 20
104.5299157352068
 30
0.0
 10
250.1157261490143
 20
104.1495214088575
 30
0.0
 10
250.2147437178985
 20
103.0554113133112
 30
0.0
 10
250.2855671313001
 20
102.3831454461927
 30
0.0
 10
250.4360904969748
 20
101.1504656199316
 30
0.0
 10
250.5157913293055
 20
100.5900481088527
 30
0.0
 10
250.6417071582583
 20
99.83575426418851
 30
0.0
 10
250.684866653276
 20
99.59824275210607
 30
0.0
 10
250.7720649638368
 20
99.15884315514158
 30
0.0
 10
250.8162174171669
 20
98.95616206485111
 30
0.0
 10
250.9501770543294
 20
98.39820467309131
 30
0.0
 10
251.0414792797658
 20
98.09280988301722
 30
0.0
 10
251.1809421525014
 20
97.73453077764799
 30
0.0
 10
251.2278499140223
 20
97.63179106234607
 30
0.0
 10
251.3224464776162
 20
97.46031251733606
 30
0.0
 10
251.370252268894
 20
97.39146357997866
 30
0.0
 10
251.418125877793
 20
97.34044821124073
 30
0.0
  0
SPLINE
  5
12B
330
1F
100
AcDbEntity
  8
0
  6
HIDDEN
 62
     7
370
     0
100
AcDbSpline
210
0.0
220
0.0
230
1.0
 70
     8
 71
     3
 72
    14
 73
    10
 74
     0
 42
0.00000001
 43
0.00000001
 12
1.0
 22
0.0
 32
0.0
 13
1.0
 23
0.0
 33
0.0
 40
0.0
 40
0.0
 40
0.0
 40
0.0
 40
0.25
 40
0.25
 40
0.5
 40
0.5
 40
0.75
 40
0.75
 40
1.0
 40
1.0
 40
1.0
 40
1.0
 10
249.7171071276609
 20
111.5534861040858
 30
0.0
 10
249.3416137432706
 20
112.3748655997368
 30
0.0
 10
248.9941973249057
 20
113.2103095515181
 30
0.0
 10
248.3717771053053
 20
114.9174707502791
 30
0.0
 10
248.0959501012351
 20
115.7929478661478
 30
0.0
 10
247.6432267296466
 20
117.5669933829467
 30
0.0
 10
247.4656365390399
 20
118.4695944560448
 30
0.0
 10
247.2281115722383
 20
120.2773546381311
 30
0.0
 10
247.1675952541823
 20
121.1830276243623
 30
0.0
 10
247.1675952541823
 20
122.0905633841306
 30
0.0
  0
LINE
  5
12C
330
1F
100
AcDbEntity
  8
0
  6
HIDDEN
 62
     7
370
     0
100
AcDbLine
 10
268.4170843232
 20
112.0653014828
 30
0.0
 11
270.9654511082
 21
111.5023747285
 31
0.0
  0
ELLIPSE
  5
12D
330
1F
100
AcDbEntity
  8
0
  6
HIDDEN
 62
     7
370
     0
100
AcDbEllipse
 10
260.0018942801
 20
108.3787503681
 30
0.0
 11
1.616902374425194
 21
2.318196838028328
 31
0.0
210
0.0
220
0.0
230
1.0
 40
0.57803977
 41
3.548934393834052
 42
3.686857627939805
  0
ELLIPSE
  5
12E
330
1F
100
AcDbEntity
  8
0
  6
HIDDEN
 62
     7
370
     0
100
AcDbEllipse
 10
260.0018942801
 20
108.3787503681
 30
0.0
 11
2.099281448397676
 21
-0.1276543563555492
 31
0.0
210
0.0
220
0.0
230
1.0
 40
0.4303093993
 41
0.359663860438497
 42
0.4975870945442326
  0
LINE
  5
12F
330
1F
100
AcDbEntity
  8
0
  6
HIDDEN
 62
     7
370
     0
100
AcDbLine
 10
261.9861901867
 20
108.5772032116
 30
0.0
 11
261.9861901867
 21
108.7432235677
 31
0.0
  0
ARC
  5
130
330
1F
100
AcDbEntity
  8
0
  6
HIDDEN
 62
     7
370
     0
100
AcDbCircle
 10
260.0034719921
 20
108.059034506
 30
0.0
 40
2.097447523009892
100
AcDbArc
 50
250.8217024747
 51
19.0383410216
  0
LINE
  5
131
330
1F
100
AcDbEntity
  8
0
  6
HIDDEN
 62
     7
370
     0
100
AcDbLine
 10
259.314441787
 20
106.0779934947
 30
0.0
 11
259.314441787
 21
105.9119722073
 31
0.0
  0
ARC
  5
132
330
1F
100
AcDbEntity
  8
0
  6
HIDDEN
 62
     7
370
     0
100
AcDbCircle
 10
259.9989784061
 20
108.0835377705
 30
0.0
 40
2.097255496156984
100
AcDbArc
 50
270.0795965263
 51
184.6434693959
  0
LWPOLYLINE
  5
133
330
1F
100
AcDbEntity
  8
0
  6
HIDDEN
 62
     7
370
     0
100
AcDbPolyline
 90
        3
 70
   128
 43
0.0
 10
258.9766473639
 20
106.2529145007
 10
259.3529612887
 20
106.088815463
 10
260.0018919575
 20
105.9862842981
  0
LINE
  5
134
330
1F
100
AcDbEntity
  8
0
  6
HIDDEN
 62
     7
370
     0
100
AcDbLine
 10
271.0477204192
 20
107.7863538836
 30
0.0
 11
261.9861901867
 21
108.5772032116
 31
0.0
  0
LINE
  5
135
330
1F
100
AcDbEntity
  8
0
  6
HIDDEN
 62
     7
370
     0
100
AcDbLine
 10
271.0477204192
 20
107.7863538836
 30
0.0
 11
271.2834567893
 21
107.876428609
 31
0.0
  0
LINE
  5
136
330
1F
100
AcDbEntity
  8
0
  6
HIDDEN
 62
     7
370
     0
100
AcDbLine
 10
259.314441787
 20
105.9119722073
 30
0.0
 11
260.1087481844
 21
96.8551544671
 31
0.0
  0
ELLIPSE
  5
137
330
1F
100
AcDbEntity
  8
0
  6
HIDDEN
 62
     7
370
     0
100
AcDbEllipse
 10
257.5958133575
 20
121.8030616992
 30
0.0
 11
-2.057770349228406
 21
25.26968660225603
 31
0.0
210
0.0
220
0.0
230
1.0
 40
0.1268365588
 41
3.207919912605393
 42
3.291350710180456
  0
LWPOLYLINE
  5
138
330
1F
100
AcDbEntity
  8
0
  6
HIDDEN
 62
     7
370
     0
100
AcDbPolyline
 90
       23
 70
   128
 43
0.0
 10
229.6675981152
 20
127.7092292172
 10
230.3719238508
 20
127.7911562671
 10
231.0192004907
 20
128.0303008121
 10
231.556968497
 20
128.4072880831
 10
231.9416717756
 20
128.8915772189
 10
232.1421519983
 20
129.4439339277
 10
232.1421519983
 20
130.0196090911
 10
231.9416717756
 20
130.5719662656
 10
231.556968497
 20
131.0562549357
 10
231.0192004907
 20
131.433243138
 10
230.3719238508
 20
131.6723872174
 10
229.6675981152
 20
131.7543138017
 10
228.9632649291
 20
131.6723872174
 10
228.3159957397
 20
131.433243138
 10
227.7782202828
 20
131.0562549357
 10
227.3935170043
 20
130.5719662656
 10
227.1930442321
 20
130.0196090911
 10
227.1930442321
 20
129.4439339277
 10
227.3935170043
 20
128.8915772189
 10
227.7782202828
 20
128.4072880831
 10
228.3159957397
 20
128.0303008121
 10
228.9632649291
 20
127.7911562671
 10
229.6675981152
 20
127.7092292172
  0
LINE
  5
139
330
1F
100
AcDbEntity
  8
0
  6
HIDDEN
 62
     7
370
     0
100
AcDbLine
 10
270.7521111834
 20
107.9781728063
 30
0.0
 11
271.0477204192
 21
107.7863538836
 31
0.0
  0
LINE
  5
13A
330
1F
100
AcDbEntity
  8
0
  6
HIDDEN
 62
     7
370
     0
100
AcDbLine
 10
259.314441787
 20
106.0779934947
 30
0.0
 11
260.0769342053
 21
97.3839128588
 31
0.0
  0
ELLIPSE
  5
13B
330
1F
100
AcDbEntity
  8
0
  6
HIDDEN
 62
     7
370
     0
100
AcDbEllipse
 10
257.9077786174
 20
121.7757682755
 30
0.0
 11
-2.207236391061742
 21
25.28859014739437
 31
0.0
210
0.0
220
0.0
230
1.0
 40
0.0059876405
 41
3.311871946538412
 42
3.40817199778573
  0
LINE
  5
13C
330
1F
100
AcDbEntity
  8
0
  6
HIDDEN
 62
     7
370
     0
100
AcDbLine
 10
271.2233306038
 20
96.4272489969
 30
0.0
 11
271.7208803761
 21
96.9319867168
 31
0.0
  0
CIRCLE
  5
13D
330
1F
100
AcDbEntity
  8
0
  6
HIDDEN
 62
     7
370
     0
100
AcDbCircle
 10
265.665954632
 20
102.4107226397
 30
0.0
 40
2.997486099292186
  0
LINE
  5
13E
330
1F
100
AcDbEntity
  8
0
  6
HIDDEN
 62
     7
370
     0
100
AcDbLine
 10
270.7521111834
 20
107.9781728063
 30
0.0
 11
261.9861901867
 21
108.7432235677
 31
0.0
  0
ELLIPSE
  5
13F
330
1F
100
AcDbEntity
  8
0
  6
HIDDEN
 62
     7
370
     0
100
AcDbEllipse
 10
-543.9506455431
 20
191.9292901423
 30
0.0
 11
4096.488451942432
 21
-356.6522915817366
 31
0.0
210
0.0
220
0.0
230
1.0
 40
0.0060650906
 41
4.910471910068249
 42
4.913247621464405
  0
LINE
  5
140
330
1F
100
AcDbEntity
  8
0
  6
HIDDEN
 62
     7
370
     0
100
AcDbLine
 10
270.7521111834
 20
107.9781728063
 30
0.0
 11
271.7208803761
 21
96.9319867168
 31
0.0
  0
CIRCLE
  5
141
330
1F
100
AcDbEntity
  8
0
  6
HIDDEN
 62
     7
370
     0
100
AcDbCircle
 10
265.6643859627
 20
102.472138225
 30
0.0
 40
2.097760680496129
  0
SPLINE
  5
142
330
1F
100
AcDbEntity
  8
0
  6
HIDDEN
 62
     7
370
     0
100
AcDbSpline
210
0.0
220
0.0
230
1.0
 70
     8
 71
     3
 72
    25
 73
    21
 74
     0
 42
0.00000001
 43
0.00000001
 12
1.0
 22
0.0
 32
0.0
 13
1.0
 23
0.0
 33
0.0
 40
0.0
 40
0.0
 40
0.0
 40
0.0
 40
0.0195561016479899
 40
0.040453314798002
 40
0.0626916353131656
 40
0.0904317578708869
 40
0.125391763982565
 40
0.1880884417348174
 40
0.2507790566138535
 40
0.3134558430961987
 40
0.3761112042161063
 40
0.501286064671251
 40
0.6262910911453035
 40
0.6898286531496701
 40
0.7511216740579904
 40
0.814289035637437
 40
0.8756974795450464
 40
0.9177642449921126
 40
0.9591981209150037
 40
1.0
 40
1.0
 40
1.0
 40
1.0
 10
268.1588623248031
 20
109.9400416259943
 30
0.0
 10
268.177486478887
 20
109.8140213590668
 30
0.0
 10
268.2160119877824
 20
109.5533386514032
 30
0.0
 10
268.2762956153452
 20
109.1536261314385
 30
0.0
 10
268.3449362579829
 20
108.7057270081301
 30
0.0
 10
268.4279316415999
 20
108.1751591553148
 30
0.0
 10
268.5516580121122
 20
107.4036303785243
 30
0.0
 10
268.7121873037421
 20
106.4416046870771
 30
0.0
 10
268.903359697374
 20
105.3535102796505
 30
0.0
 10
269.0969015202313
 20
104.3087252957139
 30
0.0
 10
269.357238852539
 20
102.978066999256
 30
0.0
 10
269.6859033870001
 20
101.4369739715039
 30
0.0
 10
270.0164716225792
 20
100.071342217767
 30
0.0
 10
270.2779806357759
 20
99.10155750075883
 30
0.0
 10
270.4734703396596
 20
98.43227975224296
 30
0.0
 10
270.6648624526885
 20
97.83232886110854
 30
0.0
 10
270.8343597607049
 20
97.35119268164618
 30
0.0
 10
270.9797938799696
 20
96.97579012523117
 30
0.0
 10
271.1032113906087
 20
96.68135830414037
 30
0.0
 10
271.1834979285151
 20
96.51151313352507
 30
0.0
 10
271.2233326890946
 20
96.42724319383824
 30
0.0
  0
SPLINE
  5
143
330
1F
100
AcDbEntity
  8
0
  6
HIDDEN
 62
     7
370
     0
100
AcDbSpline
210
0.0
220
0.0
230
1.0
 70
     8
 71
     3
 72
    30
 73
    26
 74
     0
 42
0.00000001
 43
0.00000001
 12
1.0
 22
0.0
 32
0.0
 13
1.0
 23
0.0
 33
0.0
 40
0.0
 40
0.0
 40
0.0
 40
0.0
 40
0.0207069114360711
 40
0.0414061125042614
 40
0.0621045485084533
 40
0.0828091655224444
 40
0.1035269034030793
 40
0.1242646888345929
 40
0.1553667458477103
 40
0.1865108101250305
 40
0.2488234702332015
 40
0.3112041718308839
 40
0.3736478134770454
 40
0.4361485351064887
 40
0.4986997874021864
 40
0.5612944505176378
 40
0.6239248439401128
 40
0.6865829301443156
 40
0.7492602701633989
 40
0.8119482692000781
 40
0.8746381457214804
 40
0.9059725145790308
 40
0.9373268683283912
 40
0.9686466601055378
 40
1.0
 40
1.0
 40
1.0
 40
1.0
 10
271.7208855993545
 20
96.93198655916522
 30
0.0
 10
271.6998068127431
 20
96.97523004226743
 30
0.0
 10
271.6576570883587
 20
97.06170090644886
 30
0.0
 10
271.5938420527116
 20
97.20151586307531
 30
0.0
 10
271.5296204099801
 20
97.34868054923018
 30
0.0
 10
271.4649480578242
 20
97.50392293312308
 30
0.0
 10
271.3998365961894
 20
97.6670500227879
 30
0.0
 10
271.3233928896448
 20
97.8665246361189
 30
0.0
 10
271.2353672413258
 20
98.107514818522
 30
0.0
 10
271.1022764640883
 20
98.49205458812798
 30
0.0
 10
270.9341046073493
 20
99.01554456031887
 30
0.0
 10
270.7301621388466
 20
99.7098320238522
 30
0.0
 10
270.5246140438655
 20
100.4683373896299
 30
0.0
 10
270.3180898269804
 20
101.2888156354961
 30
0.0
 10
270.1112183695579
 20
102.1686662165458
 30
0.0
 10
269.9046308677245
 20
103.1053200351258
 30
0.0
 10
269.6989552690533
 20
104.0958088223216
 30
0.0
 10
269.4948209938566
 20
105.1372138122389
 30
0.0
 10
269.2928466814734
 20
106.2262869499604
 30
0.0
 10
269.0936524442663
 20
107.3597330784383
 30
0.0
 10
268.930477869459
 20
108.3384185917261
 30
0.0
 10
268.8019192675652
 20
109.1399702863039
 30
0.0
 10
268.7066082997258
 20
109.7500687711407
 30
0.0
 10
268.6123178765237
 20
110.3682307709134
 30
0.0
 10
268.5504938937179
 20
110.7869719907496
 30
0.0
 10
268.5195653555255
 20
110.996454674049
 30
0.0
  0
ARC
  5
144
330
1F
100
AcDbEntity
  8
0
  6
HIDDEN
 62
     7
370
     0
100
AcDbCircle
 10
265.6669880223
 20
103.2370687688
 30
0.0
 40
2.101305819478466
100
AcDbArc
 50
13.0327790198
 51
157.656737969
  0
SPLINE
  5
145
330
1F
100
AcDbEntity
  8
0
  6
HIDDEN
 62
     7
370
     0
100
AcDbSpline
210
0.0
220
0.0
230
1.0
 70
     8
 71
     3
 72
    38
 73
    34
 74
     0
 42
0.00000001
 43
0.00000001
 12
1.0
 22
0.0
 32
0.0
 13
1.0
 23
0.0
 33
0.0
 40
0.0
 40
0.0
 40
0.0
 40
0.0
 40
0.1249999999999888
 40
0.1249999999999888
 40
0.187499999999983
 40
0.187499999999983
 40
0.2499999999999772
 40
0.2499999999999772
 40
0.3124999999999715
 40
0.3124999999999715
 40
0.3749999999999656
 40
0.3749999999999656
 40
0.4062499999999651
 40
0.4062499999999651
 40
0.4374999999999645
 40
0.4374999999999645
 40
0.4999999999999698
 40
0.4999999999999698
 40
0.5312499999999687
 40
0.5312499999999687
 40
0.5624999999999676
 40
0.5624999999999676
 40
0.6249999999999722
 40
0.6249999999999722
 40
0.687499999999977
 40
0.687499999999977
 40
0.7499999999999818
 40
0.7499999999999818
 40
0.8749999999999915
 40
0.8749999999999915
 40
0.9374999999999957
 40
0.9374999999999957
 40
1.0
 40
1.0
 40
1.0
 40
1.0
 10
263.7234428039761
 20
104.0358897327781
 30
0.0
 10
263.6034245937806
 20
103.7202018101233
 30
0.0
 10
263.557589975093
 20
103.4046083822366
 30
0.0
 10
263.5743811319679
 20
102.9346738463449
 30
0.0
 10
263.5950085902269
 20
102.7791814201267
 30
0.0
 10
263.6645079829767
 20
102.477249419791
 30
0.0
 10
263.7133490561529
 20
102.329780745586
 30
0.0
 10
263.8417933330842
 20
102.0416211366855
 30
0.0
 10
263.9220801101162
 20
101.8999588839252
 30
0.0
 10
264.1169799693596
 20
101.6311207441817
 30
0.0
 10
264.2321373834062
 20
101.5024852689974
 30
0.0
 10
264.4397295170593
 20
101.3248100280351
 30
0.0
 10
264.5141390446647
 20
101.268714001806
 30
0.0
 10
264.676158665984
 20
101.1639948316395
 30
0.0
 10
264.764783758263
 20
101.1148878551382
 30
0.0
 10
265.049616908593
 20
100.9862980211123
 30
0.0
 10
265.2698732175369
 20
100.9253593390428
 30
0.0
 10
265.6086776740087
 20
100.8977235011259
 30
0.0
 10
265.7241212151237
 20
100.8989160706806
 30
0.0
 10
265.9437455954102
 20
100.9202683526022
 30
0.0
 10
266.0508651257802
 20
100.9405304329219
 30
0.0
 10
266.3493583035757
 20
101.0212031631109
 30
0.0
 10
266.5256173930624
 20
101.1024064993056
 30
0.0
 10
266.8314596889639
 20
101.2900906539358
 30
0.0
 10
266.9643027834517
 20
101.398229498337
 30
0.0
 10
267.1972603468531
 20
101.632572693552
 30
0.0
 10
267.2959905546766
 20
101.7573136608112
 30
0.0
 10
267.5505940114818
 20
102.1514880321518
 30
0.0
 10
267.6659881729465
 20
102.4441560588209
 30
0.0
 10
267.7531228899176
 20
102.9024757749619
 30
0.0
 10
267.7680314337987
 20
103.0591219168449
 30
0.0
 10
267.7663370093386
 20
103.3806318891779
 30
0.0
 10
267.7495455288289
 20
103.5454890868177
 30
0.0
 10
267.7141610807481
 20
103.7109312946652
 30
0.0
  0
LINE
  5
146
330
1F
100
AcDbEntity
  8
0
  6
HIDDEN
 62
     7
370
     0
100
AcDbLine
 10
96.1675957906
 20
106.9865107734
 30
0.0
 11
96.1675957906
 21
100.932199714
 31
0.0
  0
LINE
  5
147
330
1F
100
AcDbEntity
  8
0
  6
HIDDEN
 62
     7
370
     0
100
AcDbLine
 10
94.6675964761
 20
107.4195236166
 30
0.0
 11
94.6675964761
 21
101.7982254003
 31
0.0
  0
SPLINE
  5
148
330
1F
100
AcDbEntity
  8
0
  6
HIDDEN
 62
     7
370
     0
100
AcDbSpline
210
0.0
220
0.0
230
1.0
 70
     8
 71
     3
 72
    16
 73
    12
 74
     0
 42
0.00000001
 43
0.00000001
 12
1.0
 22
0.0
 32
0.0
 13
1.0
 23
0.0
 33
0.0
 40
0.0
 40
0.0
 40
0.0
 40
0.0
 40
0.2500000000000007
 40
0.2500000000000007
 40
0.3750000000000007
 40
0.3750000000000007
 40
0.5000000000000008
 40
0.5000000000000008
 40
0.7500000000000003
 40
0.7500000000000003
 40
1.0
 40
1.0
 40
1.0
 40
1.0
 10
131.3462749106226
 20
105.5066567578896
 30
0.0
 10
131.1850424331382
 20
104.7922625956975
 30
0.0
 10
131.0645625934986
 20
104.1389203329888
 30
0.0
 10
130.9421820761852
 20
103.2506650911849
 30
0.0
 10
130.9112044157878
 20
102.969984554833
 30
0.0
 10
130.8695906781598
 20
102.440950564993
 30
0.0
 10
130.859354765227
 20
102.1976295864146
 30
0.0
 10
130.8591663681709
 20
101.5296068959014
 30
0.0
 10
130.8993110708085
 20
101.1659259864819
 30
0.0
 10
131.0634648257481
 20
100.6060351139336
 30
0.0
 10
131.1850164761577
 20
100.4185138218164
 30
0.0
 10
131.3462749106226
 20
100.3204824291285
 30
0.0
  0
LINE
  5
149
330
1F
100
AcDbEntity
  8
0
  6
HIDDEN
 62
     7
370
     0
100
AcDbLine
 10
130.4675952661
 20
106.5556427662
 30
0.0
 11
130.4675952661
 21
100.0704636995
 31
0.0
  0
SPLINE
  5
14A
330
1F
100
AcDbEntity
  8
0
  6
HIDDEN
 62
     7
370
     0
100
AcDbSpline
210
0.0
220
0.0
230
1.0
 70
     8
 71
     3
 72
    16
 73
    12
 74
     0
 42
0.00000001
 43
0.00000001
 12
1.0
 22
0.0
 32
0.0
 13
1.0
 23
0.0
 33
0.0
 40
0.0
 40
0.0
 40
0.0
 40
0.0
 40
0.2500000000000002
 40
0.2500000000000002
 40
0.3750000000000003
 40
0.3750000000000003
 40
0.5000000000000004
 40
0.5000000000000004
 40
0.7500000000000002
 40
0.7500000000000002
 40
1.0
 40
1.0
 40
1.0
 40
1.0
 10
131.3462749106226
 20
143.8606443391327
 30
0.0
 10
131.1850424331382
 20
143.762628726078
 30
0.0
 10
131.0645625934986
 20
143.5758926944019
 30
0.0
 10
130.9421820761852
 20
143.162852886843
 30
0.0
 10
130.9112044157878
 20
143.0028523876101
 30
0.0
 10
130.8695906781598
 20
142.6360467365189
 30
0.0
 10
130.859354765227
 20
142.4327095838949
 30
0.0
 10
130.8591663681709
 20
141.7654223172682
 30
0.0
 10
130.8993110708085
 20
141.2446078533802
 30
0.0
 10
131.0634648257481
 20
140.0472488379025
 30
0.0
 10
131.1850164761577
 20
139.3889791836065
 30
0.0
 10
131.3462749106226
 20
138.6744700103716
 30
0.0
  0
LINE
  5
14B
330
1F
100
AcDbEntity
  8
0
  6
HIDDEN
 62
     7
370
     0
100
AcDbLine
 10
130.4675952661
 20
144.1106630687
 30
0.0
 11
130.4675952661
 21
137.6254840021
 31
0.0
  0
LINE
  5
14C
330
1F
100
AcDbEntity
  8
0
  6
HIDDEN
 62
     7
370
     0
100
AcDbLine
 10
96.1675957906
 20
143.2489270542
 30
0.0
 11
96.1675957906
 21
137.1946159948
 31
0.0
  0
LINE
  5
14D
330
1F
100
AcDbEntity
  8
0
  6
HIDDEN
 62
     7
370
     0
100
AcDbLine
 10
94.6675964761
 20
142.382901368
 30
0.0
 11
94.6675964761
 21
136.7616031517
 31
0.0
  0
LWPOLYLINE
  5
14E
330
1F
100
AcDbEntity
  8
0
  6
HIDDEN
 62
     7
370
     0
100
AcDbPolyline
 90
       25
 70
   128
 43
0.0
 10
229.6675981152
 20
127.4813089718
 10
230.4440529215
 20
127.5640090194
 10
231.1675937045
 20
127.8064723325
 10
231.7889125216
 20
128.1921758514
 10
232.265675174
 20
128.6948348594
 10
232.5653747785
 20
129.2801929836
 10
232.6675967443
 20
129.9083598156
 10
232.5653747785
 20
130.536527579
 10
232.265675174
 20
131.1218852375
 10
231.7889125216
 20
131.6245442454
 10
231.1675937045
 20
132.0102477644
 10
230.4440529215
 20
132.2527110775
 10
229.6675981152
 20
132.3354115908
 10
228.8911358583
 20
132.2527110775
 10
228.1675950754
 20
132.0102477644
 10
227.5462762582
 20
131.6245442454
 10
227.0695210564
 20
131.1218852375
 10
226.7698214519
 20
130.536527579
 10
226.6675920355
 20
129.9083598156
 10
226.7698214519
 20
129.2801929836
 10
227.0695210564
 20
128.6948348594
 10
227.5462762582
 20
128.1921758514
 10
228.1675950754
 20
127.8064723325
 10
228.8911358583
 20
127.5640090194
 10
229.6675981152
 20
127.4813089718
  0
LINE
  5
14F
330
1F
100
AcDbEntity
  8
0
  6
HIDDEN
 62
     7
370
     0
100
AcDbLine
 10
94.6675964761
 20
136.7616031517
 30
0.0
 11
94.6675964761
 21
124.9925507896
 31
0.0
  0
LINE
  5
150
330
1F
100
AcDbEntity
  8
0
  6
HIDDEN
 62
     7
370
     0
100
AcDbLine
 10
94.6675964761
 20
119.1885759786
 30
0.0
 11
94.6675964761
 21
107.4195236166
 31
0.0
  0
LINE
  5
151
330
1F
100
AcDbEntity
  8
0
  6
HIDDEN
 62
     7
370
     0
100
AcDbLine
 10
96.1675957906
 20
118.1253522833
 30
0.0
 11
96.1675957906
 21
106.9865107734
 31
0.0
  0
LINE
  5
152
330
1F
100
AcDbEntity
  8
0
  6
HIDDEN
 62
     7
370
     0
100
AcDbLine
 10
96.1675957906
 20
137.1946159948
 30
0.0
 11
96.1675957906
 21
126.055774485
 31
0.0
  0
SPLINE
  5
153
330
1F
100
AcDbEntity
  8
0
  6
HIDDEN
 62
     7
370
     0
100
AcDbSpline
210
0.0
220
0.0
230
1.0
 70
     8
 71
     3
 72
    18
 73
    14
 74
     0
 42
0.00000001
 43
0.00000001
 12
1.0
 22
0.0
 32
0.0
 13
1.0
 23
0.0
 33
0.0
 40
0.0
 40
0.0
 40
0.0
 40
0.0
 40
0.2499999999999875
 40
0.2499999999999875
 40
0.3749999999999897
 40
0.3749999999999897
 40
0.4999999999999919
 40
0.4999999999999919
 40
0.6249999999999941
 40
0.6249999999999941
 40
0.7499999999999963
 40
0.7499999999999963
 40
1.0
 40
1.0
 40
1.0
 40
1.0
 10
267.7141610807022
 20
103.7109312946059
 30
0.0
 10
267.4234711165356
 20
103.8823263228284
 30
0.0
 10
267.1240079997073
 20
104.0452913832338
 30
0.0
 10
266.6364365160019
 20
104.246464187103
 30
0.0
 10
266.4668286864616
 20
104.305804395673
 30
0.0
 10
266.1200628891255
 20
104.3965709106092
 30
0.0
 10
265.9397423080733
 20
104.4285355248113
 30
0.0
 10
265.5754810311997
 20
104.4575467535522
 30
0.0
 10
265.3953624580042
 20
104.4546587697475
 30
0.0
 10
265.0384843332005
 20
104.4202355093879
 30
0.0
 10
264.8617146770793
 20
104.3885846064059
 30
0.0
 10
264.3535387281789
 20
104.2689715806111
 30
0.0
 10
264.0348859039444
 20
104.1572144740849
 30
0.0
 10
263.7234428039708
 20
104.0358897326167
 30
0.0
  0
LINE
  5
154
330
1F
100
AcDbEntity
  8
0
  6
HIDDEN
 62
     7
370
     0
100
AcDbLine
 10
132.4675952592
 20
137.1282704373
 30
0.0
 11
132.4675952592
 21
107.052856331
 31
0.0
  0
LINE
  5
155
330
1F
100
AcDbEntity
  8
0
  6
HIDDEN
 62
     7
370
     0
100
AcDbLine
 10
130.4675952661
 20
137.6254840021
 30
0.0
 11
130.4675952661
 21
106.5556427662
 31
0.0
  0
SPLINE
  5
156
330
1F
100
AcDbEntity
  8
0
  6
HIDDEN
 62
     7
370
     0
100
AcDbSpline
210
0.0
220
0.0
230
1.0
 70
     8
 71
     3
 72
    24
 73
    20
 74
     0
 42
0.00000001
 43
0.00000001
 12
1.0
 22
0.0
 32
0.0
 13
1.0
 23
0.0
 33
0.0
 40
0.0
 40
0.0
 40
0.0
 40
0.0
 40
0.125
 40
0.125
 40
0.2500000000000001
 40
0.2500000000000001
 40
0.3750000000000001
 40
0.3750000000000001
 40
0.4375000000000002
 40
0.4375000000000002
 40
0.5000000000000002
 40
0.5000000000000002
 40
0.6250000000000002
 40
0.6250000000000002
 40
0.7500000000000003
 40
0.7500000000000003
 40
0.8750000000000002
 40
0.8750000000000002
 40
1.0
 40
1.0
 40
1.0
 40
1.0
 10
101.1175952541823
 20
118.0046023310313
 30
0.0
 10
101.3553988864574
 20
118.3036094333615
 30
0.0
 10
101.5854845476687
 20
118.6079472846802
 30
0.0
 10
102.0202379462785
 20
119.2336808220762
 30
0.0
 10
102.2251707385647
 20
119.5549055494037
 30
0.0
 10
102.5902726890634
 20
120.2268313201364
 30
0.0
 10
102.7520730748549
 20
120.5821465520153
 30
0.0
 10
102.9239332794346
 20
121.1323777733678
 30
0.0
 10
102.9695184710947
 20
121.3187815583482
 30
0.0
 10
103.0319932106696
 20
121.6989160604445
 30
0.0
 10
103.048664356418
 20
121.8945858527304
 30
0.0
 10
103.0491853995945
 20
122.4730662314048
 30
0.0
 10
102.9847430987078
 20
122.8509780703736
 30
0.0
 10
102.7548940053345
 20
123.592946095472
 30
0.0
 10
102.5963733276714
 20
123.941661555633
 30
0.0
 10
102.2321389977712
 20
124.6147539533661
 30
0.0
 10
102.0254027577076
 20
124.9397064406078
 30
0.0
 10
101.5874648119673
 20
125.5706302510696
 30
0.0
 10
101.3561920846877
 20
125.8765199914102
 30
0.0
 10
101.1175952541824
 20
126.1765244372297
 30
0.0
  0
LINE
  5
157
330
1F
100
AcDbEntity
  8
0
  6
HIDDEN
 62
     7
370
     0
100
AcDbLine
 10
101.1175939012
 20
118.0046021205
 30
0.0
 11
101.1175939012
 21
126.1765246478
 31
0.0
  0
SPLINE
  5
158
330
1F
100
AcDbEntity
  8
0
  6
HIDDEN
 62
     7
370
     0
100
AcDbSpline
210
0.0
220
0.0
230
1.0
 70
     8
 71
     3
 72
     8
 73
     4
 74
     0
 42
0.00000001
 43
0.00000001
 12
1.0
 22
0.0
 32
0.0
 13
1.0
 23
0.0
 33
0.0
 40
0.0000249638557296
 40
0.0000249638557296
 40
0.0000249638557296
 40
0.0000249638557296
 40
0.0049776420541172
 40
0.0049776420541172
 40
0.0049776420541172
 40
0.0049776420541172
 10
96.1675952541823
 20
118.125352487294
 30
0.0
 10
97.81757148869184
 20
118.0840732495258
 30
0.0
 10
99.46757280843687
 20
118.0438515682863
 30
0.0
 10
101.1175952541823
 20
118.0046023310313
 30
0.0
  0
SPLINE
  5
159
330
1F
100
AcDbEntity
  8
0
  6
HIDDEN
 62
     7
370
     0
100
AcDbSpline
210
0.0
220
0.0
230
1.0
 70
     8
 71
     3
 72
     8
 73
     4
 74
     0
 42
0.00000001
 43
0.00000001
 12
1.0
 22
0.0
 32
0.0
 13
1.0
 23
0.0
 33
0.0
 40
0.0000249631533153
 40
0.0000249631533153
 40
0.0000249631533153
 40
0.0000249631533153
 40
0.0049776413517029
 40
0.0049776413517029
 40
0.0049776413517029
 40
0.0049776413517029
 10
101.1175952541823
 20
126.1765244372298
 30
0.0
 10
99.46757280843687
 20
126.1372751999748
 30
0.0
 10
97.81757148869183
 20
126.0970535187353
 30
0.0
 10
96.16759525418229
 20
126.0557742809671
 30
0.0
  0
SPLINE
  5
15A
330
1F
100
AcDbEntity
  8
0
  6
HIDDEN
 62
     7
370
     0
100
AcDbSpline
210
0.0
220
0.0
230
1.0
 70
     8
 71
     3
 72
     8
 73
     4
 74
     0
 42
0.00000001
 43
0.00000001
 12
1.0
 22
0.0
 32
0.0
 13
1.0
 23
0.0
 33
0.0
 40
0.0
 40
0.0
 40
0.0
 40
0.0
 40
1.0
 40
1.0
 40
1.0
 40
1.0
 10
94.66759525418006
 20
119.1885760511502
 30
0.0
 10
95.13435586555785
 20
118.7732128055272
 30
0.0
 10
95.64010341233792
 20
118.4286223762226
 30
0.0
 10
96.1675952541823
 20
118.125352487294
 30
0.0
  0
SPLINE
  5
15B
330
1F
100
AcDbEntity
  8
0
  6
HIDDEN
 62
     7
370
     0
100
AcDbSpline
210
0.0
220
0.0
230
1.0
 70
     8
 71
     3
 72
     8
 73
     4
 74
     0
 42
0.00000001
 43
0.00000001
 12
1.0
 22
0.0
 32
0.0
 13
1.0
 23
0.0
 33
0.0
 40
0.0
 40
0.0
 40
0.0
 40
0.0
 40
1.0
 40
1.0
 40
1.0
 40
1.0
 10
96.1675952541823
 20
126.0557742809671
 30
0.0
 10
95.64010341233877
 20
125.752504392039
 30
0.0
 10
95.13435586555947
 20
125.407913962735
 30
0.0
 10
94.6675952541823
 20
124.9925507171129
 30
0.0
  0
LINE
  5
15C
330
1F
100
AcDbEntity
  8
0
  6
HIDDEN
 62
     7
370
     0
100
AcDbLine
 10
94.6675964761
 20
119.1885759786
 30
0.0
 11
94.6675964761
 21
124.9925507896
 31
0.0
  0
SPLINE
  5
15D
330
1F
100
AcDbEntity
  8
0
  6
HIDDEN
 62
     7
370
     0
100
AcDbSpline
210
0.0
220
0.0
230
1.0
 70
     8
 71
     3
 72
    72
 73
    68
 74
     0
 42
0.00000001
 43
0.00000001
 12
1.0
 22
0.0
 32
0.0
 13
1.0
 23
0.0
 33
0.0
 40
-0.03125
 40
-0.03125
 40
0.0
 40
0.0
 40
0.03125
 40
0.03125
 40
0.0625
 40
0.0625
 40
0.0937499999999999
 40
0.0937499999999999
 40
0.1249999999999999
 40
0.1249999999999999
 40
0.1562499999999999
 40
0.1562499999999999
 40
0.1874999999999999
 40
0.1874999999999999
 40
0.2187499999999998
 40
0.2187499999999998
 40
0.2499999999999998
 40
0.2499999999999998
 40
0.2812499999999998
 40
0.2812499999999998
 40
0.3124999999999997
 40
0.3124999999999997
 40
0.3437499999999997
 40
0.3437499999999997
 40
0.3749999999999997
 40
0.3749999999999997
 40
0.3906249999999997
 40
0.3906249999999997
 40
0.4062499999999997
 40
0.4062499999999997
 40
0.4374999999999997
 40
0.4374999999999997
 40
0.4687499999999997
 40
0.4687499999999997
 40
0.4999999999999998
 40
0.4999999999999998
 40
0.5312499999999999
 40
0.5312499999999999
 40
0.5625
 40
0.5625
 40
0.59375
 40
0.59375
 40
0.625
 40
0.625
 40
0.65625
 40
0.65625
 40
0.6875
 40
0.6875
 40
0.71875
 40
0.71875
 40
0.7499999999999999
 40
0.7499999999999999
 40
0.7812499999999999
 40
0.7812499999999999
 40
0.8124999999999999
 40
0.8124999999999999
 40
0.8437499999999999
 40
0.8437499999999999
 40
0.8749999999999999
 40
0.8749999999999999
 40
0.90625
 40
0.90625
 40
0.9375
 40
0.9375
 40
0.96875
 40
0.96875
 40
1.0
 40
1.0
 40
1.03125
 40
1.03125
 10
113.7915415730075
 20
124.5313970339454
 30
0.0
 10
114.1659717928814
 20
124.9417528344306
 30
0.0
 10
114.370824394147
 20
125.1254019170891
 30
0.0
 10
114.813692590994
 20
125.4523568205844
 30
0.0
 10
115.0536480083123
 20
125.5961350287642
 30
0.0
 10
115.5492589910868
 20
125.8336523842101
 30
0.0
 10
115.8065252822413
 20
125.9289719491078
 30
0.0
 10
116.3398790500783
 20
126.0730574817423
 30
0.0
 10
116.6141591899766
 20
126.1207934887119
 30
0.0
 10
117.1605877245562
 20
126.1663756292457
 30
0.0
 10
117.435164043024
 20
126.1649418691735
 30
0.0
 10
117.9871312172947
 20
126.1120285610826
 30
0.0
 10
118.2577481798664
 20
126.0610588348785
 30
0.0
 10
118.7840333509456
 20
125.9124522079349
 30
0.0
 10
119.0416649143532
 20
125.8141668371778
 30
0.0
 10
119.5375910790267
 20
125.569913477992
 30
0.0
 10
119.7705747568183
 20
125.4268333469699
 30
0.0
 10
120.2069080321433
 20
125.098974796501
 30
0.0
 10
120.4121892860016
 20
124.9119811588008
 30
0.0
 10
120.7802235838618
 20
124.5025505389778
 30
0.0
 10
120.941738573847
 20
124.2824450979933
 30
0.0
 10
121.2188962569941
 20
123.8106950165553
 30
0.0
 10
121.3352904364278
 20
123.555678490114
 30
0.0
 10
121.5085644730745
 20
123.0344406667171
 30
0.0
 10
121.5670110275402
 20
122.7669565489361
 30
0.0
 10
121.6108757530161
 20
122.3550408896037
 30
0.0
 10
121.6180559696455
 20
122.2153335865282
 30
0.0
 10
121.61708794235
 20
121.9392105310658
 30
0.0
 10
121.6090851529364
 20
121.802033964735
 30
0.0
 10
121.563012421024
 20
121.3931005234717
 30
0.0
 10
121.5020775885719
 20
121.1211742744675
 30
0.0
 10
121.3239574321634
 20
120.5979937580124
 30
0.0
 10
121.208389520821
 20
120.349281757649
 30
0.0
 10
120.9265427368817
 20
119.876397232657
 30
0.0
 10
120.7596727914671
 20
119.6527880154249
 30
0.0
 10
120.3903472366683
 20
119.2481306272373
 30
0.0
 10
120.1855620803708
 20
119.0637170390678
 30
0.0
 10
119.7409091328546
 20
118.7346910041734
 30
0.0
 10
119.5060600033438
 20
118.5935229281852
 30
0.0
 10
119.0126502408668
 20
118.3551133994047
 30
0.0
 10
118.7513632871621
 20
118.2573308429998
 30
0.0
 10
118.2206250066495
 20
118.1120028148096
 30
0.0
 10
117.9509853057522
 20
118.0637134246147
 30
0.0
 10
117.403233966007
 20
118.0152982008281
 30
0.0
 10
117.1233299241484
 20
118.015756386464
 30
0.0
 10
116.5762520163134
 20
118.0659082420662
 30
0.0
 10
116.3066469116259
 20
118.1150818090982
 30
0.0
 10
115.7754921549699
 20
118.2627563324052
 30
0.0
 10
115.5141973385263
 20
118.3619114967708
 30
0.0
 10
115.021883360351
 20
118.6029242672475
 30
0.0
 10
114.7879264847723
 20
118.7454123918723
 30
0.0
 10
114.3457578642419
 20
119.0768998208572
 30
0.0
 10
114.1405643331302
 20
119.2643334488456
 30
0.0
 10
113.7748701167722
 20
119.671237167896
 30
0.0
 10
113.6120994943839
 20
119.892416242565
 30
0.0
 10
113.3311470636183
 20
120.3721635717802
 30
0.0
 10
113.2179432113448
 20
120.6221755385905
 30
0.0
 10
113.0453344872059
 20
121.1422507486109
 30
0.0
 10
112.9857282045295
 20
121.4159822132407
 30
0.0
 10
112.9278364344596
 20
121.9645998631392
 30
0.0
 10
112.9286259733196
 20
122.2389397270308
 30
0.0
 10
112.989816448936
 20
122.7876816781697
 30
0.0
 10
113.05094517267
 20
123.0607469920269
 30
0.0
 10
113.2270248582999
 20
123.5809122407953
 30
0.0
 10
113.3433554532898
 20
123.8332313743542
 30
0.0
 10
113.6265566830305
 20
124.3096357157612
 30
0.0
 10
113.7915415730075
 20
124.5313970339454
 30
0.0
 10
114.1659717928814
 20
124.9417528344306
 30
0.0
  0
CIRCLE
  5
15E
330
1F
100
AcDbEntity
  8
0
  6
HIDDEN
 62
     7
370
     0
100
AcDbCircle
 10
117.1675952542
 20
122.0905633841
 30
0.0
 40
4.050000000000026
  0
SPLINE
  5
15F
330
1F
100
AcDbEntity
  8
0
  6
HIDDEN
 62
     7
370
     0
100
AcDbSpline
210
0.0
220
0.0
230
1.0
 70
     8
 71
     3
 72
     9
 73
     5
 74
     0
 42
0.00000001
 43
0.00000001
 12
1.0
 22
0.0
 32
0.0
 13
1.0
 23
0.0
 33
0.0
 40
0.0
 40
0.0
 40
0.0
 40
0.0
 40
0.4965414323505494
 40
1.0
 40
1.0
 40
1.0
 40
1.0
 10
268.5195609055024
 20
110.9964561074353
 30
0.0
 10
268.4621133770348
 20
110.8208363808503
 30
0.0
 10
268.3464180397987
 20
110.4671504341336
 30
0.0
 10
268.2216642632542
 20
110.1165568425698
 30
0.0
 10
268.1588559056062
 20
109.940047495134
 30
0.0
  0
LINE
  5
160
330
1F
100
AcDbEntity
  8
0
  6
HIDDEN
 62
     7
370
     0
100
AcDbLine
 10
249.7171105015
 20
111.5534857114
 30
0.0
 11
268.1588621008
 21
109.940041994
 31
0.0
  0
LINE
  5
161
330
1F
100
AcDbEntity
  8
0
  6
HIDDEN
 62
     7
370
     0
100
AcDbLine
 10
268.5195596087
 20
110.9964560915
 30
0.0
 11
268.4170843232
 21
112.0653014828
 31
0.0
  0
LINE
  5
162
330
1F
100
AcDbEntity
  8
0
  6
HIDDEN
 62
     7
370
     0
100
AcDbLine
 10
268.4170843232
 20
112.0653014828
 30
0.0
 11
261.3096029627
 21
122.0905633841
 31
0.0
  0
CIRCLE
  5
163
330
1F
100
AcDbEntity
  8
0
  6
HIDDEN
 62
     7
370
     0
100
AcDbCircle
 10
144.6675952542
 20
122.0905633841
 30
0.0
 40
2.0
  0
LINE
  5
164
330
1F
100
AcDbEntity
  8
0
  6
HIDDEN
 62
     7
370
     0
100
AcDbLine
 10
132.6675952542
 20
97.8405626689
 30
0.0
 11
132.7604884746
 21
97.9334565078
 31
0.0
  0
LINE
  5
165
330
1F
100
AcDbEntity
  8
0
  6
HIDDEN
 62
     7
370
     0
100
AcDbLine
 10
132.7604884746
 20
146.2476702605
 30
0.0
 11
132.6675952542
 21
146.3405640994
 31
0.0
  0
ARC
  5
166
330
1F
100
AcDbEntity
  8
0
  6
HIDDEN
 62
     7
370
     0
100
AcDbCircle
 10
132.0533816918
 20
98.6405633841
 30
0.0
 40
1.000000000000038
100
AcDbArc
 50
315.0
 51
0.0
  0
ARC
  5
167
330
1F
100
AcDbEntity
  8
0
  6
HIDDEN
 62
     7
370
     0
100
AcDbCircle
 10
132.0533816918
 20
98.6405633841
 30
0.0
 40
1.000000000000016
100
AcDbArc
 50
0.0
 51
52.1052014664
  0
ARC
  5
168
330
1F
100
AcDbEntity
  8
0
  6
HIDDEN
 62
     7
370
     0
100
AcDbCircle
 10
132.0533816918
 20
145.5405633841
 30
0.0
 40
1.000000000000048
100
AcDbArc
 50
351.8087250651
 51
45.0
  0
ARC
  5
169
330
1F
100
AcDbEntity
  8
0
  6
HIDDEN
 62
     7
370
     0
100
AcDbCircle
 10
132.0533816918
 20
145.5405633841
 30
0.0
 40
1.000000000000016
100
AcDbArc
 50
307.8947985336
 51
351.8087250651
  0
LINE
  5
16A
330
1F
100
AcDbEntity
  8
0
  6
HIDDEN
 62
     7
370
     0
100
AcDbLine
 10
133.05338169
 20
98.6405631725
 30
0.0
 11
133.05338169
 21
145.5405635957
 31
0.0
  0
LINE
  5
16B
330
1F
100
AcDbEntity
  8
0
  6
HIDDEN
 62
     7
370
     0
100
AcDbLine
 10
133.05338169
 20
98.6405631725
 30
0.0
 11
133.05338169
 21
145.5405635957
 31
0.0
  0
LINE
  5
16C
330
1F
100
AcDbEntity
  8
0
  6
HIDDEN
 62
     7
370
     0
100
AcDbLine
 10
94.6675964761
 20
105.8941336547
 30
0.0
 11
96.1978227961
 21
106.777612326
 31
0.0
  0
LINE
  5
16D
330
1F
100
AcDbEntity
  8
0
  6
HIDDEN
 62
     7
370
     0
100
AcDbLine
 10
96.1978227961
 20
137.4035144423
 30
0.0
 11
94.6675964761
 21
138.2869931136
 31
0.0
  0
LINE
  5
16E
330
1F
100
AcDbEntity
  8
0
  6
HIDDEN
 62
     7
370
     0
100
AcDbLine
 10
104.6675943899
 20
106.0905626242
 30
0.0
 11
105.6693957317
 21
106.0905626242
 31
0.0
  0
LINE
  5
16F
330
1F
100
AcDbEntity
  8
0
  6
HIDDEN
 62
     7
370
     0
100
AcDbLine
 10
105.6693957317
 20
138.0905641441
 30
0.0
 11
104.6675943899
 21
138.0905641441
 31
0.0
  0
ARC
  5
170
330
1F
100
AcDbEntity
  8
0
  6
HIDDEN
 62
     7
370
     0
100
AcDbCircle
 10
104.6675952542
 20
108.0905633841
 30
0.0
 40
2.000000000000028
100
AcDbArc
 50
189.9742217944
 51
270.0
  0
ARC
  5
171
330
1F
100
AcDbEntity
  8
0
  6
HIDDEN
 62
     7
370
     0
100
AcDbCircle
 10
104.6675952542
 20
136.0905633841
 30
0.0
 40
2.0
100
AcDbArc
 50
90.0
 51
170.0257782056
  0
ARC
  5
172
330
1F
100
AcDbEntity
  8
0
  6
HIDDEN
 62
     7
370
     0
100
AcDbCircle
 10
105.6693965691
 20
108.0905633841
 30
0.0
 40
2.000000000000026
100
AcDbArc
 50
270.0
 51
315.0
  0
ARC
  5
173
330
1F
100
AcDbEntity
  8
0
  6
HIDDEN
 62
     7
370
     0
100
AcDbCircle
 10
105.6693965691
 20
136.0905633841
 30
0.0
 40
2.000000000000016
100
AcDbArc
 50
45.0
 51
90.0
  0
LINE
  5
174
330
1F
100
AcDbEntity
  8
0
  6
HIDDEN
 62
     7
370
     0
100
AcDbLine
 10
107.0836109239
 20
106.6763496224
 30
0.0
 11
108.4978242534
 21
108.090562952
 31
0.0
  0
LINE
  5
175
330
1F
100
AcDbEntity
  8
0
  6
HIDDEN
 62
     7
370
     0
100
AcDbLine
 10
108.4978242534
 20
136.0905638163
 30
0.0
 11
107.0836109239
 21
137.5047771458
 31
0.0
  0
LINE
  5
176
330
1F
100
AcDbEntity
  8
0
  6
HIDDEN
 62
     7
370
     0
100
AcDbLine
 10
96.1978227961
 20
106.777612326
 30
0.0
 11
101.0978237855
 21
108.090562952
 31
0.0
  0
LINE
  5
177
330
1F
100
AcDbEntity
  8
0
  6
HIDDEN
 62
     7
370
     0
100
AcDbLine
 10
101.0978237855
 20
136.0905638163
 30
0.0
 11
96.1978227961
 21
137.4035144423
 31
0.0
  0
LINE
  5
178
330
1F
100
AcDbEntity
  8
0
  6
HIDDEN
 62
     7
370
     0
100
AcDbLine
 10
232.167595731
 20
115.4059914139
 30
0.0
 11
232.167595731
 21
119.5932705619
 31
0.0
  0
LINE
  5
179
330
1F
100
AcDbEntity
  8
0
  6
HIDDEN
 62
     7
370
     0
100
AcDbLine
 10
232.167595731
 20
112.6859991078
 30
0.0
 11
232.167595731
 21
112.8016395692
 31
0.0
  0
LINE
  5
17A
330
1F
100
AcDbEntity
  8
0
  6
HIDDEN
 62
     7
370
     0
100
AcDbLine
 10
227.1675930488
 20
119.5926686947
 30
0.0
 11
227.1675930488
 21
112.6859991078
 31
0.0
  0
LINE
  5
17B
330
1F
100
AcDbEntity
  8
0
  6
HIDDEN
 62
     7
370
     0
100
AcDbLine
 10
102.6978229302
 20
136.4369739045
 30
0.0
 11
102.0978239495
 21
136.0905638163
 31
0.0
  0
LINE
  5
17C
330
1F
100
AcDbEntity
  8
0
  6
HIDDEN
 62
     7
370
     0
100
AcDbLine
 10
102.0978239495
 20
108.090562952
 30
0.0
 11
102.6978229302
 21
107.7441528638
 31
0.0
  0
ARC
  5
17D
330
1F
100
AcDbEntity
  8
0
  6
HIDDEN
 62
     7
370
     0
100
AcDbCircle
 10
121.1675952542
 20
108.5905633841
 30
0.0
 40
0.5000000000000284
100
AcDbArc
 50
270.0
 51
360.0
  0
ARC
  5
17E
330
1F
100
AcDbEntity
  8
0
  6
HIDDEN
 62
     7
370
     0
100
AcDbCircle
 10
121.1675952542
 20
135.5905633841
 30
0.0
 40
0.5
100
AcDbArc
 50
0.0
 51
90.0
  0
LINE
  5
17F
330
1F
100
AcDbEntity
  8
0
  6
HIDDEN
 62
     7
370
     0
100
AcDbLine
 10
108.4978242534
 20
108.090562952
 30
0.0
 11
121.1675952318
 21
108.090562952
 31
0.0
  0
LINE
  5
180
330
1F
100
AcDbEntity
  8
0
  6
HIDDEN
 62
     7
370
     0
100
AcDbLine
 10
121.1675952318
 20
136.0905638163
 30
0.0
 11
108.4978242534
 21
136.0905638163
 31
0.0
  0
LINE
  5
181
330
1F
100
AcDbEntity
  8
0
  6
HIDDEN
 62
     7
370
     0
100
AcDbLine
 10
101.0978237855
 20
108.090562952
 30
0.0
 11
102.0978239495
 21
108.090562952
 31
0.0
  0
LINE
  5
182
330
1F
100
AcDbEntity
  8
0
  6
HIDDEN
 62
     7
370
     0
100
AcDbLine
 10
102.0978239495
 20
136.0905638163
 30
0.0
 11
101.0978237855
 21
136.0905638163
 31
0.0
  0
LINE
  5
183
330
1F
100
AcDbEntity
  8
0
  6
HIDDEN
 62
     7
370
     0
100
AcDbLine
 10
237.449245261
 20
113.3709421579
 30
0.0
 11
231.8515421021
 21
115.9122462582
 31
0.0
  0
LINE
  5
184
330
1F
100
AcDbEntity
  8
0
  6
HIDDEN
 62
     7
370
     0
100
AcDbLine
 10
229.8363388646
 20
111.3359818433
 30
0.0
 11
237.4758289325
 21
107.8677281935
 31
0.0
  0
LINE
  5
185
330
1F
100
AcDbEntity
  8
0
  6
HIDDEN
 62
     7
370
     0
100
AcDbLine
 10
121.6675953138
 20
111.840563101
 30
0.0
 11
122.917595053
 21
113.0905637716
 31
0.0
  0
LINE
  5
186
330
1F
100
AcDbEntity
  8
0
  6
HIDDEN
 62
     7
370
     0
100
AcDbLine
 10
122.917595053
 20
131.0905629967
 30
0.0
 11
121.6675953138
 21
132.3405636673
 31
0.0
  0
LINE
  5
187
330
1F
100
AcDbEntity
  8
0
  6
HIDDEN
 62
     7
370
     0
100
AcDbLine
 10
122.917595053
 20
113.0905637716
 30
0.0
 11
148.6675960141
 21
113.0905637716
 31
0.0
  0
LINE
  5
188
330
1F
100
AcDbEntity
  8
0
  6
HIDDEN
 62
     7
370
     0
100
AcDbLine
 10
148.6675960141
 20
131.0905629967
 30
0.0
 11
122.917595053
 21
131.0905629967
 31
0.0
  0
LINE
  5
189
330
1F
100
AcDbEntity
  8
0
  6
HIDDEN
 62
     7
370
     0
100
AcDbLine
 10
148.6675960141
 20
113.0905637716
 30
0.0
 11
151.5216824728
 21
117.8405631532
 31
0.0
  0
LINE
  5
18A
330
1F
100
AcDbEntity
  8
0
  6
HIDDEN
 62
     7
370
     0
100
AcDbLine
 10
151.5216824728
 20
126.3405636151
 30
0.0
 11
148.6675960141
 21
131.0905629967
 31
0.0
  0
LINE
  5
18B
330
1F
100
AcDbEntity
  8
0
  6
HIDDEN
 62
     7
370
     0
100
AcDbLine
 10
232.6675967443
 20
117.8405631532
 30
0.0
 11
235.2212534416
 21
122.0905633841
 31
0.0
  0
LINE
  5
18C
330
1F
100
AcDbEntity
  8
0
  6
HIDDEN
 62
     7
370
     0
100
AcDbLine
 10
235.2212534416
 20
122.0905633841
 30
0.0
 11
232.6675967443
 21
126.3405636151
 31
0.0
  0
LINE
  5
18D
330
1F
100
AcDbEntity
  8
0
  6
HIDDEN
 62
     7
370
     0
100
AcDbLine
 10
232.6675967443
 20
126.3405636151
 30
0.0
 11
151.5216824728
 21
126.3405636151
 31
0.0
  0
LINE
  5
18E
330
1F
100
AcDbEntity
  8
0
  6
HIDDEN
 62
     7
370
     0
100
AcDbLine
 10
151.5216824728
 20
117.8405631532
 30
0.0
 11
232.6675967443
 21
117.8405631532
 31
0.0
  0
ARC
  5
18F
330
1F
100
AcDbEntity
  8
0
  6
HIDDEN
 62
     7
370
     0
100
AcDbCircle
 10
246.2533816918
 20
101.0905633841
 30
0.0
 40
0.9999999999999956
100
AcDbArc
 50
45.0
 51
64.9142000701
  0
LINE
  5
190
330
1F
100
AcDbEntity
  8
0
  6
HIDDEN
 62
     7
370
     0
100
AcDbLine
 10
262.1018977034
 20
108.0574525718
 30
0.0
 11
262.1018977034
 21
108.0811696325
 31
0.0
  0
LINE
  5
191
330
1F
100
AcDbEntity
  8
0
  6
HIDDEN
 62
     7
370
     0
100
AcDbLine
 10
257.9019011128
 20
108.0811696325
 30
0.0
 11
257.9019011128
 21
107.7463386778
 31
0.0
  0
LINE
  5
192
330
1F
100
AcDbEntity
  8
0
  6
HIDDEN
 62
     7
370
     0
100
AcDbLine
 10
232.167595731
 20
124.5884580736
 30
0.0
 11
232.167595731
 21
129.7317717422
 31
0.0
  0
LINE
  5
193
330
1F
100
AcDbEntity
  8
0
  6
HIDDEN
 62
     7
370
     0
100
AcDbLine
 10
227.1675930488
 20
129.7317717422
 30
0.0
 11
227.1675930488
 21
124.5878562064
 31
0.0
  0
LINE
  5
194
330
1F
100
AcDbEntity
  8
0
  6
HIDDEN
 62
     7
370
     0
100
AcDbLine
 10
267.7672148812
 20
102.4687087361
 30
0.0
 11
267.7672148812
 21
103.2069327508
 31
0.0
  0
LINE
  5
195
330
1F
100
AcDbEntity
  8
0
  6
HIDDEN
 62
     7
370
     0
100
AcDbLine
 10
263.5672182906
 20
103.1789502327
 30
0.0
 11
263.5672182906
 21
102.4687087361
 31
0.0
  0
LINE
  5
196
330
1F
100
AcDbEntity
  8
0
  6
HIDDEN
 62
     7
370
     0
100
AcDbLine
 10
232.6675967443
 20
129.9083598156
 30
0.0
 11
232.6675967443
 21
133.8457998086
 31
0.0
  0
LINE
  5
197
330
1F
100
AcDbEntity
  8
0
  6
HIDDEN
 62
     7
370
     0
100
AcDbLine
 10
226.6675920355
 20
133.846199346
 30
0.0
 11
226.6675920355
 21
129.9083598156
 31
0.0
  0
LINE
  5
198
330
1F
100
AcDbEntity
  8
VERMASSUNG
  6
CENTERX2
100
AcDbLine
 10
272.6675952542
 20
95.0905633841
 30
0.0
 11
272.6675952542
 21
122.0905633841
 31
0.0
  0
LINE
  5
199
330
1F
100
AcDbEntity
  8
VERMASSUNG
  6
CENTERX2
100
AcDbLine
 10
272.6675952542
 20
95.0905633841
 30
0.0
 11
284.1271271683
 21
95.0905633841
 31
0.0
  0
LINE
  5
19A
330
1F
100
AcDbEntity
  8
VERMASSUNG
  6
CENTERX2
100
AcDbLine
 10
92.4491997564
 20
122.0905633841
 30
0.0
 11
272.6675952542
 21
122.0905633841
 31
0.0
  0
DIMENSION
  5
19B
330
1F
100
AcDbEntity
  8
VERMASSUNG
100
AcDbDimension
  2
_D
 10
287.5784782592
 20
122.0905633841
 30
0.0
 11
287.5784782592
 21
108.5905633841
 31
0.0
 70
   160
  1
<>
 71
     2
 42
-1.0
  3
SLDDIMSTYLE0
100
AcDbAlignedDimension
 13
272.6675952542
 23
95.0905633841
 33
0.0
 14
272.6675952542
 24
122.0905633841
 34
0.0
 50
90.0
100
AcDbRotatedDimension
  0
DIMENSION
  5
1A6
330
1F
100
AcDbEntity
  8
VERMASSUNG
100
AcDbDimension
  2
_D_1
 10
271.6129200327
 20
107.5326384261
 30
0.0
 11
278.6117216168
 21
101.5389529403
 31
0.0
 70
   162
  1
<>
 71
     1
 42
-1.0
  3
SLDDIMSTYLE1
100
AcDb2LineAngularDimension
 13
284.1271271683
 23
95.0905633841
 33
0.0
 14
272.6675952542
 24
95.0905633841
 34
0.0
 15
272.6660731334
 25
95.5243663785
 35
0.0
 16
278.6117216168
 26
101.5389529403
 36
0.0
  0
DIMENSION
  5
1AF
330
1F
100
AcDbEntity
  8
VERMASSUNG
100
AcDbDimension
  2
_D_2
 10
272.6675952542
 20
80.5905633841
 30
0.0
 11
202.6675952542
 21
80.5905633841
 31
0.0
 70
   160
  1
<>
 71
     2
 42
-1.0
  3
SLDDIMSTYLE0
100
AcDbAlignedDimension
 13
132.6675952542
 23
91.0905633841
 33
0.0
 14
272.6675952542
 24
95.0905633841
 34
0.0
100
AcDbRotatedDimension
  0
DIMENSION
  5
1B9
330
1F
100
AcDbEntity
  8
VERMASSUNG
100
AcDbDimension
  2
_D_3
 10
272.6675952542
 20
68.5905633841
 30
0.0
 11
183.6675952542
 21
68.5905633841
 31
0.0
 70
   160
  1
<>
 71
     2
 42
-1.0
  3
SLDDIMSTYLE0
100
AcDbAlignedDimension
 13
94.6675952542
 23
101.7982253916
 33
0.0
 14
272.6675952542
 24
95.0905633841
 34
0.0
 50
0.0
100
AcDbRotatedDimension
  0
DIMENSION
  5
1C3
330
1F
100
AcDbEntity
  8
VERMASSUNG
100
AcDbDimension
  2
_D_4
 10
88.7989259267
 20
90.5905633841
 30
0.0
 11
88.7989259267
 21
122.0905633841
 31
0.0
 70
   160
  1
PSC%%c<>
 71
     2
 42
-1.0
  3
SLDDIMSTYLE0
100
AcDbAlignedDimension
 13
133.1675952542
 23
153.5905633841
 33
0.0
 14
133.1675952542
 24
90.5905633841
 34
0.0
 50
90.0
100
AcDbRotatedDimension
  0
DIMENSION
  5
1CF
330
1F
100
AcDbEntity
  8
VERMASSUNG
100
AcDbDimension
  2
_D_5
 10
187.0408284214
 20
142.0905633841
 30
0.0
 11
187.0408284214
 21
111.9464587992
 31
0.0
 70
   160
  1
%%c<>
 71
     2
 42
-1.0
  3
SLDDIMSTYLE0
100
AcDbAlignedDimension
 13
158.6675952542
 23
102.0905633841
 33
0.0
 14
158.6675952542
 24
142.0905633841
 34
0.0
 50
90.0
100
AcDbRotatedDimension
  0
LINE
  5
1D8
330
1F
100
AcDbEntity
  8
0
  6
Continuous
 62
     7
370
    15
100
AcDbLine
 10
42.2107224263
 20
95.0905626838
 30
0.0
 11
45.4326226286
 21
95.7168379997
 31
0.0
  0
LINE
  5
1D9
330
1F
100
AcDbEntity
  8
0
  6
Continuous
 62
     7
370
    15
100
AcDbLine
 10
41.5435915607
 20
108.9316552703
 30
0.0
 11
41.2417528246
 21
108.9474747155
 31
0.0
  0
SPLINE
  5
1DA
330
1F
100
AcDbEntity
  8
0
  6
Continuous
 62
     7
370
    15
100
AcDbSpline
210
0.0
220
0.0
230
1.0
 70
     8
 71
     3
 72
    25
 73
    21
 74
     0
 42
0.00000001
 43
0.00000001
 12
1.0
 22
0.0
 32
0.0
 13
1.0
 23
0.0
 33
0.0
 40
0.0
 40
0.0
 40
0.0
 40
0.0
 40
0.0195561016479899
 40
0.040453314798002
 40
0.0626916353131656
 40
0.0904317578708869
 40
0.125391763982565
 40
0.1880884417348174
 40
0.2507790566138535
 40
0.3134558430961987
 40
0.3761112042161063
 40
0.501286064671251
 40
0.6262910911453035
 40
0.6898286531496701
 40
0.7511216740579904
 40
0.814289035637437
 40
0.8756974795450464
 40
0.9177642449921126
 40
0.9591981209150037
 40
1.0
 40
1.0
 40
1.0
 40
1.0
 10
62.71072244422156
 20
109.9400416259943
 30
0.0
 10
62.64996952123701
 20
109.8140213590668
 30
0.0
 10
62.52429738255464
 20
109.5533386514032
 30
0.0
 10
62.32102846259324
 20
109.1536261314385
 30
0.0
 10
62.08370895906949
 20
108.7057270081301
 30
0.0
 10
61.78803263845878
 20
108.1751591553148
 30
0.0
 10
61.33132979670872
 20
107.4036303785243
 30
0.0
 10
60.70753859193523
 20
106.4416046870771
 30
0.0
 10
59.91815968102232
 20
105.3535102796505
 30
0.0
 10
59.07322673855631
 20
104.3087252957139
 30
0.0
 10
57.87643272800272
 20
102.978066999256
 30
0.0
 10
56.2535863332114
 20
101.4369739715039
 30
0.0
 10
54.47274721169894
 20
100.071342217767
 30
0.0
 10
52.97457137487842
 20
99.10155750075883
 30
0.0
 10
51.80998289330937
 20
98.43227975224296
 30
0.0
 10
50.62493519396035
 20
97.83232886110854
 30
0.0
 10
49.53521192255822
 20
97.35119268164618
 30
0.0
 10
48.56986853017691
 20
96.97579012523117
 30
0.0
 10
47.73123781264317
 20
96.68135830414037
 30
0.0
 10
47.16822095988602
 20
96.51151313352507
 30
0.0
 10
46.88887597731963
 20
96.42724319383824
 30
0.0
  0
SPLINE
  5
1DB
330
1F
100
AcDbEntity
  8
0
  6
Continuous
 62
     7
370
    15
100
AcDbSpline
210
0.0
220
0.0
230
1.0
 70
     8
 71
     3
 72
    30
 73
    26
 74
     0
 42
0.00000001
 43
0.00000001
 12
1.0
 22
0.0
 32
0.0
 13
1.0
 23
0.0
 33
0.0
 40
0.0
 40
0.0
 40
0.0
 40
0.0
 40
0.0207069114360711
 40
0.0414061125042614
 40
0.0621045485084533
 40
0.0828091655224444
 40
0.1035269034030793
 40
0.1242646888345929
 40
0.1553667458477103
 40
0.1865108101250305
 40
0.2488234702332015
 40
0.3112041718308839
 40
0.3736478134770454
 40
0.4361485351064887
 40
0.4986997874021864
 40
0.5612944505176378
 40
0.6239248439401128
 40
0.6865829301443156
 40
0.7492602701633989
 40
0.8119482692000781
 40
0.8746381457214804
 40
0.9059725145790308
 40
0.9373268683283912
 40
0.9686466601055378
 40
1.0
 40
1.0
 40
1.0
 40
1.0
 10
46.85357962911301
 20
96.93198655916522
 30
0.0
 10
46.99849044283935
 20
96.97523004226743
 30
0.0
 10
47.28825811170495
 20
97.06170090644886
 30
0.0
 10
47.71966870836773
 20
97.20151586307531
 30
0.0
 10
48.14852873181817
 20
97.34868054923018
 30
0.0
 10
48.57461832528464
 20
97.50392293312308
 30
0.0
 10
48.99799656280312
 20
97.6670500227879
 30
0.0
 10
49.48853320148286
 20
97.8665246361189
 30
0.0
 10
50.04412486364572
 20
98.107514818522
 30
0.0
 10
50.86760220657279
 20
98.49205458812798
 30
0.0
 10
51.87729594852917
 20
99.01554456031887
 30
0.0
 10
53.05297705288284
 20
99.7098320238522
 30
0.0
 10
54.18970961272708
 20
100.4683373896299
 30
0.0
 10
55.28394835306459
 20
101.2888156354961
 30
0.0
 10
56.33244503107638
 20
102.1686662165458
 30
0.0
 10
57.33190579255299
 20
103.1053200351258
 30
0.0
 10
58.27939209570059
 20
104.0958088223216
 30
0.0
 10
59.17191217893804
 20
105.1372138122389
 30
0.0
 10
60.00683671827634
 20
106.2262869499604
 30
0.0
 10
60.78156242996273
 20
107.3597330784383
 30
0.0
 10
61.37501150352551
 20
108.3384185917261
 30
0.0
 10
61.81755337506129
 20
109.1399702863039
 30
0.0
 10
62.13264697124343
 20
109.7500687711407
 30
0.0
 10
62.43239085799805
 20
110.3682307709134
 30
0.0
 10
62.61790910493021
 20
110.7869719907496
 30
0.0
 10
62.71071788115615
 20
110.996454674049
 30
0.0
  0
SPLINE
  5
1DC
330
1F
100
AcDbEntity
  8
0
  6
Continuous
 62
     7
370
    15
100
AcDbSpline
210
0.0
220
0.0
230
1.0
 70
    24
 71
     3
 72
     9
 73
     5
 74
     0
 42
0.00000001
 43
0.00000001
 12
1.0
 22
0.0
 32
0.0
 13
1.0
 23
0.0
 33
0.0
 40
0.0
 40
0.0
 40
0.0
 40
0.0
 40
0.4965414323505494
 40
1.0
 40
1.0
 40
1.0
 40
1.0
 10
62.71072242628369
 20
110.9964561074353
 30
0.0
 10
62.71072242628369
 20
110.8208363808503
 30
0.0
 10
62.71072242628369
 20
110.4671504341336
 30
0.0
 10
62.71072242628369
 20
110.1165568425698
 30
0.0
 10
62.71072242628369
 20
109.940047495134
 30
0.0
  0
LINE
  5
1DD
330
1F
100
AcDbEntity
  8
0
  6
Continuous
 62
     7
370
    15
100
AcDbLine
 10
46.0811563212
 20
107.9781728063
 30
0.0
 11
43.7087580472
 21
107.7863538836
 31
0.0
  0
LINE
  5
1DE
330
1F
100
AcDbEntity
  8
0
  6
Continuous
 62
     7
370
    15
100
AcDbLine
 10
43.7087580472
 20
107.7863538836
 30
0.0
 11
41.61738019
 21
107.876428609
 31
0.0
  0
LINE
  5
1DF
330
1F
100
AcDbEntity
  8
0
  6
Continuous
 62
     7
370
    15
100
AcDbLine
 10
41.3638293653
 20
111.5023747285
 30
0.0
 11
41.61738019
 21
107.876428609
 31
0.0
  0
LINE
  5
1E0
330
1F
100
AcDbEntity
  8
0
  6
Continuous
 62
     7
370
    15
100
AcDbLine
 10
62.7107229925
 20
112.0653014828
 30
0.0
 11
41.3638293653
 21
111.5023747285
 31
0.0
  0
LINE
  5
1E1
330
1F
100
AcDbEntity
  8
0
  6
Continuous
 62
     7
370
    15
100
AcDbLine
 10
62.7107229925
 20
110.9964560915
 30
0.0
 11
62.7107229925
 21
112.0653014828
 31
0.0
  0
LINE
  5
1E2
330
1F
100
AcDbEntity
  8
0
  6
Continuous
 62
     7
370
    15
100
AcDbLine
 10
46.0811563212
 20
107.9781728063
 30
0.0
 11
46.1034014266
 21
107.6600535039
 31
0.0
  0
ARC
  5
1E3
330
1F
100
AcDbEntity
  8
0
  6
Continuous
 62
     7
370
    15
100
AcDbCircle
 10
42.2107224263
 20
122.0905633841
 30
0.0
 40
20.50000000000007
100
AcDbArc
 50
0.0
 51
98.4299517575
  0
LINE
  5
1E4
330
1F
100
AcDbEntity
  8
0
  6
Continuous
 62
     7
370
    15
100
AcDbLine
 10
62.7107229925
 20
112.0653014828
 30
0.0
 11
62.7107229925
 21
122.0905633841
 31
0.0
  0
LINE
  5
1E5
330
1F
100
AcDbEntity
  8
0
  6
Continuous
 62
     7
370
    15
100
AcDbLine
 10
39.2054192166
 20
142.3690786783
 30
0.0
 11
41.3638293653
 21
111.5023747285
 31
0.0
  0
SPLINE
  5
1E6
330
1F
100
AcDbEntity
  8
0
  6
Continuous
 62
     7
370
    15
100
AcDbSpline
210
0.0
220
0.0
230
1.0
 70
     8
 71
     3
 72
    14
 73
    10
 74
     0
 42
0.00000001
 43
0.00000001
 12
1.0
 22
0.0
 32
0.0
 13
1.0
 23
0.0
 33
0.0
 40
0.0
 40
0.0
 40
0.0
 40
0.0
 40
0.25
 40
0.25
 40
0.5
 40
0.5
 40
0.75
 40
0.75
 40
1.0
 40
1.0
 40
1.0
 40
1.0
 10
34.86470442160267
 20
140.6926068061555
 30
0.0
 10
35.46585549904288
 20
140.9300036629536
 30
0.0
 10
36.03877632174044
 20
141.1226830561285
 30
0.0
 10
37.11495895445137
 20
141.4386302789337
 30
0.0
 10
37.58858407664998
 20
141.5534835130518
 30
0.0
 10
38.3932721596121
 20
141.7271745054369
 30
0.0
 10
38.70380770885306
 20
141.781900731879
 30
0.0
 10
39.13246914290143
 20
141.8534471337637
 30
0.0
 10
39.24040457190071
 20
141.868763803884
 30
0.0
 10
39.24040457190071
 20
141.868763803884
 30
0.0
  0
SPLINE
  5
1E7
330
1F
100
AcDbEntity
  8
0
  6
Continuous
 62
     7
370
    15
100
AcDbSpline
210
0.0
220
0.0
230
1.0
 70
     8
 71
     3
 72
    18
 73
    14
 74
     0
 42
0.00000001
 43
0.00000001
 12
1.0
 22
0.0
 32
0.0
 13
1.0
 23
0.0
 33
0.0
 40
0.0
 40
0.0
 40
0.0
 40
0.0
 40
0.0197473729894861
 40
0.1016254916635443
 40
0.1840760824391298
 40
0.2683364144726683
 40
0.3532283041669619
 40
0.4346283196200337
 40
0.5166030774292408
 40
0.6003977494323259
 40
0.6848247631260926
 40
0.8403834242960468
 40
1.0
 40
1.0
 40
1.0
 40
1.0
 10
41.72080821856442
 20
102.096662131384
 30
0.0
 10
41.70957478338985
 20
102.0969065116545
 30
0.0
 10
41.65176439143062
 20
102.0981641607177
 30
0.0
 10
41.50755949449292
 20
102.102622211541
 30
0.0
 10
41.2873765183909
 20
102.111396707292
 30
0.0
 10
41.02370550546344
 20
102.1251473769093
 30
0.0
 10
40.72626706987754
 20
102.1449074174499
 30
0.0
 10
40.39874620283558
 20
102.1718462671228
 30
0.0
 10
40.0433281069962
 20
102.2071946597582
 30
0.0
 10
39.65620779699132
 20
102.2529320614474
 30
0.0
 10
39.12347099133228
 20
102.3273107063634
 30
0.0
 10
38.41872157570333
 20
102.4447217500757
 30
0.0
 10
37.82551925324274
 20
102.579120803805
 30
0.0
 10
37.52509932066831
 20
102.6471855316907
 30
0.0
  0
ELLIPSE
  5
1E8
330
1F
100
AcDbEntity
  8
0
  6
Continuous
 62
     7
370
    15
100
AcDbEllipse
 10
33.1760918608
 20
110.6193349808
 30
0.0
 11
-2.063138446659742
 21
2.208439657159346
 31
0.0
210
0.0
220
0.0
230
1.0
 40
0.8112573031
 41
0.0
 42
6.283185307179586
  0
ARC
  5
1E9
330
1F
100
AcDbEntity
  8
0
  6
Continuous
 62
     7
370
    15
100
AcDbCircle
 10
42.2107224263
 20
122.0905633841
 30
0.0
 40
20.00000000000006
100
AcDbArc
 50
111.5492528118
 51
256.4507471882
  0
SPLINE
  5
1EA
330
1F
100
AcDbEntity
  8
0
  6
Continuous
 62
     7
370
    15
100
AcDbSpline
210
0.0
220
0.0
230
1.0
 70
     8
 71
     3
 72
    20
 73
    16
 74
     0
 42
0.00000001
 43
0.00000001
 12
1.0
 22
0.0
 32
0.0
 13
1.0
 23
0.0
 33
0.0
 40
0.0
 40
0.0
 40
0.0
 40
0.0
 40
0.0490199485515862
 40
0.0983435972224832
 40
0.1980313708076444
 40
0.2998772559955415
 40
0.4022692816723289
 40
0.4943407419889045
 40
0.5869127070790303
 40
0.6813197934032976
 40
0.7765113363130999
 40
0.8382881493329118
 40
0.9003884445581027
 40
0.9636505889767911
 40
1.0
 40
1.0
 40
1.0
 40
1.0
 10
32.26338894139561
 20
111.9483106036335
 30
0.0
 10
32.247833700199
 20
111.9200539598715
 30
0.0
 10
32.21662684625199
 20
111.863365610024
 30
0.0
 10
32.13440275785998
 20
111.7517805759673
 30
0.0
 10
32.01516586677899
 20
111.6182723133498
 30
0.0
 10
31.85347276435617
 20
111.4735098129282
 30
0.0
 10
31.68373714454631
 20
111.3515676560161
 30
0.0
 10
31.50987457624079
 20
111.2534707882129
 30
0.0
 10
31.33321448955382
 20
111.1787184146895
 30
0.0
 10
31.14773736501533
 20
111.1267506579627
 30
0.0
 10
30.97728875984562
 20
111.1046541307804
 30
0.0
 10
30.82603428896885
 20
111.1048395577828
 30
0.0
 10
30.69558626318584
 20
111.1201731440615
 30
0.0
 10
30.58221506001676
 20
111.1443508952832
 30
0.0
 10
30.51284628245008
 20
111.1711509528638
 30
0.0
 10
30.4875328115705
 20
111.1809306044727
 30
0.0
  0
ARC
  5
1EB
330
1F
100
AcDbEntity
  8
0
  6
Continuous
 62
     7
370
    15
100
AcDbCircle
 10
31.1938403368
 20
114.5115953469
 30
0.0
 40
2.777474192923865
100
AcDbArc
 50
292.648680973
 51
316.7460034265
  0
SPLINE
  5
1EC
330
1F
100
AcDbEntity
  8
0
  6
Continuous
 62
     7
370
    15
100
AcDbSpline
210
0.0
220
0.0
230
1.0
 70
     8
 71
     3
 72
    12
 73
     8
 74
     0
 42
0.00000001
 43
0.00000001
 12
1.0
 22
0.0
 32
0.0
 13
1.0
 23
0.0
 33
0.0
 40
0.0
 40
0.0
 40
0.0
 40
0.0
 40
0.1821436797774442
 40
0.4078111542766954
 40
0.6382877757234612
 40
0.8704937098712485
 40
1.0
 40
1.0
 40
1.0
 40
1.0
 10
33.93664871375594
 20
113.0274126504212
 30
0.0
 10
33.9019185096849
 20
112.9901580609056
 30
0.0
 10
33.82415921203711
 20
112.9067467826718
 30
0.0
 10
33.67811241805762
 20
112.7979151689769
 30
0.0
 10
33.50675915040502
 20
112.7000054166511
 30
0.0
 10
33.3474453065494
 20
112.6346849291319
 30
0.0
 10
33.25119891009605
 20
112.6153122848752
 30
0.0
 10
33.2167391575459
 20
112.6083761651665
 30
0.0
  0
SPLINE
  5
1ED
330
1F
100
AcDbEntity
  8
0
  6
Continuous
 62
     7
370
    15
100
AcDbSpline
210
0.0
220
0.0
230
1.0
 70
     8
 71
     3
 72
    10
 73
     6
 74
     0
 42
0.00000001
 43
0.00000001
 12
1.0
 22
0.0
 32
0.0
 13
1.0
 23
0.0
 33
0.0
 40
0.0
 40
0.0
 40
0.0
 40
0.0
 40
0.5
 40
0.5
 40
1.0
 40
1.0
 40
1.0
 40
1.0
 10
33.21673918160555
 20
112.6083764418477
 30
0.0
 10
33.05691957670464
 20
112.5064813618822
 30
0.0
 10
32.89672067050221
 20
112.4011454287495
 30
0.0
 10
32.5769341699834
 20
112.1803687418757
 30
0.0
 10
32.41841784725495
 20
112.0655680399099
 30
0.0
 10
32.26338894844718
 20
111.948310226743
 30
0.0
  0
CIRCLE
  5
1EE
330
1F
100
AcDbEntity
  8
0
  6
Continuous
 62
     7
370
    15
100
AcDbCircle
 10
42.2107224263
 20
122.0905633841
 30
0.0
 40
31.50000000000009
  0
LINE
  5
1EF
330
1F
100
AcDbEntity
  8
0
  6
Continuous
 62
     7
370
    15
100
AcDbLine
 10
44.5929226376
 20
107.7251091798
 30
0.0
 11
41.3406878038
 21
107.5326383312
 31
0.0
  0
LINE
  5
1F0
330
1F
100
AcDbEntity
  8
0
  6
Continuous
 62
     7
370
    15
100
AcDbLine
 10
46.1034014266
 20
107.6600535039
 30
0.0
 11
44.5929226376
 21
107.7251091798
 31
0.0
  0
LINE
  5
1F1
330
1F
100
AcDbEntity
  8
0
  6
Continuous
 62
     7
370
    15
100
AcDbLine
 10
46.9170702532
 20
96.0240477894
 30
0.0
 11
46.1034014266
 21
107.6600535039
 31
0.0
  0
LINE
  5
1F2
330
1F
100
AcDbEntity
  8
0
  6
Continuous
 62
     7
370
    15
100
AcDbLine
 10
46.9170702532
 20
96.0240477894
 30
0.0
 11
45.4326226286
 21
95.7168379997
 31
0.0
  0
LINE
  5
1F3
330
1F
100
AcDbEntity
  8
0
  6
Continuous
 62
     7
370
    15
100
AcDbLine
 10
45.4326226286
 20
95.7168379997
 30
0.0
 11
42.1803879658
 21
95.5243671511
 31
0.0
  0
LINE
  5
1F4
330
1F
100
AcDbEntity
  8
0
  6
Continuous
 62
     7
370
    15
100
AcDbLine
 10
42.1803879658
 20
95.5243671511
 30
0.0
 11
41.3406878038
 21
107.5326383312
 31
0.0
  0
LWPOLYLINE
  5
1F5
330
1F
100
AcDbEntity
  8
0
  6
Continuous
 62
     7
370
    15
100
AcDbPolyline
 90
        9
 70
   128
 43
0.0
 10
42.2107224263
 20
95.0905626838
 10
42.2104837158
 20
95.0939769123
 10
42.2090396942
 20
95.1146280591
 10
42.2063526421
 20
95.1530544285
 10
42.202549947
 20
95.2074343537
 10
42.1978118871
 20
95.2751917963
 10
42.1923630843
 20
95.3531136934
 10
42.1864618552
 20
95.4375064199
 10
42.1803879658
 20
95.5243671511
  0
LINE
  5
1F6
330
1F
100
AcDbEntity
  8
0
  6
Continuous
 62
     7
370
    15
100
AcDbLine
 10
44.5929226376
 20
107.7251091798
 30
0.0
 11
41.9834159516
 21
107.8606631805
 31
0.0
  0
LINE
  5
1F7
330
1F
100
AcDbEntity
  8
0
  6
Continuous
 62
     7
370
    15
100
AcDbLine
 10
41.6171521906
 20
107.8796891694
 30
0.0
 11
41.3153232335
 21
107.8953679849
 31
0.0
  0
LWPOLYLINE
  5
1F8
330
1F
100
AcDbEntity
  8
0
  6
Continuous
 62
     7
370
    15
100
AcDbPolyline
 90
        9
 70
   128
 43
0.0
 10
41.3406878038
 20
107.5326383312
 10
41.3358979536
 20
107.6011361752
 10
41.331327488
 20
107.6664963935
 10
41.3271154071
 20
107.726732475
 10
41.3233895347
 20
107.7800143708
 10
41.3202632012
 20
107.8247234423
 10
41.3178313434
 20
107.8595008899
 10
41.3161678266
 20
107.8832905938
 10
41.3153232335
 20
107.8953679849
  0
LINE
  5
1F9
330
1F
100
AcDbEntity
  8
0
  6
Continuous
 62
     7
370
    15
100
AcDbLine
 10
41.5436879525
 20
108.9302769129
 30
0.0
 11
41.2418589954
 21
108.9459557284
 31
0.0
  0
LINE
  5
1FA
330
1F
100
AcDbEntity
  8
0
  6
Continuous
 62
     7
370
    15
100
AcDbLine
 10
41.3153232335
 20
107.8953679849
 30
0.0
 11
41.2418589954
 21
108.9459557284
 31
0.0
  0
LINE
  5
1FB
330
1F
100
AcDbEntity
  8
0
  6
Continuous
 62
     7
370
    15
100
AcDbLine
 10
41.2418589954
 20
108.9459557284
 30
0.0
 11
41.2417528246
 21
108.9474747155
 31
0.0
  0
CIRCLE
  5
1FC
330
1F
100
AcDbEntity
  8
VERMASSUNG
  6
CENTERX2
100
AcDbCircle
 10
42.2107224263
 20
120.1414042456
 30
0.0
 40
24.99999999999999
  0
DIMENSION
  5
1FD
330
1F
100
AcDbEntity
  8
VERMASSUNG
100
AcDbDimension
  2
_D_6
 10
27.1092166105
 20
100.2179376272
 30
0.0
 11
19.2252949777
 21
89.8166537163
 31
0.0
 70
   160
  1
%%c<> min. 
 71
     2
 42
-1.0
  3
SLDDIMSTYLE2
100
AcDbAlignedDimension
 13
57.3122282421
 23
140.064870864
 33
0.0
 14
27.1092166105
 24
100.2179376272
 34
0.0
 50
52.8387527894
100
AcDbRotatedDimension
  0
DIMENSION
  5
20C
330
1F
100
AcDbEntity
  8
VERMASSUNG
100
AcDbDimension
  2
_D_7
 10
42.2107224263
 20
88.0905633841
 30
0.0
 11
29.9311420198
 21
161.5470083125
 31
0.0
 70
   162
  1
<>
 71
     1
 42
-1.0
  3
SLDDIMSTYLE3
100
AcDb2LineAngularDimension
 13
41.3638293676
 23
111.5023744793
 33
0.0
 14
41.6173802166
 24
107.8764284081
 34
0.0
 15
42.2107224263
 25
156.0905633841
 35
0.0
 16
39.9995899891
 26
162.7097880064
 36
0.0
  0
INSERT
  5
224
330
1F
100
AcDbEntity
  8
VERMASSUNG
100
AcDbBlockReference
  2
SW_CENTERMARKSYMBOL_0
 10
42.2107224263
 20
122.0905633841
 30
0.0
  0
OLE2FRAME
  5
225
330
1F
100
AcDbEntity
  8
0
100
AcDbOle2Frame
 70
     2
  3
Paintbrush-Bild
 10
13.8511154363
 20
38.264191557
 30
0.0
 11
51.6290888628
 21
31.9806341108
 31
0.0
 71
     2
 72
     0
 73
     1
 90
    12928
310
80552BED0767C5B32B40DDAF6807D121434000000000000000006FFBDDFB85D0
310
4940DDAF6807D121434000000000000000006FFBDDFB85D04940416F4BD60AFB
310
3F4000000000000000002BED0767C5B32B40416F4BD60AFB3F40000000000000
310
0000000000000100000000010000010000000100000000000100000000320000
310
D0CF11E0A1B11AE1000000000000000000000000000000003E000300FEFF0900
310
0600000000000000000000000100000001000000000000000010000002000000
310
01000000FEFFFFFF0000000000000000FFFFFFFFFFFFFFFFFFFFFFFFFFFFFFFF
310
FFFFFFFFFFFFFFFFFFFFFFFFFFFFFFFFFFFFFFFFFFFFFFFFFFFFFFFFFFFFFFFF
310
FFFFFFFFFFFFFFFFFFFFFFFFFFFFFFFFFFFFFFFFFFFFFFFFFFFFFFFFFFFFFFFF
310
FFFFFFFFFFFFFFFFFFFFFFFFFFFFFFFFFFFFFFFFFFFFFFFFFFFFFFFFFFFFFFFF
310
FFFFFFFFFFFFFFFFFFFFFFFFFFFFFFFFFFFFFFFFFFFFFFFFFFFFFFFFFFFFFFFF
310
FFFFFFFFFFFFFFFFFFFFFFFFFFFFFFFFFFFFFFFFFFFFFFFFFFFFFFFFFFFFFFFF
310
FFFFFFFFFFFFFFFFFFFFFFFFFFFFFFFFFFFFFFFFFFFFFFFFFFFFFFFFFFFFFFFF
310
FFFFFFFFFFFFFFFFFFFFFFFFFFFFFFFFFFFFFFFFFFFFFFFFFFFFFFFFFFFFFFFF
310
FFFFFFFFFFFFFFFFFFFFFFFFFFFFFFFFFFFFFFFFFFFFFFFFFFFFFFFFFFFFFFFF
310
FFFFFFFFFFFFFFFFFFFFFFFFFFFFFFFFFFFFFFFFFFFFFFFFFFFFFFFFFFFFFFFF
310
FFFFFFFFFFFFFFFFFFFFFFFFFFFFFFFFFFFFFFFFFFFFFFFFFFFFFFFFFFFFFFFF
310
FFFFFFFFFFFFFFFFFFFFFFFFFFFFFFFFFFFFFFFFFFFFFFFFFFFFFFFFFFFFFFFF
310
FFFFFFFFFFFFFFFFFFFFFFFFFFFFFFFFFFFFFFFFFFFFFFFFFFFFFFFFFFFFFFFF
310
FFFFFFFFFFFFFFFFFFFFFFFFFFFFFFFFFFFFFFFFFFFFFFFFFFFFFFFFFFFFFFFF
310
FDFFFFFFFEFFFFFFFEFFFFFFFEFFFFFF05000000060000000700000008000000
310
090000000A0000000B0000000C0000000D0000000E0000000F00000010000000
310
11000000120000001300000014000000150000001600000017000000FEFFFFFF
310
FFFFFFFFFFFFFFFFFFFFFFFFFFFFFFFFFFFFFFFFFFFFFFFFFFFFFFFFFFFFFFFF
310
FFFFFFFFFFFFFFFFFFFFFFFFFFFFFFFFFFFFFFFFFFFFFFFFFFFFFFFFFFFFFFFF
310
FFFFFFFFFFFFFFFFFFFFFFFFFFFFFFFFFFFFFFFFFFFFFFFFFFFFFFFFFFFFFFFF
310
FFFFFFFFFFFFFFFFFFFFFFFFFFFFFFFFFFFFFFFFFFFFFFFFFFFFFFFFFFFFFFFF
310
FFFFFFFFFFFFFFFFFFFFFFFFFFFFFFFFFFFFFFFFFFFFFFFFFFFFFFFFFFFFFFFF
310
FFFFFFFFFFFFFFFFFFFFFFFFFFFFFFFFFFFFFFFFFFFFFFFFFFFFFFFFFFFFFFFF
310
FFFFFFFFFFFFFFFFFFFFFFFFFFFFFFFFFFFFFFFFFFFFFFFFFFFFFFFFFFFFFFFF
310
FFFFFFFFFFFFFFFFFFFFFFFFFFFFFFFFFFFFFFFFFFFFFFFFFFFFFFFFFFFFFFFF
310
FFFFFFFFFFFFFFFFFFFFFFFFFFFFFFFFFFFFFFFFFFFFFFFFFFFFFFFFFFFFFFFF
310
FFFFFFFFFFFFFFFFFFFFFFFFFFFFFFFFFFFFFFFFFFFFFFFFFFFFFFFFFFFFFFFF
310
FFFFFFFFFFFFFFFFFFFFFFFFFFFFFFFFFFFFFFFFFFFFFFFFFFFFFFFFFFFFFFFF
310
FFFFFFFFFFFFFFFFFFFFFFFFFFFFFFFFFFFFFFFFFFFFFFFFFFFFFFFFFFFFFFFF
310
FFFFFFFFFFFFFFFFFFFFFFFFFFFFFFFFFFFFFFFFFFFFFFFFFFFFFFFFFFFFFFFF
310
52006F006F007400200045006E00740072007900000000000000000000000000
310
0000000000000000000000000000000000000000000000000000000000000000
310
16000500FFFFFFFFFFFFFFFF020000000A00030000000000C000000000000046
310
00000000000000000000000090536B8AF642CD0103000000C000000000000000
310
01004F006C006500000000000000000000000000000000000000000000000000
310
0000000000000000000000000000000000000000000000000000000000000000
310
0A000200FFFFFFFFFFFFFFFFFFFFFFFF00000000000000000000000000000000
310
0000000000000000000000000000000000000000000000001400000000000000
310
010043006F006D0070004F0062006A0000000000000000000000000000000000
310
0000000000000000000000000000000000000000000000000000000000000000
310
120002010100000003000000FFFFFFFF00000000000000000000000000000000
310
0000000000000000000000000000000000000000010000004D00000000000000
310
01004F006C006500310030004E00610074006900760065000000000000000000
310
0000000000000000000000000000000000000000000000000000000000000000
310
1A000200FFFFFFFFFFFFFFFFFFFFFFFF00000000000000000000000000000000
310
0000000000000000000000000000000000000000040000002426000000000000
310
FEFFFFFF02000000FEFFFFFFFFFFFFFFFFFFFFFFFFFFFFFFFFFFFFFFFFFFFFFF
310
FFFFFFFFFFFFFFFFFFFFFFFFFFFFFFFFFFFFFFFFFFFFFFFFFFFFFFFFFFFFFFFF
310
FFFFFFFFFFFFFFFFFFFFFFFFFFFFFFFFFFFFFFFFFFFFFFFFFFFFFFFFFFFFFFFF
310
FFFFFFFFFFFFFFFFFFFFFFFFFFFFFFFFFFFFFFFFFFFFFFFFFFFFFFFFFFFFFFFF
310
FFFFFFFFFFFFFFFFFFFFFFFFFFFFFFFFFFFFFFFFFFFFFFFFFFFFFFFFFFFFFFFF
310
FFFFFFFFFFFFFFFFFFFFFFFFFFFFFFFFFFFFFFFFFFFFFFFFFFFFFFFFFFFFFFFF
310
FFFFFFFFFFFFFFFFFFFFFFFFFFFFFFFFFFFFFFFFFFFFFFFFFFFFFFFFFFFFFFFF
310
FFFFFFFFFFFFFFFFFFFFFFFFFFFFFFFFFFFFFFFFFFFFFFFFFFFFFFFFFFFFFFFF
310
FFFFFFFFFFFFFFFFFFFFFFFFFFFFFFFFFFFFFFFFFFFFFFFFFFFFFFFFFFFFFFFF
310
FFFFFFFFFFFFFFFFFFFFFFFFFFFFFFFFFFFFFFFFFFFFFFFFFFFFFFFFFFFFFFFF
310
FFFFFFFFFFFFFFFFFFFFFFFFFFFFFFFFFFFFFFFFFFFFFFFFFFFFFFFFFFFFFFFF
310
FFFFFFFFFFFFFFFFFFFFFFFFFFFFFFFFFFFFFFFFFFFFFFFFFFFFFFFFFFFFFFFF
310
FFFFFFFFFFFFFFFFFFFFFFFFFFFFFFFFFFFFFFFFFFFFFFFFFFFFFFFFFFFFFFFF
310
FFFFFFFFFFFFFFFFFFFFFFFFFFFFFFFFFFFFFFFFFFFFFFFFFFFFFFFFFFFFFFFF
310
FFFFFFFFFFFFFFFFFFFFFFFFFFFFFFFFFFFFFFFFFFFFFFFFFFFFFFFFFFFFFFFF
310
FFFFFFFFFFFFFFFFFFFFFFFFFFFFFFFFFFFFFFFFFFFFFFFFFFFFFFFFFFFFFFFF
310
0100000200000000000000000000000000000000000000000000000000000000
310
0000000000000000000000000000000000000000000000000000000000000000
310
0100FEFF030A0000FFFFFFFF0A00030000000000C00000000000004607000000
310
5042727573680007000000504272757368000700000050427275736800F439B2
310
7100000000000000000000000000000000000000000000000000000000000000
310
0000000000000000000000000000000000000000000000000000000000000000
310
0000000000000000000000000000000000000000000000000000000000000000
310
0000000000000000000000000000000000000000000000000000000000000000
310
0000000000000000000000000000000000000000000000000000000000000000
310
0000000000000000000000000000000000000000000000000000000000000000
310
0000000000000000000000000000000000000000000000000000000000000000
310
0000000000000000000000000000000000000000000000000000000000000000
310
0000000000000000000000000000000000000000000000000000000000000000
310
0000000000000000000000000000000000000000000000000000000000000000
310
0000000000000000000000000000000000000000000000000000000000000000
310
0000000000000000000000000000000000000000000000000000000000000000
310
20260000424D0E260000000000003E00000028000000B40200006E0000000100
310
01000000000000000000130B0000130B00000200000002000000000000FFFFFF
310
FFFFFFFFFFFFFFFFFFFFFFFFFFFFFFFFFFFFFFFFFFFFFFFFFFFFFFFFFFFFFFFF
310
FFFFFFFFFFFFFFFFFFFFFFFFFFFFFFFFFFFFFFFFFFFFFFFFFFFFFFFFFFFFFFFF
310
FFFFFFFFFFFFFFFFFFFFFFFFFFFFFFFFFFFFFFFFFFFFFFFFF000FFFFFFFFFFFF
310
FFFFFFFFFFFFFFFFFFFFFFFFFFFFFFFFFFFFFFFFFFFFFFFFFFFFFFFFFFFFFFFF
310
FFFFFFFFFFFFFFFFFFFFFFFFFFFFFFFFFFFFFFFFFFFFFFFFFFFFFFFFFFFFFFFF
310
FFFFFFFFFFFFFFFFFFFFFFFFFFFFFFFFF000FFFFFFFFFFFFFFFFFFFFFFFFFFFF
310
FFFFFFFFFFFFFFFFFFFFFFFFFFFFFFFFFFFFFFFFFFFFFFFFFFFFFFFFFFFFFFFF
310
FFFFFFFFFFFFFFFFFFFFFFFFFFFFFFFFFFFFFFFFFFFFFFFFFFFFFFFFFFFFFFFF
310
FFFFFFFFFFFFFFFFF000FFFFFFFFFFFFFFFFFFFFFFFFFFFFFFFFFFFFFFFFFFFF
310
FFFFFFFFFFFFFFFFFFFFFFFFFFFFFFFFFFFFFFFFFFFFFFFFFFFFFFFFFFFFFFFF
310
FFFFFFFFFFFFFFFFFFFFFFFFFFFFFFFFFFFFFFFFFFFFFFFFFFFFFFFFFFFFFFFF
310
F000FFFFFFFFFFFFFFFFFFFFFFFFFFFFFFFFFFFFFFFFFFFFFFFFFFFFFFFFFFFF
310
FFFFFFFFFFFFFFFFFFFFFFFFFFFFFFFFFFFFFFFFFFFFFFFFFFFFFFFFFFFFFFFF
310
FFFFFFFFFFFFFFFFFFFFFFFFFFFFFFFFFFFFFFFFFFFFFFFFF000FFFFFFFFFFFF
310
FFFFFFFFFFFFFFFFFFFFFFFFFFFFFFFFFFFFFFFFFFFFFFFFFFFFFFFFFFFFFFFF
310
FFFFFFFFFFFFFFFFFFFFFFFFFFFFFFFFFFFFFFFFFFFFFFFFFFFFFFFFFFFFFFFF
310
FFFFFFFFFFFFFFFFFFFFFFFFFFFFFFFFF000FFFFFFFFFFFFFFFFFFFFFFFFFFFF
310
FFFFFFFFFFFFFFFFFFFFFFFFFFFFFFFFFFFFFFFFFFFFFFFFFFFFFFFFFFFFFFFF
310
FFFFFFFFFFFFFFFFFFFFFFFFFFFFFFFFFFFFFFFFFFFFFFFFFFFFFFFFFFFFFFFF
310
FFFFFFFFFFFFFFFFF000FFFFFFFFFFFFFFFFFFFFFFFFFFFFFFFFFFFFFFFFFFFF
310
FFFFFFFFFFFFFFFFFFFFFFFFFFFFFFFFFFFFFFFFFFFFFFFFFFFFFFFFFFFFFFFF
310
FFFFFFFFFFFFFFFFFFFFFFFFFFFFFFFFFFFFFFFFFFFFFFFFFFFFFFFFFFFFFFFF
310
F000FFFFFFFFFFFFFFFFFFFFFFFFFFFFFFFFFFFFFFFFFFFFFFFFFFFFFFFFFFFF
310
FFFFFFFFFFFFFFFFFFFFFFFFFFFFFFFFFFFFFFFFFFFFFFFFFFFFFFFFFFFFFFFF
310
FFFFFFFFFFFFFFFFFFFFFFFFFFFFFFFFFFFFFFFFFFFFFFFFF000FFFFFFFFFFFF
310
FFFFFFFFFFFFFFFFFFFFFFFFFFFFFFFFFFFFFFFFFFFFFFFFFFFFFFFFFFFFFFFF
310
FFFFFFFFFFFFFFFFFFFFFFFFFFFFFFFFFFFFFFFFFFFFFFFFFFFFFFFFFFFFFFFF
310
FFFFFFFFFFFFFFFFFFFFFFFFFFFFFFFFF000FFFFFFFFFFFFFFFFFFFFFFFFFFFF
310
FFFFFFFFFFFFFFFFFFFFFFFFFFFFFFFFFFFFFFFFFFFFFFFFFFFFFFFFFFFFFFFF
310
FFFFFFFFFFFFFFFFFFFFFFFFFFFFFFFFFFFFFFFFFFFFFFFFFFFFFFFFFFFFFFFF
310
FFFFFFFFFFFFFFFFF000FFFFFFFFFFFFFFFFFFFFFFFFFFFFFFFFFFFFFFFFFFFF
310
FFFFFFFFFFFFFFFFFFFFFFFFFFFFFFFFFFFFFFFFFFFFFFFFFFFFFFFFFFFFFFFF
310
FFFFFFFFFFFFFFFFFFFFFFFFFFFFFFFFFFFFFFFFFFFFFFFFFFFFFFFFFFFFFFFF
310
F000FFFFFFFFFFFFFFFFFFFFFFFFFFFFFFFFFFFFFFFFFFFFFFFFFFFFFFFFFFFF
310
FFFFFFFFFFFFFFFFFFFFFFFFFFFFFFFFFFFFFFFFFFFFFFFFFFFFFFFFFFFFFFFF
310
FFFFFFFFFFFFFFFFFFFFFFFFFFFFFFFFFFFFFFFFFFFFFFFFF000FFFFFFFFFFFF
310
FFFFFFFFFFFFFFFFFFFFFFFFFFFFFFFFFFFFFFFFFFFFFFFFFFFFFFFFFFFFFFFF
310
FFFFFFFFFFFFFFFFFFFFFFFFFFFFFFFFFFFFFFFFFFFFFFFFFFFFFFFFFFFFFFFF
310
FFFFFFFFFFFFFFFFFFFFFFFFFFFFFFFFF000FFFFFFFFFFFFFFFFFFFFFFFFFFFF
310
FFFFFFFFFFFFFFFFFFFFFFFFFFFFFFFFFFFFFFFFFFFFFFFFFFFFFFFFFFFFFFFF
310
FFFFFFFFFFFFFFFFFFFFFFFFFFFFFFFFFFFFFFFFFFFFFFFFFFFFFFFFFFFFFFFF
310
FFFFFFFFFFFFFFFFF000FFFFFFFFFFFFFFFFFFFFFFFFFFFFFFFFFFFFFFFFFFFF
310
FFFFFFFFFFFFFFFFFFFFFFFFFFFFFFFFFFFFFFFFFFFFFFFFFFFFFFFFFFFFFFFF
310
FFFFFFFFFFFFFFFFFFFFFFFFFFFFFFFFFFFFFFFFFFFFFFFFFFFFFFFFFFFFFFFF
310
F000FFFFFFFFFFFFFFFFFFFFFFFFFFFFFFFFFFFFFFFFFFFFFFFFFFFFFFFFFFFF
310
FFFFFFFFFFFFFFFFFFFFFFFFFFFFFFFFFFFFFFFFFFFFFFFFFFFFFFFFFFFFFFFF
310
FFFFFFFFFFFFFFFFFFFFFFFFFFFFFFFFFFFFFFFFFFFFFFFFF000FFFFFFFFFFFF
310
FFFFFFFFFFFFFFFFFFFFFFFFFFFFFFFFFFFFFFFFFFFFFFFFFFFFFFFFFFFFFFFF
310
FFFFFFFFFFFFFFFFFFFFFFFFFFFFFFFFFFFFFFFFFFFFFFFFFFFFFFFFFFFFFFFF
310
FFFFFFFFFFFFFFFFFFFFFFFFFFFFFFFFF000FFFFFFFFFFFFFFFFFFFFFFFFFFFF
310
FFFFFFFFFFFFFFFFFFFFFFFFFFFFFFFFFFFFFFFFFFFFFFFFFFFFFFFFFFFFFFFF
310
FFFFFFFFFFFFFFFFFFFFFFFFFFFFFFFFFFFFFFFFFFFFFFFFFFFFFFFFFFFFFFFF
310
FFFFFFFFFFFFFFFFF000FFFFF80003FFFFFFFFFFFFFFFFFFFFFFFFFFFFFFFFFF
310
FFFFF00007FFFFFFFFFF00007FFFFFF800000000000000007FFFFFFFFFFFFFFF
310
FFFFFFFC001FFFFFFFFFFFFFFC001FFFFFFFFFFFFFFFFFFFFFFFFFFE0007FFFF
310
F000FFFF8000007FFFFFFFF8000FFFFFC0007FFFFF80007FFFFF0000007FFFFF
310
FFF8000007FFFFF800000000000000007FFFFFF0001FFFFFFFFFFFC00001FFFF
310
FFFFFFFFC00001FFFFFFFF000000000003FFFFE000007FFFF000FFFE0000000F
310
FFFFFFF0000FFFFF80007FFFFF80007FFFFC0000001FFFFFFFC0000001FFFFF8
310
00000000000000007FFFFFF0001FFFFFFFFFFE0000003FFFFFFFFFFE0000003F
310
FFFFFF000000000003FFFF0000000FFFF000FFF800000003FFFFFFF00007FFFF
310
80007FFFFF80007FFFF000000007FFFFFF000000003FFFF80000000000000000
310
7FFFFFF0001FFFFFFFFFF80000000FFFFFFFFFF80000000FFFFFFF0000000000
310
03FFFC00000003FFF000FFE000000000FFFFFFF00007FFFF80003FFFFF80007F
310
FFC000000001FFFFFC000000001FFFF800000000000000007FFFFFF0001FFFFF
310
FFFFE000000003FFFFFFFFE000000003FFFFFF000000000003FFF000000000FF
310
F000FF80000000007FFFFFF00007FFFF80003FFFFF80007FFF8000000000FFFF
310
F80000000007FFF800000000000000007FFFFFF0001FFFFFFFFFC000000001FF
310
FFFFFFC000000001FFFFFF000000000003FFC0000000007FF000FF0000000000
310
3FFFFFE00007FFFF00003FFFFF80007FFE00000000003FFFF00000000003FFF8
310
00000000000000007FFFFFF0001FFFFFFFFF8000000000FFFFFFFF8000000000
310
FFFFFF000000000003FF80000000003FF000FE00000000001FFFFFE00003FFFF
310
00003FFFFF80007FFC00000000001FFFE00000000001FFF8000001FFFE000000
310
7FFFFFF0001FFFFFFFFE00000000003FFFFFFE00000000003FFFFF0000000000
310
03FF00000000001FF000FC00000000000FFFFFE00003FFFF00001FFFFF80007F
310
F800000000001FFFC00000000000FFF8000001FFFE0000007FFFFFF0001FFFFF
310
FFFC00000000001FFFFFFC00000000001FFFFF000000000003FE00000000000F
310
F000F8000000000007FFFFE00003FFFF00001FFFFF80007FF800000000000FFF
310
800000000000FFF8000001FFFE0000007FFFFFF0001FFFFFFFF800000000000F
310
FFFFF800000000000FFFFF000000000003FC000000000007F000F80000000000
310
03FFFFC00003FFFE00001FFFFF80007FF0000000000007FF0000000000007FF8
310
000001FFFE0000007FFFFFF0001FFFFFFFF0000000000007FFFFF00000000000
310
07FFFF000000000003F8000000000003F000F0000000000003FFFFC00001FFFE
310
00001FFFFF80007FE0000000000007FE0000000000003FF8000001FFFE000000
310
7FFFFFF0001FFFFFFFF0000000000007FFFFF0000000000007FFFF0000000000
310
03F800001F800003F000E00001FFF00001FFFFC00001FFFE00000FFFFF80007F
310
E00001FFE00003FE00001FFF00003FF8000001FFFE0000007FFFFFF0001FFFFF
310
FFE000003E000003FFFFE000003E000003FFFF000000000003F00001FFF80001
310
F000E00007FFFC0001FFFFC00001FFFE00000FFFFF80007FC0000FFFFC0003FC
310
0000FFFFC0001FF8000001FFFE0000007FFFFFF0001FFFFFFFC00003FFE00001
310
FFFFC00003FFE00001FFFF0001FFFFFFFFF00007FFFE0001F000E0000FFFFF00
310
00FFFF800001FFFC00000FFFFF80007FC0001FFFFE0001FC0001FFFFE0001FF8
310
000001FFFE0000007FFFFFF0001FFFFFFF80000FFFF80000FFFF80000FFFF800
310
00FFFF0003FFFFFFFFE0000FFFFF8000F000C0003FFFFF8000FFFF800000FFFC
310
000007FFFF80007F80003FFFFF0001FC0003FFFFF0001FF8000001FFFE000000
310
7FFFFFF0001FFFFFFF80003FFFFE0000FFFF80003FFFFE0000FFFF0003FFFFFF
310
FFE0003FFFFF8000F000C0003FFFFF8000FFFF800000FFFC000007FFFF80007F
310
80007FFFFF8001F80007FFFFF8000FF8000001FFFE0000007FFFFFF0001FFFFF
310
FF00007FFFFF00007FFF00007FFFFF00007FFF0003FFFFFFFFE0003FFFFFC000
310
F000C0007FFFFFC000FFFF000000FFFC000007FFFF80007F8000FFFFFF8000F8
310
000FFFFFF8000FF8000001FFFE0000007FFFFFF0001FFFFFFF0000FFFFFF8000
310
7FFF0000FFFFFF80007FFF0003FFFFFFFFC0007FFFFFC00070008000FFFFFFC0
310
00FFFF000000FFF8000007FFFF80007F8000FFFFFF8000F8000FFFFFF8000FF8
310
000001FFFE0000007FFFFFF0001FFFFFFE0001FFFFFFC0003FFE0001FFFFFFC0
310
003FFF0003FFFFFFFFC0007FFFFFE00070008000FFFFFFC0007FFF0000007FF8
310
000003FFFF80007F0001FFFFFF8000F8000FFFFFF8000FF8000001FFFE000000
310
7FFFFFF0001FFFFFFE0001FFFFFFC0003FFE0001FFFFFFC0003FFF0003FFFFFF
310
FFC000FFFFFFE00070008000FFFFFFC0007FFF0000007FF8000003FFFF80007F
310
0001FFFFFF8000F8001FFFFFF8000FF8000001FFFE0000007FFFFFF0001FFFFF
310
FE0003FFFFFFE0003FFE0003FFFFFFE0003FFF0003FFFFFFFFC000FFFFFFE000
310
70008000FFFFFFC0007FFE0000007FF8000003FFFF80007F0001FFFFFF8000F0
310
001FFFFFF8000FF8000001FFFE0000007FFFFFF0001FFFFFFC0003FFFFFFE000
310
1FFC0003FFFFFFE0001FFF0003FFFFFFFFC000FFFFFFC00070008000FFFFFF80
310
007FFE0000007FF0000003FFFF80007F0001FFFFFF0000F0001FFFFFF8000FF8
310
000001FFFE0000007FFFFFF0001FFFFFFC0007FFFFFFF0001FFC0007FFFFFFF0
310
001FFF0003FFFFFFFFC000FFFFFFC00070008001FFFFFF0000FFFE0000003FF0
310
000001FFFF80007F0001FFFFFF0000F8001FFFFFF0000FF8000001FFFE000000
310
7FFFFFF0001FFFFFFC0007FFFFFFF0001FFC0007FFFFFFF0001FFF0003FFFFFF
310
FFC001FFFFFF80007000FFFFFFFFFE0000FFFE0008003FF0008001FFFF80007F
310
FFFFFFFFFC0000FFFFFFFFFFE0000FF8000001FFFE0000007FFFFFF0001FFFFF
310
F8000FFFFFFFF8000FF8000FFFFFFFF8000FFF0003FFFFFFFFFFFFFFFFFF0000
310
7000FFFFFFFFFC0000FFFC0008003FF0008001FFFF80007FFFFFFFFFF80001FF
310
FFFFFFFF80000FF8000001FFFE0000007FFFFFF0001FFFFFF8000FFFFFFFF800
310
0FF8000FFFFFFFF8000FFF0003FFFFFFFFFFFFFFFFFE0000F000FFFFFFFFE000
310
00FFFC000C003FE000C001FFFF80007FFFFFFFFFC00001FFFFFFFFFE00001FF8
310
000001FFFE0000007FFFFFF0001FFFFFF8000FFFFFFFF8000FF8000FFFFFFFF8
310
000FFF0003FFFFFFFFFFFFFFFFF00000F000FFFFFFFE000001FFFC000C001FE0
310
00C000FFFF80007FFFFFFFFE000001FFFFFFFFE000001FF80FFFFFFFFFFFFFC0
310
7FFFFFF0001FFFFFF8000FFFFFFFF8000FF8000FFFFFFFF8000FFF0003FFFFFF
310
FFFFFFFFFF800000F000FFFFFFC0000001FFFC001C001FE001C000FFFF80007F
310
FFFFFF80000003FFFFFFF80000001FF80FFFFFFFFFFFFFC07FFFFFF0001FFFFF
310
F8001FFFFFFFFC000FF8001FFFFFFFFC000FFF0003FFFFFFFFFFFFFFF0000001
310
F000FFFFF800000001FFF8001C001FE001C000FFFF80007FFFFFF800000003FF
310
FFFF800000003FF80FFFFFFFFFFFFFC07FFFFFF0001FFFFFF8001FFFFFFFFC00
310
0FF8001FFFFFFFFC000FFF0003FFFFFFFFFFFFFE00000001F000FFFFC0000000
310
03FFF8001E001FC001E000FFFF80007FFFFF8000000007FFFFFC000000003FF8
310
0FFFFFFFFFFFFFC07FFFFFF0001FFFFFF8001FFFFFFFFC000FF8001FFFFFFFFC
310
000FFF0003FFFFFFFFFFFFE000000003F000FFFE0000000007FFF8001E000FC0
310
01E0007FFF80007FFFFE0000000007FFFFE0000000007FF80FFFFFFFFFFFFFC0
310
7FFFFFF0001FFFFFF0001FFFFFFFFC0007F0001FFFFFFFFC0007FF0003FFFFFF
310
FFFFFF0000000003F000FFF80000000007FFF8001E000FC003E0007FFF80007F
310
FFF0000000000FFFFF8000000000FFF80FFFFFFFFFFFFFC07FFFFFF0001FFFFF
310
F0001FFFFFFFFC0007F0001FFFFFFFFC0007FF0003FFFFFFFFFFFC0000000007
310
F000FFE0000000000FFFF0003E000FC003E0007FFF80007FFFC0000000001FFF
310
FE0000000001FFF80FFFFFFFFFFFFFC07FFFFFF0001FFFFFF0001FFFFFFFFC00
310
07F0001FFFFFFFFC0007FF0003FFFFFFFFFFF0000000000FF000FFC000000000
310
1FFFF0003F000F8003F0003FFF80007FFF80000000003FFFF80000000003FFF8
310
0FFFFFFFFFFFFFC07FFFFFF0001FFFFFF0001FFFFFFFFC0007F0001FFFFFFFFC
310
0007FF0003FFFFFFFFFFE0000000001FF000FF00000000007FFFF0003F000780
310
03F0003FFF80007FFF00000000007FFFF00000000007FFF80FFFFFFFFFFFFFC0
310
7FFFFFF0001FFFFFF0001FFFFFFFFC0007F0001FFFFFFFFC0007FF0003FFFFFF
310
FFFF80000000007FF000FE0000000000FFFFE0003F00078007F0003FFF80007F
310
FE0000000001FFFFE0000000001FFFF80FFFFFFFFFFFFFC07FFFFFF0001FFFFF
310
F0001FFFFFFFFC0007F0001FFFFFFFFC0007FF0003FFFFFFFFFF0000000000FF
310
F000FC0000000003FFFFE0007F00078007F0003FFF80007FFC0000000007FFFF
310
C0000000007FFFF80FFFFFFFFFFFFFC07FFFFFF0001FFFFFF8001FFFFFFFFC00
310
0FF8001FFFFFFFFC000FFF0003FFFFFFFFFE0000000003FFF000FC000000000F
310
FFFFE0007F80070007F8001FFF80007FF8000000001FFFFF8000000001FFFFF8
310
0FFFFFFFFFFFFFC07FFFFFF0001FFFFFF8001FFFFFFFFC000FF8001FFFFFFFFC
310
000FFF0003FFFFFFFFFC000000000FFFF000F8000000007FFFFFE0007F800700
310
07F8001FFF80007FF000000000FFFFFF800000000FFFFFF80FFFFFFFFFFFFFC0
310
7FFFFFF0001FFFFFF8000FFFFFFFF8000FF8000FFFFFFFF8000FFF0003FFFFFF
310
FFFC000000007FFFF000F800000007FFFFFFC0007F8003000FF8001FFF80007F
310
F000000007FFFFFF000000007FFFFFF80FFFFFFFFFFFFFC07FFFFFF0001FFFFF
310
F8000FFFFFFFF8000FF8000FFFFFFFF8000FFF0003FFFFFFFFF80000000FFFFF
310
F000F0000000FFFFFFFFC000FF8003000FF8001FFF80007FE0000000FFFFFFFF
310
0000000FFFFFFFF8000001FFFE0000007FFFFFF0001FFFFFF8000FFFFFFFF800
310
0FF8000FFFFFFFF8000FFF0003FFFFFFFFF8000000FFFFFFF000F000000FFFFF
310
FFFFC000FFC002000FF8000FFF80007FE000001FFFFFFFFE000001FFFFFFFFF8
310
000001FFFE0000007FFFFFF0001FFFFFF8000FFFFFFFF8000FF8000FFFFFFFF8
310
000FFF0003FFFFFFFFF000001FFFFFFFF000E00000FFFFFFFFFFC000FFC00200
310
0FFC000FFF80007FE00001FFFFFFFFFE00001FFFFFFFFFF8000001FFFE000000
310
7FFFFFF0001FFFFFFC000FFFFFFFF8001FFC000FFFFFFFF8001FFF0003FFFFFF
310
FFF00001FFFFFFFFF000E00007FFFFFFFFFF8000FFC000001FFC000FFF80007F
310
C0000FFFFFFFFFFE0000FFFFFFFFFFF8000001FFFE0000007FFFFFF0001FFFFF
310
FC0007FFFFFFF0001FFC0007FFFFFFF0001FFF0003FFFFFFFFF00007FFFFFFFF
310
F000E0001FFFFFFFFFFF8000FFC000001FFC000FFF80007FC0003FFFFFFFFFFE
310
0001FFFFFFFFFFF8000001FFFE0000007FFFFFF0001FFFFFFC0007FFFFFFF000
310
1FFC0007FFFFFFF0001FFF0003FFFFFFFFF0001FFFFFFFFFF000E0003FFFFF00
310
03FF8001FFE000001FFC0007FF80007FC0007FFFFF0007FC0003FFFFF0003FF8
310
000001FFFE0000007FFFFFF0001FFFFFFC0003FFFFFFE0001FFC0003FFFFFFE0
310
001FFF0003FFFFFFFFF0003FFFFFFFFFF000E0003FFFFF0001FF8001FFE00000
310
1FFE0007FF80007FC0007FFFFE0003FC0007FFFFE0003FF8000001FFFE000000
310
7FFFFFF0001FFFFFFE0003FFFFFFE0003FFE0003FFFFFFE0003FFF0003FFFFFF
310
FFF0003FFFFF8001F000E0003FFFFF0001FF0001FFE000001FFE0007FF80007F
310
C0007FFFFE0003FC0007FFFFE0003FF8000001FFFE0000007FFFFFF0001FFFFF
310
FE0001FFFFFFC0003FFE0001FFFFFFC0003FFF0003FFFFFFFFF0003FFFFF0001
310
F000E0003FFFFF0003FF0001FFE000003FFE0007FF80007FC0007FFFFE0003FC
310
0007FFFFE0003FF8000001FFFE0000007FFFFFF0001FFFFFFF0001FFFFFFC000
310
7FFF0001FFFFFFC0007FFF0003FFFFFFFFF0003FFFFF0001F000E0003FFFFE00
310
03FF0003FFF000003FFE0003FF80007FC0007FFFFC0003FE0007FFFFE0003FF8
310
000001FFFE0000007FFFFFF0001FFFFFFF0000FFFFFF80007FFF0000FFFFFF80
310
007FFF0003FFFFFFFFF0003FFFFF0001F000E0003FFFFE0003FF0003FFF00000
310
3FFF0003FF80007FC0007FFFFC0007FE0007FFFFC0003FF8000001FFFE000000
310
7FFFFFF0001FFFFFFF80007FFFFF0000FFFF80007FFFFF0000FFFF0003FFFFFF
310
FFF0003FFFFF0003F000E0003FFFFC0003FE0003FFF000003FFF0003FF80007F
310
E0003FFFF80007FE0003FFFFC0007FF8000001FFFE0000007FFFFFF0001FFFFF
310
FF80003FFFFE0000FFFF80003FFFFE0000FFFF0003FFFFFFFFF0001FFFFE0003
310
F000F0001FFFF80003FE0003FFF000007FFF0001FF80007FE0003FFFF00007FE
310
0001FFFF80007FF8000001FFFE0000007FFFFFF0001FFFFFFFC0000FFFF80001
310
FFFFC0000FFFF80001FFFF0003FFFFFFFFF0001FFFFC0003F000F0000FFFF000
310
07FE0007FFF800007FFF0001FF80007FE0001FFFE00007FF0000FFFE00007FF8
310
000001FFFE0000007FFFFFF0001FFFFFFFC00003FFE00001FFFFC00003FFE000
310
01FFFF0003FFFFFFFFF8000FFFF80003F000F00003FFC00007FC0007FFF80000
310
7FFF8001FF80007FF00007FF80000FFF00007FF80000FFF8000001FFFE000000
310
7F80000000000001FFE000003E000003FFFFE000003E000003FFFF0003FFFFFF
310
FFF80003FFE00007F000F800000000000FFC0007FFF800007FFF8001FF80007F
310
F000000000000FFF000000000000FFF8000001FFFE0000007F80000000000001
310
FFF0000000000007FFFFF0000000000007FFFF0003FFFFFFFFFC00007E000007
310
F000F800000000000FFC0007FFF80000FFFF8000FF80007FF800000000001FFF
310
800000000001FFF8000001FFFE0000007F80000000000001FFF800000000000F
310
FFFFF800000000000FFFFF0003FFFFFFFFFC00000000000FF000FC0000000000
310
1FFC0007FFFC0000FFFF8000FF80007FF800000000003FFFC00000000001FFF8
310
000001FFFE0000007F80000000000001FFF800000000000FFFFFF80000000000
310
0FFFFF0003FFFFFFFFFE00000000001FF000FE00000000003FF8000FFFFC0000
310
FFFF8000FF80007FFC00000000003FFFC00000000003FFF8000001FFFE000000
310
7F80000000000001FFFC00000000001FFFFFFC00000000001FFFFF0003FFFFFF
310
FFFF00000000001FF000FF00000000003FF8000FFFFC0000FFFFC000FF80007F
310
FE00000000007FFFE00000000007FFF8000001FFFE0000007F80000000000001
310
FFFE00000000003FFFFFFE00000000003FFFFF0003FFFFFFFFFF80000000003F
310
F000FF80000000007FF8000FFFFC0001FFFFC0007F80007FFF0000000000FFFF
310
F0000000000FFFF800000000000000007F80000000000001FFFF8000000000FF
310
FFFFFF8000000000FFFFFF0003FFFFFFFFFFC0000000007FF000FFC000000000
310
FFF8000FFFFE0001FFFFC0007F80007FFF8000000001FFFFF8000000001FFFF8
310
00000000000000007F80000000000001FFFFC000000001FFFFFFFFC000000001
310
FFFFFF0003FFFFFFFFFFE000000000FFF000FFE000000003FFF0001FFFFE0001
310
FFFFC0007F80007FFFC000000007FFFFFE000000003FFFF80000000000000000
310
7F80000000000001FFFFE000000003FFFFFFFFE000000003FFFFFF0003FFFFFF
310
FFFFF000000003FFF000FFF80000000FFFF0001FFFFE0001FFFFE0007F80007F
310
FFF00000000FFFFFFF00000000FFFFF800000000000000007F80000000000001
310
FFFFF80000000FFFFFFFFFF80000000FFFFFFF0003FFFFFFFFFFFC0000000FFF
310
F000FFFE0000003FFFF0001FFFFE0003FFFFE0003F80007FFFFC0000003FFFFF
310
FFC0000003FFFFF800000000000000007F80000000000001FFFFFE0000003FFF
310
FFFFFFFE0000003FFFFFFF0003FFFFFFFFFFFF0000003FFFF000FFFF800000FF
310
FFF0001FFFFF0003FFFFE0003F80007FFFFF000001FFFFFFFFF800001FFFFFF8
310
00000000000000007F80000000000001FFFFFFC00001FFFFFFFFFFFFC00001FF
310
FFFFFF0003FFFFFFFFFFFFC00000FFFFF000FFFFF8000FFFFFFFFFFFFFFFFFFF
310
FFFFFFFFFFFFFFFFFFFFF0001FFFFFFFFFFF0000FFFFFFF80000000000000000
310
7FFFFFFFFFFFFFFFFFFFFFFC001FFFFFFFFFFFFFFC001FFFFFFFFFFFFFFFFFFF
310
FFFFFFFC001FFFFFF000FFFFFFFFFFFFFFFFFFFFFFFFFFFFFFFFFFFFFFFFFFFF
310
FFFFFFFFFFFFFFFFFFFFFFFFFFFFFFFFFFFFFFFFFFFFFFFFFFFFFFFFFFFFFFFF
310
FFFFFFFFFFFFFFFFFFFFFFFFFFFFFFFFFFFFFFFFFFFFFFFFFFFFFFFFFFFFFFFF
310
F000FFFFFFFFFFFFFFFFFFFFFFFFFFFFFFFFFFFFFFFFFFFFFFFFFFFFFFFFFFFF
310
FFFFFFFFFFFFFFFFFFFFFFFFFFFFFFFFFFFFFFFFFFFFFFFFFFFFFFFFFFFFFFFF
310
FFFFFFFFFFFFFFFFFFFFFFFFFFFFFFFFFFFFFFFFFFFFFFFFF000FFFFFFFFFFFF
310
FFFFFFFFFFFFFFFFFFFFFFFFFFFFFFFFFFFFFFFFFFFFFFFFFFFFFFFFFFFFFFFF
310
FFFFFFFFFFFFFFFFFFFFFFFFFFFFFFFFFFFFFFFFFFFFFFFFFFFFFFFFFFFFFFFF
310
FFFFFFFFFFFFFFFFFFFFFFFFFFFFFFFFF000FFFFFFFFFFFFFFFFFFFFFFFFFFFF
310
FFFFFFFFFFFFFFFFFFFFFFFFFFFFFFFFFFFFFFFFFFFFFFFFFFFFFFFFFFFFFFFF
310
FFFFFFFFFFFFFFFFFFFFFFFFFFFFFFFFFFFFFFFFFFFFFFFFFFFFFFFFFFFFFFFF
310
FFFFFFFFFFFFFFFFF000FFFFFFFFFFFFFFFFFFFFFFFFFFFFFFFFFFFFFFFFFFFF
310
FFFFFFFFFFFFFFFFFFFFFFFFFFFFFFFFFFFFFFFFFFFFFFFFFFFFFFFFFFFFFFFF
310
FFFFFFFFFFFFFFFFFFFFFFFFFFFFFFFFFFFFFFFFFFFFFFFFFFFFFFFFFFFFFFFF
310
F000FFFFFFFFFFFFFFFFFFFFFFFFFFFFFFFFFFFFFFFFFFFFFFFFFFFFFFFFFFFF
310
FFFFFFFFFFFFFFFFFFFFFFFFFFFFFFFFFFFFFFFFFFFFFFFFFFFFFFFFFFFFFFFF
310
FFFFFFFFFFFFFFFFFFFFFFFFFFFFFFFFFFFFFFFFFFFFFFFFF000FFFFFFFFFFFF
310
FFFFFFFFFFFFFFFFFFFFFFFFFFFFFFFFFFFFFFFFFFFFFFFFFFFFFFFFFFFFFFFF
310
FFFFFFFFFFFFFFFFFFFFFFFFFFFFFFFFFFFFFFFFFFFFFFFFFFFFFFFFFFFFFFFF
310
FFFFFFFFFFFFFFFFFFFFFFFFFFFFFFFFF000FFFFFFFFFFFFFFFFFFFFFFFFFFFF
310
FFFFFFFFFFFFFFFFFFFFFFFFFFFFFFFFFFFFFFFFFFFFFFFFFFFFFFFFFFFFFFFF
310
FFFFFFFFFFFFFFFFFFFFFFFFFFFFFFFFFFFFFFFFFFFFFFFFFFFFFFFFFFFFFFFF
310
FFFFFFFFFFFFFFFFF000FFFFFFFFFFFFFFFFFFFFFFFFFFFFFFFFFFFFFFFFFFFF
310
FFFFFFFFFFFFFFFFFFFFFFFFFFFFFFFFFFFFFFFFFFFFFFFFFFFFFFFFFFFFFFFF
310
FFFFFFFFFFFFFFFFFFFFFFFFFFFFFFFFFFFFFFFFFFFFFFFFFFFFFFFFFFFFFFFF
310
F000FFFFFFFFFFFFFFFFFFFFFFFFFFFFFFFFFFFFFFFFFFFFFFFFFFFFFFFFFFFF
310
FFFFFFFFFFFFFFFFFFFFFFFFFFFFFFFFFFFFFFFFFFFFFFFFFFFFFFFFFFFFFFFF
310
FFFFFFFFFFFFFFFFFFFFFFFFFFFFFFFFFFFFFFFFFFFFFFFFF000FFFFFFFFFFFF
310
FFFFFFFFFFFFFFFFFFFFFFFFFFFFFFFFFFFFFFFFFFFFFFFFFFFFFFFFFFFFFFFF
310
FFFFFFFFFFFFFFFFFFFFFFFFFFFFFFFFFFFFFFFFFFFFFFFFFFFFFFFFFFFFFFFF
310
FFFFFFFFFFFFFFFFFFFFFFFFFFFFFFFFF000FFFFFFFFFFFFFFFFFFFFFFFFFFFF
310
FFFFFFFFFFFFFFFFFFFFFFFFFFFFFFFFFFFFFFFFFFFFFFFFFFFFFFFFFFFFFFFF
310
FFFFFFFFFFFFFFFFFFFFFFFFFFFFFFFFFFFFFFFFFFFFFFFFFFFFFFFFFFFFFFFF
310
FFFFFFFFFFFFFFFFF000FFFFFFFFFFFFFFFFFFFFFFFFFFFFFFFFFFFFFFFFFFFF
310
FFFFFFFFFFFFFFFFFFFFFFFFFFFFFFFFFFFFFFFFFFFFFFFFFFFFFFFFFFFFFFFF
310
FFFFFFFFFFFFFFFFFFFFFFFFFFFFFFFFFFFFFFFFFFFFFFFFFFFFFFFFFFFFFFFF
310
F000FFFFFFFFFFFFFFFFFFFFFFFFFFFFFFFFFFFFFFFFFFFFFFFFFFFFFFFFFFFF
310
FFFFFFFFFFFFFFFFFFFFFFFFFFFFFFFFFFFFFFFFFFFFFFFFFFFFFFFFFFFFFFFF
310
FFFFFFFFFFFFFFFFFFFFFFFFFFFFFFFFFFFFFFFFFFFFFFFFF000FFFFFFFFFFFF
310
FFFFFFFFFFFFFFFFFFFFFFFFFFFFFFFFFFFFFFFFFFFFFFFFFFFFFFFFFFFFFFFF
310
FFFFFFFFFFFFFFFFFFFFFFFFFFFFFFFFFFFFFFFFFFFFFFFFFFFFFFFFFFFFFFFF
310
FFFFFFFFFFFFFFFFFFFFFFFFFFFFFFFFF000FFFFFFFFFFFFFFFFFFFFFFFFFFFF
310
FFFFFFFFFFFFFFFFFFFFFFFFFFFFFFFFFFFFFFFFFFFFFFFFFFFFFFFFFFFFFFFF
310
FFFFFFFFFFFFFFFFFFFFFFFFFFFFFFFFFFFFFFFFFFFFFFFFFFFFFFFFFFFFFFFF
310
FFFFFFFFFFFFFFFFF000FFFFFFFFFFFFFFFFFFFFFFFFFFFFFFFFFFFFFFFFFFFF
310
FFFFFFFFFFFFFFFFFFFFFFFFFFFFFFFFFFFFFFFFFFFFFFFFFFFFFFFFFFFFFFFF
310
FFFFFFFFFFFFFFFFFFFFFFFFFFFFFFFFFFFFFFFFFFFFFFFFFFFFFFFFFFFFFFFF
310
F000FFFFFFFFFFFFFFFFFFFFFFFFFFFFFFFFFFFFFFFFFFFFFFFFFFFFFFFFFFFF
310
FFFFFFFFFFFFFFFFFFFFFFFFFFFFFFFFFFFFFFFFFFFFFFFFFFFFFFFFFFFFFFFF
310
FFFFFFFFFFFFFFFFFFFFFFFFFFFFFFFFFFFFFFFFFFFFFFFFF000FFFFFFFFFFFF
310
FFFFFFFFFFFFFFFFFFFFFFFFFFFFFFFFFFFFFFFFFFFFFFFFFFFFFFFFFFFFFFFF
310
FFFFFFFFFFFFFFFFFFFFFFFFFFFFFFFFFFFFFFFFFFFFFFFFFFFFFFFFFFFFFFFF
310
FFFFFFFFFFFFFFFFFFFFFFFFFFFFFFFFF000FFFFFFFFFFFFFFFFFFFFFFFFFFFF
310
FFFFFFFFFFFFFFFFFFFFFFFFFFFFFFFFFFFFFFFFFFFFFFFFFFFFFFFFFFFFFFFF
310
FFFFFFFFFFFFFFFFFFFFFFFFFFFFFFFFFFFFFFFFFFFFFFFFFFFFFFFFFFFFFFFF
310
FFFFFFFFFFFFFFFFF000FFFFFFFFFFFFFFFFFFFFFFFFFFFFFFFFFFFFFFFFFFFF
310
FFFFFFFFFFFFFFFFFFFFFFFFFFFFFFFFFFFFFFFFFFFFFFFFFFFFFFFFFFFFFFFF
310
FFFFFFFFFFFFFFFFFFFFFFFFFFFFFFFFFFFFFFFFFFFFFFFFFFFFFFFFFFFFFFFF
310
F000FFFFFFFFFFFFFFFFFFFFFFFFFFFFFFFFFFFFFFFFFFFFFFFFFFFFFFFFFFFF
310
FFFFFFFFFFFFFFFFFFFFFFFFFFFFFFFFFFFFFFFFFFFFFFFFFFFFFFFFFFFFFFFF
310
FFFFFFFFFFFFFFFFFFFFFFFFFFFFFFFFFFFFFFFFFFFFFFFFF000FFFFFFFFFFFF
310
FFFFFFFFFFFFFFFFFFFFFFFFFFFFFFFFFFFFFFFFFFFFFFFFFFFFFFFFFFFFFFFF
310
FFFFFFFFFFFFFFFFFFFFFFFFFFFFFFFFFFFFFFFFFFFFFFFFFFFFFFFFFFFFFFFF
310
FFFFFFFFFFFFFFFFFFFFFFFFFFFFFFFFF0000000000000000000000000000000
310
0000000000000000000000000000000000000000000000000000000000000000
310
0000000000000000000000000000000000000000000000000000000000000000
310
0000000000000000000000000000000000000000000000000000000000000000
310
0000000000000000000000000000000000000000000000000000000000000000
310
0000000000000000000000000000000000000000000000000000000000000000
310
0000000000000000000000000000000000000000000000000000000000000000
310
0000000000000000000000000000000000000000000000000000000000000000
310
0000000000000000000000000000000000000000000000000000000000000000
310
0000000000000000000000000000000000000000000000000000000000000000
310
0000000000000000000000000000000000000000000000000000000000000000
310
0000000000000000000000000000000000000000000000000000000000000000
310
0000000000000000000000000000000000000000000000000000000000000000
310
0000000000000000000000000000000000000000000000000000000000000000
310
0000000000000000000000000000000000000000000000000000000000000000
310
0000000000000000000000000000000000000000000000000000000000000000
  1
OLE
  0
ENDSEC
  0
SECTION
  2
OBJECTS
  0
DICTIONARY
  5
C
330
0
100
AcDbDictionary
281
     1
  3
ACAD_GROUP
350
D
  3
ACAD_LAYOUT
350
1A
  3
ACAD_MLINESTYLE
350
17
  3
ACAD_PLOTSETTINGS
350
19
  3
ACAD_PLOTSTYLENAME
350
E
  0
DICTIONARY
  5
D
102
{ACAD_REACTORS
330
C
102
}
330
C
100
AcDbDictionary
281
     1
  0
DICTIONARY
  5
1A
102
{ACAD_REACTORS
330
C
102
}
330
C
100
AcDbDictionary
281
     1
  3
Layout1
350
1E
  3
Layout2
350
26
  3
Model
350
22
  0
DICTIONARY
  5
17
102
{ACAD_REACTORS
330
C
102
}
330
C
100
AcDbDictionary
281
     1
  3
Standard
350
18
  0
DICTIONARY
  5
19
102
{ACAD_REACTORS
330
C
102
}
330
C
100
AcDbDictionary
281
     1
  0
ACDBDICTIONARYWDFLT
  5
E
102
{ACAD_REACTORS
330
C
102
}
330
C
100
AcDbDictionary
281
     1
  3
Normal
350
F
100
AcDbDictionaryWithDefault
340
F
  0
LAYOUT
  5
1E
102
{ACAD_REACTORS
330
1A
102
}
330
1A
100
AcDbPlotSettings
  1

  2
none_device
  4

  6

 40
0.0
 41
0.0
 42
0.0
 43
0.0
 44
0.0
 45
0.0
 46
0.0
 47
0.0
 48
0.0
 49
0.0
140
0.0
141
0.0
142
1.0
143
1.0
 70
   688
 72
     0
 73
     0
 74
     5
  7

 75
    16
147
1.0
148
0.0
149
0.0
100
AcDbLayout
  1
Layout1
 70
     1
 71
     1
 10
0.0
 20
0.0
 11
420.0
 21
297.0
 12
0.0
 22
0.0
 32
0.0
 14
1.0000000000E+20
 24
1.0000000000E+20
 34
1.0000000000E+20
 15
-1.0000000000E+20
 25
-1.0000000000E+20
 35
-1.0000000000E+20
146
0.0
 13
0.0
 23
0.0
 33
0.0
 16
1.0
 26
0.0
 36
0.0
 17
0.0
 27
1.0
 37
0.0
 76
     0
330
1B
  0
LAYOUT
  5
26
102
{ACAD_REACTORS
330
1A
102
}
330
1A
100
AcDbPlotSettings
  1

  2
none_device
  4

  6

 40
0.0
 41
0.0
 42
0.0
 43
0.0
 44
0.0
 45
0.0
 46
0.0
 47
0.0
 48
0.0
 49
0.0
140
0.0
141
0.0
142
1.0
143
1.0
 70
   688
 72
     0
 73
     0
 74
     5
  7

 75
    16
147
1.0
148
0.0
149
0.0
100
AcDbLayout
  1
Layout2
 70
     1
 71
     2
 10
0.0
 20
0.0
 11
0.0
 21
0.0
 12
0.0
 22
0.0
 32
0.0
 14
0.0
 24
0.0
 34
0.0
 15
0.0
 25
0.0
 35
0.0
146
0.0
 13
0.0
 23
0.0
 33
0.0
 16
1.0
 26
0.0
 36
0.0
 17
0.0
 27
1.0
 37
0.0
 76
     0
330
23
  0
LAYOUT
  5
22
102
{ACAD_REACTORS
330
1A
102
}
330
1A
100
AcDbPlotSettings
  1

  2
none_device
  4

  6

 40
0.0
 41
0.0
 42
0.0
 43
0.0
 44
0.0
 45
0.0
 46
0.0
 47
0.0
 48
0.0
 49
0.0
140
0.0
141
0.0
142
1.0
143
1.0
 70
  1712
 72
     0
 73
     0
 74
     0
  7

 75
     0
147
1.0
148
0.0
149
0.0
100
AcDbLayout
  1
Model
 70
     1
 71
     0
 10
0.0
 20
0.0
 11
297.0
 21
210.0
 12
0.0
 22
0.0
 32
0.0
 14
0.0
 24
0.0
 34
0.0
 15
297.0
 25
210.0
 35
0.0
146
0.0
 13
0.0
 23
0.0
 33
0.0
 16
1.0
 26
0.0
 36
0.0
 17
0.0
 27
1.0
 37
0.0
 76
     0
330
1F
331
29
  0
MLINESTYLE
  5
18
102
{ACAD_REACTORS
330
17
102
}
330
17
100
AcDbMlineStyle
  2
Standard
 70
     0
  3

 62
   256
 51
90.0
 52
90.0
 71
     2
 49
0.5
 62
   256
  6
BYLAYER
 49
-0.5
 62
   256
  6
BYLAYER
  0
ACDBPLACEHOLDER
  5
F
102
{ACAD_REACTORS
330
E
102
}
330
E
  0
ENDSEC
  0
EOF
