  0
SECTION
  2
HEADER
  9
$ACADVER
  1
AC1015
  9
$ACADMAINTVER
 70
     6
  9
$DWGCODEPAGE
  3
ANSI_1252
  9
$INSBASE
 10
0.0
 20
0.0
 30
0.0
  9
$EXTMIN
 10
0.0
 20
0.0
 30
0.0
  9
$EXTMAX
 10
297.0
 20
210.0
 30
0.0
  9
$LIMMIN
 10
0.0
 20
0.0
  9
$LIMMAX
 10
297.0
 20
210.0
  9
$ORTHOMODE
 70
     0
  9
$REGENMODE
 70
     1
  9
$FILLMODE
 70
     1
  9
$QTEXTMODE
 70
     0
  9
$MIRRTEXT
 70
     1
  9
$LTSCALE
 40
1.0
  9
$ATTMODE
 70
     1
  9
$TEXTSIZE
 40
2.0
  9
$TRACEWID
 40
1.0
  9
$TEXTSTYLE
  7
Standard
  9
$CLAYER
  8
0
  9
$CELTYPE
  6
ByLayer
  9
$CECOLOR
 62
   256
  9
$CELTSCALE
 40
1.0
  9
$DISPSILH
 70
     0
  9
$DIMSCALE
 40
1.0
  9
$DIMASZ
 40
3.0
  9
$DIMEXO
 40
0.0
  9
$DIMDLI
 40
3.75
  9
$DIMRND
 40
0.0
  9
$DIMDLE
 40
0.0
  9
$DIMEXE
 40
1.0
  9
$DIMTP
 40
0.0
  9
$DIMTM
 40
0.0
  9
$DIMTXT
 40
2.0
  9
$DIMCEN
 40
2.5
  9
$DIMTSZ
 40
0.0
  9
$DIMTOL
 70
     0
  9
$DIMLIM
 70
     0
  9
$DIMTIH
 70
     1
  9
$DIMTOH
 70
     1
  9
$DIMSE1
 70
     0
  9
$DIMSE2
 70
     0
  9
$DIMTAD
 70
     1
  9
$DIMZIN
 70
     0
  9
$DIMBLK
  1

  9
$DIMASO
 70
     1
  9
$DIMSHO
 70
     1
  9
$DIMPOST
  1

  9
$DIMAPOST
  1

  9
$DIMALT
 70
     0
  9
$DIMALTD
 70
     3
  9
$DIMALTF
 40
0.0393700787
  9
$DIMLFAC
 40
1.0
  9
$DIMTOFL
 70
     1
  9
$DIMTVP
 40
0.0
  9
$DIMTIX
 70
     0
  9
$DIMSOXD
 70
     0
  9
$DIMSAH
 70
     0
  9
$DIMBLK1
  1

  9
$DIMBLK2
  1

  9
$DIMSTYLE
  2
ISO-25
  9
$DIMCLRD
 70
     0
  9
$DIMCLRE
 70
     0
  9
$DIMCLRT
 70
     0
  9
$DIMTFAC
 40
1.0
  9
$DIMGAP
 40
1.524
  9
$DIMJUST
 70
     0
  9
$DIMSD1
 70
     0
  9
$DIMSD2
 70
     0
  9
$DIMTOLJ
 70
     0
  9
$DIMTZIN
 70
     0
  9
$DIMALTZ
 70
     0
  9
$DIMALTTZ
 70
     0
  9
$DIMUPT
 70
     0
  9
$DIMDEC
 70
     2
  9
$DIMTDEC
 70
     3
  9
$DIMALTU
 70
     2
  9
$DIMALTTD
 70
     3
  9
$DIMTXSTY
  7
Standard
  9
$DIMAUNIT
 70
     0
  9
$DIMADEC
 70
     2
  9
$DIMALTRND
 40
0.0
  9
$DIMAZIN
 70
     0
  9
$DIMDSEP
 70
    44
  9
$DIMATFIT
 70
     3
  9
$DIMFRAC
 70
     0
  9
$DIMLDRBLK
  1

  9
$DIMLUNIT
 70
     2
  9
$DIMLWD
 70
    -2
  9
$DIMLWE
 70
    -2
  9
$DIMTMOVE
 70
     0
  9
$LUNITS
 70
     2
  9
$LUPREC
 70
     2
  9
$SKETCHINC
 40
1.0
  9
$FILLETRAD
 40
10.0
  9
$AUNITS
 70
     0
  9
$AUPREC
 70
     2
  9
$MENU
  1
.
  9
$ELEVATION
 40
0.0
  9
$PELEVATION
 40
0.0
  9
$THICKNESS
 40
0.0
  9
$LIMCHECK
 70
     0
  9
$CHAMFERA
 40
10.0
  9
$CHAMFERB
 40
10.0
  9
$CHAMFERC
 40
20.0
  9
$CHAMFERD
 40
0.0
  9
$SKPOLY
 70
     0
  9
$TDCREATE
 40
2456084.443564907
  9
$TDUCREATE
 40
2456084.360231574
  9
$TDUPDATE
 40
2456084.443566354
  9
$TDUUPDATE
 40
2456084.360233021
  9
$TDINDWG
 40
0.0000000116
  9
$TDUSRTIMER
 40
0.0000000116
  9
$USRTIMER
 70
     1
  9
$ANGBASE
 50
0.0
  9
$ANGDIR
 70
     0
  9
$PDMODE
 70
     0
  9
$PDSIZE
 40
-1.0
  9
$PLINEWID
 40
0.0
  9
$SPLFRAME
 70
     0
  9
$SPLINETYPE
 70
     6
  9
$SPLINESEGS
 70
     8
  9
$HANDSEED
  5
227
  9
$SURFTAB1
 70
     6
  9
$SURFTAB2
 70
     6
  9
$SURFTYPE
 70
     6
  9
$SURFU
 70
     6
  9
$SURFV
 70
     6
  9
$UCSBASE
  2

  9
$UCSNAME
  2

  9
$UCSORG
 10
0.0
 20
0.0
 30
0.0
  9
$UCSXDIR
 10
1.0
 20
0.0
 30
0.0
  9
$UCSYDIR
 10
0.0
 20
1.0
 30
0.0
  9
$UCSORTHOREF
  2

  9
$UCSORTHOVIEW
 70
     0
  9
$UCSORGTOP
 10
0.0
 20
0.0
 30
0.0
  9
$UCSORGBOTTOM
 10
0.0
 20
0.0
 30
0.0
  9
$UCSORGLEFT
 10
0.0
 20
0.0
 30
0.0
  9
$UCSORGRIGHT
 10
0.0
 20
0.0
 30
0.0
  9
$UCSORGFRONT
 10
0.0
 20
0.0
 30
0.0
  9
$UCSORGBACK
 10
0.0
 20
0.0
 30
0.0
  9
$PUCSBASE
  2

  9
$PUCSNAME
  2

  9
$PUCSORG
 10
0.0
 20
0.0
 30
0.0
  9
$PUCSXDIR
 10
1.0
 20
0.0
 30
0.0
  9
$PUCSYDIR
 10
0.0
 20
1.0
 30
0.0
  9
$PUCSORTHOREF
  2

  9
$PUCSORTHOVIEW
 70
     0
  9
$PUCSORGTOP
 10
0.0
 20
0.0
 30
0.0
  9
$PUCSORGBOTTOM
 10
0.0
 20
0.0
 30
0.0
  9
$PUCSORGLEFT
 10
0.0
 20
0.0
 30
0.0
  9
$PUCSORGRIGHT
 10
0.0
 20
0.0
 30
0.0
  9
$PUCSORGFRONT
 10
0.0
 20
0.0
 30
0.0
  9
$PUCSORGBACK
 10
0.0
 20
0.0
 30
0.0
  9
$USERI1
 70
     0
  9
$USERI2
 70
     0
  9
$USERI3
 70
     0
  9
$USERI4
 70
     0
  9
$USERI5
 70
     0
  9
$USERR1
 40
0.0
  9
$USERR2
 40
0.0
  9
$USERR3
 40
0.0
  9
$USERR4
 40
0.0
  9
$USERR5
 40
0.0
  9
$WORLDVIEW
 70
     1
  9
$SHADEDGE
 70
     3
  9
$SHADEDIF
 70
    70
  9
$TILEMODE
 70
     1
  9
$MAXACTVP
 70
    64
  9
$PINSBASE
 10
0.0
 20
0.0
 30
0.0
  9
$PLIMCHECK
 70
     0
  9
$PEXTMIN
 10
1.0000000000E+20
 20
1.0000000000E+20
 30
1.0000000000E+20
  9
$PEXTMAX
 10
-1.0000000000E+20
 20
-1.0000000000E+20
 30
-1.0000000000E+20
  9
$PLIMMIN
 10
0.0
 20
0.0
  9
$PLIMMAX
 10
420.0
 20
297.0
  9
$UNITMODE
 70
     0
  9
$VISRETAIN
 70
     1
  9
$PLINEGEN
 70
     0
  9
$PSLTSCALE
 70
     1
  9
$TREEDEPTH
 70
  3020
  9
$CMLSTYLE
  2
Standard
  9
$CMLJUST
 70
     0
  9
$CMLSCALE
 40
20.0
  9
$PROXYGRAPHICS
 70
     1
  9
$MEASUREMENT
 70
     1
  9
$CELWEIGHT
370
    -1
  9
$ENDCAPS
280
     0
  9
$JOINSTYLE
280
     0
  9
$LWDISPLAY
290
     1
  9
$INSUNITS
 70
     4
  9
$HYPERLINKBASE
  1

  9
$STYLESHEET
  1

  9
$XEDIT
290
     1
  9
$CEPSNTYPE
380
     0
  9
$PSTYLEMODE
290
     1
  9
$FINGERPRINTGUID
  2
{6610F329-3B61-4B41-BE18-3E1BC927C780}
  9
$VERSIONGUID
  2
{FAEB1C32-E019-11D5-929B-00C0DF256EC4}
  9
$EXTNAMES
290
     1
  9
$PSVPSCALE
 40
0.0
  9
$OLESTARTUP
290
     0
  0
ENDSEC
  0
SECTION
  2
CLASSES
  0
CLASS
  1
ACDBDICTIONARYWDFLT
  2
AcDbDictionaryWithDefault
  3
ObjectDBX Classes
 90
        0
280
     0
281
     0
  0
CLASS
  1
VISUALSTYLE
  2
AcDbVisualStyle
  3
ObjectDBX Classes
 90
     4095
280
     0
281
     0
  0
CLASS
  1
MATERIAL
  2
AcDbMaterial
  3
ObjectDBX Classes
 90
     1153
280
     0
281
     0
  0
CLASS
  1
ACDBPLACEHOLDER
  2
AcDbPlaceHolder
  3
ObjectDBX Classes
 90
        0
280
     0
281
     0
  0
CLASS
  1
LAYOUT
  2
AcDbLayout
  3
ObjectDBX Classes
 90
        0
280
     0
281
     0
  0
ENDSEC
  0
SECTION
  2
TABLES
  0
TABLE
  2
VPORT
  5
8
330
0
100
AcDbSymbolTable
 70
     1
  0
VPORT
  5
29
330
8
100
AcDbSymbolTableRecord
100
AcDbViewportTableRecord
  2
*Active
 70
     0
 10
0.0
 20
0.0
 11
1.0
 21
1.0
 12
148.5
 22
105.0
 13
0.0
 23
0.0
 14
10.0
 24
10.0
 15
10.0
 25
10.0
 16
0.0
 26
0.0
 36
1.0
 17
0.0
 27
0.0
 37
0.0
 40
210.0
 41
1.4142857143
 42
50.0
 43
0.0
 44
0.0
 50
0.0
 51
0.0
 71
     0
 72
  2000
 73
     1
 74
     3
 75
     0
 76
     0
 77
     0
 78
     0
281
     0
 65
     1
110
0.0
120
0.0
130
0.0
111
1.0
121
0.0
131
0.0
112
0.0
122
1.0
132
0.0
 79
     0
146
0.0
  0
ENDTAB
  0
TABLE
  2
LTYPE
  5
5
330
0
100
AcDbSymbolTable
 70
     6
  0
LTYPE
  5
14
330
5
100
AcDbSymbolTableRecord
100
AcDbLinetypeTableRecord
  2
ByBlock
 70
     0
  3

 72
    65
 73
     0
 40
0.0
  0
LTYPE
  5
15
330
5
100
AcDbSymbolTableRecord
100
AcDbLinetypeTableRecord
  2
ByLayer
 70
     0
  3

 72
    65
 73
     0
 40
0.0
  0
LTYPE
  5
16
330
5
100
AcDbSymbolTableRecord
100
AcDbLinetypeTableRecord
  2
Continuous
 70
     0
  3
Solid line
 72
    65
 73
     0
 40
0.0
  0
LTYPE
  5
3F
330
5
100
AcDbSymbolTableRecord
100
AcDbLinetypeTableRecord
  2
HIDDEN
 70
     0
  3
Hidden __ __ __ __ __ __ __ __ __ __ __ __ __ __
 72
    65
 73
     2
 40
1.905
 49
1.27
 74
     0
 49
-0.635
 74
     0
  0
LTYPE
  5
40
330
5
100
AcDbSymbolTableRecord
100
AcDbLinetypeTableRecord
  2
PHANTOM
 70
     0
  3
Phantom ______  __  __  ______  __  __  ______
 72
    65
 73
     6
 40
12.7
 49
6.35
 74
     0
 49
-1.27
 74
     0
 49
1.27
 74
     0
 49
-1.27
 74
     0
 49
1.27
 74
     0
 49
-1.27
 74
     0
  0
LTYPE
  5
41
330
5
100
AcDbSymbolTableRecord
100
AcDbLinetypeTableRecord
  2
CENTER
 70
     0
  3
Center ____ _ ____ _ ____ _ ____ _ ____ _ ____
 72
    65
 73
     4
 40
10.16
 49
6.35
 74
     0
 49
-1.27
 74
     0
 49
1.27
 74
     0
 49
-1.27
 74
     0
  0
LTYPE
  5
42
330
5
100
AcDbSymbolTableRecord
100
AcDbLinetypeTableRecord
  2
CENTERX2
 70
     0
  3
Center (2x) ________  __  ________  __  _____
 72
    65
 73
     4
 40
20.32
 49
12.7
 74
     0
 49
-2.54
 74
     0
 49
2.54
 74
     0
 49
-2.54
 74
     0
  0
LTYPE
  5
43
330
5
100
AcDbSymbolTableRecord
100
AcDbLinetypeTableRecord
  2
DOT2
 70
     0
  3
Dot (.5x) ........................................
 72
    65
 73
     2
 40
0.635
 49
0.0
 74
     0
 49
-0.635
 74
     0
  0
ENDTAB
  0
TABLE
  2
LAYER
  5
2
330
0
100
AcDbSymbolTable
 70
     5
  0
LAYER
  5
10
330
2
100
AcDbSymbolTableRecord
100
AcDbLayerTableRecord
  2
0
 70
     0
 62
     7
  6
Continuous
370
    -3
390
F
  0
LAYER
  5
44
330
2
100
AcDbSymbolTableRecord
100
AcDbLayerTableRecord
  2
FORMAT
 70
     0
 62
     7
  6
Continuous
370
    -3
390
F
  0
LAYER
  5
45
330
2
100
AcDbSymbolTableRecord
100
AcDbLayerTableRecord
  2
VERMASSUNG
 70
     0
 62
     7
  6
Continuous
370
    -3
390
F
  0
LAYER
  5
46
330
2
100
AcDbSymbolTableRecord
100
AcDbLayerTableRecord
  2
KOPF_DÜNN
 70
     0
 62
     7
  6
Continuous
370
    -3
390
F
  0
LAYER
  5
47
330
2
100
AcDbSymbolTableRecord
100
AcDbLayerTableRecord
  2
KOPF_DICK
 70
     0
 62
     7
  6
Continuous
370
    15
390
F
  0
ENDTAB
  0
TABLE
  2
STYLE
  5
3
330
0
100
AcDbSymbolTable
 70
     2
  0
STYLE
  5
11
330
3
100
AcDbSymbolTableRecord
100
AcDbTextStyleTableRecord
  2
Standard
 70
     0
 40
0.0
 41
1.0
 50
0.0
 71
     0
 42
2.0
  3
txt
  4

  0
STYLE
  5
48
330
3
100
AcDbSymbolTableRecord
100
AcDbTextStyleTableRecord
  2
SLDTEXTSTYLE0
 70
     0
 40
0.0
 41
0.7
 50
0.0
 71
     0
 42
0.2
  3
TXT
  4

  0
ENDTAB
  0
TABLE
  2
VIEW
  5
6
330
0
100
AcDbSymbolTable
 70
     0
  0
ENDTAB
  0
TABLE
  2
UCS
  5
7
330
0
100
AcDbSymbolTable
 70
     0
  0
ENDTAB
  0
TABLE
  2
APPID
  5
9
330
0
100
AcDbSymbolTable
 70
     1
  0
APPID
  5
12
330
9
100
AcDbSymbolTableRecord
100
AcDbRegAppTableRecord
  2
ACAD
 70
     0
  0
ENDTAB
  0
TABLE
  2
DIMSTYLE
  5
A
330
0
100
AcDbSymbolTable
 70
     5
100
AcDbDimStyleTable
  0
DIMSTYLE
105
27
330
A
100
AcDbSymbolTableRecord
100
AcDbDimStyleTableRecord
  2
ISO-25
 70
     0
 41
2.5
 42
0.625
 43
3.75
 44
1.25
 73
     0
 74
     0
 77
     1
 78
     8
140
2.5
141
2.5
143
0.0393700787
147
0.625
171
     3
172
     1
178
     0
271
     2
272
     2
274
     3
278
    44
283
     0
284
     8
340
11
  0
DIMSTYLE
105
19C
102
{ACAD_REACTORS
330
19B
330
1A6
330
1B0
330
1C4
330
1D0
102
}
330
A
100
AcDbSymbolTableRecord
100
AcDbDimStyleTableRecord
  2
SLDDIMSTYLE0
 70
     0
 41
3.0
 44
0.0
 45
0.000000001
 73
     0
 74
     0
 77
     1
 78
    12
 79
     3
140
2.0
147
0.5
173
     1
178
     0
271
     2
272
     3
276
     2
284
    12
340
48
  0
DIMSTYLE
105
1BB
102
{ACAD_REACTORS
330
1BA
102
}
330
A
100
AcDbSymbolTableRecord
100
AcDbDimStyleTableRecord
  2
SLDDIMSTYLE1
 70
     0
 41
3.0
 44
0.0
 73
     0
 74
     0
 77
     1
 78
    12
 79
     3
140
2.0
147
0.5
173
     1
178
     0
179
     1
272
     3
276
     2
284
    12
340
48
  0
DIMSTYLE
105
1FF
102
{ACAD_REACTORS
330
1FE
102
}
330
A
100
AcDbSymbolTableRecord
100
AcDbDimStyleTableRecord
  2
SLDDIMSTYLE2
 70
     0
 41
3.0
 44
0.0
 45
0.000000001
 73
     0
 74
     0
 77
     1
 78
    12
 79
     3
140
2.0
147
0.5
172
     1
173
     1
178
     0
271
     2
272
     3
276
     2
284
    12
289
     0
340
48
  0
DIMSTYLE
105
20E
102
{ACAD_REACTORS
330
20D
102
}
330
A
100
AcDbSymbolTableRecord
100
AcDbDimStyleTableRecord
  2
SLDDIMSTYLE3
 70
     0
 41
3.0
 44
0.0
 73
     0
 74
     0
 77
     1
 78
    12
 79
     3
140
2.0
147
0.5
173
     1
178
     0
179
     2
272
     3
276
     2
284
    12
340
48
  0
ENDTAB
  0
TABLE
  2
BLOCK_RECORD
  5
1
330
0
100
AcDbSymbolTable
 70
    10
  0
BLOCK_RECORD
  5
1F
330
1
100
AcDbSymbolTableRecord
100
AcDbBlockTableRecord
  2
*Model_Space
340
22
  0
BLOCK_RECORD
  5
1B
330
1
100
AcDbSymbolTableRecord
100
AcDbBlockTableRecord
  2
*Paper_Space
340
1E
  0
BLOCK_RECORD
  5
23
330
1
100
AcDbSymbolTableRecord
100
AcDbBlockTableRecord
  2
*Paper_Space0
340
26
  0
BLOCK_RECORD
  5
19D
330
1
100
AcDbSymbolTableRecord
100
AcDbBlockTableRecord
  2
_D
340
0
  0
BLOCK_RECORD
  5
1A7
330
1
100
AcDbSymbolTableRecord
100
AcDbBlockTableRecord
  2
_D_1
340
0
  0
BLOCK_RECORD
  5
1B1
330
1
100
AcDbSymbolTableRecord
100
AcDbBlockTableRecord
  2
_D_2
340
0
  0
BLOCK_RECORD
  5
1BC
330
1
100
AcDbSymbolTableRecord
100
AcDbBlockTableRecord
  2
_D_3
340
0
  0
BLOCK_RECORD
  5
1C5
330
1
100
AcDbSymbolTableRecord
100
AcDbBlockTableRecord
  2
_D_4
340
0
  0
BLOCK_RECORD
  5
1D1
330
1
100
AcDbSymbolTableRecord
100
AcDbBlockTableRecord
  2
_D_5
340
0
  0
BLOCK_RECORD
  5
200
330
1
100
AcDbSymbolTableRecord
100
AcDbBlockTableRecord
  2
_D_6
340
0
  0
BLOCK_RECORD
  5
20F
330
1
100
AcDbSymbolTableRecord
100
AcDbBlockTableRecord
  2
_D_7
340
0
  0
BLOCK_RECORD
  5
21A
330
1
100
AcDbSymbolTableRecord
100
AcDbBlockTableRecord
  2
SW_CENTERMARKSYMBOL_0
340
0
102
{BLKREFS
331
225
102
}
  0
ENDTAB
  0
ENDSEC
  0
SECTION
  2
BLOCKS
  0
BLOCK
  5
20
330
1F
100
AcDbEntity
  8
0
100
AcDbBlockBegin
  2
*Model_Space
 70
     0
 10
0.0
 20
0.0
 30
0.0
  3
*Model_Space
  1

  0
ENDBLK
  5
21
330
1F
100
AcDbEntity
  8
0
100
AcDbBlockEnd
  0
BLOCK
  5
1C
330
1B
100
AcDbEntity
 67
     1
  8
0
100
AcDbBlockBegin
  2
*Paper_Space
 70
     0
 10
0.0
 20
0.0
 30
0.0
  3
*Paper_Space
  1

  0
ENDBLK
  5
1D
330
1B
100
AcDbEntity
 67
     1
  8
0
100
AcDbBlockEnd
  0
BLOCK
  5
24
330
23
100
AcDbEntity
  8
0
100
AcDbBlockBegin
  2
*Paper_Space0
 70
     0
 10
0.0
 20
0.0
 30
0.0
  3
*Paper_Space0
  1

  0
ENDBLK
  5
25
330
23
100
AcDbEntity
  8
0
100
AcDbBlockEnd
  0
BLOCK
  5
19E
330
19D
100
AcDbEntity
  8
0
100
AcDbBlockBegin
  2
_D
 70
     0
 10
0.0
 20
0.0
 30
0.0
  3
_D
  1

  0
SOLID
  5
1A0
330
19D
100
AcDbEntity
  8
VERMASSUNG
100
AcDbTrace
 10
83.6013383614
 20
125.2011213346
 30
0.0
 11
86.6013383614
 21
124.7511213346
 31
0.0
 12
86.6013383614
 22
125.6511213346
 32
0.0
 13
86.6013383614
 23
125.6511213346
 33
0.0
  0
SOLID
  5
1A1
330
19D
100
AcDbEntity
  8
VERMASSUNG
100
AcDbTrace
 10
263.6013383614
 20
125.2011213346
 30
0.0
 11
260.6013383614
 21
125.6511213346
 31
0.0
 12
260.6013383614
 22
124.7511213346
 32
0.0
 13
260.6013383614
 23
124.7511213346
 33
0.0
  0
LINE
  5
1A2
330
19D
100
AcDbEntity
  8
VERMASSUNG
100
AcDbLine
 10
83.6013383614
 20
135.7011213346
 30
0.0
 11
83.6013383614
 21
124.2011213346
 31
0.0
  0
LINE
  5
1A3
330
19D
100
AcDbEntity
  8
VERMASSUNG
100
AcDbLine
 10
263.6013383614
 20
139.7011213346
 30
0.0
 11
263.6013383614
 21
124.2011213346
 31
0.0
  0
LINE
  5
1A4
330
19D
100
AcDbEntity
  8
VERMASSUNG
100
AcDbLine
 10
83.6013383614
 20
125.2011213346
 30
0.0
 11
263.6013383614
 21
125.2011213346
 31
0.0
  0
MTEXT
  5
1A5
330
19D
100
AcDbEntity
  8
VERMASSUNG
100
AcDbMText
 10
170.8013382284
 20
127.7792566978
 30
0.1
 40
2.0
 41
0.0
 71
     1
 72
     1
  1
180
  7
SLDTEXTSTYLE0
 73
     1
 44
1.0
  0
ENDBLK
  5
19F
330
19D
100
AcDbEntity
  8
0
100
AcDbBlockEnd
  0
BLOCK
  5
1A8
330
1A7
100
AcDbEntity
  8
0
100
AcDbBlockBegin
  2
_D_1
 70
     0
 10
0.0
 20
0.0
 30
0.0
  3
_D_1
  1

  0
SOLID
  5
1AA
330
1A7
100
AcDbEntity
  8
VERMASSUNG
100
AcDbTrace
 10
45.6013383614
 20
116.9789665837
 30
0.0
 11
48.6013383614
 21
116.5289665837
 31
0.0
 12
48.6013383614
 22
117.4289665837
 32
0.0
 13
48.6013383614
 23
117.4289665837
 33
0.0
  0
SOLID
  5
1AB
330
1A7
100
AcDbEntity
  8
VERMASSUNG
100
AcDbTrace
 10
263.6013383614
 20
116.9789665837
 30
0.0
 11
260.6013383614
 21
117.4289665837
 31
0.0
 12
260.6013383614
 22
116.5289665837
 32
0.0
 13
260.6013383614
 23
116.5289665837
 33
0.0
  0
LINE
  5
1AC
330
1A7
100
AcDbEntity
  8
VERMASSUNG
100
AcDbLine
 10
45.6013383614
 20
146.4087833421
 30
0.0
 11
45.6013383614
 21
115.9789665837
 31
0.0
  0
LINE
  5
1AD
330
1A7
100
AcDbEntity
  8
VERMASSUNG
100
AcDbLine
 10
263.6013383614
 20
139.7011213346
 30
0.0
 11
263.6013383614
 21
115.9789665837
 31
0.0
  0
LINE
  5
1AE
330
1A7
100
AcDbEntity
  8
VERMASSUNG
100
AcDbLine
 10
45.6013383614
 20
116.9789665837
 30
0.0
 11
263.6013383614
 21
116.9789665837
 31
0.0
  0
MTEXT
  5
1AF
330
1A7
100
AcDbEntity
  8
VERMASSUNG
100
AcDbMText
 10
151.8013382284
 20
119.5571019468
 30
0.1
 40
2.0
 41
0.0
 71
     1
 72
     1
  1
218
  7
SLDTEXTSTYLE0
 73
     1
 44
1.0
  0
ENDBLK
  5
1A9
330
1A7
100
AcDbEntity
  8
0
100
AcDbBlockEnd
  0
BLOCK
  5
1B2
330
1B1
100
AcDbEntity
  8
0
100
AcDbBlockBegin
  2
_D_2
 70
     0
 10
0.0
 20
0.0
 30
0.0
  3
_D_2
  1

  0
SOLID
  5
1B4
330
1B1
100
AcDbEntity
  8
VERMASSUNG
100
AcDbTrace
 10
280.6718318764
 20
139.7011213346
 30
0.0
 11
281.1218318764
 21
142.7011213346
 31
0.0
 12
280.2218318764
 22
142.7011213346
 32
0.0
 13
280.2218318764
 23
142.7011213346
 33
0.0
  0
SOLID
  5
1B5
330
1B1
100
AcDbEntity
  8
VERMASSUNG
100
AcDbTrace
 10
280.6718318764
 20
166.7011213346
 30
0.0
 11
280.2218318764
 21
163.7011213346
 31
0.0
 12
281.1218318764
 22
163.7011213346
 32
0.0
 13
281.1218318764
 23
163.7011213346
 33
0.0
  0
LINE
  5
1B6
330
1B1
100
AcDbEntity
  8
VERMASSUNG
100
AcDbLine
 10
263.6013383614
 20
139.7011213346
 30
0.0
 11
281.6718318764
 21
139.7011213346
 31
0.0
  0
LINE
  5
1B7
330
1B1
100
AcDbEntity
  8
VERMASSUNG
100
AcDbLine
 10
263.6013383614
 20
166.7011213346
 30
0.0
 11
281.6718318764
 21
166.7011213346
 31
0.0
  0
LINE
  5
1B8
330
1B1
100
AcDbEntity
  8
VERMASSUNG
100
AcDbLine
 10
280.6718318764
 20
139.7011213346
 30
0.0
 11
280.6718318764
 21
166.7011213346
 31
0.0
  0
MTEXT
  5
1B9
330
1B1
100
AcDbEntity
  8
VERMASSUNG
100
AcDbMText
 10
278.0936965133
 20
150.9011212836
 30
0.1
 40
2.0
 41
0.0
 71
     1
 72
     1
  1
27
  7
SLDTEXTSTYLE0
 11
6.123233995736766E-17
 21
1.0
 31
0.0
 73
     1
 44
1.0
  0
ENDBLK
  5
1B3
330
1B1
100
AcDbEntity
  8
0
100
AcDbBlockEnd
  0
BLOCK
  5
1BD
330
1BC
100
AcDbEntity
  8
0
100
AcDbBlockBegin
  2
_D_3
 70
     0
 10
0.0
 20
0.0
 30
0.0
  3
_D_3
  1

  0
ARC
  5
1BF
330
1BC
100
AcDbEntity
  8
VERMASSUNG
100
AcDbCircle
 10
263.6378617618
 20
139.7011213346
 30
0.0
 40
10.23294742512684
100
AcDbArc
 50
0.0
 51
95.0121473722
  0
SOLID
  5
1C0
330
1BC
100
AcDbEntity
  8
VERMASSUNG
100
AcDbTrace
 10
273.8708091869
 20
139.7011213346
 30
0.0
 11
273.8899209006
 21
142.7346233937
 31
0.0
 12
272.9990547443
 22
142.6067269844
 32
0.0
 13
272.9990547443
 23
142.6067269844
 33
0.0
  0
SOLID
  5
1C1
330
1BC
100
AcDbEntity
  8
VERMASSUNG
100
AcDbTrace
 10
262.7438404002
 20
149.8949399916
 30
0.0
 11
265.7144981113
 21
149.2803728565
 31
0.0
 12
265.764073215
 22
150.1790064354
 32
0.0
 13
265.764073215
 23
150.1790064354
 33
0.0
  0
LINE
  5
1C2
330
1BC
100
AcDbEntity
  8
VERMASSUNG
100
AcDbLine
 10
272.1523563737
 20
139.7011213346
 30
0.0
 11
274.8708091869
 21
139.7011213346
 31
0.0
  0
MTEXT
  5
1C3
330
1BC
100
AcDbEntity
  8
VERMASSUNG
100
AcDbMText
 10
270.1535904378
 20
151.1063448381
 30
0.1
 40
2.0
 41
0.0
 71
     1
 72
     1
  1
95°
  7
SLDTEXTSTYLE0
 11
0.7373489491615023
 21
-0.6755120481312146
 31
0.0
 73
     1
 44
1.0
  0
ENDBLK
  5
1BE
330
1BC
100
AcDbEntity
  8
0
100
AcDbBlockEnd
  0
BLOCK
  5
1C6
330
1C5
100
AcDbEntity
  8
0
100
AcDbBlockBegin
  2
_D_4
 70
     0
 10
0.0
 20
0.0
 30
0.0
  3
_D_4
  1

  0
SOLID
  5
1C8
330
1C5
100
AcDbEntity
  8
VERMASSUNG
100
AcDbTrace
 10
35.6013383614
 20
198.2011213346
 30
0.0
 11
35.1513383614
 21
195.2011213346
 31
0.0
 12
36.0513383614
 22
195.2011213346
 32
0.0
 13
36.0513383614
 23
195.2011213346
 33
0.0
  0
SOLID
  5
1C9
330
1C5
100
AcDbEntity
  8
VERMASSUNG
100
AcDbTrace
 10
35.6013383614
 20
135.2011213346
 30
0.0
 11
36.0513383614
 21
138.2011213346
 31
0.0
 12
35.1513383614
 22
138.2011213346
 32
0.0
 13
35.1513383614
 23
138.2011213346
 33
0.0
  0
LINE
  5
1CA
330
1C5
100
AcDbEntity
  8
VERMASSUNG
100
AcDbLine
 10
84.1013383614
 20
198.2011213346
 30
0.0
 11
34.6013383614
 21
198.2011213346
 31
0.0
  0
LINE
  5
1CB
330
1C5
100
AcDbEntity
  8
VERMASSUNG
100
AcDbLine
 10
84.1013383614
 20
135.2011213346
 30
0.0
 11
34.6013383614
 21
135.2011213346
 31
0.0
  0
LINE
  5
1CC
330
1C5
100
AcDbEntity
  8
VERMASSUNG
100
AcDbLine
 10
35.6013383614
 20
198.2011213346
 30
0.0
 11
35.6013383614
 21
135.2011213346
 31
0.0
  0
MTEXT
  5
1CD
330
1C5
100
AcDbEntity
  8
VERMASSUNG
100
AcDbMText
 10
32.8232028723
 20
160.2961212254
 30
0.1
 40
2.0
 41
0.0
 71
     1
 72
     1
  1
PSC
  7
SLDTEXTSTYLE0
 11
-7.044195017643634E-15
 21
1.0
 31
0.0
 73
     1
 44
1.0
  0
MTEXT
  5
1CE
330
1C5
100
AcDbEntity
  8
VERMASSUNG
100
AcDbMText
 10
33.0232028818
 20
164.8961213275
 30
0.1
 40
2.0
 41
0.0
 71
     1
 72
     1
  1
%%c
  7
SLDTEXTSTYLE0
 11
-7.044195017643634E-15
 21
1.0
 31
0.0
 73
     1
 44
1.0
  0
MTEXT
  5
1CF
330
1C5
100
AcDbEntity
  8
VERMASSUNG
100
AcDbMText
 10
32.8232028723
 20
168.5061218075
 30
0.1
 40
2.0
 41
0.0
 71
     1
 72
     1
  1
63
  7
SLDTEXTSTYLE0
 11
-7.044195017643634E-15
 21
1.0
 31
0.0
 73
     1
 44
1.0
  0
ENDBLK
  5
1C7
330
1C5
100
AcDbEntity
  8
0
100
AcDbBlockEnd
  0
BLOCK
  5
1D2
330
1D1
100
AcDbEntity
  8
0
100
AcDbBlockBegin
  2
_D_5
 70
     0
 10
0.0
 20
0.0
 30
0.0
  3
_D_5
  1

  0
SOLID
  5
1D4
330
1D1
100
AcDbEntity
  8
VERMASSUNG
100
AcDbTrace
 10
147.0131784111
 20
186.7011213346
 30
0.0
 11
146.5631784111
 21
183.7011213346
 31
0.0
 12
147.4631784111
 22
183.7011213346
 32
0.0
 13
147.4631784111
 23
183.7011213346
 33
0.0
  0
SOLID
  5
1D5
330
1D1
100
AcDbEntity
  8
VERMASSUNG
100
AcDbTrace
 10
147.0131784111
 20
146.7011213346
 30
0.0
 11
147.4631784111
 21
149.7011213346
 31
0.0
 12
146.5631784111
 22
149.7011213346
 32
0.0
 13
146.5631784111
 23
149.7011213346
 33
0.0
  0
LINE
  5
1D6
330
1D1
100
AcDbEntity
  8
VERMASSUNG
100
AcDbLine
 10
147.0131784111
 20
186.7011213346
 30
0.0
 11
147.0131784111
 21
146.7011213346
 31
0.0
  0
MTEXT
  5
1D7
330
1D1
100
AcDbEntity
  8
VERMASSUNG
100
AcDbMText
 10
144.4350429315
 20
152.0685781411
 30
0.1
 40
2.0
 41
0.0
 71
     1
 72
     1
  1
%%c
  7
SLDTEXTSTYLE0
 11
-7.044195017643634E-15
 21
1.0
 31
0.0
 73
     1
 44
1.0
  0
MTEXT
  5
1D8
330
1D1
100
AcDbEntity
  8
VERMASSUNG
100
AcDbMText
 10
144.235042922
 20
155.6785781554
 30
0.1
 40
2.0
 41
0.0
 71
     1
 72
     1
  1
40
  7
SLDTEXTSTYLE0
 11
-7.044195017643634E-15
 21
1.0
 31
0.0
 73
     1
 44
1.0
  0
ENDBLK
  5
1D3
330
1D1
100
AcDbEntity
  8
0
100
AcDbBlockEnd
  0
BLOCK
  5
201
330
200
100
AcDbEntity
  8
0
100
AcDbBlockBegin
  2
_D_6
 70
     0
 10
0.0
 20
0.0
 30
0.0
  3
_D_6
  1

  0
SOLID
  5
203
330
200
100
AcDbEntity
  8
VERMASSUNG
100
AcDbTrace
 10
182.6975284892
 20
81.9174266951
 30
0.0
 11
185.1370468842
 21
83.7205489871
 31
0.0
 12
184.5006507812
 22
84.3569450902
 32
0.0
 13
184.5006507812
 23
84.3569450902
 33
0.0
  0
SOLID
  5
204
330
200
100
AcDbEntity
  8
VERMASSUNG
100
AcDbTrace
 10
147.3421894298
 20
46.5620876357
 30
0.0
 11
144.9026710347
 21
44.7589653437
 31
0.0
 12
145.5390671378
 22
44.1225692406
 32
0.0
 13
145.5390671378
 23
44.1225692406
 33
0.0
  0
LINE
  5
205
330
200
100
AcDbEntity
  8
VERMASSUNG
100
AcDbLine
 10
182.6975284892
 20
81.9174266951
 30
0.0
 11
183.4046352703
 21
81.2103199139
 31
0.0
  0
LINE
  5
206
330
200
100
AcDbEntity
  8
VERMASSUNG
100
AcDbLine
 10
147.3421894298
 20
46.5620876357
 30
0.0
 11
148.049296211
 21
45.8549808545
 31
0.0
  0
LINE
  5
207
330
200
100
AcDbEntity
  8
VERMASSUNG
100
AcDbLine
 10
182.6975284892
 20
81.9174266951
 30
0.0
 11
186.9401691763
 21
86.1600673822
 31
0.0
  0
LINE
  5
208
330
200
100
AcDbEntity
  8
VERMASSUNG
100
AcDbLine
 10
182.6975284892
 20
81.9174266951
 30
0.0
 11
147.3421894298
 21
46.5620876357
 31
0.0
  0
LINE
  5
209
330
200
100
AcDbEntity
  8
VERMASSUNG
100
AcDbLine
 10
147.3421894298
 20
46.5620876357
 30
0.0
 11
132.5380206621
 21
31.757918868
 31
0.0
  0
MTEXT
  5
20A
330
200
100
AcDbEntity
  8
VERMASSUNG
100
AcDbMText
 10
130.7150035817
 20
33.5809359484
 30
0.1
 40
2.0
 41
0.0
 71
     1
 72
     1
  1
%%c
  7
SLDTEXTSTYLE0
 11
0.707106781186546
 21
0.7071067811865491
 31
0.0
 73
     1
 44
1.0
  0
MTEXT
  5
20B
330
200
100
AcDbEntity
  8
VERMASSUNG
100
AcDbMText
 10
133.1262377089
 20
36.2750128016
 30
0.1
 40
2.0
 41
0.0
 71
     1
 72
     1
  1
50
  7
SLDTEXTSTYLE0
 11
0.707106781186546
 21
0.7071067811865491
 31
0.0
 73
     1
 44
1.0
  0
MTEXT
  5
20C
330
200
100
AcDbEntity
  8
VERMASSUNG
100
AcDbMText
 10
137.2186186065
 20
40.3673936991
 30
0.1
 40
2.0
 41
0.0
 71
     1
 72
     1
  1
min.
  7
SLDTEXTSTYLE0
 11
0.707106781186546
 21
0.7071067811865491
 31
0.0
 73
     1
 44
1.0
  0
ENDBLK
  5
202
330
200
100
AcDbEntity
  8
0
100
AcDbBlockEnd
  0
BLOCK
  5
210
330
20F
100
AcDbEntity
  8
0
100
AcDbBlockBegin
  2
_D_7
 70
     0
 10
0.0
 20
0.0
 30
0.0
  3
_D_7
  1

  0
ARC
  5
212
330
20F
100
AcDbEntity
  8
VERMASSUNG
100
AcDbCircle
 10
165.0198589595
 20
43.4895924118
 30
0.0
 40
61.2514385222295
100
AcDbArc
 50
90.0
 51
94.0
  0
ARC
  5
213
330
20F
100
AcDbEntity
  8
VERMASSUNG
100
AcDbCircle
 10
165.0198589595
 20
43.4895924118
 30
0.0
 40
61.25143852222948
100
AcDbArc
 50
84.3936457071
 51
90.0
  0
ARC
  5
214
330
20F
100
AcDbEntity
  8
VERMASSUNG
100
AcDbCircle
 10
165.0198589595
 20
43.4895924118
 30
0.0
 40
61.2514385222295
100
AcDbArc
 50
94.0
 51
103.3812825959
  0
SOLID
  5
215
330
20F
100
AcDbEntity
  8
VERMASSUNG
100
AcDbTrace
 10
165.0198589595
 20
104.741030934
 30
0.0
 11
168.0079506063
 21
104.2177639751
 31
0.0
 12
168.0299711086
 22
105.1174945444
 32
0.0
 13
168.0299711086
 23
105.1174945444
 33
0.0
  0
SOLID
  5
216
330
20F
100
AcDbEntity
  8
VERMASSUNG
100
AcDbTrace
 10
160.7471745964
 20
104.5918255082
 30
0.0
 11
157.7181341553
 21
104.7573972632
 31
0.0
 12
157.8028630486
 22
103.8613944648
 32
0.0
 13
157.8028630486
 23
103.8613944648
 33
0.0
  0
LINE
  5
217
330
20F
100
AcDbEntity
  8
VERMASSUNG
100
AcDbLine
 10
165.0198589595
 20
100.1889163039
 30
0.0
 11
165.0198589595
 21
105.741030934
 31
0.0
  0
LINE
  5
218
330
20F
100
AcDbEntity
  8
VERMASSUNG
100
AcDbLine
 10
164.1729659008
 20
55.6007273991
 30
0.0
 11
160.6774181227
 21
105.5893895585
 31
0.0
  0
MTEXT
  5
219
330
20F
100
AcDbEntity
  8
VERMASSUNG
100
AcDbMText
 10
150.3323187569
 20
105.6489092148
 30
-71.4352467575
 40
2.0
 41
0.0
 71
     1
 72
     1
  1
4°
  7
SLDTEXTSTYLE0
 11
0.9808505040713505
 21
0.1947621335449414
 31
0.0
 73
     1
 44
1.0
  0
ENDBLK
  5
211
330
20F
100
AcDbEntity
  8
0
100
AcDbBlockEnd
  0
BLOCK
  5
21B
330
21A
100
AcDbEntity
  8
0
100
AcDbBlockBegin
  2
SW_CENTERMARKSYMBOL_0
 70
     0
 10
0.0
 20
0.0
 30
0.0
  3
SW_CENTERMARKSYMBOL_0
  1

  0
LINE
  5
21D
330
21A
100
AcDbEntity
  8
VERMASSUNG
 62
     0
100
AcDbLine
 10
0.0
 20
0.0
 30
0.0
 11
0.0
 21
2.5
 31
0.0
  0
LINE
  5
21E
330
21A
100
AcDbEntity
  8
VERMASSUNG
 62
     0
100
AcDbLine
 10
0.0
 20
0.0
 30
0.0
 11
-2.5
 21
0.0
 31
0.0
  0
LINE
  5
21F
330
21A
100
AcDbEntity
  8
VERMASSUNG
 62
     0
100
AcDbLine
 10
0.0
 20
0.0
 30
0.0
 11
0.0
 21
-2.5
 31
0.0
  0
LINE
  5
220
330
21A
100
AcDbEntity
  8
VERMASSUNG
 62
     0
100
AcDbLine
 10
0.0
 20
0.0
 30
0.0
 11
2.5
 21
0.0
 31
0.0
  0
LINE
  5
221
330
21A
100
AcDbEntity
  8
VERMASSUNG
 62
     0
100
AcDbLine
 10
0.0
 20
5.0
 30
0.0
 11
0.0
 21
34.0
 31
0.0
  0
LINE
  5
222
330
21A
100
AcDbEntity
  8
VERMASSUNG
 62
     0
100
AcDbLine
 10
-5.0
 20
0.0
 30
0.0
 11
-34.0
 21
0.0
 31
0.0
  0
LINE
  5
223
330
21A
100
AcDbEntity
  8
VERMASSUNG
 62
     0
100
AcDbLine
 10
0.0
 20
-5.0
 30
0.0
 11
0.0
 21
-34.0
 31
0.0
  0
LINE
  5
224
330
21A
100
AcDbEntity
  8
VERMASSUNG
 62
     0
100
AcDbLine
 10
5.0
 20
0.0
 30
0.0
 11
34.0
 21
0.0
 31
0.0
  0
ENDBLK
  5
21C
330
21A
100
AcDbEntity
  8
0
100
AcDbBlockEnd
  0
ENDSEC
  0
SECTION
  2
ENTITIES
  0
MTEXT
  5
49
330
1F
100
AcDbEntity
  8
KOPF_DÜNN
100
AcDbMText
 10
13.8892156294
 20
23.8442973028
 30
0.0
 40
3.0
 41
0.0
 71
     1
 72
     1
  1
PS6.BCC.LLC.180
  7
SLDTEXTSTYLE0
 73
     1
 44
1.0
  0
MTEXT
  5
4A
330
1F
100
AcDbEntity
  8
VERMASSUNG
100
AcDbMText
 10
13.9329988022
 20
28.8834360957
 30
0.0
 40
3.0
 41
0.0
 71
     1
 72
     1
  1
Bohrstange links_Boring bar left
  7
SLDTEXTSTYLE0
 73
     1
 44
1.0
  0
MTEXT
  5
4B
330
1F
100
AcDbEntity
  8
VERMASSUNG
100
AcDbMText
 10
98.8601118557
 20
13.8365368179
 30
0.0
 40
2.0
 41
0.0
 71
     1
 72
     1
  1
Datum: 05.06.2012
  7
SLDTEXTSTYLE0
 73
     1
 44
1.0
  0
MTEXT
  5
4C
330
1F
100
AcDbEntity
  8
VERMASSUNG
100
AcDbMText
 10
13.933048693
 20
18.0482802738
 30
0.0
 40
2.0
 41
0.0
 71
     1
 72
     1
  1
PSC ø63 / Wp.: CC..12 04..
  7
SLDTEXTSTYLE0
 73
     1
 44
1.0
  0
MTEXT
  5
4D
330
1F
100
AcDbEntity
  8
VERMASSUNG
100
AcDbMText
 10
13.9808475933
 20
13.9090973692
 30
0.0
 40
2.0
 41
0.0
 71
     1
 72
     1
  1
Gewicht: 2060g
  7
SLDTEXTSTYLE0
 73
     1
 44
1.0
  0
LINE
  5
4E
330
1F
100
AcDbEntity
  8
0
  6
Continuous
 62
     7
370
    15
100
AcDbLine
 10
84.1013383614
 20
135.2011213346
 30
0.0
 11
104.6013383614
 21
135.2011213346
 31
0.0
  0
LINE
  5
4F
330
1F
100
AcDbEntity
  8
0
  6
Continuous
 62
     7
370
    15
100
AcDbLine
 10
104.6013383614
 20
198.2011213346
 30
0.0
 11
84.1013383614
 21
198.2011213346
 31
0.0
  0
ARC
  5
50
330
1F
100
AcDbEntity
  8
0
  6
Continuous
 62
     7
370
    15
100
AcDbCircle
 10
84.1013383614
 20
135.7011213346
 30
0.0
 40
0.5000000000000568
100
AcDbArc
 50
180.0
 51
270.0
  0
ARC
  5
51
330
1F
100
AcDbEntity
  8
0
  6
Continuous
 62
     7
370
    15
100
AcDbCircle
 10
84.1013383614
 20
197.7011213346
 30
0.0
 40
0.5000000000000568
100
AcDbArc
 50
90.0
 51
180.0
  0
ARC
  5
52
330
1F
100
AcDbEntity
  8
0
  6
Continuous
 62
     7
370
    15
100
AcDbCircle
 10
104.6013383614
 20
136.2011213346
 30
0.0
 40
1.000000000000057
100
AcDbArc
 50
270.0
 51
360.0
  0
ARC
  5
53
330
1F
100
AcDbEntity
  8
0
  6
Continuous
 62
     7
370
    15
100
AcDbCircle
 10
104.6013383614
 20
197.2011213346
 30
0.0
 40
1.000000000000057
100
AcDbArc
 50
0.0
 51
90.0
  0
LWPOLYLINE
  5
54
330
1F
100
AcDbEntity
  8
0
  6
Continuous
 62
     7
370
    15
100
AcDbPolyline
 90
        3
 70
   128
 43
0.0
 10
83.4013383614
 20
144.1613010558
 10
83.5267933049
 20
144.0929989408
 10
83.6013383614
 20
144.0402611827
  0
LWPOLYLINE
  5
55
330
1F
100
AcDbEntity
  8
0
  6
Continuous
 62
     7
370
    15
100
AcDbPolyline
 90
        3
 70
   128
 43
0.0
 10
83.6013383614
 20
189.3619814866
 10
83.5267933049
 20
189.3092437285
 10
83.4013383614
 20
189.2409416135
  0
ARC
  5
56
330
1F
100
AcDbEntity
  8
0
  6
Continuous
 62
     7
370
    15
100
AcDbCircle
 10
109.6013383614
 20
142.7011213346
 30
0.0
 40
4.0
100
AcDbArc
 50
90.0
 51
180.0
  0
ARC
  5
57
330
1F
100
AcDbEntity
  8
0
  6
Continuous
 62
     7
370
    15
100
AcDbCircle
 10
109.6013383614
 20
190.7011213346
 30
0.0
 40
4.0
100
AcDbArc
 50
180.0
 51
270.0
  0
LINE
  5
58
330
1F
100
AcDbEntity
  8
0
  6
Continuous
 62
     7
370
    15
100
AcDbLine
 10
237.187124799
 20
186.7011213346
 30
0.0
 11
109.6013383614
 21
186.7011213346
 31
0.0
  0
LINE
  5
59
330
1F
100
AcDbEntity
  8
0
  6
Continuous
 62
     7
370
    15
100
AcDbLine
 10
109.6013383614
 20
146.7011213346
 30
0.0
 11
237.187124799
 21
146.7011213346
 31
0.0
  0
ARC
  5
5A
330
1F
100
AcDbEntity
  8
0
  6
Continuous
 62
     7
370
    15
100
AcDbCircle
 10
237.187124799
 20
187.7011213346
 30
0.0
 40
0.9999999999999716
100
AcDbArc
 50
270.0
 51
315.0
  0
LINE
  5
5B
330
1F
100
AcDbEntity
  8
0
  6
Continuous
 62
     7
370
    15
100
AcDbLine
 10
237.187124799
 20
146.7011213346
 30
0.0
 11
237.2172461851
 21
146.7006675827
 31
0.0
  0
LINE
  5
5C
330
1F
100
AcDbEntity
  8
0
  6
Continuous
 62
     7
370
    15
100
AcDbLine
 10
239.7737149301
 20
187.2011213346
 30
0.0
 11
238.1013383614
 21
187.2011213346
 31
0.0
  0
LINE
  5
5D
330
1F
100
AcDbEntity
  8
0
  6
Continuous
 62
     7
370
    15
100
AcDbLine
 10
238.1013383614
 20
187.2011213346
 30
0.0
 11
237.8942315802
 21
186.9940145535
 31
0.0
  0
LINE
  5
5E
330
1F
100
AcDbEntity
  8
0
  6
Continuous
 62
     7
370
    15
100
AcDbLine
 10
237.8942315802
 20
146.4082281158
 30
0.0
 11
238.6077743704
 21
145.6946853256
 31
0.0
  0
LINE
  5
5F
330
1F
100
AcDbEntity
  8
0
  6
Continuous
 62
     7
370
    15
100
AcDbLine
 10
258.0216259559
 20
146.8562412681
 30
0.0
 11
258.0216259559
 21
146.7445971698
 31
0.0
  0
LINE
  5
60
330
1F
100
AcDbEntity
  8
0
  6
Continuous
 62
     7
370
    15
100
AcDbLine
 10
255.1833689159
 20
146.6332155134
 30
0.0
 11
255.1833689159
 21
146.7448242806
 31
0.0
  0
LINE
  5
61
330
1F
100
AcDbEntity
  8
0
  6
Continuous
 62
     7
370
    15
100
AcDbLine
 10
260.1009611556
 20
146.7193242102
 30
0.0
 11
260.1009611556
 21
146.733275505
 31
0.0
  0
LINE
  5
62
330
1F
100
AcDbEntity
  8
0
  6
Continuous
 62
     7
370
    15
100
AcDbLine
 10
253.1009611556
 20
146.733275505
 30
0.0
 11
253.1009611556
 21
146.7193242102
 31
0.0
  0
SPLINE
  5
63
330
1F
100
AcDbEntity
  8
0
  6
Continuous
 62
     7
370
    15
100
AcDbSpline
210
0.0
220
0.0
230
1.0
 70
     8
 71
     3
 72
    12
 73
     8
 74
     0
 42
0.00000001
 43
0.00000001
 12
1.0
 22
0.0
 32
0.0
 13
1.0
 23
0.0
 33
0.0
 40
0.0
 40
0.0
 40
0.0
 40
0.0
 40
0.25
 40
0.25
 40
0.5
 40
0.5
 40
1.0
 40
1.0
 40
1.0
 40
1.0
 10
94.12909517493902
 20
176.0891877659783
 30
0.0
 10
94.06601513644566
 20
176.0891877659783
 30
0.0
 10
94.00686651426432
 20
176.1145520851933
 30
0.0
 10
93.90839396419524
 20
176.1887169455662
 30
0.0
 10
93.86935735221051
 20
176.2352372861203
 30
0.0
 10
93.76946088543153
 20
176.3853796289656
 30
0.0
 10
93.72704000436477
 20
176.4970728359376
 30
0.0
 10
93.69608247304684
 20
176.6104906553275
 30
0.0
  0
LINE
  5
64
330
1F
100
AcDbEntity
  8
0
  6
Continuous
 62
     7
370
    15
100
AcDbLine
 10
97.0735815478
 20
176.089187766
 30
0.0
 11
94.1290951749
 21
176.089187766
 31
0.0
  0
SPLINE
  5
65
330
1F
100
AcDbEntity
  8
0
  6
Continuous
 62
     7
370
    15
100
AcDbSpline
210
0.0
220
0.0
230
1.0
 70
     8
 71
     3
 72
    12
 73
     8
 74
     0
 42
0.00000001
 43
0.00000001
 12
1.0
 22
0.0
 32
0.0
 13
1.0
 23
0.0
 33
0.0
 40
0.0
 40
0.0
 40
0.0
 40
0.0
 40
0.4999999999999963
 40
0.4999999999999963
 40
0.7499999999999981
 40
0.7499999999999981
 40
1.0
 40
1.0
 40
1.0
 40
1.0
 10
97.50659424969832
 20
176.6104906553274
 30
0.0
 10
97.47587200777927
 20
176.4979348559182
 30
0.0
 10
97.433034793244
 20
176.3851769961787
 30
0.0
 10
97.33360776904426
 20
176.2356361103823
 30
0.0
 10
97.29385557422758
 20
176.1883433786755
 30
0.0
 10
97.19581411736937
 20
176.114607085354
 30
0.0
 10
97.13625806178196
 20
176.0891877659783
 30
0.0
 10
97.07358154780614
 20
176.0891877659783
 30
0.0
  0
ELLIPSE
  5
66
330
1F
100
AcDbEntity
  8
0
  6
Continuous
 62
     7
370
    15
100
AcDbEllipse
 10
81.254184172
 20
166.7011213346
 30
0.0
 11
14.75368316065601
 21
31.09325491558116
 31
0.0
210
0.0
220
0.0
230
1.0
 40
0.3419987131
 41
5.193281737408618
 42
6.124043104552324
  0
SPLINE
  5
67
330
1F
100
AcDbEntity
  8
0
  6
Continuous
 62
     7
370
    15
100
AcDbSpline
210
0.0
220
0.0
230
1.0
 70
     8
 71
     3
 72
    12
 73
     8
 74
     0
 42
0.00000001
 43
0.00000001
 12
1.0
 22
0.0
 32
0.0
 13
1.0
 23
0.0
 33
0.0
 40
0.0
 40
0.0
 40
0.0
 40
0.0
 40
0.2499999999999996
 40
0.2499999999999996
 40
0.4999999999999991
 40
0.4999999999999991
 40
1.0
 40
1.0
 40
1.0
 40
1.0
 10
97.07358154780614
 20
196.7696132935155
 30
0.0
 10
97.1366615862995
 20
196.7696132935155
 30
0.0
 10
97.19581020848082
 20
196.7617073673029
 30
0.0
 10
97.29428275854993
 20
196.7383822058667
 30
0.0
 10
97.3333193705346
 20
196.723669416035
 30
0.0
 10
97.43321583731372
 20
196.6757136153041
 30
0.0
 10
97.4756367183803
 20
196.639451458724
 30
0.0
 10
97.50659424969832
 20
196.6018637947595
 30
0.0
  0
LINE
  5
68
330
1F
100
AcDbEntity
  8
0
  6
Continuous
 62
     7
370
    15
100
AcDbLine
 10
94.1290951749
 20
196.7696132935
 30
0.0
 11
97.0735815478
 21
196.7696132935
 31
0.0
  0
SPLINE
  5
69
330
1F
100
AcDbEntity
  8
0
  6
Continuous
 62
     7
370
    15
100
AcDbSpline
210
0.0
220
0.0
230
1.0
 70
     8
 71
     3
 72
    12
 73
     8
 74
     0
 42
0.00000001
 43
0.00000001
 12
1.0
 22
0.0
 32
0.0
 13
1.0
 23
0.0
 33
0.0
 40
0.0
 40
0.0
 40
0.0
 40
0.0
 40
0.5
 40
0.5
 40
0.75
 40
0.75
 40
1.0
 40
1.0
 40
1.0
 40
1.0
 10
93.69608247304686
 20
196.6018637947595
 30
0.0
 10
93.726804714966
 20
196.6391657777126
 30
0.0
 10
93.76964192950108
 20
196.675777609759
 30
0.0
 10
93.86906895370095
 20
196.7235423930442
 30
0.0
 10
93.90882114851756
 20
196.7384999085265
 30
0.0
 10
94.0068626053758
 20
196.7616898542956
 30
0.0
 10
94.0664186609632
 20
196.7696132935155
 30
0.0
 10
94.12909517493902
 20
196.7696132935155
 30
0.0
  0
ELLIPSE
  5
6A
330
1F
100
AcDbEntity
  8
0
  6
Continuous
 62
     7
370
    15
100
AcDbEllipse
 10
109.9484925507
 20
166.7011213346
 30
0.0
 11
-14.75368316065604
 21
31.09325491558118
 31
0.0
210
0.0
220
0.0
230
1.0
 40
0.3419987131
 41
0.1591422026273045
 42
1.089903569770979
  0
SPLINE
  5
6B
330
1F
100
AcDbEntity
  8
0
  6
Continuous
 62
     7
370
    15
100
AcDbSpline
210
0.0
220
0.0
230
1.0
 70
     8
 71
     3
 72
    12
 73
     8
 74
     0
 42
0.00000001
 43
0.00000001
 12
1.0
 22
0.0
 32
0.0
 13
1.0
 23
0.0
 33
0.0
 40
0.0
 40
0.0
 40
0.0
 40
0.0
 40
0.2500000000000014
 40
0.2500000000000014
 40
0.5000000000000028
 40
0.5000000000000028
 40
1.0
 40
1.0
 40
1.0
 40
1.0
 10
94.12909517493902
 20
136.6326293757692
 30
0.0
 10
94.06603822004122
 20
136.6326293757692
 30
0.0
 10
94.00690807029568
 20
136.6405297068488
 30
0.0
 10
93.90846051976241
 20
136.6638404548539
 30
0.0
 10
93.8694282815743
 20
136.6785455811375
 30
0.0
 10
93.76953839711742
 20
136.7264791093241
 30
0.0
 10
93.72723942350801
 20
136.7625490820888
 30
0.0
 10
93.69608247304674
 20
136.800378874525
 30
0.0
  0
LINE
  5
6C
330
1F
100
AcDbEntity
  8
0
  6
Continuous
 62
     7
370
    15
100
AcDbLine
 10
97.0735815478
 20
136.6326293758
 30
0.0
 11
94.1290951749
 21
136.6326293758
 31
0.0
  0
SPLINE
  5
6D
330
1F
100
AcDbEntity
  8
0
  6
Continuous
 62
     7
370
    15
100
AcDbSpline
210
0.0
220
0.0
230
1.0
 70
     8
 71
     3
 72
    12
 73
     8
 74
     0
 42
0.00000001
 43
0.00000001
 12
1.0
 22
0.0
 32
0.0
 13
1.0
 23
0.0
 33
0.0
 40
0.0
 40
0.0
 40
0.0
 40
0.0
 40
0.5000000000000029
 40
0.5000000000000029
 40
0.7500000000000014
 40
0.7500000000000014
 40
1.0
 40
1.0
 40
1.0
 40
1.0
 10
97.50659424969837
 20
136.800378874525
 30
0.0
 10
97.47544905173626
 20
136.7625633516048
 30
0.0
 10
97.43317478540173
 20
136.7264964935213
 30
0.0
 10
97.3332292515765
 20
136.6785364285101
 30
0.0
 10
97.29349894687239
 20
136.6636754546124
 30
0.0
 10
97.19661089686622
 20
136.6407243084813
 30
0.0
 10
97.1365456551197
 20
136.6326293757691
 30
0.0
 10
97.07358154780616
 20
136.6326293757691
 30
0.0
  0
ELLIPSE
  5
6E
330
1F
100
AcDbEntity
  8
0
  6
Continuous
 62
     7
370
    15
100
AcDbEllipse
 10
81.254184172
 20
166.7011213346
 30
0.0
 11
-14.75368316065617
 21
31.09325491558119
 31
0.0
210
0.0
220
0.0
230
1.0
 40
0.3419987131
 41
3.30073485621712
 42
4.231496223360775
  0
SPLINE
  5
6F
330
1F
100
AcDbEntity
  8
0
  6
Continuous
 62
     7
370
    15
100
AcDbSpline
210
0.0
220
0.0
230
1.0
 70
     8
 71
     3
 72
    12
 73
     8
 74
     0
 42
0.00000001
 43
0.00000001
 12
1.0
 22
0.0
 32
0.0
 13
1.0
 23
0.0
 33
0.0
 40
0.0
 40
0.0
 40
0.0
 40
0.0
 40
0.2500000000000009
 40
0.2500000000000009
 40
0.5000000000000018
 40
0.5000000000000018
 40
1.0
 40
1.0
 40
1.0
 40
1.0
 10
97.07358154780614
 20
157.3130549033061
 30
0.0
 10
97.13663850270393
 20
157.3130549033061
 30
0.0
 10
97.19576865244946
 20
157.2877085499253
 30
0.0
 10
97.29421620298277
 20
157.2135891677859
 30
0.0
 10
97.3332484411708
 20
157.1670926530879
 30
0.0
 10
97.43313832562784
 20
157.0170181460794
 30
0.0
 10
97.47543729923716
 20
156.9059004369645
 30
0.0
 10
97.50659424969842
 20
156.791752013957
 30
0.0
  0
LINE
  5
70
330
1F
100
AcDbEntity
  8
0
  6
Continuous
 62
     7
370
    15
100
AcDbLine
 10
94.1290951749
 20
157.3130549033
 30
0.0
 11
97.0735815478
 21
157.3130549033
 31
0.0
  0
SPLINE
  5
71
330
1F
100
AcDbEntity
  8
0
  6
Continuous
 62
     7
370
    15
100
AcDbSpline
210
0.0
220
0.0
230
1.0
 70
     8
 71
     3
 72
    12
 73
     8
 74
     0
 42
0.00000001
 43
0.00000001
 12
1.0
 22
0.0
 32
0.0
 13
1.0
 23
0.0
 33
0.0
 40
0.0
 40
0.0
 40
0.0
 40
0.0
 40
0.4999999999999981
 40
0.4999999999999981
 40
0.749999999999999
 40
0.749999999999999
 40
1.0
 40
1.0
 40
1.0
 40
1.0
 10
93.6960824730468
 20
156.791752013957
 30
0.0
 10
93.7272276710089
 20
156.9058573798223
 30
0.0
 10
93.76950193734336
 20
157.0169637070411
 30
0.0
 10
93.86944747116873
 20
157.1671213144713
 30
0.0
 10
93.90917777587275
 20
157.2141140060886
 30
0.0
 10
94.006065825879
 20
157.2870895906271
 30
0.0
 10
94.06613106762546
 20
157.3130549033062
 30
0.0
 10
94.12909517493901
 20
157.3130549033062
 30
0.0
  0
ELLIPSE
  5
72
330
1F
100
AcDbEntity
  8
0
  6
Continuous
 62
     7
370
    15
100
AcDbEllipse
 10
109.9484925507
 20
166.7011213346
 30
0.0
 11
14.75368316065615
 21
31.09325491558118
 31
0.0
210
0.0
220
0.0
230
1.0
 40
0.3419987131
 41
2.051689083818825
 42
2.982450450962502
  0
LINE
  5
73
330
1F
100
AcDbEntity
  8
0
  6
Continuous
 62
     7
370
    15
100
AcDbLine
 10
83.6013383614
 20
135.7011213346
 30
0.0
 11
83.6013383614
 21
197.7011213334
 31
0.0
  0
LINE
  5
74
330
1F
100
AcDbEntity
  8
0
  6
Continuous
 62
     7
370
    15
100
AcDbLine
 10
105.6013383614
 20
197.2011213074
 30
0.0
 11
105.6013383614
 21
136.2011213346
 31
0.0
  0
SPLINE
  5
75
330
1F
100
AcDbEntity
  8
0
  6
Continuous
 62
     7
370
    15
100
AcDbSpline
210
0.0
220
0.0
230
1.0
 70
     8
 71
     3
 72
    12
 73
     8
 74
     0
 42
0.00000001
 43
0.00000001
 12
1.0
 22
0.0
 32
0.0
 13
1.0
 23
0.0
 33
0.0
 40
0.0
 40
0.0
 40
0.0
 40
0.0
 40
0.4999999999999999
 40
0.4999999999999999
 40
0.7499999999999999
 40
0.7499999999999999
 40
1.0
 40
1.0
 40
1.0
 40
1.0
 10
82.78482607491611
 20
144.8463276321665
 30
0.0
 10
82.84126257582328
 20
144.8449097508248
 30
0.0
 10
82.91034720651203
 20
144.8433454145765
 30
0.0
 10
83.02914947822995
 20
144.8404012226021
 30
0.0
 10
83.06933475370002
 20
144.8393630195047
 30
0.0
 10
83.14271580110385
 20
144.8374291242901
 30
0.0
 10
83.17612536484648
 20
144.8365342370012
 30
0.0
 10
83.20636147250295
 20
144.8357504467289
 30
0.0
  0
SPLINE
  5
76
330
1F
100
AcDbEntity
  8
0
  6
Continuous
 62
     7
370
    15
100
AcDbSpline
210
0.0
220
0.0
230
1.0
 70
     8
 71
     3
 72
    16
 73
    12
 74
     0
 42
0.00000001
 43
0.00000001
 12
1.0
 22
0.0
 32
0.0
 13
1.0
 23
0.0
 33
0.0
 40
0.0
 40
0.0
 40
0.0
 40
0.0
 40
0.0624999999999987
 40
0.0624999999999987
 40
0.1249999999999973
 40
0.1249999999999973
 40
0.2499999999999999
 40
0.2499999999999999
 40
0.4999999999999999
 40
0.4999999999999999
 40
1.0
 40
1.0
 40
1.0
 40
1.0
 10
83.20636147246572
 20
144.8357504467531
 30
0.0
 10
83.21794188005366
 20
144.8354502556418
 30
0.0
 10
83.23125140681493
 20
144.8341225073828
 30
0.0
 10
83.2605528369011
 20
144.8274238326078
 30
0.0
 10
83.27536693678542
 20
144.8220656495021
 30
0.0
 10
83.31119533848825
 20
144.8050200003347
 30
0.0
 10
83.32531496285128
 20
144.793557462559
 30
0.0
 10
83.35981910693977
 20
144.7619941371868
 30
0.0
 10
83.37092365764437
 20
144.7440968381415
 30
0.0
 10
83.39709983486055
 20
144.6939354205273
 30
0.0
 10
83.40133836137258
 20
144.6661910083307
 30
0.0
 10
83.40133836137258
 20
144.6415268464011
 30
0.0
  0
LINE
  5
77
330
1F
100
AcDbEntity
  8
0
  6
Continuous
 62
     7
370
    15
100
AcDbLine
 10
83.4013383614
 20
159.6792340089
 30
0.0
 11
83.4013383614
 21
144.1613010558
 31
0.0
  0
SPLINE
  5
78
330
1F
100
AcDbEntity
  8
0
  6
Continuous
 62
     7
370
    15
100
AcDbSpline
210
0.0
220
0.0
230
1.0
 70
     8
 71
     3
 72
    16
 73
    12
 74
     0
 42
0.00000001
 43
0.00000001
 12
1.0
 22
0.0
 32
0.0
 13
1.0
 23
0.0
 33
0.0
 40
0.0
 40
0.0
 40
0.0
 40
0.0
 40
0.499999999999999
 40
0.499999999999999
 40
0.7499999999999984
 40
0.7499999999999984
 40
0.8749999999999982
 40
0.8749999999999982
 40
0.9374999999999991
 40
0.9374999999999991
 40
1.0
 40
1.0
 40
1.0
 40
1.0
 10
83.40133836137258
 20
159.6792340088923
 30
0.0
 10
83.40133836137258
 20
159.7929265530202
 30
0.0
 10
83.39719208629464
 20
159.9072467143697
 30
0.0
 10
83.37122649090114
 20
160.0802950048668
 30
0.0
 10
83.35976558552372
 20
160.1394705120285
 30
0.0
 10
83.32545384774934
 20
160.2225936314966
 30
0.0
 10
83.31142911181979
 20
160.2507149475973
 30
0.0
 10
83.27540614878595
 20
160.2793307615748
 30
0.0
 10
83.26065163969628
 20
160.2851238094766
 30
0.0
 10
83.23129947854936
 20
160.2835303835396
 30
0.0
 10
83.21795960404528
 20
160.2770339802157
 30
0.0
 10
83.20636147249692
 20
160.2685182340126
 30
0.0
  0
SPLINE
  5
79
330
1F
100
AcDbEntity
  8
0
  6
Continuous
 62
     7
370
    15
100
AcDbSpline
210
0.0
220
0.0
230
1.0
 70
     8
 71
     3
 72
    12
 73
     8
 74
     0
 42
0.00000001
 43
0.00000001
 12
1.0
 22
0.0
 32
0.0
 13
1.0
 23
0.0
 33
0.0
 40
0.0
 40
0.0
 40
0.0
 40
0.0
 40
0.2500000000000001
 40
0.2500000000000001
 40
0.4999999999999999
 40
0.4999999999999999
 40
1.0
 40
1.0
 40
1.0
 40
1.0
 10
83.20636147250397
 20
160.2685182340035
 30
0.0
 10
83.17616303106334
 20
160.2463455019584
 30
0.0
 10
83.14279567572737
 20
160.2272658460812
 30
0.0
 10
83.06964039989747
 20
160.2020928016385
 30
0.0
 10
83.02938770087353
 20
160.1965362652217
 30
0.0
 10
82.91165895759868
 20
160.2074480762085
 30
0.0
 10
82.84120050953977
 20
160.2493838316193
 30
0.0
 10
82.7848260749215
 20
160.2985956140008
 30
0.0
  0
SPLINE
  5
7A
330
1F
100
AcDbEntity
  8
0
  6
Continuous
 62
     7
370
    15
100
AcDbSpline
210
0.0
220
0.0
230
1.0
 70
     8
 71
     3
 72
    12
 73
     8
 74
     0
 42
0.00000001
 43
0.00000001
 12
1.0
 22
0.0
 32
0.0
 13
1.0
 23
0.0
 33
0.0
 40
0.0
 40
0.0
 40
0.0
 40
0.0
 40
0.5000000000000008
 40
0.5000000000000008
 40
0.7500000000000003
 40
0.7500000000000003
 40
1.0
 40
1.0
 40
1.0
 40
1.0
 10
82.28001801781292
 20
161.5149470058813
 30
0.0
 10
82.32376836969738
 20
161.2945000209068
 30
0.0
 10
82.37665852082185
 20
161.0789550311012
 30
0.0
 10
82.48827006396351
 20
160.7665409545293
 30
0.0
 10
82.53082940786706
 20
160.6644614789134
 30
0.0
 10
82.63580664320448
 20
160.4700214662716
 30
0.0
 10
82.69737388629905
 20
160.374936567208
 30
0.0
 10
82.78482607492144
 20
160.2985956140008
 30
0.0
  0
SPLINE
  5
7B
330
1F
100
AcDbEntity
  8
0
  6
Continuous
 62
     7
370
    15
100
AcDbSpline
210
0.0
220
0.0
230
1.0
 70
     8
 71
     3
 72
    12
 73
     8
 74
     0
 42
0.00000001
 43
0.00000001
 12
1.0
 22
0.0
 32
0.0
 13
1.0
 23
0.0
 33
0.0
 40
0.0
 40
0.0
 40
0.0
 40
0.0
 40
0.2500000000000008
 40
0.2500000000000008
 40
0.5000000000000016
 40
0.5000000000000016
 40
1.0
 40
1.0
 40
1.0
 40
1.0
 10
82.78482607492133
 20
173.103647055284
 30
0.0
 10
82.69633266735346
 20
173.0263971751756
 30
0.0
 10
82.63627462658758
 20
172.9330778512864
 30
0.0
 10
82.53042635360502
 20
172.737044798317
 30
0.0
 10
82.48789283232753
 20
172.6347184401052
 30
0.0
 10
82.37674152550389
 20
172.3233740343294
 30
0.0
 10
82.3238106684561
 20
172.1079557811514
 30
0.0
 10
82.28001801781292
 20
171.8872956634035
 30
0.0
  0
SPLINE
  5
7C
330
1F
100
AcDbEntity
  8
0
  6
Continuous
 62
     7
370
    15
100
AcDbSpline
210
0.0
220
0.0
230
1.0
 70
     8
 71
     3
 72
    12
 73
     8
 74
     0
 42
0.00000001
 43
0.00000001
 12
1.0
 22
0.0
 32
0.0
 13
1.0
 23
0.0
 33
0.0
 40
0.0
 40
0.0
 40
0.0
 40
0.0
 40
0.5000000000000007
 40
0.5000000000000007
 40
0.7500000000000003
 40
0.7500000000000003
 40
1.0
 40
1.0
 40
1.0
 40
1.0
 10
82.78482607492138
 20
173.1036470552839
 30
0.0
 10
82.84113462321702
 20
173.1528013225278
 30
0.0
 10
82.9114092839351
 20
173.1947586411315
 30
0.0
 10
83.02944719825868
 20
173.2057183186639
 30
0.0
 10
83.0696234391126
 20
173.2002095604165
 30
0.0
 10
83.14358053379054
 20
173.1746523316276
 30
0.0
 10
83.17619692150195
 20
173.1558722837883
 30
0.0
 10
83.2063614724977
 20
173.1337244352716
 30
0.0
  0
SPLINE
  5
7D
330
1F
100
AcDbEntity
  8
0
  6
Continuous
 62
     7
370
    15
100
AcDbSpline
210
0.0
220
0.0
230
1.0
 70
     8
 71
     3
 72
    16
 73
    12
 74
     0
 42
0.00000001
 43
0.00000001
 12
1.0
 22
0.0
 32
0.0
 13
1.0
 23
0.0
 33
0.0
 40
0.0
 40
0.0
 40
0.0
 40
0.0
 40
0.0624999999999998
 40
0.0624999999999998
 40
0.1249999999999995
 40
0.1249999999999995
 40
0.2499999999999992
 40
0.2499999999999992
 40
0.5000000000000018
 40
0.5000000000000018
 40
1.0
 40
1.0
 40
1.0
 40
1.0
 10
83.20636147246597
 20
173.1337244352171
 30
0.0
 10
83.21797437230533
 20
173.1251978456218
 30
0.0
 10
83.23132555673781
 20
173.118697584089
 30
0.0
 10
83.26072539635699
 20
173.1171281869715
 30
0.0
 10
83.27556612091233
 20
173.1230115776021
 30
0.0
 10
83.3113993288809
 20
173.1515592136527
 30
0.0
 10
83.32551253670248
 20
173.1797262329585
 30
0.0
 10
83.36000390792134
 20
173.2634804913804
 30
0.0
 10
83.37108797903174
 20
173.3211939050019
 30
0.0
 10
83.39721079682772
 20
173.4947844416477
 30
0.0
 10
83.4013383613726
 20
173.6098124942897
 30
0.0
 10
83.4013383613726
 20
173.7230086603925
 30
0.0
  0
LINE
  5
7E
330
1F
100
AcDbEntity
  8
0
  6
Continuous
 62
     7
370
    15
100
AcDbLine
 10
83.4013383614
 20
189.2409416135
 30
0.0
 11
83.4013383614
 21
173.7230086604
 31
0.0
  0
SPLINE
  5
7F
330
1F
100
AcDbEntity
  8
0
  6
Continuous
 62
     7
370
    15
100
AcDbSpline
210
0.0
220
0.0
230
1.0
 70
     8
 71
     3
 72
    16
 73
    12
 74
     0
 42
0.00000001
 43
0.00000001
 12
1.0
 22
0.0
 32
0.0
 13
1.0
 23
0.0
 33
0.0
 40
0.0
 40
0.0
 40
0.0
 40
0.0
 40
0.4999999999999996
 40
0.4999999999999996
 40
0.7499999999999993
 40
0.7499999999999993
 40
0.8750000000000032
 40
0.8750000000000032
 40
0.9375000000000016
 40
0.9375000000000016
 40
1.0
 40
1.0
 40
1.0
 40
1.0
 10
83.4013383613726
 20
188.7607158228837
 30
0.0
 10
83.4013383613726
 20
188.7360446668407
 30
0.0
 10
83.39717266291261
 20
188.7084628354495
 30
0.0
 10
83.37091433458768
 20
188.6581199646262
 30
0.0
 10
83.35941055285008
 20
188.6398304665643
 30
0.0
 10
83.32527979350358
 20
188.6086754355273
 30
0.0
 10
83.31085790683288
 20
188.5970360603155
 30
0.0
 10
83.27529093839506
 20
188.5801540343844
 30
0.0
 10
83.26033917010035
 20
188.5747649305767
 30
0.0
 10
83.23133535174058
 20
188.5681444346323
 30
0.0
 10
83.21791999773133
 20
188.5667918464258
 30
0.0
 10
83.20636147249473
 20
188.5664922225542
 30
0.0
  0
SPLINE
  5
80
330
1F
100
AcDbEntity
  8
0
  6
Continuous
 62
     7
370
    15
100
AcDbSpline
210
0.0
220
0.0
230
1.0
 70
     8
 71
     3
 72
    12
 73
     8
 74
     0
 42
0.00000001
 43
0.00000001
 12
1.0
 22
0.0
 32
0.0
 13
1.0
 23
0.0
 33
0.0
 40
0.0
 40
0.0
 40
0.0
 40
0.0
 40
0.2500000000000001
 40
0.2500000000000001
 40
0.4999999999999999
 40
0.4999999999999999
 40
1.0
 40
1.0
 40
1.0
 40
1.0
 10
83.20636147250397
 20
188.566492222556
 30
0.0
 10
83.17617369595433
 20
188.5657096851384
 30
0.0
 10
83.14281989186264
 20
188.5648163533199
 30
0.0
 10
83.06969368866669
 20
188.5628890445163
 30
0.0
 10
83.02945848564254
 20
188.5618495133036
 30
0.0
 10
82.91176685550946
 20
188.5589316299564
 30
0.0
 10
82.84138618234944
 20
188.5573360238861
 30
0.0
 10
82.78482607491883
 20
188.5559150371183
 30
0.0
  0
SPLINE
  5
81
330
1F
100
AcDbEntity
  8
0
  6
Continuous
 62
     7
370
    15
100
AcDbSpline
210
0.0
220
0.0
230
1.0
 70
     8
 71
     3
 72
    16
 73
    12
 74
     0
 42
0.00000001
 43
0.00000001
 12
1.0
 22
0.0
 32
0.0
 13
1.0
 23
0.0
 33
0.0
 40
0.0
 40
0.0
 40
0.0
 40
0.0
 40
0.2500000000000001
 40
0.2500000000000001
 40
0.3750000000000001
 40
0.3750000000000001
 40
0.5
 40
0.5
 40
0.75
 40
0.75
 40
1.0
 40
1.0
 40
1.0
 40
1.0
 10
82.28001801781292
 20
171.8872956634035
 30
0.0
 10
82.11878554032845
 20
171.0748858881567
 30
0.0
 10
81.99830570068882
 20
170.2348075937719
 30
0.0
 10
81.8759251833755
 20
168.9335125444091
 30
0.0
 10
81.84494752297805
 20
168.4928315088244
 30
0.0
 10
81.80333378535009
 20
167.5969918678932
 30
0.0
 10
81.79309787241729
 20
167.1503337366908
 30
0.0
 10
81.79290947536117
 20
165.8150237795509
 30
0.0
 10
81.83305417799879
 20
164.9305284062433
 30
0.0
 10
81.99720793293835
 20
163.1732785182173
 30
0.0
 10
82.11875958334791
 20
162.3274875718042
 30
0.0
 10
82.28001801781292
 20
161.5149470058813
 30
0.0
  0
LINE
  5
82
330
1F
100
AcDbEntity
  8
0
  6
Continuous
 62
     7
370
    15
100
AcDbLine
 10
81.4013383614
 20
173.1862995963
 30
0.0
 11
81.4013383614
 21
160.215943073
 31
0.0
  0
LINE
  5
83
330
1F
100
AcDbEntity
  8
0
  6
Continuous
 62
     7
370
    15
100
AcDbLine
 10
47.1013383614
 20
172.7554319022
 30
0.0
 11
47.1013383614
 21
160.6468107671
 31
0.0
  0
LINE
  5
84
330
1F
100
AcDbEntity
  8
0
  6
Continuous
 62
     7
370
    15
100
AcDbLine
 10
45.6013383614
 20
172.3224192003
 30
0.0
 11
45.6013383614
 21
161.079823469
 31
0.0
  0
LINE
  5
85
330
1F
100
AcDbEntity
  8
0
  6
Continuous
 62
     7
370
    15
100
AcDbLine
 10
47.1013383614
 20
172.7554319022
 30
0.0
 11
47.1013383614
 21
187.8594847309
 31
0.0
  0
LINE
  5
86
330
1F
100
AcDbEntity
  8
0
  6
Continuous
 62
     7
370
    15
100
AcDbLine
 10
47.1013383614
 20
187.8594847309
 30
0.0
 11
81.4013383614
 21
188.7212201192
 31
0.0
  0
LINE
  5
87
330
1F
100
AcDbEntity
  8
0
  6
Continuous
 62
     7
370
    15
100
AcDbLine
 10
81.4013383614
 20
173.1862995963
 30
0.0
 11
81.4013383614
 21
188.7212201192
 31
0.0
  0
ARC
  5
88
330
1F
100
AcDbEntity
  8
0
  6
Continuous
 62
     7
370
    15
100
AcDbCircle
 10
81.6012752723
 20
188.7262432303
 30
0.0
 40
0.1999999999999917
100
AcDbArc
 50
181.4391666667
 51
271.4391666667
  0
LINE
  5
89
330
1F
100
AcDbEntity
  8
0
  6
Continuous
 62
     7
370
    15
100
AcDbLine
 10
47.1013383614
 20
145.5427579384
 30
0.0
 11
47.1013383614
 21
160.6468107671
 31
0.0
  0
LINE
  5
8A
330
1F
100
AcDbEntity
  8
0
  6
Continuous
 62
     7
370
    15
100
AcDbLine
 10
81.4013383614
 20
144.6810225501
 30
0.0
 11
81.4013383614
 21
160.215943073
 31
0.0
  0
LINE
  5
8B
330
1F
100
AcDbEntity
  8
0
  6
Continuous
 62
     7
370
    15
100
AcDbLine
 10
47.1013383614
 20
145.5427579384
 30
0.0
 11
81.4013383614
 21
144.6810225501
 31
0.0
  0
ARC
  5
8C
330
1F
100
AcDbEntity
  8
0
  6
Continuous
 62
     7
370
    15
100
AcDbCircle
 10
81.6012752723
 20
144.675999439
 30
0.0
 40
0.2000000000000059
100
AcDbArc
 50
88.5608333333
 51
178.5608333333
  0
LINE
  5
8D
330
1F
100
AcDbEntity
  8
0
  6
Continuous
 62
     7
370
    15
100
AcDbLine
 10
81.6062983834
 20
188.5263063194
 30
0.0
 11
82.7848260749
 21
188.5559150371
 31
0.0
  0
LINE
  5
8E
330
1F
100
AcDbEntity
  8
0
  6
Continuous
 62
     7
370
    15
100
AcDbLine
 10
81.6062983834
 20
144.8759363499
 30
0.0
 11
82.7848260749
 21
144.8463276322
 31
0.0
  0
LINE
  5
8F
330
1F
100
AcDbEntity
  8
0
  6
Continuous
 62
     7
370
    15
100
AcDbLine
 10
45.6013383614
 20
146.4087833421
 30
0.0
 11
47.1013383614
 21
145.5427579384
 31
0.0
  0
LINE
  5
90
330
1F
100
AcDbEntity
  8
0
  6
Continuous
 62
     7
370
    15
100
AcDbLine
 10
45.6013383614
 20
146.4087833421
 30
0.0
 11
45.6013383614
 21
161.079823469
 31
0.0
  0
LINE
  5
91
330
1F
100
AcDbEntity
  8
0
  6
Continuous
 62
     7
370
    15
100
AcDbLine
 10
45.6013383614
 20
186.9934593271
 30
0.0
 11
47.1013383614
 21
187.8594847309
 31
0.0
  0
LINE
  5
92
330
1F
100
AcDbEntity
  8
0
  6
Continuous
 62
     7
370
    15
100
AcDbLine
 10
45.6013383614
 20
172.3224192003
 30
0.0
 11
45.6013383614
 21
186.9934593271
 31
0.0
  0
LINE
  5
93
330
1F
100
AcDbEntity
  8
0
  6
Continuous
 62
     7
370
    15
100
AcDbLine
 10
235.2053002892
 20
186.4793217544
 30
0.0
 11
237.187124799
 21
186.4793217544
 31
0.0
  0
SPLINE
  5
94
330
1F
100
AcDbEntity
  8
0
  6
Continuous
 62
     7
370
    15
100
AcDbSpline
210
0.0
220
0.0
230
1.0
 70
     8
 71
     3
 72
    14
 73
    10
 74
     0
 42
0.00000001
 43
0.00000001
 12
1.0
 22
0.0
 32
0.0
 13
1.0
 23
0.0
 33
0.0
 40
0.0
 40
0.0
 40
0.0
 40
0.0
 40
0.2499999999999999
 40
0.2499999999999999
 40
0.4999999999999999
 40
0.4999999999999999
 40
0.7499999999999999
 40
0.7499999999999999
 40
1.0
 40
1.0
 40
1.0
 40
1.0
 10
229.4097453315119
 20
185.3031647566675
 30
0.0
 10
229.5748681294084
 20
185.5405616134655
 30
0.0
 10
229.8345244397555
 20
185.7332410066403
 30
0.0
 10
230.5566394480034
 20
186.0491882294455
 30
0.0
 10
230.9993361827691
 20
186.1640414635637
 30
0.0
 10
232.0478849486219
 20
186.3377324559488
 30
0.0
 10
232.6271272846826
 20
186.3924586823909
 30
0.0
 10
233.8873801633033
 20
186.4640050842755
 30
0.0
 10
234.5380762715652
 20
186.4793217543959
 30
0.0
 10
235.2053002892464
 20
186.4793217543959
 30
0.0
  0
ELLIPSE
  5
95
330
1F
100
AcDbEntity
  8
0
  6
Continuous
 62
     7
370
    15
100
AcDbEllipse
 10
231.0256157554
 20
166.7011213346
 30
0.0
 11
0.4025701892336145
 21
19.99971074150076
 31
0.0
210
0.0
220
0.0
230
1.0
 40
0.2671959542
 41
0.3814836951312522
 42
2.910491863059585
  0
SPLINE
  5
96
330
1F
100
AcDbEntity
  8
0
  6
Continuous
 62
     7
370
    15
100
AcDbSpline
210
0.0
220
0.0
230
1.0
 70
     8
 71
     3
 72
    16
 73
    12
 74
     0
 42
0.00000001
 43
0.00000001
 12
1.0
 22
0.0
 32
0.0
 13
1.0
 23
0.0
 33
0.0
 40
0.0
 40
0.0
 40
0.0
 40
0.0
 40
0.25
 40
0.25
 40
0.5
 40
0.5
 40
0.75
 40
0.75
 40
0.875
 40
0.875
 40
1.0
 40
1.0
 40
1.0
 40
1.0
 10
235.2053002892463
 20
146.7020126551579
 30
0.0
 10
234.5380743230651
 20
146.7020126551579
 30
0.0
 10
233.8892982916763
 20
146.7021535349993
 30
0.0
 10
232.6286556146019
 20
146.7133249791754
 30
0.0
 10
232.0499084804262
 20
146.7242729005811
 30
0.0
 10
231.0015835690701
 20
146.7841445756633
 30
0.0
 10
230.5576959303139
 20
146.8320573015134
 30
0.0
 10
230.0166729719877
 20
146.9540421336282
 30
0.0
 10
229.8608043216932
 20
147.0024913486069
 30
0.0
 10
229.5989829060942
 20
147.1164088488358
 30
0.0
 10
229.4923104014023
 20
147.1820290150281
 30
0.0
 10
229.4097453315119
 20
147.2577436150471
 30
0.0
  0
LINE
  5
97
330
1F
100
AcDbEntity
  8
0
  6
Continuous
 62
     7
370
    15
100
AcDbLine
 10
237.187124799
 20
146.7020126552
 30
0.0
 11
235.2053002892
 21
146.7020126552
 31
0.0
  0
ELLIPSE
  5
98
330
1F
100
AcDbEntity
  8
0
  6
Continuous
 62
     7
370
    15
100
AcDbEllipse
 10
228.3962798732
 20
155.2298929313
 30
0.0
 11
-0.1054591905750044
 21
2.770895234338923
 31
0.0
210
0.0
220
0.0
230
1.0
 40
0.2575917467
 41
0.0
 42
6.283185307179586
  0
SPLINE
  5
99
330
1F
100
AcDbEntity
  8
0
  6
Continuous
 62
     7
370
    15
100
AcDbSpline
210
0.0
220
0.0
230
1.0
 70
     8
 71
     3
 72
    10
 73
     6
 74
     0
 42
0.00000001
 43
0.00000001
 12
1.0
 22
0.0
 32
0.0
 13
1.0
 23
0.0
 33
0.0
 40
0.0
 40
0.0
 40
0.0
 40
0.0
 40
0.5
 40
0.5
 40
1.0
 40
1.0
 40
1.0
 40
1.0
 10
237.1871247989995
 20
186.4793217543958
 30
0.0
 10
237.319191265952
 20
186.4793217543958
 30
0.0
 10
237.4487940507692
 20
186.5053383573823
 30
0.0
 10
237.6907803187288
 20
186.6056341830984
 30
0.0
 10
237.8009909544035
 20
186.6791102405359
 30
0.0
 10
237.8942315801864
 20
186.7724081905527
 30
0.0
  0
SPLINE
  5
9A
330
1F
100
AcDbEntity
  8
0
  6
Continuous
 62
     7
370
    15
100
AcDbSpline
210
0.0
220
0.0
230
1.0
 70
     8
 71
     3
 72
    10
 73
     6
 74
     0
 42
0.00000001
 43
0.00000001
 12
1.0
 22
0.0
 32
0.0
 13
1.0
 23
0.0
 33
0.0
 40
0.0
 40
0.0
 40
0.0
 40
0.0
 40
0.5
 40
0.5
 40
1.0
 40
1.0
 40
1.0
 40
1.0
 10
237.8942315801861
 20
146.4089262190008
 30
0.0
 10
237.8009920322722
 20
146.5022230904859
 30
0.0
 10
237.6910985801615
 20
146.5755176164077
 30
0.0
 10
237.4491352912727
 20
146.6759051810662
 30
0.0
 10
237.319198056268
 20
146.7020126551581
 30
0.0
 10
237.1871247989995
 20
146.7020126551581
 30
0.0
  0
LINE
  5
9B
330
1F
100
AcDbEntity
  8
0
  6
Continuous
 62
     7
370
    15
100
AcDbLine
 10
237.8942315802
 20
186.7724081906
 30
0.0
 11
238.1013383614
 21
186.9796358886
 31
0.0
  0
LINE
  5
9C
330
1F
100
AcDbEntity
  8
0
  6
Continuous
 62
     7
370
    15
100
AcDbLine
 10
238.1013383614
 20
186.9796358886
 30
0.0
 11
240.2333221146
 21
186.9796358886
 31
0.0
  0
LINE
  5
9D
330
1F
100
AcDbEntity
  8
0
  6
Continuous
 62
     7
370
    15
100
AcDbLine
 10
240.2333221146
 20
186.9796358886
 30
0.0
 11
261.8991975397
 21
156.1129324298
 31
0.0
  0
LINE
  5
9E
330
1F
100
AcDbEntity
  8
0
  6
Continuous
 62
     7
370
    15
100
AcDbLine
 10
261.8991975397
 20
156.1129324298
 30
0.0
 11
262.2159124021
 21
152.5016832898
 31
0.0
  0
ARC
  5
9F
330
1F
100
AcDbEntity
  8
0
  6
Continuous
 62
     7
370
    15
100
AcDbCircle
 10
250.9363169345
 20
152.3583850203
 30
0.0
 40
2.097665590294321
100
AcDbArc
 50
26.9264172218
 51
241.6811707873
  0
ELLIPSE
  5
A0
330
1F
100
AcDbEntity
  8
0
  6
Continuous
 62
     7
370
    15
100
AcDbEllipse
 10
177.7831299356
 20
172.6031299559
 30
0.0
 11
4096.488451942512
 21
-356.6522915817438
 31
0.0
210
0.0
220
0.0
230
1.0
 40
0.0060650906
 41
4.728679648101402
 42
4.730741061245586
  0
SPLINE
  5
A1
330
1F
100
AcDbEntity
  8
0
  6
Continuous
 62
     7
370
    15
100
AcDbSpline
210
0.0
220
0.0
230
1.0
 70
     8
 71
     3
 72
     8
 73
     4
 74
     0
 42
0.00000001
 43
0.00000001
 12
1.0
 22
0.0
 32
0.0
 13
1.0
 23
0.0
 33
0.0
 40
0.0
 40
0.0
 40
0.0
 40
0.0
 40
1.0
 40
1.0
 40
1.0
 40
1.0
 10
242.3518689849834
 20
141.9510061617525
 30
0.0
 10
240.865653484536
 20
143.4366446811138
 30
0.0
 10
239.3797002565961
 20
144.9225442780855
 30
0.0
 10
237.8942315801861
 20
146.4089262190008
 30
0.0
  0
ELLIPSE
  5
A2
330
1F
100
AcDbEntity
  8
0
  6
Continuous
 62
     7
370
    15
100
AcDbEllipse
 10
254.3073503254
 20
166.7011213346
 30
0.0
 11
-14.61549449049082
 21
20.47670097187972
 31
0.0
210
0.0
220
0.0
230
1.0
 40
0.0668534593
 41
6.088373590627709
 42
6.235504004580411
  0
LINE
  5
A3
330
1F
100
AcDbEntity
  8
0
  6
Continuous
 62
     7
370
    15
100
AcDbLine
 10
238.1013383614
 20
187.2011213346
 30
0.0
 11
238.1013383614
 21
186.9796358886
 31
0.0
  0
ARC
  5
A4
330
1F
100
AcDbEntity
  8
0
  6
Continuous
 62
     7
370
    15
100
AcDbCircle
 10
250.9299493494
 20
152.6929486943
 30
0.0
 40
2.094395474133266
100
AcDbArc
 50
184.6183514956
 51
240.8691623833
  0
CIRCLE
  5
A5
330
1F
100
AcDbEntity
  8
0
  6
Continuous
 62
     7
370
    15
100
AcDbCircle
 10
256.6065431769
 20
146.7205124679
 30
0.0
 40
3.494384114713165
  0
CIRCLE
  5
A6
330
1F
100
AcDbEntity
  8
0
  6
Continuous
 62
     7
370
    15
100
AcDbCircle
 10
256.6051301944
 20
146.6855574252
 30
0.0
 40
2.629774601870786
  0
CIRCLE
  5
A7
330
1F
100
AcDbEntity
  8
0
  6
Continuous
 62
     7
370
    15
100
AcDbCircle
 10
256.6046611263
 20
146.685315359
 30
0.0
 40
1.996276054108181
  0
SPLINE
  5
A8
330
1F
100
AcDbEntity
  8
0
  6
Continuous
 62
     7
370
    15
100
AcDbSpline
210
0.0
220
0.0
230
1.0
 70
     8
 71
     3
 72
    15
 73
    11
 74
     0
 42
0.00000001
 43
0.00000001
 12
1.0
 22
0.0
 32
0.0
 13
1.0
 23
0.0
 33
0.0
 40
0.0
 40
0.0
 40
0.0
 40
0.0
 40
0.1262470803730354
 40
0.253363335051399
 40
0.3794185517359063
 40
0.504268973835221
 40
0.6284502821608176
 40
0.7526361292231198
 40
0.8774891912114507
 40
1.0
 40
1.0
 40
1.0
 40
1.0
 10
256.9417035579627
 20
148.3597988369452
 30
0.0
 10
256.9262880644517
 20
148.4008122965451
 30
0.0
 10
256.8953509462556
 20
148.4831215814451
 30
0.0
 10
256.7993199799799
 20
148.5790184715462
 30
0.0
 10
256.6791736624533
 20
148.6394157106263
 30
0.0
 10
256.5456506829835
 20
148.6565706324697
 30
0.0
 10
256.4145163005488
 20
148.6296190492283
 30
0.0
 10
256.3006080832934
 20
148.5617276206817
 30
0.0
 10
256.2132012927181
 20
148.461953412982
 30
0.0
 10
256.1876060120142
 20
148.380092301182
 30
0.0
 10
256.1749295506929
 20
148.339549310876
 30
0.0
  0
SPLINE
  5
A9
330
1F
100
AcDbEntity
  8
0
  6
Continuous
 62
     7
370
    15
100
AcDbSpline
210
0.0
220
0.0
230
1.0
 70
     8
 71
     3
 72
    12
 73
     8
 74
     0
 42
0.00000001
 43
0.00000001
 12
1.0
 22
0.0
 32
0.0
 13
1.0
 23
0.0
 33
0.0
 40
0.0
 40
0.0
 40
0.0
 40
0.0
 40
0.2058748011361777
 40
0.4120995812666725
 40
0.6141693366126759
 40
0.8132901286731202
 40
1.0
 40
1.0
 40
1.0
 40
1.0
 10
256.174929550693
 20
148.339549310876
 30
0.0
 10
256.1520403706738
 20
148.2668733365181
 30
0.0
 10
256.1062230999374
 20
148.1213978415291
 30
0.0
 10
255.9495903446651
 20
147.9454076110843
 30
0.0
 10
255.7501782966946
 20
147.8292229398236
 30
0.0
 10
255.5292921709103
 20
147.7801022229916
 30
0.0
 10
255.3872980193821
 20
147.8040973243818
 30
0.0
 10
255.3185846892174
 20
147.8157089527934
 30
0.0
  0
SPLINE
  5
AA
330
1F
100
AcDbEntity
  8
0
  6
Continuous
 62
     7
370
    15
100
AcDbSpline
210
0.0
220
0.0
230
1.0
 70
     8
 71
     3
 72
    15
 73
    11
 74
     0
 42
0.00000001
 43
0.00000001
 12
1.0
 22
0.0
 32
0.0
 13
1.0
 23
0.0
 33
0.0
 40
0.0
 40
0.0
 40
0.0
 40
0.0
 40
0.1268765508972517
 40
0.2539936290345584
 40
0.3800496379886366
 40
0.5049006370992961
 40
0.6290821973267083
 40
0.7532679407719424
 40
0.8781205851190798
 40
1.0
 40
1.0
 40
1.0
 40
1.0
 10
255.3185846892173
 20
147.8157089527934
 30
0.0
 10
255.2746420383817
 20
147.8226796041425
 30
0.0
 10
255.1866734320774
 20
147.836634121509
 30
0.0
 10
255.0543534935015
 20
147.8008205991301
 30
0.0
 10
254.9414146035497
 20
147.7267123673561
 30
0.0
 10
254.8597643206072
 20
147.6196966098979
 30
0.0
 10
254.8180131663616
 20
147.492977908582
 30
0.0
 10
254.8207945783236
 20
147.3609569955702
 30
0.0
 10
254.8647337720371
 20
147.236358549239
 30
0.0
 10
254.9236707635821
 20
147.1739647860821
 30
0.0
 10
254.9527841510633
 20
147.1431438406016
 30
0.0
  0
SPLINE
  5
AB
330
1F
100
AcDbEntity
  8
0
  6
Continuous
 62
     7
370
    15
100
AcDbSpline
210
0.0
220
0.0
230
1.0
 70
     8
 71
     3
 72
    12
 73
     8
 74
     0
 42
0.00000001
 43
0.00000001
 12
1.0
 22
0.0
 32
0.0
 13
1.0
 23
0.0
 33
0.0
 40
0.0
 40
0.0
 40
0.0
 40
0.0
 40
0.2057949882088199
 40
0.4120010155282873
 40
0.6140549927929518
 40
0.8131810826683127
 40
1.0
 40
1.0
 40
1.0
 40
1.0
 10
254.9527841510633
 20
147.1431438406016
 30
0.0
 10
255.0051108350494
 20
147.0874539482324
 30
0.0
 10
255.1098687163231
 20
146.9759629327784
 30
0.0
 10
255.1854731908274
 20
146.7533379829096
 30
0.0
 10
255.1865848094517
 20
146.5229312971398
 30
0.0
 10
255.1176313591036
 20
146.3068156341427
 30
0.0
 10
255.0244726029271
 20
146.1953506762743
 30
0.0
 10
254.9793785671348
 20
146.1413954174666
 30
0.0
  0
SPLINE
  5
AC
330
1F
100
AcDbEntity
  8
0
  6
Continuous
 62
     7
370
    15
100
AcDbSpline
210
0.0
220
0.0
230
1.0
 70
     8
 71
     3
 72
    15
 73
    11
 74
     0
 42
0.00000001
 43
0.00000001
 12
1.0
 22
0.0
 32
0.0
 13
1.0
 23
0.0
 33
0.0
 40
0.0
 40
0.0
 40
0.0
 40
0.0
 40
0.1268036956060725
 40
0.2539263442698926
 40
0.3799872671767225
 40
0.5048410097956707
 40
0.6290227167745378
 40
0.7532063308920145
 40
0.8780553361593563
 40
1.0
 40
1.0
 40
1.0
 40
1.0
 10
254.9793785671348
 20
146.1413954174666
 30
0.0
 10
254.9509642610381
 20
146.1067058598267
 30
0.0
 10
254.8940641775063
 20
146.0372394888844
 30
0.0
 10
254.8580858783791
 20
145.9045370489866
 30
0.0
 10
254.8653702515519
 20
145.769585364857
 30
0.0
 10
254.9172520644767
 20
145.6454235904202
 30
0.0
 10
255.0065721322672
 20
145.5460936648371
 30
0.0
 10
255.1231354849106
 20
145.4827944725168
 30
0.0
 10
255.2541741419238
 20
145.4589340520424
 30
0.0
 10
255.3386240152319
 20
145.4791104010097
 30
0.0
 10
255.3803520362512
 20
145.4890798548505
 30
0.0
  0
SPLINE
  5
AD
330
1F
100
AcDbEntity
  8
0
  6
Continuous
 62
     7
370
    15
100
AcDbSpline
210
0.0
220
0.0
230
1.0
 70
     8
 71
     3
 72
    12
 73
     8
 74
     0
 42
0.00000001
 43
0.00000001
 12
1.0
 22
0.0
 32
0.0
 13
1.0
 23
0.0
 33
0.0
 40
0.0
 40
0.0
 40
0.0
 40
0.0
 40
0.2058497400957224
 40
0.4120524486337077
 40
0.6141081262894205
 40
0.8132431903675443
 40
1.0
 40
1.0
 40
1.0
 40
1.0
 10
255.3803520362512
 20
145.4890798548505
 30
0.0
 10
255.4555779557447
 20
145.5068436699275
 30
0.0
 10
255.6061587838458
 20
145.5424017595134
 30
0.0
 10
255.8383617585671
 20
145.4970208395197
 30
0.0
 10
256.0388472988377
 20
145.382709725529
 30
0.0
 10
256.1907749095367
 20
145.2144005612399
 30
0.0
 10
256.2396416788657
 20
145.0774504170125
 30
0.0
 10
256.2632913137987
 20
145.0111718199312
 30
0.0
  0
SPLINE
  5
AE
330
1F
100
AcDbEntity
  8
0
  6
Continuous
 62
     7
370
    15
100
AcDbSpline
210
0.0
220
0.0
230
1.0
 70
     8
 71
     3
 72
    15
 73
    11
 74
     0
 42
0.00000001
 43
0.00000001
 12
1.0
 22
0.0
 32
0.0
 13
1.0
 23
0.0
 33
0.0
 40
0.0
 40
0.0
 40
0.0
 40
0.0
 40
0.1262564375372193
 40
0.2533820972843127
 40
0.3794454811306059
 40
0.5043002379037609
 40
0.6284814530464844
 40
0.7526634908999874
 40
0.877510462112229
 40
1.0
 40
1.0
 40
1.0
 40
1.0
 10
256.2632913137987
 20
145.0111718199312
 30
0.0
 10
256.2787077471895
 20
144.9692243524403
 30
0.0
 10
256.3096467495993
 20
144.8850406268739
 30
0.0
 10
256.4056845341925
 20
144.7870930941895
 30
0.0
 10
256.5258385942969
 20
144.7254110377067
 30
0.0
 10
256.6593669408459
 20
144.7078538734768
 30
0.0
 10
256.7905013106287
 20
144.735278732633
 30
0.0
 10
256.9044044309586
 20
144.804492140874
 30
0.0
 10
256.9917998156966
 20
144.9062977394045
 30
0.0
 10
257.017391459646
 20
144.9899793570599
 30
0.0
 10
257.0300653210688
 20
145.0314213694568
 30
0.0
  0
SPLINE
  5
AF
330
1F
100
AcDbEntity
  8
0
  6
Continuous
 62
     7
370
    15
100
AcDbSpline
210
0.0
220
0.0
230
1.0
 70
     8
 71
     3
 72
    12
 73
     8
 74
     0
 42
0.00000001
 43
0.00000001
 12
1.0
 22
0.0
 32
0.0
 13
1.0
 23
0.0
 33
0.0
 40
0.0
 40
0.0
 40
0.0
 40
0.0
 40
0.2058713741444319
 40
0.4120924153879844
 40
0.6141683533434518
 40
0.8133068872803016
 40
1.0
 40
1.0
 40
1.0
 40
1.0
 10
257.0300653210687
 20
145.0314213694568
 30
0.0
 10
257.0529542068933
 20
145.1056991257159
 30
0.0
 10
257.0987708547115
 20
145.254380797044
 30
0.0
 10
257.2554020802441
 20
145.432947101419
 30
0.0
 10
257.4548175320014
 20
145.5489448199695
 30
0.0
 10
257.6757078210789
 20
145.5953428650651
 30
0.0
 10
257.8177027964004
 20
145.5683316816392
 30
0.0
 10
257.8864101825442
 20
145.5552617275394
 30
0.0
  0
SPLINE
  5
B0
330
1F
100
AcDbEntity
  8
0
  6
Continuous
 62
     7
370
    15
100
AcDbSpline
210
0.0
220
0.0
230
1.0
 70
     8
 71
     3
 72
    15
 73
    11
 74
     0
 42
0.00000001
 43
0.00000001
 12
1.0
 22
0.0
 32
0.0
 13
1.0
 23
0.0
 33
0.0
 40
0.0
 40
0.0
 40
0.0
 40
0.0
 40
0.126870250342887
 40
0.2539810595569434
 40
0.3800301963397729
 40
0.504874996754607
 40
0.6290527571815502
 40
0.7532384607998502
 40
0.8780953942143929
 40
1.0
 40
1.0
 40
1.0
 40
1.0
 10
257.8864101825442
 20
145.5552617275394
 30
0.0
 10
257.9303514227759
 20
145.5473546282667
 30
0.0
 10
258.0183172202903
 20
145.5315254370586
 30
0.0
 10
258.1506337137484
 20
145.5652878245779
 30
0.0
 10
258.2635706944176
 20
145.6381081356285
 30
0.0
 10
258.3452220253574
 20
145.7447125469203
 30
0.0
 10
258.3869781828647
 20
145.8718945078162
 30
0.0
 10
258.3842044407522
 20
146.005232989617
 30
0.0
 10
258.3402705506999
 20
146.1318740536362
 30
0.0
 10
258.2813289324133
 20
146.1960986962329
 30
0.0
 10
258.2522107206981
 20
146.2278268162748
 30
0.0
  0
SPLINE
  5
B1
330
1F
100
AcDbEntity
  8
0
  6
Continuous
 62
     7
370
    15
100
AcDbSpline
210
0.0
220
0.0
230
1.0
 70
     8
 71
     3
 72
    12
 73
     8
 74
     0
 42
0.00000001
 43
0.00000001
 12
1.0
 22
0.0
 32
0.0
 13
1.0
 23
0.0
 33
0.0
 40
0.0
 40
0.0
 40
0.0
 40
0.0
 40
0.2058321750919741
 40
0.4120750343576597
 40
0.6141697879284158
 40
0.8133029339856697
 40
1.0
 40
1.0
 40
1.0
 40
1.0
 10
258.2522107206981
 20
146.2278268162748
 30
0.0
 10
258.1998774194901
 20
146.2851276225352
 30
0.0
 10
258.0951063996839
 20
146.3998435638011
 30
0.0
 10
258.0195065859047
 20
146.6250820583233
 30
0.0
 10
258.0184217071198
 20
146.8553322235763
 30
0.0
 10
258.0874074562593
 20
147.0686986336793
 30
0.0
 10
258.1805473839392
 20
147.1771145042516
 30
0.0
 10
258.2256163046266
 20
147.2295752092767
 30
0.0
  0
SPLINE
  5
B2
330
1F
100
AcDbEntity
  8
0
  6
Continuous
 62
     7
370
    15
100
AcDbSpline
210
0.0
220
0.0
230
1.0
 70
     8
 71
     3
 72
    15
 73
    11
 74
     0
 42
0.00000001
 43
0.00000001
 12
1.0
 22
0.0
 32
0.0
 13
1.0
 23
0.0
 33
0.0
 40
0.0
 40
0.0
 40
0.0
 40
0.0
 40
0.1267880291975168
 40
0.2538950064075651
 40
0.3799409022877702
 40
0.5047841289691726
 40
0.6289621452110035
 40
0.7531495391279475
 40
0.8780089278148062
 40
1.0
 40
1.0
 40
1.0
 40
1.0
 10
258.2256163046266
 20
147.2295752092767
 30
0.0
 10
258.2540286364873
 20
147.2633258415978
 30
0.0
 10
258.3109247742813
 20
147.3309120093429
 30
0.0
 10
258.3469055428839
 20
147.4615548471095
 30
0.0
 10
258.3396303621017
 20
147.5952133840137
 30
0.0
 10
258.2877633990391
 20
147.7189662723985
 30
0.0
 10
258.1984581819686
 20
147.8187704033862
 30
0.0
 10
258.081903336147
 20
147.8834018743054
 30
0.0
 10
257.9508520390673
 20
147.9093137725345
 30
0.0
 10
257.866385412421
 20
147.890960686615
 30
0.0
 10
257.8246428355101
 20
147.8818907718929
 30
0.0
  0
SPLINE
  5
B3
330
1F
100
AcDbEntity
  8
0
  6
Continuous
 62
     7
370
    15
100
AcDbSpline
210
0.0
220
0.0
230
1.0
 70
     8
 71
     3
 72
    12
 73
     8
 74
     0
 42
0.00000001
 43
0.00000001
 12
1.0
 22
0.0
 32
0.0
 13
1.0
 23
0.0
 33
0.0
 40
0.0
 40
0.0
 40
0.0
 40
0.0
 40
0.2058903596434076
 40
0.4121336430765857
 40
0.6142239121175507
 40
0.8133482777366013
 40
1.0
 40
1.0
 40
1.0
 40
1.0
 10
257.8246428355101
 20
147.8818907718929
 30
0.0
 10
257.7494051423868
 20
147.8657280416536
 30
0.0
 10
257.598800788607
 20
147.8333748760798
 30
0.0
 10
257.3665672638043
 20
147.8813557462105
 30
0.0
 10
257.1660710893703
 20
147.9955149343592
 30
0.0
 10
257.0141851115346
 20
148.161112282556
 30
0.0
 10
256.9653376417139
 20
148.2950130475234
 30
0.0
 10
256.9417035579627
 20
148.3597988369452
 30
0.0
  0
LWPOLYLINE
  5
B4
330
1F
100
AcDbEntity
  8
0
  6
Continuous
 62
     7
370
    15
100
AcDbPolyline
 90
        3
 70
   128
 43
0.0
 10
258.3371096438
 20
147.5608444903
 10
258.3021555916
 20
147.4511035
 10
258.2256163046
 20
147.3446307665
  0
ARC
  5
B5
330
1F
100
AcDbEntity
  8
0
  6
Continuous
 62
     7
370
    15
100
AcDbCircle
 10
255.2136584103
 20
147.5516213688
 30
0.0
 40
0.3926475798917425
100
AcDbArc
 50
187.1839929188
 51
228.3638433195
  0
ARC
  5
B6
330
1F
100
AcDbEntity
  8
0
  6
Continuous
 62
     7
370
    15
100
AcDbCircle
 10
258.7086070075
 20
146.856099328
 30
0.0
 40
0.6869810662741691
100
AcDbArc
 50
134.6732371703
 51
179.9881618795
  0
ARC
  5
B7
330
1F
100
AcDbEntity
  8
0
  6
Continuous
 62
     7
370
    15
100
AcDbCircle
 10
254.4963100772
 20
146.7446657574
 30
0.0
 40
0.6870588570037961
100
AcDbArc
 50
0.013219703
 51
48.3645622673
  0
ARC
  5
B8
330
1F
100
AcDbEntity
  8
0
  6
Continuous
 62
     7
370
    15
100
AcDbCircle
 10
257.9902182824
 20
146.0502301928
 30
0.0
 40
0.3938144924318984
100
AcDbArc
 50
254.7164300435
 51
354.1095010562
  0
ARC
  5
B9
330
1F
100
AcDbEntity
  8
0
  6
Continuous
 62
     7
370
    15
100
AcDbCircle
 10
255.256624986
 20
145.9780860191
 30
0.0
 40
0.3938875974330239
100
AcDbArc
 50
186.9298250226
 51
288.307555934
  0
ARC
  5
BA
330
1F
100
AcDbEntity
  8
0
  6
Continuous
 62
     7
370
    15
100
AcDbCircle
 10
257.7049495763
 20
145.0051128752
 30
0.0
 40
0.689536095795673
100
AcDbArc
 50
74.7421546754
 51
168.1674797951
  0
ARC
  5
BB
330
1F
100
AcDbEntity
  8
0
  6
Continuous
 62
     7
370
    15
100
AcDbCircle
 10
255.5966817978
 20
144.9492267043
 30
0.0
 40
0.6897129701929607
100
AcDbArc
 50
14.8717374619
 51
108.2794474723
  0
ARC
  5
BC
330
1F
100
AcDbEntity
  8
0
  6
Continuous
 62
     7
370
    15
100
AcDbCircle
 10
256.6442727829
 20
145.2274267052
 30
0.0
 40
0.3941883688614638
100
AcDbArc
 50
194.8732623078
 51
348.1534626332
  0
ARC
  5
BD
330
1F
100
AcDbEntity
  8
0
  6
Continuous
 62
     7
370
    15
100
AcDbCircle
 10
256.6009611556
 20
146.7269858775
 30
0.0
 40
3.500005651340345
100
AcDbArc
 50
0.1029624917
 51
179.8970375083
  0
LINE
  5
BE
330
1F
100
AcDbEntity
  8
0
  6
Continuous
 62
     7
370
    15
100
AcDbLine
 10
263.5998162406
 20
140.134924329
 30
0.0
 11
262.5466631399
 21
152.1431963766
 31
0.0
  0
ARC
  5
BF
330
1F
100
AcDbEntity
  8
0
  6
Continuous
 62
     7
370
    15
100
AcDbCircle
 10
263.2017806966
 20
140.1005903701
 30
0.0
 40
0.3995135980505692
100
AcDbArc
 50
264.9302140244
 51
4.930046206
  0
LINE
  5
C0
330
1F
100
AcDbEntity
  8
0
  6
Continuous
 62
     7
370
    15
100
AcDbLine
 10
251.1288810402
 20
140.7532274203
 30
0.0
 11
263.1664760643
 21
139.7026397476
 31
0.0
  0
ARC
  5
C1
330
1F
100
AcDbEntity
  8
0
  6
Continuous
 62
     7
370
    15
100
AcDbCircle
 10
251.1632161827
 20
141.1512630693
 30
0.0
 40
0.3995138043827058
100
AcDbArc
 50
185.0699537939
 51
265.0697859757
  0
LINE
  5
C2
330
1F
100
AcDbEntity
  8
0
  6
Continuous
 62
     7
370
    15
100
AcDbLine
 10
249.7121123574
 20
153.1242293007
 30
0.0
 11
250.7652654581
 21
141.1159572531
 31
0.0
  0
ARC
  5
C3
330
1F
100
AcDbEntity
  8
0
  6
Continuous
 62
     7
370
    15
100
AcDbCircle
 10
250.1101479014
 20
153.1585632596
 30
0.0
 40
0.3995135980501821
100
AcDbArc
 50
84.9302140244
 51
184.9300462061
  0
LINE
  5
C4
330
1F
100
AcDbEntity
  8
0
  6
Continuous
 62
     7
370
    15
100
AcDbLine
 10
262.1830475578
 20
152.5059262095
 30
0.0
 11
250.1454525337
 21
153.5565138822
 31
0.0
  0
ARC
  5
C5
330
1F
100
AcDbEntity
  8
0
  6
Continuous
 62
     7
370
    15
100
AcDbCircle
 10
262.1487124153
 20
152.1078905605
 30
0.0
 40
0.3995138043829327
100
AcDbArc
 50
5.0699537939
 51
85.0697859756
  0
ARC
  5
C6
330
1F
100
AcDbEntity
  8
0
  6
Continuous
 62
     7
370
    15
100
AcDbCircle
 10
250.1101700181
 20
153.1585854304
 30
0.0
 40
0.3795379181479769
100
AcDbArc
 50
84.9302140244
 51
184.9300462061
  0
LINE
  5
C7
330
1F
100
AcDbEntity
  8
0
  6
Continuous
 62
     7
370
    15
100
AcDbLine
 10
249.7320362513
 20
153.1259681694
 30
0.0
 11
250.7851893524
 21
141.1176961219
 31
0.0
  0
ARC
  5
C8
330
1F
100
AcDbEntity
  8
0
  6
Continuous
 62
     7
370
    15
100
AcDbCircle
 10
251.1632425412
 20
141.1512366476
 30
0.0
 40
0.3795381146286596
100
AcDbArc
 50
185.0699538432
 51
265.0697858714
  0
LINE
  5
C9
330
1F
100
AcDbEntity
  8
0
  6
Continuous
 62
     7
370
    15
100
AcDbLine
 10
251.1306241551
 20
140.7731027806
 30
0.0
 11
263.1682191791
 21
139.7225151079
 31
0.0
  0
ARC
  5
CA
330
1F
100
AcDbEntity
  8
0
  6
Continuous
 62
     7
370
    15
100
AcDbCircle
 10
263.2017585798
 20
140.1005681993
 30
0.0
 40
0.3795379181481651
100
AcDbArc
 50
264.9302140244
 51
4.930046206
  0
LINE
  5
CB
330
1F
100
AcDbEntity
  8
0
  6
Continuous
 62
     7
370
    15
100
AcDbLine
 10
263.5798923466
 20
140.1331854603
 30
0.0
 11
262.5267392459
 21
152.1414575079
 31
0.0
  0
ARC
  5
CC
330
1F
100
AcDbEntity
  8
0
  6
Continuous
 62
     7
370
    15
100
AcDbCircle
 10
262.1486860575
 20
152.1079169825
 30
0.0
 40
0.3795381141640305
100
AcDbArc
 50
5.069953794
 51
85.0697859756
  0
LINE
  5
CD
330
1F
100
AcDbEntity
  8
0
  6
Continuous
 62
     7
370
    15
100
AcDbLine
 10
262.1813044429
 20
152.4860508491
 30
0.0
 11
250.1437094189
 21
153.5366385218
 31
0.0
  0
LINE
  5
CE
330
1F
100
AcDbEntity
  8
0
  6
Continuous
 62
     7
370
    15
100
AcDbLine
 10
250.1105902366
 20
153.1743107642
 30
0.0
 11
249.7320362513
 21
153.1259681694
 31
0.0
  0
LINE
  5
CF
330
1F
100
AcDbEntity
  8
0
  6
Continuous
 62
     7
370
    15
100
AcDbLine
 10
250.1105902366
 20
153.1743107642
 30
0.0
 11
250.1437094189
 21
153.5366385218
 31
0.0
  0
LINE
  5
D0
330
1F
100
AcDbEntity
  8
0
  6
Continuous
 62
     7
370
    15
100
AcDbLine
 10
262.1481852607
 20
152.1237230915
 30
0.0
 11
262.1813044429
 21
152.4860508491
 31
0.0
  0
LINE
  5
D1
330
1F
100
AcDbEntity
  8
0
  6
Continuous
 62
     7
370
    15
100
AcDbLine
 10
261.5744909314
 20
151.5764569769
 30
0.0
 11
262.1481852607
 21
152.1237230915
 31
0.0
  0
LINE
  5
D2
330
1F
100
AcDbEntity
  8
0
  6
Continuous
 62
     7
370
    15
100
AcDbLine
 10
251.0295905811
 20
152.2911941766
 30
0.0
 11
250.1105902366
 21
153.1743107642
 31
0.0
  0
LINE
  5
D3
330
1F
100
AcDbEntity
  8
0
  6
Continuous
 62
     7
370
    15
100
AcDbLine
 10
251.1637433373
 20
141.1660387166
 30
0.0
 11
250.7851893524
 21
141.1176961219
 31
0.0
  0
LINE
  5
D4
330
1F
100
AcDbEntity
  8
0
  6
Continuous
 62
     7
370
    15
100
AcDbLine
 10
251.7374376666
 20
141.7633662794
 30
0.0
 11
251.1637433373
 21
141.1660387166
 31
0.0
  0
LINE
  5
D5
330
1F
100
AcDbEntity
  8
0
  6
Continuous
 62
     7
370
    15
100
AcDbLine
 10
262.1481852607
 20
152.1237230915
 30
0.0
 11
262.5267392459
 21
152.1414575079
 31
0.0
  0
LINE
  5
D6
330
1F
100
AcDbEntity
  8
0
  6
Continuous
 62
     7
370
    15
100
AcDbLine
 10
263.2013383614
 20
140.1154510439
 30
0.0
 11
263.5798923466
 21
140.1331854603
 31
0.0
  0
LINE
  5
D7
330
1F
100
AcDbEntity
  8
0
  6
Continuous
 62
     7
370
    15
100
AcDbLine
 10
262.2823380169
 20
141.0658578681
 30
0.0
 11
263.2013383614
 21
140.1154510439
 31
0.0
  0
ARC
  5
D8
330
1F
100
AcDbEntity
  8
0
  6
Continuous
 62
     7
370
    15
100
AcDbCircle
 10
252.9916491115
 20
150.2827542323
 30
0.0
 40
0.998783994951537
100
AcDbArc
 50
84.9302140094
 51
184.9300462359
  0
LINE
  5
D9
330
1F
100
AcDbEntity
  8
0
  6
Continuous
 62
     7
370
    15
100
AcDbLine
 10
259.8169176556
 20
150.6896548301
 30
0.0
 11
253.0799106926
 21
151.2776307884
 31
0.0
  0
ARC
  5
DA
330
1F
100
AcDbEntity
  8
0
  6
Continuous
 62
     7
370
    15
100
AcDbCircle
 10
259.7310797993
 20
149.6945657076
 30
0.0
 40
0.9987845109569493
100
AcDbArc
 50
5.0699537939
 51
85.0697859757
  0
LINE
  5
DB
330
1F
100
AcDbEntity
  8
0
  6
Continuous
 62
     7
370
    15
100
AcDbLine
 10
261.3153683463
 20
143.0622342953
 30
0.0
 11
260.7259566109
 21
149.7828302479
 31
0.0
  0
ARC
  5
DC
330
1F
100
AcDbEntity
  8
0
  6
Continuous
 62
     7
370
    15
100
AcDbCircle
 10
260.3202794863
 20
142.976399398
 30
0.0
 40
0.99878399512688
100
AcDbArc
 50
264.9302140244
 51
4.930046206
  0
LINE
  5
DD
330
1F
100
AcDbEntity
  8
0
  6
Continuous
 62
     7
370
    15
100
AcDbLine
 10
253.4950109424
 20
142.5694987997
 30
0.0
 11
260.2320179054
 21
141.9815228417
 31
0.0
  0
ARC
  5
DE
330
1F
100
AcDbEntity
  8
0
  6
Continuous
 62
     7
370
    15
100
AcDbCircle
 10
253.5808487987
 20
143.5645879222
 30
0.0
 40
0.9987845109566461
100
AcDbArc
 50
185.0699537939
 51
265.0697859757
  0
LINE
  5
DF
330
1F
100
AcDbEntity
  8
0
  6
Continuous
 62
     7
370
    15
100
AcDbLine
 10
251.9965602517
 20
150.1969193345
 30
0.0
 11
252.5859719871
 21
143.4763233818
 31
0.0
  0
CIRCLE
  5
E0
330
1F
100
AcDbEntity
  8
0
  6
Continuous
 62
     7
370
    15
100
AcDbCircle
 10
256.6584658957
 20
146.6232010642
 30
0.0
 40
3.79694782893768
  0
ARC
  5
E1
330
1F
100
AcDbEntity
  8
0
  6
Continuous
 62
     7
370
    15
100
AcDbCircle
 10
256.655964299
 20
146.7161920093
 30
0.0
 40
3.800005381472222
100
AcDbArc
 50
180.0964264385
 51
359.9035735615
  0
SPLINE
  5
E2
330
1F
100
AcDbEntity
  8
0
  6
Continuous
 62
     7
370
    15
100
AcDbSpline
210
0.0
220
0.0
230
1.0
 70
     8
 71
     3
 72
    11
 73
     7
 74
     0
 42
0.00000001
 43
0.00000001
 12
1.0
 22
0.0
 32
0.0
 13
1.0
 23
0.0
 33
0.0
 40
0.0
 40
0.0
 40
0.0
 40
0.0
 40
0.0076282660084474
 40
0.3209888652315611
 40
0.663216886858742
 40
0.9999999999999999
 40
0.9999999999999999
 40
0.9999999999999999
 40
0.9999999999999999
 10
251.5185181587098
 20
151.7982009918058
 30
0.0
 10
251.5174025980355
 20
151.7993770954461
 30
0.0
 10
251.470461057906
 20
151.8488662155786
 30
0.0
 10
251.3664050852005
 20
151.95692823287
 30
0.0
 10
251.1969572211095
 20
152.1285051257174
 30
0.0
 10
251.0850804189177
 20
152.2372551775211
 30
0.0
 10
251.029590581121
 20
152.2911941766411
 30
0.0
  0
SPLINE
  5
E3
330
1F
100
AcDbEntity
  8
0
  6
Continuous
 62
     7
370
    15
100
AcDbSpline
210
0.0
220
0.0
230
1.0
 70
     8
 71
     3
 72
    11
 73
     7
 74
     0
 42
0.00000001
 43
0.00000001
 12
1.0
 22
0.0
 32
0.0
 13
1.0
 23
0.0
 33
0.0
 40
0.0
 40
0.0
 40
0.0
 40
0.0
 40
0.0081164391033957
 40
0.3263678516927369
 40
0.662768581347686
 40
0.9999999999999999
 40
0.9999999999999999
 40
0.9999999999999999
 40
0.9999999999999999
 10
261.0838350979657
 20
151.0835101113541
 30
0.0
 10
261.0850277203227
 20
151.0847674043752
 30
0.0
 10
261.1329839227361
 20
151.1353240606921
 30
0.0
 10
261.2384625669258
 20
151.2446614614817
 30
0.0
 10
261.4099147359814
 20
151.4175311072254
 30
0.0
 10
261.519587118801
 20
151.5234381539145
 30
0.0
 10
261.5744909314206
 20
151.5764569768582
 30
0.0
  0
LINE
  5
E4
330
1F
100
AcDbEntity
  8
0
  6
Continuous
 62
     7
370
    15
100
AcDbLine
 10
263.2013383614
 20
140.1154510439
 30
0.0
 11
263.1682191791
 21
139.7225151079
 31
0.0
  0
LINE
  5
E5
330
1F
100
AcDbEntity
  8
0
  6
Continuous
 62
     7
370
    15
100
AcDbLine
 10
251.1637433373
 20
141.1660387166
 30
0.0
 11
251.1306241551
 21
140.7731027806
 31
0.0
  0
SPLINE
  5
E6
330
1F
100
AcDbEntity
  8
0
  6
Continuous
 62
     7
370
    15
100
AcDbSpline
210
0.0
220
0.0
230
1.0
 70
     8
 71
     3
 72
    11
 73
     7
 74
     0
 42
0.00000001
 43
0.00000001
 12
1.0
 22
0.0
 32
0.0
 13
1.0
 23
0.0
 33
0.0
 40
0.0
 40
0.0
 40
0.0
 40
0.0
 40
0.3372314186520384
 40
0.6736321483070231
 40
0.9918835608967171
 40
1.0
 40
1.0
 40
1.0
 40
1.0
 10
251.7374376665698
 20
141.7633662793522
 30
0.0
 10
251.7923414791895
 20
141.8198875957919
 30
0.0
 10
251.9020138620091
 20
141.9327910019175
 30
0.0
 10
252.0734660310634
 20
142.1019903965457
 30
0.0
 10
252.1789446752564
 20
142.2030964027985
 30
0.0
 10
252.2269008776678
 20
142.2482185135011
 30
0.0
 10
252.2280935000247
 20
142.2493406548573
 30
0.0
  0
SPLINE
  5
E7
330
1F
100
AcDbEntity
  8
0
  6
Continuous
 62
     7
370
    15
100
AcDbSpline
210
0.0
220
0.0
230
1.0
 70
     8
 71
     3
 72
    11
 73
     7
 74
     0
 42
0.00000001
 43
0.00000001
 12
1.0
 22
0.0
 32
0.0
 13
1.0
 23
0.0
 33
0.0
 40
0.0
 40
0.0
 40
0.0
 40
0.0
 40
0.3367831131415599
 40
0.6790111347691354
 40
0.9923717339921161
 40
1.0
 40
1.0
 40
1.0
 40
1.0
 10
262.2823380168697
 20
141.0658578680842
 30
0.0
 10
262.2268481790726
 20
141.1226282036462
 30
0.0
 10
262.11497137688
 20
141.2370867036928
 30
0.0
 10
261.9455235127922
 20
141.4035800060625
 30
0.0
 10
261.841467540079
 20
141.5031229839534
 30
0.0
 10
261.7945259999551
 20
141.5472882496072
 30
0.0
 10
261.7934104392809
 20
141.5483378324159
 30
0.0
  0
SPLINE
  5
E8
330
1F
100
AcDbEntity
  8
0
  6
HIDDEN
 62
     7
370
     0
100
AcDbSpline
210
0.0
220
0.0
230
1.0
 70
     8
 71
     3
 72
    60
 73
    56
 74
     0
 42
0.00000001
 43
0.00000001
 12
1.0
 22
0.0
 32
0.0
 13
1.0
 23
0.0
 33
0.0
 40
-0.0624999999999999
 40
-0.0624999999999999
 40
0.0
 40
0.0
 40
0.03125
 40
0.03125
 40
0.0625000000000001
 40
0.0625000000000001
 40
0.0937500000000001
 40
0.0937500000000001
 40
0.1250000000000001
 40
0.1250000000000001
 40
0.1875000000000002
 40
0.1875000000000002
 40
0.2500000000000003
 40
0.2500000000000003
 40
0.2812500000000003
 40
0.2812500000000003
 40
0.3125000000000003
 40
0.3125000000000003
 40
0.3437500000000004
 40
0.3437500000000004
 40
0.3750000000000004
 40
0.3750000000000004
 40
0.4062500000000005
 40
0.4062500000000005
 40
0.4375000000000005
 40
0.4375000000000005
 40
0.4687500000000006
 40
0.4687500000000006
 40
0.5000000000000006
 40
0.5000000000000006
 40
0.5625000000000008
 40
0.5625000000000008
 40
0.6250000000000009
 40
0.6250000000000009
 40
0.6562500000000008
 40
0.6562500000000008
 40
0.6875000000000007
 40
0.6875000000000007
 40
0.7187500000000007
 40
0.7187500000000007
 40
0.7500000000000006
 40
0.7500000000000006
 40
0.7812500000000004
 40
0.7812500000000004
 40
0.8125000000000004
 40
0.8125000000000004
 40
0.8437500000000003
 40
0.8437500000000003
 40
0.8750000000000002
 40
0.8750000000000002
 40
0.9062500000000002
 40
0.9062500000000002
 40
0.9375000000000001
 40
0.9375000000000001
 40
1.0
 40
1.0
 40
1.03125
 40
1.03125
 10
93.60133836137258
 20
166.4367908095557
 30
0.0
 10
93.60133836137258
 20
166.8332865971858
 30
0.0
 10
93.61431021986138
 20
166.9632366581899
 30
0.0
 10
93.66513038955378
 20
167.21888959155
 30
0.0
 10
93.7035977130207
 20
167.3459190980993
 30
0.0
 10
93.80399594909282
 20
167.5881072292238
 30
0.0
 10
93.86542898006599
 20
167.7029687217767
 30
0.0
 10
94.01056381161092
 20
167.9203489176008
 30
0.0
 10
94.09501892901878
 20
168.0232464847994
 30
0.0
 10
94.37173837937709
 20
168.2999135238072
 30
0.0
 10
94.59481527129515
 20
168.4489116142872
 30
0.0
 10
95.07609863351546
 20
168.6484227547519
 30
0.0
 10
95.33932905250647
 20
168.7009808577486
 30
0.0
 10
95.7307312541944
 20
168.7011911401267
 30
0.0
 10
95.86325428230326
 20
168.6882053693996
 30
0.0
 10
96.11978473554431
 20
168.6371782211857
 30
0.0
 10
96.24447156984093
 20
168.5994230220354
 30
0.0
 10
96.48665083207645
 20
168.4992846891266
 30
0.0
 10
96.60374436422653
 20
168.4366790217151
 30
0.0
 10
96.82045936758195
 20
168.2919457284501
 30
0.0
 10
96.92147819444469
 20
168.2093183811705
 30
0.0
 10
97.10826308189684
 20
168.022713327919
 30
0.0
 10
97.19111996309302
 20
167.9215982640428
 30
0.0
 10
97.33600422816684
 20
167.705065460053
 30
0.0
 10
97.3986417359878
 20
167.5881952524518
 30
0.0
 10
97.49909055938755
 20
167.3458973818017
 30
0.0
 10
97.53694166040482
 20
167.2212333833407
 30
0.0
 10
97.58816322566113
 20
166.9649463392768
 30
0.0
 10
97.60129135227835
 20
166.8323743435313
 30
0.0
 10
97.60143199261859
 20
166.4407701507573
 30
0.0
 10
97.54910724324675
 20
166.1776048194333
 30
0.0
 10
97.3499961811895
 20
165.6960994502602
 30
0.0
 10
97.20113384473224
 20
165.4728479107761
 30
0.0
 10
96.92481288540675
 20
165.1959916118872
 30
0.0
 10
96.82204923703317
 20
165.1114781650435
 30
0.0
 10
96.60466567965372
 20
164.9660608916033
 30
0.0
 10
96.48986691169725
 20
164.9045496925449
 30
0.0
 10
96.24799018827323
 20
164.8040198442901
 30
0.0
 10
96.12083658027302
 20
164.765374821072
 30
0.0
 10
95.86517057084043
 20
164.7143184935211
 30
0.0
 10
95.73530453308442
 20
164.7012536349754
 30
0.0
 10
95.47135200635276
 20
164.7009910141775
 30
0.0
 10
95.34094768292873
 20
164.7138680144215
 30
0.0
 10
95.08529691954938
 20
164.7644540182273
 30
0.0
 10
94.95843137043502
 20
164.8027303828491
 30
0.0
 10
94.7159109124891
 20
164.9030012503292
 30
0.0
 10
94.60098427382879
 20
164.9643572744701
 30
0.0
 10
94.38361280499677
 20
165.1092035696429
 30
0.0
 10
94.28059899233455
 20
165.1935810841375
 30
0.0
 10
94.09589844675257
 20
165.3779884043258
 30
0.0
 10
94.01306871249601
 20
165.4785614675952
 30
0.0
 10
93.86681627389851
 20
165.6967876081742
 30
0.0
 10
93.80444779310609
 20
165.8133427180955
 30
0.0
 10
93.65449164153937
 20
166.1741923121292
 30
0.0
 10
93.60133836137258
 20
166.4367908095557
 30
0.0
 10
93.60133836137258
 20
166.8332865971858
 30
0.0
  0
SPLINE
  5
E9
330
1F
100
AcDbEntity
  8
0
  6
HIDDEN
 62
     7
370
     0
100
AcDbSpline
210
0.0
220
0.0
230
1.0
 70
     8
 71
     3
 72
    12
 73
     8
 74
     0
 42
0.00000001
 43
0.00000001
 12
1.0
 22
0.0
 32
0.0
 13
1.0
 23
0.0
 33
0.0
 40
0.0
 40
0.0
 40
0.0
 40
0.0
 40
0.2499999999999994
 40
0.2499999999999994
 40
0.4999999999999989
 40
0.4999999999999989
 40
1.0
 40
1.0
 40
1.0
 40
1.0
 10
94.12909517493902
 20
157.3130549033063
 30
0.0
 10
94.06601513644566
 20
157.3130549033063
 30
0.0
 10
94.00686651426429
 20
157.2876905840913
 30
0.0
 10
93.90839396419524
 20
157.2135257237184
 30
0.0
 10
93.8693573522105
 20
157.1670053831643
 30
0.0
 10
93.76946088543153
 20
157.0168630403191
 30
0.0
 10
93.72704000436474
 20
156.9051698333469
 30
0.0
 10
93.69608247304684
 20
156.7917520139572
 30
0.0
  0
LINE
  5
EA
330
1F
100
AcDbEntity
  8
0
  6
HIDDEN
 62
     7
370
     0
100
AcDbLine
 10
97.0735815478
 20
157.3130549033
 30
0.0
 11
94.1290951749
 21
157.3130549033
 31
0.0
  0
SPLINE
  5
EB
330
1F
100
AcDbEntity
  8
0
  6
HIDDEN
 62
     7
370
     0
100
AcDbSpline
210
0.0
220
0.0
230
1.0
 70
     8
 71
     3
 72
    12
 73
     8
 74
     0
 42
0.00000001
 43
0.00000001
 12
1.0
 22
0.0
 32
0.0
 13
1.0
 23
0.0
 33
0.0
 40
0.0
 40
0.0
 40
0.0
 40
0.0
 40
0.5000000000000029
 40
0.5000000000000029
 40
0.7500000000000014
 40
0.7500000000000014
 40
1.0
 40
1.0
 40
1.0
 40
1.0
 10
97.50659424969832
 20
156.7917520139572
 30
0.0
 10
97.47587200777927
 20
156.9043078133664
 30
0.0
 10
97.43303479324399
 20
157.0170656731059
 30
0.0
 10
97.33360776904426
 20
157.1666065589023
 30
0.0
 10
97.29385557422758
 20
157.2138992906091
 30
0.0
 10
97.19581411736938
 20
157.2876355839306
 30
0.0
 10
97.13625806178196
 20
157.3130549033063
 30
0.0
 10
97.07358154780614
 20
157.3130549033063
 30
0.0
  0
ELLIPSE
  5
EC
330
1F
100
AcDbEntity
  8
0
  6
HIDDEN
 62
     7
370
     0
100
AcDbEllipse
 10
81.254184172
 20
166.7011213346
 30
0.0
 11
-14.75368316065608
 21
31.09325491558119
 31
0.0
210
0.0
220
0.0
230
1.0
 40
0.3419987131
 41
3.300734856217131
 42
4.23149622336078
  0
SPLINE
  5
ED
330
1F
100
AcDbEntity
  8
0
  6
HIDDEN
 62
     7
370
     0
100
AcDbSpline
210
0.0
220
0.0
230
1.0
 70
     8
 71
     3
 72
    12
 73
     8
 74
     0
 42
0.00000001
 43
0.00000001
 12
1.0
 22
0.0
 32
0.0
 13
1.0
 23
0.0
 33
0.0
 40
0.0
 40
0.0
 40
0.0
 40
0.0
 40
0.2500000000000009
 40
0.2500000000000009
 40
0.5000000000000018
 40
0.5000000000000018
 40
1.0
 40
1.0
 40
1.0
 40
1.0
 10
97.07358154780614
 20
136.6326293757692
 30
0.0
 10
97.1366615862995
 20
136.6326293757692
 30
0.0
 10
97.19581020848085
 20
136.6405353019818
 30
0.0
 10
97.29428275854995
 20
136.663860463418
 30
0.0
 10
97.33331937053462
 20
136.6785732532497
 30
0.0
 10
97.43321583731374
 20
136.7265290539806
 30
0.0
 10
97.4756367183803
 20
136.7627912105607
 30
0.0
 10
97.50659424969832
 20
136.8003788745252
 30
0.0
  0
LINE
  5
EE
330
1F
100
AcDbEntity
  8
0
  6
HIDDEN
 62
     7
370
     0
100
AcDbLine
 10
94.1290951749
 20
136.6326293758
 30
0.0
 11
97.0735815478
 21
136.6326293758
 31
0.0
  0
SPLINE
  5
EF
330
1F
100
AcDbEntity
  8
0
  6
HIDDEN
 62
     7
370
     0
100
AcDbSpline
210
0.0
220
0.0
230
1.0
 70
     8
 71
     3
 72
    12
 73
     8
 74
     0
 42
0.00000001
 43
0.00000001
 12
1.0
 22
0.0
 32
0.0
 13
1.0
 23
0.0
 33
0.0
 40
0.0
 40
0.0
 40
0.0
 40
0.0
 40
0.4999999999999981
 40
0.4999999999999981
 40
0.749999999999999
 40
0.749999999999999
 40
1.0
 40
1.0
 40
1.0
 40
1.0
 10
93.69608247304684
 20
136.8003788745252
 30
0.0
 10
93.72680471496597
 20
136.7630768915721
 30
0.0
 10
93.76964192950106
 20
136.7264650595258
 30
0.0
 10
93.86906895370092
 20
136.6787002762406
 30
0.0
 10
93.90882114851755
 20
136.6637427607582
 30
0.0
 10
94.00686260537579
 20
136.640552814989
 30
0.0
 10
94.0664186609632
 20
136.6326293757693
 30
0.0
 10
94.12909517493902
 20
136.6326293757693
 30
0.0
  0
ELLIPSE
  5
F0
330
1F
100
AcDbEntity
  8
0
  6
HIDDEN
 62
     7
370
     0
100
AcDbEllipse
 10
109.9484925507
 20
166.7011213346
 30
0.0
 11
14.75368316065611
 21
31.09325491558118
 31
0.0
210
0.0
220
0.0
230
1.0
 40
0.3419987131
 41
2.05168908381882
 42
2.982450450962499
  0
SPLINE
  5
F1
330
1F
100
AcDbEntity
  8
0
  6
HIDDEN
 62
     7
370
     0
100
AcDbSpline
210
0.0
220
0.0
230
1.0
 70
     8
 71
     3
 72
    12
 73
     8
 74
     0
 42
0.00000001
 43
0.00000001
 12
1.0
 22
0.0
 32
0.0
 13
1.0
 23
0.0
 33
0.0
 40
0.0
 40
0.0
 40
0.0
 40
0.0
 40
0.25
 40
0.25
 40
0.5
 40
0.5
 40
1.0
 40
1.0
 40
1.0
 40
1.0
 10
94.12909517493902
 20
196.7696132935157
 30
0.0
 10
94.06601513644566
 20
196.7696132935157
 30
0.0
 10
94.00686651426432
 20
196.7617073673032
 30
0.0
 10
93.90839396419526
 20
196.7383822058669
 30
0.0
 10
93.86935735221051
 20
196.7236694160352
 30
0.0
 10
93.76946088543153
 20
196.6757136153043
 30
0.0
 10
93.72704000436477
 20
196.6394514587243
 30
0.0
 10
93.69608247304684
 20
196.6018637947598
 30
0.0
  0
LINE
  5
F2
330
1F
100
AcDbEntity
  8
0
  6
HIDDEN
 62
     7
370
     0
100
AcDbLine
 10
97.0735815478
 20
196.7696132935
 30
0.0
 11
94.1290951749
 21
196.7696132935
 31
0.0
  0
SPLINE
  5
F3
330
1F
100
AcDbEntity
  8
0
  6
HIDDEN
 62
     7
370
     0
100
AcDbSpline
210
0.0
220
0.0
230
1.0
 70
     8
 71
     3
 72
    12
 73
     8
 74
     0
 42
0.00000001
 43
0.00000001
 12
1.0
 22
0.0
 32
0.0
 13
1.0
 23
0.0
 33
0.0
 40
0.0
 40
0.0
 40
0.0
 40
0.0
 40
0.5
 40
0.5
 40
0.75
 40
0.75
 40
1.0
 40
1.0
 40
1.0
 40
1.0
 10
97.50659424969832
 20
196.6018637947598
 30
0.0
 10
97.47587200777927
 20
196.6391657777128
 30
0.0
 10
97.43303479324399
 20
196.6757776097592
 30
0.0
 10
97.33360776904426
 20
196.7235423930444
 30
0.0
 10
97.29385557422758
 20
196.7384999085267
 30
0.0
 10
97.19581411736938
 20
196.7616898542959
 30
0.0
 10
97.13625806178197
 20
196.7696132935157
 30
0.0
 10
97.07358154780614
 20
196.7696132935157
 30
0.0
  0
ELLIPSE
  5
F4
330
1F
100
AcDbEntity
  8
0
  6
HIDDEN
 62
     7
370
     0
100
AcDbEllipse
 10
81.254184172
 20
166.7011213346
 30
0.0
 11
14.75368316065621
 21
31.09325491558119
 31
0.0
210
0.0
220
0.0
230
1.0
 40
0.3419987131
 41
5.193281737408636
 42
6.12404310455234
  0
SPLINE
  5
F5
330
1F
100
AcDbEntity
  8
0
  6
HIDDEN
 62
     7
370
     0
100
AcDbSpline
210
0.0
220
0.0
230
1.0
 70
     8
 71
     3
 72
    12
 73
     8
 74
     0
 42
0.00000001
 43
0.00000001
 12
1.0
 22
0.0
 32
0.0
 13
1.0
 23
0.0
 33
0.0
 40
0.0
 40
0.0
 40
0.0
 40
0.0
 40
0.2500000000000014
 40
0.2500000000000014
 40
0.5000000000000029
 40
0.5000000000000029
 40
1.0
 40
1.0
 40
1.0
 40
1.0
 10
97.07358154780614
 20
176.0891877659789
 30
0.0
 10
97.13666158629951
 20
176.0891877659789
 30
0.0
 10
97.19581020848085
 20
176.1145520851939
 30
0.0
 10
97.29428275854995
 20
176.1887169455668
 30
0.0
 10
97.33331937053462
 20
176.2352372861209
 30
0.0
 10
97.43321583731374
 20
176.3853796289661
 30
0.0
 10
97.4756367183803
 20
176.4970728359383
 30
0.0
 10
97.50659424969832
 20
176.610490655328
 30
0.0
  0
LINE
  5
F6
330
1F
100
AcDbEntity
  8
0
  6
HIDDEN
 62
     7
370
     0
100
AcDbLine
 10
94.1290951749
 20
176.089187766
 30
0.0
 11
97.0735815478
 21
176.089187766
 31
0.0
  0
SPLINE
  5
F7
330
1F
100
AcDbEntity
  8
0
  6
HIDDEN
 62
     7
370
     0
100
AcDbSpline
210
0.0
220
0.0
230
1.0
 70
     8
 71
     3
 72
    12
 73
     8
 74
     0
 42
0.00000001
 43
0.00000001
 12
1.0
 22
0.0
 32
0.0
 13
1.0
 23
0.0
 33
0.0
 40
0.0
 40
0.0
 40
0.0
 40
0.0
 40
0.4999999999999982
 40
0.4999999999999982
 40
0.7499999999999991
 40
0.7499999999999991
 40
1.0
 40
1.0
 40
1.0
 40
1.0
 10
93.69608247304684
 20
176.610490655328
 30
0.0
 10
93.72680471496598
 20
176.4979348559188
 30
0.0
 10
93.76964192950108
 20
176.3851769961793
 30
0.0
 10
93.86906895370093
 20
176.235636110383
 30
0.0
 10
93.90882114851755
 20
176.1883433786761
 30
0.0
 10
94.0068626053758
 20
176.1146070853547
 30
0.0
 10
94.0664186609632
 20
176.0891877659789
 30
0.0
 10
94.12909517493902
 20
176.0891877659789
 30
0.0
  0
ELLIPSE
  5
F8
330
1F
100
AcDbEntity
  8
0
  6
HIDDEN
 62
     7
370
     0
100
AcDbEllipse
 10
109.9484925507
 20
166.7011213346
 30
0.0
 11
-14.75368316065624
 21
31.09325491558118
 31
0.0
210
0.0
220
0.0
230
1.0
 40
0.3419987131
 41
0.1591422026272805
 42
1.089903569770962
  0
LINE
  5
F9
330
1F
100
AcDbEntity
  8
0
  6
HIDDEN
 62
     7
370
     0
100
AcDbLine
 10
83.6013383614
 20
197.7011213334
 30
0.0
 11
83.6013383614
 21
135.7011213346
 31
0.0
  0
LINE
  5
FA
330
1F
100
AcDbEntity
  8
0
  6
HIDDEN
 62
     7
370
     0
100
AcDbLine
 10
105.6013383614
 20
136.2011213346
 30
0.0
 11
105.6013383614
 21
197.2011213074
 31
0.0
  0
LINE
  5
FB
330
1F
100
AcDbEntity
  8
0
  6
HIDDEN
 62
     7
370
     0
100
AcDbLine
 10
83.6013383614
 20
142.4511213346
 30
0.0
 11
83.6013383614
 21
190.9209766742
 31
0.0
  0
SPLINE
  5
FC
330
1F
100
AcDbEntity
  8
0
  6
HIDDEN
 62
     7
370
     0
100
AcDbSpline
210
0.0
220
0.0
230
1.0
 70
     8
 71
     3
 72
    12
 73
     8
 74
     0
 42
0.00000001
 43
0.00000001
 12
1.0
 22
0.0
 32
0.0
 13
1.0
 23
0.0
 33
0.0
 40
0.0
 40
0.0
 40
0.0
 40
0.0
 40
0.5000000000000003
 40
0.5000000000000003
 40
0.7500000000000001
 40
0.7500000000000001
 40
1.0
 40
1.0
 40
1.0
 40
1.0
 10
82.78482607492558
 20
182.1533893164733
 30
0.0
 10
82.84123225360582
 20
182.1055669428135
 30
0.0
 10
82.91139515507754
 20
182.065296095875
 30
0.0
 10
83.02940586846672
 20
182.057250227398
 30
0.0
 10
83.06961165206218
 20
182.0638128257368
 30
0.0
 10
83.14333234879524
 20
182.0911949201905
 30
0.0
 10
83.17619307058177
 20
182.1109564107208
 30
0.0
 10
83.20636147251105
 20
182.1338891219089
 30
0.0
  0
SPLINE
  5
FD
330
1F
100
AcDbEntity
  8
0
  6
HIDDEN
 62
     7
370
     0
100
AcDbSpline
210
0.0
220
0.0
230
1.0
 70
     8
 71
     3
 72
    16
 73
    12
 74
     0
 42
0.00000001
 43
0.00000001
 12
1.0
 22
0.0
 32
0.0
 13
1.0
 23
0.0
 33
0.0
 40
0.0
 40
0.0
 40
0.0
 40
0.0
 40
0.0624999999999965
 40
0.0624999999999965
 40
0.1249999999999931
 40
0.1249999999999931
 40
0.2499999999999879
 40
0.2499999999999879
 40
0.499999999999992
 40
0.499999999999992
 40
1.0
 40
1.0
 40
1.0
 40
1.0
 10
83.2063614724659
 20
182.133889121957
 30
0.0
 10
83.21797437230526
 20
182.1427167449384
 30
0.0
 10
83.23132555673774
 20
182.1505511268203
 30
0.0
 10
83.26072539635693
 20
182.1588612528927
 30
0.0
 10
83.27556612091225
 20
182.1583654336576
 30
0.0
 10
83.31139932888085
 20
182.1469144626883
 30
0.0
 10
83.32551253670243
 20
182.1302339618296
 30
0.0
 10
83.36000390792132
 20
182.0781132760726
 30
0.0
 10
83.37108797903173
 20
182.0383237820476
 30
0.0
 10
83.39721079682772
 20
181.9149871499504
 30
0.0
 10
83.4013383613726
 20
181.8275657394518
 30
0.0
 10
83.4013383613726
 20
181.7388284971336
 30
0.0
  0
LINE
  5
FE
330
1F
100
AcDbEntity
  8
0
  6
HIDDEN
 62
     7
370
     0
100
AcDbLine
 10
83.4013383614
 20
151.6634141722
 30
0.0
 11
83.4013383614
 21
181.7388284971
 31
0.0
  0
SPLINE
  5
FF
330
1F
100
AcDbEntity
  8
0
  6
HIDDEN
 62
     7
370
     0
100
AcDbSpline
210
0.0
220
0.0
230
1.0
 70
     8
 71
     3
 72
    16
 73
    12
 74
     0
 42
0.00000001
 43
0.00000001
 12
1.0
 22
0.0
 32
0.0
 13
1.0
 23
0.0
 33
0.0
 40
0.0
 40
0.0
 40
0.0
 40
0.0
 40
0.500000000000006
 40
0.500000000000006
 40
0.7500000000000039
 40
0.7500000000000039
 40
0.875000000000006
 40
0.875000000000006
 40
0.937500000000003
 40
0.937500000000003
 40
1.0
 40
1.0
 40
1.0
 40
1.0
 10
83.4013383613726
 20
151.6634141721512
 30
0.0
 10
83.4013383613726
 20
151.5742878069625
 30
0.0
 10
83.39719208629465
 20
151.4874264393491
 30
0.0
 10
83.37122649090112
 20
151.364444192855
 30
0.0
 10
83.35976558552368
 20
151.3236728976237
 30
0.0
 10
83.32545384774936
 20
151.271968577624
 30
0.0
 10
83.31142911181969
 20
151.2552982110336
 30
0.0
 10
83.27540614878595
 20
151.2438459905768
 30
0.0
 10
83.26065163969622
 20
151.2433929443018
 30
0.0
 10
83.23129947854937
 20
151.2517082655179
 30
0.0
 10
83.21795960404528
 20
151.2595371505962
 30
0.0
 10
83.20636147249694
 20
151.2683535473589
 30
0.0
  0
SPLINE
  5
100
330
1F
100
AcDbEntity
  8
0
  6
HIDDEN
 62
     7
370
     0
100
AcDbSpline
210
0.0
220
0.0
230
1.0
 70
     8
 71
     3
 72
    12
 73
     8
 74
     0
 42
0.00000001
 43
0.00000001
 12
1.0
 22
0.0
 32
0.0
 13
1.0
 23
0.0
 33
0.0
 40
0.0
 40
0.0
 40
0.0
 40
0.0
 40
0.2499999999999998
 40
0.2499999999999998
 40
0.4999999999999999
 40
0.4999999999999999
 40
1.0
 40
1.0
 40
1.0
 40
1.0
 10
83.20636147250399
 20
151.2683535473678
 30
0.0
 10
83.17616963078677
 20
151.2913040764656
 30
0.0
 10
83.14281066137218
 20
151.3112735504898
 30
0.0
 10
83.06967337679158
 20
151.3383746841153
 30
0.0
 10
83.0294315041376
 20
151.3449754247607
 30
0.0
 10
82.91172572716911
 20
151.337006550254
 30
0.0
 10
82.84131524938972
 20
151.2967460920861
 30
0.0
 10
82.78482607492141
 20
151.248853352808
 30
0.0
  0
SPLINE
  5
101
330
1F
100
AcDbEntity
  8
0
  6
HIDDEN
 62
     7
370
     0
100
AcDbSpline
210
0.0
220
0.0
230
1.0
 70
     8
 71
     3
 72
    12
 73
     8
 74
     0
 42
0.00000001
 43
0.00000001
 12
1.0
 22
0.0
 32
0.0
 13
1.0
 23
0.0
 33
0.0
 40
0.0
 40
0.0
 40
0.0
 40
0.0
 40
0.2500000000000011
 40
0.2500000000000011
 40
0.4999999999999994
 40
0.4999999999999994
 40
1.0
 40
1.0
 40
1.0
 40
1.0
 10
82.78482607492097
 20
151.2488533528082
 30
0.0
 10
82.69667213718326
 20
151.1741145449541
 30
0.0
 10
82.63631871255454
 20
151.0831340444717
 30
0.0
 10
82.53005675448772
 20
150.8942202217192
 30
0.0
 10
82.48782458792564
 20
150.7977157621786
 30
0.0
 10
82.37675389260849
 20
150.5069480080114
 30
0.0
 10
82.3238171161817
 20
150.3112811934677
 30
0.0
 10
82.28001801781292
 20
150.1172147084014
 30
0.0
  0
SPLINE
  5
102
330
1F
100
AcDbEntity
  8
0
  6
HIDDEN
 62
     7
370
     0
100
AcDbSpline
210
0.0
220
0.0
230
1.0
 70
     8
 71
     3
 72
    12
 73
     8
 74
     0
 42
0.00000001
 43
0.00000001
 12
1.0
 22
0.0
 32
0.0
 13
1.0
 23
0.0
 33
0.0
 40
0.0
 40
0.0
 40
0.0
 40
0.0
 40
0.4999999999999991
 40
0.4999999999999991
 40
0.7499999999999996
 40
0.7499999999999996
 40
1.0
 40
1.0
 40
1.0
 40
1.0
 10
82.2800180178129
 20
144.9310403796403
 30
0.0
 10
82.3237645586495
 20
144.9044462089991
 30
0.0
 10
82.376648913881
 20
144.8846859836734
 30
0.0
 10
82.48821600121715
 20
144.8642349934443
 30
0.0
 10
82.53079959776012
 20
144.8589747687878
 30
0.0
 10
82.63571632484191
 20
144.8510919748652
 30
0.0
 10
82.69724993268672
 20
144.848527849686
 30
0.0
 10
82.78482607491284
 20
144.8463276321664
 30
0.0
  0
LINE
  5
103
330
1F
100
AcDbEntity
  8
0
  6
HIDDEN
 62
     7
370
     0
100
AcDbLine
 10
83.4013383614
 20
144.1613010558
 30
0.0
 11
83.4013383614
 21
144.6415268464
 31
0.0
  0
LINE
  5
104
330
1F
100
AcDbEntity
  8
0
  6
HIDDEN
 62
     7
370
     0
100
AcDbLine
 10
83.4013383614
 20
188.7607158229
 30
0.0
 11
83.4013383614
 21
189.2409416135
 31
0.0
  0
SPLINE
  5
105
330
1F
100
AcDbEntity
  8
0
  6
HIDDEN
 62
     7
370
     0
100
AcDbSpline
210
0.0
220
0.0
230
1.0
 70
     8
 71
     3
 72
    12
 73
     8
 74
     0
 42
0.00000001
 43
0.00000001
 12
1.0
 22
0.0
 32
0.0
 13
1.0
 23
0.0
 33
0.0
 40
0.0
 40
0.0
 40
0.0
 40
0.0
 40
0.25
 40
0.25
 40
0.5000000000000001
 40
0.5000000000000001
 40
1.0
 40
1.0
 40
1.0
 40
1.0
 10
82.78482607492084
 20
188.5559150371183
 30
0.0
 10
82.69614141506449
 20
188.5536869697773
 30
0.0
 10
82.63622299934109
 20
188.551185185747
 30
0.0
 10
82.53056377202036
 20
188.543253749911
 30
0.0
 10
82.48792253390539
 20
188.5379615950142
 30
0.0
 10
82.37673319180286
 20
188.517556654527
 30
0.0
 10
82.32380650968189
 20
188.4978219629402
 30
0.0
 10
82.28001801781292
 20
188.4712022896445
 30
0.0
  0
SPLINE
  5
106
330
1F
100
AcDbEntity
  8
0
  6
HIDDEN
 62
     7
370
     0
100
AcDbSpline
210
0.0
220
0.0
230
1.0
 70
     8
 71
     3
 72
    12
 73
     8
 74
     0
 42
0.00000001
 43
0.00000001
 12
1.0
 22
0.0
 32
0.0
 13
1.0
 23
0.0
 33
0.0
 40
0.0
 40
0.0
 40
0.0
 40
0.0
 40
0.5000000000000042
 40
0.5000000000000042
 40
0.7500000000000036
 40
0.7500000000000036
 40
1.0
 40
1.0
 40
1.0
 40
1.0
 10
82.28001801781133
 20
183.2850279608836
 30
0.0
 10
82.32377949411008
 20
183.0911281729216
 30
0.0
 10
82.3766858097631
 20
182.8952718089847
 30
0.0
 10
82.48839700741048
 20
182.6031296624858
 30
0.0
 10
82.53091645099686
 20
182.5064117257878
 30
0.0
 10
82.63603979356427
 20
182.3196872893633
 30
0.0
 10
82.69760575728195
 20
182.2273365810936
 30
0.0
 10
82.78482607492468
 20
182.1533893164739
 30
0.0
  0
LINE
  5
107
330
1F
100
AcDbEntity
  8
0
  6
HIDDEN
 62
     7
370
     0
100
AcDbLine
 10
105.6013383614
 20
142.7011213346
 30
0.0
 11
105.6013383614
 21
190.6712874439
 31
0.0
  0
LINE
  5
108
330
1F
100
AcDbEntity
  8
0
  6
HIDDEN
 62
     7
370
     0
100
AcDbLine
 10
83.4013383614
 20
144.6415268464
 30
0.0
 11
83.4013383614
 21
159.6792340089
 31
0.0
  0
LINE
  5
109
330
1F
100
AcDbEntity
  8
0
  6
HIDDEN
 62
     7
370
     0
100
AcDbLine
 10
83.4013383614
 20
173.7230086604
 30
0.0
 11
83.4013383614
 21
188.7607158229
 31
0.0
  0
SPLINE
  5
10A
330
1F
100
AcDbEntity
  8
0
  6
HIDDEN
 62
     7
370
     0
100
AcDbSpline
210
0.0
220
0.0
230
1.0
 70
     8
 71
     3
 72
    70
 73
    66
 74
     0
 42
0.00000001
 43
0.00000001
 12
1.0
 22
0.0
 32
0.0
 13
1.0
 23
0.0
 33
0.0
 40
-0.0312500000000001
 40
-0.0312500000000001
 40
0.0
 40
0.0
 40
0.03125
 40
0.03125
 40
0.0624999999999999
 40
0.0624999999999999
 40
0.0937499999999999
 40
0.0937499999999999
 40
0.1249999999999999
 40
0.1249999999999999
 40
0.1562499999999998
 40
0.1562499999999998
 40
0.1874999999999998
 40
0.1874999999999998
 40
0.2187499999999998
 40
0.2187499999999998
 40
0.2499999999999997
 40
0.2499999999999997
 40
0.2812499999999997
 40
0.2812499999999997
 40
0.3124999999999997
 40
0.3124999999999997
 40
0.3437499999999996
 40
0.3437499999999996
 40
0.3749999999999996
 40
0.3749999999999996
 40
0.4062499999999996
 40
0.4062499999999996
 40
0.4374999999999995
 40
0.4374999999999995
 40
0.4687499999999995
 40
0.4687499999999995
 40
0.4999999999999994
 40
0.4999999999999994
 40
0.5312499999999994
 40
0.5312499999999994
 40
0.5624999999999993
 40
0.5624999999999993
 40
0.5937499999999993
 40
0.5937499999999993
 40
0.6249999999999993
 40
0.6249999999999993
 40
0.6562499999999992
 40
0.6562499999999992
 40
0.6874999999999992
 40
0.6874999999999992
 40
0.7187499999999993
 40
0.7187499999999993
 40
0.7499999999999993
 40
0.7499999999999993
 40
0.7812499999999994
 40
0.7812499999999994
 40
0.8124999999999996
 40
0.8124999999999996
 40
0.8437499999999997
 40
0.8437499999999997
 40
0.8749999999999997
 40
0.8749999999999997
 40
0.9062499999999998
 40
0.9062499999999998
 40
0.9374999999999999
 40
0.9374999999999999
 40
0.9687499999999999
 40
0.9687499999999999
 40
1.0
 40
1.0
 40
1.03125
 40
1.03125
 10
220.4028436892041
 20
175.8967713112641
 30
0.0
 10
220.799833033541
 20
175.8967713112641
 30
0.0
 10
220.9949538967047
 20
175.9143072748802
 30
0.0
 10
221.3787416296182
 20
175.9827706392102
 30
0.0
 10
221.5694183386098
 20
176.0345438370668
 30
0.0
 10
221.9325788565553
 20
176.1688308872403
 30
0.0
 10
222.1047768462622
 20
176.2507240786464
 30
0.0
 10
222.4306676700111
 20
176.4429259618188
 30
0.0
 10
222.5847489831114
 20
176.5540857780163
 30
0.0
 10
222.8610365112465
 20
176.7949808988716
 30
0.0
 10
222.9851186064905
 20
176.9256226394141
 30
0.0
 10
223.2044411502273
 20
177.2069689207559
 30
0.0
 10
223.2974663791563
 20
177.3552443469534
 30
0.0
 10
223.4471788644286
 20
177.6593957002436
 30
0.0
 10
223.5049272915059
 20
177.8175219445898
 30
0.0
 10
223.5821032291131
 20
178.1375878967819
 30
0.0
 10
223.6012269990267
 20
178.2969128970134
 30
0.0
 10
223.6014487631366
 20
178.6139930525697
 30
0.0
 10
223.5819094074088
 20
178.7733146460589
 30
0.0
 10
223.5052602434767
 20
179.0781275743574
 30
0.0
 10
223.4485510807927
 20
179.2246703505236
 30
0.0
 10
223.2980885020253
 20
179.5065154114389
 30
0.0
 10
223.2042773328912
 20
179.6409031931505
 30
0.0
 10
222.9872970462454
 20
179.8876697742866
 30
0.0
 10
222.8630948654021
 20
180.0018158471746
 30
0.0
 10
222.5836164421359
 20
180.2105389348685
 30
0.0
 10
222.4324210711179
 20
180.3021666189607
 30
0.0
 10
222.1078527074609
 20
180.4618925167391
 30
0.0
 10
221.9323551841807
 20
180.5305342025327
 30
0.0
 10
221.5693771282157
 20
180.6399715267307
 30
0.0
 10
221.382393195389
 20
180.6810623573114
 30
0.0
 10
220.9974299974391
 20
180.7366432554284
 30
0.0
 10
220.7984104775988
 20
180.7508188343753
 30
0.0
 10
220.4065756882696
 20
180.7509274007117
 30
0.0
 10
220.2116605435841
 20
180.7373172946238
 30
0.0
 10
219.8238861662477
 20
180.6818280647242
 30
0.0
 10
219.6347995522217
 20
180.6402869474448
 30
0.0
 10
219.2736392823755
 20
180.531669498095
 30
0.0
 10
219.0988250260071
 20
180.4636768650954
 30
0.0
 10
218.7713398024221
 20
180.3028819238393
 30
0.0
 10
218.6204238564654
 20
180.2112805809408
 30
0.0
 10
218.3436221069899
 20
180.0051045908908
 30
0.0
 10
218.2169225546116
 20
179.8892251442907
 30
0.0
 10
217.9992197039394
 20
179.6420332730981
 30
0.0
 10
217.9068926736009
 20
179.510111035107
 30
0.0
 10
217.7557760162544
 20
179.2284642061171
 30
0.0
 10
217.6979076976804
 20
179.0794283060642
 30
0.0
 10
217.6212167595399
 20
178.7757467013509
 30
0.0
 10
217.6015072454705
 20
178.6192877951789
 30
0.0
 10
217.6011716258042
 20
178.2984726671716
 30
0.0
 10
217.6204733293278
 20
178.1389356912964
 30
0.0
 10
217.6965172769625
 20
177.8217157225135
 30
0.0
 10
217.7542404221558
 20
177.6623102232957
 30
0.0
 10
217.90449917167
 20
177.3563338689277
 30
0.0
 10
217.9964937789088
 20
177.2096646395516
 30
0.0
 10
218.2140718479782
 20
176.9296444037185
 30
0.0
 10
218.3403929260232
 20
176.7962208410635
 30
0.0
 10
218.6164030752029
 20
176.5552642219554
 30
0.0
 10
218.7671782856
 20
176.4460864748858
 30
0.0
 10
219.0952079329049
 20
176.2520073218512
 30
0.0
 10
219.2688840549345
 20
176.1694435914304
 30
0.0
 10
219.6296200162421
 20
176.0357275280796
 30
0.0
 10
219.8190541870138
 20
175.9838232395477
 30
0.0
 10
220.2067016845555
 20
175.9143102810176
 30
0.0
 10
220.4028436892041
 20
175.8967713112641
 30
0.0
 10
220.799833033541
 20
175.8967713112641
 30
0.0
  0
CIRCLE
  5
10B
330
1F
100
AcDbEntity
  8
0
  6
HIDDEN
 62
     7
370
     0
100
AcDbCircle
 10
68.1013383614
 20
166.7011213346
 30
0.0
 40
4.049999999999983
  0
LINE
  5
10C
330
1F
100
AcDbEntity
  8
0
  6
HIDDEN
 62
     7
370
     0
100
AcDbLine
 10
47.131566801
 20
182.0140723776
 30
0.0
 11
47.131566801
 21
151.3881702917
 31
0.0
  0
LINE
  5
10D
330
1F
100
AcDbEntity
  8
0
  6
HIDDEN
 62
     7
370
     0
100
AcDbLine
 10
45.6013383614
 20
150.5046924902
 30
0.0
 11
45.6013383614
 21
182.866830878
 31
0.0
  0
LINE
  5
10E
330
1F
100
AcDbEntity
  8
0
  6
HIDDEN
 62
     7
370
     0
100
AcDbLine
 10
53.631566801
 20
181.0475314962
 30
0.0
 11
53.631566801
 21
152.3547111731
 31
0.0
  0
LINE
  5
10F
330
1F
100
AcDbEntity
  8
0
  6
HIDDEN
 62
     7
370
     0
100
AcDbLine
 10
59.431566801
 20
180.7011213346
 30
0.0
 11
59.431566801
 21
152.7011213346
 31
0.0
  0
LINE
  5
110
330
1F
100
AcDbEntity
  8
0
  6
HIDDEN
 62
     7
370
     0
100
AcDbLine
 10
52.031566801
 20
180.7011213346
 30
0.0
 11
52.031566801
 21
152.7011213346
 31
0.0
  0
SPLINE
  5
111
330
1F
100
AcDbEntity
  8
0
  6
HIDDEN
 62
     7
370
     0
100
AcDbSpline
210
0.0
220
0.0
230
1.0
 70
     8
 71
     3
 72
    60
 73
    56
 74
     0
 42
0.00000001
 43
0.00000001
 12
1.0
 22
0.0
 32
0.0
 13
1.0
 23
0.0
 33
0.0
 40
-0.0312499999999991
 40
-0.0312499999999991
 40
0.0
 40
0.0
 40
0.0312500000000026
 40
0.0312500000000026
 40
0.0625000000000052
 40
0.0625000000000052
 40
0.1250000000000104
 40
0.1250000000000104
 40
0.1562500000000112
 40
0.1562500000000112
 40
0.1875000000000121
 40
0.1875000000000121
 40
0.2187500000000129
 40
0.2187500000000129
 40
0.2500000000000138
 40
0.2500000000000138
 40
0.3125000000000155
 40
0.3125000000000155
 40
0.3750000000000172
 40
0.3750000000000172
 40
0.4062500000000163
 40
0.4062500000000163
 40
0.4375000000000154
 40
0.4375000000000154
 40
0.4687500000000145
 40
0.4687500000000145
 40
0.5000000000000135
 40
0.5000000000000135
 40
0.5312500000000127
 40
0.5312500000000127
 40
0.5625000000000119
 40
0.5625000000000119
 40
0.6250000000000101
 40
0.6250000000000101
 40
0.6562500000000092
 40
0.6562500000000092
 40
0.6875000000000084
 40
0.6875000000000084
 40
0.7187500000000075
 40
0.7187500000000075
 40
0.7500000000000067
 40
0.7500000000000067
 40
0.7812500000000059
 40
0.7812500000000059
 40
0.812500000000005
 40
0.812500000000005
 40
0.8750000000000033
 40
0.8750000000000033
 40
0.9062500000000026
 40
0.9062500000000026
 40
0.9375000000000017
 40
0.9375000000000017
 40
0.9687500000000009
 40
0.9687500000000009
 40
1.0
 40
1.0
 40
1.031250000000003
 40
1.031250000000003
 10
220.4318107648021
 20
162.6584010404483
 30
0.0
 10
220.7708659579431
 20
162.6584010404483
 30
0.0
 10
220.9364638056507
 20
162.6648052705508
 30
0.0
 10
221.2605838823234
 20
162.6907410512471
 30
0.0
 10
221.420393946649
 20
162.7106688715028
 30
0.0
 10
221.8697355491904
 20
162.7918304055179
 30
0.0
 10
222.1394182889658
 20
162.875925038351
 30
0.0
 10
222.4776030777232
 20
163.0574697723281
 30
0.0
 10
222.5811695113471
 20
163.128355015368
 30
0.0
 10
222.761620973647
 20
163.2892233885088
 30
0.0
 10
222.8387429399095
 20
163.3788683232032
 30
0.0
 10
222.9661608247166
 20
163.5799475315116
 30
0.0
 10
223.0166250175177
 20
163.6930380406338
 30
0.0
 10
223.0834664302002
 20
163.9330656786044
 30
0.0
 10
223.1007846317492
 20
164.060698525304
 30
0.0
 10
223.1024070236825
 20
164.4682019235122
 30
0.0
 10
223.0339190531388
 20
164.7638451725365
 30
0.0
 10
222.7798687467681
 20
165.3372443154644
 30
0.0
 10
222.5952858474127
 20
165.6154516926759
 30
0.0
 10
222.2579173769896
 20
165.9795324084192
 30
0.0
 10
222.1339282080228
 20
166.0935754152031
 30
0.0
 10
221.8677594628053
 20
166.2980530320114
 30
0.0
 10
221.7272227819814
 20
166.3875361725533
 30
0.0
 10
221.4295644466833
 20
166.5376242935976
 30
0.0
 10
221.2700970691409
 20
166.5987046407774
 30
0.0
 10
220.9444796850073
 20
166.6810186441017
 30
0.0
 10
220.7785127026202
 20
166.7028210452221
 30
0.0
 10
220.4396794565571
 20
166.7041212116445
 30
0.0
 10
220.2726887777219
 20
166.6834262871096
 30
0.0
 10
219.9470638639311
 20
166.6035149160363
 30
0.0
 10
219.7869326913741
 20
166.5434937556965
 30
0.0
 10
219.3362275320158
 20
166.3194015760654
 30
0.0
 10
219.0659690308648
 20
166.1086320995036
 30
0.0
 10
218.7262543019633
 20
165.7445400217811
 30
0.0
 10
218.6222956580878
 20
165.613034555639
 30
0.0
 10
218.4419865654662
 20
165.3432316612072
 30
0.0
 10
218.3645528568736
 20
165.2040312865882
 30
0.0
 10
218.236304002029
 20
164.9179071842536
 30
0.0
 10
218.1859887111122
 20
164.7708097375962
 30
0.0
 10
218.1192404646208
 20
164.4855419729695
 30
0.0
 10
218.1017669554247
 20
164.3453724443528
 30
0.0
 10
218.1009251728943
 20
164.0707423528049
 30
0.0
 10
218.1176852704262
 20
163.9413956116851
 30
0.0
 10
218.1834374139301
 20
163.6997448244396
 30
0.0
 10
218.2332922747037
 20
163.5861872948419
 30
0.0
 10
218.4242570602711
 20
163.2814530304004
 30
0.0
 10
218.6095531932411
 20
163.1199003766262
 30
0.0
 10
218.9484420940609
 20
162.937355674753
 30
0.0
 10
219.0736240164642
 20
162.8853353482806
 30
0.0
 10
219.3395591524373
 20
162.7994834266143
 30
0.0
 10
219.4804147358363
 20
162.7652820302805
 30
0.0
 10
219.7800813323204
 20
162.710979051852
 30
0.0
 10
219.9404595144549
 20
162.6909102108616
 30
0.0
 10
220.2651966545037
 20
162.6648484410019
 30
0.0
 10
220.4318107648021
 20
162.6584010404483
 30
0.0
 10
220.7708659579431
 20
162.6584010404483
 30
0.0
  0
SPLINE
  5
112
330
1F
100
AcDbEntity
  8
0
  6
HIDDEN
 62
     7
370
     0
100
AcDbSpline
210
0.0
220
0.0
230
1.0
 70
     8
 71
     3
 72
    10
 73
     6
 74
     0
 42
0.00000001
 43
0.00000001
 12
1.0
 22
0.0
 32
0.0
 13
1.0
 23
0.0
 33
0.0
 40
0.0
 40
0.0
 40
0.0
 40
0.0
 40
0.5
 40
0.5
 40
1.0
 40
1.0
 40
1.0
 40
1.0
 10
219.8509304072469
 20
157.2189343923588
 30
0.0
 10
219.8143694719976
 20
157.1170393123935
 30
0.0
 10
219.7886739939622
 20
157.0117033792611
 30
0.0
 10
219.7619545211789
 20
156.7909266923878
 30
0.0
 10
219.7611630306866
 20
156.6761259904222
 30
0.0
 10
219.7717953191384
 20
156.5588681772556
 30
0.0
  0
SPLINE
  5
113
330
1F
100
AcDbEntity
  8
0
  6
HIDDEN
 62
     7
370
     0
100
AcDbSpline
210
0.0
220
0.0
230
1.0
 70
     8
 71
     3
 72
    20
 73
    16
 74
     0
 42
0.00000001
 43
0.00000001
 12
1.0
 22
0.0
 32
0.0
 13
1.0
 23
0.0
 33
0.0
 40
0.0
 40
0.0
 40
0.0
 40
0.0
 40
0.1250000000000002
 40
0.1250000000000002
 40
0.2500000000000003
 40
0.2500000000000003
 40
0.4999999999999999
 40
0.4999999999999999
 40
0.6249999999999999
 40
0.6249999999999999
 40
0.75
 40
0.75
 40
0.875
 40
0.875
 40
1.0
 40
1.0
 40
1.0
 40
1.0
 10
219.7717953191385
 20
156.5588681772552
 30
0.0
 10
219.8897492365482
 20
156.4788696810978
 30
0.0
 10
219.9976415440886
 20
156.4010780999214
 30
0.0
 10
220.2134646371881
 20
156.2552308492606
 30
0.0
 10
220.3203358999822
 20
156.1869279034634
 30
0.0
 10
220.6439282644885
 20
155.9986540472793
 30
0.0
 10
220.865167215876
 20
155.8946699202013
 30
0.0
 10
221.1967148516285
 20
155.7878370552959
 30
0.0
 10
221.3075205328472
 20
155.7601334045874
 30
0.0
 10
221.5301804588957
 20
155.7232020561142
 30
0.0
 10
221.6429897871558
 20
155.713997381646
 30
0.0
 10
221.864665651957
 20
155.7185553563632
 30
0.0
 10
221.9733609367554
 20
155.7320843681941
 30
0.0
 10
222.1858514369069
 20
155.785794319758
 30
0.0
 10
222.2903071344746
 20
155.8264367627157
 30
0.0
 10
222.3887035528885
 20
155.8824368581934
 30
0.0
  0
SPLINE
  5
114
330
1F
100
AcDbEntity
  8
0
  6
HIDDEN
 62
     7
370
     0
100
AcDbSpline
210
0.0
220
0.0
230
1.0
 70
     8
 71
     3
 72
    54
 73
    50
 74
     0
 42
0.00000001
 43
0.00000001
 12
1.0
 22
0.0
 32
0.0
 13
1.0
 23
0.0
 33
0.0
 40
0.0
 40
0.0
 40
0.0
 40
0.0
 40
0.0624999999999974
 40
0.0624999999999974
 40
0.1249999999999948
 40
0.1249999999999948
 40
0.1874999999999922
 40
0.1874999999999922
 40
0.2499999999999896
 40
0.2499999999999896
 40
0.2812499999999882
 40
0.2812499999999882
 40
0.312499999999987
 40
0.312499999999987
 40
0.3281249999999863
 40
0.3281249999999863
 40
0.3437499999999857
 40
0.3437499999999857
 40
0.3749999999999875
 40
0.3749999999999875
 40
0.4374999999999878
 40
0.4374999999999878
 40
0.4999999999999882
 40
0.4999999999999882
 40
0.5624999999999886
 40
0.5624999999999886
 40
0.5937499999999887
 40
0.5937499999999887
 40
0.6249999999999887
 40
0.6249999999999887
 40
0.6562499999999887
 40
0.6562499999999887
 40
0.6874999999999887
 40
0.6874999999999887
 40
0.7187499999999888
 40
0.7187499999999888
 40
0.7499999999999889
 40
0.7499999999999889
 40
0.781249999999989
 40
0.781249999999989
 40
0.8124999999999891
 40
0.8124999999999891
 40
0.8749999999999946
 40
0.8749999999999946
 40
0.9374999999999999
 40
0.9374999999999999
 40
0.96875
 40
0.96875
 40
1.0
 40
1.0
 40
1.0
 40
1.0
 10
223.0558251080603
 20
156.91238511074
 30
0.0
 10
223.1030177126089
 20
157.1550149006705
 30
0.0
 10
223.1112072320236
 20
157.405510016507
 30
0.0
 10
223.0717977788788
 20
157.917994661205
 30
0.0
 10
223.0243089683213
 20
158.1710853509305
 30
0.0
 10
222.8918093094441
 20
158.6633945292098
 30
0.0
 10
222.8053764515492
 20
158.9055867616181
 30
0.0
 10
222.6104765306563
 20
159.3637933749713
 30
0.0
 10
222.5004999699959
 20
159.5822735226213
 30
0.0
 10
222.3308348698943
 20
159.897352419252
 30
0.0
 10
222.2727916101479
 20
160.0009888601409
 30
0.0
 10
222.169550215023
 20
160.2010644776642
 30
0.0
 10
222.121777743712
 20
160.3010886766107
 30
0.0
 10
222.1120119543563
 20
160.420782877169
 30
0.0
 10
222.1200899305236
 20
160.4535530476864
 30
0.0
 10
222.1531132389206
 20
160.5046869174099
 30
0.0
 10
222.1766838220961
 20
160.5228997192577
 30
0.0
 10
222.2558456900549
 20
160.5658196298131
 30
0.0
 10
222.3173628127014
 20
160.5786141594109
 30
0.0
 10
222.4980871446051
 20
160.5976326916244
 30
0.0
 10
222.6174269610976
 20
160.5824825784541
 30
0.0
 10
222.8216851903987
 20
160.5144376346013
 30
0.0
 10
222.9084634480978
 20
160.4608472426418
 30
0.0
 10
223.0402545882079
 20
160.3101333945952
 30
0.0
 10
223.0843896370798
 20
160.2126112519954
 30
0.0
 10
223.1038205163729
 20
160.0334849012892
 30
0.0
 10
223.1025289410476
 20
159.9672728792575
 30
0.0
 10
223.0821165545773
 20
159.8251597226002
 30
0.0
 10
223.0632030973847
 20
159.7494258390572
 30
0.0
 10
223.0060905049937
 20
159.5877398514849
 30
0.0
 10
222.967337885421
 20
159.5010447149171
 30
0.0
 10
222.8724414898304
 20
159.3247238884846
 30
0.0
 10
222.8161299921967
 20
159.2342850050426
 30
0.0
 10
222.6852429441079
 20
159.0488066915347
 30
0.0
 10
222.6109780374583
 20
158.9544822233483
 30
0.0
 10
222.4515010248623
 20
158.7700814217017
 30
0.0
 10
222.3649871817697
 20
158.6783883789682
 30
0.0
 10
222.182637207499
 20
158.4996072635644
 30
0.0
 10
222.0881016574819
 20
158.413690319108
 30
0.0
 10
221.8931033767033
 20
158.2479932809086
 30
0.0
 10
221.791940218577
 20
158.1677453641683
 30
0.0
 10
221.4881434418768
 20
157.9415949591873
 30
0.0
 10
221.2835802711393
 20
157.8082316699443
 30
0.0
 10
220.8695471235425
 20
157.5712966437012
 30
0.0
 10
220.6655539249501
 20
157.4706859155634
 30
0.0
 10
220.3632388973374
 20
157.3486937960766
 30
0.0
 10
220.2628569295283
 20
157.3127575612482
 30
0.0
 10
220.0600348062016
 20
157.2535039825575
 30
0.0
 10
219.9574937388597
 20
157.2295088403268
 30
0.0
 10
219.8509304072464
 20
157.2189343923596
 30
0.0
  0
LWPOLYLINE
  5
115
330
1F
100
AcDbEntity
  8
0
  6
HIDDEN
 62
     7
370
     0
100
AcDbPolyline
 90
       19
 70
   128
 43
0.0
 10
223.0558251052
 20
156.912385112
 10
223.0816567439
 20
157.549846428
 10
222.8608354359
 20
158.1621196429
 10
222.41532055
 20
158.6883178182
 10
221.7894158983
 20
159.0761136674
 10
221.0453639848
 20
159.2869431944
 10
220.2571563575
 20
159.2998406534
 10
219.5031755884
 20
159.1135234687
 10
218.8584005914
 20
158.746519779
 10
218.3869504142
 20
158.2353259235
 10
218.1357079799
 20
157.6307770982
 10
218.1296578577
 20
156.9929920968
 10
218.3694016964
 20
156.3853948535
 10
218.8310983938
 20
155.8684073091
 10
219.4688349526
 20
155.4934408075
 10
220.219192256
 20
155.2977835425
 10
221.0075517222
 20
155.3008924682
 10
221.7555156798
 20
155.5024584204
 10
222.3887035536
 20
155.8824368602
  0
LINE
  5
116
330
1F
100
AcDbEntity
  8
0
  6
HIDDEN
 62
     7
370
     0
100
AcDbLine
 10
53.031566801
 20
180.7011213346
 30
0.0
 11
53.031566801
 21
152.7011213346
 31
0.0
  0
SPLINE
  5
117
330
1F
100
AcDbEntity
  8
0
  6
HIDDEN
 62
     7
370
     0
100
AcDbSpline
210
0.0
220
0.0
230
1.0
 70
     8
 71
     3
 72
    10
 73
     6
 74
     0
 42
0.00000001
 43
0.00000001
 12
1.0
 22
0.0
 32
0.0
 13
1.0
 23
0.0
 33
0.0
 40
0.0
 40
0.0
 40
0.0
 40
0.0
 40
0.5
 40
0.5
 40
1.0
 40
1.0
 40
1.0
 40
1.0
 10
72.10133836137258
 20
167.3355502116649
 30
0.0
 10
72.13448577944904
 20
167.1265596106569
 30
0.0
 10
72.15134462481066
 20
166.9149971446353
 30
0.0
 10
72.151332094463
 20
166.4870083786677
 30
0.0
 10
72.13441713672262
 20
166.275250274252
 30
0.0
 10
72.10133836137258
 20
166.0666924576199
 30
0.0
  0
LINE
  5
118
330
1F
100
AcDbEntity
  8
0
  6
HIDDEN
 62
     7
370
     0
100
AcDbLine
 10
72.6013383614
 20
180.201121212
 30
0.0
 11
72.6013383614
 21
153.2011213346
 31
0.0
  0
SPLINE
  5
119
330
1F
100
AcDbEntity
  8
0
  6
HIDDEN
 62
     7
370
     0
100
AcDbSpline
210
0.0
220
0.0
230
1.0
 70
     8
 71
     3
 72
    10
 73
     6
 74
     0
 42
0.00000001
 43
0.00000001
 12
1.0
 22
0.0
 32
0.0
 13
1.0
 23
0.0
 33
0.0
 40
0.0
 40
0.0
 40
0.0
 40
0.0
 40
0.5
 40
0.5
 40
1.0
 40
1.0
 40
1.0
 40
1.0
 10
72.10133836137258
 20
166.0666924576199
 30
0.0
 10
72.13452732384629
 20
166.2759449912024
 30
0.0
 10
72.15122810010094
 20
166.4867617521013
 30
0.0
 10
72.1514475405456
 20
166.9112940333046
 30
0.0
 10
72.13456782515219
 20
167.1260423220772
 30
0.0
 10
72.10133836137258
 20
167.3355502116649
 30
0.0
  0
SPLINE
  5
11A
330
1F
100
AcDbEntity
  8
0
  6
HIDDEN
 62
     7
370
     0
100
AcDbSpline
210
0.0
220
0.0
230
1.0
 70
     8
 71
     3
 72
    68
 73
    64
 74
     0
 42
0.00000001
 43
0.00000001
 12
1.0
 22
0.0
 32
0.0
 13
1.0
 23
0.0
 33
0.0
 40
0.0
 40
0.0
 40
0.0
 40
0.0
 40
0.0312499999999999
 40
0.0312499999999999
 40
0.0624999999999997
 40
0.0624999999999997
 40
0.0937499999999996
 40
0.0937499999999996
 40
0.1249999999999996
 40
0.1249999999999996
 40
0.1562499999999995
 40
0.1562499999999995
 40
0.1874999999999994
 40
0.1874999999999994
 40
0.2187499999999993
 40
0.2187499999999993
 40
0.2499999999999992
 40
0.2499999999999992
 40
0.2812499999999991
 40
0.2812499999999991
 40
0.3124999999999991
 40
0.3124999999999991
 40
0.3437499999999989
 40
0.3437499999999989
 40
0.3749999999999989
 40
0.3749999999999989
 40
0.4062499999999988
 40
0.4062499999999988
 40
0.4374999999999987
 40
0.4374999999999987
 40
0.4687499999999986
 40
0.4687499999999986
 40
0.4999999999999986
 40
0.4999999999999986
 40
0.5624999999999983
 40
0.5624999999999983
 40
0.5937499999999982
 40
0.5937499999999982
 40
0.6249999999999981
 40
0.6249999999999981
 40
0.656249999999998
 40
0.656249999999998
 40
0.6874999999999978
 40
0.6874999999999978
 40
0.7187499999999977
 40
0.7187499999999977
 40
0.7499999999999976
 40
0.7499999999999976
 40
0.7812499999999979
 40
0.7812499999999979
 40
0.8124999999999981
 40
0.8124999999999981
 40
0.8437499999999984
 40
0.8437499999999984
 40
0.8749999999999988
 40
0.8749999999999988
 40
0.9062499999999991
 40
0.9062499999999991
 40
0.9374999999999993
 40
0.9374999999999993
 40
0.9687499999999997
 40
0.9687499999999997
 40
1.0
 40
1.0
 40
1.0
 40
1.0
 10
72.10133836137258
 20
166.0666924576199
 30
0.0
 10
72.06132340902289
 20
165.8144028548043
 30
0.0
 10
71.99838160761159
 20
165.5704040044285
 30
0.0
 10
71.82899494553953
 20
165.097985615366
 30
0.0
 10
71.72130138295405
 20
164.867572229206
 30
0.0
 10
71.46601661441618
 20
164.432867633409
 30
0.0
 10
71.31997738394394
 20
164.2302256667576
 30
0.0
 10
70.99175594738469
 20
163.8532363759998
 30
0.0
 10
70.80750865960971
 20
163.6775784224224
 30
0.0
 10
70.41454849230142
 20
163.3673204534762
 30
0.0
 10
70.20525389534225
 20
163.2313752458263
 30
0.0
 10
69.7603684684049
 20
162.9979851504204
 30
0.0
 10
69.52357087590588
 20
162.900738544006
 30
0.0
 10
69.0428358069866
 20
162.7540670861347
 30
0.0
 10
68.79659271380382
 20
162.7031747411922
 30
0.0
 10
68.29187593382439
 20
162.6476473909568
 30
0.0
 10
68.0356812328879
 20
162.6438225038868
 30
0.0
 10
67.53330248368779
 20
162.6832462865312
 30
0.0
 10
67.2840527845042
 20
162.7262737357425
 30
0.0
 10
66.79252498702544
 20
162.8599787051938
 30
0.0
 10
66.55722938579959
 20
162.948648551099
 30
0.0
 10
66.10631549113745
 20
163.1676799148764
 30
0.0
 10
65.88870314067408
 20
163.2996814805599
 30
0.0
 10
65.4854959711258
 20
163.5990387615628
 30
0.0
 10
65.29988447869135
 20
163.7656576890007
 30
0.0
 10
64.95989640828886
 20
164.1327691144282
 30
0.0
 10
64.80482347746596
 20
164.3350728599689
 30
0.0
 10
64.5384804008026
 20
164.7591535395629
 30
0.0
 10
64.42549630008581
 20
164.9823131450291
 30
0.0
 10
64.24064104315492
 20
165.4516683866233
 30
0.0
 10
64.16950028165152
 20
165.6978788899588
 30
0.0
 10
64.07553987036337
 20
166.1924047163299
 30
0.0
 10
64.05153054040697
 20
166.443335711422
 30
0.0
 10
64.05095741973439
 20
167.2075810909782
 30
0.0
 10
64.14635653105302
 20
167.7098053930291
 30
0.0
 10
64.42422032325412
 20
168.4173698993015
 30
0.0
 10
64.53738227933468
 20
168.6410761630423
 30
0.0
 10
64.80351346137856
 20
169.0653460743629
 30
0.0
 10
64.95834123557827
 20
169.267598036419
 30
0.0
 10
65.2985223413661
 20
169.6353087777871
 30
0.0
 10
65.48402479831583
 20
169.8019256530365
 30
0.0
 10
65.88631859937517
 20
170.1009750318319
 30
0.0
 10
66.10432664762718
 20
170.2334317398603
 30
0.0
 10
66.55492501477747
 20
170.452638140565
 30
0.0
 10
66.78947401365824
 20
170.5411232705686
 30
0.0
 10
67.27793400721056
 20
170.6746095005073
 30
0.0
 10
67.53019940292444
 20
170.718551213001
 30
0.0
 10
68.0323800410847
 20
170.7583602094745
 30
0.0
 10
68.28486215843641
 20
170.755015996661
 30
0.0
 10
68.7927272015059
 20
170.6998366766705
 30
0.0
 10
69.0402726746897
 20
170.6487907482011
 30
0.0
 10
69.52124021216042
 20
170.5023803599655
 30
0.0
 10
69.75720007726568
 20
170.4057341551919
 30
0.0
 10
70.2037705267873
 20
170.1718292108788
 30
0.0
 10
70.41341538936076
 20
170.0357041970523
 30
0.0
 10
70.80640209611522
 20
169.7256499327232
 30
0.0
 10
70.99079799993022
 20
169.5499926851481
 30
0.0
 10
71.3193484177906
 20
169.1728527624837
 30
0.0
 10
71.46529051431379
 20
168.9703865572138
 30
0.0
 10
71.72017586951594
 20
168.5368102590805
 30
0.0
 10
71.82848718232427
 20
168.305518415499
 30
0.0
 10
71.9983221597412
 20
167.8321587353657
 30
0.0
 10
72.06131752087828
 20
167.5878769385449
 30
0.0
 10
72.10133836137258
 20
167.3355502116649
 30
0.0
  0
SPLINE
  5
11B
330
1F
100
AcDbEntity
  8
0
  6
HIDDEN
 62
     7
370
     0
100
AcDbSpline
210
0.0
220
0.0
230
1.0
 70
     8
 71
     3
 72
    68
 73
    64
 74
     0
 42
0.00000001
 43
0.00000001
 12
1.0
 22
0.0
 32
0.0
 13
1.0
 23
0.0
 33
0.0
 40
0.0
 40
0.0
 40
0.0
 40
0.0
 40
0.0312500000000002
 40
0.0312500000000002
 40
0.0625000000000005
 40
0.0625000000000005
 40
0.0937500000000007
 40
0.0937500000000007
 40
0.1250000000000009
 40
0.1250000000000009
 40
0.1562500000000011
 40
0.1562500000000011
 40
0.1875000000000014
 40
0.1875000000000014
 40
0.2187500000000016
 40
0.2187500000000016
 40
0.2500000000000018
 40
0.2500000000000018
 40
0.2812500000000016
 40
0.2812500000000016
 40
0.3125000000000014
 40
0.3125000000000014
 40
0.3437500000000012
 40
0.3437500000000012
 40
0.3750000000000009
 40
0.3750000000000009
 40
0.4062500000000008
 40
0.4062500000000008
 40
0.4375000000000006
 40
0.4375000000000006
 40
0.4687500000000004
 40
0.4687500000000004
 40
0.5000000000000002
 40
0.5000000000000002
 40
0.5624999999999999
 40
0.5624999999999999
 40
0.5937499999999997
 40
0.5937499999999997
 40
0.6249999999999994
 40
0.6249999999999994
 40
0.6562499999999992
 40
0.6562499999999992
 40
0.687499999999999
 40
0.687499999999999
 40
0.7187499999999988
 40
0.7187499999999988
 40
0.7499999999999986
 40
0.7499999999999986
 40
0.7812499999999988
 40
0.7812499999999988
 40
0.8124999999999989
 40
0.8124999999999989
 40
0.8437499999999991
 40
0.8437499999999991
 40
0.8749999999999993
 40
0.8749999999999993
 40
0.9062499999999996
 40
0.9062499999999996
 40
0.9374999999999998
 40
0.9374999999999998
 40
0.9687499999999999
 40
0.9687499999999999
 40
1.0
 40
1.0
 40
1.0
 40
1.0
 10
72.10133836137258
 20
167.3355502116649
 30
0.0
 10
72.06132340902289
 20
167.5878398144805
 30
0.0
 10
71.99838160761159
 20
167.8318386648563
 30
0.0
 10
71.82899494553953
 20
168.3042570539188
 30
0.0
 10
71.72130138295404
 20
168.5346704400787
 30
0.0
 10
71.46601661441616
 20
168.9693750358758
 30
0.0
 10
71.31997738394394
 20
169.1720170025272
 30
0.0
 10
70.99175594738469
 20
169.549006293285
 30
0.0
 10
70.80750865960971
 20
169.7246642468624
 30
0.0
 10
70.41454849230142
 20
170.0349222158086
 30
0.0
 10
70.20525389534225
 20
170.1708674234586
 30
0.0
 10
69.7603684684049
 20
170.4042575188644
 30
0.0
 10
69.52357087590588
 20
170.5015041252788
 30
0.0
 10
69.0428358069866
 20
170.6481755831502
 30
0.0
 10
68.7965927138038
 20
170.6990679280925
 30
0.0
 10
68.29187593382439
 20
170.754595278328
 30
0.0
 10
68.0356812328879
 20
170.758420165398
 30
0.0
 10
67.53330248368779
 20
170.7189963827536
 30
0.0
 10
67.2840527845042
 20
170.6759689335424
 30
0.0
 10
66.79252498702543
 20
170.5422639640911
 30
0.0
 10
66.55722938579959
 20
170.4535941181859
 30
0.0
 10
66.10631549113747
 20
170.2345627544084
 30
0.0
 10
65.8887031406741
 20
170.1025611887249
 30
0.0
 10
65.4854959711258
 20
169.803203907722
 30
0.0
 10
65.29988447869135
 20
169.6365849802841
 30
0.0
 10
64.95989640828887
 20
169.2694735548566
 30
0.0
 10
64.80482347746596
 20
169.0671698093159
 30
0.0
 10
64.5384804008026
 20
168.6430891297219
 30
0.0
 10
64.42549630008581
 20
168.4199295242557
 30
0.0
 10
64.24064104315492
 20
167.9505742826616
 30
0.0
 10
64.16950028165152
 20
167.704363779326
 30
0.0
 10
64.07553987036337
 20
167.2098379529549
 30
0.0
 10
64.05153054040696
 20
166.9589069578629
 30
0.0
 10
64.05095741973439
 20
166.1946615783066
 30
0.0
 10
64.14635653105302
 20
165.6924372762557
 30
0.0
 10
64.42422032325413
 20
164.9848727699833
 30
0.0
 10
64.53738227933468
 20
164.7611665062425
 30
0.0
 10
64.80351346137857
 20
164.3368965949219
 30
0.0
 10
64.95834123557829
 20
164.1346446328658
 30
0.0
 10
65.29852234136611
 20
163.7669338914976
 30
0.0
 10
65.48402479831583
 20
163.6003170162483
 30
0.0
 10
65.88631859937519
 20
163.3012676374529
 30
0.0
 10
66.10432664762718
 20
163.1688109294245
 30
0.0
 10
66.55492501477747
 20
162.9496045287198
 30
0.0
 10
66.78947401365824
 20
162.8611193987162
 30
0.0
 10
67.27793400721058
 20
162.7276331687775
 30
0.0
 10
67.53019940292444
 20
162.6836914562838
 30
0.0
 10
68.0323800410847
 20
162.6438824598103
 30
0.0
 10
68.28486215843641
 20
162.6472266726238
 30
0.0
 10
68.79272720150591
 20
162.7024059926143
 30
0.0
 10
69.04027267468972
 20
162.7534519210837
 30
0.0
 10
69.52124021216042
 20
162.8998623093193
 30
0.0
 10
69.75720007726568
 20
162.9965085140929
 30
0.0
 10
70.20377052678731
 20
163.230413458406
 30
0.0
 10
70.41341538936076
 20
163.3665384722325
 30
0.0
 10
70.80640209611522
 20
163.6765927365616
 30
0.0
 10
70.99079799993022
 20
163.8522499841367
 30
0.0
 10
71.31934841779061
 20
164.2293899068011
 30
0.0
 10
71.46529051431378
 20
164.431856112071
 30
0.0
 10
71.72017586951594
 20
164.8654324102043
 30
0.0
 10
71.82848718232427
 20
165.0967242537859
 30
0.0
 10
71.9983221597412
 20
165.5700839339191
 30
0.0
 10
72.06131752087828
 20
165.8143657307399
 30
0.0
 10
72.10133836137258
 20
166.0666924576199
 30
0.0
  0
ARC
  5
11C
330
1F
100
AcDbEntity
  8
0
  6
HIDDEN
 62
     7
370
     0
100
AcDbCircle
 10
221.9728929289
 20
156.6297562653
 30
0.0
 40
2.202238817322874
100
AcDbArc
 50
164.482304048
 51
181.844618282
  0
SPLINE
  5
11D
330
1F
100
AcDbEntity
  8
0
  6
HIDDEN
 62
     7
370
     0
100
AcDbSpline
210
0.0
220
0.0
230
1.0
 70
     8
 71
     3
 72
    12
 73
     8
 74
     0
 42
0.00000001
 43
0.00000001
 12
1.0
 22
0.0
 32
0.0
 13
1.0
 23
0.0
 33
0.0
 40
0.0
 40
0.0
 40
0.0
 40
0.0
 40
0.2499999999999941
 40
0.2499999999999941
 40
0.4999999999999881
 40
0.4999999999999881
 40
1.0
 40
1.0
 40
1.0
 40
1.0
 10
222.3887035492337
 20
155.8824368591802
 30
0.0
 10
222.4218435207682
 20
155.9541846013875
 30
0.0
 10
222.4636751094326
 20
156.0309549588907
 30
0.0
 10
222.5576012652514
 20
156.1907480448942
 30
0.0
 10
222.6099569629004
 20
156.2744572033534
 30
0.0
 10
222.7811319902723
 20
156.5383849965602
 30
0.0
 10
222.9081268839828
 20
156.7247990788201
 30
0.0
 10
223.0558251052244
 20
156.9123851119856
 30
0.0
  0
LINE
  5
11E
330
1F
100
AcDbEntity
  8
0
  6
HIDDEN
 62
     7
370
     0
100
AcDbLine
 10
73.8513383614
 20
175.7011213346
 30
0.0
 11
73.8513383614
 21
157.7011213346
 31
0.0
  0
LINE
  5
11F
330
1F
100
AcDbEntity
  8
0
  6
HIDDEN
 62
     7
370
     0
100
AcDbLine
 10
72.6013383614
 20
156.4511213346
 30
0.0
 11
72.6013383614
 21
176.9210457968
 31
0.0
  0
LINE
  5
120
330
1F
100
AcDbEntity
  8
0
  6
HIDDEN
 62
     7
370
     0
100
AcDbLine
 10
99.6013383614
 20
175.7011213346
 30
0.0
 11
99.6013383614
 21
157.7011213346
 31
0.0
  0
LINE
  5
121
330
1F
100
AcDbEntity
  8
0
  6
HIDDEN
 62
     7
370
     0
100
AcDbLine
 10
102.4554263018
 20
170.9511213346
 30
0.0
 11
102.4554263018
 21
162.4511213346
 31
0.0
  0
LINE
  5
122
330
1F
100
AcDbEntity
  8
0
  6
HIDDEN
 62
     7
370
     0
100
AcDbLine
 10
223.6013383614
 20
162.4511213346
 30
0.0
 11
223.6013383614
 21
170.9511213346
 31
0.0
  0
SPLINE
  5
123
330
1F
100
AcDbEntity
  8
0
  6
HIDDEN
 62
     7
370
     0
100
AcDbSpline
210
0.0
220
0.0
230
1.0
 70
     8
 71
     3
 72
    60
 73
    56
 74
     0
 42
0.00000001
 43
0.00000001
 12
1.0
 22
0.0
 32
0.0
 13
1.0
 23
0.0
 33
0.0
 40
-0.0312500000000014
 40
-0.0312500000000014
 40
0.0
 40
0.0
 40
0.0312500000000032
 40
0.0312500000000032
 40
0.0625000000000064
 40
0.0625000000000064
 40
0.1250000000000081
 40
0.1250000000000081
 40
0.1562500000000072
 40
0.1562500000000072
 40
0.1875000000000063
 40
0.1875000000000063
 40
0.2187500000000054
 40
0.2187500000000054
 40
0.2500000000000044
 40
0.2500000000000044
 40
0.3125000000000026
 40
0.3125000000000026
 40
0.3750000000000008
 40
0.3750000000000008
 40
0.4062499999999981
 40
0.4062499999999981
 40
0.4374999999999953
 40
0.4374999999999953
 40
0.4687499999999927
 40
0.4687499999999927
 40
0.49999999999999
 40
0.49999999999999
 40
0.5312499999999873
 40
0.5312499999999873
 40
0.5624999999999846
 40
0.5624999999999846
 40
0.6249999999999838
 40
0.6249999999999838
 40
0.6562499999999851
 40
0.6562499999999851
 40
0.6874999999999865
 40
0.6874999999999865
 40
0.7187499999999877
 40
0.7187499999999877
 40
0.749999999999989
 40
0.749999999999989
 40
0.7812499999999903
 40
0.7812499999999903
 40
0.8124999999999917
 40
0.8124999999999917
 40
0.8749999999999943
 40
0.8749999999999943
 40
0.9062499999999958
 40
0.9062499999999958
 40
0.9374999999999972
 40
0.9374999999999972
 40
0.9687499999999986
 40
0.9687499999999986
 40
1.0
 40
1.0
 40
1.031250000000003
 40
1.031250000000003
 10
220.7708659579432
 20
166.6987566569617
 30
0.0
 10
220.431810764802
 20
166.6987566569617
 30
0.0
 10
220.2662129170945
 20
166.7199414671727
 30
0.0
 10
219.9420928404219
 20
166.8004285246364
 30
0.0
 10
219.7822827760962
 20
166.8607106977524
 30
0.0
 10
219.3329411735548
 20
167.0851903399926
 30
0.0
 10
219.0632584337795
 20
167.2961253188081
 30
0.0
 10
218.7250736450219
 20
167.6591654070508
 30
0.0
 10
218.6215072113981
 20
167.7902380743409
 30
0.0
 10
218.4410557490981
 20
168.060555075354
 30
0.0
 10
218.3639337828357
 20
168.1995211479563
 30
0.0
 10
218.2365158980287
 20
168.4839343653103
 30
0.0
 10
218.1860517052275
 20
168.6311854549012
 30
0.0
 10
218.1192102925451
 20
168.9168079093855
 30
0.0
 10
218.101892090996
 20
169.0564902603568
 30
0.0
 10
218.1002696990626
 20
169.4651155583601
 30
0.0
 10
218.1687576696062
 20
169.7122598986124
 30
0.0
 10
218.4228079759771
 20
170.119283466096
 30
0.0
 10
218.6073908753324
 20
170.2806060086781
 30
0.0
 10
218.9447593457555
 20
170.4631830228727
 30
0.0
 10
219.0687485147224
 20
170.5150552123257
 30
0.0
 10
219.3349172599399
 20
170.6015290874587
 30
0.0
 10
219.4754539407639
 20
170.6358244749287
 30
0.0
 10
219.7731122760619
 20
170.6902286461329
 30
0.0
 10
219.9325796536044
 20
170.7104788544078
 30
0.0
 10
220.2581970377379
 20
170.7370438049612
 30
0.0
 10
220.424164020125
 20
170.7436364923877
 30
0.0
 10
220.7629972661881
 20
170.7440375822383
 30
0.0
 10
220.9299879450233
 20
170.7377870806822
 30
0.0
 10
221.2556128588141
 20
170.7120620802361
 30
0.0
 10
221.4157440313712
 20
170.6922474874366
 30
0.0
 10
221.8664491907294
 20
170.6113313722217
 30
0.0
 10
222.1367076918802
 20
170.5274702776661
 30
0.0
 10
222.476422420782
 20
170.3455562400007
 30
0.0
 10
222.5803810646574
 20
170.2744561456396
 30
0.0
 10
222.760690157279
 20
170.113982196994
 30
0.0
 10
222.8381238658716
 20
170.0242817899423
 30
0.0
 10
222.9663727207162
 20
169.8220300444809
 30
0.0
 10
223.0166880116331
 20
169.7090000211301
 30
0.0
 10
223.0834362581243
 20
169.4692637235709
 30
0.0
 10
223.1009097673205
 20
169.3412507114741
 30
0.0
 10
223.1017515498509
 20
169.0672027215262
 30
0.0
 10
223.084991452319
 20
168.9261910750365
 30
0.0
 10
223.0192393088152
 20
168.6396633648198
 30
0.0
 10
222.9693844480416
 20
168.4923244183346
 30
0.0
 10
222.778419662474
 20
168.0625723657787
 30
0.0
 10
222.5931235295042
 20
167.7837199739589
 30
0.0
 10
222.2542346286842
 20
167.4191124934752
 30
0.0
 10
222.129052706281
 20
167.30448464747
 30
0.0
 10
221.8631175703078
 20
167.1010766772496
 30
0.0
 10
221.722261986909
 20
167.0117088296154
 30
0.0
 10
221.4225953904248
 20
166.8616208252
 30
0.0
 10
221.2622172082901
 20
166.800944191668
 30
0.0
 10
220.9374800682415
 20
166.7200846531449
 30
0.0
 10
220.7708659579432
 20
166.6987566569617
 30
0.0
 10
220.431810764802
 20
166.6987566569617
 30
0.0
  0
LINE
  5
124
330
1F
100
AcDbEntity
  8
0
  6
HIDDEN
 62
     7
370
     0
100
AcDbLine
 10
262.2159124021
 20
152.5016832898
 30
0.0
 11
262.2172013568
 21
152.4869863586
 31
0.0
  0
LINE
  5
125
330
1F
100
AcDbEntity
  8
0
  6
HIDDEN
 62
     7
370
     0
100
AcDbLine
 10
262.2172013568
 20
152.4869863586
 30
0.0
 11
252.8065721479
 21
153.3083041567
 31
0.0
  0
LINE
  5
126
330
1F
100
AcDbEntity
  8
0
  6
HIDDEN
 62
     7
370
     0
100
AcDbLine
 10
249.9412314999
 20
150.5117648897
 30
0.0
 11
249.9819062293
 21
150.4905189823
 31
0.0
  0
LINE
  5
127
330
1F
100
AcDbEntity
  8
0
  6
HIDDEN
 62
     7
370
     0
100
AcDbLine
 10
249.9819062293
 20
150.4905189823
 30
0.0
 11
250.7952330854
 21
141.2167959637
 31
0.0
  0
ELLIPSE
  5
128
330
1F
100
AcDbEntity
  8
0
  6
HIDDEN
 62
     7
370
     0
100
AcDbEllipse
 10
254.3073503254
 20
166.7011213346
 30
0.0
 11
-14.61549449049082
 21
20.47670097187972
 31
0.0
210
0.0
220
0.0
230
1.0
 40
0.0668534593
 41
6.235504004580411
 42
7.80630033137507
  0
LINE
  5
129
330
1F
100
AcDbEntity
  8
0
  6
HIDDEN
 62
     7
370
     0
100
AcDbLine
 10
238.1013383614
 20
166.7011213346
 30
0.0
 11
238.1013383614
 21
187.2011213346
 31
0.0
  0
SPLINE
  5
12A
330
1F
100
AcDbEntity
  8
0
  6
HIDDEN
 62
     7
370
     0
100
AcDbSpline
210
0.0
220
0.0
230
1.0
 70
     8
 71
     3
 72
    26
 73
    22
 74
     0
 42
0.00000001
 43
0.00000001
 12
1.0
 22
0.0
 32
0.0
 13
1.0
 23
0.0
 33
0.0
 40
0.0
 40
0.0
 40
0.0
 40
0.0
 40
0.2500000000000004
 40
0.2500000000000004
 40
0.3125000000000002
 40
0.3125000000000002
 40
0.3750000000000002
 40
0.3750000000000002
 40
0.4999999999999999
 40
0.4999999999999999
 40
0.6249999999999997
 40
0.6249999999999997
 40
0.6874999999999996
 40
0.6874999999999996
 40
0.7499999999999996
 40
0.7499999999999996
 40
0.8749999999999998
 40
0.8749999999999998
 40
0.9374999999999999
 40
0.9374999999999999
 40
1.0
 40
1.0
 40
1.0
 40
1.0
 10
240.6508502348512
 20
156.1640440545977
 30
0.0
 10
240.7082768235098
 20
154.1927468126272
 30
0.0
 10
240.7920875956655
 20
152.3858759721716
 30
0.0
 10
240.9280640789724
 20
150.3257123733771
 30
0.0
 10
240.9568375214689
 20
149.9237587081074
 30
0.0
 10
241.0175667751873
 20
149.1404736857186
 30
0.0
 10
241.0494692562046
 20
148.7600793593693
 30
0.0
 10
241.1484868250889
 20
147.665969263823
 30
0.0
 10
241.2193102384904
 20
146.9937033967045
 30
0.0
 10
241.3698336041651
 20
145.7610235704433
 30
0.0
 10
241.4495344364958
 20
145.2006060593646
 30
0.0
 10
241.5754502654486
 20
144.4463122147003
 30
0.0
 10
241.6186097604663
 20
144.2088007026179
 30
0.0
 10
241.7058080710269
 20
143.7694011056534
 30
0.0
 10
241.7499605243573
 20
143.5667200153629
 30
0.0
 10
241.8839201615197
 20
143.0087626236031
 30
0.0
 10
241.9752223869561
 20
142.7033678335291
 30
0.0
 10
242.1146852596916
 20
142.3450887281598
 30
0.0
 10
242.1615930212126
 20
142.2423490128579
 30
0.0
 10
242.2561895848065
 20
142.0708704678479
 30
0.0
 10
242.3039953760843
 20
142.0020215304905
 30
0.0
 10
242.3518689849833
 20
141.9510061617526
 30
0.0
  0
SPLINE
  5
12B
330
1F
100
AcDbEntity
  8
0
  6
HIDDEN
 62
     7
370
     0
100
AcDbSpline
210
0.0
220
0.0
230
1.0
 70
     8
 71
     3
 72
    14
 73
    10
 74
     0
 42
0.00000001
 43
0.00000001
 12
1.0
 22
0.0
 32
0.0
 13
1.0
 23
0.0
 33
0.0
 40
0.0
 40
0.0
 40
0.0
 40
0.0
 40
0.25
 40
0.25
 40
0.5
 40
0.5
 40
0.75
 40
0.75
 40
1.0
 40
1.0
 40
1.0
 40
1.0
 10
240.6508502348512
 20
156.1640440545977
 30
0.0
 10
240.2753568504609
 20
156.9854235502486
 30
0.0
 10
239.927940432096
 20
157.82086750203
 30
0.0
 10
239.3055202124956
 20
159.5280287007909
 30
0.0
 10
239.0296932084254
 20
160.4035058166597
 30
0.0
 10
238.5769698368368
 20
162.1775513334585
 30
0.0
 10
238.3993796462303
 20
163.0801524065566
 30
0.0
 10
238.1618546794287
 20
164.8879125886429
 30
0.0
 10
238.1013383613726
 20
165.7935855748741
 30
0.0
 10
238.1013383613726
 20
166.7011213346424
 30
0.0
  0
LINE
  5
12C
330
1F
100
AcDbEntity
  8
0
  6
HIDDEN
 62
     7
370
     0
100
AcDbLine
 10
259.3508341004
 20
156.6758592384
 30
0.0
 11
261.8991975397
 21
156.1129324298
 31
0.0
  0
ELLIPSE
  5
12D
330
1F
100
AcDbEntity
  8
0
  6
HIDDEN
 62
     7
370
     0
100
AcDbEllipse
 10
250.9356373873
 20
152.9893083186
 30
0.0
 11
1.616902374425195
 21
2.318196838028314
 31
0.0
210
0.0
220
0.0
230
1.0
 40
0.57803977
 41
3.548934393834046
 42
3.686857627939786
  0
ELLIPSE
  5
12E
330
1F
100
AcDbEntity
  8
0
  6
HIDDEN
 62
     7
370
     0
100
AcDbEllipse
 10
250.9356373873
 20
152.9893083186
 30
0.0
 11
2.099281448397704
 21
-0.1276543563555492
 31
0.0
210
0.0
220
0.0
230
1.0
 40
0.4303093993
 41
0.3596638604385306
 42
0.497587094544224
  0
LINE
  5
12F
330
1F
100
AcDbEntity
  8
0
  6
HIDDEN
 62
     7
370
     0
100
AcDbLine
 10
252.9199301468
 20
153.1877612969
 30
0.0
 11
252.9199301468
 21
153.3537817044
 31
0.0
  0
ARC
  5
130
330
1F
100
AcDbEntity
  8
0
  6
HIDDEN
 62
     7
370
     0
100
AcDbCircle
 10
250.9372149901
 20
152.6695915678
 30
0.0
 40
2.097445001810087
100
AcDbArc
 50
250.8218643824
 51
19.038395848
  0
LINE
  5
131
330
1F
100
AcDbEntity
  8
0
  6
HIDDEN
 62
     7
370
     0
100
AcDbLine
 10
250.2481912113
 20
150.6885509907
 30
0.0
 11
250.2481912113
 21
150.5225305832
 31
0.0
  0
ARC
  5
132
330
1F
100
AcDbEntity
  8
0
  6
HIDDEN
 62
     7
370
     0
100
AcDbCircle
 10
250.9328933918
 20
152.6942783116
 30
0.0
 40
2.097437298330778
100
AcDbArc
 50
270.0749578582
 51
184.6480793012
  0
LWPOLYLINE
  5
133
330
1F
100
AcDbEntity
  8
0
  6
HIDDEN
 62
     7
370
     0
100
AcDbPolyline
 90
        3
 70
   128
 43
0.0
 10
249.9103859252
 20
150.8634725873
 10
250.2173950864
 20
150.7231798025
 10
250.9356373873
 20
150.5968428082
  0
LINE
  5
134
330
1F
100
AcDbEntity
  8
0
  6
HIDDEN
 62
     7
370
     0
100
AcDbLine
 10
261.9814587226
 20
152.396911447
 30
0.0
 11
252.9199301468
 21
153.1877612969
 31
0.0
  0
LINE
  5
135
330
1F
100
AcDbEntity
  8
0
  6
HIDDEN
 62
     7
370
     0
100
AcDbLine
 10
261.9814587226
 20
152.396911447
 30
0.0
 11
262.2172013568
 21
152.4869863586
 31
0.0
  0
LINE
  5
136
330
1F
100
AcDbEntity
  8
0
  6
HIDDEN
 62
     7
370
     0
100
AcDbLine
 10
250.2481912113
 20
150.5225305832
 30
0.0
 11
251.042495008
 21
141.4657124696
 31
0.0
  0
ELLIPSE
  5
137
330
1F
100
AcDbEntity
  8
0
  6
HIDDEN
 62
     7
370
     0
100
AcDbEllipse
 10
248.5295564647
 20
166.4136196497
 30
0.0
 11
-2.057770349228292
 21
25.26968660225603
 31
0.0
210
0.0
220
0.0
230
1.0
 40
0.1268365588
 41
3.207919912605427
 42
3.291350710180488
  0
LWPOLYLINE
  5
138
330
1F
100
AcDbEntity
  8
0
  6
HIDDEN
 62
     7
370
     0
100
AcDbPolyline
 90
       21
 70
   128
 43
0.0
 10
220.6013383614
 20
172.3197871285
 10
221.3738808473
 20
172.4187774037
 10
222.0708014921
 20
172.7060583715
 10
222.6238808473
 20
173.1535089691
 10
222.9789796521
 20
173.7173296144
 10
223.1013383614
 20
174.3423296144
 10
222.9789796521
 20
174.9673296144
 10
222.6238808473
 20
175.5311502598
 10
222.0708014921
 20
175.9786008574
 10
221.3738808473
 20
176.2658818252
 10
220.6013383614
 20
176.3648721004
 10
219.8287958754
 20
176.2658818252
 10
219.1318752306
 20
175.9786008574
 10
218.5787958754
 20
175.5311502598
 10
218.2236970706
 20
174.9673296144
 10
218.1013383614
 20
174.3423296144
 10
218.2236970706
 20
173.7173296144
 10
218.5787958754
 20
173.1535089691
 10
219.1318752306
 20
172.7060583715
 10
219.8287958754
 20
172.4187774037
 10
220.6013383614
 20
172.3197871285
  0
LINE
  5
139
330
1F
100
AcDbEntity
  8
0
  6
HIDDEN
 62
     7
370
     0
100
AcDbLine
 10
261.6858525588
 20
152.5887310437
 30
0.0
 11
261.9814587226
 21
152.396911447
 31
0.0
  0
LINE
  5
13A
330
1F
100
AcDbEntity
  8
0
  6
HIDDEN
 62
     7
370
     0
100
AcDbLine
 10
250.2481912113
 20
150.6885509907
 30
0.0
 11
251.010682126
 21
141.9944700154
 31
0.0
  0
ELLIPSE
  5
13B
330
1F
100
AcDbEntity
  8
0
  6
HIDDEN
 62
     7
370
     0
100
AcDbEllipse
 10
248.8415217246
 20
166.386326226
 30
0.0
 11
-2.207236391061684
 21
25.28859014739427
 31
0.0
210
0.0
220
0.0
230
1.0
 40
0.0059876405
 41
3.311871946538515
 42
3.408171997785845
  0
LINE
  5
13C
330
1F
100
AcDbEntity
  8
0
  6
HIDDEN
 62
     7
370
     0
100
AcDbLine
 10
262.1570760607
 20
141.0378071674
 30
0.0
 11
262.6546284567
 21
141.5425448507
 31
0.0
  0
CIRCLE
  5
13D
330
1F
100
AcDbEntity
  8
0
  6
HIDDEN
 62
     7
370
     0
100
AcDbCircle
 10
256.5996878044
 20
147.021945973
 30
0.0
 40
2.998151605784371
  0
LINE
  5
13E
330
1F
100
AcDbEntity
  8
0
  6
HIDDEN
 62
     7
370
     0
100
AcDbLine
 10
261.6858525588
 20
152.5887310437
 30
0.0
 11
252.9199301468
 21
153.3537817044
 31
0.0
  0
ELLIPSE
  5
13F
330
1F
100
AcDbEntity
  8
0
  6
HIDDEN
 62
     7
370
     0
100
AcDbEllipse
 10
-553.0169024359
 20
236.5398480928
 30
0.0
 11
4096.488451942513
 21
-356.6522915817438
 31
0.0
210
0.0
220
0.0
230
1.0
 40
0.0060650906
 41
4.910471910068246
 42
4.9132476214644
  0
LINE
  5
140
330
1F
100
AcDbEntity
  8
0
  6
HIDDEN
 62
     7
370
     0
100
AcDbLine
 10
261.6858525588
 20
152.5887310437
 30
0.0
 11
262.6546285382
 21
141.542544591
 31
0.0
  0
CIRCLE
  5
141
330
1F
100
AcDbEntity
  8
0
  6
HIDDEN
 62
     7
370
     0
100
AcDbCircle
 10
256.5975177787
 20
147.0820252894
 30
0.0
 40
2.09689809909419
  0
SPLINE
  5
142
330
1F
100
AcDbEntity
  8
0
  6
HIDDEN
 62
     7
370
     0
100
AcDbSpline
210
0.0
220
0.0
230
1.0
 70
     8
 71
     3
 72
    25
 73
    21
 74
     0
 42
0.00000001
 43
0.00000001
 12
1.0
 22
0.0
 32
0.0
 13
1.0
 23
0.0
 33
0.0
 40
0.0
 40
0.0
 40
0.0
 40
0.0
 40
0.0195561130561903
 40
0.0404533262061971
 40
0.0626916353132602
 40
0.0904317622860292
 40
0.1253917639828116
 40
0.1880884417350463
 40
0.250779056614063
 40
0.3134558430963892
 40
0.3761112042162794
 40
0.5012860646713884
 40
0.6262910911454039
 40
0.6898286541847037
 40
0.7511216740580025
 40
0.8142890355937683
 40
0.8756974795450208
 40
0.9177642459966799
 40
0.959198121919558
 40
1.0
 40
1.0
 40
1.0
 40
1.0
 10
259.0926054319933
 20
154.5505995765061
 30
0.0
 10
259.1112295969616
 20
154.4245792362178
 30
0.0
 10
259.1497551167628
 20
154.1638964553579
 30
0.0
 10
259.210038744426
 20
153.7641839374
 30
0.0
 10
259.2786793806175
 20
153.3162848594839
 30
0.0
 10
259.3616747533174
 20
152.7857170784795
 30
0.0
 10
259.4854011236166
 20
152.0141883025442
 30
0.0
 10
259.6459304109672
 20
151.0521626375902
 30
0.0
 10
259.8371028045549
 20
149.964068230162
 30
0.0
 10
260.030644627423
 20
148.9192832462258
 30
0.0
 10
260.2909819597326
 20
147.588624949768
 30
0.0
 10
260.619646494153
 20
146.0475319220141
 30
0.0
 10
260.9502147309692
 20
144.6819001637782
 30
0.0
 10
261.211723743857
 20
143.7121154474042
 30
0.0
 10
261.4072134479217
 20
143.0428376995712
 30
0.0
 10
261.5986055598226
 20
142.4428868117531
 30
0.0
 10
261.7681028688389
 20
141.9617506293735
 30
0.0
 10
261.913536989263
 20
141.5863480706504
 30
0.0
 10
262.0369545000599
 20
141.2919162502964
 30
0.0
 10
262.1172410367853
 20
141.1220710818937
 30
0.0
 10
262.1570757962847
 20
141.0378011443501
 30
0.0
  0
SPLINE
  5
143
330
1F
100
AcDbEntity
  8
0
  6
HIDDEN
 62
     7
370
     0
100
AcDbSpline
210
0.0
220
0.0
230
1.0
 70
     8
 71
     3
 72
    30
 73
    26
 74
     0
 42
0.00000001
 43
0.00000001
 12
1.0
 22
0.0
 32
0.0
 13
1.0
 23
0.0
 33
0.0
 40
0.0
 40
0.0
 40
0.0
 40
0.0
 40
0.0207069114341869
 40
0.041406112501247
 40
0.0621045485050624
 40
0.0828091655194303
 40
0.1035269034011925
 40
0.1242646888345815
 40
0.1553667458416803
 40
0.1865108101250209
 40
0.2488234702331929
 40
0.3112041718308754
 40
0.3736478134770374
 40
0.4361485351064811
 40
0.4986997874021787
 40
0.5612944505176322
 40
0.6239248439401087
 40
0.686582930144312
 40
0.7492602701633955
 40
0.8119482692000757
 40
0.8746381457214797
 40
0.9059725145784013
 40
0.9373268683283902
 40
0.9686466601039391
 40
1.0
 40
1.0
 40
1.0
 40
1.0
 10
262.6546287065447
 20
141.542544509677
 30
0.0
 10
262.6335499199352
 20
141.5857879927753
 30
0.0
 10
262.591400195554
 20
141.6722588569506
 30
0.0
 10
262.5275851599102
 20
141.8120738135703
 30
0.0
 10
262.4633635171801
 20
141.9592384997229
 30
0.0
 10
262.3986911650228
 20
142.1144808836181
 30
0.0
 10
262.3335797033845
 20
142.2776079732905
 30
0.0
 10
262.2571359968434
 20
142.4770825866067
 30
0.0
 10
262.1691103485225
 20
142.7180727690153
 30
0.0
 10
262.0360195712851
 20
143.1026125386193
 30
0.0
 10
261.8678477145397
 20
143.6261025108301
 30
0.0
 10
261.663905246037
 20
144.3203899743633
 30
0.0
 10
261.458357151056
 20
145.0788953401408
 30
0.0
 10
261.2518329341709
 20
145.8993735860067
 30
0.0
 10
261.0449614767484
 20
146.7792241670563
 30
0.0
 10
260.838373974915
 20
147.7158779856361
 30
0.0
 10
260.632698376244
 20
148.7063667728316
 30
0.0
 10
260.4285641010472
 20
149.7477717627487
 30
0.0
 10
260.2265897886641
 20
150.8368449004697
 30
0.0
 10
260.0273955514571
 20
151.9702910289477
 30
0.0
 10
259.8642209766503
 20
152.9489765422304
 30
0.0
 10
259.7356623747567
 20
153.7505282368098
 30
0.0
 10
259.6403514069187
 20
154.3606267216347
 30
0.0
 10
259.546060983716
 20
154.9787887214107
 30
0.0
 10
259.4842370009102
 20
155.3975299412471
 30
0.0
 10
259.4533084627163
 20
155.6070126245573
 30
0.0
  0
ARC
  5
144
330
1F
100
AcDbEntity
  8
0
  6
HIDDEN
 62
     7
370
     0
100
AcDbCircle
 10
256.6007293113
 20
147.8476347385
 30
0.0
 40
2.101300328127795
100
AcDbArc
 50
13.0325974719
 51
157.6569188245
  0
SPLINE
  5
145
330
1F
100
AcDbEntity
  8
0
  6
HIDDEN
 62
     7
370
     0
100
AcDbSpline
210
0.0
220
0.0
230
1.0
 70
     8
 71
     3
 72
    38
 73
    34
 74
     0
 42
0.00000001
 43
0.00000001
 12
1.0
 22
0.0
 32
0.0
 13
1.0
 23
0.0
 33
0.0
 40
0.0
 40
0.0
 40
0.0
 40
0.0
 40
0.1250000000000016
 40
0.1250000000000016
 40
0.1875000000000019
 40
0.1875000000000019
 40
0.2500000000000022
 40
0.2500000000000022
 40
0.3125000000000024
 40
0.3125000000000024
 40
0.3750000000000027
 40
0.3750000000000027
 40
0.4062500000000027
 40
0.4062500000000027
 40
0.4375000000000026
 40
0.4375000000000026
 40
0.5000000000000083
 40
0.5000000000000083
 40
0.5312500000000074
 40
0.5312500000000074
 40
0.5625000000000064
 40
0.5625000000000064
 40
0.6250000000000046
 40
0.6250000000000046
 40
0.6875000000000027
 40
0.6875000000000027
 40
0.7500000000000008
 40
0.7500000000000008
 40
0.8750000000000007
 40
0.8750000000000007
 40
0.9375000000000003
 40
0.9375000000000003
 40
1.0
 40
1.0
 40
1.0
 40
1.0
 10
254.6571859111482
 20
148.6464476832457
 30
0.0
 10
254.5371677009598
 20
148.3307597605891
 30
0.0
 10
254.4913330822831
 20
148.0151663327468
 30
0.0
 10
254.5081242391581
 20
147.5452317968562
 30
0.0
 10
254.5287516974173
 20
147.3897393706374
 30
0.0
 10
254.5982510901672
 20
147.0878073703017
 30
0.0
 10
254.6470921633434
 20
146.9403386960969
 30
0.0
 10
254.7755364402744
 20
146.6521790871974
 30
0.0
 10
254.8558232173062
 20
146.5105168344373
 30
0.0
 10
255.0507230765501
 20
146.2416786946931
 30
0.0
 10
255.1658804905962
 20
146.1130432195094
 30
0.0
 10
255.3734726242499
 20
145.9353679785466
 30
0.0
 10
255.4478821518555
 20
145.8792719523174
 30
0.0
 10
255.6099017731744
 20
145.7745527821511
 30
0.0
 10
255.698526865453
 20
145.72544580565
 30
0.0
 10
255.9833600157842
 20
145.5968559716237
 30
0.0
 10
256.2036163247284
 20
145.5359172895544
 30
0.0
 10
256.5424207811998
 20
145.5082814516377
 30
0.0
 10
256.657864322315
 20
145.5094740211925
 30
0.0
 10
256.8774887026013
 20
145.5308263031141
 30
0.0
 10
256.9846082329714
 20
145.551088383434
 30
0.0
 10
257.2831014107672
 20
145.6317611136231
 30
0.0
 10
257.4593605002535
 20
145.7129644498179
 30
0.0
 10
257.7652027961551
 20
145.9006486044483
 30
0.0
 10
257.8980458906422
 20
146.008787448849
 30
0.0
 10
258.1310034540441
 20
146.2431306440647
 30
0.0
 10
258.2297336618675
 20
146.367871611324
 30
0.0
 10
258.4843371186725
 20
146.7620459826646
 30
0.0
 10
258.5997312801371
 20
147.0547140093337
 30
0.0
 10
258.686865997108
 20
147.5130337254747
 30
0.0
 10
258.701774540989
 20
147.6696798673576
 30
0.0
 10
258.7000801165288
 20
147.9911898396895
 30
0.0
 10
258.6832886360224
 20
148.1560470373065
 30
0.0
 10
258.6479041879432
 20
148.321489245154
 30
0.0
  0
LINE
  5
146
330
1F
100
AcDbEntity
  8
0
  6
HIDDEN
 62
     7
370
     0
100
AcDbLine
 10
47.1013383614
 20
151.5970685059
 30
0.0
 11
47.1013383614
 21
145.5427579384
 31
0.0
  0
LINE
  5
147
330
1F
100
AcDbEntity
  8
0
  6
HIDDEN
 62
     7
370
     0
100
AcDbLine
 10
45.6013383614
 20
152.0300812078
 30
0.0
 11
45.6013383614
 21
146.4087833421
 31
0.0
  0
SPLINE
  5
148
330
1F
100
AcDbEntity
  8
0
  6
HIDDEN
 62
     7
370
     0
100
AcDbSpline
210
0.0
220
0.0
230
1.0
 70
     8
 71
     3
 72
    16
 73
    12
 74
     0
 42
0.00000001
 43
0.00000001
 12
1.0
 22
0.0
 32
0.0
 13
1.0
 23
0.0
 33
0.0
 40
0.0
 40
0.0
 40
0.0
 40
0.0
 40
0.2500000000000001
 40
0.2500000000000001
 40
0.3750000000000001
 40
0.3750000000000001
 40
0.5000000000000001
 40
0.5000000000000001
 40
0.75
 40
0.75
 40
1.0
 40
1.0
 40
1.0
 40
1.0
 10
82.28001801781292
 20
150.1172147084014
 30
0.0
 10
82.11878554032845
 20
149.4028205462093
 30
0.0
 10
81.99830570068882
 20
148.7494782835006
 30
0.0
 10
81.8759251833755
 20
147.8612230416967
 30
0.0
 10
81.84494752297803
 20
147.5805425053448
 30
0.0
 10
81.80333378535008
 20
147.0515085155048
 30
0.0
 10
81.79309787241728
 20
146.8081875369264
 30
0.0
 10
81.79290947536116
 20
146.1401648464131
 30
0.0
 10
81.83305417799878
 20
145.7764839369937
 30
0.0
 10
81.99720793293834
 20
145.2165930644454
 30
0.0
 10
82.1187595833479
 20
145.0290717723282
 30
0.0
 10
82.2800180178129
 20
144.9310403796403
 30
0.0
  0
LINE
  5
149
330
1F
100
AcDbEntity
  8
0
  6
HIDDEN
 62
     7
370
     0
100
AcDbLine
 10
81.4013383614
 20
151.1662008118
 30
0.0
 11
81.4013383614
 21
144.6810225501
 31
0.0
  0
SPLINE
  5
14A
330
1F
100
AcDbEntity
  8
0
  6
HIDDEN
 62
     7
370
     0
100
AcDbSpline
210
0.0
220
0.0
230
1.0
 70
     8
 71
     3
 72
    16
 73
    12
 74
     0
 42
0.00000001
 43
0.00000001
 12
1.0
 22
0.0
 32
0.0
 13
1.0
 23
0.0
 33
0.0
 40
0.0
 40
0.0
 40
0.0
 40
0.0
 40
0.2499999999999999
 40
0.2499999999999999
 40
0.3749999999999996
 40
0.3749999999999996
 40
0.4999999999999993
 40
0.4999999999999993
 40
0.7499999999999997
 40
0.7499999999999997
 40
1.0
 40
1.0
 40
1.0
 40
1.0
 10
82.28001801781292
 20
188.4712022896445
 30
0.0
 10
82.11878554032845
 20
188.3731866765898
 30
0.0
 10
81.99830570068882
 20
188.1864506449138
 30
0.0
 10
81.8759251833755
 20
187.7734108373548
 30
0.0
 10
81.84494752297805
 20
187.6134103381219
 30
0.0
 10
81.80333378535009
 20
187.2466046870308
 30
0.0
 10
81.79309787241728
 20
187.0432675344068
 30
0.0
 10
81.79290947536117
 20
186.3759802677801
 30
0.0
 10
81.83305417799879
 20
185.855165803892
 30
0.0
 10
81.99720793293835
 20
184.6578067884143
 30
0.0
 10
82.11875958334791
 20
183.9995371341184
 30
0.0
 10
82.28001801781292
 20
183.2850279608834
 30
0.0
  0
LINE
  5
14B
330
1F
100
AcDbEntity
  8
0
  6
HIDDEN
 62
     7
370
     0
100
AcDbLine
 10
81.4013383614
 20
188.7212201192
 30
0.0
 11
81.4013383614
 21
182.2360418575
 31
0.0
  0
LINE
  5
14C
330
1F
100
AcDbEntity
  8
0
  6
HIDDEN
 62
     7
370
     0
100
AcDbLine
 10
47.1013383614
 20
187.8594847309
 30
0.0
 11
47.1013383614
 21
181.8051741634
 31
0.0
  0
LINE
  5
14D
330
1F
100
AcDbEntity
  8
0
  6
HIDDEN
 62
     7
370
     0
100
AcDbLine
 10
45.6013383614
 20
186.9934593271
 30
0.0
 11
45.6013383614
 21
181.3721614615
 31
0.0
  0
LWPOLYLINE
  5
14E
330
1F
100
AcDbEntity
  8
0
  6
HIDDEN
 62
     7
370
     0
100
AcDbPolyline
 90
       23
 70
   128
 43
0.0
 10
220.6013383614
 20
172.0918671366
 10
221.4465360319
 20
172.1901797548
 10
222.2232608137
 20
172.4771529058
 10
222.8685870844
 20
172.9295377316
 10
223.3302343474
 20
173.510684704
 10
223.570802687
 20
174.1735127516
 10
223.570802687
 20
174.8643234879
 10
223.3302343474
 20
175.5271515354
 10
222.8685870844
 20
176.1082985079
 10
222.2232608137
 20
176.5606833336
 10
221.4465360319
 20
176.8476564846
 10
220.6013383614
 20
176.9459691028
 10
219.7561406908
 20
176.8476564846
 10
218.979415909
 20
176.5606833336
 10
218.3340896383
 20
176.1082985079
 10
217.8724423753
 20
175.5271515354
 10
217.6318740357
 20
174.8643234879
 10
217.6318740357
 20
174.1735127516
 10
217.8724423753
 20
173.510684704
 10
218.3340896383
 20
172.9295377316
 10
218.979415909
 20
172.4771529058
 10
219.7561406908
 20
172.1901797548
 10
220.6013383614
 20
172.0918671366
  0
LINE
  5
14F
330
1F
100
AcDbEntity
  8
0
  6
HIDDEN
 62
     7
370
     0
100
AcDbLine
 10
45.6013383614
 20
181.3721614615
 30
0.0
 11
45.6013383614
 21
169.6031086676
 31
0.0
  0
LINE
  5
150
330
1F
100
AcDbEntity
  8
0
  6
HIDDEN
 62
     7
370
     0
100
AcDbLine
 10
45.6013383614
 20
163.7991340017
 30
0.0
 11
45.6013383614
 21
152.0300812078
 31
0.0
  0
LINE
  5
151
330
1F
100
AcDbEntity
  8
0
  6
HIDDEN
 62
     7
370
     0
100
AcDbLine
 10
47.1013383614
 20
162.7359104378
 30
0.0
 11
47.1013383614
 21
151.5970685059
 31
0.0
  0
LINE
  5
152
330
1F
100
AcDbEntity
  8
0
  6
HIDDEN
 62
     7
370
     0
100
AcDbLine
 10
47.1013383614
 20
181.8051741634
 30
0.0
 11
47.1013383614
 21
170.6663322315
 31
0.0
  0
SPLINE
  5
153
330
1F
100
AcDbEntity
  8
0
  6
HIDDEN
 62
     7
370
     0
100
AcDbSpline
210
0.0
220
0.0
230
1.0
 70
     8
 71
     3
 72
    18
 73
    14
 74
     0
 42
0.00000001
 43
0.00000001
 12
1.0
 22
0.0
 32
0.0
 13
1.0
 23
0.0
 33
0.0
 40
0.0
 40
0.0
 40
0.0
 40
0.0
 40
0.2499999999999826
 40
0.2499999999999826
 40
0.3749999999999823
 40
0.3749999999999823
 40
0.4999999999999821
 40
0.4999999999999821
 40
0.6249999999999819
 40
0.6249999999999819
 40
0.7499999999999817
 40
0.7499999999999817
 40
1.0
 40
1.0
 40
1.0
 40
1.0
 10
258.6479041878923
 20
148.3214892451178
 30
0.0
 10
258.3572142237256
 20
148.4928842733404
 30
0.0
 10
258.0577511068973
 20
148.6558493337457
 30
0.0
 10
257.570179623192
 20
148.8570221376149
 30
0.0
 10
257.4005717936515
 20
148.916362346185
 30
0.0
 10
257.0538059963154
 20
149.0071288611211
 30
0.0
 10
256.8734854152634
 20
149.0390934753231
 30
0.0
 10
256.5092241383896
 20
149.0681047040641
 30
0.0
 10
256.3291055651943
 20
149.0652167202593
 30
0.0
 10
255.9722274403904
 20
149.0307934598997
 30
0.0
 10
255.7954577842693
 20
148.9991425569177
 30
0.0
 10
255.287281835369
 20
148.8795295311229
 30
0.0
 10
254.9686290111345
 20
148.7677724245967
 30
0.0
 10
254.6571859111609
 20
148.6464476831285
 30
0.0
  0
LINE
  5
154
330
1F
100
AcDbEntity
  8
0
  6
HIDDEN
 62
     7
370
     0
100
AcDbLine
 10
83.4013383614
 20
181.7388284971
 30
0.0
 11
83.4013383614
 21
151.6634141722
 31
0.0
  0
LINE
  5
155
330
1F
100
AcDbEntity
  8
0
  6
HIDDEN
 62
     7
370
     0
100
AcDbLine
 10
81.4013383614
 20
182.2360418575
 30
0.0
 11
81.4013383614
 21
151.1662008118
 31
0.0
  0
SPLINE
  5
156
330
1F
100
AcDbEntity
  8
0
  6
HIDDEN
 62
     7
370
     0
100
AcDbSpline
210
0.0
220
0.0
230
1.0
 70
     8
 71
     3
 72
    24
 73
    20
 74
     0
 42
0.00000001
 43
0.00000001
 12
1.0
 22
0.0
 32
0.0
 13
1.0
 23
0.0
 33
0.0
 40
0.0
 40
0.0
 40
0.0
 40
0.0
 40
0.1249999999999997
 40
0.1249999999999997
 40
0.2499999999999994
 40
0.2499999999999994
 40
0.3749999999999992
 40
0.3749999999999992
 40
0.4374999999999992
 40
0.4374999999999992
 40
0.4999999999999993
 40
0.4999999999999993
 40
0.6249999999999994
 40
0.6249999999999994
 40
0.7499999999999997
 40
0.7499999999999997
 40
0.8749999999999998
 40
0.8749999999999998
 40
1.0
 40
1.0
 40
1.0
 40
1.0
 10
52.05133836137256
 20
162.6151602815432
 30
0.0
 10
52.28914199364765
 20
162.9141673838733
 30
0.0
 10
52.51922765485893
 20
163.2185052351921
 30
0.0
 10
52.95398105346875
 20
163.844238772588
 30
0.0
 10
53.1589138457549
 20
164.1654634999156
 30
0.0
 10
53.52401579625359
 20
164.8373892706483
 30
0.0
 10
53.6858161820451
 20
165.1927045025272
 30
0.0
 10
53.85767638662482
 20
165.7429357238796
 30
0.0
 10
53.90326157828494
 20
165.9293395088601
 30
0.0
 10
53.96573631785979
 20
166.3094740109563
 30
0.0
 10
53.98240746360825
 20
166.5051438032422
 30
0.0
 10
53.98292850678475
 20
167.0836241819166
 30
0.0
 10
53.91848620589806
 20
167.4615360208854
 30
0.0
 10
53.68863711252472
 20
168.2035040459838
 30
0.0
 10
53.53011643486162
 20
168.5522195061448
 30
0.0
 10
53.16588210496147
 20
169.2253119038779
 30
0.0
 10
52.95914586489789
 20
169.5502643911196
 30
0.0
 10
52.52120791915751
 20
170.1811882015814
 30
0.0
 10
52.28993519187797
 20
170.487077941922
 30
0.0
 10
52.05133836137266
 20
170.7870823877415
 30
0.0
  0
LINE
  5
157
330
1F
100
AcDbEntity
  8
0
  6
HIDDEN
 62
     7
370
     0
100
AcDbLine
 10
52.0513383614
 20
162.6151602815
 30
0.0
 11
52.0513383614
 21
170.7870823877
 31
0.0
  0
SPLINE
  5
158
330
1F
100
AcDbEntity
  8
0
  6
HIDDEN
 62
     7
370
     0
100
AcDbSpline
210
0.0
220
0.0
230
1.0
 70
     8
 71
     3
 72
     8
 73
     4
 74
     0
 42
0.00000001
 43
0.00000001
 12
1.0
 22
0.0
 32
0.0
 13
1.0
 23
0.0
 33
0.0
 40
0.0000249638557296
 40
0.0000249638557296
 40
0.0000249638557296
 40
0.0000249638557296
 40
0.0049776420541172
 40
0.0049776420541172
 40
0.0049776420541172
 40
0.0049776420541172
 10
47.10133836137259
 20
162.735910437806
 30
0.0
 10
48.75131459588213
 20
162.6946312000377
 30
0.0
 10
50.40131591562716
 20
162.6544095187982
 30
0.0
 10
52.05133836137259
 20
162.6151602815432
 30
0.0
  0
SPLINE
  5
159
330
1F
100
AcDbEntity
  8
0
  6
HIDDEN
 62
     7
370
     0
100
AcDbSpline
210
0.0
220
0.0
230
1.0
 70
     8
 71
     3
 72
     8
 73
     4
 74
     0
 42
0.00000001
 43
0.00000001
 12
1.0
 22
0.0
 32
0.0
 13
1.0
 23
0.0
 33
0.0
 40
0.0000249631533153
 40
0.0000249631533153
 40
0.0000249631533153
 40
0.0000249631533153
 40
0.0049776413517029
 40
0.0049776413517029
 40
0.0049776413517029
 40
0.0049776413517029
 10
52.05133836137257
 20
170.7870823877416
 30
0.0
 10
50.40131591562716
 20
170.7478331504865
 30
0.0
 10
48.75131459588211
 20
170.7076114692471
 30
0.0
 10
47.10133836137258
 20
170.6663322314789
 30
0.0
  0
SPLINE
  5
15A
330
1F
100
AcDbEntity
  8
0
  6
HIDDEN
 62
     7
370
     0
100
AcDbSpline
210
0.0
220
0.0
230
1.0
 70
     8
 71
     3
 72
     8
 73
     4
 74
     0
 42
0.00000001
 43
0.00000001
 12
1.0
 22
0.0
 32
0.0
 13
1.0
 23
0.0
 33
0.0
 40
0.0
 40
0.0
 40
0.0
 40
0.0
 40
1.0
 40
1.0
 40
1.0
 40
1.0
 10
45.6013383613704
 20
163.7991340016621
 30
0.0
 10
46.06809897274819
 20
163.3837707560391
 30
0.0
 10
46.57384651952825
 20
163.0391803267345
 30
0.0
 10
47.10133836137263
 20
162.7359104378059
 30
0.0
  0
SPLINE
  5
15B
330
1F
100
AcDbEntity
  8
0
  6
HIDDEN
 62
     7
370
     0
100
AcDbSpline
210
0.0
220
0.0
230
1.0
 70
     8
 71
     3
 72
     8
 73
     4
 74
     0
 42
0.00000001
 43
0.00000001
 12
1.0
 22
0.0
 32
0.0
 13
1.0
 23
0.0
 33
0.0
 40
0.0
 40
0.0
 40
0.0
 40
0.0
 40
1.0
 40
1.0
 40
1.0
 40
1.0
 10
47.10133836137263
 20
170.6663322314789
 30
0.0
 10
46.57384651952911
 20
170.3630623425508
 30
0.0
 10
46.0680989727498
 20
170.0184719132468
 30
0.0
 10
45.60133836137263
 20
169.6031086676247
 30
0.0
  0
LINE
  5
15C
330
1F
100
AcDbEntity
  8
0
  6
HIDDEN
 62
     7
370
     0
100
AcDbLine
 10
45.6013383614
 20
163.7991340017
 30
0.0
 11
45.6013383614
 21
169.6031086676
 31
0.0
  0
SPLINE
  5
15D
330
1F
100
AcDbEntity
  8
0
  6
HIDDEN
 62
     7
370
     0
100
AcDbSpline
210
0.0
220
0.0
230
1.0
 70
     8
 71
     3
 72
    72
 73
    68
 74
     0
 42
0.00000001
 43
0.00000001
 12
1.0
 22
0.0
 32
0.0
 13
1.0
 23
0.0
 33
0.0
 40
-0.03125
 40
-0.03125
 40
0.0
 40
0.0
 40
0.03125
 40
0.03125
 40
0.0625
 40
0.0625
 40
0.09375
 40
0.09375
 40
0.1249999999999999
 40
0.1249999999999999
 40
0.1562499999999999
 40
0.1562499999999999
 40
0.1874999999999999
 40
0.1874999999999999
 40
0.2187499999999999
 40
0.2187499999999999
 40
0.2499999999999999
 40
0.2499999999999999
 40
0.2812499999999999
 40
0.2812499999999999
 40
0.3124999999999999
 40
0.3124999999999999
 40
0.3437499999999998
 40
0.3437499999999998
 40
0.3749999999999998
 40
0.3749999999999998
 40
0.3906249999999998
 40
0.3906249999999998
 40
0.4062499999999998
 40
0.4062499999999998
 40
0.4374999999999998
 40
0.4374999999999998
 40
0.4687499999999998
 40
0.4687499999999998
 40
0.4999999999999998
 40
0.4999999999999998
 40
0.5312499999999998
 40
0.5312499999999998
 40
0.5624999999999998
 40
0.5624999999999998
 40
0.5937499999999998
 40
0.5937499999999998
 40
0.6249999999999998
 40
0.6249999999999998
 40
0.6562499999999997
 40
0.6562499999999997
 40
0.6874999999999997
 40
0.6874999999999997
 40
0.7187499999999997
 40
0.7187499999999997
 40
0.7499999999999997
 40
0.7499999999999997
 40
0.7812499999999997
 40
0.7812499999999997
 40
0.8124999999999997
 40
0.8124999999999997
 40
0.8437499999999998
 40
0.8437499999999998
 40
0.8749999999999998
 40
0.8749999999999998
 40
0.9062499999999998
 40
0.9062499999999998
 40
0.9374999999999999
 40
0.9374999999999999
 40
0.96875
 40
0.96875
 40
1.0
 40
1.0
 40
1.03125
 40
1.03125
 10
64.72528468019777
 20
169.1419549844572
 30
0.0
 10
65.09971490007166
 20
169.5523107849424
 30
0.0
 10
65.30456750133732
 20
169.7359598676009
 30
0.0
 10
65.74743569818428
 20
170.0629147710961
 30
0.0
 10
65.98739111550258
 20
170.206692979276
 30
0.0
 10
66.48300209827711
 20
170.4442103347219
 30
0.0
 10
66.74026838943159
 20
170.5395298996196
 30
0.0
 10
67.27362215726865
 20
170.6836154322541
 30
0.0
 10
67.54790229716693
 20
170.7313514392237
 30
0.0
 10
68.09433083174649
 20
170.7769335797575
 30
0.0
 10
68.36890715021426
 20
170.7754998196852
 30
0.0
 10
68.92087432448496
 20
170.7225865115944
 30
0.0
 10
69.19149128705664
 20
170.6716167853902
 30
0.0
 10
69.71777645813583
 20
170.5230101584467
 30
0.0
 10
69.97540802154342
 20
170.4247247876895
 30
0.0
 10
70.47133418621694
 20
170.1804714285038
 30
0.0
 10
70.70431786400857
 20
170.0373912974816
 30
0.0
 10
71.14065113933357
 20
169.7095327470128
 30
0.0
 10
71.34593239319184
 20
169.5225391093126
 30
0.0
 10
71.71396669105204
 20
169.1131084894896
 30
0.0
 10
71.87548168103721
 20
168.8930030485051
 30
0.0
 10
72.15263936418434
 20
168.4212529670671
 30
0.0
 10
72.26903354361804
 20
168.1662364406259
 30
0.0
 10
72.44230758026467
 20
167.6449986172289
 30
0.0
 10
72.50075413473044
 20
167.377514499448
 30
0.0
 10
72.54461886020631
 20
166.9655988401155
 30
0.0
 10
72.55179907683568
 20
166.82589153704
 30
0.0
 10
72.55083104954024
 20
166.5497684815776
 30
0.0
 10
72.54282826012658
 20
166.4125919152468
 30
0.0
 10
72.4967555282142
 20
166.0036584739835
 30
0.0
 10
72.43582069576216
 20
165.7317322249793
 30
0.0
 10
72.25770053935364
 20
165.2085517085243
 30
0.0
 10
72.14213262801125
 20
164.9598397081609
 30
0.0
 10
71.86028584407198
 20
164.4869551831689
 30
0.0
 10
71.69341589865732
 20
164.2633459659368
 30
0.0
 10
71.32409034385854
 20
163.8586885777492
 30
0.0
 10
71.11930518756107
 20
163.6742749895797
 30
0.0
 10
70.67465224004486
 20
163.3452489546852
 30
0.0
 10
70.43980311053407
 20
163.204080878697
 30
0.0
 10
69.94639334805706
 20
162.9656713499165
 30
0.0
 10
69.68510639435242
 20
162.8678887935117
 30
0.0
 10
69.15436811383975
 20
162.7225607653215
 30
0.0
 10
68.88472841294251
 20
162.6742713751266
 30
0.0
 10
68.3369770731973
 20
162.6258561513399
 30
0.0
 10
68.05707303133867
 20
162.6263143369759
 30
0.0
 10
67.50999512350369
 20
162.6764661925781
 30
0.0
 10
67.24039001881624
 20
162.7256397596101
 30
0.0
 10
66.70923526216018
 20
162.8733142829171
 30
0.0
 10
66.44794044571665
 20
162.9724694472827
 30
0.0
 10
65.9556264675413
 20
163.2134822177594
 30
0.0
 10
65.72166959196265
 20
163.3559703423841
 30
0.0
 10
65.27950097143217
 20
163.6874577713691
 30
0.0
 10
65.07430744032052
 20
163.8748913993574
 30
0.0
 10
64.70861322396254
 20
164.2817951184079
 30
0.0
 10
64.5458426015742
 20
164.5029741930768
 30
0.0
 10
64.26489017080867
 20
164.9827215222921
 30
0.0
 10
64.15168631853513
 20
165.2327334891024
 30
0.0
 10
63.97907759439621
 20
165.7528086991228
 30
0.0
 10
63.91947131171984
 20
166.0265401637526
 30
0.0
 10
63.86157954164997
 20
166.575157813651
 30
0.0
 10
63.86236908050995
 20
166.8494976775426
 30
0.0
 10
63.92355955612636
 20
167.3982396286816
 30
0.0
 10
63.98468827986039
 20
167.6713049425387
 30
0.0
 10
64.1607679654902
 20
168.1914701913071
 30
0.0
 10
64.27709856048014
 20
168.443789324866
 30
0.0
 10
64.56029979022087
 20
168.920193666273
 30
0.0
 10
64.72528468019777
 20
169.1419549844572
 30
0.0
 10
65.09971490007166
 20
169.5523107849424
 30
0.0
  0
CIRCLE
  5
15E
330
1F
100
AcDbEntity
  8
0
  6
HIDDEN
 62
     7
370
     0
100
AcDbCircle
 10
68.1013383614
 20
166.7011213346
 30
0.0
 40
4.050000000000011
  0
SPLINE
  5
15F
330
1F
100
AcDbEntity
  8
0
  6
HIDDEN
 62
     7
370
     0
100
AcDbSpline
210
0.0
220
0.0
230
1.0
 70
     8
 71
     3
 72
     9
 73
     5
 74
     0
 42
0.00000001
 43
0.00000001
 12
1.0
 22
0.0
 32
0.0
 13
1.0
 23
0.0
 33
0.0
 40
0.0
 40
0.0
 40
0.0
 40
0.0
 40
0.496541432351487
 40
1.0
 40
1.0
 40
1.0
 40
1.0
 10
259.4533040126918
 20
155.607014057944
 30
0.0
 10
259.3958564842243
 20
155.4313943313593
 30
0.0
 10
259.2801611469885
 20
155.0777083846436
 30
0.0
 10
259.1554073704443
 20
154.7271147930808
 30
0.0
 10
259.0925990127967
 20
154.5506054456458
 30
0.0
  0
LINE
  5
160
330
1F
100
AcDbEntity
  8
0
  6
HIDDEN
 62
     7
370
     0
100
AcDbLine
 10
240.6508502349
 20
156.1640440546
 30
0.0
 11
259.0925985487
 21
154.5506001415
 31
0.0
  0
LINE
  5
161
330
1F
100
AcDbEntity
  8
0
  6
HIDDEN
 62
     7
370
     0
100
AcDbLine
 10
259.4533077598
 20
155.6070144172
 30
0.0
 11
259.3508341004
 21
156.6758592384
 31
0.0
  0
LINE
  5
162
330
1F
100
AcDbEntity
  8
0
  6
HIDDEN
 62
     7
370
     0
100
AcDbLine
 10
259.3508341004
 20
156.6758592384
 30
0.0
 11
252.243346098
 21
166.7011213346
 31
0.0
  0
CIRCLE
  5
163
330
1F
100
AcDbEntity
  8
0
  6
HIDDEN
 62
     7
370
     0
100
AcDbCircle
 10
95.6013383614
 20
166.7011213346
 30
0.0
 40
2.0
  0
LINE
  5
164
330
1F
100
AcDbEntity
  8
0
  6
HIDDEN
 62
     7
370
     0
100
AcDbLine
 10
83.6013383614
 20
142.4511213346
 30
0.0
 11
83.6942315802
 21
142.5440145535
 31
0.0
  0
LINE
  5
165
330
1F
100
AcDbEntity
  8
0
  6
HIDDEN
 62
     7
370
     0
100
AcDbLine
 10
83.6942315802
 20
190.8582281158
 30
0.0
 11
83.6013383614
 21
190.9511213346
 31
0.0
  0
ARC
  5
166
330
1F
100
AcDbEntity
  8
0
  6
HIDDEN
 62
     7
370
     0
100
AcDbCircle
 10
82.987124799
 20
143.2511213346
 30
0.0
 40
1.000000000000038
100
AcDbArc
 50
315.0
 51
0.0
  0
ARC
  5
167
330
1F
100
AcDbEntity
  8
0
  6
HIDDEN
 62
     7
370
     0
100
AcDbCircle
 10
82.987124799
 20
143.2511213346
 30
0.0
 40
1.0
100
AcDbArc
 50
0.0
 51
52.1052014664
  0
ARC
  5
168
330
1F
100
AcDbEntity
  8
0
  6
HIDDEN
 62
     7
370
     0
100
AcDbCircle
 10
82.987124799
 20
190.1511213346
 30
0.0
 40
1.000000000000038
100
AcDbArc
 50
351.8087250651
 51
45.0
  0
ARC
  5
169
330
1F
100
AcDbEntity
  8
0
  6
HIDDEN
 62
     7
370
     0
100
AcDbCircle
 10
82.987124799
 20
190.1511213346
 30
0.0
 40
1.000000000000002
100
AcDbArc
 50
307.8947985336
 51
351.8087250651
  0
LINE
  5
16A
330
1F
100
AcDbEntity
  8
0
  6
HIDDEN
 62
     7
370
     0
100
AcDbLine
 10
83.987124799
 20
143.2511213346
 30
0.0
 11
83.987124799
 21
190.1511213346
 31
0.0
  0
LINE
  5
16B
330
1F
100
AcDbEntity
  8
0
  6
HIDDEN
 62
     7
370
     0
100
AcDbLine
 10
83.987124799
 20
143.2511213346
 30
0.0
 11
83.987124799
 21
190.1511213346
 31
0.0
  0
LINE
  5
16C
330
1F
100
AcDbEntity
  8
0
  6
HIDDEN
 62
     7
370
     0
100
AcDbLine
 10
45.6013383614
 20
150.5046924902
 30
0.0
 11
47.131566801
 21
151.3881702917
 31
0.0
  0
LINE
  5
16D
330
1F
100
AcDbEntity
  8
0
  6
HIDDEN
 62
     7
370
     0
100
AcDbLine
 10
47.131566801
 20
182.0140723776
 30
0.0
 11
45.6013383614
 21
182.8975501791
 31
0.0
  0
LINE
  5
16E
330
1F
100
AcDbEntity
  8
0
  6
HIDDEN
 62
     7
370
     0
100
AcDbLine
 10
55.6013383614
 20
150.7011213346
 30
0.0
 11
56.6031396763
 21
150.7011213346
 31
0.0
  0
LINE
  5
16F
330
1F
100
AcDbEntity
  8
0
  6
HIDDEN
 62
     7
370
     0
100
AcDbLine
 10
56.6031396763
 20
182.7011213346
 30
0.0
 11
55.6013383614
 21
182.7011213346
 31
0.0
  0
ARC
  5
170
330
1F
100
AcDbEntity
  8
0
  6
HIDDEN
 62
     7
370
     0
100
AcDbCircle
 10
55.6013383614
 20
152.7011213346
 30
0.0
 40
2.000000000000001
100
AcDbArc
 50
189.9742217944
 51
270.0
  0
ARC
  5
171
330
1F
100
AcDbEntity
  8
0
  6
HIDDEN
 62
     7
370
     0
100
AcDbCircle
 10
55.6013383614
 20
180.7011213346
 30
0.0
 40
2.000000000000006
100
AcDbArc
 50
90.0
 51
170.0257782056
  0
ARC
  5
172
330
1F
100
AcDbEntity
  8
0
  6
HIDDEN
 62
     7
370
     0
100
AcDbCircle
 10
56.6031396763
 20
152.7011213346
 30
0.0
 40
2.0
100
AcDbArc
 50
270.0
 51
315.0
  0
ARC
  5
173
330
1F
100
AcDbEntity
  8
0
  6
HIDDEN
 62
     7
370
     0
100
AcDbCircle
 10
56.6031396763
 20
180.7011213346
 30
0.0
 40
2.000000000000016
100
AcDbArc
 50
45.0
 51
90.0
  0
LINE
  5
174
330
1F
100
AcDbEntity
  8
0
  6
HIDDEN
 62
     7
370
     0
100
AcDbLine
 10
58.0173532386
 20
151.2869077723
 30
0.0
 11
59.431566801
 21
152.7011213346
 31
0.0
  0
LINE
  5
175
330
1F
100
AcDbEntity
  8
0
  6
HIDDEN
 62
     7
370
     0
100
AcDbLine
 10
59.431566801
 20
180.7011213346
 30
0.0
 11
58.0173532386
 21
182.115334897
 31
0.0
  0
LINE
  5
176
330
1F
100
AcDbEntity
  8
0
  6
HIDDEN
 62
     7
370
     0
100
AcDbLine
 10
47.131566801
 20
151.3881702917
 30
0.0
 11
52.031566801
 21
152.7011213346
 31
0.0
  0
LINE
  5
177
330
1F
100
AcDbEntity
  8
0
  6
HIDDEN
 62
     7
370
     0
100
AcDbLine
 10
52.031566801
 20
180.7011213346
 30
0.0
 11
47.131566801
 21
182.0140723776
 31
0.0
  0
LINE
  5
178
330
1F
100
AcDbEntity
  8
0
  6
HIDDEN
 62
     7
370
     0
100
AcDbLine
 10
223.1013383614
 20
160.0165492782
 30
0.0
 11
223.1013383614
 21
164.20382842
 31
0.0
  0
LINE
  5
179
330
1F
100
AcDbEntity
  8
0
  6
HIDDEN
 62
     7
370
     0
100
AcDbLine
 10
223.1013383614
 20
157.296557298
 30
0.0
 11
223.1013383614
 21
157.4121976225
 31
0.0
  0
LINE
  5
17A
330
1F
100
AcDbEntity
  8
0
  6
HIDDEN
 62
     7
370
     0
100
AcDbLine
 10
218.1013383614
 20
164.2032266517
 30
0.0
 11
218.1013383614
 21
157.296557298
 31
0.0
  0
LINE
  5
17B
330
1F
100
AcDbEntity
  8
0
  6
HIDDEN
 62
     7
370
     0
100
AcDbLine
 10
53.631566801
 20
181.0475314962
 30
0.0
 11
53.031566801
 21
180.7011213346
 31
0.0
  0
LINE
  5
17C
330
1F
100
AcDbEntity
  8
0
  6
HIDDEN
 62
     7
370
     0
100
AcDbLine
 10
53.031566801
 20
152.7011213346
 30
0.0
 11
53.631566801
 21
152.3547111731
 31
0.0
  0
ARC
  5
17D
330
1F
100
AcDbEntity
  8
0
  6
HIDDEN
 62
     7
370
     0
100
AcDbCircle
 10
72.1013383614
 20
153.2011213346
 30
0.0
 40
0.5
100
AcDbArc
 50
270.0
 51
0.0
  0
ARC
  5
17E
330
1F
100
AcDbEntity
  8
0
  6
HIDDEN
 62
     7
370
     0
100
AcDbCircle
 10
72.1013383614
 20
180.2011213346
 30
0.0
 40
0.5
100
AcDbArc
 50
0.0
 51
90.0
  0
LINE
  5
17F
330
1F
100
AcDbEntity
  8
0
  6
HIDDEN
 62
     7
370
     0
100
AcDbLine
 10
59.431566801
 20
152.7011213346
 30
0.0
 11
72.1013383614
 21
152.7011213346
 31
0.0
  0
LINE
  5
180
330
1F
100
AcDbEntity
  8
0
  6
HIDDEN
 62
     7
370
     0
100
AcDbLine
 10
72.1013383614
 20
180.7011213346
 30
0.0
 11
59.431566801
 21
180.7011213346
 31
0.0
  0
LINE
  5
181
330
1F
100
AcDbEntity
  8
0
  6
HIDDEN
 62
     7
370
     0
100
AcDbLine
 10
52.031566801
 20
152.7011213346
 30
0.0
 11
53.031566801
 21
152.7011213346
 31
0.0
  0
LINE
  5
182
330
1F
100
AcDbEntity
  8
0
  6
HIDDEN
 62
     7
370
     0
100
AcDbLine
 10
53.031566801
 20
180.7011213346
 30
0.0
 11
52.031566801
 21
180.7011213346
 31
0.0
  0
LINE
  5
183
330
1F
100
AcDbEntity
  8
0
  6
HIDDEN
 62
     7
370
     0
100
AcDbLine
 10
228.3829890741
 20
157.9814998257
 30
0.0
 11
222.7852848217
 21
160.5228043766
 31
0.0
  0
LINE
  5
184
330
1F
100
AcDbEntity
  8
0
  6
HIDDEN
 62
     7
370
     0
100
AcDbLine
 10
220.7700853475
 20
155.9465397973
 30
0.0
 11
228.4095706724
 21
152.4782860369
 31
0.0
  0
LINE
  5
185
330
1F
100
AcDbEntity
  8
0
  6
HIDDEN
 62
     7
370
     0
100
AcDbLine
 10
72.6013383614
 20
156.4511213346
 30
0.0
 11
73.8513383614
 21
157.7011213346
 31
0.0
  0
LINE
  5
186
330
1F
100
AcDbEntity
  8
0
  6
HIDDEN
 62
     7
370
     0
100
AcDbLine
 10
73.8513383614
 20
175.7011213346
 30
0.0
 11
72.6013383614
 21
176.9511213346
 31
0.0
  0
LINE
  5
187
330
1F
100
AcDbEntity
  8
0
  6
HIDDEN
 62
     7
370
     0
100
AcDbLine
 10
73.8513383614
 20
157.7011213346
 30
0.0
 11
99.6013383614
 21
157.7011213346
 31
0.0
  0
LINE
  5
188
330
1F
100
AcDbEntity
  8
0
  6
HIDDEN
 62
     7
370
     0
100
AcDbLine
 10
99.6013383614
 20
175.7011213346
 30
0.0
 11
73.8513383614
 21
175.7011213346
 31
0.0
  0
LINE
  5
189
330
1F
100
AcDbEntity
  8
0
  6
HIDDEN
 62
     7
370
     0
100
AcDbLine
 10
99.6013383614
 20
157.7011213346
 30
0.0
 11
102.4554263018
 21
162.4511213346
 31
0.0
  0
LINE
  5
18A
330
1F
100
AcDbEntity
  8
0
  6
HIDDEN
 62
     7
370
     0
100
AcDbLine
 10
102.4554263018
 20
170.9511213346
 30
0.0
 11
99.6013383614
 21
175.7011213346
 31
0.0
  0
LINE
  5
18B
330
1F
100
AcDbEntity
  8
0
  6
HIDDEN
 62
     7
370
     0
100
AcDbLine
 10
223.6013383614
 20
162.4511213346
 30
0.0
 11
226.1549959922
 21
166.7011213346
 31
0.0
  0
LINE
  5
18C
330
1F
100
AcDbEntity
  8
0
  6
HIDDEN
 62
     7
370
     0
100
AcDbLine
 10
226.1549959922
 20
166.7011213346
 30
0.0
 11
223.6013383614
 21
170.9511213346
 31
0.0
  0
LINE
  5
18D
330
1F
100
AcDbEntity
  8
0
  6
HIDDEN
 62
     7
370
     0
100
AcDbLine
 10
223.6013383614
 20
170.9511213346
 30
0.0
 11
102.4554263018
 21
170.9511213346
 31
0.0
  0
LINE
  5
18E
330
1F
100
AcDbEntity
  8
0
  6
HIDDEN
 62
     7
370
     0
100
AcDbLine
 10
102.4554263018
 20
162.4511213346
 30
0.0
 11
223.6013383614
 21
162.4511213346
 31
0.0
  0
ARC
  5
18F
330
1F
100
AcDbEntity
  8
0
  6
HIDDEN
 62
     7
370
     0
100
AcDbCircle
 10
237.187124799
 20
145.7011213346
 30
0.0
 40
1.000000000000008
100
AcDbArc
 50
45.0
 51
64.9142000701
  0
LINE
  5
190
330
1F
100
AcDbEntity
  8
0
  6
HIDDEN
 62
     7
370
     0
100
AcDbLine
 10
253.0356373873
 20
152.6680101127
 30
0.0
 11
253.0356373873
 21
152.6917273138
 31
0.0
  0
LINE
  5
191
330
1F
100
AcDbEntity
  8
0
  6
HIDDEN
 62
     7
370
     0
100
AcDbLine
 10
248.8356373873
 20
152.6917273138
 30
0.0
 11
248.8356373873
 21
152.3568962398
 31
0.0
  0
LINE
  5
192
330
1F
100
AcDbEntity
  8
0
  6
HIDDEN
 62
     7
370
     0
100
AcDbLine
 10
223.1013383614
 20
169.1990160176
 30
0.0
 11
223.1013383614
 21
174.3423296144
 31
0.0
  0
LINE
  5
193
330
1F
100
AcDbEntity
  8
0
  6
HIDDEN
 62
     7
370
     0
100
AcDbLine
 10
218.1013383614
 20
174.3423296144
 30
0.0
 11
218.1013383614
 21
169.1984142493
 31
0.0
  0
LINE
  5
194
330
1F
100
AcDbEntity
  8
0
  6
HIDDEN
 62
     7
370
     0
100
AcDbLine
 10
258.7009611556
 20
147.0792676148
 30
0.0
 11
258.7009611556
 21
147.8174899879
 31
0.0
  0
LINE
  5
195
330
1F
100
AcDbEntity
  8
0
  6
HIDDEN
 62
     7
370
     0
100
AcDbLine
 10
254.5009611556
 20
147.7895087641
 30
0.0
 11
254.5009611556
 21
147.0792676148
 31
0.0
  0
LINE
  5
196
330
1F
100
AcDbEntity
  8
0
  6
HIDDEN
 62
     7
370
     0
100
AcDbLine
 10
223.6013383614
 20
174.5189181197
 30
0.0
 11
223.6013383614
 21
178.4563578859
 31
0.0
  0
LINE
  5
197
330
1F
100
AcDbEntity
  8
0
  6
HIDDEN
 62
     7
370
     0
100
AcDbLine
 10
217.6013383614
 20
178.4567575733
 30
0.0
 11
217.6013383614
 21
174.5189181197
 31
0.0
  0
LINE
  5
198
330
1F
100
AcDbEntity
  8
VERMASSUNG
  6
CENTERX2
100
AcDbLine
 10
42.4265985987
 20
166.7011213346
 30
0.0
 11
263.6013383614
 21
166.7011213346
 31
0.0
  0
LINE
  5
199
330
1F
100
AcDbEntity
  8
VERMASSUNG
  6
CENTERX2
100
AcDbLine
 10
263.6013383614
 20
139.7011213346
 30
0.0
 11
263.6013383614
 21
166.7011213346
 31
0.0
  0
LINE
  5
19A
330
1F
100
AcDbEntity
  8
VERMASSUNG
  6
CENTERX2
100
AcDbLine
 10
263.6013383614
 20
139.7011213346
 30
0.0
 11
272.1523563737
 21
139.7011213346
 31
0.0
  0
DIMENSION
  5
19B
330
1F
100
AcDbEntity
  8
VERMASSUNG
100
AcDbDimension
  2
_D
 10
263.6013383614
 20
125.2011213346
 30
0.0
 11
173.6013383614
 21
125.2011213346
 31
0.0
 70
   160
  1
<>
 71
     2
 42
-1.0
  3
SLDDIMSTYLE0
100
AcDbAlignedDimension
 13
83.6013383614
 23
135.7011213346
 33
0.0
 14
263.6013383614
 24
139.7011213346
 34
0.0
100
AcDbRotatedDimension
  0
DIMENSION
  5
1A6
330
1F
100
AcDbEntity
  8
VERMASSUNG
100
AcDbDimension
  2
_D_1
 10
263.6013383614
 20
116.9789665837
 30
0.0
 11
154.6013383614
 21
116.9789665837
 31
0.0
 70
   160
  1
<>
 71
     2
 42
-1.0
  3
SLDDIMSTYLE0
100
AcDbAlignedDimension
 13
45.6013383614
 23
146.4087833421
 33
0.0
 14
263.6013383614
 24
139.7011213346
 34
0.0
 50
0.0
100
AcDbRotatedDimension
  0
DIMENSION
  5
1B0
330
1F
100
AcDbEntity
  8
VERMASSUNG
100
AcDbDimension
  2
_D_2
 10
280.6718318764
 20
166.7011213346
 30
0.0
 11
280.6718318764
 21
153.2011213346
 31
0.0
 70
   160
  1
<>
 71
     2
 42
-1.0
  3
SLDDIMSTYLE0
100
AcDbAlignedDimension
 13
263.6013383614
 23
139.7011213346
 33
0.0
 14
263.6013383614
 24
166.7011213346
 34
0.0
 50
90.0
100
AcDbRotatedDimension
  0
DIMENSION
  5
1BA
330
1F
100
AcDbEntity
  8
VERMASSUNG
100
AcDbDimension
  2
_D_3
 10
263.5998162406
 20
140.134924329
 30
0.0
 11
270.5503410354
 21
147.2463743654
 31
0.0
 70
   162
  1
<>
 71
     1
 42
-1.0
  3
SLDDIMSTYLE1
100
AcDb2LineAngularDimension
 13
272.1523563737
 23
139.7011213346
 33
0.0
 14
263.6013383614
 24
139.7011213346
 34
0.0
 15
262.5466631399
 25
152.1431963766
 35
0.0
 16
270.5503410354
 26
147.2463743654
 36
0.0
  0
DIMENSION
  5
1C4
330
1F
100
AcDbEntity
  8
VERMASSUNG
100
AcDbDimension
  2
_D_4
 10
35.6013383614
 20
135.2011213346
 30
0.0
 11
35.6013383614
 21
166.7011213346
 31
0.0
 70
   160
  1
PSC%%c<>
 71
     2
 42
-1.0
  3
SLDDIMSTYLE0
100
AcDbAlignedDimension
 13
84.1013383614
 23
198.2011213346
 33
0.0
 14
84.1013383614
 24
135.2011213346
 34
0.0
 50
90.0
100
AcDbRotatedDimension
  0
DIMENSION
  5
1D0
330
1F
100
AcDbEntity
  8
VERMASSUNG
100
AcDbDimension
  2
_D_5
 10
147.0131784111
 20
146.7011213346
 30
0.0
 11
147.0131784111
 21
156.2735782622
 31
0.0
 70
   160
  1
%%c<>
 71
     2
 42
-1.0
  3
SLDDIMSTYLE0
100
AcDbAlignedDimension
 13
109.6013383614
 23
186.7011213346
 33
0.0
 14
109.6013383614
 24
146.7011213346
 34
0.0
 50
90.0
100
AcDbRotatedDimension
  0
LINE
  5
1D9
330
1F
100
AcDbEntity
  8
0
  6
Continuous
 62
     7
370
    15
100
AcDbLine
 10
165.0198589595
 20
39.1889163039
 30
0.0
 11
168.2417592538
 21
39.8151902791
 31
0.0
  0
LINE
  5
1DA
330
1F
100
AcDbEntity
  8
0
  6
Continuous
 62
     7
370
    15
100
AcDbLine
 10
164.3527280731
 20
53.0300085673
 30
0.0
 11
164.0508893526
 21
53.0458272644
 31
0.0
  0
SPLINE
  5
1DB
330
1F
100
AcDbEntity
  8
0
  6
Continuous
 62
     7
370
    15
100
AcDbSpline
210
0.0
220
0.0
230
1.0
 70
     8
 71
     3
 72
    25
 73
    21
 74
     0
 42
0.00000001
 43
0.00000001
 12
1.0
 22
0.0
 32
0.0
 13
1.0
 23
0.0
 33
0.0
 40
0.0
 40
0.0
 40
0.0
 40
0.0
 40
0.0195561130561903
 40
0.0404533262061971
 40
0.0626916353132602
 40
0.0904317622860292
 40
0.1253917639828116
 40
0.1880884417350463
 40
0.250779056614063
 40
0.3134558430963892
 40
0.3761112042162794
 40
0.5012860646713884
 40
0.6262910911454039
 40
0.6898286541847037
 40
0.7511216740580025
 40
0.8142890355937683
 40
0.8756974795450208
 40
0.9177642459966799
 40
0.959198121919558
 40
1.0
 40
1.0
 40
1.0
 40
1.0
 10
185.5198589774261
 20
54.03839454576485
 30
0.0
 10
185.4591060186787
 20
53.91237420547657
 30
0.0
 10
185.3334338438893
 20
53.65169142461666
 30
0.0
 10
185.1301649199898
 20
53.25197890665877
 30
0.0
 10
184.8928454377885
 20
52.80407982874265
 30
0.0
 10
184.5971691559063
 20
52.27351204773834
 30
0.0
 10
184.1404663127323
 20
51.501983271803
 30
0.0
 10
183.5166751251416
 20
50.53995760684903
 30
0.0
 10
182.7272962142263
 20
49.45186319942073
 30
0.0
 10
181.8823632717607
 20
48.40707821548455
 30
0.0
 10
180.6855692612081
 20
47.07641991902675
 30
0.0
 10
179.0627228664078
 20
45.53532689127291
 30
0.0
 10
177.2818837390521
 20
44.16969513303694
 30
0.0
 10
175.7837079017283
 20
43.19991041666298
 30
0.0
 10
174.6191194201959
 20
42.53063266883002
 30
0.0
 10
173.4340717274449
 20
41.93068178101186
 30
0.0
 10
172.3443484494796
 20
41.44954559863225
 30
0.0
 10
171.3790050499603
 20
41.07414303990922
 30
0.0
 10
170.5403743321933
 20
40.77971121955515
 30
0.0
 10
169.9773574862464
 20
40.6098660511525
 30
0.0
 10
169.6980125105242
 20
40.52559611360883
 30
0.0
  0
SPLINE
  5
1DC
330
1F
100
AcDbEntity
  8
0
  6
Continuous
 62
     7
370
    15
100
AcDbSpline
210
0.0
220
0.0
230
1.0
 70
     8
 71
     3
 72
    30
 73
    26
 74
     0
 42
0.00000001
 43
0.00000001
 12
1.0
 22
0.0
 32
0.0
 13
1.0
 23
0.0
 33
0.0
 40
0.0
 40
0.0
 40
0.0
 40
0.0
 40
0.0207069114341869
 40
0.041406112501247
 40
0.0621045485050624
 40
0.0828091655194303
 40
0.1035269034011925
 40
0.1242646888345815
 40
0.1553667458416803
 40
0.1865108101250209
 40
0.2488234702331929
 40
0.3112041718308754
 40
0.3736478134770374
 40
0.4361485351064811
 40
0.4986997874021787
 40
0.5612944505176322
 40
0.6239248439401087
 40
0.686582930144312
 40
0.7492602701633955
 40
0.8119482692000757
 40
0.8746381457214797
 40
0.9059725145784013
 40
0.9373268683283902
 40
0.9686466601039391
 40
1.0
 40
1.0
 40
1.0
 40
1.0
 10
169.6627161623173
 20
41.03033947893574
 30
0.0
 10
169.8076269760304
 20
41.07358296203409
 30
0.0
 10
170.0973946448748
 20
41.16005382620939
 30
0.0
 10
170.5288052415137
 20
41.29986878282907
 30
0.0
 10
170.9576652649561
 20
41.4470334689817
 30
0.0
 10
171.3837548584304
 20
41.60227585287691
 30
0.0
 10
171.8071330959723
 20
41.76540294254927
 30
0.0
 10
172.2976697346342
 20
41.96487755586551
 30
0.0
 10
172.8532613968095
 20
42.20586773827404
 30
0.0
 10
173.6767387397374
 20
42.59040750787804
 30
0.0
 10
174.6864324817327
 20
43.11389748008887
 30
0.0
 10
175.8621135860862
 20
43.80818494362207
 30
0.0
 10
176.9988461459303
 20
44.56669030939953
 30
0.0
 10
178.0930848862677
 20
45.38716855526552
 30
0.0
 10
179.1415815642793
 20
46.26701913631508
 30
0.0
 10
180.1410423257559
 20
47.20367295489486
 30
0.0
 10
181.0885286289034
 20
48.19416174209034
 30
0.0
 10
181.9810487121408
 20
49.23556673200746
 30
0.0
 10
182.8159732514792
 20
50.32463986972853
 30
0.0
 10
183.5906989631651
 20
51.45808599820653
 30
0.0
 10
184.1841480367272
 20
52.43677151148915
 30
0.0
 10
184.6266899082598
 20
53.23832320606858
 30
0.0
 10
184.9417835044392
 20
53.84842169089345
 30
0.0
 10
185.2415273911973
 20
54.46658369066949
 30
0.0
 10
185.4270456381288
 20
54.88532491050588
 30
0.0
 10
185.5198544143591
 20
55.09480759381608
 30
0.0
  0
SPLINE
  5
1DD
330
1F
100
AcDbEntity
  8
0
  6
Continuous
 62
     7
370
    15
100
AcDbSpline
210
0.0
220
0.0
230
1.0
 70
    24
 71
     3
 72
     9
 73
     5
 74
     0
 42
0.00000001
 43
0.00000001
 12
1.0
 22
0.0
 32
0.0
 13
1.0
 23
0.0
 33
0.0
 40
0.0
 40
0.0
 40
0.0
 40
0.0
 40
0.496541432351487
 40
1.0
 40
1.0
 40
1.0
 40
1.0
 10
185.5198589594882
 20
55.09480902720281
 30
0.0
 10
185.5198589594882
 20
54.91918930061802
 30
0.0
 10
185.5198589594882
 20
54.56550335390236
 30
0.0
 10
185.5198589594882
 20
54.21490976233957
 30
0.0
 10
185.5198589594882
 20
54.03840041490461
 30
0.0
  0
LINE
  5
1DE
330
1F
100
AcDbEntity
  8
0
  6
Continuous
 62
     7
370
    15
100
AcDbLine
 10
168.8902929338
 20
52.076526013
 30
0.0
 11
166.5178945493
 21
51.8847064163
 31
0.0
  0
LINE
  5
1DF
330
1F
100
AcDbEntity
  8
0
  6
Continuous
 62
     7
370
    15
100
AcDbLine
 10
166.5178945493
 20
51.8847064163
 30
0.0
 11
164.4265167498
 21
51.9747813279
 31
0.0
  0
LINE
  5
1E0
330
1F
100
AcDbEntity
  8
0
  6
Continuous
 62
     7
370
    15
100
AcDbLine
 10
164.1729659008
 20
55.6007273991
 30
0.0
 11
164.4265167498
 21
51.9747813279
 31
0.0
  0
LINE
  5
1E1
330
1F
100
AcDbEntity
  8
0
  6
Continuous
 62
     7
370
    15
100
AcDbLine
 10
185.5198589595
 20
56.1636542077
 30
0.0
 11
164.1729659008
 21
55.6007273991
 31
0.0
  0
LINE
  5
1E2
330
1F
100
AcDbEntity
  8
0
  6
Continuous
 62
     7
370
    15
100
AcDbLine
 10
185.5198589595
 20
55.0948093864
 30
0.0
 11
185.5198589595
 21
56.1636542077
 31
0.0
  0
LINE
  5
1E3
330
1F
100
AcDbEntity
  8
0
  6
Continuous
 62
     7
370
    15
100
AcDbLine
 10
168.8902929338
 20
52.076526013
 30
0.0
 11
168.9125380154
 21
51.758406526
 31
0.0
  0
ARC
  5
1E4
330
1F
100
AcDbEntity
  8
0
  6
Continuous
 62
     7
370
    15
100
AcDbCircle
 10
165.0198589595
 20
66.1889163039
 30
0.0
 40
20.50000000000006
100
AcDbArc
 50
0.0
 51
98.4299517575
  0
LINE
  5
1E5
330
1F
100
AcDbEntity
  8
0
  6
Continuous
 62
     7
370
    15
100
AcDbLine
 10
185.5198589595
 20
56.1636542077
 30
0.0
 11
185.5198589595
 21
66.1889163039
 31
0.0
  0
LINE
  5
1E6
330
1F
100
AcDbEntity
  8
0
  6
Continuous
 62
     7
370
    15
100
AcDbLine
 10
162.0145557327
 20
86.4674308579
 30
0.0
 11
164.1729659008
 21
55.6007273991
 31
0.0
  0
SPLINE
  5
1E7
330
1F
100
AcDbEntity
  8
0
  6
Continuous
 62
     7
370
    15
100
AcDbSpline
210
0.0
220
0.0
230
1.0
 70
     8
 71
     3
 72
    14
 73
    10
 74
     0
 42
0.00000001
 43
0.00000001
 12
1.0
 22
0.0
 32
0.0
 13
1.0
 23
0.0
 33
0.0
 40
0.0
 40
0.0
 40
0.0
 40
0.0
 40
0.2499999999999999
 40
0.2499999999999999
 40
0.4999999999999999
 40
0.4999999999999999
 40
0.7499999999999999
 40
0.7499999999999999
 40
1.0
 40
1.0
 40
1.0
 40
1.0
 10
157.6738409548071
 20
84.7909597259262
 30
0.0
 10
158.2749920322473
 20
85.02835658272424
 30
0.0
 10
158.8479128549449
 20
85.2210359758991
 30
0.0
 10
159.9240954876558
 20
85.53698319870429
 30
0.0
 10
160.3977206098544
 20
85.65183643282248
 30
0.0
 10
161.2024086928165
 20
85.82552742520757
 30
0.0
 10
161.5129442420575
 20
85.88025365164967
 30
0.0
 10
161.9416056761059
 20
85.95180005353428
 30
0.0
 10
162.0495411051052
 20
85.96711672365463
 30
0.0
 10
162.0495411051052
 20
85.96711672365461
 30
0.0
  0
SPLINE
  5
1E8
330
1F
100
AcDbEntity
  8
0
  6
Continuous
 62
     7
370
    15
100
AcDbSpline
210
0.0
220
0.0
230
1.0
 70
     8
 71
     3
 72
    18
 73
    14
 74
     0
 42
0.00000001
 43
0.00000001
 12
1.0
 22
0.0
 32
0.0
 13
1.0
 23
0.0
 33
0.0
 40
0.0
 40
0.0
 40
0.0
 40
0.0
 40
0.0197478481274673
 40
0.101625994011511
 40
0.1840758906916313
 40
0.2683369411831901
 40
0.353228907978366
 40
0.4346284100427777
 40
0.5166034658193094
 40
0.6003982874317846
 40
0.6848247102661804
 40
0.8403833575443332
 40
1.0
 40
1.0
 40
1.0
 40
1.0
 10
164.52994474972
 20
46.19501590977123
 30
0.0
 10
164.5187113542272
 20
46.19525987388042
 30
0.0
 10
164.4609022716522
 20
46.19651535725963
 30
0.0
 10
164.3166971280477
 20
46.20097479016078
 30
0.0
 10
164.0965103722329
 20
46.20974876759402
 30
0.0
 10
163.832843404629
 20
46.22349937516253
 30
0.0
 10
163.5354049830462
 20
46.24325938244262
 30
0.0
 10
163.2078806070411
 20
46.27019951006645
 30
0.0
 10
162.8524648860394
 20
46.30554858110735
 30
0.0
 10
162.4653465611859
 20
46.35128373542933
 30
0.0
 10
161.9326046693724
 20
46.4256661737226
 30
0.0
 10
161.2278583038558
 20
46.54307338822495
 30
0.0
 10
160.6346559752337
 20
46.67747336958425
 30
0.0
 10
160.3342359642884
 20
46.74553858430586
 30
0.0
  0
ELLIPSE
  5
1E9
330
1F
100
AcDbEntity
  8
0
  6
Continuous
 62
     7
370
    15
100
AcDbEllipse
 10
155.985228394
 20
54.7176879005
 30
0.0
 11
-2.063138446659735
 21
2.208439657159346
 31
0.0
210
0.0
220
0.0
230
1.0
 40
0.8112573031
 41
0.0
 42
6.283185307179586
  0
ARC
  5
1EA
330
1F
100
AcDbEntity
  8
0
  6
Continuous
 62
     7
370
    15
100
AcDbCircle
 10
165.0198589595
 20
66.1889163039
 30
0.0
 40
20.00000000000006
100
AcDbArc
 50
111.5492528118
 51
256.4507471882
  0
SPLINE
  5
1EB
330
1F
100
AcDbEntity
  8
0
  6
Continuous
 62
     7
370
    15
100
AcDbSpline
210
0.0
220
0.0
230
1.0
 70
     8
 71
     3
 72
    13
 73
     9
 74
     0
 42
0.00000001
 43
0.00000001
 12
1.0
 22
0.0
 32
0.0
 13
1.0
 23
0.0
 33
0.0
 40
0.0
 40
0.0
 40
0.0
 40
0.0
 40
0.2014441278661659
 40
0.409416217798574
 40
0.5974314273202371
 40
0.7904188211509401
 40
0.9165604778804469
 40
0.9999999999999999
 40
0.9999999999999999
 40
0.9999999999999999
 40
0.9999999999999999
 10
155.0725254816529
 20
56.04666314651399
 30
0.0
 10
154.9951283879947
 20
55.9338756026585
 30
0.0
 10
154.837826084424
 20
55.70464554214868
 30
0.0
 10
154.5009834886754
 20
55.44386435360063
 30
0.0
 10
154.1444160078522
 20
55.26378623525419
 30
0.0
 10
153.8099257155783
 20
55.19669483672703
 30
0.0
 10
153.5348064537507
 20
55.20325503278247
 30
0.0
 10
153.3909871785478
 20
55.25238092597994
 30
0.0
 10
153.333729119115
 20
55.27193917579324
 30
0.0
  0
ARC
  5
1EC
330
1F
100
AcDbEntity
  8
0
  6
Continuous
 62
     7
370
    15
100
AcDbCircle
 10
154.0029754738
 20
58.6099480841
 30
0.0
 40
2.777474912694118
100
AcDbArc
 50
292.648706144
 51
316.7460304015
  0
SPLINE
  5
1ED
330
1F
100
AcDbEntity
  8
0
  6
Continuous
 62
     7
370
    15
100
AcDbSpline
210
0.0
220
0.0
230
1.0
 70
     8
 71
     3
 72
    12
 73
     8
 74
     0
 42
0.00000001
 43
0.00000001
 12
1.0
 22
0.0
 32
0.0
 13
1.0
 23
0.0
 33
0.0
 40
0.0
 40
0.0
 40
0.0
 40
0.0
 40
0.1373697754879926
 40
0.3753930654677213
 40
0.6184864071281828
 40
0.863402451828974
 40
1.0
 40
1.0
 40
1.0
 40
1.0
 10
156.7152110474733
 20
57.09470613587591
 30
0.0
 10
156.6902510806799
 20
57.06818039447874
 30
0.0
 10
156.6220424924715
 20
56.99569298346338
 30
0.0
 10
156.4870410898105
 20
56.89645474790176
 30
0.0
 10
156.3159540991319
 20
56.7983077404602
 30
0.0
 10
156.1565730202724
 20
56.73304336814547
 30
0.0
 10
156.0603334403135
 20
56.71366692479538
 30
0.0
 10
156.0258757148091
 20
56.70672936161716
 30
0.0
  0
SPLINE
  5
1EE
330
1F
100
AcDbEntity
  8
0
  6
Continuous
 62
     7
370
    15
100
AcDbSpline
210
0.0
220
0.0
230
1.0
 70
     8
 71
     3
 72
    10
 73
     6
 74
     0
 42
0.00000001
 43
0.00000001
 12
1.0
 22
0.0
 32
0.0
 13
1.0
 23
0.0
 33
0.0
 40
0.0
 40
0.0
 40
0.0
 40
0.0
 40
0.5
 40
0.5
 40
1.0
 40
1.0
 40
1.0
 40
1.0
 10
156.0258757148088
 20
56.70672936161757
 30
0.0
 10
155.8660561099083
 20
56.6048342816523
 30
0.0
 10
155.7058572037062
 20
56.49949834851984
 30
0.0
 10
155.3860707031881
 20
56.27872166164654
 30
0.0
 10
155.2275543804601
 20
56.16392095968098
 30
0.0
 10
155.0725254816527
 20
56.04666314651437
 30
0.0
  0
CIRCLE
  5
1EF
330
1F
100
AcDbEntity
  8
0
  6
Continuous
 62
     7
370
    15
100
AcDbCircle
 10
165.0198589595
 20
66.1889163039
 30
0.0
 40
31.50000000000008
  0
LINE
  5
1F0
330
1F
100
AcDbEntity
  8
0
  6
Continuous
 62
     7
370
    15
100
AcDbLine
 10
167.4020590725
 20
51.8234623267
 30
0.0
 11
164.1498243178
 21
51.6309913459
 31
0.0
  0
LINE
  5
1F1
330
1F
100
AcDbEntity
  8
0
  6
Continuous
 62
     7
370
    15
100
AcDbLine
 10
168.9125380154
 20
51.758406526
 30
0.0
 11
167.4020590725
 21
51.8234623267
 31
0.0
  0
LINE
  5
1F2
330
1F
100
AcDbEntity
  8
0
  6
Continuous
 62
     7
370
    15
100
AcDbLine
 10
169.7262068545
 20
40.1224000138
 30
0.0
 11
168.9125380154
 21
51.758406526
 31
0.0
  0
LINE
  5
1F3
330
1F
100
AcDbEntity
  8
0
  6
Continuous
 62
     7
370
    15
100
AcDbLine
 10
169.7262068545
 20
40.1224000138
 30
0.0
 11
168.2417592538
 21
39.8151902791
 31
0.0
  0
LINE
  5
1F4
330
1F
100
AcDbEntity
  8
0
  6
Continuous
 62
     7
370
    15
100
AcDbLine
 10
168.2417592538
 20
39.8151902791
 30
0.0
 11
164.9895244991
 21
39.6227192983
 31
0.0
  0
LINE
  5
1F5
330
1F
100
AcDbEntity
  8
0
  6
Continuous
 62
     7
370
    15
100
AcDbLine
 10
164.9895244991
 20
39.6227192983
 30
0.0
 11
164.1498243178
 21
51.6309913459
 31
0.0
  0
LINE
  5
1F6
330
1F
100
AcDbEntity
  8
0
  6
Continuous
 62
     7
370
    15
100
AcDbLine
 10
165.0198589595
 20
39.1889163039
 30
0.0
 11
164.9895244991
 21
39.6227192983
 31
0.0
  0
LINE
  5
1F7
330
1F
100
AcDbEntity
  8
0
  6
Continuous
 62
     7
370
    15
100
AcDbLine
 10
167.4020590725
 20
51.8234623267
 30
0.0
 11
164.7925524791
 21
51.9590162968
 31
0.0
  0
LINE
  5
1F8
330
1F
100
AcDbEntity
  8
0
  6
Continuous
 62
     7
370
    15
100
AcDbLine
 10
164.4262887198
 20
51.9780423099
 30
0.0
 11
164.124459777
 21
51.9937211787
 31
0.0
  0
LINE
  5
1F9
330
1F
100
AcDbEntity
  8
0
  6
Continuous
 62
     7
370
    15
100
AcDbLine
 10
164.1498243178
 20
51.6309913459
 30
0.0
 11
164.124459777
 21
51.9937211787
 31
0.0
  0
LINE
  5
1FA
330
1F
100
AcDbEntity
  8
0
  6
Continuous
 62
     7
370
    15
100
AcDbLine
 10
164.3528244731
 20
53.0286299826
 30
0.0
 11
164.0509955304
 21
53.0443088514
 31
0.0
  0
LINE
  5
1FB
330
1F
100
AcDbEntity
  8
0
  6
Continuous
 62
     7
370
    15
100
AcDbLine
 10
164.124459777
 20
51.9937211787
 30
0.0
 11
164.0509955304
 21
53.0443088514
 31
0.0
  0
LINE
  5
1FC
330
1F
100
AcDbEntity
  8
0
  6
Continuous
 62
     7
370
    15
100
AcDbLine
 10
164.0509955304
 20
53.0443088514
 30
0.0
 11
164.0508893526
 21
53.0458272644
 31
0.0
  0
CIRCLE
  5
1FD
330
1F
100
AcDbEntity
  8
VERMASSUNG
  6
CENTERX2
100
AcDbCircle
 10
165.0198589595
 20
64.2397571654
 30
0.0
 40
25.0
  0
DIMENSION
  5
1FE
330
1F
100
AcDbEntity
  8
VERMASSUNG
100
AcDbDimension
  2
_D_6
 10
147.3421894298
 20
46.5620876357
 30
0.0
 11
137.4205927921
 21
36.640490998
 31
0.0
 70
   160
  1
%%c<> min. 
 71
     2
 42
-1.0
  3
SLDDIMSTYLE2
100
AcDbAlignedDimension
 13
182.6975284892
 23
81.9174266951
 33
0.0
 14
147.3421894298
 24
46.5620876357
 34
0.0
 50
45.0
100
AcDbRotatedDimension
  0
DIMENSION
  5
20D
330
1F
100
AcDbEntity
  8
VERMASSUNG
100
AcDbDimension
  2
_D_7
 10
165.0198589595
 20
32.1889163039
 30
0.0
 11
153.0903981102
 21
103.5680967614
 31
0.0
 70
   162
  1
<>
 71
     1
 42
-1.0
  3
SLDDIMSTYLE3
100
AcDb2LineAngularDimension
 13
164.1729659008
 23
55.6007273991
 33
0.0
 14
164.4265167498
 24
51.9747813279
 34
0.0
 15
165.0198589595
 25
100.1889163039
 35
0.0
 16
162.8822145828
 26
104.7037182126
 36
0.0
  0
INSERT
  5
225
330
1F
100
AcDbEntity
  8
VERMASSUNG
100
AcDbBlockReference
  2
SW_CENTERMARKSYMBOL_0
 10
165.0198589595
 20
66.1889163039
 30
0.0
  0
OLE2FRAME
  5
226
330
1F
100
AcDbEntity
  8
0
100
AcDbOle2Frame
 70
     2
  3
Paintbrush-Bild
 10
13.8511154363
 20
38.264191557
 30
0.0
 11
51.6290888628
 21
31.9806341108
 31
0.0
 71
     2
 72
     0
 73
     1
 90
    12928
310
80552BED0767C5B32B40DDAF6807D121434000000000000000006FFBDDFB85D0
310
4940DDAF6807D121434000000000000000006FFBDDFB85D04940416F4BD60AFB
310
3F4000000000000000002BED0767C5B32B40416F4BD60AFB3F40000000000000
310
0000000000000100000000010000010000000100000000000100000000320000
310
D0CF11E0A1B11AE1000000000000000000000000000000003E000300FEFF0900
310
0600000000000000000000000100000001000000000000000010000002000000
310
01000000FEFFFFFF0000000000000000FFFFFFFFFFFFFFFFFFFFFFFFFFFFFFFF
310
FFFFFFFFFFFFFFFFFFFFFFFFFFFFFFFFFFFFFFFFFFFFFFFFFFFFFFFFFFFFFFFF
310
FFFFFFFFFFFFFFFFFFFFFFFFFFFFFFFFFFFFFFFFFFFFFFFFFFFFFFFFFFFFFFFF
310
FFFFFFFFFFFFFFFFFFFFFFFFFFFFFFFFFFFFFFFFFFFFFFFFFFFFFFFFFFFFFFFF
310
FFFFFFFFFFFFFFFFFFFFFFFFFFFFFFFFFFFFFFFFFFFFFFFFFFFFFFFFFFFFFFFF
310
FFFFFFFFFFFFFFFFFFFFFFFFFFFFFFFFFFFFFFFFFFFFFFFFFFFFFFFFFFFFFFFF
310
FFFFFFFFFFFFFFFFFFFFFFFFFFFFFFFFFFFFFFFFFFFFFFFFFFFFFFFFFFFFFFFF
310
FFFFFFFFFFFFFFFFFFFFFFFFFFFFFFFFFFFFFFFFFFFFFFFFFFFFFFFFFFFFFFFF
310
FFFFFFFFFFFFFFFFFFFFFFFFFFFFFFFFFFFFFFFFFFFFFFFFFFFFFFFFFFFFFFFF
310
FFFFFFFFFFFFFFFFFFFFFFFFFFFFFFFFFFFFFFFFFFFFFFFFFFFFFFFFFFFFFFFF
310
FFFFFFFFFFFFFFFFFFFFFFFFFFFFFFFFFFFFFFFFFFFFFFFFFFFFFFFFFFFFFFFF
310
FFFFFFFFFFFFFFFFFFFFFFFFFFFFFFFFFFFFFFFFFFFFFFFFFFFFFFFFFFFFFFFF
310
FFFFFFFFFFFFFFFFFFFFFFFFFFFFFFFFFFFFFFFFFFFFFFFFFFFFFFFFFFFFFFFF
310
FFFFFFFFFFFFFFFFFFFFFFFFFFFFFFFFFFFFFFFFFFFFFFFFFFFFFFFFFFFFFFFF
310
FDFFFFFFFEFFFFFFFEFFFFFFFEFFFFFF05000000060000000700000008000000
310
090000000A0000000B0000000C0000000D0000000E0000000F00000010000000
310
11000000120000001300000014000000150000001600000017000000FEFFFFFF
310
FFFFFFFFFFFFFFFFFFFFFFFFFFFFFFFFFFFFFFFFFFFFFFFFFFFFFFFFFFFFFFFF
310
FFFFFFFFFFFFFFFFFFFFFFFFFFFFFFFFFFFFFFFFFFFFFFFFFFFFFFFFFFFFFFFF
310
FFFFFFFFFFFFFFFFFFFFFFFFFFFFFFFFFFFFFFFFFFFFFFFFFFFFFFFFFFFFFFFF
310
FFFFFFFFFFFFFFFFFFFFFFFFFFFFFFFFFFFFFFFFFFFFFFFFFFFFFFFFFFFFFFFF
310
FFFFFFFFFFFFFFFFFFFFFFFFFFFFFFFFFFFFFFFFFFFFFFFFFFFFFFFFFFFFFFFF
310
FFFFFFFFFFFFFFFFFFFFFFFFFFFFFFFFFFFFFFFFFFFFFFFFFFFFFFFFFFFFFFFF
310
FFFFFFFFFFFFFFFFFFFFFFFFFFFFFFFFFFFFFFFFFFFFFFFFFFFFFFFFFFFFFFFF
310
FFFFFFFFFFFFFFFFFFFFFFFFFFFFFFFFFFFFFFFFFFFFFFFFFFFFFFFFFFFFFFFF
310
FFFFFFFFFFFFFFFFFFFFFFFFFFFFFFFFFFFFFFFFFFFFFFFFFFFFFFFFFFFFFFFF
310
FFFFFFFFFFFFFFFFFFFFFFFFFFFFFFFFFFFFFFFFFFFFFFFFFFFFFFFFFFFFFFFF
310
FFFFFFFFFFFFFFFFFFFFFFFFFFFFFFFFFFFFFFFFFFFFFFFFFFFFFFFFFFFFFFFF
310
FFFFFFFFFFFFFFFFFFFFFFFFFFFFFFFFFFFFFFFFFFFFFFFFFFFFFFFFFFFFFFFF
310
FFFFFFFFFFFFFFFFFFFFFFFFFFFFFFFFFFFFFFFFFFFFFFFFFFFFFFFFFFFFFFFF
310
52006F006F007400200045006E00740072007900000000000000000000000000
310
0000000000000000000000000000000000000000000000000000000000000000
310
16000500FFFFFFFFFFFFFFFF020000000A00030000000000C000000000000046
310
000000000000000000000000504DDA9DF642CD0103000000C000000000000000
310
01004F006C006500000000000000000000000000000000000000000000000000
310
0000000000000000000000000000000000000000000000000000000000000000
310
0A000200FFFFFFFFFFFFFFFFFFFFFFFF00000000000000000000000000000000
310
0000000000000000000000000000000000000000000000001400000000000000
310
010043006F006D0070004F0062006A0000000000000000000000000000000000
310
0000000000000000000000000000000000000000000000000000000000000000
310
120002010100000003000000FFFFFFFF00000000000000000000000000000000
310
0000000000000000000000000000000000000000010000004D00000000000000
310
01004F006C006500310030004E00610074006900760065000000000000000000
310
0000000000000000000000000000000000000000000000000000000000000000
310
1A000200FFFFFFFFFFFFFFFFFFFFFFFF00000000000000000000000000000000
310
0000000000000000000000000000000000000000040000002426000000000000
310
FEFFFFFF02000000FEFFFFFFFFFFFFFFFFFFFFFFFFFFFFFFFFFFFFFFFFFFFFFF
310
FFFFFFFFFFFFFFFFFFFFFFFFFFFFFFFFFFFFFFFFFFFFFFFFFFFFFFFFFFFFFFFF
310
FFFFFFFFFFFFFFFFFFFFFFFFFFFFFFFFFFFFFFFFFFFFFFFFFFFFFFFFFFFFFFFF
310
FFFFFFFFFFFFFFFFFFFFFFFFFFFFFFFFFFFFFFFFFFFFFFFFFFFFFFFFFFFFFFFF
310
FFFFFFFFFFFFFFFFFFFFFFFFFFFFFFFFFFFFFFFFFFFFFFFFFFFFFFFFFFFFFFFF
310
FFFFFFFFFFFFFFFFFFFFFFFFFFFFFFFFFFFFFFFFFFFFFFFFFFFFFFFFFFFFFFFF
310
FFFFFFFFFFFFFFFFFFFFFFFFFFFFFFFFFFFFFFFFFFFFFFFFFFFFFFFFFFFFFFFF
310
FFFFFFFFFFFFFFFFFFFFFFFFFFFFFFFFFFFFFFFFFFFFFFFFFFFFFFFFFFFFFFFF
310
FFFFFFFFFFFFFFFFFFFFFFFFFFFFFFFFFFFFFFFFFFFFFFFFFFFFFFFFFFFFFFFF
310
FFFFFFFFFFFFFFFFFFFFFFFFFFFFFFFFFFFFFFFFFFFFFFFFFFFFFFFFFFFFFFFF
310
FFFFFFFFFFFFFFFFFFFFFFFFFFFFFFFFFFFFFFFFFFFFFFFFFFFFFFFFFFFFFFFF
310
FFFFFFFFFFFFFFFFFFFFFFFFFFFFFFFFFFFFFFFFFFFFFFFFFFFFFFFFFFFFFFFF
310
FFFFFFFFFFFFFFFFFFFFFFFFFFFFFFFFFFFFFFFFFFFFFFFFFFFFFFFFFFFFFFFF
310
FFFFFFFFFFFFFFFFFFFFFFFFFFFFFFFFFFFFFFFFFFFFFFFFFFFFFFFFFFFFFFFF
310
FFFFFFFFFFFFFFFFFFFFFFFFFFFFFFFFFFFFFFFFFFFFFFFFFFFFFFFFFFFFFFFF
310
FFFFFFFFFFFFFFFFFFFFFFFFFFFFFFFFFFFFFFFFFFFFFFFFFFFFFFFFFFFFFFFF
310
0100000200000000000000000000000000000000000000000000000000000000
310
0000000000000000000000000000000000000000000000000000000000000000
310
0100FEFF030A0000FFFFFFFF0A00030000000000C00000000000004607000000
310
5042727573680007000000504272757368000700000050427275736800F439B2
310
7100000000000000000000000000000000000000000000000000000000000000
310
0000000000000000000000000000000000000000000000000000000000000000
310
0000000000000000000000000000000000000000000000000000000000000000
310
0000000000000000000000000000000000000000000000000000000000000000
310
0000000000000000000000000000000000000000000000000000000000000000
310
0000000000000000000000000000000000000000000000000000000000000000
310
0000000000000000000000000000000000000000000000000000000000000000
310
0000000000000000000000000000000000000000000000000000000000000000
310
0000000000000000000000000000000000000000000000000000000000000000
310
0000000000000000000000000000000000000000000000000000000000000000
310
0000000000000000000000000000000000000000000000000000000000000000
310
0000000000000000000000000000000000000000000000000000000000000000
310
20260000424D0E260000000000003E00000028000000B40200006E0000000100
310
01000000000000000000130B0000130B00000200000002000000000000FFFFFF
310
FFFFFFFFFFFFFFFFFFFFFFFFFFFFFFFFFFFFFFFFFFFFFFFFFFFFFFFFFFFFFFFF
310
FFFFFFFFFFFFFFFFFFFFFFFFFFFFFFFFFFFFFFFFFFFFFFFFFFFFFFFFFFFFFFFF
310
FFFFFFFFFFFFFFFFFFFFFFFFFFFFFFFFFFFFFFFFFFFFFFFFF000FFFFFFFFFFFF
310
FFFFFFFFFFFFFFFFFFFFFFFFFFFFFFFFFFFFFFFFFFFFFFFFFFFFFFFFFFFFFFFF
310
FFFFFFFFFFFFFFFFFFFFFFFFFFFFFFFFFFFFFFFFFFFFFFFFFFFFFFFFFFFFFFFF
310
FFFFFFFFFFFFFFFFFFFFFFFFFFFFFFFFF000FFFFFFFFFFFFFFFFFFFFFFFFFFFF
310
FFFFFFFFFFFFFFFFFFFFFFFFFFFFFFFFFFFFFFFFFFFFFFFFFFFFFFFFFFFFFFFF
310
FFFFFFFFFFFFFFFFFFFFFFFFFFFFFFFFFFFFFFFFFFFFFFFFFFFFFFFFFFFFFFFF
310
FFFFFFFFFFFFFFFFF000FFFFFFFFFFFFFFFFFFFFFFFFFFFFFFFFFFFFFFFFFFFF
310
FFFFFFFFFFFFFFFFFFFFFFFFFFFFFFFFFFFFFFFFFFFFFFFFFFFFFFFFFFFFFFFF
310
FFFFFFFFFFFFFFFFFFFFFFFFFFFFFFFFFFFFFFFFFFFFFFFFFFFFFFFFFFFFFFFF
310
F000FFFFFFFFFFFFFFFFFFFFFFFFFFFFFFFFFFFFFFFFFFFFFFFFFFFFFFFFFFFF
310
FFFFFFFFFFFFFFFFFFFFFFFFFFFFFFFFFFFFFFFFFFFFFFFFFFFFFFFFFFFFFFFF
310
FFFFFFFFFFFFFFFFFFFFFFFFFFFFFFFFFFFFFFFFFFFFFFFFF000FFFFFFFFFFFF
310
FFFFFFFFFFFFFFFFFFFFFFFFFFFFFFFFFFFFFFFFFFFFFFFFFFFFFFFFFFFFFFFF
310
FFFFFFFFFFFFFFFFFFFFFFFFFFFFFFFFFFFFFFFFFFFFFFFFFFFFFFFFFFFFFFFF
310
FFFFFFFFFFFFFFFFFFFFFFFFFFFFFFFFF000FFFFFFFFFFFFFFFFFFFFFFFFFFFF
310
FFFFFFFFFFFFFFFFFFFFFFFFFFFFFFFFFFFFFFFFFFFFFFFFFFFFFFFFFFFFFFFF
310
FFFFFFFFFFFFFFFFFFFFFFFFFFFFFFFFFFFFFFFFFFFFFFFFFFFFFFFFFFFFFFFF
310
FFFFFFFFFFFFFFFFF000FFFFFFFFFFFFFFFFFFFFFFFFFFFFFFFFFFFFFFFFFFFF
310
FFFFFFFFFFFFFFFFFFFFFFFFFFFFFFFFFFFFFFFFFFFFFFFFFFFFFFFFFFFFFFFF
310
FFFFFFFFFFFFFFFFFFFFFFFFFFFFFFFFFFFFFFFFFFFFFFFFFFFFFFFFFFFFFFFF
310
F000FFFFFFFFFFFFFFFFFFFFFFFFFFFFFFFFFFFFFFFFFFFFFFFFFFFFFFFFFFFF
310
FFFFFFFFFFFFFFFFFFFFFFFFFFFFFFFFFFFFFFFFFFFFFFFFFFFFFFFFFFFFFFFF
310
FFFFFFFFFFFFFFFFFFFFFFFFFFFFFFFFFFFFFFFFFFFFFFFFF000FFFFFFFFFFFF
310
FFFFFFFFFFFFFFFFFFFFFFFFFFFFFFFFFFFFFFFFFFFFFFFFFFFFFFFFFFFFFFFF
310
FFFFFFFFFFFFFFFFFFFFFFFFFFFFFFFFFFFFFFFFFFFFFFFFFFFFFFFFFFFFFFFF
310
FFFFFFFFFFFFFFFFFFFFFFFFFFFFFFFFF000FFFFFFFFFFFFFFFFFFFFFFFFFFFF
310
FFFFFFFFFFFFFFFFFFFFFFFFFFFFFFFFFFFFFFFFFFFFFFFFFFFFFFFFFFFFFFFF
310
FFFFFFFFFFFFFFFFFFFFFFFFFFFFFFFFFFFFFFFFFFFFFFFFFFFFFFFFFFFFFFFF
310
FFFFFFFFFFFFFFFFF000FFFFFFFFFFFFFFFFFFFFFFFFFFFFFFFFFFFFFFFFFFFF
310
FFFFFFFFFFFFFFFFFFFFFFFFFFFFFFFFFFFFFFFFFFFFFFFFFFFFFFFFFFFFFFFF
310
FFFFFFFFFFFFFFFFFFFFFFFFFFFFFFFFFFFFFFFFFFFFFFFFFFFFFFFFFFFFFFFF
310
F000FFFFFFFFFFFFFFFFFFFFFFFFFFFFFFFFFFFFFFFFFFFFFFFFFFFFFFFFFFFF
310
FFFFFFFFFFFFFFFFFFFFFFFFFFFFFFFFFFFFFFFFFFFFFFFFFFFFFFFFFFFFFFFF
310
FFFFFFFFFFFFFFFFFFFFFFFFFFFFFFFFFFFFFFFFFFFFFFFFF000FFFFFFFFFFFF
310
FFFFFFFFFFFFFFFFFFFFFFFFFFFFFFFFFFFFFFFFFFFFFFFFFFFFFFFFFFFFFFFF
310
FFFFFFFFFFFFFFFFFFFFFFFFFFFFFFFFFFFFFFFFFFFFFFFFFFFFFFFFFFFFFFFF
310
FFFFFFFFFFFFFFFFFFFFFFFFFFFFFFFFF000FFFFFFFFFFFFFFFFFFFFFFFFFFFF
310
FFFFFFFFFFFFFFFFFFFFFFFFFFFFFFFFFFFFFFFFFFFFFFFFFFFFFFFFFFFFFFFF
310
FFFFFFFFFFFFFFFFFFFFFFFFFFFFFFFFFFFFFFFFFFFFFFFFFFFFFFFFFFFFFFFF
310
FFFFFFFFFFFFFFFFF000FFFFFFFFFFFFFFFFFFFFFFFFFFFFFFFFFFFFFFFFFFFF
310
FFFFFFFFFFFFFFFFFFFFFFFFFFFFFFFFFFFFFFFFFFFFFFFFFFFFFFFFFFFFFFFF
310
FFFFFFFFFFFFFFFFFFFFFFFFFFFFFFFFFFFFFFFFFFFFFFFFFFFFFFFFFFFFFFFF
310
F000FFFFFFFFFFFFFFFFFFFFFFFFFFFFFFFFFFFFFFFFFFFFFFFFFFFFFFFFFFFF
310
FFFFFFFFFFFFFFFFFFFFFFFFFFFFFFFFFFFFFFFFFFFFFFFFFFFFFFFFFFFFFFFF
310
FFFFFFFFFFFFFFFFFFFFFFFFFFFFFFFFFFFFFFFFFFFFFFFFF000FFFFFFFFFFFF
310
FFFFFFFFFFFFFFFFFFFFFFFFFFFFFFFFFFFFFFFFFFFFFFFFFFFFFFFFFFFFFFFF
310
FFFFFFFFFFFFFFFFFFFFFFFFFFFFFFFFFFFFFFFFFFFFFFFFFFFFFFFFFFFFFFFF
310
FFFFFFFFFFFFFFFFFFFFFFFFFFFFFFFFF000FFFFFFFFFFFFFFFFFFFFFFFFFFFF
310
FFFFFFFFFFFFFFFFFFFFFFFFFFFFFFFFFFFFFFFFFFFFFFFFFFFFFFFFFFFFFFFF
310
FFFFFFFFFFFFFFFFFFFFFFFFFFFFFFFFFFFFFFFFFFFFFFFFFFFFFFFFFFFFFFFF
310
FFFFFFFFFFFFFFFFF000FFFFF80003FFFFFFFFFFFFFFFFFFFFFFFFFFFFFFFFFF
310
FFFFF00007FFFFFFFFFF00007FFFFFF800000000000000007FFFFFFFFFFFFFFF
310
FFFFFFFC001FFFFFFFFFFFFFFC001FFFFFFFFFFFFFFFFFFFFFFFFFFE0007FFFF
310
F000FFFF8000007FFFFFFFF8000FFFFFC0007FFFFF80007FFFFF0000007FFFFF
310
FFF8000007FFFFF800000000000000007FFFFFF0001FFFFFFFFFFFC00001FFFF
310
FFFFFFFFC00001FFFFFFFF000000000003FFFFE000007FFFF000FFFE0000000F
310
FFFFFFF0000FFFFF80007FFFFF80007FFFFC0000001FFFFFFFC0000001FFFFF8
310
00000000000000007FFFFFF0001FFFFFFFFFFE0000003FFFFFFFFFFE0000003F
310
FFFFFF000000000003FFFF0000000FFFF000FFF800000003FFFFFFF00007FFFF
310
80007FFFFF80007FFFF000000007FFFFFF000000003FFFF80000000000000000
310
7FFFFFF0001FFFFFFFFFF80000000FFFFFFFFFF80000000FFFFFFF0000000000
310
03FFFC00000003FFF000FFE000000000FFFFFFF00007FFFF80003FFFFF80007F
310
FFC000000001FFFFFC000000001FFFF800000000000000007FFFFFF0001FFFFF
310
FFFFE000000003FFFFFFFFE000000003FFFFFF000000000003FFF000000000FF
310
F000FF80000000007FFFFFF00007FFFF80003FFFFF80007FFF8000000000FFFF
310
F80000000007FFF800000000000000007FFFFFF0001FFFFFFFFFC000000001FF
310
FFFFFFC000000001FFFFFF000000000003FFC0000000007FF000FF0000000000
310
3FFFFFE00007FFFF00003FFFFF80007FFE00000000003FFFF00000000003FFF8
310
00000000000000007FFFFFF0001FFFFFFFFF8000000000FFFFFFFF8000000000
310
FFFFFF000000000003FF80000000003FF000FE00000000001FFFFFE00003FFFF
310
00003FFFFF80007FFC00000000001FFFE00000000001FFF8000001FFFE000000
310
7FFFFFF0001FFFFFFFFE00000000003FFFFFFE00000000003FFFFF0000000000
310
03FF00000000001FF000FC00000000000FFFFFE00003FFFF00001FFFFF80007F
310
F800000000001FFFC00000000000FFF8000001FFFE0000007FFFFFF0001FFFFF
310
FFFC00000000001FFFFFFC00000000001FFFFF000000000003FE00000000000F
310
F000F8000000000007FFFFE00003FFFF00001FFFFF80007FF800000000000FFF
310
800000000000FFF8000001FFFE0000007FFFFFF0001FFFFFFFF800000000000F
310
FFFFF800000000000FFFFF000000000003FC000000000007F000F80000000000
310
03FFFFC00003FFFE00001FFFFF80007FF0000000000007FF0000000000007FF8
310
000001FFFE0000007FFFFFF0001FFFFFFFF0000000000007FFFFF00000000000
310
07FFFF000000000003F8000000000003F000F0000000000003FFFFC00001FFFE
310
00001FFFFF80007FE0000000000007FE0000000000003FF8000001FFFE000000
310
7FFFFFF0001FFFFFFFF0000000000007FFFFF0000000000007FFFF0000000000
310
03F800001F800003F000E00001FFF00001FFFFC00001FFFE00000FFFFF80007F
310
E00001FFE00003FE00001FFF00003FF8000001FFFE0000007FFFFFF0001FFFFF
310
FFE000003E000003FFFFE000003E000003FFFF000000000003F00001FFF80001
310
F000E00007FFFC0001FFFFC00001FFFE00000FFFFF80007FC0000FFFFC0003FC
310
0000FFFFC0001FF8000001FFFE0000007FFFFFF0001FFFFFFFC00003FFE00001
310
FFFFC00003FFE00001FFFF0001FFFFFFFFF00007FFFE0001F000E0000FFFFF00
310
00FFFF800001FFFC00000FFFFF80007FC0001FFFFE0001FC0001FFFFE0001FF8
310
000001FFFE0000007FFFFFF0001FFFFFFF80000FFFF80000FFFF80000FFFF800
310
00FFFF0003FFFFFFFFE0000FFFFF8000F000C0003FFFFF8000FFFF800000FFFC
310
000007FFFF80007F80003FFFFF0001FC0003FFFFF0001FF8000001FFFE000000
310
7FFFFFF0001FFFFFFF80003FFFFE0000FFFF80003FFFFE0000FFFF0003FFFFFF
310
FFE0003FFFFF8000F000C0003FFFFF8000FFFF800000FFFC000007FFFF80007F
310
80007FFFFF8001F80007FFFFF8000FF8000001FFFE0000007FFFFFF0001FFFFF
310
FF00007FFFFF00007FFF00007FFFFF00007FFF0003FFFFFFFFE0003FFFFFC000
310
F000C0007FFFFFC000FFFF000000FFFC000007FFFF80007F8000FFFFFF8000F8
310
000FFFFFF8000FF8000001FFFE0000007FFFFFF0001FFFFFFF0000FFFFFF8000
310
7FFF0000FFFFFF80007FFF0003FFFFFFFFC0007FFFFFC00070008000FFFFFFC0
310
00FFFF000000FFF8000007FFFF80007F8000FFFFFF8000F8000FFFFFF8000FF8
310
000001FFFE0000007FFFFFF0001FFFFFFE0001FFFFFFC0003FFE0001FFFFFFC0
310
003FFF0003FFFFFFFFC0007FFFFFE00070008000FFFFFFC0007FFF0000007FF8
310
000003FFFF80007F0001FFFFFF8000F8000FFFFFF8000FF8000001FFFE000000
310
7FFFFFF0001FFFFFFE0001FFFFFFC0003FFE0001FFFFFFC0003FFF0003FFFFFF
310
FFC000FFFFFFE00070008000FFFFFFC0007FFF0000007FF8000003FFFF80007F
310
0001FFFFFF8000F8001FFFFFF8000FF8000001FFFE0000007FFFFFF0001FFFFF
310
FE0003FFFFFFE0003FFE0003FFFFFFE0003FFF0003FFFFFFFFC000FFFFFFE000
310
70008000FFFFFFC0007FFE0000007FF8000003FFFF80007F0001FFFFFF8000F0
310
001FFFFFF8000FF8000001FFFE0000007FFFFFF0001FFFFFFC0003FFFFFFE000
310
1FFC0003FFFFFFE0001FFF0003FFFFFFFFC000FFFFFFC00070008000FFFFFF80
310
007FFE0000007FF0000003FFFF80007F0001FFFFFF0000F0001FFFFFF8000FF8
310
000001FFFE0000007FFFFFF0001FFFFFFC0007FFFFFFF0001FFC0007FFFFFFF0
310
001FFF0003FFFFFFFFC000FFFFFFC00070008001FFFFFF0000FFFE0000003FF0
310
000001FFFF80007F0001FFFFFF0000F8001FFFFFF0000FF8000001FFFE000000
310
7FFFFFF0001FFFFFFC0007FFFFFFF0001FFC0007FFFFFFF0001FFF0003FFFFFF
310
FFC001FFFFFF80007000FFFFFFFFFE0000FFFE0008003FF0008001FFFF80007F
310
FFFFFFFFFC0000FFFFFFFFFFE0000FF8000001FFFE0000007FFFFFF0001FFFFF
310
F8000FFFFFFFF8000FF8000FFFFFFFF8000FFF0003FFFFFFFFFFFFFFFFFF0000
310
7000FFFFFFFFFC0000FFFC0008003FF0008001FFFF80007FFFFFFFFFF80001FF
310
FFFFFFFF80000FF8000001FFFE0000007FFFFFF0001FFFFFF8000FFFFFFFF800
310
0FF8000FFFFFFFF8000FFF0003FFFFFFFFFFFFFFFFFE0000F000FFFFFFFFE000
310
00FFFC000C003FE000C001FFFF80007FFFFFFFFFC00001FFFFFFFFFE00001FF8
310
000001FFFE0000007FFFFFF0001FFFFFF8000FFFFFFFF8000FF8000FFFFFFFF8
310
000FFF0003FFFFFFFFFFFFFFFFF00000F000FFFFFFFE000001FFFC000C001FE0
310
00C000FFFF80007FFFFFFFFE000001FFFFFFFFE000001FF80FFFFFFFFFFFFFC0
310
7FFFFFF0001FFFFFF8000FFFFFFFF8000FF8000FFFFFFFF8000FFF0003FFFFFF
310
FFFFFFFFFF800000F000FFFFFFC0000001FFFC001C001FE001C000FFFF80007F
310
FFFFFF80000003FFFFFFF80000001FF80FFFFFFFFFFFFFC07FFFFFF0001FFFFF
310
F8001FFFFFFFFC000FF8001FFFFFFFFC000FFF0003FFFFFFFFFFFFFFF0000001
310
F000FFFFF800000001FFF8001C001FE001C000FFFF80007FFFFFF800000003FF
310
FFFF800000003FF80FFFFFFFFFFFFFC07FFFFFF0001FFFFFF8001FFFFFFFFC00
310
0FF8001FFFFFFFFC000FFF0003FFFFFFFFFFFFFE00000001F000FFFFC0000000
310
03FFF8001E001FC001E000FFFF80007FFFFF8000000007FFFFFC000000003FF8
310
0FFFFFFFFFFFFFC07FFFFFF0001FFFFFF8001FFFFFFFFC000FF8001FFFFFFFFC
310
000FFF0003FFFFFFFFFFFFE000000003F000FFFE0000000007FFF8001E000FC0
310
01E0007FFF80007FFFFE0000000007FFFFE0000000007FF80FFFFFFFFFFFFFC0
310
7FFFFFF0001FFFFFF0001FFFFFFFFC0007F0001FFFFFFFFC0007FF0003FFFFFF
310
FFFFFF0000000003F000FFF80000000007FFF8001E000FC003E0007FFF80007F
310
FFF0000000000FFFFF8000000000FFF80FFFFFFFFFFFFFC07FFFFFF0001FFFFF
310
F0001FFFFFFFFC0007F0001FFFFFFFFC0007FF0003FFFFFFFFFFFC0000000007
310
F000FFE0000000000FFFF0003E000FC003E0007FFF80007FFFC0000000001FFF
310
FE0000000001FFF80FFFFFFFFFFFFFC07FFFFFF0001FFFFFF0001FFFFFFFFC00
310
07F0001FFFFFFFFC0007FF0003FFFFFFFFFFF0000000000FF000FFC000000000
310
1FFFF0003F000F8003F0003FFF80007FFF80000000003FFFF80000000003FFF8
310
0FFFFFFFFFFFFFC07FFFFFF0001FFFFFF0001FFFFFFFFC0007F0001FFFFFFFFC
310
0007FF0003FFFFFFFFFFE0000000001FF000FF00000000007FFFF0003F000780
310
03F0003FFF80007FFF00000000007FFFF00000000007FFF80FFFFFFFFFFFFFC0
310
7FFFFFF0001FFFFFF0001FFFFFFFFC0007F0001FFFFFFFFC0007FF0003FFFFFF
310
FFFF80000000007FF000FE0000000000FFFFE0003F00078007F0003FFF80007F
310
FE0000000001FFFFE0000000001FFFF80FFFFFFFFFFFFFC07FFFFFF0001FFFFF
310
F0001FFFFFFFFC0007F0001FFFFFFFFC0007FF0003FFFFFFFFFF0000000000FF
310
F000FC0000000003FFFFE0007F00078007F0003FFF80007FFC0000000007FFFF
310
C0000000007FFFF80FFFFFFFFFFFFFC07FFFFFF0001FFFFFF8001FFFFFFFFC00
310
0FF8001FFFFFFFFC000FFF0003FFFFFFFFFE0000000003FFF000FC000000000F
310
FFFFE0007F80070007F8001FFF80007FF8000000001FFFFF8000000001FFFFF8
310
0FFFFFFFFFFFFFC07FFFFFF0001FFFFFF8001FFFFFFFFC000FF8001FFFFFFFFC
310
000FFF0003FFFFFFFFFC000000000FFFF000F8000000007FFFFFE0007F800700
310
07F8001FFF80007FF000000000FFFFFF800000000FFFFFF80FFFFFFFFFFFFFC0
310
7FFFFFF0001FFFFFF8000FFFFFFFF8000FF8000FFFFFFFF8000FFF0003FFFFFF
310
FFFC000000007FFFF000F800000007FFFFFFC0007F8003000FF8001FFF80007F
310
F000000007FFFFFF000000007FFFFFF80FFFFFFFFFFFFFC07FFFFFF0001FFFFF
310
F8000FFFFFFFF8000FF8000FFFFFFFF8000FFF0003FFFFFFFFF80000000FFFFF
310
F000F0000000FFFFFFFFC000FF8003000FF8001FFF80007FE0000000FFFFFFFF
310
0000000FFFFFFFF8000001FFFE0000007FFFFFF0001FFFFFF8000FFFFFFFF800
310
0FF8000FFFFFFFF8000FFF0003FFFFFFFFF8000000FFFFFFF000F000000FFFFF
310
FFFFC000FFC002000FF8000FFF80007FE000001FFFFFFFFE000001FFFFFFFFF8
310
000001FFFE0000007FFFFFF0001FFFFFF8000FFFFFFFF8000FF8000FFFFFFFF8
310
000FFF0003FFFFFFFFF000001FFFFFFFF000E00000FFFFFFFFFFC000FFC00200
310
0FFC000FFF80007FE00001FFFFFFFFFE00001FFFFFFFFFF8000001FFFE000000
310
7FFFFFF0001FFFFFFC000FFFFFFFF8001FFC000FFFFFFFF8001FFF0003FFFFFF
310
FFF00001FFFFFFFFF000E00007FFFFFFFFFF8000FFC000001FFC000FFF80007F
310
C0000FFFFFFFFFFE0000FFFFFFFFFFF8000001FFFE0000007FFFFFF0001FFFFF
310
FC0007FFFFFFF0001FFC0007FFFFFFF0001FFF0003FFFFFFFFF00007FFFFFFFF
310
F000E0001FFFFFFFFFFF8000FFC000001FFC000FFF80007FC0003FFFFFFFFFFE
310
0001FFFFFFFFFFF8000001FFFE0000007FFFFFF0001FFFFFFC0007FFFFFFF000
310
1FFC0007FFFFFFF0001FFF0003FFFFFFFFF0001FFFFFFFFFF000E0003FFFFF00
310
03FF8001FFE000001FFC0007FF80007FC0007FFFFF0007FC0003FFFFF0003FF8
310
000001FFFE0000007FFFFFF0001FFFFFFC0003FFFFFFE0001FFC0003FFFFFFE0
310
001FFF0003FFFFFFFFF0003FFFFFFFFFF000E0003FFFFF0001FF8001FFE00000
310
1FFE0007FF80007FC0007FFFFE0003FC0007FFFFE0003FF8000001FFFE000000
310
7FFFFFF0001FFFFFFE0003FFFFFFE0003FFE0003FFFFFFE0003FFF0003FFFFFF
310
FFF0003FFFFF8001F000E0003FFFFF0001FF0001FFE000001FFE0007FF80007F
310
C0007FFFFE0003FC0007FFFFE0003FF8000001FFFE0000007FFFFFF0001FFFFF
310
FE0001FFFFFFC0003FFE0001FFFFFFC0003FFF0003FFFFFFFFF0003FFFFF0001
310
F000E0003FFFFF0003FF0001FFE000003FFE0007FF80007FC0007FFFFE0003FC
310
0007FFFFE0003FF8000001FFFE0000007FFFFFF0001FFFFFFF0001FFFFFFC000
310
7FFF0001FFFFFFC0007FFF0003FFFFFFFFF0003FFFFF0001F000E0003FFFFE00
310
03FF0003FFF000003FFE0003FF80007FC0007FFFFC0003FE0007FFFFE0003FF8
310
000001FFFE0000007FFFFFF0001FFFFFFF0000FFFFFF80007FFF0000FFFFFF80
310
007FFF0003FFFFFFFFF0003FFFFF0001F000E0003FFFFE0003FF0003FFF00000
310
3FFF0003FF80007FC0007FFFFC0007FE0007FFFFC0003FF8000001FFFE000000
310
7FFFFFF0001FFFFFFF80007FFFFF0000FFFF80007FFFFF0000FFFF0003FFFFFF
310
FFF0003FFFFF0003F000E0003FFFFC0003FE0003FFF000003FFF0003FF80007F
310
E0003FFFF80007FE0003FFFFC0007FF8000001FFFE0000007FFFFFF0001FFFFF
310
FF80003FFFFE0000FFFF80003FFFFE0000FFFF0003FFFFFFFFF0001FFFFE0003
310
F000F0001FFFF80003FE0003FFF000007FFF0001FF80007FE0003FFFF00007FE
310
0001FFFF80007FF8000001FFFE0000007FFFFFF0001FFFFFFFC0000FFFF80001
310
FFFFC0000FFFF80001FFFF0003FFFFFFFFF0001FFFFC0003F000F0000FFFF000
310
07FE0007FFF800007FFF0001FF80007FE0001FFFE00007FF0000FFFE00007FF8
310
000001FFFE0000007FFFFFF0001FFFFFFFC00003FFE00001FFFFC00003FFE000
310
01FFFF0003FFFFFFFFF8000FFFF80003F000F00003FFC00007FC0007FFF80000
310
7FFF8001FF80007FF00007FF80000FFF00007FF80000FFF8000001FFFE000000
310
7F80000000000001FFE000003E000003FFFFE000003E000003FFFF0003FFFFFF
310
FFF80003FFE00007F000F800000000000FFC0007FFF800007FFF8001FF80007F
310
F000000000000FFF000000000000FFF8000001FFFE0000007F80000000000001
310
FFF0000000000007FFFFF0000000000007FFFF0003FFFFFFFFFC00007E000007
310
F000F800000000000FFC0007FFF80000FFFF8000FF80007FF800000000001FFF
310
800000000001FFF8000001FFFE0000007F80000000000001FFF800000000000F
310
FFFFF800000000000FFFFF0003FFFFFFFFFC00000000000FF000FC0000000000
310
1FFC0007FFFC0000FFFF8000FF80007FF800000000003FFFC00000000001FFF8
310
000001FFFE0000007F80000000000001FFF800000000000FFFFFF80000000000
310
0FFFFF0003FFFFFFFFFE00000000001FF000FE00000000003FF8000FFFFC0000
310
FFFF8000FF80007FFC00000000003FFFC00000000003FFF8000001FFFE000000
310
7F80000000000001FFFC00000000001FFFFFFC00000000001FFFFF0003FFFFFF
310
FFFF00000000001FF000FF00000000003FF8000FFFFC0000FFFFC000FF80007F
310
FE00000000007FFFE00000000007FFF8000001FFFE0000007F80000000000001
310
FFFE00000000003FFFFFFE00000000003FFFFF0003FFFFFFFFFF80000000003F
310
F000FF80000000007FF8000FFFFC0001FFFFC0007F80007FFF0000000000FFFF
310
F0000000000FFFF800000000000000007F80000000000001FFFF8000000000FF
310
FFFFFF8000000000FFFFFF0003FFFFFFFFFFC0000000007FF000FFC000000000
310
FFF8000FFFFE0001FFFFC0007F80007FFF8000000001FFFFF8000000001FFFF8
310
00000000000000007F80000000000001FFFFC000000001FFFFFFFFC000000001
310
FFFFFF0003FFFFFFFFFFE000000000FFF000FFE000000003FFF0001FFFFE0001
310
FFFFC0007F80007FFFC000000007FFFFFE000000003FFFF80000000000000000
310
7F80000000000001FFFFE000000003FFFFFFFFE000000003FFFFFF0003FFFFFF
310
FFFFF000000003FFF000FFF80000000FFFF0001FFFFE0001FFFFE0007F80007F
310
FFF00000000FFFFFFF00000000FFFFF800000000000000007F80000000000001
310
FFFFF80000000FFFFFFFFFF80000000FFFFFFF0003FFFFFFFFFFFC0000000FFF
310
F000FFFE0000003FFFF0001FFFFE0003FFFFE0003F80007FFFFC0000003FFFFF
310
FFC0000003FFFFF800000000000000007F80000000000001FFFFFE0000003FFF
310
FFFFFFFE0000003FFFFFFF0003FFFFFFFFFFFF0000003FFFF000FFFF800000FF
310
FFF0001FFFFF0003FFFFE0003F80007FFFFF000001FFFFFFFFF800001FFFFFF8
310
00000000000000007F80000000000001FFFFFFC00001FFFFFFFFFFFFC00001FF
310
FFFFFF0003FFFFFFFFFFFFC00000FFFFF000FFFFF8000FFFFFFFFFFFFFFFFFFF
310
FFFFFFFFFFFFFFFFFFFFF0001FFFFFFFFFFF0000FFFFFFF80000000000000000
310
7FFFFFFFFFFFFFFFFFFFFFFC001FFFFFFFFFFFFFFC001FFFFFFFFFFFFFFFFFFF
310
FFFFFFFC001FFFFFF000FFFFFFFFFFFFFFFFFFFFFFFFFFFFFFFFFFFFFFFFFFFF
310
FFFFFFFFFFFFFFFFFFFFFFFFFFFFFFFFFFFFFFFFFFFFFFFFFFFFFFFFFFFFFFFF
310
FFFFFFFFFFFFFFFFFFFFFFFFFFFFFFFFFFFFFFFFFFFFFFFFFFFFFFFFFFFFFFFF
310
F000FFFFFFFFFFFFFFFFFFFFFFFFFFFFFFFFFFFFFFFFFFFFFFFFFFFFFFFFFFFF
310
FFFFFFFFFFFFFFFFFFFFFFFFFFFFFFFFFFFFFFFFFFFFFFFFFFFFFFFFFFFFFFFF
310
FFFFFFFFFFFFFFFFFFFFFFFFFFFFFFFFFFFFFFFFFFFFFFFFF000FFFFFFFFFFFF
310
FFFFFFFFFFFFFFFFFFFFFFFFFFFFFFFFFFFFFFFFFFFFFFFFFFFFFFFFFFFFFFFF
310
FFFFFFFFFFFFFFFFFFFFFFFFFFFFFFFFFFFFFFFFFFFFFFFFFFFFFFFFFFFFFFFF
310
FFFFFFFFFFFFFFFFFFFFFFFFFFFFFFFFF000FFFFFFFFFFFFFFFFFFFFFFFFFFFF
310
FFFFFFFFFFFFFFFFFFFFFFFFFFFFFFFFFFFFFFFFFFFFFFFFFFFFFFFFFFFFFFFF
310
FFFFFFFFFFFFFFFFFFFFFFFFFFFFFFFFFFFFFFFFFFFFFFFFFFFFFFFFFFFFFFFF
310
FFFFFFFFFFFFFFFFF000FFFFFFFFFFFFFFFFFFFFFFFFFFFFFFFFFFFFFFFFFFFF
310
FFFFFFFFFFFFFFFFFFFFFFFFFFFFFFFFFFFFFFFFFFFFFFFFFFFFFFFFFFFFFFFF
310
FFFFFFFFFFFFFFFFFFFFFFFFFFFFFFFFFFFFFFFFFFFFFFFFFFFFFFFFFFFFFFFF
310
F000FFFFFFFFFFFFFFFFFFFFFFFFFFFFFFFFFFFFFFFFFFFFFFFFFFFFFFFFFFFF
310
FFFFFFFFFFFFFFFFFFFFFFFFFFFFFFFFFFFFFFFFFFFFFFFFFFFFFFFFFFFFFFFF
310
FFFFFFFFFFFFFFFFFFFFFFFFFFFFFFFFFFFFFFFFFFFFFFFFF000FFFFFFFFFFFF
310
FFFFFFFFFFFFFFFFFFFFFFFFFFFFFFFFFFFFFFFFFFFFFFFFFFFFFFFFFFFFFFFF
310
FFFFFFFFFFFFFFFFFFFFFFFFFFFFFFFFFFFFFFFFFFFFFFFFFFFFFFFFFFFFFFFF
310
FFFFFFFFFFFFFFFFFFFFFFFFFFFFFFFFF000FFFFFFFFFFFFFFFFFFFFFFFFFFFF
310
FFFFFFFFFFFFFFFFFFFFFFFFFFFFFFFFFFFFFFFFFFFFFFFFFFFFFFFFFFFFFFFF
310
FFFFFFFFFFFFFFFFFFFFFFFFFFFFFFFFFFFFFFFFFFFFFFFFFFFFFFFFFFFFFFFF
310
FFFFFFFFFFFFFFFFF000FFFFFFFFFFFFFFFFFFFFFFFFFFFFFFFFFFFFFFFFFFFF
310
FFFFFFFFFFFFFFFFFFFFFFFFFFFFFFFFFFFFFFFFFFFFFFFFFFFFFFFFFFFFFFFF
310
FFFFFFFFFFFFFFFFFFFFFFFFFFFFFFFFFFFFFFFFFFFFFFFFFFFFFFFFFFFFFFFF
310
F000FFFFFFFFFFFFFFFFFFFFFFFFFFFFFFFFFFFFFFFFFFFFFFFFFFFFFFFFFFFF
310
FFFFFFFFFFFFFFFFFFFFFFFFFFFFFFFFFFFFFFFFFFFFFFFFFFFFFFFFFFFFFFFF
310
FFFFFFFFFFFFFFFFFFFFFFFFFFFFFFFFFFFFFFFFFFFFFFFFF000FFFFFFFFFFFF
310
FFFFFFFFFFFFFFFFFFFFFFFFFFFFFFFFFFFFFFFFFFFFFFFFFFFFFFFFFFFFFFFF
310
FFFFFFFFFFFFFFFFFFFFFFFFFFFFFFFFFFFFFFFFFFFFFFFFFFFFFFFFFFFFFFFF
310
FFFFFFFFFFFFFFFFFFFFFFFFFFFFFFFFF000FFFFFFFFFFFFFFFFFFFFFFFFFFFF
310
FFFFFFFFFFFFFFFFFFFFFFFFFFFFFFFFFFFFFFFFFFFFFFFFFFFFFFFFFFFFFFFF
310
FFFFFFFFFFFFFFFFFFFFFFFFFFFFFFFFFFFFFFFFFFFFFFFFFFFFFFFFFFFFFFFF
310
FFFFFFFFFFFFFFFFF000FFFFFFFFFFFFFFFFFFFFFFFFFFFFFFFFFFFFFFFFFFFF
310
FFFFFFFFFFFFFFFFFFFFFFFFFFFFFFFFFFFFFFFFFFFFFFFFFFFFFFFFFFFFFFFF
310
FFFFFFFFFFFFFFFFFFFFFFFFFFFFFFFFFFFFFFFFFFFFFFFFFFFFFFFFFFFFFFFF
310
F000FFFFFFFFFFFFFFFFFFFFFFFFFFFFFFFFFFFFFFFFFFFFFFFFFFFFFFFFFFFF
310
FFFFFFFFFFFFFFFFFFFFFFFFFFFFFFFFFFFFFFFFFFFFFFFFFFFFFFFFFFFFFFFF
310
FFFFFFFFFFFFFFFFFFFFFFFFFFFFFFFFFFFFFFFFFFFFFFFFF000FFFFFFFFFFFF
310
FFFFFFFFFFFFFFFFFFFFFFFFFFFFFFFFFFFFFFFFFFFFFFFFFFFFFFFFFFFFFFFF
310
FFFFFFFFFFFFFFFFFFFFFFFFFFFFFFFFFFFFFFFFFFFFFFFFFFFFFFFFFFFFFFFF
310
FFFFFFFFFFFFFFFFFFFFFFFFFFFFFFFFF000FFFFFFFFFFFFFFFFFFFFFFFFFFFF
310
FFFFFFFFFFFFFFFFFFFFFFFFFFFFFFFFFFFFFFFFFFFFFFFFFFFFFFFFFFFFFFFF
310
FFFFFFFFFFFFFFFFFFFFFFFFFFFFFFFFFFFFFFFFFFFFFFFFFFFFFFFFFFFFFFFF
310
FFFFFFFFFFFFFFFFF000FFFFFFFFFFFFFFFFFFFFFFFFFFFFFFFFFFFFFFFFFFFF
310
FFFFFFFFFFFFFFFFFFFFFFFFFFFFFFFFFFFFFFFFFFFFFFFFFFFFFFFFFFFFFFFF
310
FFFFFFFFFFFFFFFFFFFFFFFFFFFFFFFFFFFFFFFFFFFFFFFFFFFFFFFFFFFFFFFF
310
F000FFFFFFFFFFFFFFFFFFFFFFFFFFFFFFFFFFFFFFFFFFFFFFFFFFFFFFFFFFFF
310
FFFFFFFFFFFFFFFFFFFFFFFFFFFFFFFFFFFFFFFFFFFFFFFFFFFFFFFFFFFFFFFF
310
FFFFFFFFFFFFFFFFFFFFFFFFFFFFFFFFFFFFFFFFFFFFFFFFF000FFFFFFFFFFFF
310
FFFFFFFFFFFFFFFFFFFFFFFFFFFFFFFFFFFFFFFFFFFFFFFFFFFFFFFFFFFFFFFF
310
FFFFFFFFFFFFFFFFFFFFFFFFFFFFFFFFFFFFFFFFFFFFFFFFFFFFFFFFFFFFFFFF
310
FFFFFFFFFFFFFFFFFFFFFFFFFFFFFFFFF000FFFFFFFFFFFFFFFFFFFFFFFFFFFF
310
FFFFFFFFFFFFFFFFFFFFFFFFFFFFFFFFFFFFFFFFFFFFFFFFFFFFFFFFFFFFFFFF
310
FFFFFFFFFFFFFFFFFFFFFFFFFFFFFFFFFFFFFFFFFFFFFFFFFFFFFFFFFFFFFFFF
310
FFFFFFFFFFFFFFFFF000FFFFFFFFFFFFFFFFFFFFFFFFFFFFFFFFFFFFFFFFFFFF
310
FFFFFFFFFFFFFFFFFFFFFFFFFFFFFFFFFFFFFFFFFFFFFFFFFFFFFFFFFFFFFFFF
310
FFFFFFFFFFFFFFFFFFFFFFFFFFFFFFFFFFFFFFFFFFFFFFFFFFFFFFFFFFFFFFFF
310
F000FFFFFFFFFFFFFFFFFFFFFFFFFFFFFFFFFFFFFFFFFFFFFFFFFFFFFFFFFFFF
310
FFFFFFFFFFFFFFFFFFFFFFFFFFFFFFFFFFFFFFFFFFFFFFFFFFFFFFFFFFFFFFFF
310
FFFFFFFFFFFFFFFFFFFFFFFFFFFFFFFFFFFFFFFFFFFFFFFFF000FFFFFFFFFFFF
310
FFFFFFFFFFFFFFFFFFFFFFFFFFFFFFFFFFFFFFFFFFFFFFFFFFFFFFFFFFFFFFFF
310
FFFFFFFFFFFFFFFFFFFFFFFFFFFFFFFFFFFFFFFFFFFFFFFFFFFFFFFFFFFFFFFF
310
FFFFFFFFFFFFFFFFFFFFFFFFFFFFFFFFF0000000000000000000000000000000
310
0000000000000000000000000000000000000000000000000000000000000000
310
0000000000000000000000000000000000000000000000000000000000000000
310
0000000000000000000000000000000000000000000000000000000000000000
310
0000000000000000000000000000000000000000000000000000000000000000
310
0000000000000000000000000000000000000000000000000000000000000000
310
0000000000000000000000000000000000000000000000000000000000000000
310
0000000000000000000000000000000000000000000000000000000000000000
310
0000000000000000000000000000000000000000000000000000000000000000
310
0000000000000000000000000000000000000000000000000000000000000000
310
0000000000000000000000000000000000000000000000000000000000000000
310
0000000000000000000000000000000000000000000000000000000000000000
310
0000000000000000000000000000000000000000000000000000000000000000
310
0000000000000000000000000000000000000000000000000000000000000000
310
0000000000000000000000000000000000000000000000000000000000000000
310
0000000000000000000000000000000000000000000000000000000000000000
  1
OLE
  0
ENDSEC
  0
SECTION
  2
OBJECTS
  0
DICTIONARY
  5
C
330
0
100
AcDbDictionary
281
     1
  3
ACAD_GROUP
350
D
  3
ACAD_LAYOUT
350
1A
  3
ACAD_MLINESTYLE
350
17
  3
ACAD_PLOTSETTINGS
350
19
  3
ACAD_PLOTSTYLENAME
350
E
  0
DICTIONARY
  5
D
102
{ACAD_REACTORS
330
C
102
}
330
C
100
AcDbDictionary
281
     1
  0
DICTIONARY
  5
1A
102
{ACAD_REACTORS
330
C
102
}
330
C
100
AcDbDictionary
281
     1
  3
Layout1
350
1E
  3
Layout2
350
26
  3
Model
350
22
  0
DICTIONARY
  5
17
102
{ACAD_REACTORS
330
C
102
}
330
C
100
AcDbDictionary
281
     1
  3
Standard
350
18
  0
DICTIONARY
  5
19
102
{ACAD_REACTORS
330
C
102
}
330
C
100
AcDbDictionary
281
     1
  0
ACDBDICTIONARYWDFLT
  5
E
102
{ACAD_REACTORS
330
C
102
}
330
C
100
AcDbDictionary
281
     1
  3
Normal
350
F
100
AcDbDictionaryWithDefault
340
F
  0
LAYOUT
  5
1E
102
{ACAD_REACTORS
330
1A
102
}
330
1A
100
AcDbPlotSettings
  1

  2
none_device
  4

  6

 40
0.0
 41
0.0
 42
0.0
 43
0.0
 44
0.0
 45
0.0
 46
0.0
 47
0.0
 48
0.0
 49
0.0
140
0.0
141
0.0
142
1.0
143
1.0
 70
   688
 72
     0
 73
     0
 74
     5
  7

 75
    16
147
1.0
148
0.0
149
0.0
100
AcDbLayout
  1
Layout1
 70
     1
 71
     1
 10
0.0
 20
0.0
 11
420.0
 21
297.0
 12
0.0
 22
0.0
 32
0.0
 14
1.0000000000E+20
 24
1.0000000000E+20
 34
1.0000000000E+20
 15
-1.0000000000E+20
 25
-1.0000000000E+20
 35
-1.0000000000E+20
146
0.0
 13
0.0
 23
0.0
 33
0.0
 16
1.0
 26
0.0
 36
0.0
 17
0.0
 27
1.0
 37
0.0
 76
     0
330
1B
  0
LAYOUT
  5
26
102
{ACAD_REACTORS
330
1A
102
}
330
1A
100
AcDbPlotSettings
  1

  2
none_device
  4

  6

 40
0.0
 41
0.0
 42
0.0
 43
0.0
 44
0.0
 45
0.0
 46
0.0
 47
0.0
 48
0.0
 49
0.0
140
0.0
141
0.0
142
1.0
143
1.0
 70
   688
 72
     0
 73
     0
 74
     5
  7

 75
    16
147
1.0
148
0.0
149
0.0
100
AcDbLayout
  1
Layout2
 70
     1
 71
     2
 10
0.0
 20
0.0
 11
0.0
 21
0.0
 12
0.0
 22
0.0
 32
0.0
 14
0.0
 24
0.0
 34
0.0
 15
0.0
 25
0.0
 35
0.0
146
0.0
 13
0.0
 23
0.0
 33
0.0
 16
1.0
 26
0.0
 36
0.0
 17
0.0
 27
1.0
 37
0.0
 76
     0
330
23
  0
LAYOUT
  5
22
102
{ACAD_REACTORS
330
1A
102
}
330
1A
100
AcDbPlotSettings
  1

  2
none_device
  4

  6

 40
0.0
 41
0.0
 42
0.0
 43
0.0
 44
0.0
 45
0.0
 46
0.0
 47
0.0
 48
0.0
 49
0.0
140
0.0
141
0.0
142
1.0
143
1.0
 70
  1712
 72
     0
 73
     0
 74
     0
  7

 75
     0
147
1.0
148
0.0
149
0.0
100
AcDbLayout
  1
Model
 70
     1
 71
     0
 10
0.0
 20
0.0
 11
297.0
 21
210.0
 12
0.0
 22
0.0
 32
0.0
 14
0.0
 24
0.0
 34
0.0
 15
297.0
 25
210.0
 35
0.0
146
0.0
 13
0.0
 23
0.0
 33
0.0
 16
1.0
 26
0.0
 36
0.0
 17
0.0
 27
1.0
 37
0.0
 76
     0
330
1F
331
29
  0
MLINESTYLE
  5
18
102
{ACAD_REACTORS
330
17
102
}
330
17
100
AcDbMlineStyle
  2
Standard
 70
     0
  3

 62
   256
 51
90.0
 52
90.0
 71
     2
 49
0.5
 62
   256
  6
BYLAYER
 49
-0.5
 62
   256
  6
BYLAYER
  0
ACDBPLACEHOLDER
  5
F
102
{ACAD_REACTORS
330
E
102
}
330
E
  0
ENDSEC
  0
EOF
