  0
SECTION
  2
HEADER
  9
$ACADVER
  1
AC1015
  9
$ACADMAINTVER
 70
     6
  9
$DWGCODEPAGE
  3
ANSI_1252
  9
$INSBASE
 10
0.0
 20
0.0
 30
0.0
  9
$EXTMIN
 10
0.0
 20
0.0
 30
0.0
  9
$EXTMAX
 10
297.0
 20
210.0
 30
0.0
  9
$LIMMIN
 10
0.0
 20
0.0
  9
$LIMMAX
 10
297.0
 20
210.0
  9
$ORTHOMODE
 70
     0
  9
$REGENMODE
 70
     1
  9
$FILLMODE
 70
     1
  9
$QTEXTMODE
 70
     0
  9
$MIRRTEXT
 70
     1
  9
$LTSCALE
 40
1.0
  9
$ATTMODE
 70
     1
  9
$TEXTSIZE
 40
2.0
  9
$TRACEWID
 40
1.0
  9
$TEXTSTYLE
  7
Standard
  9
$CLAYER
  8
0
  9
$CELTYPE
  6
ByLayer
  9
$CECOLOR
 62
   256
  9
$CELTSCALE
 40
1.0
  9
$DISPSILH
 70
     0
  9
$DIMSCALE
 40
1.0
  9
$DIMASZ
 40
3.0
  9
$DIMEXO
 40
0.0
  9
$DIMDLI
 40
3.75
  9
$DIMRND
 40
0.0
  9
$DIMDLE
 40
0.0
  9
$DIMEXE
 40
1.0
  9
$DIMTP
 40
0.0
  9
$DIMTM
 40
0.0
  9
$DIMTXT
 40
2.0
  9
$DIMCEN
 40
2.5
  9
$DIMTSZ
 40
0.0
  9
$DIMTOL
 70
     0
  9
$DIMLIM
 70
     0
  9
$DIMTIH
 70
     1
  9
$DIMTOH
 70
     1
  9
$DIMSE1
 70
     0
  9
$DIMSE2
 70
     0
  9
$DIMTAD
 70
     1
  9
$DIMZIN
 70
     0
  9
$DIMBLK
  1

  9
$DIMASO
 70
     1
  9
$DIMSHO
 70
     1
  9
$DIMPOST
  1

  9
$DIMAPOST
  1

  9
$DIMALT
 70
     0
  9
$DIMALTD
 70
     3
  9
$DIMALTF
 40
0.0393700787
  9
$DIMLFAC
 40
1.0
  9
$DIMTOFL
 70
     1
  9
$DIMTVP
 40
0.0
  9
$DIMTIX
 70
     0
  9
$DIMSOXD
 70
     0
  9
$DIMSAH
 70
     0
  9
$DIMBLK1
  1

  9
$DIMBLK2
  1

  9
$DIMSTYLE
  2
ISO-25
  9
$DIMCLRD
 70
     0
  9
$DIMCLRE
 70
     0
  9
$DIMCLRT
 70
     0
  9
$DIMTFAC
 40
1.0
  9
$DIMGAP
 40
1.524
  9
$DIMJUST
 70
     0
  9
$DIMSD1
 70
     0
  9
$DIMSD2
 70
     0
  9
$DIMTOLJ
 70
     0
  9
$DIMTZIN
 70
     0
  9
$DIMALTZ
 70
     0
  9
$DIMALTTZ
 70
     0
  9
$DIMUPT
 70
     0
  9
$DIMDEC
 70
     2
  9
$DIMTDEC
 70
     3
  9
$DIMALTU
 70
     2
  9
$DIMALTTD
 70
     3
  9
$DIMTXSTY
  7
Standard
  9
$DIMAUNIT
 70
     0
  9
$DIMADEC
 70
     2
  9
$DIMALTRND
 40
0.0
  9
$DIMAZIN
 70
     0
  9
$DIMDSEP
 70
    44
  9
$DIMATFIT
 70
     3
  9
$DIMFRAC
 70
     0
  9
$DIMLDRBLK
  1

  9
$DIMLUNIT
 70
     2
  9
$DIMLWD
 70
    -2
  9
$DIMLWE
 70
    -2
  9
$DIMTMOVE
 70
     0
  9
$LUNITS
 70
     2
  9
$LUPREC
 70
     2
  9
$SKETCHINC
 40
1.0
  9
$FILLETRAD
 40
10.0
  9
$AUNITS
 70
     0
  9
$AUPREC
 70
     2
  9
$MENU
  1
.
  9
$ELEVATION
 40
0.0
  9
$PELEVATION
 40
0.0
  9
$THICKNESS
 40
0.0
  9
$LIMCHECK
 70
     0
  9
$CHAMFERA
 40
10.0
  9
$CHAMFERB
 40
10.0
  9
$CHAMFERC
 40
20.0
  9
$CHAMFERD
 40
0.0
  9
$SKPOLY
 70
     0
  9
$TDCREATE
 40
2456083.461007465
  9
$TDUCREATE
 40
2456083.377674132
  9
$TDUPDATE
 40
2456083.461008912
  9
$TDUUPDATE
 40
2456083.377675579
  9
$TDINDWG
 40
0.0000000116
  9
$TDUSRTIMER
 40
0.0000000116
  9
$USRTIMER
 70
     1
  9
$ANGBASE
 50
0.0
  9
$ANGDIR
 70
     0
  9
$PDMODE
 70
     0
  9
$PDSIZE
 40
-1.0
  9
$PLINEWID
 40
0.0
  9
$SPLFRAME
 70
     0
  9
$SPLINETYPE
 70
     6
  9
$SPLINESEGS
 70
     8
  9
$HANDSEED
  5
20F
  9
$SURFTAB1
 70
     6
  9
$SURFTAB2
 70
     6
  9
$SURFTYPE
 70
     6
  9
$SURFU
 70
     6
  9
$SURFV
 70
     6
  9
$UCSBASE
  2

  9
$UCSNAME
  2

  9
$UCSORG
 10
0.0
 20
0.0
 30
0.0
  9
$UCSXDIR
 10
1.0
 20
0.0
 30
0.0
  9
$UCSYDIR
 10
0.0
 20
1.0
 30
0.0
  9
$UCSORTHOREF
  2

  9
$UCSORTHOVIEW
 70
     0
  9
$UCSORGTOP
 10
0.0
 20
0.0
 30
0.0
  9
$UCSORGBOTTOM
 10
0.0
 20
0.0
 30
0.0
  9
$UCSORGLEFT
 10
0.0
 20
0.0
 30
0.0
  9
$UCSORGRIGHT
 10
0.0
 20
0.0
 30
0.0
  9
$UCSORGFRONT
 10
0.0
 20
0.0
 30
0.0
  9
$UCSORGBACK
 10
0.0
 20
0.0
 30
0.0
  9
$PUCSBASE
  2

  9
$PUCSNAME
  2

  9
$PUCSORG
 10
0.0
 20
0.0
 30
0.0
  9
$PUCSXDIR
 10
1.0
 20
0.0
 30
0.0
  9
$PUCSYDIR
 10
0.0
 20
1.0
 30
0.0
  9
$PUCSORTHOREF
  2

  9
$PUCSORTHOVIEW
 70
     0
  9
$PUCSORGTOP
 10
0.0
 20
0.0
 30
0.0
  9
$PUCSORGBOTTOM
 10
0.0
 20
0.0
 30
0.0
  9
$PUCSORGLEFT
 10
0.0
 20
0.0
 30
0.0
  9
$PUCSORGRIGHT
 10
0.0
 20
0.0
 30
0.0
  9
$PUCSORGFRONT
 10
0.0
 20
0.0
 30
0.0
  9
$PUCSORGBACK
 10
0.0
 20
0.0
 30
0.0
  9
$USERI1
 70
     0
  9
$USERI2
 70
     0
  9
$USERI3
 70
     0
  9
$USERI4
 70
     0
  9
$USERI5
 70
     0
  9
$USERR1
 40
0.0
  9
$USERR2
 40
0.0
  9
$USERR3
 40
0.0
  9
$USERR4
 40
0.0
  9
$USERR5
 40
0.0
  9
$WORLDVIEW
 70
     1
  9
$SHADEDGE
 70
     3
  9
$SHADEDIF
 70
    70
  9
$TILEMODE
 70
     1
  9
$MAXACTVP
 70
    64
  9
$PINSBASE
 10
0.0
 20
0.0
 30
0.0
  9
$PLIMCHECK
 70
     0
  9
$PEXTMIN
 10
1.0000000000E+20
 20
1.0000000000E+20
 30
1.0000000000E+20
  9
$PEXTMAX
 10
-1.0000000000E+20
 20
-1.0000000000E+20
 30
-1.0000000000E+20
  9
$PLIMMIN
 10
0.0
 20
0.0
  9
$PLIMMAX
 10
420.0
 20
297.0
  9
$UNITMODE
 70
     0
  9
$VISRETAIN
 70
     1
  9
$PLINEGEN
 70
     0
  9
$PSLTSCALE
 70
     1
  9
$TREEDEPTH
 70
  3020
  9
$CMLSTYLE
  2
Standard
  9
$CMLJUST
 70
     0
  9
$CMLSCALE
 40
20.0
  9
$PROXYGRAPHICS
 70
     1
  9
$MEASUREMENT
 70
     1
  9
$CELWEIGHT
370
    -1
  9
$ENDCAPS
280
     0
  9
$JOINSTYLE
280
     0
  9
$LWDISPLAY
290
     1
  9
$INSUNITS
 70
     4
  9
$HYPERLINKBASE
  1

  9
$STYLESHEET
  1

  9
$XEDIT
290
     1
  9
$CEPSNTYPE
380
     0
  9
$PSTYLEMODE
290
     1
  9
$FINGERPRINTGUID
  2
{34F4F657-5455-4822-8448-36F02CCF8C4C}
  9
$VERSIONGUID
  2
{FAEB1C32-E019-11D5-929B-00C0DF256EC4}
  9
$EXTNAMES
290
     1
  9
$PSVPSCALE
 40
0.0
  9
$OLESTARTUP
290
     0
  0
ENDSEC
  0
SECTION
  2
CLASSES
  0
CLASS
  1
ACDBDICTIONARYWDFLT
  2
AcDbDictionaryWithDefault
  3
ObjectDBX Classes
 90
        0
280
     0
281
     0
  0
CLASS
  1
VISUALSTYLE
  2
AcDbVisualStyle
  3
ObjectDBX Classes
 90
     4095
280
     0
281
     0
  0
CLASS
  1
MATERIAL
  2
AcDbMaterial
  3
ObjectDBX Classes
 90
     1153
280
     0
281
     0
  0
CLASS
  1
ACDBPLACEHOLDER
  2
AcDbPlaceHolder
  3
ObjectDBX Classes
 90
        0
280
     0
281
     0
  0
CLASS
  1
LAYOUT
  2
AcDbLayout
  3
ObjectDBX Classes
 90
        0
280
     0
281
     0
  0
ENDSEC
  0
SECTION
  2
TABLES
  0
TABLE
  2
VPORT
  5
8
330
0
100
AcDbSymbolTable
 70
     1
  0
VPORT
  5
29
330
8
100
AcDbSymbolTableRecord
100
AcDbViewportTableRecord
  2
*Active
 70
     0
 10
0.0
 20
0.0
 11
1.0
 21
1.0
 12
148.5
 22
105.0
 13
0.0
 23
0.0
 14
10.0
 24
10.0
 15
10.0
 25
10.0
 16
0.0
 26
0.0
 36
1.0
 17
0.0
 27
0.0
 37
0.0
 40
210.0
 41
1.4142857143
 42
50.0
 43
0.0
 44
0.0
 50
0.0
 51
0.0
 71
     0
 72
  2000
 73
     1
 74
     3
 75
     0
 76
     0
 77
     0
 78
     0
281
     0
 65
     1
110
0.0
120
0.0
130
0.0
111
1.0
121
0.0
131
0.0
112
0.0
122
1.0
132
0.0
 79
     0
146
0.0
  0
ENDTAB
  0
TABLE
  2
LTYPE
  5
5
330
0
100
AcDbSymbolTable
 70
     6
  0
LTYPE
  5
14
330
5
100
AcDbSymbolTableRecord
100
AcDbLinetypeTableRecord
  2
ByBlock
 70
     0
  3

 72
    65
 73
     0
 40
0.0
  0
LTYPE
  5
15
330
5
100
AcDbSymbolTableRecord
100
AcDbLinetypeTableRecord
  2
ByLayer
 70
     0
  3

 72
    65
 73
     0
 40
0.0
  0
LTYPE
  5
16
330
5
100
AcDbSymbolTableRecord
100
AcDbLinetypeTableRecord
  2
Continuous
 70
     0
  3
Solid line
 72
    65
 73
     0
 40
0.0
  0
LTYPE
  5
3F
330
5
100
AcDbSymbolTableRecord
100
AcDbLinetypeTableRecord
  2
HIDDEN
 70
     0
  3
Hidden __ __ __ __ __ __ __ __ __ __ __ __ __ __
 72
    65
 73
     2
 40
1.905
 49
1.27
 74
     0
 49
-0.635
 74
     0
  0
LTYPE
  5
40
330
5
100
AcDbSymbolTableRecord
100
AcDbLinetypeTableRecord
  2
PHANTOM
 70
     0
  3
Phantom ______  __  __  ______  __  __  ______
 72
    65
 73
     6
 40
12.7
 49
6.35
 74
     0
 49
-1.27
 74
     0
 49
1.27
 74
     0
 49
-1.27
 74
     0
 49
1.27
 74
     0
 49
-1.27
 74
     0
  0
LTYPE
  5
41
330
5
100
AcDbSymbolTableRecord
100
AcDbLinetypeTableRecord
  2
CENTER
 70
     0
  3
Center ____ _ ____ _ ____ _ ____ _ ____ _ ____
 72
    65
 73
     4
 40
10.16
 49
6.35
 74
     0
 49
-1.27
 74
     0
 49
1.27
 74
     0
 49
-1.27
 74
     0
  0
LTYPE
  5
42
330
5
100
AcDbSymbolTableRecord
100
AcDbLinetypeTableRecord
  2
CENTERX2
 70
     0
  3
Center (2x) ________  __  ________  __  _____
 72
    65
 73
     4
 40
20.32
 49
12.7
 74
     0
 49
-2.54
 74
     0
 49
2.54
 74
     0
 49
-2.54
 74
     0
  0
LTYPE
  5
43
330
5
100
AcDbSymbolTableRecord
100
AcDbLinetypeTableRecord
  2
DOT2
 70
     0
  3
Dot (.5x) ........................................
 72
    65
 73
     2
 40
0.635
 49
0.0
 74
     0
 49
-0.635
 74
     0
  0
ENDTAB
  0
TABLE
  2
LAYER
  5
2
330
0
100
AcDbSymbolTable
 70
     5
  0
LAYER
  5
10
330
2
100
AcDbSymbolTableRecord
100
AcDbLayerTableRecord
  2
0
 70
     0
 62
     7
  6
Continuous
370
    -3
390
F
  0
LAYER
  5
44
330
2
100
AcDbSymbolTableRecord
100
AcDbLayerTableRecord
  2
FORMAT
 70
     0
 62
     7
  6
Continuous
370
    -3
390
F
  0
LAYER
  5
45
330
2
100
AcDbSymbolTableRecord
100
AcDbLayerTableRecord
  2
VERMASSUNG
 70
     0
 62
     7
  6
Continuous
370
    -3
390
F
  0
LAYER
  5
46
330
2
100
AcDbSymbolTableRecord
100
AcDbLayerTableRecord
  2
KOPF_DÜNN
 70
     0
 62
     7
  6
Continuous
370
    -3
390
F
  0
LAYER
  5
47
330
2
100
AcDbSymbolTableRecord
100
AcDbLayerTableRecord
  2
KOPF_DICK
 70
     0
 62
     7
  6
Continuous
370
    15
390
F
  0
ENDTAB
  0
TABLE
  2
STYLE
  5
3
330
0
100
AcDbSymbolTable
 70
     2
  0
STYLE
  5
11
330
3
100
AcDbSymbolTableRecord
100
AcDbTextStyleTableRecord
  2
Standard
 70
     0
 40
0.0
 41
1.0
 50
0.0
 71
     0
 42
2.0
  3
txt
  4

  0
STYLE
  5
48
330
3
100
AcDbSymbolTableRecord
100
AcDbTextStyleTableRecord
  2
SLDTEXTSTYLE0
 70
     0
 40
0.0
 41
0.7
 50
0.0
 71
     0
 42
0.2
  3
TXT
  4

  0
ENDTAB
  0
TABLE
  2
VIEW
  5
6
330
0
100
AcDbSymbolTable
 70
     0
  0
ENDTAB
  0
TABLE
  2
UCS
  5
7
330
0
100
AcDbSymbolTable
 70
     0
  0
ENDTAB
  0
TABLE
  2
APPID
  5
9
330
0
100
AcDbSymbolTable
 70
     1
  0
APPID
  5
12
330
9
100
AcDbSymbolTableRecord
100
AcDbRegAppTableRecord
  2
ACAD
 70
     0
  0
ENDTAB
  0
TABLE
  2
DIMSTYLE
  5
A
330
0
100
AcDbSymbolTable
 70
     4
100
AcDbDimStyleTable
  0
DIMSTYLE
105
27
330
A
100
AcDbSymbolTableRecord
100
AcDbDimStyleTableRecord
  2
ISO-25
 70
     0
 41
2.5
 42
0.625
 43
3.75
 44
1.25
 73
     0
 74
     0
 77
     1
 78
     8
140
2.5
141
2.5
143
0.0393700787
147
0.625
171
     3
172
     1
178
     0
271
     2
272
     2
274
     3
278
    44
283
     0
284
     8
340
11
  0
DIMSTYLE
105
197
102
{ACAD_REACTORS
330
196
330
1A1
330
1AB
330
1BE
330
1CA
102
}
330
A
100
AcDbSymbolTableRecord
100
AcDbDimStyleTableRecord
  2
SLDDIMSTYLE0
 70
     0
 41
3.0
 44
0.0
 45
0.000000001
 73
     0
 74
     0
 77
     1
 78
    12
 79
     3
140
2.0
147
0.5
173
     1
178
     0
271
     2
272
     3
276
     2
284
    12
340
48
  0
DIMSTYLE
105
1B6
102
{ACAD_REACTORS
330
1B5
102
}
330
A
100
AcDbSymbolTableRecord
100
AcDbDimStyleTableRecord
  2
SLDDIMSTYLE1
 70
     0
 41
3.0
 44
0.0
 73
     0
 74
     0
 77
     1
 78
    12
 79
     3
140
2.0
147
0.5
173
     1
178
     0
179
     1
272
     3
276
     2
284
    12
340
48
  0
DIMSTYLE
105
1F5
102
{ACAD_REACTORS
330
1F4
102
}
330
A
100
AcDbSymbolTableRecord
100
AcDbDimStyleTableRecord
  2
SLDDIMSTYLE2
 70
     0
 41
3.0
 44
0.0
 45
0.000000001
 73
     0
 74
     0
 77
     1
 78
    12
 79
     3
140
2.0
141
0.0
147
0.5
172
     1
173
     1
178
     0
271
     2
272
     3
276
     2
284
    12
340
48
341
1F6
343
1F6
  0
ENDTAB
  0
TABLE
  2
BLOCK_RECORD
  5
1
330
0
100
AcDbSymbolTable
 70
    10
  0
BLOCK_RECORD
  5
1F
330
1
100
AcDbSymbolTableRecord
100
AcDbBlockTableRecord
  2
*Model_Space
340
22
  0
BLOCK_RECORD
  5
1B
330
1
100
AcDbSymbolTableRecord
100
AcDbBlockTableRecord
  2
*Paper_Space
340
1E
  0
BLOCK_RECORD
  5
23
330
1
100
AcDbSymbolTableRecord
100
AcDbBlockTableRecord
  2
*Paper_Space0
340
26
  0
BLOCK_RECORD
  5
198
330
1
100
AcDbSymbolTableRecord
100
AcDbBlockTableRecord
  2
_D
340
0
  0
BLOCK_RECORD
  5
1A2
330
1
100
AcDbSymbolTableRecord
100
AcDbBlockTableRecord
  2
_D_1
340
0
  0
BLOCK_RECORD
  5
1AC
330
1
100
AcDbSymbolTableRecord
100
AcDbBlockTableRecord
  2
_D_2
340
0
  0
BLOCK_RECORD
  5
1B7
330
1
100
AcDbSymbolTableRecord
100
AcDbBlockTableRecord
  2
_D_3
340
0
  0
BLOCK_RECORD
  5
1BF
330
1
100
AcDbSymbolTableRecord
100
AcDbBlockTableRecord
  2
_D_4
340
0
  0
BLOCK_RECORD
  5
1CB
330
1
100
AcDbSymbolTableRecord
100
AcDbBlockTableRecord
  2
_D_5
340
0
  0
BLOCK_RECORD
  5
1F6
330
1
100
AcDbSymbolTableRecord
100
AcDbBlockTableRecord
  2
_NONE
340
0
  0
BLOCK_RECORD
  5
1F9
330
1
100
AcDbSymbolTableRecord
100
AcDbBlockTableRecord
  2
_D_6
340
0
  0
BLOCK_RECORD
  5
202
330
1
100
AcDbSymbolTableRecord
100
AcDbBlockTableRecord
  2
SW_CENTERMARKSYMBOL_0
340
0
102
{BLKREFS
331
20D
102
}
  0
ENDTAB
  0
ENDSEC
  0
SECTION
  2
BLOCKS
  0
BLOCK
  5
20
330
1F
100
AcDbEntity
  8
0
100
AcDbBlockBegin
  2
*Model_Space
 70
     0
 10
0.0
 20
0.0
 30
0.0
  3
*Model_Space
  1

  0
ENDBLK
  5
21
330
1F
100
AcDbEntity
  8
0
100
AcDbBlockEnd
  0
BLOCK
  5
1C
330
1B
100
AcDbEntity
 67
     1
  8
0
100
AcDbBlockBegin
  2
*Paper_Space
 70
     0
 10
0.0
 20
0.0
 30
0.0
  3
*Paper_Space
  1

  0
ENDBLK
  5
1D
330
1B
100
AcDbEntity
 67
     1
  8
0
100
AcDbBlockEnd
  0
BLOCK
  5
24
330
23
100
AcDbEntity
  8
0
100
AcDbBlockBegin
  2
*Paper_Space0
 70
     0
 10
0.0
 20
0.0
 30
0.0
  3
*Paper_Space0
  1

  0
ENDBLK
  5
25
330
23
100
AcDbEntity
  8
0
100
AcDbBlockEnd
  0
BLOCK
  5
199
330
198
100
AcDbEntity
  8
0
100
AcDbBlockBegin
  2
_D
 70
     0
 10
0.0
 20
0.0
 30
0.0
  3
_D
  1

  0
SOLID
  5
19B
330
198
100
AcDbEntity
  8
VERMASSUNG
100
AcDbTrace
 10
96.1823198202
 20
179.7828546491
 30
0.0
 11
99.1823198202
 21
179.3328546491
 31
0.0
 12
99.1823198202
 22
180.2328546491
 32
0.0
 13
99.1823198202
 23
180.2328546491
 33
0.0
  0
SOLID
  5
19C
330
198
100
AcDbEntity
  8
VERMASSUNG
100
AcDbTrace
 10
256.1823198202
 20
179.7828546491
 30
0.0
 11
253.1823198202
 21
180.2328546491
 31
0.0
 12
253.1823198202
 22
179.3328546491
 32
0.0
 13
253.1823198202
 23
179.3328546491
 33
0.0
  0
LINE
  5
19D
330
198
100
AcDbEntity
  8
VERMASSUNG
100
AcDbLine
 10
96.1823198202
 20
169.2828546491
 30
0.0
 11
96.1823198202
 21
180.7828546491
 31
0.0
  0
LINE
  5
19E
330
198
100
AcDbEntity
  8
VERMASSUNG
100
AcDbLine
 10
256.1823198202
 20
160.2828546491
 30
0.0
 11
256.1823198202
 21
180.7828546491
 31
0.0
  0
LINE
  5
19F
330
198
100
AcDbEntity
  8
VERMASSUNG
100
AcDbLine
 10
96.1823198202
 20
179.7828546491
 30
0.0
 11
256.1823198202
 21
179.7828546491
 31
0.0
  0
MTEXT
  5
1A0
330
198
100
AcDbEntity
  8
VERMASSUNG
100
AcDbMText
 10
173.3823196872
 20
182.3609900122
 30
0.1
 40
2.0
 41
0.0
 71
     1
 72
     1
  1
160
  7
SLDTEXTSTYLE0
 73
     1
 44
1.0
  0
ENDBLK
  5
19A
330
198
100
AcDbEntity
  8
0
100
AcDbBlockEnd
  0
BLOCK
  5
1A3
330
1A2
100
AcDbEntity
  8
0
100
AcDbBlockBegin
  2
_D_1
 70
     0
 10
0.0
 20
0.0
 30
0.0
  3
_D_1
  1

  0
SOLID
  5
1A5
330
1A2
100
AcDbEntity
  8
VERMASSUNG
100
AcDbTrace
 10
256.1823198202
 20
191.7828546491
 30
0.0
 11
253.1823198202
 21
192.2328546491
 31
0.0
 12
253.1823198202
 22
191.3328546491
 32
0.0
 13
253.1823198202
 23
191.3328546491
 33
0.0
  0
SOLID
  5
1A6
330
1A2
100
AcDbEntity
  8
VERMASSUNG
100
AcDbTrace
 10
58.1823198202
 20
191.7828546491
 30
0.0
 11
61.1823198202
 21
191.3328546491
 31
0.0
 12
61.1823198202
 22
192.2328546491
 32
0.0
 13
61.1823198202
 23
192.2328546491
 33
0.0
  0
LINE
  5
1A7
330
1A2
100
AcDbEntity
  8
VERMASSUNG
100
AcDbLine
 10
256.1823198202
 20
160.2828546491
 30
0.0
 11
256.1823198202
 21
192.7828546491
 31
0.0
  0
LINE
  5
1A8
330
1A2
100
AcDbEntity
  8
VERMASSUNG
100
AcDbLine
 10
58.1823198202
 20
158.5751926416
 30
0.0
 11
58.1823198202
 21
192.7828546491
 31
0.0
  0
LINE
  5
1A9
330
1A2
100
AcDbEntity
  8
VERMASSUNG
100
AcDbLine
 10
256.1823198202
 20
191.7828546491
 30
0.0
 11
58.1823198202
 21
191.7828546491
 31
0.0
  0
MTEXT
  5
1AA
330
1A2
100
AcDbEntity
  8
VERMASSUNG
100
AcDbMText
 10
154.3823196872
 20
194.3609900122
 30
0.1
 40
2.0
 41
0.0
 71
     1
 72
     1
  1
198
  7
SLDTEXTSTYLE0
 73
     1
 44
1.0
  0
ENDBLK
  5
1A4
330
1A2
100
AcDbEntity
  8
0
100
AcDbBlockEnd
  0
BLOCK
  5
1AD
330
1AC
100
AcDbEntity
  8
0
100
AcDbBlockBegin
  2
_D_2
 70
     0
 10
0.0
 20
0.0
 30
0.0
  3
_D_2
  1

  0
SOLID
  5
1AF
330
1AC
100
AcDbEntity
  8
VERMASSUNG
100
AcDbTrace
 10
272.3812142105
 20
160.2828546491
 30
0.0
 11
271.9312142105
 21
157.2828546491
 31
0.0
 12
272.8312142105
 22
157.2828546491
 32
0.0
 13
272.8312142105
 23
157.2828546491
 33
0.0
  0
SOLID
  5
1B0
330
1AC
100
AcDbEntity
  8
VERMASSUNG
100
AcDbTrace
 10
272.3812142105
 20
138.2828546491
 30
0.0
 11
272.8312142105
 21
141.2828546491
 31
0.0
 12
271.9312142105
 22
141.2828546491
 32
0.0
 13
271.9312142105
 23
141.2828546491
 33
0.0
  0
LINE
  5
1B1
330
1AC
100
AcDbEntity
  8
VERMASSUNG
100
AcDbLine
 10
256.1823198202
 20
160.2828546491
 30
0.0
 11
273.3812142105
 21
160.2828546491
 31
0.0
  0
LINE
  5
1B2
330
1AC
100
AcDbEntity
  8
VERMASSUNG
100
AcDbLine
 10
256.1823198202
 20
138.2828546491
 30
0.0
 11
273.3812142105
 21
138.2828546491
 31
0.0
  0
LINE
  5
1B3
330
1AC
100
AcDbEntity
  8
VERMASSUNG
100
AcDbLine
 10
272.3812142105
 20
160.2828546491
 30
0.0
 11
272.3812142105
 21
138.2828546491
 31
0.0
  0
MTEXT
  5
1B4
330
1AC
100
AcDbEntity
  8
VERMASSUNG
100
AcDbMText
 10
269.8030788474
 20
146.982854598
 30
0.1
 40
2.0
 41
0.0
 71
     1
 72
     1
  1
22
  7
SLDTEXTSTYLE0
 11
-7.044195017643634E-15
 21
1.0
 31
0.0
 73
     1
 44
1.0
  0
ENDBLK
  5
1AE
330
1AC
100
AcDbEntity
  8
0
100
AcDbBlockEnd
  0
BLOCK
  5
1B8
330
1B7
100
AcDbEntity
  8
0
100
AcDbBlockBegin
  2
_D_3
 70
     0
 10
0.0
 20
0.0
 30
0.0
  3
_D_3
  1

  0
ARC
  5
1BA
330
1B7
100
AcDbEntity
  8
VERMASSUNG
100
AcDbCircle
 10
256.2188432206
 20
160.2828546491
 30
0.0
 40
8.963653559742738
100
AcDbArc
 50
264.9878526278
 51
0.0
  0
SOLID
  5
1BB
330
1B7
100
AcDbEntity
  8
VERMASSUNG
100
AcDbTrace
 10
255.4357161872
 20
151.3534763287
 30
0.0
 11
258.4607766377
 21
151.1265197894
 31
0.0
 12
258.3942331086
 22
152.0240563952
 32
0.0
 13
258.3942331086
 23
152.0240563952
 33
0.0
  0
SOLID
  5
1BC
330
1B7
100
AcDbEntity
  8
VERMASSUNG
100
AcDbTrace
 10
265.1824967804
 20
160.2828546491
 30
0.0
 11
264.2560042924
 21
157.3942370438
 31
0.0
 12
265.1442951908
 22
157.2495329321
 32
0.0
 13
265.1442951908
 23
157.2495329321
 33
0.0
  0
MTEXT
  5
1BD
330
1B7
100
AcDbEntity
  8
VERMASSUNG
100
AcDbMText
 10
258.3940255989
 20
153.615514445
 30
0.1
 40
2.0
 41
0.0
 71
     1
 72
     1
  1
95°
  7
SLDTEXTSTYLE0
 11
0.7373489491615123
 21
0.6755120481312036
 31
0.0
 73
     1
 44
1.0
  0
ENDBLK
  5
1B9
330
1B7
100
AcDbEntity
  8
0
100
AcDbBlockEnd
  0
BLOCK
  5
1C0
330
1BF
100
AcDbEntity
  8
0
100
AcDbBlockBegin
  2
_D_4
 70
     0
 10
0.0
 20
0.0
 30
0.0
  3
_D_4
  1

  0
SOLID
  5
1C2
330
1BF
100
AcDbEntity
  8
VERMASSUNG
100
AcDbTrace
 10
42.1823198202
 20
169.7828546491
 30
0.0
 11
41.7323198202
 21
166.7828546491
 31
0.0
 12
42.6323198202
 22
166.7828546491
 32
0.0
 13
42.6323198202
 23
166.7828546491
 33
0.0
  0
SOLID
  5
1C3
330
1BF
100
AcDbEntity
  8
VERMASSUNG
100
AcDbTrace
 10
42.1823198202
 20
106.7828546491
 30
0.0
 11
42.6323198202
 21
109.7828546491
 31
0.0
 12
41.7323198202
 22
109.7828546491
 32
0.0
 13
41.7323198202
 23
109.7828546491
 33
0.0
  0
LINE
  5
1C4
330
1BF
100
AcDbEntity
  8
VERMASSUNG
100
AcDbLine
 10
96.6823198202
 20
169.7828546491
 30
0.0
 11
41.1823198202
 21
169.7828546491
 31
0.0
  0
LINE
  5
1C5
330
1BF
100
AcDbEntity
  8
VERMASSUNG
100
AcDbLine
 10
96.6823198202
 20
106.7828546491
 30
0.0
 11
41.1823198202
 21
106.7828546491
 31
0.0
  0
LINE
  5
1C6
330
1BF
100
AcDbEntity
  8
VERMASSUNG
100
AcDbLine
 10
42.1823198202
 20
169.7828546491
 30
0.0
 11
42.1823198202
 21
106.7828546491
 31
0.0
  0
MTEXT
  5
1C7
330
1BF
100
AcDbEntity
  8
VERMASSUNG
100
AcDbMText
 10
39.4041843312
 20
131.8778545399
 30
0.1
 40
2.0
 41
0.0
 71
     1
 72
     1
  1
PSC
  7
SLDTEXTSTYLE0
 11
-7.044195017643634E-15
 21
1.0
 31
0.0
 73
     1
 44
1.0
  0
MTEXT
  5
1C8
330
1BF
100
AcDbEntity
  8
VERMASSUNG
100
AcDbMText
 10
39.6041843407
 20
136.4778546419
 30
0.1
 40
2.0
 41
0.0
 71
     1
 72
     1
  1
%%c
  7
SLDTEXTSTYLE0
 11
-7.044195017643634E-15
 21
1.0
 31
0.0
 73
     1
 44
1.0
  0
MTEXT
  5
1C9
330
1BF
100
AcDbEntity
  8
VERMASSUNG
100
AcDbMText
 10
39.4041843312
 20
140.0878551219
 30
0.1
 40
2.0
 41
0.0
 71
     1
 72
     1
  1
63
  7
SLDTEXTSTYLE0
 11
-7.044195017643634E-15
 21
1.0
 31
0.0
 73
     1
 44
1.0
  0
ENDBLK
  5
1C1
330
1BF
100
AcDbEntity
  8
0
100
AcDbBlockEnd
  0
BLOCK
  5
1CC
330
1CB
100
AcDbEntity
  8
0
100
AcDbBlockBegin
  2
_D_5
 70
     0
 10
0.0
 20
0.0
 30
0.0
  3
_D_5
  1

  0
SOLID
  5
1CE
330
1CB
100
AcDbEntity
  8
VERMASSUNG
100
AcDbTrace
 10
140.1342761492
 20
154.2828546491
 30
0.0
 11
139.6842761492
 21
151.2828546491
 31
0.0
 12
140.5842761492
 22
151.2828546491
 32
0.0
 13
140.5842761492
 23
151.2828546491
 33
0.0
  0
SOLID
  5
1CF
330
1CB
100
AcDbEntity
  8
VERMASSUNG
100
AcDbTrace
 10
140.1342761492
 20
122.2828546491
 30
0.0
 11
140.5842761492
 21
125.2828546491
 31
0.0
 12
139.6842761492
 22
125.2828546491
 32
0.0
 13
139.6842761492
 23
125.2828546491
 33
0.0
  0
LINE
  5
1D0
330
1CB
100
AcDbEntity
  8
VERMASSUNG
100
AcDbLine
 10
140.1342761492
 20
154.2828546491
 30
0.0
 11
140.1342761492
 21
122.2828546491
 31
0.0
  0
MTEXT
  5
1D1
330
1CB
100
AcDbEntity
  8
VERMASSUNG
100
AcDbMText
 10
137.5561406697
 20
125.9855666252
 30
0.1
 40
2.0
 41
0.0
 71
     1
 72
     1
  1
%%c
  7
SLDTEXTSTYLE0
 11
-7.044195017643634E-15
 21
1.0
 31
0.0
 73
     1
 44
1.0
  0
MTEXT
  5
1D2
330
1CB
100
AcDbEntity
  8
VERMASSUNG
100
AcDbMText
 10
137.3561406602
 20
129.5955666395
 30
0.1
 40
2.0
 41
0.0
 71
     1
 72
     1
  1
32
  7
SLDTEXTSTYLE0
 11
-7.044195017643634E-15
 21
1.0
 31
0.0
 73
     1
 44
1.0
  0
ENDBLK
  5
1CD
330
1CB
100
AcDbEntity
  8
0
100
AcDbBlockEnd
  0
BLOCK
  5
1F7
330
1F6
100
AcDbEntity
  8
0
100
AcDbBlockBegin
  2
_NONE
 70
     0
 10
0.0
 20
0.0
 30
0.0
  3
_NONE
  1

  0
ENDBLK
  5
1F8
330
1F6
100
AcDbEntity
  8
0
100
AcDbBlockEnd
  0
BLOCK
  5
1FA
330
1F9
100
AcDbEntity
  8
0
100
AcDbBlockBegin
  2
_D_6
 70
     0
 10
0.0
 20
0.0
 30
0.0
  3
_D_6
  1

  0
SOLID
  5
1FC
330
1F9
100
AcDbEntity
  8
VERMASSUNG
100
AcDbTrace
 10
142.2935111523
 20
83.8913851349
 30
0.0
 11
140.4903888603
 21
86.33090353
 31
0.0
 12
139.8539927572
 22
85.6945074269
 32
0.0
 13
139.8539927572
 23
85.6945074269
 33
0.0
  0
LINE
  5
1FD
330
1F9
100
AcDbEntity
  8
VERMASSUNG
100
AcDbLine
 10
142.2935111523
 20
83.8913851349
 30
0.0
 11
124.032671253
 21
102.1522250342
 31
0.0
  0
LINE
  5
1FE
330
1F9
100
AcDbEntity
  8
VERMASSUNG
100
AcDbLine
 10
142.2935111523
 20
83.8913851349
 30
0.0
 11
170.5777823998
 21
55.6071138874
 31
0.0
  0
MTEXT
  5
1FF
330
1F9
100
AcDbEntity
  8
VERMASSUNG
100
AcDbMText
 10
125.853820102
 20
103.9733738833
 30
0.1
 40
2.0
 41
0.0
 71
     1
 72
     1
  1
%%c
  7
SLDTEXTSTYLE0
 11
0.707106781186546
 21
-0.7071067811865491
 31
0.0
 73
     1
 44
1.0
  0
MTEXT
  5
200
330
1F9
100
AcDbEntity
  8
VERMASSUNG
100
AcDbMText
 10
128.5478969552
 20
101.5621397561
 30
0.1
 40
2.0
 41
0.0
 71
     1
 72
     1
  1
40
  7
SLDTEXTSTYLE0
 11
0.707106781186546
 21
-0.7071067811865491
 31
0.0
 73
     1
 44
1.0
  0
MTEXT
  5
201
330
1F9
100
AcDbEntity
  8
VERMASSUNG
100
AcDbMText
 10
132.7816989688
 20
97.3283377425
 30
0.1
 40
2.0
 41
0.0
 71
     1
 72
     1
  1
min.
  7
SLDTEXTSTYLE0
 11
0.707106781186546
 21
-0.7071067811865491
 31
0.0
 73
     1
 44
1.0
  0
ENDBLK
  5
1FB
330
1F9
100
AcDbEntity
  8
0
100
AcDbBlockEnd
  0
BLOCK
  5
203
330
202
100
AcDbEntity
  8
0
100
AcDbBlockBegin
  2
SW_CENTERMARKSYMBOL_0
 70
     0
 10
0.0
 20
0.0
 30
0.0
  3
SW_CENTERMARKSYMBOL_0
  1

  0
LINE
  5
205
330
202
100
AcDbEntity
  8
VERMASSUNG
 62
     0
100
AcDbLine
 10
0.0
 20
0.0
 30
0.0
 11
0.0
 21
2.5
 31
0.0
  0
LINE
  5
206
330
202
100
AcDbEntity
  8
VERMASSUNG
 62
     0
100
AcDbLine
 10
0.0
 20
0.0
 30
0.0
 11
-2.5
 21
0.0
 31
0.0
  0
LINE
  5
207
330
202
100
AcDbEntity
  8
VERMASSUNG
 62
     0
100
AcDbLine
 10
0.0
 20
0.0
 30
0.0
 11
0.0
 21
-2.5
 31
0.0
  0
LINE
  5
208
330
202
100
AcDbEntity
  8
VERMASSUNG
 62
     0
100
AcDbLine
 10
0.0
 20
0.0
 30
0.0
 11
2.5
 21
0.0
 31
0.0
  0
LINE
  5
209
330
202
100
AcDbEntity
  8
VERMASSUNG
 62
     0
100
AcDbLine
 10
0.0
 20
5.0
 30
0.0
 11
0.0
 21
34.0
 31
0.0
  0
LINE
  5
20A
330
202
100
AcDbEntity
  8
VERMASSUNG
 62
     0
100
AcDbLine
 10
-5.0
 20
0.0
 30
0.0
 11
-34.0
 21
0.0
 31
0.0
  0
LINE
  5
20B
330
202
100
AcDbEntity
  8
VERMASSUNG
 62
     0
100
AcDbLine
 10
0.0
 20
-5.0
 30
0.0
 11
0.0
 21
-34.0
 31
0.0
  0
LINE
  5
20C
330
202
100
AcDbEntity
  8
VERMASSUNG
 62
     0
100
AcDbLine
 10
5.0
 20
0.0
 30
0.0
 11
34.0
 21
0.0
 31
0.0
  0
ENDBLK
  5
204
330
202
100
AcDbEntity
  8
0
100
AcDbBlockEnd
  0
ENDSEC
  0
SECTION
  2
ENTITIES
  0
MTEXT
  5
49
330
1F
100
AcDbEntity
  8
KOPF_DÜNN
100
AcDbMText
 10
13.8892156294
 20
23.8442973028
 30
0.0
 40
3.0
 41
0.0
 71
     1
 72
     1
  1
PS6.BCC.RLB.160
  7
SLDTEXTSTYLE0
 73
     1
 44
1.0
  0
MTEXT
  5
4A
330
1F
100
AcDbEntity
  8
VERMASSUNG
100
AcDbMText
 10
13.9329988022
 20
28.8834360957
 30
0.0
 40
3.0
 41
0.0
 71
     1
 72
     1
  1
Bohrstange_Boring bar
  7
SLDTEXTSTYLE0
 73
     1
 44
1.0
  0
MTEXT
  5
4B
330
1F
100
AcDbEntity
  8
VERMASSUNG
100
AcDbMText
 10
98.8601118557
 20
13.8365368179
 30
0.0
 40
2.0
 41
0.0
 71
     1
 72
     1
  1
Datum: 04.06.2012
  7
SLDTEXTSTYLE0
 73
     1
 44
1.0
  0
MTEXT
  5
4C
330
1F
100
AcDbEntity
  8
VERMASSUNG
100
AcDbMText
 10
13.933048693
 20
18.0482802738
 30
0.0
 40
2.0
 41
0.0
 71
     1
 72
     1
  1
PSC ø63 / Wp.: CC..12 04..
  7
SLDTEXTSTYLE0
 73
     1
 44
1.0
  0
MTEXT
  5
4D
330
1F
100
AcDbEntity
  8
VERMASSUNG
100
AcDbMText
 10
13.9808475933
 20
13.9090973692
 30
0.0
 40
2.0
 41
0.0
 71
     1
 72
     1
  1
Gewicht: 1464g
  7
SLDTEXTSTYLE0
 73
     1
 44
1.0
  0
ARC
  5
4E
330
1F
100
AcDbEntity
  8
0
  6
Continuous
 62
     7
370
    15
100
AcDbCircle
 10
117.1823198202
 20
107.7828546491
 30
0.0
 40
1.000000000000028
100
AcDbArc
 50
270.0
 51
360.0
  0
ARC
  5
4F
330
1F
100
AcDbEntity
  8
0
  6
Continuous
 62
     7
370
    15
100
AcDbCircle
 10
117.1823198202
 20
168.7828546491
 30
0.0
 40
1.000000000000028
100
AcDbArc
 50
0.0
 51
90.0
  0
ARC
  5
50
330
1F
100
AcDbEntity
  8
0
  6
Continuous
 62
     7
370
    15
100
AcDbCircle
 10
96.6823198202
 20
107.2828546491
 30
0.0
 40
0.5000000000000284
100
AcDbArc
 50
180.0
 51
270.0
  0
ARC
  5
51
330
1F
100
AcDbEntity
  8
0
  6
Continuous
 62
     7
370
    15
100
AcDbCircle
 10
96.6823198202
 20
169.2828546491
 30
0.0
 40
0.5000000000000284
100
AcDbArc
 50
90.0
 51
180.0
  0
LINE
  5
52
330
1F
100
AcDbEntity
  8
0
  6
Continuous
 62
     7
370
    15
100
AcDbLine
 10
96.6823198202
 20
106.7828546491
 30
0.0
 11
117.1823198202
 21
106.7828546491
 31
0.0
  0
LINE
  5
53
330
1F
100
AcDbEntity
  8
0
  6
Continuous
 62
     7
370
    15
100
AcDbLine
 10
117.1823198202
 20
169.7828546491
 30
0.0
 11
96.6823198202
 21
169.7828546491
 31
0.0
  0
LWPOLYLINE
  5
54
330
1F
100
AcDbEntity
  8
0
  6
Continuous
 62
     7
370
    15
100
AcDbPolyline
 90
        3
 70
   128
 43
0.0
 10
95.9823198202
 20
115.7430343702
 10
96.1077747637
 20
115.6747322553
 10
96.1823198202
 20
115.6219944971
  0
LWPOLYLINE
  5
55
330
1F
100
AcDbEntity
  8
0
  6
Continuous
 62
     7
370
    15
100
AcDbPolyline
 90
        3
 70
   128
 43
0.0
 10
96.1823198202
 20
160.943714801
 10
96.1077747637
 20
160.8909770429
 10
95.9823198202
 20
160.822674928
  0
LINE
  5
56
330
1F
100
AcDbEntity
  8
0
  6
Continuous
 62
     7
370
    15
100
AcDbLine
 10
95.9823198202
 20
144.8331016992
 30
0.0
 11
95.9823198202
 21
145.3047419748
 31
0.0
  0
ARC
  5
57
330
1F
100
AcDbEntity
  8
0
  6
Continuous
 62
     7
370
    15
100
AcDbCircle
 10
122.1823198202
 20
118.2828546491
 30
0.0
 40
4.0
100
AcDbArc
 50
90.0
 51
180.0
  0
ARC
  5
58
330
1F
100
AcDbEntity
  8
0
  6
Continuous
 62
     7
370
    15
100
AcDbCircle
 10
122.1823198202
 20
158.2828546491
 30
0.0
 40
4.0
100
AcDbArc
 50
180.0
 51
270.0
  0
LINE
  5
59
330
1F
100
AcDbEntity
  8
0
  6
Continuous
 62
     7
370
    15
100
AcDbLine
 10
230.1823198202
 20
154.2828546491
 30
0.0
 11
122.1823198202
 21
154.2828546491
 31
0.0
  0
LINE
  5
5A
330
1F
100
AcDbEntity
  8
0
  6
Continuous
 62
     7
370
    15
100
AcDbLine
 10
122.1823198202
 20
122.2828546491
 30
0.0
 11
230.1823198202
 21
122.2828546491
 31
0.0
  0
LINE
  5
5B
330
1F
100
AcDbEntity
  8
0
  6
Continuous
 62
     7
370
    15
100
AcDbLine
 10
230.3271192673
 20
154.4276540962
 30
0.0
 11
230.1823198202
 21
154.2828546491
 31
0.0
  0
LINE
  5
5C
330
1F
100
AcDbEntity
  8
0
  6
Continuous
 62
     7
370
    15
100
AcDbLine
 10
230.1823198202
 20
122.2828546491
 30
0.0
 11
230.6823198202
 21
121.7828546491
 31
0.0
  0
LINE
  5
5D
330
1F
100
AcDbEntity
  8
0
  6
Continuous
 62
     7
370
    15
100
AcDbLine
 10
230.6823198202
 20
121.7828546491
 30
0.0
 11
237.3349017299
 21
121.7828546491
 31
0.0
  0
LINE
  5
5E
330
1F
100
AcDbEntity
  8
0
  6
Continuous
 62
     7
370
    15
100
AcDbLine
 10
247.8193535181
 20
153.1776054654
 30
0.0
 11
247.8193535181
 21
153.2892142326
 31
0.0
  0
LINE
  5
5F
330
1F
100
AcDbEntity
  8
0
  6
Continuous
 62
     7
370
    15
100
AcDbLine
 10
250.6576105581
 20
153.4006665511
 30
0.0
 11
250.6576105581
 21
153.2890224528
 31
0.0
  0
LINE
  5
60
330
1F
100
AcDbEntity
  8
0
  6
Continuous
 62
     7
370
    15
100
AcDbLine
 10
245.7369457578
 20
153.319520932
 30
0.0
 11
245.7369457578
 21
153.3055696372
 31
0.0
  0
LINE
  5
61
330
1F
100
AcDbEntity
  8
0
  6
Continuous
 62
     7
370
    15
100
AcDbLine
 10
252.7369457578
 20
153.3055696372
 30
0.0
 11
252.7369457578
 21
153.319520932
 31
0.0
  0
LINE
  5
62
330
1F
100
AcDbEntity
  8
0
  6
Continuous
 62
     7
370
    15
100
AcDbLine
 10
118.1823198202
 20
168.7828546423
 30
0.0
 11
118.1823198202
 21
107.7828546491
 31
0.0
  0
LINE
  5
63
330
1F
100
AcDbEntity
  8
0
  6
Continuous
 62
     7
370
    15
100
AcDbLine
 10
96.1823198202
 20
107.2828546491
 30
0.0
 11
96.1823198202
 21
169.2828546276
 31
0.0
  0
SPLINE
  5
64
330
1F
100
AcDbEntity
  8
0
  6
Continuous
 62
     7
370
    15
100
AcDbSpline
210
0.0
220
0.0
230
1.0
 70
     8
 71
     3
 72
    12
 73
     8
 74
     0
 42
0.00000001
 43
0.00000001
 12
1.0
 22
0.0
 32
0.0
 13
1.0
 23
0.0
 33
0.0
 40
0.0
 40
0.0
 40
0.0
 40
0.0
 40
0.2499999999999991
 40
0.2499999999999991
 40
0.4999999999999982
 40
0.4999999999999982
 40
1.0
 40
1.0
 40
1.0
 40
1.0
 10
106.7100766337656
 20
147.6709210804192
 30
0.0
 10
106.6469965952723
 20
147.6709210804192
 30
0.0
 10
106.5878479730909
 20
147.6962853996341
 30
0.0
 10
106.4893754230218
 20
147.770450260007
 30
0.0
 10
106.4503388110371
 20
147.8169706005611
 30
0.0
 10
106.3504423442581
 20
147.9671129434064
 30
0.0
 10
106.3080214631914
 20
148.0788061503785
 30
0.0
 10
106.2770639318734
 20
148.1922239697683
 30
0.0
  0
LINE
  5
65
330
1F
100
AcDbEntity
  8
0
  6
Continuous
 62
     7
370
    15
100
AcDbLine
 10
109.6545630066
 20
147.6709210804
 30
0.0
 11
106.7100766338
 21
147.6709210804
 31
0.0
  0
SPLINE
  5
66
330
1F
100
AcDbEntity
  8
0
  6
Continuous
 62
     7
370
    15
100
AcDbSpline
210
0.0
220
0.0
230
1.0
 70
     8
 71
     3
 72
    12
 73
     8
 74
     0
 42
0.00000001
 43
0.00000001
 12
1.0
 22
0.0
 32
0.0
 13
1.0
 23
0.0
 33
0.0
 40
0.0
 40
0.0
 40
0.0
 40
0.0
 40
0.4999999999999953
 40
0.4999999999999953
 40
0.7499999999999977
 40
0.7499999999999977
 40
1.0
 40
1.0
 40
1.0
 40
1.0
 10
110.087575708525
 20
148.1922239697682
 30
0.0
 10
110.0568534666059
 20
148.0796681703591
 30
0.0
 10
110.0140162520707
 20
147.9669103106195
 30
0.0
 10
109.9145892278709
 20
147.8173694248231
 30
0.0
 10
109.8748370330542
 20
147.7700766931164
 30
0.0
 10
109.776795576196
 20
147.6963403997949
 30
0.0
 10
109.7172395206086
 20
147.6709210804192
 30
0.0
 10
109.6545630066328
 20
147.6709210804191
 30
0.0
  0
ELLIPSE
  5
67
330
1F
100
AcDbEntity
  8
0
  6
Continuous
 62
     7
370
    15
100
AcDbEllipse
 10
93.8351656308
 20
138.2828546491
 30
0.0
 11
14.75368316065603
 21
31.09325491558118
 31
0.0
210
0.0
220
0.0
230
1.0
 40
0.3419987131
 41
5.193281737408617
 42
6.124043104552324
  0
SPLINE
  5
68
330
1F
100
AcDbEntity
  8
0
  6
Continuous
 62
     7
370
    15
100
AcDbSpline
210
0.0
220
0.0
230
1.0
 70
     8
 71
     3
 72
    12
 73
     8
 74
     0
 42
0.00000001
 43
0.00000001
 12
1.0
 22
0.0
 32
0.0
 13
1.0
 23
0.0
 33
0.0
 40
0.0
 40
0.0
 40
0.0
 40
0.0
 40
0.2500000000000014
 40
0.2500000000000014
 40
0.5000000000000029
 40
0.5000000000000029
 40
1.0
 40
1.0
 40
1.0
 40
1.0
 10
109.6545630066328
 20
168.3513466079564
 30
0.0
 10
109.7176430451261
 20
168.3513466079564
 30
0.0
 10
109.7767916673075
 20
168.3434406817438
 30
0.0
 10
109.8752642173766
 20
168.3201155203076
 30
0.0
 10
109.9143008293613
 20
168.3054027304759
 30
0.0
 10
110.0141972961404
 20
168.257446929745
 30
0.0
 10
110.056618177207
 20
168.2211847731649
 30
0.0
 10
110.087575708525
 20
168.1835971092004
 30
0.0
  0
LINE
  5
69
330
1F
100
AcDbEntity
  8
0
  6
Continuous
 62
     7
370
    15
100
AcDbLine
 10
106.7100766338
 20
168.351346608
 30
0.0
 11
109.6545630066
 21
168.351346608
 31
0.0
  0
SPLINE
  5
6A
330
1F
100
AcDbEntity
  8
0
  6
Continuous
 62
     7
370
    15
100
AcDbSpline
210
0.0
220
0.0
230
1.0
 70
     8
 71
     3
 72
    12
 73
     8
 74
     0
 42
0.00000001
 43
0.00000001
 12
1.0
 22
0.0
 32
0.0
 13
1.0
 23
0.0
 33
0.0
 40
0.0
 40
0.0
 40
0.0
 40
0.0
 40
0.4999999999999962
 40
0.4999999999999962
 40
0.7499999999999981
 40
0.7499999999999981
 40
1.0
 40
1.0
 40
1.0
 40
1.0
 10
106.2770639318734
 20
168.1835971092004
 30
0.0
 10
106.3077861737926
 20
168.2208990921535
 30
0.0
 10
106.3506233883277
 20
168.2575109241999
 30
0.0
 10
106.4500504125275
 20
168.305275707485
 30
0.0
 10
106.4898026073442
 20
168.3202332229674
 30
0.0
 10
106.5878440642024
 20
168.3434231687365
 30
0.0
 10
106.6474001197898
 20
168.3513466079563
 30
0.0
 10
106.7100766337656
 20
168.3513466079563
 30
0.0
  0
ELLIPSE
  5
6B
330
1F
100
AcDbEntity
  8
0
  6
Continuous
 62
     7
370
    15
100
AcDbEllipse
 10
122.5294740096
 20
138.2828546491
 30
0.0
 11
-14.75368316065604
 21
31.09325491558118
 31
0.0
210
0.0
220
0.0
230
1.0
 40
0.3419987131
 41
0.1591422026273069
 42
1.089903569770982
  0
SPLINE
  5
6C
330
1F
100
AcDbEntity
  8
0
  6
Continuous
 62
     7
370
    15
100
AcDbSpline
210
0.0
220
0.0
230
1.0
 70
     8
 71
     3
 72
    12
 73
     8
 74
     0
 42
0.00000001
 43
0.00000001
 12
1.0
 22
0.0
 32
0.0
 13
1.0
 23
0.0
 33
0.0
 40
0.0
 40
0.0
 40
0.0
 40
0.0
 40
0.2499999999999999
 40
0.2499999999999999
 40
0.4999999999999999
 40
0.4999999999999999
 40
1.0
 40
1.0
 40
1.0
 40
1.0
 10
106.7100766337656
 20
108.2143626902101
 30
0.0
 10
106.6470196788678
 20
108.2143626902101
 30
0.0
 10
106.5878895291223
 20
108.2222630212897
 30
0.0
 10
106.489441978589
 20
108.2455737692947
 30
0.0
 10
106.4504097404009
 20
108.2602788955784
 30
0.0
 10
106.350519855944
 20
108.308212423765
 30
0.0
 10
106.3082208823346
 20
108.3442823965297
 30
0.0
 10
106.2770639318734
 20
108.3821121889659
 30
0.0
  0
LINE
  5
6D
330
1F
100
AcDbEntity
  8
0
  6
Continuous
 62
     7
370
    15
100
AcDbLine
 10
109.6545630066
 20
108.2143626902
 30
0.0
 11
106.7100766338
 21
108.2143626902
 31
0.0
  0
SPLINE
  5
6E
330
1F
100
AcDbEntity
  8
0
  6
Continuous
 62
     7
370
    15
100
AcDbSpline
210
0.0
220
0.0
230
1.0
 70
     8
 71
     3
 72
    12
 73
     8
 74
     0
 42
0.00000001
 43
0.00000001
 12
1.0
 22
0.0
 32
0.0
 13
1.0
 23
0.0
 33
0.0
 40
0.0
 40
0.0
 40
0.0
 40
0.0
 40
0.5000000000000019
 40
0.5000000000000019
 40
0.7500000000000009
 40
0.7500000000000009
 40
1.0
 40
1.0
 40
1.0
 40
1.0
 10
110.087575708525
 20
108.3821121889659
 30
0.0
 10
110.0564305105629
 20
108.3442966660458
 30
0.0
 10
110.0141562442284
 20
108.3082298079622
 30
0.0
 10
109.9142107104031
 20
108.2602697429509
 30
0.0
 10
109.874480405699
 20
108.2454087690533
 30
0.0
 10
109.7775923556928
 20
108.2224576229221
 30
0.0
 10
109.7175271139463
 20
108.21436269021
 30
0.0
 10
109.6545630066328
 20
108.21436269021
 30
0.0
  0
ELLIPSE
  5
6F
330
1F
100
AcDbEntity
  8
0
  6
Continuous
 62
     7
370
    15
100
AcDbEllipse
 10
93.8351656308
 20
138.2828546491
 30
0.0
 11
-14.75368316065615
 21
31.09325491558118
 31
0.0
210
0.0
220
0.0
230
1.0
 40
0.3419987131
 41
3.300734856217124
 42
4.231496223360773
  0
SPLINE
  5
70
330
1F
100
AcDbEntity
  8
0
  6
Continuous
 62
     7
370
    15
100
AcDbSpline
210
0.0
220
0.0
230
1.0
 70
     8
 71
     3
 72
    12
 73
     8
 74
     0
 42
0.00000001
 43
0.00000001
 12
1.0
 22
0.0
 32
0.0
 13
1.0
 23
0.0
 33
0.0
 40
0.0
 40
0.0
 40
0.0
 40
0.0
 40
0.2499999999999977
 40
0.2499999999999977
 40
0.4999999999999953
 40
0.4999999999999953
 40
1.0
 40
1.0
 40
1.0
 40
1.0
 10
109.6545630066328
 20
128.894788217747
 30
0.0
 10
109.7176199615306
 20
128.894788217747
 30
0.0
 10
109.7767501112761
 20
128.8694418643662
 30
0.0
 10
109.8751976618094
 20
128.7953224822267
 30
0.0
 10
109.9142298999974
 20
128.7488259675288
 30
0.0
 10
110.0141197844545
 20
128.5987514605202
 30
0.0
 10
110.0564187580638
 20
128.4876337514054
 30
0.0
 10
110.087575708525
 20
128.3734853283979
 30
0.0
  0
LINE
  5
71
330
1F
100
AcDbEntity
  8
0
  6
Continuous
 62
     7
370
    15
100
AcDbLine
 10
106.7100766338
 20
128.8947882177
 30
0.0
 11
109.6545630066
 21
128.8947882177
 31
0.0
  0
SPLINE
  5
72
330
1F
100
AcDbEntity
  8
0
  6
Continuous
 62
     7
370
    15
100
AcDbSpline
210
0.0
220
0.0
230
1.0
 70
     8
 71
     3
 72
    12
 73
     8
 74
     0
 42
0.00000001
 43
0.00000001
 12
1.0
 22
0.0
 32
0.0
 13
1.0
 23
0.0
 33
0.0
 40
0.0
 40
0.0
 40
0.0
 40
0.0
 40
0.4999999999999963
 40
0.4999999999999963
 40
0.7499999999999981
 40
0.7499999999999981
 40
1.0
 40
1.0
 40
1.0
 40
1.0
 10
106.2770639318734
 20
128.3734853283978
 30
0.0
 10
106.3082091298355
 20
128.4875906942632
 30
0.0
 10
106.35048339617
 20
128.5986970214819
 30
0.0
 10
106.4504289299953
 20
128.7488546289122
 30
0.0
 10
106.4901592346994
 20
128.7958473205295
 30
0.0
 10
106.5870472847056
 20
128.868822905068
 30
0.0
 10
106.6471125264521
 20
128.894788217747
 30
0.0
 10
106.7100766337656
 20
128.894788217747
 30
0.0
  0
ELLIPSE
  5
73
330
1F
100
AcDbEntity
  8
0
  6
Continuous
 62
     7
370
    15
100
AcDbEllipse
 10
122.5294740096
 20
138.2828546491
 30
0.0
 11
14.75368316065618
 21
31.09325491558119
 31
0.0
210
0.0
220
0.0
230
1.0
 40
0.3419987131
 41
2.051689083818827
 42
2.982450450962501
  0
SPLINE
  5
74
330
1F
100
AcDbEntity
  8
0
  6
Continuous
 62
     7
370
    15
100
AcDbSpline
210
0.0
220
0.0
230
1.0
 70
     8
 71
     3
 72
    12
 73
     8
 74
     0
 42
0.00000001
 43
0.00000001
 12
1.0
 22
0.0
 32
0.0
 13
1.0
 23
0.0
 33
0.0
 40
0.0
 40
0.0
 40
0.0
 40
0.0
 40
0.5000000000000006
 40
0.5000000000000006
 40
0.7500000000000002
 40
0.7500000000000002
 40
1.0
 40
1.0
 40
1.0
 40
1.0
 10
95.36580753374274
 20
116.4280609466074
 30
0.0
 10
95.42224403464992
 20
116.4266430652657
 30
0.0
 10
95.49132866533863
 20
116.4250787290174
 30
0.0
 10
95.61013093705657
 20
116.4221345370429
 30
0.0
 10
95.65031621252662
 20
116.4210963339456
 30
0.0
 10
95.72369725993046
 20
116.4191624387309
 30
0.0
 10
95.75710682367308
 20
116.4182675514421
 30
0.0
 10
95.78734293132953
 20
116.4174837611698
 30
0.0
  0
SPLINE
  5
75
330
1F
100
AcDbEntity
  8
0
  6
Continuous
 62
     7
370
    15
100
AcDbSpline
210
0.0
220
0.0
230
1.0
 70
     8
 71
     3
 72
    16
 73
    12
 74
     0
 42
0.00000001
 43
0.00000001
 12
1.0
 22
0.0
 32
0.0
 13
1.0
 23
0.0
 33
0.0
 40
0.0
 40
0.0
 40
0.0
 40
0.0
 40
0.0624999999999978
 40
0.0624999999999978
 40
0.1249999999999957
 40
0.1249999999999957
 40
0.2499999999999931
 40
0.2499999999999931
 40
0.4999999999999929
 40
0.4999999999999929
 40
1.0
 40
1.0
 40
1.0
 40
1.0
 10
95.78734293129233
 20
116.417483761194
 30
0.0
 10
95.79892333888029
 20
116.4171835700827
 30
0.0
 10
95.81223286564156
 20
116.4158558218237
 30
0.0
 10
95.84153429572771
 20
116.4091571470487
 30
0.0
 10
95.85634839561207
 20
116.4037989639429
 30
0.0
 10
95.8921767973149
 20
116.3867533147756
 30
0.0
 10
95.90629642167795
 20
116.3752907769998
 30
0.0
 10
95.9408005657664
 20
116.3437274516276
 30
0.0
 10
95.95190511647101
 20
116.3258301525823
 30
0.0
 10
95.9780812936872
 20
116.2756687349681
 30
0.0
 10
95.98231982019921
 20
116.2479243227715
 30
0.0
 10
95.98231982019921
 20
116.223260160842
 30
0.0
  0
LINE
  5
76
330
1F
100
AcDbEntity
  8
0
  6
Continuous
 62
     7
370
    15
100
AcDbLine
 10
95.9823198202
 20
131.2609673233
 30
0.0
 11
95.9823198202
 21
115.7430343702
 31
0.0
  0
SPLINE
  5
77
330
1F
100
AcDbEntity
  8
0
  6
Continuous
 62
     7
370
    15
100
AcDbSpline
210
0.0
220
0.0
230
1.0
 70
     8
 71
     3
 72
    16
 73
    12
 74
     0
 42
0.00000001
 43
0.00000001
 12
1.0
 22
0.0
 32
0.0
 13
1.0
 23
0.0
 33
0.0
 40
0.0
 40
0.0
 40
0.0
 40
0.0
 40
0.4999999999999978
 40
0.4999999999999978
 40
0.7499999999999984
 40
0.7499999999999984
 40
0.8749999999999987
 40
0.8749999999999987
 40
0.9374999999999992
 40
0.9374999999999992
 40
1.0
 40
1.0
 40
1.0
 40
1.0
 10
95.98231982019921
 20
131.2609673233332
 30
0.0
 10
95.98231982019921
 20
131.374659867461
 30
0.0
 10
95.97817354512125
 20
131.4889800288105
 30
0.0
 10
95.95220794972775
 20
131.6620283193076
 30
0.0
 10
95.94074704435035
 20
131.7212038264694
 30
0.0
 10
95.90643530657597
 20
131.8043269459375
 30
0.0
 10
95.8924105706464
 20
131.8324482620382
 30
0.0
 10
95.85638760761256
 20
131.8610640760157
 30
0.0
 10
95.84163309852285
 20
131.8668571239175
 30
0.0
 10
95.81228093737597
 20
131.8652636979804
 30
0.0
 10
95.79894106287186
 20
131.8587672946566
 30
0.0
 10
95.78734293132352
 20
131.8502515484535
 30
0.0
  0
SPLINE
  5
78
330
1F
100
AcDbEntity
  8
0
  6
Continuous
 62
     7
370
    15
100
AcDbSpline
210
0.0
220
0.0
230
1.0
 70
     8
 71
     3
 72
    12
 73
     8
 74
     0
 42
0.00000001
 43
0.00000001
 12
1.0
 22
0.0
 32
0.0
 13
1.0
 23
0.0
 33
0.0
 40
0.0
 40
0.0
 40
0.0
 40
0.0
 40
0.2500000000000003
 40
0.2500000000000003
 40
0.5000000000000003
 40
0.5000000000000003
 40
1.0
 40
1.0
 40
1.0
 40
1.0
 10
95.7873429313306
 20
131.8502515484443
 30
0.0
 10
95.75714448988997
 20
131.8280788163993
 30
0.0
 10
95.72377713455398
 20
131.8089991605221
 30
0.0
 10
95.65062185872408
 20
131.7838261160794
 30
0.0
 10
95.61036915970014
 20
131.7782695796626
 30
0.0
 10
95.49264041642527
 20
131.7891813906493
 30
0.0
 10
95.42218196836639
 20
131.8311171460602
 30
0.0
 10
95.3658075337481
 20
131.8803289284417
 30
0.0
  0
SPLINE
  5
79
330
1F
100
AcDbEntity
  8
0
  6
Continuous
 62
     7
370
    15
100
AcDbSpline
210
0.0
220
0.0
230
1.0
 70
     8
 71
     3
 72
    12
 73
     8
 74
     0
 42
0.00000001
 43
0.00000001
 12
1.0
 22
0.0
 32
0.0
 13
1.0
 23
0.0
 33
0.0
 40
0.0
 40
0.0
 40
0.0
 40
0.0
 40
0.4999999999999978
 40
0.4999999999999978
 40
0.7499999999999989
 40
0.7499999999999989
 40
1.0
 40
1.0
 40
1.0
 40
1.0
 10
94.86099947663953
 20
133.0966803203222
 30
0.0
 10
94.90474982852398
 20
132.8762333353477
 30
0.0
 10
94.95763997964848
 20
132.6606883455421
 30
0.0
 10
95.06925152279014
 20
132.3482742689702
 30
0.0
 10
95.11181086669366
 20
132.2461947933543
 30
0.0
 10
95.21678810203109
 20
132.0517547807125
 30
0.0
 10
95.27835534512566
 20
131.9566698816488
 30
0.0
 10
95.36580753374804
 20
131.8803289284417
 30
0.0
  0
SPLINE
  5
7A
330
1F
100
AcDbEntity
  8
0
  6
Continuous
 62
     7
370
    15
100
AcDbSpline
210
0.0
220
0.0
230
1.0
 70
     8
 71
     3
 72
    12
 73
     8
 74
     0
 42
0.00000001
 43
0.00000001
 12
1.0
 22
0.0
 32
0.0
 13
1.0
 23
0.0
 33
0.0
 40
0.0
 40
0.0
 40
0.0
 40
0.0
 40
0.2499999999999989
 40
0.2499999999999989
 40
0.4999999999999978
 40
0.4999999999999978
 40
1.0
 40
1.0
 40
1.0
 40
1.0
 10
95.36580753374793
 20
144.6853803697248
 30
0.0
 10
95.27731412618007
 20
144.6081304896165
 30
0.0
 10
95.21725608541419
 20
144.5148111657273
 30
0.0
 10
95.11140781243164
 20
144.3187781127578
 30
0.0
 10
95.06887429115415
 20
144.2164517545461
 30
0.0
 10
94.9577229843305
 20
143.9051073487702
 30
0.0
 10
94.90479212728273
 20
143.6896890955922
 30
0.0
 10
94.86099947663953
 20
143.4690289778443
 30
0.0
  0
SPLINE
  5
7B
330
1F
100
AcDbEntity
  8
0
  6
Continuous
 62
     7
370
    15
100
AcDbSpline
210
0.0
220
0.0
230
1.0
 70
     8
 71
     3
 72
    12
 73
     8
 74
     0
 42
0.00000001
 43
0.00000001
 12
1.0
 22
0.0
 32
0.0
 13
1.0
 23
0.0
 33
0.0
 40
0.0
 40
0.0
 40
0.0
 40
0.0
 40
0.4999999999999996
 40
0.4999999999999996
 40
0.7499999999999996
 40
0.7499999999999996
 40
1.0
 40
1.0
 40
1.0
 40
1.0
 10
95.36580753374798
 20
144.6853803697248
 30
0.0
 10
95.42211608204363
 20
144.7345346369686
 30
0.0
 10
95.4923907427617
 20
144.7764919555723
 30
0.0
 10
95.6104286570853
 20
144.7874516331048
 30
0.0
 10
95.6506048979392
 20
144.7819428748574
 30
0.0
 10
95.72456199261715
 20
144.7563856460685
 30
0.0
 10
95.75717838032857
 20
144.7376055982292
 30
0.0
 10
95.78734293132432
 20
144.7154577497125
 30
0.0
  0
SPLINE
  5
7C
330
1F
100
AcDbEntity
  8
0
  6
Continuous
 62
     7
370
    15
100
AcDbSpline
210
0.0
220
0.0
230
1.0
 70
     8
 71
     3
 72
    16
 73
    12
 74
     0
 42
0.00000001
 43
0.00000001
 12
1.0
 22
0.0
 32
0.0
 13
1.0
 23
0.0
 33
0.0
 40
0.0
 40
0.0
 40
0.0
 40
0.0
 40
0.0625000000000018
 40
0.0625000000000018
 40
0.1250000000000036
 40
0.1250000000000036
 40
0.2500000000000039
 40
0.2500000000000039
 40
0.5000000000000027
 40
0.5000000000000027
 40
1.0
 40
1.0
 40
1.0
 40
1.0
 10
95.78734293129257
 20
144.7154577496579
 30
0.0
 10
95.79895583113193
 20
144.7069311600627
 30
0.0
 10
95.81230701556444
 20
144.7004308985299
 30
0.0
 10
95.84170685518359
 20
144.6988615014124
 30
0.0
 10
95.85654757973894
 20
144.704744892043
 30
0.0
 10
95.89238078770751
 20
144.7332925280936
 30
0.0
 10
95.90649399552909
 20
144.7614595473994
 30
0.0
 10
95.94098536674797
 20
144.8452138058213
 30
0.0
 10
95.95206943785836
 20
144.9029272194427
 30
0.0
 10
95.97819225565435
 20
145.0765177560886
 30
0.0
 10
95.98231982019921
 20
145.1915458087305
 30
0.0
 10
95.98231982019921
 20
145.3047419748334
 30
0.0
  0
LINE
  5
7D
330
1F
100
AcDbEntity
  8
0
  6
Continuous
 62
     7
370
    15
100
AcDbLine
 10
95.9823198202
 20
160.822674928
 30
0.0
 11
95.9823198202
 21
145.3047419748
 31
0.0
  0
SPLINE
  5
7E
330
1F
100
AcDbEntity
  8
0
  6
Continuous
 62
     7
370
    15
100
AcDbSpline
210
0.0
220
0.0
230
1.0
 70
     8
 71
     3
 72
    16
 73
    12
 74
     0
 42
0.00000001
 43
0.00000001
 12
1.0
 22
0.0
 32
0.0
 13
1.0
 23
0.0
 33
0.0
 40
0.0
 40
0.0
 40
0.0
 40
0.0
 40
0.4999999999999986
 40
0.4999999999999986
 40
0.7499999999999976
 40
0.7499999999999976
 40
0.874999999999997
 40
0.874999999999997
 40
0.9374999999999986
 40
0.9374999999999986
 40
1.0
 40
1.0
 40
1.0
 40
1.0
 10
95.98231982019921
 20
160.3424491373245
 30
0.0
 10
95.98231982019921
 20
160.3177779812816
 30
0.0
 10
95.97815412173924
 20
160.2901961498904
 30
0.0
 10
95.95189579341431
 20
160.2398532790671
 30
0.0
 10
95.94039201167672
 20
160.2215637810052
 30
0.0
 10
95.90626125233024
 20
160.1904087499681
 30
0.0
 10
95.8918393656595
 20
160.1787693747564
 30
0.0
 10
95.85627239722169
 20
160.1618873488253
 30
0.0
 10
95.84132062892698
 20
160.1564982450176
 30
0.0
 10
95.81231681056724
 20
160.1498777490731
 30
0.0
 10
95.79890145655794
 20
160.1485251608667
 30
0.0
 10
95.78734293132133
 20
160.1482255369951
 30
0.0
  0
SPLINE
  5
7F
330
1F
100
AcDbEntity
  8
0
  6
Continuous
 62
     7
370
    15
100
AcDbSpline
210
0.0
220
0.0
230
1.0
 70
     8
 71
     3
 72
    12
 73
     8
 74
     0
 42
0.00000001
 43
0.00000001
 12
1.0
 22
0.0
 32
0.0
 13
1.0
 23
0.0
 33
0.0
 40
0.0
 40
0.0
 40
0.0
 40
0.0
 40
0.25
 40
0.25
 40
0.5
 40
0.5
 40
1.0
 40
1.0
 40
1.0
 40
1.0
 10
95.7873429313306
 20
160.1482255369968
 30
0.0
 10
95.75715515478095
 20
160.1474429995792
 30
0.0
 10
95.72380135068927
 20
160.1465496677607
 30
0.0
 10
95.65067514749329
 20
160.1446223589571
 30
0.0
 10
95.61043994446916
 20
160.1435828277445
 30
0.0
 10
95.49274831433605
 20
160.1406649443972
 30
0.0
 10
95.42236764117605
 20
160.139069338327
 30
0.0
 10
95.36580753374544
 20
160.1376483515591
 30
0.0
  0
SPLINE
  5
80
330
1F
100
AcDbEntity
  8
0
  6
Continuous
 62
     7
370
    15
100
AcDbSpline
210
0.0
220
0.0
230
1.0
 70
     8
 71
     3
 72
    16
 73
    12
 74
     0
 42
0.00000001
 43
0.00000001
 12
1.0
 22
0.0
 32
0.0
 13
1.0
 23
0.0
 33
0.0
 40
0.0
 40
0.0
 40
0.0
 40
0.0
 40
0.2499999999999999
 40
0.2499999999999999
 40
0.3749999999999999
 40
0.3749999999999999
 40
0.4999999999999999
 40
0.4999999999999999
 40
0.7499999999999999
 40
0.7499999999999999
 40
1.0
 40
1.0
 40
1.0
 40
1.0
 10
94.86099947663953
 20
143.4690289778443
 30
0.0
 10
94.69976699915509
 20
142.6566192025975
 30
0.0
 10
94.57928715951545
 20
141.8165409082128
 30
0.0
 10
94.45690664220213
 20
140.51524585885
 30
0.0
 10
94.42592898180467
 20
140.0745648232652
 30
0.0
 10
94.38431524417672
 20
139.1787251823341
 30
0.0
 10
94.3740793312439
 20
138.7320670511317
 30
0.0
 10
94.3738909341878
 20
137.3967570939917
 30
0.0
 10
94.4140356368254
 20
136.5122617206842
 30
0.0
 10
94.57818939176498
 20
134.7550118326582
 30
0.0
 10
94.69974104217454
 20
133.9092208862451
 30
0.0
 10
94.86099947663953
 20
133.0966803203222
 30
0.0
  0
LINE
  5
81
330
1F
100
AcDbEntity
  8
0
  6
Continuous
 62
     7
370
    15
100
AcDbLine
 10
93.9823198202
 20
144.7680329108
 30
0.0
 11
93.9823198202
 21
131.7976763874
 31
0.0
  0
LINE
  5
82
330
1F
100
AcDbEntity
  8
0
  6
Continuous
 62
     7
370
    15
100
AcDbLine
 10
59.6823198202
 20
144.3371652166
 30
0.0
 11
59.6823198202
 21
132.2285440815
 31
0.0
  0
LINE
  5
83
330
1F
100
AcDbEntity
  8
0
  6
Continuous
 62
     7
370
    15
100
AcDbLine
 10
58.1823198202
 20
143.9041525147
 30
0.0
 11
58.1823198202
 21
132.6615567834
 31
0.0
  0
LINE
  5
84
330
1F
100
AcDbEntity
  8
0
  6
Continuous
 62
     7
370
    15
100
AcDbLine
 10
93.9823198202
 20
144.7680329108
 30
0.0
 11
93.9823198202
 21
160.3029534336
 31
0.0
  0
ARC
  5
85
330
1F
100
AcDbEntity
  8
0
  6
Continuous
 62
     7
370
    15
100
AcDbCircle
 10
94.1822567311
 20
160.3079765448
 30
0.0
 40
0.2000000000000059
100
AcDbArc
 50
181.4391666667
 51
271.4391666667
  0
LINE
  5
86
330
1F
100
AcDbEntity
  8
0
  6
Continuous
 62
     7
370
    15
100
AcDbLine
 10
59.6823198202
 20
144.3371652166
 30
0.0
 11
59.6823198202
 21
159.4412180454
 31
0.0
  0
LINE
  5
87
330
1F
100
AcDbEntity
  8
0
  6
Continuous
 62
     7
370
    15
100
AcDbLine
 10
59.6823198202
 20
159.4412180454
 30
0.0
 11
93.9823198202
 21
160.3029534336
 31
0.0
  0
LINE
  5
88
330
1F
100
AcDbEntity
  8
0
  6
Continuous
 62
     7
370
    15
100
AcDbLine
 10
59.6823198202
 20
117.1244912528
 30
0.0
 11
59.6823198202
 21
132.2285440815
 31
0.0
  0
LINE
  5
89
330
1F
100
AcDbEntity
  8
0
  6
Continuous
 62
     7
370
    15
100
AcDbLine
 10
93.9823198202
 20
116.2627558645
 30
0.0
 11
93.9823198202
 21
131.7976763874
 31
0.0
  0
LINE
  5
8A
330
1F
100
AcDbEntity
  8
0
  6
Continuous
 62
     7
370
    15
100
AcDbLine
 10
59.6823198202
 20
117.1244912528
 30
0.0
 11
93.9823198202
 21
116.2627558645
 31
0.0
  0
ARC
  5
8B
330
1F
100
AcDbEntity
  8
0
  6
Continuous
 62
     7
370
    15
100
AcDbCircle
 10
94.1822567311
 20
116.2577327534
 30
0.0
 40
0.1999999999999917
100
AcDbArc
 50
88.5608333333
 51
178.5608333333
  0
LINE
  5
8C
330
1F
100
AcDbEntity
  8
0
  6
Continuous
 62
     7
370
    15
100
AcDbLine
 10
94.1872798423
 20
160.1080396338
 30
0.0
 11
95.3658075337
 21
160.1376483516
 31
0.0
  0
LINE
  5
8D
330
1F
100
AcDbEntity
  8
0
  6
Continuous
 62
     7
370
    15
100
AcDbLine
 10
94.1872798423
 20
116.4576696643
 30
0.0
 11
95.3658075337
 21
116.4280609466
 31
0.0
  0
LINE
  5
8E
330
1F
100
AcDbEntity
  8
0
  6
Continuous
 62
     7
370
    15
100
AcDbLine
 10
58.1823198202
 20
158.5751926416
 30
0.0
 11
59.6823198202
 21
159.4412180454
 31
0.0
  0
LINE
  5
8F
330
1F
100
AcDbEntity
  8
0
  6
Continuous
 62
     7
370
    15
100
AcDbLine
 10
58.1823198202
 20
143.9041525147
 30
0.0
 11
58.1823198202
 21
158.5751926416
 31
0.0
  0
LINE
  5
90
330
1F
100
AcDbEntity
  8
0
  6
Continuous
 62
     7
370
    15
100
AcDbLine
 10
58.1823198202
 20
117.9905166566
 30
0.0
 11
59.6823198202
 21
117.1244912528
 31
0.0
  0
LINE
  5
91
330
1F
100
AcDbEntity
  8
0
  6
Continuous
 62
     7
370
    15
100
AcDbLine
 10
58.1823198202
 20
117.9905166566
 30
0.0
 11
58.1823198202
 21
132.6615567834
 31
0.0
  0
ELLIPSE
  5
92
330
1F
100
AcDbEntity
  8
0
  6
Continuous
 62
     7
370
    15
100
AcDbEllipse
 10
223.5131412602
 20
138.2828546491
 30
0.0
 11
-0.3220561513869029
 21
15.9997685932006
 31
0.0
210
0.0
220
0.0
230
1.0
 40
0.2671959542
 41
0.2878381521913663
 42
2.703371596797377
  0
ELLIPSE
  5
93
330
1F
100
AcDbEntity
  8
0
  6
Continuous
 62
     7
370
    15
100
AcDbEllipse
 10
220.9772613321
 20
144.7540830524
 30
0.0
 11
0.08858572008301734
 21
2.327551996844704
 31
0.0
210
0.0
220
0.0
230
1.0
 40
0.2575917467
 41
0.0
 42
6.283185307179586
  0
LINE
  5
94
330
1F
100
AcDbEntity
  8
0
  6
Continuous
 62
     7
370
    15
100
AcDbLine
 10
227.7862817481
 20
154.2824131585
 30
0.0
 11
230.1823198202
 21
154.2824131585
 31
0.0
  0
SPLINE
  5
95
330
1F
100
AcDbEntity
  8
0
  6
Continuous
 62
     7
370
    15
100
AcDbSpline
210
0.0
220
0.0
230
1.0
 70
     8
 71
     3
 72
    14
 73
    10
 74
     0
 42
0.00000001
 43
0.00000001
 12
1.0
 22
0.0
 32
0.0
 13
1.0
 23
0.0
 33
0.0
 40
0.0
 40
0.0
 40
0.0
 40
0.0
 40
0.25
 40
0.25
 40
0.5
 40
0.5
 40
0.75
 40
0.75
 40
1.0
 40
1.0
 40
1.0
 40
1.0
 10
221.9907267903385
 20
153.5999614297805
 30
0.0
 10
222.1534129054922
 20
153.7876832785112
 30
0.0
 10
222.4095828306599
 20
153.9255815318657
 30
0.0
 10
223.1279146714914
 20
154.1271693784104
 30
0.0
 10
223.5698813254776
 20
154.1856396741933
 30
0.0
 10
224.6204387151265
 20
154.2580521533791
 30
0.0
 10
225.2018938662146
 20
154.2705205555275
 30
0.0
 10
226.4658117603525
 20
154.282719872738
 30
0.0
 10
227.1166170492113
 20
154.2824131585139
 30
0.0
 10
227.7862817480732
 20
154.2824131585139
 30
0.0
  0
SPLINE
  5
96
330
1F
100
AcDbEntity
  8
0
  6
Continuous
 62
     7
370
    15
100
AcDbSpline
210
0.0
220
0.0
230
1.0
 70
     8
 71
     3
 72
    14
 73
    10
 74
     0
 42
0.00000001
 43
0.00000001
 12
1.0
 22
0.0
 32
0.0
 13
1.0
 23
0.0
 33
0.0
 40
0.0
 40
0.0
 40
0.0
 40
0.0
 40
0.2499999999999999
 40
0.2499999999999999
 40
0.4999999999999999
 40
0.4999999999999999
 40
0.7499999999999999
 40
0.7499999999999999
 40
1.0
 40
1.0
 40
1.0
 40
1.0
 10
227.7862817480731
 20
122.4555447430916
 30
0.0
 10
227.116621834046
 20
122.4555447430916
 30
0.0
 10
226.4655199011309
 20
122.47045038476
 30
0.0
 10
225.2005085320479
 20
122.5434379726219
 30
0.0
 10
224.6206257264612
 20
122.5998607538751
 30
0.0
 10
223.5707045981226
 20
122.7864662814546
 30
0.0
 10
223.1281739312499
 20
122.9124133654195
 30
0.0
 10
222.4104321417721
 20
123.2663537468914
 30
0.0
 10
222.1534163616421
 20
123.4859891900837
 30
0.0
 10
221.9907267903385
 20
123.7584225096643
 30
0.0
  0
LINE
  5
97
330
1F
100
AcDbEntity
  8
0
  6
Continuous
 62
     7
370
    15
100
AcDbLine
 10
230.1823198202
 20
122.4555447431
 30
0.0
 11
227.7862817481
 21
122.4555447431
 31
0.0
  0
LINE
  5
98
330
1F
100
AcDbEntity
  8
0
  6
Continuous
 62
     7
370
    15
100
AcDbLine
 10
230.1823198202
 20
122.4555447431
 30
0.0
 11
230.1823198202
 21
122.2828546491
 31
0.0
  0
LINE
  5
99
330
1F
100
AcDbEntity
  8
0
  6
Continuous
 62
     7
370
    15
100
AcDbLine
 10
230.1823198202
 20
154.2828546491
 30
0.0
 11
230.1823198202
 21
154.2824131585
 31
0.0
  0
LINE
  5
9A
330
1F
100
AcDbEntity
  8
0
  6
Continuous
 62
     7
370
    15
100
AcDbLine
 10
230.6823198202
 20
121.9553164606
 30
0.0
 11
230.1823198202
 21
122.4555447431
 31
0.0
  0
LINE
  5
9B
330
1F
100
AcDbEntity
  8
0
  6
Continuous
 62
     7
370
    15
100
AcDbLine
 10
230.6823198202
 20
121.9553164606
 30
0.0
 11
230.6823198202
 21
121.7828546491
 31
0.0
  0
SPLINE
  5
9C
330
1F
100
AcDbEntity
  8
0
  6
Continuous
 62
     7
370
    15
100
AcDbSpline
210
0.0
220
0.0
230
1.0
 70
     8
 71
     3
 72
     8
 73
     4
 74
     0
 42
0.00000001
 43
0.00000001
 12
1.0
 22
0.0
 32
0.0
 13
1.0
 23
0.0
 33
0.0
 40
0.0
 40
0.0
 40
0.0
 40
0.0
 40
1.0
 40
1.0
 40
1.0
 40
1.0
 10
230.1823198201992
 20
154.2824131585139
 30
0.0
 10
231.414452559466
 20
155.5152203152371
 30
0.0
 10
232.6469978493545
 20
156.7476174155382
 30
0.0
 10
233.8797597240115
 20
157.9797992404998
 30
0.0
  0
ARC
  5
9D
330
1F
100
AcDbEntity
  8
0
  6
Continuous
 62
     7
370
    15
100
AcDbCircle
 10
243.518124042
 20
147.626436925
 30
0.0
 40
2.097312844755546
100
AcDbArc
 50
118.349648527
 51
333.0427634639
  0
LINE
  5
9E
330
1F
100
AcDbEntity
  8
0
  6
Continuous
 62
     7
370
    15
100
AcDbLine
 10
254.7599672569
 20
147.477695282
 30
0.0
 11
254.6384024304
 21
146.0915876902
 31
0.0
  0
LINE
  5
9F
330
1F
100
AcDbEntity
  8
0
  6
Continuous
 62
     7
370
    15
100
AcDbLine
 10
254.6384024304
 20
146.0915876902
 30
0.0
 11
237.6967343191
 21
121.9553164606
 31
0.0
  0
LINE
  5
A0
330
1F
100
AcDbEntity
  8
0
  6
Continuous
 62
     7
370
    15
100
AcDbLine
 10
237.6967343191
 20
121.9553164606
 30
0.0
 11
230.6823198202
 21
121.9553164606
 31
0.0
  0
ELLIPSE
  5
A1
330
1F
100
AcDbEntity
  8
0
  6
Continuous
 62
     7
370
    15
100
AcDbEllipse
 10
265.1974999135
 20
141.6815122845
 30
0.0
 11
3113.331223476078
 21
271.0557416021061
 31
0.0
210
0.0
220
0.0
230
1.0
 40
0.0060650906
 41
1.57727618971633
 42
1.58032768867281
  0
ELLIPSE
  5
A2
330
1F
100
AcDbEntity
  8
0
  6
Continuous
 62
     7
370
    15
100
AcDbEllipse
 10
249.0327058287
 20
138.2828546491
 30
0.0
 11
11.76369068746803
 21
16.48124712370807
 31
0.0
210
0.0
220
0.0
230
1.0
 40
0.0668534593
 41
3.18927395618936
 42
3.333983942804613
  0
ARC
  5
A3
330
1F
100
AcDbEntity
  8
0
  6
Continuous
 62
     7
370
    15
100
AcDbCircle
 10
243.5105291617
 20
147.2912855753
 30
0.0
 40
2.093974347053977
100
AcDbArc
 50
119.1246781789
 51
175.3878079212
  0
CIRCLE
  5
A4
330
1F
100
AcDbEntity
  8
0
  6
Continuous
 62
     7
370
    15
100
AcDbCircle
 10
249.2428848526
 20
153.3206158267
 30
0.0
 40
3.49402950698001
  0
CIRCLE
  5
A5
330
1F
100
AcDbEntity
  8
0
  6
Continuous
 62
     7
370
    15
100
AcDbCircle
 10
249.2414322199
 20
153.3554103898
 30
0.0
 40
2.629459796464541
  0
CIRCLE
  5
A6
330
1F
100
AcDbEntity
  8
0
  6
Continuous
 62
     7
370
    15
100
AcDbCircle
 10
249.2406457285
 20
153.3552685545
 30
0.0
 40
1.996276054108067
  0
SPLINE
  5
A7
330
1F
100
AcDbEntity
  8
0
  6
Continuous
 62
     7
370
    15
100
AcDbSpline
210
0.0
220
0.0
230
1.0
 70
     8
 71
     3
 72
    15
 73
    11
 74
     0
 42
0.00000001
 43
0.00000001
 12
1.0
 22
0.0
 32
0.0
 13
1.0
 23
0.0
 33
0.0
 40
0.0
 40
0.0
 40
0.0
 40
0.0
 40
0.1262470803729493
 40
0.2533633350514788
 40
0.3794185517359138
 40
0.5042689738353637
 40
0.6284502821606579
 40
0.7526361292230451
 40
0.8774891912115275
 40
1.0
 40
1.0
 40
1.0
 40
1.0
 10
249.5776881601704
 20
155.0226219912506
 30
0.0
 10
249.5622726666595
 20
155.0645668784017
 30
0.0
 10
249.5313355484635
 20
155.1487454310113
 30
0.0
 10
249.4353045821877
 20
155.2466880849557
 30
0.0
 10
249.3151582646609
 20
155.3083694379364
 30
0.0
 10
249.1816352851913
 20
155.3259306304187
 30
0.0
 10
249.0505009027566
 20
155.298511949634
 30
0.0
 10
248.9365926855013
 20
155.2293032032163
 30
0.0
 10
248.8491858949257
 20
155.1274946629547
 30
0.0
 10
248.823590614222
 20
155.043804904963
 30
0.0
 10
248.8109141529007
 20
155.0023562491562
 30
0.0
  0
SPLINE
  5
A8
330
1F
100
AcDbEntity
  8
0
  6
Continuous
 62
     7
370
    15
100
AcDbSpline
210
0.0
220
0.0
230
1.0
 70
     8
 71
     3
 72
    12
 73
     8
 74
     0
 42
0.00000001
 43
0.00000001
 12
1.0
 22
0.0
 32
0.0
 13
1.0
 23
0.0
 33
0.0
 40
0.0
 40
0.0
 40
0.0
 40
0.0
 40
0.2058748011360347
 40
0.4120995812665951
 40
0.6141693366125652
 40
0.8132901286731893
 40
1.0
 40
1.0
 40
1.0
 40
1.0
 10
248.8109141529007
 20
155.0023562491562
 30
0.0
 10
248.7880249728816
 20
154.9280772204914
 30
0.0
 10
248.7422077021455
 20
154.7793928917598
 30
0.0
 10
248.5855749468731
 20
154.6008249790965
 30
0.0
 10
248.3861628989025
 20
154.4848314444194
 30
0.0
 10
248.165276773118
 20
154.4384338111516
 30
0.0
 10
248.0232826215897
 20
154.4654448165714
 30
0.0
 10
247.954569291425
 20
154.4785158910735
 30
0.0
  0
SPLINE
  5
A9
330
1F
100
AcDbEntity
  8
0
  6
Continuous
 62
     7
370
    15
100
AcDbSpline
210
0.0
220
0.0
230
1.0
 70
     8
 71
     3
 72
    23
 73
    19
 74
     0
 42
0.00000001
 43
0.00000001
 12
1.0
 22
0.0
 32
0.0
 13
1.0
 23
0.0
 33
0.0
 40
0.0
 40
0.0
 40
0.0
 40
0.0
 40
0.0625415897569265
 40
0.1268766342580103
 40
0.189518354488264
 40
0.2540059658422855
 40
0.3161227144821263
 40
0.380075199767218
 40
0.4416034412086374
 40
0.5049353255902985
 40
0.5661404248701738
 40
0.6291209679676424
 40
0.6903347836860514
 40
0.7533059380537754
 40
0.8148536299082468
 40
0.8781541077289884
 40
0.9382805140940809
 40
1.0
 40
1.0
 40
1.0
 40
1.0
 10
247.954569291425
 20
154.4785158910735
 30
0.0
 10
247.9332087942759
 20
154.4834687487313
 30
0.0
 10
247.8898752622233
 20
154.4935164931526
 30
0.0
 10
247.8230687738957
 20
154.4944642653655
 30
0.0
 10
247.7564804390379
 20
154.4847610986152
 30
0.0
 10
247.6931417596234
 20
154.4638463908017
 30
0.0
 10
247.6338522460354
 20
154.4322607492925
 30
0.0
 10
247.5815278561412
 20
154.3916039626397
 30
0.0
 10
247.5365242073345
 20
154.3423136156417
 30
0.0
 10
247.5009374852533
 20
154.2868644246664
 30
0.0
 10
247.4749463306178
 20
154.2257171890722
 30
0.0
 10
247.4596832172119
 20
154.1617433459278
 30
0.0
 10
247.4552277081106
 20
154.0954930639392
 30
0.0
 10
247.4617645273629
 20
154.0299147490937
 30
0.0
 10
247.4791910933638
 20
153.9656186390668
 30
0.0
 10
247.506673819574
 20
153.9061938431194
 30
0.0
 10
247.5429220140333
 20
153.8515086712845
 30
0.0
 10
247.5733538792663
 20
153.8212792987914
 30
0.0
 10
247.588768753271
 20
153.8059669949069
 30
0.0
  0
SPLINE
  5
AA
330
1F
100
AcDbEntity
  8
0
  6
Continuous
 62
     7
370
    15
100
AcDbSpline
210
0.0
220
0.0
230
1.0
 70
     8
 71
     3
 72
    12
 73
     8
 74
     0
 42
0.00000001
 43
0.00000001
 12
1.0
 22
0.0
 32
0.0
 13
1.0
 23
0.0
 33
0.0
 40
0.0
 40
0.0
 40
0.0
 40
0.0
 40
0.2057949882089624
 40
0.4120010155284172
 40
0.6140549927931244
 40
0.8131810826684825
 40
1.0
 40
1.0
 40
1.0
 40
1.0
 10
247.588768753271
 20
153.8059669949069
 30
0.0
 10
247.6410954372572
 20
153.7486763783336
 30
0.0
 10
247.745853318531
 20
153.6339807173077
 30
0.0
 10
247.8214577930351
 20
153.4087876154117
 30
0.0
 10
247.8225694116591
 20
153.1785810930204
 30
0.0
 10
247.7536159613112
 20
152.965195238824
 30
0.0
 10
247.660457205135
 20
152.8567492439386
 30
0.0
 10
247.6153631693429
 20
152.804255331658
 30
0.0
  0
SPLINE
  5
AB
330
1F
100
AcDbEntity
  8
0
  6
Continuous
 62
     7
370
    15
100
AcDbSpline
210
0.0
220
0.0
230
1.0
 70
     8
 71
     3
 72
    15
 73
    11
 74
     0
 42
0.00000001
 43
0.00000001
 12
1.0
 22
0.0
 32
0.0
 13
1.0
 23
0.0
 33
0.0
 40
0.0
 40
0.0
 40
0.0
 40
0.0
 40
0.1268036956062759
 40
0.2539263442700686
 40
0.379987267176873
 40
0.5048410097957909
 40
0.6290227167749571
 40
0.7532063308919261
 40
0.8780553361590815
 40
1.0
 40
1.0
 40
1.0
 40
1.0
 10
247.6153631693429
 20
152.804255331658
 30
0.0
 10
247.586948863246
 20
152.7705027226799
 30
0.0
 10
247.530048779714
 20
152.7029126057955
 30
0.0
 10
247.4940704805864
 20
152.5722623664093
 30
0.0
 10
247.5013548537597
 20
152.4385984246197
 30
0.0
 10
247.5532366666843
 20
152.3148464145005
 30
0.0
 10
247.6425567344754
 20
152.2150525416026
 30
0.0
 10
247.7591200871182
 20
152.1504387302811
 30
0.0
 10
247.8901587441314
 20
152.1245491987171
 30
0.0
 10
247.9746086174396
 20
152.142903167282
 30
0.0
 10
248.016336638459
 20
152.1519721540793
 30
0.0
  0
SPLINE
  5
AC
330
1F
100
AcDbEntity
  8
0
  6
Continuous
 62
     7
370
    15
100
AcDbSpline
210
0.0
220
0.0
230
1.0
 70
     8
 71
     3
 72
    12
 73
     8
 74
     0
 42
0.00000001
 43
0.00000001
 12
1.0
 22
0.0
 32
0.0
 13
1.0
 23
0.0
 33
0.0
 40
0.0
 40
0.0
 40
0.0
 40
0.0
 40
0.20584974009547
 40
0.4120524486337051
 40
0.6141081262895602
 40
0.8132431903675867
 40
1.0
 40
1.0
 40
1.0
 40
1.0
 10
248.016336638459
 20
152.1519721540793
 30
0.0
 10
248.0915625579523
 20
152.1681353492301
 30
0.0
 10
248.2421433860535
 20
152.200489454397
 30
0.0
 10
248.4743463607746
 20
152.1525425842754
 30
0.0
 10
248.6748319010455
 20
152.038432217687
 30
0.0
 10
248.8267595117441
 20
151.8728514977912
 30
0.0
 10
248.8756262810728
 20
151.7389189940489
 30
0.0
 10
248.8992759160058
 20
151.67410081878
 30
0.0
  0
SPLINE
  5
AD
330
1F
100
AcDbEntity
  8
0
  6
Continuous
 62
     7
370
    15
100
AcDbSpline
210
0.0
220
0.0
230
1.0
 70
     8
 71
     3
 72
    15
 73
    11
 74
     0
 42
0.00000001
 43
0.00000001
 12
1.0
 22
0.0
 32
0.0
 13
1.0
 23
0.0
 33
0.0
 40
0.0
 40
0.0
 40
0.0
 40
0.0
 40
0.1262564375373768
 40
0.2533820972841869
 40
0.3794454811311027
 40
0.504300237903353
 40
0.6284814530465026
 40
0.7526634908999349
 40
0.8775104621122356
 40
1.0
 40
1.0
 40
1.0
 40
1.0
 10
248.8992759160058
 20
151.67410081878
 30
0.0
 10
248.914692349397
 20
151.6330861046401
 30
0.0
 10
248.9456313518073
 20
151.5507743073885
 30
0.0
 10
249.0416691363999
 20
151.4548778287865
 30
0.0
 10
249.1618231965045
 20
151.3944852277175
 30
0.0
 10
249.2953515430536
 20
151.3773393485781
 30
0.0
 10
249.4264859128362
 20
151.4043014740925
 30
0.0
 10
249.5403890331663
 20
151.4722011350137
 30
0.0
 10
249.6277844179044
 20
151.5719752531267
 30
0.0
 10
249.6533760618537
 20
151.6538295012183
 30
0.0
 10
249.6660499232766
 20
151.694366537418
 30
0.0
  0
SPLINE
  5
AE
330
1F
100
AcDbEntity
  8
0
  6
Continuous
 62
     7
370
    15
100
AcDbSpline
210
0.0
220
0.0
230
1.0
 70
     8
 71
     3
 72
    12
 73
     8
 74
     0
 42
0.00000001
 43
0.00000001
 12
1.0
 22
0.0
 32
0.0
 13
1.0
 23
0.0
 33
0.0
 40
0.0
 40
0.0
 40
0.0
 40
0.0
 40
0.2058713741443129
 40
0.4120924153877865
 40
0.6141683533433573
 40
0.813306887280382
 40
1.0
 40
1.0
 40
1.0
 40
1.0
 10
249.6660499232766
 20
151.694366537418
 30
0.0
 10
249.6889388091012
 20
151.7670422930767
 30
0.0
 10
249.7347554569191
 20
151.9125172422484
 30
0.0
 10
249.8913866824517
 20
152.0885093595717
 30
0.0
 10
250.0908021342093
 20
152.2046978598792
 30
0.0
 10
250.3116924232869
 20
152.253815585385
 30
0.0
 10
250.4536873986085
 20
152.2298184407578
 30
0.0
 10
250.5223947847524
 20
152.2182068955006
 30
0.0
  0
SPLINE
  5
AF
330
1F
100
AcDbEntity
  8
0
  6
Continuous
 62
     7
370
    15
100
AcDbSpline
210
0.0
220
0.0
230
1.0
 70
     8
 71
     3
 72
    15
 73
    11
 74
     0
 42
0.00000001
 43
0.00000001
 12
1.0
 22
0.0
 32
0.0
 13
1.0
 23
0.0
 33
0.0
 40
0.0
 40
0.0
 40
0.0
 40
0.0
 40
0.1268702503425712
 40
0.2539810595562985
 40
0.3800301963391275
 40
0.5048749967541797
 40
0.6290527571810842
 40
0.753238460799366
 40
0.8780953942137988
 40
1.0
 40
1.0
 40
1.0
 40
1.0
 10
250.5223947847524
 20
152.2182068955006
 30
0.0
 10
250.5663360249839
 20
152.2112360301581
 30
0.0
 10
250.654301822498
 20
152.197281082005
 30
0.0
 10
250.786618315956
 20
152.2330899916876
 30
0.0
 10
250.899555296625
 20
152.307191070863
 30
0.0
 10
250.9812066275653
 20
152.4141976843304
 30
0.0
 10
251.0229627850723
 20
152.5409079893175
 30
0.0
 10
251.02018904296
 20
152.6729244288654
 30
0.0
 10
250.9762551529082
 20
152.797529859772
 30
0.0
 10
250.9173135346209
 20
152.8599293519652
 30
0.0
 10
250.8881953229053
 20
152.8907558151236
 30
0.0
  0
SPLINE
  5
B0
330
1F
100
AcDbEntity
  8
0
  6
Continuous
 62
     7
370
    15
100
AcDbSpline
210
0.0
220
0.0
230
1.0
 70
     8
 71
     3
 72
    12
 73
     8
 74
     0
 42
0.00000001
 43
0.00000001
 12
1.0
 22
0.0
 32
0.0
 13
1.0
 23
0.0
 33
0.0
 40
0.0
 40
0.0
 40
0.0
 40
0.0
 40
0.205832175091785
 40
0.4120750343575007
 40
0.6141697879282982
 40
0.8133029339857775
 40
1.0
 40
1.0
 40
1.0
 40
1.0
 10
250.8881953229053
 20
152.8907558151236
 30
0.0
 10
250.8358620216975
 20
152.94645318642
 30
0.0
 10
250.7310910018915
 20
153.0579590585236
 30
0.0
 10
250.6554911881124
 20
153.2806128800295
 30
0.0
 10
250.6544063093267
 20
153.5110431688125
 30
0.0
 10
250.7233920584674
 20
153.727121789647
 30
0.0
 10
250.8165319861469
 20
153.8385494477066
 30
0.0
 10
250.8616009068341
 20
153.8924675085055
 30
0.0
  0
SPLINE
  5
B1
330
1F
100
AcDbEntity
  8
0
  6
Continuous
 62
     7
370
    15
100
AcDbSpline
210
0.0
220
0.0
230
1.0
 70
     8
 71
     3
 72
    23
 73
    19
 74
     0
 42
0.00000001
 43
0.00000001
 12
1.0
 22
0.0
 32
0.0
 13
1.0
 23
0.0
 33
0.0
 40
0.0
 40
0.0
 40
0.0
 40
0.0
 40
0.0624988066048916
 40
0.1267875659928151
 40
0.1894243117295115
 40
0.2539068068160535
 40
0.3160185992640606
 40
0.3799659197985059
 40
0.4414903780364586
 40
0.5048182513711029
 40
0.5660216610166967
 40
0.6290003214448058
 40
0.6902150064542539
 40
0.753186915244002
 40
0.8147379738803342
 40
0.8780418128578461
 40
0.9382223043078072
 40
1.0
 40
1.0
 40
1.0
 40
1.0
 10
250.8616009068341
 20
153.8924675085055
 30
0.0
 10
250.8763667466089
 20
153.9087874570676
 30
0.0
 10
250.9063213167292
 20
153.941894754114
 30
0.0
 10
250.9399907256154
 20
154.0000531353134
 30
0.0
 10
250.9643793637072
 20
154.0632546624211
 30
0.0
 10
250.9775011607567
 20
154.1291245352042
 30
0.0
 10
250.9794185655561
 20
154.1966913840653
 30
0.0
 10
250.9700735139844
 20
154.2626165090022
 30
0.0
 10
250.9496656246114
 20
154.3263779185728
 30
0.0
 10
250.9192978117187
 20
154.3849214000492
 30
0.0
 10
250.8792795000613
 20
154.437863693606
 30
0.0
 10
250.8315331055434
 20
154.4827953059393
 30
0.0
 10
250.7764968602826
 20
154.5193710511039
 30
0.0
 10
250.7166286958889
 20
154.545970008604
 30
0.0
 10
250.6525107400026
 20
154.5623737180656
 30
0.0
 10
250.587640944859
 20
154.5675363789177
 30
0.0
 10
250.5225424063172
 20
154.562641050301
 30
0.0
 10
250.481445168201
 20
154.5507659807527
 30
0.0
 10
250.460627437718
 20
154.5447506860844
 30
0.0
  0
SPLINE
  5
B2
330
1F
100
AcDbEntity
  8
0
  6
Continuous
 62
     7
370
    15
100
AcDbSpline
210
0.0
220
0.0
230
1.0
 70
     8
 71
     3
 72
    12
 73
     8
 74
     0
 42
0.00000001
 43
0.00000001
 12
1.0
 22
0.0
 32
0.0
 13
1.0
 23
0.0
 33
0.0
 40
0.0
 40
0.0
 40
0.0
 40
0.0
 40
0.2058903596435551
 40
0.4121336430769705
 40
0.6142239121174439
 40
0.813348277736419
 40
1.0
 40
1.0
 40
1.0
 40
1.0
 10
250.460627437718
 20
154.5447506860844
 30
0.0
 10
250.3853897445947
 20
154.5269835706279
 30
0.0
 10
250.2347853908148
 20
154.4914188844874
 30
0.0
 10
250.0025518660119
 20
154.5368137850345
 30
0.0
 10
249.8020556915783
 20
154.6511540353719
 30
0.0
 10
249.6501697137428
 20
154.8194656360504
 30
0.0
 10
249.6013222439219
 20
154.9563787324242
 30
0.0
 10
249.5776881601704
 20
155.0226219912506
 30
0.0
  0
LWPOLYLINE
  5
B3
330
1F
100
AcDbEntity
  8
0
  6
Continuous
 62
     7
370
    15
100
AcDbPolyline
 90
        3
 70
   128
 43
0.0
 10
247.5038711218
 20
152.4730101946
 10
247.5388238824
 20
152.5827432335
 10
247.6153631693
 20
152.6892159669
  0
ARC
  5
B4
330
1F
100
AcDbEntity
  8
0
  6
Continuous
 62
     7
370
    15
100
AcDbCircle
 10
250.6273210245
 20
152.4822253379
 30
0.0
 40
0.3926476259271902
100
AcDbArc
 50
7.1883442332
 51
48.3638416503
  0
ARC
  5
B5
330
1F
100
AcDbEntity
  8
0
  6
Continuous
 62
     7
370
    15
100
AcDbCircle
 10
247.1323724665
 20
153.1777474054
 30
0.0
 40
0.6869810662738051
100
AcDbArc
 50
314.6732371703
 51
359.9881618795
  0
ARC
  5
B6
330
1F
100
AcDbEntity
  8
0
  6
Continuous
 62
     7
370
    15
100
AcDbCircle
 10
251.3446693968
 20
153.2891809761
 30
0.0
 40
0.6870588570082724
100
AcDbArc
 50
180.0132197031
 51
228.3645622671
  0
ARC
  5
B7
330
1F
100
AcDbEntity
  8
0
  6
Continuous
 62
     7
370
    15
100
AcDbCircle
 10
247.8507604154
 20
153.9836199295
 30
0.0
 40
0.3938114280585535
100
AcDbArc
 50
74.716191146
 51
174.3350517352
  0
ARC
  5
B8
330
1F
100
AcDbEntity
  8
0
  6
Continuous
 62
     7
370
    15
100
AcDbCircle
 10
250.5843579156
 20
154.0557798568
 30
0.0
 40
0.3938705007149678
100
AcDbArc
 50
5.6766094579
 51
108.3089040005
  0
ARC
  5
B9
330
1F
100
AcDbEntity
  8
0
  6
Continuous
 62
     7
370
    15
100
AcDbCircle
 10
248.1360298977
 20
155.0287338583
 30
0.0
 40
0.6895360957959956
100
AcDbArc
 50
254.7421546755
 51
348.1674797951
  0
ARC
  5
BA
330
1F
100
AcDbEntity
  8
0
  6
Continuous
 62
     7
370
    15
100
AcDbCircle
 10
250.2442976762
 20
155.0846200292
 30
0.0
 40
0.689712970193058
100
AcDbArc
 50
194.8717374618
 51
288.2794474723
  0
ARC
  5
BB
330
1F
100
AcDbEntity
  8
0
  6
Continuous
 62
     7
370
    15
100
AcDbCircle
 10
249.1967066911
 20
154.8064200282
 30
0.0
 40
0.3941883688607531
100
AcDbArc
 50
14.8732623076
 51
168.1534626333
  0
ARC
  5
BC
330
1F
100
AcDbEntity
  8
0
  6
Continuous
 62
     7
370
    15
100
AcDbCircle
 10
249.2369457578
 20
153.3120288891
 30
0.0
 40
3.500005960271241
100
AcDbArc
 50
180.105739271
 51
359.894260729
  0
LINE
  5
BD
330
1F
100
AcDbEntity
  8
0
  6
Continuous
 62
     7
370
    15
100
AcDbLine
 10
255.7474575231
 20
160.2813362361
 30
0.0
 11
243.7098624991
 21
159.2307485634
 31
0.0
  0
ARC
  5
BE
330
1F
100
AcDbEntity
  8
0
  6
Continuous
 62
     7
370
    15
100
AcDbCircle
 10
255.7827621554
 20
159.8833856136
 30
0.0
 40
0.3995135980505151
100
AcDbArc
 50
355.0699537939
 51
95.0697859756
  0
LINE
  5
BF
330
1F
100
AcDbEntity
  8
0
  6
Continuous
 62
     7
370
    15
100
AcDbLine
 10
255.1276445987
 20
147.8407796071
 30
0.0
 11
256.1807976994
 21
159.8490516547
 31
0.0
  0
ARC
  5
C0
330
1F
100
AcDbEntity
  8
0
  6
Continuous
 62
     7
370
    15
100
AcDbCircle
 10
254.7296938741
 20
147.8760854233
 30
0.0
 40
0.3995138043822728
100
AcDbArc
 50
274.9302140243
 51
354.9300462062
  0
LINE
  5
C1
330
1F
100
AcDbEntity
  8
0
  6
Continuous
 62
     7
370
    15
100
AcDbLine
 10
242.7264339925
 20
146.4274621016
 30
0.0
 11
254.7640290166
 21
147.4780497743
 31
0.0
  0
ARC
  5
C2
330
1F
100
AcDbEntity
  8
0
  6
Continuous
 62
     7
370
    15
100
AcDbCircle
 10
242.6911293602
 20
146.8254127241
 30
0.0
 40
0.3995135980506244
100
AcDbArc
 50
175.0699537939
 51
275.0697859756
  0
LINE
  5
C3
330
1F
100
AcDbEntity
  8
0
  6
Continuous
 62
     7
370
    15
100
AcDbLine
 10
243.3462469169
 20
158.8680187306
 30
0.0
 11
242.2930938162
 21
146.859746683
 31
0.0
  0
ARC
  5
C4
330
1F
100
AcDbEntity
  8
0
  6
Continuous
 62
     7
370
    15
100
AcDbCircle
 10
243.7441976416
 20
158.8327129144
 30
0.0
 40
0.3995138043818747
100
AcDbArc
 50
94.9302140243
 51
174.9300462062
  0
ARC
  5
C5
330
1F
100
AcDbEntity
  8
0
  6
Continuous
 62
     7
370
    15
100
AcDbCircle
 10
242.691151477
 20
146.8253905533
 30
0.0
 40
0.3795379181477676
100
AcDbArc
 50
175.0699537939
 51
275.0697859757
  0
LINE
  5
C6
330
1F
100
AcDbEntity
  8
0
  6
Continuous
 62
     7
370
    15
100
AcDbLine
 10
242.7246908777
 20
146.4473374619
 30
0.0
 11
254.7622859017
 21
147.4979251349
 31
0.0
  0
ARC
  5
C7
330
1F
100
AcDbEntity
  8
0
  6
Continuous
 62
     7
370
    15
100
AcDbCircle
 10
254.729667516
 20
147.8760590019
 30
0.0
 40
0.3795381146155728
100
AcDbArc
 50
274.9302140739
 51
354.9300461055
  0
LINE
  5
C8
330
1F
100
AcDbEntity
  8
0
  6
Continuous
 62
     7
370
    15
100
AcDbLine
 10
255.1077207048
 20
147.8425184758
 30
0.0
 11
256.1608738055
 21
159.8507905234
 31
0.0
  0
ARC
  5
C9
330
1F
100
AcDbEntity
  8
0
  6
Continuous
 62
     7
370
    15
100
AcDbCircle
 10
255.7827400387
 20
159.8834077844
 30
0.0
 40
0.3795379181480052
100
AcDbArc
 50
355.0699537939
 51
95.0697859756
  0
LINE
  5
CA
330
1F
100
AcDbEntity
  8
0
  6
Continuous
 62
     7
370
    15
100
AcDbLine
 10
255.749200638
 20
160.2614608758
 30
0.0
 11
243.7116056139
 21
159.2108732031
 31
0.0
  0
ARC
  5
CB
330
1F
100
AcDbEntity
  8
0
  6
Continuous
 62
     7
370
    15
100
AcDbCircle
 10
243.7442239993
 20
158.8327393365
 30
0.0
 40
0.3795381141636492
100
AcDbArc
 50
94.9302140243
 51
174.9300462061
  0
LINE
  5
CC
330
1F
100
AcDbEntity
  8
0
  6
Continuous
 62
     7
370
    15
100
AcDbLine
 10
243.3661708109
 20
158.8662798619
 30
0.0
 11
242.3130177102
 21
146.8580078143
 31
0.0
  0
LINE
  5
CD
330
1F
100
AcDbEntity
  8
0
  6
Continuous
 62
     7
370
    15
100
AcDbLine
 10
254.7291667195
 20
147.8602528922
 30
0.0
 11
254.7622859017
 21
147.4979251349
 31
0.0
  0
LINE
  5
CE
330
1F
100
AcDbEntity
  8
0
  6
Continuous
 62
     7
370
    15
100
AcDbLine
 10
242.6915716954
 20
146.8096652195
 30
0.0
 11
242.7246908777
 21
146.4473374619
 31
0.0
  0
LINE
  5
CF
330
1F
100
AcDbEntity
  8
0
  6
Continuous
 62
     7
370
    15
100
AcDbLine
 10
243.6105720399
 20
147.6927818071
 30
0.0
 11
242.6915716954
 21
146.8096652195
 31
0.0
  0
LINE
  5
D0
330
1F
100
AcDbEntity
  8
0
  6
Continuous
 62
     7
370
    15
100
AcDbLine
 10
254.1554723902
 20
148.4075190069
 30
0.0
 11
254.7291667195
 21
147.8602528922
 31
0.0
  0
LINE
  5
D1
330
1F
100
AcDbEntity
  8
0
  6
Continuous
 62
     7
370
    15
100
AcDbLine
 10
242.6915716954
 20
146.8096652195
 30
0.0
 11
242.3130177102
 21
146.8580078143
 31
0.0
  0
LINE
  5
D2
330
1F
100
AcDbEntity
  8
0
  6
Continuous
 62
     7
370
    15
100
AcDbLine
 10
243.7447247962
 20
158.8179372671
 30
0.0
 11
243.3661708109
 21
158.8662798619
 31
0.0
  0
LINE
  5
D3
330
1F
100
AcDbEntity
  8
0
  6
Continuous
 62
     7
370
    15
100
AcDbLine
 10
244.3184191254
 20
158.2206097044
 30
0.0
 11
243.7447247962
 21
158.8179372671
 31
0.0
  0
LINE
  5
D4
330
1F
100
AcDbEntity
  8
0
  6
Continuous
 62
     7
370
    15
100
AcDbLine
 10
254.7291667195
 20
147.8602528922
 30
0.0
 11
255.1077207048
 21
147.8425184758
 31
0.0
  0
LINE
  5
D5
330
1F
100
AcDbEntity
  8
0
  6
Continuous
 62
     7
370
    15
100
AcDbLine
 10
245.6608921514
 20
148.7063451957
 30
0.0
 11
252.3978991144
 21
149.2943211536
 31
0.0
  0
LINE
  5
D6
330
1F
100
AcDbEntity
  8
0
  6
Continuous
 62
     7
370
    15
100
AcDbLine
 10
255.7823198202
 20
159.8685249398
 30
0.0
 11
256.1608738055
 21
159.8507905234
 31
0.0
  0
LINE
  5
D7
330
1F
100
AcDbEntity
  8
0
  6
Continuous
 62
     7
370
    15
100
AcDbLine
 10
254.8633194757
 20
158.9181181156
 30
0.0
 11
255.7823198202
 21
159.8685249398
 31
0.0
  0
ARC
  5
D8
330
1F
100
AcDbEntity
  8
0
  6
Continuous
 62
     7
370
    15
100
AcDbCircle
 10
245.57263057
 20
149.7012217517
 30
0.0
 40
0.9987839949362659
100
AcDbArc
 50
175.0699537786
 51
275.0697860058
  0
LINE
  5
D9
330
1F
100
AcDbEntity
  8
0
  6
Continuous
 62
     7
370
    15
100
AcDbLine
 10
252.8129993643
 20
158.0024531421
 30
0.0
 11
246.0759924012
 21
157.4144771841
 31
0.0
  0
ARC
  5
DA
330
1F
100
AcDbEntity
  8
0
  6
Continuous
 62
     7
370
    15
100
AcDbCircle
 10
252.9012609451
 20
157.0075765858
 30
0.0
 40
0.998783995126369
100
AcDbArc
 50
355.0699537939
 51
95.0697859756
  0
LINE
  5
DB
330
1F
100
AcDbEntity
  8
0
  6
Continuous
 62
     7
370
    15
100
AcDbLine
 10
253.3069380697
 20
150.2011457358
 30
0.0
 11
253.8963498051
 21
156.9217416885
 31
0.0
  0
ARC
  5
DC
330
1F
100
AcDbEntity
  8
0
  6
Continuous
 62
     7
370
    15
100
AcDbCircle
 10
252.3120612582
 20
150.2894102762
 30
0.0
 40
0.9987845109553289
100
AcDbArc
 50
274.9302140243
 51
354.9300462062
  0
LINE
  5
DD
330
1F
100
AcDbEntity
  8
0
  6
Continuous
 62
     7
370
    15
100
AcDbLine
 10
245.1669534459
 20
156.5076526019
 30
0.0
 11
244.5775417102
 21
149.7870566493
 31
0.0
  0
ARC
  5
DE
330
1F
100
AcDbEntity
  8
0
  6
Continuous
 62
     7
370
    15
100
AcDbCircle
 10
246.1618302575
 20
156.4193880616
 30
0.0
 40
0.9987845109569877
100
AcDbArc
 50
94.9302140243
 51
174.9300462061
  0
CIRCLE
  5
DF
330
1F
100
AcDbEntity
  8
0
  6
Continuous
 62
     7
370
    15
100
AcDbCircle
 10
249.2301551277
 20
153.3520349894
 30
0.0
 40
3.793371553280596
  0
LINE
  5
E0
330
1F
100
AcDbEntity
  8
0
  6
Continuous
 62
     7
370
    15
100
AcDbLine
 10
245.4514059051
 20
153.6045642799
 30
0.0
 11
245.4369457578
 21
153.2741792241
 31
0.0
  0
ARC
  5
E1
330
1F
100
AcDbEntity
  8
0
  6
Continuous
 62
     7
370
    15
100
AcDbCircle
 10
249.2366521743
 20
153.2666308851
 30
0.0
 40
3.80030107993979
100
AcDbArc
 50
0.1138036805
 51
174.8983606714
  0
SPLINE
  5
E2
330
1F
100
AcDbEntity
  8
0
  6
Continuous
 62
     7
370
    15
100
AcDbSpline
210
0.0
220
0.0
230
1.0
 70
     8
 71
     3
 72
    11
 73
     7
 74
     0
 42
0.00000001
 43
0.00000001
 12
1.0
 22
0.0
 32
0.0
 13
1.0
 23
0.0
 33
0.0
 40
0.0
 40
0.0
 40
0.0
 40
0.0
 40
0.0076282660081137
 40
0.3209888652311398
 40
0.6632168868585091
 40
1.0
 40
1.0
 40
1.0
 40
1.0
 10
244.0994996175361
 20
148.1857749919195
 30
0.0
 10
244.0983840568619
 20
148.1845988882792
 30
0.0
 10
244.0514425167362
 20
148.1351097681451
 30
0.0
 10
243.9473865440252
 20
148.0270477508562
 30
0.0
 10
243.7779386799365
 20
147.8554708580076
 30
0.0
 10
243.6660618777437
 20
147.7467208062044
 30
0.0
 10
243.6105720399465
 20
147.6927818070847
 30
0.0
  0
SPLINE
  5
E3
330
1F
100
AcDbEntity
  8
0
  6
Continuous
 62
     7
370
    15
100
AcDbSpline
210
0.0
220
0.0
230
1.0
 70
     8
 71
     3
 72
    11
 73
     7
 74
     0
 42
0.00000001
 43
0.00000001
 12
1.0
 22
0.0
 32
0.0
 13
1.0
 23
0.0
 33
0.0
 40
0.0
 40
0.0
 40
0.0
 40
0.0
 40
0.3372314186521247
 40
0.6736321483071733
 40
0.9918835608970973
 40
1.0
 40
1.0
 40
1.0
 40
1.0
 10
254.1554723902469
 20
148.4075190068672
 30
0.0
 10
254.1005685776273
 20
148.4605378298107
 30
0.0
 10
253.9908961948074
 20
148.5664448764997
 30
0.0
 10
253.8194440257545
 20
148.7393145222451
 30
0.0
 10
253.7139653815582
 20
148.8486519230304
 30
0.0
 10
253.6660091791491
 20
148.8992085793501
 30
0.0
 10
253.6648165567923
 20
148.9004658723713
 30
0.0
  0
LINE
  5
E4
330
1F
100
AcDbEntity
  8
0
  6
Continuous
 62
     7
370
    15
100
AcDbLine
 10
243.7447247962
 20
158.8179372671
 30
0.0
 11
243.7116056139
 21
159.2108732031
 31
0.0
  0
LINE
  5
E5
330
1F
100
AcDbEntity
  8
0
  6
Continuous
 62
     7
370
    15
100
AcDbLine
 10
255.7823198202
 20
159.8685249398
 30
0.0
 11
255.749200638
 21
160.2614608758
 31
0.0
  0
SPLINE
  5
E6
330
1F
100
AcDbEntity
  8
0
  6
Continuous
 62
     7
370
    15
100
AcDbSpline
210
0.0
220
0.0
230
1.0
 70
     8
 71
     3
 72
    11
 73
     7
 74
     0
 42
0.00000001
 43
0.00000001
 12
1.0
 22
0.0
 32
0.0
 13
1.0
 23
0.0
 33
0.0
 40
0.0
 40
0.0
 40
0.0
 40
0.0
 40
0.0081164391031431
 40
0.3263678516930829
 40
0.6627685813478886
 40
1.0
 40
1.0
 40
1.0
 40
1.0
 10
244.8090749588511
 20
157.7346353288681
 30
0.0
 10
244.8078823364943
 20
157.7357574702243
 30
0.0
 10
244.7599261340844
 20
157.7808795809275
 30
0.0
 10
244.654447489889
 20
157.8819855871794
 30
0.0
 10
244.4829953208361
 20
158.051184981808
 30
0.0
 10
244.3733229380162
 20
158.1640883879336
 30
0.0
 10
244.3184191253965
 20
158.2206097043732
 30
0.0
  0
SPLINE
  5
E7
330
1F
100
AcDbEntity
  8
0
  6
Continuous
 62
     7
370
    15
100
AcDbSpline
210
0.0
220
0.0
230
1.0
 70
     8
 71
     3
 72
    11
 73
     7
 74
     0
 42
0.00000001
 43
0.00000001
 12
1.0
 22
0.0
 32
0.0
 13
1.0
 23
0.0
 33
0.0
 40
0.0
 40
0.0
 40
0.0
 40
0.0
 40
0.3367831131415385
 40
0.6790111347691539
 40
0.9923717339924106
 40
1.0
 40
1.0
 40
1.0
 40
1.0
 10
254.8633194756964
 20
158.9181181156412
 30
0.0
 10
254.8078296378992
 20
158.8613477800793
 30
0.0
 10
254.6959528357062
 20
158.7468892800329
 30
0.0
 10
254.5265049716208
 20
158.5803959776611
 30
0.0
 10
254.4224489989015
 20
158.4808529997754
 30
0.0
 10
254.3755074587817
 20
158.4366877341182
 30
0.0
 10
254.3743918981077
 20
158.4356381513095
 30
0.0
  0
LINE
  5
E8
330
1F
100
AcDbEntity
  8
0
  6
HIDDEN
 62
     7
370
     0
100
AcDbLine
 10
118.1823198202
 20
107.7828546491
 30
0.0
 11
118.1823198202
 21
168.7828546491
 31
0.0
  0
LINE
  5
E9
330
1F
100
AcDbEntity
  8
0
  6
HIDDEN
 62
     7
370
     0
100
AcDbLine
 10
96.1823198202
 20
169.2828546276
 30
0.0
 11
96.1823198202
 21
107.2828546491
 31
0.0
  0
SPLINE
  5
EA
330
1F
100
AcDbEntity
  8
0
  6
HIDDEN
 62
     7
370
     0
100
AcDbSpline
210
0.0
220
0.0
230
1.0
 70
     8
 71
     3
 72
    60
 73
    56
 74
     0
 42
0.00000001
 43
0.00000001
 12
1.0
 22
0.0
 32
0.0
 13
1.0
 23
0.0
 33
0.0
 40
-0.0624999999999999
 40
-0.0624999999999999
 40
0.0
 40
0.0
 40
0.0312499999999999
 40
0.0312499999999999
 40
0.0624999999999999
 40
0.0624999999999999
 40
0.0937499999999998
 40
0.0937499999999998
 40
0.1249999999999998
 40
0.1249999999999998
 40
0.1874999999999997
 40
0.1874999999999997
 40
0.2499999999999997
 40
0.2499999999999997
 40
0.2812499999999997
 40
0.2812499999999997
 40
0.3124999999999997
 40
0.3124999999999997
 40
0.3437499999999997
 40
0.3437499999999997
 40
0.3749999999999996
 40
0.3749999999999996
 40
0.4062499999999996
 40
0.4062499999999996
 40
0.4374999999999996
 40
0.4374999999999996
 40
0.4687499999999996
 40
0.4687499999999996
 40
0.4999999999999997
 40
0.4999999999999997
 40
0.5624999999999997
 40
0.5624999999999997
 40
0.6249999999999997
 40
0.6249999999999997
 40
0.6562499999999997
 40
0.6562499999999997
 40
0.6874999999999998
 40
0.6874999999999998
 40
0.7187499999999998
 40
0.7187499999999998
 40
0.7499999999999998
 40
0.7499999999999998
 40
0.7812499999999999
 40
0.7812499999999999
 40
0.8124999999999999
 40
0.8124999999999999
 40
0.84375
 40
0.84375
 40
0.875
 40
0.875
 40
0.9062500000000001
 40
0.9062500000000001
 40
0.9375000000000001
 40
0.9375000000000001
 40
1.0
 40
1.0
 40
1.03125
 40
1.03125
 10
106.1823198201992
 20
138.0185241239965
 30
0.0
 10
106.1823198201992
 20
138.4150199116266
 30
0.0
 10
106.195291678688
 20
138.5449699726308
 30
0.0
 10
106.2461118483804
 20
138.8006229059908
 30
0.0
 10
106.2845791718473
 20
138.9276524125402
 30
0.0
 10
106.3849774079194
 20
139.1698405436647
 30
0.0
 10
106.4464104388926
 20
139.2847020362175
 30
0.0
 10
106.5915452704375
 20
139.5020822320417
 30
0.0
 10
106.6760003878454
 20
139.6049797992403
 30
0.0
 10
106.9527198382037
 20
139.8816468382481
 30
0.0
 10
107.1757967301218
 20
140.0306449287281
 30
0.0
 10
107.6570800923421
 20
140.2301560691928
 30
0.0
 10
107.9203105113331
 20
140.2827141721895
 30
0.0
 10
108.311712713021
 20
140.2829244545676
 30
0.0
 10
108.4442357411299
 20
140.2699386838404
 30
0.0
 10
108.700766194371
 20
140.2189115356266
 30
0.0
 10
108.8254530286676
 20
140.1811563364762
 30
0.0
 10
109.0676322909031
 20
140.0810180035675
 30
0.0
 10
109.1847258230532
 20
140.0184123361559
 30
0.0
 10
109.4014408264086
 20
139.873679042891
 30
0.0
 10
109.5024596532713
 20
139.7910516956114
 30
0.0
 10
109.6892445407235
 20
139.6044466423598
 30
0.0
 10
109.7721014219196
 20
139.5033315784837
 30
0.0
 10
109.9169856869935
 20
139.2867987744938
 30
0.0
 10
109.9796231948144
 20
139.1699285668927
 30
0.0
 10
110.0800720182142
 20
138.9276306962425
 30
0.0
 10
110.1179231192314
 20
138.8029666977816
 30
0.0
 10
110.1691446844878
 20
138.5466796537177
 30
0.0
 10
110.182272811105
 20
138.4141076579721
 30
0.0
 10
110.1824134514452
 20
138.0225034651981
 30
0.0
 10
110.1300887020734
 20
137.7593381338742
 30
0.0
 10
109.9309776400161
 20
137.277832764701
 30
0.0
 10
109.7821153035589
 20
137.0545812252169
 30
0.0
 10
109.5057943442334
 20
136.7777249263281
 30
0.0
 10
109.4030306958598
 20
136.6932114794844
 30
0.0
 10
109.1856471384803
 20
136.5477942060441
 30
0.0
 10
109.0708483705239
 20
136.4862830069857
 30
0.0
 10
108.8289716470999
 20
136.3857531587309
 30
0.0
 10
108.7018180390996
 20
136.3471081355129
 30
0.0
 10
108.4461520296671
 20
136.2960518079619
 30
0.0
 10
108.316285991911
 20
136.2829869494163
 30
0.0
 10
108.0523334651794
 20
136.2827243286183
 30
0.0
 10
107.9219291417553
 20
136.2956013288624
 30
0.0
 10
107.666278378376
 20
136.3461873326682
 30
0.0
 10
107.5394128292617
 20
136.38446369729
 30
0.0
 10
107.2968923713157
 20
136.4847345647701
 30
0.0
 10
107.1819657326554
 20
136.5460905889109
 30
0.0
 10
106.9645942638234
 20
136.6909368840837
 30
0.0
 10
106.8615804511612
 20
136.7753143985784
 30
0.0
 10
106.6768799055792
 20
136.9597217187666
 30
0.0
 10
106.5940501713226
 20
137.0602947820361
 30
0.0
 10
106.4477977327251
 20
137.2785209226151
 30
0.0
 10
106.3854292519327
 20
137.3950760325363
 30
0.0
 10
106.235473100366
 20
137.7559256265701
 30
0.0
 10
106.1823198201992
 20
138.0185241239965
 30
0.0
 10
106.1823198201992
 20
138.4150199116266
 30
0.0
  0
SPLINE
  5
EB
330
1F
100
AcDbEntity
  8
0
  6
HIDDEN
 62
     7
370
     0
100
AcDbSpline
210
0.0
220
0.0
230
1.0
 70
     8
 71
     3
 72
    12
 73
     8
 74
     0
 42
0.00000001
 43
0.00000001
 12
1.0
 22
0.0
 32
0.0
 13
1.0
 23
0.0
 33
0.0
 40
0.0
 40
0.0
 40
0.0
 40
0.0
 40
0.2499999999999996
 40
0.2499999999999996
 40
0.4999999999999991
 40
0.4999999999999991
 40
1.0
 40
1.0
 40
1.0
 40
1.0
 10
106.7100766337656
 20
128.8947882177472
 30
0.0
 10
106.6469965952723
 20
128.8947882177472
 30
0.0
 10
106.5878479730909
 20
128.8694238985322
 30
0.0
 10
106.4893754230219
 20
128.7952590381593
 30
0.0
 10
106.4503388110371
 20
128.7487386976052
 30
0.0
 10
106.3504423442581
 20
128.59859635476
 30
0.0
 10
106.3080214631914
 20
128.4869031477878
 30
0.0
 10
106.2770639318734
 20
128.3734853283981
 30
0.0
  0
LINE
  5
EC
330
1F
100
AcDbEntity
  8
0
  6
HIDDEN
 62
     7
370
     0
100
AcDbLine
 10
109.6545630066
 20
128.8947882177
 30
0.0
 11
106.7100766338
 21
128.8947882177
 31
0.0
  0
SPLINE
  5
ED
330
1F
100
AcDbEntity
  8
0
  6
HIDDEN
 62
     7
370
     0
100
AcDbSpline
210
0.0
220
0.0
230
1.0
 70
     8
 71
     3
 72
    12
 73
     8
 74
     0
 42
0.00000001
 43
0.00000001
 12
1.0
 22
0.0
 32
0.0
 13
1.0
 23
0.0
 33
0.0
 40
0.0
 40
0.0
 40
0.0
 40
0.0
 40
0.5000000000000028
 40
0.5000000000000028
 40
0.7500000000000013
 40
0.7500000000000013
 40
1.0
 40
1.0
 40
1.0
 40
1.0
 10
110.087575708525
 20
128.3734853283981
 30
0.0
 10
110.0568534666059
 20
128.4860411278073
 30
0.0
 10
110.0140162520706
 20
128.5987989875468
 30
0.0
 10
109.9145892278709
 20
128.7483398733432
 30
0.0
 10
109.8748370330542
 20
128.79563260505
 30
0.0
 10
109.776795576196
 20
128.8693688983715
 30
0.0
 10
109.7172395206086
 20
128.8947882177472
 30
0.0
 10
109.6545630066328
 20
128.8947882177472
 30
0.0
  0
ELLIPSE
  5
EE
330
1F
100
AcDbEntity
  8
0
  6
HIDDEN
 62
     7
370
     0
100
AcDbEllipse
 10
93.8351656308
 20
138.2828546491
 30
0.0
 11
-14.75368316065606
 21
31.09325491558118
 31
0.0
210
0.0
220
0.0
230
1.0
 40
0.3419987131
 41
3.300734856217133
 42
4.23149622336078
  0
SPLINE
  5
EF
330
1F
100
AcDbEntity
  8
0
  6
HIDDEN
 62
     7
370
     0
100
AcDbSpline
210
0.0
220
0.0
230
1.0
 70
     8
 71
     3
 72
    12
 73
     8
 74
     0
 42
0.00000001
 43
0.00000001
 12
1.0
 22
0.0
 32
0.0
 13
1.0
 23
0.0
 33
0.0
 40
0.0
 40
0.0
 40
0.0
 40
0.0
 40
0.2499999999999996
 40
0.2499999999999996
 40
0.4999999999999991
 40
0.4999999999999991
 40
1.0
 40
1.0
 40
1.0
 40
1.0
 10
109.6545630066328
 20
108.2143626902101
 30
0.0
 10
109.7176430451261
 20
108.2143626902101
 30
0.0
 10
109.7767916673075
 20
108.2222686164227
 30
0.0
 10
109.8752642173766
 20
108.2455937778589
 30
0.0
 10
109.9143008293613
 20
108.2603065676906
 30
0.0
 10
110.0141972961404
 20
108.3082623684215
 30
0.0
 10
110.056618177207
 20
108.3445245250015
 30
0.0
 10
110.087575708525
 20
108.382112188966
 30
0.0
  0
LINE
  5
F0
330
1F
100
AcDbEntity
  8
0
  6
HIDDEN
 62
     7
370
     0
100
AcDbLine
 10
106.7100766338
 20
108.2143626902
 30
0.0
 11
109.6545630066
 21
108.2143626902
 31
0.0
  0
SPLINE
  5
F1
330
1F
100
AcDbEntity
  8
0
  6
HIDDEN
 62
     7
370
     0
100
AcDbSpline
210
0.0
220
0.0
230
1.0
 70
     8
 71
     3
 72
    12
 73
     8
 74
     0
 42
0.00000001
 43
0.00000001
 12
1.0
 22
0.0
 32
0.0
 13
1.0
 23
0.0
 33
0.0
 40
0.0
 40
0.0
 40
0.0
 40
0.0
 40
0.4999999999999971
 40
0.4999999999999971
 40
0.7499999999999986
 40
0.7499999999999986
 40
1.0
 40
1.0
 40
1.0
 40
1.0
 10
106.2770639318734
 20
108.382112188966
 30
0.0
 10
106.3077861737926
 20
108.344810206013
 30
0.0
 10
106.3506233883277
 20
108.3081983739666
 30
0.0
 10
106.4500504125275
 20
108.2604335906814
 30
0.0
 10
106.4898026073442
 20
108.2454760751991
 30
0.0
 10
106.5878440642024
 20
108.2222861294299
 30
0.0
 10
106.6474001197898
 20
108.2143626902101
 30
0.0
 10
106.7100766337656
 20
108.2143626902101
 30
0.0
  0
ELLIPSE
  5
F2
330
1F
100
AcDbEntity
  8
0
  6
HIDDEN
 62
     7
370
     0
100
AcDbEllipse
 10
122.5294740096
 20
138.2828546491
 30
0.0
 11
14.75368316065606
 21
31.09325491558118
 31
0.0
210
0.0
220
0.0
230
1.0
 40
0.3419987131
 41
2.051689083818818
 42
2.982450450962492
  0
SPLINE
  5
F3
330
1F
100
AcDbEntity
  8
0
  6
HIDDEN
 62
     7
370
     0
100
AcDbSpline
210
0.0
220
0.0
230
1.0
 70
     8
 71
     3
 72
    12
 73
     8
 74
     0
 42
0.00000001
 43
0.00000001
 12
1.0
 22
0.0
 32
0.0
 13
1.0
 23
0.0
 33
0.0
 40
0.0
 40
0.0
 40
0.0
 40
0.0
 40
0.2500000000000023
 40
0.2500000000000023
 40
0.5000000000000047
 40
0.5000000000000047
 40
1.0
 40
1.0
 40
1.0
 40
1.0
 10
106.7100766337656
 20
168.3513466079565
 30
0.0
 10
106.6469965952723
 20
168.3513466079565
 30
0.0
 10
106.5878479730909
 20
168.3434406817441
 30
0.0
 10
106.4893754230219
 20
168.3201155203078
 30
0.0
 10
106.4503388110371
 20
168.3054027304761
 30
0.0
 10
106.3504423442581
 20
168.2574469297452
 30
0.0
 10
106.3080214631914
 20
168.2211847731651
 30
0.0
 10
106.2770639318734
 20
168.1835971092006
 30
0.0
  0
LINE
  5
F4
330
1F
100
AcDbEntity
  8
0
  6
HIDDEN
 62
     7
370
     0
100
AcDbLine
 10
109.6545630066
 20
168.351346608
 30
0.0
 11
106.7100766338
 21
168.351346608
 31
0.0
  0
SPLINE
  5
F5
330
1F
100
AcDbEntity
  8
0
  6
HIDDEN
 62
     7
370
     0
100
AcDbSpline
210
0.0
220
0.0
230
1.0
 70
     8
 71
     3
 72
    12
 73
     8
 74
     0
 42
0.00000001
 43
0.00000001
 12
1.0
 22
0.0
 32
0.0
 13
1.0
 23
0.0
 33
0.0
 40
0.0
 40
0.0
 40
0.0
 40
0.0
 40
0.5
 40
0.5
 40
0.75
 40
0.75
 40
1.0
 40
1.0
 40
1.0
 40
1.0
 10
110.087575708525
 20
168.1835971092006
 30
0.0
 10
110.0568534666059
 20
168.2208990921537
 30
0.0
 10
110.0140162520706
 20
168.2575109242001
 30
0.0
 10
109.9145892278709
 20
168.3052757074853
 30
0.0
 10
109.8748370330542
 20
168.3202332229676
 30
0.0
 10
109.776795576196
 20
168.3434231687368
 30
0.0
 10
109.7172395206086
 20
168.3513466079565
 30
0.0
 10
109.6545630066328
 20
168.3513466079565
 30
0.0
  0
ELLIPSE
  5
F6
330
1F
100
AcDbEntity
  8
0
  6
HIDDEN
 62
     7
370
     0
100
AcDbEllipse
 10
93.8351656308
 20
138.2828546491
 30
0.0
 11
14.75368316065624
 21
31.09325491558118
 31
0.0
210
0.0
220
0.0
230
1.0
 40
0.3419987131
 41
5.193281737408636
 42
6.12404310455234
  0
SPLINE
  5
F7
330
1F
100
AcDbEntity
  8
0
  6
HIDDEN
 62
     7
370
     0
100
AcDbSpline
210
0.0
220
0.0
230
1.0
 70
     8
 71
     3
 72
    12
 73
     8
 74
     0
 42
0.00000001
 43
0.00000001
 12
1.0
 22
0.0
 32
0.0
 13
1.0
 23
0.0
 33
0.0
 40
0.0
 40
0.0
 40
0.0
 40
0.0
 40
0.2500000000000009
 40
0.2500000000000009
 40
0.5000000000000018
 40
0.5000000000000018
 40
1.0
 40
1.0
 40
1.0
 40
1.0
 10
109.6545630066328
 20
147.6709210804198
 30
0.0
 10
109.7176430451261
 20
147.6709210804198
 30
0.0
 10
109.7767916673075
 20
147.6962853996347
 30
0.0
 10
109.8752642173766
 20
147.7704502600076
 30
0.0
 10
109.9143008293613
 20
147.8169706005617
 30
0.0
 10
110.0141972961404
 20
147.967112943407
 30
0.0
 10
110.056618177207
 20
148.0788061503791
 30
0.0
 10
110.087575708525
 20
148.1922239697689
 30
0.0
  0
LINE
  5
F8
330
1F
100
AcDbEntity
  8
0
  6
HIDDEN
 62
     7
370
     0
100
AcDbLine
 10
106.7100766338
 20
147.6709210804
 30
0.0
 11
109.6545630066
 21
147.6709210804
 31
0.0
  0
SPLINE
  5
F9
330
1F
100
AcDbEntity
  8
0
  6
HIDDEN
 62
     7
370
     0
100
AcDbSpline
210
0.0
220
0.0
230
1.0
 70
     8
 71
     3
 72
    12
 73
     8
 74
     0
 42
0.00000001
 43
0.00000001
 12
1.0
 22
0.0
 32
0.0
 13
1.0
 23
0.0
 33
0.0
 40
0.0
 40
0.0
 40
0.0
 40
0.0
 40
0.4999999999999991
 40
0.4999999999999991
 40
0.7499999999999996
 40
0.7499999999999996
 40
1.0
 40
1.0
 40
1.0
 40
1.0
 10
106.2770639318734
 20
148.1922239697689
 30
0.0
 10
106.3077861737926
 20
148.0796681703597
 30
0.0
 10
106.3506233883277
 20
147.9669103106201
 30
0.0
 10
106.4500504125275
 20
147.8173694248238
 30
0.0
 10
106.4898026073442
 20
147.7700766931169
 30
0.0
 10
106.5878440642024
 20
147.6963403997955
 30
0.0
 10
106.6474001197898
 20
147.6709210804198
 30
0.0
 10
106.7100766337656
 20
147.6709210804198
 30
0.0
  0
ELLIPSE
  5
FA
330
1F
100
AcDbEntity
  8
0
  6
HIDDEN
 62
     7
370
     0
100
AcDbEllipse
 10
122.5294740096
 20
138.2828546491
 30
0.0
 11
-14.75368316065624
 21
31.09325491558118
 31
0.0
210
0.0
220
0.0
230
1.0
 40
0.3419987131
 41
0.1591422026272835
 42
1.089903569770962
  0
LINE
  5
FB
330
1F
100
AcDbEntity
  8
0
  6
HIDDEN
 62
     7
370
     0
100
AcDbLine
 10
96.1823198202
 20
114.0328546491
 30
0.0
 11
96.1823198202
 21
162.5328546491
 31
0.0
  0
SPLINE
  5
FC
330
1F
100
AcDbEntity
  8
0
  6
HIDDEN
 62
     7
370
     0
100
AcDbSpline
210
0.0
220
0.0
230
1.0
 70
     8
 71
     3
 72
    12
 73
     8
 74
     0
 42
0.00000001
 43
0.00000001
 12
1.0
 22
0.0
 32
0.0
 13
1.0
 23
0.0
 33
0.0
 40
0.0
 40
0.0
 40
0.0
 40
0.0
 40
0.5000000000000002
 40
0.5000000000000002
 40
0.75
 40
0.75
 40
1.0
 40
1.0
 40
1.0
 40
1.0
 10
95.36580753375218
 20
153.7351226309142
 30
0.0
 10
95.42221371243245
 20
153.6873002572543
 30
0.0
 10
95.49237661390423
 20
153.6470294103158
 30
0.0
 10
95.61038732729338
 20
153.6389835418389
 30
0.0
 10
95.65059311088885
 20
153.6455461401777
 30
0.0
 10
95.7243138076219
 20
153.6729282346313
 30
0.0
 10
95.7571745294084
 20
153.6926897251617
 30
0.0
 10
95.78734293133768
 20
153.7156224363497
 30
0.0
  0
SPLINE
  5
FD
330
1F
100
AcDbEntity
  8
0
  6
HIDDEN
 62
     7
370
     0
100
AcDbSpline
210
0.0
220
0.0
230
1.0
 70
     8
 71
     3
 72
    16
 73
    12
 74
     0
 42
0.00000001
 43
0.00000001
 12
1.0
 22
0.0
 32
0.0
 13
1.0
 23
0.0
 33
0.0
 40
0.0
 40
0.0
 40
0.0
 40
0.0
 40
0.0625000000000036
 40
0.0625000000000036
 40
0.1250000000000073
 40
0.1250000000000073
 40
0.2500000000000062
 40
0.2500000000000062
 40
0.5000000000000042
 40
0.5000000000000042
 40
1.0
 40
1.0
 40
1.0
 40
1.0
 10
95.78734293129254
 20
153.7156224363978
 30
0.0
 10
95.7989558311319
 20
153.7244500593792
 30
0.0
 10
95.81230701556439
 20
153.7322844412611
 30
0.0
 10
95.84170685518353
 20
153.7405945673335
 30
0.0
 10
95.85654757973886
 20
153.7400987480985
 30
0.0
 10
95.89238078770747
 20
153.7286477771291
 30
0.0
 10
95.90649399552906
 20
153.7119672762705
 30
0.0
 10
95.94098536674794
 20
153.6598465905134
 30
0.0
 10
95.95206943785834
 20
153.6200570964884
 30
0.0
 10
95.97819225565435
 20
153.4967204643913
 30
0.0
 10
95.98231982019922
 20
153.4092990538927
 30
0.0
 10
95.98231982019921
 20
153.3205618115744
 30
0.0
  0
LINE
  5
FE
330
1F
100
AcDbEntity
  8
0
  6
HIDDEN
 62
     7
370
     0
100
AcDbLine
 10
95.9823198202
 20
123.2451474866
 30
0.0
 11
95.9823198202
 21
153.3205618116
 31
0.0
  0
SPLINE
  5
FF
330
1F
100
AcDbEntity
  8
0
  6
HIDDEN
 62
     7
370
     0
100
AcDbSpline
210
0.0
220
0.0
230
1.0
 70
     8
 71
     3
 72
    16
 73
    12
 74
     0
 42
0.00000001
 43
0.00000001
 12
1.0
 22
0.0
 32
0.0
 13
1.0
 23
0.0
 33
0.0
 40
0.0
 40
0.0
 40
0.0
 40
0.0
 40
0.5000000000000139
 40
0.5000000000000139
 40
0.7500000000000183
 40
0.7500000000000183
 40
0.8750000000000133
 40
0.8750000000000133
 40
0.9375000000000067
 40
0.9375000000000067
 40
1.0
 40
1.0
 40
1.0
 40
1.0
 10
95.98231982019921
 20
123.2451474865921
 30
0.0
 10
95.98231982019921
 20
123.1560211214034
 30
0.0
 10
95.97817354512127
 20
123.0691597537899
 30
0.0
 10
95.95220794972772
 20
122.9461775072959
 30
0.0
 10
95.94074704435029
 20
122.9054062120646
 30
0.0
 10
95.90643530657597
 20
122.8537018920648
 30
0.0
 10
95.8924105706463
 20
122.8370315254744
 30
0.0
 10
95.85638760761256
 20
122.8255793050177
 30
0.0
 10
95.84163309852283
 20
122.8251262587427
 30
0.0
 10
95.81228093737599
 20
122.8334415799588
 30
0.0
 10
95.7989410628719
 20
122.8412704650371
 30
0.0
 10
95.78734293132355
 20
122.8500868617997
 30
0.0
  0
SPLINE
  5
100
330
1F
100
AcDbEntity
  8
0
  6
HIDDEN
 62
     7
370
     0
100
AcDbSpline
210
0.0
220
0.0
230
1.0
 70
     8
 71
     3
 72
    12
 73
     8
 74
     0
 42
0.00000001
 43
0.00000001
 12
1.0
 22
0.0
 32
0.0
 13
1.0
 23
0.0
 33
0.0
 40
0.0
 40
0.0
 40
0.0
 40
0.0
 40
0.2500000000000004
 40
0.2500000000000004
 40
0.5000000000000008
 40
0.5000000000000008
 40
1.0
 40
1.0
 40
1.0
 40
1.0
 10
95.78734293133063
 20
122.8500868618086
 30
0.0
 10
95.75715108961342
 20
122.8730373909065
 30
0.0
 10
95.72379212019881
 20
122.8930068649306
 30
0.0
 10
95.6506548356182
 20
122.9201079985561
 30
0.0
 10
95.61041296296425
 20
122.9267087392016
 30
0.0
 10
95.49270718599571
 20
122.9187398646949
 30
0.0
 10
95.42229670821634
 20
122.878479406527
 30
0.0
 10
95.36580753374803
 20
122.8305866672489
 30
0.0
  0
SPLINE
  5
101
330
1F
100
AcDbEntity
  8
0
  6
HIDDEN
 62
     7
370
     0
100
AcDbSpline
210
0.0
220
0.0
230
1.0
 70
     8
 71
     3
 72
    12
 73
     8
 74
     0
 42
0.00000001
 43
0.00000001
 12
1.0
 22
0.0
 32
0.0
 13
1.0
 23
0.0
 33
0.0
 40
0.0
 40
0.0
 40
0.0
 40
0.0
 40
0.2499999999999984
 40
0.2499999999999984
 40
0.4999999999999996
 40
0.4999999999999996
 40
1.0
 40
1.0
 40
1.0
 40
1.0
 10
95.3658075337476
 20
122.8305866672491
 30
0.0
 10
95.27765359600987
 20
122.755847859395
 30
0.0
 10
95.21730017138117
 20
122.6648673589126
 30
0.0
 10
95.11103821331432
 20
122.47595353616
 30
0.0
 10
95.06880604675224
 20
122.3794490766194
 30
0.0
 10
94.95773535143509
 20
122.0886813224523
 30
0.0
 10
94.9047985750083
 20
121.8930145079085
 30
0.0
 10
94.86099947663952
 20
121.6989480228422
 30
0.0
  0
SPLINE
  5
102
330
1F
100
AcDbEntity
  8
0
  6
HIDDEN
 62
     7
370
     0
100
AcDbSpline
210
0.0
220
0.0
230
1.0
 70
     8
 71
     3
 72
    12
 73
     8
 74
     0
 42
0.00000001
 43
0.00000001
 12
1.0
 22
0.0
 32
0.0
 13
1.0
 23
0.0
 33
0.0
 40
0.0
 40
0.0
 40
0.0
 40
0.0
 40
0.500000000000001
 40
0.500000000000001
 40
0.7500000000000006
 40
0.7500000000000006
 40
1.0
 40
1.0
 40
1.0
 40
1.0
 10
94.86099947663952
 20
116.5127736940811
 30
0.0
 10
94.9047460174761
 20
116.48617952344
 30
0.0
 10
94.9576303727076
 20
116.4664192981142
 30
0.0
 10
95.06919746004377
 20
116.4459683078852
 30
0.0
 10
95.11178105658674
 20
116.4407080832287
 30
0.0
 10
95.21669778366854
 20
116.4328252893061
 30
0.0
 10
95.27823139151332
 20
116.4302611641269
 30
0.0
 10
95.36580753373944
 20
116.4280609466073
 30
0.0
  0
LINE
  5
103
330
1F
100
AcDbEntity
  8
0
  6
HIDDEN
 62
     7
370
     0
100
AcDbLine
 10
95.9823198202
 20
115.7430343702
 30
0.0
 11
95.9823198202
 21
116.2232601608
 31
0.0
  0
LINE
  5
104
330
1F
100
AcDbEntity
  8
0
  6
HIDDEN
 62
     7
370
     0
100
AcDbLine
 10
95.9823198202
 20
160.3424491373
 30
0.0
 11
95.9823198202
 21
160.822674928
 31
0.0
  0
SPLINE
  5
105
330
1F
100
AcDbEntity
  8
0
  6
HIDDEN
 62
     7
370
     0
100
AcDbSpline
210
0.0
220
0.0
230
1.0
 70
     8
 71
     3
 72
    12
 73
     8
 74
     0
 42
0.00000001
 43
0.00000001
 12
1.0
 22
0.0
 32
0.0
 13
1.0
 23
0.0
 33
0.0
 40
0.0
 40
0.0
 40
0.0
 40
0.0
 40
0.2500000000000001
 40
0.2500000000000001
 40
0.5000000000000001
 40
0.5000000000000001
 40
1.0
 40
1.0
 40
1.0
 40
1.0
 10
95.3658075337474
 20
160.1376483515592
 30
0.0
 10
95.27712287389106
 20
160.1354202842182
 30
0.0
 10
95.21720445816767
 20
160.1329185001879
 30
0.0
 10
95.11154523084694
 20
160.1249870643518
 30
0.0
 10
95.06890399273199
 20
160.119694909455
 30
0.0
 10
94.95771465062947
 20
160.0992899689679
 30
0.0
 10
94.9047879685085
 20
160.079555277381
 30
0.0
 10
94.86099947663952
 20
160.0529356040854
 30
0.0
  0
SPLINE
  5
106
330
1F
100
AcDbEntity
  8
0
  6
HIDDEN
 62
     7
370
     0
100
AcDbSpline
210
0.0
220
0.0
230
1.0
 70
     8
 71
     3
 72
    12
 73
     8
 74
     0
 42
0.00000001
 43
0.00000001
 12
1.0
 22
0.0
 32
0.0
 13
1.0
 23
0.0
 33
0.0
 40
0.0
 40
0.0
 40
0.0
 40
0.0
 40
0.4999999999999997
 40
0.4999999999999997
 40
0.7499999999999986
 40
0.7499999999999986
 40
1.0
 40
1.0
 40
1.0
 40
1.0
 10
94.86099947663796
 20
154.8667612753245
 30
0.0
 10
94.9047609529367
 20
154.6728614873624
 30
0.0
 10
94.95766726858972
 20
154.4770051234256
 30
0.0
 10
95.06937846623708
 20
154.1848629769266
 30
0.0
 10
95.11189790982347
 20
154.0881450402287
 30
0.0
 10
95.21702125239086
 20
153.9014206038042
 30
0.0
 10
95.27858721610855
 20
153.8090698955345
 30
0.0
 10
95.3658075337513
 20
153.7351226309148
 30
0.0
  0
LINE
  5
107
330
1F
100
AcDbEntity
  8
0
  6
HIDDEN
 62
     7
370
     0
100
AcDbLine
 10
95.9823198202
 20
116.2232601608
 30
0.0
 11
95.9823198202
 21
131.2609673233
 31
0.0
  0
LINE
  5
108
330
1F
100
AcDbEntity
  8
0
  6
HIDDEN
 62
     7
370
     0
100
AcDbLine
 10
95.9823198202
 20
145.3047419748
 30
0.0
 11
95.9823198202
 21
160.3424491373
 31
0.0
  0
LINE
  5
109
330
1F
100
AcDbEntity
  8
0
  6
HIDDEN
 62
     7
370
     0
100
AcDbLine
 10
118.1823198202
 20
118.2828546491
 30
0.0
 11
118.1823198202
 21
158.2828546491
 31
0.0
  0
CIRCLE
  5
10A
330
1F
100
AcDbEntity
  8
0
  6
HIDDEN
 62
     7
370
     0
100
AcDbCircle
 10
80.6823198202
 20
138.2828546491
 30
0.0
 40
4.049999999999983
  0
LINE
  5
10B
330
1F
100
AcDbEntity
  8
0
  6
HIDDEN
 62
     7
370
     0
100
AcDbLine
 10
59.7125482598
 20
153.595805692
 30
0.0
 11
59.7125482598
 21
122.9699036062
 31
0.0
  0
LINE
  5
10C
330
1F
100
AcDbEntity
  8
0
  6
HIDDEN
 62
     7
370
     0
100
AcDbLine
 10
58.1823198202
 20
122.0864258046
 30
0.0
 11
58.1823198202
 21
154.4792834935
 31
0.0
  0
LINE
  5
10D
330
1F
100
AcDbEntity
  8
0
  6
HIDDEN
 62
     7
370
     0
100
AcDbLine
 10
66.2125482598
 20
152.6292648106
 30
0.0
 11
66.2125482598
 21
123.9364444876
 31
0.0
  0
SPLINE
  5
10E
330
1F
100
AcDbEntity
  8
0
  6
HIDDEN
 62
     7
370
     0
100
AcDbSpline
210
0.0
220
0.0
230
1.0
 70
     8
 71
     3
 72
    66
 73
    62
 74
     0
 42
0.00000001
 43
0.00000001
 12
1.0
 22
0.0
 32
0.0
 13
1.0
 23
0.0
 33
0.0
 40
-0.0312500000000002
 40
-0.0312500000000002
 40
0.0
 40
0.0
 40
0.0312499999999994
 40
0.0312499999999994
 40
0.0624999999999987
 40
0.0624999999999987
 40
0.0937499999999981
 40
0.0937499999999981
 40
0.1249999999999974
 40
0.1249999999999974
 40
0.1562499999999968
 40
0.1562499999999968
 40
0.1874999999999961
 40
0.1874999999999961
 40
0.2187499999999955
 40
0.2187499999999955
 40
0.2499999999999948
 40
0.2499999999999948
 40
0.2812499999999942
 40
0.2812499999999942
 40
0.3124999999999936
 40
0.3124999999999936
 40
0.3437499999999928
 40
0.3437499999999928
 40
0.3749999999999922
 40
0.3749999999999922
 40
0.4062499999999915
 40
0.4062499999999915
 40
0.4374999999999907
 40
0.4374999999999907
 40
0.4687499999999901
 40
0.4687499999999901
 40
0.4999999999999893
 40
0.4999999999999893
 40
0.5624999999999906
 40
0.5624999999999906
 40
0.5937499999999912
 40
0.5937499999999912
 40
0.6249999999999918
 40
0.6249999999999918
 40
0.6562499999999923
 40
0.6562499999999923
 40
0.6874999999999929
 40
0.6874999999999929
 40
0.7187499999999934
 40
0.7187499999999934
 40
0.749999999999994
 40
0.749999999999994
 40
0.7812499999999947
 40
0.7812499999999947
 40
0.8124999999999952
 40
0.8124999999999952
 40
0.8437499999999958
 40
0.8437499999999958
 40
0.8749999999999963
 40
0.8749999999999963
 40
0.9374999999999994
 40
0.9374999999999994
 40
0.9687499999999998
 40
0.9687499999999998
 40
1.0
 40
1.0
 40
1.031249999999999
 40
1.031249999999999
 10
214.0168860724779
 20
131.021669273623
 30
0.0
 10
214.3477535679206
 20
131.021669273623
 30
0.0
 10
214.5103713156479
 20
131.0363298599096
 30
0.0
 10
214.8302211743831
 20
131.0938199127399
 30
0.0
 10
214.9891296662397
 20
131.137365278861
 30
0.0
 10
215.2917527155652
 20
131.2511278824795
 30
0.0
 10
215.435242769091
 20
131.3208222160096
 30
0.0
 10
215.7068027444412
 20
131.4860062369928
 30
0.0
 10
215.835180301001
 20
131.5822473430137
 30
0.0
 10
216.0653874174988
 20
131.7933271587653
 30
0.0
 10
216.1687820614108
 20
131.9089327362606
 30
0.0
 10
216.3515520285264
 20
132.1613822756843
 30
0.0
 10
216.429060252702
 20
132.2960463894306
 30
0.0
 10
216.5538278265027
 20
132.5764595029301
 30
0.0
 10
216.6019636062308
 20
132.7242897558375
 30
0.0
 10
216.6662852411229
 20
133.0282611363662
 30
0.0
 10
216.6822265219621
 20
133.1819107239482
 30
0.0
 10
216.6824123096228
 20
133.4925500221938
 30
0.0
 10
216.6661242978359
 20
133.6511487261921
 30
0.0
 10
216.6022404034067
 20
133.959293361237
 30
0.0
 10
216.5549759706387
 20
134.1098380875409
 30
0.0
 10
216.4295678598136
 20
134.4036025284407
 30
0.0
 10
216.3514010570539
 20
134.5458680474318
 30
0.0
 10
216.170593423538
 20
134.8105094855584
 30
0.0
 10
216.067056946212
 20
134.9347649139857
 30
0.0
 10
215.8342237397721
 20
135.1643420062809
 30
0.0
 10
215.7082534049795
 20
135.2664855157553
 30
0.0
 10
215.4377981895366
 20
135.4459984693806
 30
0.0
 10
215.2915369371518
 20
135.5239989465504
 30
0.0
 10
214.9890948463541
 20
135.648986134797
 30
0.0
 10
214.8332753657305
 20
135.6963138418646
 30
0.0
 10
214.5124246045301
 20
135.7604503521042
 30
0.0
 10
214.3465638489353
 20
135.776888406276
 30
0.0
 10
213.8567378154954
 20
135.7770781897683
 30
0.0
 10
213.5272955594689
 20
135.7113955197254
 30
0.0
 10
213.0758376459321
 20
135.5252792434427
 30
0.0
 10
212.930118267593
 20
135.4479773485087
 30
0.0
 10
212.6572952327109
 20
135.267281957886
 30
0.0
 10
212.5315500111657
 20
135.1651776968216
 30
0.0
 10
212.3008840624373
 20
134.938297288289
 30
0.0
 10
212.1953133555347
 20
134.8121648742579
 30
0.0
 10
212.0139279679335
 20
134.547074210313
 30
0.0
 10
211.9369825680844
 20
134.4073714583124
 30
0.0
 10
211.8110228018114
 20
134.1137106824281
 30
0.0
 10
211.7628106850262
 20
133.9606346717093
 30
0.0
 10
211.6988917363669
 20
133.6535996826172
 30
0.0
 10
211.6824578490177
 20
133.4977009984069
 30
0.0
 10
211.6821835144107
 20
133.1834123407384
 30
0.0
 10
211.6982671203409
 20
133.0295859470697
 30
0.0
 10
211.7616530066938
 20
132.7282278320103
 30
0.0
 10
211.8097790288875
 20
132.5791272840088
 30
0.0
 10
211.9349847938572
 20
132.2970405876032
 30
0.0
 10
212.0116455046152
 20
132.1638091685655
 30
0.0
 10
212.1929919033018
 20
131.912466133671
 30
0.0
 10
212.2982289309428
 20
131.794405480137
 30
0.0
 10
212.6431734867055
 20
131.4777033810537
 30
0.0
 10
212.9215690139645
 20
131.3082938384983
 30
0.0
 10
213.3724853578404
 20
131.1383625877772
 30
0.0
 10
213.53043353914
 20
131.0946866502059
 30
0.0
 10
213.853434119357
 20
131.036331545229
 30
0.0
 10
214.0168860724779
 20
131.021669273623
 30
0.0
 10
214.3477535679206
 20
131.021669273623
 30
0.0
  0
LINE
  5
10F
330
1F
100
AcDbEntity
  8
0
  6
HIDDEN
 62
     7
370
     0
100
AcDbLine
 10
230.1823198202
 20
122.2828546491
 30
0.0
 11
230.1823198202
 21
154.2828546491
 31
0.0
  0
LINE
  5
110
330
1F
100
AcDbEntity
  8
0
  6
HIDDEN
 62
     7
370
     0
100
AcDbLine
 10
72.0125482598
 20
152.2828546491
 30
0.0
 11
72.0125482598
 21
124.2828546491
 31
0.0
  0
LINE
  5
111
330
1F
100
AcDbEntity
  8
0
  6
HIDDEN
 62
     7
370
     0
100
AcDbLine
 10
64.6125482598
 20
152.2828546491
 30
0.0
 11
64.6125482598
 21
124.2828546491
 31
0.0
  0
LINE
  5
112
330
1F
100
AcDbEntity
  8
0
  6
HIDDEN
 62
     7
370
     0
100
AcDbLine
 10
65.6125482598
 20
152.2828546491
 30
0.0
 11
65.6125482598
 21
124.2828546491
 31
0.0
  0
SPLINE
  5
113
330
1F
100
AcDbEntity
  8
0
  6
HIDDEN
 62
     7
370
     0
100
AcDbSpline
210
0.0
220
0.0
230
1.0
 70
     8
 71
     3
 72
    10
 73
     6
 74
     0
 42
0.00000001
 43
0.00000001
 12
1.0
 22
0.0
 32
0.0
 13
1.0
 23
0.0
 33
0.0
 40
0.0
 40
0.0
 40
0.0
 40
0.0
 40
0.5
 40
0.5
 40
1.0
 40
1.0
 40
1.0
 40
1.0
 10
84.6823198201992
 20
138.9172835261058
 30
0.0
 10
84.71546723827564
 20
138.7082929250978
 30
0.0
 10
84.73232608363729
 20
138.4967304590762
 30
0.0
 10
84.73231355328963
 20
138.0687416931085
 30
0.0
 10
84.71539859554923
 20
137.8569835886929
 30
0.0
 10
84.6823198201992
 20
137.6484257720608
 30
0.0
  0
LINE
  5
114
330
1F
100
AcDbEntity
  8
0
  6
HIDDEN
 62
     7
370
     0
100
AcDbLine
 10
85.1823198202
 20
151.782854607
 30
0.0
 11
85.1823198202
 21
124.7828546491
 31
0.0
  0
SPLINE
  5
115
330
1F
100
AcDbEntity
  8
0
  6
HIDDEN
 62
     7
370
     0
100
AcDbSpline
210
0.0
220
0.0
230
1.0
 70
     8
 71
     3
 72
    10
 73
     6
 74
     0
 42
0.00000001
 43
0.00000001
 12
1.0
 22
0.0
 32
0.0
 13
1.0
 23
0.0
 33
0.0
 40
0.0
 40
0.0
 40
0.0
 40
0.0
 40
0.5
 40
0.5
 40
1.0
 40
1.0
 40
1.0
 40
1.0
 10
84.6823198201992
 20
137.6484257720608
 30
0.0
 10
84.71550878267293
 20
137.8576783056432
 30
0.0
 10
84.73220955892756
 20
138.0684950665422
 30
0.0
 10
84.73242899937222
 20
138.4930273477455
 30
0.0
 10
84.71554928397882
 20
138.7077756365181
 30
0.0
 10
84.6823198201992
 20
138.9172835261058
 30
0.0
  0
SPLINE
  5
116
330
1F
100
AcDbEntity
  8
0
  6
HIDDEN
 62
     7
370
     0
100
AcDbSpline
210
0.0
220
0.0
230
1.0
 70
     8
 71
     3
 72
    68
 73
    64
 74
     0
 42
0.00000001
 43
0.00000001
 12
1.0
 22
0.0
 32
0.0
 13
1.0
 23
0.0
 33
0.0
 40
0.0
 40
0.0
 40
0.0
 40
0.0
 40
0.0312500000000002
 40
0.0312500000000002
 40
0.0625000000000003
 40
0.0625000000000003
 40
0.0937500000000005
 40
0.0937500000000005
 40
0.1250000000000006
 40
0.1250000000000006
 40
0.1562500000000008
 40
0.1562500000000008
 40
0.1875000000000009
 40
0.1875000000000009
 40
0.2187500000000011
 40
0.2187500000000011
 40
0.2500000000000013
 40
0.2500000000000013
 40
0.2812500000000012
 40
0.2812500000000012
 40
0.3125000000000012
 40
0.3125000000000012
 40
0.3437500000000011
 40
0.3437500000000011
 40
0.3750000000000011
 40
0.3750000000000011
 40
0.4062500000000011
 40
0.4062500000000011
 40
0.437500000000001
 40
0.437500000000001
 40
0.4687500000000009
 40
0.4687500000000009
 40
0.5000000000000009
 40
0.5000000000000009
 40
0.5625000000000008
 40
0.5625000000000008
 40
0.5937500000000008
 40
0.5937500000000008
 40
0.6250000000000007
 40
0.6250000000000007
 40
0.6562500000000007
 40
0.6562500000000007
 40
0.6875000000000006
 40
0.6875000000000006
 40
0.7187500000000006
 40
0.7187500000000006
 40
0.7500000000000004
 40
0.7500000000000004
 40
0.7812500000000004
 40
0.7812500000000004
 40
0.8125000000000004
 40
0.8125000000000004
 40
0.8437500000000003
 40
0.8437500000000003
 40
0.8750000000000003
 40
0.8750000000000003
 40
0.9062500000000002
 40
0.9062500000000002
 40
0.9375000000000002
 40
0.9375000000000002
 40
0.96875
 40
0.96875
 40
1.0
 40
1.0
 40
1.0
 40
1.0
 10
84.68231982019921
 20
137.6484257720608
 30
0.0
 10
84.64230486784952
 20
137.3961361692452
 30
0.0
 10
84.5793630664382
 20
137.1521373188694
 30
0.0
 10
84.40997640436615
 20
136.6797189298069
 30
0.0
 10
84.30228284178067
 20
136.4493055436469
 30
0.0
 10
84.04699807324279
 20
136.0146009478498
 30
0.0
 10
83.90095884277055
 20
135.8119589811985
 30
0.0
 10
83.5727374062113
 20
135.4349696904407
 30
0.0
 10
83.38849011843632
 20
135.2593117368633
 30
0.0
 10
82.99552995112802
 20
134.949053767917
 30
0.0
 10
82.78623535416888
 20
134.8131085602671
 30
0.0
 10
82.3413499272315
 20
134.5797184648613
 30
0.0
 10
82.10455233473247
 20
134.4824718584469
 30
0.0
 10
81.6238172658132
 20
134.3358004005755
 30
0.0
 10
81.37757417263042
 20
134.2849080556331
 30
0.0
 10
80.87285739265099
 20
134.2293807053976
 30
0.0
 10
80.61666269171451
 20
134.2255558183277
 30
0.0
 10
80.1142839425144
 20
134.2649796009721
 30
0.0
 10
79.8650342433308
 20
134.3080070501833
 30
0.0
 10
79.37350644585206
 20
134.4417120196346
 30
0.0
 10
79.1382108446262
 20
134.5303818655398
 30
0.0
 10
78.68729694996408
 20
134.7494132293172
 30
0.0
 10
78.4696845995007
 20
134.8814147950008
 30
0.0
 10
78.0664774299524
 20
135.1807720760037
 30
0.0
 10
77.88086593751797
 20
135.3473910034416
 30
0.0
 10
77.54087786711548
 20
135.714502428869
 30
0.0
 10
77.38580493629257
 20
135.9168061744097
 30
0.0
 10
77.11946185962921
 20
136.3408868540038
 30
0.0
 10
77.00647775891242
 20
136.5640464594699
 30
0.0
 10
76.82162250198155
 20
137.0334017010641
 30
0.0
 10
76.75048174047815
 20
137.2796122043996
 30
0.0
 10
76.65652132918999
 20
137.7741380307708
 30
0.0
 10
76.6325119992336
 20
138.0250690258628
 30
0.0
 10
76.63193887856102
 20
138.789314405419
 30
0.0
 10
76.72733798987964
 20
139.29153870747
 30
0.0
 10
77.00520178208076
 20
139.9991032137424
 30
0.0
 10
77.1183637381613
 20
140.2228094774832
 30
0.0
 10
77.38449492020519
 20
140.6470793888038
 30
0.0
 10
77.53932269440489
 20
140.8493313508598
 30
0.0
 10
77.87950380019272
 20
141.217042092228
 30
0.0
 10
78.06500625714246
 20
141.3836589674773
 30
0.0
 10
78.4673000582018
 20
141.6827083462728
 30
0.0
 10
78.68530810645379
 20
141.8151650543012
 30
0.0
 10
79.13590647360408
 20
142.0343714550059
 30
0.0
 10
79.37045547248485
 20
142.1228565850095
 30
0.0
 10
79.85891546603717
 20
142.2563428149481
 30
0.0
 10
80.11118086175104
 20
142.3002845274419
 30
0.0
 10
80.61336149991133
 20
142.3400935239154
 30
0.0
 10
80.86584361726302
 20
142.3367493111019
 30
0.0
 10
81.37370866033251
 20
142.2815699911114
 30
0.0
 10
81.62125413351633
 20
142.2305240626419
 30
0.0
 10
82.10222167098703
 20
142.0841136744064
 30
0.0
 10
82.33818153609229
 20
141.9874674696327
 30
0.0
 10
82.78475198561391
 20
141.7535625253197
 30
0.0
 10
82.99439684818738
 20
141.6174375114932
 30
0.0
 10
83.38738355494183
 20
141.3073832471641
 30
0.0
 10
83.57177945875684
 20
141.131725999589
 30
0.0
 10
83.90032987661722
 20
140.7545860769246
 30
0.0
 10
84.04627197314039
 20
140.5521198716547
 30
0.0
 10
84.30115732834255
 20
140.1185435735214
 30
0.0
 10
84.40946864115088
 20
139.8872517299398
 30
0.0
 10
84.57930361856782
 20
139.4138920498066
 30
0.0
 10
84.64229897970489
 20
139.1696102529858
 30
0.0
 10
84.68231982019921
 20
138.9172835261058
 30
0.0
  0
SPLINE
  5
117
330
1F
100
AcDbEntity
  8
0
  6
HIDDEN
 62
     7
370
     0
100
AcDbSpline
210
0.0
220
0.0
230
1.0
 70
     8
 71
     3
 72
    68
 73
    64
 74
     0
 42
0.00000001
 43
0.00000001
 12
1.0
 22
0.0
 32
0.0
 13
1.0
 23
0.0
 33
0.0
 40
0.0
 40
0.0
 40
0.0
 40
0.0
 40
0.0312500000000002
 40
0.0312500000000002
 40
0.0625000000000004
 40
0.0625000000000004
 40
0.0937500000000006
 40
0.0937500000000006
 40
0.1250000000000009
 40
0.1250000000000009
 40
0.1562500000000011
 40
0.1562500000000011
 40
0.1875000000000013
 40
0.1875000000000013
 40
0.2187500000000015
 40
0.2187500000000015
 40
0.2500000000000017
 40
0.2500000000000017
 40
0.2812500000000017
 40
0.2812500000000017
 40
0.3125000000000017
 40
0.3125000000000017
 40
0.3437500000000017
 40
0.3437500000000017
 40
0.3750000000000017
 40
0.3750000000000017
 40
0.4062500000000017
 40
0.4062500000000017
 40
0.4375000000000017
 40
0.4375000000000017
 40
0.4687500000000017
 40
0.4687500000000017
 40
0.5000000000000017
 40
0.5000000000000017
 40
0.5625000000000017
 40
0.5625000000000017
 40
0.5937500000000016
 40
0.5937500000000016
 40
0.6250000000000014
 40
0.6250000000000014
 40
0.6562500000000013
 40
0.6562500000000013
 40
0.6875000000000012
 40
0.6875000000000012
 40
0.7187500000000011
 40
0.7187500000000011
 40
0.7500000000000009
 40
0.7500000000000009
 40
0.7812500000000008
 40
0.7812500000000008
 40
0.8125000000000007
 40
0.8125000000000007
 40
0.8437500000000006
 40
0.8437500000000006
 40
0.8750000000000004
 40
0.8750000000000004
 40
0.9062500000000003
 40
0.9062500000000003
 40
0.9375000000000002
 40
0.9375000000000002
 40
0.9687500000000001
 40
0.9687500000000001
 40
1.0
 40
1.0
 40
1.0
 40
1.0
 10
84.68231982019921
 20
138.9172835261058
 30
0.0
 10
84.64230486784952
 20
139.1695731289214
 30
0.0
 10
84.5793630664382
 20
139.4135719792972
 30
0.0
 10
84.40997640436615
 20
139.8859903683597
 30
0.0
 10
84.30228284178067
 20
140.1164037545196
 30
0.0
 10
84.04699807324279
 20
140.5511083503167
 30
0.0
 10
83.90095884277055
 20
140.7537503169681
 30
0.0
 10
83.5727374062113
 20
141.1307396077259
 30
0.0
 10
83.38849011843632
 20
141.3063975613032
 30
0.0
 10
82.99552995112802
 20
141.6166555302495
 30
0.0
 10
82.78623535416887
 20
141.7526007378994
 30
0.0
 10
82.3413499272315
 20
141.9859908333052
 30
0.0
 10
82.10455233473249
 20
142.0832374397197
 30
0.0
 10
81.62381726581319
 20
142.229908897591
 30
0.0
 10
81.37757417263042
 20
142.2808012425334
 30
0.0
 10
80.87285739265099
 20
142.3363285927689
 30
0.0
 10
80.6166626917145
 20
142.3401534798388
 30
0.0
 10
80.1142839425144
 20
142.3007296971944
 30
0.0
 10
79.86503424333081
 20
142.2577022479832
 30
0.0
 10
79.37350644585204
 20
142.1239972785319
 30
0.0
 10
79.1382108446262
 20
142.0353274326267
 30
0.0
 10
78.68729694996406
 20
141.8162960688493
 30
0.0
 10
78.4696845995007
 20
141.6842945031657
 30
0.0
 10
78.0664774299524
 20
141.3849372221628
 30
0.0
 10
77.88086593751797
 20
141.218318294725
 30
0.0
 10
77.54087786711547
 20
140.8512068692975
 30
0.0
 10
77.38580493629256
 20
140.6489031237568
 30
0.0
 10
77.11946185962921
 20
140.2248224441628
 30
0.0
 10
77.00647775891242
 20
140.0016628386966
 30
0.0
 10
76.82162250198155
 20
139.5323075971024
 30
0.0
 10
76.75048174047815
 20
139.2860970937669
 30
0.0
 10
76.65652132918997
 20
138.7915712673957
 30
0.0
 10
76.63251199923359
 20
138.5406402723037
 30
0.0
 10
76.63193887856103
 20
137.7763948927475
 30
0.0
 10
76.72733798987963
 20
137.2741705906965
 30
0.0
 10
77.00520178208076
 20
136.5666060844242
 30
0.0
 10
77.1183637381613
 20
136.3428998206834
 30
0.0
 10
77.38449492020519
 20
135.9186299093628
 30
0.0
 10
77.53932269440489
 20
135.7163779473067
 30
0.0
 10
77.87950380019272
 20
135.3486672059385
 30
0.0
 10
78.06500625714246
 20
135.1820503306892
 30
0.0
 10
78.4673000582018
 20
134.8830009518938
 30
0.0
 10
78.6853081064538
 20
134.7505442438653
 30
0.0
 10
79.13590647360408
 20
134.5313378431607
 30
0.0
 10
79.37045547248485
 20
134.442852713157
 30
0.0
 10
79.85891546603719
 20
134.3093664832184
 30
0.0
 10
80.11118086175105
 20
134.2654247707246
 30
0.0
 10
80.61336149991133
 20
134.2256157742512
 30
0.0
 10
80.86584361726302
 20
134.2289599870647
 30
0.0
 10
81.37370866033251
 20
134.2841393070552
 30
0.0
 10
81.62125413351633
 20
134.3351852355246
 30
0.0
 10
82.10222167098703
 20
134.4815956237602
 30
0.0
 10
82.33818153609229
 20
134.5782418285338
 30
0.0
 10
82.78475198561391
 20
134.8121467728468
 30
0.0
 10
82.99439684818736
 20
134.9482717866734
 30
0.0
 10
83.38738355494183
 20
135.2583260510024
 30
0.0
 10
83.57177945875684
 20
135.4339832985776
 30
0.0
 10
83.90032987661722
 20
135.811123221242
 30
0.0
 10
84.04627197314039
 20
136.0135894265119
 30
0.0
 10
84.30115732834255
 20
136.4471657246451
 30
0.0
 10
84.40946864115087
 20
136.6784575682267
 30
0.0
 10
84.57930361856783
 20
137.1518172483599
 30
0.0
 10
84.64229897970488
 20
137.3960990451807
 30
0.0
 10
84.68231982019921
 20
137.6484257720608
 30
0.0
  0
SPLINE
  5
118
330
1F
100
AcDbEntity
  8
0
  6
HIDDEN
 62
     7
370
     0
100
AcDbSpline
210
0.0
220
0.0
230
1.0
 70
     8
 71
     3
 72
    62
 73
    58
 74
     0
 42
0.00000001
 43
0.00000001
 12
1.0
 22
0.0
 32
0.0
 13
1.0
 23
0.0
 33
0.0
 40
-0.0312500000000008
 40
-0.0312500000000008
 40
0.0
 40
0.0
 40
0.0312499999999999
 40
0.0312499999999999
 40
0.0624999999999998
 40
0.0624999999999998
 40
0.1249999999999968
 40
0.1249999999999968
 40
0.1874999999999938
 40
0.1874999999999938
 40
0.2187499999999923
 40
0.2187499999999923
 40
0.2499999999999908
 40
0.2499999999999908
 40
0.2812499999999892
 40
0.2812499999999892
 40
0.3124999999999877
 40
0.3124999999999877
 40
0.3437499999999862
 40
0.3437499999999862
 40
0.3749999999999847
 40
0.3749999999999847
 40
0.4374999999999837
 40
0.4374999999999837
 40
0.4687499999999846
 40
0.4687499999999846
 40
0.4999999999999855
 40
0.4999999999999855
 40
0.5312499999999865
 40
0.5312499999999865
 40
0.5624999999999873
 40
0.5624999999999873
 40
0.5937499999999883
 40
0.5937499999999883
 40
0.6249999999999892
 40
0.6249999999999892
 40
0.6562499999999901
 40
0.6562499999999901
 40
0.687499999999991
 40
0.687499999999991
 40
0.7187499999999919
 40
0.7187499999999919
 40
0.7499999999999929
 40
0.7499999999999929
 40
0.7812499999999938
 40
0.7812499999999938
 40
0.8124999999999947
 40
0.8124999999999947
 40
0.8749999999999964
 40
0.8749999999999964
 40
0.9062499999999973
 40
0.9062499999999973
 40
0.9374999999999983
 40
0.9374999999999983
 40
0.9687499999999992
 40
0.9687499999999992
 40
1.0
 40
1.0
 40
1.03125
 40
1.03125
 10
214.0411215962193
 20
137.4274318056983
 30
0.0
 10
214.3235180441791
 20
137.4274318056983
 30
0.0
 10
214.4617959211928
 20
137.4433358677161
 30
0.0
 10
214.7329619924007
 20
137.5046877259131
 30
0.0
 10
214.8671653198602
 20
137.550951538745
 30
0.0
 10
215.2462284996504
 20
137.7270492062044
 30
0.0
 10
215.4752354213441
 20
137.8968070592094
 30
0.0
 10
215.856266040347
 20
138.3023294566747
 30
0.0
 10
216.0118891172686
 20
138.5423192486851
 30
0.0
 10
216.1709595938372
 20
138.9246558207228
 30
0.0
 10
216.2126867389805
 20
139.0587886081775
 30
0.0
 10
216.2679574401226
 20
139.3259754787673
 30
0.0
 10
216.2820373716124
 20
139.4592764251869
 30
0.0
 10
216.2825939379336
 20
139.7251201319332
 30
0.0
 10
216.268604660513
 20
139.857335281645
 30
0.0
 10
216.2141231412774
 20
140.1076432559207
 30
0.0
 10
216.1732726831224
 20
140.2284651679931
 30
0.0
 10
216.066658716263
 20
140.4558250275212
 30
0.0
 10
216.00190657399
 20
140.5608406754571
 30
0.0
 10
215.8503480320374
 20
140.7556655004361
 30
0.0
 10
215.7630099088643
 20
140.8455504543778
 30
0.0
 10
215.4772334879029
 20
141.0845857063609
 30
0.0
 10
215.247697139437
 20
141.2092256078743
 30
0.0
 10
214.8713790034427
 20
141.3347952801698
 30
0.0
 10
214.7390460950822
 20
141.3671144714366
 30
0.0
 10
214.4650134360912
 20
141.4107176566613
 30
0.0
 10
214.3269882764692
 20
141.421574133767
 30
0.0
 10
214.0489168952504
 20
141.4221524988575
 30
0.0
 10
213.90720395658
 20
141.4114540437751
 30
0.0
 10
213.6347817008997
 20
141.3690177829868
 30
0.0
 10
213.5029535564027
 20
141.3375421569688
 30
0.0
 10
213.247554660798
 20
141.2532680730977
 30
0.0
 10
213.1273886576088
 20
141.2015358832235
 30
0.0
 10
212.9022172450524
 20
141.0792641494347
 30
0.0
 10
212.7960661837181
 20
141.0077775522078
 30
0.0
 10
212.6046188950159
 20
140.8484438654878
 30
0.0
 10
212.5186848810963
 20
140.7605262578009
 30
0.0
 10
212.3662725630564
 20
140.5661372932049
 30
0.0
 10
212.3000890727688
 20
140.4593416858663
 30
0.0
 10
212.1939073742178
 20
140.2348197325261
 30
0.0
 10
212.1529273110019
 20
140.1160264726891
 30
0.0
 10
212.0968471702046
 20
139.8636078715909
 30
0.0
 10
212.0826229947634
 20
139.7326735703888
 30
0.0
 10
212.0820263108919
 20
139.4682481436589
 30
0.0
 10
212.0957948783903
 20
139.3320661930682
 30
0.0
 10
212.1506449453324
 20
139.0633804216696
 30
0.0
 10
212.1911414586088
 20
138.9317918636281
 30
0.0
 10
212.3506039297849
 20
138.5454784714883
 30
0.0
 10
212.5052723540991
 20
138.3059964021534
 30
0.0
 10
212.7935803854437
 20
137.9986090599827
 30
0.0
 10
212.8976052007916
 20
137.9061463378046
 30
0.0
 10
213.1220244589703
 20
137.7415273616819
 30
0.0
 10
213.2439552468309
 20
137.6688041196405
 30
0.0
 10
213.4964123982568
 20
137.5513677309347
 30
0.0
 10
213.627298928174
 20
137.5059885098499
 30
0.0
 10
213.8992398458869
 20
137.4438501305693
 30
0.0
 10
214.0411215962193
 20
137.4274318056983
 30
0.0
 10
214.3235180441791
 20
137.4274318056983
 30
0.0
  0
SPLINE
  5
119
330
1F
100
AcDbEntity
  8
0
  6
HIDDEN
 62
     7
370
     0
100
AcDbSpline
210
0.0
220
0.0
230
1.0
 70
     8
 71
     3
 72
     8
 73
     4
 74
     0
 42
0.00000001
 43
0.00000001
 12
1.0
 22
0.0
 32
0.0
 13
1.0
 23
0.0
 33
0.0
 40
0.0
 40
0.0
 40
0.0
 40
0.0
 40
1.0
 40
1.0
 40
1.0
 40
1.0
 10
215.2814457669372
 20
139.864801222057
 30
0.0
 10
215.2623972853679
 20
139.9586840958738
 30
0.0
 10
215.2841185172329
 20
140.074121725199
 30
0.0
 10
215.3423928325155
 20
140.2139705827896
 30
0.0
  0
SPLINE
  5
11A
330
1F
100
AcDbEntity
  8
0
  6
HIDDEN
 62
     7
370
     0
100
AcDbSpline
210
0.0
220
0.0
230
1.0
 70
     8
 71
     3
 72
    16
 73
    12
 74
     0
 42
0.00000001
 43
0.00000001
 12
1.0
 22
0.0
 32
0.0
 13
1.0
 23
0.0
 33
0.0
 40
0.0
 40
0.0
 40
0.0
 40
0.0
 40
0.124999999999997
 40
0.124999999999997
 40
0.249999999999994
 40
0.249999999999994
 40
0.499999999999996
 40
0.499999999999996
 40
0.749999999999998
 40
0.749999999999998
 40
1.0
 40
1.0
 40
1.0
 40
1.0
 10
215.3423928325162
 20
140.2139705827871
 30
0.0
 10
215.4330680281801
 20
140.2843627132108
 30
0.0
 10
215.5091622768145
 20
140.3598282263625
 30
0.0
 10
215.6508262499587
 20
140.5185554836297
 30
0.0
 10
215.7155027822854
 20
140.6019597981575
 30
0.0
 10
215.8963093142651
 20
140.8644955439025
 30
0.0
 10
215.9974733135197
 20
141.0536046841432
 30
0.0
 10
216.1588451945628
 20
141.4540872519231
 30
0.0
 10
216.2202701430465
 20
141.6705386667639
 30
0.0
 10
216.2870159820064
 20
142.1150609222614
 30
0.0
 10
216.292977338119
 20
142.346408193107
 30
0.0
 10
216.2623366493155
 20
142.5749457021287
 30
0.0
  0
SPLINE
  5
11B
330
1F
100
AcDbEntity
  8
0
  6
HIDDEN
 62
     7
370
     0
100
AcDbSpline
210
0.0
220
0.0
230
1.0
 70
     8
 71
     3
 72
    52
 73
    48
 74
     0
 42
0.00000001
 43
0.00000001
 12
1.0
 22
0.0
 32
0.0
 13
1.0
 23
0.0
 33
0.0
 40
0.0
 40
0.0
 40
0.0
 40
0.0
 40
0.0625000000000023
 40
0.0625000000000023
 40
0.1250000000000046
 40
0.1250000000000046
 40
0.1875000000000069
 40
0.1875000000000069
 40
0.2187500000000068
 40
0.2187500000000068
 40
0.2500000000000067
 40
0.2500000000000067
 40
0.2812500000000066
 40
0.2812500000000066
 40
0.2968750000000069
 40
0.2968750000000069
 40
0.3125000000000072
 40
0.3125000000000072
 40
0.3437500000000073
 40
0.3437500000000073
 40
0.3750000000000074
 40
0.3750000000000074
 40
0.437500000000008
 40
0.437500000000008
 40
0.5000000000000085
 40
0.5000000000000085
 40
0.5625000000000092
 40
0.5625000000000092
 40
0.6250000000000099
 40
0.6250000000000099
 40
0.6562500000000091
 40
0.6562500000000091
 40
0.6875000000000084
 40
0.6875000000000084
 40
0.7187500000000077
 40
0.7187500000000077
 40
0.7500000000000069
 40
0.7500000000000069
 40
0.8125000000000057
 40
0.8125000000000057
 40
0.8750000000000044
 40
0.8750000000000044
 40
0.9375000000000032
 40
0.9375000000000032
 40
0.9687500000000017
 40
0.9687500000000017
 40
1.0
 40
1.0
 40
1.0
 40
1.0
 10
215.7333286302974
 20
143.6465417686037
 30
0.0
 10
215.5891663486139
 20
143.7783687547936
 30
0.0
 10
215.431885083533
 20
143.8715234261774
 30
0.0
 10
215.0980757087339
 20
143.9985068820187
 30
0.0
 10
214.9280688130478
 20
144.0293458336859
 30
0.0
 10
214.5902516862872
 20
144.040667578225
 30
0.0
 10
214.4212246324898
 20
144.0205361312204
 30
0.0
 10
214.1820326107983
 20
143.9598803377662
 30
0.0
 10
214.104221161388
 20
143.9345450434851
 30
0.0
 10
213.9550436558856
 20
143.8744369394713
 30
0.0
 10
213.8833351551946
 20
143.8395512601833
 30
0.0
 10
213.7583197366423
 20
143.7631502405386
 30
0.0
 10
213.7031906572358
 20
143.7205368939537
 30
0.0
 10
213.670284363361
 20
143.662800287029
 30
0.0
 10
213.6685953089277
 20
143.6451576886076
 30
0.0
 10
213.6838294535873
 20
143.6149675605417
 30
0.0
 10
213.7001840758813
 20
143.6023900928554
 30
0.0
 10
213.7632801419896
 20
143.5688887608654
 30
0.0
 10
213.8215727876803
 20
143.5515776786584
 30
0.0
 10
213.9480219224362
 20
143.5138485153583
 30
0.0
 10
214.0169835597447
 20
143.4939432683142
 30
0.0
 10
214.2299810986513
 20
143.4264633277731
 30
0.0
 10
214.3814223382107
 20
143.371037452375
 30
0.0
 10
214.6957350370043
 20
143.2271015246663
 30
0.0
 10
214.857413712403
 20
143.1394299994925
 30
0.0
 10
215.1796417884081
 20
142.9271056446263
 30
0.0
 10
215.34323401812
 20
142.8001097728511
 30
0.0
 10
215.6499859255803
 20
142.508173744605
 30
0.0
 10
215.7962217859315
 20
142.3396796073647
 30
0.0
 10
215.9784974703343
 20
142.0686610253456
 30
0.0
 10
216.0337748322233
 20
141.9741775935494
 30
0.0
 10
216.126949531743
 20
141.7871056782295
 30
0.0
 10
216.1658418160723
 20
141.6929959166629
 30
0.0
 10
216.2273958091693
 20
141.5056361959608
 30
0.0
 10
216.2492332848155
 20
141.4151256236067
 30
0.0
 10
216.2772508029937
 20
141.2395551866278
 30
0.0
 10
216.2832703261319
 20
141.1542286105357
 30
0.0
 10
216.2800474739346
 20
140.9143992566277
 30
0.0
 10
216.250039490182
 20
140.7706499739547
 30
0.0
 10
216.1504090596251
 20
140.5181057833283
 30
0.0
 10
216.0816948657084
 20
140.4097671299378
 30
0.0
 10
215.9123620390124
 20
140.2190798798074
 30
0.0
 10
215.8123041770198
 20
140.1380122922644
 30
0.0
 10
215.6398855728776
 20
140.0320961838119
 30
0.0
 10
215.5785203958847
 20
139.9992705898497
 30
0.0
 10
215.443010155896
 20
139.934321468065
 30
0.0
 10
215.3684891222199
 20
139.9023074943493
 30
0.0
 10
215.281445766935
 20
139.8648012220554
 30
0.0
  0
LWPOLYLINE
  5
11C
330
1F
100
AcDbEntity
  8
0
  6
HIDDEN
 62
     7
370
     0
100
AcDbPolyline
 90
       18
 70
   128
 43
0.0
 10
215.7333286303
 20
143.6465417686
 10
215.1831271497
 20
144.0558981504
 10
214.5221820417
 20
144.2709652268
 10
213.82362972
 20
144.2679449025
 10
213.1647679976
 20
144.0471713894
 10
212.6185027527
 20
143.6330742244
 10
212.2452805795
 20
143.0714750365
 10
212.0864001139
 20
142.4245171867
 10
212.1594421614
 20
141.7637893385
 10
212.4563243058
 20
141.1624038648
 10
212.9441952634
 20
140.6869066497
 10
213.5690700184
 20
140.3899135015
 10
214.2618034965
 20
140.304287987
 10
214.9457417647
 20
140.4395049369
 10
215.5452041174
 20
140.7806020153
 10
215.9938574719
 20
141.2898353661
 10
216.2420564085
 20
141.910856133
 10
216.2623366493
 20
142.5749457021
  0
ARC
  5
11D
330
1F
100
AcDbEntity
  8
0
  6
HIDDEN
 62
     7
370
     0
100
AcDbCircle
 10
214.928818468
 20
140.1062556629
 30
0.0
 40
0.4273713361326173
100
AcDbArc
 50
325.5993926901
 51
14.5982961792
  0
SPLINE
  5
11E
330
1F
100
AcDbEntity
  8
0
  6
HIDDEN
 62
     7
370
     0
100
AcDbSpline
210
0.0
220
0.0
230
1.0
 70
     8
 71
     3
 72
    14
 73
    10
 74
     0
 42
0.00000001
 43
0.00000001
 12
1.0
 22
0.0
 32
0.0
 13
1.0
 23
0.0
 33
0.0
 40
0.0
 40
0.0
 40
0.0
 40
0.0
 40
0.25
 40
0.25
 40
0.5
 40
0.5
 40
0.75
 40
0.75
 40
1.0
 40
1.0
 40
1.0
 40
1.0
 10
216.2623366493156
 20
142.5749457021287
 30
0.0
 10
216.1964103722084
 20
142.6592446548765
 30
0.0
 10
216.1375213309506
 20
142.7471523298519
 30
0.0
 10
216.0289137855728
 20
142.9271180528354
 30
0.0
 10
215.9786877416049
 20
143.0201091516337
 30
0.0
 10
215.8882864291142
 20
143.2039914537212
 30
0.0
 10
215.8481845525725
 20
143.2944976395517
 30
0.0
 10
215.7798651196701
 20
143.4734564121995
 30
0.0
 10
215.7519137523314
 20
143.5620352027274
 30
0.0
 10
215.7333286302974
 20
143.6465417686037
 30
0.0
  0
LINE
  5
11F
330
1F
100
AcDbEntity
  8
0
  6
HIDDEN
 62
     7
370
     0
100
AcDbLine
 10
86.4323198202
 20
147.2828546491
 30
0.0
 11
86.4323198202
 21
129.2828546491
 31
0.0
  0
LINE
  5
120
330
1F
100
AcDbEntity
  8
0
  6
HIDDEN
 62
     7
370
     0
100
AcDbLine
 10
85.1823198202
 20
128.0328546491
 30
0.0
 11
85.1823198202
 21
148.5055105566
 31
0.0
  0
LINE
  5
121
330
1F
100
AcDbEntity
  8
0
  6
HIDDEN
 62
     7
370
     0
100
AcDbLine
 10
112.1823198202
 20
147.2828546491
 30
0.0
 11
112.1823198202
 21
129.2828546491
 31
0.0
  0
LINE
  5
122
330
1F
100
AcDbEntity
  8
0
  6
HIDDEN
 62
     7
370
     0
100
AcDbLine
 10
115.0364077606
 20
142.5328546491
 30
0.0
 11
115.0364077606
 21
134.0328546491
 31
0.0
  0
SPLINE
  5
123
330
1F
100
AcDbEntity
  8
0
  6
HIDDEN
 62
     7
370
     0
100
AcDbSpline
210
0.0
220
0.0
230
1.0
 70
     8
 71
     3
 72
    62
 73
    58
 74
     0
 42
0.00000001
 43
0.00000001
 12
1.0
 22
0.0
 32
0.0
 13
1.0
 23
0.0
 33
0.0
 40
-0.0312499999999989
 40
-0.0312499999999989
 40
0.0
 40
0.0
 40
0.0312500000000025
 40
0.0312500000000025
 40
0.062500000000005
 40
0.062500000000005
 40
0.1250000000000071
 40
0.1250000000000071
 40
0.1875000000000092
 40
0.1875000000000092
 40
0.2187500000000097
 40
0.2187500000000097
 40
0.2500000000000102
 40
0.2500000000000102
 40
0.2812500000000107
 40
0.2812500000000107
 40
0.3125000000000112
 40
0.3125000000000112
 40
0.3437500000000117
 40
0.3437500000000117
 40
0.3750000000000122
 40
0.3750000000000122
 40
0.437500000000011
 40
0.437500000000011
 40
0.4687500000000104
 40
0.4687500000000104
 40
0.5000000000000099
 40
0.5000000000000099
 40
0.5312500000000092
 40
0.5312500000000092
 40
0.5625000000000087
 40
0.5625000000000087
 40
0.593750000000008
 40
0.593750000000008
 40
0.6250000000000073
 40
0.6250000000000073
 40
0.6562500000000069
 40
0.6562500000000069
 40
0.6875000000000062
 40
0.6875000000000062
 40
0.7187500000000057
 40
0.7187500000000057
 40
0.750000000000005
 40
0.750000000000005
 40
0.7812500000000044
 40
0.7812500000000044
 40
0.812500000000004
 40
0.812500000000004
 40
0.8750000000000039
 40
0.8750000000000039
 40
0.906250000000003
 40
0.906250000000003
 40
0.937500000000002
 40
0.937500000000002
 40
0.9687500000000011
 40
0.9687500000000011
 40
1.0
 40
1.0
 40
1.031250000000002
 40
1.031250000000002
 10
214.3235180441791
 20
135.1438401240285
 30
0.0
 10
214.0411215962193
 20
135.1438401240285
 30
0.0
 10
213.9028437192056
 20
135.15473562855
 30
0.0
 10
213.6316776479977
 20
135.1973794305688
 30
0.0
 10
213.4974743205382
 20
135.2297190439037
 30
0.0
 10
213.118411140748
 20
135.3555797046351
 30
0.0
 10
212.8894042190543
 20
135.4799169757713
 30
0.0
 10
212.5083736000514
 20
135.7977023472441
 30
0.0
 10
212.3527505231298
 20
135.9947744896625
 30
0.0
 10
212.1936800465612
 20
136.3314908089869
 30
0.0
 10
212.1519529014179
 20
136.4531828965859
 30
0.0
 10
212.0966822002758
 20
136.7037481288779
 30
0.0
 10
212.0826022687859
 20
136.8327182274447
 30
0.0
 10
212.0820457024648
 20
137.0983919693878
 30
0.0
 10
212.0960349798854
 20
137.2349100671247
 30
0.0
 10
212.150516499121
 20
137.5016086770451
 30
0.0
 10
212.1913669572759
 20
137.6346239654978
 30
0.0
 10
212.2979809241354
 20
137.8925850817132
 30
0.0
 10
212.3627330664084
 20
138.0157185157134
 30
0.0
 10
212.514291608361
 20
138.2505211853937
 30
0.0
 10
212.601629731534
 20
138.3623709932142
 30
0.0
 10
212.8874061524956
 20
138.667286206457
 30
0.0
 10
213.1169425009614
 20
138.8374316706843
 30
0.0
 10
213.4932606369557
 20
139.0130679755869
 30
0.0
 10
213.6255935453163
 20
139.0592800722885
 30
0.0
 10
213.8996262043072
 20
139.1219982420621
 30
0.0
 10
214.0376513639293
 20
139.1378488038893
 30
0.0
 10
214.315722745148
 20
139.1386891583919
 30
0.0
 10
214.4574356838184
 20
139.1230700184432
 30
0.0
 10
214.7298579394986
 20
139.0620059570304
 30
0.0
 10
214.8616860839957
 20
139.0169521760377
 30
0.0
 10
215.1170849796003
 20
138.8989948629389
 30
0.0
 10
215.2372509827896
 20
138.8276211625444
 30
0.0
 10
215.462422395346
 20
138.6634201401532
 30
0.0
 10
215.5685734566804
 20
138.569376482776
 30
0.0
 10
215.7600207453825
 20
138.3659968921374
 30
0.0
 10
215.845954759302
 20
138.2565024024344
 30
0.0
 10
215.9983670773421
 20
138.0219852186369
 30
0.0
 10
216.0645505676295
 20
137.8966921828476
 30
0.0
 10
216.1707322661807
 20
137.6417217306561
 30
0.0
 10
216.2117123293964
 20
137.5107119968592
 30
0.0
 10
216.2677924701938
 20
137.2414318969984
 30
0.0
 10
216.2820166456351
 20
137.1061217019454
 30
0.0
 10
216.2826133295065
 20
136.8415140593164
 30
0.0
 10
216.2688447620082
 20
136.7095685737139
 30
0.0
 10
216.2139946950661
 20
136.4573846560536
 30
0.0
 10
216.1734981817896
 20
136.3378835920291
 30
0.0
 10
216.0140357106135
 20
135.9973474969805
 30
0.0
 10
215.8593672862992
 20
135.800618808038
 30
0.0
 10
215.5710592549547
 20
135.5596723428763
 30
0.0
 10
215.4670344396068
 20
135.4893605944958
 30
0.0
 10
215.2426151814281
 20
135.366693086778
 30
0.0
 10
215.1206843935675
 20
135.3139544161569
 30
0.0
 10
214.8682272421416
 20
135.2300128475916
 30
0.0
 10
214.7373407122244
 20
135.1982877471247
 30
0.0
 10
214.4653997945116
 20
135.1550890159405
 30
0.0
 10
214.3235180441791
 20
135.1438401240285
 30
0.0
 10
214.0411215962193
 20
135.1438401240285
 30
0.0
  0
LINE
  5
124
330
1F
100
AcDbEntity
  8
0
  6
HIDDEN
 62
     7
370
     0
100
AcDbLine
 10
217.1823198202
 20
134.0328546491
 30
0.0
 11
217.1823198202
 21
142.5328546491
 31
0.0
  0
LINE
  5
125
330
1F
100
AcDbEntity
  8
0
  6
HIDDEN
 62
     7
370
     0
100
AcDbLine
 10
230.6823198202
 20
121.7828546491
 30
0.0
 11
230.6823198202
 21
138.2828546491
 31
0.0
  0
SPLINE
  5
126
330
1F
100
AcDbEntity
  8
0
  6
HIDDEN
 62
     7
370
     0
100
AcDbSpline
210
0.0
220
0.0
230
1.0
 70
     8
 71
     3
 72
    14
 73
    10
 74
     0
 42
0.00000001
 43
0.00000001
 12
1.0
 22
0.0
 32
0.0
 13
1.0
 23
0.0
 33
0.0
 40
0.0
 40
0.0
 40
0.0
 40
0.0
 40
0.2499999999999978
 40
0.2499999999999978
 40
0.3749999999999982
 40
0.3749999999999982
 40
0.4999999999999987
 40
0.4999999999999987
 40
1.0
 40
1.0
 40
1.0
 40
1.0
 10
232.5046287720019
 20
146.2488451917156
 30
0.0
 10
232.2321373134231
 20
145.6220966832799
 30
0.0
 10
231.981391879822
 20
144.9856690593545
 30
0.0
 10
231.6462650762021
 20
144.0127824508438
 30
0.0
 10
231.5414079248443
 20
143.6854371986542
 30
0.0
 10
231.3470422302281
 20
143.0239150572034
 30
0.0
 10
231.2573369054768
 20
142.688803894677
 30
0.0
 10
230.8554189624662
 20
141.0106962287028
 30
0.0
 10
230.6823198201993
 20
139.6546702495591
 30
0.0
 10
230.6823198201993
 20
138.2828546490833
 30
0.0
  0
SPLINE
  5
127
330
1F
100
AcDbEntity
  8
0
  6
HIDDEN
 62
     7
370
     0
100
AcDbSpline
210
0.0
220
0.0
230
1.0
 70
     8
 71
     3
 72
    26
 73
    22
 74
     0
 42
0.00000001
 43
0.00000001
 12
1.0
 22
0.0
 32
0.0
 13
1.0
 23
0.0
 33
0.0
 40
0.0
 40
0.0
 40
0.0
 40
0.0
 40
0.1249999999999999
 40
0.1249999999999999
 40
0.1875000000000001
 40
0.1875000000000001
 40
0.2500000000000002
 40
0.2500000000000002
 40
0.3750000000000005
 40
0.3750000000000005
 40
0.4375000000000009
 40
0.4375000000000009
 40
0.5000000000000013
 40
0.5000000000000013
 40
0.7500000000000004
 40
0.7500000000000004
 40
0.8125000000000004
 40
0.8125000000000004
 40
0.8750000000000003
 40
0.8750000000000003
 40
1.0
 40
1.0
 40
1.0
 40
1.0
 10
233.8797597240115
 20
157.9797992404999
 30
0.0
 10
233.8285008443798
 20
157.9223071043789
 30
0.0
 10
233.7746477039155
 20
157.8036935089423
 30
0.0
 10
233.6900918038874
 20
157.5326113352202
 30
0.0
 10
233.6611762282014
 20
157.4261934339643
 30
0.0
 10
233.6028998082697
 20
157.1848549701539
 30
0.0
 10
233.5734776754729
 20
157.0498302789351
 30
0.0
 10
233.484447370085
 20
156.6026810671772
 30
0.0
 10
233.4240765090111
 20
156.2486783058467
 30
0.0
 10
233.3323127101003
 20
155.6340578637431
 30
0.0
 10
233.3015231592348
 20
155.4151989633795
 30
0.0
 10
233.2395908895521
 20
154.9489346844022
 30
0.0
 10
233.2084305642757
 20
154.7012552345406
 30
0.0
 10
233.0542967696889
 20
153.4105410629851
 30
0.0
 10
232.9343369897854
 20
152.199802747096
 30
0.0
 10
232.7908559050099
 20
150.4620336031561
 30
0.0
 10
232.7625699664828
 20
150.1039552322163
 30
0.0
 10
232.707449795755
 20
149.3744611047669
 30
0.0
 10
232.6805274935375
 20
149.0019933264452
 30
0.0
 10
232.6017169022629
 20
147.8616302354135
 30
0.0
 10
232.5517784943206
 20
147.0708885316711
 30
0.0
 10
232.5046287720018
 20
146.2488451917156
 30
0.0
  0
LINE
  5
128
330
1F
100
AcDbEntity
  8
0
  6
HIDDEN
 62
     7
370
     0
100
AcDbLine
 10
242.5628876881
 20
149.4934570014
 30
0.0
 11
242.5222129587
 21
149.472211094
 31
0.0
  0
LINE
  5
129
330
1F
100
AcDbEntity
  8
0
  6
HIDDEN
 62
     7
370
     0
100
AcDbLine
 10
245.3875536067
 20
146.6756718271
 30
0.0
 11
254.7613776991
 21
147.4937774385
 31
0.0
  0
LINE
  5
12A
330
1F
100
AcDbEntity
  8
0
  6
HIDDEN
 62
     7
370
     0
100
AcDbLine
 10
254.7613776991
 20
147.4937774385
 30
0.0
 11
254.7599672569
 21
147.477695282
 31
0.0
  0
LINE
  5
12B
330
1F
100
AcDbEntity
  8
0
  6
HIDDEN
 62
     7
370
     0
100
AcDbLine
 10
243.3797384217
 20
158.8073600082
 30
0.0
 11
242.5628876881
 21
149.4934570014
 31
0.0
  0
ELLIPSE
  5
12C
330
1F
100
AcDbEntity
  8
0
  6
HIDDEN
 62
     7
370
     0
100
AcDbEllipse
 10
249.0327058287
 20
138.2828546491
 30
0.0
 11
11.76369068746803
 21
16.48124712370807
 31
0.0
210
0.0
220
0.0
230
1.0
 40
0.0668534593
 41
1.618477629394294
 42
3.18927395618936
  0
ELLIPSE
  5
12D
330
1F
100
AcDbEntity
  8
0
  6
HIDDEN
 62
     7
370
     0
100
AcDbEllipse
 10
243.5166188462
 20
146.9946676651
 30
0.0
 11
2.099281448397704
 21
0.1276543563555492
 31
0.0
210
0.0
220
0.0
230
1.0
 40
0.4303093993
 41
5.785598212635351
 42
5.923521446741114
  0
ELLIPSE
  5
12E
330
1F
100
AcDbEntity
  8
0
  6
HIDDEN
 62
     7
370
     0
100
AcDbEllipse
 10
243.5166188462
 20
146.9946676651
 30
0.0
 11
-1.616902374425195
 21
2.318196838028371
 31
0.0
210
0.0
220
0.0
230
1.0
 40
0.57803977
 41
5.737920332829648
 42
5.875843566935373
  0
LINE
  5
12F
330
1F
100
AcDbEntity
  8
0
  6
HIDDEN
 62
     7
370
     0
100
AcDbLine
 10
242.8291726701
 20
149.4614454005
 30
0.0
 11
242.8291726701
 21
149.295424993
 31
0.0
  0
ARC
  5
130
330
1F
100
AcDbEntity
  8
0
  6
HIDDEN
 62
     7
370
     0
100
AcDbCircle
 10
243.5181964489
 20
147.314384416
 30
0.0
 40
2.097445001810099
100
AcDbArc
 50
340.961604152
 51
109.1781356176
  0
LINE
  5
131
330
1F
100
AcDbEntity
  8
0
  6
HIDDEN
 62
     7
370
     0
100
AcDbLine
 10
245.5009116056
 20
146.6301942793
 30
0.0
 11
245.5009116056
 21
146.7962146868
 31
0.0
  0
ARC
  5
132
330
1F
100
AcDbEntity
  8
0
  6
HIDDEN
 62
     7
370
     0
100
AcDbCircle
 10
243.5180798613
 20
147.2932823612
 30
0.0
 40
2.095918706042369
100
AcDbArc
 50
269.9600604706
 51
119.3315601813
  0
ARC
  5
133
330
1F
100
AcDbEntity
  8
0
  6
HIDDEN
 62
     7
370
     0
100
AcDbCircle
 10
243.5139985486
 20
147.2945365645
 30
0.0
 40
2.097174037094241
100
AcDbArc
 50
175.4839606883
 51
270.0715877792
  0
LINE
  5
134
330
1F
100
AcDbEntity
  8
0
  6
HIDDEN
 62
     7
370
     0
100
AcDbLine
 10
252.5860902112
 20
145.6382372969
 30
0.0
 11
254.6384024304
 21
146.0915876902
 31
0.0
  0
LINE
  5
135
330
1F
100
AcDbEntity
  8
0
  6
HIDDEN
 62
     7
370
     0
100
AcDbLine
 10
245.5009116056
 20
146.7962146868
 30
0.0
 11
254.5256350649
 21
147.5838523501
 31
0.0
  0
LINE
  5
136
330
1F
100
AcDbEntity
  8
0
  6
HIDDEN
 62
     7
370
     0
100
AcDbLine
 10
254.7613776991
 20
147.4937774385
 30
0.0
 11
254.5256350649
 21
147.5838523501
 31
0.0
  0
LINE
  5
137
330
1F
100
AcDbEntity
  8
0
  6
HIDDEN
 62
     7
370
     0
100
AcDbLine
 10
243.629158241
 20
158.5830482928
 30
0.0
 11
242.8291726701
 21
149.4614454005
 31
0.0
  0
ELLIPSE
  5
138
330
1F
100
AcDbEntity
  8
0
  6
HIDDEN
 62
     7
370
     0
100
AcDbEllipse
 10
241.7161301057
 20
139.6271586223
 30
0.0
 11
1.563905465413796
 21
19.2049618177146
 31
0.0
210
0.0
220
0.0
230
1.0
 40
0.1268365588
 41
6.131957607273323
 42
6.241689991946532
  0
ELLIPSE
  5
139
330
1F
100
AcDbEntity
  8
0
  6
HIDDEN
 62
     7
370
     0
100
AcDbEllipse
 10
254.1590399936
 20
140.7157721787
 30
0.0
 11
1.891564442790866
 21
19.23368928549792
 31
0.0
210
0.0
220
0.0
230
1.0
 40
0.1143262497
 41
0.3251632554037784
 42
1.192201791185861
  0
LINE
  5
13A
330
1F
100
AcDbEntity
  8
0
  6
HIDDEN
 62
     7
370
     0
100
AcDbLine
 10
254.5256350649
 20
147.5838523501
 30
0.0
 11
254.230028901
 21
147.3920327534
 31
0.0
  0
LINE
  5
13B
330
1F
100
AcDbEntity
  8
0
  6
HIDDEN
 62
     7
370
     0
100
AcDbLine
 10
243.5937043013
 20
158.012774645
 30
0.0
 11
242.8291726701
 21
149.295424993
 31
0.0
  0
ELLIPSE
  5
13C
330
1F
100
AcDbEntity
  8
0
  6
HIDDEN
 62
     7
370
     0
100
AcDbEllipse
 10
241.956671442
 20
139.6482032623
 30
0.0
 11
1.677499657207164
 21
19.2193285120201
 31
0.0
210
0.0
220
0.0
230
1.0
 40
0.0059876405
 41
5.984350002312462
 42
6.111436370919012
  0
LWPOLYLINE
  5
13D
330
1F
100
AcDbEntity
  8
0
  6
HIDDEN
 62
     7
370
     0
100
AcDbPolyline
 90
       20
 70
   128
 43
0.0
 10
214.1823198202
 20
133.1954660211
 10
214.8641887055
 20
133.3036808384
 10
215.4721665168
 20
133.6165985355
 10
215.9403694246
 20
134.1003096246
 10
216.2180603787
 20
134.7023965037
 10
216.2751472555
 20
135.357613717
 10
216.1054438062
 20
135.9949583128
 10
215.7273400326
 20
136.5453641147
 10
215.1818093456
 20
136.9491861135
 10
214.5279684598
 20
137.1626639299
 10
213.8366711806
 20
137.1626639299
 10
213.1828302948
 20
136.9491861135
 10
212.6372996078
 20
136.5453641147
 10
212.2591958342
 20
135.9949583128
 10
212.0894923849
 20
135.357613717
 10
212.1465792617
 20
134.7023965037
 10
212.4242702158
 20
134.1003096246
 10
212.8924731236
 20
133.6165985355
 10
213.5004509349
 20
133.3036808384
 10
214.1823198202
 20
133.1954660211
  0
CIRCLE
  5
13E
330
1F
100
AcDbEntity
  8
0
  6
HIDDEN
 62
     7
370
     0
100
AcDbCircle
 10
249.2356750666
 20
153.0274530307
 30
0.0
 40
2.99778709698721
  0
LINE
  5
13F
330
1F
100
AcDbEntity
  8
0
  6
HIDDEN
 62
     7
370
     0
100
AcDbLine
 10
245.5009116056
 20
146.6301942793
 30
0.0
 11
254.230028901
 21
147.3920327534
 31
0.0
  0
ELLIPSE
  5
140
330
1F
100
AcDbEntity
  8
0
  6
HIDDEN
 62
     7
370
     0
100
AcDbEllipse
 10
-465.602532458
 20
77.7447941476
 30
0.0
 11
3113.331223476238
 21
271.0557416021201
 31
0.0
210
0.0
220
0.0
230
1.0
 40
0.0060650906
 41
1.336610939312847
 42
1.340457436436293
  0
LINE
  5
141
330
1F
100
AcDbEntity
  8
0
  6
HIDDEN
 62
     7
370
     0
100
AcDbLine
 10
255.249010541
 20
159.0106746551
 30
0.0
 11
254.230028901
 21
147.3920327534
 31
0.0
  0
CIRCLE
  5
142
330
1F
100
AcDbEntity
  8
0
  6
HIDDEN
 62
     7
370
     0
100
AcDbCircle
 10
249.2358822482
 20
152.9631546715
 30
0.0
 40
2.098461919109354
  0
SPLINE
  5
143
330
1F
100
AcDbEntity
  8
0
  6
HIDDEN
 62
     7
370
     0
100
AcDbSpline
210
0.0
220
0.0
230
1.0
 70
     8
 71
     3
 72
    60
 73
    56
 74
     0
 42
0.00000001
 43
0.00000001
 12
1.0
 22
0.0
 32
0.0
 13
1.0
 23
0.0
 33
0.0
 40
-0.0312500000000002
 40
-0.0312500000000002
 40
0.0
 40
0.0
 40
0.0312499999999989
 40
0.0312499999999989
 40
0.0624999999999978
 40
0.0624999999999978
 40
0.0937499999999966
 40
0.0937499999999966
 40
0.1249999999999955
 40
0.1249999999999955
 40
0.1874999999999959
 40
0.1874999999999959
 40
0.2499999999999963
 40
0.2499999999999963
 40
0.3124999999999967
 40
0.3124999999999967
 40
0.3749999999999972
 40
0.3749999999999972
 40
0.4062499999999973
 40
0.4062499999999973
 40
0.4374999999999973
 40
0.4374999999999973
 40
0.4687499999999974
 40
0.4687499999999974
 40
0.4999999999999976
 40
0.4999999999999976
 40
0.5312499999999977
 40
0.5312499999999977
 40
0.5624999999999978
 40
0.5624999999999978
 40
0.5937499999999979
 40
0.5937499999999979
 40
0.6249999999999979
 40
0.6249999999999979
 40
0.656249999999998
 40
0.656249999999998
 40
0.6874999999999981
 40
0.6874999999999981
 40
0.7499999999999983
 40
0.7499999999999983
 40
0.7812499999999986
 40
0.7812499999999986
 40
0.8124999999999988
 40
0.8124999999999988
 40
0.843749999999999
 40
0.843749999999999
 40
0.8749999999999991
 40
0.8749999999999991
 40
0.9062499999999993
 40
0.9062499999999993
 40
0.9374999999999996
 40
0.9374999999999996
 40
0.9687499999999998
 40
0.9687499999999998
 40
1.0
 40
1.0
 40
1.031249999999999
 40
1.031249999999999
 10
249.0696700158057
 20
150.1487969155536
 30
0.0
 10
249.4042214998376
 20
150.1475108861385
 30
0.0
 10
249.5680401662572
 20
150.1675003773411
 30
0.0
 10
249.8890246155895
 20
150.2471506338999
 30
0.0
 10
250.0435902683904
 20
150.3067915166841
 30
0.0
 10
250.3283776166031
 20
150.4567946838799
 30
0.0
 10
250.4610558558518
 20
150.5485692726625
 30
0.0
 10
250.6952932371453
 20
150.7515658504108
 30
0.0
 10
250.7996455451439
 20
150.8649708343335
 30
0.0
 10
251.066970392982
 20
151.2217551084184
 30
0.0
 10
251.1876934435847
 20
151.4851723379089
 30
0.0
 10
251.3278492585758
 20
152.0083607737063
 30
0.0
 10
251.3493821819552
 20
152.2751415010276
 30
0.0
 10
251.3111079012608
 20
152.7833686442689
 30
0.0
 10
251.2524184320695
 20
153.0278013030009
 30
0.0
 10
251.0604226666509
 20
153.491843276582
 30
0.0
 10
250.9306592998554
 20
153.7046395860126
 30
0.0
 10
250.6775414797178
 20
153.9943466095958
 30
0.0
 10
250.5822694267011
 20
154.0865659679162
 30
0.0
 10
250.3721529898751
 20
154.2542617080783
 30
0.0
 10
250.2573107102539
 20
154.3302121404728
 30
0.0
 10
250.0011189090891
 20
154.4624583238356
 30
0.0
 10
249.8623683959238
 20
154.5172605100107
 30
0.0
 10
249.5614981216638
 20
154.5954514901397
 30
0.0
 10
249.3995743974075
 20
154.6181500937593
 30
0.0
 10
249.0683354261899
 20
154.6201346894974
 30
0.0
 10
248.9016608220333
 20
154.599353114995
 30
0.0
 10
248.583193641026
 20
154.5177470000971
 30
0.0
 10
248.4350583127663
 20
154.4583104261153
 30
0.0
 10
248.164953368669
 20
154.313973597832
 30
0.0
 10
248.0460129192365
 20
154.231222248954
 30
0.0
 10
247.8310242408216
 20
154.0494685461932
 30
0.0
 10
247.7353815934352
 20
153.9502027131886
 30
0.0
 10
247.5689115476092
 20
153.7445107029406
 30
0.0
 10
247.4969986477409
 20
153.6371280712514
 30
0.0
 10
247.3724571277172
 20
153.4137961154856
 30
0.0
 10
247.3197296191796
 20
153.2971666169456
 30
0.0
 10
247.1922639660326
 20
152.9428925281596
 30
0.0
 10
247.1457650854981
 20
152.6988339997245
 30
0.0
 10
247.1341979547816
 20
152.3196400550546
 30
0.0
 10
247.140470020922
 20
152.191093531396
 30
0.0
 10
247.1738545747629
 20
151.93725515622
 30
0.0
 10
247.2008850652084
 20
151.8110144466916
 30
0.0
 10
247.2774600102794
 20
151.56038738718
 30
0.0
 10
247.3269630182209
 20
151.4359920631365
 30
0.0
 10
247.4526762112314
 20
151.1900306165069
 30
0.0
 10
247.5280336260446
 20
151.0705408396358
 30
0.0
 10
247.7037370791691
 20
150.8451165488726
 30
0.0
 10
247.8054040651603
 20
150.7375589612064
 30
0.0
 10
248.0353553109622
 20
150.5422019835186
 30
0.0
 10
248.1616518153166
 20
150.4557218056025
 30
0.0
 10
248.4399340938838
 20
150.3092882345976
 30
0.0
 10
248.5913269598908
 20
150.2503829094014
 30
0.0
 10
248.9039862677877
 20
150.1707201895109
 30
0.0
 10
249.0696700158057
 20
150.1487969155536
 30
0.0
 10
249.4042214998376
 20
150.1475108861385
 30
0.0
  0
LINE
  5
144
330
1F
100
AcDbEntity
  8
0
  6
HIDDEN
 62
     7
370
     0
100
AcDbLine
 10
59.6823198202
 20
123.1788018203
 30
0.0
 11
59.6823198202
 21
117.1244912528
 31
0.0
  0
LINE
  5
145
330
1F
100
AcDbEntity
  8
0
  6
HIDDEN
 62
     7
370
     0
100
AcDbLine
 10
58.1823198202
 20
123.6118145222
 30
0.0
 11
58.1823198202
 21
117.9905166566
 31
0.0
  0
SPLINE
  5
146
330
1F
100
AcDbEntity
  8
0
  6
HIDDEN
 62
     7
370
     0
100
AcDbSpline
210
0.0
220
0.0
230
1.0
 70
     8
 71
     3
 72
    16
 73
    12
 74
     0
 42
0.00000001
 43
0.00000001
 12
1.0
 22
0.0
 32
0.0
 13
1.0
 23
0.0
 33
0.0
 40
0.0
 40
0.0
 40
0.0
 40
0.0
 40
0.25
 40
0.25
 40
0.375
 40
0.375
 40
0.5
 40
0.5
 40
0.75
 40
0.75
 40
1.0
 40
1.0
 40
1.0
 40
1.0
 10
94.86099947663952
 20
121.6989480228422
 30
0.0
 10
94.69976699915506
 20
120.9845538606501
 30
0.0
 10
94.57928715951545
 20
120.3312115979414
 30
0.0
 10
94.45690664220211
 20
119.4429563561375
 30
0.0
 10
94.42592898180466
 20
119.1622758197857
 30
0.0
 10
94.3843152441767
 20
118.6332418299457
 30
0.0
 10
94.37407933124389
 20
118.3899208513672
 30
0.0
 10
94.37389093418777
 20
117.721898160854
 30
0.0
 10
94.41403563682539
 20
117.3582172514346
 30
0.0
 10
94.57818939176497
 20
116.7983263788862
 30
0.0
 10
94.69974104217452
 20
116.6108050867691
 30
0.0
 10
94.86099947663952
 20
116.5127736940811
 30
0.0
  0
LINE
  5
147
330
1F
100
AcDbEntity
  8
0
  6
HIDDEN
 62
     7
370
     0
100
AcDbLine
 10
93.9823198202
 20
122.7479341262
 30
0.0
 11
93.9823198202
 21
116.2627558645
 31
0.0
  0
SPLINE
  5
148
330
1F
100
AcDbEntity
  8
0
  6
HIDDEN
 62
     7
370
     0
100
AcDbSpline
210
0.0
220
0.0
230
1.0
 70
     8
 71
     3
 72
    16
 73
    12
 74
     0
 42
0.00000001
 43
0.00000001
 12
1.0
 22
0.0
 32
0.0
 13
1.0
 23
0.0
 33
0.0
 40
0.0
 40
0.0
 40
0.0
 40
0.0
 40
0.2499999999999998
 40
0.2499999999999998
 40
0.3749999999999997
 40
0.3749999999999997
 40
0.4999999999999996
 40
0.4999999999999996
 40
0.7499999999999998
 40
0.7499999999999998
 40
1.0
 40
1.0
 40
1.0
 40
1.0
 10
94.86099947663952
 20
160.0529356040854
 30
0.0
 10
94.69976699915506
 20
159.9549199910307
 30
0.0
 10
94.57928715951543
 20
159.7681839593546
 30
0.0
 10
94.45690664220211
 20
159.3551441517957
 30
0.0
 10
94.42592898180466
 20
159.1951436525628
 30
0.0
 10
94.3843152441767
 20
158.8283380014716
 30
0.0
 10
94.37407933124389
 20
158.6250008488476
 30
0.0
 10
94.37389093418777
 20
157.957713582221
 30
0.0
 10
94.41403563682539
 20
157.4368991183329
 30
0.0
 10
94.57818939176497
 20
156.2395401028552
 30
0.0
 10
94.69974104217452
 20
155.5812704485593
 30
0.0
 10
94.86099947663953
 20
154.8667612753243
 30
0.0
  0
LINE
  5
149
330
1F
100
AcDbEntity
  8
0
  6
HIDDEN
 62
     7
370
     0
100
AcDbLine
 10
93.9823198202
 20
160.3029534336
 30
0.0
 11
93.9823198202
 21
153.817775172
 31
0.0
  0
LINE
  5
14A
330
1F
100
AcDbEntity
  8
0
  6
HIDDEN
 62
     7
370
     0
100
AcDbLine
 10
59.6823198202
 20
159.4412180454
 30
0.0
 11
59.6823198202
 21
153.3869074778
 31
0.0
  0
LINE
  5
14B
330
1F
100
AcDbEntity
  8
0
  6
HIDDEN
 62
     7
370
     0
100
AcDbLine
 10
58.1823198202
 20
158.5751926416
 30
0.0
 11
58.1823198202
 21
152.9538947759
 31
0.0
  0
LWPOLYLINE
  5
14C
330
1F
100
AcDbEntity
  8
0
  6
HIDDEN
 62
     7
370
     0
100
AcDbPolyline
 90
       22
 70
   128
 43
0.0
 10
214.1823198202
 20
132.7407729576
 10
214.9192077562
 20
132.846404889
 10
215.5906199654
 20
133.1539148225
 10
216.1368985264
 20
133.6359791511
 10
216.5095041918
 20
134.2497643436
 10
216.6753293132
 20
134.9407328922
 10
216.6196396007
 20
135.6474892089
 10
216.3473833297
 20
136.3072348937
 10
215.8827516646
 20
136.861348647
 10
215.267029168
 20
137.2605950303
 10
214.5549254856
 20
137.4694992503
 10
213.8097141548
 20
137.4694992503
 10
213.0976104724
 20
137.2605950303
 10
212.4818879758
 20
136.861348647
 10
212.0172563107
 20
136.3072348937
 10
211.7450000397
 20
135.6474892089
 10
211.6893103272
 20
134.9407328922
 10
211.8551354486
 20
134.2497643436
 10
212.227741114
 20
133.6359791511
 10
212.774019675
 20
133.1539148225
 10
213.4454318842
 20
132.846404889
 10
214.1823198202
 20
132.7407729576
  0
LINE
  5
14D
330
1F
100
AcDbEntity
  8
0
  6
HIDDEN
 62
     7
370
     0
100
AcDbLine
 10
58.1823198202
 20
152.9538947759
 30
0.0
 11
58.1823198202
 21
141.1848419821
 31
0.0
  0
LINE
  5
14E
330
1F
100
AcDbEntity
  8
0
  6
HIDDEN
 62
     7
370
     0
100
AcDbLine
 10
58.1823198202
 20
135.3808673161
 30
0.0
 11
58.1823198202
 21
123.6118145222
 31
0.0
  0
LINE
  5
14F
330
1F
100
AcDbEntity
  8
0
  6
HIDDEN
 62
     7
370
     0
100
AcDbLine
 10
59.6823198202
 20
134.3176437522
 30
0.0
 11
59.6823198202
 21
123.1788018203
 31
0.0
  0
LINE
  5
150
330
1F
100
AcDbEntity
  8
0
  6
HIDDEN
 62
     7
370
     0
100
AcDbLine
 10
59.6823198202
 20
153.3869074778
 30
0.0
 11
59.6823198202
 21
142.2480655459
 31
0.0
  0
LINE
  5
151
330
1F
100
AcDbEntity
  8
0
  6
HIDDEN
 62
     7
370
     0
100
AcDbLine
 10
95.9823198202
 20
153.3205618116
 30
0.0
 11
95.9823198202
 21
123.2451474866
 31
0.0
  0
LINE
  5
152
330
1F
100
AcDbEntity
  8
0
  6
HIDDEN
 62
     7
370
     0
100
AcDbLine
 10
93.9823198202
 20
153.817775172
 30
0.0
 11
93.9823198202
 21
122.7479341262
 31
0.0
  0
LINE
  5
153
330
1F
100
AcDbEntity
  8
0
  6
HIDDEN
 62
     7
370
     0
100
AcDbLine
 10
252.8149909606
 20
148.0257716353
 30
0.0
 11
232.504628772
 21
146.2488451917
 31
0.0
  0
LINE
  5
154
330
1F
100
AcDbEntity
  8
0
  6
HIDDEN
 62
     7
370
     0
100
AcDbLine
 10
252.5860902112
 20
145.6382372969
 30
0.0
 11
252.8149909606
 21
148.0257716353
 31
0.0
  0
LINE
  5
155
330
1F
100
AcDbEntity
  8
0
  6
HIDDEN
 62
     7
370
     0
100
AcDbLine
 10
247.3714341334
 20
138.2828546491
 30
0.0
 11
252.5860902112
 21
145.6382372969
 31
0.0
  0
SPLINE
  5
156
330
1F
100
AcDbEntity
  8
0
  6
HIDDEN
 62
     7
370
     0
100
AcDbSpline
210
0.0
220
0.0
230
1.0
 70
     8
 71
     3
 72
     8
 73
     4
 74
     0
 42
0.00000001
 43
0.00000001
 12
1.0
 22
0.0
 32
0.0
 13
1.0
 23
0.0
 33
0.0
 40
0.0000249638557296
 40
0.0000249638557296
 40
0.0000249638557296
 40
0.0000249638557296
 40
0.0049776420541172
 40
0.0049776420541172
 40
0.0049776420541172
 40
0.0049776420541172
 10
59.68231982019921
 20
134.3176437522468
 30
0.0
 10
61.33229605470875
 20
134.2763645144786
 30
0.0
 10
62.98229737445376
 20
134.2361428332391
 30
0.0
 10
64.6323198201992
 20
134.1968935959841
 30
0.0
  0
SPLINE
  5
157
330
1F
100
AcDbEntity
  8
0
  6
HIDDEN
 62
     7
370
     0
100
AcDbSpline
210
0.0
220
0.0
230
1.0
 70
     8
 71
     3
 72
     8
 73
     4
 74
     0
 42
0.00000001
 43
0.00000001
 12
1.0
 22
0.0
 32
0.0
 13
1.0
 23
0.0
 33
0.0
 40
0.0000249631533153
 40
0.0000249631533153
 40
0.0000249631533153
 40
0.0000249631533153
 40
0.0049776413517029
 40
0.0049776413517029
 40
0.0049776413517029
 40
0.0049776413517029
 10
64.63231982019919
 20
142.3688157021825
 30
0.0
 10
62.98229737445376
 20
142.3295664649274
 30
0.0
 10
61.33229605470873
 20
142.289344783688
 30
0.0
 10
59.6823198201992
 20
142.2480655459198
 30
0.0
  0
SPLINE
  5
158
330
1F
100
AcDbEntity
  8
0
  6
HIDDEN
 62
     7
370
     0
100
AcDbSpline
210
0.0
220
0.0
230
1.0
 70
     8
 71
     3
 72
     8
 73
     4
 74
     0
 42
0.00000001
 43
0.00000001
 12
1.0
 22
0.0
 32
0.0
 13
1.0
 23
0.0
 33
0.0
 40
0.0
 40
0.0
 40
0.0
 40
0.0
 40
1.0
 40
1.0
 40
1.0
 40
1.0
 10
58.18231982019702
 20
135.380867316103
 30
0.0
 10
58.64908043157481
 20
134.9655040704799
 30
0.0
 10
59.15482797835489
 20
134.6209136411753
 30
0.0
 10
59.68231982019925
 20
134.3176437522467
 30
0.0
  0
SPLINE
  5
159
330
1F
100
AcDbEntity
  8
0
  6
HIDDEN
 62
     7
370
     0
100
AcDbSpline
210
0.0
220
0.0
230
1.0
 70
     8
 71
     3
 72
     8
 73
     4
 74
     0
 42
0.00000001
 43
0.00000001
 12
1.0
 22
0.0
 32
0.0
 13
1.0
 23
0.0
 33
0.0
 40
0.0
 40
0.0
 40
0.0
 40
0.0
 40
1.0
 40
1.0
 40
1.0
 40
1.0
 10
59.68231982019925
 20
142.2480655459198
 30
0.0
 10
59.15482797835573
 20
141.9447956569917
 30
0.0
 10
58.64908043157644
 20
141.6002052276877
 30
0.0
 10
58.18231982019925
 20
141.1848419820656
 30
0.0
  0
LINE
  5
15A
330
1F
100
AcDbEntity
  8
0
  6
HIDDEN
 62
     7
370
     0
100
AcDbLine
 10
58.1823198202
 20
135.3808673161
 30
0.0
 11
58.1823198202
 21
141.1848419821
 31
0.0
  0
LINE
  5
15B
330
1F
100
AcDbEntity
  8
0
  6
HIDDEN
 62
     7
370
     0
100
AcDbLine
 10
64.6323198202
 20
134.196893596
 30
0.0
 11
64.6323198202
 21
142.3688157022
 31
0.0
  0
SPLINE
  5
15C
330
1F
100
AcDbEntity
  8
0
  6
HIDDEN
 62
     7
370
     0
100
AcDbSpline
210
0.0
220
0.0
230
1.0
 70
     8
 71
     3
 72
    24
 73
    20
 74
     0
 42
0.00000001
 43
0.00000001
 12
1.0
 22
0.0
 32
0.0
 13
1.0
 23
0.0
 33
0.0
 40
0.0
 40
0.0
 40
0.0
 40
0.0
 40
0.1249999999999998
 40
0.1249999999999998
 40
0.2499999999999996
 40
0.2499999999999996
 40
0.3749999999999993
 40
0.3749999999999993
 40
0.4374999999999994
 40
0.4374999999999994
 40
0.4999999999999996
 40
0.4999999999999996
 40
0.6249999999999997
 40
0.6249999999999997
 40
0.7499999999999998
 40
0.7499999999999998
 40
0.8749999999999999
 40
0.8749999999999999
 40
1.0
 40
1.0
 40
1.0
 40
1.0
 10
64.63231982019916
 20
134.196893595984
 30
0.0
 10
64.87012345247426
 20
134.4959006983142
 30
0.0
 10
65.10020911368554
 20
134.8002385496329
 30
0.0
 10
65.53496251229537
 20
135.4259720870289
 30
0.0
 10
65.73989530458152
 20
135.7471968143564
 30
0.0
 10
66.1049972550802
 20
136.4191225850892
 30
0.0
 10
66.26679764087172
 20
136.774437816968
 30
0.0
 10
66.43865784545143
 20
137.3246690383205
 30
0.0
 10
66.48424303711157
 20
137.5110728233009
 30
0.0
 10
66.54671777668642
 20
137.8912073253972
 30
0.0
 10
66.56338892243487
 20
138.0868771176831
 30
0.0
 10
66.56390996561137
 20
138.6653574963575
 30
0.0
 10
66.49946766472468
 20
139.0432693353262
 30
0.0
 10
66.26961857135136
 20
139.7852373604247
 30
0.0
 10
66.11109789368824
 20
140.1339528205856
 30
0.0
 10
65.74686356378807
 20
140.8070452183188
 30
0.0
 10
65.54012732372449
 20
141.1319977055605
 30
0.0
 10
65.10218937798413
 20
141.7629215160222
 30
0.0
 10
64.87091665070457
 20
142.0688112563629
 30
0.0
 10
64.63231982019926
 20
142.3688157021824
 30
0.0
  0
SPLINE
  5
15D
330
1F
100
AcDbEntity
  8
0
  6
HIDDEN
 62
     7
370
     0
100
AcDbSpline
210
0.0
220
0.0
230
1.0
 70
     8
 71
     3
 72
    72
 73
    68
 74
     0
 42
0.00000001
 43
0.00000001
 12
1.0
 22
0.0
 32
0.0
 13
1.0
 23
0.0
 33
0.0
 40
-0.03125
 40
-0.03125
 40
0.0
 40
0.0
 40
0.03125
 40
0.03125
 40
0.0625
 40
0.0625
 40
0.0937499999999999
 40
0.0937499999999999
 40
0.1249999999999999
 40
0.1249999999999999
 40
0.1562499999999999
 40
0.1562499999999999
 40
0.1874999999999999
 40
0.1874999999999999
 40
0.2187499999999999
 40
0.2187499999999999
 40
0.2499999999999998
 40
0.2499999999999998
 40
0.2812499999999998
 40
0.2812499999999998
 40
0.3124999999999998
 40
0.3124999999999998
 40
0.3437499999999998
 40
0.3437499999999998
 40
0.3749999999999998
 40
0.3749999999999998
 40
0.3906249999999997
 40
0.3906249999999997
 40
0.4062499999999997
 40
0.4062499999999997
 40
0.4374999999999997
 40
0.4374999999999997
 40
0.4687499999999997
 40
0.4687499999999997
 40
0.4999999999999998
 40
0.4999999999999998
 40
0.5312499999999998
 40
0.5312499999999998
 40
0.5624999999999998
 40
0.5624999999999998
 40
0.5937499999999997
 40
0.5937499999999997
 40
0.6249999999999997
 40
0.6249999999999997
 40
0.6562499999999997
 40
0.6562499999999997
 40
0.6874999999999997
 40
0.6874999999999997
 40
0.7187499999999997
 40
0.7187499999999997
 40
0.7499999999999996
 40
0.7499999999999996
 40
0.7812499999999996
 40
0.7812499999999996
 40
0.8124999999999996
 40
0.8124999999999996
 40
0.8437499999999997
 40
0.8437499999999997
 40
0.8749999999999998
 40
0.8749999999999998
 40
0.9062499999999999
 40
0.9062499999999999
 40
0.9374999999999999
 40
0.9374999999999999
 40
0.96875
 40
0.96875
 40
1.0
 40
1.0
 40
1.03125
 40
1.03125
 10
77.30626613902442
 20
140.7236882988981
 30
0.0
 10
77.68069635889827
 20
141.1340440993833
 30
0.0
 10
77.88554896016392
 20
141.3176931820417
 30
0.0
 10
78.32841715701089
 20
141.644648085537
 30
0.0
 10
78.56837257432919
 20
141.7884262937168
 30
0.0
 10
79.06398355710373
 20
142.0259436491627
 30
0.0
 10
79.3212498482582
 20
142.1212632140605
 30
0.0
 10
79.85460361609526
 20
142.265348746695
 30
0.0
 10
80.12888375599354
 20
142.3130847536646
 30
0.0
 10
80.6753122905731
 20
142.3586668941984
 30
0.0
 10
80.94988860904087
 20
142.3572331341261
 30
0.0
 10
81.50185578331158
 20
142.3043198260353
 30
0.0
 10
81.77247274588326
 20
142.2533500998311
 30
0.0
 10
82.29875791696244
 20
142.1047434728875
 30
0.0
 10
82.55638948037004
 20
142.0064581021304
 30
0.0
 10
83.05231564504355
 20
141.7622047429447
 30
0.0
 10
83.2852993228352
 20
141.6191246119225
 30
0.0
 10
83.7216325981602
 20
141.2912660614537
 30
0.0
 10
83.92691385201846
 20
141.1042724237535
 30
0.0
 10
84.29494814987866
 20
140.6948418039305
 30
0.0
 10
84.45646313986384
 20
140.474736362946
 30
0.0
 10
84.73362082301097
 20
140.002986281508
 30
0.0
 10
84.85001500244465
 20
139.7479697550667
 30
0.0
 10
85.02328903909128
 20
139.2267319316697
 30
0.0
 10
85.08173559355706
 20
138.9592478138888
 30
0.0
 10
85.12560031903294
 20
138.5473321545564
 30
0.0
 10
85.13278053566229
 20
138.4076248514809
 30
0.0
 10
85.13181250836685
 20
138.1315017960185
 30
0.0
 10
85.12380971895321
 20
137.9943252296877
 30
0.0
 10
85.0777369870408
 20
137.5853917884244
 30
0.0
 10
85.01680215458877
 20
137.3134655394202
 30
0.0
 10
84.83868199818026
 20
136.7902850229651
 30
0.0
 10
84.72311408683787
 20
136.5415730226018
 30
0.0
 10
84.44126730289858
 20
136.0686884976098
 30
0.0
 10
84.27439735748395
 20
135.8450792803777
 30
0.0
 10
83.90507180268517
 20
135.44042189219
 30
0.0
 10
83.7002866463877
 20
135.2560083040205
 30
0.0
 10
83.25563369887148
 20
134.9269822691261
 30
0.0
 10
83.02078456936071
 20
134.7858141931379
 30
0.0
 10
82.52737480688369
 20
134.5474046643574
 30
0.0
 10
82.26608785317904
 20
134.4496221079525
 30
0.0
 10
81.73534957266637
 20
134.3042940797624
 30
0.0
 10
81.46570987176912
 20
134.2560046895674
 30
0.0
 10
80.9179585320239
 20
134.2075894657808
 30
0.0
 10
80.63805449016532
 20
134.2080476514168
 30
0.0
 10
80.0909765823303
 20
134.2581995070189
 30
0.0
 10
79.82137147764288
 20
134.3073730740509
 30
0.0
 10
79.2902167209868
 20
134.455047597358
 30
0.0
 10
79.02892190454327
 20
134.5542027617236
 30
0.0
 10
78.53660792636789
 20
134.7952155322002
 30
0.0
 10
78.30265105078927
 20
134.937703656825
 30
0.0
 10
77.8604824302588
 20
135.2691910858099
 30
0.0
 10
77.65528889914714
 20
135.4566247137983
 30
0.0
 10
77.28959468278916
 20
135.8635284328487
 30
0.0
 10
77.12682406040082
 20
136.0847075075177
 30
0.0
 10
76.84587162963527
 20
136.5644548367329
 30
0.0
 10
76.73266777736175
 20
136.8144668035433
 30
0.0
 10
76.56005905322283
 20
137.3345420135637
 30
0.0
 10
76.50045277054645
 20
137.6082734781934
 30
0.0
 10
76.44256100047659
 20
138.1568911280919
 30
0.0
 10
76.44335053933656
 20
138.4312309919835
 30
0.0
 10
76.50454101495295
 20
138.9799729431224
 30
0.0
 10
76.565669738687
 20
139.2530382569796
 30
0.0
 10
76.74174942431682
 20
139.7732035057479
 30
0.0
 10
76.85808001930675
 20
140.0255226393069
 30
0.0
 10
77.14128124904748
 20
140.5019269807138
 30
0.0
 10
77.30626613902442
 20
140.7236882988981
 30
0.0
 10
77.68069635889827
 20
141.1340440993833
 30
0.0
  0
CIRCLE
  5
15E
330
1F
100
AcDbEntity
  8
0
  6
HIDDEN
 62
     7
370
     0
100
AcDbCircle
 10
80.6823198202
 20
138.2828546491
 30
0.0
 40
4.050000000000011
  0
CIRCLE
  5
15F
330
1F
100
AcDbEntity
  8
0
  6
HIDDEN
 62
     7
370
     0
100
AcDbCircle
 10
108.1823198202
 20
138.2828546491
 30
0.0
 40
2.0
  0
LINE
  5
160
330
1F
100
AcDbEntity
  8
0
  6
HIDDEN
 62
     7
370
     0
100
AcDbLine
 10
96.1823198202
 20
114.0328546491
 30
0.0
 11
96.275213039
 21
114.1257478679
 31
0.0
  0
LINE
  5
161
330
1F
100
AcDbEntity
  8
0
  6
HIDDEN
 62
     7
370
     0
100
AcDbLine
 10
96.275213039
 20
162.4399614303
 30
0.0
 11
96.1823198202
 21
162.5328546491
 31
0.0
  0
ARC
  5
162
330
1F
100
AcDbEntity
  8
0
  6
HIDDEN
 62
     7
370
     0
100
AcDbCircle
 10
95.5681062578
 20
114.8328546491
 30
0.0
 40
1.000000000000028
100
AcDbArc
 50
315.0
 51
0.0
  0
ARC
  5
163
330
1F
100
AcDbEntity
  8
0
  6
HIDDEN
 62
     7
370
     0
100
AcDbCircle
 10
95.5681062578
 20
114.8328546491
 30
0.0
 40
1.0
100
AcDbArc
 50
0.0
 51
52.1052014664
  0
ARC
  5
164
330
1F
100
AcDbEntity
  8
0
  6
HIDDEN
 62
     7
370
     0
100
AcDbCircle
 10
95.5681062578
 20
161.7328546491
 30
0.0
 40
1.000000000000038
100
AcDbArc
 50
351.8087250651
 51
45.0
  0
ARC
  5
165
330
1F
100
AcDbEntity
  8
0
  6
HIDDEN
 62
     7
370
     0
100
AcDbCircle
 10
95.5681062578
 20
161.7328546491
 30
0.0
 40
1.00000000000002
100
AcDbArc
 50
307.8947985336
 51
351.8087250651
  0
LINE
  5
166
330
1F
100
AcDbEntity
  8
0
  6
HIDDEN
 62
     7
370
     0
100
AcDbLine
 10
96.5681062578
 20
114.8328546491
 30
0.0
 11
96.5681062578
 21
161.7328546491
 31
0.0
  0
LINE
  5
167
330
1F
100
AcDbEntity
  8
0
  6
HIDDEN
 62
     7
370
     0
100
AcDbLine
 10
96.5681062578
 20
114.8328546491
 30
0.0
 11
96.5681062578
 21
161.7328546491
 31
0.0
  0
LINE
  5
168
330
1F
100
AcDbEntity
  8
0
  6
HIDDEN
 62
     7
370
     0
100
AcDbLine
 10
58.1823198202
 20
122.0864258046
 30
0.0
 11
59.7125482598
 21
122.9699036062
 31
0.0
  0
LINE
  5
169
330
1F
100
AcDbEntity
  8
0
  6
HIDDEN
 62
     7
370
     0
100
AcDbLine
 10
59.7125482598
 20
153.595805692
 30
0.0
 11
58.1823198202
 21
154.4792834935
 31
0.0
  0
ARC
  5
16A
330
1F
100
AcDbEntity
  8
0
  6
HIDDEN
 62
     7
370
     0
100
AcDbCircle
 10
69.1841211351
 20
124.2828546491
 30
0.0
 40
2.000000000000028
100
AcDbArc
 50
270.0
 51
315.0
  0
ARC
  5
16B
330
1F
100
AcDbEntity
  8
0
  6
HIDDEN
 62
     7
370
     0
100
AcDbCircle
 10
69.1841211351
 20
152.2828546491
 30
0.0
 40
2.000000000000028
100
AcDbArc
 50
45.0
 51
90.0
  0
LINE
  5
16C
330
1F
100
AcDbEntity
  8
0
  6
HIDDEN
 62
     7
370
     0
100
AcDbLine
 10
68.1823198202
 20
122.2828546491
 30
0.0
 11
69.1841211351
 21
122.2828546491
 31
0.0
  0
LINE
  5
16D
330
1F
100
AcDbEntity
  8
0
  6
HIDDEN
 62
     7
370
     0
100
AcDbLine
 10
69.1841211351
 20
154.2828546491
 30
0.0
 11
68.1823198202
 21
154.2828546491
 31
0.0
  0
ARC
  5
16E
330
1F
100
AcDbEntity
  8
0
  6
HIDDEN
 62
     7
370
     0
100
AcDbCircle
 10
68.1823198202
 20
124.2828546491
 30
0.0
 40
2.000000000000028
100
AcDbArc
 50
189.9742217944
 51
270.0
  0
ARC
  5
16F
330
1F
100
AcDbEntity
  8
0
  6
HIDDEN
 62
     7
370
     0
100
AcDbCircle
 10
68.1823198202
 20
152.2828546491
 30
0.0
 40
2.000000000000008
100
AcDbArc
 50
90.0
 51
170.0257782056
  0
LINE
  5
170
330
1F
100
AcDbEntity
  8
0
  6
HIDDEN
 62
     7
370
     0
100
AcDbLine
 10
70.5983346975
 20
122.8686410867
 30
0.0
 11
72.0125482598
 21
124.2828546491
 31
0.0
  0
LINE
  5
171
330
1F
100
AcDbEntity
  8
0
  6
HIDDEN
 62
     7
370
     0
100
AcDbLine
 10
72.0125482598
 20
152.2828546491
 30
0.0
 11
70.5983346975
 21
153.6970682115
 31
0.0
  0
LINE
  5
172
330
1F
100
AcDbEntity
  8
0
  6
HIDDEN
 62
     7
370
     0
100
AcDbLine
 10
59.7125482598
 20
122.9699036062
 30
0.0
 11
64.6125482598
 21
124.2828546491
 31
0.0
  0
LINE
  5
173
330
1F
100
AcDbEntity
  8
0
  6
HIDDEN
 62
     7
370
     0
100
AcDbLine
 10
64.6125482598
 20
152.2828546491
 30
0.0
 11
59.7125482598
 21
153.595805692
 31
0.0
  0
LINE
  5
174
330
1F
100
AcDbEntity
  8
0
  6
HIDDEN
 62
     7
370
     0
100
AcDbLine
 10
66.2125482598
 20
152.6292648106
 30
0.0
 11
65.6125482598
 21
152.2828546491
 31
0.0
  0
LINE
  5
175
330
1F
100
AcDbEntity
  8
0
  6
HIDDEN
 62
     7
370
     0
100
AcDbLine
 10
65.6125482598
 20
124.2828546491
 30
0.0
 11
66.2125482598
 21
123.9364444876
 31
0.0
  0
ARC
  5
176
330
1F
100
AcDbEntity
  8
0
  6
HIDDEN
 62
     7
370
     0
100
AcDbCircle
 10
84.6823198202
 20
124.7828546491
 30
0.0
 40
0.5000000000000142
100
AcDbArc
 50
270.0
 51
360.0
  0
ARC
  5
177
330
1F
100
AcDbEntity
  8
0
  6
HIDDEN
 62
     7
370
     0
100
AcDbCircle
 10
84.6823198202
 20
151.7828546491
 30
0.0
 40
0.5000000000000284
100
AcDbArc
 50
0.0
 51
90.0
  0
LINE
  5
178
330
1F
100
AcDbEntity
  8
0
  6
HIDDEN
 62
     7
370
     0
100
AcDbLine
 10
64.6125482598
 20
124.2828546491
 30
0.0
 11
65.6125482598
 21
124.2828546491
 31
0.0
  0
LINE
  5
179
330
1F
100
AcDbEntity
  8
0
  6
HIDDEN
 62
     7
370
     0
100
AcDbLine
 10
65.6125482598
 20
152.2828546491
 30
0.0
 11
64.6125482598
 21
152.2828546491
 31
0.0
  0
LINE
  5
17A
330
1F
100
AcDbEntity
  8
0
  6
HIDDEN
 62
     7
370
     0
100
AcDbLine
 10
72.0125482598
 20
124.2828546491
 30
0.0
 11
84.6823198202
 21
124.2828546491
 31
0.0
  0
LINE
  5
17B
330
1F
100
AcDbEntity
  8
0
  6
HIDDEN
 62
     7
370
     0
100
AcDbLine
 10
84.6823198202
 20
152.2828546491
 30
0.0
 11
72.0125482598
 21
152.2828546491
 31
0.0
  0
LINE
  5
17C
330
1F
100
AcDbEntity
  8
0
  6
HIDDEN
 62
     7
370
     0
100
AcDbLine
 10
212.0823198202
 20
142.300075576
 30
0.0
 11
212.0823198202
 21
139.5960052303
 31
0.0
  0
LINE
  5
17D
330
1F
100
AcDbEntity
  8
0
  6
HIDDEN
 62
     7
370
     0
100
AcDbLine
 10
216.2823198202
 20
142.2699682947
 30
0.0
 11
216.2823198202
 21
142.300075576
 31
0.0
  0
LINE
  5
17E
330
1F
100
AcDbEntity
  8
0
  6
HIDDEN
 62
     7
370
     0
100
AcDbLine
 10
216.2823198202
 20
139.5959342568
 30
0.0
 11
216.2823198202
 21
141.09278652
 31
0.0
  0
LINE
  5
17F
330
1F
100
AcDbEntity
  8
0
  6
HIDDEN
 62
     7
370
     0
100
AcDbLine
 10
220.9884256033
 20
147.0654328437
 30
0.0
 11
213.9639773861
 21
143.8764000872
 31
0.0
  0
LINE
  5
180
330
1F
100
AcDbEntity
  8
0
  6
HIDDEN
 62
     7
370
     0
100
AcDbLine
 10
215.4430189594
 20
139.9353082738
 30
0.0
 11
220.9660970608
 21
142.4427332611
 31
0.0
  0
LINE
  5
181
330
1F
100
AcDbEntity
  8
0
  6
HIDDEN
 62
     7
370
     0
100
AcDbLine
 10
85.1823198202
 20
128.0328546491
 30
0.0
 11
86.4323198202
 21
129.2828546491
 31
0.0
  0
LINE
  5
182
330
1F
100
AcDbEntity
  8
0
  6
HIDDEN
 62
     7
370
     0
100
AcDbLine
 10
86.4323198202
 20
147.2828546491
 30
0.0
 11
85.1823198202
 21
148.5328546491
 31
0.0
  0
LINE
  5
183
330
1F
100
AcDbEntity
  8
0
  6
HIDDEN
 62
     7
370
     0
100
AcDbLine
 10
86.4323198202
 20
129.2828546491
 30
0.0
 11
112.1823198202
 21
129.2828546491
 31
0.0
  0
LINE
  5
184
330
1F
100
AcDbEntity
  8
0
  6
HIDDEN
 62
     7
370
     0
100
AcDbLine
 10
112.1823198202
 20
147.2828546491
 30
0.0
 11
86.4323198202
 21
147.2828546491
 31
0.0
  0
LINE
  5
185
330
1F
100
AcDbEntity
  8
0
  6
HIDDEN
 62
     7
370
     0
100
AcDbLine
 10
112.1823198202
 20
129.2828546491
 30
0.0
 11
115.0364077606
 21
134.0328546491
 31
0.0
  0
LINE
  5
186
330
1F
100
AcDbEntity
  8
0
  6
HIDDEN
 62
     7
370
     0
100
AcDbLine
 10
115.0364077606
 20
142.5328546491
 30
0.0
 11
112.1823198202
 21
147.2828546491
 31
0.0
  0
LINE
  5
187
330
1F
100
AcDbEntity
  8
0
  6
HIDDEN
 62
     7
370
     0
100
AcDbLine
 10
217.1823198202
 20
142.5328546491
 30
0.0
 11
115.0364077606
 21
142.5328546491
 31
0.0
  0
LINE
  5
188
330
1F
100
AcDbEntity
  8
0
  6
HIDDEN
 62
     7
370
     0
100
AcDbLine
 10
115.0364077606
 20
134.0328546491
 30
0.0
 11
217.1823198202
 21
134.0328546491
 31
0.0
  0
LINE
  5
189
330
1F
100
AcDbEntity
  8
0
  6
HIDDEN
 62
     7
370
     0
100
AcDbLine
 10
217.1823198202
 20
134.0328546491
 30
0.0
 11
219.7359774511
 21
138.2828546491
 31
0.0
  0
LINE
  5
18A
330
1F
100
AcDbEntity
  8
0
  6
HIDDEN
 62
     7
370
     0
100
AcDbLine
 10
219.7359774511
 20
138.2828546491
 30
0.0
 11
217.1823198202
 21
142.5328546491
 31
0.0
  0
LINE
  5
18B
330
1F
100
AcDbEntity
  8
0
  6
HIDDEN
 62
     7
370
     0
100
AcDbLine
 10
241.4166188462
 20
147.6270797439
 30
0.0
 11
241.4166188462
 21
147.2922486699
 31
0.0
  0
LINE
  5
18C
330
1F
100
AcDbEntity
  8
0
  6
HIDDEN
 62
     7
370
     0
100
AcDbLine
 10
245.6166188462
 20
147.2922486699
 30
0.0
 11
245.6166188462
 21
147.315965871
 31
0.0
  0
LINE
  5
18D
330
1F
100
AcDbEntity
  8
0
  6
HIDDEN
 62
     7
370
     0
100
AcDbLine
 10
212.0823198202
 20
136.9697750414
 30
0.0
 11
212.0823198202
 21
135.1926847053
 31
0.0
  0
LINE
  5
18E
330
1F
100
AcDbEntity
  8
0
  6
HIDDEN
 62
     7
370
     0
100
AcDbLine
 10
216.2823198202
 20
135.1926847053
 30
0.0
 11
216.2823198202
 21
136.9702108231
 31
0.0
  0
LINE
  5
18F
330
1F
100
AcDbEntity
  8
0
  6
HIDDEN
 62
     7
370
     0
100
AcDbLine
 10
247.1369457578
 20
152.9595775275
 30
0.0
 11
247.1369457578
 21
152.3734246544
 31
0.0
  0
LINE
  5
190
330
1F
100
AcDbEntity
  8
0
  6
HIDDEN
 62
     7
370
     0
100
AcDbLine
 10
251.3369457578
 20
152.351268438
 30
0.0
 11
251.3369457578
 21
152.9595775275
 31
0.0
  0
LINE
  5
191
330
1F
100
AcDbEntity
  8
0
  6
HIDDEN
 62
     7
370
     0
100
AcDbLine
 10
211.6823198202
 20
135.1184142483
 30
0.0
 11
211.6823198202
 21
133.3386615992
 31
0.0
  0
LINE
  5
192
330
1F
100
AcDbEntity
  8
0
  6
HIDDEN
 62
     7
370
     0
100
AcDbLine
 10
216.6823198202
 20
133.3386710268
 30
0.0
 11
216.6823198202
 21
135.1184142483
 31
0.0
  0
LINE
  5
193
330
1F
100
AcDbEntity
  8
VERMASSUNG
  6
CENTERX2
100
AcDbLine
 10
51.1848863001
 20
138.2828546491
 30
0.0
 11
256.1823198202
 21
138.2828546491
 31
0.0
  0
LINE
  5
194
330
1F
100
AcDbEntity
  8
VERMASSUNG
  6
CENTERX2
100
AcDbLine
 10
256.1823198202
 20
160.2828546491
 30
0.0
 11
256.1823198202
 21
138.2828546491
 31
0.0
  0
LINE
  5
195
330
1F
100
AcDbEntity
  8
VERMASSUNG
  6
CENTERX2
100
AcDbLine
 10
256.1823198202
 20
160.2828546491
 30
0.0
 11
266.8588589268
 21
160.2828546491
 31
0.0
  0
DIMENSION
  5
196
330
1F
100
AcDbEntity
  8
VERMASSUNG
100
AcDbDimension
  2
_D
 10
256.1823198202
 20
179.7828546491
 30
0.0
 11
176.1823198202
 21
179.7828546491
 31
0.0
 70
   160
  1
<>
 71
     2
 42
-1.0
  3
SLDDIMSTYLE0
100
AcDbAlignedDimension
 13
96.1823198202
 23
169.2828546491
 33
0.0
 14
256.1823198202
 24
160.2828546491
 34
0.0
100
AcDbRotatedDimension
  0
DIMENSION
  5
1A1
330
1F
100
AcDbEntity
  8
VERMASSUNG
100
AcDbDimension
  2
_D_1
 10
58.1823198202
 20
191.7828546491
 30
0.0
 11
157.1823198202
 21
191.7828546491
 31
0.0
 70
   160
  1
<>
 71
     2
 42
-1.0
  3
SLDDIMSTYLE0
100
AcDbAlignedDimension
 13
256.1823198202
 23
160.2828546491
 33
0.0
 14
58.1823198202
 24
158.5751926416
 34
0.0
100
AcDbRotatedDimension
  0
DIMENSION
  5
1AB
330
1F
100
AcDbEntity
  8
VERMASSUNG
100
AcDbDimension
  2
_D_2
 10
272.3812142105
 20
138.2828546491
 30
0.0
 11
272.3812142105
 21
149.2828546491
 31
0.0
 70
   160
  1
<>
 71
     2
 42
-1.0
  3
SLDDIMSTYLE0
100
AcDbAlignedDimension
 13
256.1823198202
 23
160.2828546491
 33
0.0
 14
256.1823198202
 24
138.2828546491
 34
0.0
 50
90.0
100
AcDbRotatedDimension
  0
DIMENSION
  5
1B5
330
1F
100
AcDbEntity
  8
VERMASSUNG
100
AcDbDimension
  2
_D_3
 10
266.8588589268
 20
160.2828546491
 30
0.0
 11
262.2738991955
 21
153.6735141162
 31
0.0
 70
   162
  1
<>
 71
     1
 42
-1.0
  3
SLDDIMSTYLE1
100
AcDb2LineAngularDimension
 13
256.1807976994
 23
159.8490516547
 33
0.0
 14
255.1276445987
 24
147.8407796071
 34
0.0
 15
256.1823198202
 25
160.2828546491
 35
0.0
 16
262.2738991955
 26
153.6735141162
 36
0.0
  0
DIMENSION
  5
1BE
330
1F
100
AcDbEntity
  8
VERMASSUNG
100
AcDbDimension
  2
_D_4
 10
42.1823198202
 20
106.7828546491
 30
0.0
 11
42.1823198202
 21
138.2828546491
 31
0.0
 70
   160
  1
PSC%%c<>
 71
     2
 42
-1.0
  3
SLDDIMSTYLE0
100
AcDbAlignedDimension
 13
96.6823198202
 23
169.7828546491
 33
0.0
 14
96.6823198202
 24
106.7828546491
 34
0.0
 50
90.0
100
AcDbRotatedDimension
  0
DIMENSION
  5
1CA
330
1F
100
AcDbEntity
  8
VERMASSUNG
100
AcDbDimension
  2
_D_5
 10
140.1342761492
 20
122.2828546491
 30
0.0
 11
140.1342761492
 21
130.0905664506
 31
0.0
 70
   160
  1
%%c<>
 71
     2
 42
-1.0
  3
SLDDIMSTYLE0
100
AcDbAlignedDimension
 13
122.1823198202
 23
154.2828546491
 33
0.0
 14
122.1823198202
 24
122.2828546491
 34
0.0
 50
90.0
100
AcDbRotatedDimension
  0
LINE
  5
1D3
330
1F
100
AcDbEntity
  8
0
  6
Continuous
 62
     7
370
    15
100
AcDbLine
 10
159.6575470703
 20
89.1738163343
 30
0.0
 11
156.435646776
 21
89.8000903095
 31
0.0
  0
LINE
  5
1D4
330
1F
100
AcDbEntity
  8
0
  6
Continuous
 62
     7
370
    15
100
AcDbLine
 10
155.4666771692
 20
75.943179349
 30
0.0
 11
155.7685158896
 21
75.958998046
 31
0.0
  0
LINE
  5
1D5
330
1F
100
AcDbEntity
  8
0
  6
Continuous
 62
     7
370
    15
100
AcDbLine
 10
172.935646776
 20
75.1554729572
 30
0.0
 11
172.935646776
 21
77.5430072957
 31
0.0
  0
LINE
  5
1D6
330
1F
100
AcDbEntity
  8
0
  6
Continuous
 62
     7
370
    15
100
AcDbLine
 10
172.935646776
 20
75.1554729572
 30
0.0
 11
155.7440292896
 21
75.6088233506
 31
0.0
  0
LINE
  5
1D7
330
1F
100
AcDbEntity
  8
0
  6
Continuous
 62
     7
370
    15
100
AcDbLine
 10
155.8420799484
 20
77.0110130989
 30
0.0
 11
155.7440292896
 21
75.6088233506
 31
0.0
  0
LINE
  5
1D8
330
1F
100
AcDbEntity
  8
0
  6
Continuous
 62
     7
370
    15
100
AcDbLine
 10
155.8420799484
 20
77.0110130989
 30
0.0
 11
157.9334577478
 21
77.1010880105
 31
0.0
  0
LINE
  5
1D9
330
1F
100
AcDbEntity
  8
0
  6
Continuous
 62
     7
370
    15
100
AcDbLine
 10
157.9334577478
 20
77.1010880105
 30
0.0
 11
160.3058561324
 21
76.9092684138
 31
0.0
  0
LINE
  5
1DA
330
1F
100
AcDbEntity
  8
0
  6
Continuous
 62
     7
370
    15
100
AcDbLine
 10
160.326476576
 20
77.2041544959
 30
0.0
 11
160.3058561324
 21
76.9092684138
 31
0.0
  0
ELLIPSE
  5
1DB
330
1F
100
AcDbEntity
  8
0
  6
Continuous
 62
     7
370
    15
100
AcDbEllipse
 10
155.435646776
 20
70.2330078391
 30
0.0
 11
-6.535361227381628
 21
18.12766902896296
 31
0.0
210
0.0
220
0.0
230
1.0
 40
0.9841672027
 41
4.761272678636987
 42
5.62831121441906
  0
LINE
  5
1DC
330
1F
100
AcDbEntity
  8
0
  6
Continuous
 62
     7
370
    15
100
AcDbLine
 10
172.935646776
 20
67.8000903095
 30
0.0
 11
172.935646776
 21
75.1554729572
 31
0.0
  0
ARC
  5
1DD
330
1F
100
AcDbEntity
  8
0
  6
Continuous
 62
     7
370
    15
100
AcDbCircle
 10
156.435646776
 20
67.8000903095
 30
0.0
 40
16.50000000000005
100
AcDbArc
 50
261.7087285136
 51
0.0
  0
LINE
  5
1DE
330
1F
100
AcDbEntity
  8
0
  6
Continuous
 62
     7
370
    15
100
AcDbLine
 10
155.7440292896
 20
75.6088233506
 30
0.0
 11
154.0562567903
 21
51.472552121
 31
0.0
  0
SPLINE
  5
1DF
330
1F
100
AcDbEntity
  8
0
  6
Continuous
 62
     7
370
    15
100
AcDbSpline
210
0.0
220
0.0
230
1.0
 70
     8
 71
     3
 72
    18
 73
    14
 74
     0
 42
0.00000001
 43
0.00000001
 12
1.0
 22
0.0
 32
0.0
 13
1.0
 23
0.0
 33
0.0
 40
0.0
 40
0.0
 40
0.0
 40
0.0
 40
0.1607084231178368
 40
0.2431165882521569
 40
0.3261380011691999
 40
0.406596977975422
 40
0.4876362786222189
 40
0.5695714867647035
 40
0.6527293248519356
 40
0.7323489557212993
 40
0.89309115079658
 40
0.9751259308645002
 40
1.0
 40
1.0
 40
1.0
 40
1.0
 10
151.8111208685667
 20
83.11719709017287
 30
0.0
 10
152.1116417471903
 20
83.20249980948347
 30
0.0
 10
152.5662639088174
 20
83.33154411024312
 30
0.0
 10
153.1486342677815
 20
83.46067120564466
 30
0.0
 10
153.5721590689977
 20
83.54369703566857
 30
0.0
 10
153.9735730945225
 20
83.61112191687218
 30
0.0
 10
154.3505341146704
 20
83.66507912851654
 30
0.0
 10
154.7053009537155
 20
83.7074891566651
 30
0.0
 10
155.0282906842501
 20
83.73906628470186
 30
0.0
 10
155.4140896469045
 20
83.76928655883474
 30
0.0
 10
155.7279697007092
 20
83.7853102822533
 30
0.0
 10
155.9391227746238
 20
83.792655172605
 30
0.0
 10
156.0012382015854
 20
83.79409803261511
 30
0.0
 10
156.0156903581294
 20
83.79443373728233
 30
0.0
  0
SPLINE
  5
1E0
330
1F
100
AcDbEntity
  8
0
  6
Continuous
 62
     7
370
    15
100
AcDbSpline
210
0.0
220
0.0
230
1.0
 70
     8
 71
     3
 72
    14
 73
    10
 74
     0
 42
0.00000001
 43
0.00000001
 12
1.0
 22
0.0
 32
0.0
 13
1.0
 23
0.0
 33
0.0
 40
0.0
 40
0.0
 40
0.0
 40
0.0
 40
0.2499999999999999
 40
0.2499999999999999
 40
0.4999999999999999
 40
0.4999999999999999
 40
0.7499999999999999
 40
0.7499999999999999
 40
1.0
 40
1.0
 40
1.0
 40
1.0
 10
154.0912361593211
 20
51.97278040348396
 30
0.0
 10
154.0912361593211
 20
51.97278040348395
 30
0.0
 10
153.9829438070176
 20
51.98768604515242
 30
0.0
 10
153.5514409655289
 20
52.06067363301433
 30
0.0
 10
153.2394551655822
 20
52.11709641426746
 30
0.0
 10
152.4314132804069
 20
52.30370194184696
 30
0.0
 10
151.9558905291114
 20
52.42964902581185
 30
0.0
 10
150.8837658388292
 20
52.78358940728383
 30
0.0
 10
150.3139951777265
 20
53.00322485047608
 30
0.0
 10
149.7243971883952
 20
53.2756581700567
 30
0.0
  0
ELLIPSE
  5
1E1
330
1F
100
AcDbEntity
  8
0
  6
Continuous
 62
     7
370
    15
100
AcDbEllipse
 10
147.4010162105
 20
74.2713187128
 30
0.0
 11
1.733036295194239
 21
1.855089312013845
 31
0.0
210
0.0
220
0.0
230
1.0
 40
0.8112573031
 41
0.0
 42
6.283185307179586
  0
ARC
  5
1E2
330
1F
100
AcDbEntity
  8
0
  6
Continuous
 62
     7
370
    15
100
AcDbCircle
 10
156.435646776
 20
67.8000903095
 30
0.0
 40
16.00000000000001
100
AcDbArc
 50
106.8000641757
 51
245.1999358243
  0
SPLINE
  5
1E3
330
1F
100
AcDbEntity
  8
0
  6
Continuous
 62
     7
370
    15
100
AcDbSpline
210
0.0
220
0.0
230
1.0
 70
     8
 71
     3
 72
    34
 73
    30
 74
     0
 42
0.00000001
 43
0.00000001
 12
1.0
 22
0.0
 32
0.0
 13
1.0
 23
0.0
 33
0.0
 40
0.0
 40
0.0
 40
0.0
 40
0.0
 40
0.0025254427562466
 40
0.0502778694666489
 40
0.098321773752612
 40
0.1458626562542379
 40
0.1936291704376522
 40
0.242062744307544
 40
0.2907314471605466
 40
0.3258540436545458
 40
0.3612121374366777
 40
0.384689483908213
 40
0.4085828265253992
 40
0.4265243004123654
 40
0.4449943813723028
 40
0.4629367345481661
 40
0.4812686216582591
 40
0.5060910546204593
 40
0.5311942290162024
 40
0.5823851466333788
 40
0.6378947375390229
 40
0.6936961269603356
 40
0.7503315410030142
 40
0.8072671917929682
 40
0.8535012253269761
 40
0.899953510207557
 40
0.9471953458998603
 40
0.9947685267535227
 40
1.0
 40
1.0
 40
1.0
 40
1.0
 10
145.1340421298555
 20
73.53821212318962
 30
0.0
 10
145.1363693463269
 20
73.5387488074014
 30
0.0
 10
145.1827008205551
 20
73.5494334046581
 30
0.0
 10
145.2758632600645
 20
73.55406733653027
 30
0.0
 10
145.4123945913325
 20
73.55191568335022
 30
0.0
 10
145.5507990015595
 20
73.53266239451065
 30
0.0
 10
145.6910043903677
 20
73.49981298303665
 30
0.0
 10
145.8343558444003
 20
73.4532417795747
 30
0.0
 10
145.9683270041103
 20
73.39939935574641
 30
0.0
 10
146.0938804926058
 20
73.34295418232625
 30
0.0
 10
146.1985433121963
 20
73.2938515452772
 30
0.0
 10
146.2977734778572
 20
73.24852876637755
 30
0.0
 10
146.3823395636404
 20
73.21260219629616
 30
0.0
 10
146.4654993492728
 20
73.18128332294687
 30
0.0
 10
146.5429796504658
 20
73.1558915634462
 30
0.0
 10
146.62093054036
 20
73.13395392876603
 30
0.0
 10
146.7057974730727
 20
73.11311754959124
 30
0.0
 10
146.7968581150456
 20
73.09330149526545
 30
0.0
 10
146.9255155595271
 20
73.06691261353248
 30
0.0
 10
147.0832207194598
 20
73.03394309067824
 30
0.0
 10
147.2651648887122
 20
72.98806785752957
 30
0.0
 10
147.4420145524445
 20
72.93128894450963
 30
0.0
 10
147.6093088495868
 20
72.86231088447877
 30
0.0
 10
147.7561376361116
 20
72.78466999578991
 30
0.0
 10
147.8829315570778
 20
72.7000928564304
 30
0.0
 10
147.9923374754179
 20
72.61096938671042
 30
0.0
 10
148.0890143647283
 20
72.50770099000928
 30
0.0
 10
148.1546859999699
 20
72.4310890978268
 30
0.0
 10
148.179103326842
 20
72.3824802016844
 30
0.0
 10
148.1815224051308
 20
72.37766441140904
 30
0.0
  0
CIRCLE
  5
1E4
330
1F
100
AcDbEntity
  8
0
  6
Continuous
 62
     7
370
    15
100
AcDbCircle
 10
156.435646776
 20
67.8000903095
 30
0.0
 40
31.50000000000007
  0
LINE
  5
1E5
330
1F
100
AcDbEntity
  8
0
  6
Continuous
 62
     7
370
    15
100
AcDbLine
 10
159.6575470703
 20
89.1738163343
 30
0.0
 11
156.4053123156
 21
89.3662873151
 31
0.0
  0
LINE
  5
1E6
330
1F
100
AcDbEntity
  8
0
  6
Continuous
 62
     7
370
    15
100
AcDbLine
 10
156.4053123156
 20
89.3662873151
 30
0.0
 11
156.435646776
 21
89.8000903095
 31
0.0
  0
LINE
  5
1E7
330
1F
100
AcDbEntity
  8
0
  6
Continuous
 62
     7
370
    15
100
AcDbLine
 10
161.1419946711
 20
88.8666065996
 30
0.0
 11
159.6575470703
 21
89.1738163343
 31
0.0
  0
LINE
  5
1E8
330
1F
100
AcDbEntity
  8
0
  6
Continuous
 62
     7
370
    15
100
AcDbLine
 10
160.3283258319
 20
77.2306000874
 30
0.0
 11
161.1419946711
 21
88.8666065996
 31
0.0
  0
LINE
  5
1E9
330
1F
100
AcDbEntity
  8
0
  6
Continuous
 62
     7
370
    15
100
AcDbLine
 10
160.3283258319
 20
77.2306000874
 30
0.0
 11
158.8178468891
 21
77.1655442867
 31
0.0
  0
LINE
  5
1EA
330
1F
100
AcDbEntity
  8
0
  6
Continuous
 62
     7
370
    15
100
AcDbLine
 10
158.8178468891
 20
77.1655442867
 30
0.0
 11
155.5656121344
 21
77.3580152675
 31
0.0
  0
LINE
  5
1EB
330
1F
100
AcDbEntity
  8
0
  6
Continuous
 62
     7
370
    15
100
AcDbLine
 10
155.5656121344
 20
77.3580152675
 30
0.0
 11
156.4053123156
 21
89.3662873151
 31
0.0
  0
LINE
  5
1EC
330
1F
100
AcDbEntity
  8
0
  6
Continuous
 62
     7
370
    15
100
AcDbLine
 10
158.8178468891
 20
77.1655442867
 30
0.0
 11
155.8475570943
 21
77.0112489977
 31
0.0
  0
LINE
  5
1ED
330
1F
100
AcDbEntity
  8
0
  6
Continuous
 62
     7
370
    15
100
AcDbLine
 10
155.8420765363
 20
77.0109643034
 30
0.0
 11
155.5402475936
 21
76.9952854347
 31
0.0
  0
LINE
  5
1EE
330
1F
100
AcDbEntity
  8
0
  6
Continuous
 62
     7
370
    15
100
AcDbLine
 10
155.5402475936
 20
76.9952854347
 30
0.0
 11
155.5656121344
 21
77.3580152675
 31
0.0
  0
LINE
  5
1EF
330
1F
100
AcDbEntity
  8
0
  6
Continuous
 62
     7
370
    15
100
AcDbLine
 10
155.7686122897
 20
75.9603766308
 30
0.0
 11
155.4667833469
 21
75.944697762
 31
0.0
  0
LINE
  5
1F0
330
1F
100
AcDbEntity
  8
0
  6
Continuous
 62
     7
370
    15
100
AcDbLine
 10
160.326476576
 20
77.2041544959
 30
0.0
 11
160.3283258319
 21
77.2306000874
 31
0.0
  0
LINE
  5
1F1
330
1F
100
AcDbEntity
  8
0
  6
Continuous
 62
     7
370
    15
100
AcDbLine
 10
155.4667833469
 20
75.944697762
 30
0.0
 11
155.5402475936
 21
76.9952854347
 31
0.0
  0
LINE
  5
1F2
330
1F
100
AcDbEntity
  8
0
  6
Continuous
 62
     7
370
    15
100
AcDbLine
 10
155.4666771692
 20
75.943179349
 30
0.0
 11
155.4667833469
 21
75.944697762
 31
0.0
  0
CIRCLE
  5
1F3
330
1F
100
AcDbEntity
  8
VERMASSUNG
  6
CENTERX2
100
AcDbCircle
 10
156.435646776
 20
69.7492495112
 30
0.0
 40
19.99999999999999
  0
DIMENSION
  5
1F4
330
1F
100
AcDbEntity
  8
VERMASSUNG
100
AcDbDimension
  2
_D_6
 10
170.5777823998
 20
55.6071138874
 30
0.0
 11
128.9496541895
 21
97.2352620977
 31
0.0
 70
   163
  1
<> min. 
 71
     1
 42
-1.0
  3
SLDDIMSTYLE2
100
AcDbDiametricDimension
 15
142.2935111523
 25
83.8913851349
 35
0.0
 40
0.0
  0
INSERT
  5
20D
330
1F
100
AcDbEntity
  8
VERMASSUNG
100
AcDbBlockReference
  2
SW_CENTERMARKSYMBOL_0
 10
156.435646776
 20
67.8000903095
 30
0.0
  0
OLE2FRAME
  5
20E
330
1F
100
AcDbEntity
  8
0
100
AcDbOle2Frame
 70
     2
  3
Paintbrush-Bild
 10
13.8511154363
 20
38.264191557
 30
0.0
 11
51.6290888628
 21
31.9806341108
 31
0.0
 71
     2
 72
     0
 73
     1
 90
    12928
310
80552BED0767C5B32B40DDAF6807D121434000000000000000006FFBDDFB85D0
310
4940DDAF6807D121434000000000000000006FFBDDFB85D04940416F4BD60AFB
310
3F4000000000000000002BED0767C5B32B40416F4BD60AFB3F40000000000000
310
0000000000000100000000010000010000000100000000000100000000320000
310
D0CF11E0A1B11AE1000000000000000000000000000000003E000300FEFF0900
310
0600000000000000000000000100000001000000000000000010000002000000
310
01000000FEFFFFFF0000000000000000FFFFFFFFFFFFFFFFFFFFFFFFFFFFFFFF
310
FFFFFFFFFFFFFFFFFFFFFFFFFFFFFFFFFFFFFFFFFFFFFFFFFFFFFFFFFFFFFFFF
310
FFFFFFFFFFFFFFFFFFFFFFFFFFFFFFFFFFFFFFFFFFFFFFFFFFFFFFFFFFFFFFFF
310
FFFFFFFFFFFFFFFFFFFFFFFFFFFFFFFFFFFFFFFFFFFFFFFFFFFFFFFFFFFFFFFF
310
FFFFFFFFFFFFFFFFFFFFFFFFFFFFFFFFFFFFFFFFFFFFFFFFFFFFFFFFFFFFFFFF
310
FFFFFFFFFFFFFFFFFFFFFFFFFFFFFFFFFFFFFFFFFFFFFFFFFFFFFFFFFFFFFFFF
310
FFFFFFFFFFFFFFFFFFFFFFFFFFFFFFFFFFFFFFFFFFFFFFFFFFFFFFFFFFFFFFFF
310
FFFFFFFFFFFFFFFFFFFFFFFFFFFFFFFFFFFFFFFFFFFFFFFFFFFFFFFFFFFFFFFF
310
FFFFFFFFFFFFFFFFFFFFFFFFFFFFFFFFFFFFFFFFFFFFFFFFFFFFFFFFFFFFFFFF
310
FFFFFFFFFFFFFFFFFFFFFFFFFFFFFFFFFFFFFFFFFFFFFFFFFFFFFFFFFFFFFFFF
310
FFFFFFFFFFFFFFFFFFFFFFFFFFFFFFFFFFFFFFFFFFFFFFFFFFFFFFFFFFFFFFFF
310
FFFFFFFFFFFFFFFFFFFFFFFFFFFFFFFFFFFFFFFFFFFFFFFFFFFFFFFFFFFFFFFF
310
FFFFFFFFFFFFFFFFFFFFFFFFFFFFFFFFFFFFFFFFFFFFFFFFFFFFFFFFFFFFFFFF
310
FFFFFFFFFFFFFFFFFFFFFFFFFFFFFFFFFFFFFFFFFFFFFFFFFFFFFFFFFFFFFFFF
310
FDFFFFFFFEFFFFFFFEFFFFFFFEFFFFFF05000000060000000700000008000000
310
090000000A0000000B0000000C0000000D0000000E0000000F00000010000000
310
11000000120000001300000014000000150000001600000017000000FEFFFFFF
310
FFFFFFFFFFFFFFFFFFFFFFFFFFFFFFFFFFFFFFFFFFFFFFFFFFFFFFFFFFFFFFFF
310
FFFFFFFFFFFFFFFFFFFFFFFFFFFFFFFFFFFFFFFFFFFFFFFFFFFFFFFFFFFFFFFF
310
FFFFFFFFFFFFFFFFFFFFFFFFFFFFFFFFFFFFFFFFFFFFFFFFFFFFFFFFFFFFFFFF
310
FFFFFFFFFFFFFFFFFFFFFFFFFFFFFFFFFFFFFFFFFFFFFFFFFFFFFFFFFFFFFFFF
310
FFFFFFFFFFFFFFFFFFFFFFFFFFFFFFFFFFFFFFFFFFFFFFFFFFFFFFFFFFFFFFFF
310
FFFFFFFFFFFFFFFFFFFFFFFFFFFFFFFFFFFFFFFFFFFFFFFFFFFFFFFFFFFFFFFF
310
FFFFFFFFFFFFFFFFFFFFFFFFFFFFFFFFFFFFFFFFFFFFFFFFFFFFFFFFFFFFFFFF
310
FFFFFFFFFFFFFFFFFFFFFFFFFFFFFFFFFFFFFFFFFFFFFFFFFFFFFFFFFFFFFFFF
310
FFFFFFFFFFFFFFFFFFFFFFFFFFFFFFFFFFFFFFFFFFFFFFFFFFFFFFFFFFFFFFFF
310
FFFFFFFFFFFFFFFFFFFFFFFFFFFFFFFFFFFFFFFFFFFFFFFFFFFFFFFFFFFFFFFF
310
FFFFFFFFFFFFFFFFFFFFFFFFFFFFFFFFFFFFFFFFFFFFFFFFFFFFFFFFFFFFFFFF
310
FFFFFFFFFFFFFFFFFFFFFFFFFFFFFFFFFFFFFFFFFFFFFFFFFFFFFFFFFFFFFFFF
310
FFFFFFFFFFFFFFFFFFFFFFFFFFFFFFFFFFFFFFFFFFFFFFFFFFFFFFFFFFFFFFFF
310
52006F006F007400200045006E00740072007900000000000000000000000000
310
0000000000000000000000000000000000000000000000000000000000000000
310
16000500FFFFFFFFFFFFFFFF020000000A00030000000000C000000000000046
310
0000000000000000000000002026B4F53042CD0103000000C000000000000000
310
01004F006C006500000000000000000000000000000000000000000000000000
310
0000000000000000000000000000000000000000000000000000000000000000
310
0A000200FFFFFFFFFFFFFFFFFFFFFFFF00000000000000000000000000000000
310
0000000000000000000000000000000000000000000000001400000000000000
310
010043006F006D0070004F0062006A0000000000000000000000000000000000
310
0000000000000000000000000000000000000000000000000000000000000000
310
120002010100000003000000FFFFFFFF00000000000000000000000000000000
310
0000000000000000000000000000000000000000010000004D00000000000000
310
01004F006C006500310030004E00610074006900760065000000000000000000
310
0000000000000000000000000000000000000000000000000000000000000000
310
1A000200FFFFFFFFFFFFFFFFFFFFFFFF00000000000000000000000000000000
310
0000000000000000000000000000000000000000040000002426000000000000
310
FEFFFFFF02000000FEFFFFFFFFFFFFFFFFFFFFFFFFFFFFFFFFFFFFFFFFFFFFFF
310
FFFFFFFFFFFFFFFFFFFFFFFFFFFFFFFFFFFFFFFFFFFFFFFFFFFFFFFFFFFFFFFF
310
FFFFFFFFFFFFFFFFFFFFFFFFFFFFFFFFFFFFFFFFFFFFFFFFFFFFFFFFFFFFFFFF
310
FFFFFFFFFFFFFFFFFFFFFFFFFFFFFFFFFFFFFFFFFFFFFFFFFFFFFFFFFFFFFFFF
310
FFFFFFFFFFFFFFFFFFFFFFFFFFFFFFFFFFFFFFFFFFFFFFFFFFFFFFFFFFFFFFFF
310
FFFFFFFFFFFFFFFFFFFFFFFFFFFFFFFFFFFFFFFFFFFFFFFFFFFFFFFFFFFFFFFF
310
FFFFFFFFFFFFFFFFFFFFFFFFFFFFFFFFFFFFFFFFFFFFFFFFFFFFFFFFFFFFFFFF
310
FFFFFFFFFFFFFFFFFFFFFFFFFFFFFFFFFFFFFFFFFFFFFFFFFFFFFFFFFFFFFFFF
310
FFFFFFFFFFFFFFFFFFFFFFFFFFFFFFFFFFFFFFFFFFFFFFFFFFFFFFFFFFFFFFFF
310
FFFFFFFFFFFFFFFFFFFFFFFFFFFFFFFFFFFFFFFFFFFFFFFFFFFFFFFFFFFFFFFF
310
FFFFFFFFFFFFFFFFFFFFFFFFFFFFFFFFFFFFFFFFFFFFFFFFFFFFFFFFFFFFFFFF
310
FFFFFFFFFFFFFFFFFFFFFFFFFFFFFFFFFFFFFFFFFFFFFFFFFFFFFFFFFFFFFFFF
310
FFFFFFFFFFFFFFFFFFFFFFFFFFFFFFFFFFFFFFFFFFFFFFFFFFFFFFFFFFFFFFFF
310
FFFFFFFFFFFFFFFFFFFFFFFFFFFFFFFFFFFFFFFFFFFFFFFFFFFFFFFFFFFFFFFF
310
FFFFFFFFFFFFFFFFFFFFFFFFFFFFFFFFFFFFFFFFFFFFFFFFFFFFFFFFFFFFFFFF
310
FFFFFFFFFFFFFFFFFFFFFFFFFFFFFFFFFFFFFFFFFFFFFFFFFFFFFFFFFFFFFFFF
310
0100000200000000000000000000000000000000000000000000000000000000
310
0000000000000000000000000000000000000000000000000000000000000000
310
0100FEFF030A0000FFFFFFFF0A00030000000000C00000000000004607000000
310
5042727573680007000000504272757368000700000050427275736800F439B2
310
7100000000000000000000000000000000000000000000000000000000000000
310
0000000000000000000000000000000000000000000000000000000000000000
310
0000000000000000000000000000000000000000000000000000000000000000
310
0000000000000000000000000000000000000000000000000000000000000000
310
0000000000000000000000000000000000000000000000000000000000000000
310
0000000000000000000000000000000000000000000000000000000000000000
310
0000000000000000000000000000000000000000000000000000000000000000
310
0000000000000000000000000000000000000000000000000000000000000000
310
0000000000000000000000000000000000000000000000000000000000000000
310
0000000000000000000000000000000000000000000000000000000000000000
310
0000000000000000000000000000000000000000000000000000000000000000
310
0000000000000000000000000000000000000000000000000000000000000000
310
20260000424D0E260000000000003E00000028000000B40200006E0000000100
310
01000000000000000000130B0000130B00000200000002000000000000FFFFFF
310
FFFFFFFFFFFFFFFFFFFFFFFFFFFFFFFFFFFFFFFFFFFFFFFFFFFFFFFFFFFFFFFF
310
FFFFFFFFFFFFFFFFFFFFFFFFFFFFFFFFFFFFFFFFFFFFFFFFFFFFFFFFFFFFFFFF
310
FFFFFFFFFFFFFFFFFFFFFFFFFFFFFFFFFFFFFFFFFFFFFFFFF000FFFFFFFFFFFF
310
FFFFFFFFFFFFFFFFFFFFFFFFFFFFFFFFFFFFFFFFFFFFFFFFFFFFFFFFFFFFFFFF
310
FFFFFFFFFFFFFFFFFFFFFFFFFFFFFFFFFFFFFFFFFFFFFFFFFFFFFFFFFFFFFFFF
310
FFFFFFFFFFFFFFFFFFFFFFFFFFFFFFFFF000FFFFFFFFFFFFFFFFFFFFFFFFFFFF
310
FFFFFFFFFFFFFFFFFFFFFFFFFFFFFFFFFFFFFFFFFFFFFFFFFFFFFFFFFFFFFFFF
310
FFFFFFFFFFFFFFFFFFFFFFFFFFFFFFFFFFFFFFFFFFFFFFFFFFFFFFFFFFFFFFFF
310
FFFFFFFFFFFFFFFFF000FFFFFFFFFFFFFFFFFFFFFFFFFFFFFFFFFFFFFFFFFFFF
310
FFFFFFFFFFFFFFFFFFFFFFFFFFFFFFFFFFFFFFFFFFFFFFFFFFFFFFFFFFFFFFFF
310
FFFFFFFFFFFFFFFFFFFFFFFFFFFFFFFFFFFFFFFFFFFFFFFFFFFFFFFFFFFFFFFF
310
F000FFFFFFFFFFFFFFFFFFFFFFFFFFFFFFFFFFFFFFFFFFFFFFFFFFFFFFFFFFFF
310
FFFFFFFFFFFFFFFFFFFFFFFFFFFFFFFFFFFFFFFFFFFFFFFFFFFFFFFFFFFFFFFF
310
FFFFFFFFFFFFFFFFFFFFFFFFFFFFFFFFFFFFFFFFFFFFFFFFF000FFFFFFFFFFFF
310
FFFFFFFFFFFFFFFFFFFFFFFFFFFFFFFFFFFFFFFFFFFFFFFFFFFFFFFFFFFFFFFF
310
FFFFFFFFFFFFFFFFFFFFFFFFFFFFFFFFFFFFFFFFFFFFFFFFFFFFFFFFFFFFFFFF
310
FFFFFFFFFFFFFFFFFFFFFFFFFFFFFFFFF000FFFFFFFFFFFFFFFFFFFFFFFFFFFF
310
FFFFFFFFFFFFFFFFFFFFFFFFFFFFFFFFFFFFFFFFFFFFFFFFFFFFFFFFFFFFFFFF
310
FFFFFFFFFFFFFFFFFFFFFFFFFFFFFFFFFFFFFFFFFFFFFFFFFFFFFFFFFFFFFFFF
310
FFFFFFFFFFFFFFFFF000FFFFFFFFFFFFFFFFFFFFFFFFFFFFFFFFFFFFFFFFFFFF
310
FFFFFFFFFFFFFFFFFFFFFFFFFFFFFFFFFFFFFFFFFFFFFFFFFFFFFFFFFFFFFFFF
310
FFFFFFFFFFFFFFFFFFFFFFFFFFFFFFFFFFFFFFFFFFFFFFFFFFFFFFFFFFFFFFFF
310
F000FFFFFFFFFFFFFFFFFFFFFFFFFFFFFFFFFFFFFFFFFFFFFFFFFFFFFFFFFFFF
310
FFFFFFFFFFFFFFFFFFFFFFFFFFFFFFFFFFFFFFFFFFFFFFFFFFFFFFFFFFFFFFFF
310
FFFFFFFFFFFFFFFFFFFFFFFFFFFFFFFFFFFFFFFFFFFFFFFFF000FFFFFFFFFFFF
310
FFFFFFFFFFFFFFFFFFFFFFFFFFFFFFFFFFFFFFFFFFFFFFFFFFFFFFFFFFFFFFFF
310
FFFFFFFFFFFFFFFFFFFFFFFFFFFFFFFFFFFFFFFFFFFFFFFFFFFFFFFFFFFFFFFF
310
FFFFFFFFFFFFFFFFFFFFFFFFFFFFFFFFF000FFFFFFFFFFFFFFFFFFFFFFFFFFFF
310
FFFFFFFFFFFFFFFFFFFFFFFFFFFFFFFFFFFFFFFFFFFFFFFFFFFFFFFFFFFFFFFF
310
FFFFFFFFFFFFFFFFFFFFFFFFFFFFFFFFFFFFFFFFFFFFFFFFFFFFFFFFFFFFFFFF
310
FFFFFFFFFFFFFFFFF000FFFFFFFFFFFFFFFFFFFFFFFFFFFFFFFFFFFFFFFFFFFF
310
FFFFFFFFFFFFFFFFFFFFFFFFFFFFFFFFFFFFFFFFFFFFFFFFFFFFFFFFFFFFFFFF
310
FFFFFFFFFFFFFFFFFFFFFFFFFFFFFFFFFFFFFFFFFFFFFFFFFFFFFFFFFFFFFFFF
310
F000FFFFFFFFFFFFFFFFFFFFFFFFFFFFFFFFFFFFFFFFFFFFFFFFFFFFFFFFFFFF
310
FFFFFFFFFFFFFFFFFFFFFFFFFFFFFFFFFFFFFFFFFFFFFFFFFFFFFFFFFFFFFFFF
310
FFFFFFFFFFFFFFFFFFFFFFFFFFFFFFFFFFFFFFFFFFFFFFFFF000FFFFFFFFFFFF
310
FFFFFFFFFFFFFFFFFFFFFFFFFFFFFFFFFFFFFFFFFFFFFFFFFFFFFFFFFFFFFFFF
310
FFFFFFFFFFFFFFFFFFFFFFFFFFFFFFFFFFFFFFFFFFFFFFFFFFFFFFFFFFFFFFFF
310
FFFFFFFFFFFFFFFFFFFFFFFFFFFFFFFFF000FFFFFFFFFFFFFFFFFFFFFFFFFFFF
310
FFFFFFFFFFFFFFFFFFFFFFFFFFFFFFFFFFFFFFFFFFFFFFFFFFFFFFFFFFFFFFFF
310
FFFFFFFFFFFFFFFFFFFFFFFFFFFFFFFFFFFFFFFFFFFFFFFFFFFFFFFFFFFFFFFF
310
FFFFFFFFFFFFFFFFF000FFFFFFFFFFFFFFFFFFFFFFFFFFFFFFFFFFFFFFFFFFFF
310
FFFFFFFFFFFFFFFFFFFFFFFFFFFFFFFFFFFFFFFFFFFFFFFFFFFFFFFFFFFFFFFF
310
FFFFFFFFFFFFFFFFFFFFFFFFFFFFFFFFFFFFFFFFFFFFFFFFFFFFFFFFFFFFFFFF
310
F000FFFFFFFFFFFFFFFFFFFFFFFFFFFFFFFFFFFFFFFFFFFFFFFFFFFFFFFFFFFF
310
FFFFFFFFFFFFFFFFFFFFFFFFFFFFFFFFFFFFFFFFFFFFFFFFFFFFFFFFFFFFFFFF
310
FFFFFFFFFFFFFFFFFFFFFFFFFFFFFFFFFFFFFFFFFFFFFFFFF000FFFFFFFFFFFF
310
FFFFFFFFFFFFFFFFFFFFFFFFFFFFFFFFFFFFFFFFFFFFFFFFFFFFFFFFFFFFFFFF
310
FFFFFFFFFFFFFFFFFFFFFFFFFFFFFFFFFFFFFFFFFFFFFFFFFFFFFFFFFFFFFFFF
310
FFFFFFFFFFFFFFFFFFFFFFFFFFFFFFFFF000FFFFFFFFFFFFFFFFFFFFFFFFFFFF
310
FFFFFFFFFFFFFFFFFFFFFFFFFFFFFFFFFFFFFFFFFFFFFFFFFFFFFFFFFFFFFFFF
310
FFFFFFFFFFFFFFFFFFFFFFFFFFFFFFFFFFFFFFFFFFFFFFFFFFFFFFFFFFFFFFFF
310
FFFFFFFFFFFFFFFFF000FFFFF80003FFFFFFFFFFFFFFFFFFFFFFFFFFFFFFFFFF
310
FFFFF00007FFFFFFFFFF00007FFFFFF800000000000000007FFFFFFFFFFFFFFF
310
FFFFFFFC001FFFFFFFFFFFFFFC001FFFFFFFFFFFFFFFFFFFFFFFFFFE0007FFFF
310
F000FFFF8000007FFFFFFFF8000FFFFFC0007FFFFF80007FFFFF0000007FFFFF
310
FFF8000007FFFFF800000000000000007FFFFFF0001FFFFFFFFFFFC00001FFFF
310
FFFFFFFFC00001FFFFFFFF000000000003FFFFE000007FFFF000FFFE0000000F
310
FFFFFFF0000FFFFF80007FFFFF80007FFFFC0000001FFFFFFFC0000001FFFFF8
310
00000000000000007FFFFFF0001FFFFFFFFFFE0000003FFFFFFFFFFE0000003F
310
FFFFFF000000000003FFFF0000000FFFF000FFF800000003FFFFFFF00007FFFF
310
80007FFFFF80007FFFF000000007FFFFFF000000003FFFF80000000000000000
310
7FFFFFF0001FFFFFFFFFF80000000FFFFFFFFFF80000000FFFFFFF0000000000
310
03FFFC00000003FFF000FFE000000000FFFFFFF00007FFFF80003FFFFF80007F
310
FFC000000001FFFFFC000000001FFFF800000000000000007FFFFFF0001FFFFF
310
FFFFE000000003FFFFFFFFE000000003FFFFFF000000000003FFF000000000FF
310
F000FF80000000007FFFFFF00007FFFF80003FFFFF80007FFF8000000000FFFF
310
F80000000007FFF800000000000000007FFFFFF0001FFFFFFFFFC000000001FF
310
FFFFFFC000000001FFFFFF000000000003FFC0000000007FF000FF0000000000
310
3FFFFFE00007FFFF00003FFFFF80007FFE00000000003FFFF00000000003FFF8
310
00000000000000007FFFFFF0001FFFFFFFFF8000000000FFFFFFFF8000000000
310
FFFFFF000000000003FF80000000003FF000FE00000000001FFFFFE00003FFFF
310
00003FFFFF80007FFC00000000001FFFE00000000001FFF8000001FFFE000000
310
7FFFFFF0001FFFFFFFFE00000000003FFFFFFE00000000003FFFFF0000000000
310
03FF00000000001FF000FC00000000000FFFFFE00003FFFF00001FFFFF80007F
310
F800000000001FFFC00000000000FFF8000001FFFE0000007FFFFFF0001FFFFF
310
FFFC00000000001FFFFFFC00000000001FFFFF000000000003FE00000000000F
310
F000F8000000000007FFFFE00003FFFF00001FFFFF80007FF800000000000FFF
310
800000000000FFF8000001FFFE0000007FFFFFF0001FFFFFFFF800000000000F
310
FFFFF800000000000FFFFF000000000003FC000000000007F000F80000000000
310
03FFFFC00003FFFE00001FFFFF80007FF0000000000007FF0000000000007FF8
310
000001FFFE0000007FFFFFF0001FFFFFFFF0000000000007FFFFF00000000000
310
07FFFF000000000003F8000000000003F000F0000000000003FFFFC00001FFFE
310
00001FFFFF80007FE0000000000007FE0000000000003FF8000001FFFE000000
310
7FFFFFF0001FFFFFFFF0000000000007FFFFF0000000000007FFFF0000000000
310
03F800001F800003F000E00001FFF00001FFFFC00001FFFE00000FFFFF80007F
310
E00001FFE00003FE00001FFF00003FF8000001FFFE0000007FFFFFF0001FFFFF
310
FFE000003E000003FFFFE000003E000003FFFF000000000003F00001FFF80001
310
F000E00007FFFC0001FFFFC00001FFFE00000FFFFF80007FC0000FFFFC0003FC
310
0000FFFFC0001FF8000001FFFE0000007FFFFFF0001FFFFFFFC00003FFE00001
310
FFFFC00003FFE00001FFFF0001FFFFFFFFF00007FFFE0001F000E0000FFFFF00
310
00FFFF800001FFFC00000FFFFF80007FC0001FFFFE0001FC0001FFFFE0001FF8
310
000001FFFE0000007FFFFFF0001FFFFFFF80000FFFF80000FFFF80000FFFF800
310
00FFFF0003FFFFFFFFE0000FFFFF8000F000C0003FFFFF8000FFFF800000FFFC
310
000007FFFF80007F80003FFFFF0001FC0003FFFFF0001FF8000001FFFE000000
310
7FFFFFF0001FFFFFFF80003FFFFE0000FFFF80003FFFFE0000FFFF0003FFFFFF
310
FFE0003FFFFF8000F000C0003FFFFF8000FFFF800000FFFC000007FFFF80007F
310
80007FFFFF8001F80007FFFFF8000FF8000001FFFE0000007FFFFFF0001FFFFF
310
FF00007FFFFF00007FFF00007FFFFF00007FFF0003FFFFFFFFE0003FFFFFC000
310
F000C0007FFFFFC000FFFF000000FFFC000007FFFF80007F8000FFFFFF8000F8
310
000FFFFFF8000FF8000001FFFE0000007FFFFFF0001FFFFFFF0000FFFFFF8000
310
7FFF0000FFFFFF80007FFF0003FFFFFFFFC0007FFFFFC00070008000FFFFFFC0
310
00FFFF000000FFF8000007FFFF80007F8000FFFFFF8000F8000FFFFFF8000FF8
310
000001FFFE0000007FFFFFF0001FFFFFFE0001FFFFFFC0003FFE0001FFFFFFC0
310
003FFF0003FFFFFFFFC0007FFFFFE00070008000FFFFFFC0007FFF0000007FF8
310
000003FFFF80007F0001FFFFFF8000F8000FFFFFF8000FF8000001FFFE000000
310
7FFFFFF0001FFFFFFE0001FFFFFFC0003FFE0001FFFFFFC0003FFF0003FFFFFF
310
FFC000FFFFFFE00070008000FFFFFFC0007FFF0000007FF8000003FFFF80007F
310
0001FFFFFF8000F8001FFFFFF8000FF8000001FFFE0000007FFFFFF0001FFFFF
310
FE0003FFFFFFE0003FFE0003FFFFFFE0003FFF0003FFFFFFFFC000FFFFFFE000
310
70008000FFFFFFC0007FFE0000007FF8000003FFFF80007F0001FFFFFF8000F0
310
001FFFFFF8000FF8000001FFFE0000007FFFFFF0001FFFFFFC0003FFFFFFE000
310
1FFC0003FFFFFFE0001FFF0003FFFFFFFFC000FFFFFFC00070008000FFFFFF80
310
007FFE0000007FF0000003FFFF80007F0001FFFFFF0000F0001FFFFFF8000FF8
310
000001FFFE0000007FFFFFF0001FFFFFFC0007FFFFFFF0001FFC0007FFFFFFF0
310
001FFF0003FFFFFFFFC000FFFFFFC00070008001FFFFFF0000FFFE0000003FF0
310
000001FFFF80007F0001FFFFFF0000F8001FFFFFF0000FF8000001FFFE000000
310
7FFFFFF0001FFFFFFC0007FFFFFFF0001FFC0007FFFFFFF0001FFF0003FFFFFF
310
FFC001FFFFFF80007000FFFFFFFFFE0000FFFE0008003FF0008001FFFF80007F
310
FFFFFFFFFC0000FFFFFFFFFFE0000FF8000001FFFE0000007FFFFFF0001FFFFF
310
F8000FFFFFFFF8000FF8000FFFFFFFF8000FFF0003FFFFFFFFFFFFFFFFFF0000
310
7000FFFFFFFFFC0000FFFC0008003FF0008001FFFF80007FFFFFFFFFF80001FF
310
FFFFFFFF80000FF8000001FFFE0000007FFFFFF0001FFFFFF8000FFFFFFFF800
310
0FF8000FFFFFFFF8000FFF0003FFFFFFFFFFFFFFFFFE0000F000FFFFFFFFE000
310
00FFFC000C003FE000C001FFFF80007FFFFFFFFFC00001FFFFFFFFFE00001FF8
310
000001FFFE0000007FFFFFF0001FFFFFF8000FFFFFFFF8000FF8000FFFFFFFF8
310
000FFF0003FFFFFFFFFFFFFFFFF00000F000FFFFFFFE000001FFFC000C001FE0
310
00C000FFFF80007FFFFFFFFE000001FFFFFFFFE000001FF80FFFFFFFFFFFFFC0
310
7FFFFFF0001FFFFFF8000FFFFFFFF8000FF8000FFFFFFFF8000FFF0003FFFFFF
310
FFFFFFFFFF800000F000FFFFFFC0000001FFFC001C001FE001C000FFFF80007F
310
FFFFFF80000003FFFFFFF80000001FF80FFFFFFFFFFFFFC07FFFFFF0001FFFFF
310
F8001FFFFFFFFC000FF8001FFFFFFFFC000FFF0003FFFFFFFFFFFFFFF0000001
310
F000FFFFF800000001FFF8001C001FE001C000FFFF80007FFFFFF800000003FF
310
FFFF800000003FF80FFFFFFFFFFFFFC07FFFFFF0001FFFFFF8001FFFFFFFFC00
310
0FF8001FFFFFFFFC000FFF0003FFFFFFFFFFFFFE00000001F000FFFFC0000000
310
03FFF8001E001FC001E000FFFF80007FFFFF8000000007FFFFFC000000003FF8
310
0FFFFFFFFFFFFFC07FFFFFF0001FFFFFF8001FFFFFFFFC000FF8001FFFFFFFFC
310
000FFF0003FFFFFFFFFFFFE000000003F000FFFE0000000007FFF8001E000FC0
310
01E0007FFF80007FFFFE0000000007FFFFE0000000007FF80FFFFFFFFFFFFFC0
310
7FFFFFF0001FFFFFF0001FFFFFFFFC0007F0001FFFFFFFFC0007FF0003FFFFFF
310
FFFFFF0000000003F000FFF80000000007FFF8001E000FC003E0007FFF80007F
310
FFF0000000000FFFFF8000000000FFF80FFFFFFFFFFFFFC07FFFFFF0001FFFFF
310
F0001FFFFFFFFC0007F0001FFFFFFFFC0007FF0003FFFFFFFFFFFC0000000007
310
F000FFE0000000000FFFF0003E000FC003E0007FFF80007FFFC0000000001FFF
310
FE0000000001FFF80FFFFFFFFFFFFFC07FFFFFF0001FFFFFF0001FFFFFFFFC00
310
07F0001FFFFFFFFC0007FF0003FFFFFFFFFFF0000000000FF000FFC000000000
310
1FFFF0003F000F8003F0003FFF80007FFF80000000003FFFF80000000003FFF8
310
0FFFFFFFFFFFFFC07FFFFFF0001FFFFFF0001FFFFFFFFC0007F0001FFFFFFFFC
310
0007FF0003FFFFFFFFFFE0000000001FF000FF00000000007FFFF0003F000780
310
03F0003FFF80007FFF00000000007FFFF00000000007FFF80FFFFFFFFFFFFFC0
310
7FFFFFF0001FFFFFF0001FFFFFFFFC0007F0001FFFFFFFFC0007FF0003FFFFFF
310
FFFF80000000007FF000FE0000000000FFFFE0003F00078007F0003FFF80007F
310
FE0000000001FFFFE0000000001FFFF80FFFFFFFFFFFFFC07FFFFFF0001FFFFF
310
F0001FFFFFFFFC0007F0001FFFFFFFFC0007FF0003FFFFFFFFFF0000000000FF
310
F000FC0000000003FFFFE0007F00078007F0003FFF80007FFC0000000007FFFF
310
C0000000007FFFF80FFFFFFFFFFFFFC07FFFFFF0001FFFFFF8001FFFFFFFFC00
310
0FF8001FFFFFFFFC000FFF0003FFFFFFFFFE0000000003FFF000FC000000000F
310
FFFFE0007F80070007F8001FFF80007FF8000000001FFFFF8000000001FFFFF8
310
0FFFFFFFFFFFFFC07FFFFFF0001FFFFFF8001FFFFFFFFC000FF8001FFFFFFFFC
310
000FFF0003FFFFFFFFFC000000000FFFF000F8000000007FFFFFE0007F800700
310
07F8001FFF80007FF000000000FFFFFF800000000FFFFFF80FFFFFFFFFFFFFC0
310
7FFFFFF0001FFFFFF8000FFFFFFFF8000FF8000FFFFFFFF8000FFF0003FFFFFF
310
FFFC000000007FFFF000F800000007FFFFFFC0007F8003000FF8001FFF80007F
310
F000000007FFFFFF000000007FFFFFF80FFFFFFFFFFFFFC07FFFFFF0001FFFFF
310
F8000FFFFFFFF8000FF8000FFFFFFFF8000FFF0003FFFFFFFFF80000000FFFFF
310
F000F0000000FFFFFFFFC000FF8003000FF8001FFF80007FE0000000FFFFFFFF
310
0000000FFFFFFFF8000001FFFE0000007FFFFFF0001FFFFFF8000FFFFFFFF800
310
0FF8000FFFFFFFF8000FFF0003FFFFFFFFF8000000FFFFFFF000F000000FFFFF
310
FFFFC000FFC002000FF8000FFF80007FE000001FFFFFFFFE000001FFFFFFFFF8
310
000001FFFE0000007FFFFFF0001FFFFFF8000FFFFFFFF8000FF8000FFFFFFFF8
310
000FFF0003FFFFFFFFF000001FFFFFFFF000E00000FFFFFFFFFFC000FFC00200
310
0FFC000FFF80007FE00001FFFFFFFFFE00001FFFFFFFFFF8000001FFFE000000
310
7FFFFFF0001FFFFFFC000FFFFFFFF8001FFC000FFFFFFFF8001FFF0003FFFFFF
310
FFF00001FFFFFFFFF000E00007FFFFFFFFFF8000FFC000001FFC000FFF80007F
310
C0000FFFFFFFFFFE0000FFFFFFFFFFF8000001FFFE0000007FFFFFF0001FFFFF
310
FC0007FFFFFFF0001FFC0007FFFFFFF0001FFF0003FFFFFFFFF00007FFFFFFFF
310
F000E0001FFFFFFFFFFF8000FFC000001FFC000FFF80007FC0003FFFFFFFFFFE
310
0001FFFFFFFFFFF8000001FFFE0000007FFFFFF0001FFFFFFC0007FFFFFFF000
310
1FFC0007FFFFFFF0001FFF0003FFFFFFFFF0001FFFFFFFFFF000E0003FFFFF00
310
03FF8001FFE000001FFC0007FF80007FC0007FFFFF0007FC0003FFFFF0003FF8
310
000001FFFE0000007FFFFFF0001FFFFFFC0003FFFFFFE0001FFC0003FFFFFFE0
310
001FFF0003FFFFFFFFF0003FFFFFFFFFF000E0003FFFFF0001FF8001FFE00000
310
1FFE0007FF80007FC0007FFFFE0003FC0007FFFFE0003FF8000001FFFE000000
310
7FFFFFF0001FFFFFFE0003FFFFFFE0003FFE0003FFFFFFE0003FFF0003FFFFFF
310
FFF0003FFFFF8001F000E0003FFFFF0001FF0001FFE000001FFE0007FF80007F
310
C0007FFFFE0003FC0007FFFFE0003FF8000001FFFE0000007FFFFFF0001FFFFF
310
FE0001FFFFFFC0003FFE0001FFFFFFC0003FFF0003FFFFFFFFF0003FFFFF0001
310
F000E0003FFFFF0003FF0001FFE000003FFE0007FF80007FC0007FFFFE0003FC
310
0007FFFFE0003FF8000001FFFE0000007FFFFFF0001FFFFFFF0001FFFFFFC000
310
7FFF0001FFFFFFC0007FFF0003FFFFFFFFF0003FFFFF0001F000E0003FFFFE00
310
03FF0003FFF000003FFE0003FF80007FC0007FFFFC0003FE0007FFFFE0003FF8
310
000001FFFE0000007FFFFFF0001FFFFFFF0000FFFFFF80007FFF0000FFFFFF80
310
007FFF0003FFFFFFFFF0003FFFFF0001F000E0003FFFFE0003FF0003FFF00000
310
3FFF0003FF80007FC0007FFFFC0007FE0007FFFFC0003FF8000001FFFE000000
310
7FFFFFF0001FFFFFFF80007FFFFF0000FFFF80007FFFFF0000FFFF0003FFFFFF
310
FFF0003FFFFF0003F000E0003FFFFC0003FE0003FFF000003FFF0003FF80007F
310
E0003FFFF80007FE0003FFFFC0007FF8000001FFFE0000007FFFFFF0001FFFFF
310
FF80003FFFFE0000FFFF80003FFFFE0000FFFF0003FFFFFFFFF0001FFFFE0003
310
F000F0001FFFF80003FE0003FFF000007FFF0001FF80007FE0003FFFF00007FE
310
0001FFFF80007FF8000001FFFE0000007FFFFFF0001FFFFFFFC0000FFFF80001
310
FFFFC0000FFFF80001FFFF0003FFFFFFFFF0001FFFFC0003F000F0000FFFF000
310
07FE0007FFF800007FFF0001FF80007FE0001FFFE00007FF0000FFFE00007FF8
310
000001FFFE0000007FFFFFF0001FFFFFFFC00003FFE00001FFFFC00003FFE000
310
01FFFF0003FFFFFFFFF8000FFFF80003F000F00003FFC00007FC0007FFF80000
310
7FFF8001FF80007FF00007FF80000FFF00007FF80000FFF8000001FFFE000000
310
7F80000000000001FFE000003E000003FFFFE000003E000003FFFF0003FFFFFF
310
FFF80003FFE00007F000F800000000000FFC0007FFF800007FFF8001FF80007F
310
F000000000000FFF000000000000FFF8000001FFFE0000007F80000000000001
310
FFF0000000000007FFFFF0000000000007FFFF0003FFFFFFFFFC00007E000007
310
F000F800000000000FFC0007FFF80000FFFF8000FF80007FF800000000001FFF
310
800000000001FFF8000001FFFE0000007F80000000000001FFF800000000000F
310
FFFFF800000000000FFFFF0003FFFFFFFFFC00000000000FF000FC0000000000
310
1FFC0007FFFC0000FFFF8000FF80007FF800000000003FFFC00000000001FFF8
310
000001FFFE0000007F80000000000001FFF800000000000FFFFFF80000000000
310
0FFFFF0003FFFFFFFFFE00000000001FF000FE00000000003FF8000FFFFC0000
310
FFFF8000FF80007FFC00000000003FFFC00000000003FFF8000001FFFE000000
310
7F80000000000001FFFC00000000001FFFFFFC00000000001FFFFF0003FFFFFF
310
FFFF00000000001FF000FF00000000003FF8000FFFFC0000FFFFC000FF80007F
310
FE00000000007FFFE00000000007FFF8000001FFFE0000007F80000000000001
310
FFFE00000000003FFFFFFE00000000003FFFFF0003FFFFFFFFFF80000000003F
310
F000FF80000000007FF8000FFFFC0001FFFFC0007F80007FFF0000000000FFFF
310
F0000000000FFFF800000000000000007F80000000000001FFFF8000000000FF
310
FFFFFF8000000000FFFFFF0003FFFFFFFFFFC0000000007FF000FFC000000000
310
FFF8000FFFFE0001FFFFC0007F80007FFF8000000001FFFFF8000000001FFFF8
310
00000000000000007F80000000000001FFFFC000000001FFFFFFFFC000000001
310
FFFFFF0003FFFFFFFFFFE000000000FFF000FFE000000003FFF0001FFFFE0001
310
FFFFC0007F80007FFFC000000007FFFFFE000000003FFFF80000000000000000
310
7F80000000000001FFFFE000000003FFFFFFFFE000000003FFFFFF0003FFFFFF
310
FFFFF000000003FFF000FFF80000000FFFF0001FFFFE0001FFFFE0007F80007F
310
FFF00000000FFFFFFF00000000FFFFF800000000000000007F80000000000001
310
FFFFF80000000FFFFFFFFFF80000000FFFFFFF0003FFFFFFFFFFFC0000000FFF
310
F000FFFE0000003FFFF0001FFFFE0003FFFFE0003F80007FFFFC0000003FFFFF
310
FFC0000003FFFFF800000000000000007F80000000000001FFFFFE0000003FFF
310
FFFFFFFE0000003FFFFFFF0003FFFFFFFFFFFF0000003FFFF000FFFF800000FF
310
FFF0001FFFFF0003FFFFE0003F80007FFFFF000001FFFFFFFFF800001FFFFFF8
310
00000000000000007F80000000000001FFFFFFC00001FFFFFFFFFFFFC00001FF
310
FFFFFF0003FFFFFFFFFFFFC00000FFFFF000FFFFF8000FFFFFFFFFFFFFFFFFFF
310
FFFFFFFFFFFFFFFFFFFFF0001FFFFFFFFFFF0000FFFFFFF80000000000000000
310
7FFFFFFFFFFFFFFFFFFFFFFC001FFFFFFFFFFFFFFC001FFFFFFFFFFFFFFFFFFF
310
FFFFFFFC001FFFFFF000FFFFFFFFFFFFFFFFFFFFFFFFFFFFFFFFFFFFFFFFFFFF
310
FFFFFFFFFFFFFFFFFFFFFFFFFFFFFFFFFFFFFFFFFFFFFFFFFFFFFFFFFFFFFFFF
310
FFFFFFFFFFFFFFFFFFFFFFFFFFFFFFFFFFFFFFFFFFFFFFFFFFFFFFFFFFFFFFFF
310
F000FFFFFFFFFFFFFFFFFFFFFFFFFFFFFFFFFFFFFFFFFFFFFFFFFFFFFFFFFFFF
310
FFFFFFFFFFFFFFFFFFFFFFFFFFFFFFFFFFFFFFFFFFFFFFFFFFFFFFFFFFFFFFFF
310
FFFFFFFFFFFFFFFFFFFFFFFFFFFFFFFFFFFFFFFFFFFFFFFFF000FFFFFFFFFFFF
310
FFFFFFFFFFFFFFFFFFFFFFFFFFFFFFFFFFFFFFFFFFFFFFFFFFFFFFFFFFFFFFFF
310
FFFFFFFFFFFFFFFFFFFFFFFFFFFFFFFFFFFFFFFFFFFFFFFFFFFFFFFFFFFFFFFF
310
FFFFFFFFFFFFFFFFFFFFFFFFFFFFFFFFF000FFFFFFFFFFFFFFFFFFFFFFFFFFFF
310
FFFFFFFFFFFFFFFFFFFFFFFFFFFFFFFFFFFFFFFFFFFFFFFFFFFFFFFFFFFFFFFF
310
FFFFFFFFFFFFFFFFFFFFFFFFFFFFFFFFFFFFFFFFFFFFFFFFFFFFFFFFFFFFFFFF
310
FFFFFFFFFFFFFFFFF000FFFFFFFFFFFFFFFFFFFFFFFFFFFFFFFFFFFFFFFFFFFF
310
FFFFFFFFFFFFFFFFFFFFFFFFFFFFFFFFFFFFFFFFFFFFFFFFFFFFFFFFFFFFFFFF
310
FFFFFFFFFFFFFFFFFFFFFFFFFFFFFFFFFFFFFFFFFFFFFFFFFFFFFFFFFFFFFFFF
310
F000FFFFFFFFFFFFFFFFFFFFFFFFFFFFFFFFFFFFFFFFFFFFFFFFFFFFFFFFFFFF
310
FFFFFFFFFFFFFFFFFFFFFFFFFFFFFFFFFFFFFFFFFFFFFFFFFFFFFFFFFFFFFFFF
310
FFFFFFFFFFFFFFFFFFFFFFFFFFFFFFFFFFFFFFFFFFFFFFFFF000FFFFFFFFFFFF
310
FFFFFFFFFFFFFFFFFFFFFFFFFFFFFFFFFFFFFFFFFFFFFFFFFFFFFFFFFFFFFFFF
310
FFFFFFFFFFFFFFFFFFFFFFFFFFFFFFFFFFFFFFFFFFFFFFFFFFFFFFFFFFFFFFFF
310
FFFFFFFFFFFFFFFFFFFFFFFFFFFFFFFFF000FFFFFFFFFFFFFFFFFFFFFFFFFFFF
310
FFFFFFFFFFFFFFFFFFFFFFFFFFFFFFFFFFFFFFFFFFFFFFFFFFFFFFFFFFFFFFFF
310
FFFFFFFFFFFFFFFFFFFFFFFFFFFFFFFFFFFFFFFFFFFFFFFFFFFFFFFFFFFFFFFF
310
FFFFFFFFFFFFFFFFF000FFFFFFFFFFFFFFFFFFFFFFFFFFFFFFFFFFFFFFFFFFFF
310
FFFFFFFFFFFFFFFFFFFFFFFFFFFFFFFFFFFFFFFFFFFFFFFFFFFFFFFFFFFFFFFF
310
FFFFFFFFFFFFFFFFFFFFFFFFFFFFFFFFFFFFFFFFFFFFFFFFFFFFFFFFFFFFFFFF
310
F000FFFFFFFFFFFFFFFFFFFFFFFFFFFFFFFFFFFFFFFFFFFFFFFFFFFFFFFFFFFF
310
FFFFFFFFFFFFFFFFFFFFFFFFFFFFFFFFFFFFFFFFFFFFFFFFFFFFFFFFFFFFFFFF
310
FFFFFFFFFFFFFFFFFFFFFFFFFFFFFFFFFFFFFFFFFFFFFFFFF000FFFFFFFFFFFF
310
FFFFFFFFFFFFFFFFFFFFFFFFFFFFFFFFFFFFFFFFFFFFFFFFFFFFFFFFFFFFFFFF
310
FFFFFFFFFFFFFFFFFFFFFFFFFFFFFFFFFFFFFFFFFFFFFFFFFFFFFFFFFFFFFFFF
310
FFFFFFFFFFFFFFFFFFFFFFFFFFFFFFFFF000FFFFFFFFFFFFFFFFFFFFFFFFFFFF
310
FFFFFFFFFFFFFFFFFFFFFFFFFFFFFFFFFFFFFFFFFFFFFFFFFFFFFFFFFFFFFFFF
310
FFFFFFFFFFFFFFFFFFFFFFFFFFFFFFFFFFFFFFFFFFFFFFFFFFFFFFFFFFFFFFFF
310
FFFFFFFFFFFFFFFFF000FFFFFFFFFFFFFFFFFFFFFFFFFFFFFFFFFFFFFFFFFFFF
310
FFFFFFFFFFFFFFFFFFFFFFFFFFFFFFFFFFFFFFFFFFFFFFFFFFFFFFFFFFFFFFFF
310
FFFFFFFFFFFFFFFFFFFFFFFFFFFFFFFFFFFFFFFFFFFFFFFFFFFFFFFFFFFFFFFF
310
F000FFFFFFFFFFFFFFFFFFFFFFFFFFFFFFFFFFFFFFFFFFFFFFFFFFFFFFFFFFFF
310
FFFFFFFFFFFFFFFFFFFFFFFFFFFFFFFFFFFFFFFFFFFFFFFFFFFFFFFFFFFFFFFF
310
FFFFFFFFFFFFFFFFFFFFFFFFFFFFFFFFFFFFFFFFFFFFFFFFF000FFFFFFFFFFFF
310
FFFFFFFFFFFFFFFFFFFFFFFFFFFFFFFFFFFFFFFFFFFFFFFFFFFFFFFFFFFFFFFF
310
FFFFFFFFFFFFFFFFFFFFFFFFFFFFFFFFFFFFFFFFFFFFFFFFFFFFFFFFFFFFFFFF
310
FFFFFFFFFFFFFFFFFFFFFFFFFFFFFFFFF000FFFFFFFFFFFFFFFFFFFFFFFFFFFF
310
FFFFFFFFFFFFFFFFFFFFFFFFFFFFFFFFFFFFFFFFFFFFFFFFFFFFFFFFFFFFFFFF
310
FFFFFFFFFFFFFFFFFFFFFFFFFFFFFFFFFFFFFFFFFFFFFFFFFFFFFFFFFFFFFFFF
310
FFFFFFFFFFFFFFFFF000FFFFFFFFFFFFFFFFFFFFFFFFFFFFFFFFFFFFFFFFFFFF
310
FFFFFFFFFFFFFFFFFFFFFFFFFFFFFFFFFFFFFFFFFFFFFFFFFFFFFFFFFFFFFFFF
310
FFFFFFFFFFFFFFFFFFFFFFFFFFFFFFFFFFFFFFFFFFFFFFFFFFFFFFFFFFFFFFFF
310
F000FFFFFFFFFFFFFFFFFFFFFFFFFFFFFFFFFFFFFFFFFFFFFFFFFFFFFFFFFFFF
310
FFFFFFFFFFFFFFFFFFFFFFFFFFFFFFFFFFFFFFFFFFFFFFFFFFFFFFFFFFFFFFFF
310
FFFFFFFFFFFFFFFFFFFFFFFFFFFFFFFFFFFFFFFFFFFFFFFFF000FFFFFFFFFFFF
310
FFFFFFFFFFFFFFFFFFFFFFFFFFFFFFFFFFFFFFFFFFFFFFFFFFFFFFFFFFFFFFFF
310
FFFFFFFFFFFFFFFFFFFFFFFFFFFFFFFFFFFFFFFFFFFFFFFFFFFFFFFFFFFFFFFF
310
FFFFFFFFFFFFFFFFFFFFFFFFFFFFFFFFF000FFFFFFFFFFFFFFFFFFFFFFFFFFFF
310
FFFFFFFFFFFFFFFFFFFFFFFFFFFFFFFFFFFFFFFFFFFFFFFFFFFFFFFFFFFFFFFF
310
FFFFFFFFFFFFFFFFFFFFFFFFFFFFFFFFFFFFFFFFFFFFFFFFFFFFFFFFFFFFFFFF
310
FFFFFFFFFFFFFFFFF000FFFFFFFFFFFFFFFFFFFFFFFFFFFFFFFFFFFFFFFFFFFF
310
FFFFFFFFFFFFFFFFFFFFFFFFFFFFFFFFFFFFFFFFFFFFFFFFFFFFFFFFFFFFFFFF
310
FFFFFFFFFFFFFFFFFFFFFFFFFFFFFFFFFFFFFFFFFFFFFFFFFFFFFFFFFFFFFFFF
310
F000FFFFFFFFFFFFFFFFFFFFFFFFFFFFFFFFFFFFFFFFFFFFFFFFFFFFFFFFFFFF
310
FFFFFFFFFFFFFFFFFFFFFFFFFFFFFFFFFFFFFFFFFFFFFFFFFFFFFFFFFFFFFFFF
310
FFFFFFFFFFFFFFFFFFFFFFFFFFFFFFFFFFFFFFFFFFFFFFFFF000FFFFFFFFFFFF
310
FFFFFFFFFFFFFFFFFFFFFFFFFFFFFFFFFFFFFFFFFFFFFFFFFFFFFFFFFFFFFFFF
310
FFFFFFFFFFFFFFFFFFFFFFFFFFFFFFFFFFFFFFFFFFFFFFFFFFFFFFFFFFFFFFFF
310
FFFFFFFFFFFFFFFFFFFFFFFFFFFFFFFFF0000000000000000000000000000000
310
0000000000000000000000000000000000000000000000000000000000000000
310
0000000000000000000000000000000000000000000000000000000000000000
310
0000000000000000000000000000000000000000000000000000000000000000
310
0000000000000000000000000000000000000000000000000000000000000000
310
0000000000000000000000000000000000000000000000000000000000000000
310
0000000000000000000000000000000000000000000000000000000000000000
310
0000000000000000000000000000000000000000000000000000000000000000
310
0000000000000000000000000000000000000000000000000000000000000000
310
0000000000000000000000000000000000000000000000000000000000000000
310
0000000000000000000000000000000000000000000000000000000000000000
310
0000000000000000000000000000000000000000000000000000000000000000
310
0000000000000000000000000000000000000000000000000000000000000000
310
0000000000000000000000000000000000000000000000000000000000000000
310
0000000000000000000000000000000000000000000000000000000000000000
310
0000000000000000000000000000000000000000000000000000000000000000
  1
OLE
  0
ENDSEC
  0
SECTION
  2
OBJECTS
  0
DICTIONARY
  5
C
330
0
100
AcDbDictionary
281
     1
  3
ACAD_GROUP
350
D
  3
ACAD_LAYOUT
350
1A
  3
ACAD_MLINESTYLE
350
17
  3
ACAD_PLOTSETTINGS
350
19
  3
ACAD_PLOTSTYLENAME
350
E
  0
DICTIONARY
  5
D
102
{ACAD_REACTORS
330
C
102
}
330
C
100
AcDbDictionary
281
     1
  0
DICTIONARY
  5
1A
102
{ACAD_REACTORS
330
C
102
}
330
C
100
AcDbDictionary
281
     1
  3
Layout1
350
1E
  3
Layout2
350
26
  3
Model
350
22
  0
DICTIONARY
  5
17
102
{ACAD_REACTORS
330
C
102
}
330
C
100
AcDbDictionary
281
     1
  3
Standard
350
18
  0
DICTIONARY
  5
19
102
{ACAD_REACTORS
330
C
102
}
330
C
100
AcDbDictionary
281
     1
  0
ACDBDICTIONARYWDFLT
  5
E
102
{ACAD_REACTORS
330
C
102
}
330
C
100
AcDbDictionary
281
     1
  3
Normal
350
F
100
AcDbDictionaryWithDefault
340
F
  0
LAYOUT
  5
1E
102
{ACAD_REACTORS
330
1A
102
}
330
1A
100
AcDbPlotSettings
  1

  2
none_device
  4

  6

 40
0.0
 41
0.0
 42
0.0
 43
0.0
 44
0.0
 45
0.0
 46
0.0
 47
0.0
 48
0.0
 49
0.0
140
0.0
141
0.0
142
1.0
143
1.0
 70
   688
 72
     0
 73
     0
 74
     5
  7

 75
    16
147
1.0
148
0.0
149
0.0
100
AcDbLayout
  1
Layout1
 70
     1
 71
     1
 10
0.0
 20
0.0
 11
420.0
 21
297.0
 12
0.0
 22
0.0
 32
0.0
 14
1.0000000000E+20
 24
1.0000000000E+20
 34
1.0000000000E+20
 15
-1.0000000000E+20
 25
-1.0000000000E+20
 35
-1.0000000000E+20
146
0.0
 13
0.0
 23
0.0
 33
0.0
 16
1.0
 26
0.0
 36
0.0
 17
0.0
 27
1.0
 37
0.0
 76
     0
330
1B
  0
LAYOUT
  5
26
102
{ACAD_REACTORS
330
1A
102
}
330
1A
100
AcDbPlotSettings
  1

  2
none_device
  4

  6

 40
0.0
 41
0.0
 42
0.0
 43
0.0
 44
0.0
 45
0.0
 46
0.0
 47
0.0
 48
0.0
 49
0.0
140
0.0
141
0.0
142
1.0
143
1.0
 70
   688
 72
     0
 73
     0
 74
     5
  7

 75
    16
147
1.0
148
0.0
149
0.0
100
AcDbLayout
  1
Layout2
 70
     1
 71
     2
 10
0.0
 20
0.0
 11
0.0
 21
0.0
 12
0.0
 22
0.0
 32
0.0
 14
0.0
 24
0.0
 34
0.0
 15
0.0
 25
0.0
 35
0.0
146
0.0
 13
0.0
 23
0.0
 33
0.0
 16
1.0
 26
0.0
 36
0.0
 17
0.0
 27
1.0
 37
0.0
 76
     0
330
23
  0
LAYOUT
  5
22
102
{ACAD_REACTORS
330
1A
102
}
330
1A
100
AcDbPlotSettings
  1

  2
none_device
  4

  6

 40
0.0
 41
0.0
 42
0.0
 43
0.0
 44
0.0
 45
0.0
 46
0.0
 47
0.0
 48
0.0
 49
0.0
140
0.0
141
0.0
142
1.0
143
1.0
 70
  1712
 72
     0
 73
     0
 74
     0
  7

 75
     0
147
1.0
148
0.0
149
0.0
100
AcDbLayout
  1
Model
 70
     1
 71
     0
 10
0.0
 20
0.0
 11
297.0
 21
210.0
 12
0.0
 22
0.0
 32
0.0
 14
0.0
 24
0.0
 34
0.0
 15
297.0
 25
210.0
 35
0.0
146
0.0
 13
0.0
 23
0.0
 33
0.0
 16
1.0
 26
0.0
 36
0.0
 17
0.0
 27
1.0
 37
0.0
 76
     0
330
1F
331
29
  0
MLINESTYLE
  5
18
102
{ACAD_REACTORS
330
17
102
}
330
17
100
AcDbMlineStyle
  2
Standard
 70
     0
  3

 62
   256
 51
90.0
 52
90.0
 71
     2
 49
0.5
 62
   256
  6
BYLAYER
 49
-0.5
 62
   256
  6
BYLAYER
  0
ACDBPLACEHOLDER
  5
F
102
{ACAD_REACTORS
330
E
102
}
330
E
  0
ENDSEC
  0
EOF
