  0
SECTION
  2
HEADER
  9
$ACADVER
  1
AC1015
  9
$ACADMAINTVER
 70
     6
  9
$DWGCODEPAGE
  3
ANSI_1252
  9
$INSBASE
 10
0.0
 20
0.0
 30
0.0
  9
$EXTMIN
 10
0.0
 20
0.0
 30
0.0
  9
$EXTMAX
 10
297.0
 20
210.0
 30
0.0
  9
$LIMMIN
 10
0.0
 20
0.0
  9
$LIMMAX
 10
297.0
 20
210.0
  9
$ORTHOMODE
 70
     0
  9
$REGENMODE
 70
     1
  9
$FILLMODE
 70
     1
  9
$QTEXTMODE
 70
     0
  9
$MIRRTEXT
 70
     1
  9
$LTSCALE
 40
1.0
  9
$ATTMODE
 70
     1
  9
$TEXTSIZE
 40
2.0
  9
$TRACEWID
 40
1.0
  9
$TEXTSTYLE
  7
Standard
  9
$CLAYER
  8
0
  9
$CELTYPE
  6
ByLayer
  9
$CECOLOR
 62
   256
  9
$CELTSCALE
 40
1.0
  9
$DISPSILH
 70
     0
  9
$DIMSCALE
 40
1.0
  9
$DIMASZ
 40
3.0
  9
$DIMEXO
 40
0.0
  9
$DIMDLI
 40
3.75
  9
$DIMRND
 40
0.0
  9
$DIMDLE
 40
0.0
  9
$DIMEXE
 40
1.0
  9
$DIMTP
 40
0.0
  9
$DIMTM
 40
0.0
  9
$DIMTXT
 40
2.0
  9
$DIMCEN
 40
2.5
  9
$DIMTSZ
 40
0.0
  9
$DIMTOL
 70
     0
  9
$DIMLIM
 70
     0
  9
$DIMTIH
 70
     1
  9
$DIMTOH
 70
     1
  9
$DIMSE1
 70
     0
  9
$DIMSE2
 70
     0
  9
$DIMTAD
 70
     1
  9
$DIMZIN
 70
     0
  9
$DIMBLK
  1

  9
$DIMASO
 70
     1
  9
$DIMSHO
 70
     1
  9
$DIMPOST
  1

  9
$DIMAPOST
  1

  9
$DIMALT
 70
     0
  9
$DIMALTD
 70
     3
  9
$DIMALTF
 40
0.0393700787
  9
$DIMLFAC
 40
1.0
  9
$DIMTOFL
 70
     1
  9
$DIMTVP
 40
0.0
  9
$DIMTIX
 70
     0
  9
$DIMSOXD
 70
     0
  9
$DIMSAH
 70
     0
  9
$DIMBLK1
  1

  9
$DIMBLK2
  1

  9
$DIMSTYLE
  2
ISO-25
  9
$DIMCLRD
 70
     0
  9
$DIMCLRE
 70
     0
  9
$DIMCLRT
 70
     0
  9
$DIMTFAC
 40
1.0
  9
$DIMGAP
 40
1.524
  9
$DIMJUST
 70
     0
  9
$DIMSD1
 70
     0
  9
$DIMSD2
 70
     0
  9
$DIMTOLJ
 70
     0
  9
$DIMTZIN
 70
     0
  9
$DIMALTZ
 70
     0
  9
$DIMALTTZ
 70
     0
  9
$DIMUPT
 70
     0
  9
$DIMDEC
 70
     2
  9
$DIMTDEC
 70
     3
  9
$DIMALTU
 70
     2
  9
$DIMALTTD
 70
     3
  9
$DIMTXSTY
  7
Standard
  9
$DIMAUNIT
 70
     0
  9
$DIMADEC
 70
     2
  9
$DIMALTRND
 40
0.0
  9
$DIMAZIN
 70
     0
  9
$DIMDSEP
 70
    44
  9
$DIMATFIT
 70
     3
  9
$DIMFRAC
 70
     0
  9
$DIMLDRBLK
  1

  9
$DIMLUNIT
 70
     2
  9
$DIMLWD
 70
    -2
  9
$DIMLWE
 70
    -2
  9
$DIMTMOVE
 70
     0
  9
$LUNITS
 70
     2
  9
$LUPREC
 70
     2
  9
$SKETCHINC
 40
1.0
  9
$FILLETRAD
 40
10.0
  9
$AUNITS
 70
     0
  9
$AUPREC
 70
     2
  9
$MENU
  1
.
  9
$ELEVATION
 40
0.0
  9
$PELEVATION
 40
0.0
  9
$THICKNESS
 40
0.0
  9
$LIMCHECK
 70
     0
  9
$CHAMFERA
 40
10.0
  9
$CHAMFERB
 40
10.0
  9
$CHAMFERC
 40
20.0
  9
$CHAMFERD
 40
0.0
  9
$SKPOLY
 70
     0
  9
$TDCREATE
 40
2456080.619782245
  9
$TDUCREATE
 40
2456080.536448912
  9
$TDUPDATE
 40
2456080.619783866
  9
$TDUUPDATE
 40
2456080.536450532
  9
$TDINDWG
 40
0.0000000116
  9
$TDUSRTIMER
 40
0.0000000116
  9
$USRTIMER
 70
     1
  9
$ANGBASE
 50
0.0
  9
$ANGDIR
 70
     0
  9
$PDMODE
 70
     0
  9
$PDSIZE
 40
-1.0
  9
$PLINEWID
 40
0.0
  9
$SPLFRAME
 70
     0
  9
$SPLINETYPE
 70
     6
  9
$SPLINESEGS
 70
     8
  9
$HANDSEED
  5
227
  9
$SURFTAB1
 70
     6
  9
$SURFTAB2
 70
     6
  9
$SURFTYPE
 70
     6
  9
$SURFU
 70
     6
  9
$SURFV
 70
     6
  9
$UCSBASE
  2

  9
$UCSNAME
  2

  9
$UCSORG
 10
0.0
 20
0.0
 30
0.0
  9
$UCSXDIR
 10
1.0
 20
0.0
 30
0.0
  9
$UCSYDIR
 10
0.0
 20
1.0
 30
0.0
  9
$UCSORTHOREF
  2

  9
$UCSORTHOVIEW
 70
     0
  9
$UCSORGTOP
 10
0.0
 20
0.0
 30
0.0
  9
$UCSORGBOTTOM
 10
0.0
 20
0.0
 30
0.0
  9
$UCSORGLEFT
 10
0.0
 20
0.0
 30
0.0
  9
$UCSORGRIGHT
 10
0.0
 20
0.0
 30
0.0
  9
$UCSORGFRONT
 10
0.0
 20
0.0
 30
0.0
  9
$UCSORGBACK
 10
0.0
 20
0.0
 30
0.0
  9
$PUCSBASE
  2

  9
$PUCSNAME
  2

  9
$PUCSORG
 10
0.0
 20
0.0
 30
0.0
  9
$PUCSXDIR
 10
1.0
 20
0.0
 30
0.0
  9
$PUCSYDIR
 10
0.0
 20
1.0
 30
0.0
  9
$PUCSORTHOREF
  2

  9
$PUCSORTHOVIEW
 70
     0
  9
$PUCSORGTOP
 10
0.0
 20
0.0
 30
0.0
  9
$PUCSORGBOTTOM
 10
0.0
 20
0.0
 30
0.0
  9
$PUCSORGLEFT
 10
0.0
 20
0.0
 30
0.0
  9
$PUCSORGRIGHT
 10
0.0
 20
0.0
 30
0.0
  9
$PUCSORGFRONT
 10
0.0
 20
0.0
 30
0.0
  9
$PUCSORGBACK
 10
0.0
 20
0.0
 30
0.0
  9
$USERI1
 70
     0
  9
$USERI2
 70
     0
  9
$USERI3
 70
     0
  9
$USERI4
 70
     0
  9
$USERI5
 70
     0
  9
$USERR1
 40
0.0
  9
$USERR2
 40
0.0
  9
$USERR3
 40
0.0
  9
$USERR4
 40
0.0
  9
$USERR5
 40
0.0
  9
$WORLDVIEW
 70
     1
  9
$SHADEDGE
 70
     3
  9
$SHADEDIF
 70
    70
  9
$TILEMODE
 70
     1
  9
$MAXACTVP
 70
    64
  9
$PINSBASE
 10
0.0
 20
0.0
 30
0.0
  9
$PLIMCHECK
 70
     0
  9
$PEXTMIN
 10
1.0000000000E+20
 20
1.0000000000E+20
 30
1.0000000000E+20
  9
$PEXTMAX
 10
-1.0000000000E+20
 20
-1.0000000000E+20
 30
-1.0000000000E+20
  9
$PLIMMIN
 10
0.0
 20
0.0
  9
$PLIMMAX
 10
420.0
 20
297.0
  9
$UNITMODE
 70
     0
  9
$VISRETAIN
 70
     1
  9
$PLINEGEN
 70
     0
  9
$PSLTSCALE
 70
     1
  9
$TREEDEPTH
 70
  3020
  9
$CMLSTYLE
  2
Standard
  9
$CMLJUST
 70
     0
  9
$CMLSCALE
 40
20.0
  9
$PROXYGRAPHICS
 70
     1
  9
$MEASUREMENT
 70
     1
  9
$CELWEIGHT
370
    -1
  9
$ENDCAPS
280
     0
  9
$JOINSTYLE
280
     0
  9
$LWDISPLAY
290
     1
  9
$INSUNITS
 70
     4
  9
$HYPERLINKBASE
  1

  9
$STYLESHEET
  1

  9
$XEDIT
290
     1
  9
$CEPSNTYPE
380
     0
  9
$PSTYLEMODE
290
     1
  9
$FINGERPRINTGUID
  2
{CF111653-3453-471A-86C1-C7312226C2C4}
  9
$VERSIONGUID
  2
{FAEB1C32-E019-11D5-929B-00C0DF256EC4}
  9
$EXTNAMES
290
     1
  9
$PSVPSCALE
 40
0.0
  9
$OLESTARTUP
290
     0
  0
ENDSEC
  0
SECTION
  2
CLASSES
  0
CLASS
  1
ACDBDICTIONARYWDFLT
  2
AcDbDictionaryWithDefault
  3
ObjectDBX Classes
 90
        0
280
     0
281
     0
  0
CLASS
  1
VISUALSTYLE
  2
AcDbVisualStyle
  3
ObjectDBX Classes
 90
     4095
280
     0
281
     0
  0
CLASS
  1
MATERIAL
  2
AcDbMaterial
  3
ObjectDBX Classes
 90
     1153
280
     0
281
     0
  0
CLASS
  1
ACDBPLACEHOLDER
  2
AcDbPlaceHolder
  3
ObjectDBX Classes
 90
        0
280
     0
281
     0
  0
CLASS
  1
LAYOUT
  2
AcDbLayout
  3
ObjectDBX Classes
 90
        0
280
     0
281
     0
  0
ENDSEC
  0
SECTION
  2
TABLES
  0
TABLE
  2
VPORT
  5
8
330
0
100
AcDbSymbolTable
 70
     1
  0
VPORT
  5
29
330
8
100
AcDbSymbolTableRecord
100
AcDbViewportTableRecord
  2
*Active
 70
     0
 10
0.0
 20
0.0
 11
1.0
 21
1.0
 12
148.5
 22
105.0
 13
0.0
 23
0.0
 14
10.0
 24
10.0
 15
10.0
 25
10.0
 16
0.0
 26
0.0
 36
1.0
 17
0.0
 27
0.0
 37
0.0
 40
210.0
 41
1.4142857143
 42
50.0
 43
0.0
 44
0.0
 50
0.0
 51
0.0
 71
     0
 72
  2000
 73
     1
 74
     3
 75
     0
 76
     0
 77
     0
 78
     0
281
     0
 65
     1
110
0.0
120
0.0
130
0.0
111
1.0
121
0.0
131
0.0
112
0.0
122
1.0
132
0.0
 79
     0
146
0.0
  0
ENDTAB
  0
TABLE
  2
LTYPE
  5
5
330
0
100
AcDbSymbolTable
 70
     6
  0
LTYPE
  5
14
330
5
100
AcDbSymbolTableRecord
100
AcDbLinetypeTableRecord
  2
ByBlock
 70
     0
  3

 72
    65
 73
     0
 40
0.0
  0
LTYPE
  5
15
330
5
100
AcDbSymbolTableRecord
100
AcDbLinetypeTableRecord
  2
ByLayer
 70
     0
  3

 72
    65
 73
     0
 40
0.0
  0
LTYPE
  5
16
330
5
100
AcDbSymbolTableRecord
100
AcDbLinetypeTableRecord
  2
Continuous
 70
     0
  3
Solid line
 72
    65
 73
     0
 40
0.0
  0
LTYPE
  5
3F
330
5
100
AcDbSymbolTableRecord
100
AcDbLinetypeTableRecord
  2
HIDDEN
 70
     0
  3
Hidden __ __ __ __ __ __ __ __ __ __ __ __ __ __
 72
    65
 73
     2
 40
1.905
 49
1.27
 74
     0
 49
-0.635
 74
     0
  0
LTYPE
  5
40
330
5
100
AcDbSymbolTableRecord
100
AcDbLinetypeTableRecord
  2
PHANTOM
 70
     0
  3
Phantom ______  __  __  ______  __  __  ______
 72
    65
 73
     6
 40
12.7
 49
6.35
 74
     0
 49
-1.27
 74
     0
 49
1.27
 74
     0
 49
-1.27
 74
     0
 49
1.27
 74
     0
 49
-1.27
 74
     0
  0
LTYPE
  5
41
330
5
100
AcDbSymbolTableRecord
100
AcDbLinetypeTableRecord
  2
CENTER
 70
     0
  3
Center ____ _ ____ _ ____ _ ____ _ ____ _ ____
 72
    65
 73
     4
 40
10.16
 49
6.35
 74
     0
 49
-1.27
 74
     0
 49
1.27
 74
     0
 49
-1.27
 74
     0
  0
LTYPE
  5
42
330
5
100
AcDbSymbolTableRecord
100
AcDbLinetypeTableRecord
  2
CENTERX2
 70
     0
  3
Center (2x) ________  __  ________  __  _____
 72
    65
 73
     4
 40
20.32
 49
12.7
 74
     0
 49
-2.54
 74
     0
 49
2.54
 74
     0
 49
-2.54
 74
     0
  0
LTYPE
  5
43
330
5
100
AcDbSymbolTableRecord
100
AcDbLinetypeTableRecord
  2
DOT2
 70
     0
  3
Dot (.5x) ........................................
 72
    65
 73
     2
 40
0.635
 49
0.0
 74
     0
 49
-0.635
 74
     0
  0
ENDTAB
  0
TABLE
  2
LAYER
  5
2
330
0
100
AcDbSymbolTable
 70
     5
  0
LAYER
  5
10
330
2
100
AcDbSymbolTableRecord
100
AcDbLayerTableRecord
  2
0
 70
     0
 62
     7
  6
Continuous
370
    -3
390
F
  0
LAYER
  5
44
330
2
100
AcDbSymbolTableRecord
100
AcDbLayerTableRecord
  2
FORMAT
 70
     0
 62
     7
  6
Continuous
370
    -3
390
F
  0
LAYER
  5
45
330
2
100
AcDbSymbolTableRecord
100
AcDbLayerTableRecord
  2
VERMASSUNG
 70
     0
 62
     7
  6
Continuous
370
    -3
390
F
  0
LAYER
  5
46
330
2
100
AcDbSymbolTableRecord
100
AcDbLayerTableRecord
  2
KOPF_DÜNN
 70
     0
 62
     7
  6
Continuous
370
    -3
390
F
  0
LAYER
  5
47
330
2
100
AcDbSymbolTableRecord
100
AcDbLayerTableRecord
  2
KOPF_DICK
 70
     0
 62
     7
  6
Continuous
370
    15
390
F
  0
ENDTAB
  0
TABLE
  2
STYLE
  5
3
330
0
100
AcDbSymbolTable
 70
     2
  0
STYLE
  5
11
330
3
100
AcDbSymbolTableRecord
100
AcDbTextStyleTableRecord
  2
Standard
 70
     0
 40
0.0
 41
1.0
 50
0.0
 71
     0
 42
2.0
  3
txt
  4

  0
STYLE
  5
48
330
3
100
AcDbSymbolTableRecord
100
AcDbTextStyleTableRecord
  2
SLDTEXTSTYLE0
 70
     0
 40
0.0
 41
0.7
 50
0.0
 71
     0
 42
0.2
  3
TXT
  4

  0
ENDTAB
  0
TABLE
  2
VIEW
  5
6
330
0
100
AcDbSymbolTable
 70
     0
  0
ENDTAB
  0
TABLE
  2
UCS
  5
7
330
0
100
AcDbSymbolTable
 70
     0
  0
ENDTAB
  0
TABLE
  2
APPID
  5
9
330
0
100
AcDbSymbolTable
 70
     1
  0
APPID
  5
12
330
9
100
AcDbSymbolTableRecord
100
AcDbRegAppTableRecord
  2
ACAD
 70
     0
  0
ENDTAB
  0
TABLE
  2
DIMSTYLE
  5
A
330
0
100
AcDbSymbolTable
 70
     5
100
AcDbDimStyleTable
  0
DIMSTYLE
105
27
330
A
100
AcDbSymbolTableRecord
100
AcDbDimStyleTableRecord
  2
ISO-25
 70
     0
 41
2.5
 42
0.625
 43
3.75
 44
1.25
 73
     0
 74
     0
 77
     1
 78
     8
140
2.5
141
2.5
143
0.0393700787
147
0.625
171
     3
172
     1
178
     0
271
     2
272
     2
274
     3
278
    44
283
     0
284
     8
340
11
  0
DIMSTYLE
105
19C
102
{ACAD_REACTORS
330
19B
330
1A6
330
1B0
330
1C4
330
1D0
102
}
330
A
100
AcDbSymbolTableRecord
100
AcDbDimStyleTableRecord
  2
SLDDIMSTYLE0
 70
     0
 41
3.0
 44
0.0
 45
0.000000001
 73
     0
 74
     0
 77
     1
 78
    12
 79
     3
140
2.0
147
0.5
173
     1
178
     0
271
     2
272
     3
276
     2
284
    12
340
48
  0
DIMSTYLE
105
1BB
102
{ACAD_REACTORS
330
1BA
102
}
330
A
100
AcDbSymbolTableRecord
100
AcDbDimStyleTableRecord
  2
SLDDIMSTYLE1
 70
     0
 41
3.0
 44
0.0
 73
     0
 74
     0
 77
     1
 78
    12
 79
     3
140
2.0
147
0.5
173
     1
178
     0
179
     1
272
     3
276
     2
284
    12
340
48
  0
DIMSTYLE
105
1FF
102
{ACAD_REACTORS
330
1FE
102
}
330
A
100
AcDbSymbolTableRecord
100
AcDbDimStyleTableRecord
  2
SLDDIMSTYLE2
 70
     0
 41
3.0
 44
0.0
 45
0.000000001
 73
     0
 74
     0
 77
     1
 78
    12
 79
     3
140
2.0
147
0.5
172
     1
173
     1
178
     0
271
     2
272
     3
276
     2
284
    12
289
     0
340
48
  0
DIMSTYLE
105
20E
102
{ACAD_REACTORS
330
20D
102
}
330
A
100
AcDbSymbolTableRecord
100
AcDbDimStyleTableRecord
  2
SLDDIMSTYLE3
 70
     0
 41
3.0
 44
0.0
 73
     0
 74
     0
 77
     1
 78
    12
 79
     3
140
2.0
147
0.5
173
     1
178
     0
179
     2
272
     3
276
     2
284
    12
340
48
  0
ENDTAB
  0
TABLE
  2
BLOCK_RECORD
  5
1
330
0
100
AcDbSymbolTable
 70
    10
  0
BLOCK_RECORD
  5
1F
330
1
100
AcDbSymbolTableRecord
100
AcDbBlockTableRecord
  2
*Model_Space
340
22
  0
BLOCK_RECORD
  5
1B
330
1
100
AcDbSymbolTableRecord
100
AcDbBlockTableRecord
  2
*Paper_Space
340
1E
  0
BLOCK_RECORD
  5
23
330
1
100
AcDbSymbolTableRecord
100
AcDbBlockTableRecord
  2
*Paper_Space0
340
26
  0
BLOCK_RECORD
  5
19D
330
1
100
AcDbSymbolTableRecord
100
AcDbBlockTableRecord
  2
_D
340
0
  0
BLOCK_RECORD
  5
1A7
330
1
100
AcDbSymbolTableRecord
100
AcDbBlockTableRecord
  2
_D_1
340
0
  0
BLOCK_RECORD
  5
1B1
330
1
100
AcDbSymbolTableRecord
100
AcDbBlockTableRecord
  2
_D_2
340
0
  0
BLOCK_RECORD
  5
1BC
330
1
100
AcDbSymbolTableRecord
100
AcDbBlockTableRecord
  2
_D_3
340
0
  0
BLOCK_RECORD
  5
1C5
330
1
100
AcDbSymbolTableRecord
100
AcDbBlockTableRecord
  2
_D_4
340
0
  0
BLOCK_RECORD
  5
1D1
330
1
100
AcDbSymbolTableRecord
100
AcDbBlockTableRecord
  2
_D_5
340
0
  0
BLOCK_RECORD
  5
200
330
1
100
AcDbSymbolTableRecord
100
AcDbBlockTableRecord
  2
_D_6
340
0
  0
BLOCK_RECORD
  5
20F
330
1
100
AcDbSymbolTableRecord
100
AcDbBlockTableRecord
  2
_D_7
340
0
  0
BLOCK_RECORD
  5
21A
330
1
100
AcDbSymbolTableRecord
100
AcDbBlockTableRecord
  2
SW_CENTERMARKSYMBOL_0
340
0
102
{BLKREFS
331
225
102
}
  0
ENDTAB
  0
ENDSEC
  0
SECTION
  2
BLOCKS
  0
BLOCK
  5
20
330
1F
100
AcDbEntity
  8
0
100
AcDbBlockBegin
  2
*Model_Space
 70
     0
 10
0.0
 20
0.0
 30
0.0
  3
*Model_Space
  1

  0
ENDBLK
  5
21
330
1F
100
AcDbEntity
  8
0
100
AcDbBlockEnd
  0
BLOCK
  5
1C
330
1B
100
AcDbEntity
 67
     1
  8
0
100
AcDbBlockBegin
  2
*Paper_Space
 70
     0
 10
0.0
 20
0.0
 30
0.0
  3
*Paper_Space
  1

  0
ENDBLK
  5
1D
330
1B
100
AcDbEntity
 67
     1
  8
0
100
AcDbBlockEnd
  0
BLOCK
  5
24
330
23
100
AcDbEntity
  8
0
100
AcDbBlockBegin
  2
*Paper_Space0
 70
     0
 10
0.0
 20
0.0
 30
0.0
  3
*Paper_Space0
  1

  0
ENDBLK
  5
25
330
23
100
AcDbEntity
  8
0
100
AcDbBlockEnd
  0
BLOCK
  5
19E
330
19D
100
AcDbEntity
  8
0
100
AcDbBlockBegin
  2
_D
 70
     0
 10
0.0
 20
0.0
 30
0.0
  3
_D
  1

  0
SOLID
  5
1A0
330
19D
100
AcDbEntity
  8
VERMASSUNG
100
AcDbTrace
 10
136.4813092647
 20
156.0685744151
 30
0.0
 11
139.4813092647
 21
155.6185744151
 31
0.0
 12
139.4813092647
 22
156.5185744151
 32
0.0
 13
139.4813092647
 23
156.5185744151
 33
0.0
  0
SOLID
  5
1A1
330
19D
100
AcDbEntity
  8
VERMASSUNG
100
AcDbTrace
 10
276.4813092647
 20
156.0685744151
 30
0.0
 11
273.4813092647
 21
156.5185744151
 31
0.0
 12
273.4813092647
 22
155.6185744151
 32
0.0
 13
273.4813092647
 23
155.6185744151
 33
0.0
  0
LINE
  5
1A2
330
19D
100
AcDbEntity
  8
VERMASSUNG
100
AcDbLine
 10
136.4813092647
 20
145.5685744151
 30
0.0
 11
136.4813092647
 21
157.0685744151
 31
0.0
  0
LINE
  5
1A3
330
19D
100
AcDbEntity
  8
VERMASSUNG
100
AcDbLine
 10
276.4813092647
 20
141.5685744151
 30
0.0
 11
276.4813092647
 21
157.0685744151
 31
0.0
  0
LINE
  5
1A4
330
19D
100
AcDbEntity
  8
VERMASSUNG
100
AcDbLine
 10
136.4813092647
 20
156.0685744151
 30
0.0
 11
276.4813092647
 21
156.0685744151
 31
0.0
  0
MTEXT
  5
1A5
330
19D
100
AcDbEntity
  8
VERMASSUNG
100
AcDbMText
 10
203.5813090687
 20
158.6467097782
 30
0.1
 40
2.0
 41
0.0
 71
     1
 72
     1
  1
140
  7
SLDTEXTSTYLE0
 73
     1
 44
1.0
  0
ENDBLK
  5
19F
330
19D
100
AcDbEntity
  8
0
100
AcDbBlockEnd
  0
BLOCK
  5
1A8
330
1A7
100
AcDbEntity
  8
0
100
AcDbBlockBegin
  2
_D_1
 70
     0
 10
0.0
 20
0.0
 30
0.0
  3
_D_1
  1

  0
SOLID
  5
1AA
330
1A7
100
AcDbEntity
  8
VERMASSUNG
100
AcDbTrace
 10
276.4813092647
 20
164.9849821202
 30
0.0
 11
273.4813092647
 21
165.4349821202
 31
0.0
 12
273.4813092647
 22
164.5349821202
 32
0.0
 13
273.4813092647
 23
164.5349821202
 33
0.0
  0
SOLID
  5
1AB
330
1A7
100
AcDbEntity
  8
VERMASSUNG
100
AcDbTrace
 10
98.4813092647
 20
164.9849821202
 30
0.0
 11
101.4813092647
 21
164.5349821202
 31
0.0
 12
101.4813092647
 22
165.4349821202
 32
0.0
 13
101.4813092647
 23
165.4349821202
 33
0.0
  0
LINE
  5
1AC
330
1A7
100
AcDbEntity
  8
VERMASSUNG
100
AcDbLine
 10
276.4813092647
 20
141.5685744151
 30
0.0
 11
276.4813092647
 21
165.9849821202
 31
0.0
  0
LINE
  5
1AD
330
1A7
100
AcDbEntity
  8
VERMASSUNG
100
AcDbLine
 10
98.4813092647
 20
134.8609124076
 30
0.0
 11
98.4813092647
 21
165.9849821202
 31
0.0
  0
LINE
  5
1AE
330
1A7
100
AcDbEntity
  8
VERMASSUNG
100
AcDbLine
 10
276.4813092647
 20
164.9849821202
 30
0.0
 11
98.4813092647
 21
164.9849821202
 31
0.0
  0
MTEXT
  5
1AF
330
1A7
100
AcDbEntity
  8
VERMASSUNG
100
AcDbMText
 10
184.6813091317
 20
167.5631174833
 30
0.1
 40
2.0
 41
0.0
 71
     1
 72
     1
  1
178
  7
SLDTEXTSTYLE0
 73
     1
 44
1.0
  0
ENDBLK
  5
1A9
330
1A7
100
AcDbEntity
  8
0
100
AcDbBlockEnd
  0
BLOCK
  5
1B2
330
1B1
100
AcDbEntity
  8
0
100
AcDbBlockBegin
  2
_D_2
 70
     0
 10
0.0
 20
0.0
 30
0.0
  3
_D_2
  1

  0
SOLID
  5
1B4
330
1B1
100
AcDbEntity
  8
VERMASSUNG
100
AcDbTrace
 10
291.5350490596
 20
141.5685744151
 30
0.0
 11
291.0850490596
 21
138.5685744151
 31
0.0
 12
291.9850490596
 22
138.5685744151
 32
0.0
 13
291.9850490596
 23
138.5685744151
 33
0.0
  0
SOLID
  5
1B5
330
1B1
100
AcDbEntity
  8
VERMASSUNG
100
AcDbTrace
 10
291.5350490596
 20
114.5685744151
 30
0.0
 11
291.9850490596
 21
117.5685744151
 31
0.0
 12
291.0850490596
 22
117.5685744151
 32
0.0
 13
291.0850490596
 23
117.5685744151
 33
0.0
  0
LINE
  5
1B6
330
1B1
100
AcDbEntity
  8
VERMASSUNG
100
AcDbLine
 10
276.4813092647
 20
141.5685744151
 30
0.0
 11
292.5350490596
 21
141.5685744151
 31
0.0
  0
LINE
  5
1B7
330
1B1
100
AcDbEntity
  8
VERMASSUNG
100
AcDbLine
 10
276.4813092647
 20
114.5685744151
 30
0.0
 11
292.5350490596
 21
114.5685744151
 31
0.0
  0
LINE
  5
1B8
330
1B1
100
AcDbEntity
  8
VERMASSUNG
100
AcDbLine
 10
291.5350490596
 20
141.5685744151
 30
0.0
 11
291.5350490596
 21
114.5685744151
 31
0.0
  0
MTEXT
  5
1B9
330
1B1
100
AcDbEntity
  8
VERMASSUNG
100
AcDbMText
 10
288.9569136965
 20
125.7685743641
 30
0.1
 40
2.0
 41
0.0
 71
     1
 72
     1
  1
27
  7
SLDTEXTSTYLE0
 11
-7.044195017643634E-15
 21
1.0
 31
0.0
 73
     1
 44
1.0
  0
ENDBLK
  5
1B3
330
1B1
100
AcDbEntity
  8
0
100
AcDbBlockEnd
  0
BLOCK
  5
1BD
330
1BC
100
AcDbEntity
  8
0
100
AcDbBlockBegin
  2
_D_3
 70
     0
 10
0.0
 20
0.0
 30
0.0
  3
_D_3
  1

  0
ARC
  5
1BF
330
1BC
100
AcDbEntity
  8
VERMASSUNG
100
AcDbCircle
 10
276.5178326651
 20
141.5685744151
 30
0.0
 40
10.69078779966533
100
AcDbArc
 50
264.9878526278
 51
0.0
  0
SOLID
  5
1C0
330
1BC
100
AcDbEntity
  8
VERMASSUNG
100
AcDbTrace
 10
275.5838111883
 20
130.9186660747
 30
0.0
 11
278.6023455764
 21
130.6170866522
 31
0.0
 12
278.5579835024
 22
131.5159926575
 32
0.0
 13
278.5579835024
 23
131.5159926575
 33
0.0
  0
SOLID
  5
1C1
330
1BC
100
AcDbEntity
  8
VERMASSUNG
100
AcDbTrace
 10
287.2086204648
 20
141.5685744151
 30
0.0
 11
286.3537335899
 21
138.6579613472
 31
0.0
 12
287.2453265774
 22
138.5352342329
 32
0.0
 13
287.2453265774
 23
138.5352342329
 33
0.0
  0
LINE
  5
1C2
330
1BC
100
AcDbEntity
  8
VERMASSUNG
100
AcDbLine
 10
285.7692622302
 20
141.5685744151
 30
0.0
 11
288.2086204648
 21
141.5685744151
 31
0.0
  0
MTEXT
  5
1C3
330
1BC
100
AcDbEntity
  8
VERMASSUNG
100
AcDbMText
 10
279.8597150312
 20
133.6277335942
 30
0.1
 40
2.0
 41
0.0
 71
     1
 72
     1
  1
95°
  7
SLDTEXTSTYLE0
 11
0.7373489491615109
 21
0.6755120481312051
 31
0.0
 73
     1
 44
1.0
  0
ENDBLK
  5
1BE
330
1BC
100
AcDbEntity
  8
0
100
AcDbBlockEnd
  0
BLOCK
  5
1C6
330
1C5
100
AcDbEntity
  8
0
100
AcDbBlockBegin
  2
_D_4
 70
     0
 10
0.0
 20
0.0
 30
0.0
  3
_D_4
  1

  0
SOLID
  5
1C8
330
1C5
100
AcDbEntity
  8
VERMASSUNG
100
AcDbTrace
 10
93.6868398964
 20
146.0685744151
 30
0.0
 11
93.2368398964
 21
143.0685744151
 31
0.0
 12
94.1368398964
 22
143.0685744151
 32
0.0
 13
94.1368398964
 23
143.0685744151
 33
0.0
  0
SOLID
  5
1C9
330
1C5
100
AcDbEntity
  8
VERMASSUNG
100
AcDbTrace
 10
93.6868398964
 20
83.0685744151
 30
0.0
 11
94.1368398964
 21
86.0685744151
 31
0.0
 12
93.2368398964
 22
86.0685744151
 32
0.0
 13
93.2368398964
 23
86.0685744151
 33
0.0
  0
LINE
  5
1CA
330
1C5
100
AcDbEntity
  8
VERMASSUNG
100
AcDbLine
 10
136.9813092647
 20
146.0685744151
 30
0.0
 11
92.6868398964
 21
146.0685744151
 31
0.0
  0
LINE
  5
1CB
330
1C5
100
AcDbEntity
  8
VERMASSUNG
100
AcDbLine
 10
136.9813092647
 20
83.0685744151
 30
0.0
 11
92.6868398964
 21
83.0685744151
 31
0.0
  0
LINE
  5
1CC
330
1C5
100
AcDbEntity
  8
VERMASSUNG
100
AcDbLine
 10
93.6868398964
 20
146.0685744151
 30
0.0
 11
93.6868398964
 21
83.0685744151
 31
0.0
  0
MTEXT
  5
1CD
330
1C5
100
AcDbEntity
  8
VERMASSUNG
100
AcDbMText
 10
90.9087044073
 20
108.1635743059
 30
0.1
 40
2.0
 41
0.0
 71
     1
 72
     1
  1
PSC
  7
SLDTEXTSTYLE0
 11
-7.044195017643634E-15
 21
1.0
 31
0.0
 73
     1
 44
1.0
  0
MTEXT
  5
1CE
330
1C5
100
AcDbEntity
  8
VERMASSUNG
100
AcDbMText
 10
91.1087044168
 20
112.763574408
 30
0.1
 40
2.0
 41
0.0
 71
     1
 72
     1
  1
%%c
  7
SLDTEXTSTYLE0
 11
-7.044195017643634E-15
 21
1.0
 31
0.0
 73
     1
 44
1.0
  0
MTEXT
  5
1CF
330
1C5
100
AcDbEntity
  8
VERMASSUNG
100
AcDbMText
 10
90.9087044073
 20
116.3735748879
 30
0.1
 40
2.0
 41
0.0
 71
     1
 72
     1
  1
63
  7
SLDTEXTSTYLE0
 11
-7.044195017643634E-15
 21
1.0
 31
0.0
 73
     1
 44
1.0
  0
ENDBLK
  5
1C7
330
1C5
100
AcDbEntity
  8
0
100
AcDbBlockEnd
  0
BLOCK
  5
1D2
330
1D1
100
AcDbEntity
  8
0
100
AcDbBlockBegin
  2
_D_5
 70
     0
 10
0.0
 20
0.0
 30
0.0
  3
_D_5
  1

  0
SOLID
  5
1D4
330
1D1
100
AcDbEntity
  8
VERMASSUNG
100
AcDbTrace
 10
192.7187381851
 20
134.5685744151
 30
0.0
 11
192.2687381851
 21
131.5685744151
 31
0.0
 12
193.1687381851
 22
131.5685744151
 32
0.0
 13
193.1687381851
 23
131.5685744151
 33
0.0
  0
SOLID
  5
1D5
330
1D1
100
AcDbEntity
  8
VERMASSUNG
100
AcDbTrace
 10
192.7187381851
 20
94.5685744151
 30
0.0
 11
193.1687381851
 21
97.5685744151
 31
0.0
 12
192.2687381851
 22
97.5685744151
 32
0.0
 13
192.2687381851
 23
97.5685744151
 33
0.0
  0
LINE
  5
1D6
330
1D1
100
AcDbEntity
  8
VERMASSUNG
100
AcDbLine
 10
192.7187381851
 20
134.5685744151
 30
0.0
 11
192.7187381851
 21
94.5685744151
 31
0.0
  0
MTEXT
  5
1D7
330
1D1
100
AcDbEntity
  8
VERMASSUNG
100
AcDbMText
 10
190.1406027056
 20
98.3415337034
 30
0.1
 40
2.0
 41
0.0
 71
     1
 72
     1
  1
%%c
  7
SLDTEXTSTYLE0
 11
-7.044195017643634E-15
 21
1.0
 31
0.0
 73
     1
 44
1.0
  0
MTEXT
  5
1D8
330
1D1
100
AcDbEntity
  8
VERMASSUNG
100
AcDbMText
 10
189.9406026961
 20
101.9515337177
 30
0.1
 40
2.0
 41
0.0
 71
     1
 72
     1
  1
40
  7
SLDTEXTSTYLE0
 11
-7.044195017643634E-15
 21
1.0
 31
0.0
 73
     1
 44
1.0
  0
ENDBLK
  5
1D3
330
1D1
100
AcDbEntity
  8
0
100
AcDbBlockEnd
  0
BLOCK
  5
201
330
200
100
AcDbEntity
  8
0
100
AcDbBlockBegin
  2
_D_6
 70
     0
 10
0.0
 20
0.0
 30
0.0
  3
_D_6
  1

  0
SOLID
  5
203
330
200
100
AcDbEntity
  8
VERMASSUNG
100
AcDbTrace
 10
61.8169445165
 20
98.883701549
 30
0.0
 11
63.6200668085
 21
96.4441831539
 31
0.0
 12
64.2564629116
 22
97.080579257
 32
0.0
 13
64.2564629116
 23
97.080579257
 33
0.0
  0
SOLID
  5
204
330
200
100
AcDbEntity
  8
VERMASSUNG
100
AcDbTrace
 10
26.4616054572
 20
134.2390406083
 30
0.0
 11
24.6584831651
 21
136.6785590034
 31
0.0
 12
24.0220870621
 22
136.0421629004
 32
0.0
 13
24.0220870621
 23
136.0421629004
 33
0.0
  0
LINE
  5
205
330
200
100
AcDbEntity
  8
VERMASSUNG
100
AcDbLine
 10
61.8169445165
 20
98.883701549
 30
0.0
 11
61.1098377353
 21
98.1765947678
 31
0.0
  0
LINE
  5
206
330
200
100
AcDbEntity
  8
VERMASSUNG
100
AcDbLine
 10
26.4616054572
 20
134.2390406083
 30
0.0
 11
25.754498676
 21
133.5319338272
 31
0.0
  0
LINE
  5
207
330
200
100
AcDbEntity
  8
VERMASSUNG
100
AcDbLine
 10
61.8169445165
 20
98.883701549
 30
0.0
 11
66.0595852036
 21
94.6410608619
 31
0.0
  0
LINE
  5
208
330
200
100
AcDbEntity
  8
VERMASSUNG
100
AcDbLine
 10
61.8169445165
 20
98.883701549
 30
0.0
 11
26.4616054572
 21
134.2390406083
 31
0.0
  0
LINE
  5
209
330
200
100
AcDbEntity
  8
VERMASSUNG
100
AcDbLine
 10
26.4616054572
 20
134.2390406083
 30
0.0
 11
12.7424554571
 21
147.9581906084
 31
0.0
  0
MTEXT
  5
20A
330
200
100
AcDbEntity
  8
VERMASSUNG
100
AcDbMText
 10
14.5654725375
 20
149.7812076888
 30
0.1
 40
2.0
 41
0.0
 71
     1
 72
     1
  1
%%c
  7
SLDTEXTSTYLE0
 11
0.7071067811865466
 21
-0.7071067811865485
 31
0.0
 73
     1
 44
1.0
  0
MTEXT
  5
20B
330
200
100
AcDbEntity
  8
VERMASSUNG
100
AcDbMText
 10
17.2595493906
 20
147.3699735616
 30
0.1
 40
2.0
 41
0.0
 71
     1
 72
     1
  1
50
  7
SLDTEXTSTYLE0
 11
0.7071067811865466
 21
-0.7071067811865485
 31
0.0
 73
     1
 44
1.0
  0
MTEXT
  5
20C
330
200
100
AcDbEntity
  8
VERMASSUNG
100
AcDbMText
 10
21.3519302882
 20
143.277592664
 30
0.1
 40
2.0
 41
0.0
 71
     1
 72
     1
  1
min.
  7
SLDTEXTSTYLE0
 11
0.7071067811865466
 21
-0.7071067811865485
 31
0.0
 73
     1
 44
1.0
  0
ENDBLK
  5
202
330
200
100
AcDbEntity
  8
0
100
AcDbBlockEnd
  0
BLOCK
  5
210
330
20F
100
AcDbEntity
  8
0
100
AcDbBlockBegin
  2
_D_7
 70
     0
 10
0.0
 20
0.0
 30
0.0
  3
_D_7
  1

  0
ARC
  5
212
330
20F
100
AcDbEntity
  8
VERMASSUNG
100
AcDbCircle
 10
44.1392749868
 20
137.2678983073
 30
0.0
 40
64.39235887761618
100
AcDbArc
 50
266.0
 51
270.0
  0
ARC
  5
213
330
20F
100
AcDbEntity
  8
VERMASSUNG
100
AcDbCircle
 10
44.1392749868
 20
137.2678983073
 30
0.0
 40
64.39235887761616
100
AcDbArc
 50
255.2318431875
 51
266.0
  0
ARC
  5
214
330
20F
100
AcDbEntity
  8
VERMASSUNG
100
AcDbCircle
 10
44.1392749868
 20
137.2678983073
 30
0.0
 40
64.39235887761618
100
AcDbArc
 50
270.0
 51
275.3334455107
  0
SOLID
  5
215
330
20F
100
AcDbEntity
  8
VERMASSUNG
100
AcDbTrace
 10
39.6474910955
 20
73.0323959795
 30
0.0
 11
36.7023111042
 21
73.7593174464
 31
0.0
 12
36.6186501355
 22
72.8632143038
 32
0.0
 13
36.6186501355
 23
72.8632143038
 33
0.0
  0
SOLID
  5
216
330
20F
100
AcDbEntity
  8
VERMASSUNG
100
AcDbTrace
 10
44.1392749868
 20
72.8755394296
 30
0.0
 11
47.1489363253
 21
72.495488607
 31
0.0
 12
47.1279881459
 22
73.3952447817
 32
0.0
 13
47.1279881459
 23
73.3952447817
 33
0.0
  0
LINE
  5
217
330
20F
100
AcDbEntity
  8
VERMASSUNG
100
AcDbLine
 10
41.1339717601
 20
94.2900598611
 30
0.0
 11
39.5777346217
 21
72.0348319293
 31
0.0
  0
LINE
  5
218
330
20F
100
AcDbEntity
  8
VERMASSUNG
100
AcDbLine
 10
44.1392749868
 20
80.5685744151
 30
0.0
 11
44.1392749868
 21
71.8755394296
 31
0.0
  0
MTEXT
  5
219
330
20F
100
AcDbEntity
  8
VERMASSUNG
100
AcDbMText
 10
28.2824363378
 20
77.4778581919
 30
-50.9166450882
 40
2.0
 41
0.0
 71
     1
 72
     1
  1
4°
  7
SLDTEXTSTYLE0
 11
0.9754481131628305
 21
-0.2202293770755248
 31
0.0
 73
     1
 44
1.0
  0
ENDBLK
  5
211
330
20F
100
AcDbEntity
  8
0
100
AcDbBlockEnd
  0
BLOCK
  5
21B
330
21A
100
AcDbEntity
  8
0
100
AcDbBlockBegin
  2
SW_CENTERMARKSYMBOL_0
 70
     0
 10
0.0
 20
0.0
 30
0.0
  3
SW_CENTERMARKSYMBOL_0
  1

  0
LINE
  5
21D
330
21A
100
AcDbEntity
  8
VERMASSUNG
 62
     0
100
AcDbLine
 10
0.0
 20
0.0
 30
0.0
 11
0.0
 21
2.5
 31
0.0
  0
LINE
  5
21E
330
21A
100
AcDbEntity
  8
VERMASSUNG
 62
     0
100
AcDbLine
 10
0.0
 20
0.0
 30
0.0
 11
-2.5
 21
0.0
 31
0.0
  0
LINE
  5
21F
330
21A
100
AcDbEntity
  8
VERMASSUNG
 62
     0
100
AcDbLine
 10
0.0
 20
0.0
 30
0.0
 11
0.0
 21
-2.5
 31
0.0
  0
LINE
  5
220
330
21A
100
AcDbEntity
  8
VERMASSUNG
 62
     0
100
AcDbLine
 10
0.0
 20
0.0
 30
0.0
 11
2.5
 21
0.0
 31
0.0
  0
LINE
  5
221
330
21A
100
AcDbEntity
  8
VERMASSUNG
 62
     0
100
AcDbLine
 10
0.0
 20
5.0
 30
0.0
 11
0.0
 21
34.0
 31
0.0
  0
LINE
  5
222
330
21A
100
AcDbEntity
  8
VERMASSUNG
 62
     0
100
AcDbLine
 10
-5.0
 20
0.0
 30
0.0
 11
-34.0
 21
0.0
 31
0.0
  0
LINE
  5
223
330
21A
100
AcDbEntity
  8
VERMASSUNG
 62
     0
100
AcDbLine
 10
0.0
 20
-5.0
 30
0.0
 11
0.0
 21
-34.0
 31
0.0
  0
LINE
  5
224
330
21A
100
AcDbEntity
  8
VERMASSUNG
 62
     0
100
AcDbLine
 10
5.0
 20
0.0
 30
0.0
 11
34.0
 21
0.0
 31
0.0
  0
ENDBLK
  5
21C
330
21A
100
AcDbEntity
  8
0
100
AcDbBlockEnd
  0
ENDSEC
  0
SECTION
  2
ENTITIES
  0
MTEXT
  5
49
330
1F
100
AcDbEntity
  8
KOPF_DÜNN
100
AcDbMText
 10
13.8892156294
 20
23.8442973028
 30
0.0
 40
3.0
 41
0.0
 71
     1
 72
     1
  1
PS6.BCC.RLC.140
  7
SLDTEXTSTYLE0
 73
     1
 44
1.0
  0
MTEXT
  5
4A
330
1F
100
AcDbEntity
  8
VERMASSUNG
100
AcDbMText
 10
13.9329988022
 20
28.8834360957
 30
0.0
 40
3.0
 41
0.0
 71
     1
 72
     1
  1
Bohrstange_Boring bar
  7
SLDTEXTSTYLE0
 73
     1
 44
1.0
  0
MTEXT
  5
4B
330
1F
100
AcDbEntity
  8
VERMASSUNG
100
AcDbMText
 10
98.8601118557
 20
13.8365368179
 30
0.0
 40
2.0
 41
0.0
 71
     1
 72
     1
  1
Datum: 01.06.2012
  7
SLDTEXTSTYLE0
 73
     1
 44
1.0
  0
MTEXT
  5
4C
330
1F
100
AcDbEntity
  8
VERMASSUNG
100
AcDbMText
 10
13.933048693
 20
18.0482802738
 30
0.0
 40
2.0
 41
0.0
 71
     1
 72
     1
  1
PSC ø63 / Wp.: CC..12 04..
  7
SLDTEXTSTYLE0
 73
     1
 44
1.0
  0
MTEXT
  5
4D
330
1F
100
AcDbEntity
  8
VERMASSUNG
100
AcDbMText
 10
13.9808475933
 20
13.9090973692
 30
0.0
 40
2.0
 41
0.0
 71
     1
 72
     1
  1
Gewicht: 1683g
  7
SLDTEXTSTYLE0
 73
     1
 44
1.0
  0
ARC
  5
4E
330
1F
100
AcDbEntity
  8
0
  6
Continuous
 62
     7
370
    15
100
AcDbCircle
 10
136.9813092647
 20
83.5685744151
 30
0.0
 40
0.5000000000000284
100
AcDbArc
 50
180.0
 51
270.0
  0
ARC
  5
4F
330
1F
100
AcDbEntity
  8
0
  6
Continuous
 62
     7
370
    15
100
AcDbCircle
 10
136.9813092647
 20
145.5685744151
 30
0.0
 40
0.5000000000000284
100
AcDbArc
 50
90.0
 51
180.0
  0
ARC
  5
50
330
1F
100
AcDbEntity
  8
0
  6
Continuous
 62
     7
370
    15
100
AcDbCircle
 10
157.4813092647
 20
84.0685744151
 30
0.0
 40
1.000000000000028
100
AcDbArc
 50
270.0
 51
360.0
  0
ARC
  5
51
330
1F
100
AcDbEntity
  8
0
  6
Continuous
 62
     7
370
    15
100
AcDbCircle
 10
157.4813092647
 20
145.0685744151
 30
0.0
 40
1.000000000000028
100
AcDbArc
 50
0.0
 51
90.0
  0
LINE
  5
52
330
1F
100
AcDbEntity
  8
0
  6
Continuous
 62
     7
370
    15
100
AcDbLine
 10
136.9813092647
 20
83.0685744151
 30
0.0
 11
157.4813092647
 21
83.0685744151
 31
0.0
  0
LINE
  5
53
330
1F
100
AcDbEntity
  8
0
  6
Continuous
 62
     7
370
    15
100
AcDbLine
 10
157.4813092647
 20
146.0685744151
 30
0.0
 11
136.9813092647
 21
146.0685744151
 31
0.0
  0
LWPOLYLINE
  5
54
330
1F
100
AcDbEntity
  8
0
  6
Continuous
 62
     7
370
    15
100
AcDbPolyline
 90
        3
 70
   128
 43
0.0
 10
136.2813092647
 20
92.0287541362
 10
136.4067642082
 20
91.9604520213
 10
136.4813092647
 20
91.9077142632
  0
LWPOLYLINE
  5
55
330
1F
100
AcDbEntity
  8
0
  6
Continuous
 62
     7
370
    15
100
AcDbPolyline
 90
        3
 70
   128
 43
0.0
 10
136.4813092647
 20
137.2294345671
 10
136.4067642082
 20
137.1766968089
 10
136.2813092647
 20
137.108394694
  0
ARC
  5
56
330
1F
100
AcDbEntity
  8
0
  6
Continuous
 62
     7
370
    15
100
AcDbCircle
 10
162.4813092647
 20
90.5685744151
 30
0.0
 40
3.999999999999972
100
AcDbArc
 50
90.0
 51
180.0
  0
ARC
  5
57
330
1F
100
AcDbEntity
  8
0
  6
Continuous
 62
     7
370
    15
100
AcDbCircle
 10
162.4813092647
 20
138.5685744151
 30
0.0
 40
4.0
100
AcDbArc
 50
180.0
 51
270.0
  0
LINE
  5
58
330
1F
100
AcDbEntity
  8
0
  6
Continuous
 62
     7
370
    15
100
AcDbLine
 10
250.4813092647
 20
134.5685744151
 30
0.0
 11
162.4813092647
 21
134.5685744151
 31
0.0
  0
LINE
  5
59
330
1F
100
AcDbEntity
  8
0
  6
Continuous
 62
     7
370
    15
100
AcDbLine
 10
162.4813092647
 20
94.5685744151
 30
0.0
 11
250.4813092647
 21
94.5685744151
 31
0.0
  0
LINE
  5
5A
330
1F
100
AcDbEntity
  8
0
  6
Continuous
 62
     7
370
    15
100
AcDbLine
 10
250.9813092647
 20
94.0685744151
 30
0.0
 11
252.6536858334
 21
94.0685744151
 31
0.0
  0
LINE
  5
5B
330
1F
100
AcDbEntity
  8
0
  6
Continuous
 62
     7
370
    15
100
AcDbLine
 10
251.7556464503
 20
135.8429116008
 30
0.0
 11
250.4813092647
 21
134.5685744151
 31
0.0
  0
LINE
  5
5C
330
1F
100
AcDbEntity
  8
0
  6
Continuous
 62
     7
370
    15
100
AcDbLine
 10
250.4813092647
 20
94.5685744151
 30
0.0
 11
250.9813092647
 21
94.0685744151
 31
0.0
  0
LINE
  5
5D
330
1F
100
AcDbEntity
  8
0
  6
Continuous
 62
     7
370
    15
100
AcDbLine
 10
268.1183429626
 20
134.4633252314
 30
0.0
 11
268.1183429626
 21
134.5749339986
 31
0.0
  0
LINE
  5
5E
330
1F
100
AcDbEntity
  8
0
  6
Continuous
 62
     7
370
    15
100
AcDbLine
 10
270.9566000025
 20
134.6863863171
 30
0.0
 11
270.9566000025
 21
134.5747422189
 31
0.0
  0
LINE
  5
5F
330
1F
100
AcDbEntity
  8
0
  6
Continuous
 62
     7
370
    15
100
AcDbLine
 10
266.0359352023
 20
134.605240698
 30
0.0
 11
266.0359352023
 21
134.5912894033
 31
0.0
  0
LINE
  5
60
330
1F
100
AcDbEntity
  8
0
  6
Continuous
 62
     7
370
    15
100
AcDbLine
 10
273.0359352023
 20
134.5912894033
 30
0.0
 11
273.0359352023
 21
134.605240698
 31
0.0
  0
LINE
  5
61
330
1F
100
AcDbEntity
  8
0
  6
Continuous
 62
     7
370
    15
100
AcDbLine
 10
136.4813092647
 20
83.5685744151
 30
0.0
 11
136.4813092647
 21
145.5685744151
 31
0.0
  0
LINE
  5
62
330
1F
100
AcDbEntity
  8
0
  6
Continuous
 62
     7
370
    15
100
AcDbLine
 10
158.4813092647
 20
145.0685744133
 30
0.0
 11
158.4813092647
 21
84.0685744151
 31
0.0
  0
SPLINE
  5
63
330
1F
100
AcDbEntity
  8
0
  6
Continuous
 62
     7
370
    15
100
AcDbSpline
210
0.0
220
0.0
230
1.0
 70
     8
 71
     3
 72
    12
 73
     8
 74
     0
 42
0.00000001
 43
0.00000001
 12
1.0
 22
0.0
 32
0.0
 13
1.0
 23
0.0
 33
0.0
 40
0.0
 40
0.0
 40
0.0
 40
0.0
 40
0.2500000000000014
 40
0.2500000000000014
 40
0.5000000000000028
 40
0.5000000000000028
 40
1.0
 40
1.0
 40
1.0
 40
1.0
 10
147.0090660782311
 20
123.9566408464465
 30
0.0
 10
146.9459860397377
 20
123.9566408464465
 30
0.0
 10
146.8868374175564
 20
123.9820051656615
 30
0.0
 10
146.7883648674873
 20
124.0561700260344
 30
0.0
 10
146.7493282555026
 20
124.1026903665885
 30
0.0
 10
146.6494317887235
 20
124.2528327094337
 30
0.0
 10
146.6070109076568
 20
124.3645259164059
 30
0.0
 10
146.5760533763389
 20
124.4779437357956
 30
0.0
  0
LINE
  5
64
330
1F
100
AcDbEntity
  8
0
  6
Continuous
 62
     7
370
    15
100
AcDbLine
 10
149.9535524511
 20
123.9566408464
 30
0.0
 11
147.0090660782
 21
123.9566408464
 31
0.0
  0
SPLINE
  5
65
330
1F
100
AcDbEntity
  8
0
  6
Continuous
 62
     7
370
    15
100
AcDbSpline
210
0.0
220
0.0
230
1.0
 70
     8
 71
     3
 72
    12
 73
     8
 74
     0
 42
0.00000001
 43
0.00000001
 12
1.0
 22
0.0
 32
0.0
 13
1.0
 23
0.0
 33
0.0
 40
0.0
 40
0.0
 40
0.0
 40
0.0
 40
0.5000000000000028
 40
0.5000000000000028
 40
0.7500000000000013
 40
0.7500000000000013
 40
1.0
 40
1.0
 40
1.0
 40
1.0
 10
150.3865651529904
 20
124.4779437357956
 30
0.0
 10
150.3558429110713
 20
124.3653879363864
 30
0.0
 10
150.3130056965361
 20
124.2526300766469
 30
0.0
 10
150.2135786723364
 20
124.1030891908505
 30
0.0
 10
150.1738264775197
 20
124.0557964591437
 30
0.0
 10
150.0757850206615
 20
123.9820601658222
 30
0.0
 10
150.016228965074
 20
123.9566408464465
 30
0.0
 10
149.9535524510982
 20
123.9566408464465
 30
0.0
  0
ELLIPSE
  5
66
330
1F
100
AcDbEntity
  8
0
  6
Continuous
 62
     7
370
    15
100
AcDbEllipse
 10
134.1341550753
 20
114.5685744151
 30
0.0
 11
14.75368316065604
 21
31.09325491558118
 31
0.0
210
0.0
220
0.0
230
1.0
 40
0.3419987131
 41
5.193281737408618
 42
6.124043104552327
  0
SPLINE
  5
67
330
1F
100
AcDbEntity
  8
0
  6
Continuous
 62
     7
370
    15
100
AcDbSpline
210
0.0
220
0.0
230
1.0
 70
     8
 71
     3
 72
    12
 73
     8
 74
     0
 42
0.00000001
 43
0.00000001
 12
1.0
 22
0.0
 32
0.0
 13
1.0
 23
0.0
 33
0.0
 40
0.0
 40
0.0
 40
0.0
 40
0.0
 40
0.2500000000000014
 40
0.2500000000000014
 40
0.5000000000000028
 40
0.5000000000000028
 40
1.0
 40
1.0
 40
1.0
 40
1.0
 10
149.9535524510982
 20
144.6370663739837
 30
0.0
 10
150.0166324895916
 20
144.6370663739837
 30
0.0
 10
150.075781111773
 20
144.6291604477712
 30
0.0
 10
150.174253661842
 20
144.605835286335
 30
0.0
 10
150.2132902738267
 20
144.5911224965032
 30
0.0
 10
150.3131867406058
 20
144.5431666957723
 30
0.0
 10
150.3556076216724
 20
144.5069045391923
 30
0.0
 10
150.3865651529904
 20
144.4693168752278
 30
0.0
  0
LINE
  5
68
330
1F
100
AcDbEntity
  8
0
  6
Continuous
 62
     7
370
    15
100
AcDbLine
 10
147.0090660782
 20
144.637066374
 30
0.0
 11
149.9535524511
 21
144.637066374
 31
0.0
  0
SPLINE
  5
69
330
1F
100
AcDbEntity
  8
0
  6
Continuous
 62
     7
370
    15
100
AcDbSpline
210
0.0
220
0.0
230
1.0
 70
     8
 71
     3
 72
    12
 73
     8
 74
     0
 42
0.00000001
 43
0.00000001
 12
1.0
 22
0.0
 32
0.0
 13
1.0
 23
0.0
 33
0.0
 40
0.0
 40
0.0
 40
0.0
 40
0.0
 40
0.5
 40
0.5
 40
0.75
 40
0.75
 40
1.0
 40
1.0
 40
1.0
 40
1.0
 10
146.5760533763389
 20
144.4693168752278
 30
0.0
 10
146.606775618258
 20
144.5066188581808
 30
0.0
 10
146.6496128327931
 20
144.5432306902272
 30
0.0
 10
146.749039856993
 20
144.5909954735124
 30
0.0
 10
146.7887920518096
 20
144.6059529889947
 30
0.0
 10
146.8868335086678
 20
144.6291429347639
 30
0.0
 10
146.9463895642553
 20
144.6370663739837
 30
0.0
 10
147.0090660782311
 20
144.6370663739837
 30
0.0
  0
ELLIPSE
  5
6A
330
1F
100
AcDbEntity
  8
0
  6
Continuous
 62
     7
370
    15
100
AcDbEllipse
 10
162.828463454
 20
114.5685744151
 30
0.0
 11
-14.75368316065606
 21
31.09325491558118
 31
0.0
210
0.0
220
0.0
230
1.0
 40
0.3419987131
 41
0.1591422026273047
 42
1.089903569770981
  0
SPLINE
  5
6B
330
1F
100
AcDbEntity
  8
0
  6
Continuous
 62
     7
370
    15
100
AcDbSpline
210
0.0
220
0.0
230
1.0
 70
     8
 71
     3
 72
    12
 73
     8
 74
     0
 42
0.00000001
 43
0.00000001
 12
1.0
 22
0.0
 32
0.0
 13
1.0
 23
0.0
 33
0.0
 40
0.0
 40
0.0
 40
0.0
 40
0.0
 40
0.2500000000000009
 40
0.2500000000000009
 40
0.5000000000000018
 40
0.5000000000000018
 40
1.0
 40
1.0
 40
1.0
 40
1.0
 10
147.0090660782311
 20
84.50008245623741
 30
0.0
 10
146.9460091233333
 20
84.50008245623741
 30
0.0
 10
146.8868789735878
 20
84.50798278731705
 30
0.0
 10
146.7884314230545
 20
84.53129353532209
 30
0.0
 10
146.7493991848664
 20
84.54599866160571
 30
0.0
 10
146.6495093004094
 20
84.59393218979235
 30
0.0
 10
146.6072103268001
 20
84.63000216255705
 30
0.0
 10
146.5760533763388
 20
84.66783195499328
 30
0.0
  0
LINE
  5
6C
330
1F
100
AcDbEntity
  8
0
  6
Continuous
 62
     7
370
    15
100
AcDbLine
 10
149.9535524511
 20
84.5000824562
 30
0.0
 11
147.0090660782
 21
84.5000824562
 31
0.0
  0
SPLINE
  5
6D
330
1F
100
AcDbEntity
  8
0
  6
Continuous
 62
     7
370
    15
100
AcDbSpline
210
0.0
220
0.0
230
1.0
 70
     8
 71
     3
 72
    12
 73
     8
 74
     0
 42
0.00000001
 43
0.00000001
 12
1.0
 22
0.0
 32
0.0
 13
1.0
 23
0.0
 33
0.0
 40
0.0
 40
0.0
 40
0.0
 40
0.0
 40
0.4999999999999936
 40
0.4999999999999936
 40
0.7499999999999968
 40
0.7499999999999968
 40
1.0
 40
1.0
 40
1.0
 40
1.0
 10
150.3865651529904
 20
84.66783195499329
 30
0.0
 10
150.3554199550283
 20
84.6300164320731
 30
0.0
 10
150.3131456886938
 20
84.59394957398953
 30
0.0
 10
150.2132001548686
 20
84.54598950897827
 30
0.0
 10
150.1734698501645
 20
84.53112853508063
 30
0.0
 10
150.0765818001583
 20
84.50817738894949
 30
0.0
 10
150.0165165584118
 20
84.50008245623737
 30
0.0
 10
149.9535524510982
 20
84.50008245623735
 30
0.0
  0
ELLIPSE
  5
6E
330
1F
100
AcDbEntity
  8
0
  6
Continuous
 62
     7
370
    15
100
AcDbEllipse
 10
134.1341550753
 20
114.5685744151
 30
0.0
 11
-14.75368316065614
 21
31.09325491558119
 31
0.0
210
0.0
220
0.0
230
1.0
 40
0.3419987131
 41
3.300734856217124
 42
4.231496223360773
  0
SPLINE
  5
6F
330
1F
100
AcDbEntity
  8
0
  6
Continuous
 62
     7
370
    15
100
AcDbSpline
210
0.0
220
0.0
230
1.0
 70
     8
 71
     3
 72
    12
 73
     8
 74
     0
 42
0.00000001
 43
0.00000001
 12
1.0
 22
0.0
 32
0.0
 13
1.0
 23
0.0
 33
0.0
 40
0.0
 40
0.0
 40
0.0
 40
0.0
 40
0.2499999999999986
 40
0.2499999999999986
 40
0.4999999999999972
 40
0.4999999999999972
 40
1.0
 40
1.0
 40
1.0
 40
1.0
 10
149.9535524510982
 20
105.1805079837743
 30
0.0
 10
150.016609405996
 20
105.1805079837743
 30
0.0
 10
150.0757395557416
 20
105.1551616303936
 30
0.0
 10
150.1741871062749
 20
105.0810422482541
 30
0.0
 10
150.2132193444629
 20
105.0345457335561
 30
0.0
 10
150.3131092289199
 20
104.8844712265476
 30
0.0
 10
150.3554082025292
 20
104.7733535174327
 30
0.0
 10
150.3865651529905
 20
104.6592050944252
 30
0.0
  0
LINE
  5
70
330
1F
100
AcDbEntity
  8
0
  6
Continuous
 62
     7
370
    15
100
AcDbLine
 10
147.0090660782
 20
105.1805079838
 30
0.0
 11
149.9535524511
 21
105.1805079838
 31
0.0
  0
SPLINE
  5
71
330
1F
100
AcDbEntity
  8
0
  6
Continuous
 62
     7
370
    15
100
AcDbSpline
210
0.0
220
0.0
230
1.0
 70
     8
 71
     3
 72
    12
 73
     8
 74
     0
 42
0.00000001
 43
0.00000001
 12
1.0
 22
0.0
 32
0.0
 13
1.0
 23
0.0
 33
0.0
 40
0.0
 40
0.0
 40
0.0
 40
0.0
 40
0.5000000000000018
 40
0.5000000000000018
 40
0.7500000000000009
 40
0.7500000000000009
 40
1.0
 40
1.0
 40
1.0
 40
1.0
 10
146.5760533763389
 20
104.6592050944252
 30
0.0
 10
146.607198574301
 20
104.7733104602905
 30
0.0
 10
146.6494728406354
 20
104.8844167875093
 30
0.0
 10
146.7494183744608
 20
105.0345743949395
 30
0.0
 10
146.7891486791648
 20
105.0815670865569
 30
0.0
 10
146.8860367291711
 20
105.1545426710954
 30
0.0
 10
146.9461019709175
 20
105.1805079837744
 30
0.0
 10
147.0090660782311
 20
105.1805079837744
 30
0.0
  0
ELLIPSE
  5
72
330
1F
100
AcDbEntity
  8
0
  6
Continuous
 62
     7
370
    15
100
AcDbEllipse
 10
162.828463454
 20
114.5685744151
 30
0.0
 11
14.75368316065618
 21
31.09325491558119
 31
0.0
210
0.0
220
0.0
230
1.0
 40
0.3419987131
 41
2.051689083818825
 42
2.982450450962501
  0
SPLINE
  5
73
330
1F
100
AcDbEntity
  8
0
  6
Continuous
 62
     7
370
    15
100
AcDbSpline
210
0.0
220
0.0
230
1.0
 70
     8
 71
     3
 72
    12
 73
     8
 74
     0
 42
0.00000001
 43
0.00000001
 12
1.0
 22
0.0
 32
0.0
 13
1.0
 23
0.0
 33
0.0
 40
0.0
 40
0.0
 40
0.0
 40
0.0
 40
0.5
 40
0.5
 40
0.75
 40
0.75
 40
1.0
 40
1.0
 40
1.0
 40
1.0
 10
135.6647969782082
 20
92.71378071263479
 30
0.0
 10
135.7212334791154
 20
92.71236283129302
 30
0.0
 10
135.7903181098041
 20
92.71079849504473
 30
0.0
 10
135.909120381522
 20
92.70785430307026
 30
0.0
 10
135.9493056569921
 20
92.70681609997288
 30
0.0
 10
136.0226867043959
 20
92.70488220475825
 30
0.0
 10
136.0560962681386
 20
92.70398731746945
 30
0.0
 10
136.086332375795
 20
92.7032035271971
 30
0.0
  0
SPLINE
  5
74
330
1F
100
AcDbEntity
  8
0
  6
Continuous
 62
     7
370
    15
100
AcDbSpline
210
0.0
220
0.0
230
1.0
 70
     8
 71
     3
 72
    16
 73
    12
 74
     0
 42
0.00000001
 43
0.00000001
 12
1.0
 22
0.0
 32
0.0
 13
1.0
 23
0.0
 33
0.0
 40
0.0
 40
0.0
 40
0.0
 40
0.0
 40
0.0624999999999994
 40
0.0624999999999994
 40
0.1249999999999987
 40
0.1249999999999987
 40
0.2499999999999957
 40
0.2499999999999957
 40
0.4999999999999947
 40
0.4999999999999947
 40
1.0
 40
1.0
 40
1.0
 40
1.0
 10
136.0863323757578
 20
92.70320352722136
 30
0.0
 10
136.0979127833457
 20
92.70290333611
 30
0.0
 10
136.111222310107
 20
92.70157558785101
 30
0.0
 10
136.1405237401932
 20
92.69487691307602
 30
0.0
 10
136.1553378400776
 20
92.68951872997029
 30
0.0
 10
136.1911662417803
 20
92.67247308080293
 30
0.0
 10
136.2052858661434
 20
92.66101054302719
 30
0.0
 10
136.2397900102319
 20
92.62944721765497
 30
0.0
 10
136.2508945609365
 20
92.61154991860968
 30
0.0
 10
136.2770707381526
 20
92.56138850099543
 30
0.0
 10
136.2813092646647
 20
92.53364408879887
 30
0.0
 10
136.2813092646647
 20
92.50897992686933
 30
0.0
  0
LINE
  5
75
330
1F
100
AcDbEntity
  8
0
  6
Continuous
 62
     7
370
    15
100
AcDbLine
 10
136.2813092647
 20
107.5466870894
 30
0.0
 11
136.2813092647
 21
92.0287541362
 31
0.0
  0
SPLINE
  5
76
330
1F
100
AcDbEntity
  8
0
  6
Continuous
 62
     7
370
    15
100
AcDbSpline
210
0.0
220
0.0
230
1.0
 70
     8
 71
     3
 72
    16
 73
    12
 74
     0
 42
0.00000001
 43
0.00000001
 12
1.0
 22
0.0
 32
0.0
 13
1.0
 23
0.0
 33
0.0
 40
0.0
 40
0.0
 40
0.0
 40
0.0
 40
0.4999999999999972
 40
0.4999999999999972
 40
0.7499999999999991
 40
0.7499999999999991
 40
0.8750000000000001
 40
0.8750000000000001
 40
0.9375
 40
0.9375
 40
1.0
 40
1.0
 40
1.0
 40
1.0
 10
136.2813092646647
 20
107.5466870893605
 30
0.0
 10
136.2813092646647
 20
107.6603796334884
 30
0.0
 10
136.2771629895867
 20
107.7746997948379
 30
0.0
 10
136.2511973941932
 20
107.947748085335
 30
0.0
 10
136.2397364888158
 20
108.0069235924967
 30
0.0
 10
136.2054247510414
 20
108.0900467119649
 30
0.0
 10
136.1914000151119
 20
108.1181680280656
 30
0.0
 10
136.155377052078
 20
108.146783842043
 30
0.0
 10
136.1406225429883
 20
108.1525768899448
 30
0.0
 10
136.1112703818414
 20
108.1509834640078
 30
0.0
 10
136.0979305073373
 20
108.144487060684
 30
0.0
 10
136.086332375789
 20
108.1359713144808
 30
0.0
  0
SPLINE
  5
77
330
1F
100
AcDbEntity
  8
0
  6
Continuous
 62
     7
370
    15
100
AcDbSpline
210
0.0
220
0.0
230
1.0
 70
     8
 71
     3
 72
    12
 73
     8
 74
     0
 42
0.00000001
 43
0.00000001
 12
1.0
 22
0.0
 32
0.0
 13
1.0
 23
0.0
 33
0.0
 40
0.0
 40
0.0
 40
0.0
 40
0.0
 40
0.2500000000000001
 40
0.2500000000000001
 40
0.4999999999999999
 40
0.4999999999999999
 40
1.0
 40
1.0
 40
1.0
 40
1.0
 10
136.086332375796
 20
108.1359713144717
 30
0.0
 10
136.0561339343554
 20
108.1137985824266
 30
0.0
 10
136.0227665790194
 20
108.0947189265494
 30
0.0
 10
135.9496113031896
 20
108.0695458821067
 30
0.0
 10
135.9093586041656
 20
108.0639893456899
 30
0.0
 10
135.7916298608907
 20
108.0749011566767
 30
0.0
 10
135.7211714128318
 20
108.1168369120875
 30
0.0
 10
135.6647969782135
 20
108.166048694469
 30
0.0
  0
SPLINE
  5
78
330
1F
100
AcDbEntity
  8
0
  6
Continuous
 62
     7
370
    15
100
AcDbSpline
210
0.0
220
0.0
230
1.0
 70
     8
 71
     3
 72
    12
 73
     8
 74
     0
 42
0.00000001
 43
0.00000001
 12
1.0
 22
0.0
 32
0.0
 13
1.0
 23
0.0
 33
0.0
 40
0.0
 40
0.0
 40
0.0
 40
0.0
 40
0.4999999999999991
 40
0.4999999999999991
 40
0.7499999999999996
 40
0.7499999999999996
 40
1.0
 40
1.0
 40
1.0
 40
1.0
 10
135.159988921105
 20
109.3824000863496
 30
0.0
 10
135.2037392729895
 20
109.161953101375
 30
0.0
 10
135.2566294241139
 20
108.9464081115695
 30
0.0
 10
135.3682409672556
 20
108.6339940349975
 30
0.0
 10
135.4108003111591
 20
108.5319145593816
 30
0.0
 10
135.5157775464965
 20
108.3374745467399
 30
0.0
 10
135.5773447895911
 20
108.2423896476762
 30
0.0
 10
135.6647969782135
 20
108.166048694469
 30
0.0
  0
SPLINE
  5
79
330
1F
100
AcDbEntity
  8
0
  6
Continuous
 62
     7
370
    15
100
AcDbSpline
210
0.0
220
0.0
230
1.0
 70
     8
 71
     3
 72
    12
 73
     8
 74
     0
 42
0.00000001
 43
0.00000001
 12
1.0
 22
0.0
 32
0.0
 13
1.0
 23
0.0
 33
0.0
 40
0.0
 40
0.0
 40
0.0
 40
0.0
 40
0.2500000000000008
 40
0.2500000000000008
 40
0.5000000000000016
 40
0.5000000000000016
 40
1.0
 40
1.0
 40
1.0
 40
1.0
 10
135.6647969782134
 20
120.9711001357522
 30
0.0
 10
135.5763035706455
 20
120.8938502556439
 30
0.0
 10
135.5162455298797
 20
120.8005309317547
 30
0.0
 10
135.4103972568971
 20
120.6044978787852
 30
0.0
 10
135.3678637356196
 20
120.5021715205735
 30
0.0
 10
135.256712428796
 20
120.1908271147976
 30
0.0
 10
135.2037815717482
 20
119.9754088616196
 30
0.0
 10
135.159988921105
 20
119.7547487438717
 30
0.0
  0
SPLINE
  5
7A
330
1F
100
AcDbEntity
  8
0
  6
Continuous
 62
     7
370
    15
100
AcDbSpline
210
0.0
220
0.0
230
1.0
 70
     8
 71
     3
 72
    12
 73
     8
 74
     0
 42
0.00000001
 43
0.00000001
 12
1.0
 22
0.0
 32
0.0
 13
1.0
 23
0.0
 33
0.0
 40
0.0
 40
0.0
 40
0.0
 40
0.0
 40
0.4999999999999999
 40
0.4999999999999999
 40
0.7499999999999998
 40
0.7499999999999998
 40
1.0
 40
1.0
 40
1.0
 40
1.0
 10
135.6647969782134
 20
120.9711001357521
 30
0.0
 10
135.7211055265091
 20
121.020254402996
 30
0.0
 10
135.7913801872272
 20
121.0622117215997
 30
0.0
 10
135.9094181015508
 20
121.0731713991321
 30
0.0
 10
135.9495943424047
 20
121.0676626408848
 30
0.0
 10
136.0235514370826
 20
121.0421054120958
 30
0.0
 10
136.056167824794
 20
121.0233253642566
 30
0.0
 10
136.0863323757898
 20
121.0011775157398
 30
0.0
  0
SPLINE
  5
7B
330
1F
100
AcDbEntity
  8
0
  6
Continuous
 62
     7
370
    15
100
AcDbSpline
210
0.0
220
0.0
230
1.0
 70
     8
 71
     3
 72
    16
 73
    12
 74
     0
 42
0.00000001
 43
0.00000001
 12
1.0
 22
0.0
 32
0.0
 13
1.0
 23
0.0
 33
0.0
 40
0.0
 40
0.0
 40
0.0
 40
0.0
 40
0.0625000000000002
 40
0.0625000000000002
 40
0.1250000000000004
 40
0.1250000000000004
 40
0.2500000000000016
 40
0.2500000000000016
 40
0.5000000000000022
 40
0.5000000000000022
 40
1.0
 40
1.0
 40
1.0
 40
1.0
 10
136.0863323757581
 20
121.0011775156853
 30
0.0
 10
136.0979452755974
 20
120.9926509260901
 30
0.0
 10
136.1112964600299
 20
120.9861506645573
 30
0.0
 10
136.1406962996491
 20
120.9845812674398
 30
0.0
 10
136.1555370242044
 20
120.9904646580704
 30
0.0
 10
136.1913702321729
 20
121.0190122941209
 30
0.0
 10
136.2054834399946
 20
121.0471793134267
 30
0.0
 10
136.2399748112134
 20
121.1309335718487
 30
0.0
 10
136.2510588823238
 20
121.1886469854701
 30
0.0
 10
136.2771817001198
 20
121.3622375221159
 30
0.0
 10
136.2813092646647
 20
121.4772655747579
 30
0.0
 10
136.2813092646647
 20
121.5904617408607
 30
0.0
  0
LINE
  5
7C
330
1F
100
AcDbEntity
  8
0
  6
Continuous
 62
     7
370
    15
100
AcDbLine
 10
136.2813092647
 20
137.108394694
 30
0.0
 11
136.2813092647
 21
121.5904617409
 31
0.0
  0
SPLINE
  5
7D
330
1F
100
AcDbEntity
  8
0
  6
Continuous
 62
     7
370
    15
100
AcDbSpline
210
0.0
220
0.0
230
1.0
 70
     8
 71
     3
 72
    16
 73
    12
 74
     0
 42
0.00000001
 43
0.00000001
 12
1.0
 22
0.0
 32
0.0
 13
1.0
 23
0.0
 33
0.0
 40
0.0
 40
0.0
 40
0.0
 40
0.0
 40
0.5000000000000028
 40
0.5000000000000028
 40
0.7500000000000038
 40
0.7500000000000038
 40
0.8750000000000029
 40
0.8750000000000029
 40
0.9375000000000014
 40
0.9375000000000014
 40
1.0
 40
1.0
 40
1.0
 40
1.0
 10
136.2813092646647
 20
136.6281689033519
 30
0.0
 10
136.2813092646647
 20
136.6034977473089
 30
0.0
 10
136.2771435662047
 20
136.5759159159177
 30
0.0
 10
136.2508852378798
 20
136.5255730450944
 30
0.0
 10
136.2393814561422
 20
136.5072835470325
 30
0.0
 10
136.2052506967957
 20
136.4761285159955
 30
0.0
 10
136.1908288101249
 20
136.4644891407837
 30
0.0
 10
136.1552618416871
 20
136.4476071148527
 30
0.0
 10
136.1403100733924
 20
136.442218011045
 30
0.0
 10
136.1113062550327
 20
136.4355975151005
 30
0.0
 10
136.0978909010234
 20
136.4342449268941
 30
0.0
 10
136.0863323757868
 20
136.4339453030225
 30
0.0
  0
SPLINE
  5
7E
330
1F
100
AcDbEntity
  8
0
  6
Continuous
 62
     7
370
    15
100
AcDbSpline
210
0.0
220
0.0
230
1.0
 70
     8
 71
     3
 72
    12
 73
     8
 74
     0
 42
0.00000001
 43
0.00000001
 12
1.0
 22
0.0
 32
0.0
 13
1.0
 23
0.0
 33
0.0
 40
0.0
 40
0.0
 40
0.0
 40
0.0
 40
0.2500000000000001
 40
0.2500000000000001
 40
0.4999999999999999
 40
0.4999999999999999
 40
1.0
 40
1.0
 40
1.0
 40
1.0
 10
136.0863323757961
 20
136.4339453030242
 30
0.0
 10
136.0561445992464
 20
136.4331627656066
 30
0.0
 10
136.0227907951547
 20
136.4322694337881
 30
0.0
 10
135.9496645919588
 20
136.4303421249845
 30
0.0
 10
135.9094293889346
 20
136.4293025937718
 30
0.0
 10
135.7917377588015
 20
136.4263847104246
 30
0.0
 10
135.7213570856415
 20
136.4247891043543
 30
0.0
 10
135.6647969782109
 20
136.4233681175865
 30
0.0
  0
SPLINE
  5
7F
330
1F
100
AcDbEntity
  8
0
  6
Continuous
 62
     7
370
    15
100
AcDbSpline
210
0.0
220
0.0
230
1.0
 70
     8
 71
     3
 72
    16
 73
    12
 74
     0
 42
0.00000001
 43
0.00000001
 12
1.0
 22
0.0
 32
0.0
 13
1.0
 23
0.0
 33
0.0
 40
0.0
 40
0.0
 40
0.0
 40
0.0
 40
0.2500000000000001
 40
0.2500000000000001
 40
0.3750000000000001
 40
0.3750000000000001
 40
0.5000000000000001
 40
0.5000000000000001
 40
0.75
 40
0.75
 40
1.0
 40
1.0
 40
1.0
 40
1.0
 10
135.159988921105
 20
119.7547487438717
 30
0.0
 10
134.9987564436205
 20
118.9423389686249
 30
0.0
 10
134.8782766039809
 20
118.1022606742401
 30
0.0
 10
134.7558960866676
 20
116.8009656248773
 30
0.0
 10
134.7249184262701
 20
116.3602845892926
 30
0.0
 10
134.6833046886422
 20
115.4644449483614
 30
0.0
 10
134.6730687757094
 20
115.017786817159
 30
0.0
 10
134.6728803786532
 20
113.6824768600191
 30
0.0
 10
134.7130250812909
 20
112.7979814867116
 30
0.0
 10
134.8771788362304
 20
111.0407315986856
 30
0.0
 10
134.99873048664
 20
110.1949406522724
 30
0.0
 10
135.159988921105
 20
109.3824000863496
 30
0.0
  0
LINE
  5
80
330
1F
100
AcDbEntity
  8
0
  6
Continuous
 62
     7
370
    15
100
AcDbLine
 10
134.2813092647
 20
121.0537526768
 30
0.0
 11
134.2813092647
 21
108.0833961534
 31
0.0
  0
LINE
  5
81
330
1F
100
AcDbEntity
  8
0
  6
Continuous
 62
     7
370
    15
100
AcDbLine
 10
99.9813092647
 20
120.6228849827
 30
0.0
 11
99.9813092647
 21
108.5142638476
 31
0.0
  0
LINE
  5
82
330
1F
100
AcDbEntity
  8
0
  6
Continuous
 62
     7
370
    15
100
AcDbLine
 10
98.4813092647
 20
120.1898722808
 30
0.0
 11
98.4813092647
 21
108.9472765495
 31
0.0
  0
LINE
  5
83
330
1F
100
AcDbEntity
  8
0
  6
Continuous
 62
     7
370
    15
100
AcDbLine
 10
99.9813092647
 20
120.6228849827
 30
0.0
 11
99.9813092647
 21
135.7269378114
 31
0.0
  0
LINE
  5
84
330
1F
100
AcDbEntity
  8
0
  6
Continuous
 62
     7
370
    15
100
AcDbLine
 10
99.9813092647
 20
135.7269378114
 30
0.0
 11
134.2813092647
 21
136.5886731997
 31
0.0
  0
LINE
  5
85
330
1F
100
AcDbEntity
  8
0
  6
Continuous
 62
     7
370
    15
100
AcDbLine
 10
134.2813092647
 20
121.0537526768
 30
0.0
 11
134.2813092647
 21
136.5886731997
 31
0.0
  0
ARC
  5
86
330
1F
100
AcDbEntity
  8
0
  6
Continuous
 62
     7
370
    15
100
AcDbCircle
 10
134.4812461756
 20
136.5936963108
 30
0.0
 40
0.2000000000000066
100
AcDbArc
 50
181.4391666667
 51
271.4391666667
  0
LINE
  5
87
330
1F
100
AcDbEntity
  8
0
  6
Continuous
 62
     7
370
    15
100
AcDbLine
 10
99.9813092647
 20
93.4102110188
 30
0.0
 11
99.9813092647
 21
108.5142638476
 31
0.0
  0
LINE
  5
88
330
1F
100
AcDbEntity
  8
0
  6
Continuous
 62
     7
370
    15
100
AcDbLine
 10
134.2813092647
 20
92.5484756305
 30
0.0
 11
134.2813092647
 21
108.0833961534
 31
0.0
  0
LINE
  5
89
330
1F
100
AcDbEntity
  8
0
  6
Continuous
 62
     7
370
    15
100
AcDbLine
 10
99.9813092647
 20
93.4102110188
 30
0.0
 11
134.2813092647
 21
92.5484756305
 31
0.0
  0
ARC
  5
8A
330
1F
100
AcDbEntity
  8
0
  6
Continuous
 62
     7
370
    15
100
AcDbCircle
 10
134.4812461756
 20
92.5434525194
 30
0.0
 40
0.1999999999999924
100
AcDbArc
 50
88.5608333333
 51
178.5608333333
  0
LINE
  5
8B
330
1F
100
AcDbEntity
  8
0
  6
Continuous
 62
     7
370
    15
100
AcDbLine
 10
134.4862692867
 20
136.3937593999
 30
0.0
 11
135.6647969782
 21
136.4233681176
 31
0.0
  0
LINE
  5
8C
330
1F
100
AcDbEntity
  8
0
  6
Continuous
 62
     7
370
    15
100
AcDbLine
 10
134.4862692867
 20
92.7433894304
 30
0.0
 11
135.6647969782
 21
92.7137807126
 31
0.0
  0
LINE
  5
8D
330
1F
100
AcDbEntity
  8
0
  6
Continuous
 62
     7
370
    15
100
AcDbLine
 10
98.4813092647
 20
134.8609124076
 30
0.0
 11
99.9813092647
 21
135.7269378114
 31
0.0
  0
LINE
  5
8E
330
1F
100
AcDbEntity
  8
0
  6
Continuous
 62
     7
370
    15
100
AcDbLine
 10
98.4813092647
 20
120.1898722808
 30
0.0
 11
98.4813092647
 21
134.8609124076
 31
0.0
  0
LINE
  5
8F
330
1F
100
AcDbEntity
  8
0
  6
Continuous
 62
     7
370
    15
100
AcDbLine
 10
98.4813092647
 20
94.2762364226
 30
0.0
 11
99.9813092647
 21
93.4102110188
 31
0.0
  0
LINE
  5
90
330
1F
100
AcDbEntity
  8
0
  6
Continuous
 62
     7
370
    15
100
AcDbLine
 10
98.4813092647
 20
94.2762364226
 30
0.0
 11
98.4813092647
 21
108.9472765495
 31
0.0
  0
LINE
  5
91
330
1F
100
AcDbEntity
  8
0
  6
Continuous
 62
     7
370
    15
100
AcDbLine
 10
248.0852711925
 20
134.5676830946
 30
0.0
 11
250.4813092647
 21
134.5676830946
 31
0.0
  0
SPLINE
  5
92
330
1F
100
AcDbEntity
  8
0
  6
Continuous
 62
     7
370
    15
100
AcDbSpline
210
0.0
220
0.0
230
1.0
 70
     8
 71
     3
 72
    14
 73
    10
 74
     0
 42
0.00000001
 43
0.00000001
 12
1.0
 22
0.0
 32
0.0
 13
1.0
 23
0.0
 33
0.0
 40
0.0
 40
0.0
 40
0.0
 40
0.0
 40
0.25
 40
0.25
 40
0.5
 40
0.5
 40
0.75
 40
0.75
 40
1.0
 40
1.0
 40
1.0
 40
1.0
 10
242.289716234804
 20
134.0119521347059
 30
0.0
 10
242.4548390327004
 20
134.1633746020198
 30
0.0
 10
242.7144953430476
 20
134.274443685086
 30
0.0
 10
243.4366103512954
 20
134.4375404570439
 30
0.0
 10
243.8793070860611
 20
134.4853600704338
 30
0.0
 10
244.9278558519141
 20
134.5453697782094
 30
0.0
 10
245.5070981879747
 20
134.5563452174315
 30
0.0
 10
246.7673510665955
 20
134.5675371936128
 30
0.0
 10
247.4180471748573
 20
134.5676830945951
 30
0.0
 10
248.0852711925386
 20
134.5676830945951
 30
0.0
  0
ELLIPSE
  5
93
330
1F
100
AcDbEntity
  8
0
  6
Continuous
 62
     7
370
    15
100
AcDbEllipse
 10
243.9055866587
 20
114.5685744151
 30
0.0
 11
-0.4025701892336429
 21
19.99971074150079
 31
0.0
210
0.0
220
0.0
230
1.0
 40
0.2671959542
 41
0.2311007905302067
 42
2.760108958458532
  0
SPLINE
  5
94
330
1F
100
AcDbEntity
  8
0
  6
Continuous
 62
     7
370
    15
100
AcDbSpline
210
0.0
220
0.0
230
1.0
 70
     8
 71
     3
 72
    16
 73
    12
 74
     0
 42
0.00000001
 43
0.00000001
 12
1.0
 22
0.0
 32
0.0
 13
1.0
 23
0.0
 33
0.0
 40
0.0
 40
0.0
 40
0.0
 40
0.0
 40
0.2499999999999992
 40
0.2499999999999992
 40
0.4999999999999983
 40
0.4999999999999983
 40
0.7499999999999976
 40
0.7499999999999976
 40
0.8749999999999989
 40
0.8749999999999989
 40
1.0
 40
1.0
 40
1.0
 40
1.0
 10
248.0852711925386
 20
94.79037399535721
 30
0.0
 10
247.4180452263572
 20
94.79037399535721
 30
0.0
 10
246.7692691949685
 20
94.80562366925236
 30
0.0
 10
245.5086265178941
 20
94.8771085175058
 30
0.0
 10
244.9298793837183
 20
94.93174378366137
 30
0.0
 10
243.8815544723622
 20
95.10516679374642
 30
0.0
 10
243.437666833606
 20
95.22025803357064
 30
0.0
 10
242.8966438752797
 20
95.4566534887966
 30
0.0
 10
242.7407752249853
 20
95.54487018797658
 30
0.0
 10
242.4789538093862
 20
95.74030327125085
 30
0.0
 10
242.3722813046944
 20
95.84782728697735
 30
0.0
 10
242.289716234804
 20
95.9665309930857
 30
0.0
  0
LINE
  5
95
330
1F
100
AcDbEntity
  8
0
  6
Continuous
 62
     7
370
    15
100
AcDbLine
 10
250.4813092647
 20
94.7903739954
 30
0.0
 11
248.0852711925
 21
94.7903739954
 31
0.0
  0
LINE
  5
96
330
1F
100
AcDbEntity
  8
0
  6
Continuous
 62
     7
370
    15
100
AcDbLine
 10
250.4813092647
 20
94.7903739954
 30
0.0
 11
250.4813092647
 21
94.5685744151
 31
0.0
  0
LINE
  5
97
330
1F
100
AcDbEntity
  8
0
  6
Continuous
 62
     7
370
    15
100
AcDbLine
 10
250.4813092647
 20
134.5685744151
 30
0.0
 11
250.4813092647
 21
134.5676830946
 31
0.0
  0
ELLIPSE
  5
98
330
1F
100
AcDbEntity
  8
0
  6
Continuous
 62
     7
370
    15
100
AcDbEllipse
 10
241.2762507765
 20
126.0398028185
 30
0.0
 11
0.1054591905750328
 21
2.770895234338909
 31
0.0
210
0.0
220
0.0
230
1.0
 40
0.2575917467
 41
0.0
 42
6.283185307179586
  0
LINE
  5
99
330
1F
100
AcDbEntity
  8
0
  6
Continuous
 62
     7
370
    15
100
AcDbLine
 10
253.1132930179
 20
94.2900598611
 30
0.0
 11
250.9813092647
 21
94.2900598611
 31
0.0
  0
ELLIPSE
  5
9A
330
1F
100
AcDbEntity
  8
0
  6
Continuous
 62
     7
370
    15
100
AcDbEllipse
 10
267.1873212287
 20
114.5685744151
 30
0.0
 11
14.61549449049057
 21
20.47670097187958
 31
0.0
210
0.0
220
0.0
230
1.0
 40
0.0668534593
 41
3.189273956189419
 42
3.336404370142084
  0
LINE
  5
9B
330
1F
100
AcDbEntity
  8
0
  6
Continuous
 62
     7
370
    15
100
AcDbLine
 10
250.9813092647
 20
94.2900598611
 30
0.0
 11
250.9813092647
 21
94.0685744151
 31
0.0
  0
ARC
  5
9C
330
1F
100
AcDbEntity
  8
0
  6
Continuous
 62
     7
370
    15
100
AcDbCircle
 10
263.8172358155
 20
128.9122820296
 30
0.0
 40
2.097260633211908
100
AcDbArc
 50
118.3542156321
 51
333.0381963588
  0
LINE
  5
9D
330
1F
100
AcDbEntity
  8
0
  6
Continuous
 62
     7
370
    15
100
AcDbLine
 10
275.0589567014
 20
128.763415048
 30
0.0
 11
274.7374299535
 21
125.0972997833
 31
0.0
  0
LINE
  5
9E
330
1F
100
AcDbEntity
  8
0
  6
Continuous
 62
     7
370
    15
100
AcDbLine
 10
274.7374299535
 20
125.0972997833
 30
0.0
 11
253.1132930179
 21
94.2900598611
 31
0.0
  0
LINE
  5
9F
330
1F
100
AcDbEntity
  8
0
  6
Continuous
 62
     7
370
    15
100
AcDbLine
 10
250.9813092647
 20
94.2900598611
 30
0.0
 11
250.4813092647
 21
94.7903739954
 31
0.0
  0
SPLINE
  5
A0
330
1F
100
AcDbEntity
  8
0
  6
Continuous
 62
     7
370
    15
100
AcDbSpline
210
0.0
220
0.0
230
1.0
 70
     8
 71
     3
 72
     8
 73
     4
 74
     0
 42
0.00000001
 43
0.00000001
 12
1.0
 22
0.0
 32
0.0
 13
1.0
 23
0.0
 33
0.0
 40
0.0
 40
0.0
 40
0.0
 40
0.0
 40
1.0
 40
1.0
 40
1.0
 40
1.0
 10
250.4813092646647
 20
134.5676830945951
 30
0.0
 10
252.0643387260884
 20
136.1518289608167
 30
0.0
 10
253.6479414182152
 20
137.7354060216735
 30
0.0
 10
255.2318398882757
 20
139.3186895880008
 30
0.0
  0
ELLIPSE
  5
A1
330
1F
100
AcDbEntity
  8
0
  6
Continuous
 62
     7
370
    15
100
AcDbEllipse
 10
190.6631008389
 20
108.6665657938
 30
0.0
 11
4096.488451942354
 21
356.6522915817312
 31
0.0
210
0.0
220
0.0
230
1.0
 40
0.0060650906
 41
1.552444245934
 42
1.554505659078185
  0
ARC
  5
A2
330
1F
100
AcDbEntity
  8
0
  6
Continuous
 62
     7
370
    15
100
AcDbCircle
 10
263.8103021078
 20
128.5765014968
 30
0.0
 40
2.094795872323251
100
AcDbArc
 50
119.1366912474
 51
175.3757948557
  0
CIRCLE
  5
A3
330
1F
100
AcDbEntity
  8
0
  6
Continuous
 62
     7
370
    15
100
AcDbCircle
 10
269.5422109955
 20
134.6062518771
 30
0.0
 40
3.493695027270736
  0
CIRCLE
  5
A4
330
1F
100
AcDbEntity
  8
0
  6
Continuous
 62
     7
370
    15
100
AcDbCircle
 10
269.5407235742
 20
134.6410412635
 30
0.0
 40
2.629160218477247
  0
CIRCLE
  5
A5
330
1F
100
AcDbEntity
  8
0
  6
Continuous
 62
     7
370
    15
100
AcDbCircle
 10
269.5393488336
 20
134.6409782807
 30
0.0
 40
1.996562555262445
  0
SPLINE
  5
A6
330
1F
100
AcDbEntity
  8
0
  6
Continuous
 62
     7
370
    15
100
AcDbSpline
210
0.0
220
0.0
230
1.0
 70
     8
 71
     3
 72
    15
 73
    11
 74
     0
 42
0.00000001
 43
0.00000001
 12
1.0
 22
0.0
 32
0.0
 13
1.0
 23
0.0
 33
0.0
 40
0.0
 40
0.0
 40
0.0
 40
0.0
 40
0.1262470803729888
 40
0.2533633350514184
 40
0.3794185517360544
 40
0.5042689738352544
 40
0.6284502821606383
 40
0.7526361292232191
 40
0.8774891912115356
 40
1.0
 40
1.0
 40
1.0
 40
1.0
 10
269.876677604636
 20
136.3083417572779
 30
0.0
 10
269.861262111125
 20
136.350286644429
 30
0.0
 10
269.830324992929
 20
136.4344651970385
 30
0.0
 10
269.7342940266533
 20
136.5324078509832
 30
0.0
 10
269.6141477091264
 20
136.5940892039636
 30
0.0
 10
269.4806247296567
 20
136.6116503964461
 30
0.0
 10
269.3494903472221
 20
136.5842317156613
 30
0.0
 10
269.2355821299665
 20
136.5150229692438
 30
0.0
 10
269.1481753393912
 20
136.413214428982
 30
0.0
 10
269.1225800586874
 20
136.3295246709904
 30
0.0
 10
269.1099035973662
 20
136.2880760151835
 30
0.0
  0
SPLINE
  5
A7
330
1F
100
AcDbEntity
  8
0
  6
Continuous
 62
     7
370
    15
100
AcDbSpline
210
0.0
220
0.0
230
1.0
 70
     8
 71
     3
 72
    12
 73
     8
 74
     0
 42
0.00000001
 43
0.00000001
 12
1.0
 22
0.0
 32
0.0
 13
1.0
 23
0.0
 33
0.0
 40
0.0
 40
0.0
 40
0.0
 40
0.0
 40
0.2058748011360407
 40
0.4120995812663515
 40
0.614169336612594
 40
0.8132901286731048
 40
1.0
 40
1.0
 40
1.0
 40
1.0
 10
269.1099035973662
 20
136.2880760151835
 30
0.0
 10
269.0870144173471
 20
136.2137969865188
 30
0.0
 10
269.041197146611
 20
136.0651126577874
 30
0.0
 10
268.8845643913388
 20
135.8865447451236
 30
0.0
 10
268.685152343368
 20
135.7705512104469
 30
0.0
 10
268.4642662175835
 20
135.7241535771789
 30
0.0
 10
268.3222720660552
 20
135.7511645825988
 30
0.0
 10
268.2535587358905
 20
135.7642356571009
 30
0.0
  0
SPLINE
  5
A8
330
1F
100
AcDbEntity
  8
0
  6
Continuous
 62
     7
370
    15
100
AcDbSpline
210
0.0
220
0.0
230
1.0
 70
     8
 71
     3
 72
    15
 73
    11
 74
     0
 42
0.00000001
 43
0.00000001
 12
1.0
 22
0.0
 32
0.0
 13
1.0
 23
0.0
 33
0.0
 40
0.0
 40
0.0
 40
0.0
 40
0.0
 40
0.1268765508971482
 40
0.253993629034588
 40
0.3800496379883931
 40
0.5049006370991594
 40
0.6290821973265976
 40
0.7532679407718764
 40
0.8781205851190768
 40
1.0
 40
1.0
 40
1.0
 40
1.0
 10
268.2535587358905
 20
135.7642356571009
 30
0.0
 10
268.209616085055
 20
135.7721431467459
 30
0.0
 10
268.1216474787507
 20
135.7879731167229
 30
0.0
 10
267.9893275401746
 20
135.7542090975476
 30
0.0
 10
267.8763886502233
 20
135.6813854260242
 30
0.0
 10
267.7947383672804
 20
135.5747763907682
 30
0.0
 10
267.7529872130351
 20
135.4475910353267
 30
0.0
 10
267.7557686249967
 20
135.3142532314091
 30
0.0
 10
267.7997078187103
 20
135.1876242307131
 30
0.0
 10
267.8586448102553
 20
135.1234079728419
 30
0.0
 10
267.8877581977366
 20
135.0916867609342
 30
0.0
  0
SPLINE
  5
A9
330
1F
100
AcDbEntity
  8
0
  6
Continuous
 62
     7
370
    15
100
AcDbSpline
210
0.0
220
0.0
230
1.0
 70
     8
 71
     3
 72
    12
 73
     8
 74
     0
 42
0.00000001
 43
0.00000001
 12
1.0
 22
0.0
 32
0.0
 13
1.0
 23
0.0
 33
0.0
 40
0.0
 40
0.0
 40
0.0
 40
0.0
 40
0.2057949882088006
 40
0.4120010155283643
 40
0.6140549927930923
 40
0.8131810826684872
 40
1.0
 40
1.0
 40
1.0
 40
1.0
 10
267.8877581977366
 20
135.0916867609342
 30
0.0
 10
267.9400848817226
 20
135.0343961443609
 30
0.0
 10
268.044842762996
 20
134.9197004833348
 30
0.0
 10
268.1204472375009
 20
134.6945073814391
 30
0.0
 10
268.1215588561246
 20
134.4643008590477
 30
0.0
 10
268.0526054057767
 20
134.2509150048514
 30
0.0
 10
267.9594466496005
 20
134.142469009966
 30
0.0
 10
267.9143526138084
 20
134.0899750976854
 30
0.0
  0
SPLINE
  5
AA
330
1F
100
AcDbEntity
  8
0
  6
Continuous
 62
     7
370
    15
100
AcDbSpline
210
0.0
220
0.0
230
1.0
 70
     8
 71
     3
 72
    15
 73
    11
 74
     0
 42
0.00000001
 43
0.00000001
 12
1.0
 22
0.0
 32
0.0
 13
1.0
 23
0.0
 33
0.0
 40
0.0
 40
0.0
 40
0.0
 40
0.0
 40
0.1268036956062213
 40
0.2539263442700078
 40
0.3799872671767799
 40
0.5048410097957183
 40
0.6290227167746791
 40
0.7532063308918463
 40
0.8780553361590917
 40
1.0
 40
1.0
 40
1.0
 40
1.0
 10
267.9143526138084
 20
134.0899750976854
 30
0.0
 10
267.8859383077116
 20
134.0562224887072
 30
0.0
 10
267.8290382241797
 20
133.9886323718228
 30
0.0
 10
267.7930599250521
 20
133.8579821324366
 30
0.0
 10
267.8003442982251
 20
133.724318190647
 30
0.0
 10
267.8522261111499
 20
133.600566180528
 30
0.0
 10
267.9415461789406
 20
133.5007723076298
 30
0.0
 10
268.0581095315837
 20
133.4361584963085
 30
0.0
 10
268.189148188597
 20
133.4102689647445
 30
0.0
 10
268.2735980619052
 20
133.4286229333094
 30
0.0
 10
268.3153260829245
 20
133.4376919201066
 30
0.0
  0
SPLINE
  5
AB
330
1F
100
AcDbEntity
  8
0
  6
Continuous
 62
     7
370
    15
100
AcDbSpline
210
0.0
220
0.0
230
1.0
 70
     8
 71
     3
 72
    12
 73
     8
 74
     0
 42
0.00000001
 43
0.00000001
 12
1.0
 22
0.0
 32
0.0
 13
1.0
 23
0.0
 33
0.0
 40
0.0
 40
0.0
 40
0.0
 40
0.0
 40
0.2058497400954477
 40
0.4120524486336594
 40
0.6141081262895014
 40
0.8132431903674721
 40
1.0
 40
1.0
 40
1.0
 40
1.0
 10
268.3153260829245
 20
133.4376919201066
 30
0.0
 10
268.3905520024179
 20
133.4538551152574
 30
0.0
 10
268.5411328305191
 20
133.4862092204243
 30
0.0
 10
268.7733358052402
 20
133.4382623503028
 30
0.0
 10
268.9738213455109
 20
133.3241519837144
 30
0.0
 10
269.1257489562096
 20
133.1585712638185
 30
0.0
 10
269.1746157255386
 20
133.0246387600762
 30
0.0
 10
269.1982653604718
 20
132.9598205848074
 30
0.0
  0
SPLINE
  5
AC
330
1F
100
AcDbEntity
  8
0
  6
Continuous
 62
     7
370
    15
100
AcDbSpline
210
0.0
220
0.0
230
1.0
 70
     8
 71
     3
 72
    15
 73
    11
 74
     0
 42
0.00000001
 43
0.00000001
 12
1.0
 22
0.0
 32
0.0
 13
1.0
 23
0.0
 33
0.0
 40
0.0
 40
0.0
 40
0.0
 40
0.0
 40
0.1262564375373622
 40
0.2533820972840402
 40
0.3794454811308747
 40
0.5043002379032847
 40
0.6284814530464597
 40
0.7526634908999325
 40
0.877510462112189
 40
1.0
 40
1.0
 40
1.0
 40
1.0
 10
269.1982653604718
 20
132.9598205848074
 30
0.0
 10
269.2136817938629
 20
132.9188058706675
 30
0.0
 10
269.2446207962731
 20
132.836494073416
 30
0.0
 10
269.3406585808654
 20
132.7405975948139
 30
0.0
 10
269.4608126409701
 20
132.6802049937448
 30
0.0
 10
269.594340987519
 20
132.6630591146055
 30
0.0
 10
269.7254753573017
 20
132.6900212401198
 30
0.0
 10
269.839378477632
 20
132.757920901041
 30
0.0
 10
269.9267738623699
 20
132.8576950191541
 30
0.0
 10
269.9523655063192
 20
132.9395492672456
 30
0.0
 10
269.9650393677421
 20
132.9800863034453
 30
0.0
  0
SPLINE
  5
AD
330
1F
100
AcDbEntity
  8
0
  6
Continuous
 62
     7
370
    15
100
AcDbSpline
210
0.0
220
0.0
230
1.0
 70
     8
 71
     3
 72
    12
 73
     8
 74
     0
 42
0.00000001
 43
0.00000001
 12
1.0
 22
0.0
 32
0.0
 13
1.0
 23
0.0
 33
0.0
 40
0.0
 40
0.0
 40
0.0
 40
0.0
 40
0.2058713741443413
 40
0.4120924153877668
 40
0.6141683533433447
 40
0.8133068872801582
 40
1.0
 40
1.0
 40
1.0
 40
1.0
 10
269.9650393677421
 20
132.9800863034453
 30
0.0
 10
269.9879282535667
 20
133.0527620591041
 30
0.0
 10
270.0337449013848
 20
133.1982370082757
 30
0.0
 10
270.1903761269172
 20
133.3742291255992
 30
0.0
 10
270.3897915786747
 20
133.4904176259066
 30
0.0
 10
270.6106818677522
 20
133.5395353514124
 30
0.0
 10
270.752676843074
 20
133.5155382067852
 30
0.0
 10
270.8213842292178
 20
133.5039266615279
 30
0.0
  0
SPLINE
  5
AE
330
1F
100
AcDbEntity
  8
0
  6
Continuous
 62
     7
370
    15
100
AcDbSpline
210
0.0
220
0.0
230
1.0
 70
     8
 71
     3
 72
    15
 73
    11
 74
     0
 42
0.00000001
 43
0.00000001
 12
1.0
 22
0.0
 32
0.0
 13
1.0
 23
0.0
 33
0.0
 40
0.0
 40
0.0
 40
0.0
 40
0.0
 40
0.1268702503423887
 40
0.2539810595564982
 40
0.3800301963393696
 40
0.5048749967544638
 40
0.6290527571812695
 40
0.7532384607995788
 40
0.8780953942141904
 40
1.0
 40
1.0
 40
1.0
 40
1.0
 10
270.8213842292178
 20
133.5039266615279
 30
0.0
 10
270.8653254694493
 20
133.4969557961855
 30
0.0
 10
270.9532912669634
 20
133.4830008480324
 30
0.0
 10
271.0856077604216
 20
133.5188097577149
 30
0.0
 10
271.1985447410905
 20
133.5929108368904
 30
0.0
 10
271.2801960720311
 20
133.6999174503576
 30
0.0
 10
271.3219522295368
 20
133.826627755345
 30
0.0
 10
271.3191784874259
 20
133.9586441948929
 30
0.0
 10
271.2752445973732
 20
134.0832496257991
 30
0.0
 10
271.2163029790865
 20
134.1456491179926
 30
0.0
 10
271.1871847673713
 20
134.176475581151
 30
0.0
  0
SPLINE
  5
AF
330
1F
100
AcDbEntity
  8
0
  6
Continuous
 62
     7
370
    15
100
AcDbSpline
210
0.0
220
0.0
230
1.0
 70
     8
 71
     3
 72
    12
 73
     8
 74
     0
 42
0.00000001
 43
0.00000001
 12
1.0
 22
0.0
 32
0.0
 13
1.0
 23
0.0
 33
0.0
 40
0.0
 40
0.0
 40
0.0
 40
0.0
 40
0.2058321750920818
 40
0.4120750343576354
 40
0.6141697879283753
 40
0.813302933985656
 40
1.0
 40
1.0
 40
1.0
 40
1.0
 10
271.1871847673713
 20
134.176475581151
 30
0.0
 10
271.1348514661631
 20
134.2321729524473
 30
0.0
 10
271.0300804463566
 20
134.3436788245506
 30
0.0
 10
270.9544806325781
 20
134.566332646057
 30
0.0
 10
270.9533957537924
 20
134.7967629348397
 30
0.0
 10
271.0223815029325
 20
135.0128415556746
 30
0.0
 10
271.1155214306124
 20
135.124269213734
 30
0.0
 10
271.1605903512996
 20
135.1781872745329
 30
0.0
  0
SPLINE
  5
B0
330
1F
100
AcDbEntity
  8
0
  6
Continuous
 62
     7
370
    15
100
AcDbSpline
210
0.0
220
0.0
230
1.0
 70
     8
 71
     3
 72
    15
 73
    11
 74
     0
 42
0.00000001
 43
0.00000001
 12
1.0
 22
0.0
 32
0.0
 13
1.0
 23
0.0
 33
0.0
 40
0.0
 40
0.0
 40
0.0
 40
0.0
 40
0.1267880291974996
 40
0.25389500640758
 40
0.3799409022877277
 40
0.5047841289692481
 40
0.6289621452109956
 40
0.7531495391279348
 40
0.8780089278149946
 40
1.0
 40
1.0
 40
1.0
 40
1.0
 10
271.1605903512996
 20
135.1781872745329
 30
0.0
 10
271.1890026831604
 20
135.2128729195683
 30
0.0
 10
271.2458988209544
 20
135.2823314648605
 30
0.0
 10
271.2818795895568
 20
135.4150182233379
 30
0.0
 10
271.2746044087751
 20
135.5499553699498
 30
0.0
 10
271.2227374457121
 20
135.6741084906444
 30
0.0
 10
271.1334322286418
 20
135.773439311795
 30
0.0
 10
271.0168773828203
 20
135.8367474451134
 30
0.0
 10
270.8858260857405
 20
135.860622307601
 30
0.0
 10
270.8013594590943
 20
135.8404429114197
 30
0.0
 10
270.7596168821835
 20
135.8304704521117
 30
0.0
  0
SPLINE
  5
B1
330
1F
100
AcDbEntity
  8
0
  6
Continuous
 62
     7
370
    15
100
AcDbSpline
210
0.0
220
0.0
230
1.0
 70
     8
 71
     3
 72
    12
 73
     8
 74
     0
 42
0.00000001
 43
0.00000001
 12
1.0
 22
0.0
 32
0.0
 13
1.0
 23
0.0
 33
0.0
 40
0.0
 40
0.0
 40
0.0
 40
0.0
 40
0.2058903596434386
 40
0.4121336430768153
 40
0.6142239121175542
 40
0.8133482777366056
 40
1.0
 40
1.0
 40
1.0
 40
1.0
 10
270.7596168821835
 20
135.8304704521117
 30
0.0
 10
270.6843791890602
 20
135.8127033366552
 30
0.0
 10
270.5337748352803
 20
135.7771386505148
 30
0.0
 10
270.3015413104774
 20
135.822533551062
 30
0.0
 10
270.1010451360435
 20
135.9368738013991
 30
0.0
 10
269.9491591582079
 20
136.1051854020776
 30
0.0
 10
269.9003116883873
 20
136.2420984984515
 30
0.0
 10
269.876677604636
 20
136.3083417572779
 30
0.0
  0
LWPOLYLINE
  5
B2
330
1F
100
AcDbEntity
  8
0
  6
Continuous
 62
     7
370
    15
100
AcDbPolyline
 90
        3
 70
   128
 43
0.0
 10
267.8028605663
 20
133.7587299606
 10
267.8378133269
 20
133.8684629995
 10
267.9143526138
 20
133.974935733
  0
ARC
  5
B3
330
1F
100
AcDbEntity
  8
0
  6
Continuous
 62
     7
370
    15
100
AcDbCircle
 10
270.926310469
 20
133.7679451039
 30
0.0
 40
0.3926476259206939
100
AcDbArc
 50
7.1883442329
 51
48.3638416506
  0
ARC
  5
B4
330
1F
100
AcDbEntity
  8
0
  6
Continuous
 62
     7
370
    15
100
AcDbCircle
 10
267.4313619109
 20
134.4634671714
 30
0.0
 40
0.6869810662766137
100
AcDbArc
 50
314.6732371703
 51
359.9881618793
  0
ARC
  5
B5
330
1F
100
AcDbEntity
  8
0
  6
Continuous
 62
     7
370
    15
100
AcDbCircle
 10
271.6436588413
 20
134.5749007421
 30
0.0
 40
0.6870588570113232
100
AcDbArc
 50
180.0132197032
 51
228.3645622671
  0
ARC
  5
B6
330
1F
100
AcDbEntity
  8
0
  6
Continuous
 62
     7
370
    15
100
AcDbCircle
 10
268.149750612
 20
135.2693364116
 30
0.0
 40
0.3938143975473528
100
AcDbArc
 50
74.7164226435
 51
174.1164835504
  0
ARC
  5
B7
330
1F
100
AcDbEntity
  8
0
  6
Continuous
 62
     7
370
    15
100
AcDbCircle
 10
270.883343932
 20
135.3414804779
 30
0.0
 40
0.3938875996480382
100
AcDbArc
 50
6.9299873419
 51
108.3075557591
  0
ARC
  5
B8
330
1F
100
AcDbEntity
  8
0
  6
Continuous
 62
     7
370
    15
100
AcDbCircle
 10
268.4350193422
 20
136.3144536243
 30
0.0
 40
0.6895360957960021
100
AcDbArc
 50
254.7421546755
 51
348.1674797951
  0
ARC
  5
B9
330
1F
100
AcDbEntity
  8
0
  6
Continuous
 62
     7
370
    15
100
AcDbCircle
 10
270.5432871207
 20
136.3703397952
 30
0.0
 40
0.6897129701927158
100
AcDbArc
 50
194.8717374618
 51
288.2794474723
  0
ARC
  5
BA
330
1F
100
AcDbEntity
  8
0
  6
Continuous
 62
     7
370
    15
100
AcDbCircle
 10
269.4956961355
 20
136.0921397943
 30
0.0
 40
0.3941883688606477
100
AcDbArc
 50
14.8732623076
 51
168.1534626333
  0
ARC
  5
BB
330
1F
100
AcDbEntity
  8
0
  6
Continuous
 62
     7
370
    15
100
AcDbCircle
 10
269.5359352023
 20
134.5973399983
 30
0.0
 40
3.50000522995329
100
AcDbArc
 50
180.0990494898
 51
359.9009505102
  0
LINE
  5
BC
330
1F
100
AcDbEntity
  8
0
  6
Continuous
 62
     7
370
    15
100
AcDbLine
 10
276.0464469676
 20
141.5670560022
 30
0.0
 11
264.0088519435
 21
140.5164683295
 31
0.0
  0
ARC
  5
BD
330
1F
100
AcDbEntity
  8
0
  6
Continuous
 62
     7
370
    15
100
AcDbCircle
 10
276.0817515999
 20
141.1691053796
 30
0.0
 40
0.3995135980503374
100
AcDbArc
 50
355.0699537939
 51
95.0697859757
  0
LINE
  5
BE
330
1F
100
AcDbEntity
  8
0
  6
Continuous
 62
     7
370
    15
100
AcDbLine
 10
275.4266340432
 20
129.1264993731
 30
0.0
 11
276.4797871439
 21
141.1347714207
 31
0.0
  0
ARC
  5
BF
330
1F
100
AcDbEntity
  8
0
  6
Continuous
 62
     7
370
    15
100
AcDbCircle
 10
275.0286833185
 20
129.1618051893
 30
0.0
 40
0.3995138043823754
100
AcDbArc
 50
274.9302140243
 51
354.9300462061
  0
LINE
  5
C0
330
1F
100
AcDbEntity
  8
0
  6
Continuous
 62
     7
370
    15
100
AcDbLine
 10
263.025423437
 20
127.7131818676
 30
0.0
 11
275.063018461
 21
128.7637695403
 31
0.0
  0
ARC
  5
C1
330
1F
100
AcDbEntity
  8
0
  6
Continuous
 62
     7
370
    15
100
AcDbCircle
 10
262.9901188047
 20
128.1111324901
 30
0.0
 40
0.3995135980503915
100
AcDbArc
 50
175.0699537939
 51
275.0697859756
  0
LINE
  5
C2
330
1F
100
AcDbEntity
  8
0
  6
Continuous
 62
     7
370
    15
100
AcDbLine
 10
263.6452363614
 20
140.1537384966
 30
0.0
 11
262.5920832607
 21
128.145466449
 31
0.0
  0
ARC
  5
C3
330
1F
100
AcDbEntity
  8
0
  6
Continuous
 62
     7
370
    15
100
AcDbCircle
 10
264.043187086
 20
140.1184326805
 30
0.0
 40
0.3995138043827033
100
AcDbArc
 50
94.9302140243
 51
174.9300462061
  0
ARC
  5
C4
330
1F
100
AcDbEntity
  8
0
  6
Continuous
 62
     7
370
    15
100
AcDbCircle
 10
262.9901409214
 20
128.1111103194
 30
0.0
 40
0.3795379181480102
100
AcDbArc
 50
175.0699537939
 51
275.0697859756
  0
LINE
  5
C5
330
1F
100
AcDbEntity
  8
0
  6
Continuous
 62
     7
370
    15
100
AcDbLine
 10
263.0236803222
 20
127.733057228
 30
0.0
 11
275.0612753462
 21
128.7836449009
 31
0.0
  0
ARC
  5
C6
330
1F
100
AcDbEntity
  8
0
  6
Continuous
 62
     7
370
    15
100
AcDbCircle
 10
275.0286569604
 20
129.1617787679
 30
0.0
 40
0.3795381146164383
100
AcDbArc
 50
274.930214074
 51
354.9300461054
  0
LINE
  5
C7
330
1F
100
AcDbEntity
  8
0
  6
Continuous
 62
     7
370
    15
100
AcDbLine
 10
275.4067101492
 20
129.1282382419
 30
0.0
 11
276.4598632499
 21
141.1365102894
 31
0.0
  0
ARC
  5
C8
330
1F
100
AcDbEntity
  8
0
  6
Continuous
 62
     7
370
    15
100
AcDbCircle
 10
276.0817294831
 20
141.1691275504
 30
0.0
 40
0.3795379181478272
100
AcDbArc
 50
355.0699537939
 51
95.0697859757
  0
LINE
  5
C9
330
1F
100
AcDbEntity
  8
0
  6
Continuous
 62
     7
370
    15
100
AcDbLine
 10
276.0481900824
 20
141.5471806418
 30
0.0
 11
264.0105950584
 21
140.4965929691
 31
0.0
  0
ARC
  5
CA
330
1F
100
AcDbEntity
  8
0
  6
Continuous
 62
     7
370
    15
100
AcDbCircle
 10
264.0432134438
 20
140.1184591026
 30
0.0
 40
0.379538114163888
100
AcDbArc
 50
94.9302140244
 51
174.9300462061
  0
LINE
  5
CB
330
1F
100
AcDbEntity
  8
0
  6
Continuous
 62
     7
370
    15
100
AcDbLine
 10
263.6651602554
 20
140.1519996279
 30
0.0
 11
262.6120071546
 21
128.1437275803
 31
0.0
  0
LINE
  5
CC
330
1F
100
AcDbEntity
  8
0
  6
Continuous
 62
     7
370
    15
100
AcDbLine
 10
275.0281561639
 20
129.1459726583
 30
0.0
 11
275.0612753462
 21
128.7836449009
 31
0.0
  0
LINE
  5
CD
330
1F
100
AcDbEntity
  8
0
  6
Continuous
 62
     7
370
    15
100
AcDbLine
 10
262.9905611399
 20
128.0953849856
 30
0.0
 11
263.0236803222
 21
127.733057228
 31
0.0
  0
LINE
  5
CE
330
1F
100
AcDbEntity
  8
0
  6
Continuous
 62
     7
370
    15
100
AcDbLine
 10
263.9095614844
 20
128.9785015731
 30
0.0
 11
262.9905611399
 21
128.0953849856
 31
0.0
  0
LINE
  5
CF
330
1F
100
AcDbEntity
  8
0
  6
Continuous
 62
     7
370
    15
100
AcDbLine
 10
274.4544618347
 20
129.6932387729
 30
0.0
 11
275.0281561639
 21
129.1459726583
 31
0.0
  0
LINE
  5
D0
330
1F
100
AcDbEntity
  8
0
  6
Continuous
 62
     7
370
    15
100
AcDbLine
 10
262.9905611399
 20
128.0953849856
 30
0.0
 11
262.6120071546
 21
128.1437275803
 31
0.0
  0
LINE
  5
D1
330
1F
100
AcDbEntity
  8
0
  6
Continuous
 62
     7
370
    15
100
AcDbLine
 10
264.0437142406
 20
140.1036570331
 30
0.0
 11
263.6651602554
 21
140.1519996279
 31
0.0
  0
LINE
  5
D2
330
1F
100
AcDbEntity
  8
0
  6
Continuous
 62
     7
370
    15
100
AcDbLine
 10
264.6174085699
 20
139.5063294704
 30
0.0
 11
264.0437142406
 21
140.1036570331
 31
0.0
  0
LINE
  5
D3
330
1F
100
AcDbEntity
  8
0
  6
Continuous
 62
     7
370
    15
100
AcDbLine
 10
275.0281561639
 20
129.1459726583
 30
0.0
 11
275.4067101492
 21
129.1282382419
 31
0.0
  0
LINE
  5
D4
330
1F
100
AcDbEntity
  8
0
  6
Continuous
 62
     7
370
    15
100
AcDbLine
 10
265.9598815958
 20
129.9920649617
 30
0.0
 11
272.6968885589
 21
130.5800409197
 31
0.0
  0
LINE
  5
D5
330
1F
100
AcDbEntity
  8
0
  6
Continuous
 62
     7
370
    15
100
AcDbLine
 10
276.0813092647
 20
141.1542447058
 30
0.0
 11
276.4598632499
 21
141.1365102894
 31
0.0
  0
LINE
  5
D6
330
1F
100
AcDbEntity
  8
0
  6
Continuous
 62
     7
370
    15
100
AcDbLine
 10
275.1623089202
 20
140.2038378817
 30
0.0
 11
276.0813092647
 21
141.1542447058
 31
0.0
  0
ARC
  5
D7
330
1F
100
AcDbEntity
  8
0
  6
Continuous
 62
     7
370
    15
100
AcDbCircle
 10
265.8716200145
 20
130.9869415177
 30
0.0
 40
0.9987839949361818
100
AcDbArc
 50
175.0699537786
 51
275.0697860058
  0
LINE
  5
D8
330
1F
100
AcDbEntity
  8
0
  6
Continuous
 62
     7
370
    15
100
AcDbLine
 10
273.1119888087
 20
139.2881729081
 30
0.0
 11
266.3749818457
 21
138.7001969501
 31
0.0
  0
ARC
  5
D9
330
1F
100
AcDbEntity
  8
0
  6
Continuous
 62
     7
370
    15
100
AcDbCircle
 10
273.2002503896
 20
138.2932963518
 30
0.0
 40
0.9987839951264065
100
AcDbArc
 50
355.0699537939
 51
95.0697859756
  0
LINE
  5
DA
330
1F
100
AcDbEntity
  8
0
  6
Continuous
 62
     7
370
    15
100
AcDbLine
 10
273.6059275142
 20
131.4868655018
 30
0.0
 11
274.1953392496
 21
138.2074614545
 31
0.0
  0
ARC
  5
DB
330
1F
100
AcDbEntity
  8
0
  6
Continuous
 62
     7
370
    15
100
AcDbCircle
 10
272.6110507026
 20
131.5751300422
 30
0.0
 40
0.9987845109565461
100
AcDbArc
 50
274.9302140243
 51
354.9300462061
  0
LINE
  5
DC
330
1F
100
AcDbEntity
  8
0
  6
Continuous
 62
     7
370
    15
100
AcDbLine
 10
265.4659428904
 20
137.793372368
 30
0.0
 11
264.8765311547
 21
131.0727764153
 31
0.0
  0
ARC
  5
DD
330
1F
100
AcDbEntity
  8
0
  6
Continuous
 62
     7
370
    15
100
AcDbCircle
 10
266.4608197019
 20
137.7051078276
 30
0.0
 40
0.9987845109565178
100
AcDbArc
 50
94.9302140243
 51
174.9300462061
  0
CIRCLE
  5
DE
330
1F
100
AcDbEntity
  8
0
  6
Continuous
 62
     7
370
    15
100
AcDbCircle
 10
269.5295687084
 20
134.6377137958
 30
0.0
 40
3.793797647486127
  0
LINE
  5
DF
330
1F
100
AcDbEntity
  8
0
  6
Continuous
 62
     7
370
    15
100
AcDbLine
 10
265.7503953495
 20
134.8902840459
 30
0.0
 11
265.7359352023
 21
134.5598989901
 31
0.0
  0
ARC
  5
E0
330
1F
100
AcDbEntity
  8
0
  6
Continuous
 62
     7
370
    15
100
AcDbCircle
 10
269.5356630782
 20
134.5528433526
 30
0.0
 40
3.800278673880007
100
AcDbArc
 50
0.1063760104
 51
174.9057883415
  0
SPLINE
  5
E1
330
1F
100
AcDbEntity
  8
0
  6
Continuous
 62
     7
370
    15
100
AcDbSpline
210
0.0
220
0.0
230
1.0
 70
     8
 71
     3
 72
    11
 73
     7
 74
     0
 42
0.00000001
 43
0.00000001
 12
1.0
 22
0.0
 32
0.0
 13
1.0
 23
0.0
 33
0.0
 40
0.0
 40
0.0
 40
0.0
 40
0.0
 40
0.0076282660081496
 40
0.3209888652310688
 40
0.6632168868589086
 40
1.0
 40
1.0
 40
1.0
 40
1.0
 10
264.3984890620015
 20
129.4714947579473
 30
0.0
 10
264.3973735013273
 20
129.470318654307
 30
0.0
 10
264.3504319612018
 20
129.4208295341725
 30
0.0
 10
264.246375988491
 20
129.3127675168838
 30
0.0
 10
264.0769281244016
 20
129.1411906240357
 30
0.0
 10
263.9650513222092
 20
129.0324405722322
 30
0.0
 10
263.9095614844123
 20
128.9785015731125
 30
0.0
  0
SPLINE
  5
E2
330
1F
100
AcDbEntity
  8
0
  6
Continuous
 62
     7
370
    15
100
AcDbSpline
210
0.0
220
0.0
230
1.0
 70
     8
 71
     3
 72
    11
 73
     7
 74
     0
 42
0.00000001
 43
0.00000001
 12
1.0
 22
0.0
 32
0.0
 13
1.0
 23
0.0
 33
0.0
 40
0.0
 40
0.0
 40
0.0
 40
0.0
 40
0.3372314186521076
 40
0.6736321483071817
 40
0.9918835608969363
 40
1.0
 40
1.0
 40
1.0
 40
1.0
 10
274.4544618347124
 20
129.693238772895
 30
0.0
 10
274.3995580220927
 20
129.7462575958385
 30
0.0
 10
274.289885639273
 20
129.8521646425275
 30
0.0
 10
274.1184334702194
 20
130.0250342882726
 30
0.0
 10
274.0129548260247
 20
130.1343716890585
 30
0.0
 10
273.9649986236146
 20
130.1849283453779
 30
0.0
 10
273.9638060012578
 20
130.1861856383991
 30
0.0
  0
LINE
  5
E3
330
1F
100
AcDbEntity
  8
0
  6
Continuous
 62
     7
370
    15
100
AcDbLine
 10
264.0437142406
 20
140.1036570331
 30
0.0
 11
264.0105950584
 21
140.4965929691
 31
0.0
  0
LINE
  5
E4
330
1F
100
AcDbEntity
  8
0
  6
Continuous
 62
     7
370
    15
100
AcDbLine
 10
276.0813092647
 20
141.1542447058
 30
0.0
 11
276.0481900824
 21
141.5471806418
 31
0.0
  0
SPLINE
  5
E5
330
1F
100
AcDbEntity
  8
0
  6
Continuous
 62
     7
370
    15
100
AcDbSpline
210
0.0
220
0.0
230
1.0
 70
     8
 71
     3
 72
    11
 73
     7
 74
     0
 42
0.00000001
 43
0.00000001
 12
1.0
 22
0.0
 32
0.0
 13
1.0
 23
0.0
 33
0.0
 40
0.0
 40
0.0
 40
0.0
 40
0.0
 40
0.0081164391033651
 40
0.3263678516928551
 40
0.6627685813478835
 40
1.0
 40
1.0
 40
1.0
 40
1.0
 10
265.1080644033166
 20
139.0203550948959
 30
0.0
 10
265.1068717809597
 20
139.0214772362521
 30
0.0
 10
265.0589155785473
 20
139.0665993469541
 30
0.0
 10
264.9534369343559
 20
139.1677053532079
 30
0.0
 10
264.781984765301
 20
139.3369047478355
 30
0.0
 10
264.6723123824814
 20
139.4498081539613
 30
0.0
 10
264.6174085698619
 20
139.506329470401
 30
0.0
  0
SPLINE
  5
E6
330
1F
100
AcDbEntity
  8
0
  6
Continuous
 62
     7
370
    15
100
AcDbSpline
210
0.0
220
0.0
230
1.0
 70
     8
 71
     3
 72
    11
 73
     7
 74
     0
 42
0.00000001
 43
0.00000001
 12
1.0
 22
0.0
 32
0.0
 13
1.0
 23
0.0
 33
0.0
 40
0.0
 40
0.0
 40
0.0
 40
0.0
 40
0.3367831131415116
 40
0.6790111347691193
 40
0.9923717339922087
 40
1.0
 40
1.0
 40
1.0
 40
1.0
 10
275.1623089201619
 20
140.203837881669
 30
0.0
 10
275.1068190823647
 20
140.147067546107
 30
0.0
 10
274.9949422801719
 20
140.0326090460605
 30
0.0
 10
274.8254944160854
 20
139.8661157436896
 30
0.0
 10
274.7214384433688
 20
139.7665727658018
 30
0.0
 10
274.6744969032471
 20
139.7224075001459
 30
0.0
 10
274.673381342573
 20
139.7213579173372
 30
0.0
  0
LINE
  5
E7
330
1F
100
AcDbEntity
  8
0
  6
HIDDEN
 62
     7
370
     0
100
AcDbLine
 10
136.4813092647
 20
145.5685744112
 30
0.0
 11
136.4813092647
 21
83.5685744151
 31
0.0
  0
LINE
  5
E8
330
1F
100
AcDbEntity
  8
0
  6
HIDDEN
 62
     7
370
     0
100
AcDbLine
 10
158.4813092647
 20
84.0685744151
 30
0.0
 11
158.4813092647
 21
145.0685744133
 31
0.0
  0
SPLINE
  5
E9
330
1F
100
AcDbEntity
  8
0
  6
HIDDEN
 62
     7
370
     0
100
AcDbSpline
210
0.0
220
0.0
230
1.0
 70
     8
 71
     3
 72
    60
 73
    56
 74
     0
 42
0.00000001
 43
0.00000001
 12
1.0
 22
0.0
 32
0.0
 13
1.0
 23
0.0
 33
0.0
 40
-0.0624999999999999
 40
-0.0624999999999999
 40
0.0
 40
0.0
 40
0.03125
 40
0.03125
 40
0.0625
 40
0.0625
 40
0.09375
 40
0.09375
 40
0.125
 40
0.125
 40
0.1875000000000001
 40
0.1875000000000001
 40
0.2500000000000001
 40
0.2500000000000001
 40
0.2812500000000001
 40
0.2812500000000001
 40
0.3125000000000001
 40
0.3125000000000001
 40
0.3437500000000001
 40
0.3437500000000001
 40
0.3750000000000001
 40
0.3750000000000001
 40
0.4062500000000001
 40
0.4062500000000001
 40
0.4375000000000001
 40
0.4375000000000001
 40
0.4687500000000001
 40
0.4687500000000001
 40
0.5000000000000001
 40
0.5000000000000001
 40
0.5625000000000001
 40
0.5625000000000001
 40
0.6250000000000001
 40
0.6250000000000001
 40
0.6562500000000001
 40
0.6562500000000001
 40
0.6875000000000001
 40
0.6875000000000001
 40
0.7187500000000001
 40
0.7187500000000001
 40
0.7500000000000001
 40
0.7500000000000001
 40
0.7812500000000001
 40
0.7812500000000001
 40
0.8125000000000001
 40
0.8125000000000001
 40
0.8437500000000001
 40
0.8437500000000001
 40
0.8750000000000001
 40
0.8750000000000001
 40
0.9062500000000001
 40
0.9062500000000001
 40
0.9375000000000001
 40
0.9375000000000001
 40
1.0
 40
1.0
 40
1.03125
 40
1.03125
 10
146.4813092646646
 20
114.3042438900239
 30
0.0
 10
146.4813092646646
 20
114.700739677654
 30
0.0
 10
146.4942811231535
 20
114.8306897386581
 30
0.0
 10
146.5451012928459
 20
115.0863426720182
 30
0.0
 10
146.5835686163128
 20
115.2133721785675
 30
0.0
 10
146.6839668523849
 20
115.455560309692
 30
0.0
 10
146.7453998833581
 20
115.5704218022449
 30
0.0
 10
146.890534714903
 20
115.787801998069
 30
0.0
 10
146.9749898323109
 20
115.8906995652677
 30
0.0
 10
147.2517092826692
 20
116.1673666042754
 30
0.0
 10
147.4747861745873
 20
116.3163646947554
 30
0.0
 10
147.9560695368075
 20
116.5158758352201
 30
0.0
 10
148.2192999557986
 20
116.5684339382168
 30
0.0
 10
148.6107021574865
 20
116.5686442205949
 30
0.0
 10
148.7432251855953
 20
116.5556584498678
 30
0.0
 10
148.9997556388364
 20
116.504631301654
 30
0.0
 10
149.124442473133
 20
116.4668761025036
 30
0.0
 10
149.3666217353685
 20
116.3667377695948
 30
0.0
 10
149.4837152675186
 20
116.3041321021833
 30
0.0
 10
149.7004302708741
 20
116.1593988089183
 30
0.0
 10
149.8014490977368
 20
116.0767714616388
 30
0.0
 10
149.9882339851889
 20
115.8901664083872
 30
0.0
 10
150.0710908663851
 20
115.789051344511
 30
0.0
 10
150.2159751314589
 20
115.5725185405212
 30
0.0
 10
150.2786126392799
 20
115.4556483329201
 30
0.0
 10
150.3790614626797
 20
115.2133504622699
 30
0.0
 10
150.4169125636969
 20
115.0886864638089
 30
0.0
 10
150.4681341289532
 20
114.8323994197451
 30
0.0
 10
150.4812622555704
 20
114.6998274239995
 30
0.0
 10
150.4814028959107
 20
114.3082232312255
 30
0.0
 10
150.4290781465388
 20
114.0450578999015
 30
0.0
 10
150.2299670844816
 20
113.5635525307284
 30
0.0
 10
150.0811047480243
 20
113.3403009912443
 30
0.0
 10
149.8047837886988
 20
113.0634446923554
 30
0.0
 10
149.7020201403252
 20
112.9789312455117
 30
0.0
 10
149.4846365829458
 20
112.8335139720715
 30
0.0
 10
149.3698378149893
 20
112.7720027730131
 30
0.0
 10
149.1279610915653
 20
112.6714729247582
 30
0.0
 10
149.0008074835651
 20
112.6328279015403
 30
0.0
 10
148.7451414741325
 20
112.5817715739893
 30
0.0
 10
148.6152754363765
 20
112.5687067154436
 30
0.0
 10
148.3513229096448
 20
112.5684440946457
 30
0.0
 10
148.2209185862208
 20
112.5813210948897
 30
0.0
 10
147.9652678228415
 20
112.6319070986955
 30
0.0
 10
147.8384022737271
 20
112.6701834633174
 30
0.0
 10
147.5958818157812
 20
112.7704543307974
 30
0.0
 10
147.4809551771209
 20
112.8318103549383
 30
0.0
 10
147.2635837082888
 20
112.9766566501111
 30
0.0
 10
147.1605698956267
 20
113.0610341646057
 30
0.0
 10
146.9758693500447
 20
113.245441484794
 30
0.0
 10
146.8930396157881
 20
113.3460145480634
 30
0.0
 10
146.7467871771906
 20
113.5642406886424
 30
0.0
 10
146.6844186963982
 20
113.6807957985637
 30
0.0
 10
146.5344625448314
 20
114.0416453925974
 30
0.0
 10
146.4813092646646
 20
114.3042438900239
 30
0.0
 10
146.4813092646646
 20
114.700739677654
 30
0.0
  0
SPLINE
  5
EA
330
1F
100
AcDbEntity
  8
0
  6
HIDDEN
 62
     7
370
     0
100
AcDbSpline
210
0.0
220
0.0
230
1.0
 70
     8
 71
     3
 72
    12
 73
     8
 74
     0
 42
0.00000001
 43
0.00000001
 12
1.0
 22
0.0
 32
0.0
 13
1.0
 23
0.0
 33
0.0
 40
0.0
 40
0.0
 40
0.0
 40
0.0
 40
0.2499999999999991
 40
0.2499999999999991
 40
0.4999999999999982
 40
0.4999999999999982
 40
1.0
 40
1.0
 40
1.0
 40
1.0
 10
147.0090660782311
 20
105.1805079837745
 30
0.0
 10
146.9459860397377
 20
105.1805079837745
 30
0.0
 10
146.8868374175564
 20
105.1551436645596
 30
0.0
 10
146.7883648674873
 20
105.0809788041866
 30
0.0
 10
146.7493282555026
 20
105.0344584636326
 30
0.0
 10
146.6494317887236
 20
104.8843161207873
 30
0.0
 10
146.6070109076568
 20
104.7726229138152
 30
0.0
 10
146.5760533763389
 20
104.6592050944254
 30
0.0
  0
LINE
  5
EB
330
1F
100
AcDbEntity
  8
0
  6
HIDDEN
 62
     7
370
     0
100
AcDbLine
 10
149.9535524511
 20
105.1805079838
 30
0.0
 11
147.0090660782
 21
105.1805079838
 31
0.0
  0
SPLINE
  5
EC
330
1F
100
AcDbEntity
  8
0
  6
HIDDEN
 62
     7
370
     0
100
AcDbSpline
210
0.0
220
0.0
230
1.0
 70
     8
 71
     3
 72
    12
 73
     8
 74
     0
 42
0.00000001
 43
0.00000001
 12
1.0
 22
0.0
 32
0.0
 13
1.0
 23
0.0
 33
0.0
 40
0.0
 40
0.0
 40
0.0
 40
0.0
 40
0.5000000000000028
 40
0.5000000000000028
 40
0.7500000000000013
 40
0.7500000000000013
 40
1.0
 40
1.0
 40
1.0
 40
1.0
 10
150.3865651529904
 20
104.6592050944254
 30
0.0
 10
150.3558429110713
 20
104.7717608938346
 30
0.0
 10
150.3130056965361
 20
104.8845187535742
 30
0.0
 10
150.2135786723364
 20
105.0340596393705
 30
0.0
 10
150.1738264775197
 20
105.0813523710774
 30
0.0
 10
150.0757850206615
 20
105.1550886643988
 30
0.0
 10
150.016228965074
 20
105.1805079837745
 30
0.0
 10
149.9535524510982
 20
105.1805079837745
 30
0.0
  0
ELLIPSE
  5
ED
330
1F
100
AcDbEntity
  8
0
  6
HIDDEN
 62
     7
370
     0
100
AcDbEllipse
 10
134.1341550753
 20
114.5685744151
 30
0.0
 11
-14.75368316065611
 21
31.09325491558118
 31
0.0
210
0.0
220
0.0
230
1.0
 40
0.3419987131
 41
3.300734856217126
 42
4.231496223360779
  0
SPLINE
  5
EE
330
1F
100
AcDbEntity
  8
0
  6
HIDDEN
 62
     7
370
     0
100
AcDbSpline
210
0.0
220
0.0
230
1.0
 70
     8
 71
     3
 72
    12
 73
     8
 74
     0
 42
0.00000001
 43
0.00000001
 12
1.0
 22
0.0
 32
0.0
 13
1.0
 23
0.0
 33
0.0
 40
0.0
 40
0.0
 40
0.0
 40
0.0
 40
0.2499999999999982
 40
0.2499999999999982
 40
0.4999999999999963
 40
0.4999999999999963
 40
1.0
 40
1.0
 40
1.0
 40
1.0
 10
149.9535524510982
 20
84.50008245623748
 30
0.0
 10
150.0166324895916
 20
84.50008245623748
 30
0.0
 10
150.075781111773
 20
84.50798838245
 30
0.0
 10
150.1742536618421
 20
84.53131354388624
 30
0.0
 10
150.2132902738267
 20
84.54602633371792
 30
0.0
 10
150.3131867406058
 20
84.59398213444884
 30
0.0
 10
150.3556076216724
 20
84.63024429102889
 30
0.0
 10
150.3865651529904
 20
84.6678319549934
 30
0.0
  0
LINE
  5
EF
330
1F
100
AcDbEntity
  8
0
  6
HIDDEN
 62
     7
370
     0
100
AcDbLine
 10
147.0090660782
 20
84.5000824562
 30
0.0
 11
149.9535524511
 21
84.5000824562
 31
0.0
  0
SPLINE
  5
F0
330
1F
100
AcDbEntity
  8
0
  6
HIDDEN
 62
     7
370
     0
100
AcDbSpline
210
0.0
220
0.0
230
1.0
 70
     8
 71
     3
 72
    12
 73
     8
 74
     0
 42
0.00000001
 43
0.00000001
 12
1.0
 22
0.0
 32
0.0
 13
1.0
 23
0.0
 33
0.0
 40
0.0
 40
0.0
 40
0.0
 40
0.0
 40
0.500000000000001
 40
0.500000000000001
 40
0.7500000000000004
 40
0.7500000000000004
 40
1.0
 40
1.0
 40
1.0
 40
1.0
 10
146.5760533763389
 20
84.6678319549934
 30
0.0
 10
146.606775618258
 20
84.63052997204036
 30
0.0
 10
146.6496128327931
 20
84.59391813999397
 30
0.0
 10
146.749039856993
 20
84.54615335670877
 30
0.0
 10
146.7887920518096
 20
84.5311958412264
 30
0.0
 10
146.8868335086678
 20
84.50800589545727
 30
0.0
 10
146.9463895642553
 20
84.5000824562375
 30
0.0
 10
147.0090660782311
 20
84.5000824562375
 30
0.0
  0
ELLIPSE
  5
F1
330
1F
100
AcDbEntity
  8
0
  6
HIDDEN
 62
     7
370
     0
100
AcDbEllipse
 10
162.828463454
 20
114.5685744151
 30
0.0
 11
14.7536831606561
 21
31.09325491558119
 31
0.0
210
0.0
220
0.0
230
1.0
 40
0.3419987131
 41
2.051689083818819
 42
2.982450450962494
  0
SPLINE
  5
F2
330
1F
100
AcDbEntity
  8
0
  6
HIDDEN
 62
     7
370
     0
100
AcDbSpline
210
0.0
220
0.0
230
1.0
 70
     8
 71
     3
 72
    12
 73
     8
 74
     0
 42
0.00000001
 43
0.00000001
 12
1.0
 22
0.0
 32
0.0
 13
1.0
 23
0.0
 33
0.0
 40
0.0
 40
0.0
 40
0.0
 40
0.0
 40
0.2500000000000014
 40
0.2500000000000014
 40
0.5000000000000028
 40
0.5000000000000028
 40
1.0
 40
1.0
 40
1.0
 40
1.0
 10
147.0090660782311
 20
144.6370663739839
 30
0.0
 10
146.9459860397377
 20
144.6370663739839
 30
0.0
 10
146.8868374175564
 20
144.6291604477714
 30
0.0
 10
146.7883648674873
 20
144.6058352863352
 30
0.0
 10
146.7493282555025
 20
144.5911224965035
 30
0.0
 10
146.6494317887236
 20
144.5431666957725
 30
0.0
 10
146.6070109076568
 20
144.5069045391925
 30
0.0
 10
146.5760533763389
 20
144.469316875228
 30
0.0
  0
LINE
  5
F3
330
1F
100
AcDbEntity
  8
0
  6
HIDDEN
 62
     7
370
     0
100
AcDbLine
 10
149.9535524511
 20
144.637066374
 30
0.0
 11
147.0090660782
 21
144.637066374
 31
0.0
  0
SPLINE
  5
F4
330
1F
100
AcDbEntity
  8
0
  6
HIDDEN
 62
     7
370
     0
100
AcDbSpline
210
0.0
220
0.0
230
1.0
 70
     8
 71
     3
 72
    12
 73
     8
 74
     0
 42
0.00000001
 43
0.00000001
 12
1.0
 22
0.0
 32
0.0
 13
1.0
 23
0.0
 33
0.0
 40
0.0
 40
0.0
 40
0.0
 40
0.0
 40
0.5000000000000047
 40
0.5000000000000047
 40
0.7500000000000023
 40
0.7500000000000023
 40
1.0
 40
1.0
 40
1.0
 40
1.0
 10
150.3865651529904
 20
144.469316875228
 30
0.0
 10
150.3558429110713
 20
144.506618858181
 30
0.0
 10
150.3130056965361
 20
144.5432306902274
 30
0.0
 10
150.2135786723364
 20
144.5909954735126
 30
0.0
 10
150.1738264775197
 20
144.6059529889949
 30
0.0
 10
150.0757850206615
 20
144.6291429347641
 30
0.0
 10
150.016228965074
 20
144.6370663739839
 30
0.0
 10
149.9535524510982
 20
144.6370663739839
 30
0.0
  0
ELLIPSE
  5
F5
330
1F
100
AcDbEntity
  8
0
  6
HIDDEN
 62
     7
370
     0
100
AcDbEllipse
 10
134.1341550753
 20
114.5685744151
 30
0.0
 11
14.75368316065621
 21
31.09325491558119
 31
0.0
210
0.0
220
0.0
230
1.0
 40
0.3419987131
 41
5.193281737408637
 42
6.12404310455234
  0
SPLINE
  5
F6
330
1F
100
AcDbEntity
  8
0
  6
HIDDEN
 62
     7
370
     0
100
AcDbSpline
210
0.0
220
0.0
230
1.0
 70
     8
 71
     3
 72
    12
 73
     8
 74
     0
 42
0.00000001
 43
0.00000001
 12
1.0
 22
0.0
 32
0.0
 13
1.0
 23
0.0
 33
0.0
 40
0.0
 40
0.0
 40
0.0
 40
0.0
 40
0.2499999999999982
 40
0.2499999999999982
 40
0.4999999999999964
 40
0.4999999999999964
 40
1.0
 40
1.0
 40
1.0
 40
1.0
 10
149.9535524510982
 20
123.9566408464471
 30
0.0
 10
150.0166324895916
 20
123.9566408464471
 30
0.0
 10
150.075781111773
 20
123.9820051656621
 30
0.0
 10
150.1742536618421
 20
124.056170026035
 30
0.0
 10
150.2132902738267
 20
124.1026903665891
 30
0.0
 10
150.3131867406058
 20
124.2528327094343
 30
0.0
 10
150.3556076216724
 20
124.3645259164065
 30
0.0
 10
150.3865651529904
 20
124.4779437357962
 30
0.0
  0
LINE
  5
F7
330
1F
100
AcDbEntity
  8
0
  6
HIDDEN
 62
     7
370
     0
100
AcDbLine
 10
147.0090660782
 20
123.9566408464
 30
0.0
 11
149.9535524511
 21
123.9566408464
 31
0.0
  0
SPLINE
  5
F8
330
1F
100
AcDbEntity
  8
0
  6
HIDDEN
 62
     7
370
     0
100
AcDbSpline
210
0.0
220
0.0
230
1.0
 70
     8
 71
     3
 72
    12
 73
     8
 74
     0
 42
0.00000001
 43
0.00000001
 12
1.0
 22
0.0
 32
0.0
 13
1.0
 23
0.0
 33
0.0
 40
0.0
 40
0.0
 40
0.0
 40
0.0
 40
0.4999999999999971
 40
0.4999999999999971
 40
0.7499999999999986
 40
0.7499999999999986
 40
1.0
 40
1.0
 40
1.0
 40
1.0
 10
146.5760533763389
 20
124.4779437357962
 30
0.0
 10
146.606775618258
 20
124.3653879363871
 30
0.0
 10
146.6496128327931
 20
124.2526300766475
 30
0.0
 10
146.749039856993
 20
124.1030891908511
 30
0.0
 10
146.7887920518096
 20
124.0557964591443
 30
0.0
 10
146.8868335086678
 20
123.9820601658229
 30
0.0
 10
146.9463895642553
 20
123.9566408464471
 30
0.0
 10
147.0090660782311
 20
123.9566408464471
 30
0.0
  0
ELLIPSE
  5
F9
330
1F
100
AcDbEntity
  8
0
  6
HIDDEN
 62
     7
370
     0
100
AcDbEllipse
 10
162.828463454
 20
114.5685744151
 30
0.0
 11
-14.75368316065624
 21
31.09325491558118
 31
0.0
210
0.0
220
0.0
230
1.0
 40
0.3419987131
 41
0.1591422026272835
 42
1.089903569770962
  0
LINE
  5
FA
330
1F
100
AcDbEntity
  8
0
  6
HIDDEN
 62
     7
370
     0
100
AcDbLine
 10
136.4813092647
 20
90.3185744151
 30
0.0
 11
136.4813092647
 21
138.793443501
 31
0.0
  0
SPLINE
  5
FB
330
1F
100
AcDbEntity
  8
0
  6
HIDDEN
 62
     7
370
     0
100
AcDbSpline
210
0.0
220
0.0
230
1.0
 70
     8
 71
     3
 72
    12
 73
     8
 74
     0
 42
0.00000001
 43
0.00000001
 12
1.0
 22
0.0
 32
0.0
 13
1.0
 23
0.0
 33
0.0
 40
0.0
 40
0.0
 40
0.0
 40
0.0
 40
0.5000000000000004
 40
0.5000000000000004
 40
0.7500000000000002
 40
0.7500000000000002
 40
1.0
 40
1.0
 40
1.0
 40
1.0
 10
135.6647969782177
 20
130.0208423969415
 30
0.0
 10
135.7212031568979
 20
129.9730200232817
 30
0.0
 10
135.7913660583697
 20
129.9327491763432
 30
0.0
 10
135.9093767717588
 20
129.9247033078662
 30
0.0
 10
135.9495825553543
 20
129.9312659062051
 30
0.0
 10
136.0233032520874
 20
129.9586480006587
 30
0.0
 10
136.0561639738739
 20
129.978409491189
 30
0.0
 10
136.0863323758032
 20
130.0013422023771
 30
0.0
  0
SPLINE
  5
FC
330
1F
100
AcDbEntity
  8
0
  6
HIDDEN
 62
     7
370
     0
100
AcDbSpline
210
0.0
220
0.0
230
1.0
 70
     8
 71
     3
 72
    16
 73
    12
 74
     0
 42
0.00000001
 43
0.00000001
 12
1.0
 22
0.0
 32
0.0
 13
1.0
 23
0.0
 33
0.0
 40
0.0
 40
0.0
 40
0.0
 40
0.0
 40
0.0625000000000005
 40
0.0625000000000005
 40
0.1250000000000011
 40
0.1250000000000011
 40
0.249999999999994
 40
0.249999999999994
 40
0.4999999999999942
 40
0.4999999999999942
 40
1.0
 40
1.0
 40
1.0
 40
1.0
 10
136.086332375758
 20
130.0013422024251
 30
0.0
 10
136.0979452755973
 20
130.0101698254066
 30
0.0
 10
136.1112964600298
 20
130.0180042072885
 30
0.0
 10
136.140696299649
 20
130.0263143333609
 30
0.0
 10
136.1555370242043
 20
130.0258185141258
 30
0.0
 10
136.1913702321729
 20
130.0143675431565
 30
0.0
 10
136.2054834399945
 20
129.9976870422978
 30
0.0
 10
136.2399748112134
 20
129.9455663565408
 30
0.0
 10
136.2510588823238
 20
129.9057768625158
 30
0.0
 10
136.2771817001198
 20
129.7824402304186
 30
0.0
 10
136.2813092646647
 20
129.69501881992
 30
0.0
 10
136.2813092646647
 20
129.6062815776018
 30
0.0
  0
LINE
  5
FD
330
1F
100
AcDbEntity
  8
0
  6
HIDDEN
 62
     7
370
     0
100
AcDbLine
 10
136.2813092647
 20
99.5308672526
 30
0.0
 11
136.2813092647
 21
129.6062815776
 31
0.0
  0
SPLINE
  5
FE
330
1F
100
AcDbEntity
  8
0
  6
HIDDEN
 62
     7
370
     0
100
AcDbSpline
210
0.0
220
0.0
230
1.0
 70
     8
 71
     3
 72
    16
 73
    12
 74
     0
 42
0.00000001
 43
0.00000001
 12
1.0
 22
0.0
 32
0.0
 13
1.0
 23
0.0
 33
0.0
 40
0.0
 40
0.0
 40
0.0
 40
0.0
 40
0.5000000000000053
 40
0.5000000000000053
 40
0.750000000000008
 40
0.750000000000008
 40
0.8750000000000041
 40
0.8750000000000041
 40
0.9375000000000021
 40
0.9375000000000021
 40
1.0
 40
1.0
 40
1.0
 40
1.0
 10
136.2813092646647
 20
99.53086725261944
 30
0.0
 10
136.2813092646647
 20
99.44174088743071
 30
0.0
 10
136.2771629895867
 20
99.35487951981727
 30
0.0
 10
136.2511973941932
 20
99.23189727332326
 30
0.0
 10
136.2397364888157
 20
99.19112597809197
 30
0.0
 10
136.2054247510414
 20
99.1394216580922
 30
0.0
 10
136.1914000151118
 20
99.1227512915018
 30
0.0
 10
136.155377052078
 20
99.11129907104505
 30
0.0
 10
136.1406225429883
 20
99.11084602477004
 30
0.0
 10
136.1112703818415
 20
99.1191613459862
 30
0.0
 10
136.0979305073374
 20
99.12699023106447
 30
0.0
 10
136.086332375789
 20
99.13580662782711
 30
0.0
  0
SPLINE
  5
FF
330
1F
100
AcDbEntity
  8
0
  6
HIDDEN
 62
     7
370
     0
100
AcDbSpline
210
0.0
220
0.0
230
1.0
 70
     8
 71
     3
 72
    12
 73
     8
 74
     0
 42
0.00000001
 43
0.00000001
 12
1.0
 22
0.0
 32
0.0
 13
1.0
 23
0.0
 33
0.0
 40
0.0
 40
0.0
 40
0.0
 40
0.0
 40
0.2499999999999999
 40
0.2499999999999999
 40
0.4999999999999994
 40
0.4999999999999994
 40
1.0
 40
1.0
 40
1.0
 40
1.0
 10
136.0863323757961
 20
99.135806627836
 30
0.0
 10
136.0561405340788
 20
99.15875715693382
 30
0.0
 10
136.0227815646643
 20
99.178726630958
 30
0.0
 10
135.9496442800836
 20
99.2058277645835
 30
0.0
 10
135.9094024074297
 20
99.2124285052289
 30
0.0
 10
135.7916966304612
 20
99.20445963072221
 30
0.0
 10
135.7212861526818
 20
99.16419917255436
 30
0.0
 10
135.6647969782135
 20
99.11630643327621
 30
0.0
  0
SPLINE
  5
100
330
1F
100
AcDbEntity
  8
0
  6
HIDDEN
 62
     7
370
     0
100
AcDbSpline
210
0.0
220
0.0
230
1.0
 70
     8
 71
     3
 72
    12
 73
     8
 74
     0
 42
0.00000001
 43
0.00000001
 12
1.0
 22
0.0
 32
0.0
 13
1.0
 23
0.0
 33
0.0
 40
0.0
 40
0.0
 40
0.0
 40
0.0
 40
0.2500000000000004
 40
0.2500000000000004
 40
0.5000000000000009
 40
0.5000000000000009
 40
1.0
 40
1.0
 40
1.0
 40
1.0
 10
135.6647969782131
 20
99.11630643327645
 30
0.0
 10
135.5766430404753
 20
99.04156762542235
 30
0.0
 10
135.5162896158466
 20
98.95058712493996
 30
0.0
 10
135.4100276577798
 20
98.76167330218733
 30
0.0
 10
135.3677954912177
 20
98.66516884264675
 30
0.0
 10
135.2567247959006
 20
98.37440108847962
 30
0.0
 10
135.2037880194738
 20
98.17873427393587
 30
0.0
 10
135.159988921105
 20
97.98466778886954
 30
0.0
  0
SPLINE
  5
101
330
1F
100
AcDbEntity
  8
0
  6
HIDDEN
 62
     7
370
     0
100
AcDbSpline
210
0.0
220
0.0
230
1.0
 70
     8
 71
     3
 72
    12
 73
     8
 74
     0
 42
0.00000001
 43
0.00000001
 12
1.0
 22
0.0
 32
0.0
 13
1.0
 23
0.0
 33
0.0
 40
0.0
 40
0.0
 40
0.0
 40
0.0
 40
0.5000000000000008
 40
0.5000000000000008
 40
0.7500000000000003
 40
0.7500000000000003
 40
1.0
 40
1.0
 40
1.0
 40
1.0
 10
135.159988921105
 20
92.79849346010849
 30
0.0
 10
135.2037354619416
 20
92.77189928946731
 30
0.0
 10
135.2566198171731
 20
92.75213906414159
 30
0.0
 10
135.3681869045092
 20
92.73168807391251
 30
0.0
 10
135.4107705010522
 20
92.72642784925607
 30
0.0
 10
135.515687228134
 20
92.71854505533342
 30
0.0
 10
135.5772208359788
 20
92.71598093015426
 30
0.0
 10
135.6647969782049
 20
92.71378071263462
 30
0.0
  0
LINE
  5
102
330
1F
100
AcDbEntity
  8
0
  6
HIDDEN
 62
     7
370
     0
100
AcDbLine
 10
136.2813092647
 20
92.0287541362
 30
0.0
 11
136.2813092647
 21
92.5089799269
 31
0.0
  0
LINE
  5
103
330
1F
100
AcDbEntity
  8
0
  6
HIDDEN
 62
     7
370
     0
100
AcDbLine
 10
136.2813092647
 20
136.6281689034
 30
0.0
 11
136.2813092647
 21
137.108394694
 31
0.0
  0
SPLINE
  5
104
330
1F
100
AcDbEntity
  8
0
  6
HIDDEN
 62
     7
370
     0
100
AcDbSpline
210
0.0
220
0.0
230
1.0
 70
     8
 71
     3
 72
    12
 73
     8
 74
     0
 42
0.00000001
 43
0.00000001
 12
1.0
 22
0.0
 32
0.0
 13
1.0
 23
0.0
 33
0.0
 40
0.0
 40
0.0
 40
0.0
 40
0.0
 40
0.2499999999999999
 40
0.2499999999999999
 40
0.4999999999999999
 40
0.4999999999999999
 40
1.0
 40
1.0
 40
1.0
 40
1.0
 10
135.6647969782129
 20
136.4233681175865
 30
0.0
 10
135.5761123183565
 20
136.4211400502456
 30
0.0
 10
135.5161939026331
 20
136.4186382662152
 30
0.0
 10
135.4105346753124
 20
136.4107068303792
 30
0.0
 10
135.3678934371975
 20
136.4054146754824
 30
0.0
 10
135.2567040950949
 20
136.3850097349952
 30
0.0
 10
135.2037774129739
 20
136.3652750434084
 30
0.0
 10
135.159988921105
 20
136.3386553701127
 30
0.0
  0
SPLINE
  5
105
330
1F
100
AcDbEntity
  8
0
  6
HIDDEN
 62
     7
370
     0
100
AcDbSpline
210
0.0
220
0.0
230
1.0
 70
     8
 71
     3
 72
    12
 73
     8
 74
     0
 42
0.00000001
 43
0.00000001
 12
1.0
 22
0.0
 32
0.0
 13
1.0
 23
0.0
 33
0.0
 40
0.0
 40
0.0
 40
0.0
 40
0.0
 40
0.5000000000000047
 40
0.5000000000000047
 40
0.7500000000000023
 40
0.7500000000000023
 40
1.0
 40
1.0
 40
1.0
 40
1.0
 10
135.1599889211034
 20
131.1524810413518
 30
0.0
 10
135.2037503974022
 20
130.9585812533898
 30
0.0
 10
135.2566567130552
 20
130.7627248894529
 30
0.0
 10
135.3683679107025
 20
130.470582742954
 30
0.0
 10
135.4108873542889
 20
130.3738648062561
 30
0.0
 10
135.5160106968563
 20
130.1871403698316
 30
0.0
 10
135.577576660574
 20
130.0947896615619
 30
0.0
 10
135.6647969782168
 20
130.0208423969422
 30
0.0
  0
LINE
  5
106
330
1F
100
AcDbEntity
  8
0
  6
HIDDEN
 62
     7
370
     0
100
AcDbLine
 10
158.4813092647
 20
90.5685744151
 30
0.0
 11
158.4813092647
 21
138.5685744151
 31
0.0
  0
LINE
  5
107
330
1F
100
AcDbEntity
  8
0
  6
HIDDEN
 62
     7
370
     0
100
AcDbLine
 10
136.2813092647
 20
92.5089799269
 30
0.0
 11
136.2813092647
 21
107.5466870894
 31
0.0
  0
LINE
  5
108
330
1F
100
AcDbEntity
  8
0
  6
HIDDEN
 62
     7
370
     0
100
AcDbLine
 10
136.2813092647
 20
121.5904617409
 30
0.0
 11
136.2813092647
 21
136.6281689034
 31
0.0
  0
SPLINE
  5
109
330
1F
100
AcDbEntity
  8
0
  6
HIDDEN
 62
     7
370
     0
100
AcDbSpline
210
0.0
220
0.0
230
1.0
 70
     8
 71
     3
 72
    70
 73
    66
 74
     0
 42
0.00000001
 43
0.00000001
 12
1.0
 22
0.0
 32
0.0
 13
1.0
 23
0.0
 33
0.0
 40
-0.0312500000000002
 40
-0.0312500000000002
 40
0.0
 40
0.0
 40
0.0312499999999998
 40
0.0312499999999998
 40
0.0624999999999997
 40
0.0624999999999997
 40
0.0937499999999995
 40
0.0937499999999995
 40
0.1249999999999993
 40
0.1249999999999993
 40
0.1562499999999992
 40
0.1562499999999992
 40
0.187499999999999
 40
0.187499999999999
 40
0.2187499999999988
 40
0.2187499999999988
 40
0.2499999999999987
 40
0.2499999999999987
 40
0.2812499999999985
 40
0.2812499999999985
 40
0.3124999999999983
 40
0.3124999999999983
 40
0.3437499999999982
 40
0.3437499999999982
 40
0.374999999999998
 40
0.374999999999998
 40
0.4062499999999978
 40
0.4062499999999978
 40
0.4374999999999977
 40
0.4374999999999977
 40
0.4687499999999975
 40
0.4687499999999975
 40
0.4999999999999973
 40
0.4999999999999973
 40
0.5312499999999974
 40
0.5312499999999974
 40
0.5624999999999977
 40
0.5624999999999977
 40
0.5937499999999978
 40
0.5937499999999978
 40
0.624999999999998
 40
0.624999999999998
 40
0.6562499999999981
 40
0.6562499999999981
 40
0.6874999999999983
 40
0.6874999999999983
 40
0.7187499999999984
 40
0.7187499999999984
 40
0.7499999999999987
 40
0.7499999999999987
 40
0.7812499999999988
 40
0.7812499999999988
 40
0.812499999999999
 40
0.812499999999999
 40
0.8437499999999991
 40
0.8437499999999991
 40
0.8749999999999993
 40
0.8749999999999993
 40
0.9062499999999994
 40
0.9062499999999994
 40
0.9374999999999997
 40
0.9374999999999997
 40
0.9687499999999998
 40
0.9687499999999998
 40
1.0
 40
1.0
 40
1.03125
 40
1.03125
 10
236.4813092646647
 20
102.6522842271807
 30
0.0
 10
236.4813092646647
 20
102.973454511342
 30
0.0
 10
236.4618039750023
 20
103.133046524436
 30
0.0
 10
236.3854305312754
 20
103.4501471957308
 30
0.0
 10
236.3276151472747
 20
103.6093609442056
 30
0.0
 10
236.1769369544373
 20
103.9154615068593
 30
0.0
 10
236.0847720603598
 20
104.0620596730626
 30
0.0
 10
235.8670749362962
 20
104.3417293522963
 30
0.0
 10
235.7405501707162
 20
104.4751670282392
 30
0.0
 10
235.4641974791136
 20
104.7160117622382
 30
0.0
 10
235.3133568617298
 20
104.8250225392951
 30
0.0
 10
234.9855354021946
 20
105.0186496751302
 30
0.0
 10
234.8113519056982
 20
105.1013106129385
 30
0.0
 10
234.4505031274853
 20
105.2347372109358
 30
0.0
 10
234.261162757979
 20
105.286447641394
 30
0.0
 10
233.8737936071084
 20
105.3556305064393
 30
0.0
 10
233.678962382481
 20
105.3728242481458
 30
0.0
 10
233.2870569028777
 20
105.3730237631873
 30
0.0
 10
233.087975955598
 20
105.3554574080366
 30
0.0
 10
232.703011223135
 20
105.2867468763624
 30
0.0
 10
232.5158725740274
 20
105.2359628170265
 30
0.0
 10
232.1523226279064
 20
105.1018625631274
 30
0.0
 10
231.9770527815146
 20
105.018509133413
 30
0.0
 10
231.6523059399225
 20
104.8269421182598
 30
0.0
 10
231.5005375191884
 20
104.7178051183684
 30
0.0
 10
231.2208751510489
 20
104.474178136986
 30
0.0
 10
231.0969457251717
 20
104.3432478287965
 30
0.0
 10
230.8796762216256
 20
104.0646889339938
 30
0.0
 10
230.7855786476374
 20
103.9152723053338
 30
0.0
 10
230.6349966620678
 20
103.6093273844604
 30
0.0
 10
230.5781245079313
 20
103.4531812361856
 30
0.0
 10
230.5011000498884
 20
103.1350727385805
 30
0.0
 10
230.4813847959763
 20
102.972309548106
 30
0.0
 10
230.4812341766312
 20
102.6552951211807
 30
0.0
 10
230.5001650971102
 20
102.4992895855935
 30
0.0
 10
230.5770663231858
 20
102.192222869739
 30
0.0
 10
230.6345601458034
 20
102.044170657174
 30
0.0
 10
230.7840192285865
 20
101.7641780021588
 30
0.0
 10
230.877239246498
 20
101.63012128059
 30
0.0
 10
231.0959799906094
 20
101.3812678472597
 30
0.0
 10
231.2198669623435
 20
101.267776245534
 30
0.0
 10
231.4961484366427
 20
101.0611799526517
 30
0.0
 10
231.650246690048
 20
100.967490549202
 30
0.0
 10
231.9755761989329
 20
100.8074474944315
 30
0.0
 10
232.1476524759934
 20
100.7400976634624
 30
0.0
 10
232.5110106349597
 20
100.6302672747302
 30
0.0
 10
232.7013501527113
 20
100.5884557157332
 30
0.0
 10
233.0849151130383
 20
100.53311568838
 30
0.0
 10
233.2804707362858
 20
100.5189442641479
 30
0.0
 10
233.6770609887913
 20
100.518702232521
 30
0.0
 10
233.8721368741156
 20
100.5325800569114
 30
0.0
 10
234.256106260608
 20
100.5874508094731
 30
0.0
 10
234.4470276306894
 20
100.6291551356172
 30
0.0
 10
234.8100730997726
 20
100.7383533991229
 30
0.0
 10
234.9823712541331
 20
100.8054527743504
 30
0.0
 10
235.3086955038661
 20
100.9653864937209
 30
0.0
 10
235.4627695081697
 20
101.0587851352715
 30
0.0
 10
235.7392032204353
 20
101.2647601429278
 30
0.0
 10
235.8634835338079
 20
101.3781241589646
 30
0.0
 10
236.0833284494296
 20
101.627352916415
 30
0.0
 10
236.1762468700028
 20
101.7605175691812
 30
0.0
 10
236.3262894159627
 20
102.0401304444898
 30
0.0
 10
236.3842559341735
 20
102.1884295868366
 30
0.0
 10
236.4618013656985
 20
102.4953376016804
 30
0.0
 10
236.4813092646647
 20
102.6522842271807
 30
0.0
 10
236.4813092646647
 20
102.973454511342
 30
0.0
  0
SPLINE
  5
10A
330
1F
100
AcDbEntity
  8
0
  6
HIDDEN
 62
     7
370
     0
100
AcDbSpline
210
0.0
220
0.0
230
1.0
 70
     8
 71
     3
 72
    70
 73
    66
 74
     0
 42
0.00000001
 43
0.00000001
 12
1.0
 22
0.0
 32
0.0
 13
1.0
 23
0.0
 33
0.0
 40
-0.0312500000000002
 40
-0.0312500000000002
 40
0.0
 40
0.0
 40
0.0312499999999998
 40
0.0312499999999998
 40
0.0624999999999997
 40
0.0624999999999997
 40
0.0937499999999995
 40
0.0937499999999995
 40
0.1249999999999993
 40
0.1249999999999993
 40
0.1562499999999992
 40
0.1562499999999992
 40
0.187499999999999
 40
0.187499999999999
 40
0.2187499999999988
 40
0.2187499999999988
 40
0.2499999999999987
 40
0.2499999999999987
 40
0.2812499999999985
 40
0.2812499999999985
 40
0.3124999999999983
 40
0.3124999999999983
 40
0.3437499999999982
 40
0.3437499999999982
 40
0.374999999999998
 40
0.374999999999998
 40
0.4062499999999978
 40
0.4062499999999978
 40
0.4374999999999977
 40
0.4374999999999977
 40
0.4687499999999975
 40
0.4687499999999975
 40
0.4999999999999973
 40
0.4999999999999973
 40
0.5312499999999974
 40
0.5312499999999974
 40
0.5624999999999977
 40
0.5624999999999977
 40
0.5937499999999978
 40
0.5937499999999978
 40
0.624999999999998
 40
0.624999999999998
 40
0.6562499999999981
 40
0.6562499999999981
 40
0.6874999999999983
 40
0.6874999999999983
 40
0.7187499999999984
 40
0.7187499999999984
 40
0.7499999999999987
 40
0.7499999999999987
 40
0.7812499999999988
 40
0.7812499999999988
 40
0.812499999999999
 40
0.812499999999999
 40
0.8437499999999991
 40
0.8437499999999991
 40
0.8749999999999993
 40
0.8749999999999993
 40
0.9062499999999994
 40
0.9062499999999994
 40
0.9374999999999997
 40
0.9374999999999997
 40
0.9687499999999998
 40
0.9687499999999998
 40
1.0
 40
1.0
 40
1.03125
 40
1.03125
 10
236.4813092646647
 20
102.6522842271807
 30
0.0
 10
236.4813092646647
 20
102.973454511342
 30
0.0
 10
236.4618039750023
 20
103.133046524436
 30
0.0
 10
236.3854305312754
 20
103.4501471957308
 30
0.0
 10
236.3276151472747
 20
103.6093609442056
 30
0.0
 10
236.1769369544373
 20
103.9154615068593
 30
0.0
 10
236.0847720603598
 20
104.0620596730626
 30
0.0
 10
235.8670749362962
 20
104.3417293522963
 30
0.0
 10
235.7405501707162
 20
104.4751670282392
 30
0.0
 10
235.4641974791136
 20
104.7160117622382
 30
0.0
 10
235.3133568617298
 20
104.8250225392951
 30
0.0
 10
234.9855354021946
 20
105.0186496751302
 30
0.0
 10
234.8113519056982
 20
105.1013106129385
 30
0.0
 10
234.4505031274853
 20
105.2347372109358
 30
0.0
 10
234.261162757979
 20
105.286447641394
 30
0.0
 10
233.8737936071084
 20
105.3556305064393
 30
0.0
 10
233.678962382481
 20
105.3728242481458
 30
0.0
 10
233.2870569028777
 20
105.3730237631873
 30
0.0
 10
233.087975955598
 20
105.3554574080366
 30
0.0
 10
232.703011223135
 20
105.2867468763624
 30
0.0
 10
232.5158725740274
 20
105.2359628170265
 30
0.0
 10
232.1523226279064
 20
105.1018625631274
 30
0.0
 10
231.9770527815146
 20
105.018509133413
 30
0.0
 10
231.6523059399225
 20
104.8269421182598
 30
0.0
 10
231.5005375191884
 20
104.7178051183684
 30
0.0
 10
231.2208751510489
 20
104.474178136986
 30
0.0
 10
231.0969457251717
 20
104.3432478287965
 30
0.0
 10
230.8796762216256
 20
104.0646889339938
 30
0.0
 10
230.7855786476374
 20
103.9152723053338
 30
0.0
 10
230.6349966620678
 20
103.6093273844604
 30
0.0
 10
230.5781245079313
 20
103.4531812361856
 30
0.0
 10
230.5011000498884
 20
103.1350727385805
 30
0.0
 10
230.4813847959763
 20
102.972309548106
 30
0.0
 10
230.4812341766312
 20
102.6552951211807
 30
0.0
 10
230.5001650971102
 20
102.4992895855935
 30
0.0
 10
230.5770663231858
 20
102.192222869739
 30
0.0
 10
230.6345601458034
 20
102.044170657174
 30
0.0
 10
230.7840192285865
 20
101.7641780021588
 30
0.0
 10
230.877239246498
 20
101.63012128059
 30
0.0
 10
231.0959799906094
 20
101.3812678472597
 30
0.0
 10
231.2198669623435
 20
101.267776245534
 30
0.0
 10
231.4961484366427
 20
101.0611799526517
 30
0.0
 10
231.650246690048
 20
100.967490549202
 30
0.0
 10
231.9755761989329
 20
100.8074474944315
 30
0.0
 10
232.1476524759934
 20
100.7400976634624
 30
0.0
 10
232.5110106349597
 20
100.6302672747302
 30
0.0
 10
232.7013501527113
 20
100.5884557157332
 30
0.0
 10
233.0849151130383
 20
100.53311568838
 30
0.0
 10
233.2804707362858
 20
100.5189442641479
 30
0.0
 10
233.6770609887913
 20
100.518702232521
 30
0.0
 10
233.8721368741156
 20
100.5325800569114
 30
0.0
 10
234.256106260608
 20
100.5874508094731
 30
0.0
 10
234.4470276306894
 20
100.6291551356172
 30
0.0
 10
234.8100730997726
 20
100.7383533991229
 30
0.0
 10
234.9823712541331
 20
100.8054527743504
 30
0.0
 10
235.3086955038661
 20
100.9653864937209
 30
0.0
 10
235.4627695081697
 20
101.0587851352715
 30
0.0
 10
235.7392032204353
 20
101.2647601429278
 30
0.0
 10
235.8634835338079
 20
101.3781241589646
 30
0.0
 10
236.0833284494296
 20
101.627352916415
 30
0.0
 10
236.1762468700028
 20
101.7605175691812
 30
0.0
 10
236.3262894159627
 20
102.0401304444898
 30
0.0
 10
236.3842559341735
 20
102.1884295868366
 30
0.0
 10
236.4618013656985
 20
102.4953376016804
 30
0.0
 10
236.4813092646647
 20
102.6522842271807
 30
0.0
 10
236.4813092646647
 20
102.973454511342
 30
0.0
  0
LINE
  5
10B
330
1F
100
AcDbEntity
  8
0
  6
HIDDEN
 62
     7
370
     0
100
AcDbLine
 10
250.4813092647
 20
94.5685744151
 30
0.0
 11
250.4813092647
 21
134.5685744151
 31
0.0
  0
CIRCLE
  5
10C
330
1F
100
AcDbEntity
  8
0
  6
HIDDEN
 62
     7
370
     0
100
AcDbCircle
 10
120.9813092647
 20
114.5685744151
 30
0.0
 40
4.049999999999997
  0
LINE
  5
10D
330
1F
100
AcDbEntity
  8
0
  6
HIDDEN
 62
     7
370
     0
100
AcDbLine
 10
100.0115377043
 20
129.881525458
 30
0.0
 11
100.0115377043
 21
99.2556233722
 31
0.0
  0
LINE
  5
10E
330
1F
100
AcDbEntity
  8
0
  6
HIDDEN
 62
     7
370
     0
100
AcDbLine
 10
98.4813092647
 20
98.3721455706
 30
0.0
 11
98.4813092647
 21
130.7650032596
 31
0.0
  0
LINE
  5
10F
330
1F
100
AcDbEntity
  8
0
  6
HIDDEN
 62
     7
370
     0
100
AcDbLine
 10
106.5115377043
 20
128.9149845766
 30
0.0
 11
106.5115377043
 21
100.2221642536
 31
0.0
  0
LINE
  5
110
330
1F
100
AcDbEntity
  8
0
  6
HIDDEN
 62
     7
370
     0
100
AcDbLine
 10
112.3115377043
 20
128.5685744151
 30
0.0
 11
112.3115377043
 21
100.5685744151
 31
0.0
  0
LINE
  5
111
330
1F
100
AcDbEntity
  8
0
  6
HIDDEN
 62
     7
370
     0
100
AcDbLine
 10
104.9115377043
 20
128.5685744151
 30
0.0
 11
104.9115377043
 21
100.5685744151
 31
0.0
  0
SPLINE
  5
112
330
1F
100
AcDbEntity
  8
0
  6
HIDDEN
 62
     7
370
     0
100
AcDbSpline
210
0.0
220
0.0
230
1.0
 70
     8
 71
     3
 72
    60
 73
    56
 74
     0
 42
0.00000001
 43
0.00000001
 12
1.0
 22
0.0
 32
0.0
 13
1.0
 23
0.0
 33
0.0
 40
-0.0312499999999998
 40
-0.0312499999999998
 40
0.0
 40
0.0
 40
0.0312500000000008
 40
0.0312500000000008
 40
0.0625000000000015
 40
0.0625000000000015
 40
0.1250000000000007
 40
0.1250000000000007
 40
0.1562500000000012
 40
0.1562500000000012
 40
0.1875000000000016
 40
0.1875000000000016
 40
0.2187500000000021
 40
0.2187500000000021
 40
0.2500000000000026
 40
0.2500000000000026
 40
0.3125000000000034
 40
0.3125000000000034
 40
0.3750000000000043
 40
0.3750000000000043
 40
0.4062500000000048
 40
0.4062500000000048
 40
0.4375000000000053
 40
0.4375000000000053
 40
0.4687500000000057
 40
0.4687500000000057
 40
0.5000000000000062
 40
0.5000000000000062
 40
0.5312500000000067
 40
0.5312500000000067
 40
0.5625000000000071
 40
0.5625000000000071
 40
0.6250000000000057
 40
0.6250000000000057
 40
0.656250000000005
 40
0.656250000000005
 40
0.6875000000000043
 40
0.6875000000000043
 40
0.7187500000000037
 40
0.7187500000000037
 40
0.7500000000000029
 40
0.7500000000000029
 40
0.7812500000000022
 40
0.7812500000000022
 40
0.8125000000000014
 40
0.8125000000000014
 40
0.875000000000001
 40
0.875000000000001
 40
0.9062500000000008
 40
0.9062500000000008
 40
0.9375000000000004
 40
0.9375000000000004
 40
0.9687500000000002
 40
0.9687500000000002
 40
1.0
 40
1.0
 40
1.031250000000001
 40
1.031250000000001
 10
233.3117816680941
 20
114.5662097374299
 30
0.0
 10
233.6508368612353
 20
114.5662097374299
 30
0.0
 10
233.8164347089428
 20
114.5873945476408
 30
0.0
 10
234.1405547856154
 20
114.6678816051046
 30
0.0
 10
234.300364849941
 20
114.7281637782205
 30
0.0
 10
234.7497064524825
 20
114.9526434204608
 30
0.0
 10
235.0193891922579
 20
115.1635783992763
 30
0.0
 10
235.3575739810154
 20
115.526618487519
 30
0.0
 10
235.4611404146393
 20
115.6576911548091
 30
0.0
 10
235.6415918769392
 20
115.9280081558222
 30
0.0
 10
235.7187138432016
 20
116.0669742284245
 30
0.0
 10
235.8461317280087
 20
116.3513874457784
 30
0.0
 10
235.8965959208098
 20
116.4986385353694
 30
0.0
 10
235.9634373334923
 20
116.7842609898537
 30
0.0
 10
235.9807555350414
 20
116.9239433408249
 30
0.0
 10
235.9823779269747
 20
117.3325686388283
 30
0.0
 10
235.913889956431
 20
117.5797129790806
 30
0.0
 10
235.6598396500602
 20
117.9867365465642
 30
0.0
 10
235.4752567507049
 20
118.1480590891463
 30
0.0
 10
235.1378882802818
 20
118.3306361033409
 30
0.0
 10
235.0138991113149
 20
118.3825082927939
 30
0.0
 10
234.7477303660974
 20
118.4689821679269
 30
0.0
 10
234.6071936852733
 20
118.5032775553969
 30
0.0
 10
234.3095353499754
 20
118.557681726601
 30
0.0
 10
234.1500679724329
 20
118.577931934876
 30
0.0
 10
233.8244505882994
 20
118.6044968854294
 30
0.0
 10
233.6584836059122
 20
118.6110895728559
 30
0.0
 10
233.3196503598492
 20
118.6114906627065
 30
0.0
 10
233.1526596810139
 20
118.6052401611503
 30
0.0
 10
232.8270347672232
 20
118.5795151607043
 30
0.0
 10
232.6669035946661
 20
118.5597005679048
 30
0.0
 10
232.2161984353079
 20
118.4787844526898
 30
0.0
 10
231.9459399341571
 20
118.3949233581343
 30
0.0
 10
231.6062252052553
 20
118.213009320469
 30
0.0
 10
231.5022665613799
 20
118.1419092261079
 30
0.0
 10
231.3219574687582
 20
117.9814352774623
 30
0.0
 10
231.2445237601657
 20
117.8917348704105
 30
0.0
 10
231.1162749053211
 20
117.6894831249491
 30
0.0
 10
231.0659596144043
 20
117.5764531015983
 30
0.0
 10
230.9992113679129
 20
117.3367168040391
 30
0.0
 10
230.9817378587168
 20
117.2087037919423
 30
0.0
 10
230.9808960761863
 20
116.9346558019944
 30
0.0
 10
230.9976561737184
 20
116.7936441555047
 30
0.0
 10
231.0634083172221
 20
116.507116445288
 30
0.0
 10
231.1132631779957
 20
116.3597774988028
 30
0.0
 10
231.3042279635632
 20
115.9300254462469
 30
0.0
 10
231.4895240965332
 20
115.6511730544271
 30
0.0
 10
231.828412997353
 20
115.2865655739433
 30
0.0
 10
231.9535949197562
 20
115.1719377279382
 30
0.0
 10
232.2195300557295
 20
114.9685297577177
 30
0.0
 10
232.3603856391283
 20
114.8791619100836
 30
0.0
 10
232.6600522356124
 20
114.7290739056682
 30
0.0
 10
232.8204304177471
 20
114.6683972721361
 30
0.0
 10
233.1451675577957
 20
114.5875377336131
 30
0.0
 10
233.3117816680941
 20
114.5662097374299
 30
0.0
 10
233.6508368612353
 20
114.5662097374299
 30
0.0
  0
SPLINE
  5
113
330
1F
100
AcDbEntity
  8
0
  6
HIDDEN
 62
     7
370
     0
100
AcDbSpline
210
0.0
220
0.0
230
1.0
 70
     8
 71
     3
 72
     8
 73
     4
 74
     0
 42
0.00000001
 43
0.00000001
 12
1.0
 22
0.0
 32
0.0
 13
1.0
 23
0.0
 33
0.0
 40
0.0
 40
0.0
 40
0.0
 40
0.0
 40
1.0
 40
1.0
 40
1.0
 40
1.0
 10
232.651766222431
 20
124.710827572503
 30
0.0
 10
232.6305581105659
 20
124.4769346688367
 30
0.0
 10
232.6567953272218
 20
124.2572942331108
 30
0.0
 10
232.7309013105408
 20
124.0507613573896
 30
0.0
  0
SPLINE
  5
114
330
1F
100
AcDbEntity
  8
0
  6
HIDDEN
 62
     7
370
     0
100
AcDbSpline
210
0.0
220
0.0
230
1.0
 70
     8
 71
     3
 72
    52
 73
    48
 74
     0
 42
0.00000001
 43
0.00000001
 12
1.0
 22
0.0
 32
0.0
 13
1.0
 23
0.0
 33
0.0
 40
0.0
 40
0.0
 40
0.0
 40
0.0
 40
0.0312499999999998
 40
0.0312499999999998
 40
0.0624999999999996
 40
0.0624999999999996
 40
0.1249999999999989
 40
0.1249999999999989
 40
0.1874999999999982
 40
0.1874999999999982
 40
0.218749999999998
 40
0.218749999999998
 40
0.2499999999999977
 40
0.2499999999999977
 40
0.2812499999999975
 40
0.2812499999999975
 40
0.3124999999999973
 40
0.3124999999999973
 40
0.3437499999999971
 40
0.3437499999999971
 40
0.3749999999999968
 40
0.3749999999999968
 40
0.4062499999999966
 40
0.4062499999999966
 40
0.4374999999999964
 40
0.4374999999999964
 40
0.499999999999996
 40
0.499999999999996
 40
0.5624999999999956
 40
0.5624999999999956
 40
0.6249999999999951
 40
0.6249999999999951
 40
0.6562499999999949
 40
0.6562499999999949
 40
0.6874999999999947
 40
0.6874999999999947
 40
0.7187499999999944
 40
0.7187499999999944
 40
0.7499999999999942
 40
0.7499999999999942
 40
0.8124999999999957
 40
0.8124999999999957
 40
0.8749999999999971
 40
0.8749999999999971
 40
0.9374999999999986
 40
0.9374999999999986
 40
1.0
 40
1.0
 40
1.0
 40
1.0
 10
232.7309013105401
 20
124.050761357391
 30
0.0
 10
232.8379264114337
 20
124.0401410873278
 30
0.0
 10
232.93903645124
 20
124.0164054022691
 30
0.0
 10
233.1407313967116
 20
123.957619133944
 30
0.0
 10
233.240814451434
 20
123.9218894698485
 30
0.0
 10
233.542912373745
 20
123.8002192996304
 30
0.0
 10
233.7492319125906
 20
123.6984487778637
 30
0.0
 10
234.1596042841026
 20
123.4638356209409
 30
0.0
 10
234.3631125961057
 20
123.3314918203977
 30
0.0
 10
234.6667101350135
 20
123.1059819927341
 30
0.0
 10
234.7679401957429
 20
123.0258574687892
 30
0.0
 10
234.9626682215224
 20
122.8607943589513
 30
0.0
 10
235.0570125392165
 20
122.7752765052637
 30
0.0
 10
235.2388976294193
 20
122.5975287218685
 30
0.0
 10
235.3263101966459
 20
122.5052124005165
 30
0.0
 10
235.4856867098678
 20
122.3216450197753
 30
0.0
 10
235.5587152701256
 20
122.2294089792977
 30
0.0
 10
235.6904539726115
 20
122.0440410894749
 30
0.0
 10
235.7486128598821
 20
121.9513411701672
 30
0.0
 10
235.8444339839003
 20
121.7746362156785
 30
0.0
 10
235.8830719325072
 20
121.6892274066039
 30
0.0
 10
235.9417744376727
 20
121.5253372392808
 30
0.0
 10
235.9610874795128
 20
121.4490963856419
 30
0.0
 10
235.9822110621426
 20
121.3066904369436
 30
0.0
 10
235.9838820510518
 20
121.2400927643961
 30
0.0
 10
235.9652723115426
 20
121.0596516402088
 30
0.0
 10
235.9223585365798
 20
120.9629725588709
 30
0.0
 10
235.7903053100628
 20
120.8100460959345
 30
0.0
 10
235.703296888707
 20
120.7561021506075
 30
0.0
 10
235.4993159417577
 20
120.6875598499396
 30
0.0
 10
235.3801669486991
 20
120.6720550997708
 30
0.0
 10
235.1981785888692
 20
120.6908873613726
 30
0.0
 10
235.1364958554317
 20
120.7038433685896
 30
0.0
 10
235.031896764558
 20
120.7598910971557
 30
0.0
 10
234.9889516767675
 20
120.8074328376373
 30
0.0
 10
235.0013606821531
 20
120.9681252734954
 30
0.0
 10
235.049156269516
 20
121.0678247902642
 30
0.0
 10
235.1517193863007
 20
121.2667834465732
 30
0.0
 10
235.2096501607198
 20
121.3702267458377
 30
0.0
 10
235.380124133893
 20
121.6867200723365
 30
0.0
 10
235.4902185905326
 20
121.9054711289096
 30
0.0
 10
235.6847565053732
 20
122.3626135980924
 30
0.0
 10
235.7709046937558
 20
122.6034214794401
 30
0.0
 10
235.9042082473561
 20
123.0979736264126
 30
0.0
 10
235.9515037794927
 20
123.3494686793089
 30
0.0
 10
235.9912499958919
 20
123.8639136913723
 30
0.0
 10
235.9829545934909
 20
124.1148557689488
 30
0.0
 10
235.9357960113788
 20
124.3573106404746
 30
0.0
  0
LWPOLYLINE
  5
115
330
1F
100
AcDbEntity
  8
0
  6
HIDDEN
 62
     7
370
     0
100
AcDbPolyline
 90
       21
 70
   128
 43
0.0
 10
235.2686744495
 20
125.3872588971
 10
234.7051215998
 20
125.7367738589
 10
234.0428341618
 20
125.94400245
 10
233.3352440839
 20
125.9922259062
 10
232.6394382355
 20
125.8775536612
 10
232.0115527595
 20
125.609237229
 10
231.5022441266
 20
125.2089238112
 10
231.1526022792
 20
124.7089098469
 10
230.9908355813
 20
124.1495354042
 10
231.0299950275
 20
123.5759296288
 10
231.2669213167
 20
123.0343698203
 10
231.6824997375
 20
122.5685478775
 10
232.2432023026
 20
122.2160453286
 10
232.9037927162
 20
122.0053013329
 10
233.6109759423
 20
121.9533182698
 10
234.3076979353
 20
122.0642900229
 10
234.93774864
 20
122.3292636259
 10
235.4502968993
 20
122.7268615697
 10
235.8039914047
 20
123.2250064938
 10
235.9702968325
 20
123.7835091204
 10
235.9357960111
 20
124.3573106402
  0
SPLINE
  5
116
330
1F
100
AcDbEntity
  8
0
  6
HIDDEN
 62
     7
370
     0
100
AcDbSpline
210
0.0
220
0.0
230
1.0
 70
     8
 71
     3
 72
    16
 73
    12
 74
     0
 42
0.00000001
 43
0.00000001
 12
1.0
 22
0.0
 32
0.0
 13
1.0
 23
0.0
 33
0.0
 40
0.0
 40
0.0
 40
0.0
 40
0.0
 40
0.2499999999999997
 40
0.2499999999999997
 40
0.4999999999999993
 40
0.4999999999999993
 40
0.749999999999999
 40
0.749999999999999
 40
0.8749999999999994
 40
0.8749999999999994
 40
1.0
 40
1.0
 40
1.0
 40
1.0
 10
235.2686744579151
 20
125.3872588886849
 30
0.0
 10
235.071595654596
 20
125.4994218313747
 30
0.0
 10
234.8585314239394
 20
125.5485272117663
 30
0.0
 10
234.4129811875627
 20
125.5582286707242
 30
0.0
 10
234.1909750186617
 20
125.5184511344113
 30
0.0
 10
233.7461270333809
 20
125.3755763798678
 30
0.0
 10
233.5259945804336
 20
125.2720999079948
 30
0.0
 10
233.2024969340515
 20
125.0841213934383
 30
0.0
 10
233.0953115898548
 20
125.0157062968992
 30
0.0
 10
232.8780065019295
 20
124.8689100525602
 30
0.0
 10
232.7687316224194
 20
124.7901556381293
 30
0.0
 10
232.6517662224315
 20
124.7108275725005
 30
0.0
  0
LINE
  5
117
330
1F
100
AcDbEntity
  8
0
  6
HIDDEN
 62
     7
370
     0
100
AcDbLine
 10
105.9115377043
 20
128.5685744151
 30
0.0
 11
105.9115377043
 21
100.5685744151
 31
0.0
  0
SPLINE
  5
118
330
1F
100
AcDbEntity
  8
0
  6
HIDDEN
 62
     7
370
     0
100
AcDbSpline
210
0.0
220
0.0
230
1.0
 70
     8
 71
     3
 72
    10
 73
     6
 74
     0
 42
0.00000001
 43
0.00000001
 12
1.0
 22
0.0
 32
0.0
 13
1.0
 23
0.0
 33
0.0
 40
0.0
 40
0.0
 40
0.0
 40
0.0
 40
0.5
 40
0.5
 40
1.0
 40
1.0
 40
1.0
 40
1.0
 10
124.9813092646647
 20
115.2030032921331
 30
0.0
 10
125.0144566827411
 20
114.9940126911251
 30
0.0
 10
125.0313155281028
 20
114.7824502251035
 30
0.0
 10
125.0313029977551
 20
114.3544614591359
 30
0.0
 10
125.0143880400147
 20
114.1427033547202
 30
0.0
 10
124.9813092646647
 20
113.9341455380881
 30
0.0
  0
LINE
  5
119
330
1F
100
AcDbEntity
  8
0
  6
HIDDEN
 62
     7
370
     0
100
AcDbLine
 10
125.4813092647
 20
128.0685743829
 30
0.0
 11
125.4813092647
 21
101.0685744151
 31
0.0
  0
SPLINE
  5
11A
330
1F
100
AcDbEntity
  8
0
  6
HIDDEN
 62
     7
370
     0
100
AcDbSpline
210
0.0
220
0.0
230
1.0
 70
     8
 71
     3
 72
    10
 73
     6
 74
     0
 42
0.00000001
 43
0.00000001
 12
1.0
 22
0.0
 32
0.0
 13
1.0
 23
0.0
 33
0.0
 40
0.0
 40
0.0
 40
0.0
 40
0.0
 40
0.5
 40
0.5
 40
1.0
 40
1.0
 40
1.0
 40
1.0
 10
124.9813092646647
 20
113.9341455380881
 30
0.0
 10
125.0144982271384
 20
114.1433980716706
 30
0.0
 10
125.031199003393
 20
114.3542148325695
 30
0.0
 10
125.0314184438377
 20
114.7787471137728
 30
0.0
 10
125.0145387284443
 20
114.9934954025454
 30
0.0
 10
124.9813092646647
 20
115.2030032921331
 30
0.0
  0
SPLINE
  5
11B
330
1F
100
AcDbEntity
  8
0
  6
HIDDEN
 62
     7
370
     0
100
AcDbSpline
210
0.0
220
0.0
230
1.0
 70
     8
 71
     3
 72
    68
 73
    64
 74
     0
 42
0.00000001
 43
0.00000001
 12
1.0
 22
0.0
 32
0.0
 13
1.0
 23
0.0
 33
0.0
 40
0.0
 40
0.0
 40
0.0
 40
0.0
 40
0.0312500000000002
 40
0.0312500000000002
 40
0.0625000000000003
 40
0.0625000000000003
 40
0.0937500000000005
 40
0.0937500000000005
 40
0.1250000000000007
 40
0.1250000000000007
 40
0.1562500000000009
 40
0.1562500000000009
 40
0.1875000000000011
 40
0.1875000000000011
 40
0.2187500000000012
 40
0.2187500000000012
 40
0.2500000000000014
 40
0.2500000000000014
 40
0.2812500000000014
 40
0.2812500000000014
 40
0.3125000000000013
 40
0.3125000000000013
 40
0.3437500000000013
 40
0.3437500000000013
 40
0.3750000000000012
 40
0.3750000000000012
 40
0.4062500000000011
 40
0.4062500000000011
 40
0.4375000000000011
 40
0.4375000000000011
 40
0.468750000000001
 40
0.468750000000001
 40
0.5000000000000009
 40
0.5000000000000009
 40
0.5625000000000009
 40
0.5625000000000009
 40
0.5937500000000008
 40
0.5937500000000008
 40
0.6250000000000008
 40
0.6250000000000008
 40
0.6562500000000007
 40
0.6562500000000007
 40
0.6875000000000007
 40
0.6875000000000007
 40
0.7187500000000006
 40
0.7187500000000006
 40
0.7500000000000004
 40
0.7500000000000004
 40
0.7812500000000004
 40
0.7812500000000004
 40
0.8125000000000003
 40
0.8125000000000003
 40
0.8437500000000003
 40
0.8437500000000003
 40
0.8750000000000002
 40
0.8750000000000002
 40
0.9062500000000002
 40
0.9062500000000002
 40
0.9375000000000001
 40
0.9375000000000001
 40
0.9687500000000001
 40
0.9687500000000001
 40
1.0
 40
1.0
 40
1.0
 40
1.0
 10
124.9813092646647
 20
113.9341455380881
 30
0.0
 10
124.941294312315
 20
113.6818559352725
 30
0.0
 10
124.8783525109037
 20
113.4378570848967
 30
0.0
 10
124.7089658488316
 20
112.9654386958342
 30
0.0
 10
124.6012722862461
 20
112.7350253096743
 30
0.0
 10
124.3459875177082
 20
112.3003207138772
 30
0.0
 10
124.199948287236
 20
112.0976787472258
 30
0.0
 10
123.8717268506768
 20
111.720689456468
 30
0.0
 10
123.6874795629018
 20
111.5450315028907
 30
0.0
 10
123.2945193955935
 20
111.2347735339444
 30
0.0
 10
123.0852247986343
 20
111.0988283262945
 30
0.0
 10
122.640339371697
 20
110.8654382308887
 30
0.0
 10
122.4035417791979
 20
110.7681916244743
 30
0.0
 10
121.9228067102787
 20
110.6215201666029
 30
0.0
 10
121.6765636170959
 20
110.5706278216605
 30
0.0
 10
121.1718468371164
 20
110.515100471425
 30
0.0
 10
120.91565213618
 20
110.511275584355
 30
0.0
 10
120.4132733869799
 20
110.5506993669995
 30
0.0
 10
120.1640236877963
 20
110.5937268162107
 30
0.0
 10
119.6724958903175
 20
110.727431785662
 30
0.0
 10
119.4372002890917
 20
110.8161016315672
 30
0.0
 10
118.9862863944295
 20
111.0351329953446
 30
0.0
 10
118.7686740439662
 20
111.1671345610281
 30
0.0
 10
118.3654668744178
 20
111.466491842031
 30
0.0
 10
118.1798553819834
 20
111.6331107694689
 30
0.0
 10
117.8398673115809
 20
112.0002221948964
 30
0.0
 10
117.684794380758
 20
112.2025259404371
 30
0.0
 10
117.4184513040947
 20
112.6266066200311
 30
0.0
 10
117.3054672033779
 20
112.8497662254973
 30
0.0
 10
117.120611946447
 20
113.3191214670915
 30
0.0
 10
117.0494711849436
 20
113.565331970427
 30
0.0
 10
116.9555107736554
 20
114.0598577967981
 30
0.0
 10
116.931501443699
 20
114.3107887918901
 30
0.0
 10
116.9309283230265
 20
115.0750341714464
 30
0.0
 10
117.0263274343451
 20
115.5772584734973
 30
0.0
 10
117.3041912265462
 20
116.2848229797697
 30
0.0
 10
117.4173531826268
 20
116.5085292435106
 30
0.0
 10
117.6834843646706
 20
116.9327991548311
 30
0.0
 10
117.8383121388704
 20
117.1350511168872
 30
0.0
 10
118.1784932446582
 20
117.5027618582554
 30
0.0
 10
118.3639957016079
 20
117.6693787335047
 30
0.0
 10
118.7662895026672
 20
117.9684281123001
 30
0.0
 10
118.9842975509193
 20
118.1008848203285
 30
0.0
 10
119.4348959180695
 20
118.3200912210332
 30
0.0
 10
119.6694449169503
 20
118.4085763510368
 30
0.0
 10
120.1579049105026
 20
118.5420625809755
 30
0.0
 10
120.4101703062165
 20
118.5860042934692
 30
0.0
 10
120.9123509443768
 20
118.6258132899427
 30
0.0
 10
121.1648330617285
 20
118.6224690771292
 30
0.0
 10
121.672698104798
 20
118.5672897571387
 30
0.0
 10
121.9202435779818
 20
118.5162438286693
 30
0.0
 10
122.4012111154525
 20
118.3698334404337
 30
0.0
 10
122.6371709805578
 20
118.2731872356601
 30
0.0
 10
123.0837414300794
 20
118.039282291347
 30
0.0
 10
123.2933862926528
 20
117.9031572775205
 30
0.0
 10
123.6863729994073
 20
117.5931030131915
 30
0.0
 10
123.8707689032223
 20
117.4174457656163
 30
0.0
 10
124.1993193210827
 20
117.0403058429519
 30
0.0
 10
124.3452614176059
 20
116.8378396376821
 30
0.0
 10
124.600146772808
 20
116.4042633395487
 30
0.0
 10
124.7084580856163
 20
116.1729714959672
 30
0.0
 10
124.8782930630333
 20
115.6996118158339
 30
0.0
 10
124.9412884241704
 20
115.4553300190132
 30
0.0
 10
124.9813092646647
 20
115.2030032921331
 30
0.0
  0
SPLINE
  5
11C
330
1F
100
AcDbEntity
  8
0
  6
HIDDEN
 62
     7
370
     0
100
AcDbSpline
210
0.0
220
0.0
230
1.0
 70
     8
 71
     3
 72
    68
 73
    64
 74
     0
 42
0.00000001
 43
0.00000001
 12
1.0
 22
0.0
 32
0.0
 13
1.0
 23
0.0
 33
0.0
 40
0.0
 40
0.0
 40
0.0
 40
0.0
 40
0.0312500000000002
 40
0.0312500000000002
 40
0.0625000000000004
 40
0.0625000000000004
 40
0.0937500000000006
 40
0.0937500000000006
 40
0.1250000000000008
 40
0.1250000000000008
 40
0.156250000000001
 40
0.156250000000001
 40
0.1875000000000012
 40
0.1875000000000012
 40
0.2187500000000014
 40
0.2187500000000014
 40
0.2500000000000016
 40
0.2500000000000016
 40
0.2812500000000016
 40
0.2812500000000016
 40
0.3125000000000016
 40
0.3125000000000016
 40
0.3437500000000016
 40
0.3437500000000016
 40
0.3750000000000016
 40
0.3750000000000016
 40
0.4062500000000016
 40
0.4062500000000016
 40
0.4375000000000016
 40
0.4375000000000016
 40
0.4687500000000016
 40
0.4687500000000016
 40
0.5000000000000016
 40
0.5000000000000016
 40
0.5625000000000016
 40
0.5625000000000016
 40
0.5937500000000014
 40
0.5937500000000014
 40
0.6250000000000013
 40
0.6250000000000013
 40
0.6562500000000012
 40
0.6562500000000012
 40
0.6875000000000011
 40
0.6875000000000011
 40
0.718750000000001
 40
0.718750000000001
 40
0.7500000000000009
 40
0.7500000000000009
 40
0.7812500000000008
 40
0.7812500000000008
 40
0.8125000000000007
 40
0.8125000000000007
 40
0.8437500000000006
 40
0.8437500000000006
 40
0.8750000000000004
 40
0.8750000000000004
 40
0.9062500000000003
 40
0.9062500000000003
 40
0.9375000000000002
 40
0.9375000000000002
 40
0.9687500000000001
 40
0.9687500000000001
 40
1.0
 40
1.0
 40
1.0
 40
1.0
 10
124.9813092646647
 20
115.2030032921331
 30
0.0
 10
124.941294312315
 20
115.4552928949487
 30
0.0
 10
124.8783525109037
 20
115.6992917453245
 30
0.0
 10
124.7089658488316
 20
116.171710134387
 30
0.0
 10
124.6012722862461
 20
116.402123520547
 30
0.0
 10
124.3459875177082
 20
116.8368281163441
 30
0.0
 10
124.199948287236
 20
117.0394700829954
 30
0.0
 10
123.8717268506768
 20
117.4164593737532
 30
0.0
 10
123.6874795629018
 20
117.5921173273306
 30
0.0
 10
123.2945193955935
 20
117.9023752962768
 30
0.0
 10
123.0852247986343
 20
118.0383205039268
 30
0.0
 10
122.640339371697
 20
118.2717105993326
 30
0.0
 10
122.4035417791979
 20
118.368957205747
 30
0.0
 10
121.9228067102787
 20
118.5156286636184
 30
0.0
 10
121.6765636170959
 20
118.5665210085608
 30
0.0
 10
121.1718468371164
 20
118.6220483587963
 30
0.0
 10
120.91565213618
 20
118.6258732458662
 30
0.0
 10
120.4132733869799
 20
118.5864494632218
 30
0.0
 10
120.1640236877963
 20
118.5434220140105
 30
0.0
 10
119.6724958903175
 20
118.4097170445593
 30
0.0
 10
119.4372002890917
 20
118.3210471986541
 30
0.0
 10
118.9862863944295
 20
118.1020158348766
 30
0.0
 10
118.7686740439662
 20
117.9700142691931
 30
0.0
 10
118.3654668744179
 20
117.6706569881902
 30
0.0
 10
118.1798553819834
 20
117.5040380607523
 30
0.0
 10
117.8398673115809
 20
117.1369266353249
 30
0.0
 10
117.684794380758
 20
116.9346228897841
 30
0.0
 10
117.4184513040947
 20
116.5105422101901
 30
0.0
 10
117.3054672033779
 20
116.2873826047239
 30
0.0
 10
117.120611946447
 20
115.8180273631298
 30
0.0
 10
117.0494711849436
 20
115.5718168597943
 30
0.0
 10
116.9555107736554
 20
115.0772910334231
 30
0.0
 10
116.931501443699
 20
114.8263600383311
 30
0.0
 10
116.9309283230265
 20
114.0621146587749
 30
0.0
 10
117.0263274343451
 20
113.5598903567239
 30
0.0
 10
117.3041912265462
 20
112.8523258504515
 30
0.0
 10
117.4173531826268
 20
112.6286195867107
 30
0.0
 10
117.6834843646706
 20
112.2043496753901
 30
0.0
 10
117.8383121388704
 20
112.0020977133341
 30
0.0
 10
118.1784932446582
 20
111.6343869719659
 30
0.0
 10
118.3639957016079
 20
111.4677700967165
 30
0.0
 10
118.7662895026672
 20
111.1687207179211
 30
0.0
 10
118.9842975509192
 20
111.0362640098927
 30
0.0
 10
119.4348959180695
 20
110.817057609188
 30
0.0
 10
119.6694449169503
 20
110.7285724791844
 30
0.0
 10
120.1579049105026
 20
110.5950862492458
 30
0.0
 10
120.4101703062165
 20
110.551144536752
 30
0.0
 10
120.9123509443768
 20
110.5113355402785
 30
0.0
 10
121.1648330617285
 20
110.514679753092
 30
0.0
 10
121.672698104798
 20
110.5698590730825
 30
0.0
 10
121.9202435779818
 20
110.6209050015519
 30
0.0
 10
122.4012111154525
 20
110.7673153897875
 30
0.0
 10
122.6371709805578
 20
110.8639615945611
 30
0.0
 10
123.0837414300794
 20
111.0978665388742
 30
0.0
 10
123.2933862926528
 20
111.2339915527007
 30
0.0
 10
123.6863729994073
 20
111.5440458170298
 30
0.0
 10
123.8707689032223
 20
111.7197030646049
 30
0.0
 10
124.1993193210827
 20
112.0968429872693
 30
0.0
 10
124.3452614176059
 20
112.2993091925392
 30
0.0
 10
124.600146772808
 20
112.7328854906725
 30
0.0
 10
124.7084580856163
 20
112.9641773342541
 30
0.0
 10
124.8782930630333
 20
113.4375370143873
 30
0.0
 10
124.9412884241704
 20
113.6818188112081
 30
0.0
 10
124.9813092646647
 20
113.9341455380881
 30
0.0
  0
ARC
  5
11D
330
1F
100
AcDbEntity
  8
0
  6
HIDDEN
 62
     7
370
     0
100
AcDbCircle
 10
234.8528638321
 20
124.6399394845
 30
0.0
 40
2.202238817312975
100
AcDbArc
 50
178.1553817178
 51
195.5176959522
  0
SPLINE
  5
11E
330
1F
100
AcDbEntity
  8
0
  6
HIDDEN
 62
     7
370
     0
100
AcDbSpline
210
0.0
220
0.0
230
1.0
 70
     8
 71
     3
 72
    14
 73
    10
 74
     0
 42
0.00000001
 43
0.00000001
 12
1.0
 22
0.0
 32
0.0
 13
1.0
 23
0.0
 33
0.0
 40
0.0
 40
0.0
 40
0.0
 40
0.0
 40
0.25
 40
0.25
 40
0.5
 40
0.5
 40
0.75
 40
0.75
 40
1.0
 40
1.0
 40
1.0
 40
1.0
 10
235.9357960073624
 20
124.357310639233
 30
0.0
 10
235.8619286526249
 20
124.4511268270641
 30
0.0
 10
235.7936007872937
 20
124.544715794706
 30
0.0
 10
235.6644212026126
 20
124.7291734283591
 30
0.0
 10
235.6030597104838
 20
124.8207793670731
 30
0.0
 10
235.4895433323406
 20
124.9958575592955
 30
0.0
 10
235.4373722756457
 20
125.0792800674493
 30
0.0
 10
235.3436532577626
 20
125.2387361887885
 30
0.0
 10
235.3018231697051
 20
125.3154922132944
 30
0.0
 10
235.2686744495322
 20
125.3872588970529
 30
0.0
  0
LINE
  5
11F
330
1F
100
AcDbEntity
  8
0
  6
HIDDEN
 62
     7
370
     0
100
AcDbLine
 10
126.7313092647
 20
123.5685744151
 30
0.0
 11
126.7313092647
 21
105.5685744151
 31
0.0
  0
LINE
  5
120
330
1F
100
AcDbEntity
  8
0
  6
HIDDEN
 62
     7
370
     0
100
AcDbLine
 10
125.4813092647
 20
104.3185744151
 30
0.0
 11
125.4813092647
 21
124.7936059303
 31
0.0
  0
LINE
  5
121
330
1F
100
AcDbEntity
  8
0
  6
HIDDEN
 62
     7
370
     0
100
AcDbLine
 10
152.4813092647
 20
123.5685744151
 30
0.0
 11
152.4813092647
 21
105.5685744151
 31
0.0
  0
LINE
  5
122
330
1F
100
AcDbEntity
  8
0
  6
HIDDEN
 62
     7
370
     0
100
AcDbLine
 10
155.335397205
 20
118.8185744151
 30
0.0
 11
155.335397205
 21
110.3185744151
 31
0.0
  0
SPLINE
  5
123
330
1F
100
AcDbEntity
  8
0
  6
HIDDEN
 62
     7
370
     0
100
AcDbSpline
210
0.0
220
0.0
230
1.0
 70
     8
 71
     3
 72
    60
 73
    56
 74
     0
 42
0.00000001
 43
0.00000001
 12
1.0
 22
0.0
 32
0.0
 13
1.0
 23
0.0
 33
0.0
 40
-0.0312500000000004
 40
-0.0312500000000004
 40
0.0
 40
0.0
 40
0.0312500000000006
 40
0.0312500000000006
 40
0.0625000000000012
 40
0.0625000000000012
 40
0.1250000000000001
 40
0.1250000000000001
 40
0.1562500000000005
 40
0.1562500000000005
 40
0.1875000000000008
 40
0.1875000000000008
 40
0.2187500000000011
 40
0.2187500000000011
 40
0.2500000000000014
 40
0.2500000000000014
 40
0.3125000000000021
 40
0.3125000000000021
 40
0.3750000000000027
 40
0.3750000000000027
 40
0.4062500000000031
 40
0.4062500000000031
 40
0.4375000000000034
 40
0.4375000000000034
 40
0.4687500000000037
 40
0.4687500000000037
 40
0.500000000000004
 40
0.500000000000004
 40
0.5312500000000043
 40
0.5312500000000043
 40
0.5625000000000047
 40
0.5625000000000047
 40
0.625000000000003
 40
0.625000000000003
 40
0.6562500000000021
 40
0.6562500000000021
 40
0.6875000000000013
 40
0.6875000000000013
 40
0.7187500000000004
 40
0.7187500000000004
 40
0.7499999999999996
 40
0.7499999999999996
 40
0.7812499999999989
 40
0.7812499999999989
 40
0.8124999999999981
 40
0.8124999999999981
 40
0.8749999999999977
 40
0.8749999999999977
 40
0.9062499999999983
 40
0.9062499999999983
 40
0.9374999999999989
 40
0.9374999999999989
 40
0.9687499999999996
 40
0.9687499999999996
 40
1.0
 40
1.0
 40
1.031250000000001
 40
1.031250000000001
 10
233.6508368612352
 20
110.5258541209165
 30
0.0
 10
233.3117816680941
 20
110.5258541209165
 30
0.0
 10
233.1461838203866
 20
110.532258351019
 30
0.0
 10
232.8220637437139
 20
110.5581941317153
 30
0.0
 10
232.6622536793883
 20
110.578121951971
 30
0.0
 10
232.2129120768469
 20
110.6592834859862
 30
0.0
 10
231.9432293370715
 20
110.7433781188192
 30
0.0
 10
231.605044548314
 20
110.9249228527963
 30
0.0
 10
231.5014781146901
 20
110.9958080958362
 30
0.0
 10
231.3210266523902
 20
111.156676468977
 30
0.0
 10
231.2439046861278
 20
111.2463214036714
 30
0.0
 10
231.1164868013207
 20
111.4474006119798
 30
0.0
 10
231.0660226085195
 20
111.560491121102
 30
0.0
 10
230.9991811958371
 20
111.8005187590727
 30
0.0
 10
230.9818629942881
 20
111.9281516057722
 30
0.0
 10
230.9802406023547
 20
112.3356550039804
 30
0.0
 10
231.0487285728984
 20
112.6312982530047
 30
0.0
 10
231.3027788792692
 20
113.2046973959326
 30
0.0
 10
231.4873617786245
 20
113.4829047731441
 30
0.0
 10
231.8247302490477
 20
113.8469854888874
 30
0.0
 10
231.9487194180145
 20
113.9610284956713
 30
0.0
 10
232.214888163232
 20
114.1655061124796
 30
0.0
 10
232.355424844056
 20
114.2549892530215
 30
0.0
 10
232.653083179354
 20
114.4050773740658
 30
0.0
 10
232.8125505568965
 20
114.4661577212456
 30
0.0
 10
233.13816794103
 20
114.5484717245699
 30
0.0
 10
233.3041349234171
 20
114.5702741256903
 30
0.0
 10
233.6429681694802
 20
114.5715742921127
 30
0.0
 10
233.8099588483153
 20
114.5508793675778
 30
0.0
 10
234.1355837621062
 20
114.4709679965045
 30
0.0
 10
234.2957149346632
 20
114.4109468361648
 30
0.0
 10
234.7464200940215
 20
114.1868546565337
 30
0.0
 10
235.0166785951723
 20
113.9760851799718
 30
0.0
 10
235.356393324074
 20
113.6119931022494
 30
0.0
 10
235.4603519679495
 20
113.4804876361072
 30
0.0
 10
235.6406610605711
 20
113.2106847416755
 30
0.0
 10
235.7180947691637
 20
113.0714843670565
 30
0.0
 10
235.8463436240083
 20
112.7853602647219
 30
0.0
 10
235.896658914925
 20
112.6382628180644
 30
0.0
 10
235.9634071614165
 20
112.3529950534378
 30
0.0
 10
235.9808806706127
 20
112.2128255248211
 30
0.0
 10
235.981722453143
 20
111.9381954332731
 30
0.0
 10
235.9649623556112
 20
111.8088486921533
 30
0.0
 10
235.8992102121072
 20
111.5671979049079
 30
0.0
 10
235.8493553513337
 20
111.4536403753101
 30
0.0
 10
235.6583905657662
 20
111.1489061108686
 30
0.0
 10
235.4730944327964
 20
110.9873534570944
 30
0.0
 10
235.1342055319764
 20
110.8048087552212
 30
0.0
 10
235.0090236095731
 20
110.7527884287488
 30
0.0
 10
234.7430884735999
 20
110.6669365070825
 30
0.0
 10
234.6022328902011
 20
110.6327351107487
 30
0.0
 10
234.3025662937169
 20
110.5784321323202
 30
0.0
 10
234.1421881115823
 20
110.5583632913298
 30
0.0
 10
233.8174509715336
 20
110.5323015214701
 30
0.0
 10
233.6508368612352
 20
110.5258541209165
 30
0.0
 10
233.3117816680941
 20
110.5258541209165
 30
0.0
  0
LINE
  5
124
330
1F
100
AcDbEntity
  8
0
  6
HIDDEN
 62
     7
370
     0
100
AcDbLine
 10
236.4813092647
 20
110.3185744151
 30
0.0
 11
236.4813092647
 21
118.8185744151
 31
0.0
  0
ELLIPSE
  5
125
330
1F
100
AcDbEntity
  8
0
  6
HIDDEN
 62
     7
370
     0
100
AcDbEllipse
 10
267.1873212287
 20
114.5685744151
 30
0.0
 11
14.61549449049057
 21
20.47670097187958
 31
0.0
210
0.0
220
0.0
230
1.0
 40
0.0668534593
 41
1.618477629394295
 42
3.189273956189419
  0
LINE
  5
126
330
1F
100
AcDbEntity
  8
0
  6
HIDDEN
 62
     7
370
     0
100
AcDbLine
 10
250.9813092647
 20
94.0685744151
 30
0.0
 11
250.9813092647
 21
114.5685744151
 31
0.0
  0
LINE
  5
127
330
1F
100
AcDbEntity
  8
0
  6
HIDDEN
 62
     7
370
     0
100
AcDbLine
 10
262.8618771326
 20
130.7791767674
 30
0.0
 11
262.8212024032
 21
130.75793086
 31
0.0
  0
LINE
  5
128
330
1F
100
AcDbEntity
  8
0
  6
HIDDEN
 62
     7
370
     0
100
AcDbLine
 10
265.6865430512
 20
127.9613915931
 30
0.0
 11
275.0603671435
 21
128.7794972045
 31
0.0
  0
LINE
  5
129
330
1F
100
AcDbEntity
  8
0
  6
HIDDEN
 62
     7
370
     0
100
AcDbLine
 10
275.0603671435
 20
128.7794972045
 30
0.0
 11
275.0589567014
 21
128.763415048
 31
0.0
  0
LINE
  5
12A
330
1F
100
AcDbEntity
  8
0
  6
HIDDEN
 62
     7
370
     0
100
AcDbLine
 10
263.6752039887
 20
140.052899786
 30
0.0
 11
262.8618771326
 21
130.7791767674
 31
0.0
  0
SPLINE
  5
12B
330
1F
100
AcDbEntity
  8
0
  6
HIDDEN
 62
     7
370
     0
100
AcDbSpline
210
0.0
220
0.0
230
1.0
 70
     8
 71
     3
 72
    10
 73
     6
 74
     0
 42
0.00000001
 43
0.00000001
 12
1.0
 22
0.0
 32
0.0
 13
1.0
 23
0.0
 33
0.0
 40
0.0
 40
0.0
 40
0.0
 40
0.0
 40
0.5
 40
0.5
 40
1.0
 40
1.0
 40
1.0
 40
1.0
 10
253.5308211381433
 20
125.1056516951554
 30
0.0
 10
252.7761949801123
 20
123.454931658916
 30
0.0
 10
252.135086419432
 20
121.75215257628
 30
0.0
 10
251.2271662276867
 20
118.1891146040154
 30
0.0
 10
250.9813092646647
 20
116.3895212242156
 30
0.0
 10
250.9813092646647
 20
114.5685744151106
 30
0.0
  0
SPLINE
  5
12C
330
1F
100
AcDbEntity
  8
0
  6
HIDDEN
 62
     7
370
     0
100
AcDbSpline
210
0.0
220
0.0
230
1.0
 70
     8
 71
     3
 72
    24
 73
    20
 74
     0
 42
0.00000001
 43
0.00000001
 12
1.0
 22
0.0
 32
0.0
 13
1.0
 23
0.0
 33
0.0
 40
0.0
 40
0.0
 40
0.0
 40
0.0
 40
0.1249999999999999
 40
0.1249999999999999
 40
0.1874999999999998
 40
0.1874999999999998
 40
0.2499999999999998
 40
0.2499999999999998
 40
0.375
 40
0.375
 40
0.4375000000000001
 40
0.4375000000000001
 40
0.5000000000000002
 40
0.5000000000000002
 40
0.7500000000000002
 40
0.7500000000000002
 40
0.8750000000000001
 40
0.8750000000000001
 40
1.0
 40
1.0
 40
1.0
 40
1.0
 10
255.2318398882753
 20
139.3186895880005
 30
0.0
 10
255.137155120634
 20
139.2177910251769
 30
0.0
 10
255.0428827905273
 20
139.0479089440465
 30
0.0
 10
254.9025307537898
 20
138.6882280763479
 30
0.0
 10
254.8557686603631
 20
138.5502305699189
 30
0.0
 10
254.7637089376549
 20
138.241879605986
 30
0.0
 10
254.7183718778116
 20
138.0715716003311
 30
0.0
 10
254.5845153750789
 20
137.513343785132
 30
0.0
 10
254.4981416045171
 20
137.0783116895576
 30
0.0
 10
254.373342358689
 20
136.3321739408581
 30
0.0
 10
254.3325383818802
 20
136.0678148038151
 30
0.0
 10
254.2526282453289
 20
135.5073338310538
 30
0.0
 10
254.2134270104928
 20
135.2104254639322
 30
0.0
 10
254.0230702213546
 20
133.6532239068353
 30
0.0
 10
253.8917173119828
 20
132.2055148622197
 30
0.0
 10
253.7282282659062
 20
129.7379245577643
 30
0.0
 10
253.6791928888696
 20
128.8604559590749
 30
0.0
 10
253.5949439125287
 20
127.0375049026166
 30
0.0
 10
253.5594933834762
 20
126.0898912167119
 30
0.0
 10
253.5308211381433
 20
125.1056516951553
 30
0.0
  0
LINE
  5
12D
330
1F
100
AcDbEntity
  8
0
  6
HIDDEN
 62
     7
370
     0
100
AcDbLine
 10
272.1885701263
 20
124.5342633239
 30
0.0
 11
274.7374299535
 21
125.0972997833
 31
0.0
  0
ELLIPSE
  5
12E
330
1F
100
AcDbEntity
  8
0
  6
HIDDEN
 62
     7
370
     0
100
AcDbEllipse
 10
263.8156082906
 20
128.2803874311
 30
0.0
 11
2.099281448397733
 21
0.1276543563555208
 31
0.0
210
0.0
220
0.0
230
1.0
 40
0.4303093993
 41
5.785598212635349
 42
5.92352144674109
  0
ELLIPSE
  5
12F
330
1F
100
AcDbEntity
  8
0
  6
HIDDEN
 62
     7
370
     0
100
AcDbEllipse
 10
263.8156082906
 20
128.2803874311
 30
0.0
 11
-1.616902374425195
 21
2.318196838028314
 31
0.0
210
0.0
220
0.0
230
1.0
 40
0.57803977
 41
5.737920332829625
 42
5.875843566935352
  0
LINE
  5
130
330
1F
100
AcDbEntity
  8
0
  6
HIDDEN
 62
     7
370
     0
100
AcDbLine
 10
263.1281621146
 20
130.7471651665
 30
0.0
 11
263.1281621146
 21
130.581144759
 31
0.0
  0
ARC
  5
131
330
1F
100
AcDbEntity
  8
0
  6
HIDDEN
 62
     7
370
     0
100
AcDbCircle
 10
263.8171858934
 20
128.600104182
 30
0.0
 40
2.097445001810099
100
AcDbArc
 50
340.961604152
 51
109.1781356176
  0
LINE
  5
132
330
1F
100
AcDbEntity
  8
0
  6
HIDDEN
 62
     7
370
     0
100
AcDbLine
 10
265.79990105
 20
127.9159140454
 30
0.0
 11
265.79990105
 21
128.0819344529
 31
0.0
  0
ARC
  5
133
330
1F
100
AcDbEntity
  8
0
  6
HIDDEN
 62
     7
370
     0
100
AcDbCircle
 10
263.817381178
 20
128.5790836302
 30
0.0
 40
2.096000449583232
100
AcDbArc
 50
269.9515367583
 51
119.3400838936
  0
ARC
  5
134
330
1F
100
AcDbEntity
  8
0
  6
HIDDEN
 62
     7
370
     0
100
AcDbCircle
 10
263.8124202936
 20
128.579731044
 30
0.0
 40
2.096649537273173
100
AcDbArc
 50
175.4684290716
 51
270.0871193988
  0
LINE
  5
135
330
1F
100
AcDbEntity
  8
0
  6
HIDDEN
 62
     7
370
     0
100
AcDbLine
 10
265.79990105
 20
128.0819344529
 30
0.0
 11
274.8246245093
 21
128.8695721161
 31
0.0
  0
LINE
  5
136
330
1F
100
AcDbEntity
  8
0
  6
HIDDEN
 62
     7
370
     0
100
AcDbLine
 10
275.0603671435
 20
128.7794972045
 30
0.0
 11
274.8246245093
 21
128.8695721161
 31
0.0
  0
LINE
  5
137
330
1F
100
AcDbEntity
  8
0
  6
HIDDEN
 62
     7
370
     0
100
AcDbLine
 10
263.9224659113
 20
139.8039832802
 30
0.0
 11
263.1281621146
 21
130.7471651665
 31
0.0
  0
ELLIPSE
  5
138
330
1F
100
AcDbEntity
  8
0
  6
HIDDEN
 62
     7
370
     0
100
AcDbEllipse
 10
261.409527368
 20
114.8560761001
 30
0.0
 11
2.05777034922852
 21
25.26968660225604
 31
0.0
210
0.0
220
0.0
230
1.0
 40
0.1268365588
 41
6.133427250589111
 42
6.216858048164191
  0
LWPOLYLINE
  5
139
330
1F
100
AcDbEntity
  8
0
  6
HIDDEN
 62
     7
370
     0
100
AcDbPolyline
 90
       23
 70
   128
 43
0.0
 10
233.4813092647
 20
104.9048236494
 10
234.1856406568
 20
104.9867508312
 10
234.8329113083
 20
105.2258951237
 10
235.3706832006
 20
105.6028824785
 10
235.7553892531
 20
106.0871716222
 10
235.9558628694
 20
106.6395283285
 10
235.9558628694
 20
107.2152039421
 10
235.7553892531
 20
107.7675606484
 10
235.3706832006
 20
108.2518497921
 10
234.8329113083
 20
108.6288371469
 10
234.1856406568
 20
108.8679814394
 10
233.4813092647
 20
108.9499086212
 10
232.7769778726
 20
108.8679814394
 10
232.129707221
 20
108.6288371469
 10
231.5919353288
 20
108.2518497921
 10
231.2072292763
 20
107.7675606484
 10
231.00675566
 20
107.2152039421
 10
231.00675566
 20
106.6395283285
 10
231.2072292763
 20
106.0871716222
 10
231.5919353288
 20
105.6028824785
 10
232.129707221
 20
105.2258951237
 10
232.7769778726
 20
104.9867508312
 10
233.4813092647
 20
104.9048236494
  0
LINE
  5
13A
330
1F
100
AcDbEntity
  8
0
  6
HIDDEN
 62
     7
370
     0
100
AcDbLine
 10
274.8246245093
 20
128.8695721161
 30
0.0
 11
274.5290183455
 21
128.6777525194
 31
0.0
  0
LINE
  5
13B
330
1F
100
AcDbEntity
  8
0
  6
HIDDEN
 62
     7
370
     0
100
AcDbLine
 10
263.8906530293
 20
139.2752257343
 30
0.0
 11
263.1281621146
 21
130.581144759
 31
0.0
  0
ELLIPSE
  5
13C
330
1F
100
AcDbEntity
  8
0
  6
HIDDEN
 62
     7
370
     0
100
AcDbEllipse
 10
261.7214926279
 20
114.8833695237
 30
0.0
 11
2.207236391061713
 21
25.28859014739336
 31
0.0
210
0.0
220
0.0
230
1.0
 40
0.0059876405
 41
6.01660596298751
 42
6.11290601423503
  0
LINE
  5
13D
330
1F
100
AcDbEntity
  8
0
  6
HIDDEN
 62
     7
370
     0
100
AcDbLine
 10
275.4977990579
 20
139.7239936083
 30
0.0
 11
275.0002464001
 21
140.2287303999
 31
0.0
  0
CIRCLE
  5
13E
330
1F
100
AcDbEntity
  8
0
  6
HIDDEN
 62
     7
370
     0
100
AcDbCircle
 10
269.5346757977
 20
134.3128728634
 30
0.0
 40
2.99748715885527
  0
LINE
  5
13F
330
1F
100
AcDbEntity
  8
0
  6
HIDDEN
 62
     7
370
     0
100
AcDbLine
 10
265.79990105
 20
127.9159140454
 30
0.0
 11
274.5290183455
 21
128.6777525194
 31
0.0
  0
ELLIPSE
  5
140
330
1F
100
AcDbEntity
  8
0
  6
HIDDEN
 62
     7
370
     0
100
AcDbEllipse
 10
-540.1369315326
 20
44.7298476569
 30
0.0
 11
4096.488451942433
 21
356.6522915817379
 31
0.0
210
0.0
220
0.0
230
1.0
 40
0.0060650906
 41
1.369946852474484
 42
1.372713397111427
  0
LINE
  5
141
330
1F
100
AcDbEntity
  8
0
  6
HIDDEN
 62
     7
370
     0
100
AcDbLine
 10
275.4977991161
 20
139.7239936033
 30
0.0
 11
274.5290183455
 21
128.6777525194
 31
0.0
  0
CIRCLE
  5
142
330
1F
100
AcDbEntity
  8
0
  6
HIDDEN
 62
     7
370
     0
100
AcDbCircle
 10
269.5348916654
 20
134.2496797087
 30
0.0
 40
2.099198258428938
  0
SPLINE
  5
143
330
1F
100
AcDbEntity
  8
0
  6
HIDDEN
 62
     7
370
     0
100
AcDbSpline
210
0.0
220
0.0
230
1.0
 70
     8
 71
     3
 72
    27
 73
    23
 74
     0
 42
0.00000001
 43
0.00000001
 12
1.0
 22
0.0
 32
0.0
 13
1.0
 23
0.0
 33
0.0
 40
0.0
 40
0.0
 40
0.0
 40
0.0
 40
0.0203220772717551
 40
0.0408022951256643
 40
0.0614407692972179
 40
0.0822376128774133
 40
0.1031929363908139
 40
0.1243068478708303
 40
0.1857127729705243
 40
0.2488821660791915
 40
0.3101726673120384
 40
0.373712265583412
 40
0.4987168117654259
 40
0.6238911953434739
 40
0.6865463194631274
 40
0.7492228695011592
 40
0.8119132483659325
 40
0.8746096903990287
 40
0.9095677596573292
 40
0.937309583668658
 40
0.9701625863887637
 40
0.9999999999999999
 40
0.9999999999999999
 40
0.9999999999999999
 40
0.9999999999999999
 10
275.0002461356841
 20
140.2287364231011
 30
0.0
 10
274.9804477186561
 20
140.1874754904617
 30
0.0
 10
274.9406968189919
 20
140.1046325444283
 30
0.0
 10
274.8803127606203
 20
139.9705827938177
 30
0.0
 10
274.8190963856262
 20
139.8286333482527
 30
0.0
 10
274.7570186671367
 20
139.6779913705286
 30
0.0
 10
274.6941000213862
 20
139.5187224719955
 30
0.0
 10
274.5899562807116
 20
139.2441936189567
 30
0.0
 10
274.4417755053838
 20
138.8237188483834
 30
0.0
 10
274.250381882887
 20
138.2237219571726
 30
0.0
 10
274.0548885336167
 20
137.5544526396805
 30
0.0
 10
273.7933766839301
 20
136.5846629299855
 30
0.0
 10
273.4628026127352
 20
135.2190182142959
 30
0.0
 10
273.1341344418294
 20
133.6779140268598
 30
0.0
 10
272.8737940816213
 20
132.3472458485805
 30
0.0
 10
272.680250352301
 20
131.3024498914377
 30
0.0
 10
272.4890746975711
 20
130.2143522610755
 30
0.0
 10
272.3285488808419
 20
129.2523058019992
 30
0.0
 10
272.2048137896932
 20
128.4808159113873
 30
0.0
 10
272.1114648576748
 20
127.8838129856102
 30
0.0
 10
272.0239697818217
 20
127.3114202487237
 30
0.0
 10
271.9641944251138
 20
126.9079194328448
 30
0.0
 10
271.9357444299435
 20
126.7158737990717
 30
0.0
  0
SPLINE
  5
144
330
1F
100
AcDbEntity
  8
0
  6
HIDDEN
 62
     7
370
     0
100
AcDbSpline
210
0.0
220
0.0
230
1.0
 70
     8
 71
     3
 72
    30
 73
    26
 74
     0
 42
0.00000001
 43
0.00000001
 12
1.0
 22
0.0
 32
0.0
 13
1.0
 23
0.0
 33
0.0
 40
0.0
 40
0.0
 40
0.0
 40
0.0
 40
0.0209077326888837
 40
0.0418009387059731
 40
0.0626863717632216
 40
0.0835707931135644
 40
0.1044609649922748
 40
0.1253636440535583
 40
0.1566985109454111
 40
0.1880590558597709
 40
0.2507468931949519
 40
0.3134240710546681
 40
0.3760819944920251
 40
0.4387122243995658
 40
0.5013067231304215
 40
0.5638578100662421
 40
0.6263583652801425
 40
0.6888018393979677
 40
0.7511823723262903
 40
0.8134948626250268
 40
0.8446141890397048
 40
0.8757408131065355
 40
0.9171835943973332
 40
0.9585847960924503
 40
0.9999999999999999
 40
0.9999999999999999
 40
0.9999999999999999
 40
0.9999999999999999
 10
272.296447124908
 20
125.6594617824757
 30
0.0
 10
272.3170445677075
 20
125.7993143733311
 30
0.0
 10
272.3582251422237
 20
126.0789223856016
 30
0.0
 10
272.4206736482522
 20
126.4938315531758
 30
0.0
 10
272.4835810693382
 20
126.9051886612275
 30
0.0
 10
272.5469983436926
 20
127.3126879001296
 30
0.0
 10
272.6109120618441
 20
127.7164110695315
 30
0.0
 10
272.6860196854176
 20
128.1827379713582
 30
0.0
 10
272.7726174147363
 20
128.7089138455272
 30
0.0
 10
272.90371951939
 20
129.4850037832757
 30
0.0
 10
273.0697390585683
 20
130.429691993992
 30
0.0
 10
273.2717129165136
 20
131.5187547947806
 30
0.0
 10
273.4758501811082
 20
132.5601731503891
 30
0.0
 10
273.6815278431028
 20
133.5506673730193
 30
0.0
 10
273.8881176257353
 20
134.4873270334862
 30
0.0
 10
274.0949912546541
 20
135.3671816368077
 30
0.0
 10
274.3015175777635
 20
136.1876621872655
 30
0.0
 10
274.5070677447109
 20
136.9461695528423
 30
0.0
 10
274.7110119648635
 20
137.6404525932333
 30
0.0
 10
274.879159241766
 20
138.1638696561444
 30
0.0
 10
275.0122504223429
 20
138.5483919542735
 30
0.0
 10
275.1222439727021
 20
138.8495975794491
 30
0.0
 10
275.241974550339
 20
139.1554661556251
 30
0.0
 10
275.3710498920609
 20
139.4599280249555
 30
0.0
 10
275.4555447405164
 20
139.6359620535394
 30
0.0
 10
275.4977993077421
 20
139.7239939493384
 30
0.0
  0
ARC
  5
145
330
1F
100
AcDbEntity
  8
0
  6
HIDDEN
 62
     7
370
     0
100
AcDbCircle
 10
269.5357113019
 20
133.477077385
 30
0.0
 40
2.101414077787013
100
AcDbArc
 50
203.7895586466
 51
345.5208998252
  0
SPLINE
  5
146
330
1F
100
AcDbEntity
  8
0
  6
HIDDEN
 62
     7
370
     0
100
AcDbSpline
210
0.0
220
0.0
230
1.0
 70
     8
 71
     3
 72
    40
 73
    36
 74
     0
 42
0.00000001
 43
0.00000001
 12
1.0
 22
0.0
 32
0.0
 13
1.0
 23
0.0
 33
0.0
 40
0.0
 40
0.0
 40
0.0
 40
0.0
 40
0.1249999999999901
 40
0.1249999999999901
 40
0.187499999999986
 40
0.187499999999986
 40
0.2499999999999818
 40
0.2499999999999818
 40
0.3124999999999776
 40
0.3124999999999776
 40
0.3749999999999735
 40
0.3749999999999735
 40
0.4062499999999714
 40
0.4062499999999714
 40
0.4374999999999694
 40
0.4374999999999694
 40
0.4999999999999656
 40
0.4999999999999656
 40
0.5624999999999617
 40
0.5624999999999617
 40
0.5937499999999627
 40
0.5937499999999627
 40
0.6249999999999637
 40
0.6249999999999637
 40
0.6874999999999697
 40
0.6874999999999697
 40
0.7499999999999758
 40
0.7499999999999758
 40
0.8124999999999818
 40
0.8124999999999818
 40
0.8749999999999879
 40
0.8749999999999879
 40
0.9374999999999939
 40
0.9374999999999939
 40
1.0
 40
1.0
 40
1.0
 40
1.0
 10
271.5703821723401
 20
132.9516674731864
 30
0.0
 10
271.6508062418526
 20
133.2883520848448
 30
0.0
 10
271.6543953973389
 20
133.6136438517998
 30
0.0
 10
271.573105334088
 20
134.0847218175766
 30
0.0
 10
271.530965378216
 20
134.2376806959535
 30
0.0
 10
271.4193308870927
 20
134.5303562436223
 30
0.0
 10
271.3497344749139
 20
134.670965173009
 30
0.0
 10
271.1803749062406
 20
134.9405073167797
 30
0.0
 10
271.0800301526664
 20
135.0699184921852
 30
0.0
 10
270.8475221042452
 20
135.3082717119739
 30
0.0
 10
270.7140375327996
 20
135.4190822396189
 30
0.0
 10
270.4816754638765
 20
135.563937691764
 30
0.0
 10
270.3993833201278
 20
135.608300559027
 30
0.0
 10
270.2223511027538
 20
135.6874765836719
 30
0.0
 10
270.1265271865595
 20
135.7225847480891
 30
0.0
 10
269.8234964357477
 20
135.8056823981316
 30
0.0
 10
269.5945525463251
 20
135.8316925998885
 30
0.0
 10
269.129390476981
 20
135.7931351813676
 30
0.0
 10
268.9061238976929
 20
135.729298708265
 30
0.0
 10
268.6202610255405
 20
135.5976891079075
 30
0.0
 10
268.5309131602229
 20
135.5472789456902
 30
0.0
 10
268.3676346781424
 20
135.439701541953
 30
0.0
 10
268.2932620645166
 20
135.3824676368625
 30
0.0
 10
268.0867871991221
 20
135.202323323447
 30
0.0
 10
267.9708914779683
 20
135.0702796805035
 30
0.0
 10
267.7780133997121
 20
134.7981659232161
 30
0.0
 10
267.699695774905
 20
134.6567292300629
 30
0.0
 10
267.5727574267488
 20
134.3635672036109
 30
0.0
 10
267.52440014735
 20
134.2114681696504
 30
0.0
 10
267.4581112920883
 20
133.9043495640344
 30
0.0
 10
267.439725845229
 20
133.7483895384215
 30
0.0
 10
267.4331890814534
 20
133.43139461268
 30
0.0
 10
267.4452943553569
 20
133.2697023733195
 30
0.0
 10
267.5027796970678
 20
132.9486698540341
 30
0.0
 10
267.547956273817
 20
132.7885350022428
 30
0.0
 10
267.6128476682178
 20
132.6294120191919
 30
0.0
  0
LINE
  5
147
330
1F
100
AcDbEntity
  8
0
  6
HIDDEN
 62
     7
370
     0
100
AcDbLine
 10
99.9813092647
 20
99.4645215864
 30
0.0
 11
99.9813092647
 21
93.4102110188
 31
0.0
  0
LINE
  5
148
330
1F
100
AcDbEntity
  8
0
  6
HIDDEN
 62
     7
370
     0
100
AcDbLine
 10
98.4813092647
 20
99.8975342883
 30
0.0
 11
98.4813092647
 21
94.2762364226
 31
0.0
  0
LINE
  5
149
330
1F
100
AcDbEntity
  8
0
  6
HIDDEN
 62
     7
370
     0
100
AcDbLine
 10
134.2813092647
 20
99.0336538922
 30
0.0
 11
134.2813092647
 21
92.5484756305
 31
0.0
  0
SPLINE
  5
14A
330
1F
100
AcDbEntity
  8
0
  6
HIDDEN
 62
     7
370
     0
100
AcDbSpline
210
0.0
220
0.0
230
1.0
 70
     8
 71
     3
 72
    16
 73
    12
 74
     0
 42
0.00000001
 43
0.00000001
 12
1.0
 22
0.0
 32
0.0
 13
1.0
 23
0.0
 33
0.0
 40
0.0
 40
0.0
 40
0.0
 40
0.0
 40
0.2500000000000001
 40
0.2500000000000001
 40
0.3749999999999999
 40
0.3749999999999999
 40
0.4999999999999998
 40
0.4999999999999998
 40
0.7499999999999999
 40
0.7499999999999999
 40
1.0
 40
1.0
 40
1.0
 40
1.0
 10
135.159988921105
 20
97.98466778886954
 30
0.0
 10
134.9987564436205
 20
97.27027362667744
 30
0.0
 10
134.8782766039809
 20
96.61693136396876
 30
0.0
 10
134.7558960866676
 20
95.72867612216487
 30
0.0
 10
134.7249184262701
 20
95.44799558581305
 30
0.0
 10
134.6833046886422
 20
94.91896159597304
 30
0.0
 10
134.6730687757094
 20
94.67564061739459
 30
0.0
 10
134.6728803786532
 20
94.00761792688137
 30
0.0
 10
134.7130250812909
 20
93.64393701746191
 30
0.0
 10
134.8771788362304
 20
93.08404614491357
 30
0.0
 10
134.99873048664
 20
92.89652485279643
 30
0.0
 10
135.159988921105
 20
92.79849346010849
 30
0.0
  0
LINE
  5
14B
330
1F
100
AcDbEntity
  8
0
  6
HIDDEN
 62
     7
370
     0
100
AcDbLine
 10
134.2813092647
 20
136.5886731997
 30
0.0
 11
134.2813092647
 21
130.103494938
 31
0.0
  0
SPLINE
  5
14C
330
1F
100
AcDbEntity
  8
0
  6
HIDDEN
 62
     7
370
     0
100
AcDbSpline
210
0.0
220
0.0
230
1.0
 70
     8
 71
     3
 72
    16
 73
    12
 74
     0
 42
0.00000001
 43
0.00000001
 12
1.0
 22
0.0
 32
0.0
 13
1.0
 23
0.0
 33
0.0
 40
0.0
 40
0.0
 40
0.0
 40
0.0
 40
0.2499999999999999
 40
0.2499999999999999
 40
0.3750000000000001
 40
0.3750000000000001
 40
0.5000000000000002
 40
0.5000000000000002
 40
0.7500000000000001
 40
0.7500000000000001
 40
1.0
 40
1.0
 40
1.0
 40
1.0
 10
135.159988921105
 20
136.3386553701127
 30
0.0
 10
134.9987564436205
 20
136.240639757058
 30
0.0
 10
134.8782766039809
 20
136.053903725382
 30
0.0
 10
134.7558960866676
 20
135.6408639178231
 30
0.0
 10
134.7249184262701
 20
135.4808634185901
 30
0.0
 10
134.6833046886422
 20
135.114057767499
 30
0.0
 10
134.6730687757094
 20
134.910720614875
 30
0.0
 10
134.6728803786532
 20
134.2434333482483
 30
0.0
 10
134.7130250812909
 20
133.7226188843602
 30
0.0
 10
134.8771788362304
 20
132.5252598688826
 30
0.0
 10
134.99873048664
 20
131.8669902145866
 30
0.0
 10
135.159988921105
 20
131.1524810413516
 30
0.0
  0
LINE
  5
14D
330
1F
100
AcDbEntity
  8
0
  6
HIDDEN
 62
     7
370
     0
100
AcDbLine
 10
99.9813092647
 20
135.7269378114
 30
0.0
 11
99.9813092647
 21
129.6726272438
 31
0.0
  0
LINE
  5
14E
330
1F
100
AcDbEntity
  8
0
  6
HIDDEN
 62
     7
370
     0
100
AcDbLine
 10
98.4813092647
 20
134.8609124076
 30
0.0
 11
98.4813092647
 21
129.239614542
 31
0.0
  0
LWPOLYLINE
  5
14F
330
1F
100
AcDbEntity
  8
0
  6
HIDDEN
 62
     7
370
     0
100
AcDbPolyline
 90
       25
 70
   128
 43
0.0
 10
233.4813092647
 20
104.3237266469
 10
234.2577664
 20
104.4064264037
 10
234.9813092647
 20
104.6488898224
 10
235.6026296082
 20
105.0345934216
 10
236.079385476
 20
105.5372521385
 10
236.3790867435
 20
106.1226106122
 10
236.4813092647
 20
106.75077763
 10
236.3790867435
 20
107.3789446479
 10
236.079385476
 20
107.9643031216
 10
235.6026296082
 20
108.4669618385
 10
234.9813092647
 20
108.8526654377
 10
234.2577664
 20
109.0951288564
 10
233.4813092647
 20
109.1778286132
 10
232.7048521294
 20
109.0951288564
 10
231.9813092647
 20
108.8526654377
 10
231.3599889211
 20
108.4669618385
 10
230.8832330533
 20
107.9643031216
 10
230.5835317858
 20
107.3789446479
 10
230.4813092647
 20
106.75077763
 10
230.5835317858
 20
106.1226106122
 10
230.8832330533
 20
105.5372521385
 10
231.3599889211
 20
105.0345934216
 10
231.9813092647
 20
104.6488898224
 10
232.7048521294
 20
104.4064264037
 10
233.4813092647
 20
104.3237266469
  0
LINE
  5
150
330
1F
100
AcDbEntity
  8
0
  6
HIDDEN
 62
     7
370
     0
100
AcDbLine
 10
98.4813092647
 20
129.239614542
 30
0.0
 11
98.4813092647
 21
117.4705617481
 31
0.0
  0
LINE
  5
151
330
1F
100
AcDbEntity
  8
0
  6
HIDDEN
 62
     7
370
     0
100
AcDbLine
 10
98.4813092647
 20
111.6665870821
 30
0.0
 11
98.4813092647
 21
99.8975342883
 31
0.0
  0
LINE
  5
152
330
1F
100
AcDbEntity
  8
0
  6
HIDDEN
 62
     7
370
     0
100
AcDbLine
 10
99.9813092647
 20
110.6033635183
 30
0.0
 11
99.9813092647
 21
99.4645215864
 31
0.0
  0
LINE
  5
153
330
1F
100
AcDbEntity
  8
0
  6
HIDDEN
 62
     7
370
     0
100
AcDbLine
 10
99.9813092647
 20
129.6726272438
 30
0.0
 11
99.9813092647
 21
118.5337853119
 31
0.0
  0
SPLINE
  5
154
330
1F
100
AcDbEntity
  8
0
  6
HIDDEN
 62
     7
370
     0
100
AcDbSpline
210
0.0
220
0.0
230
1.0
 70
     8
 71
     3
 72
    18
 73
    14
 74
     0
 42
0.00000001
 43
0.00000001
 12
1.0
 22
0.0
 32
0.0
 13
1.0
 23
0.0
 33
0.0
 40
0.0
 40
0.0
 40
0.0
 40
0.0
 40
0.2499999999999863
 40
0.2499999999999863
 40
0.3749999999999886
 40
0.3749999999999886
 40
0.4999999999999909
 40
0.4999999999999909
 40
0.6249999999999931
 40
0.6249999999999931
 40
0.7499999999999954
 40
0.7499999999999954
 40
1.0
 40
1.0
 40
1.0
 40
1.0
 10
267.6128476682559
 20
132.6294120192177
 30
0.0
 10
267.9233689503307
 20
132.5111880784528
 30
0.0
 10
268.2415820848145
 20
132.4028939899204
 30
0.0
 10
268.7504645419707
 20
132.2886739692289
 30
0.0
 10
268.9244690972114
 20
132.2594830528178
 30
0.0
 10
269.2766769039351
 20
132.2284030962408
 30
0.0
 10
269.4581813603461
 20
132.226670309547
 30
0.0
 10
269.8169035174682
 20
132.2562913720575
 30
0.0
 10
269.9922080536957
 20
132.2870274303847
 30
0.0
 10
270.3359675007923
 20
132.375275232534
 30
0.0
 10
270.5044459322279
 20
132.4329237704385
 30
0.0
 10
270.9853733233594
 20
132.626862818357
 30
0.0
 10
271.2822248608156
 20
132.78472383516
 30
0.0
 10
271.5703821723151
 20
132.9516674732632
 30
0.0
  0
LINE
  5
155
330
1F
100
AcDbEntity
  8
0
  6
HIDDEN
 62
     7
370
     0
100
AcDbLine
 10
136.2813092647
 20
129.6062815776
 30
0.0
 11
136.2813092647
 21
99.5308672526
 31
0.0
  0
LINE
  5
156
330
1F
100
AcDbEntity
  8
0
  6
HIDDEN
 62
     7
370
     0
100
AcDbLine
 10
134.2813092647
 20
130.103494938
 30
0.0
 11
134.2813092647
 21
99.0336538922
 31
0.0
  0
SPLINE
  5
157
330
1F
100
AcDbEntity
  8
0
  6
HIDDEN
 62
     7
370
     0
100
AcDbSpline
210
0.0
220
0.0
230
1.0
 70
     8
 71
     3
 72
     8
 73
     4
 74
     0
 42
0.00000001
 43
0.00000001
 12
1.0
 22
0.0
 32
0.0
 13
1.0
 23
0.0
 33
0.0
 40
0.0000249638557296
 40
0.0000249638557296
 40
0.0000249638557296
 40
0.0000249638557296
 40
0.0049776420541172
 40
0.0049776420541172
 40
0.0049776420541172
 40
0.0049776420541172
 10
99.98130926466467
 20
110.6033635182741
 30
0.0
 10
101.6312854991742
 20
110.5620842805059
 30
0.0
 10
103.2812868189192
 20
110.5218625992664
 30
0.0
 10
104.9313092646646
 20
110.4826133620114
 30
0.0
  0
SPLINE
  5
158
330
1F
100
AcDbEntity
  8
0
  6
HIDDEN
 62
     7
370
     0
100
AcDbSpline
210
0.0
220
0.0
230
1.0
 70
     8
 71
     3
 72
     8
 73
     4
 74
     0
 42
0.00000001
 43
0.00000001
 12
1.0
 22
0.0
 32
0.0
 13
1.0
 23
0.0
 33
0.0
 40
0.0000249631533153
 40
0.0000249631533153
 40
0.0000249631533153
 40
0.0000249631533153
 40
0.0049776413517029
 40
0.0049776413517029
 40
0.0049776413517029
 40
0.0049776413517029
 10
104.9313092646646
 20
118.6545354682098
 30
0.0
 10
103.2812868189192
 20
118.6152862309548
 30
0.0
 10
101.6312854991742
 20
118.5750645497153
 30
0.0
 10
99.98130926466466
 20
118.5337853119471
 30
0.0
  0
SPLINE
  5
159
330
1F
100
AcDbEntity
  8
0
  6
HIDDEN
 62
     7
370
     0
100
AcDbSpline
210
0.0
220
0.0
230
1.0
 70
     8
 71
     3
 72
     8
 73
     4
 74
     0
 42
0.00000001
 43
0.00000001
 12
1.0
 22
0.0
 32
0.0
 13
1.0
 23
0.0
 33
0.0
 40
0.0
 40
0.0
 40
0.0
 40
0.0
 40
1.0
 40
1.0
 40
1.0
 40
1.0
 10
98.48130926466247
 20
111.6665870821303
 30
0.0
 10
98.94806987604026
 20
111.2512238365073
 30
0.0
 10
99.45381742282034
 20
110.9066334072027
 30
0.0
 10
99.9813092646647
 20
110.6033635182741
 30
0.0
  0
SPLINE
  5
15A
330
1F
100
AcDbEntity
  8
0
  6
HIDDEN
 62
     7
370
     0
100
AcDbSpline
210
0.0
220
0.0
230
1.0
 70
     8
 71
     3
 72
     8
 73
     4
 74
     0
 42
0.00000001
 43
0.00000001
 12
1.0
 22
0.0
 32
0.0
 13
1.0
 23
0.0
 33
0.0
 40
0.0
 40
0.0
 40
0.0
 40
0.0
 40
1.0
 40
1.0
 40
1.0
 40
1.0
 10
99.9813092646647
 20
118.5337853119471
 30
0.0
 10
99.45381742282116
 20
118.230515423019
 30
0.0
 10
98.94806987604187
 20
117.8859249937151
 30
0.0
 10
98.4813092646647
 20
117.4705617480929
 30
0.0
  0
LINE
  5
15B
330
1F
100
AcDbEntity
  8
0
  6
HIDDEN
 62
     7
370
     0
100
AcDbLine
 10
98.4813092647
 20
111.6665870821
 30
0.0
 11
98.4813092647
 21
117.4705617481
 31
0.0
  0
LINE
  5
15C
330
1F
100
AcDbEntity
  8
0
  6
HIDDEN
 62
     7
370
     0
100
AcDbLine
 10
104.9313092647
 20
110.482613362
 30
0.0
 11
104.9313092647
 21
118.6545354682
 31
0.0
  0
SPLINE
  5
15D
330
1F
100
AcDbEntity
  8
0
  6
HIDDEN
 62
     7
370
     0
100
AcDbSpline
210
0.0
220
0.0
230
1.0
 70
     8
 71
     3
 72
    24
 73
    20
 74
     0
 42
0.00000001
 43
0.00000001
 12
1.0
 22
0.0
 32
0.0
 13
1.0
 23
0.0
 33
0.0
 40
0.0
 40
0.0
 40
0.0
 40
0.0
 40
0.1249999999999997
 40
0.1249999999999997
 40
0.2499999999999994
 40
0.2499999999999994
 40
0.3749999999999993
 40
0.3749999999999993
 40
0.4374999999999993
 40
0.4374999999999993
 40
0.4999999999999994
 40
0.4999999999999994
 40
0.6249999999999994
 40
0.6249999999999994
 40
0.7499999999999997
 40
0.7499999999999997
 40
0.8749999999999998
 40
0.8749999999999998
 40
1.0
 40
1.0
 40
1.0
 40
1.0
 10
104.9313092646646
 20
110.4826133620114
 30
0.0
 10
105.1691128969397
 20
110.7816204643415
 30
0.0
 10
105.399198558151
 20
111.0859583156602
 30
0.0
 10
105.8339519567608
 20
111.7116918530562
 30
0.0
 10
106.038884749047
 20
112.0329165803838
 30
0.0
 10
106.4039866995457
 20
112.7048423511165
 30
0.0
 10
106.5657870853372
 20
113.0601575829954
 30
0.0
 10
106.7376472899169
 20
113.6103888043478
 30
0.0
 10
106.783232481577
 20
113.7967925893283
 30
0.0
 10
106.8457072211519
 20
114.1769270914245
 30
0.0
 10
106.8623783669003
 20
114.3725968837104
 30
0.0
 10
106.8628994100768
 20
114.9510772623848
 30
0.0
 10
106.7984571091901
 20
115.3289891013536
 30
0.0
 10
106.5686080158168
 20
116.070957126452
 30
0.0
 10
106.4100873381537
 20
116.419672586613
 30
0.0
 10
106.0458530082535
 20
117.0927649843462
 30
0.0
 10
105.83911676819
 20
117.4177174715878
 30
0.0
 10
105.4011788224496
 20
118.0486412820496
 30
0.0
 10
105.16990609517
 20
118.3545310223902
 30
0.0
 10
104.9313092646647
 20
118.6545354682097
 30
0.0
  0
SPLINE
  5
15E
330
1F
100
AcDbEntity
  8
0
  6
HIDDEN
 62
     7
370
     0
100
AcDbSpline
210
0.0
220
0.0
230
1.0
 70
     8
 71
     3
 72
    72
 73
    68
 74
     0
 42
0.00000001
 43
0.00000001
 12
1.0
 22
0.0
 32
0.0
 13
1.0
 23
0.0
 33
0.0
 40
-0.0312499999999999
 40
-0.0312499999999999
 40
0.0
 40
0.0
 40
0.03125
 40
0.03125
 40
0.0625
 40
0.0625
 40
0.09375
 40
0.09375
 40
0.125
 40
0.125
 40
0.15625
 40
0.15625
 40
0.1875
 40
0.1875
 40
0.21875
 40
0.21875
 40
0.25
 40
0.25
 40
0.28125
 40
0.28125
 40
0.3125
 40
0.3125
 40
0.34375
 40
0.34375
 40
0.375
 40
0.375
 40
0.390625
 40
0.390625
 40
0.40625
 40
0.40625
 40
0.4375000000000001
 40
0.4375000000000001
 40
0.4687500000000001
 40
0.4687500000000001
 40
0.5000000000000001
 40
0.5000000000000001
 40
0.5312500000000001
 40
0.5312500000000001
 40
0.5625000000000001
 40
0.5625000000000001
 40
0.5937500000000001
 40
0.5937500000000001
 40
0.6250000000000001
 40
0.6250000000000001
 40
0.6562500000000001
 40
0.6562500000000001
 40
0.6875000000000001
 40
0.6875000000000001
 40
0.7187500000000001
 40
0.7187500000000001
 40
0.7500000000000001
 40
0.7500000000000001
 40
0.7812500000000001
 40
0.7812500000000001
 40
0.8125000000000001
 40
0.8125000000000001
 40
0.8437500000000001
 40
0.8437500000000001
 40
0.8750000000000001
 40
0.8750000000000001
 40
0.9062500000000001
 40
0.9062500000000001
 40
0.9375000000000001
 40
0.9375000000000001
 40
0.9687500000000001
 40
0.9687500000000001
 40
1.0
 40
1.0
 40
1.03125
 40
1.03125
 10
117.6052555834899
 20
117.0094080649255
 30
0.0
 10
117.9796858033637
 20
117.4197638654106
 30
0.0
 10
118.1845384046294
 20
117.6034129480691
 30
0.0
 10
118.6274066014764
 20
117.9303678515644
 30
0.0
 10
118.8673620187946
 20
118.0741460597442
 30
0.0
 10
119.3629730015692
 20
118.3116634151901
 30
0.0
 10
119.6202392927237
 20
118.4069829800878
 30
0.0
 10
120.1535930605607
 20
118.5510685127223
 30
0.0
 10
120.427873200459
 20
118.5988045196919
 30
0.0
 10
120.9743017350386
 20
118.6443866602257
 30
0.0
 10
121.2488780535063
 20
118.6429529001535
 30
0.0
 10
121.800845227777
 20
118.5900395920626
 30
0.0
 10
122.0714621903487
 20
118.5390698658585
 30
0.0
 10
122.5977473614279
 20
118.3904632389149
 30
0.0
 10
122.8553789248355
 20
118.2921778681578
 30
0.0
 10
123.351305089509
 20
118.047924508972
 30
0.0
 10
123.5842887673006
 20
117.9048443779498
 30
0.0
 10
124.0206220426256
 20
117.576985827481
 30
0.0
 10
124.2259032964839
 20
117.3899921897808
 30
0.0
 10
124.5939375943441
 20
116.9805615699578
 30
0.0
 10
124.7554525843293
 20
116.7604561289733
 30
0.0
 10
125.0326102674764
 20
116.2887060475353
 30
0.0
 10
125.1490044469101
 20
116.0336895210941
 30
0.0
 10
125.3222784835568
 20
115.5124516976971
 30
0.0
 10
125.3807250380225
 20
115.2449675799162
 30
0.0
 10
125.4245897634984
 20
114.8330519205837
 30
0.0
 10
125.4317699801278
 20
114.6933446175082
 30
0.0
 10
125.4308019528323
 20
114.4172215620458
 30
0.0
 10
125.4227991634187
 20
114.280044995715
 30
0.0
 10
125.3767264315063
 20
113.8711115544518
 30
0.0
 10
125.3157915990542
 20
113.5991853054475
 30
0.0
 10
125.1376714426457
 20
113.0760047889924
 30
0.0
 10
125.0221035313033
 20
112.8272927886291
 30
0.0
 10
124.7402567473641
 20
112.3544082636371
 30
0.0
 10
124.5733868019494
 20
112.130799046405
 30
0.0
 10
124.2040612471506
 20
111.7261416582174
 30
0.0
 10
123.9992760908531
 20
111.5417280700479
 30
0.0
 10
123.554623143337
 20
111.2127020351535
 30
0.0
 10
123.3197740138262
 20
111.0715339591653
 30
0.0
 10
122.8263642513491
 20
110.8331244303847
 30
0.0
 10
122.5650772976445
 20
110.7353418739799
 30
0.0
 10
122.0343390171318
 20
110.5900138457897
 30
0.0
 10
121.7646993162346
 20
110.5417244555948
 30
0.0
 10
121.2169479764894
 20
110.4933092318081
 30
0.0
 10
120.9370439346308
 20
110.4937674174441
 30
0.0
 10
120.3899660267958
 20
110.5439192730463
 30
0.0
 10
120.1203609221083
 20
110.5930928400783
 30
0.0
 10
119.5892061654523
 20
110.7407673633853
 30
0.0
 10
119.3279113490087
 20
110.8399225277509
 30
0.0
 10
118.8355973708334
 20
111.0809352982276
 30
0.0
 10
118.6016404952547
 20
111.2234234228523
 30
0.0
 10
118.1594718747242
 20
111.5549108518373
 30
0.0
 10
117.9542783436126
 20
111.7423444798256
 30
0.0
 10
117.5885841272546
 20
112.1492481988761
 30
0.0
 10
117.4258135048663
 20
112.370427273545
 30
0.0
 10
117.1448610741007
 20
112.8501746027603
 30
0.0
 10
117.0316572218272
 20
113.1001865695706
 30
0.0
 10
116.8590484976883
 20
113.620261779591
 30
0.0
 10
116.7994422150119
 20
113.8939932442208
 30
0.0
 10
116.741550444942
 20
114.4426108941193
 30
0.0
 10
116.742339983802
 20
114.7169507580108
 30
0.0
 10
116.8035304594184
 20
115.2656927091498
 30
0.0
 10
116.8646591831524
 20
115.5387580230069
 30
0.0
 10
117.0407388687823
 20
116.0589232717753
 30
0.0
 10
117.1570694637722
 20
116.3112424053342
 30
0.0
 10
117.4402706935129
 20
116.7876467467412
 30
0.0
 10
117.6052555834899
 20
117.0094080649255
 30
0.0
 10
117.9796858033637
 20
117.4197638654106
 30
0.0
  0
CIRCLE
  5
15F
330
1F
100
AcDbEntity
  8
0
  6
HIDDEN
 62
     7
370
     0
100
AcDbCircle
 10
120.9813092647
 20
114.5685744151
 30
0.0
 40
4.050000000000011
  0
SPLINE
  5
160
330
1F
100
AcDbEntity
  8
0
  6
HIDDEN
 62
     7
370
     0
100
AcDbSpline
210
0.0
220
0.0
230
1.0
 70
     8
 71
     3
 72
     9
 73
     5
 74
     0
 42
0.00000001
 43
0.00000001
 12
1.0
 22
0.0
 32
0.0
 13
1.0
 23
0.0
 33
0.0
 40
0.0
 40
0.0
 40
0.0
 40
0.0
 40
0.5034585646660037
 40
1.0
 40
1.0
 40
1.0
 40
1.0
 10
271.9357380104413
 20
126.7158679296526
 30
0.0
 10
271.9985463068665
 20
126.5393587548903
 30
0.0
 10
272.1232999625458
 20
126.1887655042232
 30
0.0
 10
272.2389951969495
 20
125.8350799044156
 30
0.0
 10
272.2964426747017
 20
125.6594603490302
 30
0.0
  0
LINE
  5
161
330
1F
100
AcDbEntity
  8
0
  6
HIDDEN
 62
     7
370
     0
100
AcDbLine
 10
271.9357375464
 20
126.715873234
 30
0.0
 11
253.5308211381
 21
125.1056516952
 31
0.0
  0
LINE
  5
162
330
1F
100
AcDbEntity
  8
0
  6
HIDDEN
 62
     7
370
     0
100
AcDbLine
 10
272.1885701263
 20
124.5342633239
 30
0.0
 11
272.2964465986
 21
125.6594618329
 31
0.0
  0
LINE
  5
163
330
1F
100
AcDbEntity
  8
0
  6
HIDDEN
 62
     7
370
     0
100
AcDbLine
 10
265.1233170013
 20
114.5685744151
 30
0.0
 11
272.1885701263
 21
124.5342633239
 31
0.0
  0
CIRCLE
  5
164
330
1F
100
AcDbEntity
  8
0
  6
HIDDEN
 62
     7
370
     0
100
AcDbCircle
 10
148.4813092647
 20
114.5685744151
 30
0.0
 40
2.0
  0
LINE
  5
165
330
1F
100
AcDbEntity
  8
0
  6
HIDDEN
 62
     7
370
     0
100
AcDbLine
 10
136.4813092647
 20
90.3185744151
 30
0.0
 11
136.5742024835
 21
90.4114676339
 31
0.0
  0
LINE
  5
166
330
1F
100
AcDbEntity
  8
0
  6
HIDDEN
 62
     7
370
     0
100
AcDbLine
 10
136.5742024835
 20
138.7256811963
 30
0.0
 11
136.4813092647
 21
138.8185744151
 31
0.0
  0
ARC
  5
167
330
1F
100
AcDbEntity
  8
0
  6
HIDDEN
 62
     7
370
     0
100
AcDbCircle
 10
135.8670957023
 20
91.1185744151
 30
0.0
 40
1.000000000000018
100
AcDbArc
 50
315.0
 51
0.0
  0
ARC
  5
168
330
1F
100
AcDbEntity
  8
0
  6
HIDDEN
 62
     7
370
     0
100
AcDbCircle
 10
135.8670957023
 20
91.1185744151
 30
0.0
 40
1.000000000000028
100
AcDbArc
 50
0.0
 51
52.1052014664
  0
ARC
  5
169
330
1F
100
AcDbEntity
  8
0
  6
HIDDEN
 62
     7
370
     0
100
AcDbCircle
 10
135.8670957023
 20
138.0185744151
 30
0.0
 40
1.000000000000028
100
AcDbArc
 50
351.8087250651
 51
45.0
  0
ARC
  5
16A
330
1F
100
AcDbEntity
  8
0
  6
HIDDEN
 62
     7
370
     0
100
AcDbCircle
 10
135.8670957023
 20
138.0185744151
 30
0.0
 40
1.000000000000016
100
AcDbArc
 50
307.8947985336
 51
351.8087250651
  0
LINE
  5
16B
330
1F
100
AcDbEntity
  8
0
  6
HIDDEN
 62
     7
370
     0
100
AcDbLine
 10
136.8670957023
 20
91.1185744151
 30
0.0
 11
136.8670957023
 21
138.0185744151
 31
0.0
  0
LINE
  5
16C
330
1F
100
AcDbEntity
  8
0
  6
HIDDEN
 62
     7
370
     0
100
AcDbLine
 10
136.8670957023
 20
91.1185744151
 30
0.0
 11
136.8670957023
 21
138.0185744151
 31
0.0
  0
LINE
  5
16D
330
1F
100
AcDbEntity
  8
0
  6
HIDDEN
 62
     7
370
     0
100
AcDbLine
 10
98.4813092647
 20
98.3721455706
 30
0.0
 11
100.0115377043
 21
99.2556233722
 31
0.0
  0
LINE
  5
16E
330
1F
100
AcDbEntity
  8
0
  6
HIDDEN
 62
     7
370
     0
100
AcDbLine
 10
100.0115377043
 20
129.881525458
 30
0.0
 11
98.4813092647
 21
130.7650032596
 31
0.0
  0
ARC
  5
16F
330
1F
100
AcDbEntity
  8
0
  6
HIDDEN
 62
     7
370
     0
100
AcDbCircle
 10
109.4831105796
 20
100.5685744151
 30
0.0
 40
2.000000000000036
100
AcDbArc
 50
270.0
 51
315.0
  0
ARC
  5
170
330
1F
100
AcDbEntity
  8
0
  6
HIDDEN
 62
     7
370
     0
100
AcDbCircle
 10
109.4831105796
 20
128.5685744151
 30
0.0
 40
2.000000000000016
100
AcDbArc
 50
45.0
 51
90.0
  0
LINE
  5
171
330
1F
100
AcDbEntity
  8
0
  6
HIDDEN
 62
     7
370
     0
100
AcDbLine
 10
108.4813092647
 20
98.5685744151
 30
0.0
 11
109.4831105796
 21
98.5685744151
 31
0.0
  0
LINE
  5
172
330
1F
100
AcDbEntity
  8
0
  6
HIDDEN
 62
     7
370
     0
100
AcDbLine
 10
109.4831105796
 20
130.5685744151
 30
0.0
 11
108.4813092647
 21
130.5685744151
 31
0.0
  0
ARC
  5
173
330
1F
100
AcDbEntity
  8
0
  6
HIDDEN
 62
     7
370
     0
100
AcDbCircle
 10
108.4813092647
 20
100.5685744151
 30
0.0
 40
2.000000000000014
100
AcDbArc
 50
189.9742217944
 51
270.0
  0
ARC
  5
174
330
1F
100
AcDbEntity
  8
0
  6
HIDDEN
 62
     7
370
     0
100
AcDbCircle
 10
108.4813092647
 20
128.5685744151
 30
0.0
 40
2.0
100
AcDbArc
 50
90.0
 51
170.0257782056
  0
LINE
  5
175
330
1F
100
AcDbEntity
  8
0
  6
HIDDEN
 62
     7
370
     0
100
AcDbLine
 10
110.8973241419
 20
99.1543608527
 30
0.0
 11
112.3115377043
 21
100.5685744151
 31
0.0
  0
LINE
  5
176
330
1F
100
AcDbEntity
  8
0
  6
HIDDEN
 62
     7
370
     0
100
AcDbLine
 10
112.3115377043
 20
128.5685744151
 30
0.0
 11
110.8973241419
 21
129.9827879775
 31
0.0
  0
LINE
  5
177
330
1F
100
AcDbEntity
  8
0
  6
HIDDEN
 62
     7
370
     0
100
AcDbLine
 10
100.0115377043
 20
99.2556233722
 30
0.0
 11
104.9115377043
 21
100.5685744151
 31
0.0
  0
LINE
  5
178
330
1F
100
AcDbEntity
  8
0
  6
HIDDEN
 62
     7
370
     0
100
AcDbLine
 10
104.9115377043
 20
128.5685744151
 30
0.0
 11
100.0115377043
 21
129.881525458
 31
0.0
  0
LINE
  5
179
330
1F
100
AcDbEntity
  8
0
  6
HIDDEN
 62
     7
370
     0
100
AcDbLine
 10
230.9813092647
 20
123.9731384518
 30
0.0
 11
230.9813092647
 21
117.0664690981
 31
0.0
  0
LINE
  5
17A
330
1F
100
AcDbEntity
  8
0
  6
HIDDEN
 62
     7
370
     0
100
AcDbLine
 10
235.9813092647
 20
123.8577577654
 30
0.0
 11
235.9813092647
 21
123.9731384518
 31
0.0
  0
LINE
  5
17B
330
1F
100
AcDbEntity
  8
0
  6
HIDDEN
 62
     7
370
     0
100
AcDbLine
 10
235.9813092647
 20
117.0658673297
 30
0.0
 11
235.9813092647
 21
121.2523572514
 31
0.0
  0
LINE
  5
17C
330
1F
100
AcDbEntity
  8
0
  6
HIDDEN
 62
     7
370
     0
100
AcDbLine
 10
106.5115377043
 20
128.9149845766
 30
0.0
 11
105.9115377043
 21
128.5685744151
 31
0.0
  0
LINE
  5
17D
330
1F
100
AcDbEntity
  8
0
  6
HIDDEN
 62
     7
370
     0
100
AcDbLine
 10
105.9115377043
 20
100.5685744151
 30
0.0
 11
106.5115377043
 21
100.2221642536
 31
0.0
  0
ARC
  5
17E
330
1F
100
AcDbEntity
  8
0
  6
HIDDEN
 62
     7
370
     0
100
AcDbCircle
 10
124.9813092647
 20
101.0685744151
 30
0.0
 40
0.5000000000000142
100
AcDbArc
 50
270.0
 51
360.0
  0
ARC
  5
17F
330
1F
100
AcDbEntity
  8
0
  6
HIDDEN
 62
     7
370
     0
100
AcDbCircle
 10
124.9813092647
 20
128.0685744151
 30
0.0
 40
0.5000000000000284
100
AcDbArc
 50
0.0
 51
90.0
  0
LINE
  5
180
330
1F
100
AcDbEntity
  8
0
  6
HIDDEN
 62
     7
370
     0
100
AcDbLine
 10
104.9115377043
 20
100.5685744151
 30
0.0
 11
105.9115377043
 21
100.5685744151
 31
0.0
  0
LINE
  5
181
330
1F
100
AcDbEntity
  8
0
  6
HIDDEN
 62
     7
370
     0
100
AcDbLine
 10
105.9115377043
 20
128.5685744151
 30
0.0
 11
104.9115377043
 21
128.5685744151
 31
0.0
  0
LINE
  5
182
330
1F
100
AcDbEntity
  8
0
  6
HIDDEN
 62
     7
370
     0
100
AcDbLine
 10
112.3115377043
 20
100.5685744151
 30
0.0
 11
124.9813092647
 21
100.5685744151
 31
0.0
  0
LINE
  5
183
330
1F
100
AcDbEntity
  8
0
  6
HIDDEN
 62
     7
370
     0
100
AcDbLine
 10
124.9813092647
 20
128.5685744151
 30
0.0
 11
112.3115377043
 21
128.5685744151
 31
0.0
  0
LINE
  5
184
330
1F
100
AcDbEntity
  8
0
  6
HIDDEN
 62
     7
370
     0
100
AcDbLine
 10
241.2895415757
 20
128.7914097129
 30
0.0
 11
233.6496239106
 21
125.3229596741
 31
0.0
  0
LINE
  5
185
330
1F
100
AcDbEntity
  8
0
  6
HIDDEN
 62
     7
370
     0
100
AcDbLine
 10
235.6658201544
 20
120.7471476187
 30
0.0
 11
241.2629599774
 21
123.2881959241
 31
0.0
  0
LINE
  5
186
330
1F
100
AcDbEntity
  8
0
  6
HIDDEN
 62
     7
370
     0
100
AcDbLine
 10
125.4813092647
 20
104.3185744151
 30
0.0
 11
126.7313092647
 21
105.5685744151
 31
0.0
  0
LINE
  5
187
330
1F
100
AcDbEntity
  8
0
  6
HIDDEN
 62
     7
370
     0
100
AcDbLine
 10
126.7313092647
 20
123.5685744151
 30
0.0
 11
125.4813092647
 21
124.8185744151
 31
0.0
  0
LINE
  5
188
330
1F
100
AcDbEntity
  8
0
  6
HIDDEN
 62
     7
370
     0
100
AcDbLine
 10
126.7313092647
 20
105.5685744151
 30
0.0
 11
152.4813092647
 21
105.5685744151
 31
0.0
  0
LINE
  5
189
330
1F
100
AcDbEntity
  8
0
  6
HIDDEN
 62
     7
370
     0
100
AcDbLine
 10
152.4813092647
 20
123.5685744151
 30
0.0
 11
126.7313092647
 21
123.5685744151
 31
0.0
  0
LINE
  5
18A
330
1F
100
AcDbEntity
  8
0
  6
HIDDEN
 62
     7
370
     0
100
AcDbLine
 10
152.4813092647
 20
105.5685744151
 30
0.0
 11
155.335397205
 21
110.3185744151
 31
0.0
  0
LINE
  5
18B
330
1F
100
AcDbEntity
  8
0
  6
HIDDEN
 62
     7
370
     0
100
AcDbLine
 10
155.335397205
 20
118.8185744151
 30
0.0
 11
152.4813092647
 21
123.5685744151
 31
0.0
  0
LINE
  5
18C
330
1F
100
AcDbEntity
  8
0
  6
HIDDEN
 62
     7
370
     0
100
AcDbLine
 10
236.4813092647
 20
118.8185744151
 30
0.0
 11
155.335397205
 21
118.8185744151
 31
0.0
  0
LINE
  5
18D
330
1F
100
AcDbEntity
  8
0
  6
HIDDEN
 62
     7
370
     0
100
AcDbLine
 10
155.335397205
 20
110.3185744151
 30
0.0
 11
236.4813092647
 21
110.3185744151
 31
0.0
  0
LINE
  5
18E
330
1F
100
AcDbEntity
  8
0
  6
HIDDEN
 62
     7
370
     0
100
AcDbLine
 10
236.4813092647
 20
110.3185744151
 30
0.0
 11
239.0349668955
 21
114.5685744151
 31
0.0
  0
LINE
  5
18F
330
1F
100
AcDbEntity
  8
0
  6
HIDDEN
 62
     7
370
     0
100
AcDbLine
 10
239.0349668955
 20
114.5685744151
 30
0.0
 11
236.4813092647
 21
118.8185744151
 31
0.0
  0
LINE
  5
190
330
1F
100
AcDbEntity
  8
0
  6
HIDDEN
 62
     7
370
     0
100
AcDbLine
 10
261.7156082906
 20
128.9127995099
 30
0.0
 11
261.7156082906
 21
128.577968436
 31
0.0
  0
LINE
  5
191
330
1F
100
AcDbEntity
  8
0
  6
HIDDEN
 62
     7
370
     0
100
AcDbLine
 10
265.9156082906
 20
128.577968436
 30
0.0
 11
265.9156082906
 21
128.6016856371
 31
0.0
  0
LINE
  5
192
330
1F
100
AcDbEntity
  8
0
  6
HIDDEN
 62
     7
370
     0
100
AcDbLine
 10
230.9813092647
 20
112.0712815005
 30
0.0
 11
230.9813092647
 21
106.9273661353
 31
0.0
  0
LINE
  5
193
330
1F
100
AcDbEntity
  8
0
  6
HIDDEN
 62
     7
370
     0
100
AcDbLine
 10
235.9813092647
 20
106.9273661353
 30
0.0
 11
235.9813092647
 21
112.0706797321
 31
0.0
  0
LINE
  5
194
330
1F
100
AcDbEntity
  8
0
  6
HIDDEN
 62
     7
370
     0
100
AcDbLine
 10
267.4359352023
 20
134.2452972935
 30
0.0
 11
267.4359352023
 21
133.539287907
 31
0.0
  0
LINE
  5
195
330
1F
100
AcDbEntity
  8
0
  6
HIDDEN
 62
     7
370
     0
100
AcDbLine
 10
271.6359352023
 20
133.5110288442
 30
0.0
 11
271.6359352023
 21
134.2452972935
 31
0.0
  0
LINE
  5
196
330
1F
100
AcDbEntity
  8
0
  6
HIDDEN
 62
     7
370
     0
100
AcDbLine
 10
230.4813092647
 20
106.75077763
 30
0.0
 11
230.4813092647
 21
102.8136299709
 31
0.0
  0
LINE
  5
197
330
1F
100
AcDbEntity
  8
0
  6
HIDDEN
 62
     7
370
     0
100
AcDbLine
 10
236.4813092647
 20
102.8128693693
 30
0.0
 11
236.4813092647
 21
106.75077763
 31
0.0
  0
LINE
  5
198
330
1F
100
AcDbEntity
  8
VERMASSUNG
  6
CENTERX2
100
AcDbLine
 10
95.2958596581
 20
114.5685744151
 30
0.0
 11
276.4813092647
 21
114.5685744151
 31
0.0
  0
LINE
  5
199
330
1F
100
AcDbEntity
  8
VERMASSUNG
  6
CENTERX2
100
AcDbLine
 10
276.4813092647
 20
141.5685744151
 30
0.0
 11
276.4813092647
 21
114.5685744151
 31
0.0
  0
LINE
  5
19A
330
1F
100
AcDbEntity
  8
VERMASSUNG
  6
CENTERX2
100
AcDbLine
 10
276.4813092647
 20
141.5685744151
 30
0.0
 11
285.7692622302
 21
141.5685744151
 31
0.0
  0
DIMENSION
  5
19B
330
1F
100
AcDbEntity
  8
VERMASSUNG
100
AcDbDimension
  2
_D
 10
276.4813092647
 20
156.0685744151
 30
0.0
 11
206.4813092647
 21
156.0685744151
 31
0.0
 70
   160
  1
<>
 71
     2
 42
-1.0
  3
SLDDIMSTYLE0
100
AcDbAlignedDimension
 13
136.4813092647
 23
145.5685744151
 33
0.0
 14
276.4813092647
 24
141.5685744151
 34
0.0
100
AcDbRotatedDimension
  0
DIMENSION
  5
1A6
330
1F
100
AcDbEntity
  8
VERMASSUNG
100
AcDbDimension
  2
_D_1
 10
98.4813092647
 20
164.9849821202
 30
0.0
 11
187.4813092647
 21
164.9849821202
 31
0.0
 70
   160
  1
<>
 71
     2
 42
-1.0
  3
SLDDIMSTYLE0
100
AcDbAlignedDimension
 13
276.4813092647
 23
141.5685744151
 33
0.0
 14
98.4813092647
 24
134.8609124076
 34
0.0
100
AcDbRotatedDimension
  0
DIMENSION
  5
1B0
330
1F
100
AcDbEntity
  8
VERMASSUNG
100
AcDbDimension
  2
_D_2
 10
291.5350490596
 20
114.5685744151
 30
0.0
 11
291.5350490596
 21
128.0685744151
 31
0.0
 70
   160
  1
<>
 71
     2
 42
-1.0
  3
SLDDIMSTYLE0
100
AcDbAlignedDimension
 13
276.4813092647
 23
141.5685744151
 33
0.0
 14
276.4813092647
 24
114.5685744151
 34
0.0
 50
90.0
100
AcDbRotatedDimension
  0
DIMENSION
  5
1BA
330
1F
100
AcDbEntity
  8
VERMASSUNG
100
AcDbDimension
  2
_D_3
 10
285.7692622302
 20
141.5685744151
 30
0.0
 11
283.7395886278
 21
133.6857332653
 31
0.0
 70
   162
  1
<>
 71
     1
 42
-1.0
  3
SLDDIMSTYLE1
100
AcDb2LineAngularDimension
 13
275.4266340432
 23
129.1264993731
 33
0.0
 14
276.4797871439
 24
141.1347714207
 34
0.0
 15
276.4813092647
 25
141.5685744151
 35
0.0
 16
283.7395886278
 26
133.6857332653
 36
0.0
  0
DIMENSION
  5
1C4
330
1F
100
AcDbEntity
  8
VERMASSUNG
100
AcDbDimension
  2
_D_4
 10
93.6868398964
 20
83.0685744151
 30
0.0
 11
93.6868398964
 21
114.5685744151
 31
0.0
 70
   160
  1
PSC%%c<>
 71
     2
 42
-1.0
  3
SLDDIMSTYLE0
100
AcDbAlignedDimension
 13
136.9813092647
 23
146.0685744151
 33
0.0
 14
136.9813092647
 24
83.0685744151
 34
0.0
 50
90.0
100
AcDbRotatedDimension
  0
DIMENSION
  5
1D0
330
1F
100
AcDbEntity
  8
VERMASSUNG
100
AcDbDimension
  2
_D_5
 10
192.7187381851
 20
94.5685744151
 30
0.0
 11
192.7187381851
 21
102.5465338246
 31
0.0
 70
   160
  1
%%c<>
 71
     2
 42
-1.0
  3
SLDDIMSTYLE0
100
AcDbAlignedDimension
 13
162.4813092647
 23
134.5685744151
 33
0.0
 14
162.4813092647
 24
94.5685744151
 34
0.0
 50
90.0
100
AcDbRotatedDimension
  0
LINE
  5
1D9
330
1F
100
AcDbEntity
  8
0
  6
Continuous
 62
     7
370
    15
100
AcDbLine
 10
47.3611752811
 20
140.9423004399
 30
0.0
 11
44.1392749868
 21
141.5685744151
 31
0.0
  0
LINE
  5
1DA
330
1F
100
AcDbEntity
  8
0
  6
Continuous
 62
     7
370
    15
100
AcDbLine
 10
43.17030538
 20
127.7116634546
 30
0.0
 11
43.4721441005
 21
127.7274821517
 31
0.0
  0
SPLINE
  5
1DB
330
1F
100
AcDbEntity
  8
0
  6
Continuous
 62
     7
370
    15
100
AcDbSpline
210
0.0
220
0.0
230
1.0
 70
    24
 71
     3
 72
     9
 73
     5
 74
     0
 42
0.00000001
 43
0.00000001
 12
1.0
 22
0.0
 32
0.0
 13
1.0
 23
0.0
 33
0.0
 40
0.0
 40
0.0
 40
0.0
 40
0.0
 40
0.5034585646660037
 40
1.0
 40
1.0
 40
1.0
 40
1.0
 10
64.63927498683633
 20
126.7158679296526
 30
0.0
 10
64.63927498683633
 20
126.5393587548903
 30
0.0
 10
64.63927498683633
 20
126.1887655042232
 30
0.0
 10
64.63927498683633
 20
125.8350799044156
 30
0.0
 10
64.63927498683633
 20
125.6594603490302
 30
0.0
  0
SPLINE
  5
1DC
330
1F
100
AcDbEntity
  8
0
  6
Continuous
 62
     7
370
    15
100
AcDbSpline
210
0.0
220
0.0
230
1.0
 70
     8
 71
     3
 72
    30
 73
    26
 74
     0
 42
0.00000001
 43
0.00000001
 12
1.0
 22
0.0
 32
0.0
 13
1.0
 23
0.0
 33
0.0
 40
0.0
 40
0.0
 40
0.0
 40
0.0
 40
0.0209077326888837
 40
0.0418009387059731
 40
0.0626863717632216
 40
0.0835707931135644
 40
0.1044609649922748
 40
0.1253636440535583
 40
0.1566985109454111
 40
0.1880590558597709
 40
0.2507468931949519
 40
0.3134240710546681
 40
0.3760819944920251
 40
0.4387122243995658
 40
0.5013067231304215
 40
0.5638578100662421
 40
0.6263583652801425
 40
0.6888018393979677
 40
0.7511823723262903
 40
0.8134948626250268
 40
0.8446141890397048
 40
0.8757408131065355
 40
0.9171835943973332
 40
0.9585847960924503
 40
0.9999999999999999
 40
0.9999999999999999
 40
0.9999999999999999
 40
0.9999999999999999
 10
64.6392704415213
 20
125.6594617824757
 30
0.0
 10
64.57774464614413
 20
125.7993143733311
 30
0.0
 10
64.45473580345097
 20
126.0789223856016
 30
0.0
 10
64.2607288023232
 20
126.4938315531758
 30
0.0
 10
64.05988004115079
 20
126.9051886612275
 30
0.0
 10
63.85150268311389
 20
127.3126879001296
 30
0.0
 10
63.63577860063449
 20
127.7164110695315
 30
0.0
 10
63.37562267587899
 20
128.1827379713582
 30
0.0
 10
63.06623982018991
 20
128.7089138455272
 30
0.0
 10
62.58103995773137
 20
129.4850037832757
 30
0.0
 10
61.93534976798454
 20
130.429691993992
 30
0.0
 10
61.10042063646924
 20
131.5187547947806
 30
0.0
 10
60.20788593638367
 20
132.5601731503891
 30
0.0
 10
59.26038643507775
 20
133.5506673730193
 30
0.0
 10
58.26091094778327
 20
134.4873270334862
 30
0.0
 10
57.21239898640655
 20
135.3671816368077
 30
0.0
 10
56.11814411197899
 20
136.1876621872655
 30
0.0
 10
54.98139546114599
 20
136.9461695528423
 30
0.0
 10
53.80569573717025
 20
137.6404525932333
 30
0.0
 10
52.79615252768097
 20
138.1638696561444
 30
0.0
 10
51.97265739802325
 20
138.5483919542735
 30
0.0
 10
51.27847104756268
 20
138.8495975794491
 30
0.0
 10
50.50478157290578
 20
139.1554661556251
 30
0.0
 10
49.64996591794819
 20
139.4599280249555
 30
0.0
 10
49.07129552588306
 20
139.6359620535394
 30
0.0
 10
48.78191141040212
 20
139.7239939493384
 30
0.0
  0
SPLINE
  5
1DD
330
1F
100
AcDbEntity
  8
0
  6
Continuous
 62
     7
370
    15
100
AcDbSpline
210
0.0
220
0.0
230
1.0
 70
     8
 71
     3
 72
    27
 73
    23
 74
     0
 42
0.00000001
 43
0.00000001
 12
1.0
 22
0.0
 32
0.0
 13
1.0
 23
0.0
 33
0.0
 40
0.0
 40
0.0
 40
0.0
 40
0.0
 40
0.0203220772717551
 40
0.0408022951256643
 40
0.0614407692972179
 40
0.0822376128774133
 40
0.1031929363908139
 40
0.1243068478708303
 40
0.1857127729705243
 40
0.2488821660791915
 40
0.3101726673120384
 40
0.373712265583412
 40
0.4987168117654259
 40
0.6238911953434739
 40
0.6865463194631274
 40
0.7492228695011592
 40
0.8119132483659325
 40
0.8746096903990287
 40
0.9095677596573292
 40
0.937309583668658
 40
0.9701625863887637
 40
0.9999999999999999
 40
0.9999999999999999
 40
0.9999999999999999
 40
0.9999999999999999
 10
48.81720769624683
 20
140.2287364231011
 30
0.0
 10
48.9565495239554
 20
140.1874754904617
 30
0.0
 10
49.23631749754816
 20
140.1046325444283
 30
0.0
 10
49.6546780058673
 20
139.9705827938177
 30
0.0
 10
50.07393941804124
 20
139.8286333482527
 30
0.0
 10
50.49371648923682
 20
139.6779913705286
 30
0.0
 10
50.91387890288126
 20
139.5187224719955
 30
0.0
 10
51.60052582412371
 20
139.2441936189567
 30
0.0
 10
52.55332548657012
 20
138.8237188483834
 30
0.0
 10
53.73834876148942
 20
138.2237219571726
 30
0.0
 10
54.90297605193102
 20
137.5544526396805
 30
0.0
 10
56.40117230848408
 20
136.5846629299855
 30
0.0
 10
58.18205189871994
 20
135.2190182142959
 30
0.0
 10
59.80492090834186
 20
133.6779140268598
 30
0.0
 10
61.00173326874176
 20
132.3472458485805
 30
0.0
 10
61.84667402390878
 20
131.3024498914377
 30
0.0
 10
62.63607840817245
 20
130.2143522610755
 30
0.0
 10
63.25982354054949
 20
129.2523058019992
 30
0.0
 10
63.7166316225892
 20
128.4808159113873
 30
0.0
 10
64.04899925410733
 20
127.8838129856102
 30
0.0
 10
64.35033508046752
 20
127.3114202487237
 30
0.0
 10
64.54610065889754
 20
126.9079194328448
 30
0.0
 10
64.63927500477504
 20
126.7158737990717
 30
0.0
  0
LINE
  5
1DE
330
1F
100
AcDbEntity
  8
0
  6
Continuous
 62
     7
370
    15
100
AcDbLine
 10
64.6392749868
 20
124.5342633239
 30
0.0
 11
43.2882238326
 21
125.0972997833
 31
0.0
  0
LINE
  5
1DF
330
1F
100
AcDbEntity
  8
0
  6
Continuous
 62
     7
370
    15
100
AcDbLine
 10
43.5457081592
 20
128.7794972045
 30
0.0
 11
43.2882238326
 21
125.0972997833
 31
0.0
  0
LINE
  5
1E0
330
1F
100
AcDbEntity
  8
0
  6
Continuous
 62
     7
370
    15
100
AcDbLine
 10
43.5457081592
 20
128.7794972045
 30
0.0
 11
45.6370859586
 21
128.8695721161
 31
0.0
  0
LINE
  5
1E1
330
1F
100
AcDbEntity
  8
0
  6
Continuous
 62
     7
370
    15
100
AcDbLine
 10
45.6370859586
 20
128.8695721161
 30
0.0
 11
48.0094843432
 21
128.6777525194
 31
0.0
  0
LINE
  5
1E2
330
1F
100
AcDbEntity
  8
0
  6
Continuous
 62
     7
370
    15
100
AcDbLine
 10
48.0319540427
 20
128.999084193
 30
0.0
 11
48.0094843432
 21
128.6777525194
 31
0.0
  0
LINE
  5
1E3
330
1F
100
AcDbEntity
  8
0
  6
Continuous
 62
     7
370
    15
100
AcDbLine
 10
64.6392749868
 20
124.5342633239
 30
0.0
 11
64.6392749868
 21
125.6594618329
 31
0.0
  0
LINE
  5
1E4
330
1F
100
AcDbEntity
  8
0
  6
Continuous
 62
     7
370
    15
100
AcDbLine
 10
64.6392749868
 20
114.5685744151
 30
0.0
 11
64.6392749868
 21
124.5342633239
 31
0.0
  0
ARC
  5
1E5
330
1F
100
AcDbEntity
  8
0
  6
Continuous
 62
     7
370
    15
100
AcDbCircle
 10
44.1392749868
 20
114.5685744151
 30
0.0
 40
20.50000000000004
100
AcDbArc
 50
261.5700482425
 51
0.0
  0
LINE
  5
1E6
330
1F
100
AcDbEntity
  8
0
  6
Continuous
 62
     7
370
    15
100
AcDbLine
 10
43.2882238326
 20
125.0972997833
 30
0.0
 11
41.1339717601
 21
94.2900598611
 31
0.0
  0
SPLINE
  5
1E7
330
1F
100
AcDbEntity
  8
0
  6
Continuous
 62
     7
370
    15
100
AcDbSpline
210
0.0
220
0.0
230
1.0
 70
     8
 71
     3
 72
    19
 73
    15
 74
     0
 42
0.00000001
 43
0.00000001
 12
1.0
 22
0.0
 32
0.0
 13
1.0
 23
0.0
 33
0.0
 40
0.0
 40
0.0
 40
0.0
 40
0.0
 40
0.0814331293636344
 40
0.1634122796480665
 40
0.2471455166194017
 40
0.331499366162477
 40
0.4129375105208702
 40
0.4949551157331245
 40
0.5787978808097174
 40
0.6632708288220949
 40
0.8248744341700881
 40
0.9077509688962644
 40
0.9912214417350254
 40
1.0
 40
1.0
 40
1.0
 40
1.0
 10
39.45365199163633
 20
134.0119521347059
 30
0.0
 10
39.60741805400653
 20
134.0478816449503
 30
0.0
 10
39.91598120245457
 20
134.1199815780067
 30
0.0
 10
40.37088721629269
 20
134.2119934616441
 30
0.0
 10
40.8176934461737
 20
134.2925613738888
 30
0.0
 10
41.24550496801049
 20
134.3595969518005
 30
0.0
 10
41.64926407545472
 20
134.4142515886562
 30
0.0
 10
42.02810432493231
 20
134.4579840172823
 30
0.0
 10
42.38397155398121
 20
134.4923885298179
 30
0.0
 10
42.81113440870894
 20
134.5262747789417
 30
0.0
 10
43.17668718702938
 20
134.546392892865
 30
0.0
 10
43.45722210421899
 20
134.5572296785586
 30
0.0
 10
43.60111062522301
 20
134.5616001066021
 30
0.0
 10
43.64516995107507
 20
134.5624239608627
 30
0.0
 10
43.64936270361112
 20
134.5625023600886
 30
0.0
  0
SPLINE
  5
1E8
330
1F
100
AcDbEntity
  8
0
  6
Continuous
 62
     7
370
    15
100
AcDbSpline
210
0.0
220
0.0
230
1.0
 70
     8
 71
     3
 72
    16
 73
    12
 74
     0
 42
0.00000001
 43
0.00000001
 12
1.0
 22
0.0
 32
0.0
 13
1.0
 23
0.0
 33
0.0
 40
0.0
 40
0.0
 40
0.0
 40
0.0
 40
0.2499999999999992
 40
0.2499999999999992
 40
0.4999999999999983
 40
0.4999999999999983
 40
0.7499999999999976
 40
0.7499999999999976
 40
0.8749999999999989
 40
0.8749999999999989
 40
1.0
 40
1.0
 40
1.0
 40
1.0
 10
41.16895713245331
 20
94.79037399535721
 30
0.0
 10
41.16895713245331
 20
94.79037399535721
 30
0.0
 10
41.06146232797938
 20
94.80562366925236
 30
0.0
 10
40.63309134222977
 20
94.8771085175058
 30
0.0
 10
40.32300528538617
 20
94.93174378366137
 30
0.0
 10
39.51923218973462
 20
95.10516679374642
 30
0.0
 10
39.04458260957827
 20
95.22025803357064
 30
0.0
 10
38.23903873638967
 20
95.4566534887966
 30
0.0
 10
37.95946628251295
 20
95.54487018797658
 30
0.0
 10
37.38741865862509
 20
95.74030327125085
 30
0.0
 10
37.09384588541882
 20
95.84782728697735
 30
0.0
 10
36.79325698215511
 20
95.9665309930857
 30
0.0
  0
ELLIPSE
  5
1E9
330
1F
100
AcDbEntity
  8
0
  6
Continuous
 62
     7
370
    15
100
AcDbEllipse
 10
35.1046444213
 20
126.0398028185
 30
0.0
 11
2.063138446659764
 21
2.208439657159332
 31
0.0
210
0.0
220
0.0
230
1.0
 40
0.8112573031
 41
0.0
 42
6.283185307179586
  0
ARC
  5
1EA
330
1F
100
AcDbEntity
  8
0
  6
Continuous
 62
     7
370
    15
100
AcDbCircle
 10
44.1392749868
 20
114.5685744151
 30
0.0
 40
20.00000000000002
100
AcDbArc
 50
103.5492528118
 51
248.4507471882
  0
SPLINE
  5
1EB
330
1F
100
AcDbEntity
  8
0
  6
Continuous
 62
     7
370
    15
100
AcDbSpline
210
0.0
220
0.0
230
1.0
 70
     8
 71
     3
 72
    13
 73
     9
 74
     0
 42
0.00000001
 43
0.00000001
 12
1.0
 22
0.0
 32
0.0
 13
1.0
 23
0.0
 33
0.0
 40
0.0
 40
0.0
 40
0.0
 40
0.0
 40
0.1339217682399103
 40
0.2687481035377148
 40
0.431403040141546
 40
0.6536140074297548
 40
0.877385116005792
 40
0.9999999999999999
 40
0.9999999999999999
 40
0.9999999999999999
 40
0.9999999999999999
 10
35.14529174216369
 20
124.0507613573885
 30
0.0
 10
35.1821849726412
 20
124.0433011537461
 30
0.0
 10
35.25622062684829
 20
124.0283303569351
 30
0.0
 10
35.37619140911305
 20
123.9833005429207
 30
0.0
 10
35.51565902657183
 20
123.9164086909686
 30
0.0
 10
35.66734798543884
 20
123.8185827749295
 30
0.0
 10
35.7963630579486
 20
123.7126023256982
 30
0.0
 10
35.86111951984694
 20
123.6364023244437
 30
0.0
 10
35.88404223102422
 20
123.6094287905406
 30
0.0
  0
ARC
  5
1EC
330
1F
100
AcDbEntity
  8
0
  6
Continuous
 62
     7
370
    15
100
AcDbCircle
 10
33.1223915012
 20
122.1475426349
 30
0.0
 40
2.777474912727337
100
AcDbArc
 50
43.2539695984
 51
67.351293856
  0
SPLINE
  5
1ED
330
1F
100
AcDbEntity
  8
0
  6
Continuous
 62
     7
370
    15
100
AcDbSpline
210
0.0
220
0.0
230
1.0
 70
     8
 71
     3
 72
    20
 73
    16
 74
     0
 42
0.00000001
 43
0.00000001
 12
1.0
 22
0.0
 32
0.0
 13
1.0
 23
0.0
 33
0.0
 40
0.0
 40
0.0
 40
0.0
 40
0.0
 40
0.0489309549662855
 40
0.115269541589553
 40
0.1821137797329374
 40
0.2639482188401967
 40
0.3464342741034714
 40
0.4306613557839815
 40
0.5153724551029927
 40
0.6111002629988875
 40
0.7073477797519055
 40
0.8050927891275202
 40
0.9033602442094225
 40
0.9515707752721245
 40
1.0
 40
1.0
 40
1.0
 40
1.0
 10
32.38914706807224
 20
125.4682075139104
 30
0.0
 10
32.42365456878436
 20
125.4817226324271
 30
0.0
 10
32.50494592701002
 20
125.5135609956272
 30
0.0
 10
32.63425785090438
 20
125.5411587471197
 30
0.0
 10
32.78596935821133
 20
125.5568014738918
 30
0.0
 10
32.94704888345331
 20
125.5512615960879
 30
0.0
 10
33.11641165894126
 20
125.522497161624
 30
0.0
 10
33.28287205613788
 20
125.4721175223986
 30
0.0
 10
33.4520425809011
 20
125.3988010022173
 30
0.0
 10
33.62130150421297
 20
125.3017387092217
 30
0.0
 10
33.78873590028543
 20
125.1798394387366
 30
0.0
 10
33.94591950185882
 20
125.0384966573342
 30
0.0
 10
34.06340730929759
 20
124.9067833066731
 30
0.0
 10
34.14531514334074
 20
124.7955262200593
 30
0.0
 10
34.17637595712721
 20
124.7391030165159
 30
0.0
 10
34.19194150899341
 20
124.710827572503
 30
0.0
  0
SPLINE
  5
1EE
330
1F
100
AcDbEntity
  8
0
  6
Continuous
 62
     7
370
    15
100
AcDbSpline
210
0.0
220
0.0
230
1.0
 70
     8
 71
     3
 72
     8
 73
     4
 74
     0
 42
0.00000001
 43
0.00000001
 12
1.0
 22
0.0
 32
0.0
 13
1.0
 23
0.0
 33
0.0
 40
0.0
 40
0.0
 40
0.0
 40
0.0
 40
1.0
 40
1.0
 40
1.0
 40
1.0
 10
34.1919415089934
 20
124.710827572503
 30
0.0
 10
34.50117599252156
 20
124.4769346688367
 30
0.0
 10
34.82135065876734
 20
124.2572942331108
 30
0.0
 10
35.14529174216434
 20
124.0507613573896
 30
0.0
  0
CIRCLE
  5
1EF
330
1F
100
AcDbEntity
  8
0
  6
Continuous
 62
     7
370
    15
100
AcDbCircle
 10
44.1392749868
 20
114.5685744151
 30
0.0
 40
31.50000000000006
  0
LINE
  5
1F0
330
1F
100
AcDbEntity
  8
0
  6
Continuous
 62
     7
370
    15
100
AcDbLine
 10
44.1089405264
 20
141.1347714207
 30
0.0
 11
44.1392749868
 21
141.5685744151
 31
0.0
  0
LINE
  5
1F1
330
1F
100
AcDbEntity
  8
0
  6
Continuous
 62
     7
370
    15
100
AcDbLine
 10
47.3611752811
 20
140.9423004399
 30
0.0
 11
44.1089405264
 21
141.1347714207
 31
0.0
  0
LINE
  5
1F2
330
1F
100
AcDbEntity
  8
0
  6
Continuous
 62
     7
370
    15
100
AcDbLine
 10
48.8456228819
 20
140.6350907052
 30
0.0
 11
47.3611752811
 21
140.9423004399
 31
0.0
  0
LINE
  5
1F3
330
1F
100
AcDbEntity
  8
0
  6
Continuous
 62
     7
370
    15
100
AcDbLine
 10
48.0319540427
 20
128.999084193
 30
0.0
 11
48.8456228819
 21
140.6350907052
 31
0.0
  0
LINE
  5
1F4
330
1F
100
AcDbEntity
  8
0
  6
Continuous
 62
     7
370
    15
100
AcDbLine
 10
48.0319540427
 20
128.999084193
 30
0.0
 11
46.5214750999
 21
128.9340283923
 31
0.0
  0
LINE
  5
1F5
330
1F
100
AcDbEntity
  8
0
  6
Continuous
 62
     7
370
    15
100
AcDbLine
 10
46.5214750999
 20
128.9340283923
 30
0.0
 11
43.2692403452
 21
129.1264993731
 31
0.0
  0
LINE
  5
1F6
330
1F
100
AcDbEntity
  8
0
  6
Continuous
 62
     7
370
    15
100
AcDbLine
 10
43.2692403452
 20
129.1264993731
 30
0.0
 11
44.1089405264
 21
141.1347714207
 31
0.0
  0
LINE
  5
1F7
330
1F
100
AcDbEntity
  8
0
  6
Continuous
 62
     7
370
    15
100
AcDbLine
 10
46.5214750999
 20
128.9340283923
 30
0.0
 11
43.5511853051
 21
128.7797331033
 31
0.0
  0
LINE
  5
1F8
330
1F
100
AcDbEntity
  8
0
  6
Continuous
 62
     7
370
    15
100
AcDbLine
 10
43.5457047471
 20
128.7794484091
 30
0.0
 11
43.2438758044
 21
128.7637695403
 31
0.0
  0
LINE
  5
1F9
330
1F
100
AcDbEntity
  8
0
  6
Continuous
 62
     7
370
    15
100
AcDbLine
 10
43.2438758044
 20
128.7637695403
 30
0.0
 11
43.2692403452
 21
129.1264993731
 31
0.0
  0
LINE
  5
1FA
330
1F
100
AcDbEntity
  8
0
  6
Continuous
 62
     7
370
    15
100
AcDbLine
 10
43.4722405005
 20
127.7288607364
 30
0.0
 11
43.1704115578
 21
127.7131818676
 31
0.0
  0
LINE
  5
1FB
330
1F
100
AcDbEntity
  8
0
  6
Continuous
 62
     7
370
    15
100
AcDbLine
 10
43.1704115578
 20
127.7131818676
 30
0.0
 11
43.2438758044
 21
128.7637695403
 31
0.0
  0
LINE
  5
1FC
330
1F
100
AcDbEntity
  8
0
  6
Continuous
 62
     7
370
    15
100
AcDbLine
 10
43.17030538
 20
127.7116634546
 30
0.0
 11
43.1704115578
 21
127.7131818676
 31
0.0
  0
CIRCLE
  5
1FD
330
1F
100
AcDbEntity
  8
VERMASSUNG
  6
CENTERX2
100
AcDbCircle
 10
44.1392749868
 20
116.5613710787
 30
0.0
 40
25.0
  0
DIMENSION
  5
1FE
330
1F
100
AcDbEntity
  8
VERMASSUNG
100
AcDbDimension
  2
_D_6
 10
26.4616054572
 20
134.2390406083
 30
0.0
 11
17.6250275871
 21
143.0756184784
 31
0.0
 70
   160
  1
%%c<> min. 
 71
     2
 42
-1.0
  3
SLDDIMSTYLE2
100
AcDbAlignedDimension
 13
61.8169445165
 23
98.883701549
 33
0.0
 14
26.4616054572
 24
134.2390406083
 34
0.0
 50
-45.0
100
AcDbRotatedDimension
  0
DIMENSION
  5
20D
330
1F
100
AcDbEntity
  8
VERMASSUNG
100
AcDbDimension
  2
_D_7
 10
44.1392749868
 20
148.5685744151
 30
0.0
 11
29.9581859028
 21
74.456493338
 31
0.0
 70
   162
  1
<>
 71
     1
 42
-1.0
  3
SLDDIMSTYLE3
100
AcDb2LineAngularDimension
 13
41.1339717601
 23
94.2900598611
 33
0.0
 14
43.2882238326
 24
125.0972997833
 34
0.0
 15
44.1392749868
 25
80.5685744151
 35
0.0
 16
41.8920140705
 26
72.9147655148
 36
0.0
  0
INSERT
  5
225
330
1F
100
AcDbEntity
  8
VERMASSUNG
100
AcDbBlockReference
  2
SW_CENTERMARKSYMBOL_0
 10
44.1392749868
 20
114.5685744151
 30
0.0
  0
OLE2FRAME
  5
226
330
1F
100
AcDbEntity
  8
0
100
AcDbOle2Frame
 70
     2
  3
Paintbrush-Bild
 10
13.8511154363
 20
38.264191557
 30
0.0
 11
51.6290888628
 21
31.9806341108
 31
0.0
 71
     2
 72
     0
 73
     1
 90
    12928
310
80552BED0767C5B32B40DDAF6807D121434000000000000000006FFBDDFB85D0
310
4940DDAF6807D121434000000000000000006FFBDDFB85D04940416F4BD60AFB
310
3F4000000000000000002BED0767C5B32B40416F4BD60AFB3F40000000000000
310
0000000000000100000000010000010000000100000000000100000000320000
310
D0CF11E0A1B11AE1000000000000000000000000000000003E000300FEFF0900
310
0600000000000000000000000100000001000000000000000010000002000000
310
01000000FEFFFFFF0000000000000000FFFFFFFFFFFFFFFFFFFFFFFFFFFFFFFF
310
FFFFFFFFFFFFFFFFFFFFFFFFFFFFFFFFFFFFFFFFFFFFFFFFFFFFFFFFFFFFFFFF
310
FFFFFFFFFFFFFFFFFFFFFFFFFFFFFFFFFFFFFFFFFFFFFFFFFFFFFFFFFFFFFFFF
310
FFFFFFFFFFFFFFFFFFFFFFFFFFFFFFFFFFFFFFFFFFFFFFFFFFFFFFFFFFFFFFFF
310
FFFFFFFFFFFFFFFFFFFFFFFFFFFFFFFFFFFFFFFFFFFFFFFFFFFFFFFFFFFFFFFF
310
FFFFFFFFFFFFFFFFFFFFFFFFFFFFFFFFFFFFFFFFFFFFFFFFFFFFFFFFFFFFFFFF
310
FFFFFFFFFFFFFFFFFFFFFFFFFFFFFFFFFFFFFFFFFFFFFFFFFFFFFFFFFFFFFFFF
310
FFFFFFFFFFFFFFFFFFFFFFFFFFFFFFFFFFFFFFFFFFFFFFFFFFFFFFFFFFFFFFFF
310
FFFFFFFFFFFFFFFFFFFFFFFFFFFFFFFFFFFFFFFFFFFFFFFFFFFFFFFFFFFFFFFF
310
FFFFFFFFFFFFFFFFFFFFFFFFFFFFFFFFFFFFFFFFFFFFFFFFFFFFFFFFFFFFFFFF
310
FFFFFFFFFFFFFFFFFFFFFFFFFFFFFFFFFFFFFFFFFFFFFFFFFFFFFFFFFFFFFFFF
310
FFFFFFFFFFFFFFFFFFFFFFFFFFFFFFFFFFFFFFFFFFFFFFFFFFFFFFFFFFFFFFFF
310
FFFFFFFFFFFFFFFFFFFFFFFFFFFFFFFFFFFFFFFFFFFFFFFFFFFFFFFFFFFFFFFF
310
FFFFFFFFFFFFFFFFFFFFFFFFFFFFFFFFFFFFFFFFFFFFFFFFFFFFFFFFFFFFFFFF
310
FDFFFFFFFEFFFFFFFEFFFFFFFEFFFFFF05000000060000000700000008000000
310
090000000A0000000B0000000C0000000D0000000E0000000F00000010000000
310
11000000120000001300000014000000150000001600000017000000FEFFFFFF
310
FFFFFFFFFFFFFFFFFFFFFFFFFFFFFFFFFFFFFFFFFFFFFFFFFFFFFFFFFFFFFFFF
310
FFFFFFFFFFFFFFFFFFFFFFFFFFFFFFFFFFFFFFFFFFFFFFFFFFFFFFFFFFFFFFFF
310
FFFFFFFFFFFFFFFFFFFFFFFFFFFFFFFFFFFFFFFFFFFFFFFFFFFFFFFFFFFFFFFF
310
FFFFFFFFFFFFFFFFFFFFFFFFFFFFFFFFFFFFFFFFFFFFFFFFFFFFFFFFFFFFFFFF
310
FFFFFFFFFFFFFFFFFFFFFFFFFFFFFFFFFFFFFFFFFFFFFFFFFFFFFFFFFFFFFFFF
310
FFFFFFFFFFFFFFFFFFFFFFFFFFFFFFFFFFFFFFFFFFFFFFFFFFFFFFFFFFFFFFFF
310
FFFFFFFFFFFFFFFFFFFFFFFFFFFFFFFFFFFFFFFFFFFFFFFFFFFFFFFFFFFFFFFF
310
FFFFFFFFFFFFFFFFFFFFFFFFFFFFFFFFFFFFFFFFFFFFFFFFFFFFFFFFFFFFFFFF
310
FFFFFFFFFFFFFFFFFFFFFFFFFFFFFFFFFFFFFFFFFFFFFFFFFFFFFFFFFFFFFFFF
310
FFFFFFFFFFFFFFFFFFFFFFFFFFFFFFFFFFFFFFFFFFFFFFFFFFFFFFFFFFFFFFFF
310
FFFFFFFFFFFFFFFFFFFFFFFFFFFFFFFFFFFFFFFFFFFFFFFFFFFFFFFFFFFFFFFF
310
FFFFFFFFFFFFFFFFFFFFFFFFFFFFFFFFFFFFFFFFFFFFFFFFFFFFFFFFFFFFFFFF
310
FFFFFFFFFFFFFFFFFFFFFFFFFFFFFFFFFFFFFFFFFFFFFFFFFFFFFFFFFFFFFFFF
310
52006F006F007400200045006E00740072007900000000000000000000000000
310
0000000000000000000000000000000000000000000000000000000000000000
310
16000500FFFFFFFFFFFFFFFF020000000A00030000000000C000000000000046
310
000000000000000000000000E0621F67F53FCD0103000000C000000000000000
310
01004F006C006500000000000000000000000000000000000000000000000000
310
0000000000000000000000000000000000000000000000000000000000000000
310
0A000200FFFFFFFFFFFFFFFFFFFFFFFF00000000000000000000000000000000
310
0000000000000000000000000000000000000000000000001400000000000000
310
010043006F006D0070004F0062006A0000000000000000000000000000000000
310
0000000000000000000000000000000000000000000000000000000000000000
310
120002010100000003000000FFFFFFFF00000000000000000000000000000000
310
0000000000000000000000000000000000000000010000004D00000000000000
310
01004F006C006500310030004E00610074006900760065000000000000000000
310
0000000000000000000000000000000000000000000000000000000000000000
310
1A000200FFFFFFFFFFFFFFFFFFFFFFFF00000000000000000000000000000000
310
0000000000000000000000000000000000000000040000002426000000000000
310
FEFFFFFF02000000FEFFFFFFFFFFFFFFFFFFFFFFFFFFFFFFFFFFFFFFFFFFFFFF
310
FFFFFFFFFFFFFFFFFFFFFFFFFFFFFFFFFFFFFFFFFFFFFFFFFFFFFFFFFFFFFFFF
310
FFFFFFFFFFFFFFFFFFFFFFFFFFFFFFFFFFFFFFFFFFFFFFFFFFFFFFFFFFFFFFFF
310
FFFFFFFFFFFFFFFFFFFFFFFFFFFFFFFFFFFFFFFFFFFFFFFFFFFFFFFFFFFFFFFF
310
FFFFFFFFFFFFFFFFFFFFFFFFFFFFFFFFFFFFFFFFFFFFFFFFFFFFFFFFFFFFFFFF
310
FFFFFFFFFFFFFFFFFFFFFFFFFFFFFFFFFFFFFFFFFFFFFFFFFFFFFFFFFFFFFFFF
310
FFFFFFFFFFFFFFFFFFFFFFFFFFFFFFFFFFFFFFFFFFFFFFFFFFFFFFFFFFFFFFFF
310
FFFFFFFFFFFFFFFFFFFFFFFFFFFFFFFFFFFFFFFFFFFFFFFFFFFFFFFFFFFFFFFF
310
FFFFFFFFFFFFFFFFFFFFFFFFFFFFFFFFFFFFFFFFFFFFFFFFFFFFFFFFFFFFFFFF
310
FFFFFFFFFFFFFFFFFFFFFFFFFFFFFFFFFFFFFFFFFFFFFFFFFFFFFFFFFFFFFFFF
310
FFFFFFFFFFFFFFFFFFFFFFFFFFFFFFFFFFFFFFFFFFFFFFFFFFFFFFFFFFFFFFFF
310
FFFFFFFFFFFFFFFFFFFFFFFFFFFFFFFFFFFFFFFFFFFFFFFFFFFFFFFFFFFFFFFF
310
FFFFFFFFFFFFFFFFFFFFFFFFFFFFFFFFFFFFFFFFFFFFFFFFFFFFFFFFFFFFFFFF
310
FFFFFFFFFFFFFFFFFFFFFFFFFFFFFFFFFFFFFFFFFFFFFFFFFFFFFFFFFFFFFFFF
310
FFFFFFFFFFFFFFFFFFFFFFFFFFFFFFFFFFFFFFFFFFFFFFFFFFFFFFFFFFFFFFFF
310
FFFFFFFFFFFFFFFFFFFFFFFFFFFFFFFFFFFFFFFFFFFFFFFFFFFFFFFFFFFFFFFF
310
0100000200000000000000000000000000000000000000000000000000000000
310
0000000000000000000000000000000000000000000000000000000000000000
310
0100FEFF030A0000FFFFFFFF0A00030000000000C00000000000004607000000
310
5042727573680007000000504272757368000700000050427275736800F439B2
310
7100000000000000000000000000000000000000000000000000000000000000
310
0000000000000000000000000000000000000000000000000000000000000000
310
0000000000000000000000000000000000000000000000000000000000000000
310
0000000000000000000000000000000000000000000000000000000000000000
310
0000000000000000000000000000000000000000000000000000000000000000
310
0000000000000000000000000000000000000000000000000000000000000000
310
0000000000000000000000000000000000000000000000000000000000000000
310
0000000000000000000000000000000000000000000000000000000000000000
310
0000000000000000000000000000000000000000000000000000000000000000
310
0000000000000000000000000000000000000000000000000000000000000000
310
0000000000000000000000000000000000000000000000000000000000000000
310
0000000000000000000000000000000000000000000000000000000000000000
310
20260000424D0E260000000000003E00000028000000B40200006E0000000100
310
01000000000000000000130B0000130B00000200000002000000000000FFFFFF
310
FFFFFFFFFFFFFFFFFFFFFFFFFFFFFFFFFFFFFFFFFFFFFFFFFFFFFFFFFFFFFFFF
310
FFFFFFFFFFFFFFFFFFFFFFFFFFFFFFFFFFFFFFFFFFFFFFFFFFFFFFFFFFFFFFFF
310
FFFFFFFFFFFFFFFFFFFFFFFFFFFFFFFFFFFFFFFFFFFFFFFFF000FFFFFFFFFFFF
310
FFFFFFFFFFFFFFFFFFFFFFFFFFFFFFFFFFFFFFFFFFFFFFFFFFFFFFFFFFFFFFFF
310
FFFFFFFFFFFFFFFFFFFFFFFFFFFFFFFFFFFFFFFFFFFFFFFFFFFFFFFFFFFFFFFF
310
FFFFFFFFFFFFFFFFFFFFFFFFFFFFFFFFF000FFFFFFFFFFFFFFFFFFFFFFFFFFFF
310
FFFFFFFFFFFFFFFFFFFFFFFFFFFFFFFFFFFFFFFFFFFFFFFFFFFFFFFFFFFFFFFF
310
FFFFFFFFFFFFFFFFFFFFFFFFFFFFFFFFFFFFFFFFFFFFFFFFFFFFFFFFFFFFFFFF
310
FFFFFFFFFFFFFFFFF000FFFFFFFFFFFFFFFFFFFFFFFFFFFFFFFFFFFFFFFFFFFF
310
FFFFFFFFFFFFFFFFFFFFFFFFFFFFFFFFFFFFFFFFFFFFFFFFFFFFFFFFFFFFFFFF
310
FFFFFFFFFFFFFFFFFFFFFFFFFFFFFFFFFFFFFFFFFFFFFFFFFFFFFFFFFFFFFFFF
310
F000FFFFFFFFFFFFFFFFFFFFFFFFFFFFFFFFFFFFFFFFFFFFFFFFFFFFFFFFFFFF
310
FFFFFFFFFFFFFFFFFFFFFFFFFFFFFFFFFFFFFFFFFFFFFFFFFFFFFFFFFFFFFFFF
310
FFFFFFFFFFFFFFFFFFFFFFFFFFFFFFFFFFFFFFFFFFFFFFFFF000FFFFFFFFFFFF
310
FFFFFFFFFFFFFFFFFFFFFFFFFFFFFFFFFFFFFFFFFFFFFFFFFFFFFFFFFFFFFFFF
310
FFFFFFFFFFFFFFFFFFFFFFFFFFFFFFFFFFFFFFFFFFFFFFFFFFFFFFFFFFFFFFFF
310
FFFFFFFFFFFFFFFFFFFFFFFFFFFFFFFFF000FFFFFFFFFFFFFFFFFFFFFFFFFFFF
310
FFFFFFFFFFFFFFFFFFFFFFFFFFFFFFFFFFFFFFFFFFFFFFFFFFFFFFFFFFFFFFFF
310
FFFFFFFFFFFFFFFFFFFFFFFFFFFFFFFFFFFFFFFFFFFFFFFFFFFFFFFFFFFFFFFF
310
FFFFFFFFFFFFFFFFF000FFFFFFFFFFFFFFFFFFFFFFFFFFFFFFFFFFFFFFFFFFFF
310
FFFFFFFFFFFFFFFFFFFFFFFFFFFFFFFFFFFFFFFFFFFFFFFFFFFFFFFFFFFFFFFF
310
FFFFFFFFFFFFFFFFFFFFFFFFFFFFFFFFFFFFFFFFFFFFFFFFFFFFFFFFFFFFFFFF
310
F000FFFFFFFFFFFFFFFFFFFFFFFFFFFFFFFFFFFFFFFFFFFFFFFFFFFFFFFFFFFF
310
FFFFFFFFFFFFFFFFFFFFFFFFFFFFFFFFFFFFFFFFFFFFFFFFFFFFFFFFFFFFFFFF
310
FFFFFFFFFFFFFFFFFFFFFFFFFFFFFFFFFFFFFFFFFFFFFFFFF000FFFFFFFFFFFF
310
FFFFFFFFFFFFFFFFFFFFFFFFFFFFFFFFFFFFFFFFFFFFFFFFFFFFFFFFFFFFFFFF
310
FFFFFFFFFFFFFFFFFFFFFFFFFFFFFFFFFFFFFFFFFFFFFFFFFFFFFFFFFFFFFFFF
310
FFFFFFFFFFFFFFFFFFFFFFFFFFFFFFFFF000FFFFFFFFFFFFFFFFFFFFFFFFFFFF
310
FFFFFFFFFFFFFFFFFFFFFFFFFFFFFFFFFFFFFFFFFFFFFFFFFFFFFFFFFFFFFFFF
310
FFFFFFFFFFFFFFFFFFFFFFFFFFFFFFFFFFFFFFFFFFFFFFFFFFFFFFFFFFFFFFFF
310
FFFFFFFFFFFFFFFFF000FFFFFFFFFFFFFFFFFFFFFFFFFFFFFFFFFFFFFFFFFFFF
310
FFFFFFFFFFFFFFFFFFFFFFFFFFFFFFFFFFFFFFFFFFFFFFFFFFFFFFFFFFFFFFFF
310
FFFFFFFFFFFFFFFFFFFFFFFFFFFFFFFFFFFFFFFFFFFFFFFFFFFFFFFFFFFFFFFF
310
F000FFFFFFFFFFFFFFFFFFFFFFFFFFFFFFFFFFFFFFFFFFFFFFFFFFFFFFFFFFFF
310
FFFFFFFFFFFFFFFFFFFFFFFFFFFFFFFFFFFFFFFFFFFFFFFFFFFFFFFFFFFFFFFF
310
FFFFFFFFFFFFFFFFFFFFFFFFFFFFFFFFFFFFFFFFFFFFFFFFF000FFFFFFFFFFFF
310
FFFFFFFFFFFFFFFFFFFFFFFFFFFFFFFFFFFFFFFFFFFFFFFFFFFFFFFFFFFFFFFF
310
FFFFFFFFFFFFFFFFFFFFFFFFFFFFFFFFFFFFFFFFFFFFFFFFFFFFFFFFFFFFFFFF
310
FFFFFFFFFFFFFFFFFFFFFFFFFFFFFFFFF000FFFFFFFFFFFFFFFFFFFFFFFFFFFF
310
FFFFFFFFFFFFFFFFFFFFFFFFFFFFFFFFFFFFFFFFFFFFFFFFFFFFFFFFFFFFFFFF
310
FFFFFFFFFFFFFFFFFFFFFFFFFFFFFFFFFFFFFFFFFFFFFFFFFFFFFFFFFFFFFFFF
310
FFFFFFFFFFFFFFFFF000FFFFFFFFFFFFFFFFFFFFFFFFFFFFFFFFFFFFFFFFFFFF
310
FFFFFFFFFFFFFFFFFFFFFFFFFFFFFFFFFFFFFFFFFFFFFFFFFFFFFFFFFFFFFFFF
310
FFFFFFFFFFFFFFFFFFFFFFFFFFFFFFFFFFFFFFFFFFFFFFFFFFFFFFFFFFFFFFFF
310
F000FFFFFFFFFFFFFFFFFFFFFFFFFFFFFFFFFFFFFFFFFFFFFFFFFFFFFFFFFFFF
310
FFFFFFFFFFFFFFFFFFFFFFFFFFFFFFFFFFFFFFFFFFFFFFFFFFFFFFFFFFFFFFFF
310
FFFFFFFFFFFFFFFFFFFFFFFFFFFFFFFFFFFFFFFFFFFFFFFFF000FFFFFFFFFFFF
310
FFFFFFFFFFFFFFFFFFFFFFFFFFFFFFFFFFFFFFFFFFFFFFFFFFFFFFFFFFFFFFFF
310
FFFFFFFFFFFFFFFFFFFFFFFFFFFFFFFFFFFFFFFFFFFFFFFFFFFFFFFFFFFFFFFF
310
FFFFFFFFFFFFFFFFFFFFFFFFFFFFFFFFF000FFFFFFFFFFFFFFFFFFFFFFFFFFFF
310
FFFFFFFFFFFFFFFFFFFFFFFFFFFFFFFFFFFFFFFFFFFFFFFFFFFFFFFFFFFFFFFF
310
FFFFFFFFFFFFFFFFFFFFFFFFFFFFFFFFFFFFFFFFFFFFFFFFFFFFFFFFFFFFFFFF
310
FFFFFFFFFFFFFFFFF000FFFFF80003FFFFFFFFFFFFFFFFFFFFFFFFFFFFFFFFFF
310
FFFFF00007FFFFFFFFFF00007FFFFFF800000000000000007FFFFFFFFFFFFFFF
310
FFFFFFFC001FFFFFFFFFFFFFFC001FFFFFFFFFFFFFFFFFFFFFFFFFFE0007FFFF
310
F000FFFF8000007FFFFFFFF8000FFFFFC0007FFFFF80007FFFFF0000007FFFFF
310
FFF8000007FFFFF800000000000000007FFFFFF0001FFFFFFFFFFFC00001FFFF
310
FFFFFFFFC00001FFFFFFFF000000000003FFFFE000007FFFF000FFFE0000000F
310
FFFFFFF0000FFFFF80007FFFFF80007FFFFC0000001FFFFFFFC0000001FFFFF8
310
00000000000000007FFFFFF0001FFFFFFFFFFE0000003FFFFFFFFFFE0000003F
310
FFFFFF000000000003FFFF0000000FFFF000FFF800000003FFFFFFF00007FFFF
310
80007FFFFF80007FFFF000000007FFFFFF000000003FFFF80000000000000000
310
7FFFFFF0001FFFFFFFFFF80000000FFFFFFFFFF80000000FFFFFFF0000000000
310
03FFFC00000003FFF000FFE000000000FFFFFFF00007FFFF80003FFFFF80007F
310
FFC000000001FFFFFC000000001FFFF800000000000000007FFFFFF0001FFFFF
310
FFFFE000000003FFFFFFFFE000000003FFFFFF000000000003FFF000000000FF
310
F000FF80000000007FFFFFF00007FFFF80003FFFFF80007FFF8000000000FFFF
310
F80000000007FFF800000000000000007FFFFFF0001FFFFFFFFFC000000001FF
310
FFFFFFC000000001FFFFFF000000000003FFC0000000007FF000FF0000000000
310
3FFFFFE00007FFFF00003FFFFF80007FFE00000000003FFFF00000000003FFF8
310
00000000000000007FFFFFF0001FFFFFFFFF8000000000FFFFFFFF8000000000
310
FFFFFF000000000003FF80000000003FF000FE00000000001FFFFFE00003FFFF
310
00003FFFFF80007FFC00000000001FFFE00000000001FFF8000001FFFE000000
310
7FFFFFF0001FFFFFFFFE00000000003FFFFFFE00000000003FFFFF0000000000
310
03FF00000000001FF000FC00000000000FFFFFE00003FFFF00001FFFFF80007F
310
F800000000001FFFC00000000000FFF8000001FFFE0000007FFFFFF0001FFFFF
310
FFFC00000000001FFFFFFC00000000001FFFFF000000000003FE00000000000F
310
F000F8000000000007FFFFE00003FFFF00001FFFFF80007FF800000000000FFF
310
800000000000FFF8000001FFFE0000007FFFFFF0001FFFFFFFF800000000000F
310
FFFFF800000000000FFFFF000000000003FC000000000007F000F80000000000
310
03FFFFC00003FFFE00001FFFFF80007FF0000000000007FF0000000000007FF8
310
000001FFFE0000007FFFFFF0001FFFFFFFF0000000000007FFFFF00000000000
310
07FFFF000000000003F8000000000003F000F0000000000003FFFFC00001FFFE
310
00001FFFFF80007FE0000000000007FE0000000000003FF8000001FFFE000000
310
7FFFFFF0001FFFFFFFF0000000000007FFFFF0000000000007FFFF0000000000
310
03F800001F800003F000E00001FFF00001FFFFC00001FFFE00000FFFFF80007F
310
E00001FFE00003FE00001FFF00003FF8000001FFFE0000007FFFFFF0001FFFFF
310
FFE000003E000003FFFFE000003E000003FFFF000000000003F00001FFF80001
310
F000E00007FFFC0001FFFFC00001FFFE00000FFFFF80007FC0000FFFFC0003FC
310
0000FFFFC0001FF8000001FFFE0000007FFFFFF0001FFFFFFFC00003FFE00001
310
FFFFC00003FFE00001FFFF0001FFFFFFFFF00007FFFE0001F000E0000FFFFF00
310
00FFFF800001FFFC00000FFFFF80007FC0001FFFFE0001FC0001FFFFE0001FF8
310
000001FFFE0000007FFFFFF0001FFFFFFF80000FFFF80000FFFF80000FFFF800
310
00FFFF0003FFFFFFFFE0000FFFFF8000F000C0003FFFFF8000FFFF800000FFFC
310
000007FFFF80007F80003FFFFF0001FC0003FFFFF0001FF8000001FFFE000000
310
7FFFFFF0001FFFFFFF80003FFFFE0000FFFF80003FFFFE0000FFFF0003FFFFFF
310
FFE0003FFFFF8000F000C0003FFFFF8000FFFF800000FFFC000007FFFF80007F
310
80007FFFFF8001F80007FFFFF8000FF8000001FFFE0000007FFFFFF0001FFFFF
310
FF00007FFFFF00007FFF00007FFFFF00007FFF0003FFFFFFFFE0003FFFFFC000
310
F000C0007FFFFFC000FFFF000000FFFC000007FFFF80007F8000FFFFFF8000F8
310
000FFFFFF8000FF8000001FFFE0000007FFFFFF0001FFFFFFF0000FFFFFF8000
310
7FFF0000FFFFFF80007FFF0003FFFFFFFFC0007FFFFFC00070008000FFFFFFC0
310
00FFFF000000FFF8000007FFFF80007F8000FFFFFF8000F8000FFFFFF8000FF8
310
000001FFFE0000007FFFFFF0001FFFFFFE0001FFFFFFC0003FFE0001FFFFFFC0
310
003FFF0003FFFFFFFFC0007FFFFFE00070008000FFFFFFC0007FFF0000007FF8
310
000003FFFF80007F0001FFFFFF8000F8000FFFFFF8000FF8000001FFFE000000
310
7FFFFFF0001FFFFFFE0001FFFFFFC0003FFE0001FFFFFFC0003FFF0003FFFFFF
310
FFC000FFFFFFE00070008000FFFFFFC0007FFF0000007FF8000003FFFF80007F
310
0001FFFFFF8000F8001FFFFFF8000FF8000001FFFE0000007FFFFFF0001FFFFF
310
FE0003FFFFFFE0003FFE0003FFFFFFE0003FFF0003FFFFFFFFC000FFFFFFE000
310
70008000FFFFFFC0007FFE0000007FF8000003FFFF80007F0001FFFFFF8000F0
310
001FFFFFF8000FF8000001FFFE0000007FFFFFF0001FFFFFFC0003FFFFFFE000
310
1FFC0003FFFFFFE0001FFF0003FFFFFFFFC000FFFFFFC00070008000FFFFFF80
310
007FFE0000007FF0000003FFFF80007F0001FFFFFF0000F0001FFFFFF8000FF8
310
000001FFFE0000007FFFFFF0001FFFFFFC0007FFFFFFF0001FFC0007FFFFFFF0
310
001FFF0003FFFFFFFFC000FFFFFFC00070008001FFFFFF0000FFFE0000003FF0
310
000001FFFF80007F0001FFFFFF0000F8001FFFFFF0000FF8000001FFFE000000
310
7FFFFFF0001FFFFFFC0007FFFFFFF0001FFC0007FFFFFFF0001FFF0003FFFFFF
310
FFC001FFFFFF80007000FFFFFFFFFE0000FFFE0008003FF0008001FFFF80007F
310
FFFFFFFFFC0000FFFFFFFFFFE0000FF8000001FFFE0000007FFFFFF0001FFFFF
310
F8000FFFFFFFF8000FF8000FFFFFFFF8000FFF0003FFFFFFFFFFFFFFFFFF0000
310
7000FFFFFFFFFC0000FFFC0008003FF0008001FFFF80007FFFFFFFFFF80001FF
310
FFFFFFFF80000FF8000001FFFE0000007FFFFFF0001FFFFFF8000FFFFFFFF800
310
0FF8000FFFFFFFF8000FFF0003FFFFFFFFFFFFFFFFFE0000F000FFFFFFFFE000
310
00FFFC000C003FE000C001FFFF80007FFFFFFFFFC00001FFFFFFFFFE00001FF8
310
000001FFFE0000007FFFFFF0001FFFFFF8000FFFFFFFF8000FF8000FFFFFFFF8
310
000FFF0003FFFFFFFFFFFFFFFFF00000F000FFFFFFFE000001FFFC000C001FE0
310
00C000FFFF80007FFFFFFFFE000001FFFFFFFFE000001FF80FFFFFFFFFFFFFC0
310
7FFFFFF0001FFFFFF8000FFFFFFFF8000FF8000FFFFFFFF8000FFF0003FFFFFF
310
FFFFFFFFFF800000F000FFFFFFC0000001FFFC001C001FE001C000FFFF80007F
310
FFFFFF80000003FFFFFFF80000001FF80FFFFFFFFFFFFFC07FFFFFF0001FFFFF
310
F8001FFFFFFFFC000FF8001FFFFFFFFC000FFF0003FFFFFFFFFFFFFFF0000001
310
F000FFFFF800000001FFF8001C001FE001C000FFFF80007FFFFFF800000003FF
310
FFFF800000003FF80FFFFFFFFFFFFFC07FFFFFF0001FFFFFF8001FFFFFFFFC00
310
0FF8001FFFFFFFFC000FFF0003FFFFFFFFFFFFFE00000001F000FFFFC0000000
310
03FFF8001E001FC001E000FFFF80007FFFFF8000000007FFFFFC000000003FF8
310
0FFFFFFFFFFFFFC07FFFFFF0001FFFFFF8001FFFFFFFFC000FF8001FFFFFFFFC
310
000FFF0003FFFFFFFFFFFFE000000003F000FFFE0000000007FFF8001E000FC0
310
01E0007FFF80007FFFFE0000000007FFFFE0000000007FF80FFFFFFFFFFFFFC0
310
7FFFFFF0001FFFFFF0001FFFFFFFFC0007F0001FFFFFFFFC0007FF0003FFFFFF
310
FFFFFF0000000003F000FFF80000000007FFF8001E000FC003E0007FFF80007F
310
FFF0000000000FFFFF8000000000FFF80FFFFFFFFFFFFFC07FFFFFF0001FFFFF
310
F0001FFFFFFFFC0007F0001FFFFFFFFC0007FF0003FFFFFFFFFFFC0000000007
310
F000FFE0000000000FFFF0003E000FC003E0007FFF80007FFFC0000000001FFF
310
FE0000000001FFF80FFFFFFFFFFFFFC07FFFFFF0001FFFFFF0001FFFFFFFFC00
310
07F0001FFFFFFFFC0007FF0003FFFFFFFFFFF0000000000FF000FFC000000000
310
1FFFF0003F000F8003F0003FFF80007FFF80000000003FFFF80000000003FFF8
310
0FFFFFFFFFFFFFC07FFFFFF0001FFFFFF0001FFFFFFFFC0007F0001FFFFFFFFC
310
0007FF0003FFFFFFFFFFE0000000001FF000FF00000000007FFFF0003F000780
310
03F0003FFF80007FFF00000000007FFFF00000000007FFF80FFFFFFFFFFFFFC0
310
7FFFFFF0001FFFFFF0001FFFFFFFFC0007F0001FFFFFFFFC0007FF0003FFFFFF
310
FFFF80000000007FF000FE0000000000FFFFE0003F00078007F0003FFF80007F
310
FE0000000001FFFFE0000000001FFFF80FFFFFFFFFFFFFC07FFFFFF0001FFFFF
310
F0001FFFFFFFFC0007F0001FFFFFFFFC0007FF0003FFFFFFFFFF0000000000FF
310
F000FC0000000003FFFFE0007F00078007F0003FFF80007FFC0000000007FFFF
310
C0000000007FFFF80FFFFFFFFFFFFFC07FFFFFF0001FFFFFF8001FFFFFFFFC00
310
0FF8001FFFFFFFFC000FFF0003FFFFFFFFFE0000000003FFF000FC000000000F
310
FFFFE0007F80070007F8001FFF80007FF8000000001FFFFF8000000001FFFFF8
310
0FFFFFFFFFFFFFC07FFFFFF0001FFFFFF8001FFFFFFFFC000FF8001FFFFFFFFC
310
000FFF0003FFFFFFFFFC000000000FFFF000F8000000007FFFFFE0007F800700
310
07F8001FFF80007FF000000000FFFFFF800000000FFFFFF80FFFFFFFFFFFFFC0
310
7FFFFFF0001FFFFFF8000FFFFFFFF8000FF8000FFFFFFFF8000FFF0003FFFFFF
310
FFFC000000007FFFF000F800000007FFFFFFC0007F8003000FF8001FFF80007F
310
F000000007FFFFFF000000007FFFFFF80FFFFFFFFFFFFFC07FFFFFF0001FFFFF
310
F8000FFFFFFFF8000FF8000FFFFFFFF8000FFF0003FFFFFFFFF80000000FFFFF
310
F000F0000000FFFFFFFFC000FF8003000FF8001FFF80007FE0000000FFFFFFFF
310
0000000FFFFFFFF8000001FFFE0000007FFFFFF0001FFFFFF8000FFFFFFFF800
310
0FF8000FFFFFFFF8000FFF0003FFFFFFFFF8000000FFFFFFF000F000000FFFFF
310
FFFFC000FFC002000FF8000FFF80007FE000001FFFFFFFFE000001FFFFFFFFF8
310
000001FFFE0000007FFFFFF0001FFFFFF8000FFFFFFFF8000FF8000FFFFFFFF8
310
000FFF0003FFFFFFFFF000001FFFFFFFF000E00000FFFFFFFFFFC000FFC00200
310
0FFC000FFF80007FE00001FFFFFFFFFE00001FFFFFFFFFF8000001FFFE000000
310
7FFFFFF0001FFFFFFC000FFFFFFFF8001FFC000FFFFFFFF8001FFF0003FFFFFF
310
FFF00001FFFFFFFFF000E00007FFFFFFFFFF8000FFC000001FFC000FFF80007F
310
C0000FFFFFFFFFFE0000FFFFFFFFFFF8000001FFFE0000007FFFFFF0001FFFFF
310
FC0007FFFFFFF0001FFC0007FFFFFFF0001FFF0003FFFFFFFFF00007FFFFFFFF
310
F000E0001FFFFFFFFFFF8000FFC000001FFC000FFF80007FC0003FFFFFFFFFFE
310
0001FFFFFFFFFFF8000001FFFE0000007FFFFFF0001FFFFFFC0007FFFFFFF000
310
1FFC0007FFFFFFF0001FFF0003FFFFFFFFF0001FFFFFFFFFF000E0003FFFFF00
310
03FF8001FFE000001FFC0007FF80007FC0007FFFFF0007FC0003FFFFF0003FF8
310
000001FFFE0000007FFFFFF0001FFFFFFC0003FFFFFFE0001FFC0003FFFFFFE0
310
001FFF0003FFFFFFFFF0003FFFFFFFFFF000E0003FFFFF0001FF8001FFE00000
310
1FFE0007FF80007FC0007FFFFE0003FC0007FFFFE0003FF8000001FFFE000000
310
7FFFFFF0001FFFFFFE0003FFFFFFE0003FFE0003FFFFFFE0003FFF0003FFFFFF
310
FFF0003FFFFF8001F000E0003FFFFF0001FF0001FFE000001FFE0007FF80007F
310
C0007FFFFE0003FC0007FFFFE0003FF8000001FFFE0000007FFFFFF0001FFFFF
310
FE0001FFFFFFC0003FFE0001FFFFFFC0003FFF0003FFFFFFFFF0003FFFFF0001
310
F000E0003FFFFF0003FF0001FFE000003FFE0007FF80007FC0007FFFFE0003FC
310
0007FFFFE0003FF8000001FFFE0000007FFFFFF0001FFFFFFF0001FFFFFFC000
310
7FFF0001FFFFFFC0007FFF0003FFFFFFFFF0003FFFFF0001F000E0003FFFFE00
310
03FF0003FFF000003FFE0003FF80007FC0007FFFFC0003FE0007FFFFE0003FF8
310
000001FFFE0000007FFFFFF0001FFFFFFF0000FFFFFF80007FFF0000FFFFFF80
310
007FFF0003FFFFFFFFF0003FFFFF0001F000E0003FFFFE0003FF0003FFF00000
310
3FFF0003FF80007FC0007FFFFC0007FE0007FFFFC0003FF8000001FFFE000000
310
7FFFFFF0001FFFFFFF80007FFFFF0000FFFF80007FFFFF0000FFFF0003FFFFFF
310
FFF0003FFFFF0003F000E0003FFFFC0003FE0003FFF000003FFF0003FF80007F
310
E0003FFFF80007FE0003FFFFC0007FF8000001FFFE0000007FFFFFF0001FFFFF
310
FF80003FFFFE0000FFFF80003FFFFE0000FFFF0003FFFFFFFFF0001FFFFE0003
310
F000F0001FFFF80003FE0003FFF000007FFF0001FF80007FE0003FFFF00007FE
310
0001FFFF80007FF8000001FFFE0000007FFFFFF0001FFFFFFFC0000FFFF80001
310
FFFFC0000FFFF80001FFFF0003FFFFFFFFF0001FFFFC0003F000F0000FFFF000
310
07FE0007FFF800007FFF0001FF80007FE0001FFFE00007FF0000FFFE00007FF8
310
000001FFFE0000007FFFFFF0001FFFFFFFC00003FFE00001FFFFC00003FFE000
310
01FFFF0003FFFFFFFFF8000FFFF80003F000F00003FFC00007FC0007FFF80000
310
7FFF8001FF80007FF00007FF80000FFF00007FF80000FFF8000001FFFE000000
310
7F80000000000001FFE000003E000003FFFFE000003E000003FFFF0003FFFFFF
310
FFF80003FFE00007F000F800000000000FFC0007FFF800007FFF8001FF80007F
310
F000000000000FFF000000000000FFF8000001FFFE0000007F80000000000001
310
FFF0000000000007FFFFF0000000000007FFFF0003FFFFFFFFFC00007E000007
310
F000F800000000000FFC0007FFF80000FFFF8000FF80007FF800000000001FFF
310
800000000001FFF8000001FFFE0000007F80000000000001FFF800000000000F
310
FFFFF800000000000FFFFF0003FFFFFFFFFC00000000000FF000FC0000000000
310
1FFC0007FFFC0000FFFF8000FF80007FF800000000003FFFC00000000001FFF8
310
000001FFFE0000007F80000000000001FFF800000000000FFFFFF80000000000
310
0FFFFF0003FFFFFFFFFE00000000001FF000FE00000000003FF8000FFFFC0000
310
FFFF8000FF80007FFC00000000003FFFC00000000003FFF8000001FFFE000000
310
7F80000000000001FFFC00000000001FFFFFFC00000000001FFFFF0003FFFFFF
310
FFFF00000000001FF000FF00000000003FF8000FFFFC0000FFFFC000FF80007F
310
FE00000000007FFFE00000000007FFF8000001FFFE0000007F80000000000001
310
FFFE00000000003FFFFFFE00000000003FFFFF0003FFFFFFFFFF80000000003F
310
F000FF80000000007FF8000FFFFC0001FFFFC0007F80007FFF0000000000FFFF
310
F0000000000FFFF800000000000000007F80000000000001FFFF8000000000FF
310
FFFFFF8000000000FFFFFF0003FFFFFFFFFFC0000000007FF000FFC000000000
310
FFF8000FFFFE0001FFFFC0007F80007FFF8000000001FFFFF8000000001FFFF8
310
00000000000000007F80000000000001FFFFC000000001FFFFFFFFC000000001
310
FFFFFF0003FFFFFFFFFFE000000000FFF000FFE000000003FFF0001FFFFE0001
310
FFFFC0007F80007FFFC000000007FFFFFE000000003FFFF80000000000000000
310
7F80000000000001FFFFE000000003FFFFFFFFE000000003FFFFFF0003FFFFFF
310
FFFFF000000003FFF000FFF80000000FFFF0001FFFFE0001FFFFE0007F80007F
310
FFF00000000FFFFFFF00000000FFFFF800000000000000007F80000000000001
310
FFFFF80000000FFFFFFFFFF80000000FFFFFFF0003FFFFFFFFFFFC0000000FFF
310
F000FFFE0000003FFFF0001FFFFE0003FFFFE0003F80007FFFFC0000003FFFFF
310
FFC0000003FFFFF800000000000000007F80000000000001FFFFFE0000003FFF
310
FFFFFFFE0000003FFFFFFF0003FFFFFFFFFFFF0000003FFFF000FFFF800000FF
310
FFF0001FFFFF0003FFFFE0003F80007FFFFF000001FFFFFFFFF800001FFFFFF8
310
00000000000000007F80000000000001FFFFFFC00001FFFFFFFFFFFFC00001FF
310
FFFFFF0003FFFFFFFFFFFFC00000FFFFF000FFFFF8000FFFFFFFFFFFFFFFFFFF
310
FFFFFFFFFFFFFFFFFFFFF0001FFFFFFFFFFF0000FFFFFFF80000000000000000
310
7FFFFFFFFFFFFFFFFFFFFFFC001FFFFFFFFFFFFFFC001FFFFFFFFFFFFFFFFFFF
310
FFFFFFFC001FFFFFF000FFFFFFFFFFFFFFFFFFFFFFFFFFFFFFFFFFFFFFFFFFFF
310
FFFFFFFFFFFFFFFFFFFFFFFFFFFFFFFFFFFFFFFFFFFFFFFFFFFFFFFFFFFFFFFF
310
FFFFFFFFFFFFFFFFFFFFFFFFFFFFFFFFFFFFFFFFFFFFFFFFFFFFFFFFFFFFFFFF
310
F000FFFFFFFFFFFFFFFFFFFFFFFFFFFFFFFFFFFFFFFFFFFFFFFFFFFFFFFFFFFF
310
FFFFFFFFFFFFFFFFFFFFFFFFFFFFFFFFFFFFFFFFFFFFFFFFFFFFFFFFFFFFFFFF
310
FFFFFFFFFFFFFFFFFFFFFFFFFFFFFFFFFFFFFFFFFFFFFFFFF000FFFFFFFFFFFF
310
FFFFFFFFFFFFFFFFFFFFFFFFFFFFFFFFFFFFFFFFFFFFFFFFFFFFFFFFFFFFFFFF
310
FFFFFFFFFFFFFFFFFFFFFFFFFFFFFFFFFFFFFFFFFFFFFFFFFFFFFFFFFFFFFFFF
310
FFFFFFFFFFFFFFFFFFFFFFFFFFFFFFFFF000FFFFFFFFFFFFFFFFFFFFFFFFFFFF
310
FFFFFFFFFFFFFFFFFFFFFFFFFFFFFFFFFFFFFFFFFFFFFFFFFFFFFFFFFFFFFFFF
310
FFFFFFFFFFFFFFFFFFFFFFFFFFFFFFFFFFFFFFFFFFFFFFFFFFFFFFFFFFFFFFFF
310
FFFFFFFFFFFFFFFFF000FFFFFFFFFFFFFFFFFFFFFFFFFFFFFFFFFFFFFFFFFFFF
310
FFFFFFFFFFFFFFFFFFFFFFFFFFFFFFFFFFFFFFFFFFFFFFFFFFFFFFFFFFFFFFFF
310
FFFFFFFFFFFFFFFFFFFFFFFFFFFFFFFFFFFFFFFFFFFFFFFFFFFFFFFFFFFFFFFF
310
F000FFFFFFFFFFFFFFFFFFFFFFFFFFFFFFFFFFFFFFFFFFFFFFFFFFFFFFFFFFFF
310
FFFFFFFFFFFFFFFFFFFFFFFFFFFFFFFFFFFFFFFFFFFFFFFFFFFFFFFFFFFFFFFF
310
FFFFFFFFFFFFFFFFFFFFFFFFFFFFFFFFFFFFFFFFFFFFFFFFF000FFFFFFFFFFFF
310
FFFFFFFFFFFFFFFFFFFFFFFFFFFFFFFFFFFFFFFFFFFFFFFFFFFFFFFFFFFFFFFF
310
FFFFFFFFFFFFFFFFFFFFFFFFFFFFFFFFFFFFFFFFFFFFFFFFFFFFFFFFFFFFFFFF
310
FFFFFFFFFFFFFFFFFFFFFFFFFFFFFFFFF000FFFFFFFFFFFFFFFFFFFFFFFFFFFF
310
FFFFFFFFFFFFFFFFFFFFFFFFFFFFFFFFFFFFFFFFFFFFFFFFFFFFFFFFFFFFFFFF
310
FFFFFFFFFFFFFFFFFFFFFFFFFFFFFFFFFFFFFFFFFFFFFFFFFFFFFFFFFFFFFFFF
310
FFFFFFFFFFFFFFFFF000FFFFFFFFFFFFFFFFFFFFFFFFFFFFFFFFFFFFFFFFFFFF
310
FFFFFFFFFFFFFFFFFFFFFFFFFFFFFFFFFFFFFFFFFFFFFFFFFFFFFFFFFFFFFFFF
310
FFFFFFFFFFFFFFFFFFFFFFFFFFFFFFFFFFFFFFFFFFFFFFFFFFFFFFFFFFFFFFFF
310
F000FFFFFFFFFFFFFFFFFFFFFFFFFFFFFFFFFFFFFFFFFFFFFFFFFFFFFFFFFFFF
310
FFFFFFFFFFFFFFFFFFFFFFFFFFFFFFFFFFFFFFFFFFFFFFFFFFFFFFFFFFFFFFFF
310
FFFFFFFFFFFFFFFFFFFFFFFFFFFFFFFFFFFFFFFFFFFFFFFFF000FFFFFFFFFFFF
310
FFFFFFFFFFFFFFFFFFFFFFFFFFFFFFFFFFFFFFFFFFFFFFFFFFFFFFFFFFFFFFFF
310
FFFFFFFFFFFFFFFFFFFFFFFFFFFFFFFFFFFFFFFFFFFFFFFFFFFFFFFFFFFFFFFF
310
FFFFFFFFFFFFFFFFFFFFFFFFFFFFFFFFF000FFFFFFFFFFFFFFFFFFFFFFFFFFFF
310
FFFFFFFFFFFFFFFFFFFFFFFFFFFFFFFFFFFFFFFFFFFFFFFFFFFFFFFFFFFFFFFF
310
FFFFFFFFFFFFFFFFFFFFFFFFFFFFFFFFFFFFFFFFFFFFFFFFFFFFFFFFFFFFFFFF
310
FFFFFFFFFFFFFFFFF000FFFFFFFFFFFFFFFFFFFFFFFFFFFFFFFFFFFFFFFFFFFF
310
FFFFFFFFFFFFFFFFFFFFFFFFFFFFFFFFFFFFFFFFFFFFFFFFFFFFFFFFFFFFFFFF
310
FFFFFFFFFFFFFFFFFFFFFFFFFFFFFFFFFFFFFFFFFFFFFFFFFFFFFFFFFFFFFFFF
310
F000FFFFFFFFFFFFFFFFFFFFFFFFFFFFFFFFFFFFFFFFFFFFFFFFFFFFFFFFFFFF
310
FFFFFFFFFFFFFFFFFFFFFFFFFFFFFFFFFFFFFFFFFFFFFFFFFFFFFFFFFFFFFFFF
310
FFFFFFFFFFFFFFFFFFFFFFFFFFFFFFFFFFFFFFFFFFFFFFFFF000FFFFFFFFFFFF
310
FFFFFFFFFFFFFFFFFFFFFFFFFFFFFFFFFFFFFFFFFFFFFFFFFFFFFFFFFFFFFFFF
310
FFFFFFFFFFFFFFFFFFFFFFFFFFFFFFFFFFFFFFFFFFFFFFFFFFFFFFFFFFFFFFFF
310
FFFFFFFFFFFFFFFFFFFFFFFFFFFFFFFFF000FFFFFFFFFFFFFFFFFFFFFFFFFFFF
310
FFFFFFFFFFFFFFFFFFFFFFFFFFFFFFFFFFFFFFFFFFFFFFFFFFFFFFFFFFFFFFFF
310
FFFFFFFFFFFFFFFFFFFFFFFFFFFFFFFFFFFFFFFFFFFFFFFFFFFFFFFFFFFFFFFF
310
FFFFFFFFFFFFFFFFF000FFFFFFFFFFFFFFFFFFFFFFFFFFFFFFFFFFFFFFFFFFFF
310
FFFFFFFFFFFFFFFFFFFFFFFFFFFFFFFFFFFFFFFFFFFFFFFFFFFFFFFFFFFFFFFF
310
FFFFFFFFFFFFFFFFFFFFFFFFFFFFFFFFFFFFFFFFFFFFFFFFFFFFFFFFFFFFFFFF
310
F000FFFFFFFFFFFFFFFFFFFFFFFFFFFFFFFFFFFFFFFFFFFFFFFFFFFFFFFFFFFF
310
FFFFFFFFFFFFFFFFFFFFFFFFFFFFFFFFFFFFFFFFFFFFFFFFFFFFFFFFFFFFFFFF
310
FFFFFFFFFFFFFFFFFFFFFFFFFFFFFFFFFFFFFFFFFFFFFFFFF000FFFFFFFFFFFF
310
FFFFFFFFFFFFFFFFFFFFFFFFFFFFFFFFFFFFFFFFFFFFFFFFFFFFFFFFFFFFFFFF
310
FFFFFFFFFFFFFFFFFFFFFFFFFFFFFFFFFFFFFFFFFFFFFFFFFFFFFFFFFFFFFFFF
310
FFFFFFFFFFFFFFFFFFFFFFFFFFFFFFFFF000FFFFFFFFFFFFFFFFFFFFFFFFFFFF
310
FFFFFFFFFFFFFFFFFFFFFFFFFFFFFFFFFFFFFFFFFFFFFFFFFFFFFFFFFFFFFFFF
310
FFFFFFFFFFFFFFFFFFFFFFFFFFFFFFFFFFFFFFFFFFFFFFFFFFFFFFFFFFFFFFFF
310
FFFFFFFFFFFFFFFFF000FFFFFFFFFFFFFFFFFFFFFFFFFFFFFFFFFFFFFFFFFFFF
310
FFFFFFFFFFFFFFFFFFFFFFFFFFFFFFFFFFFFFFFFFFFFFFFFFFFFFFFFFFFFFFFF
310
FFFFFFFFFFFFFFFFFFFFFFFFFFFFFFFFFFFFFFFFFFFFFFFFFFFFFFFFFFFFFFFF
310
F000FFFFFFFFFFFFFFFFFFFFFFFFFFFFFFFFFFFFFFFFFFFFFFFFFFFFFFFFFFFF
310
FFFFFFFFFFFFFFFFFFFFFFFFFFFFFFFFFFFFFFFFFFFFFFFFFFFFFFFFFFFFFFFF
310
FFFFFFFFFFFFFFFFFFFFFFFFFFFFFFFFFFFFFFFFFFFFFFFFF000FFFFFFFFFFFF
310
FFFFFFFFFFFFFFFFFFFFFFFFFFFFFFFFFFFFFFFFFFFFFFFFFFFFFFFFFFFFFFFF
310
FFFFFFFFFFFFFFFFFFFFFFFFFFFFFFFFFFFFFFFFFFFFFFFFFFFFFFFFFFFFFFFF
310
FFFFFFFFFFFFFFFFFFFFFFFFFFFFFFFFF0000000000000000000000000000000
310
0000000000000000000000000000000000000000000000000000000000000000
310
0000000000000000000000000000000000000000000000000000000000000000
310
0000000000000000000000000000000000000000000000000000000000000000
310
0000000000000000000000000000000000000000000000000000000000000000
310
0000000000000000000000000000000000000000000000000000000000000000
310
0000000000000000000000000000000000000000000000000000000000000000
310
0000000000000000000000000000000000000000000000000000000000000000
310
0000000000000000000000000000000000000000000000000000000000000000
310
0000000000000000000000000000000000000000000000000000000000000000
310
0000000000000000000000000000000000000000000000000000000000000000
310
0000000000000000000000000000000000000000000000000000000000000000
310
0000000000000000000000000000000000000000000000000000000000000000
310
0000000000000000000000000000000000000000000000000000000000000000
310
0000000000000000000000000000000000000000000000000000000000000000
310
0000000000000000000000000000000000000000000000000000000000000000
  1
OLE
  0
ENDSEC
  0
SECTION
  2
OBJECTS
  0
DICTIONARY
  5
C
330
0
100
AcDbDictionary
281
     1
  3
ACAD_GROUP
350
D
  3
ACAD_LAYOUT
350
1A
  3
ACAD_MLINESTYLE
350
17
  3
ACAD_PLOTSETTINGS
350
19
  3
ACAD_PLOTSTYLENAME
350
E
  0
DICTIONARY
  5
D
102
{ACAD_REACTORS
330
C
102
}
330
C
100
AcDbDictionary
281
     1
  0
DICTIONARY
  5
1A
102
{ACAD_REACTORS
330
C
102
}
330
C
100
AcDbDictionary
281
     1
  3
Layout1
350
1E
  3
Layout2
350
26
  3
Model
350
22
  0
DICTIONARY
  5
17
102
{ACAD_REACTORS
330
C
102
}
330
C
100
AcDbDictionary
281
     1
  3
Standard
350
18
  0
DICTIONARY
  5
19
102
{ACAD_REACTORS
330
C
102
}
330
C
100
AcDbDictionary
281
     1
  0
ACDBDICTIONARYWDFLT
  5
E
102
{ACAD_REACTORS
330
C
102
}
330
C
100
AcDbDictionary
281
     1
  3
Normal
350
F
100
AcDbDictionaryWithDefault
340
F
  0
LAYOUT
  5
1E
102
{ACAD_REACTORS
330
1A
102
}
330
1A
100
AcDbPlotSettings
  1

  2
none_device
  4

  6

 40
0.0
 41
0.0
 42
0.0
 43
0.0
 44
0.0
 45
0.0
 46
0.0
 47
0.0
 48
0.0
 49
0.0
140
0.0
141
0.0
142
1.0
143
1.0
 70
   688
 72
     0
 73
     0
 74
     5
  7

 75
    16
147
1.0
148
0.0
149
0.0
100
AcDbLayout
  1
Layout1
 70
     1
 71
     1
 10
0.0
 20
0.0
 11
420.0
 21
297.0
 12
0.0
 22
0.0
 32
0.0
 14
1.0000000000E+20
 24
1.0000000000E+20
 34
1.0000000000E+20
 15
-1.0000000000E+20
 25
-1.0000000000E+20
 35
-1.0000000000E+20
146
0.0
 13
0.0
 23
0.0
 33
0.0
 16
1.0
 26
0.0
 36
0.0
 17
0.0
 27
1.0
 37
0.0
 76
     0
330
1B
  0
LAYOUT
  5
26
102
{ACAD_REACTORS
330
1A
102
}
330
1A
100
AcDbPlotSettings
  1

  2
none_device
  4

  6

 40
0.0
 41
0.0
 42
0.0
 43
0.0
 44
0.0
 45
0.0
 46
0.0
 47
0.0
 48
0.0
 49
0.0
140
0.0
141
0.0
142
1.0
143
1.0
 70
   688
 72
     0
 73
     0
 74
     5
  7

 75
    16
147
1.0
148
0.0
149
0.0
100
AcDbLayout
  1
Layout2
 70
     1
 71
     2
 10
0.0
 20
0.0
 11
0.0
 21
0.0
 12
0.0
 22
0.0
 32
0.0
 14
0.0
 24
0.0
 34
0.0
 15
0.0
 25
0.0
 35
0.0
146
0.0
 13
0.0
 23
0.0
 33
0.0
 16
1.0
 26
0.0
 36
0.0
 17
0.0
 27
1.0
 37
0.0
 76
     0
330
23
  0
LAYOUT
  5
22
102
{ACAD_REACTORS
330
1A
102
}
330
1A
100
AcDbPlotSettings
  1

  2
none_device
  4

  6

 40
0.0
 41
0.0
 42
0.0
 43
0.0
 44
0.0
 45
0.0
 46
0.0
 47
0.0
 48
0.0
 49
0.0
140
0.0
141
0.0
142
1.0
143
1.0
 70
  1712
 72
     0
 73
     0
 74
     0
  7

 75
     0
147
1.0
148
0.0
149
0.0
100
AcDbLayout
  1
Model
 70
     1
 71
     0
 10
0.0
 20
0.0
 11
297.0
 21
210.0
 12
0.0
 22
0.0
 32
0.0
 14
0.0
 24
0.0
 34
0.0
 15
297.0
 25
210.0
 35
0.0
146
0.0
 13
0.0
 23
0.0
 33
0.0
 16
1.0
 26
0.0
 36
0.0
 17
0.0
 27
1.0
 37
0.0
 76
     0
330
1F
331
29
  0
MLINESTYLE
  5
18
102
{ACAD_REACTORS
330
17
102
}
330
17
100
AcDbMlineStyle
  2
Standard
 70
     0
  3

 62
   256
 51
90.0
 52
90.0
 71
     2
 49
0.5
 62
   256
  6
BYLAYER
 49
-0.5
 62
   256
  6
BYLAYER
  0
ACDBPLACEHOLDER
  5
F
102
{ACAD_REACTORS
330
E
102
}
330
E
  0
ENDSEC
  0
EOF
