  0
SECTION
  2
HEADER
  9
$ACADVER
  1
AC1015
  9
$ACADMAINTVER
 70
     6
  9
$DWGCODEPAGE
  3
ANSI_1252
  9
$INSBASE
 10
0.0
 20
0.0
 30
0.0
  9
$EXTMIN
 10
0.0
 20
0.0
 30
0.0
  9
$EXTMAX
 10
297.0
 20
210.0
 30
0.0
  9
$LIMMIN
 10
0.0
 20
0.0
  9
$LIMMAX
 10
297.0
 20
210.0
  9
$ORTHOMODE
 70
     0
  9
$REGENMODE
 70
     1
  9
$FILLMODE
 70
     1
  9
$QTEXTMODE
 70
     0
  9
$MIRRTEXT
 70
     1
  9
$LTSCALE
 40
1.0
  9
$ATTMODE
 70
     1
  9
$TEXTSIZE
 40
2.0
  9
$TRACEWID
 40
1.0
  9
$TEXTSTYLE
  7
Standard
  9
$CLAYER
  8
0
  9
$CELTYPE
  6
ByLayer
  9
$CECOLOR
 62
   256
  9
$CELTSCALE
 40
1.0
  9
$DISPSILH
 70
     0
  9
$DIMSCALE
 40
1.0
  9
$DIMASZ
 40
3.0
  9
$DIMEXO
 40
0.0
  9
$DIMDLI
 40
3.75
  9
$DIMRND
 40
0.0
  9
$DIMDLE
 40
0.0
  9
$DIMEXE
 40
1.0
  9
$DIMTP
 40
0.0
  9
$DIMTM
 40
0.0
  9
$DIMTXT
 40
2.0
  9
$DIMCEN
 40
2.5
  9
$DIMTSZ
 40
0.0
  9
$DIMTOL
 70
     0
  9
$DIMLIM
 70
     0
  9
$DIMTIH
 70
     1
  9
$DIMTOH
 70
     1
  9
$DIMSE1
 70
     0
  9
$DIMSE2
 70
     0
  9
$DIMTAD
 70
     1
  9
$DIMZIN
 70
     0
  9
$DIMBLK
  1

  9
$DIMASO
 70
     1
  9
$DIMSHO
 70
     1
  9
$DIMPOST
  1

  9
$DIMAPOST
  1

  9
$DIMALT
 70
     0
  9
$DIMALTD
 70
     3
  9
$DIMALTF
 40
0.0393700787
  9
$DIMLFAC
 40
1.0
  9
$DIMTOFL
 70
     1
  9
$DIMTVP
 40
0.0
  9
$DIMTIX
 70
     0
  9
$DIMSOXD
 70
     0
  9
$DIMSAH
 70
     0
  9
$DIMBLK1
  1

  9
$DIMBLK2
  1

  9
$DIMSTYLE
  2
ISO-25
  9
$DIMCLRD
 70
     0
  9
$DIMCLRE
 70
     0
  9
$DIMCLRT
 70
     0
  9
$DIMTFAC
 40
1.0
  9
$DIMGAP
 40
1.524
  9
$DIMJUST
 70
     0
  9
$DIMSD1
 70
     0
  9
$DIMSD2
 70
     0
  9
$DIMTOLJ
 70
     0
  9
$DIMTZIN
 70
     0
  9
$DIMALTZ
 70
     0
  9
$DIMALTTZ
 70
     0
  9
$DIMUPT
 70
     0
  9
$DIMDEC
 70
     2
  9
$DIMTDEC
 70
     3
  9
$DIMALTU
 70
     2
  9
$DIMALTTD
 70
     3
  9
$DIMTXSTY
  7
Standard
  9
$DIMAUNIT
 70
     0
  9
$DIMADEC
 70
     2
  9
$DIMALTRND
 40
0.0
  9
$DIMAZIN
 70
     0
  9
$DIMDSEP
 70
    44
  9
$DIMATFIT
 70
     3
  9
$DIMFRAC
 70
     0
  9
$DIMLDRBLK
  1

  9
$DIMLUNIT
 70
     2
  9
$DIMLWD
 70
    -2
  9
$DIMLWE
 70
    -2
  9
$DIMTMOVE
 70
     0
  9
$LUNITS
 70
     2
  9
$LUPREC
 70
     2
  9
$SKETCHINC
 40
1.0
  9
$FILLETRAD
 40
10.0
  9
$AUNITS
 70
     0
  9
$AUPREC
 70
     2
  9
$MENU
  1
.
  9
$ELEVATION
 40
0.0
  9
$PELEVATION
 40
0.0
  9
$THICKNESS
 40
0.0
  9
$LIMCHECK
 70
     0
  9
$CHAMFERA
 40
10.0
  9
$CHAMFERB
 40
10.0
  9
$CHAMFERC
 40
20.0
  9
$CHAMFERD
 40
0.0
  9
$SKPOLY
 70
     0
  9
$TDCREATE
 40
2456083.479866146
  9
$TDUCREATE
 40
2456083.396532813
  9
$TDUPDATE
 40
2456083.479867581
  9
$TDUUPDATE
 40
2456083.396534248
  9
$TDINDWG
 40
0.0000000116
  9
$TDUSRTIMER
 40
0.0000000116
  9
$USRTIMER
 70
     1
  9
$ANGBASE
 50
0.0
  9
$ANGDIR
 70
     0
  9
$PDMODE
 70
     0
  9
$PDSIZE
 40
-1.0
  9
$PLINEWID
 40
0.0
  9
$SPLFRAME
 70
     0
  9
$SPLINETYPE
 70
     6
  9
$SPLINESEGS
 70
     8
  9
$HANDSEED
  5
219
  9
$SURFTAB1
 70
     6
  9
$SURFTAB2
 70
     6
  9
$SURFTYPE
 70
     6
  9
$SURFU
 70
     6
  9
$SURFV
 70
     6
  9
$UCSBASE
  2

  9
$UCSNAME
  2

  9
$UCSORG
 10
0.0
 20
0.0
 30
0.0
  9
$UCSXDIR
 10
1.0
 20
0.0
 30
0.0
  9
$UCSYDIR
 10
0.0
 20
1.0
 30
0.0
  9
$UCSORTHOREF
  2

  9
$UCSORTHOVIEW
 70
     0
  9
$UCSORGTOP
 10
0.0
 20
0.0
 30
0.0
  9
$UCSORGBOTTOM
 10
0.0
 20
0.0
 30
0.0
  9
$UCSORGLEFT
 10
0.0
 20
0.0
 30
0.0
  9
$UCSORGRIGHT
 10
0.0
 20
0.0
 30
0.0
  9
$UCSORGFRONT
 10
0.0
 20
0.0
 30
0.0
  9
$UCSORGBACK
 10
0.0
 20
0.0
 30
0.0
  9
$PUCSBASE
  2

  9
$PUCSNAME
  2

  9
$PUCSORG
 10
0.0
 20
0.0
 30
0.0
  9
$PUCSXDIR
 10
1.0
 20
0.0
 30
0.0
  9
$PUCSYDIR
 10
0.0
 20
1.0
 30
0.0
  9
$PUCSORTHOREF
  2

  9
$PUCSORTHOVIEW
 70
     0
  9
$PUCSORGTOP
 10
0.0
 20
0.0
 30
0.0
  9
$PUCSORGBOTTOM
 10
0.0
 20
0.0
 30
0.0
  9
$PUCSORGLEFT
 10
0.0
 20
0.0
 30
0.0
  9
$PUCSORGRIGHT
 10
0.0
 20
0.0
 30
0.0
  9
$PUCSORGFRONT
 10
0.0
 20
0.0
 30
0.0
  9
$PUCSORGBACK
 10
0.0
 20
0.0
 30
0.0
  9
$USERI1
 70
     0
  9
$USERI2
 70
     0
  9
$USERI3
 70
     0
  9
$USERI4
 70
     0
  9
$USERI5
 70
     0
  9
$USERR1
 40
0.0
  9
$USERR2
 40
0.0
  9
$USERR3
 40
0.0
  9
$USERR4
 40
0.0
  9
$USERR5
 40
0.0
  9
$WORLDVIEW
 70
     1
  9
$SHADEDGE
 70
     3
  9
$SHADEDIF
 70
    70
  9
$TILEMODE
 70
     1
  9
$MAXACTVP
 70
    64
  9
$PINSBASE
 10
0.0
 20
0.0
 30
0.0
  9
$PLIMCHECK
 70
     0
  9
$PEXTMIN
 10
1.0000000000E+20
 20
1.0000000000E+20
 30
1.0000000000E+20
  9
$PEXTMAX
 10
-1.0000000000E+20
 20
-1.0000000000E+20
 30
-1.0000000000E+20
  9
$PLIMMIN
 10
0.0
 20
0.0
  9
$PLIMMAX
 10
420.0
 20
297.0
  9
$UNITMODE
 70
     0
  9
$VISRETAIN
 70
     1
  9
$PLINEGEN
 70
     0
  9
$PSLTSCALE
 70
     1
  9
$TREEDEPTH
 70
  3020
  9
$CMLSTYLE
  2
Standard
  9
$CMLJUST
 70
     0
  9
$CMLSCALE
 40
20.0
  9
$PROXYGRAPHICS
 70
     1
  9
$MEASUREMENT
 70
     1
  9
$CELWEIGHT
370
    -1
  9
$ENDCAPS
280
     0
  9
$JOINSTYLE
280
     0
  9
$LWDISPLAY
290
     1
  9
$INSUNITS
 70
     4
  9
$HYPERLINKBASE
  1

  9
$STYLESHEET
  1

  9
$XEDIT
290
     1
  9
$CEPSNTYPE
380
     0
  9
$PSTYLEMODE
290
     1
  9
$FINGERPRINTGUID
  2
{099F98B4-7007-4CE2-9815-43246E7AB835}
  9
$VERSIONGUID
  2
{FAEB1C32-E019-11D5-929B-00C0DF256EC4}
  9
$EXTNAMES
290
     1
  9
$PSVPSCALE
 40
0.0
  9
$OLESTARTUP
290
     0
  0
ENDSEC
  0
SECTION
  2
CLASSES
  0
CLASS
  1
ACDBDICTIONARYWDFLT
  2
AcDbDictionaryWithDefault
  3
ObjectDBX Classes
 90
        0
280
     0
281
     0
  0
CLASS
  1
VISUALSTYLE
  2
AcDbVisualStyle
  3
ObjectDBX Classes
 90
     4095
280
     0
281
     0
  0
CLASS
  1
MATERIAL
  2
AcDbMaterial
  3
ObjectDBX Classes
 90
     1153
280
     0
281
     0
  0
CLASS
  1
ACDBPLACEHOLDER
  2
AcDbPlaceHolder
  3
ObjectDBX Classes
 90
        0
280
     0
281
     0
  0
CLASS
  1
LAYOUT
  2
AcDbLayout
  3
ObjectDBX Classes
 90
        0
280
     0
281
     0
  0
ENDSEC
  0
SECTION
  2
TABLES
  0
TABLE
  2
VPORT
  5
8
330
0
100
AcDbSymbolTable
 70
     1
  0
VPORT
  5
29
330
8
100
AcDbSymbolTableRecord
100
AcDbViewportTableRecord
  2
*Active
 70
     0
 10
0.0
 20
0.0
 11
1.0
 21
1.0
 12
148.5
 22
105.0
 13
0.0
 23
0.0
 14
10.0
 24
10.0
 15
10.0
 25
10.0
 16
0.0
 26
0.0
 36
1.0
 17
0.0
 27
0.0
 37
0.0
 40
210.0
 41
1.4142857143
 42
50.0
 43
0.0
 44
0.0
 50
0.0
 51
0.0
 71
     0
 72
  2000
 73
     1
 74
     3
 75
     0
 76
     0
 77
     0
 78
     0
281
     0
 65
     1
110
0.0
120
0.0
130
0.0
111
1.0
121
0.0
131
0.0
112
0.0
122
1.0
132
0.0
 79
     0
146
0.0
  0
ENDTAB
  0
TABLE
  2
LTYPE
  5
5
330
0
100
AcDbSymbolTable
 70
     6
  0
LTYPE
  5
14
330
5
100
AcDbSymbolTableRecord
100
AcDbLinetypeTableRecord
  2
ByBlock
 70
     0
  3

 72
    65
 73
     0
 40
0.0
  0
LTYPE
  5
15
330
5
100
AcDbSymbolTableRecord
100
AcDbLinetypeTableRecord
  2
ByLayer
 70
     0
  3

 72
    65
 73
     0
 40
0.0
  0
LTYPE
  5
16
330
5
100
AcDbSymbolTableRecord
100
AcDbLinetypeTableRecord
  2
Continuous
 70
     0
  3
Solid line
 72
    65
 73
     0
 40
0.0
  0
LTYPE
  5
3F
330
5
100
AcDbSymbolTableRecord
100
AcDbLinetypeTableRecord
  2
HIDDEN
 70
     0
  3
Hidden __ __ __ __ __ __ __ __ __ __ __ __ __ __
 72
    65
 73
     2
 40
1.905
 49
1.27
 74
     0
 49
-0.635
 74
     0
  0
LTYPE
  5
40
330
5
100
AcDbSymbolTableRecord
100
AcDbLinetypeTableRecord
  2
PHANTOM
 70
     0
  3
Phantom ______  __  __  ______  __  __  ______
 72
    65
 73
     6
 40
12.7
 49
6.35
 74
     0
 49
-1.27
 74
     0
 49
1.27
 74
     0
 49
-1.27
 74
     0
 49
1.27
 74
     0
 49
-1.27
 74
     0
  0
LTYPE
  5
41
330
5
100
AcDbSymbolTableRecord
100
AcDbLinetypeTableRecord
  2
CENTER
 70
     0
  3
Center ____ _ ____ _ ____ _ ____ _ ____ _ ____
 72
    65
 73
     4
 40
10.16
 49
6.35
 74
     0
 49
-1.27
 74
     0
 49
1.27
 74
     0
 49
-1.27
 74
     0
  0
LTYPE
  5
42
330
5
100
AcDbSymbolTableRecord
100
AcDbLinetypeTableRecord
  2
CENTERX2
 70
     0
  3
Center (2x) ________  __  ________  __  _____
 72
    65
 73
     4
 40
20.32
 49
12.7
 74
     0
 49
-2.54
 74
     0
 49
2.54
 74
     0
 49
-2.54
 74
     0
  0
LTYPE
  5
43
330
5
100
AcDbSymbolTableRecord
100
AcDbLinetypeTableRecord
  2
DOT2
 70
     0
  3
Dot (.5x) ........................................
 72
    65
 73
     2
 40
0.635
 49
0.0
 74
     0
 49
-0.635
 74
     0
  0
ENDTAB
  0
TABLE
  2
LAYER
  5
2
330
0
100
AcDbSymbolTable
 70
     5
  0
LAYER
  5
10
330
2
100
AcDbSymbolTableRecord
100
AcDbLayerTableRecord
  2
0
 70
     0
 62
     7
  6
Continuous
370
    -3
390
F
  0
LAYER
  5
44
330
2
100
AcDbSymbolTableRecord
100
AcDbLayerTableRecord
  2
FORMAT
 70
     0
 62
     7
  6
Continuous
370
    -3
390
F
  0
LAYER
  5
45
330
2
100
AcDbSymbolTableRecord
100
AcDbLayerTableRecord
  2
VERMASSUNG
 70
     0
 62
     7
  6
Continuous
370
    -3
390
F
  0
LAYER
  5
46
330
2
100
AcDbSymbolTableRecord
100
AcDbLayerTableRecord
  2
KOPF_DÜNN
 70
     0
 62
     7
  6
Continuous
370
    -3
390
F
  0
LAYER
  5
47
330
2
100
AcDbSymbolTableRecord
100
AcDbLayerTableRecord
  2
KOPF_DICK
 70
     0
 62
     7
  6
Continuous
370
    15
390
F
  0
ENDTAB
  0
TABLE
  2
STYLE
  5
3
330
0
100
AcDbSymbolTable
 70
     2
  0
STYLE
  5
11
330
3
100
AcDbSymbolTableRecord
100
AcDbTextStyleTableRecord
  2
Standard
 70
     0
 40
0.0
 41
1.0
 50
0.0
 71
     0
 42
2.0
  3
txt
  4

  0
STYLE
  5
48
330
3
100
AcDbSymbolTableRecord
100
AcDbTextStyleTableRecord
  2
SLDTEXTSTYLE0
 70
     0
 40
0.0
 41
0.7
 50
0.0
 71
     0
 42
0.2
  3
TXT
  4

  0
ENDTAB
  0
TABLE
  2
VIEW
  5
6
330
0
100
AcDbSymbolTable
 70
     0
  0
ENDTAB
  0
TABLE
  2
UCS
  5
7
330
0
100
AcDbSymbolTable
 70
     0
  0
ENDTAB
  0
TABLE
  2
APPID
  5
9
330
0
100
AcDbSymbolTable
 70
     1
  0
APPID
  5
12
330
9
100
AcDbSymbolTableRecord
100
AcDbRegAppTableRecord
  2
ACAD
 70
     0
  0
ENDTAB
  0
TABLE
  2
DIMSTYLE
  5
A
330
0
100
AcDbSymbolTable
 70
     4
100
AcDbDimStyleTable
  0
DIMSTYLE
105
27
330
A
100
AcDbSymbolTableRecord
100
AcDbDimStyleTableRecord
  2
ISO-25
 70
     0
 41
2.5
 42
0.625
 43
3.75
 44
1.25
 73
     0
 74
     0
 77
     1
 78
     8
140
2.5
141
2.5
143
0.0393700787
147
0.625
171
     3
172
     1
178
     0
271
     2
272
     2
274
     3
278
    44
283
     0
284
     8
340
11
  0
DIMSTYLE
105
19C
102
{ACAD_REACTORS
330
19B
330
1A6
330
1B0
330
1C3
330
1CF
102
}
330
A
100
AcDbSymbolTableRecord
100
AcDbDimStyleTableRecord
  2
SLDDIMSTYLE0
 70
     0
 41
3.0
 44
0.0
 45
0.000000001
 73
     0
 74
     0
 77
     1
 78
    12
 79
     3
140
2.0
147
0.5
173
     1
178
     0
271
     2
272
     3
276
     2
284
    12
340
48
  0
DIMSTYLE
105
1BB
102
{ACAD_REACTORS
330
1BA
102
}
330
A
100
AcDbSymbolTableRecord
100
AcDbDimStyleTableRecord
  2
SLDDIMSTYLE1
 70
     0
 41
3.0
 44
0.0
 73
     0
 74
     0
 77
     1
 78
    12
 79
     3
140
2.0
147
0.5
173
     1
178
     0
179
     1
272
     3
276
     2
284
    12
340
48
  0
DIMSTYLE
105
1FE
102
{ACAD_REACTORS
330
1FD
102
}
330
A
100
AcDbSymbolTableRecord
100
AcDbDimStyleTableRecord
  2
SLDDIMSTYLE2
 70
     0
 41
3.0
 44
0.0
 45
0.000000001
 73
     0
 74
     0
 77
     1
 78
    12
 79
     3
140
2.0
147
0.5
172
     1
173
     1
178
     0
271
     2
272
     3
276
     2
284
    12
289
     0
340
48
  0
ENDTAB
  0
TABLE
  2
BLOCK_RECORD
  5
1
330
0
100
AcDbSymbolTable
 70
     9
  0
BLOCK_RECORD
  5
1F
330
1
100
AcDbSymbolTableRecord
100
AcDbBlockTableRecord
  2
*Model_Space
340
22
  0
BLOCK_RECORD
  5
1B
330
1
100
AcDbSymbolTableRecord
100
AcDbBlockTableRecord
  2
*Paper_Space
340
1E
  0
BLOCK_RECORD
  5
23
330
1
100
AcDbSymbolTableRecord
100
AcDbBlockTableRecord
  2
*Paper_Space0
340
26
  0
BLOCK_RECORD
  5
19D
330
1
100
AcDbSymbolTableRecord
100
AcDbBlockTableRecord
  2
_D
340
0
  0
BLOCK_RECORD
  5
1A7
330
1
100
AcDbSymbolTableRecord
100
AcDbBlockTableRecord
  2
_D_1
340
0
  0
BLOCK_RECORD
  5
1B1
330
1
100
AcDbSymbolTableRecord
100
AcDbBlockTableRecord
  2
_D_2
340
0
  0
BLOCK_RECORD
  5
1BC
330
1
100
AcDbSymbolTableRecord
100
AcDbBlockTableRecord
  2
_D_3
340
0
  0
BLOCK_RECORD
  5
1C4
330
1
100
AcDbSymbolTableRecord
100
AcDbBlockTableRecord
  2
_D_4
340
0
  0
BLOCK_RECORD
  5
1D0
330
1
100
AcDbSymbolTableRecord
100
AcDbBlockTableRecord
  2
_D_5
340
0
  0
BLOCK_RECORD
  5
1FF
330
1
100
AcDbSymbolTableRecord
100
AcDbBlockTableRecord
  2
_D_6
340
0
  0
BLOCK_RECORD
  5
20C
330
1
100
AcDbSymbolTableRecord
100
AcDbBlockTableRecord
  2
SW_CENTERMARKSYMBOL_0
340
0
102
{BLKREFS
331
217
102
}
  0
ENDTAB
  0
ENDSEC
  0
SECTION
  2
BLOCKS
  0
BLOCK
  5
20
330
1F
100
AcDbEntity
  8
0
100
AcDbBlockBegin
  2
*Model_Space
 70
     0
 10
0.0
 20
0.0
 30
0.0
  3
*Model_Space
  1

  0
ENDBLK
  5
21
330
1F
100
AcDbEntity
  8
0
100
AcDbBlockEnd
  0
BLOCK
  5
1C
330
1B
100
AcDbEntity
 67
     1
  8
0
100
AcDbBlockBegin
  2
*Paper_Space
 70
     0
 10
0.0
 20
0.0
 30
0.0
  3
*Paper_Space
  1

  0
ENDBLK
  5
1D
330
1B
100
AcDbEntity
 67
     1
  8
0
100
AcDbBlockEnd
  0
BLOCK
  5
24
330
23
100
AcDbEntity
  8
0
100
AcDbBlockBegin
  2
*Paper_Space0
 70
     0
 10
0.0
 20
0.0
 30
0.0
  3
*Paper_Space0
  1

  0
ENDBLK
  5
25
330
23
100
AcDbEntity
  8
0
100
AcDbBlockEnd
  0
BLOCK
  5
19E
330
19D
100
AcDbEntity
  8
0
100
AcDbBlockBegin
  2
_D
 70
     0
 10
0.0
 20
0.0
 30
0.0
  3
_D
  1

  0
SOLID
  5
1A0
330
19D
100
AcDbEntity
  8
VERMASSUNG
100
AcDbTrace
 10
83.0337382488
 20
181.1978148649
 30
0.0
 11
86.0337382488
 21
180.7478148649
 31
0.0
 12
86.0337382488
 22
181.6478148649
 32
0.0
 13
86.0337382488
 23
181.6478148649
 33
0.0
  0
SOLID
  5
1A1
330
19D
100
AcDbEntity
  8
VERMASSUNG
100
AcDbTrace
 10
263.0337382488
 20
181.1978148649
 30
0.0
 11
260.0337382488
 21
181.6478148649
 31
0.0
 12
260.0337382488
 22
180.7478148649
 32
0.0
 13
260.0337382488
 23
180.7478148649
 33
0.0
  0
LINE
  5
1A2
330
19D
100
AcDbEntity
  8
VERMASSUNG
100
AcDbLine
 10
83.0337382488
 20
170.6978148649
 30
0.0
 11
83.0337382488
 21
182.1978148649
 31
0.0
  0
LINE
  5
1A3
330
19D
100
AcDbEntity
  8
VERMASSUNG
100
AcDbLine
 10
263.0337382488
 20
166.6978148649
 30
0.0
 11
263.0337382488
 21
182.1978148649
 31
0.0
  0
LINE
  5
1A4
330
19D
100
AcDbEntity
  8
VERMASSUNG
100
AcDbLine
 10
83.0337382488
 20
181.1978148649
 30
0.0
 11
263.0337382488
 21
181.1978148649
 31
0.0
  0
MTEXT
  5
1A5
330
19D
100
AcDbEntity
  8
VERMASSUNG
100
AcDbMText
 10
170.2337381158
 20
183.7759502281
 30
0.1
 40
2.0
 41
0.0
 71
     1
 72
     1
  1
180
  7
SLDTEXTSTYLE0
 73
     1
 44
1.0
  0
ENDBLK
  5
19F
330
19D
100
AcDbEntity
  8
0
100
AcDbBlockEnd
  0
BLOCK
  5
1A8
330
1A7
100
AcDbEntity
  8
0
100
AcDbBlockBegin
  2
_D_1
 70
     0
 10
0.0
 20
0.0
 30
0.0
  3
_D_1
  1

  0
SOLID
  5
1AA
330
1A7
100
AcDbEntity
  8
VERMASSUNG
100
AcDbTrace
 10
263.0337382488
 20
193.1978148649
 30
0.0
 11
260.0337382488
 21
193.6478148649
 31
0.0
 12
260.0337382488
 22
192.7478148649
 32
0.0
 13
260.0337382488
 23
192.7478148649
 33
0.0
  0
SOLID
  5
1AB
330
1A7
100
AcDbEntity
  8
VERMASSUNG
100
AcDbTrace
 10
45.0337382488
 20
193.1978148649
 30
0.0
 11
48.0337382488
 21
192.7478148649
 31
0.0
 12
48.0337382488
 22
193.6478148649
 32
0.0
 13
48.0337382488
 23
193.6478148649
 33
0.0
  0
LINE
  5
1AC
330
1A7
100
AcDbEntity
  8
VERMASSUNG
100
AcDbLine
 10
263.0337382488
 20
166.6978148649
 30
0.0
 11
263.0337382488
 21
194.1978148649
 31
0.0
  0
LINE
  5
1AD
330
1A7
100
AcDbEntity
  8
VERMASSUNG
100
AcDbLine
 10
45.0337382488
 20
159.9901528574
 30
0.0
 11
45.0337382488
 21
194.1978148649
 31
0.0
  0
LINE
  5
1AE
330
1A7
100
AcDbEntity
  8
VERMASSUNG
100
AcDbLine
 10
263.0337382488
 20
193.1978148649
 30
0.0
 11
45.0337382488
 21
193.1978148649
 31
0.0
  0
MTEXT
  5
1AF
330
1A7
100
AcDbEntity
  8
VERMASSUNG
100
AcDbMText
 10
151.2337381158
 20
195.7759502281
 30
0.1
 40
2.0
 41
0.0
 71
     1
 72
     1
  1
218
  7
SLDTEXTSTYLE0
 73
     1
 44
1.0
  0
ENDBLK
  5
1A9
330
1A7
100
AcDbEntity
  8
0
100
AcDbBlockEnd
  0
BLOCK
  5
1B2
330
1B1
100
AcDbEntity
  8
0
100
AcDbBlockBegin
  2
_D_2
 70
     0
 10
0.0
 20
0.0
 30
0.0
  3
_D_2
  1

  0
SOLID
  5
1B4
330
1B1
100
AcDbEntity
  8
VERMASSUNG
100
AcDbTrace
 10
280.3584016892
 20
166.6978148649
 30
0.0
 11
279.9084016892
 21
163.6978148649
 31
0.0
 12
280.8084016892
 22
163.6978148649
 32
0.0
 13
280.8084016892
 23
163.6978148649
 33
0.0
  0
SOLID
  5
1B5
330
1B1
100
AcDbEntity
  8
VERMASSUNG
100
AcDbTrace
 10
280.3584016892
 20
139.6978148649
 30
0.0
 11
280.8084016892
 21
142.6978148649
 31
0.0
 12
279.9084016892
 22
142.6978148649
 32
0.0
 13
279.9084016892
 23
142.6978148649
 33
0.0
  0
LINE
  5
1B6
330
1B1
100
AcDbEntity
  8
VERMASSUNG
100
AcDbLine
 10
263.0337382488
 20
166.6978148649
 30
0.0
 11
281.3584016892
 21
166.6978148649
 31
0.0
  0
LINE
  5
1B7
330
1B1
100
AcDbEntity
  8
VERMASSUNG
100
AcDbLine
 10
263.0337382488
 20
139.6978148649
 30
0.0
 11
281.3584016892
 21
139.6978148649
 31
0.0
  0
LINE
  5
1B8
330
1B1
100
AcDbEntity
  8
VERMASSUNG
100
AcDbLine
 10
280.3584016892
 20
166.6978148649
 30
0.0
 11
280.3584016892
 21
139.6978148649
 31
0.0
  0
MTEXT
  5
1B9
330
1B1
100
AcDbEntity
  8
VERMASSUNG
100
AcDbMText
 10
277.780266326
 20
150.8978148139
 30
0.1
 40
2.0
 41
0.0
 71
     1
 72
     1
  1
27
  7
SLDTEXTSTYLE0
 11
-7.044195017643634E-15
 21
1.0
 31
0.0
 73
     1
 44
1.0
  0
ENDBLK
  5
1B3
330
1B1
100
AcDbEntity
  8
0
100
AcDbBlockEnd
  0
BLOCK
  5
1BD
330
1BC
100
AcDbEntity
  8
0
100
AcDbBlockBegin
  2
_D_3
 70
     0
 10
0.0
 20
0.0
 30
0.0
  3
_D_3
  1

  0
ARC
  5
1BF
330
1BC
100
AcDbEntity
  8
VERMASSUNG
100
AcDbCircle
 10
263.0702616492
 20
166.6978148649
 30
0.0
 40
9.89065154407973
100
AcDbArc
 50
264.9878526278
 51
0.0
  0
SOLID
  5
1C0
330
1BC
100
AcDbEntity
  8
VERMASSUNG
100
AcDbTrace
 10
262.2061456332
 20
156.8449832173
 30
0.0
 11
265.2276690274
 21
156.5749899233
 31
0.0
 12
265.173908084
 22
157.4733828
 32
0.0
 13
265.173908084
 23
157.4733828
 33
0.0
  0
SOLID
  5
1C1
330
1BC
100
AcDbEntity
  8
VERMASSUNG
100
AcDbTrace
 10
272.9609131933
 20
166.6978148649
 30
0.0
 11
272.0756321456
 21
163.7963019033
 31
0.0
 12
272.9658928161
 22
163.6642566896
 32
0.0
 13
272.9658928161
 23
163.6642566896
 33
0.0
  0
MTEXT
  5
1C2
330
1BC
100
AcDbEntity
  8
VERMASSUNG
100
AcDbMText
 10
265.8716423346
 20
159.3469536713
 30
0.1
 40
2.0
 41
0.0
 71
     1
 72
     1
  1
95°
  7
SLDTEXTSTYLE0
 11
0.7373489491615077
 21
0.6755120481312086
 31
0.0
 73
     1
 44
1.0
  0
ENDBLK
  5
1BE
330
1BC
100
AcDbEntity
  8
0
100
AcDbBlockEnd
  0
BLOCK
  5
1C5
330
1C4
100
AcDbEntity
  8
0
100
AcDbBlockBegin
  2
_D_4
 70
     0
 10
0.0
 20
0.0
 30
0.0
  3
_D_4
  1

  0
SOLID
  5
1C7
330
1C4
100
AcDbEntity
  8
VERMASSUNG
100
AcDbTrace
 10
35.0337382488
 20
171.1978148649
 30
0.0
 11
34.5837382488
 21
168.1978148649
 31
0.0
 12
35.4837382488
 22
168.1978148649
 32
0.0
 13
35.4837382488
 23
168.1978148649
 33
0.0
  0
SOLID
  5
1C8
330
1C4
100
AcDbEntity
  8
VERMASSUNG
100
AcDbTrace
 10
35.0337382488
 20
108.1978148649
 30
0.0
 11
35.4837382488
 21
111.1978148649
 31
0.0
 12
34.5837382488
 22
111.1978148649
 32
0.0
 13
34.5837382488
 23
111.1978148649
 33
0.0
  0
LINE
  5
1C9
330
1C4
100
AcDbEntity
  8
VERMASSUNG
100
AcDbLine
 10
83.5337382488
 20
171.1978148649
 30
0.0
 11
34.0337382488
 21
171.1978148649
 31
0.0
  0
LINE
  5
1CA
330
1C4
100
AcDbEntity
  8
VERMASSUNG
100
AcDbLine
 10
83.5337382488
 20
108.1978148649
 30
0.0
 11
34.0337382488
 21
108.1978148649
 31
0.0
  0
LINE
  5
1CB
330
1C4
100
AcDbEntity
  8
VERMASSUNG
100
AcDbLine
 10
35.0337382488
 20
171.1978148649
 30
0.0
 11
35.0337382488
 21
108.1978148649
 31
0.0
  0
MTEXT
  5
1CC
330
1C4
100
AcDbEntity
  8
VERMASSUNG
100
AcDbMText
 10
32.2556027598
 20
133.2928147557
 30
0.1
 40
2.0
 41
0.0
 71
     1
 72
     1
  1
PSC
  7
SLDTEXTSTYLE0
 11
-7.044195017643634E-15
 21
1.0
 31
0.0
 73
     1
 44
1.0
  0
MTEXT
  5
1CD
330
1C4
100
AcDbEntity
  8
VERMASSUNG
100
AcDbMText
 10
32.4556027693
 20
137.8928148578
 30
0.1
 40
2.0
 41
0.0
 71
     1
 72
     1
  1
%%c
  7
SLDTEXTSTYLE0
 11
-7.044195017643634E-15
 21
1.0
 31
0.0
 73
     1
 44
1.0
  0
MTEXT
  5
1CE
330
1C4
100
AcDbEntity
  8
VERMASSUNG
100
AcDbMText
 10
32.2556027598
 20
141.5028153378
 30
0.1
 40
2.0
 41
0.0
 71
     1
 72
     1
  1
63
  7
SLDTEXTSTYLE0
 11
-7.044195017643634E-15
 21
1.0
 31
0.0
 73
     1
 44
1.0
  0
ENDBLK
  5
1C6
330
1C4
100
AcDbEntity
  8
0
100
AcDbBlockEnd
  0
BLOCK
  5
1D1
330
1D0
100
AcDbEntity
  8
0
100
AcDbBlockBegin
  2
_D_5
 70
     0
 10
0.0
 20
0.0
 30
0.0
  3
_D_5
  1

  0
SOLID
  5
1D3
330
1D0
100
AcDbEntity
  8
VERMASSUNG
100
AcDbTrace
 10
137.5548985208
 20
159.6978148649
 30
0.0
 11
137.1048985208
 21
156.6978148649
 31
0.0
 12
138.0048985208
 22
156.6978148649
 32
0.0
 13
138.0048985208
 23
156.6978148649
 33
0.0
  0
SOLID
  5
1D4
330
1D0
100
AcDbEntity
  8
VERMASSUNG
100
AcDbTrace
 10
137.5548985208
 20
119.6978148649
 30
0.0
 11
138.0048985208
 21
122.6978148649
 31
0.0
 12
137.1048985208
 22
122.6978148649
 32
0.0
 13
137.1048985208
 23
122.6978148649
 33
0.0
  0
LINE
  5
1D5
330
1D0
100
AcDbEntity
  8
VERMASSUNG
100
AcDbLine
 10
137.5548985208
 20
159.6978148649
 30
0.0
 11
137.5548985208
 21
119.6978148649
 31
0.0
  0
MTEXT
  5
1D6
330
1D0
100
AcDbEntity
  8
VERMASSUNG
100
AcDbMText
 10
134.9767630412
 20
124.7502968994
 30
0.1
 40
2.0
 41
0.0
 71
     1
 72
     1
  1
%%c
  7
SLDTEXTSTYLE0
 11
-7.044195017643634E-15
 21
1.0
 31
0.0
 73
     1
 44
1.0
  0
MTEXT
  5
1D7
330
1D0
100
AcDbEntity
  8
VERMASSUNG
100
AcDbMText
 10
134.7767630317
 20
128.3602969137
 30
0.1
 40
2.0
 41
0.0
 71
     1
 72
     1
  1
40
  7
SLDTEXTSTYLE0
 11
-7.044195017643634E-15
 21
1.0
 31
0.0
 73
     1
 44
1.0
  0
ENDBLK
  5
1D2
330
1D0
100
AcDbEntity
  8
0
100
AcDbBlockEnd
  0
BLOCK
  5
200
330
1FF
100
AcDbEntity
  8
0
100
AcDbBlockBegin
  2
_D_6
 70
     0
 10
0.0
 20
0.0
 30
0.0
  3
_D_6
  1

  0
SOLID
  5
202
330
1FF
100
AcDbEntity
  8
VERMASSUNG
100
AcDbTrace
 10
201.9874412893
 20
45.9638963243
 30
0.0
 11
203.7905635813
 21
43.5243779292
 31
0.0
 12
204.4269596844
 22
44.1607740322
 32
0.0
 13
204.4269596844
 23
44.1607740322
 33
0.0
  0
SOLID
  5
203
330
1FF
100
AcDbEntity
  8
VERMASSUNG
100
AcDbTrace
 10
166.63210223
 20
81.3192353836
 30
0.0
 11
164.8289799379
 21
83.7587537787
 31
0.0
 12
164.1925838349
 22
83.1223576756
 32
0.0
 13
164.1925838349
 23
83.1223576756
 33
0.0
  0
LINE
  5
204
330
1FF
100
AcDbEntity
  8
VERMASSUNG
100
AcDbLine
 10
201.9874412893
 20
45.9638963243
 30
0.0
 11
202.6945480705
 21
46.6710031055
 31
0.0
  0
LINE
  5
205
330
1FF
100
AcDbEntity
  8
VERMASSUNG
100
AcDbLine
 10
166.63210223
 20
81.3192353836
 30
0.0
 11
167.3392090112
 21
82.0263421648
 31
0.0
  0
LINE
  5
206
330
1FF
100
AcDbEntity
  8
VERMASSUNG
100
AcDbLine
 10
201.9874412893
 20
45.9638963243
 30
0.0
 11
206.2300819764
 21
41.7212556371
 31
0.0
  0
LINE
  5
207
330
1FF
100
AcDbEntity
  8
VERMASSUNG
100
AcDbLine
 10
201.9874412893
 20
45.9638963243
 30
0.0
 11
166.63210223
 21
81.3192353836
 31
0.0
  0
LINE
  5
208
330
1FF
100
AcDbEntity
  8
VERMASSUNG
100
AcDbLine
 10
166.63210223
 20
81.3192353836
 30
0.0
 11
152.3663476053
 21
95.5849900083
 31
0.0
  0
MTEXT
  5
209
330
1FF
100
AcDbEntity
  8
VERMASSUNG
100
AcDbMText
 10
154.1893646857
 20
97.4080070887
 30
0.1
 40
2.0
 41
0.0
 71
     1
 72
     1
  1
%%c
  7
SLDTEXTSTYLE0
 11
0.7071067811865469
 21
-0.7071067811865481
 31
0.0
 73
     1
 44
1.0
  0
MTEXT
  5
20A
330
1FF
100
AcDbEntity
  8
VERMASSUNG
100
AcDbMText
 10
156.8834415388
 20
94.9967729614
 30
0.1
 40
2.0
 41
0.0
 71
     1
 72
     1
  1
50
  7
SLDTEXTSTYLE0
 11
0.7071067811865469
 21
-0.7071067811865481
 31
0.0
 73
     1
 44
1.0
  0
MTEXT
  5
20B
330
1FF
100
AcDbEntity
  8
VERMASSUNG
100
AcDbMText
 10
160.9758224364
 20
90.9043920639
 30
0.1
 40
2.0
 41
0.0
 71
     1
 72
     1
  1
min.
  7
SLDTEXTSTYLE0
 11
0.7071067811865469
 21
-0.7071067811865481
 31
0.0
 73
     1
 44
1.0
  0
ENDBLK
  5
201
330
1FF
100
AcDbEntity
  8
0
100
AcDbBlockEnd
  0
BLOCK
  5
20D
330
20C
100
AcDbEntity
  8
0
100
AcDbBlockBegin
  2
SW_CENTERMARKSYMBOL_0
 70
     0
 10
0.0
 20
0.0
 30
0.0
  3
SW_CENTERMARKSYMBOL_0
  1

  0
LINE
  5
20F
330
20C
100
AcDbEntity
  8
VERMASSUNG
 62
     0
100
AcDbLine
 10
0.0
 20
0.0
 30
0.0
 11
0.0
 21
2.5
 31
0.0
  0
LINE
  5
210
330
20C
100
AcDbEntity
  8
VERMASSUNG
 62
     0
100
AcDbLine
 10
0.0
 20
0.0
 30
0.0
 11
-2.5
 21
0.0
 31
0.0
  0
LINE
  5
211
330
20C
100
AcDbEntity
  8
VERMASSUNG
 62
     0
100
AcDbLine
 10
0.0
 20
0.0
 30
0.0
 11
0.0
 21
-2.5
 31
0.0
  0
LINE
  5
212
330
20C
100
AcDbEntity
  8
VERMASSUNG
 62
     0
100
AcDbLine
 10
0.0
 20
0.0
 30
0.0
 11
2.5
 21
0.0
 31
0.0
  0
LINE
  5
213
330
20C
100
AcDbEntity
  8
VERMASSUNG
 62
     0
100
AcDbLine
 10
0.0
 20
5.0
 30
0.0
 11
0.0
 21
34.0
 31
0.0
  0
LINE
  5
214
330
20C
100
AcDbEntity
  8
VERMASSUNG
 62
     0
100
AcDbLine
 10
-5.0
 20
0.0
 30
0.0
 11
-34.0
 21
0.0
 31
0.0
  0
LINE
  5
215
330
20C
100
AcDbEntity
  8
VERMASSUNG
 62
     0
100
AcDbLine
 10
0.0
 20
-5.0
 30
0.0
 11
0.0
 21
-34.0
 31
0.0
  0
LINE
  5
216
330
20C
100
AcDbEntity
  8
VERMASSUNG
 62
     0
100
AcDbLine
 10
5.0
 20
0.0
 30
0.0
 11
34.0
 21
0.0
 31
0.0
  0
ENDBLK
  5
20E
330
20C
100
AcDbEntity
  8
0
100
AcDbBlockEnd
  0
ENDSEC
  0
SECTION
  2
ENTITIES
  0
MTEXT
  5
49
330
1F
100
AcDbEntity
  8
KOPF_DÜNN
100
AcDbMText
 10
13.8892156294
 20
23.8442973028
 30
0.0
 40
3.0
 41
0.0
 71
     1
 72
     1
  1
PS6.BCC.RLC.180
  7
SLDTEXTSTYLE0
 73
     1
 44
1.0
  0
MTEXT
  5
4A
330
1F
100
AcDbEntity
  8
VERMASSUNG
100
AcDbMText
 10
13.9329988022
 20
28.8834360957
 30
0.0
 40
3.0
 41
0.0
 71
     1
 72
     1
  1
Bohrstange_Boring bar
  7
SLDTEXTSTYLE0
 73
     1
 44
1.0
  0
MTEXT
  5
4B
330
1F
100
AcDbEntity
  8
VERMASSUNG
100
AcDbMText
 10
98.8601118557
 20
13.8365368179
 30
0.0
 40
2.0
 41
0.0
 71
     1
 72
     1
  1
Datum: 04.06.2012
  7
SLDTEXTSTYLE0
 73
     1
 44
1.0
  0
MTEXT
  5
4C
330
1F
100
AcDbEntity
  8
VERMASSUNG
100
AcDbMText
 10
13.933048693
 20
18.0482802738
 30
0.0
 40
2.0
 41
0.0
 71
     1
 72
     1
  1
PSC ø63 / Wp.: CC..12 04..
  7
SLDTEXTSTYLE0
 73
     1
 44
1.0
  0
MTEXT
  5
4D
330
1F
100
AcDbEntity
  8
VERMASSUNG
100
AcDbMText
 10
13.9808475933
 20
13.9090973692
 30
0.0
 40
2.0
 41
0.0
 71
     1
 72
     1
  1
Gewicht: 2060g
  7
SLDTEXTSTYLE0
 73
     1
 44
1.0
  0
ARC
  5
4E
330
1F
100
AcDbEntity
  8
0
  6
Continuous
 62
     7
370
    15
100
AcDbCircle
 10
83.5337382488
 20
108.6978148649
 30
0.0
 40
0.5000000000000284
100
AcDbArc
 50
180.0
 51
270.0
  0
ARC
  5
4F
330
1F
100
AcDbEntity
  8
0
  6
Continuous
 62
     7
370
    15
100
AcDbCircle
 10
83.5337382488
 20
170.6978148649
 30
0.0
 40
0.5000000000000284
100
AcDbArc
 50
90.0
 51
180.0
  0
ARC
  5
50
330
1F
100
AcDbEntity
  8
0
  6
Continuous
 62
     7
370
    15
100
AcDbCircle
 10
104.0337382488
 20
109.1978148649
 30
0.0
 40
1.000000000000028
100
AcDbArc
 50
270.0
 51
360.0
  0
ARC
  5
51
330
1F
100
AcDbEntity
  8
0
  6
Continuous
 62
     7
370
    15
100
AcDbCircle
 10
104.0337382488
 20
170.1978148649
 30
0.0
 40
1.000000000000028
100
AcDbArc
 50
0.0
 51
90.0
  0
LINE
  5
52
330
1F
100
AcDbEntity
  8
0
  6
Continuous
 62
     7
370
    15
100
AcDbLine
 10
83.5337382488
 20
108.1978148649
 30
0.0
 11
104.0337382488
 21
108.1978148649
 31
0.0
  0
LINE
  5
53
330
1F
100
AcDbEntity
  8
0
  6
Continuous
 62
     7
370
    15
100
AcDbLine
 10
104.0337382488
 20
171.1978148649
 30
0.0
 11
83.5337382488
 21
171.1978148649
 31
0.0
  0
LWPOLYLINE
  5
54
330
1F
100
AcDbEntity
  8
0
  6
Continuous
 62
     7
370
    15
100
AcDbPolyline
 90
        3
 70
   128
 43
0.0
 10
82.8337382488
 20
117.1579945861
 10
82.9591931923
 20
117.0896924711
 10
83.0337382488
 20
117.036954713
  0
LWPOLYLINE
  5
55
330
1F
100
AcDbEntity
  8
0
  6
Continuous
 62
     7
370
    15
100
AcDbPolyline
 90
        3
 70
   128
 43
0.0
 10
83.0337382488
 20
162.3586750169
 10
82.9591931923
 20
162.3059372588
 10
82.8337382488
 20
162.2376351438
  0
ARC
  5
56
330
1F
100
AcDbEntity
  8
0
  6
Continuous
 62
     7
370
    15
100
AcDbCircle
 10
109.0337382488
 20
115.6978148649
 30
0.0
 40
4.0
100
AcDbArc
 50
90.0
 51
180.0
  0
ARC
  5
57
330
1F
100
AcDbEntity
  8
0
  6
Continuous
 62
     7
370
    15
100
AcDbCircle
 10
109.0337382488
 20
163.6978148649
 30
0.0
 40
4.0
100
AcDbArc
 50
180.0
 51
270.0
  0
LINE
  5
58
330
1F
100
AcDbEntity
  8
0
  6
Continuous
 62
     7
370
    15
100
AcDbLine
 10
237.0337382488
 20
159.6978148649
 30
0.0
 11
109.0337382488
 21
159.6978148649
 31
0.0
  0
LINE
  5
59
330
1F
100
AcDbEntity
  8
0
  6
Continuous
 62
     7
370
    15
100
AcDbLine
 10
109.0337382488
 20
119.6978148649
 30
0.0
 11
237.0337382488
 21
119.6978148649
 31
0.0
  0
LINE
  5
5A
330
1F
100
AcDbEntity
  8
0
  6
Continuous
 62
     7
370
    15
100
AcDbLine
 10
237.5337382488
 20
119.1978148649
 30
0.0
 11
239.2061148175
 21
119.1978148649
 31
0.0
  0
LINE
  5
5B
330
1F
100
AcDbEntity
  8
0
  6
Continuous
 62
     7
370
    15
100
AcDbLine
 10
238.0471243629
 20
160.7112009791
 30
0.0
 11
237.0337382488
 21
159.6978148649
 31
0.0
  0
LINE
  5
5C
330
1F
100
AcDbEntity
  8
0
  6
Continuous
 62
     7
370
    15
100
AcDbLine
 10
237.0337382488
 20
119.6978148649
 30
0.0
 11
237.5337382488
 21
119.1978148649
 31
0.0
  0
LINE
  5
5D
330
1F
100
AcDbEntity
  8
0
  6
Continuous
 62
     7
370
    15
100
AcDbLine
 10
254.6707719467
 20
159.5925656812
 30
0.0
 11
254.6707719467
 21
159.7041744484
 31
0.0
  0
LINE
  5
5E
330
1F
100
AcDbEntity
  8
0
  6
Continuous
 62
     7
370
    15
100
AcDbLine
 10
257.5090289867
 20
159.815626767
 30
0.0
 11
257.5090289867
 21
159.7039826687
 31
0.0
  0
LINE
  5
5F
330
1F
100
AcDbEntity
  8
0
  6
Continuous
 62
     7
370
    15
100
AcDbLine
 10
252.5883641864
 20
159.7344811478
 30
0.0
 11
252.5883641864
 21
159.7205298531
 31
0.0
  0
LINE
  5
60
330
1F
100
AcDbEntity
  8
0
  6
Continuous
 62
     7
370
    15
100
AcDbLine
 10
259.5883641864
 20
159.7205298531
 30
0.0
 11
259.5883641864
 21
159.7344811478
 31
0.0
  0
LINE
  5
61
330
1F
100
AcDbEntity
  8
0
  6
Continuous
 62
     7
370
    15
100
AcDbLine
 10
83.0337382488
 20
108.6978148649
 30
0.0
 11
83.0337382488
 21
170.697707904
 31
0.0
  0
LINE
  5
62
330
1F
100
AcDbEntity
  8
0
  6
Continuous
 62
     7
370
    15
100
AcDbLine
 10
105.0337382488
 20
170.1978148429
 30
0.0
 11
105.0337382488
 21
109.1978148649
 31
0.0
  0
SPLINE
  5
63
330
1F
100
AcDbEntity
  8
0
  6
Continuous
 62
     7
370
    15
100
AcDbSpline
210
0.0
220
0.0
230
1.0
 70
     8
 71
     3
 72
    12
 73
     8
 74
     0
 42
0.00000001
 43
0.00000001
 12
1.0
 22
0.0
 32
0.0
 13
1.0
 23
0.0
 33
0.0
 40
0.0
 40
0.0
 40
0.0
 40
0.0
 40
0.2500000000000004
 40
0.2500000000000004
 40
0.5000000000000009
 40
0.5000000000000009
 40
1.0
 40
1.0
 40
1.0
 40
1.0
 10
93.56149506236345
 20
149.0858812962846
 30
0.0
 10
93.49841502387008
 20
149.0858812962846
 30
0.0
 10
93.4392664016887
 20
149.1112456154996
 30
0.0
 10
93.34079385161964
 20
149.1854104758725
 30
0.0
 10
93.30175723963491
 20
149.2319308164266
 30
0.0
 10
93.20186077285591
 20
149.3820731592719
 30
0.0
 10
93.15943989178916
 20
149.493766366244
 30
0.0
 10
93.12848236047124
 20
149.6071841856338
 30
0.0
  0
LINE
  5
64
330
1F
100
AcDbEntity
  8
0
  6
Continuous
 62
     7
370
    15
100
AcDbLine
 10
96.5059814352
 20
149.0858812963
 30
0.0
 11
93.5614950624
 21
149.0858812963
 31
0.0
  0
SPLINE
  5
65
330
1F
100
AcDbEntity
  8
0
  6
Continuous
 62
     7
370
    15
100
AcDbSpline
210
0.0
220
0.0
230
1.0
 70
     8
 71
     3
 72
    12
 73
     8
 74
     0
 42
0.00000001
 43
0.00000001
 12
1.0
 22
0.0
 32
0.0
 13
1.0
 23
0.0
 33
0.0
 40
0.0
 40
0.0
 40
0.0
 40
0.0
 40
0.5000000000000018
 40
0.5000000000000018
 40
0.7500000000000009
 40
0.7500000000000009
 40
1.0
 40
1.0
 40
1.0
 40
1.0
 10
96.93899413712275
 20
149.6071841856337
 30
0.0
 10
96.9082718952037
 20
149.4946283862246
 30
0.0
 10
96.86543468066843
 20
149.381870526485
 30
0.0
 10
96.7660076564687
 20
149.2323296406886
 30
0.0
 10
96.72625546165202
 20
149.1850369089818
 30
0.0
 10
96.62821400479379
 20
149.1113006156604
 30
0.0
 10
96.56865794920638
 20
149.0858812962846
 30
0.0
 10
96.50598143523055
 20
149.0858812962846
 30
0.0
  0
ELLIPSE
  5
66
330
1F
100
AcDbEntity
  8
0
  6
Continuous
 62
     7
370
    15
100
AcDbEllipse
 10
80.6865840594
 20
139.6978148649
 30
0.0
 11
14.75368316065603
 21
31.09325491558118
 31
0.0
210
0.0
220
0.0
230
1.0
 40
0.3419987131
 41
5.193281737408618
 42
6.124043104552324
  0
SPLINE
  5
67
330
1F
100
AcDbEntity
  8
0
  6
Continuous
 62
     7
370
    15
100
AcDbSpline
210
0.0
220
0.0
230
1.0
 70
     8
 71
     3
 72
    12
 73
     8
 74
     0
 42
0.00000001
 43
0.00000001
 12
1.0
 22
0.0
 32
0.0
 13
1.0
 23
0.0
 33
0.0
 40
0.0
 40
0.0
 40
0.0
 40
0.0
 40
0.2500000000000005
 40
0.2500000000000005
 40
0.500000000000001
 40
0.500000000000001
 40
1.0
 40
1.0
 40
1.0
 40
1.0
 10
96.50598143523055
 20
169.7663068238219
 30
0.0
 10
96.5690614737239
 20
169.7663068238218
 30
0.0
 10
96.62821009590526
 20
169.7584008976093
 30
0.0
 10
96.72668264597436
 20
169.7350757361731
 30
0.0
 10
96.76571925795905
 20
169.7203629463414
 30
0.0
 10
96.86561572473815
 20
169.6724071456105
 30
0.0
 10
96.90803660580472
 20
169.6361449890304
 30
0.0
 10
96.93899413712275
 20
169.5985573250659
 30
0.0
  0
LINE
  5
68
330
1F
100
AcDbEntity
  8
0
  6
Continuous
 62
     7
370
    15
100
AcDbLine
 10
93.5614950624
 20
169.7663068238
 30
0.0
 11
96.5059814352
 21
169.7663068238
 31
0.0
  0
SPLINE
  5
69
330
1F
100
AcDbEntity
  8
0
  6
Continuous
 62
     7
370
    15
100
AcDbSpline
210
0.0
220
0.0
230
1.0
 70
     8
 71
     3
 72
    12
 73
     8
 74
     0
 42
0.00000001
 43
0.00000001
 12
1.0
 22
0.0
 32
0.0
 13
1.0
 23
0.0
 33
0.0
 40
0.0
 40
0.0
 40
0.0
 40
0.0
 40
0.5000000000000018
 40
0.5000000000000018
 40
0.7500000000000009
 40
0.7500000000000009
 40
1.0
 40
1.0
 40
1.0
 40
1.0
 10
93.12848236047125
 20
169.5985573250659
 30
0.0
 10
93.15920460239039
 20
169.635859308019
 30
0.0
 10
93.20204181692547
 20
169.6724711400653
 30
0.0
 10
93.30146884112534
 20
169.7202359233505
 30
0.0
 10
93.34122103594196
 20
169.7351934388329
 30
0.0
 10
93.43926249280018
 20
169.758383384602
 30
0.0
 10
93.49881854838762
 20
169.7663068238219
 30
0.0
 10
93.56149506236345
 20
169.7663068238218
 30
0.0
  0
ELLIPSE
  5
6A
330
1F
100
AcDbEntity
  8
0
  6
Continuous
 62
     7
370
    15
100
AcDbEllipse
 10
109.3808924382
 20
139.6978148649
 30
0.0
 11
-14.75368316065603
 21
31.09325491558118
 31
0.0
210
0.0
220
0.0
230
1.0
 40
0.3419987131
 41
0.1591422026273042
 42
1.089903569770979
  0
SPLINE
  5
6B
330
1F
100
AcDbEntity
  8
0
  6
Continuous
 62
     7
370
    15
100
AcDbSpline
210
0.0
220
0.0
230
1.0
 70
     8
 71
     3
 72
    12
 73
     8
 74
     0
 42
0.00000001
 43
0.00000001
 12
1.0
 22
0.0
 32
0.0
 13
1.0
 23
0.0
 33
0.0
 40
0.0
 40
0.0
 40
0.0
 40
0.0
 40
0.2500000000000014
 40
0.2500000000000014
 40
0.5000000000000028
 40
0.5000000000000028
 40
1.0
 40
1.0
 40
1.0
 40
1.0
 10
93.56149506236345
 20
109.6293229060755
 30
0.0
 10
93.49843810746563
 20
109.6293229060755
 30
0.0
 10
93.4393079577201
 20
109.6372232371552
 30
0.0
 10
93.34086040718682
 20
109.6605339851602
 30
0.0
 10
93.30182816899872
 20
109.6752391114439
 30
0.0
 10
93.20193828454184
 20
109.7231726396305
 30
0.0
 10
93.15963931093242
 20
109.7592426123952
 30
0.0
 10
93.12848236047115
 20
109.7970724048314
 30
0.0
  0
LINE
  5
6C
330
1F
100
AcDbEntity
  8
0
  6
Continuous
 62
     7
370
    15
100
AcDbLine
 10
96.5059814352
 20
109.6293229061
 30
0.0
 11
93.5614950624
 21
109.6293229061
 31
0.0
  0
SPLINE
  5
6D
330
1F
100
AcDbEntity
  8
0
  6
Continuous
 62
     7
370
    15
100
AcDbSpline
210
0.0
220
0.0
230
1.0
 70
     8
 71
     3
 72
    12
 73
     8
 74
     0
 42
0.00000001
 43
0.00000001
 12
1.0
 22
0.0
 32
0.0
 13
1.0
 23
0.0
 33
0.0
 40
0.0
 40
0.0
 40
0.0
 40
0.0
 40
0.5000000000000028
 40
0.5000000000000028
 40
0.7500000000000013
 40
0.7500000000000013
 40
1.0
 40
1.0
 40
1.0
 40
1.0
 10
96.93899413712278
 20
109.7970724048314
 30
0.0
 10
96.90784893916067
 20
109.7592568819112
 30
0.0
 10
96.86557467282614
 20
109.7231900238277
 30
0.0
 10
96.76562913900091
 20
109.6752299588164
 30
0.0
 10
96.7258988342968
 20
109.6603689849188
 30
0.0
 10
96.62901078429064
 20
109.6374178387876
 30
0.0
 10
96.56894554254411
 20
109.6293229060755
 30
0.0
 10
96.50598143523057
 20
109.6293229060755
 30
0.0
  0
ELLIPSE
  5
6E
330
1F
100
AcDbEntity
  8
0
  6
Continuous
 62
     7
370
    15
100
AcDbEllipse
 10
80.6865840594
 20
139.6978148649
 30
0.0
 11
-14.75368316065617
 21
31.09325491558119
 31
0.0
210
0.0
220
0.0
230
1.0
 40
0.3419987131
 41
3.300734856217123
 42
4.231496223360773
  0
SPLINE
  5
6F
330
1F
100
AcDbEntity
  8
0
  6
Continuous
 62
     7
370
    15
100
AcDbSpline
210
0.0
220
0.0
230
1.0
 70
     8
 71
     3
 72
    12
 73
     8
 74
     0
 42
0.00000001
 43
0.00000001
 12
1.0
 22
0.0
 32
0.0
 13
1.0
 23
0.0
 33
0.0
 40
0.0
 40
0.0
 40
0.0
 40
0.0
 40
0.2500000000000001
 40
0.2500000000000001
 40
0.5000000000000001
 40
0.5000000000000001
 40
1.0
 40
1.0
 40
1.0
 40
1.0
 10
96.50598143523055
 20
130.3097484336124
 30
0.0
 10
96.56903839012834
 20
130.3097484336124
 30
0.0
 10
96.62816853987388
 20
130.2844020802317
 30
0.0
 10
96.72661609040718
 20
130.2102826980922
 30
0.0
 10
96.76564832859522
 20
130.1637861833943
 30
0.0
 10
96.86553821305225
 20
130.0137116763857
 30
0.0
 10
96.90783718666157
 20
129.9025939672708
 30
0.0
 10
96.93899413712283
 20
129.7884455442634
 30
0.0
  0
LINE
  5
70
330
1F
100
AcDbEntity
  8
0
  6
Continuous
 62
     7
370
    15
100
AcDbLine
 10
93.5614950624
 20
130.3097484336
 30
0.0
 11
96.5059814352
 21
130.3097484336
 31
0.0
  0
SPLINE
  5
71
330
1F
100
AcDbEntity
  8
0
  6
Continuous
 62
     7
370
    15
100
AcDbSpline
210
0.0
220
0.0
230
1.0
 70
     8
 71
     3
 72
    12
 73
     8
 74
     0
 42
0.00000001
 43
0.00000001
 12
1.0
 22
0.0
 32
0.0
 13
1.0
 23
0.0
 33
0.0
 40
0.0
 40
0.0
 40
0.0
 40
0.0
 40
0.5000000000000009
 40
0.5000000000000009
 40
0.7500000000000004
 40
0.7500000000000004
 40
1.0
 40
1.0
 40
1.0
 40
1.0
 10
93.12848236047122
 20
129.7884455442633
 30
0.0
 10
93.15962755843333
 20
129.9025509101286
 30
0.0
 10
93.20190182476779
 20
130.0136572373474
 30
0.0
 10
93.30184735859314
 20
130.1638148447776
 30
0.0
 10
93.34157766329714
 20
130.210807536395
 30
0.0
 10
93.4384657133034
 20
130.2837831209335
 30
0.0
 10
93.49853095504987
 20
130.3097484336125
 30
0.0
 10
93.56149506236342
 20
130.3097484336125
 30
0.0
  0
ELLIPSE
  5
72
330
1F
100
AcDbEntity
  8
0
  6
Continuous
 62
     7
370
    15
100
AcDbEllipse
 10
109.3808924382
 20
139.6978148649
 30
0.0
 11
14.75368316065618
 21
31.09325491558119
 31
0.0
210
0.0
220
0.0
230
1.0
 40
0.3419987131
 41
2.051689083818826
 42
2.982450450962504
  0
SPLINE
  5
73
330
1F
100
AcDbEntity
  8
0
  6
Continuous
 62
     7
370
    15
100
AcDbSpline
210
0.0
220
0.0
230
1.0
 70
     8
 71
     3
 72
    12
 73
     8
 74
     0
 42
0.00000001
 43
0.00000001
 12
1.0
 22
0.0
 32
0.0
 13
1.0
 23
0.0
 33
0.0
 40
0.0
 40
0.0
 40
0.0
 40
0.0
 40
0.4999999999999992
 40
0.4999999999999992
 40
0.7499999999999994
 40
0.7499999999999994
 40
1.0
 40
1.0
 40
1.0
 40
1.0
 10
82.21722596234054
 20
117.8430211624729
 30
0.0
 10
82.27366246324772
 20
117.8416032811312
 30
0.0
 10
82.34274709393642
 20
117.8400389448829
 30
0.0
 10
82.46154936565436
 20
117.8370947529084
 30
0.0
 10
82.50173464112443
 20
117.836056549811
 30
0.0
 10
82.57511568852824
 20
117.8341226545964
 30
0.0
 10
82.60852525227088
 20
117.8332277673076
 30
0.0
 10
82.63876135992733
 20
117.8324439770353
 30
0.0
  0
SPLINE
  5
74
330
1F
100
AcDbEntity
  8
0
  6
Continuous
 62
     7
370
    15
100
AcDbSpline
210
0.0
220
0.0
230
1.0
 70
     8
 71
     3
 72
    16
 73
    12
 74
     0
 42
0.00000001
 43
0.00000001
 12
1.0
 22
0.0
 32
0.0
 13
1.0
 23
0.0
 33
0.0
 40
0.0
 40
0.0
 40
0.0
 40
0.0
 40
0.0625000000000017
 40
0.0625000000000017
 40
0.1250000000000034
 40
0.1250000000000034
 40
0.250000000000005
 40
0.250000000000005
 40
0.5000000000000031
 40
0.5000000000000031
 40
1.0
 40
1.0
 40
1.0
 40
1.0
 10
82.63876135989013
 20
117.8324439770595
 30
0.0
 10
82.65034176747807
 20
117.8321437859481
 30
0.0
 10
82.66365129423934
 20
117.8308160376891
 30
0.0
 10
82.69295272432551
 20
117.8241173629142
 30
0.0
 10
82.70776682420987
 20
117.8187591798084
 30
0.0
 10
82.7435952259127
 20
117.8017135306411
 30
0.0
 10
82.75771485027573
 20
117.7902509928653
 30
0.0
 10
82.7922189943642
 20
117.7586876674931
 30
0.0
 10
82.8033235450688
 20
117.7407903684478
 30
0.0
 10
82.82949972228498
 20
117.6906289508336
 30
0.0
 10
82.833738248797
 20
117.662884538637
 30
0.0
 10
82.833738248797
 20
117.6382203767075
 30
0.0
  0
LINE
  5
75
330
1F
100
AcDbEntity
  8
0
  6
Continuous
 62
     7
370
    15
100
AcDbLine
 10
82.8337382488
 20
132.6759275392
 30
0.0
 11
82.8337382488
 21
117.1579945861
 31
0.0
  0
SPLINE
  5
76
330
1F
100
AcDbEntity
  8
0
  6
Continuous
 62
     7
370
    15
100
AcDbSpline
210
0.0
220
0.0
230
1.0
 70
     8
 71
     3
 72
    16
 73
    12
 74
     0
 42
0.00000001
 43
0.00000001
 12
1.0
 22
0.0
 32
0.0
 13
1.0
 23
0.0
 33
0.0
 40
0.0
 40
0.0
 40
0.0
 40
0.0
 40
0.4999999999999989
 40
0.4999999999999989
 40
0.7499999999999983
 40
0.7499999999999983
 40
0.874999999999998
 40
0.874999999999998
 40
0.937499999999999
 40
0.937499999999999
 40
1.0
 40
1.0
 40
1.0
 40
1.0
 10
82.833738248797
 20
132.6759275391987
 30
0.0
 10
82.833738248797
 20
132.7896200833265
 30
0.0
 10
82.82959197371905
 20
132.903940244676
 30
0.0
 10
82.80362637832555
 20
133.0769885351731
 30
0.0
 10
82.79216547294814
 20
133.1361640423348
 30
0.0
 10
82.75785373517378
 20
133.219287161803
 30
0.0
 10
82.7438289992442
 20
133.2474084779037
 30
0.0
 10
82.70780603621036
 20
133.2760242918812
 30
0.0
 10
82.69305152712066
 20
133.2818173397829
 30
0.0
 10
82.66369936597377
 20
133.2802239138459
 30
0.0
 10
82.65035949146964
 20
133.2737275105221
 30
0.0
 10
82.6387613599213
 20
133.265211764319
 30
0.0
  0
SPLINE
  5
77
330
1F
100
AcDbEntity
  8
0
  6
Continuous
 62
     7
370
    15
100
AcDbSpline
210
0.0
220
0.0
230
1.0
 70
     8
 71
     3
 72
    12
 73
     8
 74
     0
 42
0.00000001
 43
0.00000001
 12
1.0
 22
0.0
 32
0.0
 13
1.0
 23
0.0
 33
0.0
 40
0.0
 40
0.0
 40
0.0
 40
0.0
 40
0.2500000000000002
 40
0.2500000000000002
 40
0.5
 40
0.5
 40
1.0
 40
1.0
 40
1.0
 40
1.0
 10
82.63876135992838
 20
133.2652117643098
 30
0.0
 10
82.60856291848775
 20
133.2430390322648
 30
0.0
 10
82.57519556315178
 20
133.2239593763876
 30
0.0
 10
82.50204028732188
 20
133.1987863319449
 30
0.0
 10
82.46178758829794
 20
133.1932297955281
 30
0.0
 10
82.34405884502306
 20
133.2041416065148
 30
0.0
 10
82.27360039696417
 20
133.2460773619256
 30
0.0
 10
82.2172259623459
 20
133.2952891443072
 30
0.0
  0
SPLINE
  5
78
330
1F
100
AcDbEntity
  8
0
  6
Continuous
 62
     7
370
    15
100
AcDbSpline
210
0.0
220
0.0
230
1.0
 70
     8
 71
     3
 72
    12
 73
     8
 74
     0
 42
0.00000001
 43
0.00000001
 12
1.0
 22
0.0
 32
0.0
 13
1.0
 23
0.0
 33
0.0
 40
0.0
 40
0.0
 40
0.0
 40
0.0
 40
0.5000000000000008
 40
0.5000000000000008
 40
0.7500000000000003
 40
0.7500000000000003
 40
1.0
 40
1.0
 40
1.0
 40
1.0
 10
81.71241790523732
 20
134.5116405361877
 30
0.0
 10
81.75616825712177
 20
134.2911935512132
 30
0.0
 10
81.80905840824626
 20
134.0756485614076
 30
0.0
 10
81.92066995138792
 20
133.7632344848357
 30
0.0
 10
81.96322929529146
 20
133.6611550092198
 30
0.0
 10
82.06820653062887
 20
133.466714996578
 30
0.0
 10
82.12977377372344
 20
133.3716300975143
 30
0.0
 10
82.21722596234584
 20
133.2952891443071
 30
0.0
  0
SPLINE
  5
79
330
1F
100
AcDbEntity
  8
0
  6
Continuous
 62
     7
370
    15
100
AcDbSpline
210
0.0
220
0.0
230
1.0
 70
     8
 71
     3
 72
    12
 73
     8
 74
     0
 42
0.00000001
 43
0.00000001
 12
1.0
 22
0.0
 32
0.0
 13
1.0
 23
0.0
 33
0.0
 40
0.0
 40
0.0
 40
0.0
 40
0.0
 40
0.2500000000000008
 40
0.2500000000000008
 40
0.5000000000000016
 40
0.5000000000000016
 40
1.0
 40
1.0
 40
1.0
 40
1.0
 10
82.21722596234571
 20
146.1003405855903
 30
0.0
 10
82.12873255477784
 20
146.023090705482
 30
0.0
 10
82.06867451401196
 20
145.9297713815928
 30
0.0
 10
81.9628262410294
 20
145.7337383286233
 30
0.0
 10
81.92029271975193
 20
145.6314119704116
 30
0.0
 10
81.80914141292828
 20
145.3200675646357
 30
0.0
 10
81.7562105558805
 20
145.1046493114577
 30
0.0
 10
81.71241790523732
 20
144.8839891937098
 30
0.0
  0
SPLINE
  5
7A
330
1F
100
AcDbEntity
  8
0
  6
Continuous
 62
     7
370
    15
100
AcDbSpline
210
0.0
220
0.0
230
1.0
 70
     8
 71
     3
 72
    12
 73
     8
 74
     0
 42
0.00000001
 43
0.00000001
 12
1.0
 22
0.0
 32
0.0
 13
1.0
 23
0.0
 33
0.0
 40
0.0
 40
0.0
 40
0.0
 40
0.0
 40
0.4999999999999993
 40
0.4999999999999993
 40
0.7499999999999997
 40
0.7499999999999997
 40
1.0
 40
1.0
 40
1.0
 40
1.0
 10
82.2172259623458
 20
146.1003405855903
 30
0.0
 10
82.27353451064143
 20
146.1494948528341
 30
0.0
 10
82.3438091713595
 20
146.1914521714378
 30
0.0
 10
82.46184708568309
 20
146.2024118489702
 30
0.0
 10
82.502023326537
 20
146.1969030907229
 30
0.0
 10
82.57598042121495
 20
146.171345861934
 30
0.0
 10
82.60859680892635
 20
146.1525658140947
 30
0.0
 10
82.63876135992211
 20
146.130417965578
 30
0.0
  0
SPLINE
  5
7B
330
1F
100
AcDbEntity
  8
0
  6
Continuous
 62
     7
370
    15
100
AcDbSpline
210
0.0
220
0.0
230
1.0
 70
     8
 71
     3
 72
    16
 73
    12
 74
     0
 42
0.00000001
 43
0.00000001
 12
1.0
 22
0.0
 32
0.0
 13
1.0
 23
0.0
 33
0.0
 40
0.0
 40
0.0
 40
0.0
 40
0.0
 40
0.0625000000000011
 40
0.0625000000000011
 40
0.1250000000000021
 40
0.1250000000000021
 40
0.2500000000000018
 40
0.2500000000000018
 40
0.5000000000000013
 40
0.5000000000000013
 40
1.0
 40
1.0
 40
1.0
 40
1.0
 10
82.63876135989035
 20
146.1304179655234
 30
0.0
 10
82.6503742597297
 20
146.1218913759282
 30
0.0
 10
82.66372544416221
 20
146.1153911143954
 30
0.0
 10
82.69312528378138
 20
146.1138217172778
 30
0.0
 10
82.70796600833674
 20
146.1197051079085
 30
0.0
 10
82.7437992163053
 20
146.148252743959
 30
0.0
 10
82.75791242412689
 20
146.1764197632648
 30
0.0
 10
82.79240379534576
 20
146.2601740216868
 30
0.0
 10
82.80348786645615
 20
146.3178874353083
 30
0.0
 10
82.82961068425215
 20
146.4914779719541
 30
0.0
 10
82.833738248797
 20
146.606506024596
 30
0.0
 10
82.833738248797
 20
146.7197021906989
 30
0.0
  0
LINE
  5
7C
330
1F
100
AcDbEntity
  8
0
  6
Continuous
 62
     7
370
    15
100
AcDbLine
 10
82.8337382488
 20
162.2376351438
 30
0.0
 11
82.8337382488
 21
146.7197021907
 31
0.0
  0
SPLINE
  5
7D
330
1F
100
AcDbEntity
  8
0
  6
Continuous
 62
     7
370
    15
100
AcDbSpline
210
0.0
220
0.0
230
1.0
 70
     8
 71
     3
 72
    16
 73
    12
 74
     0
 42
0.00000001
 43
0.00000001
 12
1.0
 22
0.0
 32
0.0
 13
1.0
 23
0.0
 33
0.0
 40
0.0
 40
0.0
 40
0.0
 40
0.0
 40
0.5000000000000006
 40
0.5000000000000006
 40
0.7499999999999988
 40
0.7499999999999988
 40
0.8749999999999994
 40
0.8749999999999994
 40
0.9374999999999997
 40
0.9374999999999997
 40
1.0
 40
1.0
 40
1.0
 40
1.0
 10
82.833738248797
 20
161.75740935319
 30
0.0
 10
82.833738248797
 20
161.7327381971471
 30
0.0
 10
82.82957255033703
 20
161.7051563657559
 30
0.0
 10
82.80331422201209
 20
161.6548134949325
 30
0.0
 10
82.7918104402745
 20
161.6365239968706
 30
0.0
 10
82.75767968092802
 20
161.6053689658336
 30
0.0
 10
82.74325779425729
 20
161.5937295906218
 30
0.0
 10
82.7076908258195
 20
161.5768475646908
 30
0.0
 10
82.69273905752476
 20
161.5714584608831
 30
0.0
 10
82.66373523916502
 20
161.5648379649386
 30
0.0
 10
82.65031988515572
 20
161.5634853767322
 30
0.0
 10
82.63876135991913
 20
161.5631857528606
 30
0.0
  0
SPLINE
  5
7E
330
1F
100
AcDbEntity
  8
0
  6
Continuous
 62
     7
370
    15
100
AcDbSpline
210
0.0
220
0.0
230
1.0
 70
     8
 71
     3
 72
    12
 73
     8
 74
     0
 42
0.00000001
 43
0.00000001
 12
1.0
 22
0.0
 32
0.0
 13
1.0
 23
0.0
 33
0.0
 40
0.0
 40
0.0
 40
0.0
 40
0.0
 40
0.2499999999999998
 40
0.2499999999999998
 40
0.4999999999999997
 40
0.4999999999999997
 40
1.0
 40
1.0
 40
1.0
 40
1.0
 10
82.63876135992838
 20
161.5631857528623
 30
0.0
 10
82.60857358337873
 20
161.5624032154447
 30
0.0
 10
82.57521977928705
 20
161.5615098836262
 30
0.0
 10
82.50209357609108
 20
161.5595825748226
 30
0.0
 10
82.46185837306693
 20
161.5585430436099
 30
0.0
 10
82.34416674293385
 20
161.5556251602627
 30
0.0
 10
82.27378606977385
 20
161.5540295541925
 30
0.0
 10
82.21722596234324
 20
161.5526085674246
 30
0.0
  0
SPLINE
  5
7F
330
1F
100
AcDbEntity
  8
0
  6
Continuous
 62
     7
370
    15
100
AcDbSpline
210
0.0
220
0.0
230
1.0
 70
     8
 71
     3
 72
    16
 73
    12
 74
     0
 42
0.00000001
 43
0.00000001
 12
1.0
 22
0.0
 32
0.0
 13
1.0
 23
0.0
 33
0.0
 40
0.0
 40
0.0
 40
0.0
 40
0.0
 40
0.25
 40
0.25
 40
0.3750000000000001
 40
0.3750000000000001
 40
0.5
 40
0.5
 40
0.75
 40
0.75
 40
1.0
 40
1.0
 40
1.0
 40
1.0
 10
81.71241790523733
 20
144.8839891937098
 30
0.0
 10
81.55118542775286
 20
144.071579418463
 30
0.0
 10
81.43070558811323
 20
143.2315011240782
 30
0.0
 10
81.30832507079991
 20
141.9302060747155
 30
0.0
 10
81.27734741040246
 20
141.4895250391307
 30
0.0
 10
81.2357336727745
 20
140.5936853981995
 30
0.0
 10
81.2254977598417
 20
140.1470272669971
 30
0.0
 10
81.22530936278558
 20
138.8117173098572
 30
0.0
 10
81.2654540654232
 20
137.9272219365497
 30
0.0
 10
81.42960782036276
 20
136.1699720485237
 30
0.0
 10
81.55115947077232
 20
135.3241811021106
 30
0.0
 10
81.71241790523732
 20
134.5116405361877
 30
0.0
  0
LINE
  5
80
330
1F
100
AcDbEntity
  8
0
  6
Continuous
 62
     7
370
    15
100
AcDbLine
 10
80.8337382488
 20
146.1829931266
 30
0.0
 11
80.8337382488
 21
133.2126366033
 31
0.0
  0
LINE
  5
81
330
1F
100
AcDbEntity
  8
0
  6
Continuous
 62
     7
370
    15
100
AcDbLine
 10
46.5337382488
 20
145.7521254325
 30
0.0
 11
46.5337382488
 21
133.6435042974
 31
0.0
  0
LINE
  5
82
330
1F
100
AcDbEntity
  8
0
  6
Continuous
 62
     7
370
    15
100
AcDbLine
 10
45.0337382488
 20
145.3191127306
 30
0.0
 11
45.0337382488
 21
134.0765169993
 31
0.0
  0
LINE
  5
83
330
1F
100
AcDbEntity
  8
0
  6
Continuous
 62
     7
370
    15
100
AcDbLine
 10
46.5337382488
 20
145.7521254325
 30
0.0
 11
46.5337382488
 21
160.8561782612
 31
0.0
  0
LINE
  5
84
330
1F
100
AcDbEntity
  8
0
  6
Continuous
 62
     7
370
    15
100
AcDbLine
 10
46.5337382488
 20
160.8561782612
 30
0.0
 11
80.8337382488
 21
161.7179136495
 31
0.0
  0
LINE
  5
85
330
1F
100
AcDbEntity
  8
0
  6
Continuous
 62
     7
370
    15
100
AcDbLine
 10
80.8337382488
 20
146.1829931266
 30
0.0
 11
80.8337382488
 21
161.7179136495
 31
0.0
  0
ARC
  5
86
330
1F
100
AcDbEntity
  8
0
  6
Continuous
 62
     7
370
    15
100
AcDbCircle
 10
81.0336751597
 20
161.7229367606
 30
0.0
 40
0.199999999999991
100
AcDbArc
 50
181.4391666667
 51
271.4391666667
  0
LINE
  5
87
330
1F
100
AcDbEntity
  8
0
  6
Continuous
 62
     7
370
    15
100
AcDbLine
 10
46.5337382488
 20
118.5394514687
 30
0.0
 11
46.5337382488
 21
133.6435042974
 31
0.0
  0
LINE
  5
88
330
1F
100
AcDbEntity
  8
0
  6
Continuous
 62
     7
370
    15
100
AcDbLine
 10
80.8337382488
 20
117.6777160804
 30
0.0
 11
80.8337382488
 21
133.2126366033
 31
0.0
  0
LINE
  5
89
330
1F
100
AcDbEntity
  8
0
  6
Continuous
 62
     7
370
    15
100
AcDbLine
 10
46.5337382488
 20
118.5394514687
 30
0.0
 11
80.8337382488
 21
117.6777160804
 31
0.0
  0
ARC
  5
8A
330
1F
100
AcDbEntity
  8
0
  6
Continuous
 62
     7
370
    15
100
AcDbCircle
 10
81.0336751597
 20
117.6726929693
 30
0.0
 40
0.1999999999999917
100
AcDbArc
 50
88.5608333333
 51
178.5608333333
  0
LINE
  5
8B
330
1F
100
AcDbEntity
  8
0
  6
Continuous
 62
     7
370
    15
100
AcDbLine
 10
81.0386982709
 20
161.5229998497
 30
0.0
 11
82.2172259623
 21
161.5526085674
 31
0.0
  0
LINE
  5
8C
330
1F
100
AcDbEntity
  8
0
  6
Continuous
 62
     7
370
    15
100
AcDbLine
 10
81.0386982709
 20
117.8726298802
 30
0.0
 11
82.2172259623
 21
117.8430211625
 31
0.0
  0
LINE
  5
8D
330
1F
100
AcDbEntity
  8
0
  6
Continuous
 62
     7
370
    15
100
AcDbLine
 10
45.0337382488
 20
159.9901528574
 30
0.0
 11
46.5337382488
 21
160.8561782612
 31
0.0
  0
LINE
  5
8E
330
1F
100
AcDbEntity
  8
0
  6
Continuous
 62
     7
370
    15
100
AcDbLine
 10
45.0337382488
 20
145.3191127306
 30
0.0
 11
45.0337382488
 21
159.9901528574
 31
0.0
  0
LINE
  5
8F
330
1F
100
AcDbEntity
  8
0
  6
Continuous
 62
     7
370
    15
100
AcDbLine
 10
45.0337382488
 20
119.4054768724
 30
0.0
 11
46.5337382488
 21
118.5394514687
 31
0.0
  0
LINE
  5
90
330
1F
100
AcDbEntity
  8
0
  6
Continuous
 62
     7
370
    15
100
AcDbLine
 10
45.0337382488
 20
119.4054768724
 30
0.0
 11
45.0337382488
 21
134.0765169993
 31
0.0
  0
LINE
  5
91
330
1F
100
AcDbEntity
  8
0
  6
Continuous
 62
     7
370
    15
100
AcDbLine
 10
234.6377001767
 20
159.6969235444
 30
0.0
 11
237.0337382488
 21
159.6969235444
 31
0.0
  0
SPLINE
  5
92
330
1F
100
AcDbEntity
  8
0
  6
Continuous
 62
     7
370
    15
100
AcDbSpline
210
0.0
220
0.0
230
1.0
 70
     8
 71
     3
 72
    14
 73
    10
 74
     0
 42
0.00000001
 43
0.00000001
 12
1.0
 22
0.0
 32
0.0
 13
1.0
 23
0.0
 33
0.0
 40
0.0
 40
0.0
 40
0.0
 40
0.0
 40
0.25
 40
0.25
 40
0.5
 40
0.5
 40
0.75
 40
0.75
 40
1.0
 40
1.0
 40
1.0
 40
1.0
 10
228.8421452189363
 20
159.141192584544
 30
0.0
 10
229.0072680168327
 20
159.2926150518579
 30
0.0
 10
229.2669243271799
 20
159.4036841349241
 30
0.0
 10
229.9890393354277
 20
159.566780906882
 30
0.0
 10
230.4317360701935
 20
159.6146005202719
 30
0.0
 10
231.4802848360464
 20
159.6746102280475
 30
0.0
 10
232.059527172107
 20
159.6855856672697
 30
0.0
 10
233.3197800507277
 20
159.6967776434509
 30
0.0
 10
233.9704761589896
 20
159.6969235444332
 30
0.0
 10
234.6377001766709
 20
159.6969235444332
 30
0.0
  0
ELLIPSE
  5
93
330
1F
100
AcDbEntity
  8
0
  6
Continuous
 62
     7
370
    15
100
AcDbEllipse
 10
230.4580156428
 20
139.6978148649
 30
0.0
 11
-0.4025701892336144
 21
19.99971074150079
 31
0.0
210
0.0
220
0.0
230
1.0
 40
0.2671959542
 41
0.2311007905302106
 42
2.76010895845854
  0
SPLINE
  5
94
330
1F
100
AcDbEntity
  8
0
  6
Continuous
 62
     7
370
    15
100
AcDbSpline
210
0.0
220
0.0
230
1.0
 70
     8
 71
     3
 72
    16
 73
    12
 74
     0
 42
0.00000001
 43
0.00000001
 12
1.0
 22
0.0
 32
0.0
 13
1.0
 23
0.0
 33
0.0
 40
0.0
 40
0.0
 40
0.0
 40
0.0
 40
0.2499999999999999
 40
0.2499999999999999
 40
0.4999999999999999
 40
0.4999999999999999
 40
0.7499999999999998
 40
0.7499999999999998
 40
0.8749999999999999
 40
0.8749999999999999
 40
1.0
 40
1.0
 40
1.0
 40
1.0
 10
234.6377001766709
 20
119.9196144451953
 30
0.0
 10
233.9704742104896
 20
119.9196144451953
 30
0.0
 10
233.3216981791008
 20
119.9348641190905
 30
0.0
 10
232.0610555020265
 20
120.0063489673439
 30
0.0
 10
231.4823083678507
 20
120.0609842334995
 30
0.0
 10
230.4339834564945
 20
120.2344072435845
 30
0.0
 10
229.9900958177383
 20
120.3494984834088
 30
0.0
 10
229.449072859412
 20
120.5858939386347
 30
0.0
 10
229.2932042091175
 20
120.6741106378147
 30
0.0
 10
229.0313827935185
 20
120.869543721089
 30
0.0
 10
228.9247102888266
 20
120.9770677368155
 30
0.0
 10
228.8421452189363
 20
121.0957714429238
 30
0.0
  0
LINE
  5
95
330
1F
100
AcDbEntity
  8
0
  6
Continuous
 62
     7
370
    15
100
AcDbLine
 10
237.0337382488
 20
119.9196144452
 30
0.0
 11
234.6377001767
 21
119.9196144452
 31
0.0
  0
LINE
  5
96
330
1F
100
AcDbEntity
  8
0
  6
Continuous
 62
     7
370
    15
100
AcDbLine
 10
237.0337382488
 20
119.9196144452
 30
0.0
 11
237.0337382488
 21
119.6978148649
 31
0.0
  0
LINE
  5
97
330
1F
100
AcDbEntity
  8
0
  6
Continuous
 62
     7
370
    15
100
AcDbLine
 10
237.0337382488
 20
159.6978148649
 30
0.0
 11
237.0337382488
 21
159.6969235444
 31
0.0
  0
ELLIPSE
  5
98
330
1F
100
AcDbEntity
  8
0
  6
Continuous
 62
     7
370
    15
100
AcDbEllipse
 10
227.8286797607
 20
151.1690432683
 30
0.0
 11
0.1054591905750328
 21
2.77089523433898
 31
0.0
210
0.0
220
0.0
230
1.0
 40
0.2575917467
 41
0.0
 42
6.283185307179586
  0
LINE
  5
99
330
1F
100
AcDbEntity
  8
0
  6
Continuous
 62
     7
370
    15
100
AcDbLine
 10
239.665722002
 20
119.419300311
 30
0.0
 11
237.5337382488
 21
119.419300311
 31
0.0
  0
ELLIPSE
  5
9A
330
1F
100
AcDbEntity
  8
0
  6
Continuous
 62
     7
370
    15
100
AcDbEllipse
 10
253.7397502129
 20
139.6978148649
 30
0.0
 11
14.61549449049045
 21
20.47670097187941
 31
0.0
210
0.0
220
0.0
230
1.0
 40
0.0668534593
 41
3.189273956189418
 42
3.336404370142091
  0
LINE
  5
9B
330
1F
100
AcDbEntity
  8
0
  6
Continuous
 62
     7
370
    15
100
AcDbLine
 10
237.5337382488
 20
119.419300311
 30
0.0
 11
237.5337382488
 21
119.1978148649
 31
0.0
  0
ARC
  5
9C
330
1F
100
AcDbEntity
  8
0
  6
Continuous
 62
     7
370
    15
100
AcDbCircle
 10
250.3695424706
 20
154.0413971408
 30
0.0
 40
2.097312844755576
100
AcDbArc
 50
118.349648527
 51
333.0427634639
  0
LINE
  5
9D
330
1F
100
AcDbEntity
  8
0
  6
Continuous
 62
     7
370
    15
100
AcDbLine
 10
261.6113856855
 20
153.8926554978
 30
0.0
 11
261.2898589377
 21
150.2265402331
 31
0.0
  0
LINE
  5
9E
330
1F
100
AcDbEntity
  8
0
  6
Continuous
 62
     7
370
    15
100
AcDbLine
 10
261.2898589377
 20
150.2265402331
 30
0.0
 11
239.665722002
 21
119.419300311
 31
0.0
  0
LINE
  5
9F
330
1F
100
AcDbEntity
  8
0
  6
Continuous
 62
     7
370
    15
100
AcDbLine
 10
237.5337382488
 20
119.419300311
 30
0.0
 11
237.0337382488
 21
119.9196144452
 31
0.0
  0
SPLINE
  5
A0
330
1F
100
AcDbEntity
  8
0
  6
Continuous
 62
     7
370
    15
100
AcDbSpline
210
0.0
220
0.0
230
1.0
 70
     8
 71
     3
 72
     8
 73
     4
 74
     0
 42
0.00000001
 43
0.00000001
 12
1.0
 22
0.0
 32
0.0
 13
1.0
 23
0.0
 33
0.0
 40
0.0
 40
0.0
 40
0.0
 40
0.0
 40
1.0
 40
1.0
 40
1.0
 40
1.0
 10
237.033738248797
 20
159.6969235444332
 30
0.0
 10
238.6167677102206
 20
161.2810694106547
 30
0.0
 10
240.2003704023473
 20
162.8646464715113
 30
0.0
 10
241.7842688724076
 20
164.4479300378385
 30
0.0
  0
ELLIPSE
  5
A1
330
1F
100
AcDbEntity
  8
0
  6
Continuous
 62
     7
370
    15
100
AcDbEllipse
 10
177.215529823
 20
133.7958062437
 30
0.0
 11
4096.488451942275
 21
356.6522915817246
 31
0.0
210
0.0
220
0.0
230
1.0
 40
0.0060650906
 41
1.552444245934
 42
1.554505659078184
  0
ARC
  5
A2
330
1F
100
AcDbEntity
  8
0
  6
Continuous
 62
     7
370
    15
100
AcDbCircle
 10
250.3623492368
 20
153.7059875053
 30
0.0
 40
2.094395474132416
100
AcDbArc
 50
119.1308376167
 51
175.3816485099
  0
CIRCLE
  5
A3
330
1F
100
AcDbEntity
  8
0
  6
Continuous
 62
     7
370
    15
100
AcDbCircle
 10
256.0939462077
 20
159.7356694055
 30
0.0
 40
3.494384114713156
  0
CIRCLE
  5
A4
330
1F
100
AcDbEntity
  8
0
  6
Continuous
 62
     7
370
    15
100
AcDbCircle
 10
256.0925332252
 20
159.7704708365
 30
0.0
 40
2.629774601870723
  0
CIRCLE
  5
A5
330
1F
100
AcDbEntity
  8
0
  6
Continuous
 62
     7
370
    15
100
AcDbCircle
 10
256.0920641571
 20
159.7702287704
 30
0.0
 40
1.996276054108183
  0
SPLINE
  5
A6
330
1F
100
AcDbEntity
  8
0
  6
Continuous
 62
     7
370
    15
100
AcDbSpline
210
0.0
220
0.0
230
1.0
 70
     8
 71
     3
 72
    15
 73
    11
 74
     0
 42
0.00000001
 43
0.00000001
 12
1.0
 22
0.0
 32
0.0
 13
1.0
 23
0.0
 33
0.0
 40
0.0
 40
0.0
 40
0.0
 40
0.0
 40
0.1262470803728692
 40
0.2533633350513932
 40
0.3794185517360695
 40
0.5042689738351426
 40
0.6284502821607117
 40
0.7526361292233297
 40
0.8774891912115281
 40
1.0
 40
1.0
 40
1.0
 40
1.0
 10
256.4291065887681
 20
161.437582207116
 30
0.0
 10
256.4136910952573
 20
161.4795270942671
 30
0.0
 10
256.3827539770613
 20
161.5637056468767
 30
0.0
 10
256.2867230107855
 20
161.6616483008212
 30
0.0
 10
256.1665766932586
 20
161.7233296538017
 30
0.0
 10
256.0330537137888
 20
161.7408908462842
 30
0.0
 10
255.9019193313542
 20
161.7134721654994
 30
0.0
 10
255.7880111140984
 20
161.6442634190819
 30
0.0
 10
255.7006043235233
 20
161.5424548788201
 30
0.0
 10
255.6750090428195
 20
161.4587651208284
 30
0.0
 10
255.6623325814982
 20
161.4173164650216
 30
0.0
  0
SPLINE
  5
A7
330
1F
100
AcDbEntity
  8
0
  6
Continuous
 62
     7
370
    15
100
AcDbSpline
210
0.0
220
0.0
230
1.0
 70
     8
 71
     3
 72
    12
 73
     8
 74
     0
 42
0.00000001
 43
0.00000001
 12
1.0
 22
0.0
 32
0.0
 13
1.0
 23
0.0
 33
0.0
 40
0.0
 40
0.0
 40
0.0
 40
0.0
 40
0.2058748011361078
 40
0.4120995812666142
 40
0.6141693366127013
 40
0.813290128673342
 40
1.0
 40
1.0
 40
1.0
 40
1.0
 10
255.6623325814982
 20
161.4173164650216
 30
0.0
 10
255.6394434014792
 20
161.3430374363568
 30
0.0
 10
255.593626130743
 20
161.1943531076253
 30
0.0
 10
255.4369933754705
 20
161.0157851949618
 30
0.0
 10
255.2375813275
 20
160.8997916602849
 30
0.0
 10
255.0166952017156
 20
160.853394027017
 30
0.0
 10
254.8747010501874
 20
160.8804050324368
 30
0.0
 10
254.8059877200227
 20
160.8934761069389
 30
0.0
  0
SPLINE
  5
A8
330
1F
100
AcDbEntity
  8
0
  6
Continuous
 62
     7
370
    15
100
AcDbSpline
210
0.0
220
0.0
230
1.0
 70
     8
 71
     3
 72
    15
 73
    11
 74
     0
 42
0.00000001
 43
0.00000001
 12
1.0
 22
0.0
 32
0.0
 13
1.0
 23
0.0
 33
0.0
 40
0.0
 40
0.0
 40
0.0
 40
0.0
 40
0.1268765508975703
 40
0.2539936290344735
 40
0.3800496379884893
 40
0.5049006370992143
 40
0.629082197326627
 40
0.753267940771861
 40
0.8781205851190378
 40
1.0
 40
1.0
 40
1.0
 40
1.0
 10
254.8059877200227
 20
160.8934761069389
 30
0.0
 10
254.762045069187
 20
160.901383596584
 30
0.0
 10
254.6740764628828
 20
160.917213566561
 30
0.0
 10
254.5417565243068
 20
160.8834495473856
 30
0.0
 10
254.4288176343553
 20
160.8106258758624
 30
0.0
 10
254.3471673514125
 20
160.7040168406063
 30
0.0
 10
254.3054161971671
 20
160.5768314851647
 30
0.0
 10
254.3081976091287
 20
160.4434936812471
 30
0.0
 10
254.3521368028424
 20
160.3168646805512
 30
0.0
 10
254.4110737943875
 20
160.25264842268
 30
0.0
 10
254.4401871818688
 20
160.2209272107723
 30
0.0
  0
SPLINE
  5
A9
330
1F
100
AcDbEntity
  8
0
  6
Continuous
 62
     7
370
    15
100
AcDbSpline
210
0.0
220
0.0
230
1.0
 70
     8
 71
     3
 72
    12
 73
     8
 74
     0
 42
0.00000001
 43
0.00000001
 12
1.0
 22
0.0
 32
0.0
 13
1.0
 23
0.0
 33
0.0
 40
0.0
 40
0.0
 40
0.0
 40
0.0
 40
0.2057949882088273
 40
0.4120010155283655
 40
0.6140549927930937
 40
0.8131810826684498
 40
1.0
 40
1.0
 40
1.0
 40
1.0
 10
254.4401871818688
 20
160.2209272107723
 30
0.0
 10
254.4925138658548
 20
160.163636594199
 30
0.0
 10
254.5972717471283
 20
160.0489409331729
 30
0.0
 10
254.672876221633
 20
159.8237478312772
 30
0.0
 10
254.6739878402568
 20
159.5935413088858
 30
0.0
 10
254.6050343899091
 20
159.3801554546894
 30
0.0
 10
254.5118756337328
 20
159.271709459804
 30
0.0
 10
254.4667815979407
 20
159.2192155475235
 30
0.0
  0
SPLINE
  5
AA
330
1F
100
AcDbEntity
  8
0
  6
Continuous
 62
     7
370
    15
100
AcDbSpline
210
0.0
220
0.0
230
1.0
 70
     8
 71
     3
 72
    23
 73
    19
 74
     0
 42
0.00000001
 43
0.00000001
 12
1.0
 22
0.0
 32
0.0
 13
1.0
 23
0.0
 33
0.0
 40
0.0
 40
0.0
 40
0.0
 40
0.0
 40
0.062506522413599
 40
0.1268032294231339
 40
0.1894476925805736
 40
0.2539381432715996
 40
0.316057294980136
 40
0.3800123143129773
 40
0.4415418845483161
 40
0.5048752096398439
 40
0.566080361205232
 40
0.6290610219319038
 40
0.6902737759323301
 40
0.753243879921645
 40
0.8147897755418891
 40
0.8780884206729312
 40
0.9382463322173208
 40
1.0
 40
1.0
 40
1.0
 40
1.0
 10
254.4667815979407
 20
159.2192155475235
 30
0.0
 10
254.4520146257895
 20
159.2033660578593
 30
0.0
 10
254.4220577559259
 20
159.1712131497064
 30
0.0
 10
254.3883869996108
 20
159.1143175469326
 30
0.0
 10
254.3639985403196
 20
159.0522385003552
 30
0.0
 10
254.3508787016933
 20
158.9872969860439
 30
0.0
 10
254.3489651037867
 20
158.9204682885038
 30
0.0
 10
254.3583157409864
 20
158.8550651983264
 30
0.0
 10
254.3787308023118
 20
158.7916150363052
 30
0.0
 10
254.4091063045122
 20
158.7331645939848
 30
0.0
 10
254.4491326594882
 20
158.6800989358356
 30
0.0
 10
254.4968856912105
 20
158.6348341732965
 30
0.0
 10
254.5519274691798
 20
158.5977135918902
 30
0.0
 10
254.6117983108644
 20
158.5703758233347
 30
0.0
 10
254.6759169056245
 20
158.5530367881139
 30
0.0
 10
254.7407788798816
 20
158.5467797950793
 30
0.0
 10
254.8058616496711
 20
158.5504340915974
 30
0.0
 10
254.8469446764396
 20
158.5613851626418
 30
0.0
 10
254.8677550670569
 20
158.5669323699447
 30
0.0
  0
SPLINE
  5
AB
330
1F
100
AcDbEntity
  8
0
  6
Continuous
 62
     7
370
    15
100
AcDbSpline
210
0.0
220
0.0
230
1.0
 70
     8
 71
     3
 72
    12
 73
     8
 74
     0
 42
0.00000001
 43
0.00000001
 12
1.0
 22
0.0
 32
0.0
 13
1.0
 23
0.0
 33
0.0
 40
0.0
 40
0.0
 40
0.0
 40
0.0
 40
0.2058497400953798
 40
0.4120524486336898
 40
0.6141081262893445
 40
0.8132431903675383
 40
1.0
 40
1.0
 40
1.0
 40
1.0
 10
254.8677550670569
 20
158.5669323699447
 30
0.0
 10
254.9429809865502
 20
158.5830955650955
 30
0.0
 10
255.0935618146513
 20
158.6154496702624
 30
0.0
 10
255.3257647893724
 20
158.5675028001409
 30
0.0
 10
255.526250329643
 20
158.4533924335522
 30
0.0
 10
255.6781779403419
 20
158.2878117136567
 30
0.0
 10
255.7270447096707
 20
158.1538792099143
 30
0.0
 10
255.7506943446037
 20
158.0890610346455
 30
0.0
  0
SPLINE
  5
AC
330
1F
100
AcDbEntity
  8
0
  6
Continuous
 62
     7
370
    15
100
AcDbSpline
210
0.0
220
0.0
230
1.0
 70
     8
 71
     3
 72
    15
 73
    11
 74
     0
 42
0.00000001
 43
0.00000001
 12
1.0
 22
0.0
 32
0.0
 13
1.0
 23
0.0
 33
0.0
 40
0.0
 40
0.0
 40
0.0
 40
0.0
 40
0.1262564375373545
 40
0.253382097284149
 40
0.3794454811310622
 40
0.5043002379033116
 40
0.6284814530464595
 40
0.7526634908999079
 40
0.877510462112178
 40
1.0
 40
1.0
 40
1.0
 40
1.0
 10
255.7506943446037
 20
158.0890610346455
 30
0.0
 10
255.7661107779948
 20
158.0480463205055
 30
0.0
 10
255.797049780405
 20
157.965734523254
 30
0.0
 10
255.8930875649977
 20
157.869838044652
 30
0.0
 10
256.0132416251024
 20
157.8094454435829
 30
0.0
 10
256.1467699716512
 20
157.7922995644436
 30
0.0
 10
256.277904341434
 20
157.8192616899579
 30
0.0
 10
256.3918074617641
 20
157.8871613508791
 30
0.0
 10
256.4792028465021
 20
157.9869354689922
 30
0.0
 10
256.5047944904516
 20
158.0687897170837
 30
0.0
 10
256.5174683518744
 20
158.1093267532834
 30
0.0
  0
SPLINE
  5
AD
330
1F
100
AcDbEntity
  8
0
  6
Continuous
 62
     7
370
    15
100
AcDbSpline
210
0.0
220
0.0
230
1.0
 70
     8
 71
     3
 72
    12
 73
     8
 74
     0
 42
0.00000001
 43
0.00000001
 12
1.0
 22
0.0
 32
0.0
 13
1.0
 23
0.0
 33
0.0
 40
0.0
 40
0.0
 40
0.0
 40
0.0
 40
0.2058713741442262
 40
0.4120924153875657
 40
0.6141683533433451
 40
0.8133068872800735
 40
1.0
 40
1.0
 40
1.0
 40
1.0
 10
256.5174683518744
 20
158.1093267532834
 30
0.0
 10
256.5403572376989
 20
158.1820025089422
 30
0.0
 10
256.5861738855169
 20
158.3274774581137
 30
0.0
 10
256.7428051110492
 20
158.5034695754374
 30
0.0
 10
256.9422205628069
 20
158.6196580757445
 30
0.0
 10
257.1631108518845
 20
158.6687758012505
 30
0.0
 10
257.3051058272062
 20
158.6447786566233
 30
0.0
 10
257.3738132133501
 20
158.633167111366
 30
0.0
  0
SPLINE
  5
AE
330
1F
100
AcDbEntity
  8
0
  6
Continuous
 62
     7
370
    15
100
AcDbSpline
210
0.0
220
0.0
230
1.0
 70
     8
 71
     3
 72
    23
 73
    19
 74
     0
 42
0.00000001
 43
0.00000001
 12
1.0
 22
0.0
 32
0.0
 13
1.0
 23
0.0
 33
0.0
 40
0.0
 40
0.0
 40
0.0
 40
0.0
 40
0.0625384906971527
 40
0.1268703322462854
 40
0.1895089567152646
 40
0.2539934004617932
 40
0.316106768708931
 40
0.3800557579595485
 40
0.4415809685723078
 40
0.5049096679475371
 40
0.5661129323443541
 40
0.6290914837162676
 40
0.690305323254836
 40
0.7532763836337686
 40
0.8148262267666317
 40
0.8781288171892857
 40
0.9382674905196239
 40
1.0
 40
1.0
 40
1.0
 40
1.0
 10
257.3738132133501
 20
158.633167111366
 30
0.0
 10
257.3951730160677
 20
158.6286864717604
 30
0.0
 10
257.4385051342126
 20
158.6195967059362
 30
0.0
 10
257.5053096482239
 20
158.6199166175047
 30
0.0
 10
257.5718962315938
 20
158.6307466948327
 30
0.0
 10
257.6352333859905
 20
158.6525934830552
 30
0.0
 10
257.6945216499628
 20
158.6849203701828
 30
0.0
 10
257.7468453143493
 20
158.7261005244976
 30
0.0
 10
257.7918489338901
 20
158.7757016641727
 30
0.0
 10
257.8274366754332
 20
158.8312407316592
 30
0.0
 10
257.85342980259
 20
158.8922594895128
 30
0.0
 10
257.8686959185233
 20
158.9558931923287
 30
0.0
 10
257.8731551224411
 20
159.0215907110427
 30
0.0
 10
257.8666222791383
 20
159.0864223941582
 30
0.0
 10
257.8491996238869
 20
159.1497760070623
 30
0.0
 10
257.8217186716861
 20
159.2081037931883
 30
0.0
 10
257.7854685510407
 20
159.2615520137482
 30
0.0
 10
257.7550313708977
 20
159.2908668981694
 30
0.0
 10
257.7396137515032
 20
159.3057160309891
 30
0.0
  0
SPLINE
  5
AF
330
1F
100
AcDbEntity
  8
0
  6
Continuous
 62
     7
370
    15
100
AcDbSpline
210
0.0
220
0.0
230
1.0
 70
     8
 71
     3
 72
    12
 73
     8
 74
     0
 42
0.00000001
 43
0.00000001
 12
1.0
 22
0.0
 32
0.0
 13
1.0
 23
0.0
 33
0.0
 40
0.0
 40
0.0
 40
0.0
 40
0.0
 40
0.2058321750919557
 40
0.4120750343575336
 40
0.6141697879283035
 40
0.813302933985593
 40
1.0
 40
1.0
 40
1.0
 40
1.0
 10
257.7396137515032
 20
159.3057160309891
 30
0.0
 10
257.6872804502951
 20
159.3614134022854
 30
0.0
 10
257.5825094304888
 20
159.4729192743887
 30
0.0
 10
257.5069096167103
 20
159.6955730958951
 30
0.0
 10
257.5058247379245
 20
159.9260033846778
 30
0.0
 10
257.5748104870647
 20
160.1420820055127
 30
0.0
 10
257.6679504147446
 20
160.2535096635721
 30
0.0
 10
257.7130193354319
 20
160.307427724371
 30
0.0
  0
SPLINE
  5
B0
330
1F
100
AcDbEntity
  8
0
  6
Continuous
 62
     7
370
    15
100
AcDbSpline
210
0.0
220
0.0
230
1.0
 70
     8
 71
     3
 72
    15
 73
    11
 74
     0
 42
0.00000001
 43
0.00000001
 12
1.0
 22
0.0
 32
0.0
 13
1.0
 23
0.0
 33
0.0
 40
0.0
 40
0.0
 40
0.0
 40
0.0
 40
0.1267880291973996
 40
0.2538950064074923
 40
0.3799409022876407
 40
0.5047841289690858
 40
0.6289621452108953
 40
0.7531495391279212
 40
0.878008927815052
 40
1.0
 40
1.0
 40
1.0
 40
1.0
 10
257.7130193354319
 20
160.307427724371
 30
0.0
 10
257.7414316672927
 20
160.3421133694064
 30
0.0
 10
257.7983278050865
 20
160.4115719146986
 30
0.0
 10
257.8343085736891
 20
160.5442586731759
 30
0.0
 10
257.8270333929069
 20
160.6791958197878
 30
0.0
 10
257.7751664298445
 20
160.8033489404826
 30
0.0
 10
257.685861212774
 20
160.9026797616331
 30
0.0
 10
257.5693063669523
 20
160.9659878949514
 30
0.0
 10
257.4382550698726
 20
160.9898627574391
 30
0.0
 10
257.3537884432262
 20
160.9696833612578
 30
0.0
 10
257.3120458663154
 20
160.9597109019498
 30
0.0
  0
SPLINE
  5
B1
330
1F
100
AcDbEntity
  8
0
  6
Continuous
 62
     7
370
    15
100
AcDbSpline
210
0.0
220
0.0
230
1.0
 70
     8
 71
     3
 72
    12
 73
     8
 74
     0
 42
0.00000001
 43
0.00000001
 12
1.0
 22
0.0
 32
0.0
 13
1.0
 23
0.0
 33
0.0
 40
0.0
 40
0.0
 40
0.0
 40
0.0
 40
0.2058903596432663
 40
0.4121336430767103
 40
0.6142239121175851
 40
0.8133482777366444
 40
1.0
 40
1.0
 40
1.0
 40
1.0
 10
257.3120458663154
 20
160.9597109019498
 30
0.0
 10
257.2368081731923
 20
160.9419437864933
 30
0.0
 10
257.0862038194124
 20
160.9063791003529
 30
0.0
 10
256.8539702946096
 20
160.9517740009001
 30
0.0
 10
256.6534741201756
 20
161.0661142512372
 30
0.0
 10
256.5015881423399
 20
161.2344258519156
 30
0.0
 10
256.4527406725193
 20
161.3713389482896
 30
0.0
 10
256.4291065887681
 20
161.437582207116
 30
0.0
  0
LWPOLYLINE
  5
B2
330
1F
100
AcDbEntity
  8
0
  6
Continuous
 62
     7
370
    15
100
AcDbPolyline
 90
        3
 70
   128
 43
0.0
 10
254.3543407643
 20
158.8818222339
 10
254.390242311
 20
158.9977034493
 10
254.4667815979
 20
159.1041761828
  0
ARC
  5
B3
330
1F
100
AcDbEntity
  8
0
  6
Continuous
 62
     7
370
    15
100
AcDbCircle
 10
257.4787423069
 20
158.8971875087
 30
0.0
 40
0.392644268804908
100
AcDbArc
 50
6.8699439413
 51
48.3639633468
  0
ARC
  5
B4
330
1F
100
AcDbEntity
  8
0
  6
Continuous
 62
     7
370
    15
100
AcDbCircle
 10
253.9837908951
 20
159.5927076213
 30
0.0
 40
0.6869810662755325
100
AcDbArc
 50
314.6732371703
 51
359.9881618794
  0
ARC
  5
B5
330
1F
100
AcDbEntity
  8
0
  6
Continuous
 62
     7
370
    15
100
AcDbCircle
 10
258.1960878254
 20
159.704141192
 30
0.0
 40
0.6870588570145073
100
AcDbArc
 50
180.0132197034
 51
228.3645622669
  0
ARC
  5
B6
330
1F
100
AcDbEntity
  8
0
  6
Continuous
 62
     7
370
    15
100
AcDbCircle
 10
254.7021795961
 20
160.3985768615
 30
0.0
 40
0.3938143975469116
100
AcDbArc
 50
74.7164226434
 51
174.1164835505
  0
ARC
  5
B7
330
1F
100
AcDbEntity
  8
0
  6
Continuous
 62
     7
370
    15
100
AcDbCircle
 10
257.4357729161
 20
160.4707209278
 30
0.0
 40
0.3938875996483314
100
AcDbArc
 50
6.929987342
 51
108.307555759
  0
ARC
  5
B8
330
1F
100
AcDbEntity
  8
0
  6
Continuous
 62
     7
370
    15
100
AcDbCircle
 10
254.9874483263
 20
161.4436940741
 30
0.0
 40
0.6895360957954443
100
AcDbArc
 50
254.7421546754
 51
348.1674797951
  0
ARC
  5
B9
330
1F
100
AcDbEntity
  8
0
  6
Continuous
 62
     7
370
    15
100
AcDbCircle
 10
257.0957161048
 20
161.499580245
 30
0.0
 40
0.6897129701931816
100
AcDbArc
 50
194.8717374619
 51
288.2794474723
  0
ARC
  5
BA
330
1F
100
AcDbEntity
  8
0
  6
Continuous
 62
     7
370
    15
100
AcDbCircle
 10
256.0481251197
 20
161.2213802441
 30
0.0
 40
0.3941883688607244
100
AcDbArc
 50
14.8732623076
 51
168.1534626333
  0
ARC
  5
BB
330
1F
100
AcDbEntity
  8
0
  6
Continuous
 62
     7
370
    15
100
AcDbCircle
 10
256.0883641864
 20
159.7268194806
 30
0.0
 40
3.500005651340317
100
AcDbArc
 50
180.1029624917
 51
359.8970375083
  0
LINE
  5
BC
330
1F
100
AcDbEntity
  8
0
  6
Continuous
 62
     7
370
    15
100
AcDbLine
 10
262.5988759517
 20
166.696296452
 30
0.0
 11
250.5612809277
 21
165.6457087793
 31
0.0
  0
ARC
  5
BD
330
1F
100
AcDbEntity
  8
0
  6
Continuous
 62
     7
370
    15
100
AcDbCircle
 10
262.634180584
 20
166.2983458295
 30
0.0
 40
0.3995135980505742
100
AcDbArc
 50
355.069953794
 51
95.0697859756
  0
LINE
  5
BE
330
1F
100
AcDbEntity
  8
0
  6
Continuous
 62
     7
370
    15
100
AcDbLine
 10
261.9790630273
 20
154.255739823
 30
0.0
 11
263.032216128
 21
166.2640118705
 31
0.0
  0
ARC
  5
BF
330
1F
100
AcDbEntity
  8
0
  6
Continuous
 62
     7
370
    15
100
AcDbCircle
 10
261.5811123027
 20
154.2910456391
 30
0.0
 40
0.3995138043827427
100
AcDbArc
 50
274.9302140243
 51
354.9300462061
  0
LINE
  5
C0
330
1F
100
AcDbEntity
  8
0
  6
Continuous
 62
     7
370
    15
100
AcDbLine
 10
249.5778524211
 20
152.8424223174
 30
0.0
 11
261.6154474452
 21
153.8930099901
 31
0.0
  0
ARC
  5
C1
330
1F
100
AcDbEntity
  8
0
  6
Continuous
 62
     7
370
    15
100
AcDbCircle
 10
249.5425477888
 20
153.24037294
 30
0.0
 40
0.3995135980506209
100
AcDbArc
 50
175.069953794
 51
275.0697859756
  0
LINE
  5
C2
330
1F
100
AcDbEntity
  8
0
  6
Continuous
 62
     7
370
    15
100
AcDbLine
 10
250.1976653455
 20
165.2829789464
 30
0.0
 11
249.1445122448
 21
153.2747068989
 31
0.0
  0
ARC
  5
C3
330
1F
100
AcDbEntity
  8
0
  6
Continuous
 62
     7
370
    15
100
AcDbCircle
 10
250.5956160702
 20
165.2476731303
 30
0.0
 40
0.3995138043828069
100
AcDbArc
 50
94.9302140243
 51
174.9300462061
  0
ARC
  5
C4
330
1F
100
AcDbEntity
  8
0
  6
Continuous
 62
     7
370
    15
100
AcDbCircle
 10
249.5425699056
 20
153.2403507692
 30
0.0
 40
0.3795379181479303
100
AcDbArc
 50
175.0699537939
 51
275.0697859756
  0
LINE
  5
C5
330
1F
100
AcDbEntity
  8
0
  6
Continuous
 62
     7
370
    15
100
AcDbLine
 10
249.5761093063
 20
152.8622976778
 30
0.0
 11
261.6137043303
 21
153.9128853508
 31
0.0
  0
ARC
  5
C6
330
1F
100
AcDbEntity
  8
0
  6
Continuous
 62
     7
370
    15
100
AcDbCircle
 10
261.5810859446
 20
154.2910192178
 30
0.0
 40
0.3795381146161351
100
AcDbArc
 50
274.930214074
 51
354.9300461054
  0
LINE
  5
C7
330
1F
100
AcDbEntity
  8
0
  6
Continuous
 62
     7
370
    15
100
AcDbLine
 10
261.9591391334
 20
154.2574786917
 30
0.0
 11
263.0122922341
 21
166.2657507393
 31
0.0
  0
ARC
  5
C8
330
1F
100
AcDbEntity
  8
0
  6
Continuous
 62
     7
370
    15
100
AcDbCircle
 10
262.6341584673
 20
166.2983680003
 30
0.0
 40
0.3795379181480052
100
AcDbArc
 50
355.0699537939
 51
95.0697859756
  0
LINE
  5
C9
330
1F
100
AcDbEntity
  8
0
  6
Continuous
 62
     7
370
    15
100
AcDbLine
 10
262.6006190666
 20
166.6764210916
 30
0.0
 11
250.5630240425
 21
165.625833419
 31
0.0
  0
ARC
  5
CA
330
1F
100
AcDbEntity
  8
0
  6
Continuous
 62
     7
370
    15
100
AcDbCircle
 10
250.5956424279
 20
165.2476995524
 30
0.0
 40
0.3795381141636751
100
AcDbArc
 50
94.9302140243
 51
174.9300462061
  0
LINE
  5
CB
330
1F
100
AcDbEntity
  8
0
  6
Continuous
 62
     7
370
    15
100
AcDbLine
 10
250.2175892395
 20
165.2812400777
 30
0.0
 11
249.1644361388
 21
153.2729680302
 31
0.0
  0
LINE
  5
CC
330
1F
100
AcDbEntity
  8
0
  6
Continuous
 62
     7
370
    15
100
AcDbLine
 10
261.5805851481
 20
154.2752131081
 30
0.0
 11
261.6137043303
 21
153.9128853508
 31
0.0
  0
LINE
  5
CD
330
1F
100
AcDbEntity
  8
0
  6
Continuous
 62
     7
370
    15
100
AcDbLine
 10
249.542990124
 20
153.2246254354
 30
0.0
 11
249.5761093063
 21
152.8622976778
 31
0.0
  0
LINE
  5
CE
330
1F
100
AcDbEntity
  8
0
  6
Continuous
 62
     7
370
    15
100
AcDbLine
 10
250.4619904685
 20
154.107742023
 30
0.0
 11
249.542990124
 21
153.2246254354
 31
0.0
  0
LINE
  5
CF
330
1F
100
AcDbEntity
  8
0
  6
Continuous
 62
     7
370
    15
100
AcDbLine
 10
261.0068908188
 20
154.8224792227
 30
0.0
 11
261.5805851481
 21
154.2752131081
 31
0.0
  0
LINE
  5
D0
330
1F
100
AcDbEntity
  8
0
  6
Continuous
 62
     7
370
    15
100
AcDbLine
 10
249.542990124
 20
153.2246254354
 30
0.0
 11
249.1644361388
 21
153.2729680302
 31
0.0
  0
LINE
  5
D1
330
1F
100
AcDbEntity
  8
0
  6
Continuous
 62
     7
370
    15
100
AcDbLine
 10
250.5961432248
 20
165.232897483
 30
0.0
 11
250.2175892395
 21
165.2812400777
 31
0.0
  0
LINE
  5
D2
330
1F
100
AcDbEntity
  8
0
  6
Continuous
 62
     7
370
    15
100
AcDbLine
 10
251.169837554
 20
164.6355699202
 30
0.0
 11
250.5961432248
 21
165.232897483
 31
0.0
  0
LINE
  5
D3
330
1F
100
AcDbEntity
  8
0
  6
Continuous
 62
     7
370
    15
100
AcDbLine
 10
261.5805851481
 20
154.2752131081
 30
0.0
 11
261.9591391334
 21
154.2574786917
 31
0.0
  0
LINE
  5
D4
330
1F
100
AcDbEntity
  8
0
  6
Continuous
 62
     7
370
    15
100
AcDbLine
 10
252.51231058
 20
155.1213054115
 30
0.0
 11
259.249317543
 21
155.7092813695
 31
0.0
  0
LINE
  5
D5
330
1F
100
AcDbEntity
  8
0
  6
Continuous
 62
     7
370
    15
100
AcDbLine
 10
262.6337382488
 20
166.2834851557
 30
0.0
 11
263.0122922341
 21
166.2657507393
 31
0.0
  0
LINE
  5
D6
330
1F
100
AcDbEntity
  8
0
  6
Continuous
 62
     7
370
    15
100
AcDbLine
 10
261.7147379043
 20
165.3330783315
 30
0.0
 11
262.6337382488
 21
166.2834851557
 31
0.0
  0
ARC
  5
D7
330
1F
100
AcDbEntity
  8
0
  6
Continuous
 62
     7
370
    15
100
AcDbCircle
 10
252.4240489986
 20
156.1161819676
 30
0.0
 40
0.9987839949361955
100
AcDbArc
 50
175.0699537786
 51
275.0697860057
  0
LINE
  5
D8
330
1F
100
AcDbEntity
  8
0
  6
Continuous
 62
     7
370
    15
100
AcDbLine
 10
259.6644177929
 20
164.4174133579
 30
0.0
 11
252.9274108298
 21
163.8294373999
 31
0.0
  0
ARC
  5
D9
330
1F
100
AcDbEntity
  8
0
  6
Continuous
 62
     7
370
    15
100
AcDbCircle
 10
259.7526793737
 20
163.4225368016
 30
0.0
 40
0.9987839951265288
100
AcDbArc
 50
355.069953794
 51
95.0697859756
  0
LINE
  5
DA
330
1F
100
AcDbEntity
  8
0
  6
Continuous
 62
     7
370
    15
100
AcDbLine
 10
260.1583564983
 20
156.6161059517
 30
0.0
 11
260.7477682337
 21
163.3367019043
 31
0.0
  0
ARC
  5
DB
330
1F
100
AcDbEntity
  8
0
  6
Continuous
 62
     7
370
    15
100
AcDbCircle
 10
259.1634796868
 20
156.704370492
 30
0.0
 40
0.9987845109561067
100
AcDbArc
 50
274.9302140243
 51
354.9300462061
  0
LINE
  5
DC
330
1F
100
AcDbEntity
  8
0
  6
Continuous
 62
     7
370
    15
100
AcDbLine
 10
252.0183718745
 20
162.9226128178
 30
0.0
 11
251.4289601388
 21
156.2020168651
 31
0.0
  0
ARC
  5
DD
330
1F
100
AcDbEntity
  8
0
  6
Continuous
 62
     7
370
    15
100
AcDbCircle
 10
253.0132486861
 20
162.8343482774
 30
0.0
 40
0.9987845109561629
100
AcDbArc
 50
94.9302140243
 51
174.9300462061
  0
CIRCLE
  5
DE
330
1F
100
AcDbEntity
  8
0
  6
Continuous
 62
     7
370
    15
100
AcDbCircle
 10
256.0820039668
 20
159.7668516794
 30
0.0
 40
3.793812895992902
  0
LINE
  5
DF
330
1F
100
AcDbEntity
  8
0
  6
Continuous
 62
     7
370
    15
100
AcDbLine
 10
252.3028243337
 20
160.0195244957
 30
0.0
 11
252.2883641864
 21
159.6891394399
 31
0.0
  0
ARC
  5
E0
330
1F
100
AcDbEntity
  8
0
  6
Continuous
 62
     7
370
    15
100
AcDbCircle
 10
256.0880794972
 20
159.6817953107
 30
0.0
 40
3.800291785561759
100
AcDbArc
 50
0.1107251485
 51
174.9014392034
  0
SPLINE
  5
E1
330
1F
100
AcDbEntity
  8
0
  6
Continuous
 62
     7
370
    15
100
AcDbSpline
210
0.0
220
0.0
230
1.0
 70
     8
 71
     3
 72
    11
 73
     7
 74
     0
 42
0.00000001
 43
0.00000001
 12
1.0
 22
0.0
 32
0.0
 13
1.0
 23
0.0
 33
0.0
 40
0.0
 40
0.0
 40
0.0
 40
0.0
 40
0.007628266008074
 40
0.3209888652310685
 40
0.6632168868586061
 40
1.0
 40
1.0
 40
1.0
 40
1.0
 10
250.9509180461338
 20
154.6007352077854
 30
0.0
 10
250.9498024854596
 20
154.5995591041451
 30
0.0
 10
250.902860945334
 20
154.5500699840105
 30
0.0
 10
250.7988049726231
 20
154.4420079667222
 30
0.0
 10
250.6293571085342
 20
154.2704310738735
 30
0.0
 10
250.5174803063415
 20
154.1616810220703
 30
0.0
 10
250.4619904685443
 20
154.1077420229506
 30
0.0
  0
SPLINE
  5
E2
330
1F
100
AcDbEntity
  8
0
  6
Continuous
 62
     7
370
    15
100
AcDbSpline
210
0.0
220
0.0
230
1.0
 70
     8
 71
     3
 72
    11
 73
     7
 74
     0
 42
0.00000001
 43
0.00000001
 12
1.0
 22
0.0
 32
0.0
 13
1.0
 23
0.0
 33
0.0
 40
0.0
 40
0.0
 40
0.0
 40
0.0
 40
0.3372314186519959
 40
0.6736321483070803
 40
0.9918835608971264
 40
0.9999999999999999
 40
0.9999999999999999
 40
0.9999999999999999
 40
0.9999999999999999
 10
261.0068908188446
 20
154.8224792227331
 30
0.0
 10
260.9519870062248
 20
154.8754980456766
 30
0.0
 10
260.8423146234049
 20
154.9814050923655
 30
0.0
 10
260.670862454353
 20
155.1542747381112
 30
0.0
 10
260.5653838101543
 20
155.2636121388958
 30
0.0
 10
260.5174276077468
 20
155.314168795216
 30
0.0
 10
260.51623498539
 20
155.3154260882372
 30
0.0
  0
LINE
  5
E3
330
1F
100
AcDbEntity
  8
0
  6
Continuous
 62
     7
370
    15
100
AcDbLine
 10
250.5961432248
 20
165.232897483
 30
0.0
 11
250.5630240425
 21
165.625833419
 31
0.0
  0
LINE
  5
E4
330
1F
100
AcDbEntity
  8
0
  6
Continuous
 62
     7
370
    15
100
AcDbLine
 10
262.6337382488
 20
166.2834851557
 30
0.0
 11
262.6006190666
 21
166.6764210916
 31
0.0
  0
SPLINE
  5
E5
330
1F
100
AcDbEntity
  8
0
  6
Continuous
 62
     7
370
    15
100
AcDbSpline
210
0.0
220
0.0
230
1.0
 70
     8
 71
     3
 72
    11
 73
     7
 74
     0
 42
0.00000001
 43
0.00000001
 12
1.0
 22
0.0
 32
0.0
 13
1.0
 23
0.0
 33
0.0
 40
0.0
 40
0.0
 40
0.0
 40
0.0
 40
0.0081164391031315
 40
0.3263678516931389
 40
0.6627685813481388
 40
1.0
 40
1.0
 40
1.0
 40
1.0
 10
251.6604933874488
 20
164.149595544734
 30
0.0
 10
251.659300765092
 20
164.1507176860902
 30
0.0
 10
251.6113445626808
 20
164.1958397967927
 30
0.0
 10
251.5058659184874
 20
164.2969458030456
 30
0.0
 10
251.3344137494333
 20
164.4661451976737
 30
0.0
 10
251.2247413666138
 20
164.5790486037994
 30
0.0
 10
251.1698375539943
 20
164.6355699202391
 30
0.0
  0
SPLINE
  5
E6
330
1F
100
AcDbEntity
  8
0
  6
Continuous
 62
     7
370
    15
100
AcDbSpline
210
0.0
220
0.0
230
1.0
 70
     8
 71
     3
 72
    11
 73
     7
 74
     0
 42
0.00000001
 43
0.00000001
 12
1.0
 22
0.0
 32
0.0
 13
1.0
 23
0.0
 33
0.0
 40
0.0
 40
0.0
 40
0.0
 40
0.0
 40
0.3367831131414363
 40
0.679011134768985
 40
0.9923717339921622
 40
1.0
 40
1.0
 40
1.0
 40
1.0
 10
261.7147379042942
 20
165.3330783315071
 30
0.0
 10
261.659248066497
 20
165.2763079959451
 30
0.0
 10
261.5473712643043
 20
165.1618494958986
 30
0.0
 10
261.3779234002176
 20
164.9953561935278
 30
0.0
 10
261.2738674275013
 20
164.8958132156396
 30
0.0
 10
261.2269258873793
 20
164.851647949984
 30
0.0
 10
261.2258103267052
 20
164.8505983671753
 30
0.0
  0
LINE
  5
E7
330
1F
100
AcDbEntity
  8
0
  6
HIDDEN
 62
     7
370
     0
100
AcDbLine
 10
83.0337382488
 20
108.6978148649
 30
0.0
 11
83.0337382488
 21
170.6978148649
 31
0.0
  0
LINE
  5
E8
330
1F
100
AcDbEntity
  8
0
  6
HIDDEN
 62
     7
370
     0
100
AcDbLine
 10
105.0337382488
 20
109.1978148649
 30
0.0
 11
105.0337382488
 21
170.1978148429
 31
0.0
  0
SPLINE
  5
E9
330
1F
100
AcDbEntity
  8
0
  6
HIDDEN
 62
     7
370
     0
100
AcDbSpline
210
0.0
220
0.0
230
1.0
 70
     8
 71
     3
 72
    60
 73
    56
 74
     0
 42
0.00000001
 43
0.00000001
 12
1.0
 22
0.0
 32
0.0
 13
1.0
 23
0.0
 33
0.0
 40
-0.0624999999999999
 40
-0.0624999999999999
 40
0.0
 40
0.0
 40
0.0312499999999998
 40
0.0312499999999998
 40
0.0624999999999997
 40
0.0624999999999997
 40
0.0937499999999995
 40
0.0937499999999995
 40
0.1249999999999994
 40
0.1249999999999994
 40
0.1874999999999994
 40
0.1874999999999994
 40
0.2499999999999994
 40
0.2499999999999994
 40
0.2812499999999994
 40
0.2812499999999994
 40
0.3124999999999994
 40
0.3124999999999994
 40
0.3437499999999994
 40
0.3437499999999994
 40
0.3749999999999993
 40
0.3749999999999993
 40
0.4062499999999993
 40
0.4062499999999993
 40
0.4374999999999993
 40
0.4374999999999993
 40
0.4687499999999994
 40
0.4687499999999994
 40
0.4999999999999994
 40
0.4999999999999994
 40
0.5624999999999996
 40
0.5624999999999996
 40
0.6249999999999997
 40
0.6249999999999997
 40
0.6562499999999997
 40
0.6562499999999997
 40
0.6874999999999998
 40
0.6874999999999998
 40
0.7187499999999998
 40
0.7187499999999998
 40
0.7499999999999998
 40
0.7499999999999998
 40
0.7812499999999999
 40
0.7812499999999999
 40
0.8124999999999999
 40
0.8124999999999999
 40
0.84375
 40
0.84375
 40
0.875
 40
0.875
 40
0.9062500000000001
 40
0.9062500000000001
 40
0.9375000000000001
 40
0.9375000000000001
 40
1.0
 40
1.0
 40
1.03125
 40
1.03125
 10
93.03373824879701
 20
139.433484339862
 30
0.0
 10
93.033738248797
 20
139.8299801274921
 30
0.0
 10
93.0467101072858
 20
139.9599301884962
 30
0.0
 10
93.0975302769782
 20
140.2155831218563
 30
0.0
 10
93.13599760044512
 20
140.3426126284057
 30
0.0
 10
93.23639583651725
 20
140.5848007595302
 30
0.0
 10
93.2978288674904
 20
140.699662252083
 30
0.0
 10
93.44296369903535
 20
140.9170424479072
 30
0.0
 10
93.5274188164432
 20
141.0199400151058
 30
0.0
 10
93.80413826680152
 20
141.2966070541136
 30
0.0
 10
94.02721515871956
 20
141.4456051445936
 30
0.0
 10
94.50849852093987
 20
141.6451162850582
 30
0.0
 10
94.77172893993088
 20
141.6976743880549
 30
0.0
 10
95.1631311416188
 20
141.697884670433
 30
0.0
 10
95.29565416972768
 20
141.6848988997059
 30
0.0
 10
95.55218462296874
 20
141.6338717514921
 30
0.0
 10
95.67687145726534
 20
141.5961165523417
 30
0.0
 10
95.91905071950087
 20
141.495978219433
 30
0.0
 10
96.03614425165094
 20
141.4333725520214
 30
0.0
 10
96.25285925500636
 20
141.2886392587565
 30
0.0
 10
96.35387808186911
 20
141.2060119114769
 30
0.0
 10
96.54066296932126
 20
141.0194068582254
 30
0.0
 10
96.62351985051744
 20
140.9182917943491
 30
0.0
 10
96.76840411559127
 20
140.7017589903593
 30
0.0
 10
96.8310416234122
 20
140.5848887827582
 30
0.0
 10
96.93149044681198
 20
140.3425909121081
 30
0.0
 10
96.96934154782922
 20
140.2179269136471
 30
0.0
 10
97.02056311308554
 20
139.9616398695832
 30
0.0
 10
97.03369123970276
 20
139.8290678738376
 30
0.0
 10
97.03383188004302
 20
139.4374636810636
 30
0.0
 10
96.98150713067116
 20
139.1742983497396
 30
0.0
 10
96.7823960686139
 20
138.6927929805665
 30
0.0
 10
96.63353373215664
 20
138.4695414410824
 30
0.0
 10
96.35721277283116
 20
138.1926851421936
 30
0.0
 10
96.25444912445758
 20
138.1081716953499
 30
0.0
 10
96.03706556707813
 20
137.9627544219096
 30
0.0
 10
95.92226679912167
 20
137.9012432228512
 30
0.0
 10
95.68039007569766
 20
137.8007133745964
 30
0.0
 10
95.55323646769743
 20
137.7620683513784
 30
0.0
 10
95.29757045826484
 20
137.7110120238274
 30
0.0
 10
95.16770442050883
 20
137.6979471652818
 30
0.0
 10
94.90375189377717
 20
137.6976845444838
 30
0.0
 10
94.77334757035314
 20
137.7105615447279
 30
0.0
 10
94.5176968069738
 20
137.7611475485337
 30
0.0
 10
94.39083125785943
 20
137.7994239131555
 30
0.0
 10
94.1483107999135
 20
137.8996947806355
 30
0.0
 10
94.03338416125321
 20
137.9610508047764
 30
0.0
 10
93.8160126924212
 20
138.1058970999492
 30
0.0
 10
93.71299887975896
 20
138.1902746144439
 30
0.0
 10
93.52829833417698
 20
138.3746819346321
 30
0.0
 10
93.44546859992042
 20
138.4752549979016
 30
0.0
 10
93.29921616132292
 20
138.6934811384805
 30
0.0
 10
93.23684768053052
 20
138.8100362484018
 30
0.0
 10
93.08689152896378
 20
139.1708858424356
 30
0.0
 10
93.03373824879701
 20
139.433484339862
 30
0.0
 10
93.033738248797
 20
139.8299801274921
 30
0.0
  0
SPLINE
  5
EA
330
1F
100
AcDbEntity
  8
0
  6
HIDDEN
 62
     7
370
     0
100
AcDbSpline
210
0.0
220
0.0
230
1.0
 70
     8
 71
     3
 72
    12
 73
     8
 74
     0
 42
0.00000001
 43
0.00000001
 12
1.0
 22
0.0
 32
0.0
 13
1.0
 23
0.0
 33
0.0
 40
0.0
 40
0.0
 40
0.0
 40
0.0
 40
0.2499999999999977
 40
0.2499999999999977
 40
0.4999999999999953
 40
0.4999999999999953
 40
1.0
 40
1.0
 40
1.0
 40
1.0
 10
93.56149506236345
 20
130.3097484336127
 30
0.0
 10
93.49841502387008
 20
130.3097484336127
 30
0.0
 10
93.43926640168871
 20
130.2843841143977
 30
0.0
 10
93.34079385161965
 20
130.2102192540247
 30
0.0
 10
93.30175723963491
 20
130.1636989134707
 30
0.0
 10
93.20186077285594
 20
130.0135565706254
 30
0.0
 10
93.15943989178916
 20
129.9018633636533
 30
0.0
 10
93.12848236047125
 20
129.7884455442636
 30
0.0
  0
LINE
  5
EB
330
1F
100
AcDbEntity
  8
0
  6
HIDDEN
 62
     7
370
     0
100
AcDbLine
 10
96.5059814352
 20
130.3097484336
 30
0.0
 11
93.5614950624
 21
130.3097484336
 31
0.0
  0
SPLINE
  5
EC
330
1F
100
AcDbEntity
  8
0
  6
HIDDEN
 62
     7
370
     0
100
AcDbSpline
210
0.0
220
0.0
230
1.0
 70
     8
 71
     3
 72
    12
 73
     8
 74
     0
 42
0.00000001
 43
0.00000001
 12
1.0
 22
0.0
 32
0.0
 13
1.0
 23
0.0
 33
0.0
 40
0.0
 40
0.0
 40
0.0
 40
0.0
 40
0.4999999999999981
 40
0.4999999999999981
 40
0.749999999999999
 40
0.749999999999999
 40
1.0
 40
1.0
 40
1.0
 40
1.0
 10
96.93899413712273
 20
129.7884455442636
 30
0.0
 10
96.9082718952037
 20
129.9010013436727
 30
0.0
 10
96.86543468066841
 20
130.0137592034123
 30
0.0
 10
96.76600765646867
 20
130.1633000892087
 30
0.0
 10
96.72625546165199
 20
130.2105928209155
 30
0.0
 10
96.62821400479379
 20
130.2843291142369
 30
0.0
 10
96.56865794920638
 20
130.3097484336127
 30
0.0
 10
96.50598143523055
 20
130.3097484336127
 30
0.0
  0
ELLIPSE
  5
ED
330
1F
100
AcDbEntity
  8
0
  6
HIDDEN
 62
     7
370
     0
100
AcDbEllipse
 10
80.6865840594
 20
139.6978148649
 30
0.0
 11
-14.75368316065608
 21
31.09325491558119
 31
0.0
210
0.0
220
0.0
230
1.0
 40
0.3419987131
 41
3.300734856217131
 42
4.231496223360782
  0
SPLINE
  5
EE
330
1F
100
AcDbEntity
  8
0
  6
HIDDEN
 62
     7
370
     0
100
AcDbSpline
210
0.0
220
0.0
230
1.0
 70
     8
 71
     3
 72
    12
 73
     8
 74
     0
 42
0.00000001
 43
0.00000001
 12
1.0
 22
0.0
 32
0.0
 13
1.0
 23
0.0
 33
0.0
 40
0.0
 40
0.0
 40
0.0
 40
0.0
 40
0.2499999999999977
 40
0.2499999999999977
 40
0.4999999999999953
 40
0.4999999999999953
 40
1.0
 40
1.0
 40
1.0
 40
1.0
 10
96.50598143523055
 20
109.6293229060756
 30
0.0
 10
96.5690614737239
 20
109.6293229060756
 30
0.0
 10
96.62821009590526
 20
109.6372288322882
 30
0.0
 10
96.72668264597436
 20
109.6605539937244
 30
0.0
 10
96.76571925795902
 20
109.6752667835561
 30
0.0
 10
96.86561572473815
 20
109.723222584287
 30
0.0
 10
96.90803660580471
 20
109.759484740867
 30
0.0
 10
96.93899413712273
 20
109.7970724048315
 30
0.0
  0
LINE
  5
EF
330
1F
100
AcDbEntity
  8
0
  6
HIDDEN
 62
     7
370
     0
100
AcDbLine
 10
93.5614950624
 20
109.6293229061
 30
0.0
 11
96.5059814352
 21
109.6293229061
 31
0.0
  0
SPLINE
  5
F0
330
1F
100
AcDbEntity
  8
0
  6
HIDDEN
 62
     7
370
     0
100
AcDbSpline
210
0.0
220
0.0
230
1.0
 70
     8
 71
     3
 72
    12
 73
     8
 74
     0
 42
0.00000001
 43
0.00000001
 12
1.0
 22
0.0
 32
0.0
 13
1.0
 23
0.0
 33
0.0
 40
0.0
 40
0.0
 40
0.0
 40
0.0
 40
0.5000000000000028
 40
0.5000000000000028
 40
0.7500000000000013
 40
0.7500000000000013
 40
1.0
 40
1.0
 40
1.0
 40
1.0
 10
93.12848236047125
 20
109.7970724048315
 30
0.0
 10
93.1592046023904
 20
109.7597704218785
 30
0.0
 10
93.20204181692547
 20
109.7231585898321
 30
0.0
 10
93.30146884112534
 20
109.6753938065469
 30
0.0
 10
93.34122103594196
 20
109.6604362910646
 30
0.0
 10
93.43926249280021
 20
109.6372463452954
 30
0.0
 10
93.4988185483876
 20
109.6293229060756
 30
0.0
 10
93.56149506236345
 20
109.6293229060756
 30
0.0
  0
ELLIPSE
  5
F1
330
1F
100
AcDbEntity
  8
0
  6
HIDDEN
 62
     7
370
     0
100
AcDbEllipse
 10
109.3808924382
 20
139.6978148649
 30
0.0
 11
14.7536831606561
 21
31.09325491558119
 31
0.0
210
0.0
220
0.0
230
1.0
 40
0.3419987131
 41
2.051689083818819
 42
2.982450450962496
  0
SPLINE
  5
F2
330
1F
100
AcDbEntity
  8
0
  6
HIDDEN
 62
     7
370
     0
100
AcDbSpline
210
0.0
220
0.0
230
1.0
 70
     8
 71
     3
 72
    12
 73
     8
 74
     0
 42
0.00000001
 43
0.00000001
 12
1.0
 22
0.0
 32
0.0
 13
1.0
 23
0.0
 33
0.0
 40
0.0
 40
0.0
 40
0.0
 40
0.0
 40
0.2499999999999996
 40
0.2499999999999996
 40
0.4999999999999991
 40
0.4999999999999991
 40
1.0
 40
1.0
 40
1.0
 40
1.0
 10
93.56149506236345
 20
169.766306823822
 30
0.0
 10
93.49841502387008
 20
169.766306823822
 30
0.0
 10
93.4392664016887
 20
169.7584008976095
 30
0.0
 10
93.34079385161964
 20
169.7350757361733
 30
0.0
 10
93.30175723963491
 20
169.7203629463416
 30
0.0
 10
93.20186077285592
 20
169.6724071456107
 30
0.0
 10
93.15943989178916
 20
169.6361449890306
 30
0.0
 10
93.12848236047125
 20
169.5985573250661
 30
0.0
  0
LINE
  5
F3
330
1F
100
AcDbEntity
  8
0
  6
HIDDEN
 62
     7
370
     0
100
AcDbLine
 10
96.5059814352
 20
169.7663068238
 30
0.0
 11
93.5614950624
 21
169.7663068238
 31
0.0
  0
SPLINE
  5
F4
330
1F
100
AcDbEntity
  8
0
  6
HIDDEN
 62
     7
370
     0
100
AcDbSpline
210
0.0
220
0.0
230
1.0
 70
     8
 71
     3
 72
    12
 73
     8
 74
     0
 42
0.00000001
 43
0.00000001
 12
1.0
 22
0.0
 32
0.0
 13
1.0
 23
0.0
 33
0.0
 40
0.0
 40
0.0
 40
0.0
 40
0.0
 40
0.5
 40
0.5
 40
0.75
 40
0.75
 40
1.0
 40
1.0
 40
1.0
 40
1.0
 10
96.93899413712275
 20
169.5985573250661
 30
0.0
 10
96.9082718952037
 20
169.6358593080192
 30
0.0
 10
96.86543468066843
 20
169.6724711400655
 30
0.0
 10
96.7660076564687
 20
169.7202359233507
 30
0.0
 10
96.72625546165202
 20
169.7351934388331
 30
0.0
 10
96.62821400479382
 20
169.7583833846022
 30
0.0
 10
96.56865794920638
 20
169.766306823822
 30
0.0
 10
96.50598143523055
 20
169.766306823822
 30
0.0
  0
ELLIPSE
  5
F5
330
1F
100
AcDbEntity
  8
0
  6
HIDDEN
 62
     7
370
     0
100
AcDbEllipse
 10
80.6865840594
 20
139.6978148649
 30
0.0
 11
14.75368316065621
 21
31.09325491558119
 31
0.0
210
0.0
220
0.0
230
1.0
 40
0.3419987131
 41
5.193281737408636
 42
6.124043104552338
  0
SPLINE
  5
F6
330
1F
100
AcDbEntity
  8
0
  6
HIDDEN
 62
     7
370
     0
100
AcDbSpline
210
0.0
220
0.0
230
1.0
 70
     8
 71
     3
 72
    12
 73
     8
 74
     0
 42
0.00000001
 43
0.00000001
 12
1.0
 22
0.0
 32
0.0
 13
1.0
 23
0.0
 33
0.0
 40
0.0
 40
0.0
 40
0.0
 40
0.0
 40
0.2500000000000009
 40
0.2500000000000009
 40
0.5000000000000018
 40
0.5000000000000018
 40
1.0
 40
1.0
 40
1.0
 40
1.0
 10
96.50598143523055
 20
149.0858812962852
 30
0.0
 10
96.56906147372392
 20
149.0858812962852
 30
0.0
 10
96.62821009590527
 20
149.1112456155003
 30
0.0
 10
96.72668264597436
 20
149.1854104758731
 30
0.0
 10
96.76571925795905
 20
149.2319308164273
 30
0.0
 10
96.86561572473816
 20
149.3820731592725
 30
0.0
 10
96.90803660580474
 20
149.4937663662446
 30
0.0
 10
96.93899413712275
 20
149.6071841856344
 30
0.0
  0
LINE
  5
F7
330
1F
100
AcDbEntity
  8
0
  6
HIDDEN
 62
     7
370
     0
100
AcDbLine
 10
93.5614950624
 20
149.0858812963
 30
0.0
 11
96.5059814352
 21
149.0858812963
 31
0.0
  0
SPLINE
  5
F8
330
1F
100
AcDbEntity
  8
0
  6
HIDDEN
 62
     7
370
     0
100
AcDbSpline
210
0.0
220
0.0
230
1.0
 70
     8
 71
     3
 72
    12
 73
     8
 74
     0
 42
0.00000001
 43
0.00000001
 12
1.0
 22
0.0
 32
0.0
 13
1.0
 23
0.0
 33
0.0
 40
0.0
 40
0.0
 40
0.0
 40
0.0
 40
0.5
 40
0.5
 40
0.75
 40
0.75
 40
1.0
 40
1.0
 40
1.0
 40
1.0
 10
93.12848236047125
 20
149.6071841856344
 30
0.0
 10
93.15920460239039
 20
149.4946283862252
 30
0.0
 10
93.20204181692549
 20
149.3818705264856
 30
0.0
 10
93.30146884112534
 20
149.2323296406893
 30
0.0
 10
93.34122103594194
 20
149.1850369089824
 30
0.0
 10
93.43926249280018
 20
149.111300615661
 30
0.0
 10
93.4988185483876
 20
149.0858812962853
 30
0.0
 10
93.56149506236345
 20
149.0858812962853
 30
0.0
  0
ELLIPSE
  5
F9
330
1F
100
AcDbEntity
  8
0
  6
HIDDEN
 62
     7
370
     0
100
AcDbEllipse
 10
109.3808924382
 20
139.6978148649
 30
0.0
 11
-14.75368316065625
 21
31.09325491558119
 31
0.0
210
0.0
220
0.0
230
1.0
 40
0.3419987131
 41
0.1591422026272815
 42
1.089903569770962
  0
LINE
  5
FA
330
1F
100
AcDbEntity
  8
0
  6
HIDDEN
 62
     7
370
     0
100
AcDbLine
 10
83.0337382488
 20
115.4478148649
 30
0.0
 11
83.0337382488
 21
163.9176702045
 31
0.0
  0
SPLINE
  5
FB
330
1F
100
AcDbEntity
  8
0
  6
HIDDEN
 62
     7
370
     0
100
AcDbSpline
210
0.0
220
0.0
230
1.0
 70
     8
 71
     3
 72
    12
 73
     8
 74
     0
 42
0.00000001
 43
0.00000001
 12
1.0
 22
0.0
 32
0.0
 13
1.0
 23
0.0
 33
0.0
 40
0.0
 40
0.0
 40
0.0
 40
0.0
 40
0.5000000000000001
 40
0.5000000000000001
 40
0.7500000000000002
 40
0.7500000000000002
 40
1.0
 40
1.0
 40
1.0
 40
1.0
 10
82.21722596235
 20
155.1500828467796
 30
0.0
 10
82.27363214103026
 20
155.1022604731198
 30
0.0
 10
82.34379504250201
 20
155.0619896261813
 30
0.0
 10
82.46180575589118
 20
155.0539437577044
 30
0.0
 10
82.50201153948663
 20
155.0605063560432
 30
0.0
 10
82.57573223621968
 20
155.0878884504968
 30
0.0
 10
82.60859295800618
 20
155.1076499410272
 30
0.0
 10
82.63876135993544
 20
155.1305826522152
 30
0.0
  0
SPLINE
  5
FC
330
1F
100
AcDbEntity
  8
0
  6
HIDDEN
 62
     7
370
     0
100
AcDbSpline
210
0.0
220
0.0
230
1.0
 70
     8
 71
     3
 72
    16
 73
    12
 74
     0
 42
0.00000001
 43
0.00000001
 12
1.0
 22
0.0
 32
0.0
 13
1.0
 23
0.0
 33
0.0
 40
0.0
 40
0.0
 40
0.0
 40
0.0
 40
0.0625000000000013
 40
0.0625000000000013
 40
0.1250000000000026
 40
0.1250000000000026
 40
0.2500000000000052
 40
0.2500000000000052
 40
0.5
 40
0.5
 40
1.0
 40
1.0
 40
1.0
 40
1.0
 10
82.63876135989031
 20
155.1305826522633
 30
0.0
 10
82.65037425972969
 20
155.1394102752447
 30
0.0
 10
82.66372544416217
 20
155.1472446571266
 30
0.0
 10
82.69312528378133
 20
155.155554783199
 30
0.0
 10
82.70796600833667
 20
155.155058963964
 30
0.0
 10
82.74379921630528
 20
155.1436079929946
 30
0.0
 10
82.75791242412686
 20
155.126927492136
 30
0.0
 10
82.79240379534575
 20
155.0748068063789
 30
0.0
 10
82.80348786645614
 20
155.0350173123539
 30
0.0
 10
82.82961068425215
 20
154.9116806802568
 30
0.0
 10
82.833738248797
 20
154.8242592697582
 30
0.0
 10
82.833738248797
 20
154.7355220274399
 30
0.0
  0
LINE
  5
FD
330
1F
100
AcDbEntity
  8
0
  6
HIDDEN
 62
     7
370
     0
100
AcDbLine
 10
82.8337382488
 20
124.6601077025
 30
0.0
 11
82.8337382488
 21
154.7355220274
 31
0.0
  0
SPLINE
  5
FE
330
1F
100
AcDbEntity
  8
0
  6
HIDDEN
 62
     7
370
     0
100
AcDbSpline
210
0.0
220
0.0
230
1.0
 70
     8
 71
     3
 72
    16
 73
    12
 74
     0
 42
0.00000001
 43
0.00000001
 12
1.0
 22
0.0
 32
0.0
 13
1.0
 23
0.0
 33
0.0
 40
0.0
 40
0.0
 40
0.0
 40
0.0
 40
0.5000000000000057
 40
0.5000000000000057
 40
0.750000000000011
 40
0.750000000000011
 40
0.8750000000000103
 40
0.8750000000000103
 40
0.9375000000000052
 40
0.9375000000000052
 40
1.0
 40
1.0
 40
1.0
 40
1.0
 10
82.833738248797
 20
124.6601077024576
 30
0.0
 10
82.833738248797
 20
124.5709813372688
 30
0.0
 10
82.82959197371906
 20
124.4841199696554
 30
0.0
 10
82.80362637832552
 20
124.3611377231614
 30
0.0
 10
82.79216547294808
 20
124.3203664279301
 30
0.0
 10
82.75785373517377
 20
124.2686621079303
 30
0.0
 10
82.7438289992441
 20
124.2519917413399
 30
0.0
 10
82.70780603621036
 20
124.2405395208831
 30
0.0
 10
82.69305152712062
 20
124.2400864746081
 30
0.0
 10
82.66369936597377
 20
124.2484017958243
 30
0.0
 10
82.65035949146969
 20
124.2562306809026
 30
0.0
 10
82.63876135992136
 20
124.2650470776652
 30
0.0
  0
SPLINE
  5
FF
330
1F
100
AcDbEntity
  8
0
  6
HIDDEN
 62
     7
370
     0
100
AcDbSpline
210
0.0
220
0.0
230
1.0
 70
     8
 71
     3
 72
    12
 73
     8
 74
     0
 42
0.00000001
 43
0.00000001
 12
1.0
 22
0.0
 32
0.0
 13
1.0
 23
0.0
 33
0.0
 40
0.0
 40
0.0
 40
0.0
 40
0.0
 40
0.2499999999999996
 40
0.2499999999999996
 40
0.4999999999999988
 40
0.4999999999999988
 40
1.0
 40
1.0
 40
1.0
 40
1.0
 10
82.6387613599284
 20
124.2650470776741
 30
0.0
 10
82.60856951821118
 20
124.2879976067719
 30
0.0
 10
82.57521054879659
 20
124.3079670807961
 30
0.0
 10
82.50207326421598
 20
124.3350682144216
 30
0.0
 10
82.46183139156203
 20
124.341668955067
 30
0.0
 10
82.34412561459351
 20
124.3337000805603
 30
0.0
 10
82.27371513681415
 20
124.2934396223925
 30
0.0
 10
82.21722596234584
 20
124.2455468831143
 30
0.0
  0
SPLINE
  5
100
330
1F
100
AcDbEntity
  8
0
  6
HIDDEN
 62
     7
370
     0
100
AcDbSpline
210
0.0
220
0.0
230
1.0
 70
     8
 71
     3
 72
    12
 73
     8
 74
     0
 42
0.00000001
 43
0.00000001
 12
1.0
 22
0.0
 32
0.0
 13
1.0
 23
0.0
 33
0.0
 40
0.0
 40
0.0
 40
0.0
 40
0.0
 40
0.2499999999999996
 40
0.2499999999999996
 40
0.4999999999999991
 40
0.4999999999999991
 40
1.0
 40
1.0
 40
1.0
 40
1.0
 10
82.21722596234541
 20
124.2455468831146
 30
0.0
 10
82.12907202460767
 20
124.1708080752605
 30
0.0
 10
82.06871859997894
 20
124.0798275747781
 30
0.0
 10
81.96245664191211
 20
123.8909137520255
 30
0.0
 10
81.92022447535004
 20
123.7944092924849
 30
0.0
 10
81.80915378003289
 20
123.5036415383177
 30
0.0
 10
81.7562170036061
 20
123.307974723774
 30
0.0
 10
81.71241790523732
 20
123.1139082387077
 30
0.0
  0
SPLINE
  5
101
330
1F
100
AcDbEntity
  8
0
  6
HIDDEN
 62
     7
370
     0
100
AcDbSpline
210
0.0
220
0.0
230
1.0
 70
     8
 71
     3
 72
    12
 73
     8
 74
     0
 42
0.00000001
 43
0.00000001
 12
1.0
 22
0.0
 32
0.0
 13
1.0
 23
0.0
 33
0.0
 40
0.0
 40
0.0
 40
0.0
 40
0.0
 40
0.4999999999999991
 40
0.4999999999999991
 40
0.7499999999999996
 40
0.7499999999999996
 40
1.0
 40
1.0
 40
1.0
 40
1.0
 10
81.71241790523732
 20
117.9277339099466
 30
0.0
 10
81.7561644460739
 20
117.9011397393054
 30
0.0
 10
81.8090488013054
 20
117.8813795139797
 30
0.0
 10
81.92061588864155
 20
117.8609285237506
 30
0.0
 10
81.96319948518452
 20
117.8556682990942
 30
0.0
 10
82.06811621226632
 20
117.8477855051716
 30
0.0
 10
82.1296498201111
 20
117.8452213799924
 30
0.0
 10
82.21722596233722
 20
117.8430211624728
 30
0.0
  0
LINE
  5
102
330
1F
100
AcDbEntity
  8
0
  6
HIDDEN
 62
     7
370
     0
100
AcDbLine
 10
82.8337382488
 20
117.1579945861
 30
0.0
 11
82.8337382488
 21
117.6382203767
 31
0.0
  0
LINE
  5
103
330
1F
100
AcDbEntity
  8
0
  6
HIDDEN
 62
     7
370
     0
100
AcDbLine
 10
82.8337382488
 20
161.7574093532
 30
0.0
 11
82.8337382488
 21
162.2376351438
 31
0.0
  0
SPLINE
  5
104
330
1F
100
AcDbEntity
  8
0
  6
HIDDEN
 62
     7
370
     0
100
AcDbSpline
210
0.0
220
0.0
230
1.0
 70
     8
 71
     3
 72
    12
 73
     8
 74
     0
 42
0.00000001
 43
0.00000001
 12
1.0
 22
0.0
 32
0.0
 13
1.0
 23
0.0
 33
0.0
 40
0.0
 40
0.0
 40
0.0
 40
0.0
 40
0.2500000000000004
 40
0.2500000000000004
 40
0.5000000000000009
 40
0.5000000000000009
 40
1.0
 40
1.0
 40
1.0
 40
1.0
 10
82.2172259623452
 20
161.5526085674247
 30
0.0
 10
82.12854130248886
 20
161.5503805000837
 30
0.0
 10
82.06862288676545
 20
161.5478787160534
 30
0.0
 10
81.96296365944472
 20
161.5399472802173
 30
0.0
 10
81.92032242132979
 20
161.5346551253205
 30
0.0
 10
81.80913307922724
 20
161.5142501848334
 30
0.0
 10
81.7562063971063
 20
161.4945154932465
 30
0.0
 10
81.71241790523732
 20
161.4678958199509
 30
0.0
  0
SPLINE
  5
105
330
1F
100
AcDbEntity
  8
0
  6
HIDDEN
 62
     7
370
     0
100
AcDbSpline
210
0.0
220
0.0
230
1.0
 70
     8
 71
     3
 72
    12
 73
     8
 74
     0
 42
0.00000001
 43
0.00000001
 12
1.0
 22
0.0
 32
0.0
 13
1.0
 23
0.0
 33
0.0
 40
0.0
 40
0.0
 40
0.0
 40
0.0
 40
0.4999999999999953
 40
0.4999999999999953
 40
0.7499999999999977
 40
0.7499999999999977
 40
1.0
 40
1.0
 40
1.0
 40
1.0
 10
81.71241790523572
 20
156.28172149119
 30
0.0
 10
81.75617938153448
 20
156.0878217032279
 30
0.0
 10
81.80908569718751
 20
155.8919653392911
 30
0.0
 10
81.92079689483488
 20
155.5998231927921
 30
0.0
 10
81.96331633842125
 20
155.5031052560942
 30
0.0
 10
82.06843968098865
 20
155.3163808196697
 30
0.0
 10
82.13000564470634
 20
155.2240301114
 30
0.0
 10
82.21722596234908
 20
155.1500828467803
 30
0.0
  0
LINE
  5
106
330
1F
100
AcDbEntity
  8
0
  6
HIDDEN
 62
     7
370
     0
100
AcDbLine
 10
105.0337382488
 20
115.6978148649
 30
0.0
 11
105.0337382488
 21
163.6679809742
 31
0.0
  0
LINE
  5
107
330
1F
100
AcDbEntity
  8
0
  6
HIDDEN
 62
     7
370
     0
100
AcDbLine
 10
82.8337382488
 20
117.6382203767
 30
0.0
 11
82.8337382488
 21
132.6759275392
 31
0.0
  0
LINE
  5
108
330
1F
100
AcDbEntity
  8
0
  6
HIDDEN
 62
     7
370
     0
100
AcDbLine
 10
82.8337382488
 20
146.7197021907
 30
0.0
 11
82.8337382488
 21
161.7574093532
 31
0.0
  0
SPLINE
  5
109
330
1F
100
AcDbEntity
  8
0
  6
HIDDEN
 62
     7
370
     0
100
AcDbSpline
210
0.0
220
0.0
230
1.0
 70
     8
 71
     3
 72
    70
 73
    66
 74
     0
 42
0.00000001
 43
0.00000001
 12
1.0
 22
0.0
 32
0.0
 13
1.0
 23
0.0
 33
0.0
 40
-0.03125
 40
-0.03125
 40
0.0
 40
0.0
 40
0.03125
 40
0.03125
 40
0.0625
 40
0.0625
 40
0.09375
 40
0.09375
 40
0.125
 40
0.125
 40
0.15625
 40
0.15625
 40
0.1875
 40
0.1875
 40
0.21875
 40
0.21875
 40
0.25
 40
0.25
 40
0.28125
 40
0.28125
 40
0.3125
 40
0.3125
 40
0.34375
 40
0.34375
 40
0.375
 40
0.375
 40
0.40625
 40
0.40625
 40
0.4375
 40
0.4375
 40
0.46875
 40
0.46875
 40
0.5
 40
0.5
 40
0.53125
 40
0.53125
 40
0.5625
 40
0.5625
 40
0.59375
 40
0.59375
 40
0.625
 40
0.625
 40
0.65625
 40
0.65625
 40
0.6875
 40
0.6875
 40
0.71875
 40
0.71875
 40
0.75
 40
0.75
 40
0.78125
 40
0.78125
 40
0.8125
 40
0.8125
 40
0.84375
 40
0.84375
 40
0.875
 40
0.875
 40
0.90625
 40
0.90625
 40
0.9375
 40
0.9375
 40
0.96875
 40
0.96875
 40
1.0
 40
1.0
 40
1.03125
 40
1.03125
 10
223.033738248797
 20
127.7815246770188
 30
0.0
 10
223.033738248797
 20
128.1026949611802
 30
0.0
 10
223.0142329591346
 20
128.2622869742742
 30
0.0
 10
222.9378595154077
 20
128.579387645569
 30
0.0
 10
222.880044131407
 20
128.7386013940437
 30
0.0
 10
222.7293659385696
 20
129.0447019566974
 30
0.0
 10
222.6372010444921
 20
129.1913001229007
 30
0.0
 10
222.4195039204285
 20
129.4709698021344
 30
0.0
 10
222.2929791548485
 20
129.6044074780773
 30
0.0
 10
222.0166264632459
 20
129.8452522120764
 30
0.0
 10
221.8657858458622
 20
129.9542629891333
 30
0.0
 10
221.5379643863269
 20
130.1478901249683
 30
0.0
 10
221.3637808898306
 20
130.2305510627767
 30
0.0
 10
221.0029321116175
 20
130.363977660774
 30
0.0
 10
220.8135917421112
 20
130.4156880912322
 30
0.0
 10
220.4262225912406
 20
130.4848709562774
 30
0.0
 10
220.2313913666133
 20
130.5020646979839
 30
0.0
 10
219.83948588701
 20
130.5022642130254
 30
0.0
 10
219.6404049397303
 20
130.4846978578748
 30
0.0
 10
219.2554402072673
 20
130.4159873262005
 30
0.0
 10
219.0683015581598
 20
130.3652032668647
 30
0.0
 10
218.7047516120387
 20
130.2311030129655
 30
0.0
 10
218.5294817656468
 20
130.1477495832511
 30
0.0
 10
218.2047349240547
 20
129.956182568098
 30
0.0
 10
218.0529665033207
 20
129.8470455682066
 30
0.0
 10
217.7733041351812
 20
129.6034185868242
 30
0.0
 10
217.6493747093039
 20
129.4724882786347
 30
0.0
 10
217.4321052057579
 20
129.193929383832
 30
0.0
 10
217.3380076317696
 20
129.0445127551719
 30
0.0
 10
217.1874256462
 20
128.7385678342985
 30
0.0
 10
217.1305534920637
 20
128.5824216860238
 30
0.0
 10
217.0535290340208
 20
128.2643131884187
 30
0.0
 10
217.0338137801085
 20
128.1015499979442
 30
0.0
 10
217.0336631607636
 20
127.7845355710188
 30
0.0
 10
217.0525940812424
 20
127.6285300354317
 30
0.0
 10
217.129495307318
 20
127.3214633195771
 30
0.0
 10
217.1869891299357
 20
127.1734111070122
 30
0.0
 10
217.3364482127189
 20
126.893418451997
 30
0.0
 10
217.4296682306303
 20
126.7593617304282
 30
0.0
 10
217.6484089747416
 20
126.5105082970978
 30
0.0
 10
217.7722959464758
 20
126.3970166953722
 30
0.0
 10
218.048577420775
 20
126.1904204024899
 30
0.0
 10
218.2026756741802
 20
126.0967309990401
 30
0.0
 10
218.5280051830652
 20
125.9366879442696
 30
0.0
 10
218.7000814601257
 20
125.8693381133006
 30
0.0
 10
219.063439619092
 20
125.7595077245683
 30
0.0
 10
219.2537791368435
 20
125.7176961655714
 30
0.0
 10
219.6373440971705
 20
125.6623561382181
 30
0.0
 10
219.832899720418
 20
125.648184713986
 30
0.0
 10
220.2294899729236
 20
125.6479426823592
 30
0.0
 10
220.4245658582479
 20
125.6618205067495
 30
0.0
 10
220.8085352447403
 20
125.7166912593112
 30
0.0
 10
220.9994566148217
 20
125.7583955854553
 30
0.0
 10
221.3625020839049
 20
125.867593848961
 30
0.0
 10
221.5348002382654
 20
125.9346932241886
 30
0.0
 10
221.8611244879984
 20
126.0946269435591
 30
0.0
 10
222.0151984923021
 20
126.1880255851097
 30
0.0
 10
222.2916322045676
 20
126.394000592766
 30
0.0
 10
222.4159125179401
 20
126.5073646088027
 30
0.0
 10
222.6357574335618
 20
126.7565933662531
 30
0.0
 10
222.7286758541351
 20
126.8897580190194
 30
0.0
 10
222.8787184000949
 20
127.1693708943279
 30
0.0
 10
222.9366849183058
 20
127.3176700366747
 30
0.0
 10
223.0142303498308
 20
127.6245780515186
 30
0.0
 10
223.033738248797
 20
127.7815246770188
 30
0.0
 10
223.033738248797
 20
128.1026949611802
 30
0.0
  0
SPLINE
  5
10A
330
1F
100
AcDbEntity
  8
0
  6
HIDDEN
 62
     7
370
     0
100
AcDbSpline
210
0.0
220
0.0
230
1.0
 70
     8
 71
     3
 72
    70
 73
    66
 74
     0
 42
0.00000001
 43
0.00000001
 12
1.0
 22
0.0
 32
0.0
 13
1.0
 23
0.0
 33
0.0
 40
-0.03125
 40
-0.03125
 40
0.0
 40
0.0
 40
0.03125
 40
0.03125
 40
0.0625
 40
0.0625
 40
0.09375
 40
0.09375
 40
0.125
 40
0.125
 40
0.15625
 40
0.15625
 40
0.1875
 40
0.1875
 40
0.21875
 40
0.21875
 40
0.25
 40
0.25
 40
0.28125
 40
0.28125
 40
0.3125
 40
0.3125
 40
0.34375
 40
0.34375
 40
0.375
 40
0.375
 40
0.40625
 40
0.40625
 40
0.4375
 40
0.4375
 40
0.46875
 40
0.46875
 40
0.5
 40
0.5
 40
0.53125
 40
0.53125
 40
0.5625
 40
0.5625
 40
0.59375
 40
0.59375
 40
0.625
 40
0.625
 40
0.65625
 40
0.65625
 40
0.6875
 40
0.6875
 40
0.71875
 40
0.71875
 40
0.75
 40
0.75
 40
0.78125
 40
0.78125
 40
0.8125
 40
0.8125
 40
0.84375
 40
0.84375
 40
0.875
 40
0.875
 40
0.90625
 40
0.90625
 40
0.9375
 40
0.9375
 40
0.96875
 40
0.96875
 40
1.0
 40
1.0
 40
1.03125
 40
1.03125
 10
223.033738248797
 20
127.7815246770188
 30
0.0
 10
223.033738248797
 20
128.1026949611802
 30
0.0
 10
223.0142329591346
 20
128.2622869742742
 30
0.0
 10
222.9378595154077
 20
128.579387645569
 30
0.0
 10
222.880044131407
 20
128.7386013940437
 30
0.0
 10
222.7293659385696
 20
129.0447019566974
 30
0.0
 10
222.6372010444921
 20
129.1913001229007
 30
0.0
 10
222.4195039204285
 20
129.4709698021344
 30
0.0
 10
222.2929791548485
 20
129.6044074780773
 30
0.0
 10
222.0166264632459
 20
129.8452522120764
 30
0.0
 10
221.8657858458622
 20
129.9542629891333
 30
0.0
 10
221.5379643863269
 20
130.1478901249683
 30
0.0
 10
221.3637808898306
 20
130.2305510627767
 30
0.0
 10
221.0029321116175
 20
130.363977660774
 30
0.0
 10
220.8135917421112
 20
130.4156880912322
 30
0.0
 10
220.4262225912406
 20
130.4848709562774
 30
0.0
 10
220.2313913666133
 20
130.5020646979839
 30
0.0
 10
219.83948588701
 20
130.5022642130254
 30
0.0
 10
219.6404049397303
 20
130.4846978578748
 30
0.0
 10
219.2554402072673
 20
130.4159873262005
 30
0.0
 10
219.0683015581598
 20
130.3652032668647
 30
0.0
 10
218.7047516120387
 20
130.2311030129655
 30
0.0
 10
218.5294817656468
 20
130.1477495832511
 30
0.0
 10
218.2047349240547
 20
129.956182568098
 30
0.0
 10
218.0529665033207
 20
129.8470455682066
 30
0.0
 10
217.7733041351812
 20
129.6034185868242
 30
0.0
 10
217.6493747093039
 20
129.4724882786347
 30
0.0
 10
217.4321052057579
 20
129.193929383832
 30
0.0
 10
217.3380076317696
 20
129.0445127551719
 30
0.0
 10
217.1874256462
 20
128.7385678342985
 30
0.0
 10
217.1305534920637
 20
128.5824216860238
 30
0.0
 10
217.0535290340208
 20
128.2643131884187
 30
0.0
 10
217.0338137801085
 20
128.1015499979442
 30
0.0
 10
217.0336631607636
 20
127.7845355710188
 30
0.0
 10
217.0525940812424
 20
127.6285300354317
 30
0.0
 10
217.129495307318
 20
127.3214633195771
 30
0.0
 10
217.1869891299357
 20
127.1734111070122
 30
0.0
 10
217.3364482127189
 20
126.893418451997
 30
0.0
 10
217.4296682306303
 20
126.7593617304282
 30
0.0
 10
217.6484089747416
 20
126.5105082970978
 30
0.0
 10
217.7722959464758
 20
126.3970166953722
 30
0.0
 10
218.048577420775
 20
126.1904204024899
 30
0.0
 10
218.2026756741802
 20
126.0967309990401
 30
0.0
 10
218.5280051830652
 20
125.9366879442696
 30
0.0
 10
218.7000814601257
 20
125.8693381133006
 30
0.0
 10
219.063439619092
 20
125.7595077245683
 30
0.0
 10
219.2537791368435
 20
125.7176961655714
 30
0.0
 10
219.6373440971705
 20
125.6623561382181
 30
0.0
 10
219.832899720418
 20
125.648184713986
 30
0.0
 10
220.2294899729236
 20
125.6479426823592
 30
0.0
 10
220.4245658582479
 20
125.6618205067495
 30
0.0
 10
220.8085352447403
 20
125.7166912593112
 30
0.0
 10
220.9994566148217
 20
125.7583955854553
 30
0.0
 10
221.3625020839049
 20
125.867593848961
 30
0.0
 10
221.5348002382654
 20
125.9346932241886
 30
0.0
 10
221.8611244879984
 20
126.0946269435591
 30
0.0
 10
222.0151984923021
 20
126.1880255851097
 30
0.0
 10
222.2916322045676
 20
126.394000592766
 30
0.0
 10
222.4159125179401
 20
126.5073646088027
 30
0.0
 10
222.6357574335618
 20
126.7565933662531
 30
0.0
 10
222.7286758541351
 20
126.8897580190194
 30
0.0
 10
222.8787184000949
 20
127.1693708943279
 30
0.0
 10
222.9366849183058
 20
127.3176700366747
 30
0.0
 10
223.0142303498308
 20
127.6245780515186
 30
0.0
 10
223.033738248797
 20
127.7815246770188
 30
0.0
 10
223.033738248797
 20
128.1026949611802
 30
0.0
  0
LINE
  5
10B
330
1F
100
AcDbEntity
  8
0
  6
HIDDEN
 62
     7
370
     0
100
AcDbLine
 10
237.0337382488
 20
119.6978148649
 30
0.0
 11
237.0337382488
 21
159.6978148649
 31
0.0
  0
CIRCLE
  5
10C
330
1F
100
AcDbEntity
  8
0
  6
HIDDEN
 62
     7
370
     0
100
AcDbCircle
 10
67.5337382488
 20
139.6978148649
 30
0.0
 40
4.050000000000011
  0
LINE
  5
10D
330
1F
100
AcDbEntity
  8
0
  6
HIDDEN
 62
     7
370
     0
100
AcDbLine
 10
46.5639666884
 20
155.0107659079
 30
0.0
 11
46.5639666884
 21
124.384863822
 31
0.0
  0
LINE
  5
10E
330
1F
100
AcDbEntity
  8
0
  6
HIDDEN
 62
     7
370
     0
100
AcDbLine
 10
45.0337382488
 20
123.5013860205
 30
0.0
 11
45.0337382488
 21
155.8942437094
 31
0.0
  0
LINE
  5
10F
330
1F
100
AcDbEntity
  8
0
  6
HIDDEN
 62
     7
370
     0
100
AcDbLine
 10
53.0639666884
 20
154.0442250265
 30
0.0
 11
53.0639666884
 21
125.3514047034
 31
0.0
  0
LINE
  5
110
330
1F
100
AcDbEntity
  8
0
  6
HIDDEN
 62
     7
370
     0
100
AcDbLine
 10
58.8639666884
 20
153.6978148649
 30
0.0
 11
58.8639666884
 21
125.6978148649
 31
0.0
  0
LINE
  5
111
330
1F
100
AcDbEntity
  8
0
  6
HIDDEN
 62
     7
370
     0
100
AcDbLine
 10
51.4639666884
 20
153.6978148649
 30
0.0
 11
51.4639666884
 21
125.6978148649
 31
0.0
  0
SPLINE
  5
112
330
1F
100
AcDbEntity
  8
0
  6
HIDDEN
 62
     7
370
     0
100
AcDbSpline
210
0.0
220
0.0
230
1.0
 70
     8
 71
     3
 72
    60
 73
    56
 74
     0
 42
0.00000001
 43
0.00000001
 12
1.0
 22
0.0
 32
0.0
 13
1.0
 23
0.0
 33
0.0
 40
-0.0312500000000014
 40
-0.0312500000000014
 40
0.0
 40
0.0
 40
0.0312499999999989
 40
0.0312499999999989
 40
0.0624999999999979
 40
0.0624999999999979
 40
0.1249999999999957
 40
0.1249999999999957
 40
0.1562499999999947
 40
0.1562499999999947
 40
0.1874999999999936
 40
0.1874999999999936
 40
0.2187499999999925
 40
0.2187499999999925
 40
0.2499999999999914
 40
0.2499999999999914
 40
0.3124999999999891
 40
0.3124999999999891
 40
0.3749999999999868
 40
0.3749999999999868
 40
0.4062499999999874
 40
0.4062499999999874
 40
0.437499999999988
 40
0.437499999999988
 40
0.4687499999999886
 40
0.4687499999999886
 40
0.4999999999999891
 40
0.4999999999999891
 40
0.5312499999999897
 40
0.5312499999999897
 40
0.5624999999999903
 40
0.5624999999999903
 40
0.6249999999999915
 40
0.6249999999999915
 40
0.6562499999999921
 40
0.6562499999999921
 40
0.6874999999999927
 40
0.6874999999999927
 40
0.7187499999999933
 40
0.7187499999999933
 40
0.7499999999999939
 40
0.7499999999999939
 40
0.7812499999999944
 40
0.7812499999999944
 40
0.8124999999999951
 40
0.8124999999999951
 40
0.8749999999999943
 40
0.8749999999999943
 40
0.9062499999999958
 40
0.9062499999999958
 40
0.9374999999999971
 40
0.9374999999999971
 40
0.9687499999999986
 40
0.9687499999999986
 40
1.0
 40
1.0
 40
1.031249999999999
 40
1.031249999999999
 10
219.8642106522263
 20
139.6954501872681
 30
0.0
 10
220.2032658453676
 20
139.6954501872681
 30
0.0
 10
220.3688636930751
 20
139.716634997479
 30
0.0
 10
220.6929837697477
 20
139.7971220549428
 30
0.0
 10
220.8527938340734
 20
139.8574042280587
 30
0.0
 10
221.3021354366149
 20
140.081883870299
 30
0.0
 10
221.5718181763901
 20
140.2928188491145
 30
0.0
 10
221.9100029651476
 20
140.6558589373572
 30
0.0
 10
222.0135693987715
 20
140.7869316046473
 30
0.0
 10
222.1940208610714
 20
141.0572486056603
 30
0.0
 10
222.2711428273337
 20
141.1962146782626
 30
0.0
 10
222.3985607121409
 20
141.4806278956166
 30
0.0
 10
222.4490249049421
 20
141.6278789852075
 30
0.0
 10
222.5158663176245
 20
141.9135014396919
 30
0.0
 10
222.5331845191735
 20
142.0531837906631
 30
0.0
 10
222.534806911107
 20
142.4618090886664
 30
0.0
 10
222.4663189405632
 20
142.7089534289187
 30
0.0
 10
222.2122686341925
 20
143.1159769964024
 30
0.0
 10
222.0276857348371
 20
143.2772995389844
 30
0.0
 10
221.6903172644139
 20
143.459876553179
 30
0.0
 10
221.5663280954471
 20
143.511748742632
 30
0.0
 10
221.3001593502297
 20
143.598222617765
 30
0.0
 10
221.1596226694056
 20
143.6325180052351
 30
0.0
 10
220.8619643341077
 20
143.6869221764392
 30
0.0
 10
220.7024969565651
 20
143.7071723847141
 30
0.0
 10
220.3768795724316
 20
143.7337373352675
 30
0.0
 10
220.2109125900445
 20
143.7403300226941
 30
0.0
 10
219.8720793439815
 20
143.7407311125446
 30
0.0
 10
219.7050886651463
 20
143.7344806109885
 30
0.0
 10
219.3794637513555
 20
143.7087556105425
 30
0.0
 10
219.2193325787985
 20
143.6889410177429
 30
0.0
 10
218.7686274194402
 20
143.608024902528
 30
0.0
 10
218.4983689182894
 20
143.5241638079724
 30
0.0
 10
218.1586541893876
 20
143.3422497703071
 30
0.0
 10
218.0546955455123
 20
143.271149675946
 30
0.0
 10
217.8743864528906
 20
143.1106757273004
 30
0.0
 10
217.7969527442981
 20
143.0209753202487
 30
0.0
 10
217.6687038894534
 20
142.8187235747872
 30
0.0
 10
217.6183885985366
 20
142.7056935514365
 30
0.0
 10
217.5516403520452
 20
142.4659572538773
 30
0.0
 10
217.534166842849
 20
142.3379442417805
 30
0.0
 10
217.5333250603186
 20
142.0638962518325
 30
0.0
 10
217.5500851578506
 20
141.9228846053429
 30
0.0
 10
217.6158373013544
 20
141.6363568951262
 30
0.0
 10
217.6656921621281
 20
141.489017948641
 30
0.0
 10
217.8566569476956
 20
141.0592658960851
 30
0.0
 10
218.0419530806654
 20
140.7804135042653
 30
0.0
 10
218.3808419814853
 20
140.4158060237815
 30
0.0
 10
218.5060239038885
 20
140.3011781777764
 30
0.0
 10
218.7719590398618
 20
140.0977702075559
 30
0.0
 10
218.9128146232605
 20
140.0084023599218
 30
0.0
 10
219.2124812197448
 20
139.8583143555064
 30
0.0
 10
219.3728594018794
 20
139.7976377219743
 30
0.0
 10
219.697596541928
 20
139.7167781834513
 30
0.0
 10
219.8642106522263
 20
139.6954501872681
 30
0.0
 10
220.2032658453676
 20
139.6954501872681
 30
0.0
  0
SPLINE
  5
113
330
1F
100
AcDbEntity
  8
0
  6
HIDDEN
 62
     7
370
     0
100
AcDbSpline
210
0.0
220
0.0
230
1.0
 70
     8
 71
     3
 72
     8
 73
     4
 74
     0
 42
0.00000001
 43
0.00000001
 12
1.0
 22
0.0
 32
0.0
 13
1.0
 23
0.0
 33
0.0
 40
0.0
 40
0.0
 40
0.0
 40
0.0
 40
1.0
 40
1.0
 40
1.0
 40
1.0
 10
219.204195206563
 20
149.8400680223365
 30
0.0
 10
219.1829870946987
 20
149.6061751186734
 30
0.0
 10
219.2092243113543
 20
149.3865346829504
 30
0.0
 10
219.2833302946717
 20
149.1800018072316
 30
0.0
  0
SPLINE
  5
114
330
1F
100
AcDbEntity
  8
0
  6
HIDDEN
 62
     7
370
     0
100
AcDbSpline
210
0.0
220
0.0
230
1.0
 70
     8
 71
     3
 72
    52
 73
    48
 74
     0
 42
0.00000001
 43
0.00000001
 12
1.0
 22
0.0
 32
0.0
 13
1.0
 23
0.0
 33
0.0
 40
0.0
 40
0.0
 40
0.0
 40
0.0
 40
0.0312500000000031
 40
0.0312500000000031
 40
0.0625000000000062
 40
0.0625000000000062
 40
0.125000000000007
 40
0.125000000000007
 40
0.1875000000000077
 40
0.1875000000000077
 40
0.218750000000008
 40
0.218750000000008
 40
0.2500000000000083
 40
0.2500000000000083
 40
0.2812500000000086
 40
0.2812500000000086
 40
0.3125000000000089
 40
0.3125000000000089
 40
0.3437500000000093
 40
0.3437500000000093
 40
0.3750000000000095
 40
0.3750000000000095
 40
0.4062500000000099
 40
0.4062500000000099
 40
0.4375000000000102
 40
0.4375000000000102
 40
0.5000000000000104
 40
0.5000000000000104
 40
0.5625000000000107
 40
0.5625000000000107
 40
0.6250000000000109
 40
0.6250000000000109
 40
0.656250000000011
 40
0.656250000000011
 40
0.6875000000000111
 40
0.6875000000000111
 40
0.7187500000000112
 40
0.7187500000000112
 40
0.7500000000000112
 40
0.7500000000000112
 40
0.8125000000000084
 40
0.8125000000000084
 40
0.8750000000000057
 40
0.8750000000000057
 40
0.9375000000000029
 40
0.9375000000000029
 40
1.0
 40
1.0
 40
1.0
 40
1.0
 10
219.2833302946717
 20
149.1800018072323
 30
0.0
 10
219.3903553955274
 20
149.1693815371725
 30
0.0
 10
219.4914654352964
 20
149.1456458521242
 30
0.0
 10
219.6931603806985
 20
149.0868595838293
 30
0.0
 10
219.7932434353859
 20
149.0511299197523
 30
0.0
 10
220.0953413575885
 20
148.9294597495985
 30
0.0
 10
220.3016608963554
 20
148.8276892278883
 30
0.0
 10
220.7120332677283
 20
148.5930760710921
 30
0.0
 10
220.9155415796621
 20
148.4607322706225
 30
0.0
 10
221.2191391184669
 20
148.2352224430971
 30
0.0
 10
221.3203691791715
 20
148.1550979191961
 30
0.0
 10
221.5150972049127
 20
147.990034809446
 30
0.0
 10
221.6094415225903
 20
147.904516955805
 30
0.0
 10
221.7913266127678
 20
147.7267691725105
 30
0.0
 10
221.8787391800038
 20
147.6344528511945
 30
0.0
 10
222.038115693255
 20
147.4508854705236
 30
0.0
 10
222.1111442535327
 20
147.3586494300814
 30
0.0
 10
222.242882956074
 20
147.1732815403302
 30
0.0
 10
222.3010418434006
 20
147.0805816210273
 30
0.0
 10
222.3968629675308
 20
146.903876666552
 30
0.0
 10
222.4355009161914
 20
146.8184678575024
 30
0.0
 10
222.4942034215076
 20
146.6545776901395
 30
0.0
 10
222.5135164634227
 20
146.5783368364807
 30
0.0
 10
222.5346400462068
 20
146.4359308877393
 30
0.0
 10
222.5363110351973
 20
146.369333215164
 30
0.0
 10
222.517701295924
 20
146.188892090859
 30
0.0
 10
222.4747875211272
 20
146.0922130094595
 30
0.0
 10
222.3427342948969
 20
145.9392865463155
 30
0.0
 10
222.2557258736774
 20
145.8853426008884
 30
0.0
 10
222.0517449269921
 20
145.8168002999869
 30
0.0
 10
221.9325959340682
 20
145.801295549696
 30
0.0
 10
221.750607574306
 20
145.820127810968
 30
0.0
 10
221.6889248408648
 20
145.8330838180609
 30
0.0
 10
221.5843257497102
 20
145.8891315461165
 30
0.0
 10
221.5413806614189
 20
145.9366732859368
 30
0.0
 10
221.553789665477
 20
146.0973657211361
 30
0.0
 10
221.6015852525405
 20
146.1970652377777
 30
0.0
 10
221.7041483690477
 20
146.3960238939006
 30
0.0
 10
221.7620791434229
 20
146.49946719307
 30
0.0
 10
221.9325531165603
 20
146.8159605193605
 30
0.0
 10
222.0426475732538
 20
147.0347115757789
 30
0.0
 10
222.2371854882447
 20
147.4918540446211
 30
0.0
 10
222.323333676729
 20
147.7326619257506
 30
0.0
 10
222.4566372306759
 20
148.2272140724648
 30
0.0
 10
222.5039327630092
 20
148.4787091250935
 30
0.0
 10
222.5436789800103
 20
148.9931541371137
 30
0.0
 10
222.5353835779577
 20
149.2440962147157
 30
0.0
 10
222.4882249962844
 20
149.4865510863369
 30
0.0
  0
LWPOLYLINE
  5
115
330
1F
100
AcDbEntity
  8
0
  6
HIDDEN
 62
     7
370
     0
100
AcDbPolyline
 90
       19
 70
   128
 43
0.0
 10
221.821103436
 20
150.5164993418
 10
221.1879155637
 20
150.8964777818
 10
220.4399516056
 20
151.0980437331
 10
219.6515921393
 20
151.101152658
 10
218.9012348363
 20
150.9054953922
 10
218.263498278
 20
150.53052889
 10
217.8018015814
 20
150.0135413451
 10
217.5620577435
 20
149.4059441015
 10
217.5681078665
 20
148.7681590999
 10
217.8193503015
 20
148.1636102746
 10
218.2908004791
 20
147.6524164192
 10
218.9355754765
 20
147.2854127295
 10
219.6895562458
 20
147.0990955449
 10
220.4777638731
 20
147.1119930039
 10
221.2218157866
 20
147.3228225308
 10
221.8477204383
 20
147.7106183801
 10
222.2932353243
 20
148.2368165554
 10
222.5140566325
 20
148.8490897703
 10
222.4882249961
 20
149.4865510862
  0
SPLINE
  5
116
330
1F
100
AcDbEntity
  8
0
  6
HIDDEN
 62
     7
370
     0
100
AcDbSpline
210
0.0
220
0.0
230
1.0
 70
     8
 71
     3
 72
    16
 73
    12
 74
     0
 42
0.00000001
 43
0.00000001
 12
1.0
 22
0.0
 32
0.0
 13
1.0
 23
0.0
 33
0.0
 40
0.0
 40
0.0
 40
0.0
 40
0.0
 40
0.2499999999999959
 40
0.2499999999999959
 40
0.4999999999999918
 40
0.4999999999999918
 40
0.7499999999999877
 40
0.7499999999999877
 40
0.8749999999999938
 40
0.8749999999999938
 40
1.0
 40
1.0
 40
1.0
 40
1.0
 10
221.8211034385966
 20
150.5164993413778
 30
0.0
 10
221.6240246345139
 20
150.6286622836597
 30
0.0
 10
221.4109604125676
 20
150.6777676609585
 30
0.0
 10
220.9654101751366
 20
150.6874691210355
 30
0.0
 10
220.7434040057988
 20
150.6476915849569
 30
0.0
 10
220.2985560197698
 20
150.5048168306884
 30
0.0
 10
220.078423566239
 20
150.401340358713
 30
0.0
 10
219.7549259192115
 20
150.2133618439198
 30
0.0
 10
219.6477405748163
 20
150.1449467472826
 30
0.0
 10
219.4304354865217
 20
149.9981505027241
 30
0.0
 10
219.3211606067784
 20
149.9193960881213
 30
0.0
 10
219.2041952065616
 20
149.8400680223373
 30
0.0
  0
LINE
  5
117
330
1F
100
AcDbEntity
  8
0
  6
HIDDEN
 62
     7
370
     0
100
AcDbLine
 10
52.4639666884
 20
153.6978148649
 30
0.0
 11
52.4639666884
 21
125.6978148649
 31
0.0
  0
SPLINE
  5
118
330
1F
100
AcDbEntity
  8
0
  6
HIDDEN
 62
     7
370
     0
100
AcDbSpline
210
0.0
220
0.0
230
1.0
 70
     8
 71
     3
 72
    10
 73
     6
 74
     0
 42
0.00000001
 43
0.00000001
 12
1.0
 22
0.0
 32
0.0
 13
1.0
 23
0.0
 33
0.0
 40
0.0
 40
0.0
 40
0.0
 40
0.0
 40
0.5
 40
0.5
 40
1.0
 40
1.0
 40
1.0
 40
1.0
 10
71.533738248797
 20
140.3322437419713
 30
0.0
 10
71.56688566687343
 20
140.1232531409632
 30
0.0
 10
71.58374451223507
 20
139.9116906749416
 30
0.0
 10
71.58373198188741
 20
139.483701908974
 30
0.0
 10
71.56681702414703
 20
139.2719438045583
 30
0.0
 10
71.533738248797
 20
139.0633859879262
 30
0.0
  0
LINE
  5
119
330
1F
100
AcDbEntity
  8
0
  6
HIDDEN
 62
     7
370
     0
100
AcDbLine
 10
72.0337382488
 20
153.1978147649
 30
0.0
 11
72.0337382488
 21
126.1978148649
 31
0.0
  0
SPLINE
  5
11A
330
1F
100
AcDbEntity
  8
0
  6
HIDDEN
 62
     7
370
     0
100
AcDbSpline
210
0.0
220
0.0
230
1.0
 70
     8
 71
     3
 72
    10
 73
     6
 74
     0
 42
0.00000001
 43
0.00000001
 12
1.0
 22
0.0
 32
0.0
 13
1.0
 23
0.0
 33
0.0
 40
0.0
 40
0.0
 40
0.0
 40
0.0
 40
0.5
 40
0.5
 40
1.0
 40
1.0
 40
1.0
 40
1.0
 10
71.533738248797
 20
139.0633859879262
 30
0.0
 10
71.5669272112707
 20
139.2726385215087
 30
0.0
 10
71.58362798752535
 20
139.4834552824076
 30
0.0
 10
71.58384742797001
 20
139.907987563611
 30
0.0
 10
71.5669677125766
 20
140.1227358523836
 30
0.0
 10
71.533738248797
 20
140.3322437419713
 30
0.0
  0
SPLINE
  5
11B
330
1F
100
AcDbEntity
  8
0
  6
HIDDEN
 62
     7
370
     0
100
AcDbSpline
210
0.0
220
0.0
230
1.0
 70
     8
 71
     3
 72
    68
 73
    64
 74
     0
 42
0.00000001
 43
0.00000001
 12
1.0
 22
0.0
 32
0.0
 13
1.0
 23
0.0
 33
0.0
 40
0.0
 40
0.0
 40
0.0
 40
0.0
 40
0.0312500000000001
 40
0.0312500000000001
 40
0.0625000000000002
 40
0.0625000000000002
 40
0.0937500000000004
 40
0.0937500000000004
 40
0.1250000000000005
 40
0.1250000000000005
 40
0.1562500000000007
 40
0.1562500000000007
 40
0.1875000000000008
 40
0.1875000000000008
 40
0.218750000000001
 40
0.218750000000001
 40
0.2500000000000012
 40
0.2500000000000012
 40
0.2812500000000012
 40
0.2812500000000012
 40
0.3125000000000012
 40
0.3125000000000012
 40
0.3437500000000012
 40
0.3437500000000012
 40
0.3750000000000012
 40
0.3750000000000012
 40
0.4062500000000012
 40
0.4062500000000012
 40
0.4375000000000012
 40
0.4375000000000012
 40
0.4687500000000012
 40
0.4687500000000012
 40
0.5000000000000011
 40
0.5000000000000011
 40
0.5625000000000011
 40
0.5625000000000011
 40
0.5937500000000011
 40
0.5937500000000011
 40
0.6250000000000011
 40
0.6250000000000011
 40
0.6562500000000011
 40
0.6562500000000011
 40
0.6875000000000011
 40
0.6875000000000011
 40
0.7187500000000011
 40
0.7187500000000011
 40
0.750000000000001
 40
0.750000000000001
 40
0.7812500000000009
 40
0.7812500000000009
 40
0.8125000000000008
 40
0.8125000000000008
 40
0.8437500000000007
 40
0.8437500000000007
 40
0.8750000000000006
 40
0.8750000000000006
 40
0.9062500000000004
 40
0.9062500000000004
 40
0.9375000000000003
 40
0.9375000000000003
 40
0.9687500000000002
 40
0.9687500000000002
 40
1.0
 40
1.0
 40
1.0
 40
1.0
 10
71.533738248797
 20
139.0633859879262
 30
0.0
 10
71.4937232964473
 20
138.8110963851107
 30
0.0
 10
71.430781495036
 20
138.5670975347348
 30
0.0
 10
71.26139483296394
 20
138.0946791456723
 30
0.0
 10
71.15370127037846
 20
137.8642657595124
 30
0.0
 10
70.89841650184057
 20
137.4295611637153
 30
0.0
 10
70.75237727136835
 20
137.226919197064
 30
0.0
 10
70.4241558348091
 20
136.8499299063062
 30
0.0
 10
70.23990854703412
 20
136.6742719527288
 30
0.0
 10
69.84694837972582
 20
136.3640139837825
 30
0.0
 10
69.63765378276665
 20
136.2280687761326
 30
0.0
 10
69.1927683558293
 20
135.9946786807268
 30
0.0
 10
68.95597076333027
 20
135.8974320743124
 30
0.0
 10
68.475235694411
 20
135.750760616441
 30
0.0
 10
68.22899260122821
 20
135.6998682714986
 30
0.0
 10
67.72427582124878
 20
135.6443409212631
 30
0.0
 10
67.4680811203123
 20
135.6405160341932
 30
0.0
 10
66.96570237111219
 20
135.6799398168376
 30
0.0
 10
66.71645267192861
 20
135.7229672660488
 30
0.0
 10
66.22492487444984
 20
135.8566722355001
 30
0.0
 10
65.989629273224
 20
135.9453420814053
 30
0.0
 10
65.53871537856186
 20
136.1643734451827
 30
0.0
 10
65.32110302809849
 20
136.2963750108663
 30
0.0
 10
64.91789585855021
 20
136.5957322918692
 30
0.0
 10
64.73228436611576
 20
136.762351219307
 30
0.0
 10
64.39229629571327
 20
137.1294626447345
 30
0.0
 10
64.23722336489035
 20
137.3317663902752
 30
0.0
 10
63.97088028822701
 20
137.7558470698693
 30
0.0
 10
63.85789618751021
 20
137.9790066753355
 30
0.0
 10
63.67304093057933
 20
138.4483619169296
 30
0.0
 10
63.60190016907594
 20
138.6945724202651
 30
0.0
 10
63.50793975778777
 20
139.1890982466363
 30
0.0
 10
63.48393042783139
 20
139.4400292417283
 30
0.0
 10
63.4833573071588
 20
140.2042746212845
 30
0.0
 10
63.57875641847743
 20
140.7064989233355
 30
0.0
 10
63.85662021067855
 20
141.4140634296079
 30
0.0
 10
63.96978216675911
 20
141.6377696933487
 30
0.0
 10
64.23591334880298
 20
142.0620396046693
 30
0.0
 10
64.3907411230027
 20
142.2642915667253
 30
0.0
 10
64.7309222287905
 20
142.6320023080935
 30
0.0
 10
64.91642468574024
 20
142.7986191833428
 30
0.0
 10
65.31871848679958
 20
143.0976685621383
 30
0.0
 10
65.53672653505157
 20
143.2301252701667
 30
0.0
 10
65.98732490220188
 20
143.4493316708713
 30
0.0
 10
66.22187390108265
 20
143.537816800875
 30
0.0
 10
66.71033389463496
 20
143.6713030308136
 30
0.0
 10
66.96259929034883
 20
143.7152447433074
 30
0.0
 10
67.4647799285091
 20
143.7550537397809
 30
0.0
 10
67.71726204586082
 20
143.7517095269674
 30
0.0
 10
68.22512708893031
 20
143.6965302069768
 30
0.0
 10
68.47267256211411
 20
143.6454842785074
 30
0.0
 10
68.95364009958482
 20
143.4990738902719
 30
0.0
 10
69.18959996469009
 20
143.4024276854983
 30
0.0
 10
69.6361704142117
 20
143.1685227411852
 30
0.0
 10
69.84581527678516
 20
143.0323977273587
 30
0.0
 10
70.23880198353963
 20
142.7223434630296
 30
0.0
 10
70.42319788735463
 20
142.5466862154545
 30
0.0
 10
70.751748305215
 20
142.16954629279
 30
0.0
 10
70.89769040173819
 20
141.9670800875202
 30
0.0
 10
71.15257575694034
 20
141.5335037893869
 30
0.0
 10
71.26088706974868
 20
141.3022119458053
 30
0.0
 10
71.43072204716562
 20
140.8288522656721
 30
0.0
 10
71.49371740830269
 20
140.5845704688513
 30
0.0
 10
71.533738248797
 20
140.3322437419713
 30
0.0
  0
SPLINE
  5
11C
330
1F
100
AcDbEntity
  8
0
  6
HIDDEN
 62
     7
370
     0
100
AcDbSpline
210
0.0
220
0.0
230
1.0
 70
     8
 71
     3
 72
    68
 73
    64
 74
     0
 42
0.00000001
 43
0.00000001
 12
1.0
 22
0.0
 32
0.0
 13
1.0
 23
0.0
 33
0.0
 40
0.0
 40
0.0
 40
0.0
 40
0.0
 40
0.0312500000000002
 40
0.0312500000000002
 40
0.0625000000000004
 40
0.0625000000000004
 40
0.0937500000000006
 40
0.0937500000000006
 40
0.1250000000000008
 40
0.1250000000000008
 40
0.156250000000001
 40
0.156250000000001
 40
0.1875000000000012
 40
0.1875000000000012
 40
0.2187500000000014
 40
0.2187500000000014
 40
0.2500000000000016
 40
0.2500000000000016
 40
0.2812500000000016
 40
0.2812500000000016
 40
0.3125000000000016
 40
0.3125000000000016
 40
0.3437500000000016
 40
0.3437500000000016
 40
0.3750000000000016
 40
0.3750000000000016
 40
0.4062500000000016
 40
0.4062500000000016
 40
0.4375000000000016
 40
0.4375000000000016
 40
0.4687500000000016
 40
0.4687500000000016
 40
0.5000000000000016
 40
0.5000000000000016
 40
0.5625000000000016
 40
0.5625000000000016
 40
0.5937500000000014
 40
0.5937500000000014
 40
0.6250000000000013
 40
0.6250000000000013
 40
0.6562500000000012
 40
0.6562500000000012
 40
0.6875000000000011
 40
0.6875000000000011
 40
0.718750000000001
 40
0.718750000000001
 40
0.7500000000000009
 40
0.7500000000000009
 40
0.7812500000000008
 40
0.7812500000000008
 40
0.8125000000000007
 40
0.8125000000000007
 40
0.8437500000000006
 40
0.8437500000000006
 40
0.8750000000000004
 40
0.8750000000000004
 40
0.9062500000000003
 40
0.9062500000000003
 40
0.9375000000000002
 40
0.9375000000000002
 40
0.9687500000000001
 40
0.9687500000000001
 40
1.0
 40
1.0
 40
1.0
 40
1.0
 10
71.533738248797
 20
140.3322437419713
 30
0.0
 10
71.4937232964473
 20
140.5845333447868
 30
0.0
 10
71.430781495036
 20
140.8285321951627
 30
0.0
 10
71.26139483296394
 20
141.3009505842252
 30
0.0
 10
71.15370127037846
 20
141.5313639703851
 30
0.0
 10
70.89841650184057
 20
141.9660685661822
 30
0.0
 10
70.75237727136833
 20
142.1687105328335
 30
0.0
 10
70.4241558348091
 20
142.5456998235913
 30
0.0
 10
70.2399085470341
 20
142.7213577771687
 30
0.0
 10
69.84694837972582
 20
143.031615746115
 30
0.0
 10
69.63765378276665
 20
143.1675609537649
 30
0.0
 10
69.1927683558293
 20
143.4009510491707
 30
0.0
 10
68.95597076333027
 20
143.4981976555851
 30
0.0
 10
68.475235694411
 20
143.6448691134565
 30
0.0
 10
68.22899260122821
 20
143.6957614583989
 30
0.0
 10
67.72427582124878
 20
143.7512888086344
 30
0.0
 10
67.4680811203123
 20
143.7551136957044
 30
0.0
 10
66.96570237111219
 20
143.7156899130599
 30
0.0
 10
66.71645267192861
 20
143.6726624638487
 30
0.0
 10
66.22492487444984
 20
143.5389574943974
 30
0.0
 10
65.989629273224
 20
143.4502876484922
 30
0.0
 10
65.53871537856188
 20
143.2312562847148
 30
0.0
 10
65.32110302809849
 20
143.0992547190312
 30
0.0
 10
64.9178958585502
 20
142.7998974380284
 30
0.0
 10
64.73228436611576
 20
142.6332785105905
 30
0.0
 10
64.39229629571327
 20
142.266167085163
 30
0.0
 10
64.23722336489035
 20
142.0638633396223
 30
0.0
 10
63.97088028822701
 20
141.6397826600283
 30
0.0
 10
63.85789618751023
 20
141.4166230545621
 30
0.0
 10
63.67304093057933
 20
140.9472678129679
 30
0.0
 10
63.60190016907594
 20
140.7010573096324
 30
0.0
 10
63.50793975778777
 20
140.2065314832612
 30
0.0
 10
63.48393042783137
 20
139.9556004881692
 30
0.0
 10
63.48335730715882
 20
139.191355108613
 30
0.0
 10
63.57875641847743
 20
138.689130806562
 30
0.0
 10
63.85662021067855
 20
137.9815663002896
 30
0.0
 10
63.9697821667591
 20
137.7578600365488
 30
0.0
 10
64.23591334880297
 20
137.3335901252283
 30
0.0
 10
64.39074112300268
 20
137.1313381631722
 30
0.0
 10
64.7309222287905
 20
136.763627421804
 30
0.0
 10
64.91642468574024
 20
136.5970105465547
 30
0.0
 10
65.31871848679957
 20
136.2979611677592
 30
0.0
 10
65.53672653505157
 20
136.1655044597308
 30
0.0
 10
65.98732490220186
 20
135.9462980590262
 30
0.0
 10
66.22187390108265
 20
135.8578129290225
 30
0.0
 10
66.71033389463496
 20
135.7243266990839
 30
0.0
 10
66.96259929034883
 20
135.6803849865901
 30
0.0
 10
67.4647799285091
 20
135.6405759901166
 30
0.0
 10
67.71726204586082
 20
135.6439202029301
 30
0.0
 10
68.22512708893031
 20
135.6990995229207
 30
0.0
 10
68.47267256211411
 20
135.7501454513901
 30
0.0
 10
68.95364009958482
 20
135.8965558396256
 30
0.0
 10
69.18959996469009
 20
135.9932020443993
 30
0.0
 10
69.6361704142117
 20
136.2271069887123
 30
0.0
 10
69.84581527678516
 20
136.3632320025388
 30
0.0
 10
70.23880198353963
 20
136.6732862668679
 30
0.0
 10
70.42319788735463
 20
136.8489435144431
 30
0.0
 10
70.751748305215
 20
137.2260834371075
 30
0.0
 10
70.89769040173819
 20
137.4285496423773
 30
0.0
 10
71.15257575694034
 20
137.8621259405107
 30
0.0
 10
71.26088706974866
 20
138.0934177840922
 30
0.0
 10
71.4307220471656
 20
138.5667774642254
 30
0.0
 10
71.49371740830269
 20
138.8110592610462
 30
0.0
 10
71.533738248797
 20
139.0633859879262
 30
0.0
  0
ARC
  5
11D
330
1F
100
AcDbEntity
  8
0
  6
HIDDEN
 62
     7
370
     0
100
AcDbCircle
 10
221.4052928163
 20
149.7691799343
 30
0.0
 40
2.202238817316311
100
AcDbArc
 50
178.1553817179
 51
195.5176959521
  0
SPLINE
  5
11E
330
1F
100
AcDbEntity
  8
0
  6
HIDDEN
 62
     7
370
     0
100
AcDbSpline
210
0.0
220
0.0
230
1.0
 70
     8
 71
     3
 72
    14
 73
    10
 74
     0
 42
0.00000001
 43
0.00000001
 12
1.0
 22
0.0
 32
0.0
 13
1.0
 23
0.0
 33
0.0
 40
0.0
 40
0.0
 40
0.0
 40
0.0
 40
0.25
 40
0.25
 40
0.5
 40
0.5
 40
0.75
 40
0.75
 40
1.0
 40
1.0
 40
1.0
 40
1.0
 10
222.4882249941636
 20
149.4865510856814
 30
0.0
 10
222.4143576395036
 20
149.5803672732464
 30
0.0
 10
222.3460297742468
 20
149.6739562406403
 30
0.0
 10
222.2168501897093
 20
149.8584138738402
 30
0.0
 10
222.1554886976543
 20
149.9500198123404
 30
0.0
 10
222.0419723195006
 20
150.1250980043487
 30
0.0
 10
221.9898012627783
 20
150.2085205124154
 30
0.0
 10
221.8960822447133
 20
150.3679766335979
 30
0.0
 10
221.8542521564947
 20
150.4447326580275
 30
0.0
 10
221.8211034360094
 20
150.516499341814
 30
0.0
  0
LINE
  5
11F
330
1F
100
AcDbEntity
  8
0
  6
HIDDEN
 62
     7
370
     0
100
AcDbLine
 10
73.2837382488
 20
148.6978148649
 30
0.0
 11
73.2837382488
 21
130.6978148649
 31
0.0
  0
LINE
  5
120
330
1F
100
AcDbEntity
  8
0
  6
HIDDEN
 62
     7
370
     0
100
AcDbLine
 10
72.0337382488
 20
129.4478148649
 30
0.0
 11
72.0337382488
 21
149.9177393271
 31
0.0
  0
LINE
  5
121
330
1F
100
AcDbEntity
  8
0
  6
HIDDEN
 62
     7
370
     0
100
AcDbLine
 10
99.0337382488
 20
148.6978148649
 30
0.0
 11
99.0337382488
 21
130.6978148649
 31
0.0
  0
LINE
  5
122
330
1F
100
AcDbEntity
  8
0
  6
HIDDEN
 62
     7
370
     0
100
AcDbLine
 10
101.8878261892
 20
143.9478148649
 30
0.0
 11
101.8878261892
 21
135.4478148649
 31
0.0
  0
SPLINE
  5
123
330
1F
100
AcDbEntity
  8
0
  6
HIDDEN
 62
     7
370
     0
100
AcDbSpline
210
0.0
220
0.0
230
1.0
 70
     8
 71
     3
 72
    60
 73
    56
 74
     0
 42
0.00000001
 43
0.00000001
 12
1.0
 22
0.0
 32
0.0
 13
1.0
 23
0.0
 33
0.0
 40
-0.0312500000000011
 40
-0.0312500000000011
 40
0.0
 40
0.0
 40
0.0312499999999993
 40
0.0312499999999993
 40
0.0624999999999986
 40
0.0624999999999986
 40
0.1249999999999973
 40
0.1249999999999973
 40
0.1562499999999966
 40
0.1562499999999966
 40
0.187499999999996
 40
0.187499999999996
 40
0.2187499999999954
 40
0.2187499999999954
 40
0.2499999999999947
 40
0.2499999999999947
 40
0.3124999999999934
 40
0.3124999999999934
 40
0.3749999999999921
 40
0.3749999999999921
 40
0.4062499999999915
 40
0.4062499999999915
 40
0.4374999999999908
 40
0.4374999999999908
 40
0.4687499999999902
 40
0.4687499999999902
 40
0.4999999999999896
 40
0.4999999999999896
 40
0.5312499999999889
 40
0.5312499999999889
 40
0.5624999999999881
 40
0.5624999999999881
 40
0.6249999999999869
 40
0.6249999999999869
 40
0.656249999999988
 40
0.656249999999988
 40
0.687499999999989
 40
0.687499999999989
 40
0.7187499999999901
 40
0.7187499999999901
 40
0.7499999999999912
 40
0.7499999999999912
 40
0.7812499999999923
 40
0.7812499999999923
 40
0.8124999999999933
 40
0.8124999999999933
 40
0.8749999999999957
 40
0.8749999999999957
 40
0.9062499999999968
 40
0.9062499999999968
 40
0.9374999999999978
 40
0.9374999999999978
 40
0.9687499999999989
 40
0.9687499999999989
 40
1.0
 40
1.0
 40
1.031249999999999
 40
1.031249999999999
 10
220.2032658453675
 20
135.6550945707547
 30
0.0
 10
219.8642106522264
 20
135.6550945707547
 30
0.0
 10
219.6986128045189
 20
135.6614988008571
 30
0.0
 10
219.3744927278462
 20
135.6874345815534
 30
0.0
 10
219.2146826635206
 20
135.7073624018092
 30
0.0
 10
218.7653410609792
 20
135.7885239358243
 30
0.0
 10
218.4956583212038
 20
135.8726185686573
 30
0.0
 10
218.1574735324463
 20
136.0541633026345
 30
0.0
 10
218.0539070988224
 20
136.1250485456743
 30
0.0
 10
217.8734556365226
 20
136.2859169188151
 30
0.0
 10
217.7963336702602
 20
136.3755618535096
 30
0.0
 10
217.668915785453
 20
136.576641061818
 30
0.0
 10
217.618451592652
 20
136.6897315709401
 30
0.0
 10
217.5516101799694
 20
136.9297592089108
 30
0.0
 10
217.5342919784204
 20
137.0573920556103
 30
0.0
 10
217.532669586487
 20
137.4648954538185
 30
0.0
 10
217.6011575570306
 20
137.7605387028428
 30
0.0
 10
217.8552078634016
 20
138.3339378457707
 30
0.0
 10
218.0397907627568
 20
138.6121452229823
 30
0.0
 10
218.37715923318
 20
138.9762259387255
 30
0.0
 10
218.5011484021468
 20
139.0902689455094
 30
0.0
 10
218.7673171473643
 20
139.2947465623177
 30
0.0
 10
218.9078538281883
 20
139.3842297028597
 30
0.0
 10
219.2055121634863
 20
139.5343178239039
 30
0.0
 10
219.3649795410288
 20
139.5953981710837
 30
0.0
 10
219.6905969251623
 20
139.677712174408
 30
0.0
 10
219.8565639075494
 20
139.6995145755284
 30
0.0
 10
220.1953971536125
 20
139.7008147419508
 30
0.0
 10
220.3623878324477
 20
139.6801198174159
 30
0.0
 10
220.6880127462385
 20
139.6002084463426
 30
0.0
 10
220.8481439187955
 20
139.5401872860028
 30
0.0
 10
221.2988490781537
 20
139.3160951063717
 30
0.0
 10
221.5691075793045
 20
139.1053256298099
 30
0.0
 10
221.9088223082064
 20
138.7412335520875
 30
0.0
 10
222.0127809520818
 20
138.6097280859453
 30
0.0
 10
222.1930900447034
 20
138.3399251915135
 30
0.0
 10
222.2705237532959
 20
138.2007248168946
 30
0.0
 10
222.3987726081405
 20
137.91460071456
 30
0.0
 10
222.4490878990573
 20
137.7675032679026
 30
0.0
 10
222.5158361455487
 20
137.4822355032759
 30
0.0
 10
222.5333096547449
 20
137.3420659746592
 30
0.0
 10
222.5341514372753
 20
137.0674358831113
 30
0.0
 10
222.5173913397435
 20
136.9380891419914
 30
0.0
 10
222.4516391962395
 20
136.696438354746
 30
0.0
 10
222.4017843354659
 20
136.5828808251482
 30
0.0
 10
222.2108195498984
 20
136.2781465607067
 30
0.0
 10
222.0255234169285
 20
136.1165939069326
 30
0.0
 10
221.6866345161086
 20
135.9340492050594
 30
0.0
 10
221.5614525937056
 20
135.8820288785869
 30
0.0
 10
221.2955174577322
 20
135.7961769569206
 30
0.0
 10
221.1546618743334
 20
135.7619755605868
 30
0.0
 10
220.8549952778492
 20
135.7076725821584
 30
0.0
 10
220.6946170957145
 20
135.687603741168
 30
0.0
 10
220.3698799556658
 20
135.6615419713083
 30
0.0
 10
220.2032658453675
 20
135.6550945707547
 30
0.0
 10
219.8642106522264
 20
135.6550945707547
 30
0.0
  0
LINE
  5
124
330
1F
100
AcDbEntity
  8
0
  6
HIDDEN
 62
     7
370
     0
100
AcDbLine
 10
223.0337382488
 20
135.4478148649
 30
0.0
 11
223.0337382488
 21
143.9478148649
 31
0.0
  0
ELLIPSE
  5
125
330
1F
100
AcDbEntity
  8
0
  6
HIDDEN
 62
     7
370
     0
100
AcDbEllipse
 10
253.7397502129
 20
139.6978148649
 30
0.0
 11
14.61549449049045
 21
20.47670097187941
 31
0.0
210
0.0
220
0.0
230
1.0
 40
0.0668534593
 41
1.618477629394294
 42
3.189273956189418
  0
LINE
  5
126
330
1F
100
AcDbEntity
  8
0
  6
HIDDEN
 62
     7
370
     0
100
AcDbLine
 10
237.5337382488
 20
119.1978148649
 30
0.0
 11
237.5337382488
 21
139.6978148649
 31
0.0
  0
LINE
  5
127
330
1F
100
AcDbEntity
  8
0
  6
HIDDEN
 62
     7
370
     0
100
AcDbLine
 10
249.4143061167
 20
155.9084172173
 30
0.0
 11
249.3736313873
 21
155.8871713099
 31
0.0
  0
LINE
  5
128
330
1F
100
AcDbEntity
  8
0
  6
HIDDEN
 62
     7
370
     0
100
AcDbLine
 10
252.2389720353
 20
153.0906320429
 30
0.0
 11
261.6127961277
 21
153.9087376544
 31
0.0
  0
LINE
  5
129
330
1F
100
AcDbEntity
  8
0
  6
HIDDEN
 62
     7
370
     0
100
AcDbLine
 10
261.6127961277
 20
153.9087376544
 30
0.0
 11
261.6113856855
 21
153.8926554978
 31
0.0
  0
LINE
  5
12A
330
1F
100
AcDbEntity
  8
0
  6
HIDDEN
 62
     7
370
     0
100
AcDbLine
 10
250.2276329729
 20
165.1821402359
 30
0.0
 11
249.4143061167
 21
155.9084172173
 31
0.0
  0
SPLINE
  5
12B
330
1F
100
AcDbEntity
  8
0
  6
HIDDEN
 62
     7
370
     0
100
AcDbSpline
210
0.0
220
0.0
230
1.0
 70
     8
 71
     3
 72
    10
 73
     6
 74
     0
 42
0.00000001
 43
0.00000001
 12
1.0
 22
0.0
 32
0.0
 13
1.0
 23
0.0
 33
0.0
 40
0.0
 40
0.0
 40
0.0
 40
0.0
 40
0.5
 40
0.5
 40
1.0
 40
1.0
 40
1.0
 40
1.0
 10
240.0832501222757
 20
150.2348921449935
 30
0.0
 10
239.3286239642448
 20
148.5841721087541
 30
0.0
 10
238.6875154035644
 20
146.8813930261181
 30
0.0
 10
237.779595211819
 20
143.3183550538535
 30
0.0
 10
237.5337382487971
 20
141.5187616740538
 30
0.0
 10
237.5337382487971
 20
139.6978148649488
 30
0.0
  0
SPLINE
  5
12C
330
1F
100
AcDbEntity
  8
0
  6
HIDDEN
 62
     7
370
     0
100
AcDbSpline
210
0.0
220
0.0
230
1.0
 70
     8
 71
     3
 72
    24
 73
    20
 74
     0
 42
0.00000001
 43
0.00000001
 12
1.0
 22
0.0
 32
0.0
 13
1.0
 23
0.0
 33
0.0
 40
0.0
 40
0.0
 40
0.0
 40
0.0
 40
0.1249999999999999
 40
0.1249999999999999
 40
0.1874999999999999
 40
0.1874999999999999
 40
0.25
 40
0.25
 40
0.3750000000000001
 40
0.3750000000000001
 40
0.4375000000000003
 40
0.4375000000000003
 40
0.5000000000000004
 40
0.5000000000000004
 40
0.7500000000000002
 40
0.7500000000000002
 40
0.8750000000000001
 40
0.8750000000000001
 40
1.0
 40
1.0
 40
1.0
 40
1.0
 10
241.7842688724077
 20
164.4479300378386
 30
0.0
 10
241.6895841047663
 20
164.3470314750151
 30
0.0
 10
241.5953117746597
 20
164.1771493938847
 30
0.0
 10
241.4549597379221
 20
163.8174685261861
 30
0.0
 10
241.4081976444955
 20
163.679471019757
 30
0.0
 10
241.3161379217872
 20
163.3711200558241
 30
0.0
 10
241.2708008619439
 20
163.2008120501692
 30
0.0
 10
241.1369443592112
 20
162.6425842349702
 30
0.0
 10
241.0505705886494
 20
162.2075521393957
 30
0.0
 10
240.9257713428214
 20
161.4614143906962
 30
0.0
 10
240.8849673660125
 20
161.1970552536532
 30
0.0
 10
240.8050572294612
 20
160.6365742808919
 30
0.0
 10
240.7658559946251
 20
160.3396659137703
 30
0.0
 10
240.575499205487
 20
158.7824643566735
 30
0.0
 10
240.4441462961151
 20
157.3347553120578
 30
0.0
 10
240.2806572500386
 20
154.8671650076025
 30
0.0
 10
240.231621873002
 20
153.989696408913
 30
0.0
 10
240.147372896661
 20
152.1667453524547
 30
0.0
 10
240.1119223676086
 20
151.2191316665501
 30
0.0
 10
240.0832501222756
 20
150.2348921449935
 30
0.0
  0
LINE
  5
12D
330
1F
100
AcDbEntity
  8
0
  6
HIDDEN
 62
     7
370
     0
100
AcDbLine
 10
258.7409991105
 20
149.6635037738
 30
0.0
 11
261.2898589377
 21
150.2265402331
 31
0.0
  0
ELLIPSE
  5
12E
330
1F
100
AcDbEntity
  8
0
  6
HIDDEN
 62
     7
370
     0
100
AcDbEllipse
 10
250.3680372748
 20
153.409627881
 30
0.0
 11
2.099281448397733
 21
0.1276543563555208
 31
0.0
210
0.0
220
0.0
230
1.0
 40
0.4303093993
 41
5.785598212635365
 42
5.923521446741091
  0
ELLIPSE
  5
12F
330
1F
100
AcDbEntity
  8
0
  6
HIDDEN
 62
     7
370
     0
100
AcDbEllipse
 10
250.3680372748
 20
153.409627881
 30
0.0
 11
-1.616902374425195
 21
2.318196838028314
 31
0.0
210
0.0
220
0.0
230
1.0
 40
0.57803977
 41
5.737920332829617
 42
5.875843566935361
  0
LINE
  5
130
330
1F
100
AcDbEntity
  8
0
  6
HIDDEN
 62
     7
370
     0
100
AcDbLine
 10
249.6805910987
 20
155.8764056164
 30
0.0
 11
249.6805910987
 21
155.7103852089
 31
0.0
  0
ARC
  5
131
330
1F
100
AcDbEntity
  8
0
  6
HIDDEN
 62
     7
370
     0
100
AcDbCircle
 10
250.3696148775
 20
153.7293446318
 30
0.0
 40
2.097445001810125
100
AcDbArc
 50
340.961604152
 51
109.1781356176
  0
LINE
  5
132
330
1F
100
AcDbEntity
  8
0
  6
HIDDEN
 62
     7
370
     0
100
AcDbLine
 10
252.3523300342
 20
153.0451544952
 30
0.0
 11
252.3523300342
 21
153.2111749027
 31
0.0
  0
ARC
  5
133
330
1F
100
AcDbEntity
  8
0
  6
HIDDEN
 62
     7
370
     0
100
AcDbCircle
 10
250.3691364411
 20
153.7081480135
 30
0.0
 40
2.095823921488088
100
AcDbArc
 50
269.9699509145
 51
119.3216697375
  0
ARC
  5
134
330
1F
100
AcDbEntity
  8
0
  6
HIDDEN
 62
     7
370
     0
100
AcDbCircle
 10
250.365274823
 20
153.7093652466
 30
0.0
 40
2.097042685845492
100
AcDbArc
 50
175.4800722661
 51
270.0754762278
  0
LINE
  5
135
330
1F
100
AcDbEntity
  8
0
  6
HIDDEN
 62
     7
370
     0
100
AcDbLine
 10
252.3523300342
 20
153.2111749027
 30
0.0
 11
261.3770534935
 21
153.998812566
 31
0.0
  0
LINE
  5
136
330
1F
100
AcDbEntity
  8
0
  6
HIDDEN
 62
     7
370
     0
100
AcDbLine
 10
261.6127961277
 20
153.9087376544
 30
0.0
 11
261.3770534935
 21
153.998812566
 31
0.0
  0
LINE
  5
137
330
1F
100
AcDbEntity
  8
0
  6
HIDDEN
 62
     7
370
     0
100
AcDbLine
 10
250.4748948954
 20
164.93322373
 30
0.0
 11
249.6805910987
 21
155.8764056164
 31
0.0
  0
ELLIPSE
  5
138
330
1F
100
AcDbEntity
  8
0
  6
HIDDEN
 62
     7
370
     0
100
AcDbEllipse
 10
247.9619563521
 20
139.9853165499
 30
0.0
 11
2.057770349228434
 21
25.26968660225606
 31
0.0
210
0.0
220
0.0
230
1.0
 40
0.1268365588
 41
6.13342725058912
 42
6.216858048164175
  0
LWPOLYLINE
  5
139
330
1F
100
AcDbEntity
  8
0
  6
HIDDEN
 62
     7
370
     0
100
AcDbPolyline
 90
       21
 70
   128
 43
0.0
 10
220.0337382488
 20
130.0340640992
 10
220.8062807347
 20
130.1330543744
 10
221.5032013795
 20
130.4203353422
 10
222.0562807347
 20
130.8677859398
 10
222.4113795395
 20
131.4316065851
 10
222.5337382488
 20
132.0566065851
 10
222.4113795395
 20
132.6816065851
 10
222.0562807347
 20
133.2454272305
 10
221.5032013795
 20
133.6928778281
 10
220.8062807347
 20
133.9801587959
 10
220.0337382488
 20
134.0791490711
 10
219.2611957629
 20
133.9801587959
 10
218.5642751181
 20
133.6928778281
 10
218.0111957629
 20
133.2454272305
 10
217.6560969581
 20
132.6816065851
 10
217.5337382488
 20
132.0566065851
 10
217.6560969581
 20
131.4316065851
 10
218.0111957629
 20
130.8677859398
 10
218.5642751181
 20
130.4203353422
 10
219.2611957629
 20
130.1330543744
 10
220.0337382488
 20
130.0340640992
  0
LINE
  5
13A
330
1F
100
AcDbEntity
  8
0
  6
HIDDEN
 62
     7
370
     0
100
AcDbLine
 10
261.3770534935
 20
153.998812566
 30
0.0
 11
261.0814473296
 21
153.8069929692
 31
0.0
  0
LINE
  5
13B
330
1F
100
AcDbEntity
  8
0
  6
HIDDEN
 62
     7
370
     0
100
AcDbLine
 10
250.4430820134
 20
164.4044661842
 30
0.0
 11
249.6805910987
 21
155.7103852089
 31
0.0
  0
ELLIPSE
  5
13C
330
1F
100
AcDbEntity
  8
0
  6
HIDDEN
 62
     7
370
     0
100
AcDbEllipse
 10
248.273921612
 20
140.0126099736
 30
0.0
 11
2.207236391061798
 21
25.28859014739376
 31
0.0
210
0.0
220
0.0
230
1.0
 40
0.0059876405
 41
6.016605962988153
 42
6.11290601423581
  0
LINE
  5
13D
330
1F
100
AcDbEntity
  8
0
  6
HIDDEN
 62
     7
370
     0
100
AcDbLine
 10
262.0502280421
 20
164.8532340582
 30
0.0
 11
261.5526753842
 21
165.3579708497
 31
0.0
  0
CIRCLE
  5
13E
330
1F
100
AcDbEntity
  8
0
  6
HIDDEN
 62
     7
370
     0
100
AcDbCircle
 10
256.0870908353
 20
159.4427777543
 30
0.0
 40
2.998151605784285
  0
LINE
  5
13F
330
1F
100
AcDbEntity
  8
0
  6
HIDDEN
 62
     7
370
     0
100
AcDbLine
 10
252.3523300342
 20
153.0451544952
 30
0.0
 11
261.0814473296
 21
153.8069929692
 31
0.0
  0
ELLIPSE
  5
140
330
1F
100
AcDbEntity
  8
0
  6
HIDDEN
 62
     7
370
     0
100
AcDbEllipse
 10
-553.5845025485
 20
69.8590881068
 30
0.0
 11
4096.488451942432
 21
356.6522915817379
 31
0.0
210
0.0
220
0.0
230
1.0
 40
0.0060650906
 41
1.369946852474483
 42
1.372713397111426
  0
LINE
  5
141
330
1F
100
AcDbEntity
  8
0
  6
HIDDEN
 62
     7
370
     0
100
AcDbLine
 10
261.0814473296
 20
153.8069929692
 30
0.0
 11
262.0502281003
 21
164.8532340531
 31
0.0
  0
CIRCLE
  5
142
330
1F
100
AcDbEntity
  8
0
  6
HIDDEN
 62
     7
370
     0
100
AcDbCircle
 10
256.0875464577
 20
159.3795448095
 30
0.0
 40
2.099872759588695
  0
SPLINE
  5
143
330
1F
100
AcDbEntity
  8
0
  6
HIDDEN
 62
     7
370
     0
100
AcDbSpline
210
0.0
220
0.0
230
1.0
 70
     8
 71
     3
 72
    27
 73
    23
 74
     0
 42
0.00000001
 43
0.00000001
 12
1.0
 22
0.0
 32
0.0
 13
1.0
 23
0.0
 33
0.0
 40
0.0
 40
0.0
 40
0.0
 40
0.0
 40
0.0203220772816887
 40
0.0408022951415637
 40
0.0614407693151041
 40
0.0822376128932986
 40
0.1031929364007009
 40
0.1243068478707142
 40
0.1857127737473296
 40
0.2488821660791338
 40
0.3101726689112882
 40
0.3737122655833134
 40
0.4987168117652915
 40
0.6238911953433047
 40
0.6865463194629391
 40
0.7492228695009531
 40
0.8119132483657087
 40
0.874609690398786
 40
0.9095677530180819
 40
0.9373095836686532
 40
0.9701625852265776
 40
0.9999999999999999
 40
0.9999999999999999
 40
0.9999999999999999
 40
0.9999999999999999
 10
261.5526751198165
 20
165.3579768729392
 30
0.0
 10
261.5328767027404
 20
165.3167159402777
 30
0.0
 10
261.4931258029835
 20
165.233872994208
 30
0.0
 10
261.4327417445341
 20
165.0998232435517
 30
0.0
 10
261.3715253695131
 20
164.9578737979668
 30
0.0
 10
261.3094476510516
 20
164.8072318202523
 30
0.0
 10
261.2465290053818
 20
164.6479629217624
 30
0.0
 10
261.1423852641143
 20
164.3734340667069
 30
0.0
 10
260.9942044891594
 20
163.9529592958427
 30
0.0
 10
260.8028108645267
 20
163.3529623990829
 30
0.0
 10
260.6073175158073
 20
162.6836930835502
 30
0.0
 10
260.3458056665332
 20
161.7139033728646
 30
0.0
 10
260.0152315968138
 20
160.348258664133
 30
0.0
 10
259.686563425968
 20
158.8071544766979
 30
0.0
 10
259.4262230657532
 20
157.4764862984187
 30
0.0
 10
259.2326793364305
 20
156.4316903412753
 30
0.0
 10
259.0415036817153
 20
155.3435927109157
 30
0.0
 10
258.8809778715851
 20
154.381546291664
 30
0.0
 10
258.7572427804134
 20
153.6100564023687
 30
0.0
 10
258.6638938493811
 20
153.0130534847352
 30
0.0
 10
258.5763987669147
 20
152.440660705988
 30
0.0
 10
258.5166234103068
 20
152.0371598901458
 30
0.0
 10
258.4881734140758
 20
151.8451142489099
 30
0.0
  0
SPLINE
  5
144
330
1F
100
AcDbEntity
  8
0
  6
HIDDEN
 62
     7
370
     0
100
AcDbSpline
210
0.0
220
0.0
230
1.0
 70
     8
 71
     3
 72
    30
 73
    26
 74
     0
 42
0.00000001
 43
0.00000001
 12
1.0
 22
0.0
 32
0.0
 13
1.0
 23
0.0
 33
0.0
 40
0.0
 40
0.0
 40
0.0
 40
0.0
 40
0.0209077326895113
 40
0.0418009387069772
 40
0.0626863717643515
 40
0.0835707931145691
 40
0.1044609649929041
 40
0.1253636440535628
 40
0.1566985109493399
 40
0.1880590558597747
 40
0.2507468931949545
 40
0.313424071054672
 40
0.3760819944920264
 40
0.4387122243995659
 40
0.5013067231304217
 40
0.5638578100662415
 40
0.6263583652801418
 40
0.6888018393979647
 40
0.7511823723262864
 40
0.8134948626250211
 40
0.8446141890371989
 40
0.8757408131065275
 40
0.9171835943953114
 40
0.9585847960904285
 40
0.9999999999999999
 40
0.9999999999999999
 40
0.9999999999999999
 40
0.9999999999999999
 10
258.8488761090404
 20
150.7887022323138
 30
0.0
 10
258.8694735518405
 20
150.9285548231735
 30
0.0
 10
258.9106541263577
 20
151.2081628354508
 30
0.0
 10
258.9731026323873
 20
151.6230720030325
 30
0.0
 10
259.0360100534736
 20
152.0344291110869
 30
0.0
 10
259.0994273278278
 20
152.4419283499864
 30
0.0
 10
259.1633410459781
 20
152.8456515193809
 30
0.0
 10
259.2384486695549
 20
153.3119784212249
 30
0.0
 10
259.3250463988726
 20
153.8381542953909
 30
0.0
 10
259.4561485035266
 20
154.6142442331369
 30
0.0
 10
259.6221680427007
 20
155.5589324438304
 30
0.0
 10
259.824141900646
 20
156.6479952446188
 30
0.0
 10
260.0282791652405
 20
157.6894136002273
 30
0.0
 10
260.2339568272351
 20
158.6799078228574
 30
0.0
 10
260.4405466098676
 20
159.6165674833243
 30
0.0
 10
260.6474202387865
 20
160.4964220866458
 30
0.0
 10
260.8539465618959
 20
161.3169026371036
 30
0.0
 10
261.0594967288433
 20
162.0754100026805
 30
0.0
 10
261.2634409489958
 20
162.7696930430711
 30
0.0
 10
261.4315882258956
 20
163.2931101059751
 30
0.0
 10
261.5646794064725
 20
163.6776324041024
 30
0.0
 10
261.6746729568295
 20
163.9788380292745
 30
0.0
 10
261.7944035344674
 20
164.2847066054571
 30
0.0
 10
261.9234788761892
 20
164.5891684747859
 30
0.0
 10
262.0079737246467
 20
164.7652025033735
 30
0.0
 10
262.0502282918744
 20
164.8532343991766
 30
0.0
  0
ARC
  5
145
330
1F
100
AcDbEntity
  8
0
  6
HIDDEN
 62
     7
370
     0
100
AcDbCircle
 10
256.0881402861
 20
158.6063178349
 30
0.0
 40
2.101414077786838
100
AcDbArc
 50
203.7895586445
 51
345.5208998273
  0
SPLINE
  5
146
330
1F
100
AcDbEntity
  8
0
  6
HIDDEN
 62
     7
370
     0
100
AcDbSpline
210
0.0
220
0.0
230
1.0
 70
     8
 71
     3
 72
    40
 73
    36
 74
     0
 42
0.00000001
 43
0.00000001
 12
1.0
 22
0.0
 32
0.0
 13
1.0
 23
0.0
 33
0.0
 40
0.0
 40
0.0
 40
0.0
 40
0.0
 40
0.1250000000000075
 40
0.1250000000000075
 40
0.1875000000000111
 40
0.1875000000000111
 40
0.2500000000000148
 40
0.2500000000000148
 40
0.3125000000000185
 40
0.3125000000000185
 40
0.3750000000000221
 40
0.3750000000000221
 40
0.4062500000000238
 40
0.4062500000000238
 40
0.4375000000000255
 40
0.4375000000000255
 40
0.5000000000000222
 40
0.5000000000000222
 40
0.562500000000019
 40
0.562500000000019
 40
0.5937500000000174
 40
0.5937500000000174
 40
0.625000000000016
 40
0.625000000000016
 40
0.6875000000000134
 40
0.6875000000000134
 40
0.7500000000000108
 40
0.7500000000000108
 40
0.8125000000000082
 40
0.8125000000000082
 40
0.8750000000000057
 40
0.8750000000000057
 40
0.937500000000003
 40
0.937500000000003
 40
1.0
 40
1.0
 40
1.0
 40
1.0
 10
258.1228111564919
 20
158.0809079231006
 30
0.0
 10
258.2032352259914
 20
158.4175925347571
 30
0.0
 10
258.2068243814693
 20
158.7428843016699
 30
0.0
 10
258.1255343182142
 20
159.2139622674392
 30
0.0
 10
258.0833943623409
 20
159.366921145815
 30
0.0
 10
257.971759871216
 20
159.6595966934799
 30
0.0
 10
257.9021634590368
 20
159.8002056228644
 30
0.0
 10
257.7328038903638
 20
160.0697477666301
 30
0.0
 10
257.6324591367895
 20
160.1991589420342
 30
0.0
 10
257.3999510883679
 20
160.4375121618204
 30
0.0
 10
257.2664665169234
 20
160.5483226894633
 30
0.0
 10
257.0341044480007
 20
160.6931781416067
 30
0.0
 10
256.9518123042524
 20
160.7375410088689
 30
0.0
 10
256.7747800868799
 20
160.8167170335124
 30
0.0
 10
256.6789561706867
 20
160.8518251979289
 30
0.0
 10
256.3759254198757
 20
160.9349228479703
 30
0.0
 10
256.1469815304545
 20
160.9609330497262
 30
0.0
 10
255.6818194611191
 20
160.9223756312064
 30
0.0
 10
255.4585528818293
 20
160.8585391581043
 30
0.0
 10
255.1726900096792
 20
160.7269295577489
 30
0.0
 10
255.0833421443625
 20
160.6765193955327
 30
0.0
 10
254.920063662282
 20
160.5689419917964
 30
0.0
 10
254.8456910486564
 20
160.5117080867066
 30
0.0
 10
254.6392161832628
 20
160.3315637732938
 30
0.0
 10
254.523320462109
 20
160.1995201303518
 30
0.0
 10
254.330442383852
 20
159.9274063730668
 30
0.0
 10
254.2521247590448
 20
159.7859696799155
 30
0.0
 10
254.1251864108882
 20
159.4928076534684
 30
0.0
 10
254.0768291314883
 20
159.3407086195092
 30
0.0
 10
254.0105402762241
 20
159.0335900138959
 30
0.0
 10
253.9921548293636
 20
158.877629988285
 30
0.0
 10
253.9856180655846
 20
158.5606350625487
 30
0.0
 10
253.9977233394857
 20
158.3989428231897
 30
0.0
 10
254.0552086811919
 20
158.0779103039054
 30
0.0
 10
254.1003852579389
 20
157.917775452113
 30
0.0
 10
254.1652766523364
 20
157.7586524690633
 30
0.0
  0
LINE
  5
147
330
1F
100
AcDbEntity
  8
0
  6
HIDDEN
 62
     7
370
     0
100
AcDbLine
 10
46.5337382488
 20
124.5937620362
 30
0.0
 11
46.5337382488
 21
118.5394514687
 31
0.0
  0
LINE
  5
148
330
1F
100
AcDbEntity
  8
0
  6
HIDDEN
 62
     7
370
     0
100
AcDbLine
 10
45.0337382488
 20
125.0267747381
 30
0.0
 11
45.0337382488
 21
119.4054768724
 31
0.0
  0
LINE
  5
149
330
1F
100
AcDbEntity
  8
0
  6
HIDDEN
 62
     7
370
     0
100
AcDbLine
 10
80.8337382488
 20
124.1628943421
 30
0.0
 11
80.8337382488
 21
117.6777160804
 31
0.0
  0
SPLINE
  5
14A
330
1F
100
AcDbEntity
  8
0
  6
HIDDEN
 62
     7
370
     0
100
AcDbSpline
210
0.0
220
0.0
230
1.0
 70
     8
 71
     3
 72
    16
 73
    12
 74
     0
 42
0.00000001
 43
0.00000001
 12
1.0
 22
0.0
 32
0.0
 13
1.0
 23
0.0
 33
0.0
 40
0.0
 40
0.0
 40
0.0
 40
0.0
 40
0.2499999999999996
 40
0.2499999999999996
 40
0.3749999999999993
 40
0.3749999999999993
 40
0.4999999999999991
 40
0.4999999999999991
 40
0.7499999999999996
 40
0.7499999999999996
 40
1.0
 40
1.0
 40
1.0
 40
1.0
 10
81.71241790523732
 20
123.1139082387077
 30
0.0
 10
81.55118542775284
 20
122.3995140765156
 30
0.0
 10
81.43070558811321
 20
121.7461718138069
 30
0.0
 10
81.3083250707999
 20
120.857916572003
 30
0.0
 10
81.27734741040244
 20
120.5772360356512
 30
0.0
 10
81.23573367277449
 20
120.0482020458112
 30
0.0
 10
81.22549775984169
 20
119.8048810672327
 30
0.0
 10
81.22530936278557
 20
119.1368583767195
 30
0.0
 10
81.26545406542319
 20
118.7731774673
 30
0.0
 10
81.42960782036275
 20
118.2132865947517
 30
0.0
 10
81.5511594707723
 20
118.0257653026346
 30
0.0
 10
81.71241790523732
 20
117.9277339099466
 30
0.0
  0
LINE
  5
14B
330
1F
100
AcDbEntity
  8
0
  6
HIDDEN
 62
     7
370
     0
100
AcDbLine
 10
80.8337382488
 20
161.7179136495
 30
0.0
 11
80.8337382488
 21
155.2327353878
 31
0.0
  0
LINE
  5
14C
330
1F
100
AcDbEntity
  8
0
  6
HIDDEN
 62
     7
370
     0
100
AcDbLine
 10
46.5337382488
 20
160.8561782612
 30
0.0
 11
46.5337382488
 21
154.8018676937
 31
0.0
  0
LINE
  5
14D
330
1F
100
AcDbEntity
  8
0
  6
HIDDEN
 62
     7
370
     0
100
AcDbLine
 10
45.0337382488
 20
159.9901528574
 30
0.0
 11
45.0337382488
 21
154.3688549918
 31
0.0
  0
SPLINE
  5
14E
330
1F
100
AcDbEntity
  8
0
  6
HIDDEN
 62
     7
370
     0
100
AcDbSpline
210
0.0
220
0.0
230
1.0
 70
     8
 71
     3
 72
    16
 73
    12
 74
     0
 42
0.00000001
 43
0.00000001
 12
1.0
 22
0.0
 32
0.0
 13
1.0
 23
0.0
 33
0.0
 40
0.0
 40
0.0
 40
0.0
 40
0.0
 40
0.2500000000000002
 40
0.2500000000000002
 40
0.3750000000000003
 40
0.3750000000000003
 40
0.5000000000000004
 40
0.5000000000000004
 40
0.7500000000000002
 40
0.7500000000000002
 40
1.0
 40
1.0
 40
1.0
 40
1.0
 10
81.71241790523732
 20
161.4678958199509
 30
0.0
 10
81.55118542775286
 20
161.3698802068962
 30
0.0
 10
81.43070558811321
 20
161.1831441752201
 30
0.0
 10
81.3083250707999
 20
160.7701043676612
 30
0.0
 10
81.27734741040244
 20
160.6101038684283
 30
0.0
 10
81.23573367277449
 20
160.2432982173371
 30
0.0
 10
81.22549775984169
 20
160.0399610647131
 30
0.0
 10
81.22530936278558
 20
159.3726737980865
 30
0.0
 10
81.26545406542319
 20
158.8518593341984
 30
0.0
 10
81.42960782036275
 20
157.6545003187207
 30
0.0
 10
81.55115947077232
 20
156.9962306644247
 30
0.0
 10
81.71241790523733
 20
156.2817214911898
 30
0.0
  0
LWPOLYLINE
  5
14F
330
1F
100
AcDbEntity
  8
0
  6
HIDDEN
 62
     7
370
     0
100
AcDbPolyline
 90
       23
 70
   128
 43
0.0
 10
220.0337382488
 20
129.4529670967
 10
220.8789359193
 20
129.551279715
 10
221.6556607012
 20
129.838252866
 10
222.3009869719
 20
130.2906376917
 10
222.7626342349
 20
130.8717846642
 10
223.0032025744
 20
131.5346127117
 10
223.0032025744
 20
132.225423448
 10
222.7626342349
 20
132.8882514956
 10
222.3009869719
 20
133.469398468
 10
221.6556607012
 20
133.9217832938
 10
220.8789359193
 20
134.2087564448
 10
220.0337382488
 20
134.307069063
 10
219.1885405783
 20
134.2087564448
 10
218.4118157964
 20
133.9217832938
 10
217.7664895257
 20
133.469398468
 10
217.3048422627
 20
132.8882514956
 10
217.0642739232
 20
132.225423448
 10
217.0642739232
 20
131.5346127117
 10
217.3048422627
 20
130.8717846642
 10
217.7664895257
 20
130.2906376917
 10
218.4118157964
 20
129.838252866
 10
219.1885405783
 20
129.551279715
 10
220.0337382488
 20
129.4529670967
  0
LINE
  5
150
330
1F
100
AcDbEntity
  8
0
  6
HIDDEN
 62
     7
370
     0
100
AcDbLine
 10
45.0337382488
 20
154.3688549918
 30
0.0
 11
45.0337382488
 21
142.5998021979
 31
0.0
  0
LINE
  5
151
330
1F
100
AcDbEntity
  8
0
  6
HIDDEN
 62
     7
370
     0
100
AcDbLine
 10
45.0337382488
 20
136.795827532
 30
0.0
 11
45.0337382488
 21
125.0267747381
 31
0.0
  0
LINE
  5
152
330
1F
100
AcDbEntity
  8
0
  6
HIDDEN
 62
     7
370
     0
100
AcDbLine
 10
46.5337382488
 20
135.7326039681
 30
0.0
 11
46.5337382488
 21
124.5937620362
 31
0.0
  0
LINE
  5
153
330
1F
100
AcDbEntity
  8
0
  6
HIDDEN
 62
     7
370
     0
100
AcDbLine
 10
46.5337382488
 20
154.8018676937
 30
0.0
 11
46.5337382488
 21
143.6630257618
 31
0.0
  0
SPLINE
  5
154
330
1F
100
AcDbEntity
  8
0
  6
HIDDEN
 62
     7
370
     0
100
AcDbSpline
210
0.0
220
0.0
230
1.0
 70
     8
 71
     3
 72
    18
 73
    14
 74
     0
 42
0.00000001
 43
0.00000001
 12
1.0
 22
0.0
 32
0.0
 13
1.0
 23
0.0
 33
0.0
 40
0.0
 40
0.0
 40
0.0
 40
0.0
 40
0.2500000000000003
 40
0.2500000000000003
 40
0.3750000000000001
 40
0.3750000000000001
 40
0.4999999999999999
 40
0.4999999999999999
 40
0.6249999999999997
 40
0.6249999999999997
 40
0.7499999999999994
 40
0.7499999999999994
 40
1.0
 40
1.0
 40
1.0
 40
1.0
 10
254.165276652348
 20
157.7586524690712
 30
0.0
 10
254.4757979344287
 20
157.6404285283027
 30
0.0
 10
254.7940110689184
 20
157.5321344397665
 30
0.0
 10
255.3028935260841
 20
157.4179144190704
 30
0.0
 10
255.4768980813286
 20
157.3887235026579
 30
0.0
 10
255.8291058880596
 20
157.3576435460791
 30
0.0
 10
256.0106103444745
 20
157.3559107593848
 30
0.0
 10
256.3693325016043
 20
157.3855318218959
 30
0.0
 10
256.5446370378355
 20
157.4162678802241
 30
0.0
 10
256.8883964849392
 20
157.5045156823765
 30
0.0
 10
257.0568749163779
 20
157.5621642202829
 30
0.0
 10
257.5378023075182
 20
157.7561032682075
 30
0.0
 10
257.8346538449796
 20
157.9139642850152
 30
0.0
 10
258.1228111564846
 20
158.0809079231229
 30
0.0
  0
LINE
  5
155
330
1F
100
AcDbEntity
  8
0
  6
HIDDEN
 62
     7
370
     0
100
AcDbLine
 10
82.8337382488
 20
154.7355220274
 30
0.0
 11
82.8337382488
 21
124.6601077025
 31
0.0
  0
LINE
  5
156
330
1F
100
AcDbEntity
  8
0
  6
HIDDEN
 62
     7
370
     0
100
AcDbLine
 10
80.8337382488
 20
155.2327353878
 30
0.0
 11
80.8337382488
 21
124.1628943421
 31
0.0
  0
SPLINE
  5
157
330
1F
100
AcDbEntity
  8
0
  6
HIDDEN
 62
     7
370
     0
100
AcDbSpline
210
0.0
220
0.0
230
1.0
 70
     8
 71
     3
 72
     8
 73
     4
 74
     0
 42
0.00000001
 43
0.00000001
 12
1.0
 22
0.0
 32
0.0
 13
1.0
 23
0.0
 33
0.0
 40
0.0000249638557296
 40
0.0000249638557296
 40
0.0000249638557296
 40
0.0000249638557296
 40
0.0049776420541172
 40
0.0049776420541172
 40
0.0049776420541172
 40
0.0049776420541172
 10
46.533738248797
 20
135.7326039681123
 30
0.0
 10
48.18371448330655
 20
135.6913247303441
 30
0.0
 10
49.83371580305157
 20
135.6511030491046
 30
0.0
 10
51.48373824879698
 20
135.6118538118496
 30
0.0
  0
SPLINE
  5
158
330
1F
100
AcDbEntity
  8
0
  6
HIDDEN
 62
     7
370
     0
100
AcDbSpline
210
0.0
220
0.0
230
1.0
 70
     8
 71
     3
 72
     8
 73
     4
 74
     0
 42
0.00000001
 43
0.00000001
 12
1.0
 22
0.0
 32
0.0
 13
1.0
 23
0.0
 33
0.0
 40
0.0000249631533153
 40
0.0000249631533153
 40
0.0000249631533153
 40
0.0000249631533153
 40
0.0049776413517029
 40
0.0049776413517029
 40
0.0049776413517029
 40
0.0049776413517029
 10
51.48373824879698
 20
143.783775918048
 30
0.0
 10
49.83371580305155
 20
143.7445266807929
 30
0.0
 10
48.18371448330652
 20
143.7043049995534
 30
0.0
 10
46.53373824879699
 20
143.6630257617852
 30
0.0
  0
SPLINE
  5
159
330
1F
100
AcDbEntity
  8
0
  6
HIDDEN
 62
     7
370
     0
100
AcDbSpline
210
0.0
220
0.0
230
1.0
 70
     8
 71
     3
 72
     8
 73
     4
 74
     0
 42
0.00000001
 43
0.00000001
 12
1.0
 22
0.0
 32
0.0
 13
1.0
 23
0.0
 33
0.0
 40
0.0
 40
0.0
 40
0.0
 40
0.0
 40
1.0
 40
1.0
 40
1.0
 40
1.0
 10
45.0337382487948
 20
136.7958275319685
 30
0.0
 10
45.5004988601726
 20
136.3804642863454
 30
0.0
 10
46.00624640695268
 20
136.0358738570408
 30
0.0
 10
46.53373824879706
 20
135.7326039681123
 30
0.0
  0
SPLINE
  5
15A
330
1F
100
AcDbEntity
  8
0
  6
HIDDEN
 62
     7
370
     0
100
AcDbSpline
210
0.0
220
0.0
230
1.0
 70
     8
 71
     3
 72
     8
 73
     4
 74
     0
 42
0.00000001
 43
0.00000001
 12
1.0
 22
0.0
 32
0.0
 13
1.0
 23
0.0
 33
0.0
 40
0.0
 40
0.0
 40
0.0
 40
0.0
 40
1.0
 40
1.0
 40
1.0
 40
1.0
 10
46.53373824879704
 20
143.6630257617852
 30
0.0
 10
46.00624640695353
 20
143.3597558728572
 30
0.0
 10
45.50049886017424
 20
143.0151654435532
 30
0.0
 10
45.03373824879706
 20
142.5998021979311
 30
0.0
  0
LINE
  5
15B
330
1F
100
AcDbEntity
  8
0
  6
HIDDEN
 62
     7
370
     0
100
AcDbLine
 10
45.0337382488
 20
136.795827532
 30
0.0
 11
45.0337382488
 21
142.5998021979
 31
0.0
  0
LINE
  5
15C
330
1F
100
AcDbEntity
  8
0
  6
HIDDEN
 62
     7
370
     0
100
AcDbLine
 10
51.4837382488
 20
135.6118538118
 30
0.0
 11
51.4837382488
 21
143.783775918
 31
0.0
  0
SPLINE
  5
15D
330
1F
100
AcDbEntity
  8
0
  6
HIDDEN
 62
     7
370
     0
100
AcDbSpline
210
0.0
220
0.0
230
1.0
 70
     8
 71
     3
 72
    24
 73
    20
 74
     0
 42
0.00000001
 43
0.00000001
 12
1.0
 22
0.0
 32
0.0
 13
1.0
 23
0.0
 33
0.0
 40
0.0
 40
0.0
 40
0.0
 40
0.0
 40
0.1249999999999998
 40
0.1249999999999998
 40
0.2499999999999996
 40
0.2499999999999996
 40
0.3749999999999994
 40
0.3749999999999994
 40
0.4374999999999995
 40
0.4374999999999995
 40
0.4999999999999996
 40
0.4999999999999996
 40
0.6249999999999997
 40
0.6249999999999997
 40
0.7499999999999999
 40
0.7499999999999999
 40
0.875
 40
0.875
 40
1.0
 40
1.0
 40
1.0
 40
1.0
 10
51.48373824879695
 20
135.6118538118495
 30
0.0
 10
51.72154188107203
 20
135.9108609141797
 30
0.0
 10
51.95162754228333
 20
136.2151987654984
 30
0.0
 10
52.38638094089314
 20
136.8409323028944
 30
0.0
 10
52.59131373317931
 20
137.1621570302219
 30
0.0
 10
52.956415683678
 20
137.8340828009546
 30
0.0
 10
53.1182160694695
 20
138.1893980328335
 30
0.0
 10
53.29007627404922
 20
138.739629254186
 30
0.0
 10
53.33566146570934
 20
138.9260330391664
 30
0.0
 10
53.39813620528419
 20
139.3061675412627
 30
0.0
 10
53.41480735103266
 20
139.5018373335485
 30
0.0
 10
53.41532839420915
 20
140.0803177122229
 30
0.0
 10
53.35088609332246
 20
140.4582295511917
 30
0.0
 10
53.12103699994912
 20
141.2001975762902
 30
0.0
 10
52.96251632228602
 20
141.5489130364511
 30
0.0
 10
52.59828199238586
 20
142.2220054341843
 30
0.0
 10
52.39154575232229
 20
142.5469579214259
 30
0.0
 10
51.95360780658193
 20
143.1778817318877
 30
0.0
 10
51.72233507930236
 20
143.4837714722283
 30
0.0
 10
51.48373824879705
 20
143.7837759180479
 30
0.0
  0
SPLINE
  5
15E
330
1F
100
AcDbEntity
  8
0
  6
HIDDEN
 62
     7
370
     0
100
AcDbSpline
210
0.0
220
0.0
230
1.0
 70
     8
 71
     3
 72
    72
 73
    68
 74
     0
 42
0.00000001
 43
0.00000001
 12
1.0
 22
0.0
 32
0.0
 13
1.0
 23
0.0
 33
0.0
 40
-0.0312500000000001
 40
-0.0312500000000001
 40
0.0
 40
0.0
 40
0.03125
 40
0.03125
 40
0.0625
 40
0.0625
 40
0.09375
 40
0.09375
 40
0.125
 40
0.125
 40
0.15625
 40
0.15625
 40
0.1874999999999999
 40
0.1874999999999999
 40
0.2187499999999999
 40
0.2187499999999999
 40
0.2499999999999999
 40
0.2499999999999999
 40
0.2812499999999999
 40
0.2812499999999999
 40
0.3124999999999999
 40
0.3124999999999999
 40
0.3437499999999999
 40
0.3437499999999999
 40
0.3749999999999999
 40
0.3749999999999999
 40
0.3906249999999999
 40
0.3906249999999999
 40
0.4062499999999999
 40
0.4062499999999999
 40
0.4374999999999999
 40
0.4374999999999999
 40
0.46875
 40
0.46875
 40
0.5
 40
0.5
 40
0.53125
 40
0.53125
 40
0.5625
 40
0.5625
 40
0.59375
 40
0.59375
 40
0.625
 40
0.625
 40
0.65625
 40
0.65625
 40
0.6875
 40
0.6875
 40
0.71875
 40
0.71875
 40
0.7499999999999999
 40
0.7499999999999999
 40
0.7812499999999999
 40
0.7812499999999999
 40
0.8124999999999999
 40
0.8124999999999999
 40
0.8437499999999999
 40
0.8437499999999999
 40
0.8749999999999999
 40
0.8749999999999999
 40
0.9062499999999999
 40
0.9062499999999999
 40
0.9374999999999999
 40
0.9374999999999999
 40
0.9687499999999999
 40
0.9687499999999999
 40
1.0
 40
1.0
 40
1.03125
 40
1.03125
 10
64.1576845676222
 20
142.1386485147636
 30
0.0
 10
64.53211478749607
 20
142.5490043152487
 30
0.0
 10
64.73696738876171
 20
142.7326533979072
 30
0.0
 10
65.17983558560869
 20
143.0596083014025
 30
0.0
 10
65.41979100292698
 20
143.2033865095823
 30
0.0
 10
65.91540198570152
 20
143.4409038650282
 30
0.0
 10
66.172668276856
 20
143.5362234299259
 30
0.0
 10
66.70602204469306
 20
143.6803089625604
 30
0.0
 10
66.98030218459134
 20
143.72804496953
 30
0.0
 10
67.5267307191709
 20
143.7736271100638
 30
0.0
 10
67.80130703763867
 20
143.7721933499916
 30
0.0
 10
68.35327421190937
 20
143.7192800419007
 30
0.0
 10
68.62389117448105
 20
143.6683103156966
 30
0.0
 10
69.15017634556024
 20
143.519703688753
 30
0.0
 10
69.40780790896783
 20
143.4214183179959
 30
0.0
 10
69.90373407364133
 20
143.1771649588101
 30
0.0
 10
70.13671775143297
 20
143.034084827788
 30
0.0
 10
70.57305102675797
 20
142.7062262773191
 30
0.0
 10
70.77833228061625
 20
142.5192326396189
 30
0.0
 10
71.14636657847643
 20
142.1098020197959
 30
0.0
 10
71.30788156846161
 20
141.8896965788115
 30
0.0
 10
71.58503925160873
 20
141.4179464973734
 30
0.0
 10
71.70143343104243
 20
141.1629299709322
 30
0.0
 10
71.87470746768906
 20
140.6416921475352
 30
0.0
 10
71.93315402215482
 20
140.3742080297543
 30
0.0
 10
71.97701874763071
 20
139.9622923704218
 30
0.0
 10
71.98419896426007
 20
139.8225850673464
 30
0.0
 10
71.98323093696463
 20
139.546462011884
 30
0.0
 10
71.97522814755098
 20
139.4092854455532
 30
0.0
 10
71.92915541563858
 20
139.0003520042899
 30
0.0
 10
71.86822058318656
 20
138.7284257552857
 30
0.0
 10
71.69010042677803
 20
138.2052452388306
 30
0.0
 10
71.57453251543565
 20
137.9565332384672
 30
0.0
 10
71.29268573149636
 20
137.4836487134753
 30
0.0
 10
71.12581578608172
 20
137.2600394962432
 30
0.0
 10
70.75649023128294
 20
136.8553821080555
 30
0.0
 10
70.55170507498548
 20
136.670968519886
 30
0.0
 10
70.10705212746927
 20
136.3419424849916
 30
0.0
 10
69.8722029979585
 20
136.2007744090034
 30
0.0
 10
69.37879323548147
 20
135.9623648802229
 30
0.0
 10
69.11750628177683
 20
135.864582323818
 30
0.0
 10
68.58676800126416
 20
135.7192542956279
 30
0.0
 10
68.31712830036692
 20
135.6709649054329
 30
0.0
 10
67.7693769606217
 20
135.6225496816463
 30
0.0
 10
67.4894729187631
 20
135.6230078672822
 30
0.0
 10
66.94239501092811
 20
135.6731597228844
 30
0.0
 10
66.67278990624068
 20
135.7223332899165
 30
0.0
 10
66.1416351495846
 20
135.8700078132235
 30
0.0
 10
65.88034033314108
 20
135.969162977589
 30
0.0
 10
65.38802635496569
 20
136.2101757480658
 30
0.0
 10
65.15406947938706
 20
136.3526638726905
 30
0.0
 10
64.71190085885658
 20
136.6841513016754
 30
0.0
 10
64.50670732774495
 20
136.8715849296638
 30
0.0
 10
64.14101311138698
 20
137.2784886487142
 30
0.0
 10
63.97824248899864
 20
137.4996677233832
 30
0.0
 10
63.69729005823307
 20
137.9794150525985
 30
0.0
 10
63.58408620595957
 20
138.2294270194087
 30
0.0
 10
63.41147748182063
 20
138.7495022294292
 30
0.0
 10
63.35187119914426
 20
139.0232336940589
 30
0.0
 10
63.29397942907439
 20
139.5718513439574
 30
0.0
 10
63.29476896793436
 20
139.846191207849
 30
0.0
 10
63.35595944355077
 20
140.3949331589879
 30
0.0
 10
63.4170881672848
 20
140.6679984728451
 30
0.0
 10
63.5931678529146
 20
141.1881637216134
 30
0.0
 10
63.70949844790455
 20
141.4404828551723
 30
0.0
 10
63.9926996776453
 20
141.9168871965793
 30
0.0
 10
64.1576845676222
 20
142.1386485147636
 30
0.0
 10
64.53211478749607
 20
142.5490043152487
 30
0.0
  0
CIRCLE
  5
15F
330
1F
100
AcDbEntity
  8
0
  6
HIDDEN
 62
     7
370
     0
100
AcDbCircle
 10
67.5337382488
 20
139.6978148649
 30
0.0
 40
4.05000000000004
  0
SPLINE
  5
160
330
1F
100
AcDbEntity
  8
0
  6
HIDDEN
 62
     7
370
     0
100
AcDbSpline
210
0.0
220
0.0
230
1.0
 70
     8
 71
     3
 72
     9
 73
     5
 74
     0
 42
0.00000001
 43
0.00000001
 12
1.0
 22
0.0
 32
0.0
 13
1.0
 23
0.0
 33
0.0
 40
0.0
 40
0.0
 40
0.0
 40
0.0
 40
0.5034585646673495
 40
1.0
 40
1.0
 40
1.0
 40
1.0
 10
258.4881669945736
 20
151.8451083794908
 30
0.0
 10
258.550975290999
 20
151.6685992047279
 30
0.0
 10
258.6757289466784
 20
151.3180059540609
 30
0.0
 10
258.791424181082
 20
150.9643203542533
 30
0.0
 10
258.848871658834
 20
150.7887007988683
 30
0.0
  0
LINE
  5
161
330
1F
100
AcDbEntity
  8
0
  6
HIDDEN
 62
     7
370
     0
100
AcDbLine
 10
258.4881665305
 20
151.8451136839
 30
0.0
 11
240.0832501223
 21
150.234892145
 31
0.0
  0
LINE
  5
162
330
1F
100
AcDbEntity
  8
0
  6
HIDDEN
 62
     7
370
     0
100
AcDbLine
 10
258.7409991105
 20
149.6635037738
 30
0.0
 11
258.8488755828
 21
150.7887022828
 31
0.0
  0
LINE
  5
163
330
1F
100
AcDbEntity
  8
0
  6
HIDDEN
 62
     7
370
     0
100
AcDbLine
 10
251.6757459854
 20
139.6978148649
 30
0.0
 11
258.7409991105
 21
149.6635037738
 31
0.0
  0
CIRCLE
  5
164
330
1F
100
AcDbEntity
  8
0
  6
HIDDEN
 62
     7
370
     0
100
AcDbCircle
 10
95.0337382488
 20
139.6978148649
 30
0.0
 40
2.0
  0
LINE
  5
165
330
1F
100
AcDbEntity
  8
0
  6
HIDDEN
 62
     7
370
     0
100
AcDbLine
 10
83.0337382488
 20
115.4478148649
 30
0.0
 11
83.1266314676
 21
115.5407080838
 31
0.0
  0
LINE
  5
166
330
1F
100
AcDbEntity
  8
0
  6
HIDDEN
 62
     7
370
     0
100
AcDbLine
 10
83.1266314676
 20
163.8549216461
 30
0.0
 11
83.0337382488
 21
163.9478148649
 31
0.0
  0
ARC
  5
167
330
1F
100
AcDbEntity
  8
0
  6
HIDDEN
 62
     7
370
     0
100
AcDbCircle
 10
82.4195246864
 20
116.2478148649
 30
0.0
 40
1.000000000000008
100
AcDbArc
 50
315.0
 51
0.0
  0
ARC
  5
168
330
1F
100
AcDbEntity
  8
0
  6
HIDDEN
 62
     7
370
     0
100
AcDbCircle
 10
82.4195246864
 20
116.2478148649
 30
0.0
 40
1.00000000000001
100
AcDbArc
 50
0.0
 51
52.1052014664
  0
ARC
  5
169
330
1F
100
AcDbEntity
  8
0
  6
HIDDEN
 62
     7
370
     0
100
AcDbCircle
 10
82.4195246864
 20
163.1478148649
 30
0.0
 40
1.000000000000008
100
AcDbArc
 50
351.8087250651
 51
45.0
  0
ARC
  5
16A
330
1F
100
AcDbEntity
  8
0
  6
HIDDEN
 62
     7
370
     0
100
AcDbCircle
 10
82.4195246864
 20
163.1478148649
 30
0.0
 40
0.9999999999999989
100
AcDbArc
 50
307.8947985336
 51
351.8087250651
  0
LINE
  5
16B
330
1F
100
AcDbEntity
  8
0
  6
HIDDEN
 62
     7
370
     0
100
AcDbLine
 10
83.4195246864
 20
116.2478148649
 30
0.0
 11
83.4195246864
 21
163.1478148649
 31
0.0
  0
LINE
  5
16C
330
1F
100
AcDbEntity
  8
0
  6
HIDDEN
 62
     7
370
     0
100
AcDbLine
 10
83.4195246864
 20
116.2478148649
 30
0.0
 11
83.4195246864
 21
163.1478148649
 31
0.0
  0
LINE
  5
16D
330
1F
100
AcDbEntity
  8
0
  6
HIDDEN
 62
     7
370
     0
100
AcDbLine
 10
45.0337382488
 20
123.5013860205
 30
0.0
 11
46.5639666884
 21
124.384863822
 31
0.0
  0
LINE
  5
16E
330
1F
100
AcDbEntity
  8
0
  6
HIDDEN
 62
     7
370
     0
100
AcDbLine
 10
46.5639666884
 20
155.0107659079
 30
0.0
 11
45.0337382488
 21
155.8942437094
 31
0.0
  0
ARC
  5
16F
330
1F
100
AcDbEntity
  8
0
  6
HIDDEN
 62
     7
370
     0
100
AcDbCircle
 10
56.0355395637
 20
125.6978148649
 30
0.0
 40
2.000000000000026
100
AcDbArc
 50
270.0
 51
315.0
  0
ARC
  5
170
330
1F
100
AcDbEntity
  8
0
  6
HIDDEN
 62
     7
370
     0
100
AcDbCircle
 10
56.0355395637
 20
153.6978148649
 30
0.0
 40
2.000000000000028
100
AcDbArc
 50
45.0
 51
90.0
  0
LINE
  5
171
330
1F
100
AcDbEntity
  8
0
  6
HIDDEN
 62
     7
370
     0
100
AcDbLine
 10
55.0337382488
 20
123.6978148649
 30
0.0
 11
56.0355395637
 21
123.6978148649
 31
0.0
  0
LINE
  5
172
330
1F
100
AcDbEntity
  8
0
  6
HIDDEN
 62
     7
370
     0
100
AcDbLine
 10
56.0355395637
 20
155.6978148649
 30
0.0
 11
55.0337382488
 21
155.6978148649
 31
0.0
  0
ARC
  5
173
330
1F
100
AcDbEntity
  8
0
  6
HIDDEN
 62
     7
370
     0
100
AcDbCircle
 10
55.0337382488
 20
125.6978148649
 30
0.0
 40
2.0
100
AcDbArc
 50
189.9742217944
 51
270.0
  0
ARC
  5
174
330
1F
100
AcDbEntity
  8
0
  6
HIDDEN
 62
     7
370
     0
100
AcDbCircle
 10
55.0337382488
 20
153.6978148649
 30
0.0
 40
2.0
100
AcDbArc
 50
90.0
 51
170.0257782056
  0
LINE
  5
175
330
1F
100
AcDbEntity
  8
0
  6
HIDDEN
 62
     7
370
     0
100
AcDbLine
 10
57.4497531261
 20
124.2836013026
 30
0.0
 11
58.8639666884
 21
125.6978148649
 31
0.0
  0
LINE
  5
176
330
1F
100
AcDbEntity
  8
0
  6
HIDDEN
 62
     7
370
     0
100
AcDbLine
 10
58.8639666884
 20
153.6978148649
 30
0.0
 11
57.4497531261
 21
155.1120284273
 31
0.0
  0
LINE
  5
177
330
1F
100
AcDbEntity
  8
0
  6
HIDDEN
 62
     7
370
     0
100
AcDbLine
 10
46.5639666884
 20
124.384863822
 30
0.0
 11
51.4639666884
 21
125.6978148649
 31
0.0
  0
LINE
  5
178
330
1F
100
AcDbEntity
  8
0
  6
HIDDEN
 62
     7
370
     0
100
AcDbLine
 10
51.4639666884
 20
153.6978148649
 30
0.0
 11
46.5639666884
 21
155.0107659079
 31
0.0
  0
LINE
  5
179
330
1F
100
AcDbEntity
  8
0
  6
HIDDEN
 62
     7
370
     0
100
AcDbLine
 10
217.5337382488
 20
149.1023789016
 30
0.0
 11
217.5337382488
 21
142.1957095479
 31
0.0
  0
LINE
  5
17A
330
1F
100
AcDbEntity
  8
0
  6
HIDDEN
 62
     7
370
     0
100
AcDbLine
 10
222.5337382488
 20
148.9869982152
 30
0.0
 11
222.5337382488
 21
149.1023789016
 31
0.0
  0
LINE
  5
17B
330
1F
100
AcDbEntity
  8
0
  6
HIDDEN
 62
     7
370
     0
100
AcDbLine
 10
222.5337382488
 20
142.1951077796
 30
0.0
 11
222.5337382488
 21
146.3815977013
 31
0.0
  0
LINE
  5
17C
330
1F
100
AcDbEntity
  8
0
  6
HIDDEN
 62
     7
370
     0
100
AcDbLine
 10
53.0639666884
 20
154.0442250265
 30
0.0
 11
52.4639666884
 21
153.6978148649
 31
0.0
  0
LINE
  5
17D
330
1F
100
AcDbEntity
  8
0
  6
HIDDEN
 62
     7
370
     0
100
AcDbLine
 10
52.4639666884
 20
125.6978148649
 30
0.0
 11
53.0639666884
 21
125.3514047034
 31
0.0
  0
ARC
  5
17E
330
1F
100
AcDbEntity
  8
0
  6
HIDDEN
 62
     7
370
     0
100
AcDbCircle
 10
71.5337382488
 20
126.1978148649
 30
0.0
 40
0.5000000000000284
100
AcDbArc
 50
270.0
 51
360.0
  0
ARC
  5
17F
330
1F
100
AcDbEntity
  8
0
  6
HIDDEN
 62
     7
370
     0
100
AcDbCircle
 10
71.5337382488
 20
153.1978148649
 30
0.0
 40
0.5000000000000284
100
AcDbArc
 50
0.0
 51
90.0
  0
LINE
  5
180
330
1F
100
AcDbEntity
  8
0
  6
HIDDEN
 62
     7
370
     0
100
AcDbLine
 10
51.4639666884
 20
125.6978148649
 30
0.0
 11
52.4639666884
 21
125.6978148649
 31
0.0
  0
LINE
  5
181
330
1F
100
AcDbEntity
  8
0
  6
HIDDEN
 62
     7
370
     0
100
AcDbLine
 10
52.4639666884
 20
153.6978148649
 30
0.0
 11
51.4639666884
 21
153.6978148649
 31
0.0
  0
LINE
  5
182
330
1F
100
AcDbEntity
  8
0
  6
HIDDEN
 62
     7
370
     0
100
AcDbLine
 10
58.8639666884
 20
125.6978148649
 30
0.0
 11
71.5337382488
 21
125.6978148649
 31
0.0
  0
LINE
  5
183
330
1F
100
AcDbEntity
  8
0
  6
HIDDEN
 62
     7
370
     0
100
AcDbLine
 10
71.5337382488
 20
153.6978148649
 30
0.0
 11
58.8639666884
 21
153.6978148649
 31
0.0
  0
LINE
  5
184
330
1F
100
AcDbEntity
  8
0
  6
HIDDEN
 62
     7
370
     0
100
AcDbLine
 10
227.8419705598
 20
153.9206501627
 30
0.0
 11
220.2020528946
 21
150.4522001239
 31
0.0
  0
LINE
  5
185
330
1F
100
AcDbEntity
  8
0
  6
HIDDEN
 62
     7
370
     0
100
AcDbLine
 10
222.2182491386
 20
145.8763880686
 30
0.0
 11
227.8153889615
 21
148.4174363739
 31
0.0
  0
LINE
  5
186
330
1F
100
AcDbEntity
  8
0
  6
HIDDEN
 62
     7
370
     0
100
AcDbLine
 10
72.0337382488
 20
129.4478148649
 30
0.0
 11
73.2837382488
 21
130.6978148649
 31
0.0
  0
LINE
  5
187
330
1F
100
AcDbEntity
  8
0
  6
HIDDEN
 62
     7
370
     0
100
AcDbLine
 10
73.2837382488
 20
148.6978148649
 30
0.0
 11
72.0337382488
 21
149.9478148649
 31
0.0
  0
LINE
  5
188
330
1F
100
AcDbEntity
  8
0
  6
HIDDEN
 62
     7
370
     0
100
AcDbLine
 10
73.2837382488
 20
130.6978148649
 30
0.0
 11
99.0337382488
 21
130.6978148649
 31
0.0
  0
LINE
  5
189
330
1F
100
AcDbEntity
  8
0
  6
HIDDEN
 62
     7
370
     0
100
AcDbLine
 10
99.0337382488
 20
148.6978148649
 30
0.0
 11
73.2837382488
 21
148.6978148649
 31
0.0
  0
LINE
  5
18A
330
1F
100
AcDbEntity
  8
0
  6
HIDDEN
 62
     7
370
     0
100
AcDbLine
 10
99.0337382488
 20
130.6978148649
 30
0.0
 11
101.8878261892
 21
135.4478148649
 31
0.0
  0
LINE
  5
18B
330
1F
100
AcDbEntity
  8
0
  6
HIDDEN
 62
     7
370
     0
100
AcDbLine
 10
101.8878261892
 20
143.9478148649
 30
0.0
 11
99.0337382488
 21
148.6978148649
 31
0.0
  0
LINE
  5
18C
330
1F
100
AcDbEntity
  8
0
  6
HIDDEN
 62
     7
370
     0
100
AcDbLine
 10
223.0337382488
 20
143.9478148649
 30
0.0
 11
101.8878261892
 21
143.9478148649
 31
0.0
  0
LINE
  5
18D
330
1F
100
AcDbEntity
  8
0
  6
HIDDEN
 62
     7
370
     0
100
AcDbLine
 10
101.8878261892
 20
135.4478148649
 30
0.0
 11
223.0337382488
 21
135.4478148649
 31
0.0
  0
LINE
  5
18E
330
1F
100
AcDbEntity
  8
0
  6
HIDDEN
 62
     7
370
     0
100
AcDbLine
 10
223.0337382488
 20
135.4478148649
 30
0.0
 11
225.5873958797
 21
139.6978148649
 31
0.0
  0
LINE
  5
18F
330
1F
100
AcDbEntity
  8
0
  6
HIDDEN
 62
     7
370
     0
100
AcDbLine
 10
225.5873958797
 20
139.6978148649
 30
0.0
 11
223.0337382488
 21
143.9478148649
 31
0.0
  0
LINE
  5
190
330
1F
100
AcDbEntity
  8
0
  6
HIDDEN
 62
     7
370
     0
100
AcDbLine
 10
248.2680372748
 20
154.0420399598
 30
0.0
 11
248.2680372748
 21
153.7072088858
 31
0.0
  0
LINE
  5
191
330
1F
100
AcDbEntity
  8
0
  6
HIDDEN
 62
     7
370
     0
100
AcDbLine
 10
252.4680372748
 20
153.7072088858
 30
0.0
 11
252.4680372748
 21
153.7309260869
 31
0.0
  0
LINE
  5
192
330
1F
100
AcDbEntity
  8
0
  6
HIDDEN
 62
     7
370
     0
100
AcDbLine
 10
217.5337382488
 20
137.2005219503
 30
0.0
 11
217.5337382488
 21
132.0566065851
 31
0.0
  0
LINE
  5
193
330
1F
100
AcDbEntity
  8
0
  6
HIDDEN
 62
     7
370
     0
100
AcDbLine
 10
222.5337382488
 20
132.0566065851
 30
0.0
 11
222.5337382488
 21
137.199920182
 31
0.0
  0
LINE
  5
194
330
1F
100
AcDbEntity
  8
0
  6
HIDDEN
 62
     7
370
     0
100
AcDbLine
 10
253.9883641864
 20
159.3745377433
 30
0.0
 11
253.9883641864
 21
158.6685283569
 31
0.0
  0
LINE
  5
195
330
1F
100
AcDbEntity
  8
0
  6
HIDDEN
 62
     7
370
     0
100
AcDbLine
 10
258.1883641864
 20
158.6402692941
 30
0.0
 11
258.1883641864
 21
159.3745377433
 31
0.0
  0
LINE
  5
196
330
1F
100
AcDbEntity
  8
0
  6
HIDDEN
 62
     7
370
     0
100
AcDbLine
 10
217.0337382488
 20
131.8800180799
 30
0.0
 11
217.0337382488
 21
127.9428733416
 31
0.0
  0
LINE
  5
197
330
1F
100
AcDbEntity
  8
0
  6
HIDDEN
 62
     7
370
     0
100
AcDbLine
 10
223.0337382488
 20
127.9421098191
 30
0.0
 11
223.0337382488
 21
131.8800180799
 31
0.0
  0
LINE
  5
198
330
1F
100
AcDbEntity
  8
VERMASSUNG
  6
CENTERX2
100
AcDbLine
 10
42.208484262
 20
139.6978148649
 30
0.0
 11
263.0337382488
 21
139.6978148649
 31
0.0
  0
LINE
  5
199
330
1F
100
AcDbEntity
  8
VERMASSUNG
  6
CENTERX2
100
AcDbLine
 10
263.0337382488
 20
166.6978148649
 30
0.0
 11
263.0337382488
 21
139.6978148649
 31
0.0
  0
LINE
  5
19A
330
1F
100
AcDbEntity
  8
VERMASSUNG
  6
CENTERX2
100
AcDbLine
 10
263.0337382488
 20
166.6978148649
 30
0.0
 11
274.8014390141
 21
166.6978148649
 31
0.0
  0
DIMENSION
  5
19B
330
1F
100
AcDbEntity
  8
VERMASSUNG
100
AcDbDimension
  2
_D
 10
263.0337382488
 20
181.1978148649
 30
0.0
 11
173.0337382488
 21
181.1978148649
 31
0.0
 70
   160
  1
<>
 71
     2
 42
-1.0
  3
SLDDIMSTYLE0
100
AcDbAlignedDimension
 13
83.0337382488
 23
170.6978148649
 33
0.0
 14
263.0337382488
 24
166.6978148649
 34
0.0
100
AcDbRotatedDimension
  0
DIMENSION
  5
1A6
330
1F
100
AcDbEntity
  8
VERMASSUNG
100
AcDbDimension
  2
_D_1
 10
45.0337382488
 20
193.1978148649
 30
0.0
 11
154.0337382488
 21
193.1978148649
 31
0.0
 70
   160
  1
<>
 71
     2
 42
-1.0
  3
SLDDIMSTYLE0
100
AcDbAlignedDimension
 13
263.0337382488
 23
166.6978148649
 33
0.0
 14
45.0337382488
 24
159.9901528574
 34
0.0
100
AcDbRotatedDimension
  0
DIMENSION
  5
1B0
330
1F
100
AcDbEntity
  8
VERMASSUNG
100
AcDbDimension
  2
_D_2
 10
280.3584016892
 20
139.6978148649
 30
0.0
 11
280.3584016892
 21
153.1978148649
 31
0.0
 70
   160
  1
<>
 71
     2
 42
-1.0
  3
SLDDIMSTYLE0
100
AcDbAlignedDimension
 13
263.0337382488
 23
166.6978148649
 33
0.0
 14
263.0337382488
 24
139.6978148649
 34
0.0
 50
90.0
100
AcDbRotatedDimension
  0
DIMENSION
  5
1BA
330
1F
100
AcDbEntity
  8
VERMASSUNG
100
AcDbDimension
  2
_D_3
 10
274.8014390141
 20
166.6978148649
 30
0.0
 11
269.7515159311
 21
159.4049533424
 31
0.0
 70
   162
  1
<>
 71
     1
 42
-1.0
  3
SLDDIMSTYLE1
100
AcDb2LineAngularDimension
 13
261.9790630273
 23
154.255739823
 33
0.0
 14
263.032216128
 24
166.2640118705
 34
0.0
 15
263.0337382488
 25
166.6978148649
 35
0.0
 16
269.7515159311
 26
159.4049533424
 36
0.0
  0
DIMENSION
  5
1C3
330
1F
100
AcDbEntity
  8
VERMASSUNG
100
AcDbDimension
  2
_D_4
 10
35.0337382488
 20
108.1978148649
 30
0.0
 11
35.0337382488
 21
139.6978148649
 31
0.0
 70
   160
  1
PSC%%c<>
 71
     2
 42
-1.0
  3
SLDDIMSTYLE0
100
AcDbAlignedDimension
 13
83.5337382488
 23
171.1978148649
 33
0.0
 14
83.5337382488
 24
108.1978148649
 34
0.0
 50
90.0
100
AcDbRotatedDimension
  0
DIMENSION
  5
1CF
330
1F
100
AcDbEntity
  8
VERMASSUNG
100
AcDbDimension
  2
_D_5
 10
137.5548985208
 20
119.6978148649
 30
0.0
 11
137.5548985208
 21
128.9552970205
 31
0.0
 70
   160
  1
%%c<>
 71
     2
 42
-1.0
  3
SLDDIMSTYLE0
100
AcDbAlignedDimension
 13
109.0337382488
 23
159.6978148649
 33
0.0
 14
109.0337382488
 24
119.6978148649
 34
0.0
 50
90.0
100
AcDbRotatedDimension
  0
LINE
  5
1D8
330
1F
100
AcDbEntity
  8
0
  6
Continuous
 62
     7
370
    15
100
AcDbLine
 10
187.5316720539
 20
88.0224952152
 30
0.0
 11
184.3097717596
 21
88.6487691904
 31
0.0
  0
LINE
  5
1D9
330
1F
100
AcDbEntity
  8
0
  6
Continuous
 62
     7
370
    15
100
AcDbLine
 10
183.3408021528
 20
74.7918582299
 30
0.0
 11
183.6426408733
 21
74.8076769269
 31
0.0
  0
SPLINE
  5
1DA
330
1F
100
AcDbEntity
  8
0
  6
Continuous
 62
     7
370
    15
100
AcDbSpline
210
0.0
220
0.0
230
1.0
 70
    24
 71
     3
 72
     9
 73
     5
 74
     0
 42
0.00000001
 43
0.00000001
 12
1.0
 22
0.0
 32
0.0
 13
1.0
 23
0.0
 33
0.0
 40
0.0
 40
0.0
 40
0.0
 40
0.0
 40
0.5034585646673495
 40
1.0
 40
1.0
 40
1.0
 40
1.0
 10
204.8097717596302
 20
73.79606270490822
 30
0.0
 10
204.8097717596302
 20
73.61955353014534
 30
0.0
 10
204.8097717596302
 20
73.26896027947832
 30
0.0
 10
204.8097717596302
 20
72.9152746796707
 30
0.0
 10
204.8097717596302
 20
72.73965512428572
 30
0.0
  0
SPLINE
  5
1DB
330
1F
100
AcDbEntity
  8
0
  6
Continuous
 62
     7
370
    15
100
AcDbSpline
210
0.0
220
0.0
230
1.0
 70
     8
 71
     3
 72
    30
 73
    26
 74
     0
 42
0.00000001
 43
0.00000001
 12
1.0
 22
0.0
 32
0.0
 13
1.0
 23
0.0
 33
0.0
 40
0.0
 40
0.0
 40
0.0
 40
0.0
 40
0.0209077326895113
 40
0.0418009387069772
 40
0.0626863717643515
 40
0.0835707931145691
 40
0.1044609649929041
 40
0.1253636440535628
 40
0.1566985109493399
 40
0.1880590558597747
 40
0.2507468931949545
 40
0.313424071054672
 40
0.3760819944920264
 40
0.4387122243995659
 40
0.5013067231304217
 40
0.5638578100662415
 40
0.6263583652801418
 40
0.6888018393979647
 40
0.7511823723262864
 40
0.8134948626250211
 40
0.8446141890371989
 40
0.8757408131065275
 40
0.9171835943953114
 40
0.9585847960904285
 40
0.9999999999999999
 40
0.9999999999999999
 40
0.9999999999999999
 40
0.9999999999999999
 10
204.8097672143152
 20
72.73965655773125
 30
0.0
 10
204.7482414189362
 20
72.87950914859094
 30
0.0
 10
204.6252325762401
 20
73.15911716086818
 30
0.0
 10
204.4312255751091
 20
73.57402632844996
 30
0.0
 10
204.2303768139357
 20
73.98538343650426
 30
0.0
 10
204.0219994558998
 20
74.39288267540378
 30
0.0
 10
203.806275373424
 20
74.79660584479832
 30
0.0
 10
203.5461194486558
 20
75.26293274664233
 30
0.0
 10
203.2367365929705
 20
75.78910862080832
 30
0.0
 10
202.7515367305082
 20
76.56519855855433
 30
0.0
 10
202.1058465407787
 20
77.50988676924783
 30
0.0
 10
201.2709174092631
 20
78.59894957003615
 30
0.0
 10
200.3783827091776
 20
79.64036792564467
 30
0.0
 10
199.4308832078716
 20
80.63086214827487
 30
0.0
 10
198.4314077205772
 20
81.56752180874173
 30
0.0
 10
197.3828957592004
 20
82.44737641206324
 30
0.0
 10
196.2886408847729
 20
83.26785696252105
 30
0.0
 10
195.15189223394
 20
84.02636432809788
 30
0.0
 10
193.976192509964
 20
84.72064736848851
 30
0.0
 10
192.9666493004916
 20
85.24406443139249
 30
0.0
 10
192.1431541708331
 20
85.62858672951981
 30
0.0
 10
191.448967820387
 20
85.92979235469187
 30
0.0
 10
190.675278345729
 20
86.23566093087452
 30
0.0
 10
189.8204626907707
 20
86.54012280020326
 30
0.0
 10
189.2417922986912
 20
86.71615682879089
 30
0.0
 10
188.9524081831961
 20
86.80418872459398
 30
0.0
  0
SPLINE
  5
1DC
330
1F
100
AcDbEntity
  8
0
  6
Continuous
 62
     7
370
    15
100
AcDbSpline
210
0.0
220
0.0
230
1.0
 70
     8
 71
     3
 72
    27
 73
    23
 74
     0
 42
0.00000001
 43
0.00000001
 12
1.0
 22
0.0
 32
0.0
 13
1.0
 23
0.0
 33
0.0
 40
0.0
 40
0.0
 40
0.0
 40
0.0
 40
0.0203220772816887
 40
0.0408022951415637
 40
0.0614407693151041
 40
0.0822376128932986
 40
0.1031929364007009
 40
0.1243068478707142
 40
0.1857127737473296
 40
0.2488821660791338
 40
0.3101726689112882
 40
0.3737122655833134
 40
0.4987168117652915
 40
0.6238911953433047
 40
0.6865463194629391
 40
0.7492228695009531
 40
0.8119132483657087
 40
0.874609690398786
 40
0.9095677530180819
 40
0.9373095836686532
 40
0.9701625852265776
 40
0.9999999999999999
 40
0.9999999999999999
 40
0.9999999999999999
 40
0.9999999999999999
 10
188.9877044690409
 20
87.30893119835656
 30
0.0
 10
189.1270462968116
 20
87.26767026569507
 30
0.0
 10
189.4068142705013
 20
87.18482731962537
 30
0.0
 10
189.8251747789315
 20
87.0507775689691
 30
0.0
 10
190.2444361911407
 20
86.90882812338418
 30
0.0
 10
190.6642132622974
 20
86.75818614566971
 30
0.0
 10
191.0843756758301
 20
86.59891724717976
 30
0.0
 10
191.7710226021485
 20
86.32438839212436
 30
0.0
 10
192.7238222644662
 20
85.9039136212601
 30
0.0
 10
193.9088455492815
 20
85.30391672450035
 30
0.0
 10
195.0734728344524
 20
84.63464740896762
 30
0.0
 10
196.5716690903742
 20
83.66485769828195
 30
0.0
 10
198.352548671508
 20
82.29921298955037
 30
0.0
 10
199.9754176811366
 20
80.75810880211532
 30
0.0
 10
201.1722300415356
 20
79.42744062383609
 30
0.0
 10
202.0171707967028
 20
78.38264466669267
 30
0.0
 10
202.8065751809661
 20
77.29454703633313
 30
0.0
 10
203.4303202875183
 20
76.33250061708142
 30
0.0
 10
203.8871283716634
 20
75.56101072778617
 30
0.0
 10
204.2194960007552
 20
74.96400781015265
 30
0.0
 10
204.5208318494653
 20
74.39161503140538
 30
0.0
 10
204.7165974280084
 20
73.98811421556316
 30
0.0
 10
204.8097717775689
 20
73.79606857432728
 30
0.0
  0
LINE
  5
1DD
330
1F
100
AcDbEntity
  8
0
  6
Continuous
 62
     7
370
    15
100
AcDbLine
 10
204.8097717596
 20
71.6144580992
 30
0.0
 11
183.4587206054
 21
72.1774945585
 31
0.0
  0
LINE
  5
1DE
330
1F
100
AcDbEntity
  8
0
  6
Continuous
 62
     7
370
    15
100
AcDbLine
 10
183.716204932
 20
75.8596919798
 30
0.0
 11
183.4587206054
 21
72.1774945585
 31
0.0
  0
LINE
  5
1DF
330
1F
100
AcDbEntity
  8
0
  6
Continuous
 62
     7
370
    15
100
AcDbLine
 10
183.716204932
 20
75.8596919798
 30
0.0
 11
185.8075827314
 21
75.9497668914
 31
0.0
  0
LINE
  5
1E0
330
1F
100
AcDbEntity
  8
0
  6
Continuous
 62
     7
370
    15
100
AcDbLine
 10
185.8075827314
 20
75.9497668914
 30
0.0
 11
188.179981116
 21
75.7579472946
 31
0.0
  0
LINE
  5
1E1
330
1F
100
AcDbEntity
  8
0
  6
Continuous
 62
     7
370
    15
100
AcDbLine
 10
188.179981116
 20
75.7579472946
 30
0.0
 11
188.2024508155
 21
76.0792789683
 31
0.0
  0
LINE
  5
1E2
330
1F
100
AcDbEntity
  8
0
  6
Continuous
 62
     7
370
    15
100
AcDbLine
 10
204.8097717596
 20
71.6144580992
 30
0.0
 11
204.8097717596
 21
72.7396566082
 31
0.0
  0
LINE
  5
1E3
330
1F
100
AcDbEntity
  8
0
  6
Continuous
 62
     7
370
    15
100
AcDbLine
 10
204.8097717596
 20
61.6487691904
 30
0.0
 11
204.8097717596
 21
71.6144580992
 31
0.0
  0
ARC
  5
1E4
330
1F
100
AcDbEntity
  8
0
  6
Continuous
 62
     7
370
    15
100
AcDbCircle
 10
184.3097717596
 20
61.6487691904
 30
0.0
 40
20.50000000000006
100
AcDbArc
 50
261.5700482425
 51
0.0
  0
LINE
  5
1E5
330
1F
100
AcDbEntity
  8
0
  6
Continuous
 62
     7
370
    15
100
AcDbLine
 10
183.4587206054
 20
72.1774945585
 30
0.0
 11
181.3044685329
 21
41.3702546364
 31
0.0
  0
SPLINE
  5
1E6
330
1F
100
AcDbEntity
  8
0
  6
Continuous
 62
     7
370
    15
100
AcDbSpline
210
0.0
220
0.0
230
1.0
 70
     8
 71
     3
 72
    19
 73
    15
 74
     0
 42
0.00000001
 43
0.00000001
 12
1.0
 22
0.0
 32
0.0
 13
1.0
 23
0.0
 33
0.0
 40
0.0
 40
0.0
 40
0.0
 40
0.0
 40
0.0814331293636334
 40
0.1634122796480653
 40
0.2471455166193988
 40
0.3314993661624731
 40
0.412937510520866
 40
0.4949551157331222
 40
0.578797880809711
 40
0.6632708288220873
 40
0.8248744341700761
 40
0.907750968896246
 40
0.9912214417350113
 40
0.9999999999999999
 40
0.9999999999999999
 40
0.9999999999999999
 40
0.9999999999999999
 10
179.6241487644302
 20
81.09214690996144
 30
0.0
 10
179.7779148268004
 20
81.12807642020587
 30
0.0
 10
180.0864779752485
 20
81.20017635326217
 30
0.0
 10
180.5413839890866
 20
81.29218823689966
 30
0.0
 10
180.9881902189676
 20
81.37275614914434
 30
0.0
 10
181.4160017408044
 20
81.43979172705606
 30
0.0
 10
181.8197608482486
 20
81.49444636391173
 30
0.0
 10
182.1986010977262
 20
81.53817879253778
 30
0.0
 10
182.5544683267751
 20
81.5725833050734
 30
0.0
 10
182.9816311815028
 20
81.60646955419725
 30
0.0
 10
183.3471839598232
 20
81.62658766812048
 30
0.0
 10
183.6277188770129
 20
81.63742445381415
 30
0.0
 10
183.7716073980169
 20
81.64179488185766
 30
0.0
 10
183.815666723869
 20
81.64261873611822
 30
0.0
 10
183.819859476405
 20
81.64269713534411
 30
0.0
  0
SPLINE
  5
1E7
330
1F
100
AcDbEntity
  8
0
  6
Continuous
 62
     7
370
    15
100
AcDbSpline
210
0.0
220
0.0
230
1.0
 70
     8
 71
     3
 72
    16
 73
    12
 74
     0
 42
0.00000001
 43
0.00000001
 12
1.0
 22
0.0
 32
0.0
 13
1.0
 23
0.0
 33
0.0
 40
0.0
 40
0.0
 40
0.0
 40
0.0
 40
0.2499999999999999
 40
0.2499999999999999
 40
0.4999999999999999
 40
0.4999999999999999
 40
0.7499999999999998
 40
0.7499999999999998
 40
0.8749999999999999
 40
0.8749999999999999
 40
1.0
 40
1.0
 40
1.0
 40
1.0
 10
181.3394539052472
 20
41.87056877061273
 30
0.0
 10
181.3394539052472
 20
41.87056877061273
 30
0.0
 10
181.2319591007733
 20
41.88581844450789
 30
0.0
 10
180.8035881150236
 20
41.95730329276134
 30
0.0
 10
180.4935020581801
 20
42.01193855891691
 30
0.0
 10
179.6897289625285
 20
42.18536156900195
 30
0.0
 10
179.2150793823722
 20
42.3004528088262
 30
0.0
 10
178.4095355091836
 20
42.53684826405215
 30
0.0
 10
178.1299630553068
 20
42.62506496323212
 30
0.0
 10
177.557915431419
 20
42.82049804650639
 30
0.0
 10
177.2643426582127
 20
42.92802206223289
 30
0.0
 10
176.963753754949
 20
43.04672576834123
 30
0.0
  0
ELLIPSE
  5
1E8
330
1F
100
AcDbEntity
  8
0
  6
Continuous
 62
     7
370
    15
100
AcDbEllipse
 10
175.2751411941
 20
73.1199975937
 30
0.0
 11
2.063138446659792
 21
2.20843965715936
 31
0.0
210
0.0
220
0.0
230
1.0
 40
0.8112573031
 41
0.0
 42
6.283185307179586
  0
ARC
  5
1E9
330
1F
100
AcDbEntity
  8
0
  6
Continuous
 62
     7
370
    15
100
AcDbCircle
 10
184.3097717596
 20
61.6487691904
 30
0.0
 40
20.00000000000002
100
AcDbArc
 50
103.5492528118
 51
248.4507471882
  0
SPLINE
  5
1EA
330
1F
100
AcDbEntity
  8
0
  6
Continuous
 62
     7
370
    15
100
AcDbSpline
210
0.0
220
0.0
230
1.0
 70
     8
 71
     3
 72
    12
 73
     8
 74
     0
 42
0.00000001
 43
0.00000001
 12
1.0
 22
0.0
 32
0.0
 13
1.0
 23
0.0
 33
0.0
 40
0.0
 40
0.0
 40
0.0
 40
0.0
 40
0.2367421714638442
 40
0.4764899737875472
 40
0.7219955110412697
 40
0.9692247405579656
 40
1.0
 40
1.0
 40
1.0
 40
1.0
 10
175.3157885149524
 20
71.13095613264966
 30
0.0
 10
175.3752041127014
 20
71.11718073963299
 30
0.0
 10
175.4947896366446
 20
71.08945506398828
 30
0.0
 10
175.6729595118707
 20
71.00465099606085
 30
0.0
 10
175.8371367810967
 20
70.8984626776556
 30
0.0
 10
175.94691549446
 20
70.81176189333657
 30
0.0
 10
175.9947571317936
 20
70.75708658900295
 30
0.0
 10
176.0000532290134
 20
70.75103400085145
 30
0.0
  0
ARC
  5
1EB
330
1F
100
AcDbEntity
  8
0
  6
Continuous
 62
     7
370
    15
100
AcDbCircle
 10
173.292888274
 20
69.2277374101
 30
0.0
 40
2.777474912693372
100
AcDbArc
 50
43.2539695985
 51
67.3512938561
  0
SPLINE
  5
1EC
330
1F
100
AcDbEntity
  8
0
  6
Continuous
 62
     7
370
    15
100
AcDbSpline
210
0.0
220
0.0
230
1.0
 70
     8
 71
     3
 72
    20
 73
    16
 74
     0
 42
0.00000001
 43
0.00000001
 12
1.0
 22
0.0
 32
0.0
 13
1.0
 23
0.0
 33
0.0
 40
0.0
 40
0.0
 40
0.0
 40
0.0
 40
0.0303515911320258
 40
0.0979861183463784
 40
0.1661361751071053
 40
0.2495692701434211
 40
0.333666710817803
 40
0.4195391892890855
 40
0.5059051408026207
 40
0.6035030146673194
 40
0.7016307500248081
 40
0.8012852318810976
 40
0.901472365549093
 40
0.9506246998306974
 40
0.9999999999999999
 40
0.9999999999999999
 40
0.9999999999999999
 40
0.9999999999999999
 10
172.6002216472033
 20
72.56326549692282
 30
0.0
 10
172.6212215699872
 20
72.57135268892443
 30
0.0
 10
172.6890170575522
 20
72.59746112419931
 30
0.0
 10
172.804765495708
 20
72.62107316692722
 30
0.0
 10
172.9564624776135
 20
72.63709060227572
 30
0.0
 10
173.1175467316465
 20
72.63142874675637
 30
0.0
 10
173.2869081420709
 20
72.60269953342883
 30
0.0
 10
173.4533689138631
 20
72.55231023733565
 30
0.0
 10
173.6225393342959
 20
72.4789964082115
 30
0.0
 10
173.7917982888852
 20
72.38193330189115
 30
0.0
 10
173.959232675646
 20
72.2600342594368
 30
0.0
 10
174.1164162791302
 20
72.11869141501565
 30
0.0
 10
174.2339040848915
 20
71.98697808006045
 30
0.0
 10
174.315811917458
 20
71.87572099285345
 30
0.0
 10
174.3468727303678
 20
71.81929779094592
 30
0.0
 10
174.3624382817939
 20
71.79102234775456
 30
0.0
  0
SPLINE
  5
1ED
330
1F
100
AcDbEntity
  8
0
  6
Continuous
 62
     7
370
    15
100
AcDbSpline
210
0.0
220
0.0
230
1.0
 70
     8
 71
     3
 72
     8
 73
     4
 74
     0
 42
0.00000001
 43
0.00000001
 12
1.0
 22
0.0
 32
0.0
 13
1.0
 23
0.0
 33
0.0
 40
0.0
 40
0.0
 40
0.0
 40
0.0
 40
1.0
 40
1.0
 40
1.0
 40
1.0
 10
174.3624382817934
 20
71.79102234775394
 30
0.0
 10
174.6716727653177
 20
71.55712944409079
 30
0.0
 10
174.9918474315592
 20
71.33748900836775
 30
0.0
 10
175.315788514952
 20
71.13095613264903
 30
0.0
  0
CIRCLE
  5
1EE
330
1F
100
AcDbEntity
  8
0
  6
Continuous
 62
     7
370
    15
100
AcDbCircle
 10
184.3097717596
 20
61.6487691904
 30
0.0
 40
31.50000000000006
  0
LINE
  5
1EF
330
1F
100
AcDbEntity
  8
0
  6
Continuous
 62
     7
370
    15
100
AcDbLine
 10
184.2794372992
 20
88.214966196
 30
0.0
 11
184.3097717596
 21
88.6487691904
 31
0.0
  0
LINE
  5
1F0
330
1F
100
AcDbEntity
  8
0
  6
Continuous
 62
     7
370
    15
100
AcDbLine
 10
187.5316720539
 20
88.0224952152
 30
0.0
 11
184.2794372992
 21
88.214966196
 31
0.0
  0
LINE
  5
1F1
330
1F
100
AcDbEntity
  8
0
  6
Continuous
 62
     7
370
    15
100
AcDbLine
 10
189.0161196547
 20
87.7152854805
 30
0.0
 11
187.5316720539
 21
88.0224952152
 31
0.0
  0
LINE
  5
1F2
330
1F
100
AcDbEntity
  8
0
  6
Continuous
 62
     7
370
    15
100
AcDbLine
 10
188.2024508155
 20
76.0792789683
 30
0.0
 11
189.0161196547
 21
87.7152854805
 31
0.0
  0
LINE
  5
1F3
330
1F
100
AcDbEntity
  8
0
  6
Continuous
 62
     7
370
    15
100
AcDbLine
 10
188.2024508155
 20
76.0792789683
 30
0.0
 11
186.6919718727
 21
76.0142231676
 31
0.0
  0
LINE
  5
1F4
330
1F
100
AcDbEntity
  8
0
  6
Continuous
 62
     7
370
    15
100
AcDbLine
 10
186.6919718727
 20
76.0142231676
 30
0.0
 11
183.439737118
 21
76.2066941484
 31
0.0
  0
LINE
  5
1F5
330
1F
100
AcDbEntity
  8
0
  6
Continuous
 62
     7
370
    15
100
AcDbLine
 10
183.439737118
 20
76.2066941484
 30
0.0
 11
184.2794372992
 21
88.214966196
 31
0.0
  0
LINE
  5
1F6
330
1F
100
AcDbEntity
  8
0
  6
Continuous
 62
     7
370
    15
100
AcDbLine
 10
186.6919718727
 20
76.0142231676
 30
0.0
 11
183.7216820779
 21
75.8599278785
 31
0.0
  0
LINE
  5
1F7
330
1F
100
AcDbEntity
  8
0
  6
Continuous
 62
     7
370
    15
100
AcDbLine
 10
183.7162015199
 20
75.8596431843
 30
0.0
 11
183.4143725772
 21
75.8439643155
 31
0.0
  0
LINE
  5
1F8
330
1F
100
AcDbEntity
  8
0
  6
Continuous
 62
     7
370
    15
100
AcDbLine
 10
183.4143725772
 20
75.8439643155
 30
0.0
 11
183.439737118
 21
76.2066941484
 31
0.0
  0
LINE
  5
1F9
330
1F
100
AcDbEntity
  8
0
  6
Continuous
 62
     7
370
    15
100
AcDbLine
 10
183.6427372733
 20
74.8090555116
 30
0.0
 11
183.3409083306
 21
74.7933766429
 31
0.0
  0
LINE
  5
1FA
330
1F
100
AcDbEntity
  8
0
  6
Continuous
 62
     7
370
    15
100
AcDbLine
 10
183.3409083306
 20
74.7933766429
 30
0.0
 11
183.4143725772
 21
75.8439643155
 31
0.0
  0
LINE
  5
1FB
330
1F
100
AcDbEntity
  8
0
  6
Continuous
 62
     7
370
    15
100
AcDbLine
 10
183.3408021528
 20
74.7918582299
 30
0.0
 11
183.3409083306
 21
74.7933766429
 31
0.0
  0
CIRCLE
  5
1FC
330
1F
100
AcDbEntity
  8
VERMASSUNG
  6
CENTERX2
100
AcDbCircle
 10
184.3097717596
 20
63.6415658539
 30
0.0
 40
25.0
  0
DIMENSION
  5
1FD
330
1F
100
AcDbEntity
  8
VERMASSUNG
100
AcDbDimension
  2
_D_6
 10
166.63210223
 20
81.3192353836
 30
0.0
 11
157.2489197353
 21
90.7024178783
 31
0.0
 70
   160
  1
%%c<> min. 
 71
     2
 42
-1.0
  3
SLDDIMSTYLE2
100
AcDbAlignedDimension
 13
201.9874412893
 23
45.9638963243
 33
0.0
 14
166.63210223
 24
81.3192353836
 34
0.0
 50
-45.0
100
AcDbRotatedDimension
  0
INSERT
  5
217
330
1F
100
AcDbEntity
  8
VERMASSUNG
100
AcDbBlockReference
  2
SW_CENTERMARKSYMBOL_0
 10
184.3097717596
 20
61.6487691904
 30
0.0
  0
OLE2FRAME
  5
218
330
1F
100
AcDbEntity
  8
0
100
AcDbOle2Frame
 70
     2
  3
Paintbrush-Bild
 10
13.8511154363
 20
38.264191557
 30
0.0
 11
51.6290888628
 21
31.9806341108
 31
0.0
 71
     2
 72
     0
 73
     1
 90
    12928
310
80552BED0767C5B32B40DDAF6807D121434000000000000000006FFBDDFB85D0
310
4940DDAF6807D121434000000000000000006FFBDDFB85D04940416F4BD60AFB
310
3F4000000000000000002BED0767C5B32B40416F4BD60AFB3F40000000000000
310
0000000000000100000000010000010000000100000000000100000000320000
310
D0CF11E0A1B11AE1000000000000000000000000000000003E000300FEFF0900
310
0600000000000000000000000100000001000000000000000010000002000000
310
01000000FEFFFFFF0000000000000000FFFFFFFFFFFFFFFFFFFFFFFFFFFFFFFF
310
FFFFFFFFFFFFFFFFFFFFFFFFFFFFFFFFFFFFFFFFFFFFFFFFFFFFFFFFFFFFFFFF
310
FFFFFFFFFFFFFFFFFFFFFFFFFFFFFFFFFFFFFFFFFFFFFFFFFFFFFFFFFFFFFFFF
310
FFFFFFFFFFFFFFFFFFFFFFFFFFFFFFFFFFFFFFFFFFFFFFFFFFFFFFFFFFFFFFFF
310
FFFFFFFFFFFFFFFFFFFFFFFFFFFFFFFFFFFFFFFFFFFFFFFFFFFFFFFFFFFFFFFF
310
FFFFFFFFFFFFFFFFFFFFFFFFFFFFFFFFFFFFFFFFFFFFFFFFFFFFFFFFFFFFFFFF
310
FFFFFFFFFFFFFFFFFFFFFFFFFFFFFFFFFFFFFFFFFFFFFFFFFFFFFFFFFFFFFFFF
310
FFFFFFFFFFFFFFFFFFFFFFFFFFFFFFFFFFFFFFFFFFFFFFFFFFFFFFFFFFFFFFFF
310
FFFFFFFFFFFFFFFFFFFFFFFFFFFFFFFFFFFFFFFFFFFFFFFFFFFFFFFFFFFFFFFF
310
FFFFFFFFFFFFFFFFFFFFFFFFFFFFFFFFFFFFFFFFFFFFFFFFFFFFFFFFFFFFFFFF
310
FFFFFFFFFFFFFFFFFFFFFFFFFFFFFFFFFFFFFFFFFFFFFFFFFFFFFFFFFFFFFFFF
310
FFFFFFFFFFFFFFFFFFFFFFFFFFFFFFFFFFFFFFFFFFFFFFFFFFFFFFFFFFFFFFFF
310
FFFFFFFFFFFFFFFFFFFFFFFFFFFFFFFFFFFFFFFFFFFFFFFFFFFFFFFFFFFFFFFF
310
FFFFFFFFFFFFFFFFFFFFFFFFFFFFFFFFFFFFFFFFFFFFFFFFFFFFFFFFFFFFFFFF
310
FDFFFFFFFEFFFFFFFEFFFFFFFEFFFFFF05000000060000000700000008000000
310
090000000A0000000B0000000C0000000D0000000E0000000F00000010000000
310
11000000120000001300000014000000150000001600000017000000FEFFFFFF
310
FFFFFFFFFFFFFFFFFFFFFFFFFFFFFFFFFFFFFFFFFFFFFFFFFFFFFFFFFFFFFFFF
310
FFFFFFFFFFFFFFFFFFFFFFFFFFFFFFFFFFFFFFFFFFFFFFFFFFFFFFFFFFFFFFFF
310
FFFFFFFFFFFFFFFFFFFFFFFFFFFFFFFFFFFFFFFFFFFFFFFFFFFFFFFFFFFFFFFF
310
FFFFFFFFFFFFFFFFFFFFFFFFFFFFFFFFFFFFFFFFFFFFFFFFFFFFFFFFFFFFFFFF
310
FFFFFFFFFFFFFFFFFFFFFFFFFFFFFFFFFFFFFFFFFFFFFFFFFFFFFFFFFFFFFFFF
310
FFFFFFFFFFFFFFFFFFFFFFFFFFFFFFFFFFFFFFFFFFFFFFFFFFFFFFFFFFFFFFFF
310
FFFFFFFFFFFFFFFFFFFFFFFFFFFFFFFFFFFFFFFFFFFFFFFFFFFFFFFFFFFFFFFF
310
FFFFFFFFFFFFFFFFFFFFFFFFFFFFFFFFFFFFFFFFFFFFFFFFFFFFFFFFFFFFFFFF
310
FFFFFFFFFFFFFFFFFFFFFFFFFFFFFFFFFFFFFFFFFFFFFFFFFFFFFFFFFFFFFFFF
310
FFFFFFFFFFFFFFFFFFFFFFFFFFFFFFFFFFFFFFFFFFFFFFFFFFFFFFFFFFFFFFFF
310
FFFFFFFFFFFFFFFFFFFFFFFFFFFFFFFFFFFFFFFFFFFFFFFFFFFFFFFFFFFFFFFF
310
FFFFFFFFFFFFFFFFFFFFFFFFFFFFFFFFFFFFFFFFFFFFFFFFFFFFFFFFFFFFFFFF
310
FFFFFFFFFFFFFFFFFFFFFFFFFFFFFFFFFFFFFFFFFFFFFFFFFFFFFFFFFFFFFFFF
310
52006F006F007400200045006E00740072007900000000000000000000000000
310
0000000000000000000000000000000000000000000000000000000000000000
310
16000500FFFFFFFFFFFFFFFF020000000A00030000000000C000000000000046
310
000000000000000000000000F02DE5C03442CD0103000000C000000000000000
310
01004F006C006500000000000000000000000000000000000000000000000000
310
0000000000000000000000000000000000000000000000000000000000000000
310
0A000200FFFFFFFFFFFFFFFFFFFFFFFF00000000000000000000000000000000
310
0000000000000000000000000000000000000000000000001400000000000000
310
010043006F006D0070004F0062006A0000000000000000000000000000000000
310
0000000000000000000000000000000000000000000000000000000000000000
310
120002010100000003000000FFFFFFFF00000000000000000000000000000000
310
0000000000000000000000000000000000000000010000004D00000000000000
310
01004F006C006500310030004E00610074006900760065000000000000000000
310
0000000000000000000000000000000000000000000000000000000000000000
310
1A000200FFFFFFFFFFFFFFFFFFFFFFFF00000000000000000000000000000000
310
0000000000000000000000000000000000000000040000002426000000000000
310
FEFFFFFF02000000FEFFFFFFFFFFFFFFFFFFFFFFFFFFFFFFFFFFFFFFFFFFFFFF
310
FFFFFFFFFFFFFFFFFFFFFFFFFFFFFFFFFFFFFFFFFFFFFFFFFFFFFFFFFFFFFFFF
310
FFFFFFFFFFFFFFFFFFFFFFFFFFFFFFFFFFFFFFFFFFFFFFFFFFFFFFFFFFFFFFFF
310
FFFFFFFFFFFFFFFFFFFFFFFFFFFFFFFFFFFFFFFFFFFFFFFFFFFFFFFFFFFFFFFF
310
FFFFFFFFFFFFFFFFFFFFFFFFFFFFFFFFFFFFFFFFFFFFFFFFFFFFFFFFFFFFFFFF
310
FFFFFFFFFFFFFFFFFFFFFFFFFFFFFFFFFFFFFFFFFFFFFFFFFFFFFFFFFFFFFFFF
310
FFFFFFFFFFFFFFFFFFFFFFFFFFFFFFFFFFFFFFFFFFFFFFFFFFFFFFFFFFFFFFFF
310
FFFFFFFFFFFFFFFFFFFFFFFFFFFFFFFFFFFFFFFFFFFFFFFFFFFFFFFFFFFFFFFF
310
FFFFFFFFFFFFFFFFFFFFFFFFFFFFFFFFFFFFFFFFFFFFFFFFFFFFFFFFFFFFFFFF
310
FFFFFFFFFFFFFFFFFFFFFFFFFFFFFFFFFFFFFFFFFFFFFFFFFFFFFFFFFFFFFFFF
310
FFFFFFFFFFFFFFFFFFFFFFFFFFFFFFFFFFFFFFFFFFFFFFFFFFFFFFFFFFFFFFFF
310
FFFFFFFFFFFFFFFFFFFFFFFFFFFFFFFFFFFFFFFFFFFFFFFFFFFFFFFFFFFFFFFF
310
FFFFFFFFFFFFFFFFFFFFFFFFFFFFFFFFFFFFFFFFFFFFFFFFFFFFFFFFFFFFFFFF
310
FFFFFFFFFFFFFFFFFFFFFFFFFFFFFFFFFFFFFFFFFFFFFFFFFFFFFFFFFFFFFFFF
310
FFFFFFFFFFFFFFFFFFFFFFFFFFFFFFFFFFFFFFFFFFFFFFFFFFFFFFFFFFFFFFFF
310
FFFFFFFFFFFFFFFFFFFFFFFFFFFFFFFFFFFFFFFFFFFFFFFFFFFFFFFFFFFFFFFF
310
0100000200000000000000000000000000000000000000000000000000000000
310
0000000000000000000000000000000000000000000000000000000000000000
310
0100FEFF030A0000FFFFFFFF0A00030000000000C00000000000004607000000
310
5042727573680007000000504272757368000700000050427275736800F439B2
310
7100000000000000000000000000000000000000000000000000000000000000
310
0000000000000000000000000000000000000000000000000000000000000000
310
0000000000000000000000000000000000000000000000000000000000000000
310
0000000000000000000000000000000000000000000000000000000000000000
310
0000000000000000000000000000000000000000000000000000000000000000
310
0000000000000000000000000000000000000000000000000000000000000000
310
0000000000000000000000000000000000000000000000000000000000000000
310
0000000000000000000000000000000000000000000000000000000000000000
310
0000000000000000000000000000000000000000000000000000000000000000
310
0000000000000000000000000000000000000000000000000000000000000000
310
0000000000000000000000000000000000000000000000000000000000000000
310
0000000000000000000000000000000000000000000000000000000000000000
310
20260000424D0E260000000000003E00000028000000B40200006E0000000100
310
01000000000000000000130B0000130B00000200000002000000000000FFFFFF
310
FFFFFFFFFFFFFFFFFFFFFFFFFFFFFFFFFFFFFFFFFFFFFFFFFFFFFFFFFFFFFFFF
310
FFFFFFFFFFFFFFFFFFFFFFFFFFFFFFFFFFFFFFFFFFFFFFFFFFFFFFFFFFFFFFFF
310
FFFFFFFFFFFFFFFFFFFFFFFFFFFFFFFFFFFFFFFFFFFFFFFFF000FFFFFFFFFFFF
310
FFFFFFFFFFFFFFFFFFFFFFFFFFFFFFFFFFFFFFFFFFFFFFFFFFFFFFFFFFFFFFFF
310
FFFFFFFFFFFFFFFFFFFFFFFFFFFFFFFFFFFFFFFFFFFFFFFFFFFFFFFFFFFFFFFF
310
FFFFFFFFFFFFFFFFFFFFFFFFFFFFFFFFF000FFFFFFFFFFFFFFFFFFFFFFFFFFFF
310
FFFFFFFFFFFFFFFFFFFFFFFFFFFFFFFFFFFFFFFFFFFFFFFFFFFFFFFFFFFFFFFF
310
FFFFFFFFFFFFFFFFFFFFFFFFFFFFFFFFFFFFFFFFFFFFFFFFFFFFFFFFFFFFFFFF
310
FFFFFFFFFFFFFFFFF000FFFFFFFFFFFFFFFFFFFFFFFFFFFFFFFFFFFFFFFFFFFF
310
FFFFFFFFFFFFFFFFFFFFFFFFFFFFFFFFFFFFFFFFFFFFFFFFFFFFFFFFFFFFFFFF
310
FFFFFFFFFFFFFFFFFFFFFFFFFFFFFFFFFFFFFFFFFFFFFFFFFFFFFFFFFFFFFFFF
310
F000FFFFFFFFFFFFFFFFFFFFFFFFFFFFFFFFFFFFFFFFFFFFFFFFFFFFFFFFFFFF
310
FFFFFFFFFFFFFFFFFFFFFFFFFFFFFFFFFFFFFFFFFFFFFFFFFFFFFFFFFFFFFFFF
310
FFFFFFFFFFFFFFFFFFFFFFFFFFFFFFFFFFFFFFFFFFFFFFFFF000FFFFFFFFFFFF
310
FFFFFFFFFFFFFFFFFFFFFFFFFFFFFFFFFFFFFFFFFFFFFFFFFFFFFFFFFFFFFFFF
310
FFFFFFFFFFFFFFFFFFFFFFFFFFFFFFFFFFFFFFFFFFFFFFFFFFFFFFFFFFFFFFFF
310
FFFFFFFFFFFFFFFFFFFFFFFFFFFFFFFFF000FFFFFFFFFFFFFFFFFFFFFFFFFFFF
310
FFFFFFFFFFFFFFFFFFFFFFFFFFFFFFFFFFFFFFFFFFFFFFFFFFFFFFFFFFFFFFFF
310
FFFFFFFFFFFFFFFFFFFFFFFFFFFFFFFFFFFFFFFFFFFFFFFFFFFFFFFFFFFFFFFF
310
FFFFFFFFFFFFFFFFF000FFFFFFFFFFFFFFFFFFFFFFFFFFFFFFFFFFFFFFFFFFFF
310
FFFFFFFFFFFFFFFFFFFFFFFFFFFFFFFFFFFFFFFFFFFFFFFFFFFFFFFFFFFFFFFF
310
FFFFFFFFFFFFFFFFFFFFFFFFFFFFFFFFFFFFFFFFFFFFFFFFFFFFFFFFFFFFFFFF
310
F000FFFFFFFFFFFFFFFFFFFFFFFFFFFFFFFFFFFFFFFFFFFFFFFFFFFFFFFFFFFF
310
FFFFFFFFFFFFFFFFFFFFFFFFFFFFFFFFFFFFFFFFFFFFFFFFFFFFFFFFFFFFFFFF
310
FFFFFFFFFFFFFFFFFFFFFFFFFFFFFFFFFFFFFFFFFFFFFFFFF000FFFFFFFFFFFF
310
FFFFFFFFFFFFFFFFFFFFFFFFFFFFFFFFFFFFFFFFFFFFFFFFFFFFFFFFFFFFFFFF
310
FFFFFFFFFFFFFFFFFFFFFFFFFFFFFFFFFFFFFFFFFFFFFFFFFFFFFFFFFFFFFFFF
310
FFFFFFFFFFFFFFFFFFFFFFFFFFFFFFFFF000FFFFFFFFFFFFFFFFFFFFFFFFFFFF
310
FFFFFFFFFFFFFFFFFFFFFFFFFFFFFFFFFFFFFFFFFFFFFFFFFFFFFFFFFFFFFFFF
310
FFFFFFFFFFFFFFFFFFFFFFFFFFFFFFFFFFFFFFFFFFFFFFFFFFFFFFFFFFFFFFFF
310
FFFFFFFFFFFFFFFFF000FFFFFFFFFFFFFFFFFFFFFFFFFFFFFFFFFFFFFFFFFFFF
310
FFFFFFFFFFFFFFFFFFFFFFFFFFFFFFFFFFFFFFFFFFFFFFFFFFFFFFFFFFFFFFFF
310
FFFFFFFFFFFFFFFFFFFFFFFFFFFFFFFFFFFFFFFFFFFFFFFFFFFFFFFFFFFFFFFF
310
F000FFFFFFFFFFFFFFFFFFFFFFFFFFFFFFFFFFFFFFFFFFFFFFFFFFFFFFFFFFFF
310
FFFFFFFFFFFFFFFFFFFFFFFFFFFFFFFFFFFFFFFFFFFFFFFFFFFFFFFFFFFFFFFF
310
FFFFFFFFFFFFFFFFFFFFFFFFFFFFFFFFFFFFFFFFFFFFFFFFF000FFFFFFFFFFFF
310
FFFFFFFFFFFFFFFFFFFFFFFFFFFFFFFFFFFFFFFFFFFFFFFFFFFFFFFFFFFFFFFF
310
FFFFFFFFFFFFFFFFFFFFFFFFFFFFFFFFFFFFFFFFFFFFFFFFFFFFFFFFFFFFFFFF
310
FFFFFFFFFFFFFFFFFFFFFFFFFFFFFFFFF000FFFFFFFFFFFFFFFFFFFFFFFFFFFF
310
FFFFFFFFFFFFFFFFFFFFFFFFFFFFFFFFFFFFFFFFFFFFFFFFFFFFFFFFFFFFFFFF
310
FFFFFFFFFFFFFFFFFFFFFFFFFFFFFFFFFFFFFFFFFFFFFFFFFFFFFFFFFFFFFFFF
310
FFFFFFFFFFFFFFFFF000FFFFFFFFFFFFFFFFFFFFFFFFFFFFFFFFFFFFFFFFFFFF
310
FFFFFFFFFFFFFFFFFFFFFFFFFFFFFFFFFFFFFFFFFFFFFFFFFFFFFFFFFFFFFFFF
310
FFFFFFFFFFFFFFFFFFFFFFFFFFFFFFFFFFFFFFFFFFFFFFFFFFFFFFFFFFFFFFFF
310
F000FFFFFFFFFFFFFFFFFFFFFFFFFFFFFFFFFFFFFFFFFFFFFFFFFFFFFFFFFFFF
310
FFFFFFFFFFFFFFFFFFFFFFFFFFFFFFFFFFFFFFFFFFFFFFFFFFFFFFFFFFFFFFFF
310
FFFFFFFFFFFFFFFFFFFFFFFFFFFFFFFFFFFFFFFFFFFFFFFFF000FFFFFFFFFFFF
310
FFFFFFFFFFFFFFFFFFFFFFFFFFFFFFFFFFFFFFFFFFFFFFFFFFFFFFFFFFFFFFFF
310
FFFFFFFFFFFFFFFFFFFFFFFFFFFFFFFFFFFFFFFFFFFFFFFFFFFFFFFFFFFFFFFF
310
FFFFFFFFFFFFFFFFFFFFFFFFFFFFFFFFF000FFFFFFFFFFFFFFFFFFFFFFFFFFFF
310
FFFFFFFFFFFFFFFFFFFFFFFFFFFFFFFFFFFFFFFFFFFFFFFFFFFFFFFFFFFFFFFF
310
FFFFFFFFFFFFFFFFFFFFFFFFFFFFFFFFFFFFFFFFFFFFFFFFFFFFFFFFFFFFFFFF
310
FFFFFFFFFFFFFFFFF000FFFFF80003FFFFFFFFFFFFFFFFFFFFFFFFFFFFFFFFFF
310
FFFFF00007FFFFFFFFFF00007FFFFFF800000000000000007FFFFFFFFFFFFFFF
310
FFFFFFFC001FFFFFFFFFFFFFFC001FFFFFFFFFFFFFFFFFFFFFFFFFFE0007FFFF
310
F000FFFF8000007FFFFFFFF8000FFFFFC0007FFFFF80007FFFFF0000007FFFFF
310
FFF8000007FFFFF800000000000000007FFFFFF0001FFFFFFFFFFFC00001FFFF
310
FFFFFFFFC00001FFFFFFFF000000000003FFFFE000007FFFF000FFFE0000000F
310
FFFFFFF0000FFFFF80007FFFFF80007FFFFC0000001FFFFFFFC0000001FFFFF8
310
00000000000000007FFFFFF0001FFFFFFFFFFE0000003FFFFFFFFFFE0000003F
310
FFFFFF000000000003FFFF0000000FFFF000FFF800000003FFFFFFF00007FFFF
310
80007FFFFF80007FFFF000000007FFFFFF000000003FFFF80000000000000000
310
7FFFFFF0001FFFFFFFFFF80000000FFFFFFFFFF80000000FFFFFFF0000000000
310
03FFFC00000003FFF000FFE000000000FFFFFFF00007FFFF80003FFFFF80007F
310
FFC000000001FFFFFC000000001FFFF800000000000000007FFFFFF0001FFFFF
310
FFFFE000000003FFFFFFFFE000000003FFFFFF000000000003FFF000000000FF
310
F000FF80000000007FFFFFF00007FFFF80003FFFFF80007FFF8000000000FFFF
310
F80000000007FFF800000000000000007FFFFFF0001FFFFFFFFFC000000001FF
310
FFFFFFC000000001FFFFFF000000000003FFC0000000007FF000FF0000000000
310
3FFFFFE00007FFFF00003FFFFF80007FFE00000000003FFFF00000000003FFF8
310
00000000000000007FFFFFF0001FFFFFFFFF8000000000FFFFFFFF8000000000
310
FFFFFF000000000003FF80000000003FF000FE00000000001FFFFFE00003FFFF
310
00003FFFFF80007FFC00000000001FFFE00000000001FFF8000001FFFE000000
310
7FFFFFF0001FFFFFFFFE00000000003FFFFFFE00000000003FFFFF0000000000
310
03FF00000000001FF000FC00000000000FFFFFE00003FFFF00001FFFFF80007F
310
F800000000001FFFC00000000000FFF8000001FFFE0000007FFFFFF0001FFFFF
310
FFFC00000000001FFFFFFC00000000001FFFFF000000000003FE00000000000F
310
F000F8000000000007FFFFE00003FFFF00001FFFFF80007FF800000000000FFF
310
800000000000FFF8000001FFFE0000007FFFFFF0001FFFFFFFF800000000000F
310
FFFFF800000000000FFFFF000000000003FC000000000007F000F80000000000
310
03FFFFC00003FFFE00001FFFFF80007FF0000000000007FF0000000000007FF8
310
000001FFFE0000007FFFFFF0001FFFFFFFF0000000000007FFFFF00000000000
310
07FFFF000000000003F8000000000003F000F0000000000003FFFFC00001FFFE
310
00001FFFFF80007FE0000000000007FE0000000000003FF8000001FFFE000000
310
7FFFFFF0001FFFFFFFF0000000000007FFFFF0000000000007FFFF0000000000
310
03F800001F800003F000E00001FFF00001FFFFC00001FFFE00000FFFFF80007F
310
E00001FFE00003FE00001FFF00003FF8000001FFFE0000007FFFFFF0001FFFFF
310
FFE000003E000003FFFFE000003E000003FFFF000000000003F00001FFF80001
310
F000E00007FFFC0001FFFFC00001FFFE00000FFFFF80007FC0000FFFFC0003FC
310
0000FFFFC0001FF8000001FFFE0000007FFFFFF0001FFFFFFFC00003FFE00001
310
FFFFC00003FFE00001FFFF0001FFFFFFFFF00007FFFE0001F000E0000FFFFF00
310
00FFFF800001FFFC00000FFFFF80007FC0001FFFFE0001FC0001FFFFE0001FF8
310
000001FFFE0000007FFFFFF0001FFFFFFF80000FFFF80000FFFF80000FFFF800
310
00FFFF0003FFFFFFFFE0000FFFFF8000F000C0003FFFFF8000FFFF800000FFFC
310
000007FFFF80007F80003FFFFF0001FC0003FFFFF0001FF8000001FFFE000000
310
7FFFFFF0001FFFFFFF80003FFFFE0000FFFF80003FFFFE0000FFFF0003FFFFFF
310
FFE0003FFFFF8000F000C0003FFFFF8000FFFF800000FFFC000007FFFF80007F
310
80007FFFFF8001F80007FFFFF8000FF8000001FFFE0000007FFFFFF0001FFFFF
310
FF00007FFFFF00007FFF00007FFFFF00007FFF0003FFFFFFFFE0003FFFFFC000
310
F000C0007FFFFFC000FFFF000000FFFC000007FFFF80007F8000FFFFFF8000F8
310
000FFFFFF8000FF8000001FFFE0000007FFFFFF0001FFFFFFF0000FFFFFF8000
310
7FFF0000FFFFFF80007FFF0003FFFFFFFFC0007FFFFFC00070008000FFFFFFC0
310
00FFFF000000FFF8000007FFFF80007F8000FFFFFF8000F8000FFFFFF8000FF8
310
000001FFFE0000007FFFFFF0001FFFFFFE0001FFFFFFC0003FFE0001FFFFFFC0
310
003FFF0003FFFFFFFFC0007FFFFFE00070008000FFFFFFC0007FFF0000007FF8
310
000003FFFF80007F0001FFFFFF8000F8000FFFFFF8000FF8000001FFFE000000
310
7FFFFFF0001FFFFFFE0001FFFFFFC0003FFE0001FFFFFFC0003FFF0003FFFFFF
310
FFC000FFFFFFE00070008000FFFFFFC0007FFF0000007FF8000003FFFF80007F
310
0001FFFFFF8000F8001FFFFFF8000FF8000001FFFE0000007FFFFFF0001FFFFF
310
FE0003FFFFFFE0003FFE0003FFFFFFE0003FFF0003FFFFFFFFC000FFFFFFE000
310
70008000FFFFFFC0007FFE0000007FF8000003FFFF80007F0001FFFFFF8000F0
310
001FFFFFF8000FF8000001FFFE0000007FFFFFF0001FFFFFFC0003FFFFFFE000
310
1FFC0003FFFFFFE0001FFF0003FFFFFFFFC000FFFFFFC00070008000FFFFFF80
310
007FFE0000007FF0000003FFFF80007F0001FFFFFF0000F0001FFFFFF8000FF8
310
000001FFFE0000007FFFFFF0001FFFFFFC0007FFFFFFF0001FFC0007FFFFFFF0
310
001FFF0003FFFFFFFFC000FFFFFFC00070008001FFFFFF0000FFFE0000003FF0
310
000001FFFF80007F0001FFFFFF0000F8001FFFFFF0000FF8000001FFFE000000
310
7FFFFFF0001FFFFFFC0007FFFFFFF0001FFC0007FFFFFFF0001FFF0003FFFFFF
310
FFC001FFFFFF80007000FFFFFFFFFE0000FFFE0008003FF0008001FFFF80007F
310
FFFFFFFFFC0000FFFFFFFFFFE0000FF8000001FFFE0000007FFFFFF0001FFFFF
310
F8000FFFFFFFF8000FF8000FFFFFFFF8000FFF0003FFFFFFFFFFFFFFFFFF0000
310
7000FFFFFFFFFC0000FFFC0008003FF0008001FFFF80007FFFFFFFFFF80001FF
310
FFFFFFFF80000FF8000001FFFE0000007FFFFFF0001FFFFFF8000FFFFFFFF800
310
0FF8000FFFFFFFF8000FFF0003FFFFFFFFFFFFFFFFFE0000F000FFFFFFFFE000
310
00FFFC000C003FE000C001FFFF80007FFFFFFFFFC00001FFFFFFFFFE00001FF8
310
000001FFFE0000007FFFFFF0001FFFFFF8000FFFFFFFF8000FF8000FFFFFFFF8
310
000FFF0003FFFFFFFFFFFFFFFFF00000F000FFFFFFFE000001FFFC000C001FE0
310
00C000FFFF80007FFFFFFFFE000001FFFFFFFFE000001FF80FFFFFFFFFFFFFC0
310
7FFFFFF0001FFFFFF8000FFFFFFFF8000FF8000FFFFFFFF8000FFF0003FFFFFF
310
FFFFFFFFFF800000F000FFFFFFC0000001FFFC001C001FE001C000FFFF80007F
310
FFFFFF80000003FFFFFFF80000001FF80FFFFFFFFFFFFFC07FFFFFF0001FFFFF
310
F8001FFFFFFFFC000FF8001FFFFFFFFC000FFF0003FFFFFFFFFFFFFFF0000001
310
F000FFFFF800000001FFF8001C001FE001C000FFFF80007FFFFFF800000003FF
310
FFFF800000003FF80FFFFFFFFFFFFFC07FFFFFF0001FFFFFF8001FFFFFFFFC00
310
0FF8001FFFFFFFFC000FFF0003FFFFFFFFFFFFFE00000001F000FFFFC0000000
310
03FFF8001E001FC001E000FFFF80007FFFFF8000000007FFFFFC000000003FF8
310
0FFFFFFFFFFFFFC07FFFFFF0001FFFFFF8001FFFFFFFFC000FF8001FFFFFFFFC
310
000FFF0003FFFFFFFFFFFFE000000003F000FFFE0000000007FFF8001E000FC0
310
01E0007FFF80007FFFFE0000000007FFFFE0000000007FF80FFFFFFFFFFFFFC0
310
7FFFFFF0001FFFFFF0001FFFFFFFFC0007F0001FFFFFFFFC0007FF0003FFFFFF
310
FFFFFF0000000003F000FFF80000000007FFF8001E000FC003E0007FFF80007F
310
FFF0000000000FFFFF8000000000FFF80FFFFFFFFFFFFFC07FFFFFF0001FFFFF
310
F0001FFFFFFFFC0007F0001FFFFFFFFC0007FF0003FFFFFFFFFFFC0000000007
310
F000FFE0000000000FFFF0003E000FC003E0007FFF80007FFFC0000000001FFF
310
FE0000000001FFF80FFFFFFFFFFFFFC07FFFFFF0001FFFFFF0001FFFFFFFFC00
310
07F0001FFFFFFFFC0007FF0003FFFFFFFFFFF0000000000FF000FFC000000000
310
1FFFF0003F000F8003F0003FFF80007FFF80000000003FFFF80000000003FFF8
310
0FFFFFFFFFFFFFC07FFFFFF0001FFFFFF0001FFFFFFFFC0007F0001FFFFFFFFC
310
0007FF0003FFFFFFFFFFE0000000001FF000FF00000000007FFFF0003F000780
310
03F0003FFF80007FFF00000000007FFFF00000000007FFF80FFFFFFFFFFFFFC0
310
7FFFFFF0001FFFFFF0001FFFFFFFFC0007F0001FFFFFFFFC0007FF0003FFFFFF
310
FFFF80000000007FF000FE0000000000FFFFE0003F00078007F0003FFF80007F
310
FE0000000001FFFFE0000000001FFFF80FFFFFFFFFFFFFC07FFFFFF0001FFFFF
310
F0001FFFFFFFFC0007F0001FFFFFFFFC0007FF0003FFFFFFFFFF0000000000FF
310
F000FC0000000003FFFFE0007F00078007F0003FFF80007FFC0000000007FFFF
310
C0000000007FFFF80FFFFFFFFFFFFFC07FFFFFF0001FFFFFF8001FFFFFFFFC00
310
0FF8001FFFFFFFFC000FFF0003FFFFFFFFFE0000000003FFF000FC000000000F
310
FFFFE0007F80070007F8001FFF80007FF8000000001FFFFF8000000001FFFFF8
310
0FFFFFFFFFFFFFC07FFFFFF0001FFFFFF8001FFFFFFFFC000FF8001FFFFFFFFC
310
000FFF0003FFFFFFFFFC000000000FFFF000F8000000007FFFFFE0007F800700
310
07F8001FFF80007FF000000000FFFFFF800000000FFFFFF80FFFFFFFFFFFFFC0
310
7FFFFFF0001FFFFFF8000FFFFFFFF8000FF8000FFFFFFFF8000FFF0003FFFFFF
310
FFFC000000007FFFF000F800000007FFFFFFC0007F8003000FF8001FFF80007F
310
F000000007FFFFFF000000007FFFFFF80FFFFFFFFFFFFFC07FFFFFF0001FFFFF
310
F8000FFFFFFFF8000FF8000FFFFFFFF8000FFF0003FFFFFFFFF80000000FFFFF
310
F000F0000000FFFFFFFFC000FF8003000FF8001FFF80007FE0000000FFFFFFFF
310
0000000FFFFFFFF8000001FFFE0000007FFFFFF0001FFFFFF8000FFFFFFFF800
310
0FF8000FFFFFFFF8000FFF0003FFFFFFFFF8000000FFFFFFF000F000000FFFFF
310
FFFFC000FFC002000FF8000FFF80007FE000001FFFFFFFFE000001FFFFFFFFF8
310
000001FFFE0000007FFFFFF0001FFFFFF8000FFFFFFFF8000FF8000FFFFFFFF8
310
000FFF0003FFFFFFFFF000001FFFFFFFF000E00000FFFFFFFFFFC000FFC00200
310
0FFC000FFF80007FE00001FFFFFFFFFE00001FFFFFFFFFF8000001FFFE000000
310
7FFFFFF0001FFFFFFC000FFFFFFFF8001FFC000FFFFFFFF8001FFF0003FFFFFF
310
FFF00001FFFFFFFFF000E00007FFFFFFFFFF8000FFC000001FFC000FFF80007F
310
C0000FFFFFFFFFFE0000FFFFFFFFFFF8000001FFFE0000007FFFFFF0001FFFFF
310
FC0007FFFFFFF0001FFC0007FFFFFFF0001FFF0003FFFFFFFFF00007FFFFFFFF
310
F000E0001FFFFFFFFFFF8000FFC000001FFC000FFF80007FC0003FFFFFFFFFFE
310
0001FFFFFFFFFFF8000001FFFE0000007FFFFFF0001FFFFFFC0007FFFFFFF000
310
1FFC0007FFFFFFF0001FFF0003FFFFFFFFF0001FFFFFFFFFF000E0003FFFFF00
310
03FF8001FFE000001FFC0007FF80007FC0007FFFFF0007FC0003FFFFF0003FF8
310
000001FFFE0000007FFFFFF0001FFFFFFC0003FFFFFFE0001FFC0003FFFFFFE0
310
001FFF0003FFFFFFFFF0003FFFFFFFFFF000E0003FFFFF0001FF8001FFE00000
310
1FFE0007FF80007FC0007FFFFE0003FC0007FFFFE0003FF8000001FFFE000000
310
7FFFFFF0001FFFFFFE0003FFFFFFE0003FFE0003FFFFFFE0003FFF0003FFFFFF
310
FFF0003FFFFF8001F000E0003FFFFF0001FF0001FFE000001FFE0007FF80007F
310
C0007FFFFE0003FC0007FFFFE0003FF8000001FFFE0000007FFFFFF0001FFFFF
310
FE0001FFFFFFC0003FFE0001FFFFFFC0003FFF0003FFFFFFFFF0003FFFFF0001
310
F000E0003FFFFF0003FF0001FFE000003FFE0007FF80007FC0007FFFFE0003FC
310
0007FFFFE0003FF8000001FFFE0000007FFFFFF0001FFFFFFF0001FFFFFFC000
310
7FFF0001FFFFFFC0007FFF0003FFFFFFFFF0003FFFFF0001F000E0003FFFFE00
310
03FF0003FFF000003FFE0003FF80007FC0007FFFFC0003FE0007FFFFE0003FF8
310
000001FFFE0000007FFFFFF0001FFFFFFF0000FFFFFF80007FFF0000FFFFFF80
310
007FFF0003FFFFFFFFF0003FFFFF0001F000E0003FFFFE0003FF0003FFF00000
310
3FFF0003FF80007FC0007FFFFC0007FE0007FFFFC0003FF8000001FFFE000000
310
7FFFFFF0001FFFFFFF80007FFFFF0000FFFF80007FFFFF0000FFFF0003FFFFFF
310
FFF0003FFFFF0003F000E0003FFFFC0003FE0003FFF000003FFF0003FF80007F
310
E0003FFFF80007FE0003FFFFC0007FF8000001FFFE0000007FFFFFF0001FFFFF
310
FF80003FFFFE0000FFFF80003FFFFE0000FFFF0003FFFFFFFFF0001FFFFE0003
310
F000F0001FFFF80003FE0003FFF000007FFF0001FF80007FE0003FFFF00007FE
310
0001FFFF80007FF8000001FFFE0000007FFFFFF0001FFFFFFFC0000FFFF80001
310
FFFFC0000FFFF80001FFFF0003FFFFFFFFF0001FFFFC0003F000F0000FFFF000
310
07FE0007FFF800007FFF0001FF80007FE0001FFFE00007FF0000FFFE00007FF8
310
000001FFFE0000007FFFFFF0001FFFFFFFC00003FFE00001FFFFC00003FFE000
310
01FFFF0003FFFFFFFFF8000FFFF80003F000F00003FFC00007FC0007FFF80000
310
7FFF8001FF80007FF00007FF80000FFF00007FF80000FFF8000001FFFE000000
310
7F80000000000001FFE000003E000003FFFFE000003E000003FFFF0003FFFFFF
310
FFF80003FFE00007F000F800000000000FFC0007FFF800007FFF8001FF80007F
310
F000000000000FFF000000000000FFF8000001FFFE0000007F80000000000001
310
FFF0000000000007FFFFF0000000000007FFFF0003FFFFFFFFFC00007E000007
310
F000F800000000000FFC0007FFF80000FFFF8000FF80007FF800000000001FFF
310
800000000001FFF8000001FFFE0000007F80000000000001FFF800000000000F
310
FFFFF800000000000FFFFF0003FFFFFFFFFC00000000000FF000FC0000000000
310
1FFC0007FFFC0000FFFF8000FF80007FF800000000003FFFC00000000001FFF8
310
000001FFFE0000007F80000000000001FFF800000000000FFFFFF80000000000
310
0FFFFF0003FFFFFFFFFE00000000001FF000FE00000000003FF8000FFFFC0000
310
FFFF8000FF80007FFC00000000003FFFC00000000003FFF8000001FFFE000000
310
7F80000000000001FFFC00000000001FFFFFFC00000000001FFFFF0003FFFFFF
310
FFFF00000000001FF000FF00000000003FF8000FFFFC0000FFFFC000FF80007F
310
FE00000000007FFFE00000000007FFF8000001FFFE0000007F80000000000001
310
FFFE00000000003FFFFFFE00000000003FFFFF0003FFFFFFFFFF80000000003F
310
F000FF80000000007FF8000FFFFC0001FFFFC0007F80007FFF0000000000FFFF
310
F0000000000FFFF800000000000000007F80000000000001FFFF8000000000FF
310
FFFFFF8000000000FFFFFF0003FFFFFFFFFFC0000000007FF000FFC000000000
310
FFF8000FFFFE0001FFFFC0007F80007FFF8000000001FFFFF8000000001FFFF8
310
00000000000000007F80000000000001FFFFC000000001FFFFFFFFC000000001
310
FFFFFF0003FFFFFFFFFFE000000000FFF000FFE000000003FFF0001FFFFE0001
310
FFFFC0007F80007FFFC000000007FFFFFE000000003FFFF80000000000000000
310
7F80000000000001FFFFE000000003FFFFFFFFE000000003FFFFFF0003FFFFFF
310
FFFFF000000003FFF000FFF80000000FFFF0001FFFFE0001FFFFE0007F80007F
310
FFF00000000FFFFFFF00000000FFFFF800000000000000007F80000000000001
310
FFFFF80000000FFFFFFFFFF80000000FFFFFFF0003FFFFFFFFFFFC0000000FFF
310
F000FFFE0000003FFFF0001FFFFE0003FFFFE0003F80007FFFFC0000003FFFFF
310
FFC0000003FFFFF800000000000000007F80000000000001FFFFFE0000003FFF
310
FFFFFFFE0000003FFFFFFF0003FFFFFFFFFFFF0000003FFFF000FFFF800000FF
310
FFF0001FFFFF0003FFFFE0003F80007FFFFF000001FFFFFFFFF800001FFFFFF8
310
00000000000000007F80000000000001FFFFFFC00001FFFFFFFFFFFFC00001FF
310
FFFFFF0003FFFFFFFFFFFFC00000FFFFF000FFFFF8000FFFFFFFFFFFFFFFFFFF
310
FFFFFFFFFFFFFFFFFFFFF0001FFFFFFFFFFF0000FFFFFFF80000000000000000
310
7FFFFFFFFFFFFFFFFFFFFFFC001FFFFFFFFFFFFFFC001FFFFFFFFFFFFFFFFFFF
310
FFFFFFFC001FFFFFF000FFFFFFFFFFFFFFFFFFFFFFFFFFFFFFFFFFFFFFFFFFFF
310
FFFFFFFFFFFFFFFFFFFFFFFFFFFFFFFFFFFFFFFFFFFFFFFFFFFFFFFFFFFFFFFF
310
FFFFFFFFFFFFFFFFFFFFFFFFFFFFFFFFFFFFFFFFFFFFFFFFFFFFFFFFFFFFFFFF
310
F000FFFFFFFFFFFFFFFFFFFFFFFFFFFFFFFFFFFFFFFFFFFFFFFFFFFFFFFFFFFF
310
FFFFFFFFFFFFFFFFFFFFFFFFFFFFFFFFFFFFFFFFFFFFFFFFFFFFFFFFFFFFFFFF
310
FFFFFFFFFFFFFFFFFFFFFFFFFFFFFFFFFFFFFFFFFFFFFFFFF000FFFFFFFFFFFF
310
FFFFFFFFFFFFFFFFFFFFFFFFFFFFFFFFFFFFFFFFFFFFFFFFFFFFFFFFFFFFFFFF
310
FFFFFFFFFFFFFFFFFFFFFFFFFFFFFFFFFFFFFFFFFFFFFFFFFFFFFFFFFFFFFFFF
310
FFFFFFFFFFFFFFFFFFFFFFFFFFFFFFFFF000FFFFFFFFFFFFFFFFFFFFFFFFFFFF
310
FFFFFFFFFFFFFFFFFFFFFFFFFFFFFFFFFFFFFFFFFFFFFFFFFFFFFFFFFFFFFFFF
310
FFFFFFFFFFFFFFFFFFFFFFFFFFFFFFFFFFFFFFFFFFFFFFFFFFFFFFFFFFFFFFFF
310
FFFFFFFFFFFFFFFFF000FFFFFFFFFFFFFFFFFFFFFFFFFFFFFFFFFFFFFFFFFFFF
310
FFFFFFFFFFFFFFFFFFFFFFFFFFFFFFFFFFFFFFFFFFFFFFFFFFFFFFFFFFFFFFFF
310
FFFFFFFFFFFFFFFFFFFFFFFFFFFFFFFFFFFFFFFFFFFFFFFFFFFFFFFFFFFFFFFF
310
F000FFFFFFFFFFFFFFFFFFFFFFFFFFFFFFFFFFFFFFFFFFFFFFFFFFFFFFFFFFFF
310
FFFFFFFFFFFFFFFFFFFFFFFFFFFFFFFFFFFFFFFFFFFFFFFFFFFFFFFFFFFFFFFF
310
FFFFFFFFFFFFFFFFFFFFFFFFFFFFFFFFFFFFFFFFFFFFFFFFF000FFFFFFFFFFFF
310
FFFFFFFFFFFFFFFFFFFFFFFFFFFFFFFFFFFFFFFFFFFFFFFFFFFFFFFFFFFFFFFF
310
FFFFFFFFFFFFFFFFFFFFFFFFFFFFFFFFFFFFFFFFFFFFFFFFFFFFFFFFFFFFFFFF
310
FFFFFFFFFFFFFFFFFFFFFFFFFFFFFFFFF000FFFFFFFFFFFFFFFFFFFFFFFFFFFF
310
FFFFFFFFFFFFFFFFFFFFFFFFFFFFFFFFFFFFFFFFFFFFFFFFFFFFFFFFFFFFFFFF
310
FFFFFFFFFFFFFFFFFFFFFFFFFFFFFFFFFFFFFFFFFFFFFFFFFFFFFFFFFFFFFFFF
310
FFFFFFFFFFFFFFFFF000FFFFFFFFFFFFFFFFFFFFFFFFFFFFFFFFFFFFFFFFFFFF
310
FFFFFFFFFFFFFFFFFFFFFFFFFFFFFFFFFFFFFFFFFFFFFFFFFFFFFFFFFFFFFFFF
310
FFFFFFFFFFFFFFFFFFFFFFFFFFFFFFFFFFFFFFFFFFFFFFFFFFFFFFFFFFFFFFFF
310
F000FFFFFFFFFFFFFFFFFFFFFFFFFFFFFFFFFFFFFFFFFFFFFFFFFFFFFFFFFFFF
310
FFFFFFFFFFFFFFFFFFFFFFFFFFFFFFFFFFFFFFFFFFFFFFFFFFFFFFFFFFFFFFFF
310
FFFFFFFFFFFFFFFFFFFFFFFFFFFFFFFFFFFFFFFFFFFFFFFFF000FFFFFFFFFFFF
310
FFFFFFFFFFFFFFFFFFFFFFFFFFFFFFFFFFFFFFFFFFFFFFFFFFFFFFFFFFFFFFFF
310
FFFFFFFFFFFFFFFFFFFFFFFFFFFFFFFFFFFFFFFFFFFFFFFFFFFFFFFFFFFFFFFF
310
FFFFFFFFFFFFFFFFFFFFFFFFFFFFFFFFF000FFFFFFFFFFFFFFFFFFFFFFFFFFFF
310
FFFFFFFFFFFFFFFFFFFFFFFFFFFFFFFFFFFFFFFFFFFFFFFFFFFFFFFFFFFFFFFF
310
FFFFFFFFFFFFFFFFFFFFFFFFFFFFFFFFFFFFFFFFFFFFFFFFFFFFFFFFFFFFFFFF
310
FFFFFFFFFFFFFFFFF000FFFFFFFFFFFFFFFFFFFFFFFFFFFFFFFFFFFFFFFFFFFF
310
FFFFFFFFFFFFFFFFFFFFFFFFFFFFFFFFFFFFFFFFFFFFFFFFFFFFFFFFFFFFFFFF
310
FFFFFFFFFFFFFFFFFFFFFFFFFFFFFFFFFFFFFFFFFFFFFFFFFFFFFFFFFFFFFFFF
310
F000FFFFFFFFFFFFFFFFFFFFFFFFFFFFFFFFFFFFFFFFFFFFFFFFFFFFFFFFFFFF
310
FFFFFFFFFFFFFFFFFFFFFFFFFFFFFFFFFFFFFFFFFFFFFFFFFFFFFFFFFFFFFFFF
310
FFFFFFFFFFFFFFFFFFFFFFFFFFFFFFFFFFFFFFFFFFFFFFFFF000FFFFFFFFFFFF
310
FFFFFFFFFFFFFFFFFFFFFFFFFFFFFFFFFFFFFFFFFFFFFFFFFFFFFFFFFFFFFFFF
310
FFFFFFFFFFFFFFFFFFFFFFFFFFFFFFFFFFFFFFFFFFFFFFFFFFFFFFFFFFFFFFFF
310
FFFFFFFFFFFFFFFFFFFFFFFFFFFFFFFFF000FFFFFFFFFFFFFFFFFFFFFFFFFFFF
310
FFFFFFFFFFFFFFFFFFFFFFFFFFFFFFFFFFFFFFFFFFFFFFFFFFFFFFFFFFFFFFFF
310
FFFFFFFFFFFFFFFFFFFFFFFFFFFFFFFFFFFFFFFFFFFFFFFFFFFFFFFFFFFFFFFF
310
FFFFFFFFFFFFFFFFF000FFFFFFFFFFFFFFFFFFFFFFFFFFFFFFFFFFFFFFFFFFFF
310
FFFFFFFFFFFFFFFFFFFFFFFFFFFFFFFFFFFFFFFFFFFFFFFFFFFFFFFFFFFFFFFF
310
FFFFFFFFFFFFFFFFFFFFFFFFFFFFFFFFFFFFFFFFFFFFFFFFFFFFFFFFFFFFFFFF
310
F000FFFFFFFFFFFFFFFFFFFFFFFFFFFFFFFFFFFFFFFFFFFFFFFFFFFFFFFFFFFF
310
FFFFFFFFFFFFFFFFFFFFFFFFFFFFFFFFFFFFFFFFFFFFFFFFFFFFFFFFFFFFFFFF
310
FFFFFFFFFFFFFFFFFFFFFFFFFFFFFFFFFFFFFFFFFFFFFFFFF000FFFFFFFFFFFF
310
FFFFFFFFFFFFFFFFFFFFFFFFFFFFFFFFFFFFFFFFFFFFFFFFFFFFFFFFFFFFFFFF
310
FFFFFFFFFFFFFFFFFFFFFFFFFFFFFFFFFFFFFFFFFFFFFFFFFFFFFFFFFFFFFFFF
310
FFFFFFFFFFFFFFFFFFFFFFFFFFFFFFFFF000FFFFFFFFFFFFFFFFFFFFFFFFFFFF
310
FFFFFFFFFFFFFFFFFFFFFFFFFFFFFFFFFFFFFFFFFFFFFFFFFFFFFFFFFFFFFFFF
310
FFFFFFFFFFFFFFFFFFFFFFFFFFFFFFFFFFFFFFFFFFFFFFFFFFFFFFFFFFFFFFFF
310
FFFFFFFFFFFFFFFFF000FFFFFFFFFFFFFFFFFFFFFFFFFFFFFFFFFFFFFFFFFFFF
310
FFFFFFFFFFFFFFFFFFFFFFFFFFFFFFFFFFFFFFFFFFFFFFFFFFFFFFFFFFFFFFFF
310
FFFFFFFFFFFFFFFFFFFFFFFFFFFFFFFFFFFFFFFFFFFFFFFFFFFFFFFFFFFFFFFF
310
F000FFFFFFFFFFFFFFFFFFFFFFFFFFFFFFFFFFFFFFFFFFFFFFFFFFFFFFFFFFFF
310
FFFFFFFFFFFFFFFFFFFFFFFFFFFFFFFFFFFFFFFFFFFFFFFFFFFFFFFFFFFFFFFF
310
FFFFFFFFFFFFFFFFFFFFFFFFFFFFFFFFFFFFFFFFFFFFFFFFF000FFFFFFFFFFFF
310
FFFFFFFFFFFFFFFFFFFFFFFFFFFFFFFFFFFFFFFFFFFFFFFFFFFFFFFFFFFFFFFF
310
FFFFFFFFFFFFFFFFFFFFFFFFFFFFFFFFFFFFFFFFFFFFFFFFFFFFFFFFFFFFFFFF
310
FFFFFFFFFFFFFFFFFFFFFFFFFFFFFFFFF0000000000000000000000000000000
310
0000000000000000000000000000000000000000000000000000000000000000
310
0000000000000000000000000000000000000000000000000000000000000000
310
0000000000000000000000000000000000000000000000000000000000000000
310
0000000000000000000000000000000000000000000000000000000000000000
310
0000000000000000000000000000000000000000000000000000000000000000
310
0000000000000000000000000000000000000000000000000000000000000000
310
0000000000000000000000000000000000000000000000000000000000000000
310
0000000000000000000000000000000000000000000000000000000000000000
310
0000000000000000000000000000000000000000000000000000000000000000
310
0000000000000000000000000000000000000000000000000000000000000000
310
0000000000000000000000000000000000000000000000000000000000000000
310
0000000000000000000000000000000000000000000000000000000000000000
310
0000000000000000000000000000000000000000000000000000000000000000
310
0000000000000000000000000000000000000000000000000000000000000000
310
0000000000000000000000000000000000000000000000000000000000000000
  1
OLE
  0
ENDSEC
  0
SECTION
  2
OBJECTS
  0
DICTIONARY
  5
C
330
0
100
AcDbDictionary
281
     1
  3
ACAD_GROUP
350
D
  3
ACAD_LAYOUT
350
1A
  3
ACAD_MLINESTYLE
350
17
  3
ACAD_PLOTSETTINGS
350
19
  3
ACAD_PLOTSTYLENAME
350
E
  0
DICTIONARY
  5
D
102
{ACAD_REACTORS
330
C
102
}
330
C
100
AcDbDictionary
281
     1
  0
DICTIONARY
  5
1A
102
{ACAD_REACTORS
330
C
102
}
330
C
100
AcDbDictionary
281
     1
  3
Layout1
350
1E
  3
Layout2
350
26
  3
Model
350
22
  0
DICTIONARY
  5
17
102
{ACAD_REACTORS
330
C
102
}
330
C
100
AcDbDictionary
281
     1
  3
Standard
350
18
  0
DICTIONARY
  5
19
102
{ACAD_REACTORS
330
C
102
}
330
C
100
AcDbDictionary
281
     1
  0
ACDBDICTIONARYWDFLT
  5
E
102
{ACAD_REACTORS
330
C
102
}
330
C
100
AcDbDictionary
281
     1
  3
Normal
350
F
100
AcDbDictionaryWithDefault
340
F
  0
LAYOUT
  5
1E
102
{ACAD_REACTORS
330
1A
102
}
330
1A
100
AcDbPlotSettings
  1

  2
none_device
  4

  6

 40
0.0
 41
0.0
 42
0.0
 43
0.0
 44
0.0
 45
0.0
 46
0.0
 47
0.0
 48
0.0
 49
0.0
140
0.0
141
0.0
142
1.0
143
1.0
 70
   688
 72
     0
 73
     0
 74
     5
  7

 75
    16
147
1.0
148
0.0
149
0.0
100
AcDbLayout
  1
Layout1
 70
     1
 71
     1
 10
0.0
 20
0.0
 11
420.0
 21
297.0
 12
0.0
 22
0.0
 32
0.0
 14
1.0000000000E+20
 24
1.0000000000E+20
 34
1.0000000000E+20
 15
-1.0000000000E+20
 25
-1.0000000000E+20
 35
-1.0000000000E+20
146
0.0
 13
0.0
 23
0.0
 33
0.0
 16
1.0
 26
0.0
 36
0.0
 17
0.0
 27
1.0
 37
0.0
 76
     0
330
1B
  0
LAYOUT
  5
26
102
{ACAD_REACTORS
330
1A
102
}
330
1A
100
AcDbPlotSettings
  1

  2
none_device
  4

  6

 40
0.0
 41
0.0
 42
0.0
 43
0.0
 44
0.0
 45
0.0
 46
0.0
 47
0.0
 48
0.0
 49
0.0
140
0.0
141
0.0
142
1.0
143
1.0
 70
   688
 72
     0
 73
     0
 74
     5
  7

 75
    16
147
1.0
148
0.0
149
0.0
100
AcDbLayout
  1
Layout2
 70
     1
 71
     2
 10
0.0
 20
0.0
 11
0.0
 21
0.0
 12
0.0
 22
0.0
 32
0.0
 14
0.0
 24
0.0
 34
0.0
 15
0.0
 25
0.0
 35
0.0
146
0.0
 13
0.0
 23
0.0
 33
0.0
 16
1.0
 26
0.0
 36
0.0
 17
0.0
 27
1.0
 37
0.0
 76
     0
330
23
  0
LAYOUT
  5
22
102
{ACAD_REACTORS
330
1A
102
}
330
1A
100
AcDbPlotSettings
  1

  2
none_device
  4

  6

 40
0.0
 41
0.0
 42
0.0
 43
0.0
 44
0.0
 45
0.0
 46
0.0
 47
0.0
 48
0.0
 49
0.0
140
0.0
141
0.0
142
1.0
143
1.0
 70
  1712
 72
     0
 73
     0
 74
     0
  7

 75
     0
147
1.0
148
0.0
149
0.0
100
AcDbLayout
  1
Model
 70
     1
 71
     0
 10
0.0
 20
0.0
 11
297.0
 21
210.0
 12
0.0
 22
0.0
 32
0.0
 14
0.0
 24
0.0
 34
0.0
 15
297.0
 25
210.0
 35
0.0
146
0.0
 13
0.0
 23
0.0
 33
0.0
 16
1.0
 26
0.0
 36
0.0
 17
0.0
 27
1.0
 37
0.0
 76
     0
330
1F
331
29
  0
MLINESTYLE
  5
18
102
{ACAD_REACTORS
330
17
102
}
330
17
100
AcDbMlineStyle
  2
Standard
 70
     0
  3

 62
   256
 51
90.0
 52
90.0
 71
     2
 49
0.5
 62
   256
  6
BYLAYER
 49
-0.5
 62
   256
  6
BYLAYER
  0
ACDBPLACEHOLDER
  5
F
102
{ACAD_REACTORS
330
E
102
}
330
E
  0
ENDSEC
  0
EOF
