  0
SECTION
  2
HEADER
  9
$ACADVER
  1
AC1015
  9
$ACADMAINTVER
 70
     6
  9
$DWGCODEPAGE
  3
ANSI_1252
  9
$INSBASE
 10
0.0
 20
0.0
 30
0.0
  9
$EXTMIN
 10
0.0
 20
0.0
 30
0.0
  9
$EXTMAX
 10
297.0
 20
210.0
 30
0.0
  9
$LIMMIN
 10
0.0
 20
0.0
  9
$LIMMAX
 10
297.0
 20
210.0
  9
$ORTHOMODE
 70
     0
  9
$REGENMODE
 70
     1
  9
$FILLMODE
 70
     1
  9
$QTEXTMODE
 70
     0
  9
$MIRRTEXT
 70
     1
  9
$LTSCALE
 40
1.0
  9
$ATTMODE
 70
     1
  9
$TEXTSIZE
 40
2.0
  9
$TRACEWID
 40
1.0
  9
$TEXTSTYLE
  7
Standard
  9
$CLAYER
  8
0
  9
$CELTYPE
  6
ByLayer
  9
$CECOLOR
 62
   256
  9
$CELTSCALE
 40
1.0
  9
$DISPSILH
 70
     0
  9
$DIMSCALE
 40
1.0
  9
$DIMASZ
 40
3.0
  9
$DIMEXO
 40
0.0
  9
$DIMDLI
 40
3.75
  9
$DIMRND
 40
0.0
  9
$DIMDLE
 40
0.0
  9
$DIMEXE
 40
1.0
  9
$DIMTP
 40
0.0
  9
$DIMTM
 40
0.0
  9
$DIMTXT
 40
2.0
  9
$DIMCEN
 40
2.5
  9
$DIMTSZ
 40
0.0
  9
$DIMTOL
 70
     0
  9
$DIMLIM
 70
     0
  9
$DIMTIH
 70
     1
  9
$DIMTOH
 70
     1
  9
$DIMSE1
 70
     0
  9
$DIMSE2
 70
     0
  9
$DIMTAD
 70
     1
  9
$DIMZIN
 70
     0
  9
$DIMBLK
  1

  9
$DIMASO
 70
     1
  9
$DIMSHO
 70
     1
  9
$DIMPOST
  1

  9
$DIMAPOST
  1

  9
$DIMALT
 70
     0
  9
$DIMALTD
 70
     3
  9
$DIMALTF
 40
0.0393700787
  9
$DIMLFAC
 40
1.0
  9
$DIMTOFL
 70
     1
  9
$DIMTVP
 40
0.0
  9
$DIMTIX
 70
     0
  9
$DIMSOXD
 70
     0
  9
$DIMSAH
 70
     0
  9
$DIMBLK1
  1

  9
$DIMBLK2
  1

  9
$DIMSTYLE
  2
ISO-25
  9
$DIMCLRD
 70
     0
  9
$DIMCLRE
 70
     0
  9
$DIMCLRT
 70
     0
  9
$DIMTFAC
 40
1.0
  9
$DIMGAP
 40
1.524
  9
$DIMJUST
 70
     0
  9
$DIMSD1
 70
     0
  9
$DIMSD2
 70
     0
  9
$DIMTOLJ
 70
     0
  9
$DIMTZIN
 70
     0
  9
$DIMALTZ
 70
     0
  9
$DIMALTTZ
 70
     0
  9
$DIMUPT
 70
     0
  9
$DIMDEC
 70
     2
  9
$DIMTDEC
 70
     3
  9
$DIMALTU
 70
     2
  9
$DIMALTTD
 70
     3
  9
$DIMTXSTY
  7
Standard
  9
$DIMAUNIT
 70
     0
  9
$DIMADEC
 70
     2
  9
$DIMALTRND
 40
0.0
  9
$DIMAZIN
 70
     0
  9
$DIMDSEP
 70
    44
  9
$DIMATFIT
 70
     3
  9
$DIMFRAC
 70
     0
  9
$DIMLDRBLK
  1

  9
$DIMLUNIT
 70
     2
  9
$DIMLWD
 70
    -2
  9
$DIMLWE
 70
    -2
  9
$DIMTMOVE
 70
     0
  9
$LUNITS
 70
     2
  9
$LUPREC
 70
     2
  9
$SKETCHINC
 40
1.0
  9
$FILLETRAD
 40
10.0
  9
$AUNITS
 70
     0
  9
$AUPREC
 70
     2
  9
$MENU
  1
.
  9
$ELEVATION
 40
0.0
  9
$PELEVATION
 40
0.0
  9
$THICKNESS
 40
0.0
  9
$LIMCHECK
 70
     0
  9
$CHAMFERA
 40
10.0
  9
$CHAMFERB
 40
10.0
  9
$CHAMFERC
 40
20.0
  9
$CHAMFERD
 40
0.0
  9
$SKPOLY
 70
     0
  9
$TDCREATE
 40
2456086.639432083
  9
$TDUCREATE
 40
2456086.55609875
  9
$TDUPDATE
 40
2456086.63943353
  9
$TDUUPDATE
 40
2456086.556100197
  9
$TDINDWG
 40
0.0000000116
  9
$TDUSRTIMER
 40
0.0000000116
  9
$USRTIMER
 70
     1
  9
$ANGBASE
 50
0.0
  9
$ANGDIR
 70
     0
  9
$PDMODE
 70
     0
  9
$PDSIZE
 40
-1.0
  9
$PLINEWID
 40
0.0
  9
$SPLFRAME
 70
     0
  9
$SPLINETYPE
 70
     6
  9
$SPLINESEGS
 70
     8
  9
$HANDSEED
  5
22A
  9
$SURFTAB1
 70
     6
  9
$SURFTAB2
 70
     6
  9
$SURFTYPE
 70
     6
  9
$SURFU
 70
     6
  9
$SURFV
 70
     6
  9
$UCSBASE
  2

  9
$UCSNAME
  2

  9
$UCSORG
 10
0.0
 20
0.0
 30
0.0
  9
$UCSXDIR
 10
1.0
 20
0.0
 30
0.0
  9
$UCSYDIR
 10
0.0
 20
1.0
 30
0.0
  9
$UCSORTHOREF
  2

  9
$UCSORTHOVIEW
 70
     0
  9
$UCSORGTOP
 10
0.0
 20
0.0
 30
0.0
  9
$UCSORGBOTTOM
 10
0.0
 20
0.0
 30
0.0
  9
$UCSORGLEFT
 10
0.0
 20
0.0
 30
0.0
  9
$UCSORGRIGHT
 10
0.0
 20
0.0
 30
0.0
  9
$UCSORGFRONT
 10
0.0
 20
0.0
 30
0.0
  9
$UCSORGBACK
 10
0.0
 20
0.0
 30
0.0
  9
$PUCSBASE
  2

  9
$PUCSNAME
  2

  9
$PUCSORG
 10
0.0
 20
0.0
 30
0.0
  9
$PUCSXDIR
 10
1.0
 20
0.0
 30
0.0
  9
$PUCSYDIR
 10
0.0
 20
1.0
 30
0.0
  9
$PUCSORTHOREF
  2

  9
$PUCSORTHOVIEW
 70
     0
  9
$PUCSORGTOP
 10
0.0
 20
0.0
 30
0.0
  9
$PUCSORGBOTTOM
 10
0.0
 20
0.0
 30
0.0
  9
$PUCSORGLEFT
 10
0.0
 20
0.0
 30
0.0
  9
$PUCSORGRIGHT
 10
0.0
 20
0.0
 30
0.0
  9
$PUCSORGFRONT
 10
0.0
 20
0.0
 30
0.0
  9
$PUCSORGBACK
 10
0.0
 20
0.0
 30
0.0
  9
$USERI1
 70
     0
  9
$USERI2
 70
     0
  9
$USERI3
 70
     0
  9
$USERI4
 70
     0
  9
$USERI5
 70
     0
  9
$USERR1
 40
0.0
  9
$USERR2
 40
0.0
  9
$USERR3
 40
0.0
  9
$USERR4
 40
0.0
  9
$USERR5
 40
0.0
  9
$WORLDVIEW
 70
     1
  9
$SHADEDGE
 70
     3
  9
$SHADEDIF
 70
    70
  9
$TILEMODE
 70
     1
  9
$MAXACTVP
 70
    64
  9
$PINSBASE
 10
0.0
 20
0.0
 30
0.0
  9
$PLIMCHECK
 70
     0
  9
$PEXTMIN
 10
1.0000000000E+20
 20
1.0000000000E+20
 30
1.0000000000E+20
  9
$PEXTMAX
 10
-1.0000000000E+20
 20
-1.0000000000E+20
 30
-1.0000000000E+20
  9
$PLIMMIN
 10
0.0
 20
0.0
  9
$PLIMMAX
 10
420.0
 20
297.0
  9
$UNITMODE
 70
     0
  9
$VISRETAIN
 70
     1
  9
$PLINEGEN
 70
     0
  9
$PSLTSCALE
 70
     1
  9
$TREEDEPTH
 70
  3020
  9
$CMLSTYLE
  2
Standard
  9
$CMLJUST
 70
     0
  9
$CMLSCALE
 40
20.0
  9
$PROXYGRAPHICS
 70
     1
  9
$MEASUREMENT
 70
     1
  9
$CELWEIGHT
370
    -1
  9
$ENDCAPS
280
     0
  9
$JOINSTYLE
280
     0
  9
$LWDISPLAY
290
     1
  9
$INSUNITS
 70
     4
  9
$HYPERLINKBASE
  1

  9
$STYLESHEET
  1

  9
$XEDIT
290
     1
  9
$CEPSNTYPE
380
     0
  9
$PSTYLEMODE
290
     1
  9
$FINGERPRINTGUID
  2
{44A221AA-ED65-4D40-BC3D-2CE35F29CBD8}
  9
$VERSIONGUID
  2
{FAEB1C32-E019-11D5-929B-00C0DF256EC4}
  9
$EXTNAMES
290
     1
  9
$PSVPSCALE
 40
0.0
  9
$OLESTARTUP
290
     0
  0
ENDSEC
  0
SECTION
  2
CLASSES
  0
CLASS
  1
ACDBDICTIONARYWDFLT
  2
AcDbDictionaryWithDefault
  3
ObjectDBX Classes
 90
        0
280
     0
281
     0
  0
CLASS
  1
VISUALSTYLE
  2
AcDbVisualStyle
  3
ObjectDBX Classes
 90
     4095
280
     0
281
     0
  0
CLASS
  1
MATERIAL
  2
AcDbMaterial
  3
ObjectDBX Classes
 90
     1153
280
     0
281
     0
  0
CLASS
  1
ACDBPLACEHOLDER
  2
AcDbPlaceHolder
  3
ObjectDBX Classes
 90
        0
280
     0
281
     0
  0
CLASS
  1
LAYOUT
  2
AcDbLayout
  3
ObjectDBX Classes
 90
        0
280
     0
281
     0
  0
ENDSEC
  0
SECTION
  2
TABLES
  0
TABLE
  2
VPORT
  5
8
330
0
100
AcDbSymbolTable
 70
     1
  0
VPORT
  5
29
330
8
100
AcDbSymbolTableRecord
100
AcDbViewportTableRecord
  2
*Active
 70
     0
 10
0.0
 20
0.0
 11
1.0
 21
1.0
 12
148.5
 22
105.0
 13
0.0
 23
0.0
 14
10.0
 24
10.0
 15
10.0
 25
10.0
 16
0.0
 26
0.0
 36
1.0
 17
0.0
 27
0.0
 37
0.0
 40
210.0
 41
1.4142857143
 42
50.0
 43
0.0
 44
0.0
 50
0.0
 51
0.0
 71
     0
 72
  2000
 73
     1
 74
     3
 75
     0
 76
     0
 77
     0
 78
     0
281
     0
 65
     1
110
0.0
120
0.0
130
0.0
111
1.0
121
0.0
131
0.0
112
0.0
122
1.0
132
0.0
 79
     0
146
0.0
  0
ENDTAB
  0
TABLE
  2
LTYPE
  5
5
330
0
100
AcDbSymbolTable
 70
     6
  0
LTYPE
  5
14
330
5
100
AcDbSymbolTableRecord
100
AcDbLinetypeTableRecord
  2
ByBlock
 70
     0
  3

 72
    65
 73
     0
 40
0.0
  0
LTYPE
  5
15
330
5
100
AcDbSymbolTableRecord
100
AcDbLinetypeTableRecord
  2
ByLayer
 70
     0
  3

 72
    65
 73
     0
 40
0.0
  0
LTYPE
  5
16
330
5
100
AcDbSymbolTableRecord
100
AcDbLinetypeTableRecord
  2
Continuous
 70
     0
  3
Solid line
 72
    65
 73
     0
 40
0.0
  0
LTYPE
  5
3F
330
5
100
AcDbSymbolTableRecord
100
AcDbLinetypeTableRecord
  2
HIDDEN
 70
     0
  3
Hidden __ __ __ __ __ __ __ __ __ __ __ __ __ __
 72
    65
 73
     2
 40
1.905
 49
1.27
 74
     0
 49
-0.635
 74
     0
  0
LTYPE
  5
40
330
5
100
AcDbSymbolTableRecord
100
AcDbLinetypeTableRecord
  2
PHANTOM
 70
     0
  3
Phantom ______  __  __  ______  __  __  ______
 72
    65
 73
     6
 40
12.7
 49
6.35
 74
     0
 49
-1.27
 74
     0
 49
1.27
 74
     0
 49
-1.27
 74
     0
 49
1.27
 74
     0
 49
-1.27
 74
     0
  0
LTYPE
  5
41
330
5
100
AcDbSymbolTableRecord
100
AcDbLinetypeTableRecord
  2
CENTER
 70
     0
  3
Center ____ _ ____ _ ____ _ ____ _ ____ _ ____
 72
    65
 73
     4
 40
10.16
 49
6.35
 74
     0
 49
-1.27
 74
     0
 49
1.27
 74
     0
 49
-1.27
 74
     0
  0
LTYPE
  5
42
330
5
100
AcDbSymbolTableRecord
100
AcDbLinetypeTableRecord
  2
CENTERX2
 70
     0
  3
Center (2x) ________  __  ________  __  _____
 72
    65
 73
     4
 40
20.32
 49
12.7
 74
     0
 49
-2.54
 74
     0
 49
2.54
 74
     0
 49
-2.54
 74
     0
  0
LTYPE
  5
43
330
5
100
AcDbSymbolTableRecord
100
AcDbLinetypeTableRecord
  2
DOT2
 70
     0
  3
Dot (.5x) ........................................
 72
    65
 73
     2
 40
0.635
 49
0.0
 74
     0
 49
-0.635
 74
     0
  0
ENDTAB
  0
TABLE
  2
LAYER
  5
2
330
0
100
AcDbSymbolTable
 70
     5
  0
LAYER
  5
10
330
2
100
AcDbSymbolTableRecord
100
AcDbLayerTableRecord
  2
0
 70
     0
 62
     7
  6
Continuous
370
    -3
390
F
  0
LAYER
  5
44
330
2
100
AcDbSymbolTableRecord
100
AcDbLayerTableRecord
  2
FORMAT
 70
     0
 62
     7
  6
Continuous
370
    -3
390
F
  0
LAYER
  5
45
330
2
100
AcDbSymbolTableRecord
100
AcDbLayerTableRecord
  2
VERMASSUNG
 70
     0
 62
     7
  6
Continuous
370
    -3
390
F
  0
LAYER
  5
46
330
2
100
AcDbSymbolTableRecord
100
AcDbLayerTableRecord
  2
KOPF_DÜNN
 70
     0
 62
     7
  6
Continuous
370
    -3
390
F
  0
LAYER
  5
47
330
2
100
AcDbSymbolTableRecord
100
AcDbLayerTableRecord
  2
KOPF_DICK
 70
     0
 62
     7
  6
Continuous
370
    15
390
F
  0
ENDTAB
  0
TABLE
  2
STYLE
  5
3
330
0
100
AcDbSymbolTable
 70
     2
  0
STYLE
  5
11
330
3
100
AcDbSymbolTableRecord
100
AcDbTextStyleTableRecord
  2
Standard
 70
     0
 40
0.0
 41
1.0
 50
0.0
 71
     0
 42
2.0
  3
txt
  4

  0
STYLE
  5
48
330
3
100
AcDbSymbolTableRecord
100
AcDbTextStyleTableRecord
  2
SLDTEXTSTYLE0
 70
     0
 40
0.0
 41
0.7
 50
0.0
 71
     0
 42
0.2
  3
TXT
  4

  0
ENDTAB
  0
TABLE
  2
VIEW
  5
6
330
0
100
AcDbSymbolTable
 70
     0
  0
ENDTAB
  0
TABLE
  2
UCS
  5
7
330
0
100
AcDbSymbolTable
 70
     0
  0
ENDTAB
  0
TABLE
  2
APPID
  5
9
330
0
100
AcDbSymbolTable
 70
     1
  0
APPID
  5
12
330
9
100
AcDbSymbolTableRecord
100
AcDbRegAppTableRecord
  2
ACAD
 70
     0
  0
ENDTAB
  0
TABLE
  2
DIMSTYLE
  5
A
330
0
100
AcDbSymbolTable
 70
     5
100
AcDbDimStyleTable
  0
DIMSTYLE
105
27
330
A
100
AcDbSymbolTableRecord
100
AcDbDimStyleTableRecord
  2
ISO-25
 70
     0
 41
2.5
 42
0.625
 43
3.75
 44
1.25
 73
     0
 74
     0
 77
     1
 78
     8
140
2.5
141
2.5
143
0.0393700787
147
0.625
171
     3
172
     1
178
     0
271
     2
272
     2
274
     3
278
    44
283
     0
284
     8
340
11
  0
DIMSTYLE
105
1A8
102
{ACAD_REACTORS
330
1A7
330
1B2
330
1BC
330
1CF
330
1DB
102
}
330
A
100
AcDbSymbolTableRecord
100
AcDbDimStyleTableRecord
  2
SLDDIMSTYLE0
 70
     0
 41
3.0
 44
0.0
 45
0.000000001
 73
     0
 74
     0
 77
     1
 78
    12
 79
     3
140
2.0
147
0.5
173
     1
178
     0
271
     2
272
     3
276
     2
284
    12
340
48
  0
DIMSTYLE
105
1C7
102
{ACAD_REACTORS
330
1C6
102
}
330
A
100
AcDbSymbolTableRecord
100
AcDbDimStyleTableRecord
  2
SLDDIMSTYLE1
 70
     0
 41
3.0
 44
0.0
 73
     0
 74
     0
 77
     1
 78
    12
 79
     3
140
2.0
147
0.5
173
     1
178
     0
179
     1
272
     3
276
     2
284
    12
340
48
  0
DIMSTYLE
105
202
102
{ACAD_REACTORS
330
201
102
}
330
A
100
AcDbSymbolTableRecord
100
AcDbDimStyleTableRecord
  2
SLDDIMSTYLE2
 70
     0
 41
3.0
 44
0.0
 45
0.000000001
 73
     0
 74
     0
 77
     1
 78
    12
 79
     3
140
2.0
147
0.5
172
     1
173
     1
178
     0
271
     2
272
     3
276
     2
284
    12
289
     0
340
48
  0
DIMSTYLE
105
211
102
{ACAD_REACTORS
330
210
102
}
330
A
100
AcDbSymbolTableRecord
100
AcDbDimStyleTableRecord
  2
SLDDIMSTYLE3
 70
     0
 41
3.0
 44
0.0
 73
     0
 74
     0
 77
     1
 78
    12
 79
     3
140
2.0
147
0.5
173
     1
178
     0
179
     2
272
     3
276
     2
284
    12
340
48
  0
ENDTAB
  0
TABLE
  2
BLOCK_RECORD
  5
1
330
0
100
AcDbSymbolTable
 70
    10
  0
BLOCK_RECORD
  5
1F
330
1
100
AcDbSymbolTableRecord
100
AcDbBlockTableRecord
  2
*Model_Space
340
22
  0
BLOCK_RECORD
  5
1B
330
1
100
AcDbSymbolTableRecord
100
AcDbBlockTableRecord
  2
*Paper_Space
340
1E
  0
BLOCK_RECORD
  5
23
330
1
100
AcDbSymbolTableRecord
100
AcDbBlockTableRecord
  2
*Paper_Space0
340
26
  0
BLOCK_RECORD
  5
1A9
330
1
100
AcDbSymbolTableRecord
100
AcDbBlockTableRecord
  2
_D
340
0
  0
BLOCK_RECORD
  5
1B3
330
1
100
AcDbSymbolTableRecord
100
AcDbBlockTableRecord
  2
_D_1
340
0
  0
BLOCK_RECORD
  5
1BD
330
1
100
AcDbSymbolTableRecord
100
AcDbBlockTableRecord
  2
_D_2
340
0
  0
BLOCK_RECORD
  5
1C8
330
1
100
AcDbSymbolTableRecord
100
AcDbBlockTableRecord
  2
_D_3
340
0
  0
BLOCK_RECORD
  5
1D0
330
1
100
AcDbSymbolTableRecord
100
AcDbBlockTableRecord
  2
_D_4
340
0
  0
BLOCK_RECORD
  5
1DC
330
1
100
AcDbSymbolTableRecord
100
AcDbBlockTableRecord
  2
_D_5
340
0
  0
BLOCK_RECORD
  5
203
330
1
100
AcDbSymbolTableRecord
100
AcDbBlockTableRecord
  2
_D_6
340
0
  0
BLOCK_RECORD
  5
212
330
1
100
AcDbSymbolTableRecord
100
AcDbBlockTableRecord
  2
_D_7
340
0
  0
BLOCK_RECORD
  5
21D
330
1
100
AcDbSymbolTableRecord
100
AcDbBlockTableRecord
  2
SW_CENTERMARKSYMBOL_0
340
0
102
{BLKREFS
331
228
102
}
  0
ENDTAB
  0
ENDSEC
  0
SECTION
  2
BLOCKS
  0
BLOCK
  5
20
330
1F
100
AcDbEntity
  8
0
100
AcDbBlockBegin
  2
*Model_Space
 70
     0
 10
0.0
 20
0.0
 30
0.0
  3
*Model_Space
  1

  0
ENDBLK
  5
21
330
1F
100
AcDbEntity
  8
0
100
AcDbBlockEnd
  0
BLOCK
  5
1C
330
1B
100
AcDbEntity
 67
     1
  8
0
100
AcDbBlockBegin
  2
*Paper_Space
 70
     0
 10
0.0
 20
0.0
 30
0.0
  3
*Paper_Space
  1

  0
ENDBLK
  5
1D
330
1B
100
AcDbEntity
 67
     1
  8
0
100
AcDbBlockEnd
  0
BLOCK
  5
24
330
23
100
AcDbEntity
  8
0
100
AcDbBlockBegin
  2
*Paper_Space0
 70
     0
 10
0.0
 20
0.0
 30
0.0
  3
*Paper_Space0
  1

  0
ENDBLK
  5
25
330
23
100
AcDbEntity
  8
0
100
AcDbBlockEnd
  0
BLOCK
  5
1AA
330
1A9
100
AcDbEntity
  8
0
100
AcDbBlockBegin
  2
_D
 70
     0
 10
0.0
 20
0.0
 30
0.0
  3
_D
  1

  0
SOLID
  5
1AC
330
1A9
100
AcDbEntity
  8
VERMASSUNG
100
AcDbTrace
 10
145.6988016457
 20
76.6613524975
 30
0.0
 11
148.6988016457
 21
76.2113524975
 31
0.0
 12
148.6988016457
 22
77.1113524975
 32
0.0
 13
148.6988016457
 23
77.1113524975
 33
0.0
  0
SOLID
  5
1AD
330
1A9
100
AcDbEntity
  8
VERMASSUNG
100
AcDbTrace
 10
270.6988016457
 20
76.6613524975
 30
0.0
 11
267.6988016457
 21
77.1113524975
 31
0.0
 12
267.6988016457
 22
76.2113524975
 32
0.0
 13
267.6988016457
 23
76.2113524975
 33
0.0
  0
LINE
  5
1AE
330
1A9
100
AcDbEntity
  8
VERMASSUNG
100
AcDbLine
 10
145.6988016457
 20
87.1613524975
 30
0.0
 11
145.6988016457
 21
75.6613524975
 31
0.0
  0
LINE
  5
1AF
330
1A9
100
AcDbEntity
  8
VERMASSUNG
100
AcDbLine
 10
270.6988016457
 20
96.1613524975
 30
0.0
 11
270.6988016457
 21
75.6613524975
 31
0.0
  0
LINE
  5
1B0
330
1A9
100
AcDbEntity
  8
VERMASSUNG
100
AcDbLine
 10
145.6988016457
 20
76.6613524975
 30
0.0
 11
270.6988016457
 21
76.6613524975
 31
0.0
  0
MTEXT
  5
1B1
330
1A9
100
AcDbEntity
  8
VERMASSUNG
100
AcDbMText
 10
205.3988015127
 20
79.2394878606
 30
0.1
 40
2.0
 41
0.0
 71
     1
 72
     1
  1
125
  7
SLDTEXTSTYLE0
 73
     1
 44
1.0
  0
ENDBLK
  5
1AB
330
1A9
100
AcDbEntity
  8
0
100
AcDbBlockEnd
  0
BLOCK
  5
1B4
330
1B3
100
AcDbEntity
  8
0
100
AcDbBlockBegin
  2
_D_1
 70
     0
 10
0.0
 20
0.0
 30
0.0
  3
_D_1
  1

  0
SOLID
  5
1B6
330
1B3
100
AcDbEntity
  8
VERMASSUNG
100
AcDbTrace
 10
107.6988016457
 20
67.8218528071
 30
0.0
 11
110.6988016457
 21
67.3718528071
 31
0.0
 12
110.6988016457
 22
68.2718528071
 32
0.0
 13
110.6988016457
 23
68.2718528071
 33
0.0
  0
SOLID
  5
1B7
330
1B3
100
AcDbEntity
  8
VERMASSUNG
100
AcDbTrace
 10
270.6988016457
 20
67.8218528071
 30
0.0
 11
267.6988016457
 21
68.2718528071
 31
0.0
 12
267.6988016457
 22
67.3718528071
 32
0.0
 13
267.6988016457
 23
67.3718528071
 33
0.0
  0
LINE
  5
1B8
330
1B3
100
AcDbEntity
  8
VERMASSUNG
100
AcDbLine
 10
107.6988016457
 20
97.869014505
 30
0.0
 11
107.6988016457
 21
66.8218528071
 31
0.0
  0
LINE
  5
1B9
330
1B3
100
AcDbEntity
  8
VERMASSUNG
100
AcDbLine
 10
270.6988016457
 20
96.1613524975
 30
0.0
 11
270.6988016457
 21
66.8218528071
 31
0.0
  0
LINE
  5
1BA
330
1B3
100
AcDbEntity
  8
VERMASSUNG
100
AcDbLine
 10
107.6988016457
 20
67.8218528071
 30
0.0
 11
270.6988016457
 21
67.8218528071
 31
0.0
  0
MTEXT
  5
1BB
330
1B3
100
AcDbEntity
  8
VERMASSUNG
100
AcDbMText
 10
186.3988015127
 20
70.3999881702
 30
0.1
 40
2.0
 41
0.0
 71
     1
 72
     1
  1
163
  7
SLDTEXTSTYLE0
 73
     1
 44
1.0
  0
ENDBLK
  5
1B5
330
1B3
100
AcDbEntity
  8
0
100
AcDbBlockEnd
  0
BLOCK
  5
1BE
330
1BD
100
AcDbEntity
  8
0
100
AcDbBlockBegin
  2
_D_2
 70
     0
 10
0.0
 20
0.0
 30
0.0
  3
_D_2
  1

  0
SOLID
  5
1C0
330
1BD
100
AcDbEntity
  8
VERMASSUNG
100
AcDbTrace
 10
287.3339510404
 20
96.1613524975
 30
0.0
 11
287.7839510404
 21
99.1613524975
 31
0.0
 12
286.8839510404
 22
99.1613524975
 32
0.0
 13
286.8839510404
 23
99.1613524975
 33
0.0
  0
SOLID
  5
1C1
330
1BD
100
AcDbEntity
  8
VERMASSUNG
100
AcDbTrace
 10
287.3339510404
 20
118.1613524975
 30
0.0
 11
286.8839510404
 21
115.1613524975
 31
0.0
 12
287.7839510404
 22
115.1613524975
 32
0.0
 13
287.7839510404
 23
115.1613524975
 33
0.0
  0
LINE
  5
1C2
330
1BD
100
AcDbEntity
  8
VERMASSUNG
100
AcDbLine
 10
270.6988016457
 20
96.1613524975
 30
0.0
 11
288.3339510404
 21
96.1613524975
 31
0.0
  0
LINE
  5
1C3
330
1BD
100
AcDbEntity
  8
VERMASSUNG
100
AcDbLine
 10
270.6988016457
 20
118.1613524975
 30
0.0
 11
288.3339510404
 21
118.1613524975
 31
0.0
  0
LINE
  5
1C4
330
1BD
100
AcDbEntity
  8
VERMASSUNG
100
AcDbLine
 10
287.3339510404
 20
96.1613524975
 30
0.0
 11
287.3339510404
 21
118.1613524975
 31
0.0
  0
MTEXT
  5
1C5
330
1BD
100
AcDbEntity
  8
VERMASSUNG
100
AcDbMText
 10
284.7558156772
 20
104.8613524465
 30
0.1
 40
2.0
 41
0.0
 71
     1
 72
     1
  1
22
  7
SLDTEXTSTYLE0
 11
6.123233995736766E-17
 21
1.0
 31
0.0
 73
     1
 44
1.0
  0
ENDBLK
  5
1BF
330
1BD
100
AcDbEntity
  8
0
100
AcDbBlockEnd
  0
BLOCK
  5
1C9
330
1C8
100
AcDbEntity
  8
0
100
AcDbBlockBegin
  2
_D_3
 70
     0
 10
0.0
 20
0.0
 30
0.0
  3
_D_3
  1

  0
ARC
  5
1CB
330
1C8
100
AcDbEntity
  8
VERMASSUNG
100
AcDbCircle
 10
270.8443328113
 20
96.1613524975
 30
0.0
 40
9.850705921624183
100
AcDbArc
 50
0.0
 51
107.5401158054
  0
SOLID
  5
1CC
330
1C8
100
AcDbEntity
  8
VERMASSUNG
100
AcDbTrace
 10
280.6950387329
 20
96.1613524975
 30
0.0
 11
280.6983105081
 21
99.1949129956
 31
0.0
 12
279.8081243181
 22
99.0623665996
 32
0.0
 13
279.8081243181
 23
99.0623665996
 33
0.0
  0
SOLID
  5
1CD
330
1C8
100
AcDbEntity
  8
VERMASSUNG
100
AcDbTrace
 10
267.8755913521
 20
105.5540614413
 30
0.0
 11
270.9090186957
 21
105.5826717647
 31
0.0
 12
270.7671239989
 22
106.4714157633
 32
0.0
 13
270.7671239989
 23
106.4714157633
 33
0.0
  0
MTEXT
  5
1CE
330
1C8
100
AcDbEntity
  8
VERMASSUNG
100
AcDbMText
 10
274.6408504165
 20
108.7876167726
 30
0.1
 40
2.0
 41
0.0
 71
     1
 72
     1
  1
107.5°
  7
SLDTEXTSTYLE0
 11
0.806651558425698
 21
-0.5910272948768041
 31
0.0
 73
     1
 44
1.0
  0
ENDBLK
  5
1CA
330
1C8
100
AcDbEntity
  8
0
100
AcDbBlockEnd
  0
BLOCK
  5
1D1
330
1D0
100
AcDbEntity
  8
0
100
AcDbBlockBegin
  2
_D_4
 70
     0
 10
0.0
 20
0.0
 30
0.0
  3
_D_4
  1

  0
SOLID
  5
1D3
330
1D0
100
AcDbEntity
  8
VERMASSUNG
100
AcDbTrace
 10
100.4552943139
 20
149.6613524975
 30
0.0
 11
100.0052943139
 21
146.6613524975
 31
0.0
 12
100.9052943139
 22
146.6613524975
 32
0.0
 13
100.9052943139
 23
146.6613524975
 33
0.0
  0
SOLID
  5
1D4
330
1D0
100
AcDbEntity
  8
VERMASSUNG
100
AcDbTrace
 10
100.4552943139
 20
86.6613524975
 30
0.0
 11
100.9052943139
 21
89.6613524975
 31
0.0
 12
100.0052943139
 22
89.6613524975
 32
0.0
 13
100.0052943139
 23
89.6613524975
 33
0.0
  0
LINE
  5
1D5
330
1D0
100
AcDbEntity
  8
VERMASSUNG
100
AcDbLine
 10
146.1988016457
 20
149.6613524975
 30
0.0
 11
99.4552943139
 21
149.6613524975
 31
0.0
  0
LINE
  5
1D6
330
1D0
100
AcDbEntity
  8
VERMASSUNG
100
AcDbLine
 10
146.1988016457
 20
86.6613524975
 30
0.0
 11
99.4552943139
 21
86.6613524975
 31
0.0
  0
LINE
  5
1D7
330
1D0
100
AcDbEntity
  8
VERMASSUNG
100
AcDbLine
 10
100.4552943139
 20
149.6613524975
 30
0.0
 11
100.4552943139
 21
86.6613524975
 31
0.0
  0
MTEXT
  5
1D8
330
1D0
100
AcDbEntity
  8
VERMASSUNG
100
AcDbMText
 10
97.6771588249
 20
111.7563523883
 30
0.1
 40
2.0
 41
0.0
 71
     1
 72
     1
  1
PSC
  7
SLDTEXTSTYLE0
 11
-7.044195017643634E-15
 21
1.0
 31
0.0
 73
     1
 44
1.0
  0
MTEXT
  5
1D9
330
1D0
100
AcDbEntity
  8
VERMASSUNG
100
AcDbMText
 10
97.8771588344
 20
116.3563524903
 30
0.1
 40
2.0
 41
0.0
 71
     1
 72
     1
  1
%%c
  7
SLDTEXTSTYLE0
 11
-7.044195017643634E-15
 21
1.0
 31
0.0
 73
     1
 44
1.0
  0
MTEXT
  5
1DA
330
1D0
100
AcDbEntity
  8
VERMASSUNG
100
AcDbMText
 10
97.6771588249
 20
119.9663529703
 30
0.1
 40
2.0
 41
0.0
 71
     1
 72
     1
  1
63
  7
SLDTEXTSTYLE0
 11
-7.044195017643634E-15
 21
1.0
 31
0.0
 73
     1
 44
1.0
  0
ENDBLK
  5
1D2
330
1D0
100
AcDbEntity
  8
0
100
AcDbBlockEnd
  0
BLOCK
  5
1DD
330
1DC
100
AcDbEntity
  8
0
100
AcDbBlockBegin
  2
_D_5
 70
     0
 10
0.0
 20
0.0
 30
0.0
  3
_D_5
  1

  0
SOLID
  5
1DF
330
1DC
100
AcDbEntity
  8
VERMASSUNG
100
AcDbTrace
 10
192.6081418828
 20
134.1613524975
 30
0.0
 11
192.1581418828
 21
131.1613524975
 31
0.0
 12
193.0581418828
 22
131.1613524975
 32
0.0
 13
193.0581418828
 23
131.1613524975
 33
0.0
  0
SOLID
  5
1E0
330
1DC
100
AcDbEntity
  8
VERMASSUNG
100
AcDbTrace
 10
192.6081418828
 20
102.1613524975
 30
0.0
 11
193.0581418828
 21
105.1613524975
 31
0.0
 12
192.1581418828
 22
105.1613524975
 32
0.0
 13
192.1581418828
 23
105.1613524975
 33
0.0
  0
LINE
  5
1E1
330
1DC
100
AcDbEntity
  8
VERMASSUNG
100
AcDbLine
 10
192.6081418828
 20
134.1613524975
 30
0.0
 11
192.6081418828
 21
102.1613524975
 31
0.0
  0
MTEXT
  5
1E2
330
1DC
100
AcDbEntity
  8
VERMASSUNG
100
AcDbMText
 10
190.0300064033
 20
106.1111281646
 30
0.1
 40
2.0
 41
0.0
 71
     1
 72
     1
  1
%%c
  7
SLDTEXTSTYLE0
 11
-7.044195017643634E-15
 21
1.0
 31
0.0
 73
     1
 44
1.0
  0
MTEXT
  5
1E3
330
1DC
100
AcDbEntity
  8
VERMASSUNG
100
AcDbMText
 10
189.8300063938
 20
109.7211281789
 30
0.1
 40
2.0
 41
0.0
 71
     1
 72
     1
  1
32
  7
SLDTEXTSTYLE0
 11
-7.044195017643634E-15
 21
1.0
 31
0.0
 73
     1
 44
1.0
  0
ENDBLK
  5
1DE
330
1DC
100
AcDbEntity
  8
0
100
AcDbBlockEnd
  0
BLOCK
  5
204
330
203
100
AcDbEntity
  8
0
100
AcDbBlockBegin
  2
_D_6
 70
     0
 10
0.0
 20
0.0
 30
0.0
  3
_D_6
  1

  0
SOLID
  5
206
330
203
100
AcDbEntity
  8
VERMASSUNG
100
AcDbTrace
 10
63.8800196086
 20
130.4728386931
 30
0.0
 11
66.3195380037
 21
132.2759609851
 31
0.0
 12
65.6831419006
 22
132.9123570881
 32
0.0
 13
65.6831419006
 23
132.9123570881
 33
0.0
  0
SOLID
  5
207
330
203
100
AcDbEntity
  8
VERMASSUNG
100
AcDbTrace
 10
35.5957483611
 20
102.1885674456
 30
0.0
 11
33.156229966
 21
100.3854451536
 31
0.0
 12
33.7926260691
 22
99.7490490505
 32
0.0
 13
33.7926260691
 23
99.7490490505
 33
0.0
  0
LINE
  5
208
330
203
100
AcDbEntity
  8
VERMASSUNG
100
AcDbLine
 10
63.8800196086
 20
130.4728386931
 30
0.0
 11
64.5871263898
 21
129.7657319119
 31
0.0
  0
LINE
  5
209
330
203
100
AcDbEntity
  8
VERMASSUNG
100
AcDbLine
 10
35.5957483611
 20
102.1885674456
 30
0.0
 11
36.3028551423
 21
101.4814606644
 31
0.0
  0
LINE
  5
20A
330
203
100
AcDbEntity
  8
VERMASSUNG
100
AcDbLine
 10
63.8800196086
 20
130.4728386931
 30
0.0
 11
68.1226602957
 21
134.7154793802
 31
0.0
  0
LINE
  5
20B
330
203
100
AcDbEntity
  8
VERMASSUNG
100
AcDbLine
 10
63.8800196086
 20
130.4728386931
 30
0.0
 11
35.5957483611
 21
102.1885674456
 31
0.0
  0
LINE
  5
20C
330
203
100
AcDbEntity
  8
VERMASSUNG
100
AcDbLine
 10
35.5957483611
 20
102.1885674456
 30
0.0
 11
16.5393697065
 21
83.1321887909
 31
0.0
  0
MTEXT
  5
20D
330
203
100
AcDbEntity
  8
VERMASSUNG
100
AcDbMText
 10
14.7163526261
 20
84.9552058713
 30
0.1
 40
2.0
 41
0.0
 71
     1
 72
     1
  1
%%c
  7
SLDTEXTSTYLE0
 11
0.7071067811865464
 21
0.7071067811865488
 31
0.0
 73
     1
 44
1.0
  0
MTEXT
  5
20E
330
203
100
AcDbEntity
  8
VERMASSUNG
100
AcDbMText
 10
17.1275867533
 20
87.6492827245
 30
0.1
 40
2.0
 41
0.0
 71
     1
 72
     1
  1
40
  7
SLDTEXTSTYLE0
 11
0.7071067811865464
 21
0.7071067811865488
 31
0.0
 73
     1
 44
1.0
  0
MTEXT
  5
20F
330
203
100
AcDbEntity
  8
VERMASSUNG
100
AcDbMText
 10
21.3613887669
 20
91.883084738
 30
0.1
 40
2.0
 41
0.0
 71
     1
 72
     1
  1
min.
  7
SLDTEXTSTYLE0
 11
0.7071067811865464
 21
0.7071067811865488
 31
0.0
 73
     1
 44
1.0
  0
ENDBLK
  5
205
330
203
100
AcDbEntity
  8
0
100
AcDbBlockEnd
  0
BLOCK
  5
213
330
212
100
AcDbEntity
  8
0
100
AcDbBlockBegin
  2
_D_7
 70
     0
 10
0.0
 20
0.0
 30
0.0
  3
_D_7
  1

  0
ARC
  5
215
330
212
100
AcDbEntity
  8
VERMASSUNG
100
AcDbCircle
 10
49.7378839849
 20
100.4620286053
 30
0.0
 40
56.51094897004265
100
AcDbArc
 50
90.0
 51
94.0
  0
ARC
  5
216
330
212
100
AcDbEntity
  8
VERMASSUNG
100
AcDbCircle
 10
49.7378839849
 20
100.4620286053
 30
0.0
 40
56.51094897004268
100
AcDbArc
 50
83.924515295
 51
90.0
  0
ARC
  5
217
330
212
100
AcDbEntity
  8
VERMASSUNG
100
AcDbCircle
 10
49.7378839849
 20
100.4620286053
 30
0.0
 40
56.51094897004266
100
AcDbArc
 50
94.0
 51
103.8670357003
  0
SOLID
  5
218
330
212
100
AcDbEntity
  8
VERMASSUNG
100
AcDbTrace
 10
49.7378839849
 20
156.9729775754
 30
0.0
 11
52.7248972023
 21
156.4435892122
 31
0.0
 12
52.748761177
 22
157.3432727736
 32
0.0
 13
52.748761177
 23
157.3432727736
 33
0.0
  0
SOLID
  5
219
330
212
100
AcDbEntity
  8
VERMASSUNG
100
AcDbTrace
 10
45.7958794568
 20
156.8353197439
 30
0.0
 11
42.7665061229
 21
156.9946847458
 31
0.0
 12
42.8530707189
 22
156.0988574351
 32
0.0
 13
42.8530707189
 23
156.0988574351
 33
0.0
  0
LINE
  5
21A
330
212
100
AcDbEntity
  8
VERMASSUNG
100
AcDbLine
 10
49.7378839849
 20
152.1613524975
 30
0.0
 11
49.7378839849
 21
157.9729775754
 31
0.0
  0
LINE
  5
21B
330
212
100
AcDbEntity
  8
VERMASSUNG
100
AcDbLine
 10
47.3584939991
 20
134.488890686
 30
0.0
 11
45.726122983
 21
157.8328837942
 31
0.0
  0
MTEXT
  5
21C
330
212
100
AcDbEntity
  8
VERMASSUNG
100
AcDbMText
 10
35.6671176248
 20
157.8974133573
 30
-44.8032682109
 40
2.0
 41
0.0
 71
     1
 72
     1
  1
4°
  7
SLDTEXTSTYLE0
 11
0.9797979206262935
 21
0.19999008659529
 31
0.0
 73
     1
 44
1.0
  0
ENDBLK
  5
214
330
212
100
AcDbEntity
  8
0
100
AcDbBlockEnd
  0
BLOCK
  5
21E
330
21D
100
AcDbEntity
  8
0
100
AcDbBlockBegin
  2
SW_CENTERMARKSYMBOL_0
 70
     0
 10
0.0
 20
0.0
 30
0.0
  3
SW_CENTERMARKSYMBOL_0
  1

  0
LINE
  5
220
330
21D
100
AcDbEntity
  8
VERMASSUNG
 62
     0
100
AcDbLine
 10
0.0
 20
0.0
 30
0.0
 11
0.0
 21
2.5
 31
0.0
  0
LINE
  5
221
330
21D
100
AcDbEntity
  8
VERMASSUNG
 62
     0
100
AcDbLine
 10
0.0
 20
0.0
 30
0.0
 11
-2.5
 21
0.0
 31
0.0
  0
LINE
  5
222
330
21D
100
AcDbEntity
  8
VERMASSUNG
 62
     0
100
AcDbLine
 10
0.0
 20
0.0
 30
0.0
 11
0.0
 21
-2.5
 31
0.0
  0
LINE
  5
223
330
21D
100
AcDbEntity
  8
VERMASSUNG
 62
     0
100
AcDbLine
 10
0.0
 20
0.0
 30
0.0
 11
2.5
 21
0.0
 31
0.0
  0
LINE
  5
224
330
21D
100
AcDbEntity
  8
VERMASSUNG
 62
     0
100
AcDbLine
 10
0.0
 20
5.0
 30
0.0
 11
0.0
 21
34.0
 31
0.0
  0
LINE
  5
225
330
21D
100
AcDbEntity
  8
VERMASSUNG
 62
     0
100
AcDbLine
 10
-5.0
 20
0.0
 30
0.0
 11
-34.0
 21
0.0
 31
0.0
  0
LINE
  5
226
330
21D
100
AcDbEntity
  8
VERMASSUNG
 62
     0
100
AcDbLine
 10
0.0
 20
-5.0
 30
0.0
 11
0.0
 21
-34.0
 31
0.0
  0
LINE
  5
227
330
21D
100
AcDbEntity
  8
VERMASSUNG
 62
     0
100
AcDbLine
 10
5.0
 20
0.0
 30
0.0
 11
34.0
 21
0.0
 31
0.0
  0
ENDBLK
  5
21F
330
21D
100
AcDbEntity
  8
0
100
AcDbBlockEnd
  0
ENDSEC
  0
SECTION
  2
ENTITIES
  0
MTEXT
  5
49
330
1F
100
AcDbEntity
  8
KOPF_DÜNN
100
AcDbMText
 10
13.8892156294
 20
23.8442973028
 30
0.0
 40
3.0
 41
0.0
 71
     1
 72
     1
  1
PS6.BDB.LQB.125
  7
SLDTEXTSTYLE0
 73
     1
 44
1.0
  0
MTEXT
  5
4A
330
1F
100
AcDbEntity
  8
VERMASSUNG
100
AcDbMText
 10
13.9329988022
 20
28.8834360957
 30
0.0
 40
3.0
 41
0.0
 71
     1
 72
     1
  1
Bohrstange links_Boring bar left
  7
SLDTEXTSTYLE0
 73
     1
 44
1.0
  0
MTEXT
  5
4B
330
1F
100
AcDbEntity
  8
VERMASSUNG
100
AcDbMText
 10
98.8601118557
 20
13.8365368179
 30
0.0
 40
2.0
 41
0.0
 71
     1
 72
     1
  1
Datum: 07.06.2012
  7
SLDTEXTSTYLE0
 73
     1
 44
1.0
  0
MTEXT
  5
4C
330
1F
100
AcDbEntity
  8
VERMASSUNG
100
AcDbMText
 10
13.933048693
 20
18.0482802738
 30
0.0
 40
2.0
 41
0.0
 71
     1
 72
     1
  1
PSC ø63 / Wp.: DC..11 T3..
  7
SLDTEXTSTYLE0
 73
     1
 44
1.0
  0
MTEXT
  5
4D
330
1F
100
AcDbEntity
  8
VERMASSUNG
100
AcDbMText
 10
13.9808475933
 20
13.9090973692
 30
0.0
 40
2.0
 41
0.0
 71
     1
 72
     1
  1
Gewicht: 1257g
  7
SLDTEXTSTYLE0
 73
     1
 44
1.0
  0
ARC
  5
4E
330
1F
100
AcDbEntity
  8
0
  6
Continuous
 62
     7
370
    15
100
AcDbCircle
 10
166.6988016457
 20
87.6613524975
 30
0.0
 40
1.000000000000057
100
AcDbArc
 50
270.0
 51
360.0
  0
ARC
  5
4F
330
1F
100
AcDbEntity
  8
0
  6
Continuous
 62
     7
370
    15
100
AcDbCircle
 10
166.6988016457
 20
148.6613524975
 30
0.0
 40
1.000000000000057
100
AcDbArc
 50
0.0
 51
90.0
  0
LINE
  5
50
330
1F
100
AcDbEntity
  8
0
  6
Continuous
 62
     7
370
    15
100
AcDbLine
 10
146.1988016695
 20
86.6613519909
 30
0.0
 11
166.6988013626
 21
86.6613519909
 31
0.0
  0
LINE
  5
51
330
1F
100
AcDbEntity
  8
0
  6
Continuous
 62
     7
370
    15
100
AcDbLine
 10
166.6988013626
 20
149.6613530041
 30
0.0
 11
146.1988016695
 21
149.6613530041
 31
0.0
  0
ARC
  5
52
330
1F
100
AcDbEntity
  8
0
  6
Continuous
 62
     7
370
    15
100
AcDbCircle
 10
146.1988016457
 20
87.1613524975
 30
0.0
 40
0.5000000000000568
100
AcDbArc
 50
180.0
 51
270.0
  0
ARC
  5
53
330
1F
100
AcDbEntity
  8
0
  6
Continuous
 62
     7
370
    15
100
AcDbCircle
 10
146.1988016457
 20
149.1613524975
 30
0.0
 40
0.5000000000000568
100
AcDbArc
 50
90.0
 51
180.0
  0
LWPOLYLINE
  5
54
330
1F
100
AcDbEntity
  8
0
  6
Continuous
 62
     7
370
    15
100
AcDbPolyline
 90
        3
 70
   128
 43
0.0
 10
145.4988016508
 20
95.6215319754
 10
145.624256586
 20
95.5532306404
 10
145.6988016457
 20
95.5004917057
  0
LWPOLYLINE
  5
55
330
1F
100
AcDbEntity
  8
0
  6
Continuous
 62
     7
370
    15
100
AcDbPolyline
 90
        3
 70
   128
 43
0.0
 10
145.6988016457
 20
140.8222132893
 10
145.624256586
 20
140.7694743545
 10
145.4988016508
 20
140.7011730196
  0
ARC
  5
56
330
1F
100
AcDbEntity
  8
0
  6
Continuous
 62
     7
370
    15
100
AcDbCircle
 10
171.6988016457
 20
98.1613524975
 30
0.0
 40
4.0
100
AcDbArc
 50
90.0
 51
180.0
  0
ARC
  5
57
330
1F
100
AcDbEntity
  8
0
  6
Continuous
 62
     7
370
    15
100
AcDbCircle
 10
171.6988016457
 20
138.1613524975
 30
0.0
 40
4.0
100
AcDbArc
 50
180.0
 51
270.0
  0
LINE
  5
58
330
1F
100
AcDbEntity
  8
0
  6
Continuous
 62
     7
370
    15
100
AcDbLine
 10
244.284586081
 20
134.1613532574
 30
0.0
 11
171.6988021822
 21
134.1613532574
 31
0.0
  0
LINE
  5
59
330
1F
100
AcDbEntity
  8
0
  6
Continuous
 62
     7
370
    15
100
AcDbLine
 10
171.6988021822
 20
102.1613517375
 30
0.0
 11
244.284586081
 21
102.1613517375
 31
0.0
  0
ARC
  5
5A
330
1F
100
AcDbEntity
  8
0
  6
Continuous
 62
     7
370
    15
100
AcDbCircle
 10
244.2845880833
 20
135.1613524975
 30
0.0
 40
0.9999999999999716
100
AcDbArc
 50
270.0
 51
315.0
  0
LINE
  5
5B
330
1F
100
AcDbEntity
  8
0
  6
Continuous
 62
     7
370
    15
100
AcDbLine
 10
245.1988021226
 20
134.6613524081
 30
0.0
 11
244.9916983337
 21
134.4542448939
 31
0.0
  0
LINE
  5
5C
330
1F
100
AcDbEntity
  8
0
  6
Continuous
 62
     7
370
    15
100
AcDbLine
 10
244.9916983337
 20
101.868460101
 30
0.0
 11
245.5100873799
 21
101.3500710548
 31
0.0
  0
LINE
  5
5D
330
1F
100
AcDbEntity
  8
0
  6
Continuous
 62
     7
370
    15
100
AcDbLine
 10
258.3229104371
 20
134.6613524081
 30
0.0
 11
245.1988021226
 21
134.6613524081
 31
0.0
  0
LINE
  5
5E
330
1F
100
AcDbEntity
  8
0
  6
Continuous
 62
     7
370
    15
100
AcDbLine
 10
264.7354463429
 20
103.4580656858
 30
0.0
 11
264.7354463429
 21
103.3659951361
 31
0.0
  0
LINE
  5
5F
330
1F
100
AcDbEntity
  8
0
  6
Continuous
 62
     7
370
    15
100
AcDbLine
 10
262.3222107381
 20
103.2712917374
 30
0.0
 11
262.3222107381
 21
103.3633324848
 31
0.0
  0
LINE
  5
60
330
1F
100
AcDbEntity
  8
0
  6
Continuous
 62
     7
370
    15
100
AcDbLine
 10
266.1525169701
 20
103.3343785973
 30
0.0
 11
266.1525169701
 21
103.3849214734
 31
0.0
  0
LINE
  5
61
330
1F
100
AcDbEntity
  8
0
  6
Continuous
 62
     7
370
    15
100
AcDbLine
 10
260.9025175066
 20
103.3849214734
 30
0.0
 11
260.9025175066
 21
103.3343785973
 31
0.0
  0
LINE
  5
62
330
1F
100
AcDbEntity
  8
0
  6
Continuous
 62
     7
370
    15
100
AcDbLine
 10
167.6988015265
 20
148.6613528402
 30
0.0
 11
167.6988015265
 21
87.6613521548
 31
0.0
  0
SPLINE
  5
63
330
1F
100
AcDbEntity
  8
0
  6
Continuous
 62
     7
370
    15
100
AcDbSpline
210
0.0
220
0.0
230
1.0
 70
     8
 71
     3
 72
    12
 73
     8
 74
     0
 42
0.00000001
 43
0.00000001
 12
1.0
 22
0.0
 32
0.0
 13
1.0
 23
0.0
 33
0.0
 40
0.0
 40
0.0
 40
0.0
 40
0.0
 40
0.2499999999999977
 40
0.2499999999999977
 40
0.4999999999999954
 40
0.4999999999999954
 40
1.0
 40
1.0
 40
1.0
 40
1.0
 10
156.2265584592859
 20
127.5494189288258
 30
0.0
 10
156.1634784207926
 20
127.5494189288258
 30
0.0
 10
156.1043297986112
 20
127.5747832480409
 30
0.0
 10
156.0058572485422
 20
127.6489481084138
 30
0.0
 10
155.9668206365574
 20
127.6954684489679
 30
0.0
 10
155.8669241697785
 20
127.8456107918131
 30
0.0
 10
155.8245032887117
 20
127.9573039987852
 30
0.0
 10
155.7935457573937
 20
128.070721818175
 30
0.0
  0
LINE
  5
64
330
1F
100
AcDbEntity
  8
0
  6
Continuous
 62
     7
370
    15
100
AcDbLine
 10
159.1710448579
 20
127.5494193257
 30
0.0
 11
156.2265586422
 21
127.5494193257
 31
0.0
  0
SPLINE
  5
65
330
1F
100
AcDbEntity
  8
0
  6
Continuous
 62
     7
370
    15
100
AcDbSpline
210
0.0
220
0.0
230
1.0
 70
     8
 71
     3
 72
    12
 73
     8
 74
     0
 42
0.00000001
 43
0.00000001
 12
1.0
 22
0.0
 32
0.0
 13
1.0
 23
0.0
 33
0.0
 40
0.0
 40
0.0
 40
0.0
 40
0.0
 40
0.4999999999999981
 40
0.4999999999999981
 40
0.749999999999999
 40
0.749999999999999
 40
1.0
 40
1.0
 40
1.0
 40
1.0
 10
159.6040575340452
 20
128.070721818175
 30
0.0
 10
159.5733352921262
 20
127.9581660187658
 30
0.0
 10
159.5304980775909
 20
127.8454081590263
 30
0.0
 10
159.4310710533911
 20
127.6958672732299
 30
0.0
 10
159.3913188585745
 20
127.6485745415231
 30
0.0
 10
159.2932774017163
 20
127.5748382482016
 30
0.0
 10
159.2337213461289
 20
127.5494189288259
 30
0.0
 10
159.1710448321531
 20
127.5494189288259
 30
0.0
  0
ELLIPSE
  5
66
330
1F
100
AcDbEntity
  8
0
  6
Continuous
 62
     7
370
    15
100
AcDbEllipse
 10
143.3516474564
 20
118.1613524975
 30
0.0
 11
14.75368316065601
 21
31.09325491558118
 31
0.0
210
0.0
220
0.0
230
1.0
 40
0.3419987131
 41
5.193281737408617
 42
6.124043104552324
  0
SPLINE
  5
67
330
1F
100
AcDbEntity
  8
0
  6
Continuous
 62
     7
370
    15
100
AcDbSpline
210
0.0
220
0.0
230
1.0
 70
     8
 71
     3
 72
    12
 73
     8
 74
     0
 42
0.00000001
 43
0.00000001
 12
1.0
 22
0.0
 32
0.0
 13
1.0
 23
0.0
 33
0.0
 40
0.0
 40
0.0
 40
0.0
 40
0.0
 40
0.2500000000000004
 40
0.2500000000000004
 40
0.5000000000000009
 40
0.5000000000000009
 40
1.0
 40
1.0
 40
1.0
 40
1.0
 10
159.1710448321531
 20
148.2298444563631
 30
0.0
 10
159.2341248706464
 20
148.2298444563631
 30
0.0
 10
159.2932734928277
 20
148.2219385301505
 30
0.0
 10
159.3917460428968
 20
148.1986133687143
 30
0.0
 10
159.4307826548815
 20
148.1839005788826
 30
0.0
 10
159.5306791216606
 20
148.1359447781517
 30
0.0
 10
159.5731000027272
 20
148.0996826215716
 30
0.0
 10
159.6040575340452
 20
148.0620949576071
 30
0.0
  0
LINE
  5
68
330
1F
100
AcDbEntity
  8
0
  6
Continuous
 62
     7
370
    15
100
AcDbLine
 10
156.2265586422
 20
148.2298450144
 30
0.0
 11
159.1710448579
 21
148.2298450144
 31
0.0
  0
SPLINE
  5
69
330
1F
100
AcDbEntity
  8
0
  6
Continuous
 62
     7
370
    15
100
AcDbSpline
210
0.0
220
0.0
230
1.0
 70
     8
 71
     3
 72
    12
 73
     8
 74
     0
 42
0.00000001
 43
0.00000001
 12
1.0
 22
0.0
 32
0.0
 13
1.0
 23
0.0
 33
0.0
 40
0.0
 40
0.0
 40
0.0
 40
0.0
 40
0.500000000000001
 40
0.500000000000001
 40
0.7500000000000004
 40
0.7500000000000004
 40
1.0
 40
1.0
 40
1.0
 40
1.0
 10
155.7935457573937
 20
148.0620949576071
 30
0.0
 10
155.8242679993129
 20
148.0993969405602
 30
0.0
 10
155.867105213848
 20
148.1360087726066
 30
0.0
 10
155.9665322380479
 20
148.1837735558918
 30
0.0
 10
156.0062844328644
 20
148.1987310713741
 30
0.0
 10
156.1043258897227
 20
148.2219210171432
 30
0.0
 10
156.1638819453101
 20
148.2298444563631
 30
0.0
 10
156.2265584592859
 20
148.2298444563631
 30
0.0
  0
ELLIPSE
  5
6A
330
1F
100
AcDbEntity
  8
0
  6
Continuous
 62
     7
370
    15
100
AcDbEllipse
 10
172.0459558351
 20
118.1613524975
 30
0.0
 11
-14.75368316065604
 21
31.09325491558118
 31
0.0
210
0.0
220
0.0
230
1.0
 40
0.3419987131
 41
0.1591422026273057
 42
1.089903569770981
  0
SPLINE
  5
6B
330
1F
100
AcDbEntity
  8
0
  6
Continuous
 62
     7
370
    15
100
AcDbSpline
210
0.0
220
0.0
230
1.0
 70
     8
 71
     3
 72
    12
 73
     8
 74
     0
 42
0.00000001
 43
0.00000001
 12
1.0
 22
0.0
 32
0.0
 13
1.0
 23
0.0
 33
0.0
 40
0.0
 40
0.0
 40
0.0
 40
0.0
 40
0.2499999999999986
 40
0.2499999999999986
 40
0.4999999999999972
 40
0.4999999999999972
 40
1.0
 40
1.0
 40
1.0
 40
1.0
 10
156.226558459286
 20
88.09286053861678
 30
0.0
 10
156.1635015043882
 20
88.09286053861676
 30
0.0
 10
156.1043713546426
 20
88.10076086969642
 30
0.0
 10
156.0059238041093
 20
88.12407161770147
 30
0.0
 10
155.9668915659212
 20
88.1387767439851
 30
0.0
 10
155.8670016814643
 20
88.18671027217175
 30
0.0
 10
155.8247027078549
 20
88.2227802449364
 30
0.0
 10
155.7935457573936
 20
88.26061003737262
 30
0.0
  0
LINE
  5
6C
330
1F
100
AcDbEntity
  8
0
  6
Continuous
 62
     7
370
    15
100
AcDbLine
 10
159.1710448579
 20
88.0928599806
 30
0.0
 11
156.2265586422
 21
88.0928599806
 31
0.0
  0
SPLINE
  5
6D
330
1F
100
AcDbEntity
  8
0
  6
Continuous
 62
     7
370
    15
100
AcDbSpline
210
0.0
220
0.0
230
1.0
 70
     8
 71
     3
 72
    12
 73
     8
 74
     0
 42
0.00000001
 43
0.00000001
 12
1.0
 22
0.0
 32
0.0
 13
1.0
 23
0.0
 33
0.0
 40
0.0
 40
0.0
 40
0.0
 40
0.0
 40
0.4999999999999973
 40
0.4999999999999973
 40
0.7499999999999987
 40
0.7499999999999987
 40
1.0
 40
1.0
 40
1.0
 40
1.0
 10
159.6040575340453
 20
88.26061003737263
 30
0.0
 10
159.5729123360832
 20
88.22279451445242
 30
0.0
 10
159.5306380697486
 20
88.18672765636892
 30
0.0
 10
159.4306925359234
 20
88.13876759135762
 30
0.0
 10
159.3909622312193
 20
88.12390661746001
 30
0.0
 10
159.2940741812131
 20
88.10095547132886
 30
0.0
 10
159.2340089394666
 20
88.0928605386167
 30
0.0
 10
159.1710448321531
 20
88.0928605386167
 30
0.0
  0
ELLIPSE
  5
6E
330
1F
100
AcDbEntity
  8
0
  6
Continuous
 62
     7
370
    15
100
AcDbEllipse
 10
143.3516474564
 20
118.1613524975
 30
0.0
 11
-14.75368316065615
 21
31.09325491558118
 31
0.0
210
0.0
220
0.0
230
1.0
 40
0.3419987131
 41
3.300734856217121
 42
4.231496223360773
  0
SPLINE
  5
6F
330
1F
100
AcDbEntity
  8
0
  6
Continuous
 62
     7
370
    15
100
AcDbSpline
210
0.0
220
0.0
230
1.0
 70
     8
 71
     3
 72
    12
 73
     8
 74
     0
 42
0.00000001
 43
0.00000001
 12
1.0
 22
0.0
 32
0.0
 13
1.0
 23
0.0
 33
0.0
 40
0.0
 40
0.0
 40
0.0
 40
0.0
 40
0.2500000000000018
 40
0.2500000000000018
 40
0.5000000000000037
 40
0.5000000000000037
 40
1.0
 40
1.0
 40
1.0
 40
1.0
 10
159.1710448321531
 20
108.7732860661537
 30
0.0
 10
159.2341017870508
 20
108.7732860661537
 30
0.0
 10
159.2932319367963
 20
108.7479397127729
 30
0.0
 10
159.3916794873297
 20
108.6738203306335
 30
0.0
 10
159.4307117255177
 20
108.6273238159355
 30
0.0
 10
159.5306016099747
 20
108.4772493089269
 30
0.0
 10
159.5729005835841
 20
108.3661315998121
 30
0.0
 10
159.6040575340453
 20
108.2519831768046
 30
0.0
  0
LINE
  5
70
330
1F
100
AcDbEntity
  8
0
  6
Continuous
 62
     7
370
    15
100
AcDbLine
 10
156.2265586422
 20
108.7732856692
 30
0.0
 11
159.1710448579
 21
108.7732856692
 31
0.0
  0
SPLINE
  5
71
330
1F
100
AcDbEntity
  8
0
  6
Continuous
 62
     7
370
    15
100
AcDbSpline
210
0.0
220
0.0
230
1.0
 70
     8
 71
     3
 72
    12
 73
     8
 74
     0
 42
0.00000001
 43
0.00000001
 12
1.0
 22
0.0
 32
0.0
 13
1.0
 23
0.0
 33
0.0
 40
0.0
 40
0.0
 40
0.0
 40
0.0
 40
0.5
 40
0.5
 40
0.75
 40
0.75
 40
1.0
 40
1.0
 40
1.0
 40
1.0
 10
155.7935457573937
 20
108.2519831768046
 30
0.0
 10
155.8246909553558
 20
108.3660885426699
 30
0.0
 10
155.8669652216903
 20
108.4771948698887
 30
0.0
 10
155.9669107555156
 20
108.6273524773189
 30
0.0
 10
156.0066410602197
 20
108.6743451689362
 30
0.0
 10
156.1035291102259
 20
108.7473207534747
 30
0.0
 10
156.1635943519724
 20
108.7732860661538
 30
0.0
 10
156.2265584592859
 20
108.7732860661538
 30
0.0
  0
ELLIPSE
  5
72
330
1F
100
AcDbEntity
  8
0
  6
Continuous
 62
     7
370
    15
100
AcDbEllipse
 10
172.0459558351
 20
118.1613524975
 30
0.0
 11
14.75368316065615
 21
31.09325491558118
 31
0.0
210
0.0
220
0.0
230
1.0
 40
0.3419987131
 41
2.051689083818825
 42
2.982450450962502
  0
LINE
  5
73
330
1F
100
AcDbEntity
  8
0
  6
Continuous
 62
     7
370
    15
100
AcDbLine
 10
145.6988016457
 20
87.1613530041
 30
0.0
 11
145.6988016457
 21
149.1613519909
 31
0.0
  0
SPLINE
  5
74
330
1F
100
AcDbEntity
  8
0
  6
Continuous
 62
     7
370
    15
100
AcDbSpline
210
0.0
220
0.0
230
1.0
 70
     8
 71
     3
 72
    12
 73
     8
 74
     0
 42
0.00000001
 43
0.00000001
 12
1.0
 22
0.0
 32
0.0
 13
1.0
 23
0.0
 33
0.0
 40
0.0
 40
0.0
 40
0.0
 40
0.0
 40
0.4999999999999998
 40
0.4999999999999998
 40
0.7499999999999999
 40
0.7499999999999999
 40
1.0
 40
1.0
 40
1.0
 40
1.0
 10
144.882289359263
 20
96.30655879501414
 30
0.0
 10
144.9387258601702
 20
96.30514091367239
 30
0.0
 10
145.0078104908589
 20
96.30357657742408
 30
0.0
 10
145.1266127625769
 20
96.30063238544965
 30
0.0
 10
145.1667980380469
 20
96.29959418235227
 30
0.0
 10
145.2401790854508
 20
96.29766028713763
 30
0.0
 10
145.2735886491934
 20
96.29676539984881
 30
0.0
 10
145.3038247568498
 20
96.29598160957647
 30
0.0
  0
SPLINE
  5
75
330
1F
100
AcDbEntity
  8
0
  6
Continuous
 62
     7
370
    15
100
AcDbSpline
210
0.0
220
0.0
230
1.0
 70
     8
 71
     3
 72
    16
 73
    12
 74
     0
 42
0.00000001
 43
0.00000001
 12
1.0
 22
0.0
 32
0.0
 13
1.0
 23
0.0
 33
0.0
 40
0.0
 40
0.0
 40
0.0
 40
0.0
 40
0.0625000000000001
 40
0.0625000000000001
 40
0.1250000000000002
 40
0.1250000000000002
 40
0.2500000000000003
 40
0.2500000000000003
 40
0.4999999999999989
 40
0.4999999999999989
 40
1.0
 40
1.0
 40
1.0
 40
1.0
 10
145.3038247568126
 20
96.29598160960073
 30
0.0
 10
145.3154051644005
 20
96.29568141848938
 30
0.0
 10
145.3287146911618
 20
96.29435367023038
 30
0.0
 10
145.358016121248
 20
96.28765499545537
 30
0.0
 10
145.3728302211324
 20
96.28229681234964
 30
0.0
 10
145.4086586228352
 20
96.2652511631823
 30
0.0
 10
145.4227782471982
 20
96.25378862540657
 30
0.0
 10
145.4572823912867
 20
96.22222530003432
 30
0.0
 10
145.4683869419913
 20
96.20432800098907
 30
0.0
 10
145.4945631192075
 20
96.15416658337482
 30
0.0
 10
145.4988016457195
 20
96.12642217117825
 30
0.0
 10
145.4988016457195
 20
96.10175800924871
 30
0.0
  0
LINE
  5
76
330
1F
100
AcDbEntity
  8
0
  6
Continuous
 62
     7
370
    15
100
AcDbLine
 10
145.4988016508
 20
111.1394652696
 30
0.0
 11
145.4988016508
 21
95.6215319754
 31
0.0
  0
SPLINE
  5
77
330
1F
100
AcDbEntity
  8
0
  6
Continuous
 62
     7
370
    15
100
AcDbSpline
210
0.0
220
0.0
230
1.0
 70
     8
 71
     3
 72
    16
 73
    12
 74
     0
 42
0.00000001
 43
0.00000001
 12
1.0
 22
0.0
 32
0.0
 13
1.0
 23
0.0
 33
0.0
 40
0.0
 40
0.0
 40
0.0
 40
0.0
 40
0.4999999999999969
 40
0.4999999999999969
 40
0.7499999999999971
 40
0.7499999999999971
 40
0.8749999999999981
 40
0.8749999999999981
 40
0.937499999999999
 40
0.937499999999999
 40
1.0
 40
1.0
 40
1.0
 40
1.0
 10
145.4988016457195
 20
111.1394651717399
 30
0.0
 10
145.4988016457195
 20
111.2531577158678
 30
0.0
 10
145.4946553706415
 20
111.3674778772173
 30
0.0
 10
145.468689775248
 20
111.5405261677144
 30
0.0
 10
145.4572288698706
 20
111.5997016748761
 30
0.0
 10
145.4229171320963
 20
111.6828247943442
 30
0.0
 10
145.4088923961667
 20
111.7109461104449
 30
0.0
 10
145.3728694331329
 20
111.7395619244224
 30
0.0
 10
145.3581149240432
 20
111.7453549723242
 30
0.0
 10
145.3287627628963
 20
111.7437615463872
 30
0.0
 10
145.3154228883922
 20
111.7372651430634
 30
0.0
 10
145.3038247568438
 20
111.7287493968602
 30
0.0
  0
SPLINE
  5
78
330
1F
100
AcDbEntity
  8
0
  6
Continuous
 62
     7
370
    15
100
AcDbSpline
210
0.0
220
0.0
230
1.0
 70
     8
 71
     3
 72
    12
 73
     8
 74
     0
 42
0.00000001
 43
0.00000001
 12
1.0
 22
0.0
 32
0.0
 13
1.0
 23
0.0
 33
0.0
 40
0.0
 40
0.0
 40
0.0
 40
0.0
 40
0.2500000000000003
 40
0.2500000000000003
 40
0.5000000000000007
 40
0.5000000000000007
 40
1.0
 40
1.0
 40
1.0
 40
1.0
 10
145.3038247568509
 20
111.7287493968511
 30
0.0
 10
145.2736263154102
 20
111.706576664806
 30
0.0
 10
145.2402589600743
 20
111.6874970089288
 30
0.0
 10
145.1671036842444
 20
111.6623239644861
 30
0.0
 10
145.1268509852204
 20
111.6567674280693
 30
0.0
 10
145.0091222419456
 20
111.6676792390561
 30
0.0
 10
144.9386637938867
 20
111.7096149944669
 30
0.0
 10
144.8822893592684
 20
111.7588267768484
 30
0.0
  0
SPLINE
  5
79
330
1F
100
AcDbEntity
  8
0
  6
Continuous
 62
     7
370
    15
100
AcDbSpline
210
0.0
220
0.0
230
1.0
 70
     8
 71
     3
 72
    12
 73
     8
 74
     0
 42
0.00000001
 43
0.00000001
 12
1.0
 22
0.0
 32
0.0
 13
1.0
 23
0.0
 33
0.0
 40
0.0
 40
0.0
 40
0.0
 40
0.0
 40
0.5
 40
0.5
 40
0.75
 40
0.75
 40
1.0
 40
1.0
 40
1.0
 40
1.0
 10
144.3774813021598
 20
112.9751781687289
 30
0.0
 10
144.4212316540443
 20
112.7547311837544
 30
0.0
 10
144.4741218051687
 20
112.5391861939488
 30
0.0
 10
144.5857333483104
 20
112.2267721173769
 30
0.0
 10
144.628292692214
 20
112.124692641761
 30
0.0
 10
144.7332699275514
 20
111.9302526291192
 30
0.0
 10
144.794837170646
 20
111.8351677300556
 30
0.0
 10
144.8822893592683
 20
111.7588267768484
 30
0.0
  0
SPLINE
  5
7A
330
1F
100
AcDbEntity
  8
0
  6
Continuous
 62
     7
370
    15
100
AcDbSpline
210
0.0
220
0.0
230
1.0
 70
     8
 71
     3
 72
    12
 73
     8
 74
     0
 42
0.00000001
 43
0.00000001
 12
1.0
 22
0.0
 32
0.0
 13
1.0
 23
0.0
 33
0.0
 40
0.0
 40
0.0
 40
0.0
 40
0.0
 40
0.25
 40
0.25
 40
0.5
 40
0.5
 40
1.0
 40
1.0
 40
1.0
 40
1.0
 10
144.8822893592682
 20
124.5638782181316
 30
0.0
 10
144.7937959517004
 20
124.4866283380233
 30
0.0
 10
144.7337379109345
 20
124.393309014134
 30
0.0
 10
144.6278896379519
 20
124.1972759611646
 30
0.0
 10
144.5853561166744
 20
124.0949496029528
 30
0.0
 10
144.4742048098508
 20
123.7836051971769
 30
0.0
 10
144.421273952803
 20
123.5681869439989
 30
0.0
 10
144.3774813021598
 20
123.3475268262511
 30
0.0
  0
SPLINE
  5
7B
330
1F
100
AcDbEntity
  8
0
  6
Continuous
 62
     7
370
    15
100
AcDbSpline
210
0.0
220
0.0
230
1.0
 70
     8
 71
     3
 72
    12
 73
     8
 74
     0
 42
0.00000001
 43
0.00000001
 12
1.0
 22
0.0
 32
0.0
 13
1.0
 23
0.0
 33
0.0
 40
0.0
 40
0.0
 40
0.0
 40
0.0
 40
0.5000000000000002
 40
0.5000000000000002
 40
0.75
 40
0.75
 40
1.0
 40
1.0
 40
1.0
 40
1.0
 10
144.8822893592683
 20
124.5638782181315
 30
0.0
 10
144.938597907564
 20
124.6130324853753
 30
0.0
 10
145.008872568282
 20
124.654989803979
 30
0.0
 10
145.1269104826056
 20
124.6659494815114
 30
0.0
 10
145.1670867234595
 20
124.6604407232641
 30
0.0
 10
145.2410438181374
 20
124.6348834944752
 30
0.0
 10
145.2736602058489
 20
124.6161034466359
 30
0.0
 10
145.3038247568446
 20
124.5939555981192
 30
0.0
  0
SPLINE
  5
7C
330
1F
100
AcDbEntity
  8
0
  6
Continuous
 62
     7
370
    15
100
AcDbSpline
210
0.0
220
0.0
230
1.0
 70
     8
 71
     3
 72
    16
 73
    12
 74
     0
 42
0.00000001
 43
0.00000001
 12
1.0
 22
0.0
 32
0.0
 13
1.0
 23
0.0
 33
0.0
 40
0.0
 40
0.0
 40
0.0
 40
0.0
 40
0.0624999999999991
 40
0.0624999999999991
 40
0.1249999999999982
 40
0.1249999999999982
 40
0.2499999999999976
 40
0.2499999999999976
 40
0.4999999999999996
 40
0.4999999999999996
 40
1.0
 40
1.0
 40
1.0
 40
1.0
 10
145.3038247568129
 20
124.5939555980647
 30
0.0
 10
145.3154376566522
 20
124.5854290084694
 30
0.0
 10
145.3287888410847
 20
124.5789287469366
 30
0.0
 10
145.3581886807039
 20
124.5773593498191
 30
0.0
 10
145.3730294052592
 20
124.5832427404497
 30
0.0
 10
145.4088626132278
 20
124.6117903765003
 30
0.0
 10
145.4229758210494
 20
124.6399573958061
 30
0.0
 10
145.4574671922683
 20
124.723711654228
 30
0.0
 10
145.4685512633787
 20
124.7814250678495
 30
0.0
 10
145.4946740811747
 20
124.9550156044953
 30
0.0
 10
145.4988016457195
 20
125.0700436571372
 30
0.0
 10
145.4988016457195
 20
125.1832398232401
 30
0.0
  0
LINE
  5
7D
330
1F
100
AcDbEntity
  8
0
  6
Continuous
 62
     7
370
    15
100
AcDbLine
 10
145.4988016508
 20
140.7011730196
 30
0.0
 11
145.4988016508
 21
125.1832397254
 31
0.0
  0
SPLINE
  5
7E
330
1F
100
AcDbEntity
  8
0
  6
Continuous
 62
     7
370
    15
100
AcDbSpline
210
0.0
220
0.0
230
1.0
 70
     8
 71
     3
 72
    16
 73
    12
 74
     0
 42
0.00000001
 43
0.00000001
 12
1.0
 22
0.0
 32
0.0
 13
1.0
 23
0.0
 33
0.0
 40
0.0
 40
0.0
 40
0.0
 40
0.0
 40
0.5
 40
0.5
 40
0.7499999999999982
 40
0.7499999999999982
 40
0.8749999999999973
 40
0.8749999999999973
 40
0.9374999999999987
 40
0.9374999999999987
 40
1.0
 40
1.0
 40
1.0
 40
1.0
 10
145.4988016457195
 20
140.2209469857313
 30
0.0
 10
145.4988016457195
 20
140.1962758296883
 30
0.0
 10
145.4946359472595
 20
140.1686939982971
 30
0.0
 10
145.4683776189346
 20
140.1183511274738
 30
0.0
 10
145.456873837197
 20
140.1000616294119
 30
0.0
 10
145.4227430778505
 20
140.0689065983748
 30
0.0
 10
145.4083211911798
 20
140.0572672231631
 30
0.0
 10
145.3727542227419
 20
140.040385197232
 30
0.0
 10
145.3578024544473
 20
140.0349960934244
 30
0.0
 10
145.3287986360875
 20
140.0283755974799
 30
0.0
 10
145.3153832820782
 20
140.0270230092734
 30
0.0
 10
145.3038247568416
 20
140.0267233854018
 30
0.0
  0
SPLINE
  5
7F
330
1F
100
AcDbEntity
  8
0
  6
Continuous
 62
     7
370
    15
100
AcDbSpline
210
0.0
220
0.0
230
1.0
 70
     8
 71
     3
 72
    12
 73
     8
 74
     0
 42
0.00000001
 43
0.00000001
 12
1.0
 22
0.0
 32
0.0
 13
1.0
 23
0.0
 33
0.0
 40
0.0
 40
0.0
 40
0.0
 40
0.0
 40
0.2499999999999999
 40
0.2499999999999999
 40
0.5000000000000001
 40
0.5000000000000001
 40
1.0
 40
1.0
 40
1.0
 40
1.0
 10
145.3038247568509
 20
140.0267233854035
 30
0.0
 10
145.2736369803012
 20
140.0259408479859
 30
0.0
 10
145.2402831762096
 20
140.0250475161674
 30
0.0
 10
145.1671569730136
 20
140.0231202073639
 30
0.0
 10
145.1269217699894
 20
140.0220806761512
 30
0.0
 10
145.0092301398564
 20
140.0191627928039
 30
0.0
 10
144.9388494666963
 20
140.0175671867337
 30
0.0
 10
144.8822893592657
 20
140.0161461999658
 30
0.0
  0
SPLINE
  5
80
330
1F
100
AcDbEntity
  8
0
  6
Continuous
 62
     7
370
    15
100
AcDbSpline
210
0.0
220
0.0
230
1.0
 70
     8
 71
     3
 72
    16
 73
    12
 74
     0
 42
0.00000001
 43
0.00000001
 12
1.0
 22
0.0
 32
0.0
 13
1.0
 23
0.0
 33
0.0
 40
0.0
 40
0.0
 40
0.0
 40
0.0
 40
0.2499999999999999
 40
0.2499999999999999
 40
0.3749999999999999
 40
0.3749999999999999
 40
0.4999999999999999
 40
0.4999999999999999
 40
0.7499999999999999
 40
0.7499999999999999
 40
1.0
 40
1.0
 40
1.0
 40
1.0
 10
144.3774813021598
 20
123.3475268262511
 30
0.0
 10
144.2162488246753
 20
122.5351170510042
 30
0.0
 10
144.0957689850357
 20
121.6950387566195
 30
0.0
 10
143.9733884677224
 20
120.3937437072567
 30
0.0
 10
143.942410807325
 20
119.953062671672
 30
0.0
 10
143.900797069697
 20
119.0572230307408
 30
0.0
 10
143.8905611567642
 20
118.6105648995384
 30
0.0
 10
143.8903727597081
 20
117.2752549423985
 30
0.0
 10
143.9305174623457
 20
116.3907595690909
 30
0.0
 10
144.0946712172853
 20
114.6335096810649
 30
0.0
 10
144.2162228676948
 20
113.7877187346518
 30
0.0
 10
144.3774813021598
 20
112.9751781687289
 30
0.0
  0
LINE
  5
81
330
1F
100
AcDbEntity
  8
0
  6
Continuous
 62
     7
370
    15
100
AcDbLine
 10
143.4988016576
 20
124.6465306328
 30
0.0
 11
143.4988016576
 21
111.6761743622
 31
0.0
  0
LINE
  5
82
330
1F
100
AcDbEntity
  8
0
  6
Continuous
 62
     7
370
    15
100
AcDbLine
 10
109.1988021822
 20
124.2156630912
 30
0.0
 11
109.1988021822
 21
112.1070419037
 31
0.0
  0
LINE
  5
83
330
1F
100
AcDbEntity
  8
0
  6
Continuous
 62
     7
370
    15
100
AcDbLine
 10
107.6988028676
 20
123.7826502481
 30
0.0
 11
107.6988028676
 21
112.5400547469
 31
0.0
  0
LINE
  5
84
330
1F
100
AcDbEntity
  8
0
  6
Continuous
 62
     7
370
    15
100
AcDbLine
 10
143.4988016576
 20
96.1412528129
 30
0.0
 11
143.4988016576
 21
111.6761743622
 31
0.0
  0
ARC
  5
85
330
1F
100
AcDbEntity
  8
0
  6
Continuous
 62
     7
370
    15
100
AcDbCircle
 10
143.6987385567
 20
96.1362306018
 30
0.0
 40
0.2000000000000066
100
AcDbArc
 50
88.5608333333
 51
178.5608333333
  0
LINE
  5
86
330
1F
100
AcDbEntity
  8
0
  6
Continuous
 62
     7
370
    15
100
AcDbLine
 10
109.1988021822
 20
97.0029888274
 30
0.0
 11
109.1988021822
 21
112.1070419037
 31
0.0
  0
LINE
  5
87
330
1F
100
AcDbEntity
  8
0
  6
Continuous
 62
     7
370
    15
100
AcDbLine
 10
109.1988021822
 20
97.0029888274
 30
0.0
 11
143.4988016576
 21
96.1412528129
 31
0.0
  0
LINE
  5
88
330
1F
100
AcDbEntity
  8
0
  6
Continuous
 62
     7
370
    15
100
AcDbLine
 10
143.4988016576
 20
124.6465306328
 30
0.0
 11
143.4988016576
 21
140.1814521821
 31
0.0
  0
ARC
  5
89
330
1F
100
AcDbEntity
  8
0
  6
Continuous
 62
     7
370
    15
100
AcDbCircle
 10
143.6987385567
 20
140.1864743932
 30
0.0
 40
0.2000000000000059
100
AcDbArc
 50
181.4391666667
 51
271.4391666667
  0
LINE
  5
8A
330
1F
100
AcDbEntity
  8
0
  6
Continuous
 62
     7
370
    15
100
AcDbLine
 10
109.1988021822
 20
124.2156630912
 30
0.0
 11
109.1988021822
 21
139.3197161676
 31
0.0
  0
LINE
  5
8B
330
1F
100
AcDbEntity
  8
0
  6
Continuous
 62
     7
370
    15
100
AcDbLine
 10
109.1988021822
 20
139.3197161676
 30
0.0
 11
143.4988016576
 21
140.1814521821
 31
0.0
  0
LINE
  5
8C
330
1F
100
AcDbEntity
  8
0
  6
Continuous
 62
     7
370
    15
100
AcDbLine
 10
143.7037617748
 20
139.9865375431
 30
0.0
 11
144.8822893749
 21
140.0161461504
 31
0.0
  0
LINE
  5
8D
330
1F
100
AcDbEntity
  8
0
  6
Continuous
 62
     7
370
    15
100
AcDbLine
 10
143.7037617748
 20
96.3361674519
 30
0.0
 11
144.8822893749
 21
96.3065588446
 31
0.0
  0
LINE
  5
8E
330
1F
100
AcDbEntity
  8
0
  6
Continuous
 62
     7
370
    15
100
AcDbLine
 10
107.6988028676
 20
97.8690145136
 30
0.0
 11
109.1988021822
 21
97.0029888274
 31
0.0
  0
LINE
  5
8F
330
1F
100
AcDbEntity
  8
0
  6
Continuous
 62
     7
370
    15
100
AcDbLine
 10
107.6988028676
 20
97.8690145136
 30
0.0
 11
107.6988028676
 21
112.5400547469
 31
0.0
  0
LINE
  5
90
330
1F
100
AcDbEntity
  8
0
  6
Continuous
 62
     7
370
    15
100
AcDbLine
 10
107.6988028676
 20
138.4536904813
 30
0.0
 11
109.1988021822
 21
139.3197161676
 31
0.0
  0
LINE
  5
91
330
1F
100
AcDbEntity
  8
0
  6
Continuous
 62
     7
370
    15
100
AcDbLine
 10
107.6988028676
 20
123.7826502481
 30
0.0
 11
107.6988028676
 21
138.4536904813
 31
0.0
  0
LINE
  5
92
330
1F
100
AcDbEntity
  8
0
  6
Continuous
 62
     7
370
    15
100
AcDbLine
 10
240.0007853598
 20
133.9886618377
 30
0.0
 11
244.284586081
 21
133.9886618377
 31
0.0
  0
SPLINE
  5
93
330
1F
100
AcDbEntity
  8
0
  6
Continuous
 62
     7
370
    15
100
AcDbSpline
210
0.0
220
0.0
230
1.0
 70
     8
 71
     3
 72
    14
 73
    10
 74
     0
 42
0.00000001
 43
0.00000001
 12
1.0
 22
0.0
 32
0.0
 13
1.0
 23
0.0
 33
0.0
 40
0.0
 40
0.0
 40
0.0
 40
0.0
 40
0.25
 40
0.25
 40
0.5
 40
0.5
 40
0.75
 40
0.75
 40
1.0
 40
1.0
 40
1.0
 40
1.0
 10
237.1030051307892
 20
133.503877960827
 30
0.0
 10
237.1870377904628
 20
133.5950099315484
 30
0.0
 10
237.3191360067309
 20
133.6707155503001
 30
0.0
 10
237.6824192801062
 20
133.7980546663355
 30
0.0
 10
237.9047081800943
 20
133.8465187593374
 30
0.0
 10
238.4274085929623
 20
133.9219059145104
 30
0.0
 10
238.7169784320987
 20
133.9472979993607
 30
0.0
 10
239.3428946368422
 20
133.9809361430389
 30
0.0
 10
239.6687043428537
 20
133.9886624034817
 30
0.0
 10
240.0007826096564
 20
133.9886624034817
 30
0.0
  0
ELLIPSE
  5
94
330
1F
100
AcDbEntity
  8
0
  6
Continuous
 62
     7
370
    15
100
AcDbEllipse
 10
238.0296230857
 20
118.1613524975
 30
0.0
 11
0.3220561513868745
 21
15.99976859320063
 31
0.0
210
0.0
220
0.0
230
1.0
 40
0.2671959542
 41
0.2930472284706225
 42
2.998928329720208
  0
SPLINE
  5
95
330
1F
100
AcDbEntity
  8
0
  6
Continuous
 62
     7
370
    15
100
AcDbSpline
210
0.0
220
0.0
230
1.0
 70
     8
 71
     3
 72
    14
 73
    10
 74
     0
 42
0.00000001
 43
0.00000001
 12
1.0
 22
0.0
 32
0.0
 13
1.0
 23
0.0
 33
0.0
 40
0.0
 40
0.0
 40
0.0
 40
0.0
 40
0.25
 40
0.25
 40
0.5
 40
0.5
 40
0.75
 40
0.75
 40
1.0
 40
1.0
 40
1.0
 40
1.0
 10
240.0007826096563
 20
102.1617939880594
 30
0.0
 10
239.6687070354362
 20
102.1617939880594
 30
0.0
 10
239.3457860301773
 20
102.1619231581441
 30
0.0
 10
238.7182109066293
 20
102.1656864736327
 30
0.0
 10
238.4295128351551
 20
102.1692953379084
 30
0.0
 10
237.9062793583776
 20
102.188266291701
 30
0.0
 10
237.6834399574697
 20
102.2033494286136
 30
0.0
 10
237.3204716358759
 20
102.2540955736609
 30
0.0
 10
237.1870401685575
 20
102.2889853354649
 30
0.0
 10
237.1030051307892
 20
102.3363654117944
 30
0.0
  0
LINE
  5
96
330
1F
100
AcDbEntity
  8
0
  6
Continuous
 62
     7
370
    15
100
AcDbLine
 10
244.284586081
 20
102.1617931844
 30
0.0
 11
240.0007853598
 21
102.1617931844
 31
0.0
  0
ELLIPSE
  5
97
330
1F
100
AcDbEntity
  8
0
  6
Continuous
 62
     7
370
    15
100
AcDbEllipse
 10
235.6734408707
 20
111.9187113308
 30
0.0
 11
-0.09033694274967276
 21
2.324516216905408
 31
0.0
210
0.0
220
0.0
230
1.0
 40
0.2588465783
 41
0.0
 42
6.283185307179586
  0
SPLINE
  5
98
330
1F
100
AcDbEntity
  8
0
  6
Continuous
 62
     7
370
    15
100
AcDbSpline
210
0.0
220
0.0
230
1.0
 70
     8
 71
     3
 72
    10
 73
     6
 74
     0
 42
0.00000001
 43
0.00000001
 12
1.0
 22
0.0
 32
0.0
 13
1.0
 23
0.0
 33
0.0
 40
0.0
 40
0.0
 40
0.0
 40
0.0
 40
0.5
 40
0.5
 40
1.0
 40
1.0
 40
1.0
 40
1.0
 10
244.2845880833464
 20
133.9886624034817
 30
0.0
 10
244.416650574034
 20
133.9886624034817
 30
0.0
 10
244.5462489986451
 20
134.0146727067213
 30
0.0
 10
244.7882362156502
 20
134.1149502453268
 30
0.0
 10
244.8984487470768
 20
134.1884129611054
 30
0.0
 10
244.9916948645333
 20
134.2817001629261
 30
0.0
  0
SPLINE
  5
99
330
1F
100
AcDbEntity
  8
0
  6
Continuous
 62
     7
370
    15
100
AcDbSpline
210
0.0
220
0.0
230
1.0
 70
     8
 71
     3
 72
    10
 73
     6
 74
     0
 42
0.00000001
 43
0.00000001
 12
1.0
 22
0.0
 32
0.0
 13
1.0
 23
0.0
 33
0.0
 40
0.0
 40
0.0
 40
0.0
 40
0.0
 40
0.5
 40
0.5
 40
1.0
 40
1.0
 40
1.0
 40
1.0
 10
244.9916948645329
 20
101.8687562286147
 30
0.0
 10
244.8984499048674
 20
101.9620422721344
 30
0.0
 10
244.7885538553131
 20
102.0353238732943
 30
0.0
 10
244.5465902658242
 20
102.1356927743738
 30
0.0
 10
244.4166571927161
 20
102.1617939880596
 30
0.0
 10
244.2845880833464
 20
102.1617939880596
 30
0.0
  0
LINE
  5
9A
330
1F
100
AcDbEntity
  8
0
  6
Continuous
 62
     7
370
    15
100
AcDbLine
 10
244.9916983337
 20
101.8687562616
 30
0.0
 11
244.9916983337
 21
101.868460101
 31
0.0
  0
LINE
  5
9B
330
1F
100
AcDbEntity
  8
0
  6
Continuous
 62
     7
370
    15
100
AcDbLine
 10
245.5196837277
 20
101.3405846031
 30
0.0
 11
244.9916983337
 21
101.8687562616
 31
0.0
  0
LINE
  5
9C
330
1F
100
AcDbEntity
  8
0
  6
Continuous
 62
     7
370
    15
100
AcDbLine
 10
244.9916983337
 20
134.2817006232
 30
0.0
 11
245.1988021226
 21
134.4888900937
 31
0.0
  0
LINE
  5
9D
330
1F
100
AcDbEntity
  8
0
  6
Continuous
 62
     7
370
    15
100
AcDbLine
 10
245.1988021226
 20
134.4888900937
 30
0.0
 11
258.6319605202
 21
134.4888900937
 31
0.0
  0
LINE
  5
9E
330
1F
100
AcDbEntity
  8
0
  6
Continuous
 62
     7
370
    15
100
AcDbLine
 10
258.6319605202
 20
134.4888900937
 30
0.0
 11
267.3118720145
 21
107.0267783077
 31
0.0
  0
LINE
  5
9F
330
1F
100
AcDbEntity
  8
0
  6
Continuous
 62
     7
370
    15
100
AcDbLine
 10
259.9064121337
 20
109.3736255141
 30
0.0
 11
259.2030773253
 21
111.5988904209
 31
0.0
  0
ARC
  5
A0
330
1F
100
AcDbEntity
  8
0
  6
Continuous
 62
     7
370
    15
100
AcDbCircle
 10
257.7575507538
 20
111.1416719077
 30
0.0
 40
1.51611207960324
100
AcDbArc
 50
17.5521074555
 51
197.3677842975
  0
LINE
  5
A1
330
1F
100
AcDbEntity
  8
0
  6
Continuous
 62
     7
370
    15
100
AcDbLine
 10
256.3105607719
 20
110.6891060779
 30
0.0
 11
256.5407166571
 21
109.9609203236
 31
0.0
  0
LINE
  5
A2
330
1F
100
AcDbEntity
  8
0
  6
Continuous
 62
     7
370
    15
100
AcDbLine
 10
259.7681442589
 20
99.6171889426
 30
0.0
 11
258.0808485241
 21
100.1478937985
 31
0.0
  0
ELLIPSE
  5
A3
330
1F
100
AcDbEntity
  8
0
  6
Continuous
 62
     7
370
    15
100
AcDbEllipse
 10
250.3155599806
 20
75.2091402041
 30
0.0
 11
-5.684341886080801E-14
 21
26.13144513619379
 31
0.0
210
0.0
220
0.0
230
1.0
 40
0.9949698482
 41
5.979891802486661
 42
6.283185307179586
  0
LINE
  5
A4
330
1F
100
AcDbEntity
  8
0
  6
Continuous
 62
     7
370
    15
100
AcDbLine
 10
250.3155628533
 20
101.3405846031
 30
0.0
 11
245.5196837277
 21
101.3405846031
 31
0.0
  0
LINE
  5
A5
330
1F
100
AcDbEntity
  8
0
  6
Continuous
 62
     7
370
    15
100
AcDbLine
 10
245.1988021226
 20
134.6613524081
 30
0.0
 11
245.1988021226
 21
134.4888900937
 31
0.0
  0
ELLIPSE
  5
A6
330
1F
100
AcDbEntity
  8
0
  6
Continuous
 62
     7
370
    15
100
AcDbEllipse
 10
263.6608518858
 20
118.1613524975
 30
0.0
 11
-5.390524936199143
 21
16.49183944377626
 31
0.0
210
0.0
220
0.0
230
1.0
 40
0.0962569477
 41
6.107023136584787
 42
6.251733123200067
  0
ARC
  5
A7
330
1F
100
AcDbEntity
  8
0
  6
Continuous
 62
     7
370
    15
100
AcDbCircle
 10
257.757422961
 20
111.2934497856
 30
0.0
 40
1.249729032313694
100
AcDbArc
 50
17.5522041239
 51
197.3676457815
  0
LINE
  5
A8
330
1F
100
AcDbEntity
  8
0
  6
Continuous
 62
     7
370
    15
100
AcDbLine
 10
258.9489678235
 20
111.6703363666
 30
0.0
 11
259.6493223996
 21
109.4544875966
 31
0.0
  0
LINE
  5
A9
330
1F
100
AcDbEntity
  8
0
  6
Continuous
 62
     7
370
    15
100
AcDbLine
 10
256.5646702737
 20
110.9204032989
 30
0.0
 11
256.7736963124
 21
110.2590785892
 31
0.0
  0
LINE
  5
AA
330
1F
100
AcDbEntity
  8
0
  6
Continuous
 62
     7
370
    15
100
AcDbLine
 10
256.5079192013
 20
111.3476871112
 30
0.0
 11
256.5646702737
 21
111.0250378558
 31
0.0
  0
LINE
  5
AB
330
1F
100
AcDbEntity
  8
0
  6
Continuous
 62
     7
370
    15
100
AcDbLine
 10
256.5646702737
 20
111.0250378558
 30
0.0
 11
256.8039531202
 21
110.2679764451
 31
0.0
  0
CIRCLE
  5
AC
330
1F
100
AcDbEntity
  8
0
  6
Continuous
 62
     7
370
    15
100
AcDbCircle
 10
263.5319857523
 20
103.3352902112
 30
0.0
 40
2.620512466500853
  0
CIRCLE
  5
AD
330
1F
100
AcDbEntity
  8
0
  6
Continuous
 62
     7
370
    15
100
AcDbCircle
 10
263.530593025
 20
103.3159340238
 30
0.0
 40
1.796905957159651
  0
ARC
  5
AE
330
1F
100
AcDbEntity
  8
0
  6
Continuous
 62
     7
370
    15
100
AcDbCircle
 10
263.5281329722
 20
103.310027649
 30
0.0
 40
1.6760731831633
100
AcDbArc
 50
32.9590178874
 51
91.4835435001
  0
ARC
  5
AF
330
1F
100
AcDbEntity
  8
0
  6
Continuous
 62
     7
370
    15
100
AcDbCircle
 10
263.5266207637
 20
103.3106044258
 30
0.0
 40
1.675458117498406
100
AcDbArc
 50
91.4323583614
 51
151.4771226641
  0
ARC
  5
B0
330
1F
100
AcDbEntity
  8
0
  6
Continuous
 62
     7
370
    15
100
AcDbCircle
 10
263.5199879804
 20
103.3151599709
 30
0.0
 40
1.667455270913551
100
AcDbArc
 50
151.5058281898
 51
210.2394401187
  0
LINE
  5
B1
330
1F
100
AcDbEntity
  8
0
  6
Continuous
 62
     7
370
    15
100
AcDbLine
 10
262.1239731402
 20
102.403232974
 30
0.0
 11
262.0794261188
 21
102.4754048856
 31
0.0
  0
ARC
  5
B2
330
1F
100
AcDbEntity
  8
0
  6
Continuous
 62
     7
370
    15
100
AcDbCircle
 10
263.5268322083
 20
103.3202241305
 30
0.0
 40
1.675973253439457
100
AcDbArc
 50
213.1709907136
 51
269.5446869537
  0
LINE
  5
B3
330
1F
100
AcDbEntity
  8
0
  6
Continuous
 62
     7
370
    15
100
AcDbLine
 10
263.6332745046
 20
101.647578326
 30
0.0
 11
263.5135138721
 21
101.6443037958
 31
0.0
  0
ARC
  5
B4
330
1F
100
AcDbEntity
  8
0
  6
Continuous
 62
     7
370
    15
100
AcDbCircle
 10
263.5284551524
 20
103.3197935149
 30
0.0
 40
1.675497160390775
100
AcDbArc
 50
273.5867747487
 51
329.3228706062
  0
LINE
  5
B5
330
1F
100
AcDbEntity
  8
0
  6
Continuous
 62
     7
370
    15
100
AcDbLine
 10
265.0267118902
 20
102.5699527533
 30
0.0
 11
264.96947653
 21
102.4649554463
 31
0.0
  0
ARC
  5
B6
330
1F
100
AcDbEntity
  8
0
  6
Continuous
 62
     7
370
    15
100
AcDbCircle
 10
263.5351056144
 20
103.3151727709
 30
0.0
 40
1.667405816384631
100
AcDbArc
 50
333.4528707408
 51
30.0263664965
  0
LINE
  5
B7
330
1F
100
AcDbEntity
  8
0
  6
Continuous
 62
     7
370
    15
100
AcDbLine
 10
264.9344588012
 20
104.2218768568
 30
0.0
 11
264.9787376017
 21
104.1495401011
 31
0.0
  0
SPLINE
  5
B8
330
1F
100
AcDbEntity
  8
0
  6
Continuous
 62
     7
370
    15
100
AcDbSpline
210
0.0
220
0.0
230
1.0
 70
     8
 71
     3
 72
    12
 73
     8
 74
     0
 42
0.00000001
 43
0.00000001
 12
1.0
 22
0.0
 32
0.0
 13
1.0
 23
0.0
 33
0.0
 40
0.0
 40
0.0
 40
0.0
 40
0.0
 40
0.2058533456716023
 40
0.4120992584472297
 40
0.6141914190335391
 40
0.8133180992422068
 40
1.0
 40
1.0
 40
1.0
 40
1.0
 10
264.56795729109
 20
104.3329827086645
 30
0.0
 10
264.5039983516881
 20
104.3192418533398
 30
0.0
 10
264.3759585017037
 20
104.2917339385609
 30
0.0
 10
264.1785095574751
 20
104.3325164626474
 30
0.0
 10
264.0080320612012
 20
104.4295750667833
 30
0.0
 10
263.8788718073392
 20
104.5703733595843
 30
0.0
 10
263.83733518921
 20
104.6842328159987
 30
0.0
 10
263.8172367901439
 20
104.7393261985498
 30
0.0
  0
SPLINE
  5
B9
330
1F
100
AcDbEntity
  8
0
  6
Continuous
 62
     7
370
    15
100
AcDbSpline
210
0.0
220
0.0
230
1.0
 70
     8
 71
     3
 72
    11
 73
     7
 74
     0
 42
0.00000001
 43
0.00000001
 12
1.0
 22
0.0
 32
0.0
 13
1.0
 23
0.0
 33
0.0
 40
0.0
 40
0.0
 40
0.0
 40
0.0
 40
0.2524759542502766
 40
0.5068888004574799
 40
0.7591841040376857
 40
1.0
 40
1.0
 40
1.0
 40
1.0
 10
263.8172367901439
 20
104.7393261985498
 30
0.0
 10
263.8041426842988
 20
104.7742091939
 30
0.0
 10
263.7778540199994
 20
104.844242792632
 30
0.0
 10
263.6962625756668
 20
104.9252168782286
 30
0.0
 10
263.5952761699783
 20
104.9780722369586
 30
0.0
 10
263.5210089070292
 20
104.9830890193197
 30
0.0
 10
263.484739729845
 20
104.9855390162783
 30
0.0
  0
SPLINE
  5
BA
330
1F
100
AcDbEntity
  8
0
  6
Continuous
 62
     7
370
    15
100
AcDbSpline
210
0.0
220
0.0
230
1.0
 70
     8
 71
     3
 72
    11
 73
     7
 74
     0
 42
0.00000001
 43
0.00000001
 12
1.0
 22
0.0
 32
0.0
 13
1.0
 23
0.0
 33
0.0
 40
0.0
 40
0.0
 40
0.0
 40
0.0
 40
0.2423649148935818
 40
0.5166853819969827
 40
0.7923213120703225
 40
0.9999999999999999
 40
0.9999999999999999
 40
0.9999999999999999
 40
0.9999999999999999
 10
264.9344588012332
 20
104.2218768568354
 30
0.0
 10
264.9115772029189
 20
104.2458866479347
 30
0.0
 10
264.8627970922706
 20
104.2970718951527
 30
0.0
 10
264.7622055469942
 20
104.3417599332588
 30
0.0
 10
264.6584280586938
 20
104.3546198342159
 30
0.0
 10
264.5951483653748
 20
104.3394857670972
 30
0.0
 10
264.56795729109
 20
104.3329827086645
 30
0.0
  0
SPLINE
  5
BB
330
1F
100
AcDbEntity
  8
0
  6
Continuous
 62
     7
370
    15
100
AcDbSpline
210
0.0
220
0.0
230
1.0
 70
     8
 71
     3
 72
    12
 73
     8
 74
     0
 42
0.00000001
 43
0.00000001
 12
1.0
 22
0.0
 32
0.0
 13
1.0
 23
0.0
 33
0.0
 40
0.0
 40
0.0
 40
0.0
 40
0.0
 40
0.2058437245226964
 40
0.4120708339045933
 40
0.6141359767261799
 40
0.8132588178412365
 40
0.9999999999999999
 40
0.9999999999999999
 40
0.9999999999999999
 40
0.9999999999999999
 10
263.1652886361713
 20
104.7221088381129
 30
0.0
 10
263.145829887097
 20
104.6603251825865
 30
0.0
 10
263.1068761469409
 20
104.5366427991985
 30
0.0
 10
262.9737120285379
 20
104.3870095444728
 30
0.0
 10
262.8041676628479
 20
104.2882114047677
 30
0.0
 10
262.6163496307062
 20
104.2464358274548
 30
0.0
 10
262.4956072081368
 20
104.2668383007651
 30
0.0
 10
262.4371731967563
 20
104.2767121987062
 30
0.0
  0
SPLINE
  5
BC
330
1F
100
AcDbEntity
  8
0
  6
Continuous
 62
     7
370
    15
100
AcDbSpline
210
0.0
220
0.0
230
1.0
 70
     8
 71
     3
 72
    11
 73
     7
 74
     0
 42
0.00000001
 43
0.00000001
 12
1.0
 22
0.0
 32
0.0
 13
1.0
 23
0.0
 33
0.0
 40
0.0
 40
0.0
 40
0.0
 40
0.0
 40
0.2535074609735433
 40
0.5075632271799886
 40
0.7595016907706571
 40
0.9999999999999999
 40
0.9999999999999999
 40
0.9999999999999999
 40
0.9999999999999999
 10
262.4371731967563
 20
104.2767121987062
 30
0.0
 10
262.3997880526465
 20
104.2826554606387
 30
0.0
 10
262.3249369049916
 20
104.294554839043
 30
0.0
 10
262.212943048465
 20
104.2638556782995
 30
0.0
 10
262.116190638468
 20
104.2025806096775
 30
0.0
 10
262.0747552260772
 20
104.1408164376728
 30
0.0
 10
262.0545188278789
 20
104.1106517957168
 30
0.0
  0
SPLINE
  5
BD
330
1F
100
AcDbEntity
  8
0
  6
Continuous
 62
     7
370
    15
100
AcDbSpline
210
0.0
220
0.0
230
1.0
 70
     8
 71
     3
 72
    12
 73
     8
 74
     0
 42
0.00000001
 43
0.00000001
 12
1.0
 22
0.0
 32
0.0
 13
1.0
 23
0.0
 33
0.0
 40
0.0
 40
0.0
 40
0.0
 40
0.0
 40
0.0091764842713443
 40
0.2573293934329914
 40
0.5054995819748089
 40
0.7549927320736286
 40
1.0
 40
1.0
 40
1.0
 40
1.0
 10
263.484739729845
 20
104.9855390162783
 30
0.0
 10
263.4833663866693
 20
104.9854987606258
 30
0.0
 10
263.4448547349386
 20
104.9843699009937
 30
0.0
 10
263.368983540335
 20
104.968733323718
 30
0.0
 10
263.2722337691916
 20
104.9110844736108
 30
0.0
 10
263.1978470582727
 20
104.826232143538
 30
0.0
 10
263.1760756099899
 20
104.7566060679244
 30
0.0
 10
263.1652886361713
 20
104.7221088381129
 30
0.0
  0
SPLINE
  5
BE
330
1F
100
AcDbEntity
  8
0
  6
Continuous
 62
     7
370
    15
100
AcDbSpline
210
0.0
220
0.0
230
1.0
 70
     8
 71
     3
 72
    11
 73
     7
 74
     0
 42
0.00000001
 43
0.00000001
 12
1.0
 22
0.0
 32
0.0
 13
1.0
 23
0.0
 33
0.0
 40
0.0
 40
0.0
 40
0.0
 40
0.0
 40
0.2657590321858286
 40
0.5530033332002577
 40
0.8418163333040622
 40
1.0
 40
1.0
 40
1.0
 40
1.0
 10
265.0267118901843
 20
102.569952753337
 30
0.0
 10
265.0345726766855
 20
102.6038402020413
 30
0.0
 10
265.0509297543771
 20
102.6743547276738
 30
0.0
 10
265.0311812584976
 20
102.7846483301625
 30
0.0
 10
264.986731658709
 20
102.871003443924
 30
0.0
 10
264.9459372798896
 20
102.912074856414
 30
0.0
 10
264.9315009207363
 20
102.926609252544
 30
0.0
  0
SPLINE
  5
BF
330
1F
100
AcDbEntity
  8
0
  6
Continuous
 62
     7
370
    15
100
AcDbSpline
210
0.0
220
0.0
230
1.0
 70
     8
 71
     3
 72
    12
 73
     8
 74
     0
 42
0.00000001
 43
0.00000001
 12
1.0
 22
0.0
 32
0.0
 13
1.0
 23
0.0
 33
0.0
 40
0.0
 40
0.0
 40
0.0
 40
0.0
 40
0.2057895911988858
 40
0.4120337479224037
 40
0.6141301554437514
 40
0.8132627930753242
 40
1.0
 40
1.0
 40
1.0
 40
1.0
 10
264.9315009207363
 20
102.926609252544
 30
0.0
 10
264.8870130875492
 20
102.9753183354298
 30
0.0
 10
264.7979391526711
 20
103.07284409396
 30
0.0
 10
264.7336520681305
 20
103.2643369949595
 30
0.0
 10
264.7327191098742
 20
103.4601080598105
 30
0.0
 10
264.7913610940779
 20
103.6415421524823
 30
0.0
 10
264.8705606891195
 20
103.733734143811
 30
0.0
 10
264.9088884086246
 20
103.778349381836
 30
0.0
  0
SPLINE
  5
C0
330
1F
100
AcDbEntity
  8
0
  6
Continuous
 62
     7
370
    15
100
AcDbSpline
210
0.0
220
0.0
230
1.0
 70
     8
 71
     3
 72
    11
 73
     7
 74
     0
 42
0.00000001
 43
0.00000001
 12
1.0
 22
0.0
 32
0.0
 13
1.0
 23
0.0
 33
0.0
 40
0.0
 40
0.0
 40
0.0
 40
0.0
 40
0.2802371108006812
 40
0.5612875474070169
 40
0.8399889725230232
 40
1.0
 40
1.0
 40
1.0
 40
1.0
 10
264.9088884086246
 20
103.778349381836
 30
0.0
 10
264.933063576739
 20
103.807047137117
 30
0.0
 10
264.9814840760092
 20
103.8645259365229
 30
0.0
 10
265.011712927567
 20
103.9753874245104
 30
0.0
 10
265.0076232571018
 20
104.0739020611269
 30
0.0
 10
264.9864573981723
 20
104.1293255598691
 30
0.0
 10
264.9787376017208
 20
104.1495401011425
 30
0.0
  0
LWPOLYLINE
  5
C1
330
1F
100
AcDbEntity
  8
0
  6
Continuous
 62
     7
370
    15
100
AcDbPolyline
 90
        3
 70
   128
 43
0.0
 10
265.0037641019
 20
104.057618563
 10
264.9739692301
 20
103.9638492809
 10
264.9088884086
 20
103.8733200701
  0
SPLINE
  5
C2
330
1F
100
AcDbEntity
  8
0
  6
Continuous
 62
     7
370
    15
100
AcDbSpline
210
0.0
220
0.0
230
1.0
 70
     8
 71
     3
 72
    12
 73
     8
 74
     0
 42
0.00000001
 43
0.00000001
 12
1.0
 22
0.0
 32
0.0
 13
1.0
 23
0.0
 33
0.0
 40
0.0
 40
0.0
 40
0.0
 40
0.0
 40
0.0091741882414711
 40
0.2576759416734082
 40
0.5061875872195033
 40
0.7560343215179488
 40
1.0
 40
1.0
 40
1.0
 40
1.0
 10
262.0545188278789
 20
104.1106517957168
 30
0.0
 10
262.0538706027763
 20
104.109445954996
 30
0.0
 10
262.0356638678217
 20
104.0755774387778
 30
0.0
 10
262.0115584788421
 20
104.0022396642382
 30
0.0
 10
262.0139243117292
 20
103.8901144484125
 30
0.0
 10
262.0512692865009
 20
103.7841260735937
 30
0.0
 10
262.1013878642875
 20
103.7310717947436
 30
0.0
 10
262.1261487097377
 20
103.7048605801182
 30
0.0
  0
SPLINE
  5
C3
330
1F
100
AcDbEntity
  8
0
  6
Continuous
 62
     7
370
    15
100
AcDbSpline
210
0.0
220
0.0
230
1.0
 70
     8
 71
     3
 72
    12
 73
     8
 74
     0
 42
0.00000001
 43
0.00000001
 12
1.0
 22
0.0
 32
0.0
 13
1.0
 23
0.0
 33
0.0
 40
0.0
 40
0.0
 40
0.0
 40
0.0
 40
0.2057559169865481
 40
0.4119605652407954
 40
0.614014876362531
 40
0.8131416879098018
 40
1.0
 40
1.0
 40
1.0
 40
1.0
 10
262.1261487097378
 20
103.7048605801182
 30
0.0
 10
262.1706339051927
 20
103.6575210442353
 30
0.0
 10
262.2597013134738
 20
103.5627387300924
 30
0.0
 10
262.3239826998789
 20
103.3734649378085
 30
0.0
 10
262.3249517339756
 20
103.1775612098718
 30
0.0
 10
262.2663256976214
 20
102.9937915066974
 30
0.0
 10
262.1871100936954
 20
102.8990065593519
 30
0.0
 10
262.1487612218494
 20
102.8531204508262
 30
0.0
  0
SPLINE
  5
C4
330
1F
100
AcDbEntity
  8
0
  6
Continuous
 62
     7
370
    15
100
AcDbSpline
210
0.0
220
0.0
230
1.0
 70
     8
 71
     3
 72
    11
 73
     7
 74
     0
 42
0.00000001
 43
0.00000001
 12
1.0
 22
0.0
 32
0.0
 13
1.0
 23
0.0
 33
0.0
 40
0.0
 40
0.0
 40
0.0
 40
0.0
 40
0.2794070707354669
 40
0.5596236706866027
 40
0.8375026898305479
 40
1.0
 40
1.0
 40
1.0
 40
1.0
 10
262.1487612218494
 20
102.8531204508262
 30
0.0
 10
262.1245851687847
 20
102.8236235997078
 30
0.0
 10
262.0761630171075
 20
102.7645444359159
 30
0.0
 10
262.0459472854785
 20
102.6519421059841
 30
0.0
 10
262.0500485102347
 20
102.5520344977267
 30
0.0
 10
262.0715077391395
 20
102.4960594722624
 30
0.0
 10
262.0794261188144
 20
102.475404885562
 30
0.0
  0
ARC
  5
C5
330
1F
100
AcDbEntity
  8
0
  6
Continuous
 62
     7
370
    15
100
AcDbCircle
 10
262.3481006413
 20
104.0493891269
 30
0.0
 40
0.3340002926567332
100
AcDbArc
 50
186.9020962068
 51
228.3540161313
  0
ARC
  5
C6
330
1F
100
AcDbEntity
  8
0
  6
Continuous
 62
     7
370
    15
100
AcDbCircle
 10
265.3195679307
 20
103.4579402737
 30
0.0
 40
0.5841216012466057
100
AcDbArc
 50
134.6739907591
 51
179.9876984842
  0
ARC
  5
C7
330
1F
100
AcDbEntity
  8
0
  6
Continuous
 62
     7
370
    15
100
AcDbCircle
 10
261.7379482393
 20
103.3631525437
 30
0.0
 40
0.584262526588275
100
AcDbArc
 50
0.0176459503
 51
48.3615303268
  0
ARC
  5
C8
330
1F
100
AcDbEntity
  8
0
  6
Continuous
 62
     7
370
    15
100
AcDbCircle
 10
264.7087494889
 20
102.7727534519
 30
0.0
 40
0.3348476174150904
100
AcDbArc
 50
254.7149375467
 51
352.5018935931
  0
SPLINE
  5
C9
330
1F
100
AcDbEntity
  8
0
  6
Continuous
 62
     7
370
    15
100
AcDbSpline
210
0.0
220
0.0
230
1.0
 70
     8
 71
     3
 72
    11
 73
     7
 74
     0
 42
0.00000001
 43
0.00000001
 12
1.0
 22
0.0
 32
0.0
 13
1.0
 23
0.0
 33
0.0
 40
0.0
 40
0.0
 40
0.0
 40
0.0
 40
0.2929032191237119
 40
0.5864374561834188
 40
0.8775231061833235
 40
1.0
 40
1.0
 40
1.0
 40
1.0
 10
264.6204764337177
 20
102.354757633956
 30
0.0
 10
264.6578480618845
 20
102.3480228670156
 30
0.0
 10
264.7326718300258
 20
102.3345388240463
 30
0.0
 10
264.8448674896068
 20
102.3634227118848
 30
0.0
 10
264.9235745440866
 20
102.4129853504859
 30
0.0
 10
264.95898862138
 20
102.4530810664126
 30
0.0
 10
264.9694765300388
 20
102.4649554462748
 30
0.0
  0
ARC
  5
CA
330
1F
100
AcDbEntity
  8
0
  6
Continuous
 62
     7
370
    15
100
AcDbCircle
 10
262.3844979498
 20
102.7114152005
 30
0.0
 40
0.3349070921889452
100
AcDbArc
 50
186.5501707988
 51
288.306503142
  0
SPLINE
  5
CB
330
1F
100
AcDbEntity
  8
0
  6
Continuous
 62
     7
370
    15
100
AcDbSpline
210
0.0
220
0.0
230
1.0
 70
     8
 71
     3
 72
    11
 73
     7
 74
     0
 42
0.00000001
 43
0.00000001
 12
1.0
 22
0.0
 32
0.0
 13
1.0
 23
0.0
 33
0.0
 40
0.0
 40
0.0
 40
0.0
 40
0.0
 40
0.2431050864285936
 40
0.5182857621271235
 40
0.7947840356196731
 40
1.0
 40
1.0
 40
1.0
 40
1.0
 10
262.1239731402034
 20
102.4032329739647
 30
0.0
 10
262.1469426422816
 20
102.3794470691791
 30
0.0
 10
262.195912271281
 20
102.3287369175702
 30
0.0
 10
262.2966734024017
 20
102.2856874343326
 30
0.0
 10
262.4000666020907
 20
102.2749844254226
 30
0.0
 10
262.4629172288246
 20
102.2914658444881
 30
0.0
 10
262.489692339384
 20
102.2984871239977
 30
0.0
  0
SPLINE
  5
CC
330
1F
100
AcDbEntity
  8
0
  6
Continuous
 62
     7
370
    15
100
AcDbSpline
210
0.0
220
0.0
230
1.0
 70
     8
 71
     3
 72
    11
 73
     7
 74
     0
 42
0.00000001
 43
0.00000001
 12
1.0
 22
0.0
 32
0.0
 13
1.0
 23
0.0
 33
0.0
 40
0.0
 40
0.0
 40
0.0
 40
0.0
 40
0.2668987727816289
 40
0.5546209351701032
 40
0.8439099663409433
 40
1.0
 40
1.0
 40
1.0
 40
1.0
 10
263.6332745046253
 20
101.6475783260184
 30
0.0
 10
263.6666132127124
 20
101.6578732232314
 30
0.0
 10
263.7358917083156
 20
101.6792662235074
 30
0.0
 10
263.8210417873711
 20
101.7521181193051
 30
0.0
 10
263.8726455525776
 20
101.8340041681338
 30
0.0
 10
263.8872500656822
 20
101.889804105604
 30
0.0
 10
263.8923684448833
 20
101.9093600632268
 30
0.0
  0
SPLINE
  5
CD
330
1F
100
AcDbEntity
  8
0
  6
Continuous
 62
     7
370
    15
100
AcDbSpline
210
0.0
220
0.0
230
1.0
 70
     8
 71
     3
 72
    12
 73
     8
 74
     0
 42
0.00000001
 43
0.00000001
 12
1.0
 22
0.0
 32
0.0
 13
1.0
 23
0.0
 33
0.0
 40
0.0
 40
0.0
 40
0.0
 40
0.0
 40
0.2058403013383278
 40
0.4120659051323097
 40
0.6141427586212034
 40
0.813282106910051
 40
1.0
 40
1.0
 40
1.0
 40
1.0
 10
263.8923684448833
 20
101.9093600632268
 30
0.0
 10
263.9118240498747
 20
101.9725063690158
 30
0.0
 10
263.9507716778588
 20
102.0989171810946
 30
0.0
 10
264.0839422874583
 20
102.2507376085708
 30
0.0
 10
264.2534897627793
 20
102.3493773168118
 30
0.0
 10
264.4413099467966
 20
102.3888385291017
 30
0.0
 10
264.562049885067
 20
102.3658714818218
 30
0.0
 10
264.6204764337177
 20
102.354757633956
 30
0.0
  0
SPLINE
  5
CE
330
1F
100
AcDbEntity
  8
0
  6
Continuous
 62
     7
370
    15
100
AcDbSpline
210
0.0
220
0.0
230
1.0
 70
     8
 71
     3
 72
    12
 73
     8
 74
     0
 42
0.00000001
 43
0.00000001
 12
1.0
 22
0.0
 32
0.0
 13
1.0
 23
0.0
 33
0.0
 40
0.0
 40
0.0
 40
0.0
 40
0.0
 40
0.2058193969696494
 40
0.4120218359859174
 40
0.6140801056958802
 40
0.8132153378251198
 40
0.9999999999999999
 40
0.9999999999999999
 40
0.9999999999999999
 40
0.9999999999999999
 10
262.489692339384
 20
102.2984871239977
 30
0.0
 10
262.5536437762864
 20
102.3135890169805
 30
0.0
 10
262.6816656674899
 20
102.3438209084601
 30
0.0
 10
262.8790897830535
 20
102.3052482142912
 30
0.0
 10
263.0495597095318
 20
102.2080646721266
 30
0.0
 10
263.1787539454268
 20
102.0649593492172
 30
0.0
 10
263.2203031070928
 20
101.9485065957812
 30
0.0
 10
263.2404128403301
 20
101.8921436341124
 30
0.0
  0
SPLINE
  5
CF
330
1F
100
AcDbEntity
  8
0
  6
Continuous
 62
     7
370
    15
100
AcDbSpline
210
0.0
220
0.0
230
1.0
 70
     8
 71
     3
 72
    11
 73
     7
 74
     0
 42
0.00000001
 43
0.00000001
 12
1.0
 22
0.0
 32
0.0
 13
1.0
 23
0.0
 33
0.0
 40
0.0
 40
0.0
 40
0.0
 40
0.0
 40
0.2908610328624464
 40
0.5839520591255588
 40
0.8745987447128248
 40
1.0
 40
1.0
 40
1.0
 40
1.0
 10
263.2404128403301
 20
101.8921436341124
 30
0.0
 10
263.2535073281892
 20
101.8564802931769
 30
0.0
 10
263.279796697629
 20
101.7848801851472
 30
0.0
 10
263.3614265419067
 20
101.7019632489192
 30
0.0
 10
263.4444949158189
 20
101.6581573094677
 30
0.0
 10
263.497528875145
 20
101.6475123110874
 30
0.0
 10
263.5135138721103
 20
101.644303795846
 30
0.0
  0
ARC
  5
D0
330
1F
100
AcDbEntity
  8
0
  6
Continuous
 62
     7
370
    15
100
AcDbCircle
 10
263.5643451185
 20
102.0731605828
 30
0.0
 40
0.3351619244383298
100
AcDbArc
 50
194.873509005
 51
348.153484726
  0
ARC
  5
D1
330
1F
100
AcDbEntity
  8
0
  6
Continuous
 62
     7
370
    15
100
AcDbCircle
 10
264.4661875671
 20
101.8841405228
 30
0.0
 40
0.58627629781459
100
AcDbArc
 50
74.7419063653
 51
168.167724942
  0
ARC
  5
D2
330
1F
100
AcDbEntity
  8
0
  6
Continuous
 62
     7
370
    15
100
AcDbCircle
 10
262.6736290592
 20
101.8366251499
 30
0.0
 40
0.5864258953547385
100
AcDbArc
 50
14.8711618583
 51
108.279770797
  0
ARC
  5
D3
330
1F
100
AcDbEntity
  8
0
  6
Continuous
 62
     7
370
    15
100
AcDbCircle
 10
263.5275172383
 20
103.3803372128
 30
0.0
 40
2.625003734718398
100
AcDbArc
 50
0.1000603977
 51
179.8999396023
  0
LINE
  5
D4
330
1F
100
AcDbEntity
  8
0
  6
Continuous
 62
     7
370
    15
100
AcDbLine
 10
256.5752053947
 20
109.7750218184
 30
0.0
 11
259.7781056852
 21
99.6414815606
 31
0.0
  0
LINE
  5
D5
330
1F
100
AcDbEntity
  8
0
  6
Continuous
 62
     7
370
    15
100
AcDbLine
 10
258.357108602
 20
108.5256181256
 30
0.0
 11
256.9376239867
 21
109.9043154688
 31
0.0
  0
LINE
  5
D6
330
1F
100
AcDbEntity
  8
0
  6
Continuous
 62
     7
370
    15
100
AcDbLine
 10
260.3162760229
 20
99.954987091
 30
0.0
 11
260.1405168266
 21
99.770775211
 31
0.0
  0
SPLINE
  5
D7
330
1F
100
AcDbEntity
  8
0
  6
Continuous
 62
     7
370
    15
100
AcDbSpline
210
0.0
220
0.0
230
1.0
 70
     8
 71
     3
 72
    10
 73
     6
 74
     0
 42
0.00000001
 43
0.00000001
 12
1.0
 22
0.0
 32
0.0
 13
1.0
 23
0.0
 33
0.0
 40
0.0
 40
0.0
 40
0.0
 40
0.0
 40
0.3518032599833385
 40
0.7034213510791677
 40
1.0
 40
1.0
 40
1.0
 40
1.0
 10
259.7594941348667
 20
99.6340011777001
 30
0.0
 10
259.77716424221
 20
99.59292667880577
 30
0.0
 10
259.812495156374
 20
99.51079930025755
 30
0.0
 10
259.9078233949498
 20
99.42095678560102
 30
0.0
 10
259.9839298993799
 20
99.3896874513536
 30
0.0
 10
260.0187519878978
 20
99.37538034930998
 30
0.0
  0
LINE
  5
D8
330
1F
100
AcDbEntity
  8
0
  6
Continuous
 62
     7
370
    15
100
AcDbLine
 10
256.5535242052
 20
109.7772914515
 30
0.0
 11
259.7594941349
 21
99.6340011777
 31
0.0
  0
LINE
  5
D9
330
1F
100
AcDbEntity
  8
0
  6
Continuous
 62
     7
370
    15
100
AcDbLine
 10
267.217674324
 20
107.0740094008
 30
0.0
 11
257.0496136636
 21
110.2721767099
 31
0.0
  0
SPLINE
  5
DA
330
1F
100
AcDbEntity
  8
0
  6
Continuous
 62
     7
370
    15
100
AcDbSpline
210
0.0
220
0.0
230
1.0
 70
     8
 71
     3
 72
    10
 73
     6
 74
     0
 42
0.00000001
 43
0.00000001
 12
1.0
 22
0.0
 32
0.0
 13
1.0
 23
0.0
 33
0.0
 40
0.0
 40
0.0
 40
0.0
 40
0.0
 40
0.3518046330587989
 40
0.7034175791049936
 40
1.0
 40
1.0
 40
1.0
 40
1.0
 10
267.4769247264499
 20
106.8153895036893
 30
0.0
 10
267.4592540290636
 20
106.8564627936167
 30
0.0
 10
267.4239222624846
 20
106.9385869939587
 30
0.0
 10
267.3286031970475
 20
107.0284359978494
 30
0.0
 10
267.2524968549048
 20
107.0597031053118
 30
0.0
 10
267.2176743239993
 20
107.0740094007569
 30
0.0
  0
LINE
  5
DB
330
1F
100
AcDbEntity
  8
0
  6
Continuous
 62
     7
370
    15
100
AcDbLine
 10
270.6829021067
 20
96.6720992298
 30
0.0
 11
267.4769247264
 21
106.8153895037
 31
0.0
  0
SPLINE
  5
DC
330
1F
100
AcDbEntity
  8
0
  6
Continuous
 62
     7
370
    15
100
AcDbSpline
210
0.0
220
0.0
230
1.0
 70
     8
 71
     3
 72
    14
 73
    10
 74
     0
 42
0.00000001
 43
0.00000001
 12
1.0
 22
0.0
 32
0.0
 13
1.0
 23
0.0
 33
0.0
 40
0.0
 40
0.0
 40
0.0
 40
0.0
 40
0.158856999335943
 40
0.3173349670784487
 40
0.4720171218357799
 40
0.6236436545925882
 40
0.7746613582414267
 40
0.9277406007116393
 40
1.0
 40
1.0
 40
1.0
 40
1.0
 10
270.1868051976795
 20
96.17721304014498
 30
0.0
 10
270.2319038995157
 20
96.16770458205042
 30
0.0
 10
270.3219936980284
 20
96.14871035297004
 30
0.0
 10
270.458334816944
 20
96.1791359842612
 30
0.0
 10
270.5742688955057
 20
96.24952478035192
 30
0.0
 10
270.6584270758739
 20
96.35387128881322
 30
0.0
 10
270.7026420550168
 20
96.47908006446409
 30
0.0
 10
270.7048856014069
 20
96.58951640122972
 30
0.0
 10
270.6882398909206
 20
96.65204739897113
 30
0.0
 10
270.6829021067256
 20
96.67209922984415
 30
0.0
  0
LINE
  5
DD
330
1F
100
AcDbEntity
  8
0
  6
Continuous
 62
     7
370
    15
100
AcDbLine
 10
260.0187519879
 20
99.3753803493
 30
0.0
 11
270.1868051977
 21
96.1772130401
 31
0.0
  0
ARC
  5
DE
330
1F
100
AcDbEntity
  8
0
  6
Continuous
 62
     7
370
    15
100
AcDbCircle
 10
256.9373165565
 20
109.888708388
 30
0.0
 40
0.37953804760235
100
AcDbArc
 50
72.4303015878
 51
197.429935866
  0
ARC
  5
DF
330
1F
100
AcDbEntity
  8
0
  6
Continuous
 62
     7
370
    15
100
AcDbCircle
 10
260.1399344618
 20
99.7560474274
 30
0.0
 40
0.3795331361455357
100
AcDbArc
 50
197.5693524403
 51
252.5697332077
  0
LINE
  5
E0
330
1F
100
AcDbEntity
  8
0
  6
Continuous
 62
     7
370
    15
100
AcDbLine
 10
260.026247272
 20
99.3939416082
 30
0.0
 11
270.1845327706
 21
96.1988476636
 31
0.0
  0
ARC
  5
E1
330
1F
100
AcDbEntity
  8
0
  6
Continuous
 62
     7
370
    15
100
AcDbCircle
 10
270.2991028293
 20
96.5606801276
 30
0.0
 40
0.3795379169632714
100
AcDbArc
 50
252.430212292
 51
17.4301373773
  0
LINE
  5
E2
330
1F
100
AcDbEntity
  8
0
  6
Continuous
 62
     7
370
    15
100
AcDbLine
 10
270.6612134666
 20
96.6743679316
 30
0.0
 11
267.4583206267
 21
106.8079081894
 31
0.0
  0
ARC
  5
E3
330
1F
100
AcDbEntity
  8
0
  6
Continuous
 62
     7
370
    15
100
AcDbCircle
 10
267.0964749475
 20
106.6933219567
 30
0.0
 40
0.3795553982095938
100
AcDbArc
 50
17.5715131582
 51
72.5692927945
  0
LINE
  5
E4
330
1F
100
AcDbEntity
  8
0
  6
Continuous
 62
     7
370
    15
100
AcDbLine
 10
267.2101715893
 20
107.0554481418
 30
0.0
 11
257.0518860907
 21
110.2505411552
 31
0.0
  0
SPLINE
  5
E5
330
1F
100
AcDbEntity
  8
0
  6
Continuous
 62
     7
370
    15
100
AcDbSpline
210
0.0
220
0.0
230
1.0
 70
     8
 71
     3
 72
    14
 73
    10
 74
     0
 42
0.00000001
 43
0.00000001
 12
1.0
 22
0.0
 32
0.0
 13
1.0
 23
0.0
 33
0.0
 40
0.0
 40
0.0
 40
0.0
 40
0.0
 40
0.1588490464085907
 40
0.3173273281209329
 40
0.4720175829855537
 40
0.6236448338823435
 40
0.7746623847871043
 40
0.9277423563916262
 40
1.0
 40
1.0
 40
1.0
 40
1.0
 10
257.0496136636371
 20
110.2721767099219
 30
0.0
 10
257.0045174218241
 20
110.2816845185874
 30
0.0
 10
256.9144301959554
 20
110.3006779440333
 30
0.0
 10
256.7780897854928
 20
110.2702533414178
 30
0.0
 10
256.6621515112539
 20
110.1998681776695
 30
0.0
 10
256.577989383672
 20
110.0955203145631
 30
0.0
 10
256.5337870216865
 20
109.9703076210438
 30
0.0
 10
256.531540125492
 20
109.8598730510728
 30
0.0
 10
256.5481863587259
 20
109.7973426842528
 30
0.0
 10
256.5535242051715
 20
109.7772914515453
 30
0.0
  0
LINE
  5
E6
330
1F
100
AcDbEntity
  8
0
  6
Continuous
 62
     7
370
    15
100
AcDbLine
 10
266.9201428384
 20
106.5427699657
 30
0.0
 11
267.0959094853
 21
106.7092224555
 31
0.0
  0
SPLINE
  5
E7
330
1F
100
AcDbEntity
  8
0
  6
Continuous
 62
     7
370
    15
100
AcDbSpline
210
0.0
220
0.0
230
1.0
 70
     8
 71
     3
 72
    11
 73
     7
 74
     0
 42
0.00000001
 43
0.00000001
 12
1.0
 22
0.0
 32
0.0
 13
1.0
 23
0.0
 33
0.0
 40
0.0
 40
0.0
 40
0.0
 40
0.0
 40
0.0073038909729019
 40
0.1268494238022935
 40
0.5874319130292882
 40
0.9999999999999999
 40
0.9999999999999999
 40
0.9999999999999999
 40
0.9999999999999999
 10
258.8432813377017
 20
108.0328125105816
 30
0.0
 10
258.8422188170951
 20
108.0339309523114
 30
0.0
 10
258.8237656217734
 20
108.0533553508291
 30
0.0
 10
258.7365127625465
 20
108.1449307636268
 30
0.0
 10
258.572677074008
 20
108.313570283899
 30
0.0
 10
258.4262813336906
 20
108.4575751121009
 30
0.0
 10
258.3571086020107
 20
108.525618125649
 30
0.0
  0
ARC
  5
E8
330
1F
100
AcDbEntity
  8
0
  6
Continuous
 62
     7
370
    15
100
AcDbCircle
 10
260.3364648213
 20
106.4968570852
 30
0.0
 40
0.9987863835817364
100
AcDbArc
 50
72.4304173049
 51
197.4297597274
  0
LINE
  5
E9
330
1F
100
AcDbEntity
  8
0
  6
Continuous
 62
     7
370
    15
100
AcDbLine
 10
268.8793177099
 20
98.0290436716
 30
0.0
 11
270.2988023252
 21
96.575683129
 31
0.0
  0
LINE
  5
EA
330
1F
100
AcDbEntity
  8
0
  6
Continuous
 62
     7
370
    15
100
AcDbLine
 10
265.6268710584
 20
105.8798852907
 30
0.0
 11
260.6379622907
 21
107.4490511389
 31
0.0
  0
LINE
  5
EB
330
1F
100
AcDbEntity
  8
0
  6
Continuous
 62
     7
370
    15
100
AcDbLine
 10
267.8528810234
 20
100.2517064632
 30
0.0
 11
266.2798846454
 21
105.2284642653
 31
0.0
  0
ARC
  5
EC
330
1F
100
AcDbEntity
  8
0
  6
Continuous
 62
     7
370
    15
100
AcDbCircle
 10
266.8999603043
 20
99.9525266079
 30
0.0
 40
0.9987825001730238
100
AcDbArc
 50
252.4299698261
 51
17.4302498482
  0
LINE
  5
ED
330
1F
100
AcDbEntity
  8
0
  6
Continuous
 62
     7
370
    15
100
AcDbLine
 10
261.6095478029
 20
100.5695053907
 30
0.0
 11
266.5984565706
 21
99.0003386112
 31
0.0
  0
ARC
  5
EE
330
1F
100
AcDbEntity
  8
0
  6
Continuous
 62
     7
370
    15
100
AcDbCircle
 10
261.9087442469
 20
101.522449691
 30
0.0
 40
0.998809967755132
100
AcDbArc
 50
197.5708191529
 51
252.5692474541
  0
LINE
  5
EF
330
1F
100
AcDbEntity
  8
0
  6
Continuous
 62
     7
370
    15
100
AcDbLine
 10
259.3835378379
 20
106.1976842181
 30
0.0
 11
260.9565342159
 21
101.2209245534
 31
0.0
  0
ARC
  5
F0
330
1F
100
AcDbEntity
  8
0
  6
Continuous
 62
     7
370
    15
100
AcDbCircle
 10
265.3277095489
 20
104.9269768723
 30
0.0
 40
0.9987652690543877
100
AcDbArc
 50
17.5693598914
 51
72.5705428868
  0
CIRCLE
  5
F1
330
1F
100
AcDbEntity
  8
0
  6
Continuous
 62
     7
370
    15
100
AcDbCircle
 10
263.622042696
 20
103.2196238736
 30
0.0
 40
3.046926688662979
  0
SPLINE
  5
F2
330
1F
100
AcDbEntity
  8
0
  6
Continuous
 62
     7
370
    15
100
AcDbSpline
210
0.0
220
0.0
230
1.0
 70
     8
 71
     3
 72
    11
 73
     7
 74
     0
 42
0.00000001
 43
0.00000001
 12
1.0
 22
0.0
 32
0.0
 13
1.0
 23
0.0
 33
0.0
 40
0.0
 40
0.0
 40
0.0
 40
0.0
 40
0.0092130260700763
 40
0.3448521209850242
 40
0.6722303899431541
 40
1.0
 40
1.0
 40
1.0
 40
1.0
 10
266.4276818127269
 20
106.0497883306461
 30
0.0
 10
266.4290440639482
 20
106.0512246791479
 30
0.0
 10
266.4800343921406
 20
106.1049885373575
 30
0.0
 10
266.5893046967258
 20
106.2179254313338
 30
0.0
 10
266.7625260285412
 20
106.3916144983012
 30
0.0
 10
266.8675829838315
 20
106.4923647494218
 30
0.0
 10
266.9201428384418
 20
106.5427699656802
 30
0.0
  0
ARC
  5
F3
330
1F
100
AcDbEntity
  8
0
  6
Continuous
 62
     7
370
    15
100
AcDbCircle
 10
263.6182094307
 20
103.2999765059
 30
0.0
 40
3.050004668026221
100
AcDbArc
 50
180.1057249922
 51
359.8942750078
  0
SPLINE
  5
F4
330
1F
100
AcDbEntity
  8
0
  6
Continuous
 62
     7
370
    15
100
AcDbSpline
210
0.0
220
0.0
230
1.0
 70
     8
 71
     3
 72
    11
 73
     7
 74
     0
 42
0.00000001
 43
0.00000001
 12
1.0
 22
0.0
 32
0.0
 13
1.0
 23
0.0
 33
0.0
 40
0.0
 40
0.0
 40
0.0
 40
0.0
 40
0.3277704653011818
 40
0.6551544481693511
 40
0.9907874121685267
 40
1.0
 40
1.0
 40
1.0
 40
1.0
 10
260.3162760228748
 20
99.95498709097677
 30
0.0
 10
260.3688350689595
 20
100.0094450819081
 30
0.0
 10
260.4738911874301
 20
100.1182968509782
 30
0.0
 10
260.647124461716
 20
100.290219912027
 30
0.0
 10
260.7563829336914
 20
100.3952610989469
 30
0.0
 10
260.8073747952538
 20
100.4432473924956
 30
0.0
 10
260.8087370485896
 20
100.4445293517428
 30
0.0
  0
SPLINE
  5
F5
330
1F
100
AcDbEntity
  8
0
  6
Continuous
 62
     7
370
    15
100
AcDbSpline
210
0.0
220
0.0
230
1.0
 70
     8
 71
     3
 72
    11
 73
     7
 74
     0
 42
0.00000001
 43
0.00000001
 12
1.0
 22
0.0
 32
0.0
 13
1.0
 23
0.0
 33
0.0
 40
0.0
 40
0.0
 40
0.0
 40
0.0
 40
0.4125754717133717
 40
0.8731572324322295
 40
0.9927031395529122
 40
0.9999999999999999
 40
0.9999999999999999
 40
0.9999999999999999
 40
0.9999999999999999
 10
268.8793177098865
 20
98.0290436716395
 30
0.0
 10
268.8101379170134
 20
98.09901862508913
 30
0.0
 10
268.6637287370527
 20
98.24711064917365
 30
0.0
 10
268.4999477350576
 20
98.40523879081108
 30
0.0
 10
268.4126310455604
 20
98.48786721003039
 30
0.0
 10
268.3942049677672
 20
98.50521268793251
 30
0.0
 10
268.3931449741955
 20
98.50621051803404
 30
0.0
  0
LINE
  5
F6
330
1F
100
AcDbEntity
  8
0
  6
HIDDEN
 62
     7
370
     0
100
AcDbLine
 10
167.6988015265
 20
87.6613521548
 30
0.0
 11
167.6988015265
 21
148.6613528402
 31
0.0
  0
SPLINE
  5
F7
330
1F
100
AcDbEntity
  8
0
  6
HIDDEN
 62
     7
370
     0
100
AcDbSpline
210
0.0
220
0.0
230
1.0
 70
     8
 71
     3
 72
    60
 73
    56
 74
     0
 42
0.00000001
 43
0.00000001
 12
1.0
 22
0.0
 32
0.0
 13
1.0
 23
0.0
 33
0.0
 40
-0.0625
 40
-0.0625
 40
0.0
 40
0.0
 40
0.0312499999999999
 40
0.0312499999999999
 40
0.0624999999999998
 40
0.0624999999999998
 40
0.0937499999999997
 40
0.0937499999999997
 40
0.1249999999999996
 40
0.1249999999999996
 40
0.1874999999999995
 40
0.1874999999999995
 40
0.2499999999999993
 40
0.2499999999999993
 40
0.2812499999999992
 40
0.2812499999999992
 40
0.3124999999999992
 40
0.3124999999999992
 40
0.3437499999999992
 40
0.3437499999999992
 40
0.3749999999999991
 40
0.3749999999999991
 40
0.4062499999999991
 40
0.4062499999999991
 40
0.437499999999999
 40
0.437499999999999
 40
0.468749999999999
 40
0.468749999999999
 40
0.4999999999999989
 40
0.4999999999999989
 40
0.5624999999999988
 40
0.5624999999999988
 40
0.6249999999999987
 40
0.6249999999999987
 40
0.6562499999999989
 40
0.6562499999999989
 40
0.687499999999999
 40
0.687499999999999
 40
0.7187499999999991
 40
0.7187499999999991
 40
0.7499999999999992
 40
0.7499999999999992
 40
0.7812499999999993
 40
0.7812499999999993
 40
0.8124999999999994
 40
0.8124999999999994
 40
0.8437499999999996
 40
0.8437499999999996
 40
0.8749999999999997
 40
0.8749999999999997
 40
0.9062499999999999
 40
0.9062499999999999
 40
0.9375
 40
0.9375
 40
1.0
 40
1.0
 40
1.03125
 40
1.03125
 10
155.6988016457195
 20
117.8970219724033
 30
0.0
 10
155.6988016457195
 20
118.2935177600334
 30
0.0
 10
155.7117735042083
 20
118.4234678210375
 30
0.0
 10
155.7625936739007
 20
118.6791207543976
 30
0.0
 10
155.8010609973676
 20
118.8061502609469
 30
0.0
 10
155.9014592334397
 20
119.0483383920714
 30
0.0
 10
155.9628922644129
 20
119.1631998846243
 30
0.0
 10
156.1080270959578
 20
119.3805800804484
 30
0.0
 10
156.1924822133657
 20
119.483477647647
 30
0.0
 10
156.469201663724
 20
119.7601446866548
 30
0.0
 10
156.692278555642
 20
119.9091427771348
 30
0.0
 10
157.1735619178624
 20
120.1086539175995
 30
0.0
 10
157.4367923368534
 20
120.1612120205962
 30
0.0
 10
157.8281945385413
 20
120.1614223029743
 30
0.0
 10
157.9607175666502
 20
120.1484365322471
 30
0.0
 10
158.2172480198912
 20
120.0974093840333
 30
0.0
 10
158.3419348541879
 20
120.0596541848829
 30
0.0
 10
158.5841141164234
 20
119.9595158519742
 30
0.0
 10
158.7012076485734
 20
119.8969101845627
 30
0.0
 10
158.9179226519288
 20
119.7521768912977
 30
0.0
 10
159.0189414787916
 20
119.6695495440181
 30
0.0
 10
159.2057263662437
 20
119.4829444907666
 30
0.0
 10
159.2885832474399
 20
119.3818294268904
 30
0.0
 10
159.4334675125137
 20
119.1652966229005
 30
0.0
 10
159.4961050203347
 20
119.0484264152994
 30
0.0
 10
159.5965538437345
 20
118.8061285446493
 30
0.0
 10
159.6344049447517
 20
118.6814645461883
 30
0.0
 10
159.685626510008
 20
118.4251775021244
 30
0.0
 10
159.6987546366252
 20
118.2926055063788
 30
0.0
 10
159.6988952769655
 20
117.9010013136049
 30
0.0
 10
159.6465705275937
 20
117.6378359822809
 30
0.0
 10
159.4474594655364
 20
117.1563306131078
 30
0.0
 10
159.2985971290792
 20
116.9330790736237
 30
0.0
 10
159.0222761697537
 20
116.6562227747348
 30
0.0
 10
158.9195125213801
 20
116.5717093278911
 30
0.0
 10
158.7021289640007
 20
116.4262920544508
 30
0.0
 10
158.5873301960442
 20
116.3647808553925
 30
0.0
 10
158.3454534726202
 20
116.2642510071376
 30
0.0
 10
158.21829986462
 20
116.2256059839196
 30
0.0
 10
157.9626338551873
 20
116.1745496563686
 30
0.0
 10
157.8327678174313
 20
116.161484797823
 30
0.0
 10
157.5688152906997
 20
116.1612221770251
 30
0.0
 10
157.4384109672756
 20
116.1740991772691
 30
0.0
 10
157.1827602038963
 20
116.2246851810749
 30
0.0
 10
157.0558946547819
 20
116.2629615456967
 30
0.0
 10
156.813374196836
 20
116.3632324131768
 30
0.0
 10
156.6984475581757
 20
116.4245884373177
 30
0.0
 10
156.4810760893437
 20
116.5694347324904
 30
0.0
 10
156.3780622766815
 20
116.6538122469851
 30
0.0
 10
156.1933617310995
 20
116.8382195671734
 30
0.0
 10
156.1105319968429
 20
116.9387926304428
 30
0.0
 10
155.9642795582454
 20
117.1570187710218
 30
0.0
 10
155.901911077453
 20
117.2735738809431
 30
0.0
 10
155.7519549258863
 20
117.6344234749768
 30
0.0
 10
155.6988016457195
 20
117.8970219724033
 30
0.0
 10
155.6988016457195
 20
118.2935177600334
 30
0.0
  0
SPLINE
  5
F8
330
1F
100
AcDbEntity
  8
0
  6
HIDDEN
 62
     7
370
     0
100
AcDbSpline
210
0.0
220
0.0
230
1.0
 70
     8
 71
     3
 72
    12
 73
     8
 74
     0
 42
0.00000001
 43
0.00000001
 12
1.0
 22
0.0
 32
0.0
 13
1.0
 23
0.0
 33
0.0
 40
0.0
 40
0.0
 40
0.0
 40
0.0
 40
0.2499999999999991
 40
0.2499999999999991
 40
0.4999999999999982
 40
0.4999999999999982
 40
1.0
 40
1.0
 40
1.0
 40
1.0
 10
156.2265584592859
 20
108.7732860661539
 30
0.0
 10
156.1634784207926
 20
108.7732860661539
 30
0.0
 10
156.1043297986112
 20
108.7479217469389
 30
0.0
 10
156.0058572485422
 20
108.673756886566
 30
0.0
 10
155.9668206365574
 20
108.6272365460119
 30
0.0
 10
155.8669241697785
 20
108.4770942031666
 30
0.0
 10
155.8245032887117
 20
108.3654009961946
 30
0.0
 10
155.7935457573938
 20
108.2519831768048
 30
0.0
  0
LINE
  5
F9
330
1F
100
AcDbEntity
  8
0
  6
HIDDEN
 62
     7
370
     0
100
AcDbLine
 10
159.1710448579
 20
108.7732856692
 30
0.0
 11
156.2265586422
 21
108.7732856692
 31
0.0
  0
SPLINE
  5
FA
330
1F
100
AcDbEntity
  8
0
  6
HIDDEN
 62
     7
370
     0
100
AcDbSpline
210
0.0
220
0.0
230
1.0
 70
     8
 71
     3
 72
    12
 73
     8
 74
     0
 42
0.00000001
 43
0.00000001
 12
1.0
 22
0.0
 32
0.0
 13
1.0
 23
0.0
 33
0.0
 40
0.0
 40
0.0
 40
0.0
 40
0.0
 40
0.4999999999999981
 40
0.4999999999999981
 40
0.749999999999999
 40
0.749999999999999
 40
1.0
 40
1.0
 40
1.0
 40
1.0
 10
159.6040575340452
 20
108.2519831768048
 30
0.0
 10
159.5733352921262
 20
108.364538976214
 30
0.0
 10
159.5304980775909
 20
108.4772968359535
 30
0.0
 10
159.4310710533912
 20
108.6268377217499
 30
0.0
 10
159.3913188585745
 20
108.6741304534567
 30
0.0
 10
159.2932774017163
 20
108.7478667467782
 30
0.0
 10
159.2337213461289
 20
108.7732860661539
 30
0.0
 10
159.1710448321531
 20
108.7732860661539
 30
0.0
  0
ELLIPSE
  5
FB
330
1F
100
AcDbEntity
  8
0
  6
HIDDEN
 62
     7
370
     0
100
AcDbEllipse
 10
143.3516474564
 20
118.1613524975
 30
0.0
 11
-14.7536831606561
 21
31.09325491558119
 31
0.0
210
0.0
220
0.0
230
1.0
 40
0.3419987131
 41
3.300734856217129
 42
4.23149622336078
  0
SPLINE
  5
FC
330
1F
100
AcDbEntity
  8
0
  6
HIDDEN
 62
     7
370
     0
100
AcDbSpline
210
0.0
220
0.0
230
1.0
 70
     8
 71
     3
 72
    12
 73
     8
 74
     0
 42
0.00000001
 43
0.00000001
 12
1.0
 22
0.0
 32
0.0
 13
1.0
 23
0.0
 33
0.0
 40
0.0
 40
0.0
 40
0.0
 40
0.0
 40
0.2500000000000014
 40
0.2500000000000014
 40
0.5000000000000029
 40
0.5000000000000029
 40
1.0
 40
1.0
 40
1.0
 40
1.0
 10
159.1710448321531
 20
88.09286053861682
 30
0.0
 10
159.2341248706464
 20
88.0928605386168
 30
0.0
 10
159.2932734928278
 20
88.10076646482936
 30
0.0
 10
159.3917460428969
 20
88.1240916262656
 30
0.0
 10
159.4307826548816
 20
88.1388044160973
 30
0.0
 10
159.5306791216607
 20
88.18676021682822
 30
0.0
 10
159.5731000027272
 20
88.22302237340827
 30
0.0
 10
159.6040575340453
 20
88.26061003737277
 30
0.0
  0
LINE
  5
FD
330
1F
100
AcDbEntity
  8
0
  6
HIDDEN
 62
     7
370
     0
100
AcDbLine
 10
156.2265586422
 20
88.0928599806
 30
0.0
 11
159.1710448579
 21
88.0928599806
 31
0.0
  0
SPLINE
  5
FE
330
1F
100
AcDbEntity
  8
0
  6
HIDDEN
 62
     7
370
     0
100
AcDbSpline
210
0.0
220
0.0
230
1.0
 70
     8
 71
     3
 72
    12
 73
     8
 74
     0
 42
0.00000001
 43
0.00000001
 12
1.0
 22
0.0
 32
0.0
 13
1.0
 23
0.0
 33
0.0
 40
0.0
 40
0.0
 40
0.0
 40
0.0
 40
0.5000000000000019
 40
0.5000000000000019
 40
0.7500000000000009
 40
0.7500000000000009
 40
1.0
 40
1.0
 40
1.0
 40
1.0
 10
155.7935457573937
 20
88.26061003737277
 30
0.0
 10
155.8242679993129
 20
88.22330805441972
 30
0.0
 10
155.867105213848
 20
88.18669622237336
 30
0.0
 10
155.9665322380478
 20
88.13893143908814
 30
0.0
 10
156.0062844328644
 20
88.12397392360579
 30
0.0
 10
156.1043258897227
 20
88.10078397783666
 30
0.0
 10
156.1638819453101
 20
88.09286053861683
 30
0.0
 10
156.2265584592859
 20
88.09286053861685
 30
0.0
  0
ELLIPSE
  5
FF
330
1F
100
AcDbEntity
  8
0
  6
HIDDEN
 62
     7
370
     0
100
AcDbEllipse
 10
172.0459558351
 20
118.1613524975
 30
0.0
 11
14.7536831606561
 21
31.09325491558119
 31
0.0
210
0.0
220
0.0
230
1.0
 40
0.3419987131
 41
2.051689083818818
 42
2.982450450962495
  0
SPLINE
  5
100
330
1F
100
AcDbEntity
  8
0
  6
HIDDEN
 62
     7
370
     0
100
AcDbSpline
210
0.0
220
0.0
230
1.0
 70
     8
 71
     3
 72
    12
 73
     8
 74
     0
 42
0.00000001
 43
0.00000001
 12
1.0
 22
0.0
 32
0.0
 13
1.0
 23
0.0
 33
0.0
 40
0.0
 40
0.0
 40
0.0
 40
0.0
 40
0.2500000000000009
 40
0.2500000000000009
 40
0.5000000000000019
 40
0.5000000000000019
 40
1.0
 40
1.0
 40
1.0
 40
1.0
 10
156.2265584592859
 20
148.2298444563633
 30
0.0
 10
156.1634784207926
 20
148.2298444563633
 30
0.0
 10
156.1043297986112
 20
148.2219385301507
 30
0.0
 10
156.0058572485422
 20
148.1986133687145
 30
0.0
 10
155.9668206365574
 20
148.1839005788828
 30
0.0
 10
155.8669241697785
 20
148.1359447781519
 30
0.0
 10
155.8245032887117
 20
148.0996826215719
 30
0.0
 10
155.7935457573938
 20
148.0620949576074
 30
0.0
  0
LINE
  5
101
330
1F
100
AcDbEntity
  8
0
  6
HIDDEN
 62
     7
370
     0
100
AcDbLine
 10
159.1710448579
 20
148.2298450144
 30
0.0
 11
156.2265586422
 21
148.2298450144
 31
0.0
  0
SPLINE
  5
102
330
1F
100
AcDbEntity
  8
0
  6
HIDDEN
 62
     7
370
     0
100
AcDbSpline
210
0.0
220
0.0
230
1.0
 70
     8
 71
     3
 72
    12
 73
     8
 74
     0
 42
0.00000001
 43
0.00000001
 12
1.0
 22
0.0
 32
0.0
 13
1.0
 23
0.0
 33
0.0
 40
0.0
 40
0.0
 40
0.0
 40
0.0
 40
0.5
 40
0.5
 40
0.75
 40
0.75
 40
1.0
 40
1.0
 40
1.0
 40
1.0
 10
159.6040575340452
 20
148.0620949576074
 30
0.0
 10
159.5733352921262
 20
148.0993969405604
 30
0.0
 10
159.5304980775909
 20
148.1360087726067
 30
0.0
 10
159.4310710533912
 20
148.183773555892
 30
0.0
 10
159.3913188585745
 20
148.1987310713743
 30
0.0
 10
159.2932774017163
 20
148.2219210171435
 30
0.0
 10
159.2337213461288
 20
148.2298444563633
 30
0.0
 10
159.171044832153
 20
148.2298444563633
 30
0.0
  0
ELLIPSE
  5
103
330
1F
100
AcDbEntity
  8
0
  6
HIDDEN
 62
     7
370
     0
100
AcDbEllipse
 10
143.3516474564
 20
118.1613524975
 30
0.0
 11
14.75368316065621
 21
31.09325491558119
 31
0.0
210
0.0
220
0.0
230
1.0
 40
0.3419987131
 41
5.193281737408637
 42
6.124043104552343
  0
SPLINE
  5
104
330
1F
100
AcDbEntity
  8
0
  6
HIDDEN
 62
     7
370
     0
100
AcDbSpline
210
0.0
220
0.0
230
1.0
 70
     8
 71
     3
 72
    12
 73
     8
 74
     0
 42
0.00000001
 43
0.00000001
 12
1.0
 22
0.0
 32
0.0
 13
1.0
 23
0.0
 33
0.0
 40
0.0
 40
0.0
 40
0.0
 40
0.0
 40
0.2499999999999986
 40
0.2499999999999986
 40
0.4999999999999971
 40
0.4999999999999971
 40
1.0
 40
1.0
 40
1.0
 40
1.0
 10
159.1710448321531
 20
127.5494189288265
 30
0.0
 10
159.2341248706464
 20
127.5494189288265
 30
0.0
 10
159.2932734928278
 20
127.5747832480415
 30
0.0
 10
159.3917460428969
 20
127.6489481084144
 30
0.0
 10
159.4307826548815
 20
127.6954684489685
 30
0.0
 10
159.5306791216606
 20
127.8456107918137
 30
0.0
 10
159.5731000027272
 20
127.9573039987859
 30
0.0
 10
159.6040575340452
 20
128.0707218181756
 30
0.0
  0
LINE
  5
105
330
1F
100
AcDbEntity
  8
0
  6
HIDDEN
 62
     7
370
     0
100
AcDbLine
 10
156.2265586422
 20
127.5494193257
 30
0.0
 11
159.1710448579
 21
127.5494193257
 31
0.0
  0
SPLINE
  5
106
330
1F
100
AcDbEntity
  8
0
  6
HIDDEN
 62
     7
370
     0
100
AcDbSpline
210
0.0
220
0.0
230
1.0
 70
     8
 71
     3
 72
    12
 73
     8
 74
     0
 42
0.00000001
 43
0.00000001
 12
1.0
 22
0.0
 32
0.0
 13
1.0
 23
0.0
 33
0.0
 40
0.0
 40
0.0
 40
0.0
 40
0.0
 40
0.500000000000001
 40
0.500000000000001
 40
0.7500000000000004
 40
0.7500000000000004
 40
1.0
 40
1.0
 40
1.0
 40
1.0
 10
155.7935457573937
 20
128.0707218181756
 30
0.0
 10
155.8242679993129
 20
127.9581660187664
 30
0.0
 10
155.867105213848
 20
127.8454081590268
 30
0.0
 10
155.9665322380478
 20
127.6958672732305
 30
0.0
 10
156.0062844328644
 20
127.6485745415237
 30
0.0
 10
156.1043258897227
 20
127.5748382482023
 30
0.0
 10
156.1638819453101
 20
127.5494189288265
 30
0.0
 10
156.226558459286
 20
127.5494189288265
 30
0.0
  0
ELLIPSE
  5
107
330
1F
100
AcDbEntity
  8
0
  6
HIDDEN
 62
     7
370
     0
100
AcDbEllipse
 10
172.0459558351
 20
118.1613524975
 30
0.0
 11
-14.75368316065626
 21
31.09325491558118
 31
0.0
210
0.0
220
0.0
230
1.0
 40
0.3419987131
 41
0.1591422026272814
 42
1.089903569770961
  0
LINE
  5
108
330
1F
100
AcDbEntity
  8
0
  6
HIDDEN
 62
     7
370
     0
100
AcDbLine
 10
145.6988016457
 20
87.1613530041
 30
0.0
 11
145.6988016457
 21
149.1613519909
 31
0.0
  0
LINE
  5
109
330
1F
100
AcDbEntity
  8
0
  6
HIDDEN
 62
     7
370
     0
100
AcDbLine
 10
145.6988016457
 20
93.9113517822
 30
0.0
 11
145.6988016457
 21
142.3876175256
 31
0.0
  0
SPLINE
  5
10A
330
1F
100
AcDbEntity
  8
0
  6
HIDDEN
 62
     7
370
     0
100
AcDbSpline
210
0.0
220
0.0
230
1.0
 70
     8
 71
     3
 72
    12
 73
     8
 74
     0
 42
0.00000001
 43
0.00000001
 12
1.0
 22
0.0
 32
0.0
 13
1.0
 23
0.0
 33
0.0
 40
0.0
 40
0.0
 40
0.0
 40
0.0
 40
0.5000000000000003
 40
0.5000000000000003
 40
0.7500000000000001
 40
0.7500000000000001
 40
1.0
 40
1.0
 40
1.0
 40
1.0
 10
144.8822893592725
 20
133.6136204793209
 30
0.0
 10
144.9386955379527
 20
133.5657981056611
 30
0.0
 10
145.0088584394245
 20
133.5255272587225
 30
0.0
 10
145.1268691528136
 20
133.5174813902456
 30
0.0
 10
145.1670749364091
 20
133.5240439885844
 30
0.0
 10
145.2407956331421
 20
133.5514260830381
 30
0.0
 10
145.2736563549287
 20
133.5711875735684
 30
0.0
 10
145.3038247568579
 20
133.5941202847565
 30
0.0
  0
SPLINE
  5
10B
330
1F
100
AcDbEntity
  8
0
  6
HIDDEN
 62
     7
370
     0
100
AcDbSpline
210
0.0
220
0.0
230
1.0
 70
     8
 71
     3
 72
    16
 73
    12
 74
     0
 42
0.00000001
 43
0.00000001
 12
1.0
 22
0.0
 32
0.0
 13
1.0
 23
0.0
 33
0.0
 40
0.0
 40
0.0
 40
0.0
 40
0.0
 40
0.0624999999999972
 40
0.0624999999999972
 40
0.1249999999999944
 40
0.1249999999999944
 40
0.249999999999989
 40
0.249999999999989
 40
0.4999999999999927
 40
0.4999999999999927
 40
1.0
 40
1.0
 40
1.0
 40
1.0
 10
145.3038247568128
 20
133.5941202848045
 30
0.0
 10
145.3154376566522
 20
133.6029479077859
 30
0.0
 10
145.3287888410847
 20
133.6107822896679
 30
0.0
 10
145.3581886807038
 20
133.6190924157403
 30
0.0
 10
145.3730294052592
 20
133.6185965965052
 30
0.0
 10
145.4088626132277
 20
133.6071456255358
 30
0.0
 10
145.4229758210494
 20
133.5904651246772
 30
0.0
 10
145.4574671922682
 20
133.5383444389201
 30
0.0
 10
145.4685512633787
 20
133.4985549448951
 30
0.0
 10
145.4946740811747
 20
133.375218312798
 30
0.0
 10
145.4988016457195
 20
133.2877969022994
 30
0.0
 10
145.4988016457195
 20
133.1990596599812
 30
0.0
  0
LINE
  5
10C
330
1F
100
AcDbEntity
  8
0
  6
HIDDEN
 62
     7
370
     0
100
AcDbLine
 10
145.4988016508
 20
103.1236454444
 30
0.0
 11
145.4988016508
 21
133.1990595506
 31
0.0
  0
SPLINE
  5
10D
330
1F
100
AcDbEntity
  8
0
  6
HIDDEN
 62
     7
370
     0
100
AcDbSpline
210
0.0
220
0.0
230
1.0
 70
     8
 71
     3
 72
    16
 73
    12
 74
     0
 42
0.00000001
 43
0.00000001
 12
1.0
 22
0.0
 32
0.0
 13
1.0
 23
0.0
 33
0.0
 40
0.0
 40
0.0
 40
0.0
 40
0.0
 40
0.5000000000000037
 40
0.5000000000000037
 40
0.7500000000000132
 40
0.7500000000000132
 40
0.8750000000000107
 40
0.8750000000000107
 40
0.9375000000000053
 40
0.9375000000000053
 40
1.0
 40
1.0
 40
1.0
 40
1.0
 10
145.4988016457195
 20
103.1236453349988
 30
0.0
 10
145.4988016457195
 20
103.0345189698101
 30
0.0
 10
145.4946553706416
 20
102.9476576021967
 30
0.0
 10
145.468689775248
 20
102.8246753557026
 30
0.0
 10
145.4572288698706
 20
102.7839040604713
 30
0.0
 10
145.4229171320963
 20
102.7321997404716
 30
0.0
 10
145.4088923961666
 20
102.7155293738811
 30
0.0
 10
145.3728694331328
 20
102.7040771534244
 30
0.0
 10
145.3581149240431
 20
102.7036241071494
 30
0.0
 10
145.3287627628962
 20
102.7119394283656
 30
0.0
 10
145.3154228883922
 20
102.7197683134438
 30
0.0
 10
145.3038247568438
 20
102.7285847102065
 30
0.0
  0
SPLINE
  5
10E
330
1F
100
AcDbEntity
  8
0
  6
HIDDEN
 62
     7
370
     0
100
AcDbSpline
210
0.0
220
0.0
230
1.0
 70
     8
 71
     3
 72
    12
 73
     8
 74
     0
 42
0.00000001
 43
0.00000001
 12
1.0
 22
0.0
 32
0.0
 13
1.0
 23
0.0
 33
0.0
 40
0.0
 40
0.0
 40
0.0
 40
0.0
 40
0.2500000000000001
 40
0.2500000000000001
 40
0.4999999999999998
 40
0.4999999999999998
 40
1.0
 40
1.0
 40
1.0
 40
1.0
 10
145.3038247568509
 20
102.7285847102154
 30
0.0
 10
145.2736329151337
 20
102.7515352393132
 30
0.0
 10
145.2402739457191
 20
102.7715047133374
 30
0.0
 10
145.1671366611385
 20
102.7986058469629
 30
0.0
 10
145.1268947884845
 20
102.8052065876083
 30
0.0
 10
145.009189011516
 20
102.7972377131016
 30
0.0
 10
144.9387785337366
 20
102.7569772549337
 30
0.0
 10
144.8822893592683
 20
102.7090845156556
 30
0.0
  0
SPLINE
  5
10F
330
1F
100
AcDbEntity
  8
0
  6
HIDDEN
 62
     7
370
     0
100
AcDbSpline
210
0.0
220
0.0
230
1.0
 70
     8
 71
     3
 72
    12
 73
     8
 74
     0
 42
0.00000001
 43
0.00000001
 12
1.0
 22
0.0
 32
0.0
 13
1.0
 23
0.0
 33
0.0
 40
0.0
 40
0.0
 40
0.0
 40
0.0
 40
0.2500000000000009
 40
0.2500000000000009
 40
0.5000000000000018
 40
0.5000000000000018
 40
1.0
 40
1.0
 40
1.0
 40
1.0
 10
144.8822893592679
 20
102.7090845156558
 30
0.0
 10
144.7941354215302
 20
102.6343457078017
 30
0.0
 10
144.7337819969015
 20
102.5433652073193
 30
0.0
 10
144.6275200388346
 20
102.3544513845668
 30
0.0
 10
144.5852878722725
 20
102.2579469250262
 30
0.0
 10
144.4742171769554
 20
101.967179170859
 30
0.0
 10
144.4212804005286
 20
101.7715123563153
 30
0.0
 10
144.3774813021598
 20
101.577445871249
 30
0.0
  0
SPLINE
  5
110
330
1F
100
AcDbEntity
  8
0
  6
HIDDEN
 62
     7
370
     0
100
AcDbSpline
210
0.0
220
0.0
230
1.0
 70
     8
 71
     3
 72
    12
 73
     8
 74
     0
 42
0.00000001
 43
0.00000001
 12
1.0
 22
0.0
 32
0.0
 13
1.0
 23
0.0
 33
0.0
 40
0.0
 40
0.0
 40
0.0
 40
0.0
 40
0.5000000000000001
 40
0.5000000000000001
 40
0.75
 40
0.75
 40
1.0
 40
1.0
 40
1.0
 40
1.0
 10
144.3774813021598
 20
96.39127154248786
 30
0.0
 10
144.4212278429964
 20
96.36467737184667
 30
0.0
 10
144.4741121982279
 20
96.34491714652096
 30
0.0
 10
144.5856792855641
 20
96.32446615629188
 30
0.0
 10
144.628262882107
 20
96.31920593163542
 30
0.0
 10
144.7331796091888
 20
96.31132313771279
 30
0.0
 10
144.7947132170336
 20
96.30875901253363
 30
0.0
 10
144.8822893592598
 20
96.30655879501398
 30
0.0
  0
LINE
  5
111
330
1F
100
AcDbEntity
  8
0
  6
HIDDEN
 62
     7
370
     0
100
AcDbLine
 10
145.4988016508
 20
95.6215319754
 30
0.0
 11
145.4988016508
 21
96.1017572851
 31
0.0
  0
LINE
  5
112
330
1F
100
AcDbEntity
  8
0
  6
HIDDEN
 62
     7
370
     0
100
AcDbLine
 10
145.4988016508
 20
140.2209477098
 30
0.0
 11
145.4988016508
 21
140.7011730196
 31
0.0
  0
SPLINE
  5
113
330
1F
100
AcDbEntity
  8
0
  6
HIDDEN
 62
     7
370
     0
100
AcDbSpline
210
0.0
220
0.0
230
1.0
 70
     8
 71
     3
 72
    12
 73
     8
 74
     0
 42
0.00000001
 43
0.00000001
 12
1.0
 22
0.0
 32
0.0
 13
1.0
 23
0.0
 33
0.0
 40
0.0
 40
0.0
 40
0.0
 40
0.0
 40
0.2499999999999997
 40
0.2499999999999997
 40
0.4999999999999992
 40
0.4999999999999992
 40
1.0
 40
1.0
 40
1.0
 40
1.0
 10
144.8822893592678
 20
140.0161461999659
 30
0.0
 10
144.7936046994114
 20
140.0139181326249
 30
0.0
 10
144.733686283688
 20
140.0114163485946
 30
0.0
 10
144.6280270563672
 20
140.0034849127586
 30
0.0
 10
144.5853858182523
 20
139.9981927578617
 30
0.0
 10
144.4741964761498
 20
139.9777878173746
 30
0.0
 10
144.4212697940288
 20
139.9580531257877
 30
0.0
 10
144.3774813021598
 20
139.9314334524921
 30
0.0
  0
SPLINE
  5
114
330
1F
100
AcDbEntity
  8
0
  6
HIDDEN
 62
     7
370
     0
100
AcDbSpline
210
0.0
220
0.0
230
1.0
 70
     8
 71
     3
 72
    12
 73
     8
 74
     0
 42
0.00000001
 43
0.00000001
 12
1.0
 22
0.0
 32
0.0
 13
1.0
 23
0.0
 33
0.0
 40
0.0
 40
0.0
 40
0.0
 40
0.0
 40
0.4999999999999977
 40
0.4999999999999977
 40
0.7499999999999973
 40
0.7499999999999973
 40
1.0
 40
1.0
 40
1.0
 40
1.0
 10
144.3774813021583
 20
134.7452591237312
 30
0.0
 10
144.421242778457
 20
134.5513593357692
 30
0.0
 10
144.47414909411
 20
134.3555029718323
 30
0.0
 10
144.5858602917574
 20
134.0633608253333
 30
0.0
 10
144.6283797353438
 20
133.9666428886354
 30
0.0
 10
144.7335030779112
 20
133.7799184522109
 30
0.0
 10
144.7950690416289
 20
133.6875677439412
 30
0.0
 10
144.8822893592716
 20
133.6136204793216
 30
0.0
  0
LINE
  5
115
330
1F
100
AcDbEntity
  8
0
  6
HIDDEN
 62
     7
370
     0
100
AcDbLine
 10
145.4988016508
 20
96.1017572851
 30
0.0
 11
145.4988016508
 21
111.1394652696
 31
0.0
  0
LINE
  5
116
330
1F
100
AcDbEntity
  8
0
  6
HIDDEN
 62
     7
370
     0
100
AcDbLine
 10
145.4988016508
 20
125.1832397254
 30
0.0
 11
145.4988016508
 21
140.2209477098
 31
0.0
  0
LINE
  5
117
330
1F
100
AcDbEntity
  8
0
  6
HIDDEN
 62
     7
370
     0
100
AcDbLine
 10
167.6988015265
 20
98.1613529445
 30
0.0
 11
167.6988015265
 21
138.1613520505
 31
0.0
  0
CIRCLE
  5
118
330
1F
100
AcDbEntity
  8
0
  6
HIDDEN
 62
     7
370
     0
100
AcDbCircle
 10
130.1988016457
 20
118.1613524975
 30
0.0
 40
4.050000000000011
  0
LINE
  5
119
330
1F
100
AcDbEntity
  8
0
  6
HIDDEN
 62
     7
370
     0
100
AcDbLine
 10
109.2290291876
 20
133.4743035556
 30
0.0
 11
109.2290291876
 21
102.8484014393
 31
0.0
  0
LINE
  5
11A
330
1F
100
AcDbEntity
  8
0
  6
HIDDEN
 62
     7
370
     0
100
AcDbLine
 10
107.6988028676
 20
101.964922768
 30
0.0
 11
107.6988028676
 21
134.357782227
 31
0.0
  0
LINE
  5
11B
330
1F
100
AcDbEntity
  8
0
  6
HIDDEN
 62
     7
370
     0
100
AcDbLine
 10
115.7290293218
 20
132.5077630179
 30
0.0
 11
115.7290293218
 21
103.8149419771
 31
0.0
  0
SPLINE
  5
11C
330
1F
100
AcDbEntity
  8
0
  6
HIDDEN
 62
     7
370
     0
100
AcDbSpline
210
0.0
220
0.0
230
1.0
 70
     8
 71
     3
 72
    66
 73
    62
 74
     0
 42
0.00000001
 43
0.00000001
 12
1.0
 22
0.0
 32
0.0
 13
1.0
 23
0.0
 33
0.0
 40
-0.0312499999999987
 40
-0.0312499999999987
 40
0.0
 40
0.0
 40
0.0312500000000013
 40
0.0312500000000013
 40
0.0625000000000026
 40
0.0625000000000026
 40
0.0937500000000039
 40
0.0937500000000039
 40
0.1250000000000051
 40
0.1250000000000051
 40
0.1562500000000063
 40
0.1562500000000063
 40
0.1875000000000075
 40
0.1875000000000075
 40
0.2187500000000087
 40
0.2187500000000087
 40
0.2500000000000098
 40
0.2500000000000098
 40
0.281250000000011
 40
0.281250000000011
 40
0.3125000000000122
 40
0.3125000000000122
 40
0.3437500000000133
 40
0.3437500000000133
 40
0.3750000000000145
 40
0.3750000000000145
 40
0.4062500000000157
 40
0.4062500000000157
 40
0.4375000000000169
 40
0.4375000000000169
 40
0.468750000000018
 40
0.468750000000018
 40
0.5000000000000192
 40
0.5000000000000192
 40
0.5625000000000189
 40
0.5625000000000189
 40
0.5937500000000175
 40
0.5937500000000175
 40
0.6250000000000161
 40
0.6250000000000161
 40
0.6562500000000148
 40
0.6562500000000148
 40
0.6875000000000133
 40
0.6875000000000133
 40
0.718750000000012
 40
0.718750000000012
 40
0.7500000000000105
 40
0.7500000000000105
 40
0.7812500000000092
 40
0.7812500000000092
 40
0.8125000000000079
 40
0.8125000000000079
 40
0.8437500000000066
 40
0.8437500000000066
 40
0.8750000000000053
 40
0.8750000000000053
 40
0.9375000000000027
 40
0.9375000000000027
 40
0.9687500000000013
 40
0.9687500000000013
 40
1.0
 40
1.0
 40
1.031250000000001
 40
1.031250000000001
 10
228.5333678979982
 20
120.6672552914745
 30
0.0
 10
228.8642353934409
 20
120.6672552914745
 30
0.0
 10
229.0268531411683
 20
120.6835204455488
 30
0.0
 10
229.3467029999033
 20
120.747111451356
 30
0.0
 10
229.50561149176
 20
120.7952258838458
 30
0.0
 10
229.8082345410856
 20
120.9203068980659
 30
0.0
 10
229.9517245946114
 20
120.9966992848708
 30
0.0
 10
230.2232845699615
 20
121.176574747665
 30
0.0
 10
230.3516621265213
 20
121.2808533604618
 30
0.0
 10
230.5818692430192
 20
121.5077511548842
 30
0.0
 10
230.6852638869312
 20
121.6312167378377
 30
0.0
 10
230.8680338540469
 20
121.8983913107935
 30
0.0
 10
230.9455420782223
 20
122.0397690281679
 30
0.0
 10
231.070309652023
 20
122.3313307698843
 30
0.0
 10
231.1184454317511
 20
122.4836738387633
 30
0.0
 10
231.1827670666433
 20
122.7937397158508
 30
0.0
 10
231.1987083474825
 20
122.9489433827477
 30
0.0
 10
231.1988941351432
 20
123.2596006220982
 30
0.0
 10
231.1826061233562
 20
123.4166121261338
 30
0.0
 10
231.1187222289271
 20
123.7187036010273
 30
0.0
 10
231.0714577961591
 20
123.8648139268685
 30
0.0
 10
230.9460496853341
 20
124.1473685707121
 30
0.0
 10
230.8678828825743
 20
124.2828677931165
 30
0.0
 10
230.6870752490583
 20
124.5329365737574
 30
0.0
 10
230.5835387717324
 20
124.649305222088
 30
0.0
 10
230.3507055652924
 20
124.8628807060059
 30
0.0
 10
230.2247352304998
 20
124.9571430561697
 30
0.0
 10
229.954280015057
 20
125.1220033932805
 30
0.0
 10
229.8080187626722
 20
125.1931691551728
 30
0.0
 10
229.5055766718744
 20
125.3068461747245
 30
0.0
 10
229.3497571912509
 20
125.3496797634942
 30
0.0
 10
229.0289064300505
 20
125.4076642316689
 30
0.0
 10
228.8630456744557
 20
125.4224806277997
 30
0.0
 10
228.3732196410158
 20
125.4226518553197
 30
0.0
 10
228.0437773849892
 20
125.3636041536561
 30
0.0
 10
227.5923194714525
 20
125.1943355484932
 30
0.0
 10
227.4466000931133
 20
125.123815863774
 30
0.0
 10
227.1737770582312
 20
124.9578792988776
 30
0.0
 10
227.0480318366861
 20
124.8636483665969
 30
0.0
 10
226.8173658879576
 20
124.6526009840658
 30
0.0
 10
226.7117951810551
 20
124.5344932339524
 30
0.0
 10
226.530409793454
 20
124.2840150299395
 30
0.0
 10
226.4534643936048
 20
124.1509706538167
 30
0.0
 10
226.3275046273318
 20
123.8685611830061
 30
0.0
 10
226.2792925105466
 20
123.7200064037783
 30
0.0
 10
226.2153735618874
 20
123.4190269461343
 30
0.0
 10
226.1989396745381
 20
123.2647293376752
 30
0.0
 10
226.1986653399311
 20
122.9504671718902
 30
0.0
 10
226.2147489458613
 20
122.7950734660311
 30
0.0
 10
226.2781348322143
 20
122.4877081889955
 30
0.0
 10
226.326260854408
 20
122.3340927781399
 30
0.0
 10
226.4514666193776
 20
122.0408144389682
 30
0.0
 10
226.5281273301356
 20
121.9009419204507
 30
0.0
 10
226.7094737288222
 20
121.6349736558597
 30
0.0
 10
226.8147107564633
 20
121.5089048686974
 30
0.0
 10
227.1596553122259
 20
121.1684857936999
 30
0.0
 10
227.4380508394849
 20
120.9831559771703
 30
0.0
 10
227.8889671833607
 20
120.79632459588
 30
0.0
 10
228.0469153646603
 20
120.7480695090386
 30
0.0
 10
228.3699159448773
 20
120.683522959574
 30
0.0
 10
228.5333678979982
 20
120.6672552914745
 30
0.0
 10
228.8642353934409
 20
120.6672552914745
 30
0.0
  0
LINE
  5
11D
330
1F
100
AcDbEntity
  8
0
  6
HIDDEN
 62
     7
370
     0
100
AcDbLine
 10
121.529030645
 20
132.1613529296
 30
0.0
 11
121.529030645
 21
104.1613520654
 31
0.0
  0
LINE
  5
11E
330
1F
100
AcDbEntity
  8
0
  6
HIDDEN
 62
     7
370
     0
100
AcDbLine
 10
114.1290301771
 20
132.1613529296
 30
0.0
 11
114.1290301771
 21
104.1613520654
 31
0.0
  0
LINE
  5
11F
330
1F
100
AcDbEntity
  8
0
  6
HIDDEN
 62
     7
370
     0
100
AcDbLine
 10
115.129030341
 20
132.1613529296
 30
0.0
 11
115.129030341
 21
104.1613520654
 31
0.0
  0
SPLINE
  5
120
330
1F
100
AcDbEntity
  8
0
  6
HIDDEN
 62
     7
370
     0
100
AcDbSpline
210
0.0
220
0.0
230
1.0
 70
     8
 71
     3
 72
    10
 73
     6
 74
     0
 42
0.00000001
 43
0.00000001
 12
1.0
 22
0.0
 32
0.0
 13
1.0
 23
0.0
 33
0.0
 40
0.0
 40
0.0
 40
0.0
 40
0.0
 40
0.5
 40
0.5
 40
1.0
 40
1.0
 40
1.0
 40
1.0
 10
134.1988016457195
 20
118.7957813745125
 30
0.0
 10
134.2319490637959
 20
118.5867907735045
 30
0.0
 10
134.2488079091576
 20
118.3752283074829
 30
0.0
 10
134.2487953788099
 20
117.9472395415153
 30
0.0
 10
134.2318804210695
 20
117.7354814370996
 30
0.0
 10
134.1988016457195
 20
117.5269236204675
 30
0.0
  0
LINE
  5
121
330
1F
100
AcDbEntity
  8
0
  6
HIDDEN
 62
     7
370
     0
100
AcDbLine
 10
134.6988017053
 20
131.6613528477
 30
0.0
 11
134.6988017053
 21
104.6613521473
 31
0.0
  0
SPLINE
  5
122
330
1F
100
AcDbEntity
  8
0
  6
HIDDEN
 62
     7
370
     0
100
AcDbSpline
210
0.0
220
0.0
230
1.0
 70
     8
 71
     3
 72
    10
 73
     6
 74
     0
 42
0.00000001
 43
0.00000001
 12
1.0
 22
0.0
 32
0.0
 13
1.0
 23
0.0
 33
0.0
 40
0.0
 40
0.0
 40
0.0
 40
0.0
 40
0.5
 40
0.5
 40
1.0
 40
1.0
 40
1.0
 40
1.0
 10
134.1988016457195
 20
117.5269236204675
 30
0.0
 10
134.2319906081932
 20
117.73617615405
 30
0.0
 10
134.2486913844479
 20
117.9469929149489
 30
0.0
 10
134.2489108248925
 20
118.3715251961522
 30
0.0
 10
134.2320311094991
 20
118.5862734849248
 30
0.0
 10
134.1988016457195
 20
118.7957813745125
 30
0.0
  0
SPLINE
  5
123
330
1F
100
AcDbEntity
  8
0
  6
HIDDEN
 62
     7
370
     0
100
AcDbSpline
210
0.0
220
0.0
230
1.0
 70
     8
 71
     3
 72
    68
 73
    64
 74
     0
 42
0.00000001
 43
0.00000001
 12
1.0
 22
0.0
 32
0.0
 13
1.0
 23
0.0
 33
0.0
 40
0.0
 40
0.0
 40
0.0
 40
0.0
 40
0.0312499999999999
 40
0.0312499999999999
 40
0.0624999999999998
 40
0.0624999999999998
 40
0.0937499999999997
 40
0.0937499999999997
 40
0.1249999999999995
 40
0.1249999999999995
 40
0.1562499999999994
 40
0.1562499999999994
 40
0.1874999999999993
 40
0.1874999999999993
 40
0.2187499999999991
 40
0.2187499999999991
 40
0.249999999999999
 40
0.249999999999999
 40
0.2812499999999991
 40
0.2812499999999991
 40
0.3124999999999992
 40
0.3124999999999992
 40
0.3437499999999993
 40
0.3437499999999993
 40
0.3749999999999994
 40
0.3749999999999994
 40
0.4062499999999996
 40
0.4062499999999996
 40
0.4374999999999997
 40
0.4374999999999997
 40
0.4687499999999998
 40
0.4687499999999998
 40
0.4999999999999999
 40
0.4999999999999999
 40
0.5625000000000001
 40
0.5625000000000001
 40
0.5937500000000002
 40
0.5937500000000002
 40
0.6250000000000003
 40
0.6250000000000003
 40
0.6562500000000004
 40
0.6562500000000004
 40
0.6875000000000006
 40
0.6875000000000006
 40
0.7187500000000007
 40
0.7187500000000007
 40
0.7500000000000008
 40
0.7500000000000008
 40
0.7812500000000008
 40
0.7812500000000008
 40
0.8125000000000007
 40
0.8125000000000007
 40
0.8437500000000006
 40
0.8437500000000006
 40
0.8750000000000004
 40
0.8750000000000004
 40
0.9062500000000003
 40
0.9062500000000003
 40
0.9375000000000002
 40
0.9375000000000002
 40
0.9687500000000001
 40
0.9687500000000001
 40
1.0
 40
1.0
 40
1.0
 40
1.0
 10
134.1988016457195
 20
117.5269236204675
 30
0.0
 10
134.1587866933698
 20
117.2746340176519
 30
0.0
 10
134.0958448919585
 20
117.0306351672761
 30
0.0
 10
133.9264582298864
 20
116.5582167782136
 30
0.0
 10
133.818764667301
 20
116.3278033920537
 30
0.0
 10
133.5634798987631
 20
115.8930987962566
 30
0.0
 10
133.4174406682909
 20
115.6904568296052
 30
0.0
 10
133.0892192317316
 20
115.3134675388474
 30
0.0
 10
132.9049719439566
 20
115.13780958527
 30
0.0
 10
132.5120117766483
 20
114.8275516163238
 30
0.0
 10
132.3027171796892
 20
114.6916064086738
 30
0.0
 10
131.8578317527518
 20
114.458216313268
 30
0.0
 10
131.6210341602527
 20
114.3609697068536
 30
0.0
 10
131.1402990913335
 20
114.2142982489822
 30
0.0
 10
130.8940559981507
 20
114.1634059040398
 30
0.0
 10
130.3893392181713
 20
114.1078785538043
 30
0.0
 10
130.1331445172348
 20
114.1040536667344
 30
0.0
 10
129.6307657680347
 20
114.1434774493788
 30
0.0
 10
129.3815160688511
 20
114.1865048985901
 30
0.0
 10
128.8899882713723
 20
114.3202098680414
 30
0.0
 10
128.6546926701465
 20
114.4088797139465
 30
0.0
 10
128.2037787754844
 20
114.627911077724
 30
0.0
 10
127.986166425021
 20
114.7599126434075
 30
0.0
 10
127.5829592554727
 20
115.0592699244104
 30
0.0
 10
127.3973477630383
 20
115.2258888518483
 30
0.0
 10
127.0573596926358
 20
115.5930002772758
 30
0.0
 10
126.9022867618129
 20
115.7953040228165
 30
0.0
 10
126.6359436851495
 20
116.2193847024105
 30
0.0
 10
126.5229595844327
 20
116.4425443078767
 30
0.0
 10
126.3381043275018
 20
116.9118995494708
 30
0.0
 10
126.2669635659984
 20
117.1581100528063
 30
0.0
 10
126.1730031547103
 20
117.6526358791775
 30
0.0
 10
126.1489938247539
 20
117.9035668742695
 30
0.0
 10
126.1484207040813
 20
118.6678122538257
 30
0.0
 10
126.2438198153999
 20
119.1700365558767
 30
0.0
 10
126.521683607601
 20
119.8776010621491
 30
0.0
 10
126.6348455636816
 20
120.1013073258899
 30
0.0
 10
126.9009767457255
 20
120.5255772372105
 30
0.0
 10
127.0558045199252
 20
120.7278291992665
 30
0.0
 10
127.395985625713
 20
121.0955399406347
 30
0.0
 10
127.5814880826627
 20
121.2621568158841
 30
0.0
 10
127.9837818837221
 20
121.5612061946795
 30
0.0
 10
128.2017899319741
 20
121.6936629027079
 30
0.0
 10
128.6523882991244
 20
121.9128693034126
 30
0.0
 10
128.8869372980052
 20
122.0013544334162
 30
0.0
 10
129.3753972915575
 20
122.1348406633549
 30
0.0
 10
129.6276626872713
 20
122.1787823758486
 30
0.0
 10
130.1298433254316
 20
122.2185913723221
 30
0.0
 10
130.3823254427833
 20
122.2152471595086
 30
0.0
 10
130.8901904858528
 20
122.1600678395181
 30
0.0
 10
131.1377359590366
 20
122.1090219110487
 30
0.0
 10
131.6187034965074
 20
121.9626115228131
 30
0.0
 10
131.8546633616126
 20
121.8659653180395
 30
0.0
 10
132.3012338111342
 20
121.6320603737264
 30
0.0
 10
132.5108786737077
 20
121.4959353598999
 30
0.0
 10
132.9038653804621
 20
121.1858810955708
 30
0.0
 10
133.0882612842771
 20
121.0102238479957
 30
0.0
 10
133.4168117021375
 20
120.6330839253313
 30
0.0
 10
133.5627537986607
 20
120.4306177200614
 30
0.0
 10
133.8176391538628
 20
119.9970414219281
 30
0.0
 10
133.9259504666712
 20
119.7657495783465
 30
0.0
 10
134.0957854440881
 20
119.2923898982133
 30
0.0
 10
134.1587808052252
 20
119.0481081013925
 30
0.0
 10
134.1988016457195
 20
118.7957813745125
 30
0.0
  0
SPLINE
  5
124
330
1F
100
AcDbEntity
  8
0
  6
HIDDEN
 62
     7
370
     0
100
AcDbSpline
210
0.0
220
0.0
230
1.0
 70
     8
 71
     3
 72
    68
 73
    64
 74
     0
 42
0.00000001
 43
0.00000001
 12
1.0
 22
0.0
 32
0.0
 13
1.0
 23
0.0
 33
0.0
 40
0.0
 40
0.0
 40
0.0
 40
0.0
 40
0.03125
 40
0.03125
 40
0.0625
 40
0.0625
 40
0.09375
 40
0.09375
 40
0.125
 40
0.125
 40
0.15625
 40
0.15625
 40
0.1875000000000001
 40
0.1875000000000001
 40
0.2187500000000001
 40
0.2187500000000001
 40
0.2500000000000001
 40
0.2500000000000001
 40
0.2812500000000001
 40
0.2812500000000001
 40
0.3125000000000001
 40
0.3125000000000001
 40
0.3437500000000001
 40
0.3437500000000001
 40
0.3750000000000001
 40
0.3750000000000001
 40
0.4062500000000001
 40
0.4062500000000001
 40
0.4375000000000001
 40
0.4375000000000001
 40
0.46875
 40
0.46875
 40
0.4999999999999999
 40
0.4999999999999999
 40
0.5624999999999999
 40
0.5624999999999999
 40
0.5937499999999999
 40
0.5937499999999999
 40
0.6249999999999999
 40
0.6249999999999999
 40
0.6562499999999999
 40
0.6562499999999999
 40
0.6874999999999999
 40
0.6874999999999999
 40
0.7187499999999999
 40
0.7187499999999999
 40
0.7499999999999999
 40
0.7499999999999999
 40
0.78125
 40
0.78125
 40
0.8125
 40
0.8125
 40
0.84375
 40
0.84375
 40
0.875
 40
0.875
 40
0.90625
 40
0.90625
 40
0.9375
 40
0.9375
 40
0.96875
 40
0.96875
 40
1.0
 40
1.0
 40
1.0
 40
1.0
 10
134.1988016457195
 20
118.7957813745125
 30
0.0
 10
134.1587866933698
 20
119.0480709773281
 30
0.0
 10
134.0958448919585
 20
119.2920698277039
 30
0.0
 10
133.9264582298864
 20
119.7644882167664
 30
0.0
 10
133.818764667301
 20
119.9949016029263
 30
0.0
 10
133.5634798987631
 20
120.4296061987234
 30
0.0
 10
133.4174406682909
 20
120.6322481653748
 30
0.0
 10
133.0892192317316
 20
121.0092374561326
 30
0.0
 10
132.9049719439566
 20
121.18489540971
 30
0.0
 10
132.5120117766483
 20
121.4951533786562
 30
0.0
 10
132.3027171796892
 20
121.6310985863061
 30
0.0
 10
131.8578317527518
 20
121.8644886817119
 30
0.0
 10
131.6210341602528
 20
121.9617352881263
 30
0.0
 10
131.1402990913335
 20
122.1084067459977
 30
0.0
 10
130.8940559981507
 20
122.1592990909401
 30
0.0
 10
130.3893392181713
 20
122.2148264411756
 30
0.0
 10
130.1331445172348
 20
122.2186513282456
 30
0.0
 10
129.6307657680347
 20
122.1792275456012
 30
0.0
 10
129.3815160688511
 20
122.1362000963899
 30
0.0
 10
128.8899882713723
 20
122.0024951269386
 30
0.0
 10
128.6546926701465
 20
121.9138252810334
 30
0.0
 10
128.2037787754844
 20
121.694793917256
 30
0.0
 10
127.986166425021
 20
121.5627923515725
 30
0.0
 10
127.5829592554727
 20
121.2634350705696
 30
0.0
 10
127.3973477630383
 20
121.0968161431317
 30
0.0
 10
127.0573596926358
 20
120.7297047177042
 30
0.0
 10
126.9022867618129
 20
120.5274009721635
 30
0.0
 10
126.6359436851495
 20
120.1033202925695
 30
0.0
 10
126.5229595844327
 20
119.8801606871033
 30
0.0
 10
126.3381043275018
 20
119.4108054455091
 30
0.0
 10
126.2669635659984
 20
119.1645949421737
 30
0.0
 10
126.1730031547103
 20
118.6700691158025
 30
0.0
 10
126.1489938247539
 20
118.4191381207105
 30
0.0
 10
126.1484207040813
 20
117.6548927411542
 30
0.0
 10
126.2438198153999
 20
117.1526684391033
 30
0.0
 10
126.521683607601
 20
116.4451039328309
 30
0.0
 10
126.6348455636816
 20
116.2213976690901
 30
0.0
 10
126.9009767457255
 20
115.7971277577695
 30
0.0
 10
127.0558045199252
 20
115.5948757957134
 30
0.0
 10
127.395985625713
 20
115.2271650543453
 30
0.0
 10
127.5814880826627
 20
115.0605481790959
 30
0.0
 10
127.9837818837221
 20
114.7614988003005
 30
0.0
 10
128.2017899319741
 20
114.6290420922721
 30
0.0
 10
128.6523882991244
 20
114.4098356915674
 30
0.0
 10
128.8869372980052
 20
114.3213505615638
 30
0.0
 10
129.3753972915575
 20
114.1878643316251
 30
0.0
 10
129.6276626872714
 20
114.1439226191314
 30
0.0
 10
130.1298433254316
 20
114.1041136226579
 30
0.0
 10
130.3823254427833
 20
114.1074578354714
 30
0.0
 10
130.8901904858528
 20
114.1626371554619
 30
0.0
 10
131.1377359590366
 20
114.2136830839313
 30
0.0
 10
131.6187034965074
 20
114.3600934721669
 30
0.0
 10
131.8546633616126
 20
114.4567396769405
 30
0.0
 10
132.3012338111342
 20
114.6906446212536
 30
0.0
 10
132.5108786737077
 20
114.8267696350801
 30
0.0
 10
132.9038653804622
 20
115.1368238994092
 30
0.0
 10
133.0882612842771
 20
115.3124811469843
 30
0.0
 10
133.4168117021376
 20
115.6896210696487
 30
0.0
 10
133.5627537986607
 20
115.8920872749186
 30
0.0
 10
133.8176391538628
 20
116.3256635730519
 30
0.0
 10
133.9259504666712
 20
116.5569554166334
 30
0.0
 10
134.0957854440881
 20
117.0303150967667
 30
0.0
 10
134.1587808052252
 20
117.2745968935874
 30
0.0
 10
134.1988016457195
 20
117.5269236204675
 30
0.0
  0
SPLINE
  5
125
330
1F
100
AcDbEntity
  8
0
  6
HIDDEN
 62
     7
370
     0
100
AcDbSpline
210
0.0
220
0.0
230
1.0
 70
     8
 71
     3
 72
    62
 73
    58
 74
     0
 42
0.00000001
 43
0.00000001
 12
1.0
 22
0.0
 32
0.0
 13
1.0
 23
0.0
 33
0.0
 40
-0.0312499999999998
 40
-0.0312499999999998
 40
0.0
 40
0.0
 40
0.0312500000000018
 40
0.0312500000000018
 40
0.0625000000000036
 40
0.0625000000000036
 40
0.1250000000000044
 40
0.1250000000000044
 40
0.1875000000000052
 40
0.1875000000000052
 40
0.218750000000005
 40
0.218750000000005
 40
0.2500000000000048
 40
0.2500000000000048
 40
0.2812500000000046
 40
0.2812500000000046
 40
0.3125000000000044
 40
0.3125000000000044
 40
0.3437500000000042
 40
0.3437500000000042
 40
0.3750000000000039
 40
0.3750000000000039
 40
0.4375000000000036
 40
0.4375000000000036
 40
0.4687500000000034
 40
0.4687500000000034
 40
0.5000000000000031
 40
0.5000000000000031
 40
0.531250000000003
 40
0.531250000000003
 40
0.5625000000000028
 40
0.5625000000000028
 40
0.5937500000000027
 40
0.5937500000000027
 40
0.6250000000000024
 40
0.6250000000000024
 40
0.6562500000000022
 40
0.6562500000000022
 40
0.687500000000002
 40
0.687500000000002
 40
0.7187500000000018
 40
0.7187500000000018
 40
0.7500000000000016
 40
0.7500000000000016
 40
0.7812500000000014
 40
0.7812500000000014
 40
0.8125000000000012
 40
0.8125000000000012
 40
0.8750000000000008
 40
0.8750000000000008
 40
0.9062500000000006
 40
0.9062500000000006
 40
0.9375000000000004
 40
0.9375000000000004
 40
0.9687500000000002
 40
0.9687500000000002
 40
1.0
 40
1.0
 40
1.031250000000002
 40
1.031250000000002
 10
228.5576034217396
 20
115.0223379724352
 30
0.0
 10
228.8399998696994
 20
115.0223379724353
 30
0.0
 10
228.9782777467132
 20
115.0332334769568
 30
0.0
 10
229.249443817921
 20
115.0758772789755
 30
0.0
 10
229.3836471453806
 20
115.1082168923104
 30
0.0
 10
229.7627103251707
 20
115.2340775530417
 30
0.0
 10
229.9917172468645
 20
115.3584148241779
 30
0.0
 10
230.3727478658673
 20
115.6762001956508
 30
0.0
 10
230.5283709427889
 20
115.8732723380692
 30
0.0
 10
230.6874414193576
 20
116.2099886573936
 30
0.0
 10
230.729168564501
 20
116.3316807449926
 30
0.0
 10
230.784439265643
 20
116.5822459772846
 30
0.0
 10
230.7985191971328
 20
116.7112160758514
 30
0.0
 10
230.799075763454
 20
116.9768898177945
 30
0.0
 10
230.7850864860334
 20
117.1134079155314
 30
0.0
 10
230.7306049667978
 20
117.3801065254519
 30
0.0
 10
230.6897545086428
 20
117.5131218139045
 30
0.0
 10
230.5831405417834
 20
117.77108293012
 30
0.0
 10
230.5183883995104
 20
117.8942163641202
 30
0.0
 10
230.3668298575578
 20
118.1290190338005
 30
0.0
 10
230.2794917343848
 20
118.240868841621
 30
0.0
 10
229.9937153134232
 20
118.5457840548638
 30
0.0
 10
229.7641789649573
 20
118.7159295190911
 30
0.0
 10
229.3878608289631
 20
118.8915658239937
 30
0.0
 10
229.2555279206024
 20
118.9377779206953
 30
0.0
 10
228.9814952616116
 20
119.0004960904688
 30
0.0
 10
228.8434701019894
 20
119.0163466522961
 30
0.0
 10
228.5653987207707
 20
119.0171870067986
 30
0.0
 10
228.4236857821003
 20
119.0015678668499
 30
0.0
 10
228.15126352642
 20
118.9405038054371
 30
0.0
 10
228.019435381923
 20
118.8954500244444
 30
0.0
 10
227.7640364863184
 20
118.7774927113456
 30
0.0
 10
227.643870483129
 20
118.7061190109511
 30
0.0
 10
227.4186990705728
 20
118.5419179885599
 30
0.0
 10
227.3125480092384
 20
118.4478743311827
 30
0.0
 10
227.1211007205362
 20
118.2444947405441
 30
0.0
 10
227.0351667066167
 20
118.1350002508411
 30
0.0
 10
226.8827543885767
 20
117.9004830670436
 30
0.0
 10
226.8165708982892
 20
117.7751900312543
 30
0.0
 10
226.7103891997381
 20
117.5202195790628
 30
0.0
 10
226.6694091365223
 20
117.3892098452659
 30
0.0
 10
226.613328995725
 20
117.1199297454051
 30
0.0
 10
226.5991048202837
 20
116.9846195503521
 30
0.0
 10
226.5985081364122
 20
116.7200119077232
 30
0.0
 10
226.6122767039107
 20
116.5880664221207
 30
0.0
 10
226.6671267708527
 20
116.3358825044603
 30
0.0
 10
226.7076232841292
 20
116.2163814404359
 30
0.0
 10
226.8670857553053
 20
115.8758453453872
 30
0.0
 10
227.0217541796195
 20
115.6791166564447
 30
0.0
 10
227.3100622109641
 20
115.438170191283
 30
0.0
 10
227.4140870263119
 20
115.3678584429026
 30
0.0
 10
227.6385062844907
 20
115.2451909351848
 30
0.0
 10
227.7604370723512
 20
115.1924522645637
 30
0.0
 10
228.0128942237772
 20
115.1085106959983
 30
0.0
 10
228.1437807536944
 20
115.0767855955315
 30
0.0
 10
228.4157216714072
 20
115.0335868643472
 30
0.0
 10
228.5576034217396
 20
115.0223379724352
 30
0.0
 10
228.8399998696994
 20
115.0223379724353
 30
0.0
  0
SPLINE
  5
126
330
1F
100
AcDbEntity
  8
0
  6
HIDDEN
 62
     7
370
     0
100
AcDbSpline
210
0.0
220
0.0
230
1.0
 70
     8
 71
     3
 72
    10
 73
     6
 74
     0
 42
0.00000001
 43
0.00000001
 12
1.0
 22
0.0
 32
0.0
 13
1.0
 23
0.0
 33
0.0
 40
0.0
 40
0.0
 40
0.0
 40
0.0
 40
0.5
 40
0.5
 40
1.0
 40
1.0
 40
1.0
 40
1.0
 10
229.9100130385107
 20
116.3045337344944
 30
0.0
 10
229.8495688647656
 20
116.4232387531692
 30
0.0
 10
229.8049285408566
 20
116.5281788716301
 30
0.0
 10
229.7681682463869
 20
116.7110043035017
 30
0.0
 10
229.7770130672665
 20
116.7885756537206
 30
0.0
 10
229.8063192666446
 20
116.8524338417983
 30
0.0
  0
SPLINE
  5
127
330
1F
100
AcDbEntity
  8
0
  6
HIDDEN
 62
     7
370
     0
100
AcDbSpline
210
0.0
220
0.0
230
1.0
 70
     8
 71
     3
 72
    64
 73
    60
 74
     0
 42
0.00000001
 43
0.00000001
 12
1.0
 22
0.0
 32
0.0
 13
1.0
 23
0.0
 33
0.0
 40
0.0
 40
0.0
 40
0.0
 40
0.0
 40
0.0312499999999995
 40
0.0312499999999995
 40
0.0624999999999991
 40
0.0624999999999991
 40
0.1249999999999982
 40
0.1249999999999982
 40
0.1562499999999981
 40
0.1562499999999981
 40
0.1874999999999981
 40
0.1874999999999981
 40
0.218749999999998
 40
0.218749999999998
 40
0.2499999999999979
 40
0.2499999999999979
 40
0.2812499999999979
 40
0.2812499999999979
 40
0.3124999999999978
 40
0.3124999999999978
 40
0.3437499999999978
 40
0.3437499999999978
 40
0.3749999999999977
 40
0.3749999999999977
 40
0.4062499999999978
 40
0.4062499999999978
 40
0.437499999999998
 40
0.437499999999998
 40
0.4687499999999982
 40
0.4687499999999982
 40
0.4999999999999983
 40
0.4999999999999983
 40
0.5156249999999989
 40
0.5156249999999989
 40
0.5312499999999994
 40
0.5312499999999994
 40
0.5625000000000002
 40
0.5625000000000002
 40
0.593750000000001
 40
0.593750000000001
 40
0.6250000000000018
 40
0.6250000000000018
 40
0.6875000000000013
 40
0.6875000000000013
 40
0.7187500000000012
 40
0.7187500000000012
 40
0.750000000000001
 40
0.750000000000001
 40
0.7812500000000009
 40
0.7812500000000009
 40
0.8125000000000008
 40
0.8125000000000008
 40
0.8750000000000004
 40
0.8750000000000004
 40
0.9375000000000001
 40
0.9375000000000001
 40
0.96875
 40
0.96875
 40
1.0
 40
1.0
 40
1.0
 40
1.0
 10
229.8063192666453
 20
116.8524338417987
 30
0.0
 10
229.924979859776
 20
116.7957829517012
 30
0.0
 10
230.0235658222083
 20
116.7442931126676
 30
0.0
 10
230.2028046095596
 20
116.6362036299766
 30
0.0
 10
230.2825355836087
 20
116.5798674767462
 30
0.0
 10
230.4951466097638
 20
116.3994626273372
 30
0.0
 10
230.6063316344872
 20
116.2614470031898
 30
0.0
 10
230.7236405289463
 20
116.0104047822311
 30
0.0
 10
230.7536217772025
 20
115.9207223882591
 30
0.0
 10
230.792823268319
 20
115.7260308239208
 30
0.0
 10
230.8018820826356
 20
115.6198167037946
 30
0.0
 10
230.7938124691827
 20
115.3968369377738
 30
0.0
 10
230.77667931361
 20
115.2779658757503
 30
0.0
 10
230.7128710221081
 20
115.0320527759045
 30
0.0
 10
230.667249219727
 20
114.9079389617699
 30
0.0
 10
230.5471815202139
 20
114.6568315398732
 30
0.0
 10
230.4735562358916
 20
114.5324864862919
 30
0.0
 10
230.3085349091235
 20
114.2974130013096
 30
0.0
 10
230.2160632535592
 20
114.1851159094784
 30
0.0
 10
230.0239540231217
 20
113.9799900890468
 30
0.0
 10
229.9223399746746
 20
113.8849457800131
 30
0.0
 10
229.7197617586954
 20
113.7147524541791
 30
0.0
 10
229.6178596436085
 20
113.6385320540342
 30
0.0
 10
229.4140945811172
 20
113.5000460389595
 30
0.0
 10
229.3124529446429
 20
113.4381000072616
 30
0.0
 10
229.1170216555379
 20
113.3285107148975
 30
0.0
 10
229.0223001656727
 20
113.2803395180092
 30
0.0
 10
228.8421105481954
 20
113.1930844417114
 30
0.0
 10
228.7557918565473
 20
113.1539330897121
 30
0.0
 10
228.6052996197117
 20
113.0792149779583
 30
0.0
 10
228.5399917545604
 20
113.0434140846276
 30
0.0
 10
228.4886570232036
 20
112.9834080856108
 30
0.0
 10
228.4796999855824
 20
112.9618244820678
 30
0.0
 10
228.4834362603709
 20
112.9171303021937
 30
0.0
 10
228.495713902373
 20
112.8941357285961
 30
0.0
 10
228.5592086661088
 20
112.8248325567526
 30
0.0
 10
228.6323313268228
 20
112.7817079904895
 30
0.0
 10
228.800402440287
 20
112.710597783026
 30
0.0
 10
228.8942288332362
 20
112.6831155985398
 30
0.0
 10
229.0906164122871
 20
112.6463179307585
 30
0.0
 10
229.1938036789639
 20
112.6369715035915
 30
0.0
 10
229.510790584948
 20
112.6414443990826
 30
0.0
 10
229.7236720996427
 20
112.6858084933552
 30
0.0
 10
230.0353207560049
 20
112.8396967670631
 30
0.0
 10
230.1349441302503
 20
112.9046899190125
 30
0.0
 10
230.3207311190965
 20
113.0641286362034
 30
0.0
 10
230.4078176749686
 20
113.1601543874214
 30
0.0
 10
230.5565383866347
 20
113.3745623311924
 30
0.0
 10
230.6202839676808
 20
113.4955658608749
 30
0.0
 10
230.7195098655825
 20
113.7558103515215
 30
0.0
 10
230.7544159335046
 20
113.8922354511081
 30
0.0
 10
230.8174418946784
 20
114.3190495883094
 30
0.0
 10
230.8005554670971
 20
114.6126127558817
 30
0.0
 10
230.6814537688988
 20
115.1635705997401
 30
0.0
 10
230.5790853657355
 20
115.4273224939516
 30
0.0
 10
230.3747482257171
 20
115.785466252044
 30
0.0
 10
230.2980439185912
 20
115.8992243477935
 30
0.0
 10
230.1215103743859
 20
116.1154416186383
 30
0.0
 10
230.0240683541441
 20
116.2156968504279
 30
0.0
 10
229.9100130385097
 20
116.3045337344946
 30
0.0
  0
LWPOLYLINE
  5
128
330
1F
100
AcDbEntity
  8
0
  6
HIDDEN
 62
     7
370
     0
100
AcDbPolyline
 90
       21
 70
   128
 43
0.0
 10
228.6987984867
 20
112.1469127545
 10
229.3477366061
 20
112.2446639062
 10
229.9331510753
 20
112.5283475564
 10
230.397739479
 20
112.9701958568
 10
230.6960234732
 20
113.5269572558
 10
230.7988042326
 20
114.1441316874
 10
230.6960234732
 20
114.7613061191
 10
230.397739479
 20
115.3180672852
 10
229.9331510753
 20
115.7599153528
 10
229.3477366061
 20
116.0435994686
 10
228.6987984867
 20
116.1413501547
 10
228.0498678178
 20
116.0435994686
 10
227.4644533486
 20
115.7599153528
 10
226.9998649449
 20
115.3180672852
 10
226.7015809507
 20
114.7613061191
 10
226.5988001914
 20
114.1441316874
 10
226.7015809507
 20
113.5269572558
 10
226.9998649449
 20
112.9701958568
 10
227.4644533486
 20
112.5283475564
 10
228.0498678178
 20
112.2446639062
 10
228.6987984867
 20
112.1469127545
  0
LWPOLYLINE
  5
129
330
1F
100
AcDbEntity
  8
0
  6
HIDDEN
 62
     7
370
     0
100
AcDbPolyline
 90
        9
 70
   128
 43
0.0
 10
229.8063198418
 20
116.8524337997
 10
229.8484379739
 20
116.841917538
 10
229.88265104
 20
116.8139441004
 10
229.9086610169
 20
116.7687687855
 10
229.926229486
 20
116.7068037036
 10
229.9351925344
 20
116.6286142841
 10
229.9354607553
 20
116.5349139198
 10
229.9270415992
 20
116.4265574487
 10
229.910009572
 20
116.3045337023
  0
LINE
  5
12A
330
1F
100
AcDbEntity
  8
0
  6
HIDDEN
 62
     7
370
     0
100
AcDbLine
 10
135.9488014446
 20
127.1613521101
 30
0.0
 11
135.9488014446
 21
109.1613528849
 31
0.0
  0
LINE
  5
12B
330
1F
100
AcDbEntity
  8
0
  6
HIDDEN
 62
     7
370
     0
100
AcDbLine
 10
134.6988017053
 20
107.9113522144
 30
0.0
 11
134.6988017053
 21
128.4113527806
 31
0.0
  0
LINE
  5
12C
330
1F
100
AcDbEntity
  8
0
  6
HIDDEN
 62
     7
370
     0
100
AcDbLine
 10
161.6988024057
 20
127.1613521101
 30
0.0
 11
161.6988024057
 21
109.1613528849
 31
0.0
  0
LINE
  5
12D
330
1F
100
AcDbEntity
  8
0
  6
HIDDEN
 62
     7
370
     0
100
AcDbLine
 10
164.5528888644
 20
122.4113527285
 30
0.0
 11
164.5528888644
 21
113.9113522665
 31
0.0
  0
SPLINE
  5
12E
330
1F
100
AcDbEntity
  8
0
  6
HIDDEN
 62
     7
370
     0
100
AcDbSpline
210
0.0
220
0.0
230
1.0
 70
     8
 71
     3
 72
    62
 73
    58
 74
     0
 42
0.00000001
 43
0.00000001
 12
1.0
 22
0.0
 32
0.0
 13
1.0
 23
0.0
 33
0.0
 40
-0.031249999999998
 40
-0.031249999999998
 40
0.0
 40
0.0
 40
0.0312500000000002
 40
0.0312500000000002
 40
0.0625000000000004
 40
0.0625000000000004
 40
0.1250000000000036
 40
0.1250000000000036
 40
0.1875000000000068
 40
0.1875000000000068
 40
0.2187500000000078
 40
0.2187500000000078
 40
0.2500000000000088
 40
0.2500000000000088
 40
0.2812500000000098
 40
0.2812500000000098
 40
0.3125000000000108
 40
0.3125000000000108
 40
0.3437500000000118
 40
0.3437500000000118
 40
0.3750000000000128
 40
0.3750000000000128
 40
0.4375000000000149
 40
0.4375000000000149
 40
0.4687500000000146
 40
0.4687500000000146
 40
0.5000000000000142
 40
0.5000000000000142
 40
0.5312500000000139
 40
0.5312500000000139
 40
0.5625000000000135
 40
0.5625000000000135
 40
0.5937500000000131
 40
0.5937500000000131
 40
0.6250000000000128
 40
0.6250000000000128
 40
0.6562500000000124
 40
0.6562500000000124
 40
0.6875000000000121
 40
0.6875000000000121
 40
0.7187500000000117
 40
0.7187500000000117
 40
0.7500000000000112
 40
0.7500000000000112
 40
0.7812500000000108
 40
0.7812500000000108
 40
0.8125000000000103
 40
0.8125000000000103
 40
0.8750000000000082
 40
0.8750000000000082
 40
0.9062500000000061
 40
0.9062500000000061
 40
0.937500000000004
 40
0.937500000000004
 40
0.968750000000002
 40
0.968750000000002
 40
1.0
 40
1.0
 40
1.03125
 40
1.03125
 10
228.8399998696994
 20
117.3059296541051
 30
0.0
 10
228.5576034217396
 20
117.3059296541051
 30
0.0
 10
228.4193255447259
 20
117.3218337161229
 30
0.0
 10
228.148159473518
 20
117.3831855743198
 30
0.0
 10
228.0139561460585
 20
117.4294493871518
 30
0.0
 10
227.6348929662683
 20
117.6055470546112
 30
0.0
 10
227.4058860445746
 20
117.7753049076161
 30
0.0
 10
227.0248554255718
 20
118.1808273050815
 30
0.0
 10
226.8692323486503
 20
118.4208170970918
 30
0.0
 10
226.7101618720816
 20
118.8031536691296
 30
0.0
 10
226.6684347269382
 20
118.9372864565842
 30
0.0
 10
226.6131640257962
 20
119.204473327174
 30
0.0
 10
226.5990840943064
 20
119.3377742735936
 30
0.0
 10
226.5985275279852
 20
119.60361798034
 30
0.0
 10
226.6125168054058
 20
119.7358331300517
 30
0.0
 10
226.6669983246414
 20
119.9861411043274
 30
0.0
 10
226.7078487827963
 20
120.1069630163998
 30
0.0
 10
226.8144627496557
 20
120.3343228759279
 30
0.0
 10
226.8792148919288
 20
120.4393385238638
 30
0.0
 10
227.0307734338814
 20
120.6341633488428
 30
0.0
 10
227.1181115570544
 20
120.7240483027845
 30
0.0
 10
227.403887978016
 20
120.9630835547676
 30
0.0
 10
227.6334243264817
 20
121.0877234562811
 30
0.0
 10
228.0097424624759
 20
121.2132931285765
 30
0.0
 10
228.1420753708366
 20
121.2456123198433
 30
0.0
 10
228.4161080298274
 20
121.2892155050681
 30
0.0
 10
228.5541331894496
 20
121.3000719821737
 30
0.0
 10
228.8322045706683
 20
121.3006503472642
 30
0.0
 10
228.9739175093387
 20
121.2899518921818
 30
0.0
 10
229.246339765019
 20
121.2475156313936
 30
0.0
 10
229.3781679095161
 20
121.2160400053755
 30
0.0
 10
229.6335668051207
 20
121.1317659215045
 30
0.0
 10
229.7537328083101
 20
121.0800337316303
 30
0.0
 10
229.9789042208663
 20
120.9577619978414
 30
0.0
 10
230.0850552822008
 20
120.8862754006145
 30
0.0
 10
230.2765025709029
 20
120.7269417138945
 30
0.0
 10
230.3624365848225
 20
120.6390241062077
 30
0.0
 10
230.5148489028624
 20
120.4446351416117
 30
0.0
 10
230.5810323931499
 20
120.337839534273
 30
0.0
 10
230.6872140917011
 20
120.1133175809329
 30
0.0
 10
230.7281941549168
 20
119.9945243210958
 30
0.0
 10
230.7842742957142
 20
119.7421057199977
 30
0.0
 10
230.7984984711555
 20
119.6111714187956
 30
0.0
 10
230.799095155027
 20
119.3467459920656
 30
0.0
 10
230.7853265875286
 20
119.2105640414749
 30
0.0
 10
230.7304765205865
 20
118.9418782700763
 30
0.0
 10
230.68998000731
 20
118.8102897120348
 30
0.0
 10
230.5305175361338
 20
118.423976319895
 30
0.0
 10
230.3758491118196
 20
118.18449425056
 30
0.0
 10
230.0875410804751
 20
117.8771069083894
 30
0.0
 10
229.9835162651272
 20
117.7846441862113
 30
0.0
 10
229.7590970069484
 20
117.6200252100886
 30
0.0
 10
229.6371662190879
 20
117.5473019680472
 30
0.0
 10
229.3847090676618
 20
117.4298655793414
 30
0.0
 10
229.2538225377447
 20
117.3844863582566
 30
0.0
 10
228.9818816200319
 20
117.322347978976
 30
0.0
 10
228.8399998696994
 20
117.3059296541051
 30
0.0
 10
228.5576034217396
 20
117.3059296541051
 30
0.0
  0
LINE
  5
12F
330
1F
100
AcDbEntity
  8
0
  6
HIDDEN
 62
     7
370
     0
100
AcDbLine
 10
231.6988045663
 20
113.9113522665
 30
0.0
 11
231.6988045663
 21
122.4113527285
 31
0.0
  0
LINE
  5
130
330
1F
100
AcDbEntity
  8
0
  6
HIDDEN
 62
     7
370
     0
100
AcDbLine
 10
267.3118720145
 20
107.0267783077
 30
0.0
 11
259.912588665
 21
109.3540807785
 31
0.0
  0
LINE
  5
131
330
1F
100
AcDbEntity
  8
0
  6
HIDDEN
 62
     7
370
     0
100
AcDbLine
 10
259.912588665
 20
109.3540807785
 30
0.0
 11
259.9064121337
 21
109.3736255141
 31
0.0
  0
LINE
  5
132
330
1F
100
AcDbEntity
  8
0
  6
HIDDEN
 62
     7
370
     0
100
AcDbLine
 10
256.5407166571
 20
109.9609203236
 30
0.0
 11
259.8146731348
 21
99.6025541396
 31
0.0
  0
LINE
  5
133
330
1F
100
AcDbEntity
  8
0
  6
HIDDEN
 62
     7
370
     0
100
AcDbLine
 10
259.8146731348
 20
99.6025541396
 30
0.0
 11
259.7681442589
 21
99.6171889426
 31
0.0
  0
SPLINE
  5
134
330
1F
100
AcDbEntity
  8
0
  6
HIDDEN
 62
     7
370
     0
100
AcDbSpline
210
0.0
220
0.0
230
1.0
 70
     8
 71
     3
 72
    16
 73
    12
 74
     0
 42
0.00000001
 43
0.00000001
 12
1.0
 22
0.0
 32
0.0
 13
1.0
 23
0.0
 33
0.0
 40
0.0
 40
0.0
 40
0.0
 40
0.0
 40
0.2499999999999999
 40
0.2499999999999999
 40
0.4999999999999999
 40
0.4999999999999999
 40
0.6249999999999999
 40
0.6249999999999999
 40
0.7499999999999998
 40
0.7499999999999998
 40
1.0
 40
1.0
 40
1.0
 40
1.0
 10
247.7844578991191
 20
103.7948016472922
 30
0.0
 10
247.496411243208
 20
104.7286739979805
 30
0.0
 10
247.2236889383747
 20
105.7013622758835
 30
0.0
 10
246.7123446641887
 20
107.7241192146043
 30
0.0
 10
246.4736977795288
 20
108.7741639884725
 30
0.0
 10
246.1463724115945
 20
110.4112726016832
 30
0.0
 10
246.0422834907523
 20
110.9684055623752
 30
0.0
 10
245.8486069046359
 20
112.0861148266694
 30
0.0
 10
245.7585719758889
 20
112.6487776937816
 30
0.0
 10
245.5098020219627
 20
114.3483016669634
 30
0.0
 10
245.372292285586
 20
115.4966289634707
 30
0.0
 10
245.2668431715003
 20
116.66135249749
 30
0.0
  0
SPLINE
  5
135
330
1F
100
AcDbEntity
  8
0
  6
HIDDEN
 62
     7
370
     0
100
AcDbSpline
210
0.0
220
0.0
230
1.0
 70
     8
 71
     3
 72
     8
 73
     4
 74
     0
 42
0.00000001
 43
0.00000001
 12
1.0
 22
0.0
 32
0.0
 13
1.0
 23
0.0
 33
0.0
 40
0.0
 40
0.0
 40
0.0
 40
0.0
 40
1.0
 40
1.0
 40
1.0
 40
1.0
 10
245.2668431715004
 20
116.66135249749
 30
0.0
 10
245.2218496021942
 20
117.1583227139293
 30
0.0
 10
245.1988016457196
 20
117.6618980936454
 30
0.0
 10
245.1988016457196
 20
118.16135249749
 30
0.0
  0
LINE
  5
136
330
1F
100
AcDbEntity
  8
0
  6
HIDDEN
 62
     7
370
     0
100
AcDbLine
 10
245.1988021226
 20
118.1613524975
 30
0.0
 11
245.1988021226
 21
134.6613524081
 31
0.0
  0
SPLINE
  5
137
330
1F
100
AcDbEntity
  8
0
  6
HIDDEN
 62
     7
370
     0
100
AcDbSpline
210
0.0
220
0.0
230
1.0
 70
     8
 71
     3
 72
    18
 73
    14
 74
     0
 42
0.00000001
 43
0.00000001
 12
1.0
 22
0.0
 32
0.0
 13
1.0
 23
0.0
 33
0.0
 40
0.0
 40
0.0
 40
0.0
 40
0.0
 40
0.1249999999999999
 40
0.1249999999999999
 40
0.2499999999999998
 40
0.2499999999999998
 40
0.4999999999999997
 40
0.4999999999999997
 40
0.625
 40
0.625
 40
0.7500000000000004
 40
0.7500000000000004
 40
1.0
 40
1.0
 40
1.0
 40
1.0
 10
245.5196809918218
 20
101.3405853402745
 30
0.0
 10
245.413802374794
 20
101.4445119336274
 30
0.0
 10
245.3325347255142
 20
101.5492956168146
 30
0.0
 10
245.2241225209685
 20
101.7607478482685
 30
0.0
 10
245.1971365098938
 20
101.8680139947341
 30
0.0
 10
245.2023748110308
 20
102.1870725664692
 30
0.0
 10
245.3195706231637
 20
102.3965437148672
 30
0.0
 10
245.6426106434963
 20
102.7065616708076
 30
0.0
 10
245.7746841398871
 20
102.8092070593899
 30
0.0
 10
246.0826272783511
 20
103.0132519523995
 30
0.0
 10
246.2588961584442
 20
103.114784066491
 30
0.0
 10
246.8363955674374
 20
103.4134325157556
 30
0.0
 10
247.2878209114627
 20
103.6062535647737
 30
0.0
 10
247.7844578991191
 20
103.7948016472922
 30
0.0
  0
ELLIPSE
  5
138
330
1F
100
AcDbEntity
  8
0
  6
HIDDEN
 62
     7
370
     0
100
AcDbEllipse
 10
263.6608518858
 20
118.1613524975
 30
0.0
 11
-5.390524936199143
 21
16.49183944377626
 31
0.0
210
0.0
220
0.0
230
1.0
 40
0.0962569477
 41
6.251733123200067
 42
7.822529449994798
  0
LINE
  5
139
330
1F
100
AcDbEntity
  8
0
  6
HIDDEN
 62
     7
370
     0
100
AcDbLine
 10
259.912588665
 20
109.3540807785
 30
0.0
 11
259.7001875133
 21
109.2935671629
 31
0.0
  0
LINE
  5
13A
330
1F
100
AcDbEntity
  8
0
  6
HIDDEN
 62
     7
370
     0
100
AcDbLine
 10
259.6493223996
 20
109.4544875966
 30
0.0
 11
259.7001875133
 21
109.2935671629
 31
0.0
  0
LINE
  5
13B
330
1F
100
AcDbEntity
  8
0
  6
HIDDEN
 62
     7
370
     0
100
AcDbLine
 10
256.7736963124
 20
110.2590785892
 30
0.0
 11
260.0316042394
 21
99.9514871807
 31
0.0
  0
LINE
  5
13C
330
1F
100
AcDbEntity
  8
0
  6
HIDDEN
 62
     7
370
     0
100
AcDbLine
 10
259.8146731348
 20
99.6025541396
 30
0.0
 11
260.0316042394
 21
99.9514871807
 31
0.0
  0
LINE
  5
13D
330
1F
100
AcDbEntity
  8
0
  6
HIDDEN
 62
     7
370
     0
100
AcDbLine
 10
267.0994708628
 20
106.9662646921
 30
0.0
 11
259.7001875133
 21
109.2935671629
 31
0.0
  0
LINE
  5
13E
330
1F
100
AcDbEntity
  8
0
  6
HIDDEN
 62
     7
370
     0
100
AcDbLine
 10
267.0994708628
 20
106.9662646921
 30
0.0
 11
267.3118720145
 21
107.0267783077
 31
0.0
  0
ARC
  5
13F
330
1F
100
AcDbEntity
  8
0
  6
HIDDEN
 62
     7
370
     0
100
AcDbCircle
 10
257.757126849
 20
111.3974631246
 30
0.0
 40
1.25019894351438
100
AcDbArc
 50
17.5752764302
 51
182.2818044477
  0
LINE
  5
140
330
1F
100
AcDbEntity
  8
0
  6
HIDDEN
 62
     7
370
     0
100
AcDbLine
 10
256.8039531202
 20
110.2679764451
 30
0.0
 11
259.9671194644
 21
100.2601312073
 31
0.0
  0
LINE
  5
141
330
1F
100
AcDbEntity
  8
0
  6
HIDDEN
 62
     7
370
     0
100
AcDbLine
 10
260.0316042394
 20
99.9514871807
 30
0.0
 11
259.9671194644
 21
100.2601312073
 31
0.0
  0
LINE
  5
142
330
1F
100
AcDbEntity
  8
0
  6
HIDDEN
 62
     7
370
     0
100
AcDbLine
 10
259.7001875133
 20
109.2935671629
 30
0.0
 11
259.7001875133
 21
109.3982021855
 31
0.0
  0
LINE
  5
143
330
1F
100
AcDbEntity
  8
0
  6
HIDDEN
 62
     7
370
     0
100
AcDbLine
 10
266.8850357027
 20
107.1383451642
 30
0.0
 11
267.0994708628
 21
106.9662646921
 31
0.0
  0
LWPOLYLINE
  5
144
330
1F
100
AcDbEntity
  8
0
  6
HIDDEN
 62
     7
370
     0
100
AcDbPolyline
 90
       21
 70
   128
 43
0.0
 10
228.6987984867
 20
119.2543037766
 10
229.3477366061
 20
119.3520545791
 10
229.9331510753
 20
119.6357385786
 10
230.397739479
 20
120.0775867626
 10
230.6960234732
 20
120.6343478122
 10
230.7988042326
 20
121.2515224767
 10
230.6960234732
 20
121.8686969084
 10
230.397739479
 20
122.4254580745
 10
229.9331510753
 20
122.8673063749
 10
229.3477366061
 20
123.1509904908
 10
228.6987984867
 20
123.2487411769
 10
228.0498678178
 20
123.1509904908
 10
227.4644533486
 20
122.8673063749
 10
226.9998649449
 20
122.4254580745
 10
226.7015809507
 20
121.8686969084
 10
226.5988001914
 20
121.2515224767
 10
226.7015809507
 20
120.6343478122
 10
226.9998649449
 20
120.0775867626
 10
227.4644533486
 20
119.6357385786
 10
228.0498678178
 20
119.3520545791
 10
228.6987984867
 20
119.2543037766
  0
CIRCLE
  5
145
330
1F
100
AcDbEntity
  8
0
  6
HIDDEN
 62
     7
370
     0
100
AcDbCircle
 10
263.5265005853
 20
103.5964670236
 30
0.0
 40
2.398522140459391
  0
LINE
  5
146
330
1F
100
AcDbEntity
  8
0
  6
HIDDEN
 62
     7
370
     0
100
AcDbLine
 10
269.5733169407
 20
97.2386879446
 30
0.0
 11
269.9084738583
 21
97.5725987525
 31
0.0
  0
LINE
  5
147
330
1F
100
AcDbEntity
  8
0
  6
HIDDEN
 62
     7
370
     0
100
AcDbLine
 10
266.8850357027
 20
107.1383451642
 30
0.0
 11
259.7001875133
 21
109.3982021855
 31
0.0
  0
LINE
  5
148
330
1F
100
AcDbEntity
  8
0
  6
HIDDEN
 62
     7
370
     0
100
AcDbLine
 10
259.7001875133
 20
109.3982021855
 30
0.0
 11
258.9489678235
 21
111.7749713892
 31
0.0
  0
LINE
  5
149
330
1F
100
AcDbEntity
  8
0
  6
HIDDEN
 62
     7
370
     0
100
AcDbLine
 10
269.5733169407
 20
97.2386879446
 30
0.0
 11
259.9671194644
 21
100.2601312073
 31
0.0
  0
LINE
  5
14A
330
1F
100
AcDbEntity
  8
0
  6
HIDDEN
 62
     7
370
     0
100
AcDbLine
 10
266.8850357027
 20
107.1383451642
 30
0.0
 11
269.9084738583
 21
97.5725987525
 31
0.0
  0
CIRCLE
  5
14B
330
1F
100
AcDbEntity
  8
0
  6
HIDDEN
 62
     7
370
     0
100
AcDbCircle
 10
263.5266797154
 20
103.6474702773
 30
0.0
 40
1.649035012307552
  0
LINE
  5
14C
330
1F
100
AcDbEntity
  8
0
  6
HIDDEN
 62
     7
370
     0
100
AcDbLine
 10
268.9942727179
 20
98.0194771262
 30
0.0
 11
269.5733169407
 21
97.2386879446
 31
0.0
  0
LINE
  5
14D
330
1F
100
AcDbEntity
  8
0
  6
HIDDEN
 62
     7
370
     0
100
AcDbLine
 10
269.9084738583
 20
97.5725987525
 30
0.0
 11
269.1958705277
 21
98.5334815057
 31
0.0
  0
SPLINE
  5
14E
330
1F
100
AcDbEntity
  8
0
  6
HIDDEN
 62
     7
370
     0
100
AcDbSpline
210
0.0
220
0.0
230
1.0
 70
     8
 71
     3
 72
    32
 73
    28
 74
     0
 42
0.00000001
 43
0.00000001
 12
1.0
 22
0.0
 32
0.0
 13
1.0
 23
0.0
 33
0.0
 40
0.0
 40
0.0
 40
0.0
 40
0.0
 40
0.1249999999999973
 40
0.1249999999999973
 40
0.2499999999999946
 40
0.2499999999999946
 40
0.3124999999999954
 40
0.3124999999999954
 40
0.3749999999999961
 40
0.3749999999999961
 40
0.4374999999999969
 40
0.4374999999999969
 40
0.4999999999999974
 40
0.4999999999999974
 40
0.562499999999998
 40
0.562499999999998
 40
0.6249999999999983
 40
0.6249999999999983
 40
0.6874999999999987
 40
0.6874999999999987
 40
0.7499999999999989
 40
0.7499999999999989
 40
0.8124999999999992
 40
0.8124999999999992
 40
0.8749999999999996
 40
0.8749999999999996
 40
1.0
 40
1.0
 40
1.0
 40
1.0
 10
265.1745288524681
 20
104.3538567169505
 30
0.0
 10
265.1871342936651
 20
104.134587554917
 30
0.0
 10
265.1608275084078
 20
103.9215026608954
 30
0.0
 10
265.0329877792528
 20
103.5069699656793
 30
0.0
 10
264.9332229659078
 20
103.3126013838769
 30
0.0
 10
264.7254603812397
 20
103.0494803131569
 30
0.0
 10
264.6453616938954
 20
102.9658254845722
 30
0.0
 10
264.4679920199553
 20
102.816117489619
 30
0.0
 10
264.3695858799132
 20
102.7487470198357
 30
0.0
 10
264.1525191656945
 20
102.6346524729485
 30
0.0
 10
264.0370025001154
 20
102.5894242293685
 30
0.0
 10
263.7894910342968
 20
102.5263442278313
 30
0.0
 10
263.6609554501018
 20
102.5097949340729
 30
0.0
 10
263.4031091104947
 20
102.5090473375316
 30
0.0
 10
263.2724065166632
 20
102.5252552629474
 30
0.0
 10
263.0260650845959
 20
102.5867587041005
 30
0.0
 10
262.9074543635637
 20
102.6325838773376
 30
0.0
 10
262.691163863511
 20
102.745247417931
 30
0.0
 10
262.590943343419
 20
102.813261793611
 30
0.0
 10
262.4129106157494
 20
102.9626835413233
 30
0.0
 10
262.3340547252465
 20
103.0444505903391
 30
0.0
 10
262.1939411660309
 20
103.2206567645676
 30
0.0
 10
262.1334442543783
 20
103.3144868478003
 30
0.0
 10
262.0324108782982
 20
103.507510261131
 30
0.0
 10
261.9912889626056
 20
103.60746183664
 30
0.0
 10
261.8949828822861
 20
103.9175708970837
 30
0.0
 10
261.8678942425656
 20
104.1343727856154
 30
0.0
 10
261.8805120305138
 20
104.3538567169505
 30
0.0
  0
ARC
  5
14F
330
1F
100
AcDbEntity
  8
0
  6
HIDDEN
 62
     7
370
     0
100
AcDbCircle
 10
263.5275209636
 20
104.2512452104
 30
0.0
 40
1.650203767008317
100
AcDbArc
 50
3.5650056175
 51
176.4349943825
  0
LINE
  5
150
330
1F
100
AcDbEntity
  8
0
  6
HIDDEN
 62
     7
370
     0
100
AcDbLine
 10
109.1988021822
 20
103.0572998868
 30
0.0
 11
109.1988021822
 21
97.0029888274
 31
0.0
  0
LINE
  5
151
330
1F
100
AcDbEntity
  8
0
  6
HIDDEN
 62
     7
370
     0
100
AcDbLine
 10
107.6988028676
 20
103.4903127299
 30
0.0
 11
107.6988028676
 21
97.8690145136
 31
0.0
  0
SPLINE
  5
152
330
1F
100
AcDbEntity
  8
0
  6
HIDDEN
 62
     7
370
     0
100
AcDbSpline
210
0.0
220
0.0
230
1.0
 70
     8
 71
     3
 72
    16
 73
    12
 74
     0
 42
0.00000001
 43
0.00000001
 12
1.0
 22
0.0
 32
0.0
 13
1.0
 23
0.0
 33
0.0
 40
0.0
 40
0.0
 40
0.0
 40
0.0
 40
0.2499999999999998
 40
0.2499999999999998
 40
0.3749999999999997
 40
0.3749999999999997
 40
0.4999999999999996
 40
0.4999999999999996
 40
0.7499999999999998
 40
0.7499999999999998
 40
1.0
 40
1.0
 40
1.0
 40
1.0
 10
144.3774813021598
 20
101.577445871249
 30
0.0
 10
144.2162488246753
 20
100.8630517090568
 30
0.0
 10
144.0957689850357
 20
100.2097094463481
 30
0.0
 10
143.9733884677224
 20
99.32145420454427
 30
0.0
 10
143.942410807325
 20
99.04077366819241
 30
0.0
 10
143.900797069697
 20
98.51173967835241
 30
0.0
 10
143.8905611567642
 20
98.26841869977397
 30
0.0
 10
143.8903727597081
 20
97.60039600926073
 30
0.0
 10
143.9305174623457
 20
97.23671509984128
 30
0.0
 10
144.0946712172853
 20
96.67682422729295
 30
0.0
 10
144.2162228676948
 20
96.48930293517581
 30
0.0
 10
144.3774813021598
 20
96.39127154248786
 30
0.0
  0
LINE
  5
153
330
1F
100
AcDbEntity
  8
0
  6
HIDDEN
 62
     7
370
     0
100
AcDbLine
 10
143.4988016576
 20
102.6264318796
 30
0.0
 11
143.4988016576
 21
96.1412528129
 31
0.0
  0
SPLINE
  5
154
330
1F
100
AcDbEntity
  8
0
  6
HIDDEN
 62
     7
370
     0
100
AcDbSpline
210
0.0
220
0.0
230
1.0
 70
     8
 71
     3
 72
    16
 73
    12
 74
     0
 42
0.00000001
 43
0.00000001
 12
1.0
 22
0.0
 32
0.0
 13
1.0
 23
0.0
 33
0.0
 40
0.0
 40
0.0
 40
0.0
 40
0.0
 40
0.2500000000000006
 40
0.2500000000000006
 40
0.3750000000000007
 40
0.3750000000000007
 40
0.5000000000000008
 40
0.5000000000000008
 40
0.7500000000000003
 40
0.7500000000000003
 40
1.0
 40
1.0
 40
1.0
 40
1.0
 10
144.3774813021598
 20
139.9314334524921
 30
0.0
 10
144.2162488246753
 20
139.8334178394374
 30
0.0
 10
144.0957689850357
 20
139.6466818077613
 30
0.0
 10
143.9733884677224
 20
139.2336420002025
 30
0.0
 10
143.942410807325
 20
139.0736415009695
 30
0.0
 10
143.900797069697
 20
138.7068358498783
 30
0.0
 10
143.8905611567642
 20
138.5034986972544
 30
0.0
 10
143.8903727597081
 20
137.8362114306277
 30
0.0
 10
143.9305174623457
 20
137.3153969667396
 30
0.0
 10
144.0946712172853
 20
136.1180379512619
 30
0.0
 10
144.2162228676948
 20
135.459768296966
 30
0.0
 10
144.3774813021598
 20
134.745259123731
 30
0.0
  0
LINE
  5
155
330
1F
100
AcDbEntity
  8
0
  6
HIDDEN
 62
     7
370
     0
100
AcDbLine
 10
109.1988021822
 20
139.3197161676
 30
0.0
 11
109.1988021822
 21
133.2654051082
 31
0.0
  0
LINE
  5
156
330
1F
100
AcDbEntity
  8
0
  6
HIDDEN
 62
     7
370
     0
100
AcDbLine
 10
107.6988028676
 20
138.4536904813
 30
0.0
 11
107.6988028676
 21
132.8323922651
 31
0.0
  0
LINE
  5
157
330
1F
100
AcDbEntity
  8
0
  6
HIDDEN
 62
     7
370
     0
100
AcDbLine
 10
143.4988016576
 20
140.1814521821
 30
0.0
 11
143.4988016576
 21
133.6962731154
 31
0.0
  0
ELLIPSE
  5
158
330
1F
100
AcDbEntity
  8
0
  6
HIDDEN
 62
     7
370
     0
100
AcDbEllipse
 10
293.0175760399
 20
116.6613524975
 30
0.0
 11
24.06101560154639
 21
22.41887999910563
 31
0.0
210
0.0
220
0.0
230
1.0
 40
0.2135193148
 41
2.703893128927166
 42
2.741099098689591
  0
ELLIPSE
  5
159
330
1F
100
AcDbEntity
  8
0
  6
HIDDEN
 62
     7
370
     0
100
AcDbEllipse
 10
202.3064852039
 20
116.6613524975
 30
0.0
 11
73.48411303275165
 21
-22.64800636057892
 31
0.0
210
0.0
220
0.0
230
1.0
 40
0.054548757
 41
0.4505874719126405
 42
0.7259972699172411
  0
LINE
  5
15A
330
1F
100
AcDbEntity
  8
0
  6
HIDDEN
 62
     7
370
     0
100
AcDbLine
 10
250.3155628533
 20
103.7948011951
 30
0.0
 11
247.7844590635
 21
103.7948011951
 31
0.0
  0
SPLINE
  5
15B
330
1F
100
AcDbEntity
  8
0
  6
HIDDEN
 62
     7
370
     0
100
AcDbSpline
210
0.0
220
0.0
230
1.0
 70
     8
 71
     3
 72
    12
 73
     8
 74
     0
 42
0.00000001
 43
0.00000001
 12
1.0
 22
0.0
 32
0.0
 13
1.0
 23
0.0
 33
0.0
 40
0.0
 40
0.0
 40
0.0
 40
0.0
 40
0.5
 40
0.5
 40
0.75
 40
0.75
 40
1.0
 40
1.0
 40
1.0
 40
1.0
 10
258.0808500691093
 20
102.3854663255018
 30
0.0
 10
256.8654700868341
 20
102.8434039053409
 30
0.0
 10
255.6068755258954
 20
103.1938929003823
 30
0.0
 10
253.6593861149441
 20
103.5510534685622
 30
0.0
 10
253.0001866026529
 20
103.6419028633631
 30
0.0
 10
251.6612913941119
 20
103.76414111613
 30
0.0
 10
250.9892890905751
 20
103.7948016472922
 30
0.0
 10
250.3155599805698
 20
103.7948016472922
 30
0.0
  0
ELLIPSE
  5
15C
330
1F
100
AcDbEntity
  8
0
  6
HIDDEN
 62
     7
370
     0
100
AcDbEllipse
 10
264.8379493872
 20
116.6613524975
 30
0.0
 11
-7.514065062580644
 21
22.98862467920327
 31
0.0
210
0.0
220
0.0
230
1.0
 40
0.0962569477
 41
1.539344142815211
 42
2.447171303922122
  0
LWPOLYLINE
  5
15D
330
1F
100
AcDbEntity
  8
0
  6
HIDDEN
 62
     7
370
     0
100
AcDbPolyline
 90
       23
 70
   128
 43
0.0
 10
228.6987984867
 20
118.9481516201
 10
229.4031316728
 20
119.0444627725
 10
230.0504008622
 20
119.3255937257
 10
230.5881763191
 20
119.768768928
 10
230.9728795976
 20
120.3380850209
 10
231.1733523697
 20
120.9874191852
 10
231.1733523697
 20
121.6641665967
 10
230.9728795976
 20
122.3135009938
 10
230.5881763191
 20
122.8828166211
 10
230.0504008622
 20
123.3259920561
 10
229.4031316728
 20
123.6071229512
 10
228.6987984867
 20
123.7034342782
 10
227.9944727511
 20
123.6071229512
 10
227.3471961112
 20
123.3259920561
 10
226.8094281048
 20
122.8828166211
 10
226.4247248263
 20
122.3135009938
 10
226.2242446036
 20
121.6641665967
 10
226.2242446036
 20
120.9874191852
 10
226.4247248263
 20
120.3380850209
 10
226.8094281048
 20
119.768768928
 10
227.3471961112
 20
119.3255937257
 10
227.9944727511
 20
119.0444627725
 10
228.6987984867
 20
118.9481516201
  0
SPLINE
  5
15E
330
1F
100
AcDbEntity
  8
0
  6
HIDDEN
 62
     7
370
     0
100
AcDbSpline
210
0.0
220
0.0
230
1.0
 70
     8
 71
     3
 72
    20
 73
    16
 74
     0
 42
0.00000001
 43
0.00000001
 12
1.0
 22
0.0
 32
0.0
 13
1.0
 23
0.0
 33
0.0
 40
0.0
 40
0.0
 40
0.0
 40
0.0
 40
0.2499999999999928
 40
0.2499999999999928
 40
0.374999999999994
 40
0.374999999999994
 40
0.4999999999999952
 40
0.4999999999999952
 40
0.6249999999999964
 40
0.6249999999999964
 40
0.7499999999999976
 40
0.7499999999999976
 40
0.8749999999999988
 40
0.8749999999999988
 40
1.0
 40
1.0
 40
1.0
 40
1.0
 10
261.8805120305138
 20
104.3538567169506
 30
0.0
 10
262.1097127268345
 20
104.5406033339481
 30
0.0
 10
262.3540288524398
 20
104.7201386117896
 30
0.0
 10
262.7622200407791
 20
104.9307186333497
 30
0.0
 10
262.9072324037634
 20
104.9913660529923
 30
0.0
 10
263.2107929511058
 20
105.0761280076804
 30
0.0
 10
263.3693949620332
 20
105.0997965046669
 30
0.0
 10
263.6893351660236
 20
105.0994398216806
 30
0.0
 10
263.8463422888131
 20
105.0757980800137
 30
0.0
 10
264.1515408461914
 20
104.9900640954186
 30
0.0
 10
264.2940101265929
 20
104.9301903218442
 30
0.0
 10
264.5662452622492
 20
104.7895768631784
 30
0.0
 10
264.6961077459567
 20
104.7085031936574
 30
0.0
 10
264.9426309854912
 20
104.5374766382837
 30
0.0
 10
265.0602258237225
 20
104.4469877775167
 30
0.0
 10
265.1745288524682
 20
104.3538567169506
 30
0.0
  0
LINE
  5
15F
330
1F
100
AcDbEntity
  8
0
  6
HIDDEN
 62
     7
370
     0
100
AcDbLine
 10
107.6988028676
 20
132.8323922651
 30
0.0
 11
107.6988028676
 21
121.063339903
 31
0.0
  0
LINE
  5
160
330
1F
100
AcDbEntity
  8
0
  6
HIDDEN
 62
     7
370
     0
100
AcDbLine
 10
107.6988028676
 20
115.259365092
 30
0.0
 11
107.6988028676
 21
103.4903127299
 31
0.0
  0
LINE
  5
161
330
1F
100
AcDbEntity
  8
0
  6
HIDDEN
 62
     7
370
     0
100
AcDbLine
 10
109.1988021822
 20
114.1961413966
 30
0.0
 11
109.1988021822
 21
103.0572998868
 31
0.0
  0
LINE
  5
162
330
1F
100
AcDbEntity
  8
0
  6
HIDDEN
 62
     7
370
     0
100
AcDbLine
 10
109.1988021822
 20
133.2654051082
 30
0.0
 11
109.1988021822
 21
122.1265635984
 31
0.0
  0
LINE
  5
163
330
1F
100
AcDbEntity
  8
0
  6
HIDDEN
 62
     7
370
     0
100
AcDbLine
 10
145.4988016508
 20
133.1990595506
 30
0.0
 11
145.4988016508
 21
103.1236454444
 31
0.0
  0
LINE
  5
164
330
1F
100
AcDbEntity
  8
0
  6
HIDDEN
 62
     7
370
     0
100
AcDbLine
 10
143.4988016576
 20
133.6962731154
 30
0.0
 11
143.4988016576
 21
102.6264318796
 31
0.0
  0
LINE
  5
165
330
1F
100
AcDbEntity
  8
0
  6
HIDDEN
 62
     7
370
     0
100
AcDbLine
 10
262.3899365158
 20
116.6613524845
 30
0.0
 11
261.9046653003
 21
118.1613524975
 31
0.0
  0
SPLINE
  5
166
330
1F
100
AcDbEntity
  8
0
  6
HIDDEN
 62
     7
370
     0
100
AcDbSpline
210
0.0
220
0.0
230
1.0
 70
     8
 71
     3
 72
    24
 73
    20
 74
     0
 42
0.00000001
 43
0.00000001
 12
1.0
 22
0.0
 32
0.0
 13
1.0
 23
0.0
 33
0.0
 40
0.0
 40
0.0
 40
0.0
 40
0.0
 40
0.1250000000000002
 40
0.1250000000000002
 40
0.2500000000000004
 40
0.2500000000000004
 40
0.3750000000000008
 40
0.3750000000000008
 40
0.4375000000000007
 40
0.4375000000000007
 40
0.5000000000000007
 40
0.5000000000000007
 40
0.6250000000000006
 40
0.6250000000000006
 40
0.7500000000000004
 40
0.7500000000000004
 40
0.8750000000000002
 40
0.8750000000000002
 40
1.0
 40
1.0
 40
1.0
 40
1.0
 10
114.1488016457195
 20
114.0753914443908
 30
0.0
 10
114.3866052779945
 20
114.3743985467209
 30
0.0
 10
114.6166909392058
 20
114.6787363980396
 30
0.0
 10
115.0514443378157
 20
115.3044699354356
 30
0.0
 10
115.2563771301018
 20
115.6256946627631
 30
0.0
 10
115.6214790806005
 20
116.2976204334959
 30
0.0
 10
115.783279466392
 20
116.6529356653747
 30
0.0
 10
115.9551396709717
 20
117.2031668867272
 30
0.0
 10
116.0007248626318
 20
117.3895706717077
 30
0.0
 10
116.0631996022067
 20
117.7697051738039
 30
0.0
 10
116.0798707479551
 20
117.9653749660898
 30
0.0
 10
116.0803917911316
 20
118.5438553447642
 30
0.0
 10
116.015949490245
 20
118.921767183733
 30
0.0
 10
115.7861003968716
 20
119.6637352088314
 30
0.0
 10
115.6275797192085
 20
120.0124506689924
 30
0.0
 10
115.2633453893084
 20
120.6855430667255
 30
0.0
 10
115.0566091492448
 20
121.0104955539672
 30
0.0
 10
114.6186712035044
 20
121.6414193644289
 30
0.0
 10
114.3873984762249
 20
121.9473091047696
 30
0.0
 10
114.1488016457196
 20
122.2473135505891
 30
0.0
  0
LINE
  5
167
330
1F
100
AcDbEntity
  8
0
  6
HIDDEN
 62
     7
370
     0
100
AcDbLine
 10
114.1488002927
 20
114.0753912339
 30
0.0
 11
114.1488002927
 21
122.2473137611
 31
0.0
  0
SPLINE
  5
168
330
1F
100
AcDbEntity
  8
0
  6
HIDDEN
 62
     7
370
     0
100
AcDbSpline
210
0.0
220
0.0
230
1.0
 70
     8
 71
     3
 72
     8
 73
     4
 74
     0
 42
0.00000001
 43
0.00000001
 12
1.0
 22
0.0
 32
0.0
 13
1.0
 23
0.0
 33
0.0
 40
0.0000249638557296
 40
0.0000249638557296
 40
0.0000249638557296
 40
0.0000249638557296
 40
0.0049776420541172
 40
0.0049776420541172
 40
0.0049776420541172
 40
0.0049776420541172
 10
109.1988016457195
 20
114.1961416006535
 30
0.0
 10
110.848777880229
 20
114.1548623628853
 30
0.0
 10
112.4987791999741
 20
114.1146406816458
 30
0.0
 10
114.1488016457195
 20
114.0753914443908
 30
0.0
  0
SPLINE
  5
169
330
1F
100
AcDbEntity
  8
0
  6
HIDDEN
 62
     7
370
     0
100
AcDbSpline
210
0.0
220
0.0
230
1.0
 70
     8
 71
     3
 72
     8
 73
     4
 74
     0
 42
0.00000001
 43
0.00000001
 12
1.0
 22
0.0
 32
0.0
 13
1.0
 23
0.0
 33
0.0
 40
0.0000249631533153
 40
0.0000249631533153
 40
0.0000249631533153
 40
0.0000249631533153
 40
0.0049776413517029
 40
0.0049776413517029
 40
0.0049776413517029
 40
0.0049776413517029
 10
114.1488016457195
 20
122.2473135505892
 30
0.0
 10
112.4987791999741
 20
122.2080643133342
 30
0.0
 10
110.848777880229
 20
122.1678426320947
 30
0.0
 10
109.1988016457195
 20
122.1265633943265
 30
0.0
  0
SPLINE
  5
16A
330
1F
100
AcDbEntity
  8
0
  6
HIDDEN
 62
     7
370
     0
100
AcDbSpline
210
0.0
220
0.0
230
1.0
 70
     8
 71
     3
 72
     8
 73
     4
 74
     0
 42
0.00000001
 43
0.00000001
 12
1.0
 22
0.0
 32
0.0
 13
1.0
 23
0.0
 33
0.0
 40
0.0
 40
0.0
 40
0.0
 40
0.0
 40
1.0
 40
1.0
 40
1.0
 40
1.0
 10
107.6988016457173
 20
115.2593651645097
 30
0.0
 10
108.1655622570951
 20
114.8440019188867
 30
0.0
 10
108.6713098038752
 20
114.4994114895821
 30
0.0
 10
109.1988016457195
 20
114.1961416006535
 30
0.0
  0
SPLINE
  5
16B
330
1F
100
AcDbEntity
  8
0
  6
HIDDEN
 62
     7
370
     0
100
AcDbSpline
210
0.0
220
0.0
230
1.0
 70
     8
 71
     3
 72
     8
 73
     4
 74
     0
 42
0.00000001
 43
0.00000001
 12
1.0
 22
0.0
 32
0.0
 13
1.0
 23
0.0
 33
0.0
 40
0.0
 40
0.0
 40
0.0
 40
0.0
 40
1.0
 40
1.0
 40
1.0
 40
1.0
 10
109.1988016457195
 20
122.1265633943265
 30
0.0
 10
108.671309803876
 20
121.8232935053984
 30
0.0
 10
108.1655622570967
 20
121.4787030760944
 30
0.0
 10
107.6988016457195
 20
121.0633398304723
 30
0.0
  0
LINE
  5
16C
330
1F
100
AcDbEntity
  8
0
  6
HIDDEN
 62
     7
370
     0
100
AcDbLine
 10
107.6988028676
 20
115.259365092
 30
0.0
 11
107.6988028676
 21
121.063339903
 31
0.0
  0
SPLINE
  5
16D
330
1F
100
AcDbEntity
  8
0
  6
HIDDEN
 62
     7
370
     0
100
AcDbSpline
210
0.0
220
0.0
230
1.0
 70
     8
 71
     3
 72
    72
 73
    68
 74
     0
 42
0.00000001
 43
0.00000001
 12
1.0
 22
0.0
 32
0.0
 13
1.0
 23
0.0
 33
0.0
 40
-0.03125
 40
-0.03125
 40
0.0
 40
0.0
 40
0.0312499999999999
 40
0.0312499999999999
 40
0.0624999999999998
 40
0.0624999999999998
 40
0.0937499999999998
 40
0.0937499999999998
 40
0.1249999999999997
 40
0.1249999999999997
 40
0.1562499999999996
 40
0.1562499999999996
 40
0.1874999999999996
 40
0.1874999999999996
 40
0.2187499999999995
 40
0.2187499999999995
 40
0.2499999999999994
 40
0.2499999999999994
 40
0.2812499999999993
 40
0.2812499999999993
 40
0.3124999999999992
 40
0.3124999999999992
 40
0.3437499999999992
 40
0.3437499999999992
 40
0.3749999999999992
 40
0.3749999999999992
 40
0.3906249999999992
 40
0.3906249999999992
 40
0.4062499999999991
 40
0.4062499999999991
 40
0.4374999999999991
 40
0.4374999999999991
 40
0.4687499999999989
 40
0.4687499999999989
 40
0.4999999999999989
 40
0.4999999999999989
 40
0.5312499999999988
 40
0.5312499999999988
 40
0.5624999999999988
 40
0.5624999999999988
 40
0.5937499999999987
 40
0.5937499999999987
 40
0.6249999999999986
 40
0.6249999999999986
 40
0.6562499999999986
 40
0.6562499999999986
 40
0.6874999999999987
 40
0.6874999999999987
 40
0.7187499999999988
 40
0.7187499999999988
 40
0.7499999999999989
 40
0.7499999999999989
 40
0.7812499999999991
 40
0.7812499999999991
 40
0.8124999999999992
 40
0.8124999999999992
 40
0.8437499999999993
 40
0.8437499999999993
 40
0.8749999999999996
 40
0.8749999999999996
 40
0.9062499999999997
 40
0.9062499999999997
 40
0.9374999999999998
 40
0.9374999999999998
 40
0.96875
 40
0.96875
 40
1.0
 40
1.0
 40
1.03125
 40
1.03125
 10
126.8227479645447
 20
120.6021861473048
 30
0.0
 10
127.1971781844186
 20
121.01254194779
 30
0.0
 10
127.4020307856842
 20
121.1961910304484
 30
0.0
 10
127.8448989825312
 20
121.5231459339437
 30
0.0
 10
128.0848543998495
 20
121.6669241421236
 30
0.0
 10
128.580465382624
 20
121.9044414975695
 30
0.0
 10
128.8377316737785
 20
121.9997610624672
 30
0.0
 10
129.3710854416156
 20
122.1438465951017
 30
0.0
 10
129.6453655815139
 20
122.1915826020713
 30
0.0
 10
130.1917941160934
 20
122.2371647426051
 30
0.0
 10
130.4663704345612
 20
122.2357309825328
 30
0.0
 10
131.0183376088319
 20
122.182817674442
 30
0.0
 10
131.2889545714035
 20
122.1318479482378
 30
0.0
 10
131.8152397424827
 20
121.9832413212942
 30
0.0
 10
132.0728713058903
 20
121.8849559505371
 30
0.0
 10
132.5687974705638
 20
121.6407025913514
 30
0.0
 10
132.8017811483555
 20
121.4976224603292
 30
0.0
 10
133.2381144236805
 20
121.1697639098604
 30
0.0
 10
133.4433956775387
 20
120.9827702721602
 30
0.0
 10
133.8114299753989
 20
120.5733396523372
 30
0.0
 10
133.9729449653841
 20
120.3532342113527
 30
0.0
 10
134.2501026485312
 20
119.8814841299147
 30
0.0
 10
134.3664968279649
 20
119.6264676034735
 30
0.0
 10
134.5397708646115
 20
119.1052297800765
 30
0.0
 10
134.5982174190773
 20
118.8377456622955
 30
0.0
 10
134.6420821445532
 20
118.4258300029631
 30
0.0
 10
134.6492623611826
 20
118.2861226998876
 30
0.0
 10
134.6482943338872
 20
118.0099996444252
 30
0.0
 10
134.6402915444735
 20
117.8728230780944
 30
0.0
 10
134.5942188125611
 20
117.4638896368311
 30
0.0
 10
134.533283980109
 20
117.1919633878269
 30
0.0
 10
134.3551638237006
 20
116.6687828713718
 30
0.0
 10
134.2395959123581
 20
116.4200708710085
 30
0.0
 10
133.9577491284189
 20
115.9471863460165
 30
0.0
 10
133.7908791830042
 20
115.7235771287844
 30
0.0
 10
133.4215536282055
 20
115.3189197405968
 30
0.0
 10
133.216768471908
 20
115.1345061524272
 30
0.0
 10
132.7721155243918
 20
114.8054801175329
 30
0.0
 10
132.537266394881
 20
114.6643120415446
 30
0.0
 10
132.043856632404
 20
114.4259025127641
 30
0.0
 10
131.7825696786993
 20
114.3281199563593
 30
0.0
 10
131.2518313981866
 20
114.1827919281691
 30
0.0
 10
130.9821916972894
 20
114.1345025379742
 30
0.0
 10
130.4344403575442
 20
114.0860873141875
 30
0.0
 10
130.1545363156856
 20
114.0865454998235
 30
0.0
 10
129.6074584078506
 20
114.1366973554257
 30
0.0
 10
129.3378533031632
 20
114.1858709224577
 30
0.0
 10
128.8066985465071
 20
114.3335454457647
 30
0.0
 10
128.5454037300636
 20
114.4327006101303
 30
0.0
 10
128.0530897518882
 20
114.673713380607
 30
0.0
 10
127.8191328763095
 20
114.8162015052317
 30
0.0
 10
127.3769642557791
 20
115.1476889342167
 30
0.0
 10
127.1717707246675
 20
115.335122562205
 30
0.0
 10
126.8060765083094
 20
115.7420262812555
 30
0.0
 10
126.6433058859211
 20
115.9632053559244
 30
0.0
 10
126.3623534551556
 20
116.4429526851397
 30
0.0
 10
126.2491496028821
 20
116.69296465195
 30
0.0
 10
126.0765408787431
 20
117.2130398619704
 30
0.0
 10
126.0169345960668
 20
117.4867713266002
 30
0.0
 10
125.9590428259969
 20
118.0353889764986
 30
0.0
 10
125.9598323648569
 20
118.3097288403902
 30
0.0
 10
126.0210228404733
 20
118.8584707915292
 30
0.0
 10
126.0821515642073
 20
119.1315361053863
 30
0.0
 10
126.2582312498371
 20
119.6517013541547
 30
0.0
 10
126.374561844827
 20
119.9040204877136
 30
0.0
 10
126.6577630745678
 20
120.3804248291206
 30
0.0
 10
126.8227479645447
 20
120.6021861473048
 30
0.0
 10
127.1971781844186
 20
121.01254194779
 30
0.0
  0
CIRCLE
  5
16E
330
1F
100
AcDbEntity
  8
0
  6
HIDDEN
 62
     7
370
     0
100
AcDbCircle
 10
130.1988016457
 20
118.1613524975
 30
0.0
 40
4.050000000000011
  0
CIRCLE
  5
16F
330
1F
100
AcDbEntity
  8
0
  6
HIDDEN
 62
     7
370
     0
100
AcDbCircle
 10
157.6988016457
 20
118.1613524975
 30
0.0
 40
2.0
  0
LINE
  5
170
330
1F
100
AcDbEntity
  8
0
  6
HIDDEN
 62
     7
370
     0
100
AcDbLine
 10
145.6988016457
 20
93.9113517822
 30
0.0
 11
145.7916948661
 21
94.0042456211
 31
0.0
  0
LINE
  5
171
330
1F
100
AcDbEntity
  8
0
  6
HIDDEN
 62
     7
370
     0
100
AcDbLine
 10
145.7916948661
 20
142.3184593739
 30
0.0
 11
145.6988016457
 21
142.4113532127
 31
0.0
  0
ARC
  5
172
330
1F
100
AcDbEntity
  8
0
  6
HIDDEN
 62
     7
370
     0
100
AcDbCircle
 10
145.0845880833
 20
94.7113524975
 30
0.0
 40
1.000000000000058
100
AcDbArc
 50
315.0
 51
0.0
  0
ARC
  5
173
330
1F
100
AcDbEntity
  8
0
  6
HIDDEN
 62
     7
370
     0
100
AcDbCircle
 10
145.0845880833
 20
94.7113524975
 30
0.0
 40
1.0
100
AcDbArc
 50
0.0
 51
52.1052014664
  0
ARC
  5
174
330
1F
100
AcDbEntity
  8
0
  6
HIDDEN
 62
     7
370
     0
100
AcDbCircle
 10
145.0845880833
 20
141.6113524975
 30
0.0
 40
1.000000000000028
100
AcDbArc
 50
351.8087250651
 51
45.0
  0
ARC
  5
175
330
1F
100
AcDbEntity
  8
0
  6
HIDDEN
 62
     7
370
     0
100
AcDbCircle
 10
145.0845880833
 20
141.6113524975
 30
0.0
 40
1.000000000000021
100
AcDbArc
 50
307.8947985336
 51
351.8087250651
  0
LINE
  5
176
330
1F
100
AcDbEntity
  8
0
  6
HIDDEN
 62
     7
370
     0
100
AcDbLine
 10
146.0845880815
 20
94.7113522859
 30
0.0
 11
146.0845880815
 21
141.6113527091
 31
0.0
  0
LINE
  5
177
330
1F
100
AcDbEntity
  8
0
  6
HIDDEN
 62
     7
370
     0
100
AcDbLine
 10
146.0845880815
 20
94.7113522859
 30
0.0
 11
146.0845880815
 21
141.6113527091
 31
0.0
  0
LINE
  5
178
330
1F
100
AcDbEntity
  8
0
  6
HIDDEN
 62
     7
370
     0
100
AcDbLine
 10
107.6988028676
 20
101.964922768
 30
0.0
 11
109.2290291876
 21
102.8484014393
 31
0.0
  0
LINE
  5
179
330
1F
100
AcDbEntity
  8
0
  6
HIDDEN
 62
     7
370
     0
100
AcDbLine
 10
109.2290291876
 20
133.4743035556
 30
0.0
 11
107.6988028676
 21
134.357782227
 31
0.0
  0
LINE
  5
17A
330
1F
100
AcDbEntity
  8
0
  6
HIDDEN
 62
     7
370
     0
100
AcDbLine
 10
117.6988007815
 20
102.1613517375
 30
0.0
 11
118.7006021232
 21
102.1613517375
 31
0.0
  0
LINE
  5
17B
330
1F
100
AcDbEntity
  8
0
  6
HIDDEN
 62
     7
370
     0
100
AcDbLine
 10
118.7006021232
 20
134.1613532574
 30
0.0
 11
117.6988007815
 21
134.1613532574
 31
0.0
  0
ARC
  5
17C
330
1F
100
AcDbEntity
  8
0
  6
HIDDEN
 62
     7
370
     0
100
AcDbCircle
 10
117.6988016457
 20
104.1613524975
 30
0.0
 40
2.000000000000028
100
AcDbArc
 50
189.9742217944
 51
270.0
  0
ARC
  5
17D
330
1F
100
AcDbEntity
  8
0
  6
HIDDEN
 62
     7
370
     0
100
AcDbCircle
 10
117.6988016457
 20
132.1613524975
 30
0.0
 40
2.000000000000008
100
AcDbArc
 50
90.0
 51
170.0257782056
  0
ARC
  5
17E
330
1F
100
AcDbEntity
  8
0
  6
HIDDEN
 62
     7
370
     0
100
AcDbCircle
 10
118.7006029606
 20
104.1613524975
 30
0.0
 40
2.000000000000028
100
AcDbArc
 50
270.0
 51
315.0
  0
ARC
  5
17F
330
1F
100
AcDbEntity
  8
0
  6
HIDDEN
 62
     7
370
     0
100
AcDbCircle
 10
118.7006029606
 20
132.1613524975
 30
0.0
 40
2.0
100
AcDbArc
 50
45.0
 51
90.0
  0
LINE
  5
180
330
1F
100
AcDbEntity
  8
0
  6
HIDDEN
 62
     7
370
     0
100
AcDbLine
 10
120.1148173154
 20
102.7471387358
 30
0.0
 11
121.529030645
 21
104.1613520654
 31
0.0
  0
LINE
  5
181
330
1F
100
AcDbEntity
  8
0
  6
HIDDEN
 62
     7
370
     0
100
AcDbLine
 10
121.529030645
 20
132.1613529296
 30
0.0
 11
120.1148173154
 21
133.5755662592
 31
0.0
  0
LINE
  5
182
330
1F
100
AcDbEntity
  8
0
  6
HIDDEN
 62
     7
370
     0
100
AcDbLine
 10
109.2290291876
 20
102.8484014393
 30
0.0
 11
114.1290301771
 21
104.1613520654
 31
0.0
  0
LINE
  5
183
330
1F
100
AcDbEntity
  8
0
  6
HIDDEN
 62
     7
370
     0
100
AcDbLine
 10
114.1290301771
 20
132.1613529296
 30
0.0
 11
109.2290291876
 21
133.4743035556
 31
0.0
  0
LINE
  5
184
330
1F
100
AcDbEntity
  8
0
  6
HIDDEN
 62
     7
370
     0
100
AcDbLine
 10
115.7290293218
 20
132.5077630179
 30
0.0
 11
115.129030341
 21
132.1613529296
 31
0.0
  0
LINE
  5
185
330
1F
100
AcDbEntity
  8
0
  6
HIDDEN
 62
     7
370
     0
100
AcDbLine
 10
115.129030341
 20
104.1613520654
 30
0.0
 11
115.7290293218
 21
103.8149419771
 31
0.0
  0
ARC
  5
186
330
1F
100
AcDbEntity
  8
0
  6
HIDDEN
 62
     7
370
     0
100
AcDbCircle
 10
134.1988016457
 20
104.6613524975
 30
0.0
 40
0.5000000000000284
100
AcDbArc
 50
270.0
 51
360.0
  0
ARC
  5
187
330
1F
100
AcDbEntity
  8
0
  6
HIDDEN
 62
     7
370
     0
100
AcDbCircle
 10
134.1988016457
 20
131.6613524975
 30
0.0
 40
0.5
100
AcDbArc
 50
0.0
 51
90.0
  0
LINE
  5
188
330
1F
100
AcDbEntity
  8
0
  6
HIDDEN
 62
     7
370
     0
100
AcDbLine
 10
121.529030645
 20
104.1613520654
 30
0.0
 11
134.1988016234
 21
104.1613520654
 31
0.0
  0
LINE
  5
189
330
1F
100
AcDbEntity
  8
0
  6
HIDDEN
 62
     7
370
     0
100
AcDbLine
 10
134.1988016234
 20
132.1613529296
 30
0.0
 11
121.529030645
 21
132.1613529296
 31
0.0
  0
LINE
  5
18A
330
1F
100
AcDbEntity
  8
0
  6
HIDDEN
 62
     7
370
     0
100
AcDbLine
 10
114.1290301771
 20
104.1613520654
 30
0.0
 11
115.129030341
 21
104.1613520654
 31
0.0
  0
LINE
  5
18B
330
1F
100
AcDbEntity
  8
0
  6
HIDDEN
 62
     7
370
     0
100
AcDbLine
 10
115.129030341
 20
132.1613529296
 30
0.0
 11
114.1290301771
 21
132.1613529296
 31
0.0
  0
LINE
  5
18C
330
1F
100
AcDbEntity
  8
0
  6
HIDDEN
 62
     7
370
     0
100
AcDbLine
 10
230.7988042326
 20
115.5571610732
 30
0.0
 11
230.7988042326
 21
116.8506209803
 31
0.0
  0
LINE
  5
18D
330
1F
100
AcDbEntity
  8
0
  6
HIDDEN
 62
     7
370
     0
100
AcDbLine
 10
230.7988042326
 20
114.1441316874
 30
0.0
 11
230.7988042326
 21
114.3623133255
 31
0.0
  0
LINE
  5
18E
330
1F
100
AcDbEntity
  8
0
  6
HIDDEN
 62
     7
370
     0
100
AcDbLine
 10
226.5988001914
 20
116.8521723309
 30
0.0
 11
226.5988001914
 21
114.1441316874
 31
0.0
  0
LINE
  5
18F
330
1F
100
AcDbEntity
  8
0
  6
HIDDEN
 62
     7
370
     0
100
AcDbLine
 10
235.6606806011
 20
114.2271805154
 30
0.0
 11
229.8446158261
 21
116.843736411
 31
0.0
  0
LINE
  5
190
330
1F
100
AcDbEntity
  8
0
  6
HIDDEN
 62
     7
370
     0
100
AcDbLine
 10
228.6973977775
 20
112.7543916525
 30
0.0
 11
235.6861988396
 21
109.610241984
 31
0.0
  0
LINE
  5
191
330
1F
100
AcDbEntity
  8
0
  6
HIDDEN
 62
     7
370
     0
100
AcDbLine
 10
134.6988017053
 20
107.9113522144
 30
0.0
 11
135.9488014446
 21
109.1613528849
 31
0.0
  0
LINE
  5
192
330
1F
100
AcDbEntity
  8
0
  6
HIDDEN
 62
     7
370
     0
100
AcDbLine
 10
135.9488014446
 20
127.1613521101
 30
0.0
 11
134.6988017053
 21
128.4113527806
 31
0.0
  0
LINE
  5
193
330
1F
100
AcDbEntity
  8
0
  6
HIDDEN
 62
     7
370
     0
100
AcDbLine
 10
161.6988024057
 20
109.1613528849
 30
0.0
 11
164.5528888644
 21
113.9113522665
 31
0.0
  0
LINE
  5
194
330
1F
100
AcDbEntity
  8
0
  6
HIDDEN
 62
     7
370
     0
100
AcDbLine
 10
164.5528888644
 20
122.4113527285
 30
0.0
 11
161.6988024057
 21
127.1613521101
 31
0.0
  0
LINE
  5
195
330
1F
100
AcDbEntity
  8
0
  6
HIDDEN
 62
     7
370
     0
100
AcDbLine
 10
135.9488014446
 20
109.1613528849
 30
0.0
 11
161.6988024057
 21
109.1613528849
 31
0.0
  0
LINE
  5
196
330
1F
100
AcDbEntity
  8
0
  6
HIDDEN
 62
     7
370
     0
100
AcDbLine
 10
161.6988024057
 20
127.1613521101
 30
0.0
 11
135.9488014446
 21
127.1613521101
 31
0.0
  0
LINE
  5
197
330
1F
100
AcDbEntity
  8
0
  6
HIDDEN
 62
     7
370
     0
100
AcDbLine
 10
231.6988045663
 20
122.4113527285
 30
0.0
 11
164.5528888644
 21
122.4113527285
 31
0.0
  0
LINE
  5
198
330
1F
100
AcDbEntity
  8
0
  6
HIDDEN
 62
     7
370
     0
100
AcDbLine
 10
164.5528888644
 20
113.9113522665
 30
0.0
 11
231.6988045663
 21
113.9113522665
 31
0.0
  0
LINE
  5
199
330
1F
100
AcDbEntity
  8
0
  6
HIDDEN
 62
     7
370
     0
100
AcDbLine
 10
231.6988045663
 20
113.9113522665
 30
0.0
 11
234.2524612636
 21
118.1613524975
 31
0.0
  0
LINE
  5
19A
330
1F
100
AcDbEntity
  8
0
  6
HIDDEN
 62
     7
370
     0
100
AcDbLine
 10
234.2524612636
 20
118.1613524975
 30
0.0
 11
231.6988045663
 21
122.4113527285
 31
0.0
  0
LINE
  5
19B
330
1F
100
AcDbEntity
  8
0
  6
HIDDEN
 62
     7
370
     0
100
AcDbLine
 10
244.284586081
 20
102.1613517375
 30
0.0
 11
244.3126598687
 21
102.1609587194
 31
0.0
  0
ARC
  5
19C
330
1F
100
AcDbEntity
  8
0
  6
HIDDEN
 62
     7
370
     0
100
AcDbCircle
 10
244.2845880833
 20
101.1613524975
 30
0.0
 40
0.9999999999999943
100
AcDbArc
 50
45.0
 51
64.8454287542
  0
LINE
  5
19D
330
1F
100
AcDbEntity
  8
0
  6
HIDDEN
 62
     7
370
     0
100
AcDbLine
 10
256.5068165154
 20
111.4000046225
 30
0.0
 11
256.5068165154
 21
111.2953700656
 31
0.0
  0
LINE
  5
19E
330
1F
100
AcDbEntity
  8
0
  6
HIDDEN
 62
     7
370
     0
100
AcDbLine
 10
230.7988042326
 20
119.4705326641
 30
0.0
 11
230.7988042326
 21
121.2515224767
 31
0.0
  0
LINE
  5
19F
330
1F
100
AcDbEntity
  8
0
  6
HIDDEN
 62
     7
370
     0
100
AcDbLine
 10
226.5988001914
 20
121.2515224767
 30
0.0
 11
226.5988001914
 21
119.4720840146
 31
0.0
  0
LINE
  5
1A0
330
1F
100
AcDbEntity
  8
0
  6
HIDDEN
 62
     7
370
     0
100
AcDbLine
 10
265.177519092
 20
103.6444149511
 30
0.0
 11
265.177519092
 21
104.2496209563
 31
0.0
  0
LINE
  5
1A1
330
1F
100
AcDbEntity
  8
0
  6
HIDDEN
 62
     7
370
     0
100
AcDbLine
 10
261.8775228352
 20
104.2495986046
 30
0.0
 11
261.8775228352
 21
103.6444149511
 31
0.0
  0
LINE
  5
1A2
330
1F
100
AcDbEntity
  8
0
  6
HIDDEN
 62
     7
370
     0
100
AcDbLine
 10
231.1988035531
 20
121.3257928909
 30
0.0
 11
231.1988035531
 21
123.1041403087
 31
0.0
  0
LINE
  5
1A3
330
1F
100
AcDbEntity
  8
0
  6
HIDDEN
 62
     7
370
     0
100
AcDbLine
 10
226.1988008709
 20
123.1054660463
 30
0.0
 11
226.1988008709
 21
121.3257928909
 31
0.0
  0
LINE
  5
1A4
330
1F
100
AcDbEntity
  8
VERMASSUNG
  6
CENTERX2
100
AcDbLine
 10
104.7124101373
 20
118.1613524975
 30
0.0
 11
270.6988016457
 21
118.1613524975
 31
0.0
  0
LINE
  5
1A5
330
1F
100
AcDbEntity
  8
VERMASSUNG
  6
CENTERX2
100
AcDbLine
 10
270.6988016457
 20
96.1613524975
 30
0.0
 11
270.6988016457
 21
118.1613524975
 31
0.0
  0
LINE
  5
1A6
330
1F
100
AcDbEntity
  8
VERMASSUNG
  6
CENTERX2
100
AcDbLine
 10
270.6988016457
 20
96.1613524975
 30
0.0
 11
282.3290583398
 21
96.1613524975
 31
0.0
  0
DIMENSION
  5
1A7
330
1F
100
AcDbEntity
  8
VERMASSUNG
100
AcDbDimension
  2
_D
 10
270.6988016457
 20
76.6613524975
 30
0.0
 11
208.1988016457
 21
76.6613524975
 31
0.0
 70
   160
  1
<>
 71
     2
 42
-1.0
  3
SLDDIMSTYLE0
100
AcDbAlignedDimension
 13
145.6988016457
 23
87.1613524975
 33
0.0
 14
270.6988016457
 24
96.1613524975
 34
0.0
100
AcDbRotatedDimension
  0
DIMENSION
  5
1B2
330
1F
100
AcDbEntity
  8
VERMASSUNG
100
AcDbDimension
  2
_D_1
 10
270.6988016457
 20
67.8218528071
 30
0.0
 11
189.1988016457
 21
67.8218528071
 31
0.0
 70
   160
  1
<>
 71
     2
 42
-1.0
  3
SLDDIMSTYLE0
100
AcDbAlignedDimension
 13
107.6988016457
 23
97.869014505
 33
0.0
 14
270.6988016457
 24
96.1613524975
 34
0.0
 50
0.0
100
AcDbRotatedDimension
  0
DIMENSION
  5
1BC
330
1F
100
AcDbEntity
  8
VERMASSUNG
100
AcDbDimension
  2
_D_2
 10
287.3339510404
 20
118.1613524975
 30
0.0
 11
287.3339510404
 21
107.1613524975
 31
0.0
 70
   160
  1
<>
 71
     2
 42
-1.0
  3
SLDDIMSTYLE0
100
AcDbAlignedDimension
 13
270.6988016457
 23
96.1613524975
 33
0.0
 14
270.6988016457
 24
118.1613524975
 34
0.0
 50
90.0
100
AcDbRotatedDimension
  0
DIMENSION
  5
1C6
330
1F
100
AcDbEntity
  8
VERMASSUNG
100
AcDbDimension
  2
_D_3
 10
267.476925077
 20
106.815389293
 30
0.0
 11
276.6663688848
 21
104.1074397808
 31
0.0
 70
   162
  1
<>
 71
     1
 42
-1.0
  3
SLDDIMSTYLE1
100
AcDb2LineAngularDimension
 13
282.3290583398
 23
96.1613524975
 33
0.0
 14
270.6988016457
 24
96.1613524975
 34
0.0
 15
270.6829019126
 25
96.6720987067
 35
0.0
 16
276.6663688848
 26
104.1074397808
 36
0.0
  0
DIMENSION
  5
1CF
330
1F
100
AcDbEntity
  8
VERMASSUNG
100
AcDbDimension
  2
_D_4
 10
100.4552943139
 20
86.6613524975
 30
0.0
 11
100.4552943139
 21
118.1613524975
 31
0.0
 70
   160
  1
PSC%%c<>
 71
     2
 42
-1.0
  3
SLDDIMSTYLE0
100
AcDbAlignedDimension
 13
146.1988016457
 23
149.6613524975
 33
0.0
 14
146.1988016457
 24
86.6613524975
 34
0.0
 50
90.0
100
AcDbRotatedDimension
  0
DIMENSION
  5
1DB
330
1F
100
AcDbEntity
  8
VERMASSUNG
100
AcDbDimension
  2
_D_5
 10
192.6081418828
 20
102.1613524975
 30
0.0
 11
192.6081418828
 21
110.21612799
 31
0.0
 70
   160
  1
%%c<>
 71
     2
 42
-1.0
  3
SLDDIMSTYLE0
100
AcDbAlignedDimension
 13
171.6988016457
 23
134.1613524975
 33
0.0
 14
171.6988016457
 24
102.1613524975
 34
0.0
 50
90.0
100
AcDbRotatedDimension
  0
LINE
  5
1E4
330
1F
100
AcDbEntity
  8
0
  6
Continuous
 62
     7
370
    15
100
AcDbLine
 10
49.3232954671
 20
101.6382315727
 30
0.0
 11
49.354749461
 21
101.6404313566
 31
0.0
  0
LINE
  5
1E5
330
1F
100
AcDbEntity
  8
0
  6
Continuous
 62
     7
370
    15
100
AcDbLine
 10
52.9499922617
 20
107.1383451642
 30
0.0
 11
51.4583623938
 21
106.9662646921
 31
0.0
  0
LINE
  5
1E6
330
1F
100
AcDbEntity
  8
0
  6
Continuous
 62
     7
370
    15
100
AcDbLine
 10
51.4583623938
 20
106.9662646921
 30
0.0
 11
49.2788319446
 21
107.0267783077
 31
0.0
  0
LINE
  5
1E7
330
1F
100
AcDbEntity
  8
0
  6
Continuous
 62
     7
370
    15
100
AcDbLine
 10
47.3584940395
 20
134.4888900937
 30
0.0
 11
49.2788319446
 21
107.0267783077
 31
0.0
  0
ARC
  5
1E8
330
1F
100
AcDbEntity
  8
0
  6
Continuous
 62
     7
370
    15
100
AcDbCircle
 10
49.7378839849
 20
118.1613524975
 30
0.0
 40
16.50000000000005
100
AcDbArc
 50
0.0
 51
98.2912714864
  0
LINE
  5
1E9
330
1F
100
AcDbEntity
  8
0
  6
Continuous
 62
     7
370
    15
100
AcDbLine
 10
66.2378838955
 20
116.6613524845
 30
0.0
 11
66.2378838955
 21
118.1613524975
 31
0.0
  0
ARC
  5
1EA
330
1F
100
AcDbEntity
  8
0
  6
Continuous
 62
     7
370
    15
100
AcDbCircle
 10
43.2378839849
 20
116.6613524975
 30
0.0
 40
23.00000000000008
100
AcDbArc
 50
307.9853351412
 51
0.0
  0
LINE
  5
1EB
330
1F
100
AcDbEntity
  8
0
  6
Continuous
 62
     7
370
    15
100
AcDbLine
 10
53.6188944446
 20
97.5725987525
 30
0.0
 11
57.3934584594
 21
98.5334815057
 31
0.0
  0
LINE
  5
1EC
330
1F
100
AcDbEntity
  8
0
  6
Continuous
 62
     7
370
    15
100
AcDbLine
 10
52.9499922617
 20
107.1383451642
 30
0.0
 11
52.9649502335
 21
106.92443527
 31
0.0
  0
ARC
  5
1ED
330
1F
100
AcDbEntity
  8
0
  6
Continuous
 62
     7
370
    15
100
AcDbCircle
 10
43.2378839849
 20
116.6613524975
 30
0.0
 40
23.00000000000011
100
AcDbArc
 50
305.8535901012
 51
307.9853351412
  0
LINE
  5
1EE
330
1F
100
AcDbEntity
  8
0
  6
Continuous
 62
     7
370
    15
100
AcDbLine
 10
56.7093526682
 20
98.0194771262
 30
0.0
 11
53.6422436329
 21
97.2386879446
 31
0.0
  0
SPLINE
  5
1EF
330
1F
100
AcDbEntity
  8
0
  6
Continuous
 62
     7
370
    15
100
AcDbSpline
210
0.0
220
0.0
230
1.0
 70
     8
 71
     3
 72
    14
 73
    10
 74
     0
 42
0.00000001
 43
0.00000001
 12
1.0
 22
0.0
 32
0.0
 13
1.0
 23
0.0
 33
0.0
 40
0.0
 40
0.0
 40
0.0
 40
0.0
 40
0.25
 40
0.25
 40
0.5
 40
0.5
 40
0.75
 40
0.75
 40
1.0
 40
1.0
 40
1.0
 40
1.0
 10
45.19840026898155
 20
133.503877960827
 30
0.0
 10
45.50640767000441
 20
133.5950099315484
 30
0.0
 10
45.79622947107283
 20
133.6707155503001
 30
0.0
 10
46.33633611767237
 20
133.7980546663355
 30
0.0
 10
46.57293043189367
 20
133.8465187593374
 30
0.0
 10
46.97268459901254
 20
133.9219059145104
 30
0.0
 10
47.12723854371229
 20
133.9472979993607
 30
0.0
 10
47.33948487526514
 20
133.9809361430389
 30
0.0
 10
47.39347336817402
 20
133.9886624034817
 30
0.0
 10
47.39347336817402
 20
133.9886624034817
 30
0.0
  0
SPLINE
  5
1F0
330
1F
100
AcDbEntity
  8
0
  6
Continuous
 62
     7
370
    15
100
AcDbSpline
210
0.0
220
0.0
230
1.0
 70
     8
 71
     3
 72
    10
 73
     6
 74
     0
 42
0.00000001
 43
0.00000001
 12
1.0
 22
0.0
 32
0.0
 13
1.0
 23
0.0
 33
0.0
 40
0.0
 40
0.0
 40
0.0
 40
0.0
 40
0.2747857256900348
 40
0.6521802931241375
 40
1.0
 40
1.0
 40
1.0
 40
1.0
 10
49.31783477363118
 20
102.1683366568404
 30
0.0
 10
49.21214204347472
 20
102.1709997660391
 30
0.0
 10
48.96128943618793
 20
102.177320426741
 30
0.0
 10
48.26521136493323
 20
102.2191364728321
 30
0.0
 10
47.66548132634502
 20
102.2983664299978
 30
0.0
 10
47.37784505991207
 20
102.3363658757525
 30
0.0
  0
ELLIPSE
  5
1F1
330
1F
100
AcDbEntity
  8
0
  6
Continuous
 62
     7
370
    15
100
AcDbEllipse
 10
41.3595476751
 20
111.9187113308
 30
0.0
 11
-1.760196824718179
 21
1.835933670849798
 31
0.0
210
0.0
220
0.0
230
1.0
 40
0.8100956337
 41
0.0
 42
6.283185307179586
  0
ARC
  5
1F2
330
1F
100
AcDbEntity
  8
0
  6
Continuous
 62
     7
370
    15
100
AcDbCircle
 10
49.7378839849
 20
118.1613524975
 30
0.0
 40
16.00000000000004
100
AcDbArc
 50
106.4822165171
 51
261.5177834829
  0
SPLINE
  5
1F3
330
1F
100
AcDbEntity
  8
0
  6
Continuous
 62
     7
370
    15
100
AcDbSpline
210
0.0
220
0.0
230
1.0
 70
     8
 71
     3
 72
    15
 73
    11
 74
     0
 42
0.00000001
 43
0.00000001
 12
1.0
 22
0.0
 32
0.0
 13
1.0
 23
0.0
 33
0.0
 40
0.0
 40
0.0
 40
0.0
 40
0.0
 40
0.1534861635312876
 40
0.4106467568844686
 40
0.5018910198793529
 40
0.5750642581867823
 40
0.6489304870896185
 40
0.7458636066740923
 40
0.9498064824593347
 40
1.0
 40
1.0
 40
1.0
 40
1.0
 10
42.07065400836931
 20
113.8575437077897
 30
0.0
 10
41.98736663050626
 20
113.7336792525619
 30
0.0
 10
41.76453422123893
 20
113.4022843198702
 30
0.0
 10
41.27751895170051
 20
113.197778386998
 30
0.0
 10
40.79977633541777
 20
113.052904699038
 30
0.0
 10
40.49140694987007
 20
112.9634267168252
 30
0.0
 10
40.16964261553287
 20
112.8512361166312
 30
0.0
 10
39.75097814370848
 20
112.7048262534149
 30
0.0
 10
39.40323135341206
 20
112.5887017506697
 30
0.0
 10
39.18052529710179
 20
112.6606435592468
 30
0.0
 10
39.13653946651087
 20
112.6748525136726
 30
0.0
  0
CIRCLE
  5
1F4
330
1F
100
AcDbEntity
  8
0
  6
Continuous
 62
     7
370
    15
100
AcDbCircle
 10
49.7378839849
 20
118.1613524975
 30
0.0
 40
31.5000000000001
  0
LINE
  5
1F5
330
1F
100
AcDbEntity
  8
0
  6
Continuous
 62
     7
370
    15
100
AcDbLine
 10
53.6482839583
 20
97.1523096384
 30
0.0
 11
52.9700052196
 21
106.8521469431
 31
0.0
  0
LINE
  5
1F6
330
1F
100
AcDbEntity
  8
0
  6
Continuous
 62
     7
370
    15
100
AcDbLine
 10
49.702169132
 20
96.6720992298
 30
0.0
 11
48.9928811643
 21
106.8153895037
 31
0.0
  0
SPLINE
  5
1F7
330
1F
100
AcDbEntity
  8
0
  6
Continuous
 62
     7
370
    15
100
AcDbSpline
210
0.0
220
0.0
230
1.0
 70
     8
 71
     3
 72
    10
 73
     6
 74
     0
 42
0.00000001
 43
0.00000001
 12
1.0
 22
0.0
 32
0.0
 13
1.0
 23
0.0
 33
0.0
 40
0.0
 40
0.0
 40
0.0
 40
0.0
 40
0.2780944154361407
 40
0.5601464479096385
 40
1.0
 40
1.0
 40
1.0
 40
1.0
 10
53.65696900693641
 20
97.02810473457151
 30
0.0
 10
53.29729761335393
 20
96.94049548405575
 30
0.0
 10
52.5728362709211
 20
96.76403019832364
 30
0.0
 10
51.25310261910894
 20
96.5159060919581
 30
0.0
 10
50.31087162510605
 20
96.3054455947323
 30
0.0
 10
49.73677487552599
 20
96.17721304014498
 30
0.0
  0
SPLINE
  5
1F8
330
1F
100
AcDbEntity
  8
0
  6
Continuous
 62
     7
370
    15
100
AcDbSpline
210
0.0
220
0.0
230
1.0
 70
     8
 71
     3
 72
    14
 73
    10
 74
     0
 42
0.00000001
 43
0.00000001
 12
1.0
 22
0.0
 32
0.0
 13
1.0
 23
0.0
 33
0.0
 40
0.0
 40
0.0
 40
0.0
 40
0.0
 40
0.1583206010664685
 40
0.3167974982269348
 40
0.4713758218377524
 40
0.6221065166302514
 40
0.772109594897575
 40
0.9245867357611816
 40
1.0
 40
1.0
 40
1.0
 40
1.0
 10
53.64828395826684
 20
97.15230963841253
 30
0.0
 10
53.64907138548354
 20
97.14104840349427
 30
0.0
 10
53.65064701727506
 20
97.11851481642462
 30
0.0
 10
53.65303595906743
 20
97.08434797549809
 30
0.0
 10
53.65506803998035
 20
97.05528992116761
 30
0.0
 10
53.6565403904663
 20
97.03423428908602
 30
0.0
 10
53.65731425806857
 20
97.02316801596919
 30
0.0
 10
53.65736020400635
 20
97.02251314672078
 30
0.0
 10
53.65706627396938
 20
97.02671444511996
 30
0.0
 10
53.65696900693641
 20
97.02810473457151
 30
0.0
  0
SPLINE
  5
1F9
330
1F
100
AcDbEntity
  8
0
  6
Continuous
 62
     7
370
    15
100
AcDbSpline
210
0.0
220
0.0
230
1.0
 70
     8
 71
     3
 72
    14
 73
    10
 74
     0
 42
0.00000001
 43
0.00000001
 12
1.0
 22
0.0
 32
0.0
 13
1.0
 23
0.0
 33
0.0
 40
0.0
 40
0.0
 40
0.0
 40
0.0
 40
0.158856999335943
 40
0.3173349670784487
 40
0.4720171218357799
 40
0.6236436545925882
 40
0.7746613582414267
 40
0.9277406007116393
 40
1.0
 40
1.0
 40
1.0
 40
1.0
 10
49.73677487552599
 20
96.17721304014498
 30
0.0
 10
49.73743975974285
 20
96.16770458205042
 30
0.0
 10
49.73876794176788
 20
96.14871035297004
 30
0.0
 10
49.73664051107259
 20
96.1791359842612
 30
0.0
 10
49.73171842627672
 20
96.24952478035192
 30
0.0
 10
49.7244218152084
 20
96.35387128881322
 30
0.0
 10
49.71566624876926
 20
96.47908006446409
 30
0.0
 10
49.70794375824425
 20
96.58951640122972
 30
0.0
 10
49.7035712616178
 20
96.65204739897113
 30
0.0
 10
49.70216913201788
 20
96.67209922984415
 30
0.0
  0
SPLINE
  5
1FA
330
1F
100
AcDbEntity
  8
0
  6
Continuous
 62
     7
370
    15
100
AcDbSpline
210
0.0
220
0.0
230
1.0
 70
     8
 71
     3
 72
    10
 73
     6
 74
     0
 42
0.00000001
 43
0.00000001
 12
1.0
 22
0.0
 32
0.0
 13
1.0
 23
0.0
 33
0.0
 40
0.0
 40
0.0
 40
0.0
 40
0.0
 40
0.2657480109327013
 40
0.6165349932451922
 40
1.0
 40
1.0
 40
1.0
 40
1.0
 10
52.96548388136492
 20
106.9168040128069
 30
0.0
 10
52.96570313978498
 20
106.9136691446492
 30
0.0
 10
52.96621181899597
 20
106.9063962551487
 30
0.0
 10
52.96772772328643
 20
106.8847141132511
 30
0.0
 10
52.96922385891788
 20
106.8633200487631
 30
0.0
 10
52.97000521963404
 20
106.8521469430643
 30
0.0
  0
SPLINE
  5
1FB
330
1F
100
AcDbEntity
  8
0
  6
Continuous
 62
     7
370
    15
100
AcDbSpline
210
0.0
220
0.0
230
1.0
 70
     8
 71
     3
 72
    10
 73
     6
 74
     0
 42
0.00000001
 43
0.00000001
 12
1.0
 22
0.0
 32
0.0
 13
1.0
 23
0.0
 33
0.0
 40
0.0
 40
0.0
 40
0.0
 40
0.0
 40
0.3518046330587989
 40
0.7034175791049936
 40
1.0
 40
1.0
 40
1.0
 40
1.0
 10
48.99288116425218
 20
106.8153895036893
 30
0.0
 10
48.99000904337999
 20
106.8564627936167
 30
0.0
 10
48.98426636656178
 20
106.9385869939587
 30
0.0
 10
48.97798343136269
 20
107.0284359978494
 30
0.0
 10
48.97579706043577
 20
107.0597031053118
 30
0.0
 10
48.97479668429063
 20
107.0740094007569
 30
0.0
  0
LINE
  5
1FC
330
1F
100
AcDbEntity
  8
0
  6
Continuous
 62
     7
370
    15
100
AcDbLine
 10
49.0534421027
 20
110.2500037821
 30
0.0
 11
48.7511590094
 21
110.2721767099
 31
0.0
  0
LINE
  5
1FD
330
1F
100
AcDbEntity
  8
0
  6
Continuous
 62
     7
370
    15
100
AcDbLine
 10
52.9654838814
 20
106.9168040128
 30
0.0
 11
52.9649502335
 21
106.92443527
 31
0.0
  0
LINE
  5
1FE
330
1F
100
AcDbEntity
  8
0
  6
Continuous
 62
     7
370
    15
100
AcDbLine
 10
48.9747966843
 20
107.0740094008
 30
0.0
 11
48.7511590094
 21
110.2721767099
 31
0.0
  0
LINE
  5
1FF
330
1F
100
AcDbEntity
  8
0
  6
Continuous
 62
     7
370
    15
100
AcDbLine
 10
48.9928811643
 20
106.8153895037
 30
0.0
 11
48.9747966843
 21
107.0740094008
 31
0.0
  0
CIRCLE
  5
200
330
1F
100
AcDbEntity
  8
VERMASSUNG
  6
CENTERX2
100
AcDbCircle
 10
49.7378839849
 20
116.3307030693
 30
0.0
 40
20.0
  0
DIMENSION
  5
201
330
1F
100
AcDbEntity
  8
VERMASSUNG
100
AcDbDimension
  2
_D_6
 10
35.5957483611
 20
102.1885674456
 30
0.0
 11
21.4926527237
 21
88.0854718082
 31
0.0
 70
   160
  1
%%c<> min. 
 71
     2
 42
-1.0
  3
SLDDIMSTYLE2
100
AcDbAlignedDimension
 13
63.8800196086
 23
130.4728386931
 33
0.0
 14
35.5957483611
 24
102.1885674456
 34
0.0
 50
45.0
100
AcDbRotatedDimension
  0
DIMENSION
  5
210
330
1F
100
AcDbEntity
  8
VERMASSUNG
100
AcDbDimension
  2
_D_7
 10
49.7378839849
 20
84.1613524975
 30
0.0
 11
38.4362544068
 21
155.8313388988
 31
0.0
 70
   162
  1
<>
 71
     1
 42
-1.0
  3
SLDDIMSTYLE3
100
AcDb2LineAngularDimension
 13
47.3584939991
 23
134.488890686
 33
0.0
 14
49.2788319479
 24
107.0267785806
 34
0.0
 15
49.7378839849
 25
152.1613524975
 35
0.0
 16
47.7656803076
 26
156.9385526321
 36
0.0
  0
INSERT
  5
228
330
1F
100
AcDbEntity
  8
VERMASSUNG
100
AcDbBlockReference
  2
SW_CENTERMARKSYMBOL_0
 10
49.7378839849
 20
118.1613524975
 30
0.0
  0
OLE2FRAME
  5
229
330
1F
100
AcDbEntity
  8
0
100
AcDbOle2Frame
 70
     2
  3
Paintbrush-Bild
 10
13.8511154363
 20
38.264191557
 30
0.0
 11
51.6290888628
 21
31.9806341108
 31
0.0
 71
     2
 72
     0
 73
     1
 90
    12928
310
80552BED0767C5B32B40DDAF6807D121434000000000000000006FFBDDFB85D0
310
4940DDAF6807D121434000000000000000006FFBDDFB85D04940416F4BD60AFB
310
3F4000000000000000002BED0767C5B32B40416F4BD60AFB3F40000000000000
310
0000000000000100000000010000010000000100000000000100000000320000
310
D0CF11E0A1B11AE1000000000000000000000000000000003E000300FEFF0900
310
0600000000000000000000000100000001000000000000000010000002000000
310
01000000FEFFFFFF0000000000000000FFFFFFFFFFFFFFFFFFFFFFFFFFFFFFFF
310
FFFFFFFFFFFFFFFFFFFFFFFFFFFFFFFFFFFFFFFFFFFFFFFFFFFFFFFFFFFFFFFF
310
FFFFFFFFFFFFFFFFFFFFFFFFFFFFFFFFFFFFFFFFFFFFFFFFFFFFFFFFFFFFFFFF
310
FFFFFFFFFFFFFFFFFFFFFFFFFFFFFFFFFFFFFFFFFFFFFFFFFFFFFFFFFFFFFFFF
310
FFFFFFFFFFFFFFFFFFFFFFFFFFFFFFFFFFFFFFFFFFFFFFFFFFFFFFFFFFFFFFFF
310
FFFFFFFFFFFFFFFFFFFFFFFFFFFFFFFFFFFFFFFFFFFFFFFFFFFFFFFFFFFFFFFF
310
FFFFFFFFFFFFFFFFFFFFFFFFFFFFFFFFFFFFFFFFFFFFFFFFFFFFFFFFFFFFFFFF
310
FFFFFFFFFFFFFFFFFFFFFFFFFFFFFFFFFFFFFFFFFFFFFFFFFFFFFFFFFFFFFFFF
310
FFFFFFFFFFFFFFFFFFFFFFFFFFFFFFFFFFFFFFFFFFFFFFFFFFFFFFFFFFFFFFFF
310
FFFFFFFFFFFFFFFFFFFFFFFFFFFFFFFFFFFFFFFFFFFFFFFFFFFFFFFFFFFFFFFF
310
FFFFFFFFFFFFFFFFFFFFFFFFFFFFFFFFFFFFFFFFFFFFFFFFFFFFFFFFFFFFFFFF
310
FFFFFFFFFFFFFFFFFFFFFFFFFFFFFFFFFFFFFFFFFFFFFFFFFFFFFFFFFFFFFFFF
310
FFFFFFFFFFFFFFFFFFFFFFFFFFFFFFFFFFFFFFFFFFFFFFFFFFFFFFFFFFFFFFFF
310
FFFFFFFFFFFFFFFFFFFFFFFFFFFFFFFFFFFFFFFFFFFFFFFFFFFFFFFFFFFFFFFF
310
FDFFFFFFFEFFFFFFFEFFFFFFFEFFFFFF05000000060000000700000008000000
310
090000000A0000000B0000000C0000000D0000000E0000000F00000010000000
310
11000000120000001300000014000000150000001600000017000000FEFFFFFF
310
FFFFFFFFFFFFFFFFFFFFFFFFFFFFFFFFFFFFFFFFFFFFFFFFFFFFFFFFFFFFFFFF
310
FFFFFFFFFFFFFFFFFFFFFFFFFFFFFFFFFFFFFFFFFFFFFFFFFFFFFFFFFFFFFFFF
310
FFFFFFFFFFFFFFFFFFFFFFFFFFFFFFFFFFFFFFFFFFFFFFFFFFFFFFFFFFFFFFFF
310
FFFFFFFFFFFFFFFFFFFFFFFFFFFFFFFFFFFFFFFFFFFFFFFFFFFFFFFFFFFFFFFF
310
FFFFFFFFFFFFFFFFFFFFFFFFFFFFFFFFFFFFFFFFFFFFFFFFFFFFFFFFFFFFFFFF
310
FFFFFFFFFFFFFFFFFFFFFFFFFFFFFFFFFFFFFFFFFFFFFFFFFFFFFFFFFFFFFFFF
310
FFFFFFFFFFFFFFFFFFFFFFFFFFFFFFFFFFFFFFFFFFFFFFFFFFFFFFFFFFFFFFFF
310
FFFFFFFFFFFFFFFFFFFFFFFFFFFFFFFFFFFFFFFFFFFFFFFFFFFFFFFFFFFFFFFF
310
FFFFFFFFFFFFFFFFFFFFFFFFFFFFFFFFFFFFFFFFFFFFFFFFFFFFFFFFFFFFFFFF
310
FFFFFFFFFFFFFFFFFFFFFFFFFFFFFFFFFFFFFFFFFFFFFFFFFFFFFFFFFFFFFFFF
310
FFFFFFFFFFFFFFFFFFFFFFFFFFFFFFFFFFFFFFFFFFFFFFFFFFFFFFFFFFFFFFFF
310
FFFFFFFFFFFFFFFFFFFFFFFFFFFFFFFFFFFFFFFFFFFFFFFFFFFFFFFFFFFFFFFF
310
FFFFFFFFFFFFFFFFFFFFFFFFFFFFFFFFFFFFFFFFFFFFFFFFFFFFFFFFFFFFFFFF
310
52006F006F007400200045006E00740072007900000000000000000000000000
310
0000000000000000000000000000000000000000000000000000000000000000
310
16000500FFFFFFFFFFFFFFFF020000000A00030000000000C000000000000046
310
00000000000000000000000010148759B044CD0103000000C000000000000000
310
01004F006C006500000000000000000000000000000000000000000000000000
310
0000000000000000000000000000000000000000000000000000000000000000
310
0A000200FFFFFFFFFFFFFFFFFFFFFFFF00000000000000000000000000000000
310
0000000000000000000000000000000000000000000000001400000000000000
310
010043006F006D0070004F0062006A0000000000000000000000000000000000
310
0000000000000000000000000000000000000000000000000000000000000000
310
120002010100000003000000FFFFFFFF00000000000000000000000000000000
310
0000000000000000000000000000000000000000010000004D00000000000000
310
01004F006C006500310030004E00610074006900760065000000000000000000
310
0000000000000000000000000000000000000000000000000000000000000000
310
1A000200FFFFFFFFFFFFFFFFFFFFFFFF00000000000000000000000000000000
310
0000000000000000000000000000000000000000040000002426000000000000
310
FEFFFFFF02000000FEFFFFFFFFFFFFFFFFFFFFFFFFFFFFFFFFFFFFFFFFFFFFFF
310
FFFFFFFFFFFFFFFFFFFFFFFFFFFFFFFFFFFFFFFFFFFFFFFFFFFFFFFFFFFFFFFF
310
FFFFFFFFFFFFFFFFFFFFFFFFFFFFFFFFFFFFFFFFFFFFFFFFFFFFFFFFFFFFFFFF
310
FFFFFFFFFFFFFFFFFFFFFFFFFFFFFFFFFFFFFFFFFFFFFFFFFFFFFFFFFFFFFFFF
310
FFFFFFFFFFFFFFFFFFFFFFFFFFFFFFFFFFFFFFFFFFFFFFFFFFFFFFFFFFFFFFFF
310
FFFFFFFFFFFFFFFFFFFFFFFFFFFFFFFFFFFFFFFFFFFFFFFFFFFFFFFFFFFFFFFF
310
FFFFFFFFFFFFFFFFFFFFFFFFFFFFFFFFFFFFFFFFFFFFFFFFFFFFFFFFFFFFFFFF
310
FFFFFFFFFFFFFFFFFFFFFFFFFFFFFFFFFFFFFFFFFFFFFFFFFFFFFFFFFFFFFFFF
310
FFFFFFFFFFFFFFFFFFFFFFFFFFFFFFFFFFFFFFFFFFFFFFFFFFFFFFFFFFFFFFFF
310
FFFFFFFFFFFFFFFFFFFFFFFFFFFFFFFFFFFFFFFFFFFFFFFFFFFFFFFFFFFFFFFF
310
FFFFFFFFFFFFFFFFFFFFFFFFFFFFFFFFFFFFFFFFFFFFFFFFFFFFFFFFFFFFFFFF
310
FFFFFFFFFFFFFFFFFFFFFFFFFFFFFFFFFFFFFFFFFFFFFFFFFFFFFFFFFFFFFFFF
310
FFFFFFFFFFFFFFFFFFFFFFFFFFFFFFFFFFFFFFFFFFFFFFFFFFFFFFFFFFFFFFFF
310
FFFFFFFFFFFFFFFFFFFFFFFFFFFFFFFFFFFFFFFFFFFFFFFFFFFFFFFFFFFFFFFF
310
FFFFFFFFFFFFFFFFFFFFFFFFFFFFFFFFFFFFFFFFFFFFFFFFFFFFFFFFFFFFFFFF
310
FFFFFFFFFFFFFFFFFFFFFFFFFFFFFFFFFFFFFFFFFFFFFFFFFFFFFFFFFFFFFFFF
310
0100000200000000000000000000000000000000000000000000000000000000
310
0000000000000000000000000000000000000000000000000000000000000000
310
0100FEFF030A0000FFFFFFFF0A00030000000000C00000000000004607000000
310
5042727573680007000000504272757368000700000050427275736800F439B2
310
7100000000000000000000000000000000000000000000000000000000000000
310
0000000000000000000000000000000000000000000000000000000000000000
310
0000000000000000000000000000000000000000000000000000000000000000
310
0000000000000000000000000000000000000000000000000000000000000000
310
0000000000000000000000000000000000000000000000000000000000000000
310
0000000000000000000000000000000000000000000000000000000000000000
310
0000000000000000000000000000000000000000000000000000000000000000
310
0000000000000000000000000000000000000000000000000000000000000000
310
0000000000000000000000000000000000000000000000000000000000000000
310
0000000000000000000000000000000000000000000000000000000000000000
310
0000000000000000000000000000000000000000000000000000000000000000
310
0000000000000000000000000000000000000000000000000000000000000000
310
20260000424D0E260000000000003E00000028000000B40200006E0000000100
310
01000000000000000000130B0000130B00000200000002000000000000FFFFFF
310
FFFFFFFFFFFFFFFFFFFFFFFFFFFFFFFFFFFFFFFFFFFFFFFFFFFFFFFFFFFFFFFF
310
FFFFFFFFFFFFFFFFFFFFFFFFFFFFFFFFFFFFFFFFFFFFFFFFFFFFFFFFFFFFFFFF
310
FFFFFFFFFFFFFFFFFFFFFFFFFFFFFFFFFFFFFFFFFFFFFFFFF000FFFFFFFFFFFF
310
FFFFFFFFFFFFFFFFFFFFFFFFFFFFFFFFFFFFFFFFFFFFFFFFFFFFFFFFFFFFFFFF
310
FFFFFFFFFFFFFFFFFFFFFFFFFFFFFFFFFFFFFFFFFFFFFFFFFFFFFFFFFFFFFFFF
310
FFFFFFFFFFFFFFFFFFFFFFFFFFFFFFFFF000FFFFFFFFFFFFFFFFFFFFFFFFFFFF
310
FFFFFFFFFFFFFFFFFFFFFFFFFFFFFFFFFFFFFFFFFFFFFFFFFFFFFFFFFFFFFFFF
310
FFFFFFFFFFFFFFFFFFFFFFFFFFFFFFFFFFFFFFFFFFFFFFFFFFFFFFFFFFFFFFFF
310
FFFFFFFFFFFFFFFFF000FFFFFFFFFFFFFFFFFFFFFFFFFFFFFFFFFFFFFFFFFFFF
310
FFFFFFFFFFFFFFFFFFFFFFFFFFFFFFFFFFFFFFFFFFFFFFFFFFFFFFFFFFFFFFFF
310
FFFFFFFFFFFFFFFFFFFFFFFFFFFFFFFFFFFFFFFFFFFFFFFFFFFFFFFFFFFFFFFF
310
F000FFFFFFFFFFFFFFFFFFFFFFFFFFFFFFFFFFFFFFFFFFFFFFFFFFFFFFFFFFFF
310
FFFFFFFFFFFFFFFFFFFFFFFFFFFFFFFFFFFFFFFFFFFFFFFFFFFFFFFFFFFFFFFF
310
FFFFFFFFFFFFFFFFFFFFFFFFFFFFFFFFFFFFFFFFFFFFFFFFF000FFFFFFFFFFFF
310
FFFFFFFFFFFFFFFFFFFFFFFFFFFFFFFFFFFFFFFFFFFFFFFFFFFFFFFFFFFFFFFF
310
FFFFFFFFFFFFFFFFFFFFFFFFFFFFFFFFFFFFFFFFFFFFFFFFFFFFFFFFFFFFFFFF
310
FFFFFFFFFFFFFFFFFFFFFFFFFFFFFFFFF000FFFFFFFFFFFFFFFFFFFFFFFFFFFF
310
FFFFFFFFFFFFFFFFFFFFFFFFFFFFFFFFFFFFFFFFFFFFFFFFFFFFFFFFFFFFFFFF
310
FFFFFFFFFFFFFFFFFFFFFFFFFFFFFFFFFFFFFFFFFFFFFFFFFFFFFFFFFFFFFFFF
310
FFFFFFFFFFFFFFFFF000FFFFFFFFFFFFFFFFFFFFFFFFFFFFFFFFFFFFFFFFFFFF
310
FFFFFFFFFFFFFFFFFFFFFFFFFFFFFFFFFFFFFFFFFFFFFFFFFFFFFFFFFFFFFFFF
310
FFFFFFFFFFFFFFFFFFFFFFFFFFFFFFFFFFFFFFFFFFFFFFFFFFFFFFFFFFFFFFFF
310
F000FFFFFFFFFFFFFFFFFFFFFFFFFFFFFFFFFFFFFFFFFFFFFFFFFFFFFFFFFFFF
310
FFFFFFFFFFFFFFFFFFFFFFFFFFFFFFFFFFFFFFFFFFFFFFFFFFFFFFFFFFFFFFFF
310
FFFFFFFFFFFFFFFFFFFFFFFFFFFFFFFFFFFFFFFFFFFFFFFFF000FFFFFFFFFFFF
310
FFFFFFFFFFFFFFFFFFFFFFFFFFFFFFFFFFFFFFFFFFFFFFFFFFFFFFFFFFFFFFFF
310
FFFFFFFFFFFFFFFFFFFFFFFFFFFFFFFFFFFFFFFFFFFFFFFFFFFFFFFFFFFFFFFF
310
FFFFFFFFFFFFFFFFFFFFFFFFFFFFFFFFF000FFFFFFFFFFFFFFFFFFFFFFFFFFFF
310
FFFFFFFFFFFFFFFFFFFFFFFFFFFFFFFFFFFFFFFFFFFFFFFFFFFFFFFFFFFFFFFF
310
FFFFFFFFFFFFFFFFFFFFFFFFFFFFFFFFFFFFFFFFFFFFFFFFFFFFFFFFFFFFFFFF
310
FFFFFFFFFFFFFFFFF000FFFFFFFFFFFFFFFFFFFFFFFFFFFFFFFFFFFFFFFFFFFF
310
FFFFFFFFFFFFFFFFFFFFFFFFFFFFFFFFFFFFFFFFFFFFFFFFFFFFFFFFFFFFFFFF
310
FFFFFFFFFFFFFFFFFFFFFFFFFFFFFFFFFFFFFFFFFFFFFFFFFFFFFFFFFFFFFFFF
310
F000FFFFFFFFFFFFFFFFFFFFFFFFFFFFFFFFFFFFFFFFFFFFFFFFFFFFFFFFFFFF
310
FFFFFFFFFFFFFFFFFFFFFFFFFFFFFFFFFFFFFFFFFFFFFFFFFFFFFFFFFFFFFFFF
310
FFFFFFFFFFFFFFFFFFFFFFFFFFFFFFFFFFFFFFFFFFFFFFFFF000FFFFFFFFFFFF
310
FFFFFFFFFFFFFFFFFFFFFFFFFFFFFFFFFFFFFFFFFFFFFFFFFFFFFFFFFFFFFFFF
310
FFFFFFFFFFFFFFFFFFFFFFFFFFFFFFFFFFFFFFFFFFFFFFFFFFFFFFFFFFFFFFFF
310
FFFFFFFFFFFFFFFFFFFFFFFFFFFFFFFFF000FFFFFFFFFFFFFFFFFFFFFFFFFFFF
310
FFFFFFFFFFFFFFFFFFFFFFFFFFFFFFFFFFFFFFFFFFFFFFFFFFFFFFFFFFFFFFFF
310
FFFFFFFFFFFFFFFFFFFFFFFFFFFFFFFFFFFFFFFFFFFFFFFFFFFFFFFFFFFFFFFF
310
FFFFFFFFFFFFFFFFF000FFFFFFFFFFFFFFFFFFFFFFFFFFFFFFFFFFFFFFFFFFFF
310
FFFFFFFFFFFFFFFFFFFFFFFFFFFFFFFFFFFFFFFFFFFFFFFFFFFFFFFFFFFFFFFF
310
FFFFFFFFFFFFFFFFFFFFFFFFFFFFFFFFFFFFFFFFFFFFFFFFFFFFFFFFFFFFFFFF
310
F000FFFFFFFFFFFFFFFFFFFFFFFFFFFFFFFFFFFFFFFFFFFFFFFFFFFFFFFFFFFF
310
FFFFFFFFFFFFFFFFFFFFFFFFFFFFFFFFFFFFFFFFFFFFFFFFFFFFFFFFFFFFFFFF
310
FFFFFFFFFFFFFFFFFFFFFFFFFFFFFFFFFFFFFFFFFFFFFFFFF000FFFFFFFFFFFF
310
FFFFFFFFFFFFFFFFFFFFFFFFFFFFFFFFFFFFFFFFFFFFFFFFFFFFFFFFFFFFFFFF
310
FFFFFFFFFFFFFFFFFFFFFFFFFFFFFFFFFFFFFFFFFFFFFFFFFFFFFFFFFFFFFFFF
310
FFFFFFFFFFFFFFFFFFFFFFFFFFFFFFFFF000FFFFFFFFFFFFFFFFFFFFFFFFFFFF
310
FFFFFFFFFFFFFFFFFFFFFFFFFFFFFFFFFFFFFFFFFFFFFFFFFFFFFFFFFFFFFFFF
310
FFFFFFFFFFFFFFFFFFFFFFFFFFFFFFFFFFFFFFFFFFFFFFFFFFFFFFFFFFFFFFFF
310
FFFFFFFFFFFFFFFFF000FFFFF80003FFFFFFFFFFFFFFFFFFFFFFFFFFFFFFFFFF
310
FFFFF00007FFFFFFFFFF00007FFFFFF800000000000000007FFFFFFFFFFFFFFF
310
FFFFFFFC001FFFFFFFFFFFFFFC001FFFFFFFFFFFFFFFFFFFFFFFFFFE0007FFFF
310
F000FFFF8000007FFFFFFFF8000FFFFFC0007FFFFF80007FFFFF0000007FFFFF
310
FFF8000007FFFFF800000000000000007FFFFFF0001FFFFFFFFFFFC00001FFFF
310
FFFFFFFFC00001FFFFFFFF000000000003FFFFE000007FFFF000FFFE0000000F
310
FFFFFFF0000FFFFF80007FFFFF80007FFFFC0000001FFFFFFFC0000001FFFFF8
310
00000000000000007FFFFFF0001FFFFFFFFFFE0000003FFFFFFFFFFE0000003F
310
FFFFFF000000000003FFFF0000000FFFF000FFF800000003FFFFFFF00007FFFF
310
80007FFFFF80007FFFF000000007FFFFFF000000003FFFF80000000000000000
310
7FFFFFF0001FFFFFFFFFF80000000FFFFFFFFFF80000000FFFFFFF0000000000
310
03FFFC00000003FFF000FFE000000000FFFFFFF00007FFFF80003FFFFF80007F
310
FFC000000001FFFFFC000000001FFFF800000000000000007FFFFFF0001FFFFF
310
FFFFE000000003FFFFFFFFE000000003FFFFFF000000000003FFF000000000FF
310
F000FF80000000007FFFFFF00007FFFF80003FFFFF80007FFF8000000000FFFF
310
F80000000007FFF800000000000000007FFFFFF0001FFFFFFFFFC000000001FF
310
FFFFFFC000000001FFFFFF000000000003FFC0000000007FF000FF0000000000
310
3FFFFFE00007FFFF00003FFFFF80007FFE00000000003FFFF00000000003FFF8
310
00000000000000007FFFFFF0001FFFFFFFFF8000000000FFFFFFFF8000000000
310
FFFFFF000000000003FF80000000003FF000FE00000000001FFFFFE00003FFFF
310
00003FFFFF80007FFC00000000001FFFE00000000001FFF8000001FFFE000000
310
7FFFFFF0001FFFFFFFFE00000000003FFFFFFE00000000003FFFFF0000000000
310
03FF00000000001FF000FC00000000000FFFFFE00003FFFF00001FFFFF80007F
310
F800000000001FFFC00000000000FFF8000001FFFE0000007FFFFFF0001FFFFF
310
FFFC00000000001FFFFFFC00000000001FFFFF000000000003FE00000000000F
310
F000F8000000000007FFFFE00003FFFF00001FFFFF80007FF800000000000FFF
310
800000000000FFF8000001FFFE0000007FFFFFF0001FFFFFFFF800000000000F
310
FFFFF800000000000FFFFF000000000003FC000000000007F000F80000000000
310
03FFFFC00003FFFE00001FFFFF80007FF0000000000007FF0000000000007FF8
310
000001FFFE0000007FFFFFF0001FFFFFFFF0000000000007FFFFF00000000000
310
07FFFF000000000003F8000000000003F000F0000000000003FFFFC00001FFFE
310
00001FFFFF80007FE0000000000007FE0000000000003FF8000001FFFE000000
310
7FFFFFF0001FFFFFFFF0000000000007FFFFF0000000000007FFFF0000000000
310
03F800001F800003F000E00001FFF00001FFFFC00001FFFE00000FFFFF80007F
310
E00001FFE00003FE00001FFF00003FF8000001FFFE0000007FFFFFF0001FFFFF
310
FFE000003E000003FFFFE000003E000003FFFF000000000003F00001FFF80001
310
F000E00007FFFC0001FFFFC00001FFFE00000FFFFF80007FC0000FFFFC0003FC
310
0000FFFFC0001FF8000001FFFE0000007FFFFFF0001FFFFFFFC00003FFE00001
310
FFFFC00003FFE00001FFFF0001FFFFFFFFF00007FFFE0001F000E0000FFFFF00
310
00FFFF800001FFFC00000FFFFF80007FC0001FFFFE0001FC0001FFFFE0001FF8
310
000001FFFE0000007FFFFFF0001FFFFFFF80000FFFF80000FFFF80000FFFF800
310
00FFFF0003FFFFFFFFE0000FFFFF8000F000C0003FFFFF8000FFFF800000FFFC
310
000007FFFF80007F80003FFFFF0001FC0003FFFFF0001FF8000001FFFE000000
310
7FFFFFF0001FFFFFFF80003FFFFE0000FFFF80003FFFFE0000FFFF0003FFFFFF
310
FFE0003FFFFF8000F000C0003FFFFF8000FFFF800000FFFC000007FFFF80007F
310
80007FFFFF8001F80007FFFFF8000FF8000001FFFE0000007FFFFFF0001FFFFF
310
FF00007FFFFF00007FFF00007FFFFF00007FFF0003FFFFFFFFE0003FFFFFC000
310
F000C0007FFFFFC000FFFF000000FFFC000007FFFF80007F8000FFFFFF8000F8
310
000FFFFFF8000FF8000001FFFE0000007FFFFFF0001FFFFFFF0000FFFFFF8000
310
7FFF0000FFFFFF80007FFF0003FFFFFFFFC0007FFFFFC00070008000FFFFFFC0
310
00FFFF000000FFF8000007FFFF80007F8000FFFFFF8000F8000FFFFFF8000FF8
310
000001FFFE0000007FFFFFF0001FFFFFFE0001FFFFFFC0003FFE0001FFFFFFC0
310
003FFF0003FFFFFFFFC0007FFFFFE00070008000FFFFFFC0007FFF0000007FF8
310
000003FFFF80007F0001FFFFFF8000F8000FFFFFF8000FF8000001FFFE000000
310
7FFFFFF0001FFFFFFE0001FFFFFFC0003FFE0001FFFFFFC0003FFF0003FFFFFF
310
FFC000FFFFFFE00070008000FFFFFFC0007FFF0000007FF8000003FFFF80007F
310
0001FFFFFF8000F8001FFFFFF8000FF8000001FFFE0000007FFFFFF0001FFFFF
310
FE0003FFFFFFE0003FFE0003FFFFFFE0003FFF0003FFFFFFFFC000FFFFFFE000
310
70008000FFFFFFC0007FFE0000007FF8000003FFFF80007F0001FFFFFF8000F0
310
001FFFFFF8000FF8000001FFFE0000007FFFFFF0001FFFFFFC0003FFFFFFE000
310
1FFC0003FFFFFFE0001FFF0003FFFFFFFFC000FFFFFFC00070008000FFFFFF80
310
007FFE0000007FF0000003FFFF80007F0001FFFFFF0000F0001FFFFFF8000FF8
310
000001FFFE0000007FFFFFF0001FFFFFFC0007FFFFFFF0001FFC0007FFFFFFF0
310
001FFF0003FFFFFFFFC000FFFFFFC00070008001FFFFFF0000FFFE0000003FF0
310
000001FFFF80007F0001FFFFFF0000F8001FFFFFF0000FF8000001FFFE000000
310
7FFFFFF0001FFFFFFC0007FFFFFFF0001FFC0007FFFFFFF0001FFF0003FFFFFF
310
FFC001FFFFFF80007000FFFFFFFFFE0000FFFE0008003FF0008001FFFF80007F
310
FFFFFFFFFC0000FFFFFFFFFFE0000FF8000001FFFE0000007FFFFFF0001FFFFF
310
F8000FFFFFFFF8000FF8000FFFFFFFF8000FFF0003FFFFFFFFFFFFFFFFFF0000
310
7000FFFFFFFFFC0000FFFC0008003FF0008001FFFF80007FFFFFFFFFF80001FF
310
FFFFFFFF80000FF8000001FFFE0000007FFFFFF0001FFFFFF8000FFFFFFFF800
310
0FF8000FFFFFFFF8000FFF0003FFFFFFFFFFFFFFFFFE0000F000FFFFFFFFE000
310
00FFFC000C003FE000C001FFFF80007FFFFFFFFFC00001FFFFFFFFFE00001FF8
310
000001FFFE0000007FFFFFF0001FFFFFF8000FFFFFFFF8000FF8000FFFFFFFF8
310
000FFF0003FFFFFFFFFFFFFFFFF00000F000FFFFFFFE000001FFFC000C001FE0
310
00C000FFFF80007FFFFFFFFE000001FFFFFFFFE000001FF80FFFFFFFFFFFFFC0
310
7FFFFFF0001FFFFFF8000FFFFFFFF8000FF8000FFFFFFFF8000FFF0003FFFFFF
310
FFFFFFFFFF800000F000FFFFFFC0000001FFFC001C001FE001C000FFFF80007F
310
FFFFFF80000003FFFFFFF80000001FF80FFFFFFFFFFFFFC07FFFFFF0001FFFFF
310
F8001FFFFFFFFC000FF8001FFFFFFFFC000FFF0003FFFFFFFFFFFFFFF0000001
310
F000FFFFF800000001FFF8001C001FE001C000FFFF80007FFFFFF800000003FF
310
FFFF800000003FF80FFFFFFFFFFFFFC07FFFFFF0001FFFFFF8001FFFFFFFFC00
310
0FF8001FFFFFFFFC000FFF0003FFFFFFFFFFFFFE00000001F000FFFFC0000000
310
03FFF8001E001FC001E000FFFF80007FFFFF8000000007FFFFFC000000003FF8
310
0FFFFFFFFFFFFFC07FFFFFF0001FFFFFF8001FFFFFFFFC000FF8001FFFFFFFFC
310
000FFF0003FFFFFFFFFFFFE000000003F000FFFE0000000007FFF8001E000FC0
310
01E0007FFF80007FFFFE0000000007FFFFE0000000007FF80FFFFFFFFFFFFFC0
310
7FFFFFF0001FFFFFF0001FFFFFFFFC0007F0001FFFFFFFFC0007FF0003FFFFFF
310
FFFFFF0000000003F000FFF80000000007FFF8001E000FC003E0007FFF80007F
310
FFF0000000000FFFFF8000000000FFF80FFFFFFFFFFFFFC07FFFFFF0001FFFFF
310
F0001FFFFFFFFC0007F0001FFFFFFFFC0007FF0003FFFFFFFFFFFC0000000007
310
F000FFE0000000000FFFF0003E000FC003E0007FFF80007FFFC0000000001FFF
310
FE0000000001FFF80FFFFFFFFFFFFFC07FFFFFF0001FFFFFF0001FFFFFFFFC00
310
07F0001FFFFFFFFC0007FF0003FFFFFFFFFFF0000000000FF000FFC000000000
310
1FFFF0003F000F8003F0003FFF80007FFF80000000003FFFF80000000003FFF8
310
0FFFFFFFFFFFFFC07FFFFFF0001FFFFFF0001FFFFFFFFC0007F0001FFFFFFFFC
310
0007FF0003FFFFFFFFFFE0000000001FF000FF00000000007FFFF0003F000780
310
03F0003FFF80007FFF00000000007FFFF00000000007FFF80FFFFFFFFFFFFFC0
310
7FFFFFF0001FFFFFF0001FFFFFFFFC0007F0001FFFFFFFFC0007FF0003FFFFFF
310
FFFF80000000007FF000FE0000000000FFFFE0003F00078007F0003FFF80007F
310
FE0000000001FFFFE0000000001FFFF80FFFFFFFFFFFFFC07FFFFFF0001FFFFF
310
F0001FFFFFFFFC0007F0001FFFFFFFFC0007FF0003FFFFFFFFFF0000000000FF
310
F000FC0000000003FFFFE0007F00078007F0003FFF80007FFC0000000007FFFF
310
C0000000007FFFF80FFFFFFFFFFFFFC07FFFFFF0001FFFFFF8001FFFFFFFFC00
310
0FF8001FFFFFFFFC000FFF0003FFFFFFFFFE0000000003FFF000FC000000000F
310
FFFFE0007F80070007F8001FFF80007FF8000000001FFFFF8000000001FFFFF8
310
0FFFFFFFFFFFFFC07FFFFFF0001FFFFFF8001FFFFFFFFC000FF8001FFFFFFFFC
310
000FFF0003FFFFFFFFFC000000000FFFF000F8000000007FFFFFE0007F800700
310
07F8001FFF80007FF000000000FFFFFF800000000FFFFFF80FFFFFFFFFFFFFC0
310
7FFFFFF0001FFFFFF8000FFFFFFFF8000FF8000FFFFFFFF8000FFF0003FFFFFF
310
FFFC000000007FFFF000F800000007FFFFFFC0007F8003000FF8001FFF80007F
310
F000000007FFFFFF000000007FFFFFF80FFFFFFFFFFFFFC07FFFFFF0001FFFFF
310
F8000FFFFFFFF8000FF8000FFFFFFFF8000FFF0003FFFFFFFFF80000000FFFFF
310
F000F0000000FFFFFFFFC000FF8003000FF8001FFF80007FE0000000FFFFFFFF
310
0000000FFFFFFFF8000001FFFE0000007FFFFFF0001FFFFFF8000FFFFFFFF800
310
0FF8000FFFFFFFF8000FFF0003FFFFFFFFF8000000FFFFFFF000F000000FFFFF
310
FFFFC000FFC002000FF8000FFF80007FE000001FFFFFFFFE000001FFFFFFFFF8
310
000001FFFE0000007FFFFFF0001FFFFFF8000FFFFFFFF8000FF8000FFFFFFFF8
310
000FFF0003FFFFFFFFF000001FFFFFFFF000E00000FFFFFFFFFFC000FFC00200
310
0FFC000FFF80007FE00001FFFFFFFFFE00001FFFFFFFFFF8000001FFFE000000
310
7FFFFFF0001FFFFFFC000FFFFFFFF8001FFC000FFFFFFFF8001FFF0003FFFFFF
310
FFF00001FFFFFFFFF000E00007FFFFFFFFFF8000FFC000001FFC000FFF80007F
310
C0000FFFFFFFFFFE0000FFFFFFFFFFF8000001FFFE0000007FFFFFF0001FFFFF
310
FC0007FFFFFFF0001FFC0007FFFFFFF0001FFF0003FFFFFFFFF00007FFFFFFFF
310
F000E0001FFFFFFFFFFF8000FFC000001FFC000FFF80007FC0003FFFFFFFFFFE
310
0001FFFFFFFFFFF8000001FFFE0000007FFFFFF0001FFFFFFC0007FFFFFFF000
310
1FFC0007FFFFFFF0001FFF0003FFFFFFFFF0001FFFFFFFFFF000E0003FFFFF00
310
03FF8001FFE000001FFC0007FF80007FC0007FFFFF0007FC0003FFFFF0003FF8
310
000001FFFE0000007FFFFFF0001FFFFFFC0003FFFFFFE0001FFC0003FFFFFFE0
310
001FFF0003FFFFFFFFF0003FFFFFFFFFF000E0003FFFFF0001FF8001FFE00000
310
1FFE0007FF80007FC0007FFFFE0003FC0007FFFFE0003FF8000001FFFE000000
310
7FFFFFF0001FFFFFFE0003FFFFFFE0003FFE0003FFFFFFE0003FFF0003FFFFFF
310
FFF0003FFFFF8001F000E0003FFFFF0001FF0001FFE000001FFE0007FF80007F
310
C0007FFFFE0003FC0007FFFFE0003FF8000001FFFE0000007FFFFFF0001FFFFF
310
FE0001FFFFFFC0003FFE0001FFFFFFC0003FFF0003FFFFFFFFF0003FFFFF0001
310
F000E0003FFFFF0003FF0001FFE000003FFE0007FF80007FC0007FFFFE0003FC
310
0007FFFFE0003FF8000001FFFE0000007FFFFFF0001FFFFFFF0001FFFFFFC000
310
7FFF0001FFFFFFC0007FFF0003FFFFFFFFF0003FFFFF0001F000E0003FFFFE00
310
03FF0003FFF000003FFE0003FF80007FC0007FFFFC0003FE0007FFFFE0003FF8
310
000001FFFE0000007FFFFFF0001FFFFFFF0000FFFFFF80007FFF0000FFFFFF80
310
007FFF0003FFFFFFFFF0003FFFFF0001F000E0003FFFFE0003FF0003FFF00000
310
3FFF0003FF80007FC0007FFFFC0007FE0007FFFFC0003FF8000001FFFE000000
310
7FFFFFF0001FFFFFFF80007FFFFF0000FFFF80007FFFFF0000FFFF0003FFFFFF
310
FFF0003FFFFF0003F000E0003FFFFC0003FE0003FFF000003FFF0003FF80007F
310
E0003FFFF80007FE0003FFFFC0007FF8000001FFFE0000007FFFFFF0001FFFFF
310
FF80003FFFFE0000FFFF80003FFFFE0000FFFF0003FFFFFFFFF0001FFFFE0003
310
F000F0001FFFF80003FE0003FFF000007FFF0001FF80007FE0003FFFF00007FE
310
0001FFFF80007FF8000001FFFE0000007FFFFFF0001FFFFFFFC0000FFFF80001
310
FFFFC0000FFFF80001FFFF0003FFFFFFFFF0001FFFFC0003F000F0000FFFF000
310
07FE0007FFF800007FFF0001FF80007FE0001FFFE00007FF0000FFFE00007FF8
310
000001FFFE0000007FFFFFF0001FFFFFFFC00003FFE00001FFFFC00003FFE000
310
01FFFF0003FFFFFFFFF8000FFFF80003F000F00003FFC00007FC0007FFF80000
310
7FFF8001FF80007FF00007FF80000FFF00007FF80000FFF8000001FFFE000000
310
7F80000000000001FFE000003E000003FFFFE000003E000003FFFF0003FFFFFF
310
FFF80003FFE00007F000F800000000000FFC0007FFF800007FFF8001FF80007F
310
F000000000000FFF000000000000FFF8000001FFFE0000007F80000000000001
310
FFF0000000000007FFFFF0000000000007FFFF0003FFFFFFFFFC00007E000007
310
F000F800000000000FFC0007FFF80000FFFF8000FF80007FF800000000001FFF
310
800000000001FFF8000001FFFE0000007F80000000000001FFF800000000000F
310
FFFFF800000000000FFFFF0003FFFFFFFFFC00000000000FF000FC0000000000
310
1FFC0007FFFC0000FFFF8000FF80007FF800000000003FFFC00000000001FFF8
310
000001FFFE0000007F80000000000001FFF800000000000FFFFFF80000000000
310
0FFFFF0003FFFFFFFFFE00000000001FF000FE00000000003FF8000FFFFC0000
310
FFFF8000FF80007FFC00000000003FFFC00000000003FFF8000001FFFE000000
310
7F80000000000001FFFC00000000001FFFFFFC00000000001FFFFF0003FFFFFF
310
FFFF00000000001FF000FF00000000003FF8000FFFFC0000FFFFC000FF80007F
310
FE00000000007FFFE00000000007FFF8000001FFFE0000007F80000000000001
310
FFFE00000000003FFFFFFE00000000003FFFFF0003FFFFFFFFFF80000000003F
310
F000FF80000000007FF8000FFFFC0001FFFFC0007F80007FFF0000000000FFFF
310
F0000000000FFFF800000000000000007F80000000000001FFFF8000000000FF
310
FFFFFF8000000000FFFFFF0003FFFFFFFFFFC0000000007FF000FFC000000000
310
FFF8000FFFFE0001FFFFC0007F80007FFF8000000001FFFFF8000000001FFFF8
310
00000000000000007F80000000000001FFFFC000000001FFFFFFFFC000000001
310
FFFFFF0003FFFFFFFFFFE000000000FFF000FFE000000003FFF0001FFFFE0001
310
FFFFC0007F80007FFFC000000007FFFFFE000000003FFFF80000000000000000
310
7F80000000000001FFFFE000000003FFFFFFFFE000000003FFFFFF0003FFFFFF
310
FFFFF000000003FFF000FFF80000000FFFF0001FFFFE0001FFFFE0007F80007F
310
FFF00000000FFFFFFF00000000FFFFF800000000000000007F80000000000001
310
FFFFF80000000FFFFFFFFFF80000000FFFFFFF0003FFFFFFFFFFFC0000000FFF
310
F000FFFE0000003FFFF0001FFFFE0003FFFFE0003F80007FFFFC0000003FFFFF
310
FFC0000003FFFFF800000000000000007F80000000000001FFFFFE0000003FFF
310
FFFFFFFE0000003FFFFFFF0003FFFFFFFFFFFF0000003FFFF000FFFF800000FF
310
FFF0001FFFFF0003FFFFE0003F80007FFFFF000001FFFFFFFFF800001FFFFFF8
310
00000000000000007F80000000000001FFFFFFC00001FFFFFFFFFFFFC00001FF
310
FFFFFF0003FFFFFFFFFFFFC00000FFFFF000FFFFF8000FFFFFFFFFFFFFFFFFFF
310
FFFFFFFFFFFFFFFFFFFFF0001FFFFFFFFFFF0000FFFFFFF80000000000000000
310
7FFFFFFFFFFFFFFFFFFFFFFC001FFFFFFFFFFFFFFC001FFFFFFFFFFFFFFFFFFF
310
FFFFFFFC001FFFFFF000FFFFFFFFFFFFFFFFFFFFFFFFFFFFFFFFFFFFFFFFFFFF
310
FFFFFFFFFFFFFFFFFFFFFFFFFFFFFFFFFFFFFFFFFFFFFFFFFFFFFFFFFFFFFFFF
310
FFFFFFFFFFFFFFFFFFFFFFFFFFFFFFFFFFFFFFFFFFFFFFFFFFFFFFFFFFFFFFFF
310
F000FFFFFFFFFFFFFFFFFFFFFFFFFFFFFFFFFFFFFFFFFFFFFFFFFFFFFFFFFFFF
310
FFFFFFFFFFFFFFFFFFFFFFFFFFFFFFFFFFFFFFFFFFFFFFFFFFFFFFFFFFFFFFFF
310
FFFFFFFFFFFFFFFFFFFFFFFFFFFFFFFFFFFFFFFFFFFFFFFFF000FFFFFFFFFFFF
310
FFFFFFFFFFFFFFFFFFFFFFFFFFFFFFFFFFFFFFFFFFFFFFFFFFFFFFFFFFFFFFFF
310
FFFFFFFFFFFFFFFFFFFFFFFFFFFFFFFFFFFFFFFFFFFFFFFFFFFFFFFFFFFFFFFF
310
FFFFFFFFFFFFFFFFFFFFFFFFFFFFFFFFF000FFFFFFFFFFFFFFFFFFFFFFFFFFFF
310
FFFFFFFFFFFFFFFFFFFFFFFFFFFFFFFFFFFFFFFFFFFFFFFFFFFFFFFFFFFFFFFF
310
FFFFFFFFFFFFFFFFFFFFFFFFFFFFFFFFFFFFFFFFFFFFFFFFFFFFFFFFFFFFFFFF
310
FFFFFFFFFFFFFFFFF000FFFFFFFFFFFFFFFFFFFFFFFFFFFFFFFFFFFFFFFFFFFF
310
FFFFFFFFFFFFFFFFFFFFFFFFFFFFFFFFFFFFFFFFFFFFFFFFFFFFFFFFFFFFFFFF
310
FFFFFFFFFFFFFFFFFFFFFFFFFFFFFFFFFFFFFFFFFFFFFFFFFFFFFFFFFFFFFFFF
310
F000FFFFFFFFFFFFFFFFFFFFFFFFFFFFFFFFFFFFFFFFFFFFFFFFFFFFFFFFFFFF
310
FFFFFFFFFFFFFFFFFFFFFFFFFFFFFFFFFFFFFFFFFFFFFFFFFFFFFFFFFFFFFFFF
310
FFFFFFFFFFFFFFFFFFFFFFFFFFFFFFFFFFFFFFFFFFFFFFFFF000FFFFFFFFFFFF
310
FFFFFFFFFFFFFFFFFFFFFFFFFFFFFFFFFFFFFFFFFFFFFFFFFFFFFFFFFFFFFFFF
310
FFFFFFFFFFFFFFFFFFFFFFFFFFFFFFFFFFFFFFFFFFFFFFFFFFFFFFFFFFFFFFFF
310
FFFFFFFFFFFFFFFFFFFFFFFFFFFFFFFFF000FFFFFFFFFFFFFFFFFFFFFFFFFFFF
310
FFFFFFFFFFFFFFFFFFFFFFFFFFFFFFFFFFFFFFFFFFFFFFFFFFFFFFFFFFFFFFFF
310
FFFFFFFFFFFFFFFFFFFFFFFFFFFFFFFFFFFFFFFFFFFFFFFFFFFFFFFFFFFFFFFF
310
FFFFFFFFFFFFFFFFF000FFFFFFFFFFFFFFFFFFFFFFFFFFFFFFFFFFFFFFFFFFFF
310
FFFFFFFFFFFFFFFFFFFFFFFFFFFFFFFFFFFFFFFFFFFFFFFFFFFFFFFFFFFFFFFF
310
FFFFFFFFFFFFFFFFFFFFFFFFFFFFFFFFFFFFFFFFFFFFFFFFFFFFFFFFFFFFFFFF
310
F000FFFFFFFFFFFFFFFFFFFFFFFFFFFFFFFFFFFFFFFFFFFFFFFFFFFFFFFFFFFF
310
FFFFFFFFFFFFFFFFFFFFFFFFFFFFFFFFFFFFFFFFFFFFFFFFFFFFFFFFFFFFFFFF
310
FFFFFFFFFFFFFFFFFFFFFFFFFFFFFFFFFFFFFFFFFFFFFFFFF000FFFFFFFFFFFF
310
FFFFFFFFFFFFFFFFFFFFFFFFFFFFFFFFFFFFFFFFFFFFFFFFFFFFFFFFFFFFFFFF
310
FFFFFFFFFFFFFFFFFFFFFFFFFFFFFFFFFFFFFFFFFFFFFFFFFFFFFFFFFFFFFFFF
310
FFFFFFFFFFFFFFFFFFFFFFFFFFFFFFFFF000FFFFFFFFFFFFFFFFFFFFFFFFFFFF
310
FFFFFFFFFFFFFFFFFFFFFFFFFFFFFFFFFFFFFFFFFFFFFFFFFFFFFFFFFFFFFFFF
310
FFFFFFFFFFFFFFFFFFFFFFFFFFFFFFFFFFFFFFFFFFFFFFFFFFFFFFFFFFFFFFFF
310
FFFFFFFFFFFFFFFFF000FFFFFFFFFFFFFFFFFFFFFFFFFFFFFFFFFFFFFFFFFFFF
310
FFFFFFFFFFFFFFFFFFFFFFFFFFFFFFFFFFFFFFFFFFFFFFFFFFFFFFFFFFFFFFFF
310
FFFFFFFFFFFFFFFFFFFFFFFFFFFFFFFFFFFFFFFFFFFFFFFFFFFFFFFFFFFFFFFF
310
F000FFFFFFFFFFFFFFFFFFFFFFFFFFFFFFFFFFFFFFFFFFFFFFFFFFFFFFFFFFFF
310
FFFFFFFFFFFFFFFFFFFFFFFFFFFFFFFFFFFFFFFFFFFFFFFFFFFFFFFFFFFFFFFF
310
FFFFFFFFFFFFFFFFFFFFFFFFFFFFFFFFFFFFFFFFFFFFFFFFF000FFFFFFFFFFFF
310
FFFFFFFFFFFFFFFFFFFFFFFFFFFFFFFFFFFFFFFFFFFFFFFFFFFFFFFFFFFFFFFF
310
FFFFFFFFFFFFFFFFFFFFFFFFFFFFFFFFFFFFFFFFFFFFFFFFFFFFFFFFFFFFFFFF
310
FFFFFFFFFFFFFFFFFFFFFFFFFFFFFFFFF000FFFFFFFFFFFFFFFFFFFFFFFFFFFF
310
FFFFFFFFFFFFFFFFFFFFFFFFFFFFFFFFFFFFFFFFFFFFFFFFFFFFFFFFFFFFFFFF
310
FFFFFFFFFFFFFFFFFFFFFFFFFFFFFFFFFFFFFFFFFFFFFFFFFFFFFFFFFFFFFFFF
310
FFFFFFFFFFFFFFFFF000FFFFFFFFFFFFFFFFFFFFFFFFFFFFFFFFFFFFFFFFFFFF
310
FFFFFFFFFFFFFFFFFFFFFFFFFFFFFFFFFFFFFFFFFFFFFFFFFFFFFFFFFFFFFFFF
310
FFFFFFFFFFFFFFFFFFFFFFFFFFFFFFFFFFFFFFFFFFFFFFFFFFFFFFFFFFFFFFFF
310
F000FFFFFFFFFFFFFFFFFFFFFFFFFFFFFFFFFFFFFFFFFFFFFFFFFFFFFFFFFFFF
310
FFFFFFFFFFFFFFFFFFFFFFFFFFFFFFFFFFFFFFFFFFFFFFFFFFFFFFFFFFFFFFFF
310
FFFFFFFFFFFFFFFFFFFFFFFFFFFFFFFFFFFFFFFFFFFFFFFFF000FFFFFFFFFFFF
310
FFFFFFFFFFFFFFFFFFFFFFFFFFFFFFFFFFFFFFFFFFFFFFFFFFFFFFFFFFFFFFFF
310
FFFFFFFFFFFFFFFFFFFFFFFFFFFFFFFFFFFFFFFFFFFFFFFFFFFFFFFFFFFFFFFF
310
FFFFFFFFFFFFFFFFFFFFFFFFFFFFFFFFF000FFFFFFFFFFFFFFFFFFFFFFFFFFFF
310
FFFFFFFFFFFFFFFFFFFFFFFFFFFFFFFFFFFFFFFFFFFFFFFFFFFFFFFFFFFFFFFF
310
FFFFFFFFFFFFFFFFFFFFFFFFFFFFFFFFFFFFFFFFFFFFFFFFFFFFFFFFFFFFFFFF
310
FFFFFFFFFFFFFFFFF000FFFFFFFFFFFFFFFFFFFFFFFFFFFFFFFFFFFFFFFFFFFF
310
FFFFFFFFFFFFFFFFFFFFFFFFFFFFFFFFFFFFFFFFFFFFFFFFFFFFFFFFFFFFFFFF
310
FFFFFFFFFFFFFFFFFFFFFFFFFFFFFFFFFFFFFFFFFFFFFFFFFFFFFFFFFFFFFFFF
310
F000FFFFFFFFFFFFFFFFFFFFFFFFFFFFFFFFFFFFFFFFFFFFFFFFFFFFFFFFFFFF
310
FFFFFFFFFFFFFFFFFFFFFFFFFFFFFFFFFFFFFFFFFFFFFFFFFFFFFFFFFFFFFFFF
310
FFFFFFFFFFFFFFFFFFFFFFFFFFFFFFFFFFFFFFFFFFFFFFFFF000FFFFFFFFFFFF
310
FFFFFFFFFFFFFFFFFFFFFFFFFFFFFFFFFFFFFFFFFFFFFFFFFFFFFFFFFFFFFFFF
310
FFFFFFFFFFFFFFFFFFFFFFFFFFFFFFFFFFFFFFFFFFFFFFFFFFFFFFFFFFFFFFFF
310
FFFFFFFFFFFFFFFFFFFFFFFFFFFFFFFFF0000000000000000000000000000000
310
0000000000000000000000000000000000000000000000000000000000000000
310
0000000000000000000000000000000000000000000000000000000000000000
310
0000000000000000000000000000000000000000000000000000000000000000
310
0000000000000000000000000000000000000000000000000000000000000000
310
0000000000000000000000000000000000000000000000000000000000000000
310
0000000000000000000000000000000000000000000000000000000000000000
310
0000000000000000000000000000000000000000000000000000000000000000
310
0000000000000000000000000000000000000000000000000000000000000000
310
0000000000000000000000000000000000000000000000000000000000000000
310
0000000000000000000000000000000000000000000000000000000000000000
310
0000000000000000000000000000000000000000000000000000000000000000
310
0000000000000000000000000000000000000000000000000000000000000000
310
0000000000000000000000000000000000000000000000000000000000000000
310
0000000000000000000000000000000000000000000000000000000000000000
310
0000000000000000000000000000000000000000000000000000000000000000
  1
OLE
  0
ENDSEC
  0
SECTION
  2
OBJECTS
  0
DICTIONARY
  5
C
330
0
100
AcDbDictionary
281
     1
  3
ACAD_GROUP
350
D
  3
ACAD_LAYOUT
350
1A
  3
ACAD_MLINESTYLE
350
17
  3
ACAD_PLOTSETTINGS
350
19
  3
ACAD_PLOTSTYLENAME
350
E
  0
DICTIONARY
  5
D
102
{ACAD_REACTORS
330
C
102
}
330
C
100
AcDbDictionary
281
     1
  0
DICTIONARY
  5
1A
102
{ACAD_REACTORS
330
C
102
}
330
C
100
AcDbDictionary
281
     1
  3
Layout1
350
1E
  3
Layout2
350
26
  3
Model
350
22
  0
DICTIONARY
  5
17
102
{ACAD_REACTORS
330
C
102
}
330
C
100
AcDbDictionary
281
     1
  3
Standard
350
18
  0
DICTIONARY
  5
19
102
{ACAD_REACTORS
330
C
102
}
330
C
100
AcDbDictionary
281
     1
  0
ACDBDICTIONARYWDFLT
  5
E
102
{ACAD_REACTORS
330
C
102
}
330
C
100
AcDbDictionary
281
     1
  3
Normal
350
F
100
AcDbDictionaryWithDefault
340
F
  0
LAYOUT
  5
1E
102
{ACAD_REACTORS
330
1A
102
}
330
1A
100
AcDbPlotSettings
  1

  2
none_device
  4

  6

 40
0.0
 41
0.0
 42
0.0
 43
0.0
 44
0.0
 45
0.0
 46
0.0
 47
0.0
 48
0.0
 49
0.0
140
0.0
141
0.0
142
1.0
143
1.0
 70
   688
 72
     0
 73
     0
 74
     5
  7

 75
    16
147
1.0
148
0.0
149
0.0
100
AcDbLayout
  1
Layout1
 70
     1
 71
     1
 10
0.0
 20
0.0
 11
420.0
 21
297.0
 12
0.0
 22
0.0
 32
0.0
 14
1.0000000000E+20
 24
1.0000000000E+20
 34
1.0000000000E+20
 15
-1.0000000000E+20
 25
-1.0000000000E+20
 35
-1.0000000000E+20
146
0.0
 13
0.0
 23
0.0
 33
0.0
 16
1.0
 26
0.0
 36
0.0
 17
0.0
 27
1.0
 37
0.0
 76
     0
330
1B
  0
LAYOUT
  5
26
102
{ACAD_REACTORS
330
1A
102
}
330
1A
100
AcDbPlotSettings
  1

  2
none_device
  4

  6

 40
0.0
 41
0.0
 42
0.0
 43
0.0
 44
0.0
 45
0.0
 46
0.0
 47
0.0
 48
0.0
 49
0.0
140
0.0
141
0.0
142
1.0
143
1.0
 70
   688
 72
     0
 73
     0
 74
     5
  7

 75
    16
147
1.0
148
0.0
149
0.0
100
AcDbLayout
  1
Layout2
 70
     1
 71
     2
 10
0.0
 20
0.0
 11
0.0
 21
0.0
 12
0.0
 22
0.0
 32
0.0
 14
0.0
 24
0.0
 34
0.0
 15
0.0
 25
0.0
 35
0.0
146
0.0
 13
0.0
 23
0.0
 33
0.0
 16
1.0
 26
0.0
 36
0.0
 17
0.0
 27
1.0
 37
0.0
 76
     0
330
23
  0
LAYOUT
  5
22
102
{ACAD_REACTORS
330
1A
102
}
330
1A
100
AcDbPlotSettings
  1

  2
none_device
  4

  6

 40
0.0
 41
0.0
 42
0.0
 43
0.0
 44
0.0
 45
0.0
 46
0.0
 47
0.0
 48
0.0
 49
0.0
140
0.0
141
0.0
142
1.0
143
1.0
 70
  1712
 72
     0
 73
     0
 74
     0
  7

 75
     0
147
1.0
148
0.0
149
0.0
100
AcDbLayout
  1
Model
 70
     1
 71
     0
 10
0.0
 20
0.0
 11
297.0
 21
210.0
 12
0.0
 22
0.0
 32
0.0
 14
0.0
 24
0.0
 34
0.0
 15
297.0
 25
210.0
 35
0.0
146
0.0
 13
0.0
 23
0.0
 33
0.0
 16
1.0
 26
0.0
 36
0.0
 17
0.0
 27
1.0
 37
0.0
 76
     0
330
1F
331
29
  0
MLINESTYLE
  5
18
102
{ACAD_REACTORS
330
17
102
}
330
17
100
AcDbMlineStyle
  2
Standard
 70
     0
  3

 62
   256
 51
90.0
 52
90.0
 71
     2
 49
0.5
 62
   256
  6
BYLAYER
 49
-0.5
 62
   256
  6
BYLAYER
  0
ACDBPLACEHOLDER
  5
F
102
{ACAD_REACTORS
330
E
102
}
330
E
  0
ENDSEC
  0
EOF
