  0
SECTION
  2
HEADER
  9
$ACADVER
  1
AC1015
  9
$ACADMAINTVER
 70
     6
  9
$DWGCODEPAGE
  3
ANSI_1252
  9
$INSBASE
 10
0.0
 20
0.0
 30
0.0
  9
$EXTMIN
 10
0.0
 20
0.0
 30
0.0
  9
$EXTMAX
 10
297.0
 20
210.0
 30
0.0
  9
$LIMMIN
 10
0.0
 20
0.0
  9
$LIMMAX
 10
297.0
 20
210.0
  9
$ORTHOMODE
 70
     0
  9
$REGENMODE
 70
     1
  9
$FILLMODE
 70
     1
  9
$QTEXTMODE
 70
     0
  9
$MIRRTEXT
 70
     1
  9
$LTSCALE
 40
1.0
  9
$ATTMODE
 70
     1
  9
$TEXTSIZE
 40
2.0
  9
$TRACEWID
 40
1.0
  9
$TEXTSTYLE
  7
Standard
  9
$CLAYER
  8
0
  9
$CELTYPE
  6
ByLayer
  9
$CECOLOR
 62
   256
  9
$CELTSCALE
 40
1.0
  9
$DISPSILH
 70
     0
  9
$DIMSCALE
 40
1.0
  9
$DIMASZ
 40
3.0
  9
$DIMEXO
 40
0.0
  9
$DIMDLI
 40
3.75
  9
$DIMRND
 40
0.0
  9
$DIMDLE
 40
0.0
  9
$DIMEXE
 40
1.0
  9
$DIMTP
 40
0.0
  9
$DIMTM
 40
0.0
  9
$DIMTXT
 40
2.0
  9
$DIMCEN
 40
2.5
  9
$DIMTSZ
 40
0.0
  9
$DIMTOL
 70
     0
  9
$DIMLIM
 70
     0
  9
$DIMTIH
 70
     1
  9
$DIMTOH
 70
     1
  9
$DIMSE1
 70
     0
  9
$DIMSE2
 70
     0
  9
$DIMTAD
 70
     1
  9
$DIMZIN
 70
     0
  9
$DIMBLK
  1

  9
$DIMASO
 70
     1
  9
$DIMSHO
 70
     1
  9
$DIMPOST
  1

  9
$DIMAPOST
  1

  9
$DIMALT
 70
     0
  9
$DIMALTD
 70
     3
  9
$DIMALTF
 40
0.0393700787
  9
$DIMLFAC
 40
1.0
  9
$DIMTOFL
 70
     1
  9
$DIMTVP
 40
0.0
  9
$DIMTIX
 70
     0
  9
$DIMSOXD
 70
     0
  9
$DIMSAH
 70
     0
  9
$DIMBLK1
  1

  9
$DIMBLK2
  1

  9
$DIMSTYLE
  2
ISO-25
  9
$DIMCLRD
 70
     0
  9
$DIMCLRE
 70
     0
  9
$DIMCLRT
 70
     0
  9
$DIMTFAC
 40
1.0
  9
$DIMGAP
 40
1.524
  9
$DIMJUST
 70
     0
  9
$DIMSD1
 70
     0
  9
$DIMSD2
 70
     0
  9
$DIMTOLJ
 70
     0
  9
$DIMTZIN
 70
     0
  9
$DIMALTZ
 70
     0
  9
$DIMALTTZ
 70
     0
  9
$DIMUPT
 70
     0
  9
$DIMDEC
 70
     2
  9
$DIMTDEC
 70
     3
  9
$DIMALTU
 70
     2
  9
$DIMALTTD
 70
     3
  9
$DIMTXSTY
  7
Standard
  9
$DIMAUNIT
 70
     0
  9
$DIMADEC
 70
     2
  9
$DIMALTRND
 40
0.0
  9
$DIMAZIN
 70
     0
  9
$DIMDSEP
 70
    44
  9
$DIMATFIT
 70
     3
  9
$DIMFRAC
 70
     0
  9
$DIMLDRBLK
  1

  9
$DIMLUNIT
 70
     2
  9
$DIMLWD
 70
    -2
  9
$DIMLWE
 70
    -2
  9
$DIMTMOVE
 70
     0
  9
$LUNITS
 70
     2
  9
$LUPREC
 70
     2
  9
$SKETCHINC
 40
1.0
  9
$FILLETRAD
 40
10.0
  9
$AUNITS
 70
     0
  9
$AUPREC
 70
     2
  9
$MENU
  1
.
  9
$ELEVATION
 40
0.0
  9
$PELEVATION
 40
0.0
  9
$THICKNESS
 40
0.0
  9
$LIMCHECK
 70
     0
  9
$CHAMFERA
 40
10.0
  9
$CHAMFERB
 40
10.0
  9
$CHAMFERC
 40
20.0
  9
$CHAMFERD
 40
0.0
  9
$SKPOLY
 70
     0
  9
$TDCREATE
 40
2456086.41150456
  9
$TDUCREATE
 40
2456086.328171227
  9
$TDUPDATE
 40
2456086.411506366
  9
$TDUUPDATE
 40
2456086.328173032
  9
$TDINDWG
 40
0.0000000116
  9
$TDUSRTIMER
 40
0.0000000116
  9
$USRTIMER
 70
     1
  9
$ANGBASE
 50
0.0
  9
$ANGDIR
 70
     0
  9
$PDMODE
 70
     0
  9
$PDSIZE
 40
-1.0
  9
$PLINEWID
 40
0.0
  9
$SPLFRAME
 70
     0
  9
$SPLINETYPE
 70
     6
  9
$SPLINESEGS
 70
     8
  9
$HANDSEED
  5
235
  9
$SURFTAB1
 70
     6
  9
$SURFTAB2
 70
     6
  9
$SURFTYPE
 70
     6
  9
$SURFU
 70
     6
  9
$SURFV
 70
     6
  9
$UCSBASE
  2

  9
$UCSNAME
  2

  9
$UCSORG
 10
0.0
 20
0.0
 30
0.0
  9
$UCSXDIR
 10
1.0
 20
0.0
 30
0.0
  9
$UCSYDIR
 10
0.0
 20
1.0
 30
0.0
  9
$UCSORTHOREF
  2

  9
$UCSORTHOVIEW
 70
     0
  9
$UCSORGTOP
 10
0.0
 20
0.0
 30
0.0
  9
$UCSORGBOTTOM
 10
0.0
 20
0.0
 30
0.0
  9
$UCSORGLEFT
 10
0.0
 20
0.0
 30
0.0
  9
$UCSORGRIGHT
 10
0.0
 20
0.0
 30
0.0
  9
$UCSORGFRONT
 10
0.0
 20
0.0
 30
0.0
  9
$UCSORGBACK
 10
0.0
 20
0.0
 30
0.0
  9
$PUCSBASE
  2

  9
$PUCSNAME
  2

  9
$PUCSORG
 10
0.0
 20
0.0
 30
0.0
  9
$PUCSXDIR
 10
1.0
 20
0.0
 30
0.0
  9
$PUCSYDIR
 10
0.0
 20
1.0
 30
0.0
  9
$PUCSORTHOREF
  2

  9
$PUCSORTHOVIEW
 70
     0
  9
$PUCSORGTOP
 10
0.0
 20
0.0
 30
0.0
  9
$PUCSORGBOTTOM
 10
0.0
 20
0.0
 30
0.0
  9
$PUCSORGLEFT
 10
0.0
 20
0.0
 30
0.0
  9
$PUCSORGRIGHT
 10
0.0
 20
0.0
 30
0.0
  9
$PUCSORGFRONT
 10
0.0
 20
0.0
 30
0.0
  9
$PUCSORGBACK
 10
0.0
 20
0.0
 30
0.0
  9
$USERI1
 70
     0
  9
$USERI2
 70
     0
  9
$USERI3
 70
     0
  9
$USERI4
 70
     0
  9
$USERI5
 70
     0
  9
$USERR1
 40
0.0
  9
$USERR2
 40
0.0
  9
$USERR3
 40
0.0
  9
$USERR4
 40
0.0
  9
$USERR5
 40
0.0
  9
$WORLDVIEW
 70
     1
  9
$SHADEDGE
 70
     3
  9
$SHADEDIF
 70
    70
  9
$TILEMODE
 70
     1
  9
$MAXACTVP
 70
    64
  9
$PINSBASE
 10
0.0
 20
0.0
 30
0.0
  9
$PLIMCHECK
 70
     0
  9
$PEXTMIN
 10
1.0000000000E+20
 20
1.0000000000E+20
 30
1.0000000000E+20
  9
$PEXTMAX
 10
-1.0000000000E+20
 20
-1.0000000000E+20
 30
-1.0000000000E+20
  9
$PLIMMIN
 10
0.0
 20
0.0
  9
$PLIMMAX
 10
420.0
 20
297.0
  9
$UNITMODE
 70
     0
  9
$VISRETAIN
 70
     1
  9
$PLINEGEN
 70
     0
  9
$PSLTSCALE
 70
     1
  9
$TREEDEPTH
 70
  3020
  9
$CMLSTYLE
  2
Standard
  9
$CMLJUST
 70
     0
  9
$CMLSCALE
 40
20.0
  9
$PROXYGRAPHICS
 70
     1
  9
$MEASUREMENT
 70
     1
  9
$CELWEIGHT
370
    -1
  9
$ENDCAPS
280
     0
  9
$JOINSTYLE
280
     0
  9
$LWDISPLAY
290
     1
  9
$INSUNITS
 70
     4
  9
$HYPERLINKBASE
  1

  9
$STYLESHEET
  1

  9
$XEDIT
290
     1
  9
$CEPSNTYPE
380
     0
  9
$PSTYLEMODE
290
     1
  9
$FINGERPRINTGUID
  2
{45F16A15-4874-4814-8EC7-7DCDCD068856}
  9
$VERSIONGUID
  2
{FAEB1C32-E019-11D5-929B-00C0DF256EC4}
  9
$EXTNAMES
290
     1
  9
$PSVPSCALE
 40
0.0
  9
$OLESTARTUP
290
     0
  0
ENDSEC
  0
SECTION
  2
CLASSES
  0
CLASS
  1
ACDBDICTIONARYWDFLT
  2
AcDbDictionaryWithDefault
  3
ObjectDBX Classes
 90
        0
280
     0
281
     0
  0
CLASS
  1
VISUALSTYLE
  2
AcDbVisualStyle
  3
ObjectDBX Classes
 90
     4095
280
     0
281
     0
  0
CLASS
  1
MATERIAL
  2
AcDbMaterial
  3
ObjectDBX Classes
 90
     1153
280
     0
281
     0
  0
CLASS
  1
ACDBPLACEHOLDER
  2
AcDbPlaceHolder
  3
ObjectDBX Classes
 90
        0
280
     0
281
     0
  0
CLASS
  1
LAYOUT
  2
AcDbLayout
  3
ObjectDBX Classes
 90
        0
280
     0
281
     0
  0
ENDSEC
  0
SECTION
  2
TABLES
  0
TABLE
  2
VPORT
  5
8
330
0
100
AcDbSymbolTable
 70
     1
  0
VPORT
  5
29
330
8
100
AcDbSymbolTableRecord
100
AcDbViewportTableRecord
  2
*Active
 70
     0
 10
0.0
 20
0.0
 11
1.0
 21
1.0
 12
148.5
 22
105.0
 13
0.0
 23
0.0
 14
10.0
 24
10.0
 15
10.0
 25
10.0
 16
0.0
 26
0.0
 36
1.0
 17
0.0
 27
0.0
 37
0.0
 40
210.0
 41
1.4142857143
 42
50.0
 43
0.0
 44
0.0
 50
0.0
 51
0.0
 71
     0
 72
  2000
 73
     1
 74
     3
 75
     0
 76
     0
 77
     0
 78
     0
281
     0
 65
     1
110
0.0
120
0.0
130
0.0
111
1.0
121
0.0
131
0.0
112
0.0
122
1.0
132
0.0
 79
     0
146
0.0
  0
ENDTAB
  0
TABLE
  2
LTYPE
  5
5
330
0
100
AcDbSymbolTable
 70
     6
  0
LTYPE
  5
14
330
5
100
AcDbSymbolTableRecord
100
AcDbLinetypeTableRecord
  2
ByBlock
 70
     0
  3

 72
    65
 73
     0
 40
0.0
  0
LTYPE
  5
15
330
5
100
AcDbSymbolTableRecord
100
AcDbLinetypeTableRecord
  2
ByLayer
 70
     0
  3

 72
    65
 73
     0
 40
0.0
  0
LTYPE
  5
16
330
5
100
AcDbSymbolTableRecord
100
AcDbLinetypeTableRecord
  2
Continuous
 70
     0
  3
Solid line
 72
    65
 73
     0
 40
0.0
  0
LTYPE
  5
3F
330
5
100
AcDbSymbolTableRecord
100
AcDbLinetypeTableRecord
  2
HIDDEN
 70
     0
  3
Hidden __ __ __ __ __ __ __ __ __ __ __ __ __ __
 72
    65
 73
     2
 40
1.905
 49
1.27
 74
     0
 49
-0.635
 74
     0
  0
LTYPE
  5
40
330
5
100
AcDbSymbolTableRecord
100
AcDbLinetypeTableRecord
  2
PHANTOM
 70
     0
  3
Phantom ______  __  __  ______  __  __  ______
 72
    65
 73
     6
 40
12.7
 49
6.35
 74
     0
 49
-1.27
 74
     0
 49
1.27
 74
     0
 49
-1.27
 74
     0
 49
1.27
 74
     0
 49
-1.27
 74
     0
  0
LTYPE
  5
41
330
5
100
AcDbSymbolTableRecord
100
AcDbLinetypeTableRecord
  2
CENTER
 70
     0
  3
Center ____ _ ____ _ ____ _ ____ _ ____ _ ____
 72
    65
 73
     4
 40
10.16
 49
6.35
 74
     0
 49
-1.27
 74
     0
 49
1.27
 74
     0
 49
-1.27
 74
     0
  0
LTYPE
  5
42
330
5
100
AcDbSymbolTableRecord
100
AcDbLinetypeTableRecord
  2
CENTERX2
 70
     0
  3
Center (2x) ________  __  ________  __  _____
 72
    65
 73
     4
 40
20.32
 49
12.7
 74
     0
 49
-2.54
 74
     0
 49
2.54
 74
     0
 49
-2.54
 74
     0
  0
LTYPE
  5
43
330
5
100
AcDbSymbolTableRecord
100
AcDbLinetypeTableRecord
  2
DOT2
 70
     0
  3
Dot (.5x) ........................................
 72
    65
 73
     2
 40
0.635
 49
0.0
 74
     0
 49
-0.635
 74
     0
  0
ENDTAB
  0
TABLE
  2
LAYER
  5
2
330
0
100
AcDbSymbolTable
 70
     5
  0
LAYER
  5
10
330
2
100
AcDbSymbolTableRecord
100
AcDbLayerTableRecord
  2
0
 70
     0
 62
     7
  6
Continuous
370
    -3
390
F
  0
LAYER
  5
44
330
2
100
AcDbSymbolTableRecord
100
AcDbLayerTableRecord
  2
FORMAT
 70
     0
 62
     7
  6
Continuous
370
    -3
390
F
  0
LAYER
  5
45
330
2
100
AcDbSymbolTableRecord
100
AcDbLayerTableRecord
  2
VERMASSUNG
 70
     0
 62
     7
  6
Continuous
370
    -3
390
F
  0
LAYER
  5
46
330
2
100
AcDbSymbolTableRecord
100
AcDbLayerTableRecord
  2
KOPF_DÜNN
 70
     0
 62
     7
  6
Continuous
370
    -3
390
F
  0
LAYER
  5
47
330
2
100
AcDbSymbolTableRecord
100
AcDbLayerTableRecord
  2
KOPF_DICK
 70
     0
 62
     7
  6
Continuous
370
    15
390
F
  0
ENDTAB
  0
TABLE
  2
STYLE
  5
3
330
0
100
AcDbSymbolTable
 70
     2
  0
STYLE
  5
11
330
3
100
AcDbSymbolTableRecord
100
AcDbTextStyleTableRecord
  2
Standard
 70
     0
 40
0.0
 41
1.0
 50
0.0
 71
     0
 42
2.0
  3
txt
  4

  0
STYLE
  5
48
330
3
100
AcDbSymbolTableRecord
100
AcDbTextStyleTableRecord
  2
SLDTEXTSTYLE0
 70
     0
 40
0.0
 41
0.7
 50
0.0
 71
     0
 42
0.2
  3
TXT
  4

  0
ENDTAB
  0
TABLE
  2
VIEW
  5
6
330
0
100
AcDbSymbolTable
 70
     0
  0
ENDTAB
  0
TABLE
  2
UCS
  5
7
330
0
100
AcDbSymbolTable
 70
     0
  0
ENDTAB
  0
TABLE
  2
APPID
  5
9
330
0
100
AcDbSymbolTable
 70
     1
  0
APPID
  5
12
330
9
100
AcDbSymbolTableRecord
100
AcDbRegAppTableRecord
  2
ACAD
 70
     0
  0
ENDTAB
  0
TABLE
  2
DIMSTYLE
  5
A
330
0
100
AcDbSymbolTable
 70
     5
100
AcDbDimStyleTable
  0
DIMSTYLE
105
27
330
A
100
AcDbSymbolTableRecord
100
AcDbDimStyleTableRecord
  2
ISO-25
 70
     0
 41
2.5
 42
0.625
 43
3.75
 44
1.25
 73
     0
 74
     0
 77
     1
 78
     8
140
2.5
141
2.5
143
0.0393700787
147
0.625
171
     3
172
     1
178
     0
271
     2
272
     2
274
     3
278
    44
283
     0
284
     8
340
11
  0
DIMSTYLE
105
1B5
102
{ACAD_REACTORS
330
1B4
330
1BF
330
1C9
330
1DC
330
1E5
102
}
330
A
100
AcDbSymbolTableRecord
100
AcDbDimStyleTableRecord
  2
SLDDIMSTYLE0
 70
     0
 41
3.0
 44
0.0
 45
0.000000001
 73
     0
 74
     0
 77
     1
 78
    12
 79
     3
140
2.0
147
0.5
173
     1
178
     0
271
     2
272
     3
276
     2
284
    12
340
48
  0
DIMSTYLE
105
1D4
102
{ACAD_REACTORS
330
1D3
102
}
330
A
100
AcDbSymbolTableRecord
100
AcDbDimStyleTableRecord
  2
SLDDIMSTYLE1
 70
     0
 41
3.0
 44
0.0
 73
     0
 74
     0
 77
     1
 78
    12
 79
     3
140
2.0
147
0.5
173
     1
178
     0
179
     1
272
     3
276
     2
284
    12
340
48
  0
DIMSTYLE
105
20D
102
{ACAD_REACTORS
330
20C
102
}
330
A
100
AcDbSymbolTableRecord
100
AcDbDimStyleTableRecord
  2
SLDDIMSTYLE2
 70
     0
 41
3.0
 44
0.0
 45
0.000000001
 73
     0
 74
     0
 77
     1
 78
    12
 79
     3
140
2.0
147
0.5
172
     1
173
     1
178
     0
271
     2
272
     3
276
     2
284
    12
289
     0
340
48
  0
DIMSTYLE
105
21C
102
{ACAD_REACTORS
330
21B
102
}
330
A
100
AcDbSymbolTableRecord
100
AcDbDimStyleTableRecord
  2
SLDDIMSTYLE3
 70
     0
 41
3.0
 44
0.0
 73
     0
 74
     0
 77
     1
 78
    12
 79
     3
140
2.0
147
0.5
173
     1
178
     0
179
     2
272
     3
276
     2
284
    12
340
48
  0
ENDTAB
  0
TABLE
  2
BLOCK_RECORD
  5
1
330
0
100
AcDbSymbolTable
 70
    10
  0
BLOCK_RECORD
  5
1F
330
1
100
AcDbSymbolTableRecord
100
AcDbBlockTableRecord
  2
*Model_Space
340
22
  0
BLOCK_RECORD
  5
1B
330
1
100
AcDbSymbolTableRecord
100
AcDbBlockTableRecord
  2
*Paper_Space
340
1E
  0
BLOCK_RECORD
  5
23
330
1
100
AcDbSymbolTableRecord
100
AcDbBlockTableRecord
  2
*Paper_Space0
340
26
  0
BLOCK_RECORD
  5
1B6
330
1
100
AcDbSymbolTableRecord
100
AcDbBlockTableRecord
  2
_D
340
0
  0
BLOCK_RECORD
  5
1C0
330
1
100
AcDbSymbolTableRecord
100
AcDbBlockTableRecord
  2
_D_1
340
0
  0
BLOCK_RECORD
  5
1CA
330
1
100
AcDbSymbolTableRecord
100
AcDbBlockTableRecord
  2
_D_2
340
0
  0
BLOCK_RECORD
  5
1D5
330
1
100
AcDbSymbolTableRecord
100
AcDbBlockTableRecord
  2
_D_3
340
0
  0
BLOCK_RECORD
  5
1DD
330
1
100
AcDbSymbolTableRecord
100
AcDbBlockTableRecord
  2
_D_4
340
0
  0
BLOCK_RECORD
  5
1E6
330
1
100
AcDbSymbolTableRecord
100
AcDbBlockTableRecord
  2
_D_5
340
0
  0
BLOCK_RECORD
  5
20E
330
1
100
AcDbSymbolTableRecord
100
AcDbBlockTableRecord
  2
_D_6
340
0
  0
BLOCK_RECORD
  5
21D
330
1
100
AcDbSymbolTableRecord
100
AcDbBlockTableRecord
  2
_D_7
340
0
  0
BLOCK_RECORD
  5
228
330
1
100
AcDbSymbolTableRecord
100
AcDbBlockTableRecord
  2
SW_CENTERMARKSYMBOL_0
340
0
102
{BLKREFS
331
233
102
}
  0
ENDTAB
  0
ENDSEC
  0
SECTION
  2
BLOCKS
  0
BLOCK
  5
20
330
1F
100
AcDbEntity
  8
0
100
AcDbBlockBegin
  2
*Model_Space
 70
     0
 10
0.0
 20
0.0
 30
0.0
  3
*Model_Space
  1

  0
ENDBLK
  5
21
330
1F
100
AcDbEntity
  8
0
100
AcDbBlockEnd
  0
BLOCK
  5
1C
330
1B
100
AcDbEntity
 67
     1
  8
0
100
AcDbBlockBegin
  2
*Paper_Space
 70
     0
 10
0.0
 20
0.0
 30
0.0
  3
*Paper_Space
  1

  0
ENDBLK
  5
1D
330
1B
100
AcDbEntity
 67
     1
  8
0
100
AcDbBlockEnd
  0
BLOCK
  5
24
330
23
100
AcDbEntity
  8
0
100
AcDbBlockBegin
  2
*Paper_Space0
 70
     0
 10
0.0
 20
0.0
 30
0.0
  3
*Paper_Space0
  1

  0
ENDBLK
  5
25
330
23
100
AcDbEntity
  8
0
100
AcDbBlockEnd
  0
BLOCK
  5
1B7
330
1B6
100
AcDbEntity
  8
0
100
AcDbBlockBegin
  2
_D
 70
     0
 10
0.0
 20
0.0
 30
0.0
  3
_D
  1

  0
SOLID
  5
1B9
330
1B6
100
AcDbEntity
  8
VERMASSUNG
100
AcDbTrace
 10
90.9141918011
 20
181.384188383
 30
0.0
 11
93.9141918011
 21
180.934188383
 31
0.0
 12
93.9141918011
 22
181.834188383
 32
0.0
 13
93.9141918011
 23
181.834188383
 33
0.0
  0
SOLID
  5
1BA
330
1B6
100
AcDbEntity
  8
VERMASSUNG
100
AcDbTrace
 10
250.9141918011
 20
181.384188383
 30
0.0
 11
247.9141918011
 21
181.834188383
 31
0.0
 12
247.9141918011
 22
180.934188383
 32
0.0
 13
247.9141918011
 23
180.934188383
 33
0.0
  0
LINE
  5
1BB
330
1B6
100
AcDbEntity
  8
VERMASSUNG
100
AcDbLine
 10
90.9141918011
 20
170.884188383
 30
0.0
 11
90.9141918011
 21
182.384188383
 31
0.0
  0
LINE
  5
1BC
330
1B6
100
AcDbEntity
  8
VERMASSUNG
100
AcDbLine
 10
250.9141918011
 20
161.884188383
 30
0.0
 11
250.9141918011
 21
182.384188383
 31
0.0
  0
LINE
  5
1BD
330
1B6
100
AcDbEntity
  8
VERMASSUNG
100
AcDbLine
 10
90.9141918011
 20
181.384188383
 30
0.0
 11
250.9141918011
 21
181.384188383
 31
0.0
  0
MTEXT
  5
1BE
330
1B6
100
AcDbEntity
  8
VERMASSUNG
100
AcDbMText
 10
168.1141916681
 20
183.9623237461
 30
0.1
 40
2.0
 41
0.0
 71
     1
 72
     1
  1
160
  7
SLDTEXTSTYLE0
 73
     1
 44
1.0
  0
ENDBLK
  5
1B8
330
1B6
100
AcDbEntity
  8
0
100
AcDbBlockEnd
  0
BLOCK
  5
1C1
330
1C0
100
AcDbEntity
  8
0
100
AcDbBlockBegin
  2
_D_1
 70
     0
 10
0.0
 20
0.0
 30
0.0
  3
_D_1
  1

  0
SOLID
  5
1C3
330
1C0
100
AcDbEntity
  8
VERMASSUNG
100
AcDbTrace
 10
250.9141918011
 20
190.056299418
 30
0.0
 11
247.9141918011
 21
190.506299418
 31
0.0
 12
247.9141918011
 22
189.606299418
 32
0.0
 13
247.9141918011
 23
189.606299418
 33
0.0
  0
SOLID
  5
1C4
330
1C0
100
AcDbEntity
  8
VERMASSUNG
100
AcDbTrace
 10
52.9141918011
 20
190.056299418
 30
0.0
 11
55.9141918011
 21
189.606299418
 31
0.0
 12
55.9141918011
 22
190.506299418
 32
0.0
 13
55.9141918011
 23
190.506299418
 33
0.0
  0
LINE
  5
1C5
330
1C0
100
AcDbEntity
  8
VERMASSUNG
100
AcDbLine
 10
250.9141918011
 20
161.884188383
 30
0.0
 11
250.9141918011
 21
191.056299418
 31
0.0
  0
LINE
  5
1C6
330
1C0
100
AcDbEntity
  8
VERMASSUNG
100
AcDbLine
 10
52.9141918011
 20
160.1765263755
 30
0.0
 11
52.9141918011
 21
191.056299418
 31
0.0
  0
LINE
  5
1C7
330
1C0
100
AcDbEntity
  8
VERMASSUNG
100
AcDbLine
 10
250.9141918011
 20
190.056299418
 30
0.0
 11
52.9141918011
 21
190.056299418
 31
0.0
  0
MTEXT
  5
1C8
330
1C0
100
AcDbEntity
  8
VERMASSUNG
100
AcDbMText
 10
149.1141916681
 20
192.6344347811
 30
0.1
 40
2.0
 41
0.0
 71
     1
 72
     1
  1
198
  7
SLDTEXTSTYLE0
 73
     1
 44
1.0
  0
ENDBLK
  5
1C2
330
1C0
100
AcDbEntity
  8
0
100
AcDbBlockEnd
  0
BLOCK
  5
1CB
330
1CA
100
AcDbEntity
  8
0
100
AcDbBlockBegin
  2
_D_2
 70
     0
 10
0.0
 20
0.0
 30
0.0
  3
_D_2
  1

  0
SOLID
  5
1CD
330
1CA
100
AcDbEntity
  8
VERMASSUNG
100
AcDbTrace
 10
268.0915901167
 20
139.884188383
 30
0.0
 11
268.5415901167
 21
142.884188383
 31
0.0
 12
267.6415901167
 22
142.884188383
 32
0.0
 13
267.6415901167
 23
142.884188383
 33
0.0
  0
SOLID
  5
1CE
330
1CA
100
AcDbEntity
  8
VERMASSUNG
100
AcDbTrace
 10
268.0915901167
 20
161.884188383
 30
0.0
 11
267.6415901167
 21
158.884188383
 31
0.0
 12
268.5415901167
 22
158.884188383
 32
0.0
 13
268.5415901167
 23
158.884188383
 33
0.0
  0
LINE
  5
1CF
330
1CA
100
AcDbEntity
  8
VERMASSUNG
100
AcDbLine
 10
250.9141918011
 20
139.884188383
 30
0.0
 11
269.0915901167
 21
139.884188383
 31
0.0
  0
LINE
  5
1D0
330
1CA
100
AcDbEntity
  8
VERMASSUNG
100
AcDbLine
 10
250.9141918011
 20
161.884188383
 30
0.0
 11
269.0915901167
 21
161.884188383
 31
0.0
  0
LINE
  5
1D1
330
1CA
100
AcDbEntity
  8
VERMASSUNG
100
AcDbLine
 10
268.0915901167
 20
139.884188383
 30
0.0
 11
268.0915901167
 21
161.884188383
 31
0.0
  0
MTEXT
  5
1D2
330
1CA
100
AcDbEntity
  8
VERMASSUNG
100
AcDbMText
 10
265.5134547536
 20
148.5841883319
 30
0.1
 40
2.0
 41
0.0
 71
     1
 72
     1
  1
22
  7
SLDTEXTSTYLE0
 11
6.123233995736766E-17
 21
1.0
 31
0.0
 73
     1
 44
1.0
  0
ENDBLK
  5
1CC
330
1CA
100
AcDbEntity
  8
0
100
AcDbBlockEnd
  0
BLOCK
  5
1D6
330
1D5
100
AcDbEntity
  8
0
100
AcDbBlockBegin
  2
_D_3
 70
     0
 10
0.0
 20
0.0
 30
0.0
  3
_D_3
  1

  0
ARC
  5
1D8
330
1D5
100
AcDbEntity
  8
VERMASSUNG
100
AcDbCircle
 10
251.0597229667
 20
161.884188383
 30
0.0
 40
9.80242770995454
100
AcDbArc
 50
252.4598841946
 51
0.0
  0
SOLID
  5
1D9
330
1D5
100
AcDbEntity
  8
VERMASSUNG
100
AcDbTrace
 10
248.1055312798
 20
152.5375130122
 30
0.0
 11
250.9976925734
 21
151.6221425669
 31
0.0
 12
251.1389775371
 22
152.5109836996
 32
0.0
 13
251.1389775371
 23
152.5109836996
 33
0.0
  0
SOLID
  5
1DA
330
1D5
100
AcDbEntity
  8
VERMASSUNG
100
AcDbTrace
 10
260.8621506767
 20
161.884188383
 30
0.0
 11
259.9732463052
 21
158.9837834081
 31
0.0
 12
260.8633413558
 22
158.8506263542
 32
0.0
 13
260.8633413558
 23
158.8506263542
 33
0.0
  0
MTEXT
  5
1DB
330
1D5
100
AcDbEntity
  8
VERMASSUNG
100
AcDbMText
 10
251.780210092
 20
153.4561816195
 30
0.1
 40
2.0
 41
0.0
 71
     1
 72
     1
  1
107.5°
  7
SLDTEXTSTYLE0
 11
0.8066515584257086
 21
0.5910272948767896
 31
0.0
 73
     1
 44
1.0
  0
ENDBLK
  5
1D7
330
1D5
100
AcDbEntity
  8
0
100
AcDbBlockEnd
  0
BLOCK
  5
1DE
330
1DD
100
AcDbEntity
  8
0
100
AcDbBlockBegin
  2
_D_4
 70
     0
 10
0.0
 20
0.0
 30
0.0
  3
_D_4
  1

  0
SOLID
  5
1E0
330
1DD
100
AcDbEntity
  8
VERMASSUNG
100
AcDbTrace
 10
138.3774776402
 20
123.884188383
 30
0.0
 11
138.8274776402
 21
126.884188383
 31
0.0
 12
137.9274776402
 22
126.884188383
 32
0.0
 13
137.9274776402
 23
126.884188383
 33
0.0
  0
SOLID
  5
1E1
330
1DD
100
AcDbEntity
  8
VERMASSUNG
100
AcDbTrace
 10
138.3774776402
 20
155.884188383
 30
0.0
 11
137.9274776402
 21
152.884188383
 31
0.0
 12
138.8274776402
 22
152.884188383
 32
0.0
 13
138.8274776402
 23
152.884188383
 33
0.0
  0
LINE
  5
1E2
330
1DD
100
AcDbEntity
  8
VERMASSUNG
100
AcDbLine
 10
138.3774776402
 20
123.884188383
 30
0.0
 11
138.3774776402
 21
155.884188383
 31
0.0
  0
MTEXT
  5
1E3
330
1DD
100
AcDbEntity
  8
VERMASSUNG
100
AcDbMText
 10
135.7993421606
 20
144.7777677087
 30
0.1
 40
2.0
 41
0.0
 71
     1
 72
     1
  1
%%c
  7
SLDTEXTSTYLE0
 11
6.123233995736766E-17
 21
1.0
 31
0.0
 73
     1
 44
1.0
  0
MTEXT
  5
1E4
330
1DD
100
AcDbEntity
  8
VERMASSUNG
100
AcDbMText
 10
135.5993421511
 20
148.387767723
 30
0.1
 40
2.0
 41
0.0
 71
     1
 72
     1
  1
32
  7
SLDTEXTSTYLE0
 11
6.123233995736766E-17
 21
1.0
 31
0.0
 73
     1
 44
1.0
  0
ENDBLK
  5
1DF
330
1DD
100
AcDbEntity
  8
0
100
AcDbBlockEnd
  0
BLOCK
  5
1E7
330
1E6
100
AcDbEntity
  8
0
100
AcDbBlockBegin
  2
_D_5
 70
     0
 10
0.0
 20
0.0
 30
0.0
  3
_D_5
  1

  0
SOLID
  5
1E9
330
1E6
100
AcDbEntity
  8
VERMASSUNG
100
AcDbTrace
 10
42.9141418011
 20
171.384188383
 30
0.0
 11
42.4641418011
 21
168.384188383
 31
0.0
 12
43.3641418011
 22
168.384188383
 32
0.0
 13
43.3641418011
 23
168.384188383
 33
0.0
  0
SOLID
  5
1EA
330
1E6
100
AcDbEntity
  8
VERMASSUNG
100
AcDbTrace
 10
42.9141418011
 20
108.384188383
 30
0.0
 11
43.3641418011
 21
111.384188383
 31
0.0
 12
42.4641418011
 22
111.384188383
 32
0.0
 13
42.4641418011
 23
111.384188383
 33
0.0
  0
LINE
  5
1EB
330
1E6
100
AcDbEntity
  8
VERMASSUNG
100
AcDbLine
 10
91.4141918011
 20
171.384188383
 30
0.0
 11
41.9141418011
 21
171.384188383
 31
0.0
  0
LINE
  5
1EC
330
1E6
100
AcDbEntity
  8
VERMASSUNG
100
AcDbLine
 10
91.4141918011
 20
108.384188383
 30
0.0
 11
41.9141418011
 21
108.384188383
 31
0.0
  0
LINE
  5
1ED
330
1E6
100
AcDbEntity
  8
VERMASSUNG
100
AcDbLine
 10
42.9141418011
 20
171.384188383
 30
0.0
 11
42.9141418011
 21
108.384188383
 31
0.0
  0
MTEXT
  5
1EE
330
1E6
100
AcDbEntity
  8
VERMASSUNG
100
AcDbMText
 10
40.1360063121
 20
133.4791882737
 30
0.1
 40
2.0
 41
0.0
 71
     1
 72
     1
  1
PSC
  7
SLDTEXTSTYLE0
 11
-7.044195017643634E-15
 21
1.0
 31
0.0
 73
     1
 44
1.0
  0
MTEXT
  5
1EF
330
1E6
100
AcDbEntity
  8
VERMASSUNG
100
AcDbMText
 10
40.3360063216
 20
138.0791883758
 30
0.1
 40
2.0
 41
0.0
 71
     1
 72
     1
  1
%%c
  7
SLDTEXTSTYLE0
 11
-7.044195017643634E-15
 21
1.0
 31
0.0
 73
     1
 44
1.0
  0
MTEXT
  5
1F0
330
1E6
100
AcDbEntity
  8
VERMASSUNG
100
AcDbMText
 10
40.1360063121
 20
141.6891888558
 30
0.1
 40
2.0
 41
0.0
 71
     1
 72
     1
  1
63
  7
SLDTEXTSTYLE0
 11
-7.044195017643634E-15
 21
1.0
 31
0.0
 73
     1
 44
1.0
  0
ENDBLK
  5
1E8
330
1E6
100
AcDbEntity
  8
0
100
AcDbBlockEnd
  0
BLOCK
  5
20F
330
20E
100
AcDbEntity
  8
0
100
AcDbBlockBegin
  2
_D_6
 70
     0
 10
0.0
 20
0.0
 30
0.0
  3
_D_6
  1

  0
SOLID
  5
211
330
20E
100
AcDbEntity
  8
VERMASSUNG
100
AcDbTrace
 10
181.3162101903
 20
48.5919109713
 30
0.0
 11
182.7503132813
 21
45.9187390119
 31
0.0
 12
183.4715034512
 22
46.4571484647
 32
0.0
 13
183.4715034512
 23
46.4571484647
 33
0.0
  0
SOLID
  5
212
330
20E
100
AcDbEntity
  8
VERMASSUNG
100
AcDbTrace
 10
157.3869011783
 20
80.6448074116
 30
0.0
 11
155.9527980874
 21
83.317979371
 31
0.0
 12
155.2316079175
 22
82.7795699182
 32
0.0
 13
155.2316079175
 23
82.7795699182
 33
0.0
  0
LINE
  5
213
330
20E
100
AcDbEntity
  8
VERMASSUNG
100
AcDbLine
 10
181.3162101903
 20
48.5919109713
 30
0.0
 11
182.1175326013
 21
49.1901436966
 31
0.0
  0
LINE
  5
214
330
20E
100
AcDbEntity
  8
VERMASSUNG
100
AcDbLine
 10
157.3869011783
 20
80.6448074116
 30
0.0
 11
158.1882235893
 21
81.2430401369
 31
0.0
  0
LINE
  5
215
330
20E
100
AcDbEntity
  8
VERMASSUNG
100
AcDbLine
 10
181.3162101903
 20
48.5919109713
 30
0.0
 11
184.9056065421
 21
43.7839765053
 31
0.0
  0
LINE
  5
216
330
20E
100
AcDbEntity
  8
VERMASSUNG
100
AcDbLine
 10
181.3162101903
 20
48.5919109713
 30
0.0
 11
157.3869011783
 21
80.6448074116
 31
0.0
  0
LINE
  5
217
330
20E
100
AcDbEntity
  8
VERMASSUNG
100
AcDbLine
 10
157.3869011783
 20
80.6448074116
 30
0.0
 11
141.9450279486
 21
101.3289301008
 31
0.0
  0
MTEXT
  5
218
330
20E
100
AcDbEntity
  8
VERMASSUNG
100
AcDbMText
 10
144.010945687
 20
102.8712551149
 30
0.1
 40
2.0
 41
0.0
 71
     1
 72
     1
  1
%%c
  7
SLDTEXTSTYLE0
 11
0.5982327253003841
 21
-0.8013224110055048
 31
0.0
 73
     1
 44
1.0
  0
MTEXT
  5
219
330
20E
100
AcDbEntity
  8
VERMASSUNG
100
AcDbMText
 10
146.3308303237
 20
100.0981277505
 30
0.1
 40
2.0
 41
0.0
 71
     1
 72
     1
  1
40
  7
SLDTEXTSTYLE0
 11
0.5982327253003841
 21
-0.8013224110055048
 31
0.0
 73
     1
 44
1.0
  0
MTEXT
  5
21A
330
20E
100
AcDbEntity
  8
VERMASSUNG
100
AcDbMText
 10
149.9127489028
 20
95.3002096319
 30
0.1
 40
2.0
 41
0.0
 71
     1
 72
     1
  1
min.
  7
SLDTEXTSTYLE0
 11
0.5982327253003841
 21
-0.8013224110055048
 31
0.0
 73
     1
 44
1.0
  0
ENDBLK
  5
210
330
20E
100
AcDbEntity
  8
0
100
AcDbBlockEnd
  0
BLOCK
  5
21E
330
21D
100
AcDbEntity
  8
0
100
AcDbBlockBegin
  2
_D_7
 70
     0
 10
0.0
 20
0.0
 30
0.0
  3
_D_7
  1

  0
ARC
  5
220
330
21D
100
AcDbEntity
  8
VERMASSUNG
100
AcDbCircle
 10
169.3633980751
 20
80.4870371615
 30
0.0
 40
55.65686588517229
100
AcDbArc
 50
266.0
 51
270.0
  0
ARC
  5
221
330
21D
100
AcDbEntity
  8
VERMASSUNG
100
AcDbCircle
 10
169.3633980751
 20
80.4870371615
 30
0.0
 40
55.65686588517229
100
AcDbArc
 50
254.5682327207
 51
266.0
  0
ARC
  5
222
330
21D
100
AcDbEntity
  8
VERMASSUNG
100
AcDbCircle
 10
169.3633980751
 20
80.4870371615
 30
0.0
 40
55.6568658851723
100
AcDbArc
 50
270.0
 51
276.1684702629
  0
SOLID
  5
223
330
21D
100
AcDbEntity
  8
VERMASSUNG
100
AcDbTrace
 10
165.4809713713
 20
24.9657486043
 30
0.0
 11
162.5384619989
 21
25.7034061086
 31
0.0
 12
162.4515335593
 22
24.807614031
 32
0.0
 13
162.4515335593
 23
24.807614031
 33
0.0
  0
SOLID
  5
224
330
21D
100
AcDbEntity
  8
VERMASSUNG
100
AcDbTrace
 10
169.3633980751
 20
24.8301712763
 30
0.0
 11
172.3744254186
 21
24.4610990116
 31
0.0
 12
172.3501960288
 22
25.3607728062
 32
0.0
 13
172.3501960288
 23
25.3607728062
 33
0.0
  0
LINE
  5
225
330
21D
100
AcDbEntity
  8
VERMASSUNG
100
AcDbLine
 10
166.9840080893
 20
46.4601750809
 30
0.0
 11
165.4112148975
 21
23.968184554
 31
0.0
  0
LINE
  5
226
330
21D
100
AcDbEntity
  8
VERMASSUNG
100
AcDbLine
 10
169.3633980751
 20
28.7877132693
 30
0.0
 11
169.3633980751
 21
23.8301712763
 31
0.0
  0
MTEXT
  5
227
330
21D
100
AcDbEntity
  8
VERMASSUNG
100
AcDbMText
 10
155.1238090424
 20
29.3023154347
 30
-60.973795927
 40
2.0
 41
0.0
 71
     1
 72
     1
  1
4°
  7
SLDTEXTSTYLE0
 11
0.9741127154428205
 21
-0.2260628620817994
 31
0.0
 73
     1
 44
1.0
  0
ENDBLK
  5
21F
330
21D
100
AcDbEntity
  8
0
100
AcDbBlockEnd
  0
BLOCK
  5
229
330
228
100
AcDbEntity
  8
0
100
AcDbBlockBegin
  2
SW_CENTERMARKSYMBOL_0
 70
     0
 10
0.0
 20
0.0
 30
0.0
  3
SW_CENTERMARKSYMBOL_0
  1

  0
LINE
  5
22B
330
228
100
AcDbEntity
  8
VERMASSUNG
 62
     0
100
AcDbLine
 10
0.0
 20
0.0
 30
0.0
 11
0.0
 21
2.5
 31
0.0
  0
LINE
  5
22C
330
228
100
AcDbEntity
  8
VERMASSUNG
 62
     0
100
AcDbLine
 10
0.0
 20
0.0
 30
0.0
 11
-2.5
 21
0.0
 31
0.0
  0
LINE
  5
22D
330
228
100
AcDbEntity
  8
VERMASSUNG
 62
     0
100
AcDbLine
 10
0.0
 20
0.0
 30
0.0
 11
0.0
 21
-2.5
 31
0.0
  0
LINE
  5
22E
330
228
100
AcDbEntity
  8
VERMASSUNG
 62
     0
100
AcDbLine
 10
0.0
 20
0.0
 30
0.0
 11
2.5
 21
0.0
 31
0.0
  0
LINE
  5
22F
330
228
100
AcDbEntity
  8
VERMASSUNG
 62
     0
100
AcDbLine
 10
0.0
 20
5.0
 30
0.0
 11
0.0
 21
34.0
 31
0.0
  0
LINE
  5
230
330
228
100
AcDbEntity
  8
VERMASSUNG
 62
     0
100
AcDbLine
 10
-5.0
 20
0.0
 30
0.0
 11
-34.0
 21
0.0
 31
0.0
  0
LINE
  5
231
330
228
100
AcDbEntity
  8
VERMASSUNG
 62
     0
100
AcDbLine
 10
0.0
 20
-5.0
 30
0.0
 11
0.0
 21
-34.0
 31
0.0
  0
LINE
  5
232
330
228
100
AcDbEntity
  8
VERMASSUNG
 62
     0
100
AcDbLine
 10
5.0
 20
0.0
 30
0.0
 11
34.0
 21
0.0
 31
0.0
  0
ENDBLK
  5
22A
330
228
100
AcDbEntity
  8
0
100
AcDbBlockEnd
  0
ENDSEC
  0
SECTION
  2
ENTITIES
  0
MTEXT
  5
49
330
1F
100
AcDbEntity
  8
KOPF_DÜNN
100
AcDbMText
 10
13.8892156294
 20
23.8442973028
 30
0.0
 40
3.0
 41
0.0
 71
     1
 72
     1
  1
PS6.BDB.RQB.160
  7
SLDTEXTSTYLE0
 73
     1
 44
1.0
  0
MTEXT
  5
4A
330
1F
100
AcDbEntity
  8
VERMASSUNG
100
AcDbMText
 10
13.9329988022
 20
28.8834360957
 30
0.0
 40
3.0
 41
0.0
 71
     1
 72
     1
  1
Bohrstange rechts_Boring bar right
  7
SLDTEXTSTYLE0
 73
     1
 44
1.0
  0
MTEXT
  5
4B
330
1F
100
AcDbEntity
  8
VERMASSUNG
100
AcDbMText
 10
98.8601118557
 20
13.8365368179
 30
0.0
 40
2.0
 41
0.0
 71
     1
 72
     1
  1
Datum: 07.06.2012
  7
SLDTEXTSTYLE0
 73
     1
 44
1.0
  0
MTEXT
  5
4C
330
1F
100
AcDbEntity
  8
VERMASSUNG
100
AcDbMText
 10
13.933048693
 20
18.0482802738
 30
0.0
 40
2.0
 41
0.0
 71
     1
 72
     1
  1
PSC ø63 / Wp.: DC..11 T3..
  7
SLDTEXTSTYLE0
 73
     1
 44
1.0
  0
MTEXT
  5
4D
330
1F
100
AcDbEntity
  8
VERMASSUNG
100
AcDbMText
 10
13.9808475933
 20
13.9090973692
 30
0.0
 40
2.0
 41
0.0
 71
     1
 72
     1
  1
Gewicht: 1463g
  7
SLDTEXTSTYLE0
 73
     1
 44
1.0
  0
ARC
  5
4E
330
1F
100
AcDbEntity
  8
0
  6
Continuous
 62
     7
370
    15
100
AcDbCircle
 10
91.4141918011
 20
108.884188383
 30
0.0
 40
0.5000000000000142
100
AcDbArc
 50
180.0
 51
270.0
  0
ARC
  5
4F
330
1F
100
AcDbEntity
  8
0
  6
Continuous
 62
     7
370
    15
100
AcDbCircle
 10
91.4141918011
 20
170.884188383
 30
0.0
 40
0.5000000000000284
100
AcDbArc
 50
90.0
 51
180.0
  0
ARC
  5
50
330
1F
100
AcDbEntity
  8
0
  6
Continuous
 62
     7
370
    15
100
AcDbCircle
 10
111.9141918011
 20
109.384188383
 30
0.0
 40
1.000000000000014
100
AcDbArc
 50
270.0
 51
0.0
  0
ARC
  5
51
330
1F
100
AcDbEntity
  8
0
  6
Continuous
 62
     7
370
    15
100
AcDbCircle
 10
111.9141918011
 20
170.384188383
 30
0.0
 40
1.000000000000028
100
AcDbArc
 50
0.0
 51
90.0
  0
LINE
  5
52
330
1F
100
AcDbEntity
  8
0
  6
Continuous
 62
     7
370
    15
100
AcDbLine
 10
91.4141918011
 20
108.384188383
 30
0.0
 11
111.9141918011
 21
108.384188383
 31
0.0
  0
LINE
  5
53
330
1F
100
AcDbEntity
  8
0
  6
Continuous
 62
     7
370
    15
100
AcDbLine
 10
111.9141918011
 20
171.384188383
 30
0.0
 11
91.4141918011
 21
171.384188383
 31
0.0
  0
LWPOLYLINE
  5
54
330
1F
100
AcDbEntity
  8
0
  6
Continuous
 62
     7
370
    15
100
AcDbPolyline
 90
        3
 70
   128
 43
0.0
 10
90.7141918011
 20
117.3443681041
 10
90.8396467446
 20
117.2760659891
 10
90.9141918011
 20
117.223328231
  0
LWPOLYLINE
  5
55
330
1F
100
AcDbEntity
  8
0
  6
Continuous
 62
     7
370
    15
100
AcDbPolyline
 90
        3
 70
   128
 43
0.0
 10
90.9141918011
 20
162.5450485349
 10
90.8396467446
 20
162.4923107768
 10
90.7141918011
 20
162.4240086618
  0
LINE
  5
56
330
1F
100
AcDbEntity
  8
0
  6
Continuous
 62
     7
370
    15
100
AcDbLine
 10
90.7141918011
 20
146.4345292055
 30
0.0
 11
90.7141918011
 21
146.9060757087
 31
0.0
  0
ARC
  5
57
330
1F
100
AcDbEntity
  8
0
  6
Continuous
 62
     7
370
    15
100
AcDbCircle
 10
116.9141918011
 20
119.884188383
 30
0.0
 40
4.0
100
AcDbArc
 50
90.0
 51
180.0
  0
ARC
  5
58
330
1F
100
AcDbEntity
  8
0
  6
Continuous
 62
     7
370
    15
100
AcDbCircle
 10
116.9141918011
 20
159.884188383
 30
0.0
 40
4.0
100
AcDbArc
 50
180.0
 51
270.0
  0
LINE
  5
59
330
1F
100
AcDbEntity
  8
0
  6
Continuous
 62
     7
370
    15
100
AcDbLine
 10
224.9141918011
 20
155.884188383
 30
0.0
 11
116.9141918011
 21
155.884188383
 31
0.0
  0
LINE
  5
5A
330
1F
100
AcDbEntity
  8
0
  6
Continuous
 62
     7
370
    15
100
AcDbLine
 10
116.9141918011
 20
123.884188383
 30
0.0
 11
224.9141918011
 21
123.884188383
 31
0.0
  0
LINE
  5
5B
330
1F
100
AcDbEntity
  8
0
  6
Continuous
 62
     7
370
    15
100
AcDbLine
 10
225.4141918011
 20
123.384188383
 30
0.0
 11
238.4996808576
 21
123.384188383
 31
0.0
  0
LINE
  5
5C
330
1F
100
AcDbEntity
  8
0
  6
Continuous
 62
     7
370
    15
100
AcDbLine
 10
225.7237585865
 20
156.6937551683
 30
0.0
 11
224.9141918011
 21
155.884188383
 31
0.0
  0
LINE
  5
5D
330
1F
100
AcDbEntity
  8
0
  6
Continuous
 62
     7
370
    15
100
AcDbLine
 10
224.9141918011
 20
123.884188383
 30
0.0
 11
225.4141918011
 21
123.384188383
 31
0.0
  0
LINE
  5
5E
330
1F
100
AcDbEntity
  8
0
  6
Continuous
 62
     7
370
    15
100
AcDbLine
 10
244.568669331
 20
153.6256874833
 30
0.0
 11
244.568669331
 21
153.5315981348
 31
0.0
  0
LINE
  5
5F
330
1F
100
AcDbEntity
  8
0
  6
Continuous
 62
     7
370
    15
100
AcDbLine
 10
242.6645693571
 20
153.9600151069
 30
0.0
 11
242.6645693571
 21
154.0528256824
 31
0.0
  0
LINE
  5
60
330
1F
100
AcDbEntity
  8
0
  6
Continuous
 62
     7
370
    15
100
AcDbLine
 10
244.8166199805
 20
155.396297124
 30
0.0
 11
244.8166199805
 21
155.3035470392
 31
0.0
  0
LINE
  5
61
330
1F
100
AcDbEntity
  8
0
  6
Continuous
 62
     7
370
    15
100
AcDbLine
 10
242.9125200066
 20
155.7319640114
 30
0.0
 11
242.9125200066
 21
155.8260694896
 31
0.0
  0
LINE
  5
62
330
1F
100
AcDbEntity
  8
0
  6
Continuous
 62
     7
370
    15
100
AcDbLine
 10
241.1179105969
 20
154.7111623269
 30
0.0
 11
241.1179105969
 21
154.6606195856
 31
0.0
  0
LINE
  5
63
330
1F
100
AcDbEntity
  8
0
  6
Continuous
 62
     7
370
    15
100
AcDbLine
 10
246.3679105969
 20
154.6606195856
 30
0.0
 11
246.3679105969
 21
154.7111623269
 31
0.0
  0
LINE
  5
64
330
1F
100
AcDbEntity
  8
0
  6
Continuous
 62
     7
370
    15
100
AcDbLine
 10
90.9141918011
 20
108.884188383
 30
0.0
 11
90.9141918011
 21
170.8841883617
 31
0.0
  0
LINE
  5
65
330
1F
100
AcDbEntity
  8
0
  6
Continuous
 62
     7
370
    15
100
AcDbLine
 10
112.9141918011
 20
170.3841883767
 30
0.0
 11
112.9141918011
 21
109.384188383
 31
0.0
  0
SPLINE
  5
66
330
1F
100
AcDbEntity
  8
0
  6
Continuous
 62
     7
370
    15
100
AcDbSpline
210
0.0
220
0.0
230
1.0
 70
     8
 71
     3
 72
    12
 73
     8
 74
     0
 42
0.00000001
 43
0.00000001
 12
1.0
 22
0.0
 32
0.0
 13
1.0
 23
0.0
 33
0.0
 40
0.0
 40
0.0
 40
0.0
 40
0.0
 40
0.2500000000000001
 40
0.2500000000000001
 40
0.5000000000000001
 40
0.5000000000000001
 40
1.0
 40
1.0
 40
1.0
 40
1.0
 10
101.4419486147038
 20
149.2722548143059
 30
0.0
 10
101.3788685762105
 20
149.2722548143059
 30
0.0
 10
101.3197199540291
 20
149.2976191335209
 30
0.0
 10
101.22124740396
 20
149.3717839938938
 30
0.0
 10
101.1822107919753
 20
149.4183043344479
 30
0.0
 10
101.0823143251963
 20
149.5684466772932
 30
0.0
 10
101.0398934441296
 20
149.6801398842653
 30
0.0
 10
101.0089359128116
 20
149.793557703655
 30
0.0
  0
LINE
  5
67
330
1F
100
AcDbEntity
  8
0
  6
Continuous
 62
     7
370
    15
100
AcDbLine
 10
104.3864349876
 20
149.2722548143
 30
0.0
 11
101.4419486147
 21
149.2722548143
 31
0.0
  0
SPLINE
  5
68
330
1F
100
AcDbEntity
  8
0
  6
Continuous
 62
     7
370
    15
100
AcDbSpline
210
0.0
220
0.0
230
1.0
 70
     8
 71
     3
 72
    12
 73
     8
 74
     0
 42
0.00000001
 43
0.00000001
 12
1.0
 22
0.0
 32
0.0
 13
1.0
 23
0.0
 33
0.0
 40
0.0
 40
0.0
 40
0.0
 40
0.0
 40
0.5000000000000028
 40
0.5000000000000028
 40
0.7500000000000013
 40
0.7500000000000013
 40
1.0
 40
1.0
 40
1.0
 40
1.0
 10
104.8194476894631
 20
149.793557703655
 30
0.0
 10
104.7887254475441
 20
149.6810019042459
 30
0.0
 10
104.7458882330089
 20
149.5682440445063
 30
0.0
 10
104.6464612088091
 20
149.4187031587099
 30
0.0
 10
104.6067090139924
 20
149.3714104270031
 30
0.0
 10
104.5086675571342
 20
149.2976741336817
 30
0.0
 10
104.4491115015468
 20
149.2722548143059
 30
0.0
 10
104.386434987571
 20
149.2722548143059
 30
0.0
  0
ELLIPSE
  5
69
330
1F
100
AcDbEntity
  8
0
  6
Continuous
 62
     7
370
    15
100
AcDbEllipse
 10
88.5670376118
 20
139.884188383
 30
0.0
 11
14.75368316065604
 21
31.09325491558116
 31
0.0
210
0.0
220
0.0
230
1.0
 40
0.3419987131
 41
5.193281737408619
 42
6.124043104552327
  0
SPLINE
  5
6A
330
1F
100
AcDbEntity
  8
0
  6
Continuous
 62
     7
370
    15
100
AcDbSpline
210
0.0
220
0.0
230
1.0
 70
     8
 71
     3
 72
    12
 73
     8
 74
     0
 42
0.00000001
 43
0.00000001
 12
1.0
 22
0.0
 32
0.0
 13
1.0
 23
0.0
 33
0.0
 40
0.0
 40
0.0
 40
0.0
 40
0.0
 40
0.2500000000000014
 40
0.2500000000000014
 40
0.5000000000000028
 40
0.5000000000000028
 40
1.0
 40
1.0
 40
1.0
 40
1.0
 10
104.3864349875709
 20
169.9526803418431
 30
0.0
 10
104.4495150260643
 20
169.9526803418431
 30
0.0
 10
104.5086636482457
 20
169.9447744156306
 30
0.0
 10
104.6071361983148
 20
169.9214492541944
 30
0.0
 10
104.6461728102995
 20
169.9067364643627
 30
0.0
 10
104.7460692770785
 20
169.8587806636318
 30
0.0
 10
104.7884901581452
 20
169.8225185070517
 30
0.0
 10
104.8194476894631
 20
169.7849308430872
 30
0.0
  0
LINE
  5
6B
330
1F
100
AcDbEntity
  8
0
  6
Continuous
 62
     7
370
    15
100
AcDbLine
 10
101.4419486147
 20
169.9526803418
 30
0.0
 11
104.3864349876
 21
169.9526803418
 31
0.0
  0
SPLINE
  5
6C
330
1F
100
AcDbEntity
  8
0
  6
Continuous
 62
     7
370
    15
100
AcDbSpline
210
0.0
220
0.0
230
1.0
 70
     8
 71
     3
 72
    12
 73
     8
 74
     0
 42
0.00000001
 43
0.00000001
 12
1.0
 22
0.0
 32
0.0
 13
1.0
 23
0.0
 33
0.0
 40
0.0
 40
0.0
 40
0.0
 40
0.0
 40
0.4999999999999963
 40
0.4999999999999963
 40
0.7499999999999981
 40
0.7499999999999981
 40
1.0
 40
1.0
 40
1.0
 40
1.0
 10
101.0089359128116
 20
169.7849308430872
 30
0.0
 10
101.0396581547307
 20
169.8222328260402
 30
0.0
 10
101.0824953692659
 20
169.8588446580866
 30
0.0
 10
101.1819223934657
 20
169.9066094413719
 30
0.0
 10
101.2216745882823
 20
169.9215669568542
 30
0.0
 10
101.3197160451406
 20
169.9447569026233
 30
0.0
 10
101.379272100728
 20
169.9526803418431
 30
0.0
 10
101.4419486147038
 20
169.9526803418431
 30
0.0
  0
ELLIPSE
  5
6D
330
1F
100
AcDbEntity
  8
0
  6
Continuous
 62
     7
370
    15
100
AcDbEllipse
 10
117.2613459905
 20
139.884188383
 30
0.0
 11
-14.75368316065606
 21
31.09325491558118
 31
0.0
210
0.0
220
0.0
230
1.0
 40
0.3419987131
 41
0.159142202627301
 42
1.089903569770978
  0
SPLINE
  5
6E
330
1F
100
AcDbEntity
  8
0
  6
Continuous
 62
     7
370
    15
100
AcDbSpline
210
0.0
220
0.0
230
1.0
 70
     8
 71
     3
 72
    12
 73
     8
 74
     0
 42
0.00000001
 43
0.00000001
 12
1.0
 22
0.0
 32
0.0
 13
1.0
 23
0.0
 33
0.0
 40
0.0
 40
0.0
 40
0.0
 40
0.0
 40
0.2500000000000014
 40
0.2500000000000014
 40
0.5000000000000029
 40
0.5000000000000029
 40
1.0
 40
1.0
 40
1.0
 40
1.0
 10
101.4419486147038
 20
109.8156964240969
 30
0.0
 10
101.378891659806
 20
109.8156964240969
 30
0.0
 10
101.3197615100605
 20
109.8235967551765
 30
0.0
 10
101.2213139595272
 20
109.8469075031815
 30
0.0
 10
101.1822817213391
 20
109.8616126294652
 30
0.0
 10
101.0823918368822
 20
109.9095461576518
 30
0.0
 10
101.0400928632728
 20
109.9456161304165
 30
0.0
 10
101.0089359128115
 20
109.9834459228527
 30
0.0
  0
LINE
  5
6F
330
1F
100
AcDbEntity
  8
0
  6
Continuous
 62
     7
370
    15
100
AcDbLine
 10
104.3864349876
 20
109.8156964241
 30
0.0
 11
101.4419486147
 21
109.8156964241
 31
0.0
  0
SPLINE
  5
70
330
1F
100
AcDbEntity
  8
0
  6
Continuous
 62
     7
370
    15
100
AcDbSpline
210
0.0
220
0.0
230
1.0
 70
     8
 71
     3
 72
    12
 73
     8
 74
     0
 42
0.00000001
 43
0.00000001
 12
1.0
 22
0.0
 32
0.0
 13
1.0
 23
0.0
 33
0.0
 40
0.0
 40
0.0
 40
0.0
 40
0.0
 40
0.5
 40
0.5
 40
0.75
 40
0.75
 40
1.0
 40
1.0
 40
1.0
 40
1.0
 10
104.8194476894632
 20
109.9834459228528
 30
0.0
 10
104.7883024915011
 20
109.9456303999326
 30
0.0
 10
104.7460282251666
 20
109.909563541849
 30
0.0
 10
104.6460826913413
 20
109.8616034768377
 30
0.0
 10
104.6063523866373
 20
109.84674250294
 30
0.0
 10
104.5094643366311
 20
109.8237913568089
 30
0.0
 10
104.4493990948845
 20
109.8156964240968
 30
0.0
 10
104.386434987571
 20
109.8156964240968
 30
0.0
  0
ELLIPSE
  5
71
330
1F
100
AcDbEntity
  8
0
  6
Continuous
 62
     7
370
    15
100
AcDbEllipse
 10
88.5670376118
 20
139.884188383
 30
0.0
 11
-14.75368316065617
 21
31.09325491558119
 31
0.0
210
0.0
220
0.0
230
1.0
 40
0.3419987131
 41
3.300734856217122
 42
4.231496223360773
  0
SPLINE
  5
72
330
1F
100
AcDbEntity
  8
0
  6
Continuous
 62
     7
370
    15
100
AcDbSpline
210
0.0
220
0.0
230
1.0
 70
     8
 71
     3
 72
    12
 73
     8
 74
     0
 42
0.00000001
 43
0.00000001
 12
1.0
 22
0.0
 32
0.0
 13
1.0
 23
0.0
 33
0.0
 40
0.0
 40
0.0
 40
0.0
 40
0.0
 40
0.2499999999999987
 40
0.2499999999999987
 40
0.4999999999999973
 40
0.4999999999999973
 40
1.0
 40
1.0
 40
1.0
 40
1.0
 10
104.386434987571
 20
130.4961219516338
 30
0.0
 10
104.4494919424688
 20
130.4961219516338
 30
0.0
 10
104.5086220922143
 20
130.4707755982531
 30
0.0
 10
104.6070696427476
 20
130.3966562161136
 30
0.0
 10
104.6461018809357
 20
130.3501597014156
 30
0.0
 10
104.7459917653927
 20
130.200085194407
 30
0.0
 10
104.788290739002
 20
130.0889674852921
 30
0.0
 10
104.8194476894632
 20
129.9748190622847
 30
0.0
  0
LINE
  5
73
330
1F
100
AcDbEntity
  8
0
  6
Continuous
 62
     7
370
    15
100
AcDbLine
 10
101.4419486147
 20
130.4961219516
 30
0.0
 11
104.3864349876
 21
130.4961219516
 31
0.0
  0
SPLINE
  5
74
330
1F
100
AcDbEntity
  8
0
  6
Continuous
 62
     7
370
    15
100
AcDbSpline
210
0.0
220
0.0
230
1.0
 70
     8
 71
     3
 72
    12
 73
     8
 74
     0
 42
0.00000001
 43
0.00000001
 12
1.0
 22
0.0
 32
0.0
 13
1.0
 23
0.0
 33
0.0
 40
0.0
 40
0.0
 40
0.0
 40
0.0
 40
0.5000000000000009
 40
0.5000000000000009
 40
0.7500000000000004
 40
0.7500000000000004
 40
1.0
 40
1.0
 40
1.0
 40
1.0
 10
101.0089359128116
 20
129.9748190622846
 30
0.0
 10
101.0400811107737
 20
130.08892442815
 30
0.0
 10
101.0823553771082
 20
130.2000307553687
 30
0.0
 10
101.1823009109335
 20
130.350188362799
 30
0.0
 10
101.2220312156376
 20
130.3971810544163
 30
0.0
 10
101.3189192656438
 20
130.4701566389548
 30
0.0
 10
101.3789845073903
 20
130.4961219516339
 30
0.0
 10
101.4419486147038
 20
130.4961219516339
 30
0.0
  0
ELLIPSE
  5
75
330
1F
100
AcDbEntity
  8
0
  6
Continuous
 62
     7
370
    15
100
AcDbEllipse
 10
117.2613459905
 20
139.884188383
 30
0.0
 11
14.75368316065621
 21
31.09325491558119
 31
0.0
210
0.0
220
0.0
230
1.0
 40
0.3419987131
 41
2.051689083818825
 42
2.982450450962501
  0
SPLINE
  5
76
330
1F
100
AcDbEntity
  8
0
  6
Continuous
 62
     7
370
    15
100
AcDbSpline
210
0.0
220
0.0
230
1.0
 70
     8
 71
     3
 72
    12
 73
     8
 74
     0
 42
0.00000001
 43
0.00000001
 12
1.0
 22
0.0
 32
0.0
 13
1.0
 23
0.0
 33
0.0
 40
0.0
 40
0.0
 40
0.0
 40
0.0
 40
0.5000000000000003
 40
0.5000000000000003
 40
0.7500000000000001
 40
0.7500000000000001
 40
1.0
 40
1.0
 40
1.0
 40
1.0
 10
90.09767951468089
 20
118.0293946804942
 30
0.0
 10
90.15411601558809
 20
118.0279767991524
 30
0.0
 10
90.22320064627682
 20
118.0264124629041
 30
0.0
 10
90.34200291799476
 20
118.0234682709297
 30
0.0
 10
90.38218819346486
 20
118.0224300678323
 30
0.0
 10
90.45556924086866
 20
118.0204961726177
 30
0.0
 10
90.48897880461132
 20
118.0196012853289
 30
0.0
 10
90.51921491226777
 20
118.0188174950566
 30
0.0
  0
SPLINE
  5
77
330
1F
100
AcDbEntity
  8
0
  6
Continuous
 62
     7
370
    15
100
AcDbSpline
210
0.0
220
0.0
230
1.0
 70
     8
 71
     3
 72
    16
 73
    12
 74
     0
 42
0.00000001
 43
0.00000001
 12
1.0
 22
0.0
 32
0.0
 13
1.0
 23
0.0
 33
0.0
 40
0.0
 40
0.0
 40
0.0
 40
0.0
 40
0.0625000000000007
 40
0.0625000000000007
 40
0.1250000000000014
 40
0.1250000000000014
 40
0.2500000000000026
 40
0.2500000000000026
 40
0.500000000000002
 40
0.500000000000002
 40
1.0
 40
1.0
 40
1.0
 40
1.0
 10
90.51921491223052
 20
118.0188174950808
 30
0.0
 10
90.53079531981848
 20
118.0185173039694
 30
0.0
 10
90.54410484657977
 20
118.0171895557104
 30
0.0
 10
90.57340627666593
 20
118.0104908809354
 30
0.0
 10
90.58822037655023
 20
118.0051326978297
 30
0.0
 10
90.62404877825308
 20
117.9880870486624
 30
0.0
 10
90.63816840261613
 20
117.9766245108866
 30
0.0
 10
90.67267254670459
 20
117.9450611855144
 30
0.0
 10
90.6837770974092
 20
117.9271638864691
 30
0.0
 10
90.70995327462539
 20
117.8770024688549
 30
0.0
 10
90.7141918011374
 20
117.8492580566583
 30
0.0
 10
90.7141918011374
 20
117.8245938947288
 30
0.0
  0
LINE
  5
78
330
1F
100
AcDbEntity
  8
0
  6
Continuous
 62
     7
370
    15
100
AcDbLine
 10
90.7141918011
 20
132.8623010572
 30
0.0
 11
90.7141918011
 21
117.3443681041
 31
0.0
  0
SPLINE
  5
79
330
1F
100
AcDbEntity
  8
0
  6
Continuous
 62
     7
370
    15
100
AcDbSpline
210
0.0
220
0.0
230
1.0
 70
     8
 71
     3
 72
    16
 73
    12
 74
     0
 42
0.00000001
 43
0.00000001
 12
1.0
 22
0.0
 32
0.0
 13
1.0
 23
0.0
 33
0.0
 40
0.0
 40
0.0
 40
0.0
 40
0.0
 40
0.499999999999997
 40
0.499999999999997
 40
0.7499999999999972
 40
0.7499999999999972
 40
0.8749999999999981
 40
0.8749999999999981
 40
0.937499999999999
 40
0.937499999999999
 40
1.0
 40
1.0
 40
1.0
 40
1.0
 10
90.7141918011374
 20
132.86230105722
 30
0.0
 10
90.7141918011374
 20
132.9759936013478
 30
0.0
 10
90.71004552605945
 20
133.0903137626973
 30
0.0
 10
90.68407993066593
 20
133.2633620531944
 30
0.0
 10
90.67261902528853
 20
133.3225375603562
 30
0.0
 10
90.63830728751417
 20
133.4056606798243
 30
0.0
 10
90.6242825515846
 20
133.433781995925
 30
0.0
 10
90.58825958855076
 20
133.4623978099024
 30
0.0
 10
90.57350507946107
 20
133.4681908578042
 30
0.0
 10
90.54415291831417
 20
133.4665974318672
 30
0.0
 10
90.53081304381007
 20
133.4601010285434
 30
0.0
 10
90.51921491226173
 20
133.4515852823402
 30
0.0
  0
SPLINE
  5
7A
330
1F
100
AcDbEntity
  8
0
  6
Continuous
 62
     7
370
    15
100
AcDbSpline
210
0.0
220
0.0
230
1.0
 70
     8
 71
     3
 72
    12
 73
     8
 74
     0
 42
0.00000001
 43
0.00000001
 12
1.0
 22
0.0
 32
0.0
 13
1.0
 23
0.0
 33
0.0
 40
0.0
 40
0.0
 40
0.0
 40
0.0
 40
0.2499999999999996
 40
0.2499999999999996
 40
0.4999999999999994
 40
0.4999999999999994
 40
1.0
 40
1.0
 40
1.0
 40
1.0
 10
90.51921491226881
 20
133.4515852823311
 30
0.0
 10
90.48901647082818
 20
133.429412550286
 30
0.0
 10
90.45564911549219
 20
133.4103328944088
 30
0.0
 10
90.38249383966229
 20
133.3851598499661
 30
0.0
 10
90.34224114063832
 20
133.3796033135493
 30
0.0
 10
90.22451239736348
 20
133.3905151245361
 30
0.0
 10
90.15405394930454
 20
133.4324508799469
 30
0.0
 10
90.09767951468628
 20
133.4816626623284
 30
0.0
  0
SPLINE
  5
7B
330
1F
100
AcDbEntity
  8
0
  6
Continuous
 62
     7
370
    15
100
AcDbSpline
210
0.0
220
0.0
230
1.0
 70
     8
 71
     3
 72
    12
 73
     8
 74
     0
 42
0.00000001
 43
0.00000001
 12
1.0
 22
0.0
 32
0.0
 13
1.0
 23
0.0
 33
0.0
 40
0.0
 40
0.0
 40
0.0
 40
0.0
 40
0.4999999999999992
 40
0.4999999999999992
 40
0.7499999999999997
 40
0.7499999999999997
 40
1.0
 40
1.0
 40
1.0
 40
1.0
 10
89.59287145757773
 20
134.698014054209
 30
0.0
 10
89.63662180946218
 20
134.4775670692345
 30
0.0
 10
89.68951196058667
 20
134.2620220794289
 30
0.0
 10
89.80112350372835
 20
133.949608002857
 30
0.0
 10
89.84368284763188
 20
133.8475285272411
 30
0.0
 10
89.9486600829693
 20
133.6530885145993
 30
0.0
 10
90.01022732606388
 20
133.5580036155357
 30
0.0
 10
90.09767951468625
 20
133.4816626623285
 30
0.0
  0
SPLINE
  5
7C
330
1F
100
AcDbEntity
  8
0
  6
Continuous
 62
     7
370
    15
100
AcDbSpline
210
0.0
220
0.0
230
1.0
 70
     8
 71
     3
 72
    12
 73
     8
 74
     0
 42
0.00000001
 43
0.00000001
 12
1.0
 22
0.0
 32
0.0
 13
1.0
 23
0.0
 33
0.0
 40
0.0
 40
0.0
 40
0.0
 40
0.0
 40
0.2500000000000008
 40
0.2500000000000008
 40
0.5000000000000016
 40
0.5000000000000016
 40
1.0
 40
1.0
 40
1.0
 40
1.0
 10
90.09767951468613
 20
146.2867141036116
 30
0.0
 10
90.00918610711828
 20
146.2094642235033
 30
0.0
 10
89.9491280663524
 20
146.1161448996141
 30
0.0
 10
89.84327979336983
 20
145.9201118466446
 30
0.0
 10
89.80074627209235
 20
145.8177854884329
 30
0.0
 10
89.68959496526871
 20
145.506441082657
 30
0.0
 10
89.63666410822093
 20
145.291022829479
 30
0.0
 10
89.59287145757773
 20
145.0703627117311
 30
0.0
  0
SPLINE
  5
7D
330
1F
100
AcDbEntity
  8
0
  6
Continuous
 62
     7
370
    15
100
AcDbSpline
210
0.0
220
0.0
230
1.0
 70
     8
 71
     3
 72
    12
 73
     8
 74
     0
 42
0.00000001
 43
0.00000001
 12
1.0
 22
0.0
 32
0.0
 13
1.0
 23
0.0
 33
0.0
 40
0.0
 40
0.0
 40
0.0
 40
0.0
 40
0.4999999999999993
 40
0.4999999999999993
 40
0.7499999999999999
 40
0.7499999999999999
 40
1.0
 40
1.0
 40
1.0
 40
1.0
 10
90.09767951468616
 20
146.2867141036116
 30
0.0
 10
90.15398806298181
 20
146.3358683708555
 30
0.0
 10
90.22426272369991
 20
146.3778256894592
 30
0.0
 10
90.34230063802349
 20
146.3887853669916
 30
0.0
 10
90.38247687887741
 20
146.3832766087443
 30
0.0
 10
90.45643397355536
 20
146.3577193799553
 30
0.0
 10
90.48905036126679
 20
146.338939332116
 30
0.0
 10
90.51921491226254
 20
146.3167914835993
 30
0.0
  0
SPLINE
  5
7E
330
1F
100
AcDbEntity
  8
0
  6
Continuous
 62
     7
370
    15
100
AcDbSpline
210
0.0
220
0.0
230
1.0
 70
     8
 71
     3
 72
    16
 73
    12
 74
     0
 42
0.00000001
 43
0.00000001
 12
1.0
 22
0.0
 32
0.0
 13
1.0
 23
0.0
 33
0.0
 40
0.0
 40
0.0
 40
0.0
 40
0.0
 40
0.0625000000000004
 40
0.0625000000000004
 40
0.1250000000000007
 40
0.1250000000000007
 40
0.2500000000000003
 40
0.2500000000000003
 40
0.5000000000000013
 40
0.5000000000000013
 40
1.0
 40
1.0
 40
1.0
 40
1.0
 10
90.51921491223081
 20
146.3167914835448
 30
0.0
 10
90.53082781207017
 20
146.3082648939495
 30
0.0
 10
90.54417899650265
 20
146.3017646324168
 30
0.0
 10
90.57357883612183
 20
146.3001952352992
 30
0.0
 10
90.58841956067712
 20
146.3060786259299
 30
0.0
 10
90.62425276864568
 20
146.3346262619804
 30
0.0
 10
90.63836597646727
 20
146.3627932812862
 30
0.0
 10
90.67285734768615
 20
146.4465475397081
 30
0.0
 10
90.68394141879654
 20
146.5042609533296
 30
0.0
 10
90.71006423659253
 20
146.6778514899754
 30
0.0
 10
90.7141918011374
 20
146.7928795426174
 30
0.0
 10
90.7141918011374
 20
146.9060757087202
 30
0.0
  0
LINE
  5
7F
330
1F
100
AcDbEntity
  8
0
  6
Continuous
 62
     7
370
    15
100
AcDbLine
 10
90.7141918011
 20
162.4240086618
 30
0.0
 11
90.7141918011
 21
146.9060757087
 31
0.0
  0
SPLINE
  5
80
330
1F
100
AcDbEntity
  8
0
  6
Continuous
 62
     7
370
    15
100
AcDbSpline
210
0.0
220
0.0
230
1.0
 70
     8
 71
     3
 72
    16
 73
    12
 74
     0
 42
0.00000001
 43
0.00000001
 12
1.0
 22
0.0
 32
0.0
 13
1.0
 23
0.0
 33
0.0
 40
0.0
 40
0.0
 40
0.0
 40
0.0
 40
0.5000000000000004
 40
0.5000000000000004
 40
0.7499999999999987
 40
0.7499999999999987
 40
0.8749999999999993
 40
0.8749999999999993
 40
0.9374999999999997
 40
0.9374999999999997
 40
1.0
 40
1.0
 40
1.0
 40
1.0
 10
90.7141918011374
 20
161.9437828712114
 30
0.0
 10
90.7141918011374
 20
161.9191117151684
 30
0.0
 10
90.71002610267742
 20
161.8915298837772
 30
0.0
 10
90.68376777435248
 20
161.8411870129538
 30
0.0
 10
90.67226399261487
 20
161.8228975148919
 30
0.0
 10
90.63813323326836
 20
161.7917424838549
 30
0.0
 10
90.62371134659763
 20
161.7801031086431
 30
0.0
 10
90.5881443781598
 20
161.7632210827121
 30
0.0
 10
90.57319260986515
 20
161.7578319789044
 30
0.0
 10
90.5441887915054
 20
161.7512114829599
 30
0.0
 10
90.53077343749617
 20
161.7498588947535
 30
0.0
 10
90.51921491225956
 20
161.7495592708819
 30
0.0
  0
SPLINE
  5
81
330
1F
100
AcDbEntity
  8
0
  6
Continuous
 62
     7
370
    15
100
AcDbSpline
210
0.0
220
0.0
230
1.0
 70
     8
 71
     3
 72
    12
 73
     8
 74
     0
 42
0.00000001
 43
0.00000001
 12
1.0
 22
0.0
 32
0.0
 13
1.0
 23
0.0
 33
0.0
 40
0.0
 40
0.0
 40
0.0
 40
0.0
 40
0.2500000000000002
 40
0.2500000000000002
 40
0.5000000000000003
 40
0.5000000000000003
 40
1.0
 40
1.0
 40
1.0
 40
1.0
 10
90.51921491226881
 20
161.7495592708836
 30
0.0
 10
90.48902713571916
 20
161.7487767334661
 30
0.0
 10
90.45567333162747
 20
161.7478834016475
 30
0.0
 10
90.38254712843151
 20
161.7459560928439
 30
0.0
 10
90.34231192540733
 20
161.7449165616313
 30
0.0
 10
90.22462029527425
 20
161.741998678284
 30
0.0
 10
90.15423962211422
 20
161.7404030722138
 30
0.0
 10
90.09767951468362
 20
161.7389820854459
 30
0.0
  0
SPLINE
  5
82
330
1F
100
AcDbEntity
  8
0
  6
Continuous
 62
     7
370
    15
100
AcDbSpline
210
0.0
220
0.0
230
1.0
 70
     8
 71
     3
 72
    16
 73
    12
 74
     0
 42
0.00000001
 43
0.00000001
 12
1.0
 22
0.0
 32
0.0
 13
1.0
 23
0.0
 33
0.0
 40
0.0
 40
0.0
 40
0.0
 40
0.0
 40
0.2500000000000001
 40
0.2500000000000001
 40
0.375
 40
0.375
 40
0.5
 40
0.5
 40
0.75
 40
0.75
 40
1.0
 40
1.0
 40
1.0
 40
1.0
 10
89.59287145757773
 20
145.0703627117311
 30
0.0
 10
89.43163898009328
 20
144.2579529364843
 30
0.0
 10
89.31115914045364
 20
143.4178746420996
 30
0.0
 10
89.18877862314032
 20
142.1165795927368
 30
0.0
 10
89.15780096274287
 20
141.675898557152
 30
0.0
 10
89.11618722511491
 20
140.7800589162209
 30
0.0
 10
89.1059513121821
 20
140.3334007850184
 30
0.0
 10
89.10576291512598
 20
138.9980908278785
 30
0.0
 10
89.1459076177636
 20
138.113595454571
 30
0.0
 10
89.31006137270317
 20
136.356345566545
 30
0.0
 10
89.43161302311273
 20
135.5105546201319
 30
0.0
 10
89.59287145757773
 20
134.698014054209
 30
0.0
  0
LINE
  5
83
330
1F
100
AcDbEntity
  8
0
  6
Continuous
 62
     7
370
    15
100
AcDbLine
 10
88.7141918011
 20
146.3693666447
 30
0.0
 11
88.7141918011
 21
133.3990101213
 31
0.0
  0
LINE
  5
84
330
1F
100
AcDbEntity
  8
0
  6
Continuous
 62
     7
370
    15
100
AcDbLine
 10
54.4141918011
 20
145.9384989505
 30
0.0
 11
54.4141918011
 21
133.8298778154
 31
0.0
  0
LINE
  5
85
330
1F
100
AcDbEntity
  8
0
  6
Continuous
 62
     7
370
    15
100
AcDbLine
 10
52.9141918011
 20
145.5054862486
 30
0.0
 11
52.9141918011
 21
134.2628905173
 31
0.0
  0
LINE
  5
86
330
1F
100
AcDbEntity
  8
0
  6
Continuous
 62
     7
370
    15
100
AcDbLine
 10
54.4141918011
 20
145.9384989505
 30
0.0
 11
54.4141918011
 21
161.0425517793
 31
0.0
  0
LINE
  5
87
330
1F
100
AcDbEntity
  8
0
  6
Continuous
 62
     7
370
    15
100
AcDbLine
 10
54.4141918011
 20
161.0425517793
 30
0.0
 11
88.7141918011
 21
161.9042871675
 31
0.0
  0
LINE
  5
88
330
1F
100
AcDbEntity
  8
0
  6
Continuous
 62
     7
370
    15
100
AcDbLine
 10
88.7141918011
 20
146.3693666447
 30
0.0
 11
88.7141918011
 21
161.9042871675
 31
0.0
  0
ARC
  5
89
330
1F
100
AcDbEntity
  8
0
  6
Continuous
 62
     7
370
    15
100
AcDbCircle
 10
88.9141287121
 20
161.9093102787
 30
0.0
 40
0.1999999999999778
100
AcDbArc
 50
181.4391666667
 51
271.4391666667
  0
LINE
  5
8A
330
1F
100
AcDbEntity
  8
0
  6
Continuous
 62
     7
370
    15
100
AcDbLine
 10
54.4141918011
 20
118.7258249867
 30
0.0
 11
54.4141918011
 21
133.8298778154
 31
0.0
  0
LINE
  5
8B
330
1F
100
AcDbEntity
  8
0
  6
Continuous
 62
     7
370
    15
100
AcDbLine
 10
88.7141918011
 20
117.8640895984
 30
0.0
 11
88.7141918011
 21
133.3990101213
 31
0.0
  0
LINE
  5
8C
330
1F
100
AcDbEntity
  8
0
  6
Continuous
 62
     7
370
    15
100
AcDbLine
 10
54.4141918011
 20
118.7258249867
 30
0.0
 11
88.7141918011
 21
117.8640895984
 31
0.0
  0
ARC
  5
8D
330
1F
100
AcDbEntity
  8
0
  6
Continuous
 62
     7
370
    15
100
AcDbCircle
 10
88.9141287121
 20
117.8590664873
 30
0.0
 40
0.2000000000000059
100
AcDbArc
 50
88.5608333333
 51
178.5608333333
  0
LINE
  5
8E
330
1F
100
AcDbEntity
  8
0
  6
Continuous
 62
     7
370
    15
100
AcDbLine
 10
88.9191518232
 20
161.7093733677
 30
0.0
 11
90.0976795147
 21
161.7389820854
 31
0.0
  0
LINE
  5
8F
330
1F
100
AcDbEntity
  8
0
  6
Continuous
 62
     7
370
    15
100
AcDbLine
 10
88.9191518232
 20
118.0590033982
 30
0.0
 11
90.0976795147
 21
118.0293946805
 31
0.0
  0
LINE
  5
90
330
1F
100
AcDbEntity
  8
0
  6
Continuous
 62
     7
370
    15
100
AcDbLine
 10
52.9141918011
 20
119.5918503905
 30
0.0
 11
54.4141918011
 21
118.7258249867
 31
0.0
  0
LINE
  5
91
330
1F
100
AcDbEntity
  8
0
  6
Continuous
 62
     7
370
    15
100
AcDbLine
 10
52.9141918011
 20
119.5918503905
 30
0.0
 11
52.9141918011
 21
134.2628905173
 31
0.0
  0
LINE
  5
92
330
1F
100
AcDbEntity
  8
0
  6
Continuous
 62
     7
370
    15
100
AcDbLine
 10
52.9141918011
 20
160.1765263755
 30
0.0
 11
54.4141918011
 21
161.0425517793
 31
0.0
  0
LINE
  5
93
330
1F
100
AcDbEntity
  8
0
  6
Continuous
 62
     7
370
    15
100
AcDbLine
 10
52.9141918011
 20
145.5054862486
 30
0.0
 11
52.9141918011
 21
160.1765263755
 31
0.0
  0
ELLIPSE
  5
94
330
1F
100
AcDbEntity
  8
0
  6
Continuous
 62
     7
370
    15
100
AcDbEllipse
 10
218.2450132412
 20
139.884188383
 30
0.0
 11
-0.3220561513869313
 21
15.99976859320063
 31
0.0
210
0.0
220
0.0
230
1.0
 40
0.2671959542
 41
0.1426643238695818
 42
2.848545425119144
  0
ELLIPSE
  5
95
330
1F
100
AcDbEntity
  8
0
  6
Continuous
 62
     7
370
    15
100
AcDbEllipse
 10
215.8888310262
 20
146.1268295497
 30
0.0
 11
0.09033694274967274
 21
2.324516216905351
 31
0.0
210
0.0
220
0.0
230
1.0
 40
0.2588465783
 41
0.0
 42
6.283185307179586
  0
LINE
  5
96
330
1F
100
AcDbEntity
  8
0
  6
Continuous
 62
     7
370
    15
100
AcDbLine
 10
220.2161727651
 20
155.8837468924
 30
0.0
 11
224.9141918011
 21
155.8837468924
 31
0.0
  0
SPLINE
  5
97
330
1F
100
AcDbEntity
  8
0
  6
Continuous
 62
     7
370
    15
100
AcDbSpline
210
0.0
220
0.0
230
1.0
 70
     8
 71
     3
 72
    14
 73
    10
 74
     0
 42
0.00000001
 43
0.00000001
 12
1.0
 22
0.0
 32
0.0
 13
1.0
 23
0.0
 33
0.0
 40
0.0
 40
0.0
 40
0.0
 40
0.0
 40
0.25
 40
0.25
 40
0.5
 40
0.5
 40
0.75
 40
0.75
 40
1.0
 40
1.0
 40
1.0
 40
1.0
 10
217.3183952862071
 20
155.7091754686656
 30
0.0
 10
217.4024279458807
 20
155.7565542041935
 30
0.0
 10
217.5345261621488
 20
155.7911876622871
 30
0.0
 10
217.8978094355242
 20
155.8421192059423
 30
0.0
 10
218.1200983355122
 20
155.8571840853431
 30
0.0
 10
218.6427987483802
 20
155.8762025508444
 30
0.0
 10
218.9323685875166
 20
155.879837769921
 30
0.0
 10
219.5582847922602
 20
155.8836095693676
 30
0.0
 10
219.8840944982716
 20
155.8837468924007
 30
0.0
 10
220.2161727650742
 20
155.8837468924007
 30
0.0
  0
SPLINE
  5
98
330
1F
100
AcDbEntity
  8
0
  6
Continuous
 62
     7
370
    15
100
AcDbSpline
210
0.0
220
0.0
230
1.0
 70
     8
 71
     3
 72
    14
 73
    10
 74
     0
 42
0.00000001
 43
0.00000001
 12
1.0
 22
0.0
 32
0.0
 13
1.0
 23
0.0
 33
0.0
 40
0.0
 40
0.0
 40
0.0
 40
0.0
 40
0.2499999999999999
 40
0.2499999999999999
 40
0.4999999999999999
 40
0.4999999999999999
 40
0.7499999999999998
 40
0.7499999999999998
 40
1.0
 40
1.0
 40
1.0
 40
1.0
 10
220.2161727650743
 20
124.0568784769784
 30
0.0
 10
219.8840971908542
 20
124.0568784769784
 30
0.0
 10
219.5611761855952
 20
124.0644942414079
 30
0.0
 10
218.9336010620472
 20
124.0981320452916
 30
0.0
 10
218.644902990573
 20
124.1234103119131
 30
0.0
 10
218.1216695137955
 20
124.1987172348514
 30
0.0
 10
217.8988301128875
 20
124.2472582620925
 30
0.0
 10
217.5358617912938
 20
124.3742281832644
 30
0.0
 10
217.4024303239753
 20
124.4505283699091
 30
0.0
 10
217.3183952862071
 20
124.5416629196332
 30
0.0
  0
LINE
  5
99
330
1F
100
AcDbEntity
  8
0
  6
Continuous
 62
     7
370
    15
100
AcDbLine
 10
224.9141918011
 20
124.056878477
 30
0.0
 11
220.2161727651
 21
124.056878477
 31
0.0
  0
LINE
  5
9A
330
1F
100
AcDbEntity
  8
0
  6
Continuous
 62
     7
370
    15
100
AcDbLine
 10
224.9141918011
 20
124.056878477
 30
0.0
 11
224.9141918011
 21
123.884188383
 31
0.0
  0
LINE
  5
9B
330
1F
100
AcDbEntity
  8
0
  6
Continuous
 62
     7
370
    15
100
AcDbLine
 10
224.9141918011
 20
155.884188383
 30
0.0
 11
224.9141918011
 21
155.8837468924
 31
0.0
  0
LINE
  5
9C
330
1F
100
AcDbEntity
  8
0
  6
Continuous
 62
     7
370
    15
100
AcDbLine
 10
225.4141918011
 20
123.5566501945
 30
0.0
 11
224.9141918011
 21
124.056878477
 31
0.0
  0
LINE
  5
9D
330
1F
100
AcDbEntity
  8
0
  6
Continuous
 62
     7
370
    15
100
AcDbLine
 10
224.9141918011
 20
155.8837468924
 30
0.0
 11
225.7350711472
 21
156.7049555402
 31
0.0
  0
LINE
  5
9E
330
1F
100
AcDbEntity
  8
0
  6
Continuous
 62
     7
370
    15
100
AcDbLine
 10
230.530950136
 20
156.7049555402
 30
0.0
 11
225.7350711472
 21
156.7049555402
 31
0.0
  0
ELLIPSE
  5
9F
330
1F
100
AcDbEntity
  8
0
  6
Continuous
 62
     7
370
    15
100
AcDbEllipse
 10
230.530950136
 20
182.8364006764
 30
0.0
 11
0.0
 21
26.13144513619372
 31
0.0
210
0.0
220
0.0
230
1.0
 40
0.9949698482
 41
3.141592653589792
 42
3.44488615828274
  0
LINE
  5
A0
330
1F
100
AcDbEntity
  8
0
  6
Continuous
 62
     7
370
    15
100
AcDbLine
 10
239.9828739101
 20
158.4281447723
 30
0.0
 11
238.2962402246
 21
157.8976466363
 31
0.0
  0
LINE
  5
A1
330
1F
100
AcDbEntity
  8
0
  6
Continuous
 62
     7
370
    15
100
AcDbLine
 10
237.6599955511
 20
151.0875251203
 30
0.0
 11
235.459934865
 21
150.3955384116
 31
0.0
  0
ARC
  5
A2
330
1F
100
AcDbEntity
  8
0
  6
Continuous
 62
     7
370
    15
100
AcDbCircle
 10
235.9136183701
 20
148.9520713697
 30
0.0
 40
1.513084870018678
100
AcDbArc
 50
107.4479988746
 51
287.6322327363
  0
LINE
  5
A3
330
1F
100
AcDbEntity
  8
0
  6
Continuous
 62
     7
370
    15
100
AcDbLine
 10
236.371940972
 20
147.5100706011
 30
0.0
 11
237.1654822799
 21
147.7596637334
 31
0.0
  0
LINE
  5
A4
330
1F
100
AcDbEntity
  8
0
  6
Continuous
 62
     7
370
    15
100
AcDbLine
 10
247.4843766907
 20
151.0052731962
 30
0.0
 11
238.808725652
 21
123.5566501945
 31
0.0
  0
LINE
  5
A5
330
1F
100
AcDbEntity
  8
0
  6
Continuous
 62
     7
370
    15
100
AcDbLine
 10
225.4141918011
 20
123.5566501945
 30
0.0
 11
238.808725652
 21
123.5566501945
 31
0.0
  0
LINE
  5
A6
330
1F
100
AcDbEntity
  8
0
  6
Continuous
 62
     7
370
    15
100
AcDbLine
 10
225.4141918011
 20
123.384188383
 30
0.0
 11
225.4141918011
 21
123.5566501945
 31
0.0
  0
ELLIPSE
  5
A7
330
1F
100
AcDbEntity
  8
0
  6
Continuous
 62
     7
370
    15
100
AcDbEllipse
 10
243.8376190847
 20
139.884188383
 30
0.0
 11
5.390524936199228
 21
16.49183944377626
 31
0.0
210
0.0
220
0.0
230
1.0
 40
0.0962569477
 41
3.173044837569622
 42
3.31775482418488
  0
ARC
  5
A8
330
1F
100
AcDbEntity
  8
0
  6
Continuous
 62
     7
370
    15
100
AcDbCircle
 10
235.9140259201
 20
148.8008286355
 30
0.0
 40
1.247232315809106
100
AcDbArc
 50
107.4479988746
 51
287.6322327363
  0
LINE
  5
A9
330
1F
100
AcDbEntity
  8
0
  6
Continuous
 62
     7
370
    15
100
AcDbLine
 10
236.2918201678
 20
147.6121907781
 30
0.0
 11
236.9364032641
 21
147.8149319743
 31
0.0
  0
LINE
  5
AA
330
1F
100
AcDbEntity
  8
0
  6
Continuous
 62
     7
370
    15
100
AcDbLine
 10
235.5400556691
 20
149.9906751386
 30
0.0
 11
237.5090609497
 21
150.6099878204
 31
0.0
  0
ARC
  5
AB
330
1F
100
AcDbEntity
  8
0
  6
Continuous
 62
     7
370
    15
100
AcDbCircle
 10
235.9129911045
 20
148.6960255715
 30
0.0
 40
1.247083075662372
100
AcDbArc
 50
107.4003237622
 51
177.5601083113
  0
LINE
  5
AC
330
1F
100
AcDbEntity
  8
0
  6
Continuous
 62
     7
370
    15
100
AcDbLine
 10
237.472338489
 20
150.4938027671
 30
0.0
 11
235.5400556691
 21
149.8860404279
 31
0.0
  0
CIRCLE
  5
AD
330
1F
100
AcDbEntity
  8
0
  6
Continuous
 62
     7
370
    15
100
AcDbCircle
 10
243.7406083006
 20
154.7155418912
 30
0.0
 40
2.622746779247302
  0
CIRCLE
  5
AE
330
1F
100
AcDbEntity
  8
0
  6
Continuous
 62
     7
370
    15
100
AcDbCircle
 10
243.7411678639
 20
154.7333618611
 30
0.0
 40
1.798415078017292
  0
ARC
  5
AF
330
1F
100
AcDbEntity
  8
0
  6
Continuous
 62
     7
370
    15
100
AcDbCircle
 10
243.746579842
 20
154.7318917781
 30
0.0
 40
1.671499009027279
100
AcDbArc
 50
293.3149799654
 51
351.9503208343
  0
ARC
  5
B0
330
1F
100
AcDbEntity
  8
0
  6
Continuous
 62
     7
370
    15
100
AcDbCircle
 10
243.7488301577
 20
154.7301246812
 30
0.0
 40
1.669024032652558
100
AcDbArc
 50
351.9995680764
 51
52.2046175961
  0
ARC
  5
B1
330
1F
100
AcDbEntity
  8
0
  6
Continuous
 62
     7
370
    15
100
AcDbCircle
 10
243.7428724954
 20
154.7230781399
 30
0.0
 40
1.678243399579462
100
AcDbArc
 50
52.1913252363
 51
110.6635337803
  0
LINE
  5
B2
330
1F
100
AcDbEntity
  8
0
  6
Continuous
 62
     7
370
    15
100
AcDbLine
 10
243.0719668597
 20
156.2613881156
 30
0.0
 11
243.1506549654
 21
156.2933581485
 31
0.0
  0
ARC
  5
B3
330
1F
100
AcDbEntity
  8
0
  6
Continuous
 62
     7
370
    15
100
AcDbCircle
 10
243.7393453596
 20
154.7287363995
 30
0.0
 40
1.67165048531468
100
AcDbArc
 50
113.5302556193
 51
170.0044536116
  0
LINE
  5
B4
330
1F
100
AcDbEntity
  8
0
  6
Continuous
 62
     7
370
    15
100
AcDbLine
 10
242.0766152484
 20
154.9005033232
 30
0.0
 11
242.0930684428
 21
155.0188874954
 31
0.0
  0
ARC
  5
B5
330
1F
100
AcDbEntity
  8
0
  6
Continuous
 62
     7
370
    15
100
AcDbCircle
 10
243.7369136704
 20
154.730651943
 30
0.0
 40
1.668963852616264
100
AcDbArc
 50
174.1588638666
 51
230.0453218058
  0
LINE
  5
B6
330
1F
100
AcDbEntity
  8
0
  6
Continuous
 62
     7
370
    15
100
AcDbLine
 10
242.7595465496
 20
153.3777218212
 30
0.0
 11
242.6651360332
 21
153.4513032659
 31
0.0
  0
ARC
  5
B7
330
1F
100
AcDbEntity
  8
0
  6
Continuous
 62
     7
370
    15
100
AcDbCircle
 10
243.742945298
 20
154.7377661143
 30
0.0
 40
1.678330592437828
100
AcDbArc
 50
234.1306715136
 51
290.4496812146
  0
LINE
  5
B8
330
1F
100
AcDbEntity
  8
0
  6
Continuous
 62
     7
370
    15
100
AcDbLine
 10
244.4081351079
 20
153.1968824728
 30
0.0
 11
244.3293282179
 21
153.1652049394
 31
0.0
  0
SPLINE
  5
B9
330
1F
100
AcDbEntity
  8
0
  6
Continuous
 62
     7
370
    15
100
AcDbSpline
210
0.0
220
0.0
230
1.0
 70
     8
 71
     3
 72
    15
 73
    11
 74
     0
 42
0.00000001
 43
0.00000001
 12
1.0
 22
0.0
 32
0.0
 13
1.0
 23
0.0
 33
0.0
 40
0.0
 40
0.0
 40
0.0
 40
0.0
 40
0.1312591122055517
 40
0.2657763812962046
 40
0.4074407484446816
 40
0.5531718722009767
 40
0.6956281468100508
 40
0.8421322393883413
 40
0.9207435991583777
 40
1.0
 40
1.0
 40
1.0
 40
1.0
 10
242.7595465495648
 20
153.3777218211968
 30
0.0
 10
242.7750407306472
 20
153.3704253472657
 30
0.0
 10
242.8064136944747
 20
153.3556512839261
 30
0.0
 10
242.8581393693488
 20
153.3426234768816
 30
0.0
 10
242.9128758891182
 20
153.3372172981579
 30
0.0
 10
242.9686986766249
 20
153.3411169879143
 30
0.0
 10
243.0235062534471
 20
153.3541926007916
 30
0.0
 10
243.0671616091621
 20
153.3728000826769
 30
0.0
 10
243.1009327583165
 20
153.3924104361633
 30
0.0
 10
243.1171019855341
 20
153.4044738713509
 30
0.0
 10
243.1252196325362
 20
153.4105302342907
 30
0.0
  0
SPLINE
  5
BA
330
1F
100
AcDbEntity
  8
0
  6
Continuous
 62
     7
370
    15
100
AcDbSpline
210
0.0
220
0.0
230
1.0
 70
     8
 71
     3
 72
    17
 73
    13
 74
     0
 42
0.00000001
 43
0.00000001
 12
1.0
 22
0.0
 32
0.0
 13
1.0
 23
0.0
 33
0.0
 40
0.0
 40
0.0
 40
0.0
 40
0.0
 40
0.1014616601531006
 40
0.2058001529899773
 40
0.3074182589265077
 40
0.4120991392995115
 40
0.5116804359412234
 40
0.6142399242992924
 40
0.7124241586648881
 40
0.8133717292759194
 40
0.9056081252644635
 40
1.0
 40
1.0
 40
1.0
 40
1.0
 10
243.1252196325362
 20
153.4105302342907
 30
0.0
 10
243.1512316690493
 20
153.4290960834686
 30
0.0
 10
243.2039932844804
 20
153.4667541958573
 30
0.0
 10
243.2938645009098
 20
153.5058167785213
 30
0.0
 10
243.3898393231852
 20
153.5308608019109
 30
0.0
 10
243.4877732550069
 20
153.5393543038152
 30
0.0
 10
243.5861869629313
 20
153.5317633059185
 30
0.0
 10
243.6799973540438
 20
153.5088196670954
 30
0.0
 10
243.768974998607
 20
153.4711052927492
 30
0.0
 10
243.8473355578132
 20
153.4214872972049
 30
0.0
 10
243.9164656399715
 20
153.3619925475122
 30
0.0
 10
243.9527634680618
 20
153.3159896946371
 30
0.0
 10
243.9711219945004
 20
153.2927226113103
 30
0.0
  0
SPLINE
  5
BB
330
1F
100
AcDbEntity
  8
0
  6
Continuous
 62
     7
370
    15
100
AcDbSpline
210
0.0
220
0.0
230
1.0
 70
     8
 71
     3
 72
    15
 73
    11
 74
     0
 42
0.00000001
 43
0.00000001
 12
1.0
 22
0.0
 32
0.0
 13
1.0
 23
0.0
 33
0.0
 40
0.0
 40
0.0
 40
0.0
 40
0.0
 40
0.1381849206143917
 40
0.2803243294015279
 40
0.4188661881044962
 40
0.561490532215489
 40
0.698871259813583
 40
0.8403118730471254
 40
0.9197724718891191
 40
0.9999999999999999
 40
0.9999999999999999
 40
0.9999999999999999
 40
0.9999999999999999
 10
243.9711219945003
 20
153.2927226113103
 30
0.0
 10
243.9825757208086
 20
153.2783258757089
 30
0.0
 10
244.0058109488801
 20
153.249120407883
 30
0.0
 10
244.0494521621274
 20
153.2134530726413
 30
0.0
 10
244.0986946342552
 20
153.18476585207
 30
0.0
 10
244.1518442786985
 20
153.1650412338353
 30
0.0
 10
244.2080704045091
 20
153.1543230957969
 30
0.0
 10
244.2568640997379
 20
153.1534250943571
 30
0.0
 10
244.2975767064562
 20
153.1578181463082
 30
0.0
 10
244.3187105478193
 20
153.1627348040254
 30
0.0
 10
244.3293282179268
 20
153.1652049394246
 30
0.0
  0
SPLINE
  5
BC
330
1F
100
AcDbEntity
  8
0
  6
Continuous
 62
     7
370
    15
100
AcDbSpline
210
0.0
220
0.0
230
1.0
 70
     8
 71
     3
 72
    12
 73
     8
 74
     0
 42
0.00000001
 43
0.00000001
 12
1.0
 22
0.0
 32
0.0
 13
1.0
 23
0.0
 33
0.0
 40
0.0
 40
0.0
 40
0.0
 40
0.0
 40
0.2058585741213926
 40
0.412102696145705
 40
0.6141937841967285
 40
0.8133180967416271
 40
0.9999999999999999
 40
0.9999999999999999
 40
0.9999999999999999
 40
0.9999999999999999
 10
244.5755857442148
 20
153.5369873767029
 30
0.0
 10
244.5718407128035
 20
153.6016135386604
 30
0.0
 10
244.5643436359955
 20
153.7309868994637
 30
0.0
 10
244.636048206464
 20
153.9176502932239
 30
0.0
 10
244.7601234634205
 20
154.069504560444
 30
0.0
 10
244.9217243292486
 20
154.1744057261392
 30
0.0
 10
245.0424033645465
 20
154.197627655862
 30
0.0
 10
245.100796907911
 20
154.2088641623266
 30
0.0
  0
SPLINE
  5
BD
330
1F
100
AcDbEntity
  8
0
  6
Continuous
 62
     7
370
    15
100
AcDbSpline
210
0.0
220
0.0
230
1.0
 70
     8
 71
     3
 72
    11
 73
     7
 74
     0
 42
0.00000001
 43
0.00000001
 12
1.0
 22
0.0
 32
0.0
 13
1.0
 23
0.0
 33
0.0
 40
0.0
 40
0.0
 40
0.0
 40
0.0
 40
0.2524782265335093
 40
0.506890241793308
 40
0.7591786113116769
 40
1.0
 40
1.0
 40
1.0
 40
1.0
 10
245.100796907911
 20
154.2088641623266
 30
0.0
 10
245.137833933175
 20
154.2163454537937
 30
0.0
 10
245.2121916587862
 20
154.2313653376576
 30
0.0
 10
245.3065285815964
 20
154.2990572481011
 30
0.0
 10
245.3759514381987
 20
154.3902038815284
 30
0.0
 10
245.3931905156761
 20
154.462514454967
 30
0.0
 10
245.4016096120511
 20
154.4978289715072
 30
0.0
  0
SPLINE
  5
BE
330
1F
100
AcDbEntity
  8
0
  6
Continuous
 62
     7
370
    15
100
AcDbSpline
210
0.0
220
0.0
230
1.0
 70
     8
 71
     3
 72
    11
 73
     7
 74
     0
 42
0.00000001
 43
0.00000001
 12
1.0
 22
0.0
 32
0.0
 13
1.0
 23
0.0
 33
0.0
 40
0.0
 40
0.0
 40
0.0
 40
0.0
 40
0.2423611237744902
 40
0.5166847928458079
 40
0.7923341374633308
 40
1.0
 40
1.0
 40
1.0
 40
1.0
 10
244.4081351079103
 20
153.1968824727694
 30
0.0
 10
244.4355697122531
 20
153.2153913464857
 30
0.0
 10
244.4940569920647
 20
153.2548500411518
 30
0.0
 10
244.5541578356798
 20
153.3459564494107
 30
0.0
 10
244.5830882665299
 20
153.4452405789278
 30
0.0
 10
244.5778405350276
 20
153.50941400497
 30
0.0
 10
244.5755857442148
 20
153.5369873767029
 30
0.0
  0
LINE
  5
BF
330
1F
100
AcDbEntity
  8
0
  6
Continuous
 62
     7
370
    15
100
AcDbLine
 10
242.5858385208
 20
153.6366674441
 30
0.0
 11
242.6109197554
 21
153.7156101267
 31
0.0
  0
SPLINE
  5
C0
330
1F
100
AcDbEntity
  8
0
  6
Continuous
 62
     7
370
    15
100
AcDbSpline
210
0.0
220
0.0
230
1.0
 70
     8
 71
     3
 72
    11
 73
     7
 74
     0
 42
0.00000001
 43
0.00000001
 12
1.0
 22
0.0
 32
0.0
 13
1.0
 23
0.0
 33
0.0
 40
0.0
 40
0.0
 40
0.0
 40
0.0
 40
0.2928993220619691
 40
0.5864344719079598
 40
0.8775178868032869
 40
1.0
 40
1.0
 40
1.0
 40
1.0
 10
242.6109197553826
 20
153.8106036312477
 30
0.0
 10
242.5985093709106
 20
153.7752713081111
 30
0.0
 10
242.5736616614219
 20
153.7045299621973
 30
0.0
 10
242.5846332897867
 20
153.5901073338217
 30
0.0
 10
242.6211460170893
 20
153.5048896715683
 30
0.0
 10
242.6550847061594
 20
153.463547282472
 30
0.0
 10
242.6651360331537
 20
153.4513032658962
 30
0.0
  0
SPLINE
  5
C1
330
1F
100
AcDbEntity
  8
0
  6
Continuous
 62
     7
370
    15
100
AcDbSpline
210
0.0
220
0.0
230
1.0
 70
     8
 71
     3
 72
    11
 73
     7
 74
     0
 42
0.00000001
 43
0.00000001
 12
1.0
 22
0.0
 32
0.0
 13
1.0
 23
0.0
 33
0.0
 40
0.0
 40
0.0
 40
0.0
 40
0.0
 40
0.2669010467950201
 40
0.5546143410792627
 40
0.8439070439786329
 40
1.0
 40
1.0
 40
1.0
 40
1.0
 10
242.0766152484244
 20
154.9005033232366
 30
0.0
 10
242.0812220071525
 20
154.8659284313035
 30
0.0
 10
242.0907947476388
 20
154.7940825875438
 30
0.0
 10
242.1481327441012
 20
154.6977284830373
 30
0.0
 10
242.219779054164
 20
154.6327782816845
 30
0.0
 10
242.2719458270347
 20
154.6087197765332
 30
0.0
 10
242.2902285571146
 20
154.6002880654726
 30
0.0
  0
SPLINE
  5
C2
330
1F
100
AcDbEntity
  8
0
  6
Continuous
 62
     7
370
    15
100
AcDbSpline
210
0.0
220
0.0
230
1.0
 70
     8
 71
     3
 72
    12
 73
     8
 74
     0
 42
0.00000001
 43
0.00000001
 12
1.0
 22
0.0
 32
0.0
 13
1.0
 23
0.0
 33
0.0
 40
0.0
 40
0.0
 40
0.0
 40
0.0
 40
0.2058401281338196
 40
0.4120619935509951
 40
0.6141387330969421
 40
0.8132772113524585
 40
1.0
 40
1.0
 40
1.0
 40
1.0
 10
242.2902285571146
 20
154.6002880654726
 30
0.0
 10
242.3487941307295
 20
154.5701907067412
 30
0.0
 10
242.4660338897407
 20
154.5099401727375
 30
0.0
 10
242.5931825240918
 20
154.353032657937
 30
0.0
 10
242.662916466012
 20
154.1700479164648
 30
0.0
 10
242.6721975538235
 20
153.9797122151288
 30
0.0
 10
242.6309027802261
 20
153.8657508643228
 30
0.0
 10
242.6109197553826
 20
153.8106036312477
 30
0.0
  0
ARC
  5
C3
330
1F
100
AcDbEntity
  8
0
  6
Continuous
 62
     7
370
    15
100
AcDbCircle
 10
242.080986837
 20
153.9600271063
 30
0.0
 40
0.583582520152568
100
AcDbArc
 50
335.2397859018
 51
359.9988219146
  0
ARC
  5
C4
330
1F
100
AcDbEntity
  8
0
  6
Continuous
 62
     7
370
    15
100
AcDbCircle
 10
242.4108442676
 20
154.8164580802
 30
0.0
 40
0.3345702481823888
100
AcDbArc
 50
95.2221613512
 51
172.4997993097
  0
SPLINE
  5
C5
330
1F
100
AcDbEntity
  8
0
  6
Continuous
 62
     7
370
    15
100
AcDbSpline
210
0.0
220
0.0
230
1.0
 70
     8
 71
     3
 72
    11
 73
     7
 74
     0
 42
0.00000001
 43
0.00000001
 12
1.0
 22
0.0
 32
0.0
 13
1.0
 23
0.0
 33
0.0
 40
0.0
 40
0.0
 40
0.0
 40
0.0
 40
0.2908641666076942
 40
0.5839560789892041
 40
0.8745988053617594
 40
1.0
 40
1.0
 40
1.0
 40
1.0
 10
242.3803924296755
 20
155.2446262477235
 30
0.0
 10
242.3433676458837
 20
155.237936780134
 30
0.0
 10
242.2690345033016
 20
155.224506609929
 30
0.0
 10
242.1744835190596
 20
155.1585448064068
 30
0.0
 10
242.1179633220356
 20
155.0843926964322
 30
0.0
 10
242.0988342120819
 20
155.034058803149
 30
0.0
 10
242.0930684428459
 20
155.0188874954343
 30
0.0
  0
ARC
  5
C6
330
1F
100
AcDbEntity
  8
0
  6
Continuous
 62
     7
370
    15
100
AcDbCircle
 10
245.0706326924
 20
154.4464059203
 30
0.0
 40
0.3342701703904259
100
AcDbArc
 50
9.3671343379
 51
68.9014893222
  0
SPLINE
  5
C7
330
1F
100
AcDbEntity
  8
0
  6
Continuous
 62
     7
370
    15
100
AcDbSpline
210
0.0
220
0.0
230
1.0
 70
     8
 71
     3
 72
    12
 73
     8
 74
     0
 42
0.00000001
 43
0.00000001
 12
1.0
 22
0.0
 32
0.0
 13
1.0
 23
0.0
 33
0.0
 40
0.0
 40
0.0
 40
0.0
 40
0.0
 40
0.0091681771491443
 40
0.2573268097002526
 40
0.5054934687429457
 40
0.7549925359452666
 40
1.0
 40
1.0
 40
1.0
 40
1.0
 10
245.4016096120511
 20
154.4978289715072
 30
0.0
 10
245.4017951863337
 20
154.4991856913474
 30
0.0
 10
245.4070037722185
 20
154.537265277121
 30
0.0
 10
245.4038926590136
 20
154.6143776836058
 30
0.0
 10
245.3622371430636
 20
154.7185889895296
 30
0.0
 10
245.2897152638182
 20
154.8050162302532
 30
0.0
 10
245.2236790057957
 20
154.837237849503
 30
0.0
 10
245.1909607804719
 20
154.8532023246336
 30
0.0
  0
SPLINE
  5
C8
330
1F
100
AcDbEntity
  8
0
  6
Continuous
 62
     7
370
    15
100
AcDbSpline
210
0.0
220
0.0
230
1.0
 70
     8
 71
     3
 72
    11
 73
     7
 74
     0
 42
0.00000001
 43
0.00000001
 12
1.0
 22
0.0
 32
0.0
 13
1.0
 23
0.0
 33
0.0
 40
0.0
 40
0.0
 40
0.0
 40
0.0
 40
0.2431090893442713
 40
0.5182793655622319
 40
0.7947794085751958
 40
1.0
 40
1.0
 40
1.0
 40
1.0
 10
243.0719668596515
 20
156.261388115603
 30
0.0
 10
243.044601985352
 20
156.2426393457938
 30
0.0
 10
242.9862633616137
 20
156.2026692214848
 30
0.0
 10
242.9265018860918
 20
156.1100731660424
 30
0.0
 10
242.89807380568
 20
156.0093813174529
 30
0.0
 10
242.9033541032768
 20
155.94425001958
 30
0.0
 10
242.9056035933717
 20
155.9165030589679
 30
0.0
  0
SPLINE
  5
C9
330
1F
100
AcDbEntity
  8
0
  6
Continuous
 62
     7
370
    15
100
AcDbSpline
210
0.0
220
0.0
230
1.0
 70
     8
 71
     3
 72
    12
 73
     8
 74
     0
 42
0.00000001
 43
0.00000001
 12
1.0
 22
0.0
 32
0.0
 13
1.0
 23
0.0
 33
0.0
 40
0.0
 40
0.0
 40
0.0
 40
0.0
 40
0.2058179564998856
 40
0.4120215045907306
 40
0.6140779969167831
 40
0.8132130006453988
 40
1.0
 40
1.0
 40
1.0
 40
1.0
 10
242.9056035933717
 20
155.9165030589679
 30
0.0
 10
242.9093490785119
 20
155.8505246134141
 30
0.0
 10
242.9168470658068
 20
155.7184441143657
 30
0.0
 10
242.8451669334703
 20
155.5296124830109
 30
0.0
 10
242.7211259346247
 20
155.3779236096693
 30
0.0
 10
242.5595272671166
 20
155.2752999466367
 30
0.0
 10
242.4388166182653
 20
155.2546303652679
 30
0.0
 10
242.3803924296755
 20
155.2446262477235
 30
0.0
  0
SPLINE
  5
CA
330
1F
100
AcDbEntity
  8
0
  6
Continuous
 62
     7
370
    15
100
AcDbSpline
210
0.0
220
0.0
230
1.0
 70
     8
 71
     3
 72
    12
 73
     8
 74
     0
 42
0.00000001
 43
0.00000001
 12
1.0
 22
0.0
 32
0.0
 13
1.0
 23
0.0
 33
0.0
 40
0.0
 40
0.0
 40
0.0
 40
0.0
 40
0.205843556409511
 40
0.4120691620553151
 40
0.6141397217727096
 40
0.8132604579561344
 40
1.0
 40
1.0
 40
1.0
 40
1.0
 10
245.1909607804719
 20
154.8532023246336
 30
0.0
 10
245.132394620751
 20
154.8819376773854
 30
0.0
 10
245.0151536014938
 20
154.9394617162057
 30
0.0
 10
244.8880052976943
 20
155.0941800735681
 30
0.0
 10
244.8182742489738
 20
155.2773234046421
 30
0.0
 10
244.8089914966801
 20
155.4699695023051
 30
0.0
 10
244.8502852210097
 20
155.5864939900222
 30
0.0
 10
244.8702695822039
 20
155.6428867588585
 30
0.0
  0
SPLINE
  5
CB
330
1F
100
AcDbEntity
  8
0
  6
Continuous
 62
     7
370
    15
100
AcDbSpline
210
0.0
220
0.0
230
1.0
 70
     8
 71
     3
 72
    11
 73
     7
 74
     0
 42
0.00000001
 43
0.00000001
 12
1.0
 22
0.0
 32
0.0
 13
1.0
 23
0.0
 33
0.0
 40
0.0
 40
0.0
 40
0.0
 40
0.0
 40
0.2535086227484062
 40
0.5075674742604638
 40
0.7595056251924679
 40
0.9999999999999999
 40
0.9999999999999999
 40
0.9999999999999999
 40
0.9999999999999999
 10
244.8702695822039
 20
155.6428867588585
 30
0.0
 10
244.8826876906315
 20
155.6790293246487
 30
0.0
 10
244.9075508604178
 20
155.7513929019999
 30
0.0
 10
244.8964653052178
 20
155.8673653489149
 30
0.0
 10
244.8523402292064
 20
155.9731127966641
 30
0.0
 10
244.7981472562871
 20
156.0240957508611
 30
0.0
 10
244.7716804725961
 20
156.048994824449
 30
0.0
  0
ARC
  5
CC
330
1F
100
AcDbEntity
  8
0
  6
Continuous
 62
     7
370
    15
100
AcDbCircle
 10
245.4014849638
 20
155.3039293515
 30
0.0
 40
0.5848651082817748
100
AcDbArc
 50
180.0374528729
 51
248.902665908
  0
ARC
  5
CD
330
1F
100
AcDbEntity
  8
0
  6
Continuous
 62
     7
370
    15
100
AcDbCircle
 10
242.3272169322
 20
155.7325224246
 30
0.0
 40
0.5853033408468472
100
AcDbArc
 50
275.2125765697
 51
359.945336511
  0
SPLINE
  5
CE
330
1F
100
AcDbEntity
  8
0
  6
Continuous
 62
     7
370
    15
100
AcDbSpline
210
0.0
220
0.0
230
1.0
 70
     8
 71
     3
 72
    16
 73
    12
 74
     0
 42
0.00000001
 43
0.00000001
 12
1.0
 22
0.0
 32
0.0
 13
1.0
 23
0.0
 33
0.0
 40
0.0
 40
0.0
 40
0.0
 40
0.0
 40
0.0091421480600366
 40
0.1316341845766628
 40
0.2576794931139397
 40
0.3801887899892393
 40
0.5062151177446077
 40
0.6293924506886104
 40
0.7560776951956416
 40
0.876443363286603
 40
0.9999999999999999
 40
0.9999999999999999
 40
0.9999999999999999
 40
0.9999999999999999
 10
244.7716804725961
 20
156.048994824449
 30
0.0
 10
244.7705946385225
 20
156.0498308583597
 30
0.0
 10
244.7549601419114
 20
156.0618685809391
 30
0.0
 10
244.7221378881853
 20
156.0826069006776
 30
0.0
 10
244.6706526090339
 20
156.1041673728259
 30
0.0
 10
244.6158031974327
 20
156.1168873173926
 30
0.0
 10
244.5600709346358
 20
156.1202229950379
 30
0.0
 10
244.5039742060013
 20
156.1141703409059
 30
0.0
 10
244.4506289197097
 20
156.0989432880395
 30
0.0
 10
244.4000978427343
 20
156.0756450060701
 30
0.0
 10
244.3708068117813
 20
156.0539497244069
 30
0.0
 10
244.3559697050503
 20
156.0429601757594
 30
0.0
  0
SPLINE
  5
CF
330
1F
100
AcDbEntity
  8
0
  6
Continuous
 62
     7
370
    15
100
AcDbSpline
210
0.0
220
0.0
230
1.0
 70
     8
 71
     3
 72
    17
 73
    13
 74
     0
 42
0.00000001
 43
0.00000001
 12
1.0
 22
0.0
 32
0.0
 13
1.0
 23
0.0
 33
0.0
 40
0.0
 40
0.0
 40
0.0
 40
0.0
 40
0.1014434122013605
 40
0.2057629638229482
 40
0.3073628738759828
 40
0.4120251754303678
 40
0.511586720361549
 40
0.6141249413479504
 40
0.7123061210869175
 40
0.8132494123149824
 40
0.9055452431268707
 40
1.0
 40
1.0
 40
1.0
 40
1.0
 10
244.3559697050503
 20
156.0429601757594
 30
0.0
 10
244.3299615696036
 20
156.0237066405051
 30
0.0
 10
244.2772079120039
 20
155.9846536907668
 30
0.0
 10
244.1873503426129
 20
155.9438577605504
 30
0.0
 10
244.0913897857648
 20
155.9174628564461
 30
0.0
 10
243.9934711914204
 20
155.9081535537896
 30
0.0
 10
243.8950745028492
 20
155.9155055128555
 30
0.0
 10
243.8012760350056
 20
155.9387982163393
 30
0.0
 10
243.712303700684
 20
155.9774113498415
 30
0.0
 10
243.6339240710487
 20
156.0283694066906
 30
0.0
 10
243.5647596309141
 20
156.0895396323696
 30
0.0
 10
243.5284380705619
 20
156.1368428112439
 30
0.0
 10
243.5100673430861
 20
156.1607678243605
 30
0.0
  0
SPLINE
  5
D0
330
1F
100
AcDbEntity
  8
0
  6
Continuous
 62
     7
370
    15
100
AcDbSpline
210
0.0
220
0.0
230
1.0
 70
     8
 71
     3
 72
    15
 73
    11
 74
     0
 42
0.00000001
 43
0.00000001
 12
1.0
 22
0.0
 32
0.0
 13
1.0
 23
0.0
 33
0.0
 40
0.0
 40
0.0
 40
0.0
 40
0.0
 40
0.1377753148238371
 40
0.2794934200987336
 40
0.4176245766161552
 40
0.559826139829689
 40
0.6967989617264546
 40
0.8378198838543588
 40
0.9185057374526824
 40
1.0
 40
1.0
 40
1.0
 40
1.0
 10
243.5100673430861
 20
156.1607678243605
 30
0.0
 10
243.4986126273332
 20
156.1755667232243
 30
0.0
 10
243.4753753900521
 20
156.2055880290177
 30
0.0
 10
243.4317301176984
 20
156.2423349639319
 30
0.0
 10
243.3824829422747
 20
156.2719819578928
 30
0.0
 10
243.3293283218996
 20
156.2924998211426
 30
0.0
 10
243.2730964941207
 20
156.3038490496423
 30
0.0
 10
243.2240997037702
 20
156.3051328956572
 30
0.0
 10
243.1829806617888
 20
156.3008855196009
 30
0.0
 10
243.1614659452386
 20
156.2958755964094
 30
0.0
 10
243.1506549654413
 20
156.2933581484903
 30
0.0
  0
ARC
  5
D1
330
1F
100
AcDbEntity
  8
0
  6
Continuous
 62
     7
370
    15
100
AcDbCircle
 10
243.2367012638
 20
155.871679228
 30
0.0
 40
0.3352849365802545
100
AcDbArc
 50
35.3805231252
 51
162.4614702427
  0
ARC
  5
D2
330
1F
100
AcDbEntity
  8
0
  6
Continuous
 62
     7
370
    15
100
AcDbCircle
 10
244.5659445341
 20
155.6869213464
 30
0.0
 40
0.335053987641382
100
AcDbArc
 50
7.0215894552
 51
128.8063028464
  0
ARC
  5
D3
330
1F
100
AcDbEntity
  8
0
  6
Continuous
 62
     7
370
    15
100
AcDbCircle
 10
243.7452997994
 20
154.6642042808
 30
0.0
 40
2.622613247336588
100
AcDbArc
 50
261.9399578901
 51
359.9216857581
  0
ARC
  5
D4
330
1F
100
AcDbEntity
  8
0
  6
Continuous
 62
     7
370
    15
100
AcDbCircle
 10
243.7387412142
 20
154.6633262158
 30
0.0
 40
2.620832014892348
100
AcDbArc
 50
180.059171483
 51
262.0792318393
  0
ARC
  5
D5
330
1F
100
AcDbEntity
  8
0
  6
Continuous
 62
     7
370
    15
100
AcDbCircle
 10
243.9885894958
 20
156.4059875621
 30
0.0
 40
0.5871148448147371
100
AcDbArc
 50
215.4086710857
 51
308.7363927877
  0
LINE
  5
D6
330
1F
100
AcDbEntity
  8
0
  6
Continuous
 62
     7
370
    15
100
AcDbLine
 10
247.3112966622
 20
151.3363181718
 30
0.0
 11
247.425564866
 21
150.9900926384
 31
0.0
  0
LINE
  5
D7
330
1F
100
AcDbEntity
  8
0
  6
Continuous
 62
     7
370
    15
100
AcDbLine
 10
237.267279291
 20
147.7949995908
 30
0.0
 11
247.425564866
 21
150.9900926384
 31
0.0
  0
LINE
  5
D8
330
1F
100
AcDbEntity
  8
0
  6
Continuous
 62
     7
370
    15
100
AcDbLine
 10
237.1530110872
 20
148.1412251244
 30
0.0
 11
237.267279291
 21
147.7949995908
 31
0.0
  0
LINE
  5
D9
330
1F
100
AcDbEntity
  8
0
  6
Continuous
 62
     7
370
    15
100
AcDbLine
 10
238.5724982188
 20
149.519922913
 30
0.0
 11
237.1530110872
 21
148.1412251244
 31
0.0
  0
LINE
  5
DA
330
1F
100
AcDbEntity
  8
0
  6
Continuous
 62
     7
370
    15
100
AcDbLine
 10
247.1355360857
 20
151.5027710886
 30
0.0
 11
247.3112966622
 21
151.3363181718
 31
0.0
  0
SPLINE
  5
DB
330
1F
100
AcDbEntity
  8
0
  6
Continuous
 62
     7
370
    15
100
AcDbSpline
210
0.0
220
0.0
230
1.0
 70
     8
 71
     3
 72
    10
 73
     6
 74
     0
 42
0.00000001
 43
0.00000001
 12
1.0
 22
0.0
 32
0.0
 13
1.0
 23
0.0
 33
0.0
 40
0.0
 40
0.0
 40
0.0
 40
0.0
 40
0.3518022785809909
 40
0.7034245935032382
 40
1.0
 40
1.0
 40
1.0
 40
1.0
 10
247.4330639547232
 20
150.9715318327953
 30
0.0
 10
247.4742380122655
 20
150.9891584289541
 30
0.0
 10
247.5565650648541
 20
151.0244026044264
 30
0.0
 10
247.646628754598
 20
151.1194946257002
 30
0.0
 10
247.6779737092388
 20
151.195415064519
 30
0.0
 10
247.6923152324455
 20
151.2301515874349
 30
0.0
  0
LINE
  5
DC
330
1F
100
AcDbEntity
  8
0
  6
Continuous
 62
     7
370
    15
100
AcDbLine
 10
237.2650044866
 20
147.7733645957
 30
0.0
 11
247.4330639547
 21
150.9715318328
 31
0.0
  0
SPLINE
  5
DD
330
1F
100
AcDbEntity
  8
0
  6
Continuous
 62
     7
370
    15
100
AcDbSpline
210
0.0
220
0.0
230
1.0
 70
     8
 71
     3
 72
    14
 73
    10
 74
     0
 42
0.00000001
 43
0.00000001
 12
1.0
 22
0.0
 32
0.0
 13
1.0
 23
0.0
 33
0.0
 40
0.0
 40
0.0
 40
0.0
 40
0.0
 40
0.1588501103508077
 40
0.3173321153185001
 40
0.4720153553660928
 40
0.623644163591592
 40
0.7746618341644435
 40
0.9277417761108092
 40
1.0
 40
1.0
 40
1.0
 40
1.0
 10
236.7689108203213
 20
148.2682498027197
 30
0.0
 10
236.7593795764401
 20
148.2232632255202
 30
0.0
 10
236.7403391755506
 20
148.133394319089
 30
0.0
 10
236.7708364938387
 20
147.9973855219191
 30
0.0
 10
236.8413986002045
 20
147.8817336044771
 30
0.0
 10
236.9459979594528
 20
147.7977759359781
 30
0.0
 10
237.0715161565864
 20
147.7536785611111
 30
0.0
 10
237.1822205448902
 20
147.7514353537709
 30
0.0
 10
237.2449040391405
 20
147.7680400416016
 30
0.0
 10
237.2650044865942
 20
147.7733645956843
 30
0.0
  0
LINE
  5
DE
330
1F
100
AcDbEntity
  8
0
  6
Continuous
 62
     7
370
    15
100
AcDbLine
 10
239.9748876559
 20
158.411540389
 30
0.0
 11
236.7689108203
 21
148.2682498027
 31
0.0
  0
SPLINE
  5
DF
330
1F
100
AcDbEntity
  8
0
  6
Continuous
 62
     7
370
    15
100
AcDbSpline
210
0.0
220
0.0
230
1.0
 70
     8
 71
     3
 72
    10
 73
     6
 74
     0
 42
0.00000001
 43
0.00000001
 12
1.0
 22
0.0
 32
0.0
 13
1.0
 23
0.0
 33
0.0
 40
0.0
 40
0.0
 40
0.0
 40
0.0
 40
0.3518022785810942
 40
0.7034245935031872
 40
1.0
 40
1.0
 40
1.0
 40
1.0
 10
240.2341389335942
 20
158.6701601436689
 30
0.0
 10
240.1929648760519
 20
158.6525335475101
 30
0.0
 10
240.1106378234633
 20
158.6172893720378
 30
0.0
 10
240.0205741337195
 20
158.5221973507639
 30
0.0
 10
239.9892291790786
 20
158.4462769119451
 30
0.0
 10
239.9748876558719
 20
158.4115403890292
 30
0.0
  0
LINE
  5
E0
330
1F
100
AcDbEntity
  8
0
  6
Continuous
 62
     7
370
    15
100
AcDbLine
 10
250.4021984017
 20
161.8683273808
 30
0.0
 11
240.2341389336
 21
158.6701601437
 31
0.0
  0
SPLINE
  5
E1
330
1F
100
AcDbEntity
  8
0
  6
Continuous
 62
     7
370
    15
100
AcDbSpline
210
0.0
220
0.0
230
1.0
 70
     8
 71
     3
 72
    20
 73
    16
 74
     0
 42
0.00000001
 43
0.00000001
 12
1.0
 22
0.0
 32
0.0
 13
1.0
 23
0.0
 33
0.0
 40
0.0
 40
0.0
 40
0.0
 40
0.0
 40
0.07830753118604
 40
0.1588910126856411
 40
0.2369785693217668
 40
0.317439816075724
 40
0.3936615824744847
 40
0.4721830276909689
 40
0.5469240757152749
 40
0.6238523130449273
 40
0.6983189620749655
 40
0.7748908420225543
 40
0.8503894607879661
 40
0.9279814901989101
 40
1.0
 40
1.0
 40
1.0
 40
1.0
 10
250.8982920679961
 20
161.3734421737444
 30
0.0
 10
250.9040586916811
 20
161.3952743153186
 30
0.0
 10
250.9157595416914
 20
161.4395731334692
 30
0.0
 10
250.918832252718
 20
161.5081827092755
 30
0.0
 10
250.910903208559
 20
161.5767711475223
 30
0.0
 10
250.8913909494882
 20
161.64184146007
 30
0.0
 10
250.8609616108288
 20
161.7026542020141
 30
0.0
 10
250.8214772274264
 20
161.7560628365652
 30
0.0
 10
250.7733261696816
 20
161.8020800967164
 30
0.0
 10
250.719032086679
 20
161.8386966447487
 30
0.0
 10
250.6589090258592
 20
161.8659143200854
 30
0.0
 10
250.595462412359
 20
161.8827706926578
 30
0.0
 10
250.529286122117
 20
161.8888603244263
 30
0.0
 10
250.4640554663005
 20
161.8848318626356
 30
0.0
 10
250.4222988968133
 20
161.8736905233534
 30
0.0
 10
250.4021984017232
 20
161.8683273807798
 30
0.0
  0
LINE
  5
E2
330
1F
100
AcDbEntity
  8
0
  6
Continuous
 62
     7
370
    15
100
AcDbLine
 10
247.6923152324
 20
151.2301515874
 30
0.0
 11
250.898292068
 21
161.3734421737
 31
0.0
  0
ARC
  5
E3
330
1F
100
AcDbEntity
  8
0
  6
Continuous
 62
     7
370
    15
100
AcDbCircle
 10
237.1527092218
 20
148.1568318161
 30
0.0
 40
0.3795376924266101
100
AcDbArc
 50
162.5699396795
 51
287.56980009
  0
ARC
  5
E4
330
1F
100
AcDbEntity
  8
0
  6
Continuous
 62
     7
370
    15
100
AcDbCircle
 10
247.3118765392
 20
151.3522035562
 30
0.0
 40
0.3795383411494317
100
AcDbArc
 50
287.4301999786
 51
342.430060169
  0
LINE
  5
E5
330
1F
100
AcDbEntity
  8
0
  6
Continuous
 62
     7
370
    15
100
AcDbLine
 10
247.6737091035
 20
151.2376324087
 30
0.0
 11
250.8766042424
 21
161.3711729107
 31
0.0
  0
ARC
  5
E6
330
1F
100
AcDbEntity
  8
0
  6
Continuous
 62
     7
370
    15
100
AcDbCircle
 10
250.5144936665
 20
161.4848601604
 30
0.0
 40
0.379537692426539
100
AcDbArc
 50
342.5699396795
 51
107.56980009
  0
LINE
  5
E7
330
1F
100
AcDbEntity
  8
0
  6
Continuous
 62
     7
370
    15
100
AcDbLine
 10
250.3999235973
 20
161.8466923857
 30
0.0
 11
240.2416380223
 21
158.6515993384
 31
0.0
  0
ARC
  5
E8
330
1F
100
AcDbEntity
  8
0
  6
Continuous
 62
     7
370
    15
100
AcDbCircle
 10
240.3553263482
 20
158.2894884216
 30
0.0
 40
0.3795383398849249
100
AcDbArc
 50
107.4301999098
 51
162.4300603206
  0
LINE
  5
E9
330
1F
100
AcDbEntity
  8
0
  6
Continuous
 62
     7
370
    15
100
AcDbLine
 10
239.9934937848
 20
158.4040595678
 30
0.0
 11
236.7905986459
 21
148.2705190658
 31
0.0
  0
LINE
  5
EA
330
1F
100
AcDbEntity
  8
0
  6
Continuous
 62
     7
370
    15
100
AcDbLine
 10
237.1530110872
 20
148.1412251244
 30
0.0
 11
236.7905986459
 21
148.2705190658
 31
0.0
  0
LINE
  5
EB
330
1F
100
AcDbEntity
  8
0
  6
Continuous
 62
     7
370
    15
100
AcDbLine
 10
240.3559062261
 20
158.2747656264
 30
0.0
 11
239.9934937848
 21
158.4040595678
 31
0.0
  0
LINE
  5
EC
330
1F
100
AcDbEntity
  8
0
  6
Continuous
 62
     7
370
    15
100
AcDbLine
 10
240.5316668026
 20
158.090553678
 30
0.0
 11
240.3559062261
 21
158.2747656264
 31
0.0
  0
SPLINE
  5
ED
330
1F
100
AcDbEntity
  8
0
  6
Continuous
 62
     7
370
    15
100
AcDbSpline
210
0.0
220
0.0
230
1.0
 70
     8
 71
     3
 72
    11
 73
     7
 74
     0
 42
0.00000001
 43
0.00000001
 12
1.0
 22
0.0
 32
0.0
 13
1.0
 23
0.0
 33
0.0
 40
0.0
 40
0.0
 40
0.0
 40
0.0
 40
0.0072987238691226
 40
0.1268462096079044
 40
0.5874298328382851
 40
1.0
 40
1.0
 40
1.0
 40
1.0
 10
239.0586688778048
 20
150.0127279487318
 30
0.0
 10
239.0576082087549
 20
150.0116096615797
 30
0.0
 10
239.0391745961076
 20
149.992174690613
 30
0.0
 10
238.9518716281448
 20
149.9006294128022
 30
0.0
 10
238.7880788005479
 20
149.7319638452368
 30
0.0
 10
238.6416749002281
 20
149.5879637722938
 30
0.0
 10
238.5724982187629
 20
149.5199229130326
 30
0.0
  0
LINE
  5
EE
330
1F
100
AcDbEntity
  8
0
  6
Continuous
 62
     7
370
    15
100
AcDbLine
 10
240.8533525526
 20
150.5964897937
 30
0.0
 11
245.8422641502
 21
152.1656558347
 31
0.0
  0
LINE
  5
EF
330
1F
100
AcDbEntity
  8
0
  6
Continuous
 62
     7
370
    15
100
AcDbLine
 10
246.8138503357
 20
159.0452021828
 30
0.0
 11
241.8249387381
 21
157.4760361418
 31
0.0
  0
ARC
  5
F0
330
1F
100
AcDbEntity
  8
0
  6
Continuous
 62
     7
370
    15
100
AcDbCircle
 10
247.1153505177
 20
158.0930121163
 30
0.0
 40
0.9987834011226349
100
AcDbArc
 50
342.5699396795
 51
107.56980009
  0
LINE
  5
F1
330
1F
100
AcDbEntity
  8
0
  6
Continuous
 62
     7
370
    15
100
AcDbLine
 10
246.4952753014
 20
152.8170762836
 30
0.0
 11
248.068273086
 21
157.7938351433
 31
0.0
  0
ARC
  5
F2
330
1F
100
AcDbEntity
  8
0
  6
Continuous
 62
     7
370
    15
100
AcDbCircle
 10
245.5430843452
 20
153.1185792997
 30
0.0
 40
0.9987851049601034
100
AcDbArc
 50
287.4301999098
 51
342.4300603206
  0
ARC
  5
F3
330
1F
100
AcDbEntity
  8
0
  6
Continuous
 62
     7
370
    15
100
AcDbCircle
 10
240.5518523703
 20
151.54867986
 30
0.0
 40
0.9987834011074441
100
AcDbArc
 50
162.5699396668
 51
287.5698001121
  0
LINE
  5
F4
330
1F
100
AcDbEntity
  8
0
  6
Continuous
 62
     7
370
    15
100
AcDbLine
 10
241.1719275869
 20
156.8246156929
 30
0.0
 11
239.5989298021
 21
151.8478568333
 31
0.0
  0
ARC
  5
F5
330
1F
100
AcDbEntity
  8
0
  6
Continuous
 62
     7
370
    15
100
AcDbCircle
 10
242.1241185431
 20
156.5231126768
 30
0.0
 40
0.9987851049605772
100
AcDbArc
 50
107.4301999099
 51
162.4300603206
  0
CIRCLE
  5
F6
330
1F
100
AcDbEntity
  8
0
  6
Continuous
 62
     7
370
    15
100
AcDbCircle
 10
243.8285380198
 20
154.8169432937
 30
0.0
 40
3.045674262851596
  0
SPLINE
  5
F7
330
1F
100
AcDbEntity
  8
0
  6
Continuous
 62
     7
370
    15
100
AcDbSpline
210
0.0
220
0.0
230
1.0
 70
     8
 71
     3
 72
    11
 73
     7
 74
     0
 42
0.00000001
 43
0.00000001
 12
1.0
 22
0.0
 32
0.0
 13
1.0
 23
0.0
 33
0.0
 40
0.0
 40
0.0
 40
0.0
 40
0.0
 40
0.3277695037502218
 40
0.6551509568909837
 40
0.9907861901609697
 40
1.0
 40
1.0
 40
1.0
 40
1.0
 10
247.1355360856684
 20
151.5027710886449
 30
0.0
 10
247.0829766854097
 20
151.553176678971
 30
0.0
 10
246.9779201106549
 20
151.6539281837843
 30
0.0
 10
246.804691491056
 20
151.8276115633388
 30
0.0
 10
246.6954343527825
 20
151.9405575622728
 30
0.0
 10
246.6444371430937
 20
151.9943162875415
 30
0.0
 10
246.6430745799612
 20
151.9957526339131
 30
0.0
  0
LINE
  5
F8
330
1F
100
AcDbEntity
  8
0
  6
Continuous
 62
     7
370
    15
100
AcDbLine
 10
247.3112966622
 20
151.3363181718
 30
0.0
 11
247.6737091035
 21
151.2376324087
 31
0.0
  0
LWPOLYLINE
  5
F9
330
1F
100
AcDbEntity
  8
0
  6
Continuous
 62
     7
370
    15
100
AcDbPolyline
 90
        3
 70
   128
 43
0.0
 10
240.9247647444
 20
155.6661107371
 10
240.7851874659
 20
154.8493000465
 10
240.7836014442
 20
154.7511921864
  0
ARC
  5
FA
330
1F
100
AcDbEntity
  8
0
  6
Continuous
 62
     7
370
    15
100
AcDbCircle
 10
243.83291161
 20
154.7444624522
 30
0.0
 40
3.050697256906024
100
AcDbArc
 50
0.1263926405
 51
162.4155791236
  0
LINE
  5
FB
330
1F
100
AcDbEntity
  8
0
  6
Continuous
 62
     7
370
    15
100
AcDbLine
 10
250.5141918011
 20
161.4698586737
 30
0.0
 11
250.8766042424
 21
161.3711729107
 31
0.0
  0
LINE
  5
FC
330
1F
100
AcDbEntity
  8
0
  6
Continuous
 62
     7
370
    15
100
AcDbLine
 10
249.0947046696
 20
160.0164977978
 30
0.0
 11
250.5141918011
 21
161.4698586737
 31
0.0
  0
LINE
  5
FD
330
1F
100
AcDbEntity
  8
0
  6
Continuous
 62
     7
370
    15
100
AcDbLine
 10
240.3559062261
 20
158.2747656264
 30
0.0
 11
240.2416380223
 21
158.6515993384
 31
0.0
  0
LINE
  5
FE
330
1F
100
AcDbEntity
  8
0
  6
Continuous
 62
     7
370
    15
100
AcDbLine
 10
250.5141918011
 20
161.4698586737
 30
0.0
 11
250.3999235973
 21
161.8466923857
 31
0.0
  0
SPLINE
  5
FF
330
1F
100
AcDbEntity
  8
0
  6
Continuous
 62
     7
370
    15
100
AcDbSpline
210
0.0
220
0.0
230
1.0
 70
     8
 71
     3
 72
    11
 73
     7
 74
     0
 42
0.00000001
 43
0.00000001
 12
1.0
 22
0.0
 32
0.0
 13
1.0
 23
0.0
 33
0.0
 40
0.0
 40
0.0
 40
0.0
 40
0.0
 40
0.0092138098390097
 40
0.3448490431109651
 40
0.672230496250752
 40
1.0
 40
1.0
 40
1.0
 40
1.0
 10
241.0241283083562
 20
157.6010114348078
 30
0.0
 10
241.0227657452238
 20
157.6022935764305
 30
0.0
 10
240.9717685355341
 20
157.6502808172609
 30
0.0
 10
240.8625113972605
 20
157.7553168050788
 30
0.0
 10
240.689282777661
 20
157.9272467123009
 30
0.0
 10
240.5842262029063
 20
158.0360965319251
 30
0.0
 10
240.5316668026478
 20
158.0905536780016
 30
0.0
  0
SPLINE
  5
100
330
1F
100
AcDbEntity
  8
0
  6
Continuous
 62
     7
370
    15
100
AcDbSpline
210
0.0
220
0.0
230
1.0
 70
     8
 71
     3
 72
    11
 73
     7
 74
     0
 42
0.00000001
 43
0.00000001
 12
1.0
 22
0.0
 32
0.0
 13
1.0
 23
0.0
 33
0.0
 40
0.0
 40
0.0
 40
0.0
 40
0.0
 40
0.4125701671613067
 40
0.8731537903910445
 40
0.9927012761302811
 40
1.0
 40
1.0
 40
1.0
 40
1.0
 10
249.0947046695543
 20
160.0164977977528
 30
0.0
 10
249.0255279880891
 20
159.9465223159227
 30
0.0
 10
248.8791240877695
 20
159.7984278533132
 30
0.0
 10
248.7153312601747
 20
159.640305747878
 30
0.0
 10
248.6280282922088
 20
159.5576704210445
 30
0.0
 10
248.6095946795625
 20
159.5403279734254
 30
0.0
 10
248.6085340105125
 20
159.5393300899507
 30
0.0
  0
LINE
  5
101
330
1F
100
AcDbEntity
  8
0
  6
HIDDEN
 62
     7
370
     0
100
AcDbLine
 10
90.9141918011
 20
170.8841883617
 30
0.0
 11
90.9141918011
 21
108.884188383
 31
0.0
  0
LINE
  5
102
330
1F
100
AcDbEntity
  8
0
  6
HIDDEN
 62
     7
370
     0
100
AcDbLine
 10
112.9141918011
 20
109.384188383
 30
0.0
 11
112.9141918011
 21
170.384188383
 31
0.0
  0
SPLINE
  5
103
330
1F
100
AcDbEntity
  8
0
  6
HIDDEN
 62
     7
370
     0
100
AcDbSpline
210
0.0
220
0.0
230
1.0
 70
     8
 71
     3
 72
    60
 73
    56
 74
     0
 42
0.00000001
 43
0.00000001
 12
1.0
 22
0.0
 32
0.0
 13
1.0
 23
0.0
 33
0.0
 40
-0.0624999999999998
 40
-0.0624999999999998
 40
0.0
 40
0.0
 40
0.0312500000000001
 40
0.0312500000000001
 40
0.0625000000000001
 40
0.0625000000000001
 40
0.0937500000000002
 40
0.0937500000000002
 40
0.1250000000000003
 40
0.1250000000000003
 40
0.1875000000000004
 40
0.1875000000000004
 40
0.2500000000000006
 40
0.2500000000000006
 40
0.2812500000000006
 40
0.2812500000000006
 40
0.3125000000000007
 40
0.3125000000000007
 40
0.3437500000000008
 40
0.3437500000000008
 40
0.3750000000000008
 40
0.3750000000000008
 40
0.4062500000000009
 40
0.4062500000000009
 40
0.437500000000001
 40
0.437500000000001
 40
0.4687500000000011
 40
0.4687500000000011
 40
0.5000000000000011
 40
0.5000000000000011
 40
0.5625000000000012
 40
0.5625000000000012
 40
0.6250000000000013
 40
0.6250000000000013
 40
0.6562500000000013
 40
0.6562500000000013
 40
0.6875000000000013
 40
0.6875000000000013
 40
0.7187500000000012
 40
0.7187500000000012
 40
0.7500000000000011
 40
0.7500000000000011
 40
0.781250000000001
 40
0.781250000000001
 40
0.8125000000000008
 40
0.8125000000000008
 40
0.8437500000000007
 40
0.8437500000000007
 40
0.8750000000000004
 40
0.8750000000000004
 40
0.9062500000000003
 40
0.9062500000000003
 40
0.9375000000000002
 40
0.9375000000000002
 40
1.0
 40
1.0
 40
1.03125
 40
1.03125
 10
100.9141918011374
 20
139.6198578578834
 30
0.0
 10
100.9141918011374
 20
140.0163536455134
 30
0.0
 10
100.9271636596262
 20
140.1463037065175
 30
0.0
 10
100.9779838293186
 20
140.4019566398777
 30
0.0
 10
101.0164511527855
 20
140.5289861464269
 30
0.0
 10
101.1168493888576
 20
140.7711742775515
 30
0.0
 10
101.1782824198308
 20
140.8860357701043
 30
0.0
 10
101.3234172513757
 20
141.1034159659285
 30
0.0
 10
101.4078723687836
 20
141.2063135331271
 30
0.0
 10
101.6845918191419
 20
141.4829805721349
 30
0.0
 10
101.90766871106
 20
141.6319786626149
 30
0.0
 10
102.3889520732803
 20
141.8314898030796
 30
0.0
 10
102.6521824922713
 20
141.8840479060763
 30
0.0
 10
103.0435846939592
 20
141.8842581884543
 30
0.0
 10
103.1761077220681
 20
141.8712724177272
 30
0.0
 10
103.4326381753091
 20
141.8202452695134
 30
0.0
 10
103.5573250096057
 20
141.782490070363
 30
0.0
 10
103.7995042718413
 20
141.6823517374543
 30
0.0
 10
103.9165978039914
 20
141.6197460700427
 30
0.0
 10
104.1333128073468
 20
141.4750127767778
 30
0.0
 10
104.2343316342095
 20
141.3923854294982
 30
0.0
 10
104.4211165216616
 20
141.2057803762467
 30
0.0
 10
104.5039734028578
 20
141.1046653123705
 30
0.0
 10
104.6488576679316
 20
140.8881325083806
 30
0.0
 10
104.7114951757526
 20
140.7712623007795
 30
0.0
 10
104.8119439991524
 20
140.5289644301293
 30
0.0
 10
104.8497951001696
 20
140.4043004316684
 30
0.0
 10
104.901016665426
 20
140.1480133876045
 30
0.0
 10
104.9141447920432
 20
140.0154413918589
 30
0.0
 10
104.9142854323834
 20
139.6238371990849
 30
0.0
 10
104.8619606830116
 20
139.360671867761
 30
0.0
 10
104.6628496209543
 20
138.8791664985878
 30
0.0
 10
104.513987284497
 20
138.6559149591037
 30
0.0
 10
104.2376663251715
 20
138.3790586602149
 30
0.0
 10
104.134902676798
 20
138.2945452133712
 30
0.0
 10
103.9175191194185
 20
138.1491279399309
 30
0.0
 10
103.8027203514621
 20
138.0876167408725
 30
0.0
 10
103.5608436280381
 20
137.9870868926177
 30
0.0
 10
103.4336900200378
 20
137.9484418693997
 30
0.0
 10
103.1780240106052
 20
137.8973855418487
 30
0.0
 10
103.0481579728492
 20
137.8843206833031
 30
0.0
 10
102.7842054461176
 20
137.8840580625051
 30
0.0
 10
102.6538011226935
 20
137.8969350627492
 30
0.0
 10
102.3981503593142
 20
137.947521066555
 30
0.0
 10
102.2712848101998
 20
137.9857974311768
 30
0.0
 10
102.0287643522539
 20
138.0860682986569
 30
0.0
 10
101.9138377135936
 20
138.1474243227977
 30
0.0
 10
101.6964662447616
 20
138.2922706179705
 30
0.0
 10
101.5934524320994
 20
138.3766481324652
 30
0.0
 10
101.4087518865174
 20
138.5610554526534
 30
0.0
 10
101.3259221522608
 20
138.6616285159229
 30
0.0
 10
101.1796697136633
 20
138.8798546565019
 30
0.0
 10
101.1173012328709
 20
138.9964097664231
 30
0.0
 10
100.9673450813042
 20
139.3572593604569
 30
0.0
 10
100.9141918011374
 20
139.6198578578834
 30
0.0
 10
100.9141918011374
 20
140.0163536455134
 30
0.0
  0
SPLINE
  5
104
330
1F
100
AcDbEntity
  8
0
  6
HIDDEN
 62
     7
370
     0
100
AcDbSpline
210
0.0
220
0.0
230
1.0
 70
     8
 71
     3
 72
    12
 73
     8
 74
     0
 42
0.00000001
 43
0.00000001
 12
1.0
 22
0.0
 32
0.0
 13
1.0
 23
0.0
 33
0.0
 40
0.0
 40
0.0
 40
0.0
 40
0.0
 40
0.2500000000000014
 40
0.2500000000000014
 40
0.5000000000000028
 40
0.5000000000000028
 40
1.0
 40
1.0
 40
1.0
 40
1.0
 10
101.4419486147038
 20
130.496121951634
 30
0.0
 10
101.3788685762105
 20
130.496121951634
 30
0.0
 10
101.319719954029
 20
130.4707576324191
 30
0.0
 10
101.22124740396
 20
130.3965927720461
 30
0.0
 10
101.1822107919752
 20
130.350072431492
 30
0.0
 10
101.0823143251962
 20
130.1999300886467
 30
0.0
 10
101.0398934441295
 20
130.0882368816746
 30
0.0
 10
101.0089359128116
 20
129.9748190622848
 30
0.0
  0
LINE
  5
105
330
1F
100
AcDbEntity
  8
0
  6
HIDDEN
 62
     7
370
     0
100
AcDbLine
 10
104.3864349876
 20
130.4961219516
 30
0.0
 11
101.4419486147
 21
130.4961219516
 31
0.0
  0
SPLINE
  5
106
330
1F
100
AcDbEntity
  8
0
  6
HIDDEN
 62
     7
370
     0
100
AcDbSpline
210
0.0
220
0.0
230
1.0
 70
     8
 71
     3
 72
    12
 73
     8
 74
     0
 42
0.00000001
 43
0.00000001
 12
1.0
 22
0.0
 32
0.0
 13
1.0
 23
0.0
 33
0.0
 40
0.0
 40
0.0
 40
0.0
 40
0.0
 40
0.500000000000001
 40
0.500000000000001
 40
0.7500000000000004
 40
0.7500000000000004
 40
1.0
 40
1.0
 40
1.0
 40
1.0
 10
104.8194476894632
 20
129.9748190622849
 30
0.0
 10
104.7887254475441
 20
130.0873748616941
 30
0.0
 10
104.7458882330089
 20
130.2001327214336
 30
0.0
 10
104.6464612088091
 20
130.34967360723
 30
0.0
 10
104.6067090139925
 20
130.3969663389369
 30
0.0
 10
104.5086675571342
 20
130.4707026322583
 30
0.0
 10
104.4491115015468
 20
130.496121951634
 30
0.0
 10
104.3864349875709
 20
130.496121951634
 30
0.0
  0
ELLIPSE
  5
107
330
1F
100
AcDbEntity
  8
0
  6
HIDDEN
 62
     7
370
     0
100
AcDbEllipse
 10
88.5670376118
 20
139.884188383
 30
0.0
 11
-14.7536831606561
 21
31.09325491558119
 31
0.0
210
0.0
220
0.0
230
1.0
 40
0.3419987131
 41
3.300734856217133
 42
4.231496223360781
  0
SPLINE
  5
108
330
1F
100
AcDbEntity
  8
0
  6
HIDDEN
 62
     7
370
     0
100
AcDbSpline
210
0.0
220
0.0
230
1.0
 70
     8
 71
     3
 72
    12
 73
     8
 74
     0
 42
0.00000001
 43
0.00000001
 12
1.0
 22
0.0
 32
0.0
 13
1.0
 23
0.0
 33
0.0
 40
0.0
 40
0.0
 40
0.0
 40
0.0
 40
0.2499999999999986
 40
0.2499999999999986
 40
0.4999999999999972
 40
0.4999999999999972
 40
1.0
 40
1.0
 40
1.0
 40
1.0
 10
104.3864349875709
 20
109.815696424097
 30
0.0
 10
104.4495150260643
 20
109.815696424097
 30
0.0
 10
104.5086636482457
 20
109.8236023503094
 30
0.0
 10
104.6071361983148
 20
109.8469275117457
 30
0.0
 10
104.6461728102995
 20
109.8616403015774
 30
0.0
 10
104.7460692770786
 20
109.9095961023083
 30
0.0
 10
104.7884901581452
 20
109.9458582588884
 30
0.0
 10
104.8194476894632
 20
109.9834459228529
 30
0.0
  0
LINE
  5
109
330
1F
100
AcDbEntity
  8
0
  6
HIDDEN
 62
     7
370
     0
100
AcDbLine
 10
101.4419486147
 20
109.8156964241
 30
0.0
 11
104.3864349876
 21
109.8156964241
 31
0.0
  0
SPLINE
  5
10A
330
1F
100
AcDbEntity
  8
0
  6
HIDDEN
 62
     7
370
     0
100
AcDbSpline
210
0.0
220
0.0
230
1.0
 70
     8
 71
     3
 72
    12
 73
     8
 74
     0
 42
0.00000001
 43
0.00000001
 12
1.0
 22
0.0
 32
0.0
 13
1.0
 23
0.0
 33
0.0
 40
0.0
 40
0.0
 40
0.0
 40
0.0
 40
0.4999999999999971
 40
0.4999999999999971
 40
0.7499999999999986
 40
0.7499999999999986
 40
1.0
 40
1.0
 40
1.0
 40
1.0
 10
101.0089359128116
 20
109.9834459228529
 30
0.0
 10
101.0396581547307
 20
109.9461439398998
 30
0.0
 10
101.0824953692658
 20
109.9095321078534
 30
0.0
 10
101.1819223934657
 20
109.8617673245682
 30
0.0
 10
101.2216745882823
 20
109.8468098090858
 30
0.0
 10
101.3197160451405
 20
109.8236198633167
 30
0.0
 10
101.379272100728
 20
109.815696424097
 30
0.0
 10
101.4419486147038
 20
109.815696424097
 30
0.0
  0
ELLIPSE
  5
10B
330
1F
100
AcDbEntity
  8
0
  6
HIDDEN
 62
     7
370
     0
100
AcDbEllipse
 10
117.2613459905
 20
139.884188383
 30
0.0
 11
14.75368316065612
 21
31.09325491558118
 31
0.0
210
0.0
220
0.0
230
1.0
 40
0.3419987131
 41
2.051689083818818
 42
2.982450450962494
  0
SPLINE
  5
10C
330
1F
100
AcDbEntity
  8
0
  6
HIDDEN
 62
     7
370
     0
100
AcDbSpline
210
0.0
220
0.0
230
1.0
 70
     8
 71
     3
 72
    12
 73
     8
 74
     0
 42
0.00000001
 43
0.00000001
 12
1.0
 22
0.0
 32
0.0
 13
1.0
 23
0.0
 33
0.0
 40
0.0
 40
0.0
 40
0.0
 40
0.0
 40
0.2499999999999986
 40
0.2499999999999986
 40
0.4999999999999972
 40
0.4999999999999972
 40
1.0
 40
1.0
 40
1.0
 40
1.0
 10
101.4419486147038
 20
169.9526803418433
 30
0.0
 10
101.3788685762105
 20
169.9526803418433
 30
0.0
 10
101.3197199540291
 20
169.9447744156309
 30
0.0
 10
101.22124740396
 20
169.9214492541946
 30
0.0
 10
101.1822107919752
 20
169.9067364643629
 30
0.0
 10
101.0823143251962
 20
169.858780663632
 30
0.0
 10
101.0398934441295
 20
169.8225185070519
 30
0.0
 10
101.0089359128116
 20
169.7849308430874
 30
0.0
  0
LINE
  5
10D
330
1F
100
AcDbEntity
  8
0
  6
HIDDEN
 62
     7
370
     0
100
AcDbLine
 10
104.3864349876
 20
169.9526803418
 30
0.0
 11
101.4419486147
 21
169.9526803418
 31
0.0
  0
SPLINE
  5
10E
330
1F
100
AcDbEntity
  8
0
  6
HIDDEN
 62
     7
370
     0
100
AcDbSpline
210
0.0
220
0.0
230
1.0
 70
     8
 71
     3
 72
    12
 73
     8
 74
     0
 42
0.00000001
 43
0.00000001
 12
1.0
 22
0.0
 32
0.0
 13
1.0
 23
0.0
 33
0.0
 40
0.0
 40
0.0
 40
0.0
 40
0.0
 40
0.4999999999999982
 40
0.4999999999999982
 40
0.7499999999999991
 40
0.7499999999999991
 40
1.0
 40
1.0
 40
1.0
 40
1.0
 10
104.8194476894632
 20
169.7849308430874
 30
0.0
 10
104.7887254475441
 20
169.8222328260405
 30
0.0
 10
104.7458882330089
 20
169.8588446580869
 30
0.0
 10
104.6464612088091
 20
169.9066094413721
 30
0.0
 10
104.6067090139925
 20
169.9215669568545
 30
0.0
 10
104.5086675571343
 20
169.9447569026236
 30
0.0
 10
104.4491115015468
 20
169.9526803418433
 30
0.0
 10
104.3864349875709
 20
169.9526803418433
 30
0.0
  0
ELLIPSE
  5
10F
330
1F
100
AcDbEntity
  8
0
  6
HIDDEN
 62
     7
370
     0
100
AcDbEllipse
 10
88.5670376118
 20
139.884188383
 30
0.0
 11
14.75368316065624
 21
31.09325491558118
 31
0.0
210
0.0
220
0.0
230
1.0
 40
0.3419987131
 41
5.193281737408637
 42
6.12404310455234
  0
SPLINE
  5
110
330
1F
100
AcDbEntity
  8
0
  6
HIDDEN
 62
     7
370
     0
100
AcDbSpline
210
0.0
220
0.0
230
1.0
 70
     8
 71
     3
 72
    12
 73
     8
 74
     0
 42
0.00000001
 43
0.00000001
 12
1.0
 22
0.0
 32
0.0
 13
1.0
 23
0.0
 33
0.0
 40
0.0
 40
0.0
 40
0.0
 40
0.0
 40
0.2500000000000009
 40
0.2500000000000009
 40
0.5000000000000019
 40
0.5000000000000019
 40
1.0
 40
1.0
 40
1.0
 40
1.0
 10
104.3864349875709
 20
149.2722548143066
 30
0.0
 10
104.4495150260643
 20
149.2722548143066
 30
0.0
 10
104.5086636482457
 20
149.2976191335215
 30
0.0
 10
104.6071361983148
 20
149.3717839938944
 30
0.0
 10
104.6461728102995
 20
149.4183043344485
 30
0.0
 10
104.7460692770786
 20
149.5684466772938
 30
0.0
 10
104.7884901581452
 20
149.6801398842659
 30
0.0
 10
104.8194476894632
 20
149.7935577036557
 30
0.0
  0
LINE
  5
111
330
1F
100
AcDbEntity
  8
0
  6
HIDDEN
 62
     7
370
     0
100
AcDbLine
 10
101.4419486147
 20
149.2722548143
 30
0.0
 11
104.3864349876
 21
149.2722548143
 31
0.0
  0
SPLINE
  5
112
330
1F
100
AcDbEntity
  8
0
  6
HIDDEN
 62
     7
370
     0
100
AcDbSpline
210
0.0
220
0.0
230
1.0
 70
     8
 71
     3
 72
    12
 73
     8
 74
     0
 42
0.00000001
 43
0.00000001
 12
1.0
 22
0.0
 32
0.0
 13
1.0
 23
0.0
 33
0.0
 40
0.0
 40
0.0
 40
0.0
 40
0.0
 40
0.5000000000000047
 40
0.5000000000000047
 40
0.7500000000000023
 40
0.7500000000000023
 40
1.0
 40
1.0
 40
1.0
 40
1.0
 10
101.0089359128116
 20
149.7935577036557
 30
0.0
 10
101.0396581547307
 20
149.6810019042465
 30
0.0
 10
101.0824953692658
 20
149.5682440445069
 30
0.0
 10
101.1819223934657
 20
149.4187031587106
 30
0.0
 10
101.2216745882823
 20
149.3714104270037
 30
0.0
 10
101.3197160451405
 20
149.2976741336822
 30
0.0
 10
101.379272100728
 20
149.2722548143066
 30
0.0
 10
101.4419486147038
 20
149.2722548143066
 30
0.0
  0
ELLIPSE
  5
113
330
1F
100
AcDbEntity
  8
0
  6
HIDDEN
 62
     7
370
     0
100
AcDbEllipse
 10
117.2613459905
 20
139.884188383
 30
0.0
 11
-14.75368316065625
 21
31.09325491558119
 31
0.0
210
0.0
220
0.0
230
1.0
 40
0.3419987131
 41
0.1591422026272827
 42
1.089903569770961
  0
LINE
  5
114
330
1F
100
AcDbEntity
  8
0
  6
HIDDEN
 62
     7
370
     0
100
AcDbLine
 10
90.9141918011
 20
115.634188383
 30
0.0
 11
90.9141918011
 21
164.134188383
 31
0.0
  0
SPLINE
  5
115
330
1F
100
AcDbEntity
  8
0
  6
HIDDEN
 62
     7
370
     0
100
AcDbSpline
210
0.0
220
0.0
230
1.0
 70
     8
 71
     3
 72
    12
 73
     8
 74
     0
 42
0.00000001
 43
0.00000001
 12
1.0
 22
0.0
 32
0.0
 13
1.0
 23
0.0
 33
0.0
 40
0.0
 40
0.0
 40
0.0
 40
0.0
 40
0.500000000000001
 40
0.500000000000001
 40
0.7500000000000003
 40
0.7500000000000003
 40
1.0
 40
1.0
 40
1.0
 40
1.0
 10
90.09767951469036
 20
155.3364563648009
 30
0.0
 10
90.15408569337062
 20
155.2886339911411
 30
0.0
 10
90.22424859484238
 20
155.2483631442026
 30
0.0
 10
90.34225930823158
 20
155.2403172757256
 30
0.0
 10
90.38246509182706
 20
155.2468798740645
 30
0.0
 10
90.45618578856012
 20
155.2742619685181
 30
0.0
 10
90.48904651034661
 20
155.2940234590485
 30
0.0
 10
90.51921491227588
 20
155.3169561702365
 30
0.0
  0
SPLINE
  5
116
330
1F
100
AcDbEntity
  8
0
  6
HIDDEN
 62
     7
370
     0
100
AcDbSpline
210
0.0
220
0.0
230
1.0
 70
     8
 71
     3
 72
    16
 73
    12
 74
     0
 42
0.00000001
 43
0.00000001
 12
1.0
 22
0.0
 32
0.0
 13
1.0
 23
0.0
 33
0.0
 40
0.0
 40
0.0
 40
0.0
 40
0.0
 40
0.0624999999999983
 40
0.0624999999999983
 40
0.1249999999999966
 40
0.1249999999999966
 40
0.2499999999999994
 40
0.2499999999999994
 40
0.5000000000000013
 40
0.5000000000000013
 40
1.0
 40
1.0
 40
1.0
 40
1.0
 10
90.51921491223075
 20
155.3169561702846
 30
0.0
 10
90.5308278120701
 20
155.325783793266
 30
0.0
 10
90.54417899650258
 20
155.3336181751479
 30
0.0
 10
90.57357883612174
 20
155.3419283012203
 30
0.0
 10
90.58841956067707
 20
155.3414324819853
 30
0.0
 10
90.62425276864565
 20
155.3299815110159
 30
0.0
 10
90.63836597646724
 20
155.3133010101572
 30
0.0
 10
90.67285734768613
 20
155.2611803244002
 30
0.0
 10
90.68394141879654
 20
155.2213908303752
 30
0.0
 10
90.71006423659253
 20
155.0980541982781
 30
0.0
 10
90.7141918011374
 20
155.0106327877794
 30
0.0
 10
90.7141918011374
 20
154.9218955454612
 30
0.0
  0
LINE
  5
117
330
1F
100
AcDbEntity
  8
0
  6
HIDDEN
 62
     7
370
     0
100
AcDbLine
 10
90.7141918011
 20
124.8464812205
 30
0.0
 11
90.7141918011
 21
154.9218955455
 31
0.0
  0
SPLINE
  5
118
330
1F
100
AcDbEntity
  8
0
  6
HIDDEN
 62
     7
370
     0
100
AcDbSpline
210
0.0
220
0.0
230
1.0
 70
     8
 71
     3
 72
    16
 73
    12
 74
     0
 42
0.00000001
 43
0.00000001
 12
1.0
 22
0.0
 32
0.0
 13
1.0
 23
0.0
 33
0.0
 40
0.0
 40
0.0
 40
0.0
 40
0.0
 40
0.5000000000000051
 40
0.5000000000000051
 40
0.7500000000000077
 40
0.7500000000000077
 40
0.8750000000000037
 40
0.8750000000000037
 40
0.9375000000000018
 40
0.9375000000000018
 40
1.0
 40
1.0
 40
1.0
 40
1.0
 10
90.7141918011374
 20
124.8464812204789
 30
0.0
 10
90.7141918011374
 20
124.7573548552902
 30
0.0
 10
90.71004552605946
 20
124.6704934876767
 30
0.0
 10
90.6840799306659
 20
124.5475112411827
 30
0.0
 10
90.67261902528847
 20
124.5067399459514
 30
0.0
 10
90.63830728751414
 20
124.4550356259516
 30
0.0
 10
90.62428255158447
 20
124.4383652593612
 30
0.0
 10
90.58825958855071
 20
124.4269130389045
 30
0.0
 10
90.573505079461
 20
124.4264599926295
 30
0.0
 10
90.54415291831417
 20
124.4347753138457
 30
0.0
 10
90.5308130438101
 20
124.4426041989239
 30
0.0
 10
90.51921491226176
 20
124.4514205956866
 30
0.0
  0
SPLINE
  5
119
330
1F
100
AcDbEntity
  8
0
  6
HIDDEN
 62
     7
370
     0
100
AcDbSpline
210
0.0
220
0.0
230
1.0
 70
     8
 71
     3
 72
    12
 73
     8
 74
     0
 42
0.00000001
 43
0.00000001
 12
1.0
 22
0.0
 32
0.0
 13
1.0
 23
0.0
 33
0.0
 40
0.0
 40
0.0
 40
0.0
 40
0.0
 40
0.2500000000000004
 40
0.2500000000000004
 40
0.5000000000000008
 40
0.5000000000000008
 40
1.0
 40
1.0
 40
1.0
 40
1.0
 10
90.51921491226881
 20
124.4514205956955
 30
0.0
 10
90.4890230705516
 20
124.4743711247933
 30
0.0
 10
90.45566410113699
 20
124.4943405988175
 30
0.0
 10
90.38252681655639
 20
124.521441732443
 30
0.0
 10
90.34228494390243
 20
124.5280424730884
 30
0.0
 10
90.2245791669339
 20
124.5200735985817
 30
0.0
 10
90.15416868915452
 20
124.4798131404138
 30
0.0
 10
90.0976795146862
 20
124.4319204011357
 30
0.0
  0
SPLINE
  5
11A
330
1F
100
AcDbEntity
  8
0
  6
HIDDEN
 62
     7
370
     0
100
AcDbSpline
210
0.0
220
0.0
230
1.0
 70
     8
 71
     3
 72
    12
 73
     8
 74
     0
 42
0.00000001
 43
0.00000001
 12
1.0
 22
0.0
 32
0.0
 13
1.0
 23
0.0
 33
0.0
 40
0.0
 40
0.0
 40
0.0
 40
0.0
 40
0.2500000000000043
 40
0.2500000000000043
 40
0.500000000000006
 40
0.500000000000006
 40
1.0
 40
1.0
 40
1.0
 40
1.0
 10
90.09767951468584
 20
124.4319204011359
 30
0.0
 10
90.00952557694809
 20
124.3571815932818
 30
0.0
 10
89.94917215231938
 20
124.2662010927994
 30
0.0
 10
89.84291019425254
 20
124.0772872700468
 30
0.0
 10
89.80067802769048
 20
123.9807828105062
 30
0.0
 10
89.6896073323733
 20
123.6900150563391
 30
0.0
 10
89.63667055594651
 20
123.4943482417953
 30
0.0
 10
89.59287145757771
 20
123.300281756729
 30
0.0
  0
SPLINE
  5
11B
330
1F
100
AcDbEntity
  8
0
  6
HIDDEN
 62
     7
370
     0
100
AcDbSpline
210
0.0
220
0.0
230
1.0
 70
     8
 71
     3
 72
    12
 73
     8
 74
     0
 42
0.00000001
 43
0.00000001
 12
1.0
 22
0.0
 32
0.0
 13
1.0
 23
0.0
 33
0.0
 40
0.0
 40
0.0
 40
0.0
 40
0.0
 40
0.5000000000000008
 40
0.5000000000000008
 40
0.7500000000000003
 40
0.7500000000000003
 40
1.0
 40
1.0
 40
1.0
 40
1.0
 10
89.59287145757774
 20
118.114107427968
 30
0.0
 10
89.63661799841432
 20
118.0875132573268
 30
0.0
 10
89.68950235364582
 20
118.0677530320011
 30
0.0
 10
89.80106944098199
 20
118.047302041772
 30
0.0
 10
89.84365303752496
 20
118.0420418171155
 30
0.0
 10
89.94856976460677
 20
118.0341590231929
 30
0.0
 10
90.01010337245155
 20
118.0315948980137
 30
0.0
 10
90.09767951467771
 20
118.0293946804941
 30
0.0
  0
LINE
  5
11C
330
1F
100
AcDbEntity
  8
0
  6
HIDDEN
 62
     7
370
     0
100
AcDbLine
 10
90.7141918011
 20
117.3443681041
 30
0.0
 11
90.7141918011
 21
117.8245938947
 31
0.0
  0
LINE
  5
11D
330
1F
100
AcDbEntity
  8
0
  6
HIDDEN
 62
     7
370
     0
100
AcDbLine
 10
90.7141918011
 20
161.9437828712
 30
0.0
 11
90.7141918011
 21
162.4240086618
 31
0.0
  0
SPLINE
  5
11E
330
1F
100
AcDbEntity
  8
0
  6
HIDDEN
 62
     7
370
     0
100
AcDbSpline
210
0.0
220
0.0
230
1.0
 70
     8
 71
     3
 72
    12
 73
     8
 74
     0
 42
0.00000001
 43
0.00000001
 12
1.0
 22
0.0
 32
0.0
 13
1.0
 23
0.0
 33
0.0
 40
0.0
 40
0.0
 40
0.0
 40
0.0
 40
0.2499999999999996
 40
0.2499999999999996
 40
0.4999999999999991
 40
0.4999999999999991
 40
1.0
 40
1.0
 40
1.0
 40
1.0
 10
90.09767951468567
 20
161.738982085446
 30
0.0
 10
90.0089948548293
 20
161.736754018105
 30
0.0
 10
89.94907643910591
 20
161.7342522340746
 30
0.0
 10
89.84341721178515
 20
161.7263207982386
 30
0.0
 10
89.80077597367023
 20
161.7210286433418
 30
0.0
 10
89.68958663156768
 20
161.7006237028546
 30
0.0
 10
89.63665994944672
 20
161.6808890112678
 30
0.0
 10
89.59287145757773
 20
161.6542693379722
 30
0.0
  0
SPLINE
  5
11F
330
1F
100
AcDbEntity
  8
0
  6
HIDDEN
 62
     7
370
     0
100
AcDbSpline
210
0.0
220
0.0
230
1.0
 70
     8
 71
     3
 72
    12
 73
     8
 74
     0
 42
0.00000001
 43
0.00000001
 12
1.0
 22
0.0
 32
0.0
 13
1.0
 23
0.0
 33
0.0
 40
0.0
 40
0.0
 40
0.0
 40
0.0
 40
0.4999999999999994
 40
0.4999999999999994
 40
0.7500000000000011
 40
0.7500000000000011
 40
1.0
 40
1.0
 40
1.0
 40
1.0
 10
89.59287145757617
 20
156.4680950092113
 30
0.0
 10
89.63663293387492
 20
156.2741952212492
 30
0.0
 10
89.68953924952794
 20
156.0783388573124
 30
0.0
 10
89.8012504471753
 20
155.7861967108134
 30
0.0
 10
89.84376989076169
 20
155.6894787741155
 30
0.0
 10
89.9488932333291
 20
155.502754337691
 30
0.0
 10
90.01045919704679
 20
155.4104036294213
 30
0.0
 10
90.09767951468952
 20
155.3364563648016
 30
0.0
  0
LINE
  5
120
330
1F
100
AcDbEntity
  8
0
  6
HIDDEN
 62
     7
370
     0
100
AcDbLine
 10
90.7141918011
 20
117.8245938947
 30
0.0
 11
90.7141918011
 21
132.8623010572
 31
0.0
  0
LINE
  5
121
330
1F
100
AcDbEntity
  8
0
  6
HIDDEN
 62
     7
370
     0
100
AcDbLine
 10
90.7141918011
 20
146.9060757087
 30
0.0
 11
90.7141918011
 21
161.9437828712
 31
0.0
  0
LINE
  5
122
330
1F
100
AcDbEntity
  8
0
  6
HIDDEN
 62
     7
370
     0
100
AcDbLine
 10
112.9141918011
 20
119.884188383
 30
0.0
 11
112.9141918011
 21
159.884188383
 31
0.0
  0
CIRCLE
  5
123
330
1F
100
AcDbEntity
  8
0
  6
HIDDEN
 62
     7
370
     0
100
AcDbCircle
 10
75.4141918011
 20
139.884188383
 30
0.0
 40
4.050000000000011
  0
LINE
  5
124
330
1F
100
AcDbEntity
  8
0
  6
HIDDEN
 62
     7
370
     0
100
AcDbLine
 10
54.4444202408
 20
155.1971394259
 30
0.0
 11
54.4444202408
 21
124.5712373401
 31
0.0
  0
LINE
  5
125
330
1F
100
AcDbEntity
  8
0
  6
HIDDEN
 62
     7
370
     0
100
AcDbLine
 10
52.9141918011
 20
123.6877595385
 30
0.0
 11
52.9141918011
 21
156.0806172274
 31
0.0
  0
SPLINE
  5
126
330
1F
100
AcDbEntity
  8
0
  6
HIDDEN
 62
     7
370
     0
100
AcDbSpline
210
0.0
220
0.0
230
1.0
 70
     8
 71
     3
 72
    66
 73
    62
 74
     0
 42
0.00000001
 43
0.00000001
 12
1.0
 22
0.0
 32
0.0
 13
1.0
 23
0.0
 33
0.0
 40
-0.0312499999999996
 40
-0.0312499999999996
 40
0.0
 40
0.0
 40
0.0312500000000006
 40
0.0312500000000006
 40
0.0625000000000013
 40
0.0625000000000013
 40
0.0937500000000019
 40
0.0937500000000019
 40
0.1250000000000025
 40
0.1250000000000025
 40
0.1562500000000032
 40
0.1562500000000032
 40
0.1875000000000038
 40
0.1875000000000038
 40
0.2187500000000044
 40
0.2187500000000044
 40
0.2500000000000051
 40
0.2500000000000051
 40
0.2812500000000057
 40
0.2812500000000057
 40
0.3125000000000063
 40
0.3125000000000063
 40
0.3437500000000069
 40
0.3437500000000069
 40
0.3750000000000075
 40
0.3750000000000075
 40
0.4062500000000082
 40
0.4062500000000082
 40
0.4375000000000088
 40
0.4375000000000088
 40
0.4687500000000095
 40
0.4687500000000095
 40
0.5000000000000101
 40
0.5000000000000101
 40
0.5625000000000087
 40
0.5625000000000087
 40
0.593750000000008
 40
0.593750000000008
 40
0.6250000000000073
 40
0.6250000000000073
 40
0.6562500000000066
 40
0.6562500000000066
 40
0.6875000000000059
 40
0.6875000000000059
 40
0.7187500000000052
 40
0.7187500000000052
 40
0.7500000000000044
 40
0.7500000000000044
 40
0.7812500000000039
 40
0.7812500000000039
 40
0.8125000000000033
 40
0.8125000000000033
 40
0.8437500000000028
 40
0.8437500000000028
 40
0.8750000000000021
 40
0.8750000000000021
 40
0.937500000000001
 40
0.937500000000001
 40
0.9687500000000004
 40
0.9687500000000004
 40
1.0
 40
1.0
 40
1.031250000000001
 40
1.031250000000001
 10
208.7487580534161
 20
132.6230030075099
 30
0.0
 10
209.0796255488587
 20
132.6230030075099
 30
0.0
 10
209.2422432965861
 20
132.6376635937964
 30
0.0
 10
209.5620931553212
 20
132.6951536466266
 30
0.0
 10
209.7210016471778
 20
132.7386990127478
 30
0.0
 10
210.0236246965034
 20
132.8524616163663
 30
0.0
 10
210.1671147500292
 20
132.9221559498964
 30
0.0
 10
210.4386747253794
 20
133.0873399708796
 30
0.0
 10
210.5670522819391
 20
133.1835810769005
 30
0.0
 10
210.797259398437
 20
133.3946608926521
 30
0.0
 10
210.900654042349
 20
133.5102664701473
 30
0.0
 10
211.0834240094647
 20
133.7627160095711
 30
0.0
 10
211.1609322336402
 20
133.8973801233173
 30
0.0
 10
211.2856998074409
 20
134.1777932368169
 30
0.0
 10
211.3338355871689
 20
134.3256234897243
 30
0.0
 10
211.3981572220611
 20
134.629594870253
 30
0.0
 10
211.4140985029003
 20
134.783244457835
 30
0.0
 10
211.414284290561
 20
135.0938837560806
 30
0.0
 10
211.3979962787739
 20
135.2524824600789
 30
0.0
 10
211.3341123843448
 20
135.5606270951238
 30
0.0
 10
211.2868479515768
 20
135.7111718214277
 30
0.0
 10
211.1614398407518
 20
136.0049362623274
 30
0.0
 10
211.0832730379921
 20
136.1472017813186
 30
0.0
 10
210.9024654044761
 20
136.4118432194452
 30
0.0
 10
210.7989289271502
 20
136.5360986478725
 30
0.0
 10
210.5660957207102
 20
136.7656757401676
 30
0.0
 10
210.4401253859177
 20
136.8678192496421
 30
0.0
 10
210.1696701704748
 20
137.0473322032674
 30
0.0
 10
210.02340891809
 20
137.1253326804373
 30
0.0
 10
209.7209668272923
 20
137.2503198686837
 30
0.0
 10
209.5651473466687
 20
137.2976475757514
 30
0.0
 10
209.2442965854683
 20
137.361784085991
 30
0.0
 10
209.0784358298735
 20
137.3782221401628
 30
0.0
 10
208.5886097964336
 20
137.3784119236551
 30
0.0
 10
208.2591675404071
 20
137.3127292536121
 30
0.0
 10
207.8077096268703
 20
137.1266129773295
 30
0.0
 10
207.6619902485312
 20
137.0493110823955
 30
0.0
 10
207.389167213649
 20
136.8686156917728
 30
0.0
 10
207.2634219921039
 20
136.7665114307084
 30
0.0
 10
207.0327560433755
 20
136.5396310221758
 30
0.0
 10
206.9271853364729
 20
136.4134986081447
 30
0.0
 10
206.7457999488717
 20
136.1484079441998
 30
0.0
 10
206.6688545490225
 20
136.0087051921991
 30
0.0
 10
206.5428947827495
 20
135.7150444163149
 30
0.0
 10
206.4946826659644
 20
135.5619684055961
 30
0.0
 10
206.4307637173051
 20
135.254933416504
 30
0.0
 10
206.4143298299558
 20
135.0990347322938
 30
0.0
 10
206.4140554953488
 20
134.7847460746252
 30
0.0
 10
206.430139101279
 20
134.6309196809565
 30
0.0
 10
206.493524987632
 20
134.3295615658971
 30
0.0
 10
206.5416510098257
 20
134.1804610178956
 30
0.0
 10
206.6668567747954
 20
133.8983743214901
 30
0.0
 10
206.7435174855533
 20
133.7651429024523
 30
0.0
 10
206.9248638842401
 20
133.5137998675578
 30
0.0
 10
207.030100911881
 20
133.3957392140238
 30
0.0
 10
207.3750454676435
 20
133.0790371149405
 30
0.0
 10
207.6534409949028
 20
132.9096275723851
 30
0.0
 10
208.1043573387785
 20
132.739696321664
 30
0.0
 10
208.2623055200781
 20
132.6960203840926
 30
0.0
 10
208.5853061002951
 20
132.6376652791158
 30
0.0
 10
208.7487580534161
 20
132.6230030075099
 30
0.0
 10
209.0796255488587
 20
132.6230030075099
 30
0.0
  0
LINE
  5
127
330
1F
100
AcDbEntity
  8
0
  6
HIDDEN
 62
     7
370
     0
100
AcDbLine
 10
224.9141918011
 20
123.884188383
 30
0.0
 11
224.9141918011
 21
155.884188383
 31
0.0
  0
LINE
  5
128
330
1F
100
AcDbEntity
  8
0
  6
HIDDEN
 62
     7
370
     0
100
AcDbLine
 10
60.9444202408
 20
154.2305985445
 30
0.0
 11
60.9444202408
 21
125.5377782215
 31
0.0
  0
LINE
  5
129
330
1F
100
AcDbEntity
  8
0
  6
HIDDEN
 62
     7
370
     0
100
AcDbLine
 10
66.7444202408
 20
153.884188383
 30
0.0
 11
66.7444202408
 21
125.884188383
 31
0.0
  0
LINE
  5
12A
330
1F
100
AcDbEntity
  8
0
  6
HIDDEN
 62
     7
370
     0
100
AcDbLine
 10
59.3444202408
 20
153.884188383
 30
0.0
 11
59.3444202408
 21
125.884188383
 31
0.0
  0
LINE
  5
12B
330
1F
100
AcDbEntity
  8
0
  6
HIDDEN
 62
     7
370
     0
100
AcDbLine
 10
60.3444202408
 20
153.884188383
 30
0.0
 11
60.3444202408
 21
125.884188383
 31
0.0
  0
SPLINE
  5
12C
330
1F
100
AcDbEntity
  8
0
  6
HIDDEN
 62
     7
370
     0
100
AcDbSpline
210
0.0
220
0.0
230
1.0
 70
     8
 71
     3
 72
    10
 73
     6
 74
     0
 42
0.00000001
 43
0.00000001
 12
1.0
 22
0.0
 32
0.0
 13
1.0
 23
0.0
 33
0.0
 40
0.0
 40
0.0
 40
0.0
 40
0.0
 40
0.5
 40
0.5
 40
1.0
 40
1.0
 40
1.0
 40
1.0
 10
79.4141918011374
 20
140.5186172599926
 30
0.0
 10
79.44733921921384
 20
140.3096266589845
 30
0.0
 10
79.4641980645755
 20
140.0980641929629
 30
0.0
 10
79.46418553422782
 20
139.6700754269953
 30
0.0
 10
79.44727057648744
 20
139.4583173225797
 30
0.0
 10
79.4141918011374
 20
139.2497595059476
 30
0.0
  0
LINE
  5
12D
330
1F
100
AcDbEntity
  8
0
  6
HIDDEN
 62
     7
370
     0
100
AcDbLine
 10
79.9141918011
 20
153.3841883391
 30
0.0
 11
79.9141918011
 21
126.384188383
 31
0.0
  0
SPLINE
  5
12E
330
1F
100
AcDbEntity
  8
0
  6
HIDDEN
 62
     7
370
     0
100
AcDbSpline
210
0.0
220
0.0
230
1.0
 70
     8
 71
     3
 72
    10
 73
     6
 74
     0
 42
0.00000001
 43
0.00000001
 12
1.0
 22
0.0
 32
0.0
 13
1.0
 23
0.0
 33
0.0
 40
0.0
 40
0.0
 40
0.0
 40
0.0
 40
0.5
 40
0.5
 40
1.0
 40
1.0
 40
1.0
 40
1.0
 10
79.4141918011374
 20
139.2497595059476
 30
0.0
 10
79.44738076361112
 20
139.4590120395301
 30
0.0
 10
79.46408153986577
 20
139.669828800429
 30
0.0
 10
79.46430098031041
 20
140.0943610816323
 30
0.0
 10
79.44742126491703
 20
140.3091093704049
 30
0.0
 10
79.41419180113742
 20
140.5186172599925
 30
0.0
  0
SPLINE
  5
12F
330
1F
100
AcDbEntity
  8
0
  6
HIDDEN
 62
     7
370
     0
100
AcDbSpline
210
0.0
220
0.0
230
1.0
 70
     8
 71
     3
 72
    68
 73
    64
 74
     0
 42
0.00000001
 43
0.00000001
 12
1.0
 22
0.0
 32
0.0
 13
1.0
 23
0.0
 33
0.0
 40
0.0
 40
0.0
 40
0.0
 40
0.0
 40
0.03125
 40
0.03125
 40
0.0624999999999999
 40
0.0624999999999999
 40
0.0937499999999999
 40
0.0937499999999999
 40
0.1249999999999999
 40
0.1249999999999999
 40
0.1562499999999998
 40
0.1562499999999998
 40
0.1874999999999998
 40
0.1874999999999998
 40
0.2187499999999998
 40
0.2187499999999998
 40
0.2499999999999998
 40
0.2499999999999998
 40
0.2812499999999998
 40
0.2812499999999998
 40
0.3124999999999997
 40
0.3124999999999997
 40
0.3437499999999997
 40
0.3437499999999997
 40
0.3749999999999996
 40
0.3749999999999996
 40
0.4062499999999996
 40
0.4062499999999996
 40
0.4374999999999996
 40
0.4374999999999996
 40
0.4687499999999995
 40
0.4687499999999995
 40
0.4999999999999994
 40
0.4999999999999994
 40
0.5624999999999993
 40
0.5624999999999993
 40
0.5937499999999993
 40
0.5937499999999993
 40
0.6249999999999993
 40
0.6249999999999993
 40
0.6562499999999994
 40
0.6562499999999994
 40
0.6874999999999994
 40
0.6874999999999994
 40
0.7187499999999996
 40
0.7187499999999996
 40
0.7499999999999996
 40
0.7499999999999996
 40
0.7812499999999997
 40
0.7812499999999997
 40
0.8124999999999998
 40
0.8124999999999998
 40
0.8437499999999998
 40
0.8437499999999998
 40
0.8749999999999999
 40
0.8749999999999999
 40
0.9062499999999999
 40
0.9062499999999999
 40
0.9375
 40
0.9375
 40
0.96875
 40
0.96875
 40
1.0
 40
1.0
 40
1.0
 40
1.0
 10
79.4141918011374
 20
139.2497595059476
 30
0.0
 10
79.37417684878771
 20
138.997469903132
 30
0.0
 10
79.31123504737641
 20
138.7534710527562
 30
0.0
 10
79.14184838530436
 20
138.2810526636937
 30
0.0
 10
79.03415482271888
 20
138.0506392775337
 30
0.0
 10
78.778870054181
 20
137.6159346817366
 30
0.0
 10
78.63283082370876
 20
137.4132927150853
 30
0.0
 10
78.30460938714951
 20
137.0363034243275
 30
0.0
 10
78.12036209937452
 20
136.8606454707501
 30
0.0
 10
77.72740193206623
 20
136.5503875018038
 30
0.0
 10
77.51810733510708
 20
136.414442294154
 30
0.0
 10
77.07322190816971
 20
136.1810521987481
 30
0.0
 10
76.83642431567068
 20
136.0838055923337
 30
0.0
 10
76.35568924675142
 20
135.9371341344623
 30
0.0
 10
76.10944615356863
 20
135.8862417895199
 30
0.0
 10
75.6047293735892
 20
135.8307144392844
 30
0.0
 10
75.3485346726527
 20
135.8268895522145
 30
0.0
 10
74.8461559234526
 20
135.8663133348589
 30
0.0
 10
74.596906224269
 20
135.9093407840702
 30
0.0
 10
74.10537842679025
 20
136.0430457535215
 30
0.0
 10
73.8700828255644
 20
136.1317155994266
 30
0.0
 10
73.41916893090227
 20
136.350746963204
 30
0.0
 10
73.2015565804389
 20
136.4827485288876
 30
0.0
 10
72.79834941089061
 20
136.7821058098905
 30
0.0
 10
72.61273791845618
 20
136.9487247373283
 30
0.0
 10
72.27274984805368
 20
137.3158361627558
 30
0.0
 10
72.11767691723078
 20
137.5181399082965
 30
0.0
 10
71.85133384056743
 20
137.9422205878906
 30
0.0
 10
71.73834973985065
 20
138.1653801933568
 30
0.0
 10
71.55349448291976
 20
138.6347354349509
 30
0.0
 10
71.48235372141636
 20
138.8809459382864
 30
0.0
 10
71.3883933101282
 20
139.3754717646576
 30
0.0
 10
71.36438398017181
 20
139.6264027597496
 30
0.0
 10
71.36381085949922
 20
140.3906481393058
 30
0.0
 10
71.45920997081785
 20
140.8928724413568
 30
0.0
 10
71.73707376301897
 20
141.6004369476292
 30
0.0
 10
71.85023571909953
 20
141.82414321137
 30
0.0
 10
72.1163669011434
 20
142.2484131226906
 30
0.0
 10
72.27119467534311
 20
142.4506650847466
 30
0.0
 10
72.61137578113095
 20
142.8183758261148
 30
0.0
 10
72.79687823808068
 20
142.9849927013641
 30
0.0
 10
73.19917203914001
 20
143.2840420801596
 30
0.0
 10
73.417180087392
 20
143.416498788188
 30
0.0
 10
73.86777845454229
 20
143.6357051888926
 30
0.0
 10
74.10232745342307
 20
143.7241903188963
 30
0.0
 10
74.5907874469754
 20
143.8576765488349
 30
0.0
 10
74.84305284268926
 20
143.9016182613287
 30
0.0
 10
75.34523348084954
 20
143.9414272578022
 30
0.0
 10
75.59771559820123
 20
143.9380830449887
 30
0.0
 10
76.10558064127073
 20
143.8829037249982
 30
0.0
 10
76.35312611445454
 20
143.8318577965287
 30
0.0
 10
76.83409365192524
 20
143.6854474082932
 30
0.0
 10
77.0700535170305
 20
143.5888012035196
 30
0.0
 10
77.51662396655212
 20
143.3548962592065
 30
0.0
 10
77.72626882912559
 20
143.21877124538
 30
0.0
 10
78.11925553588004
 20
142.9087169810509
 30
0.0
 10
78.30365143969505
 20
142.7330597334758
 30
0.0
 10
78.63220185755543
 20
142.3559198108114
 30
0.0
 10
78.77814395407862
 20
142.1534536055415
 30
0.0
 10
79.03302930928076
 20
141.7198773074082
 30
0.0
 10
79.14134062208909
 20
141.4885854638266
 30
0.0
 10
79.31117559950604
 20
141.0152257836934
 30
0.0
 10
79.37417096064307
 20
140.7709439868726
 30
0.0
 10
79.41419180113739
 20
140.5186172599925
 30
0.0
  0
SPLINE
  5
130
330
1F
100
AcDbEntity
  8
0
  6
HIDDEN
 62
     7
370
     0
100
AcDbSpline
210
0.0
220
0.0
230
1.0
 70
     8
 71
     3
 72
    68
 73
    64
 74
     0
 42
0.00000001
 43
0.00000001
 12
1.0
 22
0.0
 32
0.0
 13
1.0
 23
0.0
 33
0.0
 40
0.0
 40
0.0
 40
0.0
 40
0.0
 40
0.03125
 40
0.03125
 40
0.0625
 40
0.0625
 40
0.09375
 40
0.09375
 40
0.125
 40
0.125
 40
0.15625
 40
0.15625
 40
0.1875
 40
0.1875
 40
0.21875
 40
0.21875
 40
0.25
 40
0.25
 40
0.28125
 40
0.28125
 40
0.3125
 40
0.3125
 40
0.34375
 40
0.34375
 40
0.375
 40
0.375
 40
0.40625
 40
0.40625
 40
0.4375
 40
0.4375
 40
0.46875
 40
0.46875
 40
0.5
 40
0.5
 40
0.5625
 40
0.5625
 40
0.59375
 40
0.59375
 40
0.625
 40
0.625
 40
0.65625
 40
0.65625
 40
0.6875
 40
0.6875
 40
0.71875
 40
0.71875
 40
0.75
 40
0.75
 40
0.78125
 40
0.78125
 40
0.8125
 40
0.8125
 40
0.84375
 40
0.84375
 40
0.875
 40
0.875
 40
0.90625
 40
0.90625
 40
0.9375
 40
0.9375
 40
0.96875
 40
0.96875
 40
1.0
 40
1.0
 40
1.0
 40
1.0
 10
79.4141918011374
 20
140.5186172599925
 30
0.0
 10
79.37417684878771
 20
140.7709068628081
 30
0.0
 10
79.31123504737641
 20
141.014905713184
 30
0.0
 10
79.14184838530436
 20
141.4873241022464
 30
0.0
 10
79.03415482271888
 20
141.7177374884064
 30
0.0
 10
78.778870054181
 20
142.1524420842035
 30
0.0
 10
78.63283082370876
 20
142.3550840508548
 30
0.0
 10
78.30460938714951
 20
142.7320733416126
 30
0.0
 10
78.12036209937453
 20
142.90773129519
 30
0.0
 10
77.72740193206623
 20
143.2179892641363
 30
0.0
 10
77.51810733510709
 20
143.3539344717862
 30
0.0
 10
77.07322190816971
 20
143.587324567192
 30
0.0
 10
76.83642431567068
 20
143.6845711736065
 30
0.0
 10
76.35568924675141
 20
143.8312426314778
 30
0.0
 10
76.10944615356863
 20
143.8821349764202
 30
0.0
 10
75.6047293735892
 20
143.9376623266557
 30
0.0
 10
75.3485346726527
 20
143.9414872137257
 30
0.0
 10
74.84615592345259
 20
143.9020634310812
 30
0.0
 10
74.59690622426899
 20
143.85903598187
 30
0.0
 10
74.10537842679024
 20
143.7253310124187
 30
0.0
 10
73.8700828255644
 20
143.6366611665135
 30
0.0
 10
73.41916893090227
 20
143.4176298027361
 30
0.0
 10
73.20155658043892
 20
143.2856282370525
 30
0.0
 10
72.79834941089061
 20
142.9862709560497
 30
0.0
 10
72.61273791845618
 20
142.8196520286118
 30
0.0
 10
72.27274984805368
 20
142.4525406031843
 30
0.0
 10
72.11767691723078
 20
142.2502368576436
 30
0.0
 10
71.85133384056742
 20
141.8261561780496
 30
0.0
 10
71.73834973985065
 20
141.6029965725834
 30
0.0
 10
71.55349448291976
 20
141.1336413309892
 30
0.0
 10
71.48235372141636
 20
140.8874308276537
 30
0.0
 10
71.3883933101282
 20
140.3929050012825
 30
0.0
 10
71.36438398017181
 20
140.1419740061905
 30
0.0
 10
71.36381085949922
 20
139.3777286266343
 30
0.0
 10
71.45920997081785
 20
138.8755043245833
 30
0.0
 10
71.73707376301897
 20
138.167939818311
 30
0.0
 10
71.85023571909953
 20
137.9442335545701
 30
0.0
 10
72.1163669011434
 20
137.5199636432496
 30
0.0
 10
72.27119467534311
 20
137.3177116811935
 30
0.0
 10
72.61137578113095
 20
136.9500009398253
 30
0.0
 10
72.79687823808067
 20
136.783384064576
 30
0.0
 10
73.19917203914
 20
136.4843346857806
 30
0.0
 10
73.41718008739201
 20
136.3518779777522
 30
0.0
 10
73.8677784545423
 20
136.1326715770475
 30
0.0
 10
74.10232745342306
 20
136.0441864470439
 30
0.0
 10
74.59078744697538
 20
135.9107002171052
 30
0.0
 10
74.84305284268926
 20
135.8667585046115
 30
0.0
 10
75.34523348084954
 20
135.8269495081379
 30
0.0
 10
75.59771559820123
 20
135.8302937209515
 30
0.0
 10
76.10558064127072
 20
135.885473040942
 30
0.0
 10
76.35312611445454
 20
135.9365189694114
 30
0.0
 10
76.83409365192526
 20
136.082929357647
 30
0.0
 10
77.07005351703052
 20
136.1795755624206
 30
0.0
 10
77.51662396655212
 20
136.4134805067336
 30
0.0
 10
77.72626882912557
 20
136.5496055205601
 30
0.0
 10
78.11925553588004
 20
136.8596597848892
 30
0.0
 10
78.30365143969505
 20
137.0353170324643
 30
0.0
 10
78.63220185755543
 20
137.4124569551288
 30
0.0
 10
78.7781439540786
 20
137.6149231603986
 30
0.0
 10
79.03302930928078
 20
138.048499458532
 30
0.0
 10
79.14134062208909
 20
138.2797913021135
 30
0.0
 10
79.31117559950604
 20
138.7531509822468
 30
0.0
 10
79.37417096064307
 20
138.9974327790675
 30
0.0
 10
79.41419180113739
 20
139.2497595059476
 30
0.0
  0
SPLINE
  5
131
330
1F
100
AcDbEntity
  8
0
  6
HIDDEN
 62
     7
370
     0
100
AcDbSpline
210
0.0
220
0.0
230
1.0
 70
     8
 71
     3
 72
    50
 73
    46
 74
     0
 42
0.00000001
 43
0.00000001
 12
1.0
 22
0.0
 32
0.0
 13
1.0
 23
0.0
 33
0.0
 40
0.0
 40
0.0
 40
0.0
 40
0.0
 40
0.0624999999999962
 40
0.0624999999999962
 40
0.1249999999999923
 40
0.1249999999999923
 40
0.1562499999999918
 40
0.1562499999999918
 40
0.1874999999999913
 40
0.1874999999999913
 40
0.2187499999999908
 40
0.2187499999999908
 40
0.2499999999999902
 40
0.2499999999999902
 40
0.2812499999999897
 40
0.2812499999999897
 40
0.3124999999999892
 40
0.3124999999999892
 40
0.3749999999999881
 40
0.3749999999999881
 40
0.437499999999987
 40
0.437499999999987
 40
0.4999999999999859
 40
0.4999999999999859
 40
0.5312499999999853
 40
0.5312499999999853
 40
0.5624999999999847
 40
0.5624999999999847
 40
0.5937499999999841
 40
0.5937499999999841
 40
0.6249999999999837
 40
0.6249999999999837
 40
0.6874999999999847
 40
0.6874999999999847
 40
0.7499999999999858
 40
0.7499999999999858
 40
0.8124999999999868
 40
0.8124999999999868
 40
0.843749999999989
 40
0.843749999999989
 40
0.8749999999999912
 40
0.8749999999999912
 40
0.9374999999999956
 40
0.9374999999999956
 40
1.0
 40
1.0
 40
1.0
 40
1.0
 10
210.9141918011373
 20
141.7914928276934
 30
0.0
 10
210.8373283837853
 20
142.0085168893366
 30
0.0
 10
210.7213839907384
 20
142.1983717500077
 30
0.0
 10
210.4185456345578
 20
142.5293060036685
 30
0.0
 10
210.2369728668965
 20
142.6641016958594
 30
0.0
 10
209.9244046371416
 20
142.8223311562515
 30
0.0
 10
209.8154280573664
 20
142.8666855790284
 30
0.0
 10
209.5873844098067
 20
142.9396976946082
 30
0.0
 10
209.467058725514
 20
142.9685497762253
 30
0.0
 10
209.2207323982543
 20
143.008729511697
 30
0.0
 10
209.0965102922993
 20
143.0199626777877
 30
0.0
 10
208.8459318111519
 20
143.0252419212293
 30
0.0
 10
208.7180237790415
 20
143.0190383504182
 30
0.0
 10
208.4691571486266
 20
142.9891233236744
 30
0.0
 10
208.3481686663162
 20
142.965697146908
 30
0.0
 10
208.1126218682042
 20
142.9017938906292
 30
0.0
 10
207.9983113765835
 20
142.8611493406008
 30
0.0
 10
207.6769242728355
 20
142.7171503429131
 30
0.0
 10
207.4842942199214
 20
142.5885549037728
 30
0.0
 10
207.1662363094868
 20
142.2773368902538
 30
0.0
 10
207.0369271447019
 20
142.090157227447
 30
0.0
 10
206.8623234169063
 20
141.6757872118971
 30
0.0
 10
206.8149042874192
 20
141.4417102492323
 30
0.0
 10
206.8138479569722
 20
141.0838145027288
 30
0.0
 10
206.824943942139
 20
140.9610449471265
 30
0.0
 10
206.8695264631479
 20
140.7181350530728
 30
0.0
 10
206.9025805418352
 20
140.5987321074348
 30
0.0
 10
206.9894394977805
 20
140.3640901733511
 30
0.0
 10
207.0437262634584
 20
140.2483963308711
 30
0.0
 10
207.1689134291974
 20
140.0299398880131
 30
0.0
 10
207.2401228352608
 20
139.9260454564275
 30
0.0
 10
207.4799346031737
 20
139.6307230379073
 30
0.0
 10
207.6687035389255
 20
139.462239254468
 30
0.0
 10
208.0999197586077
 20
139.1956764049932
 30
0.0
 10
208.3335681216428
 20
139.102995944211
 30
0.0
 10
208.8340192618168
 20
139.0133944796753
 30
0.0
 10
209.0886044605572
 20
139.0199543815606
 30
0.0
 10
209.459877178859
 20
139.1053921067897
 30
0.0
 10
209.5790959982725
 20
139.1456702608863
 30
0.0
 10
209.8093037491107
 20
139.2479514950745
 30
0.0
 10
209.9209392042548
 20
139.3105817644654
 30
0.0
 10
210.2331932040908
 20
139.5234678028965
 30
0.0
 10
210.4179217230263
 20
139.7028985782619
 30
0.0
 10
210.7184359950631
 20
140.106168447766
 30
0.0
 10
210.8372250823364
 20
140.3335870578075
 30
0.0
 10
210.9141918011374
 20
140.5735462215619
 30
0.0
  0
SPLINE
  5
132
330
1F
100
AcDbEntity
  8
0
  6
HIDDEN
 62
     7
370
     0
100
AcDbSpline
210
0.0
220
0.0
230
1.0
 70
     8
 71
     3
 72
    14
 73
    10
 74
     0
 42
0.00000001
 43
0.00000001
 12
1.0
 22
0.0
 32
0.0
 13
1.0
 23
0.0
 33
0.0
 40
0.0
 40
0.0
 40
0.0
 40
0.0
 40
0.2500000000000002
 40
0.2500000000000002
 40
0.5000000000000001
 40
0.5000000000000001
 40
0.75
 40
0.75
 40
1.0
 40
1.0
 40
1.0
 40
1.0
 10
210.9141918011374
 20
140.5735462215619
 30
0.0
 10
210.9460570538572
 20
140.6563153059611
 30
0.0
 10
210.971024282938
 20
140.7455946392657
 30
0.0
 10
211.0052330214132
 20
140.9378493234288
 30
0.0
 10
211.0141797566013
 20
141.0410751220599
 30
0.0
 10
211.0142038206326
 20
141.2506517923449
 30
0.0
 10
211.0053710241982
 20
141.3595518869834
 30
0.0
 10
210.9711009132131
 20
141.5772668583773
 30
0.0
 10
210.9460726813157
 20
141.6848917243912
 30
0.0
 10
210.9141918011374
 20
141.7914928276934
 30
0.0
  0
SPLINE
  5
133
330
1F
100
AcDbEntity
  8
0
  6
HIDDEN
 62
     7
370
     0
100
AcDbSpline
210
0.0
220
0.0
230
1.0
 70
     8
 71
     3
 72
    62
 73
    58
 74
     0
 42
0.00000001
 43
0.00000001
 12
1.0
 22
0.0
 32
0.0
 13
1.0
 23
0.0
 33
0.0
 40
0.0
 40
0.0
 40
0.0
 40
0.0
 40
0.0312500000000013
 40
0.0312500000000013
 40
0.0625000000000026
 40
0.0625000000000026
 40
0.1250000000000038
 40
0.1250000000000038
 40
0.1562500000000044
 40
0.1562500000000044
 40
0.1875000000000051
 40
0.1875000000000051
 40
0.2187500000000059
 40
0.2187500000000059
 40
0.2500000000000068
 40
0.2500000000000068
 40
0.3125000000000068
 40
0.3125000000000068
 40
0.3437500000000068
 40
0.3437500000000068
 40
0.3750000000000068
 40
0.3750000000000068
 40
0.4062500000000068
 40
0.4062500000000068
 40
0.4375000000000067
 40
0.4375000000000067
 40
0.4687500000000067
 40
0.4687500000000067
 40
0.4843750000000061
 40
0.4843750000000061
 40
0.5000000000000054
 40
0.5000000000000054
 40
0.5312500000000049
 40
0.5312500000000049
 40
0.5625000000000043
 40
0.5625000000000043
 40
0.5937500000000038
 40
0.5937500000000038
 40
0.6250000000000031
 40
0.6250000000000031
 40
0.6562500000000026
 40
0.6562500000000026
 40
0.687500000000002
 40
0.687500000000002
 40
0.7500000000000009
 40
0.7500000000000009
 40
0.7812500000000009
 40
0.7812500000000009
 40
0.8125000000000009
 40
0.8125000000000009
 40
0.8750000000000006
 40
0.8750000000000006
 40
0.9375000000000003
 40
0.9375000000000003
 40
0.9687500000000002
 40
0.9687500000000002
 40
1.0
 40
1.0
 40
1.0
 40
1.0
 10
210.1254031939288
 20
141.7410071459678
 30
0.0
 10
210.2398980396863
 20
141.8301863769598
 30
0.0
 10
210.3360475717558
 20
141.9293808868645
 30
0.0
 10
210.5100502296988
 20
142.1418535507876
 30
0.0
 10
210.5877476146785
 20
142.2563534334347
 30
0.0
 10
210.7926333876193
 20
142.6140738256062
 30
0.0
 10
210.8934332046838
 20
142.87102928305
 30
0.0
 10
210.9848643702474
 20
143.2868480815663
 30
0.0
 10
211.0042361284711
 20
143.4271270263691
 30
0.0
 10
211.0183046280064
 20
143.7115626524129
 30
0.0
 10
211.0125782882414
 20
143.857078476993
 30
0.0
 10
210.9729374544891
 20
144.1380701891571
 30
0.0
 10
210.9385937539332
 20
144.2769102853368
 30
0.0
 10
210.8417309945854
 20
144.5369243316557
 30
0.0
 10
210.7802916518919
 20
144.6565930991339
 30
0.0
 10
210.5574938543824
 20
144.9844080199937
 30
0.0
 10
210.3643530051296
 20
145.1471775434672
 30
0.0
 10
210.0564386556697
 20
145.3029385076319
 30
0.0
 10
209.9493253469378
 20
145.341201797021
 30
0.0
 10
209.7365914551019
 20
145.3918524253341
 30
0.0
 10
209.6306387644192
 20
145.4046542867932
 30
0.0
 10
209.4212082174534
 20
145.4091108818516
 30
0.0
 10
209.3168798923241
 20
145.4005165466316
 30
0.0
 10
209.1194347588826
 20
145.3649341143826
 30
0.0
 10
209.0257623228758
 20
145.338094045075
 30
0.0
 10
208.8584433556002
 20
145.2693113828996
 30
0.0
 10
208.7825008607078
 20
145.2260317785147
 30
0.0
 10
208.7152894763578
 20
145.1573322682498
 30
0.0
 10
208.7009299857625
 20
145.1336148766356
 30
0.0
 10
208.6941330172195
 20
145.0883176619975
 30
0.0
 10
208.70138270116
 20
145.0670747236667
 30
0.0
 10
208.7493615453627
 20
145.0060666784324
 30
0.0
 10
208.8131571217163
 20
144.9704141600848
 30
0.0
 10
208.9622504197186
 20
144.8957296507898
 30
0.0
 10
209.0479414774578
 20
144.8569241620658
 30
0.0
 10
209.2277346153706
 20
144.7701668145808
 30
0.0
 10
209.3225747918502
 20
144.7222194732817
 30
0.0
 10
209.5188164158968
 20
144.6127994720357
 30
0.0
 10
209.6205813807051
 20
144.5511038229564
 30
0.0
 10
209.8236438034951
 20
144.4139408721196
 30
0.0
 10
209.925642819159
 20
144.3381983616909
 30
0.0
 10
210.1294809024291
 20
144.1680561601571
 30
0.0
 10
210.2309238869151
 20
144.073743718506
 30
0.0
 10
210.5192017802482
 20
143.7682266033741
 30
0.0
 10
210.6958881556058
 20
143.524938757637
 30
0.0
 10
210.8785627893059
 20
143.1476464487889
 30
0.0
 10
210.9254224659761
 20
143.0222053260552
 30
0.0
 10
210.990958367861
 20
142.7739489317319
 30
0.0
 10
211.0084799401189
 20
142.6560145630701
 30
0.0
 10
211.0220854051267
 20
142.3170889180488
 30
0.0
 10
210.9791512330193
 20
142.1222455051291
 30
0.0
 10
210.8235052805708
 20
141.7866817847061
 30
0.0
 10
210.713762750683
 20
141.6492435617793
 30
0.0
 10
210.4992974301159
 20
141.4666277464262
 30
0.0
 10
210.4202235754166
 20
141.4106851012379
 30
0.0
 10
210.2409880214678
 20
141.302351588032
 30
0.0
 10
210.1396937702243
 20
141.2494350761727
 30
0.0
 10
210.0217094220636
 20
141.1931070386622
 30
0.0
  0
SPLINE
  5
134
330
1F
100
AcDbEntity
  8
0
  6
HIDDEN
 62
     7
370
     0
100
AcDbSpline
210
0.0
220
0.0
230
1.0
 70
     8
 71
     3
 72
    10
 73
     6
 74
     0
 42
0.00000001
 43
0.00000001
 12
1.0
 22
0.0
 32
0.0
 13
1.0
 23
0.0
 33
0.0
 40
0.0
 40
0.0
 40
0.0
 40
0.0
 40
0.5
 40
0.5
 40
1.0
 40
1.0
 40
1.0
 40
1.0
 10
210.0217094220631
 20
141.1931070386613
 30
0.0
 10
209.9924434623253
 20
141.2568775445905
 30
0.0
 10
209.9835662637021
 20
141.33294359517
 30
0.0
 10
210.0195286522101
 20
141.5150300873796
 30
0.0
 10
210.0646942451596
 20
141.6217821412904
 30
0.0
 10
210.1254031939295
 20
141.7410071459673
 30
0.0
  0
LWPOLYLINE
  5
135
330
1F
100
AcDbEntity
  8
0
  6
HIDDEN
 62
     7
370
     0
100
AcDbPolyline
 90
       20
 70
   128
 43
0.0
 10
208.9141918011
 20
141.9041906256
 10
209.5960606865
 20
142.0124054429
 10
210.2040384978
 20
142.32532314
 10
210.6722414055
 20
142.8090342291
 10
210.9499323596
 20
143.4111211082
 10
211.0070192365
 20
144.0663383216
 10
210.8373157871
 20
144.7036829173
 10
210.4592120136
 20
145.2540887192
 10
209.9136813265
 20
145.657910718
 10
209.2598404407
 20
145.8713885344
 10
208.5685431615
 20
145.8713885344
 10
207.9147022758
 20
145.657910718
 10
207.3691715887
 20
145.2540887192
 10
206.9910678152
 20
144.7036829173
 10
206.8213643658
 20
144.0663383216
 10
206.8784512427
 20
143.4111211082
 10
207.1561421968
 20
142.8090342291
 10
207.6243451045
 20
142.32532314
 10
208.2323229158
 20
142.0124054429
 10
208.9141918011
 20
141.9041906256
  0
LWPOLYLINE
  5
136
330
1F
100
AcDbEntity
  8
0
  6
HIDDEN
 62
     7
370
     0
100
AcDbPolyline
 90
        9
 70
   128
 43
0.0
 10
210.1254031939
 20
141.741007146
 10
210.142434259
 20
141.6189833996
 10
210.1508521119
 20
141.51062701
 10
210.1505799475
 20
141.4169266324
 10
210.1416202489
 20
141.3387371991
 10
210.1240547653
 20
141.2767721188
 10
210.0980437662
 20
141.2315967675
 10
210.0638245786
 20
141.2036233299
 10
210.0217094221
 20
141.1931070387
  0
LINE
  5
137
330
1F
100
AcDbEntity
  8
0
  6
HIDDEN
 62
     7
370
     0
100
AcDbLine
 10
81.1641918011
 20
148.884188383
 30
0.0
 11
81.1641918011
 21
130.884188383
 31
0.0
  0
LINE
  5
138
330
1F
100
AcDbEntity
  8
0
  6
HIDDEN
 62
     7
370
     0
100
AcDbLine
 10
79.9141918011
 20
129.634188383
 30
0.0
 11
79.9141918011
 21
150.1068442905
 31
0.0
  0
LINE
  5
139
330
1F
100
AcDbEntity
  8
0
  6
HIDDEN
 62
     7
370
     0
100
AcDbLine
 10
106.9141918011
 20
148.884188383
 30
0.0
 11
106.9141918011
 21
130.884188383
 31
0.0
  0
LINE
  5
13A
330
1F
100
AcDbEntity
  8
0
  6
HIDDEN
 62
     7
370
     0
100
AcDbLine
 10
109.7682797415
 20
144.134188383
 30
0.0
 11
109.7682797415
 21
135.634188383
 31
0.0
  0
SPLINE
  5
13B
330
1F
100
AcDbEntity
  8
0
  6
HIDDEN
 62
     7
370
     0
100
AcDbSpline
210
0.0
220
0.0
230
1.0
 70
     8
 71
     3
 72
    14
 73
    10
 74
     0
 42
0.00000001
 43
0.00000001
 12
1.0
 22
0.0
 32
0.0
 13
1.0
 23
0.0
 33
0.0
 40
0.0
 40
0.0
 40
0.0
 40
0.0
 40
0.25
 40
0.25
 40
0.5
 40
0.5
 40
0.75
 40
0.75
 40
1.0
 40
1.0
 40
1.0
 40
1.0
 10
210.9141918011374
 20
139.1948305443782
 30
0.0
 10
210.9460570538572
 20
139.112061459979
 30
0.0
 10
210.971024282938
 20
139.0227821266744
 30
0.0
 10
211.0052330214132
 20
138.8305274425113
 30
0.0
 10
211.0141797566014
 20
138.7273016438801
 30
0.0
 10
211.0142038206326
 20
138.5177249735951
 30
0.0
 10
211.0053710241982
 20
138.4088248789565
 30
0.0
 10
210.9711009132131
 20
138.1911099075626
 30
0.0
 10
210.9460726813156
 20
138.0834850415488
 30
0.0
 10
210.9141918011374
 20
137.9768839382467
 30
0.0
  0
LINE
  5
13C
330
1F
100
AcDbEntity
  8
0
  6
HIDDEN
 62
     7
370
     0
100
AcDbLine
 10
210.9141918011
 20
139.1948305444
 30
0.0
 11
210.9141918011
 21
144.134188383
 31
0.0
  0
LINE
  5
13D
330
1F
100
AcDbEntity
  8
0
  6
HIDDEN
 62
     7
370
     0
100
AcDbLine
 10
210.9141918011
 20
140.5735462216
 30
0.0
 11
210.9141918011
 21
135.634188383
 31
0.0
  0
SPLINE
  5
13E
330
1F
100
AcDbEntity
  8
0
  6
HIDDEN
 62
     7
370
     0
100
AcDbSpline
210
0.0
220
0.0
230
1.0
 70
     8
 71
     3
 72
    50
 73
    46
 74
     0
 42
0.00000001
 43
0.00000001
 12
1.0
 22
0.0
 32
0.0
 13
1.0
 23
0.0
 33
0.0
 40
0.0
 40
0.0
 40
0.0
 40
0.0
 40
0.0624999999999973
 40
0.0624999999999973
 40
0.1249999999999945
 40
0.1249999999999945
 40
0.1562499999999931
 40
0.1562499999999931
 40
0.1874999999999918
 40
0.1874999999999918
 40
0.2187499999999905
 40
0.2187499999999905
 40
0.2499999999999891
 40
0.2499999999999891
 40
0.2812499999999877
 40
0.2812499999999877
 40
0.3124999999999863
 40
0.3124999999999863
 40
0.3749999999999866
 40
0.3749999999999866
 40
0.4374999999999868
 40
0.4374999999999868
 40
0.4999999999999871
 40
0.4999999999999871
 40
0.5312499999999873
 40
0.5312499999999873
 40
0.5624999999999875
 40
0.5624999999999875
 40
0.5937499999999877
 40
0.5937499999999877
 40
0.6249999999999878
 40
0.6249999999999878
 40
0.6874999999999882
 40
0.6874999999999882
 40
0.7499999999999886
 40
0.7499999999999886
 40
0.8124999999999889
 40
0.8124999999999889
 40
0.8437499999999908
 40
0.8437499999999908
 40
0.8749999999999926
 40
0.8749999999999926
 40
0.9374999999999963
 40
0.9374999999999963
 40
1.0
 40
1.0
 40
1.0
 40
1.0
 10
210.9141918011374
 20
137.9768839382467
 30
0.0
 10
210.8373283837853
 20
137.7598598766035
 30
0.0
 10
210.7213839907384
 20
137.5700050159325
 30
0.0
 10
210.4185456345579
 20
137.2390707622716
 30
0.0
 10
210.2369728668965
 20
137.1042750700807
 30
0.0
 10
209.9244046371416
 20
136.9460456096887
 30
0.0
 10
209.8154280573665
 20
136.9016911869117
 30
0.0
 10
209.5873844098067
 20
136.8286790713319
 30
0.0
 10
209.467058725514
 20
136.7998269897148
 30
0.0
 10
209.2207323982543
 20
136.7596472542432
 30
0.0
 10
209.0965102922993
 20
136.7484140881524
 30
0.0
 10
208.8459318111519
 20
136.7431348447108
 30
0.0
 10
208.7180237790415
 20
136.7493384155219
 30
0.0
 10
208.4691571486267
 20
136.7792534422657
 30
0.0
 10
208.3481686663162
 20
136.8026796190321
 30
0.0
 10
208.1126218682042
 20
136.8665828753109
 30
0.0
 10
207.9983113765834
 20
136.9072274253393
 30
0.0
 10
207.6769242728355
 20
137.051226423027
 30
0.0
 10
207.4842942199214
 20
137.1798218621673
 30
0.0
 10
207.1662363094868
 20
137.4910398756863
 30
0.0
 10
207.0369271447019
 20
137.6782195384931
 30
0.0
 10
206.8623234169063
 20
138.092589554043
 30
0.0
 10
206.8149042874192
 20
138.3266665167078
 30
0.0
 10
206.8138479569722
 20
138.6845622632113
 30
0.0
 10
206.824943942139
 20
138.8073318188137
 30
0.0
 10
206.8695264631479
 20
139.0502417128673
 30
0.0
 10
206.9025805418352
 20
139.1696446585053
 30
0.0
 10
206.9894394977806
 20
139.404286592589
 30
0.0
 10
207.0437262634584
 20
139.519980435069
 30
0.0
 10
207.1689134291973
 20
139.738436877927
 30
0.0
 10
207.2401228352608
 20
139.8423313095126
 30
0.0
 10
207.4799346031737
 20
140.1376537280328
 30
0.0
 10
207.6687035389255
 20
140.3061375114721
 30
0.0
 10
208.0999197586077
 20
140.5727003609469
 30
0.0
 10
208.3335681216428
 20
140.6653808217291
 30
0.0
 10
208.8340192618168
 20
140.7549822862648
 30
0.0
 10
209.0886044605572
 20
140.7484223843795
 30
0.0
 10
209.459877178859
 20
140.6629846591504
 30
0.0
 10
209.5790959982725
 20
140.6227065050538
 30
0.0
 10
209.8093037491107
 20
140.5204252708656
 30
0.0
 10
209.9209392042548
 20
140.4577950014747
 30
0.0
 10
210.2331932040908
 20
140.2449089630436
 30
0.0
 10
210.4179217230263
 20
140.0654781876783
 30
0.0
 10
210.7184359950631
 20
139.6622083181741
 30
0.0
 10
210.8372250823364
 20
139.4347897081326
 30
0.0
 10
210.9141918011374
 20
139.1948305443782
 30
0.0
  0
LINE
  5
13F
330
1F
100
AcDbEntity
  8
0
  6
HIDDEN
 62
     7
370
     0
100
AcDbLine
 10
240.0300644597
 20
158.4429876506
 30
0.0
 11
239.9828739101
 21
158.4281447723
 31
0.0
  0
LINE
  5
140
330
1F
100
AcDbEntity
  8
0
  6
HIDDEN
 62
     7
370
     0
100
AcDbLine
 10
240.0300644597
 20
158.4429876506
 30
0.0
 11
237.7102264834
 21
151.1033242925
 31
0.0
  0
LINE
  5
141
330
1F
100
AcDbEntity
  8
0
  6
HIDDEN
 62
     7
370
     0
100
AcDbLine
 10
237.7102264834
 20
151.1033242925
 30
0.0
 11
237.6599955511
 21
151.0875251203
 31
0.0
  0
LINE
  5
142
330
1F
100
AcDbEntity
  8
0
  6
HIDDEN
 62
     7
370
     0
100
AcDbLine
 10
237.1654822799
 20
147.7596637334
 30
0.0
 11
247.4843766907
 21
151.0052731962
 31
0.0
  0
LINE
  5
143
330
1F
100
AcDbEntity
  8
0
  6
HIDDEN
 62
     7
370
     0
100
AcDbLine
 10
225.4141918011
 20
139.884188383
 30
0.0
 11
225.4141918011
 21
123.384188383
 31
0.0
  0
ELLIPSE
  5
144
330
1F
100
AcDbEntity
  8
0
  6
HIDDEN
 62
     7
370
     0
100
AcDbEllipse
 10
243.8376190847
 20
139.884188383
 30
0.0
 11
5.390524936199228
 21
16.49183944377626
 31
0.0
210
0.0
220
0.0
230
1.0
 40
0.0962569477
 41
1.602248510774581
 42
3.173044837569622
  0
SPLINE
  5
145
330
1F
100
AcDbEntity
  8
0
  6
HIDDEN
 62
     7
370
     0
100
AcDbSpline
210
0.0
220
0.0
230
1.0
 70
     8
 71
     3
 72
     8
 73
     4
 74
     0
 42
0.00000001
 43
0.00000001
 12
1.0
 22
0.0
 32
0.0
 13
1.0
 23
0.0
 33
0.0
 40
0.0
 40
0.0
 40
0.0
 40
0.0
 40
1.0
 40
1.0
 40
1.0
 40
1.0
 10
225.4822333269183
 20
141.3841883829701
 30
0.0
 10
225.4372415132932
 20
140.8872375586625
 30
0.0
 10
225.4141918011374
 20
140.3836613095635
 30
0.0
 10
225.4141918011374
 20
139.8841883829701
 30
0.0
  0
SPLINE
  5
146
330
1F
100
AcDbEntity
  8
0
  6
HIDDEN
 62
     7
370
     0
100
AcDbSpline
210
0.0
220
0.0
230
1.0
 70
     8
 71
     3
 72
    16
 73
    12
 74
     0
 42
0.00000001
 43
0.00000001
 12
1.0
 22
0.0
 32
0.0
 13
1.0
 23
0.0
 33
0.0
 40
0.0
 40
0.0
 40
0.0
 40
0.0
 40
0.2499999999999997
 40
0.2499999999999997
 40
0.4999999999999994
 40
0.4999999999999994
 40
0.7499999999999991
 40
0.7499999999999991
 40
0.8749999999999996
 40
0.8749999999999996
 40
1.0
 40
1.0
 40
1.0
 40
1.0
 10
227.9998480545371
 20
154.2507392331679
 30
0.0
 10
227.7146291498042
 20
153.3260346981288
 30
0.0
 10
227.4408547236565
 20
152.3517734546782
 30
0.0
 10
226.9219089162883
 20
150.2978004204175
 30
0.0
 10
226.6834261517685
 20
149.2443808859019
 30
0.0
 10
226.2522302232726
 20
147.0851053330464
 30
0.0
 10
226.0595039307581
 20
145.9792571494088
 30
0.0
 10
225.8101659132416
 20
144.2786873134824
 30
0.0
 10
225.7335080235789
 20
143.7030724632756
 30
0.0
 10
225.5958771216915
 20
142.5465195369227
 30
0.0
 10
225.5349383093401
 20
141.9663339412236
 30
0.0
 10
225.4822333269183
 20
141.3841883829701
 30
0.0
  0
SPLINE
  5
147
330
1F
100
AcDbEntity
  8
0
  6
HIDDEN
 62
     7
370
     0
100
AcDbSpline
210
0.0
220
0.0
230
1.0
 70
     8
 71
     3
 72
    16
 73
    12
 74
     0
 42
0.00000001
 43
0.00000001
 12
1.0
 22
0.0
 32
0.0
 13
1.0
 23
0.0
 33
0.0
 40
0.0
 40
0.0
 40
0.0
 40
0.0
 40
0.2499999999999999
 40
0.2499999999999999
 40
0.3749999999999999
 40
0.3749999999999999
 40
0.4999999999999999
 40
0.4999999999999999
 40
0.75
 40
0.75
 40
1.0
 40
1.0
 40
1.0
 40
1.0
 10
225.7350711472397
 20
156.7049555401855
 30
0.0
 10
225.5245217509559
 20
156.4982879230352
 30
0.0
 10
225.4120941861019
 20
156.2884937008754
 30
0.0
 10
225.4152853691845
 20
155.9683270066237
 30
0.0
 10
225.4451252770961
 20
155.861566717997
 30
0.0
 10
225.5583483916346
 20
155.6510105207078
 30
0.0
 10
225.6416907910385
 20
155.5467320892685
 30
0.0
 10
225.9643312989588
 20
155.2366123526576
 30
0.0
 10
226.2767788129529
 20
155.0331704130652
 30
0.0
 10
227.0491606508941
 20
154.6331941611684
 30
0.0
 10
227.501982854714
 20
154.4397536060648
 30
0.0
 10
227.999848054537
 20
154.2507392331678
 30
0.0
  0
LINE
  5
148
330
1F
100
AcDbEntity
  8
0
  6
HIDDEN
 62
     7
370
     0
100
AcDbLine
 10
236.9364032641
 20
147.8149319743
 30
0.0
 11
247.2719742155
 21
151.0657867217
 31
0.0
  0
LINE
  5
149
330
1F
100
AcDbEntity
  8
0
  6
HIDDEN
 62
     7
370
     0
100
AcDbLine
 10
247.4843766907
 20
151.0052731962
 30
0.0
 11
247.2719742155
 21
151.0657867217
 31
0.0
  0
LINE
  5
14A
330
1F
100
AcDbEntity
  8
0
  6
HIDDEN
 62
     7
370
     0
100
AcDbLine
 10
237.7102264834
 20
151.1033242925
 30
0.0
 11
237.9226289586
 21
150.740067671
 31
0.0
  0
LINE
  5
14B
330
1F
100
AcDbEntity
  8
0
  6
HIDDEN
 62
     7
370
     0
100
AcDbLine
 10
237.5090609497
 20
150.6099878204
 30
0.0
 11
237.9226289586
 21
150.740067671
 31
0.0
  0
LINE
  5
14C
330
1F
100
AcDbEntity
  8
0
  6
HIDDEN
 62
     7
370
     0
100
AcDbLine
 10
240.2469938541
 20
158.0940536082
 30
0.0
 11
237.9226289586
 21
150.740067671
 31
0.0
  0
LINE
  5
14D
330
1F
100
AcDbEntity
  8
0
  6
HIDDEN
 62
     7
370
     0
100
AcDbLine
 10
240.0300644597
 20
158.4429876506
 30
0.0
 11
240.2469938541
 21
158.0940536082
 31
0.0
  0
ARC
  5
14E
330
1F
100
AcDbEntity
  8
0
  6
HIDDEN
 62
     7
370
     0
100
AcDbCircle
 10
235.9153813803
 20
148.6988495718
 30
0.0
 40
1.249354383000019
100
AcDbArc
 50
177.6941671682
 51
287.5361006411
  0
LINE
  5
14F
330
1F
100
AcDbEntity
  8
0
  6
HIDDEN
 62
     7
370
     0
100
AcDbLine
 10
247.2719742155
 20
151.0657867217
 30
0.0
 11
247.0575420148
 21
150.893706493
 31
0.0
  0
LINE
  5
150
330
1F
100
AcDbEntity
  8
0
  6
HIDDEN
 62
     7
370
     0
100
AcDbLine
 10
237.9226289586
 20
150.740067671
 30
0.0
 11
237.9226289586
 21
150.6354329604
 31
0.0
  0
LINE
  5
151
330
1F
100
AcDbEntity
  8
0
  6
HIDDEN
 62
     7
370
     0
100
AcDbLine
 10
237.9226289586
 20
150.6354329604
 30
0.0
 11
237.472338489
 21
150.4938027671
 31
0.0
  0
LINE
  5
152
330
1F
100
AcDbEntity
  8
0
  6
HIDDEN
 62
     7
370
     0
100
AcDbLine
 10
240.1825128478
 20
157.7854094433
 30
0.0
 11
237.9226289586
 21
150.6354329604
 31
0.0
  0
LINE
  5
153
330
1F
100
AcDbEntity
  8
0
  6
HIDDEN
 62
     7
370
     0
100
AcDbLine
 10
240.2469938541
 20
158.0940536082
 30
0.0
 11
240.1825128478
 21
157.7854094433
 31
0.0
  0
LWPOLYLINE
  5
154
330
1F
100
AcDbEntity
  8
0
  6
HIDDEN
 62
     7
370
     0
100
AcDbPolyline
 90
       20
 70
   128
 43
0.0
 10
208.9141918011
 20
134.871070212
 10
209.5960606865
 20
134.9792850293
 10
210.2040384978
 20
135.2922027264
 10
210.6722414055
 20
135.7759138155
 10
210.9499323596
 20
136.3780006946
 10
211.0070192365
 20
137.0332179079
 10
210.8373157871
 20
137.6705625037
 10
210.4592120136
 20
138.2209683056
 10
209.9136813265
 20
138.6247903044
 10
209.2598404407
 20
138.8382681208
 10
208.5685431615
 20
138.8382681208
 10
207.9147022758
 20
138.6247903044
 10
207.3691715887
 20
138.2209683056
 10
206.9910678152
 20
137.6705625037
 10
206.8213643658
 20
137.0332179079
 10
206.8784512427
 20
136.3780006946
 10
207.1561421968
 20
135.7759138155
 10
207.6243451045
 20
135.2922027264
 10
208.2323229158
 20
134.9792850293
 10
208.9141918011
 20
134.871070212
  0
LINE
  5
155
330
1F
100
AcDbEntity
  8
0
  6
HIDDEN
 62
     7
370
     0
100
AcDbLine
 10
250.0809754629
 20
160.4594537223
 30
0.0
 11
249.745818466
 21
160.7933630064
 31
0.0
  0
CIRCLE
  5
156
330
1F
100
AcDbEntity
  8
0
  6
HIDDEN
 62
     7
370
     0
100
AcDbCircle
 10
243.7417076641
 20
154.4572496413
 30
0.0
 40
2.397960805059136
  0
LINE
  5
157
330
1F
100
AcDbEntity
  8
0
  6
HIDDEN
 62
     7
370
     0
100
AcDbLine
 10
236.2918201678
 20
147.5075560675
 30
0.0
 11
247.0575420148
 21
150.893706493
 31
0.0
  0
LINE
  5
158
330
1F
100
AcDbEntity
  8
0
  6
HIDDEN
 62
     7
370
     0
100
AcDbLine
 10
249.745818466
 20
160.7933630064
 30
0.0
 11
240.1825128478
 21
157.7854094433
 31
0.0
  0
LINE
  5
159
330
1F
100
AcDbEntity
  8
0
  6
HIDDEN
 62
     7
370
     0
100
AcDbLine
 10
250.0809754629
 20
160.4594537223
 30
0.0
 11
247.0575420148
 21
150.893706493
 31
0.0
  0
CIRCLE
  5
15A
330
1F
100
AcDbEntity
  8
0
  6
HIDDEN
 62
     7
370
     0
100
AcDbCircle
 10
243.7419842278
 20
154.4039344673
 30
0.0
 40
1.648789907218223
  0
LINE
  5
15B
330
1F
100
AcDbEntity
  8
0
  6
HIDDEN
 62
     7
370
     0
100
AcDbLine
 10
249.745818466
 20
160.7933630064
 30
0.0
 11
249.1610741459
 21
160.0048872353
 31
0.0
  0
LINE
  5
15C
330
1F
100
AcDbEntity
  8
0
  6
HIDDEN
 62
     7
370
     0
100
AcDbLine
 10
249.3632792243
 20
159.4917040997
 30
0.0
 11
250.0809754629
 21
160.4594537223
 31
0.0
  0
SPLINE
  5
15D
330
1F
100
AcDbEntity
  8
0
  6
HIDDEN
 62
     7
370
     0
100
AcDbSpline
210
0.0
220
0.0
230
1.0
 70
     8
 71
     3
 72
    32
 73
    28
 74
     0
 42
0.00000001
 43
0.00000001
 12
1.0
 22
0.0
 32
0.0
 13
1.0
 23
0.0
 33
0.0
 40
0.0
 40
0.0
 40
0.0
 40
0.0
 40
0.1249999999999995
 40
0.1249999999999995
 40
0.2499999999999991
 40
0.2499999999999991
 40
0.3124999999999991
 40
0.3124999999999991
 40
0.3749999999999991
 40
0.3749999999999991
 40
0.4374999999999992
 40
0.4374999999999992
 40
0.4999999999999992
 40
0.4999999999999992
 40
0.5624999999999993
 40
0.5624999999999993
 40
0.6249999999999994
 40
0.6249999999999994
 40
0.6874999999999996
 40
0.6874999999999996
 40
0.7499999999999996
 40
0.7499999999999996
 40
0.8124999999999997
 40
0.8124999999999997
 40
0.8749999999999998
 40
0.8749999999999998
 40
1.0
 40
1.0
 40
1.0
 40
1.0
 10
245.3899190078861
 20
153.6916841635096
 30
0.0
 10
245.402524449083
 20
153.9109533255431
 30
0.0
 10
245.3762176638257
 20
154.1240382195648
 30
0.0
 10
245.2483779346706
 20
154.5385709147808
 30
0.0
 10
245.1486131213256
 20
154.7329394965831
 30
0.0
 10
244.9408505366575
 20
154.9960605673031
 30
0.0
 10
244.8607518493133
 20
155.0797153958878
 30
0.0
 10
244.6833821753731
 20
155.2294233908409
 30
0.0
 10
244.5849760353311
 20
155.2967938606243
 30
0.0
 10
244.3679093211123
 20
155.4108884075114
 30
0.0
 10
244.2523926555333
 20
155.4561166510915
 30
0.0
 10
244.0048811897147
 20
155.5191966526286
 30
0.0
 10
243.8763456055197
 20
155.535745946387
 30
0.0
 10
243.6184992659126
 20
155.5364935429283
 30
0.0
 10
243.4877966720812
 20
155.5202856175125
 30
0.0
 10
243.2414552400139
 20
155.4587821763594
 30
0.0
 10
243.1228445189817
 20
155.4129570031224
 30
0.0
 10
242.906554018929
 20
155.300293462529
 30
0.0
 10
242.8063334988371
 20
155.2322790868489
 30
0.0
 10
242.6283007711675
 20
155.0828573391367
 30
0.0
 10
242.5494448806645
 20
155.0010902901209
 30
0.0
 10
242.4093313214489
 20
154.8248841158924
 30
0.0
 10
242.3488344097964
 20
154.7310540326597
 30
0.0
 10
242.2478010337162
 20
154.5380306193291
 30
0.0
 10
242.2066791180236
 20
154.4380790438202
 30
0.0
 10
242.1103730377042
 20
154.1279699833765
 30
0.0
 10
242.0832843979837
 20
153.9111680948447
 30
0.0
 10
242.0959021859318
 20
153.6916841635096
 30
0.0
  0
ARC
  5
15E
330
1F
100
AcDbEntity
  8
0
  6
HIDDEN
 62
     7
370
     0
100
AcDbCircle
 10
243.7429105969
 20
153.7942932809
 30
0.0
 40
1.650201604893118
100
AcDbArc
 50
183.5649367612
 51
356.4350632388
  0
LINE
  5
15F
330
1F
100
AcDbEntity
  8
0
  6
HIDDEN
 62
     7
370
     0
100
AcDbLine
 10
54.4141918011
 20
124.7801355542
 30
0.0
 11
54.4141918011
 21
118.7258249867
 31
0.0
  0
LINE
  5
160
330
1F
100
AcDbEntity
  8
0
  6
HIDDEN
 62
     7
370
     0
100
AcDbLine
 10
88.7141918011
 20
124.3492678601
 30
0.0
 11
88.7141918011
 21
117.8640895984
 31
0.0
  0
LINE
  5
161
330
1F
100
AcDbEntity
  8
0
  6
HIDDEN
 62
     7
370
     0
100
AcDbLine
 10
52.9141918011
 20
125.2131482561
 30
0.0
 11
52.9141918011
 21
119.5918503905
 31
0.0
  0
LINE
  5
162
330
1F
100
AcDbEntity
  8
0
  6
HIDDEN
 62
     7
370
     0
100
AcDbLine
 10
88.7141918011
 20
161.9042871675
 30
0.0
 11
88.7141918011
 21
155.4191089058
 31
0.0
  0
LINE
  5
163
330
1F
100
AcDbEntity
  8
0
  6
HIDDEN
 62
     7
370
     0
100
AcDbLine
 10
54.4141918011
 20
161.0425517793
 30
0.0
 11
54.4141918011
 21
154.9882412117
 31
0.0
  0
LINE
  5
164
330
1F
100
AcDbEntity
  8
0
  6
HIDDEN
 62
     7
370
     0
100
AcDbLine
 10
52.9141918011
 20
160.1765263755
 30
0.0
 11
52.9141918011
 21
154.5552285098
 31
0.0
  0
SPLINE
  5
165
330
1F
100
AcDbEntity
  8
0
  6
HIDDEN
 62
     7
370
     0
100
AcDbSpline
210
0.0
220
0.0
230
1.0
 70
     8
 71
     3
 72
    16
 73
    12
 74
     0
 42
0.00000001
 43
0.00000001
 12
1.0
 22
0.0
 32
0.0
 13
1.0
 23
0.0
 33
0.0
 40
0.0
 40
0.0
 40
0.0
 40
0.0
 40
0.2499999999999999
 40
0.2499999999999999
 40
0.3750000000000001
 40
0.3750000000000001
 40
0.5000000000000002
 40
0.5000000000000002
 40
0.7500000000000001
 40
0.7500000000000001
 40
1.0
 40
1.0
 40
1.0
 40
1.0
 10
89.59287145757773
 20
161.6542693379722
 30
0.0
 10
89.43163898009328
 20
161.5562537249175
 30
0.0
 10
89.31115914045364
 20
161.3695176932414
 30
0.0
 10
89.18877862314031
 20
160.9564778856825
 30
0.0
 10
89.15780096274287
 20
160.7964773864496
 30
0.0
 10
89.11618722511491
 20
160.4296717353584
 30
0.0
 10
89.1059513121821
 20
160.2263345827344
 30
0.0
 10
89.105762915126
 20
159.5590473161078
 30
0.0
 10
89.1459076177636
 20
159.0382328522197
 30
0.0
 10
89.31006137270317
 20
157.840873836742
 30
0.0
 10
89.43161302311273
 20
157.182604182446
 30
0.0
 10
89.59287145757774
 20
156.4680950092111
 30
0.0
  0
SPLINE
  5
166
330
1F
100
AcDbEntity
  8
0
  6
HIDDEN
 62
     7
370
     0
100
AcDbSpline
210
0.0
220
0.0
230
1.0
 70
     8
 71
     3
 72
    16
 73
    12
 74
     0
 42
0.00000001
 43
0.00000001
 12
1.0
 22
0.0
 32
0.0
 13
1.0
 23
0.0
 33
0.0
 40
0.0
 40
0.0
 40
0.0
 40
0.0
 40
0.2499999999999992
 40
0.2499999999999992
 40
0.3749999999999993
 40
0.3749999999999993
 40
0.4999999999999994
 40
0.4999999999999994
 40
0.7499999999999997
 40
0.7499999999999997
 40
1.0
 40
1.0
 40
1.0
 40
1.0
 10
89.59287145757773
 20
123.300281756729
 30
0.0
 10
89.43163898009327
 20
122.5858875945369
 30
0.0
 10
89.31115914045364
 20
121.9325453318282
 30
0.0
 10
89.18877862314031
 20
121.0442900900243
 30
0.0
 10
89.15780096274287
 20
120.7636095536725
 30
0.0
 10
89.11618722511491
 20
120.2345755638325
 30
0.0
 10
89.1059513121821
 20
119.9912545852541
 30
0.0
 10
89.105762915126
 20
119.3232318947408
 30
0.0
 10
89.1459076177636
 20
118.9595509853214
 30
0.0
 10
89.31006137270317
 20
118.399660112773
 30
0.0
 10
89.43161302311273
 20
118.2121388206559
 30
0.0
 10
89.59287145757773
 20
118.114107427968
 30
0.0
  0
ELLIPSE
  5
167
330
1F
100
AcDbEntity
  8
0
  6
HIDDEN
 62
     7
370
     0
100
AcDbEllipse
 10
273.176540247
 20
141.384188383
 30
0.0
 11
24.06101560154667
 21
-22.41887999910565
 31
0.0
210
0.0
220
0.0
230
1.0
 40
0.2135193148
 41
3.543656488796572
 42
3.580728829908101
  0
ELLIPSE
  5
168
330
1F
100
AcDbEntity
  8
0
  6
HIDDEN
 62
     7
370
     0
100
AcDbEllipse
 10
182.5218753594
 20
141.384188383
 30
0.0
 11
73.48411303275265
 21
22.64800636057879
 31
0.0
210
0.0
220
0.0
230
1.0
 40
0.054548757
 41
5.55718803726249
 42
5.83102755496063
  0
SPLINE
  5
169
330
1F
100
AcDbEntity
  8
0
  6
HIDDEN
 62
     7
370
     0
100
AcDbSpline
210
0.0
220
0.0
230
1.0
 70
     8
 71
     3
 72
    12
 73
     8
 74
     0
 42
0.00000001
 43
0.00000001
 12
1.0
 22
0.0
 32
0.0
 13
1.0
 23
0.0
 33
0.0
 40
0.0
 40
0.0
 40
0.0
 40
0.0
 40
0.5
 40
0.5
 40
0.75
 40
0.75
 40
1.0
 40
1.0
 40
1.0
 40
1.0
 10
238.2962402245713
 20
155.6600745549582
 30
0.0
 10
237.080860242296
 20
155.2021369751191
 30
0.0
 10
235.8222656813574
 20
154.8516479800776
 30
0.0
 10
233.8747762704062
 20
154.4944874118978
 30
0.0
 10
233.215576758115
 20
154.4036380170969
 30
0.0
 10
231.8766815495739
 20
154.28139976433
 30
0.0
 10
231.2046792460371
 20
154.2507392331678
 30
0.0
 10
230.5309501360318
 20
154.2507392331678
 30
0.0
  0
LINE
  5
16A
330
1F
100
AcDbEntity
  8
0
  6
HIDDEN
 62
     7
370
     0
100
AcDbLine
 10
230.530950136
 20
154.2507392332
 30
0.0
 11
227.9998480545
 21
154.2507392332
 31
0.0
  0
ELLIPSE
  5
16B
330
1F
100
AcDbEntity
  8
0
  6
HIDDEN
 62
     7
370
     0
100
AcDbEllipse
 10
245.0147165862
 20
141.384188383
 30
0.0
 11
7.514065062580699
 21
22.98862467920319
 31
0.0
210
0.0
220
0.0
230
1.0
 40
0.0962569477
 41
0.6958580013233119
 42
1.602248510774581
  0
LWPOLYLINE
  5
16C
330
1F
100
AcDbEntity
  8
0
  6
HIDDEN
 62
     7
370
     0
100
AcDbPolyline
 90
       22
 70
   128
 43
0.0
 10
208.9141918011
 20
134.4163771485
 10
209.6510797372
 20
134.5220090799
 10
210.3224919463
 20
134.8295190134
 10
210.8687705073
 20
135.311583342
 10
211.2413761727
 20
135.9253685345
 10
211.4072012941
 20
136.616337083
 10
211.3515115816
 20
137.3230933998
 10
211.0792553106
 20
137.9828390846
 10
210.6146236456
 20
138.5369528379
 10
209.9989011489
 20
138.9361992212
 10
209.2867974666
 20
139.1451034412
 10
208.5415861357
 20
139.1451034412
 10
207.8294824533
 20
138.9361992212
 10
207.2137599567
 20
138.5369528379
 10
206.7491282917
 20
137.9828390846
 10
206.4768720207
 20
137.3230933998
 10
206.4211823082
 20
136.616337083
 10
206.5870074295
 20
135.9253685345
 10
206.959613095
 20
135.311583342
 10
207.505891656
 20
134.8295190134
 10
208.1773038651
 20
134.5220090799
 10
208.9141918011
 20
134.4163771485
  0
SPLINE
  5
16D
330
1F
100
AcDbEntity
  8
0
  6
HIDDEN
 62
     7
370
     0
100
AcDbSpline
210
0.0
220
0.0
230
1.0
 70
     8
 71
     3
 72
    20
 73
    16
 74
     0
 42
0.00000001
 43
0.00000001
 12
1.0
 22
0.0
 32
0.0
 13
1.0
 23
0.0
 33
0.0
 40
0.0
 40
0.0
 40
0.0
 40
0.0
 40
0.2499999999999862
 40
0.2499999999999862
 40
0.3749999999999885
 40
0.3749999999999885
 40
0.4999999999999908
 40
0.4999999999999908
 40
0.6249999999999931
 40
0.6249999999999931
 40
0.7499999999999953
 40
0.7499999999999953
 40
0.8749999999999977
 40
0.8749999999999977
 40
1.0
 40
1.0
 40
1.0
 40
1.0
 10
242.0959021859318
 20
153.6916841635096
 30
0.0
 10
242.3251028822525
 20
153.5049375465121
 30
0.0
 10
242.5694190078577
 20
153.3254022686706
 30
0.0
 10
242.977610196197
 20
153.1148222471104
 30
0.0
 10
243.1226225591813
 20
153.0541748274678
 30
0.0
 10
243.4261831065238
 20
152.9694128727797
 30
0.0
 10
243.5847851174511
 20
152.9457443757933
 30
0.0
 10
243.9047253214415
 20
152.9461010587795
 30
0.0
 10
244.0617324442311
 20
152.9697428004464
 30
0.0
 10
244.3669310016093
 20
153.0554767850415
 30
0.0
 10
244.5094002820109
 20
153.1153505586159
 30
0.0
 10
244.7816354176671
 20
153.2559640172817
 30
0.0
 10
244.9114979013747
 20
153.3370376868028
 30
0.0
 10
245.1580211409091
 20
153.5080642421765
 30
0.0
 10
245.2756159791404
 20
153.5985531029436
 30
0.0
 10
245.3899190078861
 20
153.6916841635096
 30
0.0
  0
LINE
  5
16E
330
1F
100
AcDbEntity
  8
0
  6
HIDDEN
 62
     7
370
     0
100
AcDbLine
 10
52.9141918011
 20
154.5552285098
 30
0.0
 11
52.9141918011
 21
142.786175716
 31
0.0
  0
LINE
  5
16F
330
1F
100
AcDbEntity
  8
0
  6
HIDDEN
 62
     7
370
     0
100
AcDbLine
 10
52.9141918011
 20
136.98220105
 30
0.0
 11
52.9141918011
 21
125.2131482561
 31
0.0
  0
LINE
  5
170
330
1F
100
AcDbEntity
  8
0
  6
HIDDEN
 62
     7
370
     0
100
AcDbLine
 10
54.4141918011
 20
135.9189774861
 30
0.0
 11
54.4141918011
 21
124.7801355542
 31
0.0
  0
LINE
  5
171
330
1F
100
AcDbEntity
  8
0
  6
HIDDEN
 62
     7
370
     0
100
AcDbLine
 10
54.4141918011
 20
154.9882412117
 30
0.0
 11
54.4141918011
 21
143.8493992798
 31
0.0
  0
LINE
  5
172
330
1F
100
AcDbEntity
  8
0
  6
HIDDEN
 62
     7
370
     0
100
AcDbLine
 10
90.7141918011
 20
154.9218955455
 30
0.0
 11
90.7141918011
 21
124.8464812205
 31
0.0
  0
LINE
  5
173
330
1F
100
AcDbEntity
  8
0
  6
HIDDEN
 62
     7
370
     0
100
AcDbLine
 10
88.7141918011
 20
155.4191089058
 30
0.0
 11
88.7141918011
 21
124.3492678601
 31
0.0
  0
LINE
  5
174
330
1F
100
AcDbEntity
  8
0
  6
HIDDEN
 62
     7
370
     0
100
AcDbLine
 10
242.5667013604
 20
141.384188383
 30
0.0
 11
242.0814342488
 21
139.884188383
 31
0.0
  0
SPLINE
  5
175
330
1F
100
AcDbEntity
  8
0
  6
HIDDEN
 62
     7
370
     0
100
AcDbSpline
210
0.0
220
0.0
230
1.0
 70
     8
 71
     3
 72
    24
 73
    20
 74
     0
 42
0.00000001
 43
0.00000001
 12
1.0
 22
0.0
 32
0.0
 13
1.0
 23
0.0
 33
0.0
 40
0.0
 40
0.0
 40
0.0
 40
0.0
 40
0.1249999999999997
 40
0.1249999999999997
 40
0.2499999999999994
 40
0.2499999999999994
 40
0.3749999999999992
 40
0.3749999999999992
 40
0.4374999999999992
 40
0.4374999999999992
 40
0.4999999999999993
 40
0.4999999999999993
 40
0.6249999999999994
 40
0.6249999999999994
 40
0.7499999999999997
 40
0.7499999999999997
 40
0.8749999999999998
 40
0.8749999999999998
 40
1.0
 40
1.0
 40
1.0
 40
1.0
 10
59.36419180113739
 20
135.7982273298708
 30
0.0
 10
59.60199543341248
 20
136.097234432201
 30
0.0
 10
59.83208109462376
 20
136.4015722835197
 30
0.0
 10
60.26683449323357
 20
137.0273058209157
 30
0.0
 10
60.47176728551974
 20
137.3485305482432
 30
0.0
 10
60.83686923601843
 20
138.0204563189759
 30
0.0
 10
60.99866962180995
 20
138.3757715508548
 30
0.0
 10
61.17052982638967
 20
138.9260027722073
 30
0.0
 10
61.21611501804978
 20
139.1124065571877
 30
0.0
 10
61.27858975762464
 20
139.492541059284
 30
0.0
 10
61.29526090337309
 20
139.6882108515699
 30
0.0
 10
61.2957819465496
 20
140.2666912302443
 30
0.0
 10
61.23133964566291
 20
140.644603069213
 30
0.0
 10
61.00149055228957
 20
141.3865710943115
 30
0.0
 10
60.84296987462645
 20
141.7352865544725
 30
0.0
 10
60.4787355447263
 20
142.4083789522056
 30
0.0
 10
60.27199930466272
 20
142.7333314394473
 30
0.0
 10
59.83406135892236
 20
143.364255249909
 30
0.0
 10
59.60278863164281
 20
143.6701449902497
 30
0.0
 10
59.36419180113749
 20
143.9701494360692
 30
0.0
  0
LINE
  5
176
330
1F
100
AcDbEntity
  8
0
  6
HIDDEN
 62
     7
370
     0
100
AcDbLine
 10
59.3641918011
 20
135.7982273299
 30
0.0
 11
59.3641918011
 21
143.9701494361
 31
0.0
  0
SPLINE
  5
177
330
1F
100
AcDbEntity
  8
0
  6
HIDDEN
 62
     7
370
     0
100
AcDbSpline
210
0.0
220
0.0
230
1.0
 70
     8
 71
     3
 72
     8
 73
     4
 74
     0
 42
0.00000001
 43
0.00000001
 12
1.0
 22
0.0
 32
0.0
 13
1.0
 23
0.0
 33
0.0
 40
0.0000249638557296
 40
0.0000249638557296
 40
0.0000249638557296
 40
0.0000249638557296
 40
0.0049776420541172
 40
0.0049776420541172
 40
0.0049776420541172
 40
0.0049776420541172
 10
54.41419180113741
 20
135.9189774861335
 30
0.0
 10
56.06416803564696
 20
135.8776982483653
 30
0.0
 10
57.71416935539197
 20
135.8374765671259
 30
0.0
 10
59.3641918011374
 20
135.7982273298709
 30
0.0
  0
SPLINE
  5
178
330
1F
100
AcDbEntity
  8
0
  6
HIDDEN
 62
     7
370
     0
100
AcDbSpline
210
0.0
220
0.0
230
1.0
 70
     8
 71
     3
 72
     8
 73
     4
 74
     0
 42
0.00000001
 43
0.00000001
 12
1.0
 22
0.0
 32
0.0
 13
1.0
 23
0.0
 33
0.0
 40
0.0000249631533153
 40
0.0000249631533153
 40
0.0000249631533153
 40
0.0000249631533153
 40
0.0049776413517029
 40
0.0049776413517029
 40
0.0049776413517029
 40
0.0049776413517029
 10
59.36419180113739
 20
143.9701494360693
 30
0.0
 10
57.71416935539197
 20
143.9309001988143
 30
0.0
 10
56.06416803564693
 20
143.8906785175748
 30
0.0
 10
54.41419180113738
 20
143.8493992798066
 30
0.0
  0
SPLINE
  5
179
330
1F
100
AcDbEntity
  8
0
  6
HIDDEN
 62
     7
370
     0
100
AcDbSpline
210
0.0
220
0.0
230
1.0
 70
     8
 71
     3
 72
     8
 73
     4
 74
     0
 42
0.00000001
 43
0.00000001
 12
1.0
 22
0.0
 32
0.0
 13
1.0
 23
0.0
 33
0.0
 40
0.0
 40
0.0
 40
0.0
 40
0.0
 40
1.0
 40
1.0
 40
1.0
 40
1.0
 10
52.91419180113518
 20
136.9822010499897
 30
0.0
 10
53.38095241251298
 20
136.5668378043667
 30
0.0
 10
53.88669995929306
 20
136.2222473750621
 30
0.0
 10
54.41419180113743
 20
135.9189774861335
 30
0.0
  0
SPLINE
  5
17A
330
1F
100
AcDbEntity
  8
0
  6
HIDDEN
 62
     7
370
     0
100
AcDbSpline
210
0.0
220
0.0
230
1.0
 70
     8
 71
     3
 72
     8
 73
     4
 74
     0
 42
0.00000001
 43
0.00000001
 12
1.0
 22
0.0
 32
0.0
 13
1.0
 23
0.0
 33
0.0
 40
0.0
 40
0.0
 40
0.0
 40
0.0
 40
1.0
 40
1.0
 40
1.0
 40
1.0
 10
54.41419180113742
 20
143.8493992798066
 30
0.0
 10
53.88669995929389
 20
143.5461293908785
 30
0.0
 10
53.3809524125146
 20
143.2015389615745
 30
0.0
 10
52.91419180113743
 20
142.7861757159524
 30
0.0
  0
LINE
  5
17B
330
1F
100
AcDbEntity
  8
0
  6
HIDDEN
 62
     7
370
     0
100
AcDbLine
 10
52.9141918011
 20
136.98220105
 30
0.0
 11
52.9141918011
 21
142.786175716
 31
0.0
  0
SPLINE
  5
17C
330
1F
100
AcDbEntity
  8
0
  6
HIDDEN
 62
     7
370
     0
100
AcDbSpline
210
0.0
220
0.0
230
1.0
 70
     8
 71
     3
 72
    72
 73
    68
 74
     0
 42
0.00000001
 43
0.00000001
 12
1.0
 22
0.0
 32
0.0
 13
1.0
 23
0.0
 33
0.0
 40
-0.0312499999999999
 40
-0.0312499999999999
 40
0.0
 40
0.0
 40
0.0312500000000001
 40
0.0312500000000001
 40
0.0625000000000002
 40
0.0625000000000002
 40
0.0937500000000003
 40
0.0937500000000003
 40
0.1250000000000004
 40
0.1250000000000004
 40
0.1562500000000005
 40
0.1562500000000005
 40
0.1875000000000006
 40
0.1875000000000006
 40
0.2187500000000007
 40
0.2187500000000007
 40
0.2500000000000008
 40
0.2500000000000008
 40
0.2812500000000009
 40
0.2812500000000009
 40
0.312500000000001
 40
0.312500000000001
 40
0.3437500000000011
 40
0.3437500000000011
 40
0.3750000000000011
 40
0.3750000000000011
 40
0.3906250000000011
 40
0.3906250000000011
 40
0.4062500000000012
 40
0.4062500000000012
 40
0.4375000000000012
 40
0.4375000000000012
 40
0.4687500000000013
 40
0.4687500000000013
 40
0.5000000000000013
 40
0.5000000000000013
 40
0.5312500000000013
 40
0.5312500000000013
 40
0.5625000000000013
 40
0.5625000000000013
 40
0.5937500000000013
 40
0.5937500000000013
 40
0.6250000000000013
 40
0.6250000000000013
 40
0.6562500000000013
 40
0.6562500000000013
 40
0.6875000000000012
 40
0.6875000000000012
 40
0.7187500000000011
 40
0.7187500000000011
 40
0.7500000000000009
 40
0.7500000000000009
 40
0.7812500000000008
 40
0.7812500000000008
 40
0.8125000000000007
 40
0.8125000000000007
 40
0.8437500000000006
 40
0.8437500000000006
 40
0.8750000000000004
 40
0.8750000000000004
 40
0.9062500000000003
 40
0.9062500000000003
 40
0.9375000000000002
 40
0.9375000000000002
 40
0.9687500000000001
 40
0.9687500000000001
 40
1.0
 40
1.0
 40
1.03125
 40
1.03125
 10
72.0381381199626
 20
142.3250220327849
 30
0.0
 10
72.41256833983647
 20
142.7353778332701
 30
0.0
 10
72.61742094110207
 20
142.9190269159286
 30
0.0
 10
73.06028913794904
 20
143.2459818194239
 30
0.0
 10
73.30024455526734
 20
143.3897600276037
 30
0.0
 10
73.7958555380419
 20
143.6272773830496
 30
0.0
 10
74.05312182919637
 20
143.7225969479473
 30
0.0
 10
74.58647559703346
 20
143.8666824805818
 30
0.0
 10
74.86075573693174
 20
143.9144184875514
 30
0.0
 10
75.4071842715113
 20
143.9600006280852
 30
0.0
 10
75.68176058997906
 20
143.958566868013
 30
0.0
 10
76.23372776424978
 20
143.9056535599221
 30
0.0
 10
76.50434472682147
 20
143.8546838337179
 30
0.0
 10
77.03062989790067
 20
143.7060772067744
 30
0.0
 10
77.28826146130827
 20
143.6077918360172
 30
0.0
 10
77.78418762598179
 20
143.3635384768315
 30
0.0
 10
78.01717130377341
 20
143.2204583458094
 30
0.0
 10
78.45350457909842
 20
142.8925997953405
 30
0.0
 10
78.6587858329567
 20
142.7056061576403
 30
0.0
 10
79.0268201308169
 20
142.2961755378173
 30
0.0
 10
79.18833512080208
 20
142.0760700968328
 30
0.0
 10
79.46549280394922
 20
141.6043200153948
 30
0.0
 10
79.58188698338292
 20
141.3493034889536
 30
0.0
 10
79.75516102002953
 20
140.8280656655566
 30
0.0
 10
79.81360757449532
 20
140.5605815477756
 30
0.0
 10
79.85747229997119
 20
140.1486658884432
 30
0.0
 10
79.86465251660056
 20
140.0089585853677
 30
0.0
 10
79.86368448930511
 20
139.7328355299053
 30
0.0
 10
79.85568169989146
 20
139.5956589635745
 30
0.0
 10
79.80960896797906
 20
139.1867255223112
 30
0.0
 10
79.74867413552703
 20
138.914799273307
 30
0.0
 10
79.5705539791185
 20
138.3916187568519
 30
0.0
 10
79.45498606777612
 20
138.1429067564885
 30
0.0
 10
79.17313928383683
 20
137.6700222314965
 30
0.0
 10
79.00626933842219
 20
137.4464130142644
 30
0.0
 10
78.63694378362341
 20
137.0417556260768
 30
0.0
 10
78.4321586273259
 20
136.8573420379072
 30
0.0
 10
77.9875056798097
 20
136.5283160030129
 30
0.0
 10
77.75265655029892
 20
136.3871479270246
 30
0.0
 10
77.2592467878219
 20
136.1487383982441
 30
0.0
 10
76.99795983411724
 20
136.0509558418393
 30
0.0
 10
76.46722155360457
 20
135.9056278136491
 30
0.0
 10
76.19758185270733
 20
135.8573384234542
 30
0.0
 10
75.64983051296211
 20
135.8089231996675
 30
0.0
 10
75.3699264711035
 20
135.8093813853035
 30
0.0
 10
74.82284856326848
 20
135.8595332409056
 30
0.0
 10
74.55324345858105
 20
135.9087068079377
 30
0.0
 10
74.02208870192499
 20
136.0563813312447
 30
0.0
 10
73.76079388548145
 20
136.1555364956103
 30
0.0
 10
73.26847990730607
 20
136.396549266087
 30
0.0
 10
73.03452303172745
 20
136.5390373907117
 30
0.0
 10
72.59235441119696
 20
136.8705248196967
 30
0.0
 10
72.38716088008532
 20
137.0579584476851
 30
0.0
 10
72.02146666372732
 20
137.4648621667355
 30
0.0
 10
71.85869604133896
 20
137.6860412414045
 30
0.0
 10
71.57774361057339
 20
138.1657885706197
 30
0.0
 10
71.46453975829989
 20
138.41580053743
 30
0.0
 10
71.29193103416095
 20
138.9358757474504
 30
0.0
 10
71.23232475148458
 20
139.2096072120802
 30
0.0
 10
71.17443298141471
 20
139.7582248619787
 30
0.0
 10
71.1752225202747
 20
140.0325647258703
 30
0.0
 10
71.2364129958911
 20
140.5813066770093
 30
0.0
 10
71.29754171962514
 20
140.8543719908664
 30
0.0
 10
71.47362140525495
 20
141.3745372396348
 30
0.0
 10
71.5899520002449
 20
141.6268563731937
 30
0.0
 10
71.87315322998563
 20
142.1032607146007
 30
0.0
 10
72.0381381199626
 20
142.3250220327849
 30
0.0
 10
72.41256833983647
 20
142.7353778332701
 30
0.0
  0
CIRCLE
  5
17D
330
1F
100
AcDbEntity
  8
0
  6
HIDDEN
 62
     7
370
     0
100
AcDbCircle
 10
75.4141918011
 20
139.884188383
 30
0.0
 40
4.050000000000011
  0
CIRCLE
  5
17E
330
1F
100
AcDbEntity
  8
0
  6
HIDDEN
 62
     7
370
     0
100
AcDbCircle
 10
102.9141918011
 20
139.884188383
 30
0.0
 40
2.0
  0
LINE
  5
17F
330
1F
100
AcDbEntity
  8
0
  6
HIDDEN
 62
     7
370
     0
100
AcDbLine
 10
90.9141918011
 20
115.634188383
 30
0.0
 11
91.00708502
 21
115.7270816018
 31
0.0
  0
LINE
  5
180
330
1F
100
AcDbEntity
  8
0
  6
HIDDEN
 62
     7
370
     0
100
AcDbLine
 10
91.00708502
 20
164.0412951642
 30
0.0
 11
90.9141918011
 21
164.134188383
 31
0.0
  0
ARC
  5
181
330
1F
100
AcDbEntity
  8
0
  6
HIDDEN
 62
     7
370
     0
100
AcDbCircle
 10
90.2999782388
 20
116.434188383
 30
0.0
 40
1.000000000000018
100
AcDbArc
 50
315.0
 51
0.0
  0
ARC
  5
182
330
1F
100
AcDbEntity
  8
0
  6
HIDDEN
 62
     7
370
     0
100
AcDbCircle
 10
90.2999782388
 20
116.434188383
 30
0.0
 40
1.000000000000014
100
AcDbArc
 50
0.0
 51
52.1052014664
  0
ARC
  5
183
330
1F
100
AcDbEntity
  8
0
  6
HIDDEN
 62
     7
370
     0
100
AcDbCircle
 10
90.2999782388
 20
163.334188383
 30
0.0
 40
1.000000000000018
100
AcDbArc
 50
351.8087250651
 51
45.0
  0
ARC
  5
184
330
1F
100
AcDbEntity
  8
0
  6
HIDDEN
 62
     7
370
     0
100
AcDbCircle
 10
90.2999782388
 20
163.334188383
 30
0.0
 40
1.000000000000013
100
AcDbArc
 50
307.8947985336
 51
351.8087250651
  0
LINE
  5
185
330
1F
100
AcDbEntity
  8
0
  6
HIDDEN
 62
     7
370
     0
100
AcDbLine
 10
91.2999782388
 20
116.434188383
 30
0.0
 11
91.2999782388
 21
163.334188383
 31
0.0
  0
LINE
  5
186
330
1F
100
AcDbEntity
  8
0
  6
HIDDEN
 62
     7
370
     0
100
AcDbLine
 10
91.2999782388
 20
116.434188383
 30
0.0
 11
91.2999782388
 21
163.334188383
 31
0.0
  0
LINE
  5
187
330
1F
100
AcDbEntity
  8
0
  6
HIDDEN
 62
     7
370
     0
100
AcDbLine
 10
52.9141918011
 20
123.6877595385
 30
0.0
 11
54.4444202408
 21
124.5712373401
 31
0.0
  0
LINE
  5
188
330
1F
100
AcDbEntity
  8
0
  6
HIDDEN
 62
     7
370
     0
100
AcDbLine
 10
54.4444202408
 20
155.1971394259
 30
0.0
 11
52.9141918011
 21
156.0806172274
 31
0.0
  0
LINE
  5
189
330
1F
100
AcDbEntity
  8
0
  6
HIDDEN
 62
     7
370
     0
100
AcDbLine
 10
62.9141918011
 20
123.884188383
 30
0.0
 11
63.915993116
 21
123.884188383
 31
0.0
  0
LINE
  5
18A
330
1F
100
AcDbEntity
  8
0
  6
HIDDEN
 62
     7
370
     0
100
AcDbLine
 10
63.915993116
 20
155.884188383
 30
0.0
 11
62.9141918011
 21
155.884188383
 31
0.0
  0
ARC
  5
18B
330
1F
100
AcDbEntity
  8
0
  6
HIDDEN
 62
     7
370
     0
100
AcDbCircle
 10
63.915993116
 20
125.884188383
 30
0.0
 40
2.000000000000021
100
AcDbArc
 50
270.0
 51
315.0
  0
ARC
  5
18C
330
1F
100
AcDbEntity
  8
0
  6
HIDDEN
 62
     7
370
     0
100
AcDbCircle
 10
63.915993116
 20
153.884188383
 30
0.0
 40
2.000000000000028
100
AcDbArc
 50
45.0
 51
90.0
  0
ARC
  5
18D
330
1F
100
AcDbEntity
  8
0
  6
HIDDEN
 62
     7
370
     0
100
AcDbCircle
 10
62.9141918011
 20
125.884188383
 30
0.0
 40
2.0
100
AcDbArc
 50
189.9742217944
 51
270.0
  0
ARC
  5
18E
330
1F
100
AcDbEntity
  8
0
  6
HIDDEN
 62
     7
370
     0
100
AcDbCircle
 10
62.9141918011
 20
153.884188383
 30
0.0
 40
2.0
100
AcDbArc
 50
90.0
 51
170.0257782056
  0
LINE
  5
18F
330
1F
100
AcDbEntity
  8
0
  6
HIDDEN
 62
     7
370
     0
100
AcDbLine
 10
65.3302066784
 20
124.4699748206
 30
0.0
 11
66.7444202408
 21
125.884188383
 31
0.0
  0
LINE
  5
190
330
1F
100
AcDbEntity
  8
0
  6
HIDDEN
 62
     7
370
     0
100
AcDbLine
 10
66.7444202408
 20
153.884188383
 30
0.0
 11
65.3302066784
 21
155.2984019453
 31
0.0
  0
LINE
  5
191
330
1F
100
AcDbEntity
  8
0
  6
HIDDEN
 62
     7
370
     0
100
AcDbLine
 10
54.4444202408
 20
124.5712373401
 30
0.0
 11
59.3444202408
 21
125.884188383
 31
0.0
  0
LINE
  5
192
330
1F
100
AcDbEntity
  8
0
  6
HIDDEN
 62
     7
370
     0
100
AcDbLine
 10
59.3444202408
 20
153.884188383
 30
0.0
 11
54.4444202408
 21
155.1971394259
 31
0.0
  0
LINE
  5
193
330
1F
100
AcDbEntity
  8
0
  6
HIDDEN
 62
     7
370
     0
100
AcDbLine
 10
60.9444202408
 20
154.2305985445
 30
0.0
 11
60.3444202408
 21
153.884188383
 31
0.0
  0
LINE
  5
194
330
1F
100
AcDbEntity
  8
0
  6
HIDDEN
 62
     7
370
     0
100
AcDbLine
 10
60.3444202408
 20
125.884188383
 30
0.0
 11
60.9444202408
 21
125.5377782215
 31
0.0
  0
ARC
  5
195
330
1F
100
AcDbEntity
  8
0
  6
HIDDEN
 62
     7
370
     0
100
AcDbCircle
 10
79.4141918011
 20
126.384188383
 30
0.0
 40
0.5000000000000284
100
AcDbArc
 50
270.0
 51
360.0
  0
ARC
  5
196
330
1F
100
AcDbEntity
  8
0
  6
HIDDEN
 62
     7
370
     0
100
AcDbCircle
 10
79.4141918011
 20
153.384188383
 30
0.0
 40
0.5
100
AcDbArc
 50
0.0
 51
90.0
  0
LINE
  5
197
330
1F
100
AcDbEntity
  8
0
  6
HIDDEN
 62
     7
370
     0
100
AcDbLine
 10
66.7444202408
 20
125.884188383
 30
0.0
 11
79.4141918011
 21
125.884188383
 31
0.0
  0
LINE
  5
198
330
1F
100
AcDbEntity
  8
0
  6
HIDDEN
 62
     7
370
     0
100
AcDbLine
 10
79.4141918011
 20
153.884188383
 30
0.0
 11
66.7444202408
 21
153.884188383
 31
0.0
  0
LINE
  5
199
330
1F
100
AcDbEntity
  8
0
  6
HIDDEN
 62
     7
370
     0
100
AcDbLine
 10
59.3444202408
 20
125.884188383
 30
0.0
 11
60.3444202408
 21
125.884188383
 31
0.0
  0
LINE
  5
19A
330
1F
100
AcDbEntity
  8
0
  6
HIDDEN
 62
     7
370
     0
100
AcDbLine
 10
60.3444202408
 20
153.884188383
 30
0.0
 11
59.3444202408
 21
153.884188383
 31
0.0
  0
LINE
  5
19B
330
1F
100
AcDbEntity
  8
0
  6
HIDDEN
 62
     7
370
     0
100
AcDbLine
 10
206.8141918011
 20
143.9014093098
 30
0.0
 11
206.8141918011
 21
141.1966216882
 31
0.0
  0
LINE
  5
19C
330
1F
100
AcDbEntity
  8
0
  6
HIDDEN
 62
     7
370
     0
100
AcDbLine
 10
211.0141918011
 20
143.6865178022
 30
0.0
 11
211.0141918011
 21
143.9014093098
 31
0.0
  0
LINE
  5
19D
330
1F
100
AcDbEntity
  8
0
  6
HIDDEN
 62
     7
370
     0
100
AcDbLine
 10
211.0141918011
 20
141.1463941296
 30
0.0
 11
211.0141918011
 21
142.4850070482
 31
0.0
  0
LINE
  5
19E
330
1F
100
AcDbEntity
  8
0
  6
HIDDEN
 62
     7
370
     0
100
AcDbLine
 10
215.901587626
 20
148.435298602
 30
0.0
 11
208.9104519866
 21
145.2900966544
 31
0.0
  0
LINE
  5
19F
330
1F
100
AcDbEntity
  8
0
  6
HIDDEN
 62
     7
370
     0
100
AcDbLine
 10
210.0600097004
 20
141.2018044689
 30
0.0
 11
215.8760744263
 21
143.8183604973
 31
0.0
  0
LINE
  5
1A0
330
1F
100
AcDbEntity
  8
0
  6
HIDDEN
 62
     7
370
     0
100
AcDbLine
 10
79.9141918011
 20
129.634188383
 30
0.0
 11
81.1641918011
 21
130.884188383
 31
0.0
  0
LINE
  5
1A1
330
1F
100
AcDbEntity
  8
0
  6
HIDDEN
 62
     7
370
     0
100
AcDbLine
 10
81.1641918011
 20
148.884188383
 30
0.0
 11
79.9141918011
 21
150.134188383
 31
0.0
  0
LINE
  5
1A2
330
1F
100
AcDbEntity
  8
0
  6
HIDDEN
 62
     7
370
     0
100
AcDbLine
 10
106.9141918011
 20
130.884188383
 30
0.0
 11
109.7682797415
 21
135.634188383
 31
0.0
  0
LINE
  5
1A3
330
1F
100
AcDbEntity
  8
0
  6
HIDDEN
 62
     7
370
     0
100
AcDbLine
 10
109.7682797415
 20
144.134188383
 30
0.0
 11
106.9141918011
 21
148.884188383
 31
0.0
  0
LINE
  5
1A4
330
1F
100
AcDbEntity
  8
0
  6
HIDDEN
 62
     7
370
     0
100
AcDbLine
 10
81.1641918011
 20
130.884188383
 30
0.0
 11
106.9141918011
 21
130.884188383
 31
0.0
  0
LINE
  5
1A5
330
1F
100
AcDbEntity
  8
0
  6
HIDDEN
 62
     7
370
     0
100
AcDbLine
 10
106.9141918011
 20
148.884188383
 30
0.0
 11
81.1641918011
 21
148.884188383
 31
0.0
  0
LINE
  5
1A6
330
1F
100
AcDbEntity
  8
0
  6
HIDDEN
 62
     7
370
     0
100
AcDbLine
 10
210.9141918011
 20
135.634188383
 30
0.0
 11
213.467849432
 21
139.884188383
 31
0.0
  0
LINE
  5
1A7
330
1F
100
AcDbEntity
  8
0
  6
HIDDEN
 62
     7
370
     0
100
AcDbLine
 10
213.467849432
 20
139.884188383
 30
0.0
 11
210.9141918011
 21
144.134188383
 31
0.0
  0
LINE
  5
1A8
330
1F
100
AcDbEntity
  8
0
  6
HIDDEN
 62
     7
370
     0
100
AcDbLine
 10
210.9141918011
 20
144.134188383
 30
0.0
 11
109.7682797415
 21
144.134188383
 31
0.0
  0
LINE
  5
1A9
330
1F
100
AcDbEntity
  8
0
  6
HIDDEN
 62
     7
370
     0
100
AcDbLine
 10
109.7682797415
 20
135.634188383
 30
0.0
 11
210.9141918011
 21
135.634188383
 31
0.0
  0
LINE
  5
1AA
330
1F
100
AcDbEntity
  8
0
  6
HIDDEN
 62
     7
370
     0
100
AcDbLine
 10
234.6659379185
 20
148.8014329583
 30
0.0
 11
234.6659379185
 21
148.6967982477
 31
0.0
  0
LINE
  5
1AB
330
1F
100
AcDbEntity
  8
0
  6
HIDDEN
 62
     7
370
     0
100
AcDbLine
 10
206.8141918011
 20
138.5711049665
 30
0.0
 11
206.8141918011
 21
136.8682888962
 31
0.0
  0
LINE
  5
1AC
330
1F
100
AcDbEntity
  8
0
  6
HIDDEN
 62
     7
370
     0
100
AcDbLine
 10
211.0141918011
 20
136.8682888962
 30
0.0
 11
211.0141918011
 21
138.6219826363
 31
0.0
  0
LINE
  5
1AD
330
1F
100
AcDbEntity
  8
0
  6
HIDDEN
 62
     7
370
     0
100
AcDbLine
 10
242.0929105969
 20
154.4011255033
 30
0.0
 11
242.0929105969
 21
153.7958939087
 31
0.0
  0
LINE
  5
1AE
330
1F
100
AcDbEntity
  8
0
  6
HIDDEN
 62
     7
370
     0
100
AcDbLine
 10
245.3929105969
 20
153.7959040046
 30
0.0
 11
245.3929105969
 21
154.4011255033
 31
0.0
  0
LINE
  5
1AF
330
1F
100
AcDbEntity
  8
0
  6
HIDDEN
 62
     7
370
     0
100
AcDbLine
 10
206.4141918011
 20
136.7940184392
 30
0.0
 11
206.4141918011
 21
134.9399953516
 31
0.0
  0
LINE
  5
1B0
330
1F
100
AcDbEntity
  8
0
  6
HIDDEN
 62
     7
370
     0
100
AcDbLine
 10
211.4141918011
 20
134.9400047039
 30
0.0
 11
211.4141918011
 21
136.7940184392
 31
0.0
  0
LINE
  5
1B1
330
1F
100
AcDbEntity
  8
VERMASSUNG
  6
CENTERX2
100
AcDbLine
 10
51.0728824634
 20
139.884188383
 30
0.0
 11
250.9141918011
 21
139.884188383
 31
0.0
  0
LINE
  5
1B2
330
1F
100
AcDbEntity
  8
VERMASSUNG
  6
CENTERX2
100
AcDbLine
 10
250.9141918011
 20
139.884188383
 30
0.0
 11
250.9141918011
 21
161.884188383
 31
0.0
  0
LINE
  5
1B3
330
1F
100
AcDbEntity
  8
VERMASSUNG
  6
CENTERX2
100
AcDbLine
 10
250.9141918011
 20
161.884188383
 30
0.0
 11
266.7822557858
 21
161.884188383
 31
0.0
  0
DIMENSION
  5
1B4
330
1F
100
AcDbEntity
  8
VERMASSUNG
100
AcDbDimension
  2
_D
 10
250.9141918011
 20
181.384188383
 30
0.0
 11
170.9141918011
 21
181.384188383
 31
0.0
 70
   160
  1
<>
 71
     2
 42
-1.0
  3
SLDDIMSTYLE0
100
AcDbAlignedDimension
 13
90.9141918011
 23
170.884188383
 33
0.0
 14
250.9141918011
 24
161.884188383
 34
0.0
100
AcDbRotatedDimension
  0
DIMENSION
  5
1BF
330
1F
100
AcDbEntity
  8
VERMASSUNG
100
AcDbDimension
  2
_D_1
 10
52.9141918011
 20
190.056299418
 30
0.0
 11
151.9141918011
 21
190.056299418
 31
0.0
 70
   160
  1
<>
 71
     2
 42
-1.0
  3
SLDDIMSTYLE0
100
AcDbAlignedDimension
 13
250.9141918011
 23
161.884188383
 33
0.0
 14
52.9141918011
 24
160.1765263755
 34
0.0
100
AcDbRotatedDimension
  0
DIMENSION
  5
1C9
330
1F
100
AcDbEntity
  8
VERMASSUNG
100
AcDbDimension
  2
_D_2
 10
268.0915901167
 20
161.884188383
 30
0.0
 11
268.0915901167
 21
150.884188383
 31
0.0
 70
   160
  1
<>
 71
     2
 42
-1.0
  3
SLDDIMSTYLE0
100
AcDbAlignedDimension
 13
250.9141918011
 23
139.884188383
 33
0.0
 14
250.9141918011
 24
161.884188383
 34
0.0
 50
90.0
100
AcDbRotatedDimension
  0
DIMENSION
  5
1D3
330
1F
100
AcDbEntity
  8
VERMASSUNG
100
AcDbDimension
  2
_D_3
 10
250.9141918011
 20
161.884188383
 30
0.0
 11
256.8532252994
 21
153.9770447944
 31
0.0
 70
   162
  1
<>
 71
     1
 42
-1.0
  3
SLDDIMSTYLE1
100
AcDb2LineAngularDimension
 13
250.898292068
 23
161.3734421737
 33
0.0
 14
247.6923152324
 24
151.2301515874
 34
0.0
 15
266.7822557858
 25
161.884188383
 35
0.0
 16
256.8532252994
 26
153.9770447944
 36
0.0
  0
DIMENSION
  5
1DC
330
1F
100
AcDbEntity
  8
VERMASSUNG
100
AcDbDimension
  2
_D_4
 10
138.3774776402
 20
155.884188383
 30
0.0
 11
138.3774776402
 21
148.8827675341
 31
0.0
 70
   160
  1
%%c<>
 71
     2
 42
-1.0
  3
SLDDIMSTYLE0
100
AcDbAlignedDimension
 13
116.9141918011
 23
123.884188383
 33
0.0
 14
116.9141918011
 24
155.884188383
 34
0.0
 50
90.0
100
AcDbRotatedDimension
  0
DIMENSION
  5
1E5
330
1F
100
AcDbEntity
  8
VERMASSUNG
100
AcDbDimension
  2
_D_5
 10
42.9141418011
 20
108.384188383
 30
0.0
 11
42.9141418011
 21
139.884188383
 31
0.0
 70
   160
  1
PSC%%c<>
 71
     2
 42
-1.0
  3
SLDDIMSTYLE0
100
AcDbAlignedDimension
 13
91.4141918011
 23
171.384188383
 33
0.0
 14
91.4141918011
 24
108.384188383
 34
0.0
 50
90.0
100
AcDbRotatedDimension
  0
LINE
  5
1F1
330
1F
100
AcDbEntity
  8
0
  6
Continuous
 62
     7
370
    15
100
AcDbLine
 10
185.8633979857
 20
64.2877132824
 30
0.0
 11
185.8633979857
 21
62.7877132693
 31
0.0
  0
ARC
  5
1F2
330
1F
100
AcDbEntity
  8
0
  6
Continuous
 62
     7
370
    15
100
AcDbCircle
 10
169.3633980751
 20
62.7877132693
 30
0.0
 40
16.50000000000003
100
AcDbArc
 50
261.7087285136
 51
0.0
  0
LINE
  5
1F3
330
1F
100
AcDbEntity
  8
0
  6
Continuous
 62
     7
370
    15
100
AcDbLine
 10
168.9034027797
 20
73.9087981829
 30
0.0
 11
166.9840081297
 21
46.4601756731
 31
0.0
  0
LINE
  5
1F4
330
1F
100
AcDbEntity
  8
0
  6
Continuous
 62
     7
370
    15
100
AcDbLine
 10
168.9034027797
 20
73.9087981829
 30
0.0
 11
171.0829331707
 21
73.9693117985
 31
0.0
  0
LINE
  5
1F5
330
1F
100
AcDbEntity
  8
0
  6
Continuous
 62
     7
370
    15
100
AcDbLine
 10
171.0829331707
 20
73.9693117985
 30
0.0
 11
172.5745631549
 21
73.7972313264
 31
0.0
  0
LINE
  5
1F6
330
1F
100
AcDbEntity
  8
0
  6
Continuous
 62
     7
370
    15
100
AcDbLine
 10
172.5895211268
 20
74.0111412207
 30
0.0
 11
172.5745631549
 21
73.7972313264
 31
0.0
  0
LINE
  5
1F7
330
1F
100
AcDbEntity
  8
0
  6
Continuous
 62
     7
370
    15
100
AcDbLine
 10
177.0450016185
 20
82.395229275
 30
0.0
 11
173.2434653379
 21
83.3629777381
 31
0.0
  0
ARC
  5
1F8
330
1F
100
AcDbEntity
  8
0
  6
Continuous
 62
     7
370
    15
100
AcDbCircle
 10
162.8633980751
 20
64.2877132693
 30
0.0
 40
23.00000000000006
100
AcDbArc
 50
0.0
 51
51.9323507823
  0
LINE
  5
1F9
330
1F
100
AcDbEntity
  8
0
  6
Continuous
 62
     7
370
    15
100
AcDbLine
 10
173.2668145261
 20
83.6968885461
 30
0.0
 11
176.3641228601
 21
82.908412228
 31
0.0
  0
ARC
  5
1FA
330
1F
100
AcDbEntity
  8
0
  6
Continuous
 62
     7
370
    15
100
AcDbCircle
 10
162.8633980751
 20
64.2877132693
 30
0.0
 40
23.00000000000001
100
AcDbArc
 50
51.9323507823
 51
54.0564394646
  0
SPLINE
  5
1FB
330
1F
100
AcDbEntity
  8
0
  6
Continuous
 62
     7
370
    15
100
AcDbSpline
210
0.0
220
0.0
230
1.0
 70
     8
 71
     3
 72
    10
 73
     6
 74
     0
 42
0.00000001
 43
0.00000001
 12
1.0
 22
0.0
 32
0.0
 13
1.0
 23
0.0
 33
0.0
 40
0.0
 40
0.0
 40
0.0
 40
0.0
 40
0.3780942374878096
 40
0.7563570609771355
 40
1.0
 40
1.0
 40
1.0
 40
1.0
 10
167.0033591501197
 20
78.61269989106005
 30
0.0
 10
167.3165159226179
 20
78.65358620765691
 30
0.0
 10
167.9429690990683
 20
78.73537707138674
 30
0.0
 10
168.6275327281272
 20
78.77326827177224
 30
0.0
 10
168.8544487001047
 20
78.77861156348386
 30
0.0
 10
168.9433471758166
 20
78.78070489558523
 30
0.0
  0
SPLINE
  5
1FC
330
1F
100
AcDbEntity
  8
0
  6
Continuous
 62
     7
370
    15
100
AcDbSpline
210
0.0
220
0.0
230
1.0
 70
     8
 71
     3
 72
    14
 73
    10
 74
     0
 42
0.00000001
 43
0.00000001
 12
1.0
 22
0.0
 32
0.0
 13
1.0
 23
0.0
 33
0.0
 40
0.0
 40
0.0
 40
0.0
 40
0.0
 40
0.2499999999999999
 40
0.2499999999999999
 40
0.4999999999999999
 40
0.4999999999999999
 40
0.7499999999999998
 40
0.7499999999999998
 40
1.0
 40
1.0
 40
1.0
 40
1.0
 10
167.0189874583811
 20
46.96040336333093
 30
0.0
 10
167.0189874583811
 20
46.96040336333093
 30
0.0
 10
166.9657266041085
 20
46.96801912776045
 30
0.0
 10
166.7534217305656
 20
47.00165693164406
 30
0.0
 10
166.5994882775852
 20
47.02693519826556
 30
0.0
 10
166.1999636067633
 20
47.10224212120389
 30
0.0
 10
165.9629530626231
 20
47.15078314844501
 30
0.0
 10
165.4241412300019
 20
47.27775306961692
 30
0.0
 10
165.1319304767123
 20
47.35405325626164
 30
0.0
 10
164.8239143591886
 20
47.44518780598572
 30
0.0
  0
ELLIPSE
  5
1FD
330
1F
100
AcDbEntity
  8
0
  6
Continuous
 62
     7
370
    15
100
AcDbEllipse
 10
160.9850617653
 20
69.030354436
 30
0.0
 11
1.76019682471815
 21
1.835933670849755
 31
0.0
210
0.0
220
0.0
230
1.0
 40
0.8100956337
 41
0.0
 42
6.283185307179586
  0
ARC
  5
1FE
330
1F
100
AcDbEntity
  8
0
  6
Continuous
 62
     7
370
    15
100
AcDbCircle
 10
169.3633980751
 20
62.7877132693
 30
0.0
 40
15.99999999999999
100
AcDbArc
 50
98.4822165171
 51
253.5177834829
  0
SPLINE
  5
1FF
330
1F
100
AcDbEntity
  8
0
  6
Continuous
 62
     7
370
    15
100
AcDbSpline
210
0.0
220
0.0
230
1.0
 70
     8
 71
     3
 72
    14
 73
    10
 74
     0
 42
0.00000001
 43
0.00000001
 12
1.0
 22
0.0
 32
0.0
 13
1.0
 23
0.0
 33
0.0
 40
0.0
 40
0.0
 40
0.0
 40
0.0
 40
0.1246650185033794
 40
0.3326354054968784
 40
0.4065584321049606
 40
0.481121186537414
 40
0.5844045715908702
 40
0.8165926993645436
 40
1.0
 40
1.0
 40
1.0
 40
1.0
 10
158.7025616019746
 20
68.26172421741431
 30
0.0
 10
158.8170068715678
 20
68.28387457566848
 30
0.0
 10
159.12237359846
 20
68.34297690836962
 30
0.0
 10
159.5366826248163
 20
68.19108160586092
 30
0.0
 10
159.9867297360961
 20
68.0286521032496
 30
0.0
 10
160.3308480721832
 20
67.92189208926177
 30
0.0
 10
160.8206134158125
 20
67.78104943032037
 30
0.0
 10
161.3392889439851
 20
67.57372541903369
 30
0.0
 10
161.5911559011723
 20
67.25007502390588
 30
0.0
 10
161.7023078426501
 20
67.1072441810662
 30
0.0
  0
CIRCLE
  5
200
330
1F
100
AcDbEntity
  8
0
  6
Continuous
 62
     7
370
    15
100
AcDbCircle
 10
169.3633980751
 20
62.7877132693
 30
0.0
 40
31.50000000000004
  0
SPLINE
  5
201
330
1F
100
AcDbEntity
  8
0
  6
Continuous
 62
     7
370
    15
100
AcDbSpline
210
0.0
220
0.0
230
1.0
 70
     8
 71
     3
 72
    14
 73
    10
 74
     0
 42
0.00000001
 43
0.00000001
 12
1.0
 22
0.0
 32
0.0
 13
1.0
 23
0.0
 33
0.0
 40
0.0
 40
0.0
 40
0.0
 40
0.0
 40
0.1588507036702959
 40
0.3173337603187033
 40
0.4720201427634399
 40
0.6236377583676105
 40
0.774655638023289
 40
0.9277347269679634
 40
1.0
 40
1.0
 40
1.0
 40
1.0
 10
169.3276832222255
 20
84.2769665369684
 30
0.0
 10
169.3308289851998
 20
84.32195303659162
 30
0.0
 10
169.337113230536
 20
84.41182191824694
 30
0.0
 10
169.346624016254
 20
84.54783283279153
 30
0.0
 10
169.3547106362492
 20
84.66347850375497
 30
0.0
 10
169.3605822198256
 20
84.74744369740156
 30
0.0
 10
169.3636655140357
 20
84.79153656108815
 30
0.0
 10
169.3638223380643
 20
84.79378116665943
 30
0.0
 10
169.3626612976648
 20
84.77717736846935
 30
0.0
 10
169.3622889657336
 20
84.77185272666757
 30
0.0
  0
SPLINE
  5
202
330
1F
100
AcDbEntity
  8
0
  6
Continuous
 62
     7
370
    15
100
AcDbSpline
210
0.0
220
0.0
230
1.0
 70
     8
 71
     3
 72
    10
 73
     6
 74
     0
 42
0.00000001
 43
0.00000001
 12
1.0
 22
0.0
 32
0.0
 13
1.0
 23
0.0
 33
0.0
 40
0.0
 40
0.0
 40
0.0
 40
0.0
 40
0.278947182804244
 40
0.5613894428383642
 40
1.0
 40
1.0
 40
1.0
 40
1.0
 10
169.3622889657336
 20
84.77185272666757
 30
0.0
 10
169.7249861934353
 20
84.6874349443683
 30
0.0
 10
170.454925074809
 20
84.51754166459327
 30
0.0
 10
171.7743437089107
 20
84.27220472685393
 30
0.0
 10
172.7120711379692
 20
84.05380923284841
 30
0.0
 10
173.282483097144
 20
83.92096103224104
 30
0.0
  0
SPLINE
  5
203
330
1F
100
AcDbEntity
  8
0
  6
Continuous
 62
     7
370
    15
100
AcDbSpline
210
0.0
220
0.0
230
1.0
 70
     8
 71
     3
 72
    14
 73
    10
 74
     0
 42
0.00000001
 43
0.00000001
 12
1.0
 22
0.0
 32
0.0
 13
1.0
 23
0.0
 33
0.0
 40
0.0
 40
0.0
 40
0.0
 40
0.0
 40
0.1583264743283495
 40
0.3168081654085863
 40
0.4714033823762888
 40
0.6221093958803333
 40
0.7721181265010634
 40
0.9245825272210363
 40
0.9999999999999999
 40
0.9999999999999999
 40
0.9999999999999999
 40
0.9999999999999999
 10
173.282483097144
 20
83.92096103224104
 30
0.0
 10
173.2826509704659
 20
83.92336114522594
 30
0.0
 10
173.2829868816857
 20
83.92816372416762
 30
0.0
 10
173.2824643401179
 20
83.92068764324183
 30
0.0
 10
173.281235601272
 20
83.90312284026766
 30
0.0
 10
173.2794120774337
 20
83.87703745058614
 30
0.0
 10
173.277225372473
 20
83.84577372604484
 30
0.0
 10
173.2752776131027
 20
83.81791509188552
 30
0.0
 10
173.2741659524164
 20
83.80201745049742
 30
0.0
 10
173.2737980484744
 20
83.79675612840002
 30
0.0
  0
LINE
  5
204
330
1F
100
AcDbEntity
  8
0
  6
Continuous
 62
     7
370
    15
100
AcDbLine
 10
172.5955193098
 20
74.0969188237
 30
0.0
 11
173.2737980485
 21
83.7967561284
 31
0.0
  0
LINE
  5
205
330
1F
100
AcDbEntity
  8
0
  6
Continuous
 62
     7
370
    15
100
AcDbLine
 10
168.6183952545
 20
74.1336762631
 30
0.0
 11
169.3276832222
 21
84.276966537
 31
0.0
  0
SPLINE
  5
206
330
1F
100
AcDbEntity
  8
0
  6
Continuous
 62
     7
370
    15
100
AcDbSpline
210
0.0
220
0.0
230
1.0
 70
     8
 71
     3
 72
    10
 73
     6
 74
     0
 42
0.00000001
 43
0.00000001
 12
1.0
 22
0.0
 32
0.0
 13
1.0
 23
0.0
 33
0.0
 40
0.0
 40
0.0
 40
0.0
 40
0.0
 40
0.2657127018936084
 40
0.6164609615859765
 40
1.0
 40
1.0
 40
1.0
 40
1.0
 10
172.5955193098416
 20
74.09691882374828
 30
0.0
 10
172.5949742703507
 20
74.08912443810691
 30
0.0
 10
172.5937097633616
 20
74.07104124361447
 30
0.0
 10
172.591997579008
 20
74.0465577004539
 30
0.0
 10
172.5913409483499
 20
74.03716685721784
 30
0.0
 10
172.5909979715725
 20
74.0322617540056
 30
0.0
  0
SPLINE
  5
207
330
1F
100
AcDbEntity
  8
0
  6
Continuous
 62
     7
370
    15
100
AcDbSpline
210
0.0
220
0.0
230
1.0
 70
     8
 71
     3
 72
    10
 73
     6
 74
     0
 42
0.00000001
 43
0.00000001
 12
1.0
 22
0.0
 32
0.0
 13
1.0
 23
0.0
 33
0.0
 40
0.0
 40
0.0
 40
0.0
 40
0.0
 40
0.3518049947670181
 40
0.7034264592363386
 40
1.0
 40
1.0
 40
1.0
 40
1.0
 10
168.6003107744982
 20
73.87505636605566
 30
0.0
 10
168.6015433576939
 20
73.89268314576604
 30
0.0
 10
168.6040078810689
 20
73.9279275096149
 30
0.0
 10
168.6106573168296
 20
74.02301878258244
 30
0.0
 10
168.6159662282492
 20
74.09893962740959
 30
0.0
 10
168.6183952544598
 20
74.1336762631232
 30
0.0
  0
LINE
  5
208
330
1F
100
AcDbEntity
  8
0
  6
Continuous
 62
     7
370
    15
100
AcDbLine
 10
168.3766730996
 20
70.6768890569
 30
0.0
 11
168.6791352979
 21
70.7016240531
 31
0.0
  0
LINE
  5
209
330
1F
100
AcDbEntity
  8
0
  6
Continuous
 62
     7
370
    15
100
AcDbLine
 10
172.5895211268
 20
74.0111412207
 30
0.0
 11
172.5909979716
 21
74.032261754
 31
0.0
  0
LINE
  5
20A
330
1F
100
AcDbEntity
  8
0
  6
Continuous
 62
     7
370
    15
100
AcDbLine
 10
168.3766730996
 20
70.6768890569
 30
0.0
 11
168.6003107745
 21
73.8750563661
 31
0.0
  0
CIRCLE
  5
20B
330
1F
100
AcDbEntity
  8
VERMASSUNG
  6
CENTERX2
100
AcDbCircle
 10
169.3515556843
 20
64.6183591914
 30
0.0
 40
20.00000000000002
  0
DIMENSION
  5
20C
330
1F
100
AcDbEntity
  8
VERMASSUNG
100
AcDbDimension
  2
_D_6
 10
157.3869011783
 20
80.6448074116
 30
0.0
 11
146.1356482021
 21
95.7156665947
 31
0.0
 70
   160
  1
%%c<> min. 
 71
     2
 42
-1.0
  3
SLDDIMSTYLE2
100
AcDbAlignedDimension
 13
181.3162101903
 23
48.5919109713
 33
0.0
 14
157.3869011783
 24
80.6448074116
 34
0.0
 50
-53.2565695037
100
AcDbRotatedDimension
  0
DIMENSION
  5
21B
330
1F
100
AcDbEntity
  8
VERMASSUNG
100
AcDbDimension
  2
_D_7
 10
169.3633980751
 20
96.7877132693
 30
0.0
 11
156.7814476786
 21
26.270976401
 31
0.0
 70
   162
  1
<>
 71
     1
 42
-1.0
  3
SLDDIMSTYLE3
100
AcDb2LineAngularDimension
 13
166.9840080893
 23
46.4601750809
 33
0.0
 14
168.9034027881
 24
73.9087980826
 34
0.0
 15
169.3633980751
 25
28.7877132693
 35
0.0
 16
167.4210014677
 26
24.8640759352
 36
0.0
  0
INSERT
  5
233
330
1F
100
AcDbEntity
  8
VERMASSUNG
100
AcDbBlockReference
  2
SW_CENTERMARKSYMBOL_0
 10
169.3633980751
 20
62.7877132693
 30
0.0
  0
OLE2FRAME
  5
234
330
1F
100
AcDbEntity
  8
0
100
AcDbOle2Frame
 70
     2
  3
Paintbrush-Bild
 10
13.8511154363
 20
38.264191557
 30
0.0
 11
51.6290888628
 21
31.9806341108
 31
0.0
 71
     2
 72
     0
 73
     1
 90
    12928
310
80552BED0767C5B32B40DDAF6807D121434000000000000000006FFBDDFB85D0
310
4940DDAF6807D121434000000000000000006FFBDDFB85D04940416F4BD60AFB
310
3F4000000000000000002BED0767C5B32B40416F4BD60AFB3F40000000000000
310
0000000000000100000000010000010000000100000000000100000000320000
310
D0CF11E0A1B11AE1000000000000000000000000000000003E000300FEFF0900
310
0600000000000000000000000100000001000000000000000010000002000000
310
01000000FEFFFFFF0000000000000000FFFFFFFFFFFFFFFFFFFFFFFFFFFFFFFF
310
FFFFFFFFFFFFFFFFFFFFFFFFFFFFFFFFFFFFFFFFFFFFFFFFFFFFFFFFFFFFFFFF
310
FFFFFFFFFFFFFFFFFFFFFFFFFFFFFFFFFFFFFFFFFFFFFFFFFFFFFFFFFFFFFFFF
310
FFFFFFFFFFFFFFFFFFFFFFFFFFFFFFFFFFFFFFFFFFFFFFFFFFFFFFFFFFFFFFFF
310
FFFFFFFFFFFFFFFFFFFFFFFFFFFFFFFFFFFFFFFFFFFFFFFFFFFFFFFFFFFFFFFF
310
FFFFFFFFFFFFFFFFFFFFFFFFFFFFFFFFFFFFFFFFFFFFFFFFFFFFFFFFFFFFFFFF
310
FFFFFFFFFFFFFFFFFFFFFFFFFFFFFFFFFFFFFFFFFFFFFFFFFFFFFFFFFFFFFFFF
310
FFFFFFFFFFFFFFFFFFFFFFFFFFFFFFFFFFFFFFFFFFFFFFFFFFFFFFFFFFFFFFFF
310
FFFFFFFFFFFFFFFFFFFFFFFFFFFFFFFFFFFFFFFFFFFFFFFFFFFFFFFFFFFFFFFF
310
FFFFFFFFFFFFFFFFFFFFFFFFFFFFFFFFFFFFFFFFFFFFFFFFFFFFFFFFFFFFFFFF
310
FFFFFFFFFFFFFFFFFFFFFFFFFFFFFFFFFFFFFFFFFFFFFFFFFFFFFFFFFFFFFFFF
310
FFFFFFFFFFFFFFFFFFFFFFFFFFFFFFFFFFFFFFFFFFFFFFFFFFFFFFFFFFFFFFFF
310
FFFFFFFFFFFFFFFFFFFFFFFFFFFFFFFFFFFFFFFFFFFFFFFFFFFFFFFFFFFFFFFF
310
FFFFFFFFFFFFFFFFFFFFFFFFFFFFFFFFFFFFFFFFFFFFFFFFFFFFFFFFFFFFFFFF
310
FDFFFFFFFEFFFFFFFEFFFFFFFEFFFFFF05000000060000000700000008000000
310
090000000A0000000B0000000C0000000D0000000E0000000F00000010000000
310
11000000120000001300000014000000150000001600000017000000FEFFFFFF
310
FFFFFFFFFFFFFFFFFFFFFFFFFFFFFFFFFFFFFFFFFFFFFFFFFFFFFFFFFFFFFFFF
310
FFFFFFFFFFFFFFFFFFFFFFFFFFFFFFFFFFFFFFFFFFFFFFFFFFFFFFFFFFFFFFFF
310
FFFFFFFFFFFFFFFFFFFFFFFFFFFFFFFFFFFFFFFFFFFFFFFFFFFFFFFFFFFFFFFF
310
FFFFFFFFFFFFFFFFFFFFFFFFFFFFFFFFFFFFFFFFFFFFFFFFFFFFFFFFFFFFFFFF
310
FFFFFFFFFFFFFFFFFFFFFFFFFFFFFFFFFFFFFFFFFFFFFFFFFFFFFFFFFFFFFFFF
310
FFFFFFFFFFFFFFFFFFFFFFFFFFFFFFFFFFFFFFFFFFFFFFFFFFFFFFFFFFFFFFFF
310
FFFFFFFFFFFFFFFFFFFFFFFFFFFFFFFFFFFFFFFFFFFFFFFFFFFFFFFFFFFFFFFF
310
FFFFFFFFFFFFFFFFFFFFFFFFFFFFFFFFFFFFFFFFFFFFFFFFFFFFFFFFFFFFFFFF
310
FFFFFFFFFFFFFFFFFFFFFFFFFFFFFFFFFFFFFFFFFFFFFFFFFFFFFFFFFFFFFFFF
310
FFFFFFFFFFFFFFFFFFFFFFFFFFFFFFFFFFFFFFFFFFFFFFFFFFFFFFFFFFFFFFFF
310
FFFFFFFFFFFFFFFFFFFFFFFFFFFFFFFFFFFFFFFFFFFFFFFFFFFFFFFFFFFFFFFF
310
FFFFFFFFFFFFFFFFFFFFFFFFFFFFFFFFFFFFFFFFFFFFFFFFFFFFFFFFFFFFFFFF
310
FFFFFFFFFFFFFFFFFFFFFFFFFFFFFFFFFFFFFFFFFFFFFFFFFFFFFFFFFFFFFFFF
310
52006F006F007400200045006E00740072007900000000000000000000000000
310
0000000000000000000000000000000000000000000000000000000000000000
310
16000500FFFFFFFFFFFFFFFF020000000A00030000000000C000000000000046
310
00000000000000000000000060F0A37F8244CD0103000000C000000000000000
310
01004F006C006500000000000000000000000000000000000000000000000000
310
0000000000000000000000000000000000000000000000000000000000000000
310
0A000200FFFFFFFFFFFFFFFFFFFFFFFF00000000000000000000000000000000
310
0000000000000000000000000000000000000000000000001400000000000000
310
010043006F006D0070004F0062006A0000000000000000000000000000000000
310
0000000000000000000000000000000000000000000000000000000000000000
310
120002010100000003000000FFFFFFFF00000000000000000000000000000000
310
0000000000000000000000000000000000000000010000004D00000000000000
310
01004F006C006500310030004E00610074006900760065000000000000000000
310
0000000000000000000000000000000000000000000000000000000000000000
310
1A000200FFFFFFFFFFFFFFFFFFFFFFFF00000000000000000000000000000000
310
0000000000000000000000000000000000000000040000002426000000000000
310
FEFFFFFF02000000FEFFFFFFFFFFFFFFFFFFFFFFFFFFFFFFFFFFFFFFFFFFFFFF
310
FFFFFFFFFFFFFFFFFFFFFFFFFFFFFFFFFFFFFFFFFFFFFFFFFFFFFFFFFFFFFFFF
310
FFFFFFFFFFFFFFFFFFFFFFFFFFFFFFFFFFFFFFFFFFFFFFFFFFFFFFFFFFFFFFFF
310
FFFFFFFFFFFFFFFFFFFFFFFFFFFFFFFFFFFFFFFFFFFFFFFFFFFFFFFFFFFFFFFF
310
FFFFFFFFFFFFFFFFFFFFFFFFFFFFFFFFFFFFFFFFFFFFFFFFFFFFFFFFFFFFFFFF
310
FFFFFFFFFFFFFFFFFFFFFFFFFFFFFFFFFFFFFFFFFFFFFFFFFFFFFFFFFFFFFFFF
310
FFFFFFFFFFFFFFFFFFFFFFFFFFFFFFFFFFFFFFFFFFFFFFFFFFFFFFFFFFFFFFFF
310
FFFFFFFFFFFFFFFFFFFFFFFFFFFFFFFFFFFFFFFFFFFFFFFFFFFFFFFFFFFFFFFF
310
FFFFFFFFFFFFFFFFFFFFFFFFFFFFFFFFFFFFFFFFFFFFFFFFFFFFFFFFFFFFFFFF
310
FFFFFFFFFFFFFFFFFFFFFFFFFFFFFFFFFFFFFFFFFFFFFFFFFFFFFFFFFFFFFFFF
310
FFFFFFFFFFFFFFFFFFFFFFFFFFFFFFFFFFFFFFFFFFFFFFFFFFFFFFFFFFFFFFFF
310
FFFFFFFFFFFFFFFFFFFFFFFFFFFFFFFFFFFFFFFFFFFFFFFFFFFFFFFFFFFFFFFF
310
FFFFFFFFFFFFFFFFFFFFFFFFFFFFFFFFFFFFFFFFFFFFFFFFFFFFFFFFFFFFFFFF
310
FFFFFFFFFFFFFFFFFFFFFFFFFFFFFFFFFFFFFFFFFFFFFFFFFFFFFFFFFFFFFFFF
310
FFFFFFFFFFFFFFFFFFFFFFFFFFFFFFFFFFFFFFFFFFFFFFFFFFFFFFFFFFFFFFFF
310
FFFFFFFFFFFFFFFFFFFFFFFFFFFFFFFFFFFFFFFFFFFFFFFFFFFFFFFFFFFFFFFF
310
0100000200000000000000000000000000000000000000000000000000000000
310
0000000000000000000000000000000000000000000000000000000000000000
310
0100FEFF030A0000FFFFFFFF0A00030000000000C00000000000004607000000
310
5042727573680007000000504272757368000700000050427275736800F439B2
310
7100000000000000000000000000000000000000000000000000000000000000
310
0000000000000000000000000000000000000000000000000000000000000000
310
0000000000000000000000000000000000000000000000000000000000000000
310
0000000000000000000000000000000000000000000000000000000000000000
310
0000000000000000000000000000000000000000000000000000000000000000
310
0000000000000000000000000000000000000000000000000000000000000000
310
0000000000000000000000000000000000000000000000000000000000000000
310
0000000000000000000000000000000000000000000000000000000000000000
310
0000000000000000000000000000000000000000000000000000000000000000
310
0000000000000000000000000000000000000000000000000000000000000000
310
0000000000000000000000000000000000000000000000000000000000000000
310
0000000000000000000000000000000000000000000000000000000000000000
310
20260000424D0E260000000000003E00000028000000B40200006E0000000100
310
01000000000000000000130B0000130B00000200000002000000000000FFFFFF
310
FFFFFFFFFFFFFFFFFFFFFFFFFFFFFFFFFFFFFFFFFFFFFFFFFFFFFFFFFFFFFFFF
310
FFFFFFFFFFFFFFFFFFFFFFFFFFFFFFFFFFFFFFFFFFFFFFFFFFFFFFFFFFFFFFFF
310
FFFFFFFFFFFFFFFFFFFFFFFFFFFFFFFFFFFFFFFFFFFFFFFFF000FFFFFFFFFFFF
310
FFFFFFFFFFFFFFFFFFFFFFFFFFFFFFFFFFFFFFFFFFFFFFFFFFFFFFFFFFFFFFFF
310
FFFFFFFFFFFFFFFFFFFFFFFFFFFFFFFFFFFFFFFFFFFFFFFFFFFFFFFFFFFFFFFF
310
FFFFFFFFFFFFFFFFFFFFFFFFFFFFFFFFF000FFFFFFFFFFFFFFFFFFFFFFFFFFFF
310
FFFFFFFFFFFFFFFFFFFFFFFFFFFFFFFFFFFFFFFFFFFFFFFFFFFFFFFFFFFFFFFF
310
FFFFFFFFFFFFFFFFFFFFFFFFFFFFFFFFFFFFFFFFFFFFFFFFFFFFFFFFFFFFFFFF
310
FFFFFFFFFFFFFFFFF000FFFFFFFFFFFFFFFFFFFFFFFFFFFFFFFFFFFFFFFFFFFF
310
FFFFFFFFFFFFFFFFFFFFFFFFFFFFFFFFFFFFFFFFFFFFFFFFFFFFFFFFFFFFFFFF
310
FFFFFFFFFFFFFFFFFFFFFFFFFFFFFFFFFFFFFFFFFFFFFFFFFFFFFFFFFFFFFFFF
310
F000FFFFFFFFFFFFFFFFFFFFFFFFFFFFFFFFFFFFFFFFFFFFFFFFFFFFFFFFFFFF
310
FFFFFFFFFFFFFFFFFFFFFFFFFFFFFFFFFFFFFFFFFFFFFFFFFFFFFFFFFFFFFFFF
310
FFFFFFFFFFFFFFFFFFFFFFFFFFFFFFFFFFFFFFFFFFFFFFFFF000FFFFFFFFFFFF
310
FFFFFFFFFFFFFFFFFFFFFFFFFFFFFFFFFFFFFFFFFFFFFFFFFFFFFFFFFFFFFFFF
310
FFFFFFFFFFFFFFFFFFFFFFFFFFFFFFFFFFFFFFFFFFFFFFFFFFFFFFFFFFFFFFFF
310
FFFFFFFFFFFFFFFFFFFFFFFFFFFFFFFFF000FFFFFFFFFFFFFFFFFFFFFFFFFFFF
310
FFFFFFFFFFFFFFFFFFFFFFFFFFFFFFFFFFFFFFFFFFFFFFFFFFFFFFFFFFFFFFFF
310
FFFFFFFFFFFFFFFFFFFFFFFFFFFFFFFFFFFFFFFFFFFFFFFFFFFFFFFFFFFFFFFF
310
FFFFFFFFFFFFFFFFF000FFFFFFFFFFFFFFFFFFFFFFFFFFFFFFFFFFFFFFFFFFFF
310
FFFFFFFFFFFFFFFFFFFFFFFFFFFFFFFFFFFFFFFFFFFFFFFFFFFFFFFFFFFFFFFF
310
FFFFFFFFFFFFFFFFFFFFFFFFFFFFFFFFFFFFFFFFFFFFFFFFFFFFFFFFFFFFFFFF
310
F000FFFFFFFFFFFFFFFFFFFFFFFFFFFFFFFFFFFFFFFFFFFFFFFFFFFFFFFFFFFF
310
FFFFFFFFFFFFFFFFFFFFFFFFFFFFFFFFFFFFFFFFFFFFFFFFFFFFFFFFFFFFFFFF
310
FFFFFFFFFFFFFFFFFFFFFFFFFFFFFFFFFFFFFFFFFFFFFFFFF000FFFFFFFFFFFF
310
FFFFFFFFFFFFFFFFFFFFFFFFFFFFFFFFFFFFFFFFFFFFFFFFFFFFFFFFFFFFFFFF
310
FFFFFFFFFFFFFFFFFFFFFFFFFFFFFFFFFFFFFFFFFFFFFFFFFFFFFFFFFFFFFFFF
310
FFFFFFFFFFFFFFFFFFFFFFFFFFFFFFFFF000FFFFFFFFFFFFFFFFFFFFFFFFFFFF
310
FFFFFFFFFFFFFFFFFFFFFFFFFFFFFFFFFFFFFFFFFFFFFFFFFFFFFFFFFFFFFFFF
310
FFFFFFFFFFFFFFFFFFFFFFFFFFFFFFFFFFFFFFFFFFFFFFFFFFFFFFFFFFFFFFFF
310
FFFFFFFFFFFFFFFFF000FFFFFFFFFFFFFFFFFFFFFFFFFFFFFFFFFFFFFFFFFFFF
310
FFFFFFFFFFFFFFFFFFFFFFFFFFFFFFFFFFFFFFFFFFFFFFFFFFFFFFFFFFFFFFFF
310
FFFFFFFFFFFFFFFFFFFFFFFFFFFFFFFFFFFFFFFFFFFFFFFFFFFFFFFFFFFFFFFF
310
F000FFFFFFFFFFFFFFFFFFFFFFFFFFFFFFFFFFFFFFFFFFFFFFFFFFFFFFFFFFFF
310
FFFFFFFFFFFFFFFFFFFFFFFFFFFFFFFFFFFFFFFFFFFFFFFFFFFFFFFFFFFFFFFF
310
FFFFFFFFFFFFFFFFFFFFFFFFFFFFFFFFFFFFFFFFFFFFFFFFF000FFFFFFFFFFFF
310
FFFFFFFFFFFFFFFFFFFFFFFFFFFFFFFFFFFFFFFFFFFFFFFFFFFFFFFFFFFFFFFF
310
FFFFFFFFFFFFFFFFFFFFFFFFFFFFFFFFFFFFFFFFFFFFFFFFFFFFFFFFFFFFFFFF
310
FFFFFFFFFFFFFFFFFFFFFFFFFFFFFFFFF000FFFFFFFFFFFFFFFFFFFFFFFFFFFF
310
FFFFFFFFFFFFFFFFFFFFFFFFFFFFFFFFFFFFFFFFFFFFFFFFFFFFFFFFFFFFFFFF
310
FFFFFFFFFFFFFFFFFFFFFFFFFFFFFFFFFFFFFFFFFFFFFFFFFFFFFFFFFFFFFFFF
310
FFFFFFFFFFFFFFFFF000FFFFFFFFFFFFFFFFFFFFFFFFFFFFFFFFFFFFFFFFFFFF
310
FFFFFFFFFFFFFFFFFFFFFFFFFFFFFFFFFFFFFFFFFFFFFFFFFFFFFFFFFFFFFFFF
310
FFFFFFFFFFFFFFFFFFFFFFFFFFFFFFFFFFFFFFFFFFFFFFFFFFFFFFFFFFFFFFFF
310
F000FFFFFFFFFFFFFFFFFFFFFFFFFFFFFFFFFFFFFFFFFFFFFFFFFFFFFFFFFFFF
310
FFFFFFFFFFFFFFFFFFFFFFFFFFFFFFFFFFFFFFFFFFFFFFFFFFFFFFFFFFFFFFFF
310
FFFFFFFFFFFFFFFFFFFFFFFFFFFFFFFFFFFFFFFFFFFFFFFFF000FFFFFFFFFFFF
310
FFFFFFFFFFFFFFFFFFFFFFFFFFFFFFFFFFFFFFFFFFFFFFFFFFFFFFFFFFFFFFFF
310
FFFFFFFFFFFFFFFFFFFFFFFFFFFFFFFFFFFFFFFFFFFFFFFFFFFFFFFFFFFFFFFF
310
FFFFFFFFFFFFFFFFFFFFFFFFFFFFFFFFF000FFFFFFFFFFFFFFFFFFFFFFFFFFFF
310
FFFFFFFFFFFFFFFFFFFFFFFFFFFFFFFFFFFFFFFFFFFFFFFFFFFFFFFFFFFFFFFF
310
FFFFFFFFFFFFFFFFFFFFFFFFFFFFFFFFFFFFFFFFFFFFFFFFFFFFFFFFFFFFFFFF
310
FFFFFFFFFFFFFFFFF000FFFFF80003FFFFFFFFFFFFFFFFFFFFFFFFFFFFFFFFFF
310
FFFFF00007FFFFFFFFFF00007FFFFFF800000000000000007FFFFFFFFFFFFFFF
310
FFFFFFFC001FFFFFFFFFFFFFFC001FFFFFFFFFFFFFFFFFFFFFFFFFFE0007FFFF
310
F000FFFF8000007FFFFFFFF8000FFFFFC0007FFFFF80007FFFFF0000007FFFFF
310
FFF8000007FFFFF800000000000000007FFFFFF0001FFFFFFFFFFFC00001FFFF
310
FFFFFFFFC00001FFFFFFFF000000000003FFFFE000007FFFF000FFFE0000000F
310
FFFFFFF0000FFFFF80007FFFFF80007FFFFC0000001FFFFFFFC0000001FFFFF8
310
00000000000000007FFFFFF0001FFFFFFFFFFE0000003FFFFFFFFFFE0000003F
310
FFFFFF000000000003FFFF0000000FFFF000FFF800000003FFFFFFF00007FFFF
310
80007FFFFF80007FFFF000000007FFFFFF000000003FFFF80000000000000000
310
7FFFFFF0001FFFFFFFFFF80000000FFFFFFFFFF80000000FFFFFFF0000000000
310
03FFFC00000003FFF000FFE000000000FFFFFFF00007FFFF80003FFFFF80007F
310
FFC000000001FFFFFC000000001FFFF800000000000000007FFFFFF0001FFFFF
310
FFFFE000000003FFFFFFFFE000000003FFFFFF000000000003FFF000000000FF
310
F000FF80000000007FFFFFF00007FFFF80003FFFFF80007FFF8000000000FFFF
310
F80000000007FFF800000000000000007FFFFFF0001FFFFFFFFFC000000001FF
310
FFFFFFC000000001FFFFFF000000000003FFC0000000007FF000FF0000000000
310
3FFFFFE00007FFFF00003FFFFF80007FFE00000000003FFFF00000000003FFF8
310
00000000000000007FFFFFF0001FFFFFFFFF8000000000FFFFFFFF8000000000
310
FFFFFF000000000003FF80000000003FF000FE00000000001FFFFFE00003FFFF
310
00003FFFFF80007FFC00000000001FFFE00000000001FFF8000001FFFE000000
310
7FFFFFF0001FFFFFFFFE00000000003FFFFFFE00000000003FFFFF0000000000
310
03FF00000000001FF000FC00000000000FFFFFE00003FFFF00001FFFFF80007F
310
F800000000001FFFC00000000000FFF8000001FFFE0000007FFFFFF0001FFFFF
310
FFFC00000000001FFFFFFC00000000001FFFFF000000000003FE00000000000F
310
F000F8000000000007FFFFE00003FFFF00001FFFFF80007FF800000000000FFF
310
800000000000FFF8000001FFFE0000007FFFFFF0001FFFFFFFF800000000000F
310
FFFFF800000000000FFFFF000000000003FC000000000007F000F80000000000
310
03FFFFC00003FFFE00001FFFFF80007FF0000000000007FF0000000000007FF8
310
000001FFFE0000007FFFFFF0001FFFFFFFF0000000000007FFFFF00000000000
310
07FFFF000000000003F8000000000003F000F0000000000003FFFFC00001FFFE
310
00001FFFFF80007FE0000000000007FE0000000000003FF8000001FFFE000000
310
7FFFFFF0001FFFFFFFF0000000000007FFFFF0000000000007FFFF0000000000
310
03F800001F800003F000E00001FFF00001FFFFC00001FFFE00000FFFFF80007F
310
E00001FFE00003FE00001FFF00003FF8000001FFFE0000007FFFFFF0001FFFFF
310
FFE000003E000003FFFFE000003E000003FFFF000000000003F00001FFF80001
310
F000E00007FFFC0001FFFFC00001FFFE00000FFFFF80007FC0000FFFFC0003FC
310
0000FFFFC0001FF8000001FFFE0000007FFFFFF0001FFFFFFFC00003FFE00001
310
FFFFC00003FFE00001FFFF0001FFFFFFFFF00007FFFE0001F000E0000FFFFF00
310
00FFFF800001FFFC00000FFFFF80007FC0001FFFFE0001FC0001FFFFE0001FF8
310
000001FFFE0000007FFFFFF0001FFFFFFF80000FFFF80000FFFF80000FFFF800
310
00FFFF0003FFFFFFFFE0000FFFFF8000F000C0003FFFFF8000FFFF800000FFFC
310
000007FFFF80007F80003FFFFF0001FC0003FFFFF0001FF8000001FFFE000000
310
7FFFFFF0001FFFFFFF80003FFFFE0000FFFF80003FFFFE0000FFFF0003FFFFFF
310
FFE0003FFFFF8000F000C0003FFFFF8000FFFF800000FFFC000007FFFF80007F
310
80007FFFFF8001F80007FFFFF8000FF8000001FFFE0000007FFFFFF0001FFFFF
310
FF00007FFFFF00007FFF00007FFFFF00007FFF0003FFFFFFFFE0003FFFFFC000
310
F000C0007FFFFFC000FFFF000000FFFC000007FFFF80007F8000FFFFFF8000F8
310
000FFFFFF8000FF8000001FFFE0000007FFFFFF0001FFFFFFF0000FFFFFF8000
310
7FFF0000FFFFFF80007FFF0003FFFFFFFFC0007FFFFFC00070008000FFFFFFC0
310
00FFFF000000FFF8000007FFFF80007F8000FFFFFF8000F8000FFFFFF8000FF8
310
000001FFFE0000007FFFFFF0001FFFFFFE0001FFFFFFC0003FFE0001FFFFFFC0
310
003FFF0003FFFFFFFFC0007FFFFFE00070008000FFFFFFC0007FFF0000007FF8
310
000003FFFF80007F0001FFFFFF8000F8000FFFFFF8000FF8000001FFFE000000
310
7FFFFFF0001FFFFFFE0001FFFFFFC0003FFE0001FFFFFFC0003FFF0003FFFFFF
310
FFC000FFFFFFE00070008000FFFFFFC0007FFF0000007FF8000003FFFF80007F
310
0001FFFFFF8000F8001FFFFFF8000FF8000001FFFE0000007FFFFFF0001FFFFF
310
FE0003FFFFFFE0003FFE0003FFFFFFE0003FFF0003FFFFFFFFC000FFFFFFE000
310
70008000FFFFFFC0007FFE0000007FF8000003FFFF80007F0001FFFFFF8000F0
310
001FFFFFF8000FF8000001FFFE0000007FFFFFF0001FFFFFFC0003FFFFFFE000
310
1FFC0003FFFFFFE0001FFF0003FFFFFFFFC000FFFFFFC00070008000FFFFFF80
310
007FFE0000007FF0000003FFFF80007F0001FFFFFF0000F0001FFFFFF8000FF8
310
000001FFFE0000007FFFFFF0001FFFFFFC0007FFFFFFF0001FFC0007FFFFFFF0
310
001FFF0003FFFFFFFFC000FFFFFFC00070008001FFFFFF0000FFFE0000003FF0
310
000001FFFF80007F0001FFFFFF0000F8001FFFFFF0000FF8000001FFFE000000
310
7FFFFFF0001FFFFFFC0007FFFFFFF0001FFC0007FFFFFFF0001FFF0003FFFFFF
310
FFC001FFFFFF80007000FFFFFFFFFE0000FFFE0008003FF0008001FFFF80007F
310
FFFFFFFFFC0000FFFFFFFFFFE0000FF8000001FFFE0000007FFFFFF0001FFFFF
310
F8000FFFFFFFF8000FF8000FFFFFFFF8000FFF0003FFFFFFFFFFFFFFFFFF0000
310
7000FFFFFFFFFC0000FFFC0008003FF0008001FFFF80007FFFFFFFFFF80001FF
310
FFFFFFFF80000FF8000001FFFE0000007FFFFFF0001FFFFFF8000FFFFFFFF800
310
0FF8000FFFFFFFF8000FFF0003FFFFFFFFFFFFFFFFFE0000F000FFFFFFFFE000
310
00FFFC000C003FE000C001FFFF80007FFFFFFFFFC00001FFFFFFFFFE00001FF8
310
000001FFFE0000007FFFFFF0001FFFFFF8000FFFFFFFF8000FF8000FFFFFFFF8
310
000FFF0003FFFFFFFFFFFFFFFFF00000F000FFFFFFFE000001FFFC000C001FE0
310
00C000FFFF80007FFFFFFFFE000001FFFFFFFFE000001FF80FFFFFFFFFFFFFC0
310
7FFFFFF0001FFFFFF8000FFFFFFFF8000FF8000FFFFFFFF8000FFF0003FFFFFF
310
FFFFFFFFFF800000F000FFFFFFC0000001FFFC001C001FE001C000FFFF80007F
310
FFFFFF80000003FFFFFFF80000001FF80FFFFFFFFFFFFFC07FFFFFF0001FFFFF
310
F8001FFFFFFFFC000FF8001FFFFFFFFC000FFF0003FFFFFFFFFFFFFFF0000001
310
F000FFFFF800000001FFF8001C001FE001C000FFFF80007FFFFFF800000003FF
310
FFFF800000003FF80FFFFFFFFFFFFFC07FFFFFF0001FFFFFF8001FFFFFFFFC00
310
0FF8001FFFFFFFFC000FFF0003FFFFFFFFFFFFFE00000001F000FFFFC0000000
310
03FFF8001E001FC001E000FFFF80007FFFFF8000000007FFFFFC000000003FF8
310
0FFFFFFFFFFFFFC07FFFFFF0001FFFFFF8001FFFFFFFFC000FF8001FFFFFFFFC
310
000FFF0003FFFFFFFFFFFFE000000003F000FFFE0000000007FFF8001E000FC0
310
01E0007FFF80007FFFFE0000000007FFFFE0000000007FF80FFFFFFFFFFFFFC0
310
7FFFFFF0001FFFFFF0001FFFFFFFFC0007F0001FFFFFFFFC0007FF0003FFFFFF
310
FFFFFF0000000003F000FFF80000000007FFF8001E000FC003E0007FFF80007F
310
FFF0000000000FFFFF8000000000FFF80FFFFFFFFFFFFFC07FFFFFF0001FFFFF
310
F0001FFFFFFFFC0007F0001FFFFFFFFC0007FF0003FFFFFFFFFFFC0000000007
310
F000FFE0000000000FFFF0003E000FC003E0007FFF80007FFFC0000000001FFF
310
FE0000000001FFF80FFFFFFFFFFFFFC07FFFFFF0001FFFFFF0001FFFFFFFFC00
310
07F0001FFFFFFFFC0007FF0003FFFFFFFFFFF0000000000FF000FFC000000000
310
1FFFF0003F000F8003F0003FFF80007FFF80000000003FFFF80000000003FFF8
310
0FFFFFFFFFFFFFC07FFFFFF0001FFFFFF0001FFFFFFFFC0007F0001FFFFFFFFC
310
0007FF0003FFFFFFFFFFE0000000001FF000FF00000000007FFFF0003F000780
310
03F0003FFF80007FFF00000000007FFFF00000000007FFF80FFFFFFFFFFFFFC0
310
7FFFFFF0001FFFFFF0001FFFFFFFFC0007F0001FFFFFFFFC0007FF0003FFFFFF
310
FFFF80000000007FF000FE0000000000FFFFE0003F00078007F0003FFF80007F
310
FE0000000001FFFFE0000000001FFFF80FFFFFFFFFFFFFC07FFFFFF0001FFFFF
310
F0001FFFFFFFFC0007F0001FFFFFFFFC0007FF0003FFFFFFFFFF0000000000FF
310
F000FC0000000003FFFFE0007F00078007F0003FFF80007FFC0000000007FFFF
310
C0000000007FFFF80FFFFFFFFFFFFFC07FFFFFF0001FFFFFF8001FFFFFFFFC00
310
0FF8001FFFFFFFFC000FFF0003FFFFFFFFFE0000000003FFF000FC000000000F
310
FFFFE0007F80070007F8001FFF80007FF8000000001FFFFF8000000001FFFFF8
310
0FFFFFFFFFFFFFC07FFFFFF0001FFFFFF8001FFFFFFFFC000FF8001FFFFFFFFC
310
000FFF0003FFFFFFFFFC000000000FFFF000F8000000007FFFFFE0007F800700
310
07F8001FFF80007FF000000000FFFFFF800000000FFFFFF80FFFFFFFFFFFFFC0
310
7FFFFFF0001FFFFFF8000FFFFFFFF8000FF8000FFFFFFFF8000FFF0003FFFFFF
310
FFFC000000007FFFF000F800000007FFFFFFC0007F8003000FF8001FFF80007F
310
F000000007FFFFFF000000007FFFFFF80FFFFFFFFFFFFFC07FFFFFF0001FFFFF
310
F8000FFFFFFFF8000FF8000FFFFFFFF8000FFF0003FFFFFFFFF80000000FFFFF
310
F000F0000000FFFFFFFFC000FF8003000FF8001FFF80007FE0000000FFFFFFFF
310
0000000FFFFFFFF8000001FFFE0000007FFFFFF0001FFFFFF8000FFFFFFFF800
310
0FF8000FFFFFFFF8000FFF0003FFFFFFFFF8000000FFFFFFF000F000000FFFFF
310
FFFFC000FFC002000FF8000FFF80007FE000001FFFFFFFFE000001FFFFFFFFF8
310
000001FFFE0000007FFFFFF0001FFFFFF8000FFFFFFFF8000FF8000FFFFFFFF8
310
000FFF0003FFFFFFFFF000001FFFFFFFF000E00000FFFFFFFFFFC000FFC00200
310
0FFC000FFF80007FE00001FFFFFFFFFE00001FFFFFFFFFF8000001FFFE000000
310
7FFFFFF0001FFFFFFC000FFFFFFFF8001FFC000FFFFFFFF8001FFF0003FFFFFF
310
FFF00001FFFFFFFFF000E00007FFFFFFFFFF8000FFC000001FFC000FFF80007F
310
C0000FFFFFFFFFFE0000FFFFFFFFFFF8000001FFFE0000007FFFFFF0001FFFFF
310
FC0007FFFFFFF0001FFC0007FFFFFFF0001FFF0003FFFFFFFFF00007FFFFFFFF
310
F000E0001FFFFFFFFFFF8000FFC000001FFC000FFF80007FC0003FFFFFFFFFFE
310
0001FFFFFFFFFFF8000001FFFE0000007FFFFFF0001FFFFFFC0007FFFFFFF000
310
1FFC0007FFFFFFF0001FFF0003FFFFFFFFF0001FFFFFFFFFF000E0003FFFFF00
310
03FF8001FFE000001FFC0007FF80007FC0007FFFFF0007FC0003FFFFF0003FF8
310
000001FFFE0000007FFFFFF0001FFFFFFC0003FFFFFFE0001FFC0003FFFFFFE0
310
001FFF0003FFFFFFFFF0003FFFFFFFFFF000E0003FFFFF0001FF8001FFE00000
310
1FFE0007FF80007FC0007FFFFE0003FC0007FFFFE0003FF8000001FFFE000000
310
7FFFFFF0001FFFFFFE0003FFFFFFE0003FFE0003FFFFFFE0003FFF0003FFFFFF
310
FFF0003FFFFF8001F000E0003FFFFF0001FF0001FFE000001FFE0007FF80007F
310
C0007FFFFE0003FC0007FFFFE0003FF8000001FFFE0000007FFFFFF0001FFFFF
310
FE0001FFFFFFC0003FFE0001FFFFFFC0003FFF0003FFFFFFFFF0003FFFFF0001
310
F000E0003FFFFF0003FF0001FFE000003FFE0007FF80007FC0007FFFFE0003FC
310
0007FFFFE0003FF8000001FFFE0000007FFFFFF0001FFFFFFF0001FFFFFFC000
310
7FFF0001FFFFFFC0007FFF0003FFFFFFFFF0003FFFFF0001F000E0003FFFFE00
310
03FF0003FFF000003FFE0003FF80007FC0007FFFFC0003FE0007FFFFE0003FF8
310
000001FFFE0000007FFFFFF0001FFFFFFF0000FFFFFF80007FFF0000FFFFFF80
310
007FFF0003FFFFFFFFF0003FFFFF0001F000E0003FFFFE0003FF0003FFF00000
310
3FFF0003FF80007FC0007FFFFC0007FE0007FFFFC0003FF8000001FFFE000000
310
7FFFFFF0001FFFFFFF80007FFFFF0000FFFF80007FFFFF0000FFFF0003FFFFFF
310
FFF0003FFFFF0003F000E0003FFFFC0003FE0003FFF000003FFF0003FF80007F
310
E0003FFFF80007FE0003FFFFC0007FF8000001FFFE0000007FFFFFF0001FFFFF
310
FF80003FFFFE0000FFFF80003FFFFE0000FFFF0003FFFFFFFFF0001FFFFE0003
310
F000F0001FFFF80003FE0003FFF000007FFF0001FF80007FE0003FFFF00007FE
310
0001FFFF80007FF8000001FFFE0000007FFFFFF0001FFFFFFFC0000FFFF80001
310
FFFFC0000FFFF80001FFFF0003FFFFFFFFF0001FFFFC0003F000F0000FFFF000
310
07FE0007FFF800007FFF0001FF80007FE0001FFFE00007FF0000FFFE00007FF8
310
000001FFFE0000007FFFFFF0001FFFFFFFC00003FFE00001FFFFC00003FFE000
310
01FFFF0003FFFFFFFFF8000FFFF80003F000F00003FFC00007FC0007FFF80000
310
7FFF8001FF80007FF00007FF80000FFF00007FF80000FFF8000001FFFE000000
310
7F80000000000001FFE000003E000003FFFFE000003E000003FFFF0003FFFFFF
310
FFF80003FFE00007F000F800000000000FFC0007FFF800007FFF8001FF80007F
310
F000000000000FFF000000000000FFF8000001FFFE0000007F80000000000001
310
FFF0000000000007FFFFF0000000000007FFFF0003FFFFFFFFFC00007E000007
310
F000F800000000000FFC0007FFF80000FFFF8000FF80007FF800000000001FFF
310
800000000001FFF8000001FFFE0000007F80000000000001FFF800000000000F
310
FFFFF800000000000FFFFF0003FFFFFFFFFC00000000000FF000FC0000000000
310
1FFC0007FFFC0000FFFF8000FF80007FF800000000003FFFC00000000001FFF8
310
000001FFFE0000007F80000000000001FFF800000000000FFFFFF80000000000
310
0FFFFF0003FFFFFFFFFE00000000001FF000FE00000000003FF8000FFFFC0000
310
FFFF8000FF80007FFC00000000003FFFC00000000003FFF8000001FFFE000000
310
7F80000000000001FFFC00000000001FFFFFFC00000000001FFFFF0003FFFFFF
310
FFFF00000000001FF000FF00000000003FF8000FFFFC0000FFFFC000FF80007F
310
FE00000000007FFFE00000000007FFF8000001FFFE0000007F80000000000001
310
FFFE00000000003FFFFFFE00000000003FFFFF0003FFFFFFFFFF80000000003F
310
F000FF80000000007FF8000FFFFC0001FFFFC0007F80007FFF0000000000FFFF
310
F0000000000FFFF800000000000000007F80000000000001FFFF8000000000FF
310
FFFFFF8000000000FFFFFF0003FFFFFFFFFFC0000000007FF000FFC000000000
310
FFF8000FFFFE0001FFFFC0007F80007FFF8000000001FFFFF8000000001FFFF8
310
00000000000000007F80000000000001FFFFC000000001FFFFFFFFC000000001
310
FFFFFF0003FFFFFFFFFFE000000000FFF000FFE000000003FFF0001FFFFE0001
310
FFFFC0007F80007FFFC000000007FFFFFE000000003FFFF80000000000000000
310
7F80000000000001FFFFE000000003FFFFFFFFE000000003FFFFFF0003FFFFFF
310
FFFFF000000003FFF000FFF80000000FFFF0001FFFFE0001FFFFE0007F80007F
310
FFF00000000FFFFFFF00000000FFFFF800000000000000007F80000000000001
310
FFFFF80000000FFFFFFFFFF80000000FFFFFFF0003FFFFFFFFFFFC0000000FFF
310
F000FFFE0000003FFFF0001FFFFE0003FFFFE0003F80007FFFFC0000003FFFFF
310
FFC0000003FFFFF800000000000000007F80000000000001FFFFFE0000003FFF
310
FFFFFFFE0000003FFFFFFF0003FFFFFFFFFFFF0000003FFFF000FFFF800000FF
310
FFF0001FFFFF0003FFFFE0003F80007FFFFF000001FFFFFFFFF800001FFFFFF8
310
00000000000000007F80000000000001FFFFFFC00001FFFFFFFFFFFFC00001FF
310
FFFFFF0003FFFFFFFFFFFFC00000FFFFF000FFFFF8000FFFFFFFFFFFFFFFFFFF
310
FFFFFFFFFFFFFFFFFFFFF0001FFFFFFFFFFF0000FFFFFFF80000000000000000
310
7FFFFFFFFFFFFFFFFFFFFFFC001FFFFFFFFFFFFFFC001FFFFFFFFFFFFFFFFFFF
310
FFFFFFFC001FFFFFF000FFFFFFFFFFFFFFFFFFFFFFFFFFFFFFFFFFFFFFFFFFFF
310
FFFFFFFFFFFFFFFFFFFFFFFFFFFFFFFFFFFFFFFFFFFFFFFFFFFFFFFFFFFFFFFF
310
FFFFFFFFFFFFFFFFFFFFFFFFFFFFFFFFFFFFFFFFFFFFFFFFFFFFFFFFFFFFFFFF
310
F000FFFFFFFFFFFFFFFFFFFFFFFFFFFFFFFFFFFFFFFFFFFFFFFFFFFFFFFFFFFF
310
FFFFFFFFFFFFFFFFFFFFFFFFFFFFFFFFFFFFFFFFFFFFFFFFFFFFFFFFFFFFFFFF
310
FFFFFFFFFFFFFFFFFFFFFFFFFFFFFFFFFFFFFFFFFFFFFFFFF000FFFFFFFFFFFF
310
FFFFFFFFFFFFFFFFFFFFFFFFFFFFFFFFFFFFFFFFFFFFFFFFFFFFFFFFFFFFFFFF
310
FFFFFFFFFFFFFFFFFFFFFFFFFFFFFFFFFFFFFFFFFFFFFFFFFFFFFFFFFFFFFFFF
310
FFFFFFFFFFFFFFFFFFFFFFFFFFFFFFFFF000FFFFFFFFFFFFFFFFFFFFFFFFFFFF
310
FFFFFFFFFFFFFFFFFFFFFFFFFFFFFFFFFFFFFFFFFFFFFFFFFFFFFFFFFFFFFFFF
310
FFFFFFFFFFFFFFFFFFFFFFFFFFFFFFFFFFFFFFFFFFFFFFFFFFFFFFFFFFFFFFFF
310
FFFFFFFFFFFFFFFFF000FFFFFFFFFFFFFFFFFFFFFFFFFFFFFFFFFFFFFFFFFFFF
310
FFFFFFFFFFFFFFFFFFFFFFFFFFFFFFFFFFFFFFFFFFFFFFFFFFFFFFFFFFFFFFFF
310
FFFFFFFFFFFFFFFFFFFFFFFFFFFFFFFFFFFFFFFFFFFFFFFFFFFFFFFFFFFFFFFF
310
F000FFFFFFFFFFFFFFFFFFFFFFFFFFFFFFFFFFFFFFFFFFFFFFFFFFFFFFFFFFFF
310
FFFFFFFFFFFFFFFFFFFFFFFFFFFFFFFFFFFFFFFFFFFFFFFFFFFFFFFFFFFFFFFF
310
FFFFFFFFFFFFFFFFFFFFFFFFFFFFFFFFFFFFFFFFFFFFFFFFF000FFFFFFFFFFFF
310
FFFFFFFFFFFFFFFFFFFFFFFFFFFFFFFFFFFFFFFFFFFFFFFFFFFFFFFFFFFFFFFF
310
FFFFFFFFFFFFFFFFFFFFFFFFFFFFFFFFFFFFFFFFFFFFFFFFFFFFFFFFFFFFFFFF
310
FFFFFFFFFFFFFFFFFFFFFFFFFFFFFFFFF000FFFFFFFFFFFFFFFFFFFFFFFFFFFF
310
FFFFFFFFFFFFFFFFFFFFFFFFFFFFFFFFFFFFFFFFFFFFFFFFFFFFFFFFFFFFFFFF
310
FFFFFFFFFFFFFFFFFFFFFFFFFFFFFFFFFFFFFFFFFFFFFFFFFFFFFFFFFFFFFFFF
310
FFFFFFFFFFFFFFFFF000FFFFFFFFFFFFFFFFFFFFFFFFFFFFFFFFFFFFFFFFFFFF
310
FFFFFFFFFFFFFFFFFFFFFFFFFFFFFFFFFFFFFFFFFFFFFFFFFFFFFFFFFFFFFFFF
310
FFFFFFFFFFFFFFFFFFFFFFFFFFFFFFFFFFFFFFFFFFFFFFFFFFFFFFFFFFFFFFFF
310
F000FFFFFFFFFFFFFFFFFFFFFFFFFFFFFFFFFFFFFFFFFFFFFFFFFFFFFFFFFFFF
310
FFFFFFFFFFFFFFFFFFFFFFFFFFFFFFFFFFFFFFFFFFFFFFFFFFFFFFFFFFFFFFFF
310
FFFFFFFFFFFFFFFFFFFFFFFFFFFFFFFFFFFFFFFFFFFFFFFFF000FFFFFFFFFFFF
310
FFFFFFFFFFFFFFFFFFFFFFFFFFFFFFFFFFFFFFFFFFFFFFFFFFFFFFFFFFFFFFFF
310
FFFFFFFFFFFFFFFFFFFFFFFFFFFFFFFFFFFFFFFFFFFFFFFFFFFFFFFFFFFFFFFF
310
FFFFFFFFFFFFFFFFFFFFFFFFFFFFFFFFF000FFFFFFFFFFFFFFFFFFFFFFFFFFFF
310
FFFFFFFFFFFFFFFFFFFFFFFFFFFFFFFFFFFFFFFFFFFFFFFFFFFFFFFFFFFFFFFF
310
FFFFFFFFFFFFFFFFFFFFFFFFFFFFFFFFFFFFFFFFFFFFFFFFFFFFFFFFFFFFFFFF
310
FFFFFFFFFFFFFFFFF000FFFFFFFFFFFFFFFFFFFFFFFFFFFFFFFFFFFFFFFFFFFF
310
FFFFFFFFFFFFFFFFFFFFFFFFFFFFFFFFFFFFFFFFFFFFFFFFFFFFFFFFFFFFFFFF
310
FFFFFFFFFFFFFFFFFFFFFFFFFFFFFFFFFFFFFFFFFFFFFFFFFFFFFFFFFFFFFFFF
310
F000FFFFFFFFFFFFFFFFFFFFFFFFFFFFFFFFFFFFFFFFFFFFFFFFFFFFFFFFFFFF
310
FFFFFFFFFFFFFFFFFFFFFFFFFFFFFFFFFFFFFFFFFFFFFFFFFFFFFFFFFFFFFFFF
310
FFFFFFFFFFFFFFFFFFFFFFFFFFFFFFFFFFFFFFFFFFFFFFFFF000FFFFFFFFFFFF
310
FFFFFFFFFFFFFFFFFFFFFFFFFFFFFFFFFFFFFFFFFFFFFFFFFFFFFFFFFFFFFFFF
310
FFFFFFFFFFFFFFFFFFFFFFFFFFFFFFFFFFFFFFFFFFFFFFFFFFFFFFFFFFFFFFFF
310
FFFFFFFFFFFFFFFFFFFFFFFFFFFFFFFFF000FFFFFFFFFFFFFFFFFFFFFFFFFFFF
310
FFFFFFFFFFFFFFFFFFFFFFFFFFFFFFFFFFFFFFFFFFFFFFFFFFFFFFFFFFFFFFFF
310
FFFFFFFFFFFFFFFFFFFFFFFFFFFFFFFFFFFFFFFFFFFFFFFFFFFFFFFFFFFFFFFF
310
FFFFFFFFFFFFFFFFF000FFFFFFFFFFFFFFFFFFFFFFFFFFFFFFFFFFFFFFFFFFFF
310
FFFFFFFFFFFFFFFFFFFFFFFFFFFFFFFFFFFFFFFFFFFFFFFFFFFFFFFFFFFFFFFF
310
FFFFFFFFFFFFFFFFFFFFFFFFFFFFFFFFFFFFFFFFFFFFFFFFFFFFFFFFFFFFFFFF
310
F000FFFFFFFFFFFFFFFFFFFFFFFFFFFFFFFFFFFFFFFFFFFFFFFFFFFFFFFFFFFF
310
FFFFFFFFFFFFFFFFFFFFFFFFFFFFFFFFFFFFFFFFFFFFFFFFFFFFFFFFFFFFFFFF
310
FFFFFFFFFFFFFFFFFFFFFFFFFFFFFFFFFFFFFFFFFFFFFFFFF000FFFFFFFFFFFF
310
FFFFFFFFFFFFFFFFFFFFFFFFFFFFFFFFFFFFFFFFFFFFFFFFFFFFFFFFFFFFFFFF
310
FFFFFFFFFFFFFFFFFFFFFFFFFFFFFFFFFFFFFFFFFFFFFFFFFFFFFFFFFFFFFFFF
310
FFFFFFFFFFFFFFFFFFFFFFFFFFFFFFFFF000FFFFFFFFFFFFFFFFFFFFFFFFFFFF
310
FFFFFFFFFFFFFFFFFFFFFFFFFFFFFFFFFFFFFFFFFFFFFFFFFFFFFFFFFFFFFFFF
310
FFFFFFFFFFFFFFFFFFFFFFFFFFFFFFFFFFFFFFFFFFFFFFFFFFFFFFFFFFFFFFFF
310
FFFFFFFFFFFFFFFFF000FFFFFFFFFFFFFFFFFFFFFFFFFFFFFFFFFFFFFFFFFFFF
310
FFFFFFFFFFFFFFFFFFFFFFFFFFFFFFFFFFFFFFFFFFFFFFFFFFFFFFFFFFFFFFFF
310
FFFFFFFFFFFFFFFFFFFFFFFFFFFFFFFFFFFFFFFFFFFFFFFFFFFFFFFFFFFFFFFF
310
F000FFFFFFFFFFFFFFFFFFFFFFFFFFFFFFFFFFFFFFFFFFFFFFFFFFFFFFFFFFFF
310
FFFFFFFFFFFFFFFFFFFFFFFFFFFFFFFFFFFFFFFFFFFFFFFFFFFFFFFFFFFFFFFF
310
FFFFFFFFFFFFFFFFFFFFFFFFFFFFFFFFFFFFFFFFFFFFFFFFF000FFFFFFFFFFFF
310
FFFFFFFFFFFFFFFFFFFFFFFFFFFFFFFFFFFFFFFFFFFFFFFFFFFFFFFFFFFFFFFF
310
FFFFFFFFFFFFFFFFFFFFFFFFFFFFFFFFFFFFFFFFFFFFFFFFFFFFFFFFFFFFFFFF
310
FFFFFFFFFFFFFFFFFFFFFFFFFFFFFFFFF0000000000000000000000000000000
310
0000000000000000000000000000000000000000000000000000000000000000
310
0000000000000000000000000000000000000000000000000000000000000000
310
0000000000000000000000000000000000000000000000000000000000000000
310
0000000000000000000000000000000000000000000000000000000000000000
310
0000000000000000000000000000000000000000000000000000000000000000
310
0000000000000000000000000000000000000000000000000000000000000000
310
0000000000000000000000000000000000000000000000000000000000000000
310
0000000000000000000000000000000000000000000000000000000000000000
310
0000000000000000000000000000000000000000000000000000000000000000
310
0000000000000000000000000000000000000000000000000000000000000000
310
0000000000000000000000000000000000000000000000000000000000000000
310
0000000000000000000000000000000000000000000000000000000000000000
310
0000000000000000000000000000000000000000000000000000000000000000
310
0000000000000000000000000000000000000000000000000000000000000000
310
0000000000000000000000000000000000000000000000000000000000000000
  1
OLE
  0
ENDSEC
  0
SECTION
  2
OBJECTS
  0
DICTIONARY
  5
C
330
0
100
AcDbDictionary
281
     1
  3
ACAD_GROUP
350
D
  3
ACAD_LAYOUT
350
1A
  3
ACAD_MLINESTYLE
350
17
  3
ACAD_PLOTSETTINGS
350
19
  3
ACAD_PLOTSTYLENAME
350
E
  0
DICTIONARY
  5
D
102
{ACAD_REACTORS
330
C
102
}
330
C
100
AcDbDictionary
281
     1
  0
DICTIONARY
  5
1A
102
{ACAD_REACTORS
330
C
102
}
330
C
100
AcDbDictionary
281
     1
  3
Layout1
350
1E
  3
Layout2
350
26
  3
Model
350
22
  0
DICTIONARY
  5
17
102
{ACAD_REACTORS
330
C
102
}
330
C
100
AcDbDictionary
281
     1
  3
Standard
350
18
  0
DICTIONARY
  5
19
102
{ACAD_REACTORS
330
C
102
}
330
C
100
AcDbDictionary
281
     1
  0
ACDBDICTIONARYWDFLT
  5
E
102
{ACAD_REACTORS
330
C
102
}
330
C
100
AcDbDictionary
281
     1
  3
Normal
350
F
100
AcDbDictionaryWithDefault
340
F
  0
LAYOUT
  5
1E
102
{ACAD_REACTORS
330
1A
102
}
330
1A
100
AcDbPlotSettings
  1

  2
none_device
  4

  6

 40
0.0
 41
0.0
 42
0.0
 43
0.0
 44
0.0
 45
0.0
 46
0.0
 47
0.0
 48
0.0
 49
0.0
140
0.0
141
0.0
142
1.0
143
1.0
 70
   688
 72
     0
 73
     0
 74
     5
  7

 75
    16
147
1.0
148
0.0
149
0.0
100
AcDbLayout
  1
Layout1
 70
     1
 71
     1
 10
0.0
 20
0.0
 11
420.0
 21
297.0
 12
0.0
 22
0.0
 32
0.0
 14
1.0000000000E+20
 24
1.0000000000E+20
 34
1.0000000000E+20
 15
-1.0000000000E+20
 25
-1.0000000000E+20
 35
-1.0000000000E+20
146
0.0
 13
0.0
 23
0.0
 33
0.0
 16
1.0
 26
0.0
 36
0.0
 17
0.0
 27
1.0
 37
0.0
 76
     0
330
1B
  0
LAYOUT
  5
26
102
{ACAD_REACTORS
330
1A
102
}
330
1A
100
AcDbPlotSettings
  1

  2
none_device
  4

  6

 40
0.0
 41
0.0
 42
0.0
 43
0.0
 44
0.0
 45
0.0
 46
0.0
 47
0.0
 48
0.0
 49
0.0
140
0.0
141
0.0
142
1.0
143
1.0
 70
   688
 72
     0
 73
     0
 74
     5
  7

 75
    16
147
1.0
148
0.0
149
0.0
100
AcDbLayout
  1
Layout2
 70
     1
 71
     2
 10
0.0
 20
0.0
 11
0.0
 21
0.0
 12
0.0
 22
0.0
 32
0.0
 14
0.0
 24
0.0
 34
0.0
 15
0.0
 25
0.0
 35
0.0
146
0.0
 13
0.0
 23
0.0
 33
0.0
 16
1.0
 26
0.0
 36
0.0
 17
0.0
 27
1.0
 37
0.0
 76
     0
330
23
  0
LAYOUT
  5
22
102
{ACAD_REACTORS
330
1A
102
}
330
1A
100
AcDbPlotSettings
  1

  2
none_device
  4

  6

 40
0.0
 41
0.0
 42
0.0
 43
0.0
 44
0.0
 45
0.0
 46
0.0
 47
0.0
 48
0.0
 49
0.0
140
0.0
141
0.0
142
1.0
143
1.0
 70
  1712
 72
     0
 73
     0
 74
     0
  7

 75
     0
147
1.0
148
0.0
149
0.0
100
AcDbLayout
  1
Model
 70
     1
 71
     0
 10
0.0
 20
0.0
 11
297.0
 21
210.0
 12
0.0
 22
0.0
 32
0.0
 14
0.0
 24
0.0
 34
0.0
 15
297.0
 25
210.0
 35
0.0
146
0.0
 13
0.0
 23
0.0
 33
0.0
 16
1.0
 26
0.0
 36
0.0
 17
0.0
 27
1.0
 37
0.0
 76
     0
330
1F
331
29
  0
MLINESTYLE
  5
18
102
{ACAD_REACTORS
330
17
102
}
330
17
100
AcDbMlineStyle
  2
Standard
 70
     0
  3

 62
   256
 51
90.0
 52
90.0
 71
     2
 49
0.5
 62
   256
  6
BYLAYER
 49
-0.5
 62
   256
  6
BYLAYER
  0
ACDBPLACEHOLDER
  5
F
102
{ACAD_REACTORS
330
E
102
}
330
E
  0
ENDSEC
  0
EOF
