  0
SECTION
  2
HEADER
  9
$ACADVER
  1
AC1015
  9
$ACADMAINTVER
 70
     6
  9
$DWGCODEPAGE
  3
ANSI_1252
  9
$INSBASE
 10
0.0
 20
0.0
 30
0.0
  9
$EXTMIN
 10
0.0
 20
0.0
 30
0.0
  9
$EXTMAX
 10
297.0
 20
210.0
 30
0.0
  9
$LIMMIN
 10
0.0
 20
0.0
  9
$LIMMAX
 10
297.0
 20
210.0
  9
$ORTHOMODE
 70
     0
  9
$REGENMODE
 70
     1
  9
$FILLMODE
 70
     1
  9
$QTEXTMODE
 70
     0
  9
$MIRRTEXT
 70
     1
  9
$LTSCALE
 40
1.0
  9
$ATTMODE
 70
     1
  9
$TEXTSIZE
 40
2.0
  9
$TRACEWID
 40
1.0
  9
$TEXTSTYLE
  7
Standard
  9
$CLAYER
  8
0
  9
$CELTYPE
  6
ByLayer
  9
$CECOLOR
 62
   256
  9
$CELTSCALE
 40
1.0
  9
$DISPSILH
 70
     0
  9
$DIMSCALE
 40
1.0
  9
$DIMASZ
 40
3.0
  9
$DIMEXO
 40
0.0
  9
$DIMDLI
 40
3.75
  9
$DIMRND
 40
0.0
  9
$DIMDLE
 40
0.0
  9
$DIMEXE
 40
1.0
  9
$DIMTP
 40
0.0
  9
$DIMTM
 40
0.0
  9
$DIMTXT
 40
2.0
  9
$DIMCEN
 40
2.5
  9
$DIMTSZ
 40
0.0
  9
$DIMTOL
 70
     0
  9
$DIMLIM
 70
     0
  9
$DIMTIH
 70
     1
  9
$DIMTOH
 70
     1
  9
$DIMSE1
 70
     0
  9
$DIMSE2
 70
     0
  9
$DIMTAD
 70
     1
  9
$DIMZIN
 70
     0
  9
$DIMBLK
  1

  9
$DIMASO
 70
     1
  9
$DIMSHO
 70
     1
  9
$DIMPOST
  1

  9
$DIMAPOST
  1

  9
$DIMALT
 70
     0
  9
$DIMALTD
 70
     3
  9
$DIMALTF
 40
0.0393700787
  9
$DIMLFAC
 40
1.0
  9
$DIMTOFL
 70
     1
  9
$DIMTVP
 40
0.0
  9
$DIMTIX
 70
     0
  9
$DIMSOXD
 70
     0
  9
$DIMSAH
 70
     0
  9
$DIMBLK1
  1

  9
$DIMBLK2
  1

  9
$DIMSTYLE
  2
ISO-25
  9
$DIMCLRD
 70
     0
  9
$DIMCLRE
 70
     0
  9
$DIMCLRT
 70
     0
  9
$DIMTFAC
 40
1.0
  9
$DIMGAP
 40
1.524
  9
$DIMJUST
 70
     0
  9
$DIMSD1
 70
     0
  9
$DIMSD2
 70
     0
  9
$DIMTOLJ
 70
     0
  9
$DIMTZIN
 70
     0
  9
$DIMALTZ
 70
     0
  9
$DIMALTTZ
 70
     0
  9
$DIMUPT
 70
     0
  9
$DIMDEC
 70
     2
  9
$DIMTDEC
 70
     3
  9
$DIMALTU
 70
     2
  9
$DIMALTTD
 70
     3
  9
$DIMTXSTY
  7
Standard
  9
$DIMAUNIT
 70
     0
  9
$DIMADEC
 70
     2
  9
$DIMALTRND
 40
0.0
  9
$DIMAZIN
 70
     0
  9
$DIMDSEP
 70
    44
  9
$DIMATFIT
 70
     3
  9
$DIMFRAC
 70
     0
  9
$DIMLDRBLK
  1

  9
$DIMLUNIT
 70
     2
  9
$DIMLWD
 70
    -2
  9
$DIMLWE
 70
    -2
  9
$DIMTMOVE
 70
     0
  9
$LUNITS
 70
     2
  9
$LUPREC
 70
     2
  9
$SKETCHINC
 40
1.0
  9
$FILLETRAD
 40
10.0
  9
$AUNITS
 70
     0
  9
$AUPREC
 70
     2
  9
$MENU
  1
.
  9
$ELEVATION
 40
0.0
  9
$PELEVATION
 40
0.0
  9
$THICKNESS
 40
0.0
  9
$LIMCHECK
 70
     0
  9
$CHAMFERA
 40
10.0
  9
$CHAMFERB
 40
10.0
  9
$CHAMFERC
 40
20.0
  9
$CHAMFERD
 40
0.0
  9
$SKPOLY
 70
     0
  9
$TDCREATE
 40
2456086.450845162
  9
$TDUCREATE
 40
2456086.367511829
  9
$TDUPDATE
 40
2456086.450846609
  9
$TDUUPDATE
 40
2456086.367513275
  9
$TDINDWG
 40
0.0000000116
  9
$TDUSRTIMER
 40
0.0000000116
  9
$USRTIMER
 70
     1
  9
$ANGBASE
 50
0.0
  9
$ANGDIR
 70
     0
  9
$PDMODE
 70
     0
  9
$PDSIZE
 40
-1.0
  9
$PLINEWID
 40
0.0
  9
$SPLFRAME
 70
     0
  9
$SPLINETYPE
 70
     6
  9
$SPLINESEGS
 70
     8
  9
$HANDSEED
  5
238
  9
$SURFTAB1
 70
     6
  9
$SURFTAB2
 70
     6
  9
$SURFTYPE
 70
     6
  9
$SURFU
 70
     6
  9
$SURFV
 70
     6
  9
$UCSBASE
  2

  9
$UCSNAME
  2

  9
$UCSORG
 10
0.0
 20
0.0
 30
0.0
  9
$UCSXDIR
 10
1.0
 20
0.0
 30
0.0
  9
$UCSYDIR
 10
0.0
 20
1.0
 30
0.0
  9
$UCSORTHOREF
  2

  9
$UCSORTHOVIEW
 70
     0
  9
$UCSORGTOP
 10
0.0
 20
0.0
 30
0.0
  9
$UCSORGBOTTOM
 10
0.0
 20
0.0
 30
0.0
  9
$UCSORGLEFT
 10
0.0
 20
0.0
 30
0.0
  9
$UCSORGRIGHT
 10
0.0
 20
0.0
 30
0.0
  9
$UCSORGFRONT
 10
0.0
 20
0.0
 30
0.0
  9
$UCSORGBACK
 10
0.0
 20
0.0
 30
0.0
  9
$PUCSBASE
  2

  9
$PUCSNAME
  2

  9
$PUCSORG
 10
0.0
 20
0.0
 30
0.0
  9
$PUCSXDIR
 10
1.0
 20
0.0
 30
0.0
  9
$PUCSYDIR
 10
0.0
 20
1.0
 30
0.0
  9
$PUCSORTHOREF
  2

  9
$PUCSORTHOVIEW
 70
     0
  9
$PUCSORGTOP
 10
0.0
 20
0.0
 30
0.0
  9
$PUCSORGBOTTOM
 10
0.0
 20
0.0
 30
0.0
  9
$PUCSORGLEFT
 10
0.0
 20
0.0
 30
0.0
  9
$PUCSORGRIGHT
 10
0.0
 20
0.0
 30
0.0
  9
$PUCSORGFRONT
 10
0.0
 20
0.0
 30
0.0
  9
$PUCSORGBACK
 10
0.0
 20
0.0
 30
0.0
  9
$USERI1
 70
     0
  9
$USERI2
 70
     0
  9
$USERI3
 70
     0
  9
$USERI4
 70
     0
  9
$USERI5
 70
     0
  9
$USERR1
 40
0.0
  9
$USERR2
 40
0.0
  9
$USERR3
 40
0.0
  9
$USERR4
 40
0.0
  9
$USERR5
 40
0.0
  9
$WORLDVIEW
 70
     1
  9
$SHADEDGE
 70
     3
  9
$SHADEDIF
 70
    70
  9
$TILEMODE
 70
     1
  9
$MAXACTVP
 70
    64
  9
$PINSBASE
 10
0.0
 20
0.0
 30
0.0
  9
$PLIMCHECK
 70
     0
  9
$PEXTMIN
 10
1.0000000000E+20
 20
1.0000000000E+20
 30
1.0000000000E+20
  9
$PEXTMAX
 10
-1.0000000000E+20
 20
-1.0000000000E+20
 30
-1.0000000000E+20
  9
$PLIMMIN
 10
0.0
 20
0.0
  9
$PLIMMAX
 10
420.0
 20
297.0
  9
$UNITMODE
 70
     0
  9
$VISRETAIN
 70
     1
  9
$PLINEGEN
 70
     0
  9
$PSLTSCALE
 70
     1
  9
$TREEDEPTH
 70
  3020
  9
$CMLSTYLE
  2
Standard
  9
$CMLJUST
 70
     0
  9
$CMLSCALE
 40
20.0
  9
$PROXYGRAPHICS
 70
     1
  9
$MEASUREMENT
 70
     1
  9
$CELWEIGHT
370
    -1
  9
$ENDCAPS
280
     0
  9
$JOINSTYLE
280
     0
  9
$LWDISPLAY
290
     1
  9
$INSUNITS
 70
     4
  9
$HYPERLINKBASE
  1

  9
$STYLESHEET
  1

  9
$XEDIT
290
     1
  9
$CEPSNTYPE
380
     0
  9
$PSTYLEMODE
290
     1
  9
$FINGERPRINTGUID
  2
{9E899409-67B2-49EA-A151-015BC4675BE4}
  9
$VERSIONGUID
  2
{FAEB1C32-E019-11D5-929B-00C0DF256EC4}
  9
$EXTNAMES
290
     1
  9
$PSVPSCALE
 40
0.0
  9
$OLESTARTUP
290
     0
  0
ENDSEC
  0
SECTION
  2
CLASSES
  0
CLASS
  1
ACDBDICTIONARYWDFLT
  2
AcDbDictionaryWithDefault
  3
ObjectDBX Classes
 90
        0
280
     0
281
     0
  0
CLASS
  1
VISUALSTYLE
  2
AcDbVisualStyle
  3
ObjectDBX Classes
 90
     4095
280
     0
281
     0
  0
CLASS
  1
MATERIAL
  2
AcDbMaterial
  3
ObjectDBX Classes
 90
     1153
280
     0
281
     0
  0
CLASS
  1
ACDBPLACEHOLDER
  2
AcDbPlaceHolder
  3
ObjectDBX Classes
 90
        0
280
     0
281
     0
  0
CLASS
  1
LAYOUT
  2
AcDbLayout
  3
ObjectDBX Classes
 90
        0
280
     0
281
     0
  0
ENDSEC
  0
SECTION
  2
TABLES
  0
TABLE
  2
VPORT
  5
8
330
0
100
AcDbSymbolTable
 70
     1
  0
VPORT
  5
29
330
8
100
AcDbSymbolTableRecord
100
AcDbViewportTableRecord
  2
*Active
 70
     0
 10
0.0
 20
0.0
 11
1.0
 21
1.0
 12
148.5
 22
105.0
 13
0.0
 23
0.0
 14
10.0
 24
10.0
 15
10.0
 25
10.0
 16
0.0
 26
0.0
 36
1.0
 17
0.0
 27
0.0
 37
0.0
 40
210.0
 41
1.4142857143
 42
50.0
 43
0.0
 44
0.0
 50
0.0
 51
0.0
 71
     0
 72
  2000
 73
     1
 74
     3
 75
     0
 76
     0
 77
     0
 78
     0
281
     0
 65
     1
110
0.0
120
0.0
130
0.0
111
1.0
121
0.0
131
0.0
112
0.0
122
1.0
132
0.0
 79
     0
146
0.0
  0
ENDTAB
  0
TABLE
  2
LTYPE
  5
5
330
0
100
AcDbSymbolTable
 70
     6
  0
LTYPE
  5
14
330
5
100
AcDbSymbolTableRecord
100
AcDbLinetypeTableRecord
  2
ByBlock
 70
     0
  3

 72
    65
 73
     0
 40
0.0
  0
LTYPE
  5
15
330
5
100
AcDbSymbolTableRecord
100
AcDbLinetypeTableRecord
  2
ByLayer
 70
     0
  3

 72
    65
 73
     0
 40
0.0
  0
LTYPE
  5
16
330
5
100
AcDbSymbolTableRecord
100
AcDbLinetypeTableRecord
  2
Continuous
 70
     0
  3
Solid line
 72
    65
 73
     0
 40
0.0
  0
LTYPE
  5
3F
330
5
100
AcDbSymbolTableRecord
100
AcDbLinetypeTableRecord
  2
HIDDEN
 70
     0
  3
Hidden __ __ __ __ __ __ __ __ __ __ __ __ __ __
 72
    65
 73
     2
 40
1.905
 49
1.27
 74
     0
 49
-0.635
 74
     0
  0
LTYPE
  5
40
330
5
100
AcDbSymbolTableRecord
100
AcDbLinetypeTableRecord
  2
PHANTOM
 70
     0
  3
Phantom ______  __  __  ______  __  __  ______
 72
    65
 73
     6
 40
12.7
 49
6.35
 74
     0
 49
-1.27
 74
     0
 49
1.27
 74
     0
 49
-1.27
 74
     0
 49
1.27
 74
     0
 49
-1.27
 74
     0
  0
LTYPE
  5
41
330
5
100
AcDbSymbolTableRecord
100
AcDbLinetypeTableRecord
  2
CENTER
 70
     0
  3
Center ____ _ ____ _ ____ _ ____ _ ____ _ ____
 72
    65
 73
     4
 40
10.16
 49
6.35
 74
     0
 49
-1.27
 74
     0
 49
1.27
 74
     0
 49
-1.27
 74
     0
  0
LTYPE
  5
42
330
5
100
AcDbSymbolTableRecord
100
AcDbLinetypeTableRecord
  2
CENTERX2
 70
     0
  3
Center (2x) ________  __  ________  __  _____
 72
    65
 73
     4
 40
20.32
 49
12.7
 74
     0
 49
-2.54
 74
     0
 49
2.54
 74
     0
 49
-2.54
 74
     0
  0
LTYPE
  5
43
330
5
100
AcDbSymbolTableRecord
100
AcDbLinetypeTableRecord
  2
DOT2
 70
     0
  3
Dot (.5x) ........................................
 72
    65
 73
     2
 40
0.635
 49
0.0
 74
     0
 49
-0.635
 74
     0
  0
ENDTAB
  0
TABLE
  2
LAYER
  5
2
330
0
100
AcDbSymbolTable
 70
     5
  0
LAYER
  5
10
330
2
100
AcDbSymbolTableRecord
100
AcDbLayerTableRecord
  2
0
 70
     0
 62
     7
  6
Continuous
370
    -3
390
F
  0
LAYER
  5
44
330
2
100
AcDbSymbolTableRecord
100
AcDbLayerTableRecord
  2
FORMAT
 70
     0
 62
     7
  6
Continuous
370
    -3
390
F
  0
LAYER
  5
45
330
2
100
AcDbSymbolTableRecord
100
AcDbLayerTableRecord
  2
VERMASSUNG
 70
     0
 62
     7
  6
Continuous
370
    -3
390
F
  0
LAYER
  5
46
330
2
100
AcDbSymbolTableRecord
100
AcDbLayerTableRecord
  2
KOPF_DÜNN
 70
     0
 62
     7
  6
Continuous
370
    -3
390
F
  0
LAYER
  5
47
330
2
100
AcDbSymbolTableRecord
100
AcDbLayerTableRecord
  2
KOPF_DICK
 70
     0
 62
     7
  6
Continuous
370
    15
390
F
  0
ENDTAB
  0
TABLE
  2
STYLE
  5
3
330
0
100
AcDbSymbolTable
 70
     2
  0
STYLE
  5
11
330
3
100
AcDbSymbolTableRecord
100
AcDbTextStyleTableRecord
  2
Standard
 70
     0
 40
0.0
 41
1.0
 50
0.0
 71
     0
 42
2.0
  3
txt
  4

  0
STYLE
  5
48
330
3
100
AcDbSymbolTableRecord
100
AcDbTextStyleTableRecord
  2
SLDTEXTSTYLE0
 70
     0
 40
0.0
 41
0.7
 50
0.0
 71
     0
 42
0.2
  3
TXT
  4

  0
ENDTAB
  0
TABLE
  2
VIEW
  5
6
330
0
100
AcDbSymbolTable
 70
     0
  0
ENDTAB
  0
TABLE
  2
UCS
  5
7
330
0
100
AcDbSymbolTable
 70
     0
  0
ENDTAB
  0
TABLE
  2
APPID
  5
9
330
0
100
AcDbSymbolTable
 70
     1
  0
APPID
  5
12
330
9
100
AcDbSymbolTableRecord
100
AcDbRegAppTableRecord
  2
ACAD
 70
     0
  0
ENDTAB
  0
TABLE
  2
DIMSTYLE
  5
A
330
0
100
AcDbSymbolTable
 70
     5
100
AcDbDimStyleTable
  0
DIMSTYLE
105
27
330
A
100
AcDbSymbolTableRecord
100
AcDbDimStyleTableRecord
  2
ISO-25
 70
     0
 41
2.5
 42
0.625
 43
3.75
 44
1.25
 73
     0
 74
     0
 77
     1
 78
     8
140
2.5
141
2.5
143
0.0393700787
147
0.625
171
     3
172
     1
178
     0
271
     2
272
     2
274
     3
278
    44
283
     0
284
     8
340
11
  0
DIMSTYLE
105
1B5
102
{ACAD_REACTORS
330
1B4
330
1BF
330
1C9
330
1DD
330
1E9
102
}
330
A
100
AcDbSymbolTableRecord
100
AcDbDimStyleTableRecord
  2
SLDDIMSTYLE0
 70
     0
 41
3.0
 44
0.0
 45
0.000000001
 73
     0
 74
     0
 77
     1
 78
    12
 79
     3
140
2.0
147
0.5
173
     1
178
     0
271
     2
272
     3
276
     2
284
    12
340
48
  0
DIMSTYLE
105
1D4
102
{ACAD_REACTORS
330
1D3
102
}
330
A
100
AcDbSymbolTableRecord
100
AcDbDimStyleTableRecord
  2
SLDDIMSTYLE1
 70
     0
 41
3.0
 44
0.0
 73
     0
 74
     0
 77
     1
 78
    12
 79
     3
140
2.0
147
0.5
173
     1
178
     0
179
     1
272
     3
276
     2
284
    12
340
48
  0
DIMSTYLE
105
210
102
{ACAD_REACTORS
330
20F
102
}
330
A
100
AcDbSymbolTableRecord
100
AcDbDimStyleTableRecord
  2
SLDDIMSTYLE2
 70
     0
 41
3.0
 44
0.0
 45
0.000000001
 73
     0
 74
     0
 77
     1
 78
    12
 79
     3
140
2.0
147
0.5
172
     1
173
     1
178
     0
271
     2
272
     3
276
     2
284
    12
289
     0
340
48
  0
DIMSTYLE
105
21F
102
{ACAD_REACTORS
330
21E
102
}
330
A
100
AcDbSymbolTableRecord
100
AcDbDimStyleTableRecord
  2
SLDDIMSTYLE3
 70
     0
 41
3.0
 44
0.0
 73
     0
 74
     0
 77
     1
 78
    12
 79
     3
140
2.0
147
0.5
173
     1
178
     0
179
     2
272
     3
276
     2
284
    12
340
48
  0
ENDTAB
  0
TABLE
  2
BLOCK_RECORD
  5
1
330
0
100
AcDbSymbolTable
 70
    10
  0
BLOCK_RECORD
  5
1F
330
1
100
AcDbSymbolTableRecord
100
AcDbBlockTableRecord
  2
*Model_Space
340
22
  0
BLOCK_RECORD
  5
1B
330
1
100
AcDbSymbolTableRecord
100
AcDbBlockTableRecord
  2
*Paper_Space
340
1E
  0
BLOCK_RECORD
  5
23
330
1
100
AcDbSymbolTableRecord
100
AcDbBlockTableRecord
  2
*Paper_Space0
340
26
  0
BLOCK_RECORD
  5
1B6
330
1
100
AcDbSymbolTableRecord
100
AcDbBlockTableRecord
  2
_D
340
0
  0
BLOCK_RECORD
  5
1C0
330
1
100
AcDbSymbolTableRecord
100
AcDbBlockTableRecord
  2
_D_1
340
0
  0
BLOCK_RECORD
  5
1CA
330
1
100
AcDbSymbolTableRecord
100
AcDbBlockTableRecord
  2
_D_2
340
0
  0
BLOCK_RECORD
  5
1D5
330
1
100
AcDbSymbolTableRecord
100
AcDbBlockTableRecord
  2
_D_3
340
0
  0
BLOCK_RECORD
  5
1DE
330
1
100
AcDbSymbolTableRecord
100
AcDbBlockTableRecord
  2
_D_4
340
0
  0
BLOCK_RECORD
  5
1EA
330
1
100
AcDbSymbolTableRecord
100
AcDbBlockTableRecord
  2
_D_5
340
0
  0
BLOCK_RECORD
  5
211
330
1
100
AcDbSymbolTableRecord
100
AcDbBlockTableRecord
  2
_D_6
340
0
  0
BLOCK_RECORD
  5
220
330
1
100
AcDbSymbolTableRecord
100
AcDbBlockTableRecord
  2
_D_7
340
0
  0
BLOCK_RECORD
  5
22B
330
1
100
AcDbSymbolTableRecord
100
AcDbBlockTableRecord
  2
SW_CENTERMARKSYMBOL_0
340
0
102
{BLKREFS
331
236
102
}
  0
ENDTAB
  0
ENDSEC
  0
SECTION
  2
BLOCKS
  0
BLOCK
  5
20
330
1F
100
AcDbEntity
  8
0
100
AcDbBlockBegin
  2
*Model_Space
 70
     0
 10
0.0
 20
0.0
 30
0.0
  3
*Model_Space
  1

  0
ENDBLK
  5
21
330
1F
100
AcDbEntity
  8
0
100
AcDbBlockEnd
  0
BLOCK
  5
1C
330
1B
100
AcDbEntity
 67
     1
  8
0
100
AcDbBlockBegin
  2
*Paper_Space
 70
     0
 10
0.0
 20
0.0
 30
0.0
  3
*Paper_Space
  1

  0
ENDBLK
  5
1D
330
1B
100
AcDbEntity
 67
     1
  8
0
100
AcDbBlockEnd
  0
BLOCK
  5
24
330
23
100
AcDbEntity
  8
0
100
AcDbBlockBegin
  2
*Paper_Space0
 70
     0
 10
0.0
 20
0.0
 30
0.0
  3
*Paper_Space0
  1

  0
ENDBLK
  5
25
330
23
100
AcDbEntity
  8
0
100
AcDbBlockEnd
  0
BLOCK
  5
1B7
330
1B6
100
AcDbEntity
  8
0
100
AcDbBlockBegin
  2
_D
 70
     0
 10
0.0
 20
0.0
 30
0.0
  3
_D
  1

  0
SOLID
  5
1B9
330
1B6
100
AcDbEntity
  8
VERMASSUNG
100
AcDbTrace
 10
132.1158667048
 20
150.1540742897
 30
0.0
 11
135.1158667048
 21
149.7040742897
 31
0.0
 12
135.1158667048
 22
150.6040742897
 32
0.0
 13
135.1158667048
 23
150.6040742897
 33
0.0
  0
SOLID
  5
1BA
330
1B6
100
AcDbEntity
  8
VERMASSUNG
100
AcDbTrace
 10
272.1158667048
 20
150.1540742897
 30
0.0
 11
269.1158667048
 21
150.6040742897
 31
0.0
 12
269.1158667048
 22
149.7040742897
 32
0.0
 13
269.1158667048
 23
149.7040742897
 33
0.0
  0
LINE
  5
1BB
330
1B6
100
AcDbEntity
  8
VERMASSUNG
100
AcDbLine
 10
132.1158667048
 20
142.9547233762
 30
0.0
 11
132.1158667048
 21
151.1540742897
 31
0.0
  0
LINE
  5
1BC
330
1B6
100
AcDbEntity
  8
VERMASSUNG
100
AcDbLine
 10
272.1158667048
 20
138.9547233762
 30
0.0
 11
272.1158667048
 21
151.1540742897
 31
0.0
  0
LINE
  5
1BD
330
1B6
100
AcDbEntity
  8
VERMASSUNG
100
AcDbLine
 10
132.1158667048
 20
150.1540742897
 30
0.0
 11
272.1158667048
 21
150.1540742897
 31
0.0
  0
MTEXT
  5
1BE
330
1B6
100
AcDbEntity
  8
VERMASSUNG
100
AcDbMText
 10
199.2158665089
 20
152.7322096528
 30
0.1
 40
2.0
 41
0.0
 71
     1
 72
     1
  1
140
  7
SLDTEXTSTYLE0
 73
     1
 44
1.0
  0
ENDBLK
  5
1B8
330
1B6
100
AcDbEntity
  8
0
100
AcDbBlockEnd
  0
BLOCK
  5
1C1
330
1C0
100
AcDbEntity
  8
0
100
AcDbBlockBegin
  2
_D_1
 70
     0
 10
0.0
 20
0.0
 30
0.0
  3
_D_1
  1

  0
SOLID
  5
1C3
330
1C0
100
AcDbEntity
  8
VERMASSUNG
100
AcDbTrace
 10
94.1158667048
 20
159.4547233762
 30
0.0
 11
97.1158667048
 21
159.0047233762
 31
0.0
 12
97.1158667048
 22
159.9047233762
 32
0.0
 13
97.1158667048
 23
159.9047233762
 33
0.0
  0
SOLID
  5
1C4
330
1C0
100
AcDbEntity
  8
VERMASSUNG
100
AcDbTrace
 10
272.1158667048
 20
159.4547233762
 30
0.0
 11
269.1158667048
 21
159.9047233762
 31
0.0
 12
269.1158667048
 22
159.0047233762
 32
0.0
 13
269.1158667048
 23
159.0047233762
 33
0.0
  0
LINE
  5
1C5
330
1C0
100
AcDbEntity
  8
VERMASSUNG
100
AcDbLine
 10
94.1158667048
 20
132.2470613687
 30
0.0
 11
94.1158667048
 21
160.4547233762
 31
0.0
  0
LINE
  5
1C6
330
1C0
100
AcDbEntity
  8
VERMASSUNG
100
AcDbLine
 10
272.1158667048
 20
138.9547233762
 30
0.0
 11
272.1158667048
 21
160.4547233762
 31
0.0
  0
LINE
  5
1C7
330
1C0
100
AcDbEntity
  8
VERMASSUNG
100
AcDbLine
 10
94.1158667048
 20
159.4547233762
 30
0.0
 11
272.1158667048
 21
159.4547233762
 31
0.0
  0
MTEXT
  5
1C8
330
1C0
100
AcDbEntity
  8
VERMASSUNG
100
AcDbMText
 10
180.3158665719
 20
162.0328587393
 30
0.1
 40
2.0
 41
0.0
 71
     1
 72
     1
  1
178
  7
SLDTEXTSTYLE0
 73
     1
 44
1.0
  0
ENDBLK
  5
1C2
330
1C0
100
AcDbEntity
  8
0
100
AcDbBlockEnd
  0
BLOCK
  5
1CB
330
1CA
100
AcDbEntity
  8
0
100
AcDbBlockBegin
  2
_D_2
 70
     0
 10
0.0
 20
0.0
 30
0.0
  3
_D_2
  1

  0
SOLID
  5
1CD
330
1CA
100
AcDbEntity
  8
VERMASSUNG
100
AcDbTrace
 10
288.2635085587
 20
111.9547233762
 30
0.0
 11
288.7135085587
 21
114.9547233762
 31
0.0
 12
287.8135085587
 22
114.9547233762
 32
0.0
 13
287.8135085587
 23
114.9547233762
 33
0.0
  0
SOLID
  5
1CE
330
1CA
100
AcDbEntity
  8
VERMASSUNG
100
AcDbTrace
 10
288.2635085587
 20
138.9547233762
 30
0.0
 11
287.8135085587
 21
135.9547233762
 31
0.0
 12
288.7135085587
 22
135.9547233762
 32
0.0
 13
288.7135085587
 23
135.9547233762
 33
0.0
  0
LINE
  5
1CF
330
1CA
100
AcDbEntity
  8
VERMASSUNG
100
AcDbLine
 10
272.1158667048
 20
111.9547233762
 30
0.0
 11
289.2635085587
 21
111.9547233762
 31
0.0
  0
LINE
  5
1D0
330
1CA
100
AcDbEntity
  8
VERMASSUNG
100
AcDbLine
 10
272.1158667048
 20
138.9547233762
 30
0.0
 11
289.2635085587
 21
138.9547233762
 31
0.0
  0
LINE
  5
1D1
330
1CA
100
AcDbEntity
  8
VERMASSUNG
100
AcDbLine
 10
288.2635085587
 20
111.9547233762
 30
0.0
 11
288.2635085587
 21
138.9547233762
 31
0.0
  0
MTEXT
  5
1D2
330
1CA
100
AcDbEntity
  8
VERMASSUNG
100
AcDbMText
 10
285.6853731956
 20
123.1547233251
 30
0.1
 40
2.0
 41
0.0
 71
     1
 72
     1
  1
27
  7
SLDTEXTSTYLE0
 11
6.123233995736766E-17
 21
1.0
 31
0.0
 73
     1
 44
1.0
  0
ENDBLK
  5
1CC
330
1CA
100
AcDbEntity
  8
0
100
AcDbBlockEnd
  0
BLOCK
  5
1D6
330
1D5
100
AcDbEntity
  8
0
100
AcDbBlockBegin
  2
_D_3
 70
     0
 10
0.0
 20
0.0
 30
0.0
  3
_D_3
  1

  0
ARC
  5
1D8
330
1D5
100
AcDbEntity
  8
VERMASSUNG
100
AcDbCircle
 10
272.2613978705
 20
138.9547233762
 30
0.0
 40
10.21247175773561
100
AcDbArc
 50
252.4598841946
 51
0.0
  0
SOLID
  5
1D9
330
1D5
100
AcDbEntity
  8
VERMASSUNG
100
AcDbTrace
 10
269.1836297846
 20
129.217068473
 30
0.0
 11
272.0705851799
 21
128.2854094446
 31
0.0
 12
272.2168783005
 22
129.1734400313
 32
0.0
 13
272.2168783005
 23
129.1734400313
 33
0.0
  0
SOLID
  5
1DA
330
1D5
100
AcDbEntity
  8
VERMASSUNG
100
AcDbTrace
 10
282.4738696282
 20
138.9547233762
 30
0.0
 11
281.6013289759
 21
136.049353725
 31
0.0
 12
282.4921604915
 22
135.9212162566
 32
0.0
 13
282.4921604915
 23
135.9212162566
 33
0.0
  0
LINE
  5
1DB
330
1D5
100
AcDbEntity
  8
VERMASSUNG
100
AcDbLine
 10
280.8204018643
 20
138.9547233762
 30
0.0
 11
283.4738696282
 21
138.9547233762
 31
0.0
  0
MTEXT
  5
1DC
330
1D5
100
AcDbEntity
  8
VERMASSUNG
100
AcDbMText
 10
273.2242322201
 20
130.1959539425
 30
0.1
 40
2.0
 41
0.0
 71
     1
 72
     1
  1
107.5°
  7
SLDTEXTSTYLE0
 11
0.8066515584257036
 21
0.5910272948767965
 31
0.0
 73
     1
 44
1.0
  0
ENDBLK
  5
1D7
330
1D5
100
AcDbEntity
  8
0
100
AcDbBlockEnd
  0
BLOCK
  5
1DF
330
1DE
100
AcDbEntity
  8
0
100
AcDbBlockBegin
  2
_D_4
 70
     0
 10
0.0
 20
0.0
 30
0.0
  3
_D_4
  1

  0
SOLID
  5
1E1
330
1DE
100
AcDbEntity
  8
VERMASSUNG
100
AcDbTrace
 10
84.1158667048
 20
143.4547233762
 30
0.0
 11
83.6658667048
 21
140.4547233762
 31
0.0
 12
84.5658667048
 22
140.4547233762
 32
0.0
 13
84.5658667048
 23
140.4547233762
 33
0.0
  0
SOLID
  5
1E2
330
1DE
100
AcDbEntity
  8
VERMASSUNG
100
AcDbTrace
 10
84.1158667048
 20
80.4547233762
 30
0.0
 11
84.5658667048
 21
83.4547233762
 31
0.0
 12
83.6658667048
 22
83.4547233762
 32
0.0
 13
83.6658667048
 23
83.4547233762
 33
0.0
  0
LINE
  5
1E3
330
1DE
100
AcDbEntity
  8
VERMASSUNG
100
AcDbLine
 10
132.6158667048
 20
143.4547233762
 30
0.0
 11
83.1158667048
 21
143.4547233762
 31
0.0
  0
LINE
  5
1E4
330
1DE
100
AcDbEntity
  8
VERMASSUNG
100
AcDbLine
 10
132.6158667048
 20
80.4547233762
 30
0.0
 11
83.1158667048
 21
80.4547233762
 31
0.0
  0
LINE
  5
1E5
330
1DE
100
AcDbEntity
  8
VERMASSUNG
100
AcDbLine
 10
84.1158667048
 20
143.4547233762
 30
0.0
 11
84.1158667048
 21
80.4547233762
 31
0.0
  0
MTEXT
  5
1E6
330
1DE
100
AcDbEntity
  8
VERMASSUNG
100
AcDbMText
 10
81.3377312158
 20
105.5497232669
 30
0.1
 40
2.0
 41
0.0
 71
     1
 72
     1
  1
PSC
  7
SLDTEXTSTYLE0
 11
-7.044195017643634E-15
 21
1.0
 31
0.0
 73
     1
 44
1.0
  0
MTEXT
  5
1E7
330
1DE
100
AcDbEntity
  8
VERMASSUNG
100
AcDbMText
 10
81.5377312253
 20
110.149723369
 30
0.1
 40
2.0
 41
0.0
 71
     1
 72
     1
  1
%%c
  7
SLDTEXTSTYLE0
 11
-7.044195017643634E-15
 21
1.0
 31
0.0
 73
     1
 44
1.0
  0
MTEXT
  5
1E8
330
1DE
100
AcDbEntity
  8
VERMASSUNG
100
AcDbMText
 10
81.3377312158
 20
113.759723849
 30
0.1
 40
2.0
 41
0.0
 71
     1
 72
     1
  1
63
  7
SLDTEXTSTYLE0
 11
-7.044195017643634E-15
 21
1.0
 31
0.0
 73
     1
 44
1.0
  0
ENDBLK
  5
1E0
330
1DE
100
AcDbEntity
  8
0
100
AcDbBlockEnd
  0
BLOCK
  5
1EB
330
1EA
100
AcDbEntity
  8
0
100
AcDbBlockBegin
  2
_D_5
 70
     0
 10
0.0
 20
0.0
 30
0.0
  3
_D_5
  1

  0
SOLID
  5
1ED
330
1EA
100
AcDbEntity
  8
VERMASSUNG
100
AcDbTrace
 10
177.5429332649
 20
131.9547233762
 30
0.0
 11
177.0929332649
 21
128.9547233762
 31
0.0
 12
177.9929332649
 22
128.9547233762
 32
0.0
 13
177.9929332649
 23
128.9547233762
 33
0.0
  0
SOLID
  5
1EE
330
1EA
100
AcDbEntity
  8
VERMASSUNG
100
AcDbTrace
 10
177.5429332649
 20
91.9547233762
 30
0.0
 11
177.9929332649
 21
94.9547233762
 31
0.0
 12
177.0929332649
 22
94.9547233762
 32
0.0
 13
177.0929332649
 23
94.9547233762
 33
0.0
  0
LINE
  5
1EF
330
1EA
100
AcDbEntity
  8
VERMASSUNG
100
AcDbLine
 10
177.5429332649
 20
131.9547233762
 30
0.0
 11
177.5429332649
 21
91.9547233762
 31
0.0
  0
MTEXT
  5
1F0
330
1EA
100
AcDbEntity
  8
VERMASSUNG
100
AcDbMText
 10
174.9647977854
 20
118.3639483323
 30
0.1
 40
2.0
 41
0.0
 71
     1
 72
     1
  1
%%c
  7
SLDTEXTSTYLE0
 11
-7.044195017643634E-15
 21
1.0
 31
0.0
 73
     1
 44
1.0
  0
MTEXT
  5
1F1
330
1EA
100
AcDbEntity
  8
VERMASSUNG
100
AcDbMText
 10
174.7647977759
 20
121.9739483466
 30
0.1
 40
2.0
 41
0.0
 71
     1
 72
     1
  1
40
  7
SLDTEXTSTYLE0
 11
-7.044195017643634E-15
 21
1.0
 31
0.0
 73
     1
 44
1.0
  0
ENDBLK
  5
1EC
330
1EA
100
AcDbEntity
  8
0
100
AcDbBlockEnd
  0
BLOCK
  5
212
330
211
100
AcDbEntity
  8
0
100
AcDbBlockBegin
  2
_D_6
 70
     0
 10
0.0
 20
0.0
 30
0.0
  3
_D_6
  1

  0
SOLID
  5
214
330
211
100
AcDbEntity
  8
VERMASSUNG
100
AcDbTrace
 10
54.7162016911
 20
93.9553705522
 30
0.0
 11
56.1861455513
 21
91.301738127
 31
0.0
 12
56.9000255061
 22
91.8498032783
 32
0.0
 13
56.9000255061
 23
91.8498032783
 33
0.0
  0
SOLID
  5
215
330
211
100
AcDbEntity
  8
VERMASSUNG
100
AcDbTrace
 10
24.268137731
 20
133.6153680444
 30
0.0
 11
22.7981938708
 21
136.2690004696
 31
0.0
 12
22.0843139159
 22
135.7209353183
 32
0.0
 13
22.0843139159
 23
135.7209353183
 33
0.0
  0
LINE
  5
216
330
211
100
AcDbEntity
  8
VERMASSUNG
100
AcDbLine
 10
54.7162016911
 20
93.9553705522
 30
0.0
 11
53.9230017413
 21
93.346409273
 31
0.0
  0
LINE
  5
217
330
211
100
AcDbEntity
  8
VERMASSUNG
100
AcDbLine
 10
24.268137731
 20
133.6153680444
 30
0.0
 11
23.4749377811
 21
133.0064067652
 31
0.0
  0
LINE
  5
218
330
211
100
AcDbEntity
  8
VERMASSUNG
100
AcDbLine
 10
54.7162016911
 20
93.9553705522
 30
0.0
 11
58.3699693663
 21
89.1961708531
 31
0.0
  0
LINE
  5
219
330
211
100
AcDbEntity
  8
VERMASSUNG
100
AcDbLine
 10
54.7162016911
 20
93.9553705522
 30
0.0
 11
24.268137731
 21
133.6153680444
 31
0.0
  0
LINE
  5
21A
330
211
100
AcDbEntity
  8
VERMASSUNG
100
AcDbLine
 10
24.268137731
 20
133.6153680444
 30
0.0
 11
12.278822517
 21
149.2320000884
 31
0.0
  0
MTEXT
  5
21B
330
211
100
AcDbEntity
  8
VERMASSUNG
100
AcDbMText
 10
14.3237994501
 20
150.801984768
 30
0.1
 40
2.0
 41
0.0
 71
     1
 72
     1
  1
%%c
  7
SLDTEXTSTYLE0
 11
0.6089612792025245
 21
-0.7931999498436854
 31
0.0
 73
     1
 44
1.0
  0
MTEXT
  5
21C
330
211
100
AcDbEntity
  8
VERMASSUNG
100
AcDbMText
 10
16.6807896742
 20
148.0603251994
 30
0.1
 40
2.0
 41
0.0
 71
     1
 72
     1
  1
50
  7
SLDTEXTSTYLE0
 11
0.6089612792025245
 21
-0.7931999498436854
 31
0.0
 73
     1
 44
1.0
  0
MTEXT
  5
21D
330
211
100
AcDbEntity
  8
VERMASSUNG
100
AcDbMText
 10
20.2051534233
 20
143.4696800393
 30
0.1
 40
2.0
 41
0.0
 71
     1
 72
     1
  1
min.
  7
SLDTEXTSTYLE0
 11
0.6089612792025245
 21
-0.7931999498436854
 31
0.0
 73
     1
 44
1.0
  0
ENDBLK
  5
213
330
211
100
AcDbEntity
  8
0
100
AcDbBlockEnd
  0
BLOCK
  5
221
330
220
100
AcDbEntity
  8
0
100
AcDbBlockBegin
  2
_D_7
 70
     0
 10
0.0
 20
0.0
 30
0.0
  3
_D_7
  1

  0
ARC
  5
223
330
220
100
AcDbEntity
  8
VERMASSUNG
100
AcDbCircle
 10
39.5040121018
 20
134.6540472683
 30
0.0
 40
63.49038498133861
100
AcDbArc
 50
266.0
 51
270.0
  0
ARC
  5
224
330
220
100
AcDbEntity
  8
VERMASSUNG
100
AcDbCircle
 10
39.5040121018
 20
134.6540472683
 30
0.0
 40
63.49038498133861
100
AcDbArc
 50
257.6951794333
 51
266.0
  0
ARC
  5
225
330
220
100
AcDbEntity
  8
VERMASSUNG
100
AcDbCircle
 10
39.5040121018
 20
134.6540472683
 30
0.0
 40
63.49038498133861
100
AcDbArc
 50
270.0
 51
275.409061199
  0
SOLID
  5
226
330
220
100
AcDbEntity
  8
VERMASSUNG
100
AcDbTrace
 10
35.0751467288
 20
71.3183216738
 30
0.0
 11
32.1302069336
 21
72.0462156236
 31
0.0
 12
32.0462500689
 22
71.1501401554
 32
0.0
 13
32.0462500689
 23
71.1501401554
 33
0.0
  0
SOLID
  5
227
330
220
100
AcDbEntity
  8
VERMASSUNG
100
AcDbTrace
 10
39.5040121018
 20
71.163662287
 30
0.0
 11
42.5137987721
 21
70.7846052999
 31
0.0
 12
42.4925534869
 22
71.6843545083
 32
0.0
 13
42.4925534869
 23
71.6843545083
 33
0.0
  0
LINE
  5
228
330
220
100
AcDbEntity
  8
VERMASSUNG
100
AcDbLine
 10
36.498708875
 20
91.6762088222
 30
0.0
 11
35.0053902551
 21
70.3207576235
 31
0.0
  0
LINE
  5
229
330
220
100
AcDbEntity
  8
VERMASSUNG
100
AcDbLine
 10
39.5040121018
 20
77.9547233762
 30
0.0
 11
39.5040121018
 21
70.163662287
 31
0.0
  0
MTEXT
  5
22A
330
220
100
AcDbEntity
  8
VERMASSUNG
100
AcDbMText
 10
26.4224192965
 20
75.1186453341
 30
-50.973820927
 40
2.0
 41
0.0
 71
     1
 72
     1
  1
4°
  7
SLDTEXTSTYLE0
 11
0.9841023386079901
 21
-0.1776023286623367
 31
0.0
 73
     1
 44
1.0
  0
ENDBLK
  5
222
330
220
100
AcDbEntity
  8
0
100
AcDbBlockEnd
  0
BLOCK
  5
22C
330
22B
100
AcDbEntity
  8
0
100
AcDbBlockBegin
  2
SW_CENTERMARKSYMBOL_0
 70
     0
 10
0.0
 20
0.0
 30
0.0
  3
SW_CENTERMARKSYMBOL_0
  1

  0
LINE
  5
22E
330
22B
100
AcDbEntity
  8
VERMASSUNG
 62
     0
100
AcDbLine
 10
0.0
 20
0.0
 30
0.0
 11
0.0
 21
2.5
 31
0.0
  0
LINE
  5
22F
330
22B
100
AcDbEntity
  8
VERMASSUNG
 62
     0
100
AcDbLine
 10
0.0
 20
0.0
 30
0.0
 11
-2.5
 21
0.0
 31
0.0
  0
LINE
  5
230
330
22B
100
AcDbEntity
  8
VERMASSUNG
 62
     0
100
AcDbLine
 10
0.0
 20
0.0
 30
0.0
 11
0.0
 21
-2.5
 31
0.0
  0
LINE
  5
231
330
22B
100
AcDbEntity
  8
VERMASSUNG
 62
     0
100
AcDbLine
 10
0.0
 20
0.0
 30
0.0
 11
2.5
 21
0.0
 31
0.0
  0
LINE
  5
232
330
22B
100
AcDbEntity
  8
VERMASSUNG
 62
     0
100
AcDbLine
 10
0.0
 20
5.0
 30
0.0
 11
0.0
 21
34.0
 31
0.0
  0
LINE
  5
233
330
22B
100
AcDbEntity
  8
VERMASSUNG
 62
     0
100
AcDbLine
 10
-5.0
 20
0.0
 30
0.0
 11
-34.0
 21
0.0
 31
0.0
  0
LINE
  5
234
330
22B
100
AcDbEntity
  8
VERMASSUNG
 62
     0
100
AcDbLine
 10
0.0
 20
-5.0
 30
0.0
 11
0.0
 21
-34.0
 31
0.0
  0
LINE
  5
235
330
22B
100
AcDbEntity
  8
VERMASSUNG
 62
     0
100
AcDbLine
 10
5.0
 20
0.0
 30
0.0
 11
34.0
 21
0.0
 31
0.0
  0
ENDBLK
  5
22D
330
22B
100
AcDbEntity
  8
0
100
AcDbBlockEnd
  0
ENDSEC
  0
SECTION
  2
ENTITIES
  0
MTEXT
  5
49
330
1F
100
AcDbEntity
  8
KOPF_DÜNN
100
AcDbMText
 10
13.8892156294
 20
23.8442973028
 30
0.0
 40
3.0
 41
0.0
 71
     1
 72
     1
  1
PS6.BDB.RQC.140
  7
SLDTEXTSTYLE0
 73
     1
 44
1.0
  0
MTEXT
  5
4A
330
1F
100
AcDbEntity
  8
VERMASSUNG
100
AcDbMText
 10
13.9329988022
 20
28.8834360957
 30
0.0
 40
3.0
 41
0.0
 71
     1
 72
     1
  1
Bohrstange_Boring bar
  7
SLDTEXTSTYLE0
 73
     1
 44
1.0
  0
MTEXT
  5
4B
330
1F
100
AcDbEntity
  8
VERMASSUNG
100
AcDbMText
 10
98.8601118557
 20
13.8365368179
 30
0.0
 40
2.0
 41
0.0
 71
     1
 72
     1
  1
Datum: 07.06.2012
  7
SLDTEXTSTYLE0
 73
     1
 44
1.0
  0
MTEXT
  5
4C
330
1F
100
AcDbEntity
  8
VERMASSUNG
100
AcDbMText
 10
13.933048693
 20
18.0482802738
 30
0.0
 40
2.0
 41
0.0
 71
     1
 72
     1
  1
PSC 63
  7
SLDTEXTSTYLE0
 73
     1
 44
1.0
  0
MTEXT
  5
4D
330
1F
100
AcDbEntity
  8
VERMASSUNG
100
AcDbMText
 10
13.9808475933
 20
13.9090973692
 30
0.0
 40
2.0
 41
0.0
 71
     1
 72
     1
  1
Gewicht: 1687g
  7
SLDTEXTSTYLE0
 73
     1
 44
1.0
  0
LINE
  5
4E
330
1F
100
AcDbEntity
  8
0
  6
Continuous
 62
     7
370
    15
100
AcDbLine
 10
132.6158667048
 20
80.4547233762
 30
0.0
 11
153.1158667048
 21
80.4547233762
 31
0.0
  0
LINE
  5
4F
330
1F
100
AcDbEntity
  8
0
  6
Continuous
 62
     7
370
    15
100
AcDbLine
 10
153.1158667048
 20
143.4547233762
 30
0.0
 11
132.6158667048
 21
143.4547233762
 31
0.0
  0
ARC
  5
50
330
1F
100
AcDbEntity
  8
0
  6
Continuous
 62
     7
370
    15
100
AcDbCircle
 10
132.6158667048
 20
80.9547233762
 30
0.0
 40
0.5000000000000426
100
AcDbArc
 50
180.0
 51
270.0
  0
ARC
  5
51
330
1F
100
AcDbEntity
  8
0
  6
Continuous
 62
     7
370
    15
100
AcDbCircle
 10
132.6158667048
 20
142.9547233762
 30
0.0
 40
0.5000000000000568
100
AcDbArc
 50
90.0
 51
180.0
  0
ARC
  5
52
330
1F
100
AcDbEntity
  8
0
  6
Continuous
 62
     7
370
    15
100
AcDbCircle
 10
153.1158667048
 20
81.4547233762
 30
0.0
 40
1.000000000000043
100
AcDbArc
 50
270.0
 51
360.0
  0
ARC
  5
53
330
1F
100
AcDbEntity
  8
0
  6
Continuous
 62
     7
370
    15
100
AcDbCircle
 10
153.1158667048
 20
142.4547233762
 30
0.0
 40
1.000000000000057
100
AcDbArc
 50
0.0
 51
90.0
  0
LWPOLYLINE
  5
54
330
1F
100
AcDbEntity
  8
0
  6
Continuous
 62
     7
370
    15
100
AcDbPolyline
 90
        3
 70
   128
 43
0.0
 10
131.9158667048
 20
89.4149030973
 10
132.0413216483
 20
89.3466009823
 10
132.1158667048
 20
89.2938632242
  0
LWPOLYLINE
  5
55
330
1F
100
AcDbEntity
  8
0
  6
Continuous
 62
     7
370
    15
100
AcDbPolyline
 90
        3
 70
   128
 43
0.0
 10
132.1158667048
 20
134.6155835281
 10
132.0413216483
 20
134.56284577
 10
131.9158667048
 20
134.494543655
  0
ARC
  5
56
330
1F
100
AcDbEntity
  8
0
  6
Continuous
 62
     7
370
    15
100
AcDbCircle
 10
158.1158667048
 20
87.9547233762
 30
0.0
 40
4.000000000000028
100
AcDbArc
 50
90.0
 51
180.0
  0
ARC
  5
57
330
1F
100
AcDbEntity
  8
0
  6
Continuous
 62
     7
370
    15
100
AcDbCircle
 10
158.1158667048
 20
135.9547233762
 30
0.0
 40
4.000000000000028
100
AcDbArc
 50
180.0
 51
270.0
  0
LINE
  5
58
330
1F
100
AcDbEntity
  8
0
  6
Continuous
 62
     7
370
    15
100
AcDbLine
 10
245.7016531425
 20
131.9547233762
 30
0.0
 11
158.1158667048
 21
131.9547233762
 31
0.0
  0
LINE
  5
59
330
1F
100
AcDbEntity
  8
0
  6
Continuous
 62
     7
370
    15
100
AcDbLine
 10
158.1158667048
 20
91.9547233762
 30
0.0
 11
245.7016531425
 21
91.9547233762
 31
0.0
  0
ARC
  5
5A
330
1F
100
AcDbEntity
  8
0
  6
Continuous
 62
     7
370
    15
100
AcDbCircle
 10
245.7016531425
 20
90.9547233762
 30
0.0
 40
0.9999999999999858
100
AcDbArc
 50
45.0
 51
90.0
  0
LINE
  5
5B
330
1F
100
AcDbEntity
  8
0
  6
Continuous
 62
     7
370
    15
100
AcDbLine
 10
247.0012263777
 20
132.840083049
 30
0.0
 11
246.4087599237
 21
132.247616595
 31
0.0
  0
LINE
  5
5C
330
1F
100
AcDbEntity
  8
0
  6
Continuous
 62
     7
370
    15
100
AcDbLine
 10
246.4087599237
 20
91.6618301574
 30
0.0
 11
246.6158667048
 21
91.4547233762
 31
0.0
  0
LINE
  5
5D
330
1F
100
AcDbEntity
  8
0
  6
Continuous
 62
     7
370
    15
100
AcDbLine
 10
246.6158667048
 20
91.4547233762
 30
0.0
 11
256.7897530919
 21
91.4547233762
 31
0.0
  0
LINE
  5
5E
330
1F
100
AcDbEntity
  8
0
  6
Continuous
 62
     7
370
    15
100
AcDbLine
 10
265.7703442347
 20
130.6961492688
 30
0.0
 11
265.7703442347
 21
130.602133128
 31
0.0
  0
LINE
  5
5F
330
1F
100
AcDbEntity
  8
0
  6
Continuous
 62
     7
370
    15
100
AcDbLine
 10
263.8662442608
 20
131.0305501001
 30
0.0
 11
263.8662442608
 21
131.1233606756
 31
0.0
  0
LINE
  5
60
330
1F
100
AcDbEntity
  8
0
  6
Continuous
 62
     7
370
    15
100
AcDbLine
 10
266.0182948842
 20
132.4668321172
 30
0.0
 11
266.0182948842
 21
132.3740820324
 31
0.0
  0
LINE
  5
61
330
1F
100
AcDbEntity
  8
0
  6
Continuous
 62
     7
370
    15
100
AcDbLine
 10
264.1141949103
 20
132.8024990046
 30
0.0
 11
264.1141949103
 21
132.8966044828
 31
0.0
  0
LINE
  5
62
330
1F
100
AcDbEntity
  8
0
  6
Continuous
 62
     7
370
    15
100
AcDbLine
 10
262.3195855006
 20
131.7816973201
 30
0.0
 11
262.3195855006
 21
131.7311545788
 31
0.0
  0
LINE
  5
63
330
1F
100
AcDbEntity
  8
0
  6
Continuous
 62
     7
370
    15
100
AcDbLine
 10
267.5695855006
 20
131.7311545788
 30
0.0
 11
267.5695855006
 21
131.7816973201
 31
0.0
  0
SPLINE
  5
64
330
1F
100
AcDbEntity
  8
0
  6
Continuous
 62
     7
370
    15
100
AcDbSpline
210
0.0
220
0.0
230
1.0
 70
     8
 71
     3
 72
    12
 73
     8
 74
     0
 42
0.00000001
 43
0.00000001
 12
1.0
 22
0.0
 32
0.0
 13
1.0
 23
0.0
 33
0.0
 40
0.0
 40
0.0
 40
0.0
 40
0.0
 40
0.2499999999999977
 40
0.2499999999999977
 40
0.4999999999999954
 40
0.4999999999999954
 40
1.0
 40
1.0
 40
1.0
 40
1.0
 10
142.6436235184105
 20
121.342789807504
 30
0.0
 10
142.5805434799171
 20
121.342789807504
 30
0.0
 10
142.5213948577357
 20
121.3681541267189
 30
0.0
 10
142.4229223076666
 20
121.4423189870919
 30
0.0
 10
142.3838856956819
 20
121.4888393276459
 30
0.0
 10
142.2839892289029
 20
121.6389816704912
 30
0.0
 10
142.2415683478362
 20
121.7506748774633
 30
0.0
 10
142.2106108165182
 20
121.8640926968531
 30
0.0
  0
LINE
  5
65
330
1F
100
AcDbEntity
  8
0
  6
Continuous
 62
     7
370
    15
100
AcDbLine
 10
145.5881098913
 20
121.3427898075
 30
0.0
 11
142.6436235184
 21
121.3427898075
 31
0.0
  0
SPLINE
  5
66
330
1F
100
AcDbEntity
  8
0
  6
Continuous
 62
     7
370
    15
100
AcDbSpline
210
0.0
220
0.0
230
1.0
 70
     8
 71
     3
 72
    12
 73
     8
 74
     0
 42
0.00000001
 43
0.00000001
 12
1.0
 22
0.0
 32
0.0
 13
1.0
 23
0.0
 33
0.0
 40
0.0
 40
0.0
 40
0.0
 40
0.0
 40
0.5000000000000001
 40
0.5000000000000001
 40
0.75
 40
0.75
 40
1.0
 40
1.0
 40
1.0
 40
1.0
 10
146.0211225931697
 20
121.8640926968531
 30
0.0
 10
145.9904003512507
 20
121.7515368974439
 30
0.0
 10
145.9475631367154
 20
121.6387790377044
 30
0.0
 10
145.8481361125157
 20
121.489238151908
 30
0.0
 10
145.808383917699
 20
121.4419454202012
 30
0.0
 10
145.7103424608408
 20
121.3682091268797
 30
0.0
 10
145.6507864052534
 20
121.342789807504
 30
0.0
 10
145.5881098912776
 20
121.342789807504
 30
0.0
  0
ELLIPSE
  5
67
330
1F
100
AcDbEntity
  8
0
  6
Continuous
 62
     7
370
    15
100
AcDbEllipse
 10
129.7687125155
 20
111.9547233762
 30
0.0
 11
14.75368316065601
 21
31.09325491558118
 31
0.0
210
0.0
220
0.0
230
1.0
 40
0.3419987131
 41
5.193281737408618
 42
6.124043104552321
  0
SPLINE
  5
68
330
1F
100
AcDbEntity
  8
0
  6
Continuous
 62
     7
370
    15
100
AcDbSpline
210
0.0
220
0.0
230
1.0
 70
     8
 71
     3
 72
    12
 73
     8
 74
     0
 42
0.00000001
 43
0.00000001
 12
1.0
 22
0.0
 32
0.0
 13
1.0
 23
0.0
 33
0.0
 40
0.0
 40
0.0
 40
0.0
 40
0.0
 40
0.2500000000000005
 40
0.2500000000000005
 40
0.500000000000001
 40
0.500000000000001
 40
1.0
 40
1.0
 40
1.0
 40
1.0
 10
145.5881098912776
 20
142.0232153350412
 30
0.0
 10
145.6511899297709
 20
142.0232153350412
 30
0.0
 10
145.7103385519523
 20
142.0153094088286
 30
0.0
 10
145.8088111020214
 20
141.9919842473924
 30
0.0
 10
145.8478477140061
 20
141.9772714575607
 30
0.0
 10
145.9477441807852
 20
141.9293156568298
 30
0.0
 10
145.9901650618517
 20
141.8930535002497
 30
0.0
 10
146.0211225931697
 20
141.8554658362852
 30
0.0
  0
LINE
  5
69
330
1F
100
AcDbEntity
  8
0
  6
Continuous
 62
     7
370
    15
100
AcDbLine
 10
142.6436235184
 20
142.023215335
 30
0.0
 11
145.5881098913
 21
142.023215335
 31
0.0
  0
SPLINE
  5
6A
330
1F
100
AcDbEntity
  8
0
  6
Continuous
 62
     7
370
    15
100
AcDbSpline
210
0.0
220
0.0
230
1.0
 70
     8
 71
     3
 72
    12
 73
     8
 74
     0
 42
0.00000001
 43
0.00000001
 12
1.0
 22
0.0
 32
0.0
 13
1.0
 23
0.0
 33
0.0
 40
0.0
 40
0.0
 40
0.0
 40
0.0
 40
0.5000000000000009
 40
0.5000000000000009
 40
0.7500000000000004
 40
0.7500000000000004
 40
1.0
 40
1.0
 40
1.0
 40
1.0
 10
142.2106108165182
 20
141.8554658362852
 30
0.0
 10
142.2413330584373
 20
141.8927678192383
 30
0.0
 10
142.2841702729725
 20
141.9293796512847
 30
0.0
 10
142.3835972971723
 20
141.9771444345699
 30
0.0
 10
142.4233494919889
 20
141.9921019500522
 30
0.0
 10
142.5213909488472
 20
142.0152918958214
 30
0.0
 10
142.5809470044346
 20
142.0232153350412
 30
0.0
 10
142.6436235184105
 20
142.0232153350412
 30
0.0
  0
ELLIPSE
  5
6B
330
1F
100
AcDbEntity
  8
0
  6
Continuous
 62
     7
370
    15
100
AcDbEllipse
 10
158.4630208942
 20
111.9547233762
 30
0.0
 11
-14.75368316065601
 21
31.09325491558118
 31
0.0
210
0.0
220
0.0
230
1.0
 40
0.3419987131
 41
0.1591422026272986
 42
1.089903569770978
  0
SPLINE
  5
6C
330
1F
100
AcDbEntity
  8
0
  6
Continuous
 62
     7
370
    15
100
AcDbSpline
210
0.0
220
0.0
230
1.0
 70
     8
 71
     3
 72
    12
 73
     8
 74
     0
 42
0.00000001
 43
0.00000001
 12
1.0
 22
0.0
 32
0.0
 13
1.0
 23
0.0
 33
0.0
 40
0.0
 40
0.0
 40
0.0
 40
0.0
 40
0.2500000000000023
 40
0.2500000000000023
 40
0.5000000000000047
 40
0.5000000000000047
 40
1.0
 40
1.0
 40
1.0
 40
1.0
 10
142.6436235184105
 20
81.8862314172949
 30
0.0
 10
142.5805665635126
 20
81.8862314172949
 30
0.0
 10
142.521436413767
 20
81.89413174837449
 30
0.0
 10
142.4229888632338
 20
81.91744249637955
 30
0.0
 10
142.3839566250457
 20
81.9321476226632
 30
0.0
 10
142.2840667405888
 20
81.98008115084984
 30
0.0
 10
142.2417677669795
 20
82.01615112361456
 30
0.0
 10
142.2106108165182
 20
82.05398091605078
 30
0.0
  0
LINE
  5
6D
330
1F
100
AcDbEntity
  8
0
  6
Continuous
 62
     7
370
    15
100
AcDbLine
 10
145.5881098913
 20
81.8862314173
 30
0.0
 11
142.6436235184
 21
81.8862314173
 31
0.0
  0
SPLINE
  5
6E
330
1F
100
AcDbEntity
  8
0
  6
Continuous
 62
     7
370
    15
100
AcDbSpline
210
0.0
220
0.0
230
1.0
 70
     8
 71
     3
 72
    12
 73
     8
 74
     0
 42
0.00000001
 43
0.00000001
 12
1.0
 22
0.0
 32
0.0
 13
1.0
 23
0.0
 33
0.0
 40
0.0
 40
0.0
 40
0.0
 40
0.0
 40
0.499999999999999
 40
0.499999999999999
 40
0.7499999999999994
 40
0.7499999999999994
 40
1.0
 40
1.0
 40
1.0
 40
1.0
 10
146.0211225931698
 20
82.05398091605076
 30
0.0
 10
145.9899773952077
 20
82.01616539313058
 30
0.0
 10
145.9477031288733
 20
81.980098535047
 30
0.0
 10
145.847757595048
 20
81.93213847003574
 30
0.0
 10
145.8080272903439
 20
81.91727749613808
 30
0.0
 10
145.7111392403377
 20
81.89432635000693
 30
0.0
 10
145.6510739985911
 20
81.88623141729487
 30
0.0
 10
145.5881098912776
 20
81.88623141729487
 30
0.0
  0
ELLIPSE
  5
6F
330
1F
100
AcDbEntity
  8
0
  6
Continuous
 62
     7
370
    15
100
AcDbEllipse
 10
129.7687125155
 20
111.9547233762
 30
0.0
 11
-14.75368316065615
 21
31.09325491558117
 31
0.0
210
0.0
220
0.0
230
1.0
 40
0.3419987131
 41
3.300734856217121
 42
4.231496223360773
  0
SPLINE
  5
70
330
1F
100
AcDbEntity
  8
0
  6
Continuous
 62
     7
370
    15
100
AcDbSpline
210
0.0
220
0.0
230
1.0
 70
     8
 71
     3
 72
    12
 73
     8
 74
     0
 42
0.00000001
 43
0.00000001
 12
1.0
 22
0.0
 32
0.0
 13
1.0
 23
0.0
 33
0.0
 40
0.0
 40
0.0
 40
0.0
 40
0.0
 40
0.2500000000000005
 40
0.2500000000000005
 40
0.500000000000001
 40
0.500000000000001
 40
1.0
 40
1.0
 40
1.0
 40
1.0
 10
145.5881098912776
 20
102.5666569448318
 30
0.0
 10
145.6511668461754
 20
102.5666569448318
 30
0.0
 10
145.7102969959209
 20
102.5413105914511
 30
0.0
 10
145.8087445464542
 20
102.4671912093117
 30
0.0
 10
145.8477767846423
 20
102.4206946946136
 30
0.0
 10
145.9476666690993
 20
102.2706201876051
 30
0.0
 10
145.9899656427085
 20
102.1595024784902
 30
0.0
 10
146.0211225931698
 20
102.0453540554827
 30
0.0
  0
LINE
  5
71
330
1F
100
AcDbEntity
  8
0
  6
Continuous
 62
     7
370
    15
100
AcDbLine
 10
142.6436235184
 20
102.5666569448
 30
0.0
 11
145.5881098913
 21
102.5666569448
 31
0.0
  0
SPLINE
  5
72
330
1F
100
AcDbEntity
  8
0
  6
Continuous
 62
     7
370
    15
100
AcDbSpline
210
0.0
220
0.0
230
1.0
 70
     8
 71
     3
 72
    12
 73
     8
 74
     0
 42
0.00000001
 43
0.00000001
 12
1.0
 22
0.0
 32
0.0
 13
1.0
 23
0.0
 33
0.0
 40
0.0
 40
0.0
 40
0.0
 40
0.0
 40
0.5000000000000019
 40
0.5000000000000019
 40
0.7500000000000009
 40
0.7500000000000009
 40
1.0
 40
1.0
 40
1.0
 40
1.0
 10
142.2106108165182
 20
102.0453540554827
 30
0.0
 10
142.2417560144803
 20
102.159459421348
 30
0.0
 10
142.2840302808148
 20
102.2705657485668
 30
0.0
 10
142.3839758146401
 20
102.420723355997
 30
0.0
 10
142.4237061193442
 20
102.4677160476144
 30
0.0
 10
142.5205941693504
 20
102.5406916321529
 30
0.0
 10
142.5806594110969
 20
102.5666569448319
 30
0.0
 10
142.6436235184104
 20
102.5666569448319
 30
0.0
  0
ELLIPSE
  5
73
330
1F
100
AcDbEntity
  8
0
  6
Continuous
 62
     7
370
    15
100
AcDbEllipse
 10
158.4630208942
 20
111.9547233762
 30
0.0
 11
14.75368316065618
 21
31.09325491558119
 31
0.0
210
0.0
220
0.0
230
1.0
 40
0.3419987131
 41
2.051689083818826
 42
2.982450450962505
  0
LINE
  5
74
330
1F
100
AcDbEntity
  8
0
  6
Continuous
 62
     7
370
    15
100
AcDbLine
 10
132.1158667048
 20
80.9547233762
 30
0.0
 11
132.1158667048
 21
142.9547233762
 31
0.0
  0
LINE
  5
75
330
1F
100
AcDbEntity
  8
0
  6
Continuous
 62
     7
370
    15
100
AcDbLine
 10
154.1158667048
 20
142.4547233741
 30
0.0
 11
154.1158667048
 21
81.4547233762
 31
0.0
  0
SPLINE
  5
76
330
1F
100
AcDbEntity
  8
0
  6
Continuous
 62
     7
370
    15
100
AcDbSpline
210
0.0
220
0.0
230
1.0
 70
     8
 71
     3
 72
    12
 73
     8
 74
     0
 42
0.00000001
 43
0.00000001
 12
1.0
 22
0.0
 32
0.0
 13
1.0
 23
0.0
 33
0.0
 40
0.0
 40
0.0
 40
0.0
 40
0.0
 40
0.5
 40
0.5
 40
0.75
 40
0.75
 40
1.0
 40
1.0
 40
1.0
 40
1.0
 10
131.2993544183875
 20
90.09992967369227
 30
0.0
 10
131.3557909192947
 20
90.09851179235054
 30
0.0
 10
131.4248755499834
 20
90.09694745610223
 30
0.0
 10
131.5436778217014
 20
90.09400326412778
 30
0.0
 10
131.5838630971714
 20
90.0929650610304
 30
0.0
 10
131.6572441445752
 20
90.09103116581576
 30
0.0
 10
131.6906537083179
 20
90.09013627852697
 30
0.0
 10
131.7208898159743
 20
90.08935248825462
 30
0.0
  0
SPLINE
  5
77
330
1F
100
AcDbEntity
  8
0
  6
Continuous
 62
     7
370
    15
100
AcDbSpline
210
0.0
220
0.0
230
1.0
 70
     8
 71
     3
 72
    16
 73
    12
 74
     0
 42
0.00000001
 43
0.00000001
 12
1.0
 22
0.0
 32
0.0
 13
1.0
 23
0.0
 33
0.0
 40
0.0
 40
0.0
 40
0.0
 40
0.0
 40
0.0625000000000007
 40
0.0625000000000007
 40
0.1250000000000014
 40
0.1250000000000014
 40
0.2500000000000028
 40
0.2500000000000028
 40
0.5000000000000004
 40
0.5000000000000004
 40
1.0
 40
1.0
 40
1.0
 40
1.0
 10
131.7208898159371
 20
90.08935248827885
 30
0.0
 10
131.7324702235251
 20
90.08905229716748
 30
0.0
 10
131.7457797502863
 20
90.08772454890851
 30
0.0
 10
131.7750811803725
 20
90.08102587413349
 30
0.0
 10
131.7898952802568
 20
90.07566769102779
 30
0.0
 10
131.8257236819597
 20
90.05862204186043
 30
0.0
 10
131.8398433063227
 20
90.04715950408469
 30
0.0
 10
131.8743474504112
 20
90.01559617871246
 30
0.0
 10
131.8854520011158
 20
89.99769887966718
 30
0.0
 10
131.911628178332
 20
89.94753746205295
 30
0.0
 10
131.915866704844
 20
89.91979304985637
 30
0.0
 10
131.915866704844
 20
89.89512888792682
 30
0.0
  0
LINE
  5
78
330
1F
100
AcDbEntity
  8
0
  6
Continuous
 62
     7
370
    15
100
AcDbLine
 10
131.9158667048
 20
104.9328360504
 30
0.0
 11
131.9158667048
 21
89.4149030973
 31
0.0
  0
SPLINE
  5
79
330
1F
100
AcDbEntity
  8
0
  6
Continuous
 62
     7
370
    15
100
AcDbSpline
210
0.0
220
0.0
230
1.0
 70
     8
 71
     3
 72
    16
 73
    12
 74
     0
 42
0.00000001
 43
0.00000001
 12
1.0
 22
0.0
 32
0.0
 13
1.0
 23
0.0
 33
0.0
 40
0.0
 40
0.0
 40
0.0
 40
0.0
 40
0.5000000000000013
 40
0.5000000000000013
 40
0.7499999999999986
 40
0.7499999999999986
 40
0.8749999999999988
 40
0.8749999999999988
 40
0.9374999999999993
 40
0.9374999999999993
 40
1.0
 40
1.0
 40
1.0
 40
1.0
 10
131.915866704844
 20
104.932836050418
 30
0.0
 10
131.915866704844
 20
105.0465285945459
 30
0.0
 10
131.9117204297661
 20
105.1608487558954
 30
0.0
 10
131.8857548343725
 20
105.3338970463925
 30
0.0
 10
131.8742939289951
 20
105.3930725535542
 30
0.0
 10
131.8399821912208
 20
105.4761956730224
 30
0.0
 10
131.8259574552912
 20
105.504316989123
 30
0.0
 10
131.7899344922573
 20
105.5329328031005
 30
0.0
 10
131.7751799831677
 20
105.5387258510023
 30
0.0
 10
131.7458278220208
 20
105.5371324250652
 30
0.0
 10
131.7324879475167
 20
105.5306360217414
 30
0.0
 10
131.7208898159683
 20
105.5221202755383
 30
0.0
  0
SPLINE
  5
7A
330
1F
100
AcDbEntity
  8
0
  6
Continuous
 62
     7
370
    15
100
AcDbSpline
210
0.0
220
0.0
230
1.0
 70
     8
 71
     3
 72
    12
 73
     8
 74
     0
 42
0.00000001
 43
0.00000001
 12
1.0
 22
0.0
 32
0.0
 13
1.0
 23
0.0
 33
0.0
 40
0.0
 40
0.0
 40
0.0
 40
0.0
 40
0.25
 40
0.25
 40
0.5
 40
0.5
 40
1.0
 40
1.0
 40
1.0
 40
1.0
 10
131.7208898159754
 20
105.5221202755292
 30
0.0
 10
131.6906913745348
 20
105.4999475434841
 30
0.0
 10
131.6573240191988
 20
105.4808678876069
 30
0.0
 10
131.5841687433689
 20
105.4556948431642
 30
0.0
 10
131.5439160443449
 20
105.4501383067475
 30
0.0
 10
131.4261873010701
 20
105.4610501177342
 30
0.0
 10
131.3557288530112
 20
105.502985873145
 30
0.0
 10
131.2993544183929
 20
105.5521976555265
 30
0.0
  0
SPLINE
  5
7B
330
1F
100
AcDbEntity
  8
0
  6
Continuous
 62
     7
370
    15
100
AcDbSpline
210
0.0
220
0.0
230
1.0
 70
     8
 71
     3
 72
    12
 73
     8
 74
     0
 42
0.00000001
 43
0.00000001
 12
1.0
 22
0.0
 32
0.0
 13
1.0
 23
0.0
 33
0.0
 40
0.0
 40
0.0
 40
0.0
 40
0.0
 40
0.5000000000000016
 40
0.5000000000000016
 40
0.7500000000000008
 40
0.7500000000000008
 40
1.0
 40
1.0
 40
1.0
 40
1.0
 10
130.7945463612843
 20
106.768549047407
 30
0.0
 10
130.8382967131688
 20
106.5481020624325
 30
0.0
 10
130.8911868642932
 20
106.332557072627
 30
0.0
 10
131.0027984074349
 20
106.020142996055
 30
0.0
 10
131.0453577513385
 20
105.9180635204391
 30
0.0
 10
131.1503349866759
 20
105.7236235077974
 30
0.0
 10
131.2119022297705
 20
105.6285386087337
 30
0.0
 10
131.2993544183929
 20
105.5521976555265
 30
0.0
  0
SPLINE
  5
7C
330
1F
100
AcDbEntity
  8
0
  6
Continuous
 62
     7
370
    15
100
AcDbSpline
210
0.0
220
0.0
230
1.0
 70
     8
 71
     3
 72
    12
 73
     8
 74
     0
 42
0.00000001
 43
0.00000001
 12
1.0
 22
0.0
 32
0.0
 13
1.0
 23
0.0
 33
0.0
 40
0.0
 40
0.0
 40
0.0
 40
0.0
 40
0.2499999999999999
 40
0.2499999999999999
 40
0.5
 40
0.5
 40
1.0
 40
1.0
 40
1.0
 40
1.0
 10
131.2993544183927
 20
118.3572490968097
 30
0.0
 10
131.2108610108249
 20
118.2799992167014
 30
0.0
 10
131.150802970059
 20
118.1866798928122
 30
0.0
 10
131.0449546970764
 20
117.9906468398427
 30
0.0
 10
131.0024211757989
 20
117.8883204816309
 30
0.0
 10
130.8912698689753
 20
117.5769760758551
 30
0.0
 10
130.8383390119275
 20
117.3615578226771
 30
0.0
 10
130.7945463612843
 20
117.1408977049292
 30
0.0
  0
SPLINE
  5
7D
330
1F
100
AcDbEntity
  8
0
  6
Continuous
 62
     7
370
    15
100
AcDbSpline
210
0.0
220
0.0
230
1.0
 70
     8
 71
     3
 72
    12
 73
     8
 74
     0
 42
0.00000001
 43
0.00000001
 12
1.0
 22
0.0
 32
0.0
 13
1.0
 23
0.0
 33
0.0
 40
0.0
 40
0.0
 40
0.0
 40
0.0
 40
0.5000000000000007
 40
0.5000000000000007
 40
0.7500000000000003
 40
0.7500000000000003
 40
1.0
 40
1.0
 40
1.0
 40
1.0
 10
131.2993544183928
 20
118.3572490968097
 30
0.0
 10
131.3556629666884
 20
118.4064033640535
 30
0.0
 10
131.4259376274066
 20
118.4483606826572
 30
0.0
 10
131.5439755417301
 20
118.4593203601897
 30
0.0
 10
131.584151782584
 20
118.4538116019423
 30
0.0
 10
131.658108877262
 20
118.4282543731533
 30
0.0
 10
131.6907252649734
 20
118.409474325314
 30
0.0
 10
131.7208898159692
 20
118.3873264767973
 30
0.0
  0
SPLINE
  5
7E
330
1F
100
AcDbEntity
  8
0
  6
Continuous
 62
     7
370
    15
100
AcDbSpline
210
0.0
220
0.0
230
1.0
 70
     8
 71
     3
 72
    16
 73
    12
 74
     0
 42
0.00000001
 43
0.00000001
 12
1.0
 22
0.0
 32
0.0
 13
1.0
 23
0.0
 33
0.0
 40
0.0
 40
0.0
 40
0.0
 40
0.0
 40
0.0624999999999983
 40
0.0624999999999983
 40
0.1249999999999966
 40
0.1249999999999966
 40
0.2499999999999952
 40
0.2499999999999952
 40
0.4999999999999958
 40
0.4999999999999958
 40
1.0
 40
1.0
 40
1.0
 40
1.0
 10
131.7208898159374
 20
118.3873264767428
 30
0.0
 10
131.7325027157768
 20
118.3787998871476
 30
0.0
 10
131.7458539002093
 20
118.3722996256148
 30
0.0
 10
131.7752537398285
 20
118.3707302284973
 30
0.0
 10
131.7900944643838
 20
118.3766136191279
 30
0.0
 10
131.8259276723523
 20
118.4051612551785
 30
0.0
 10
131.8400408801739
 20
118.4333282744843
 30
0.0
 10
131.8745322513928
 20
118.5170825329062
 30
0.0
 10
131.8856163225032
 20
118.5747959465276
 30
0.0
 10
131.9117391402991
 20
118.7483864831735
 30
0.0
 10
131.915866704844
 20
118.8634145358154
 30
0.0
 10
131.915866704844
 20
118.9766107019182
 30
0.0
  0
LINE
  5
7F
330
1F
100
AcDbEntity
  8
0
  6
Continuous
 62
     7
370
    15
100
AcDbLine
 10
131.9158667048
 20
134.494543655
 30
0.0
 11
131.9158667048
 21
118.9766107019
 31
0.0
  0
SPLINE
  5
80
330
1F
100
AcDbEntity
  8
0
  6
Continuous
 62
     7
370
    15
100
AcDbSpline
210
0.0
220
0.0
230
1.0
 70
     8
 71
     3
 72
    16
 73
    12
 74
     0
 42
0.00000001
 43
0.00000001
 12
1.0
 22
0.0
 32
0.0
 13
1.0
 23
0.0
 33
0.0
 40
0.0
 40
0.0
 40
0.0
 40
0.0
 40
0.4999999999999971
 40
0.4999999999999971
 40
0.7499999999999994
 40
0.7499999999999994
 40
0.8750000000000006
 40
0.8750000000000006
 40
0.9375000000000002
 40
0.9375000000000002
 40
1.0
 40
1.0
 40
1.0
 40
1.0
 10
131.915866704844
 20
134.0143178644094
 30
0.0
 10
131.915866704844
 20
133.9896467083665
 30
0.0
 10
131.911701006384
 20
133.9620648769752
 30
0.0
 10
131.8854426780591
 20
133.9117220061519
 30
0.0
 10
131.8739388963215
 20
133.89343250809
 30
0.0
 10
131.839808136975
 20
133.8622774770529
 30
0.0
 10
131.8253862503043
 20
133.8506381018412
 30
0.0
 10
131.7898192818664
 20
133.8337560759102
 30
0.0
 10
131.7748675135718
 20
133.8283669721025
 30
0.0
 10
131.7458636952121
 20
133.821746476158
 30
0.0
 10
131.7324483412028
 20
133.8203938879516
 30
0.0
 10
131.7208898159662
 20
133.82009426408
 30
0.0
  0
SPLINE
  5
81
330
1F
100
AcDbEntity
  8
0
  6
Continuous
 62
     7
370
    15
100
AcDbSpline
210
0.0
220
0.0
230
1.0
 70
     8
 71
     3
 72
    12
 73
     8
 74
     0
 42
0.00000001
 43
0.00000001
 12
1.0
 22
0.0
 32
0.0
 13
1.0
 23
0.0
 33
0.0
 40
0.0
 40
0.0
 40
0.0
 40
0.0
 40
0.2499999999999999
 40
0.2499999999999999
 40
0.4999999999999999
 40
0.4999999999999999
 40
1.0
 40
1.0
 40
1.0
 40
1.0
 10
131.7208898159754
 20
133.8200942640817
 30
0.0
 10
131.6907020394258
 20
133.8193117266641
 30
0.0
 10
131.6573482353341
 20
133.8184183948456
 30
0.0
 10
131.5842220321381
 20
133.816491086042
 30
0.0
 10
131.543986829114
 20
133.8154515548293
 30
0.0
 10
131.4262951989809
 20
133.8125336714821
 30
0.0
 10
131.3559145258208
 20
133.8109380654118
 30
0.0
 10
131.2993544183902
 20
133.809517078644
 30
0.0
  0
SPLINE
  5
82
330
1F
100
AcDbEntity
  8
0
  6
Continuous
 62
     7
370
    15
100
AcDbSpline
210
0.0
220
0.0
230
1.0
 70
     8
 71
     3
 72
    16
 73
    12
 74
     0
 42
0.00000001
 43
0.00000001
 12
1.0
 22
0.0
 32
0.0
 13
1.0
 23
0.0
 33
0.0
 40
0.0
 40
0.0
 40
0.0
 40
0.0
 40
0.25
 40
0.25
 40
0.375
 40
0.375
 40
0.5
 40
0.5
 40
0.75
 40
0.75
 40
1.0
 40
1.0
 40
1.0
 40
1.0
 10
130.7945463612843
 20
117.1408977049292
 30
0.0
 10
130.6333138837998
 20
116.3284879296824
 30
0.0
 10
130.5128340441602
 20
115.4884096352976
 30
0.0
 10
130.3904535268469
 20
114.1871145859349
 30
0.0
 10
130.3594758664494
 20
113.7464335503501
 30
0.0
 10
130.3178621288215
 20
112.8505939094189
 30
0.0
 10
130.3076262158887
 20
112.4039357782165
 30
0.0
 10
130.3074378188326
 20
111.0686258210766
 30
0.0
 10
130.3475825214702
 20
110.1841304477691
 30
0.0
 10
130.5117362764097
 20
108.426880559743
 30
0.0
 10
130.6332879268193
 20
107.5810896133299
 30
0.0
 10
130.7945463612843
 20
106.768549047407
 30
0.0
  0
LINE
  5
83
330
1F
100
AcDbEntity
  8
0
  6
Continuous
 62
     7
370
    15
100
AcDbLine
 10
129.9158667048
 20
118.4399016379
 30
0.0
 11
129.9158667048
 21
105.4695451145
 31
0.0
  0
LINE
  5
84
330
1F
100
AcDbEntity
  8
0
  6
Continuous
 62
     7
370
    15
100
AcDbLine
 10
95.6158667048
 20
118.0090339437
 30
0.0
 11
95.6158667048
 21
105.9004128086
 31
0.0
  0
LINE
  5
85
330
1F
100
AcDbEntity
  8
0
  6
Continuous
 62
     7
370
    15
100
AcDbLine
 10
94.1158667048
 20
117.5760212418
 30
0.0
 11
94.1158667048
 21
106.3334255105
 31
0.0
  0
LINE
  5
86
330
1F
100
AcDbEntity
  8
0
  6
Continuous
 62
     7
370
    15
100
AcDbLine
 10
129.9158667048
 20
118.4399016379
 30
0.0
 11
129.9158667048
 21
133.9748221607
 31
0.0
  0
ARC
  5
87
330
1F
100
AcDbEntity
  8
0
  6
Continuous
 62
     7
370
    15
100
AcDbCircle
 10
130.1158036158
 20
133.9798452719
 30
0.0
 40
0.1999999999999505
100
AcDbArc
 50
181.4391666667
 51
271.4391666667
  0
LINE
  5
88
330
1F
100
AcDbEntity
  8
0
  6
Continuous
 62
     7
370
    15
100
AcDbLine
 10
95.6158667048
 20
118.0090339437
 30
0.0
 11
95.6158667048
 21
133.1130867725
 31
0.0
  0
LINE
  5
89
330
1F
100
AcDbEntity
  8
0
  6
Continuous
 62
     7
370
    15
100
AcDbLine
 10
95.6158667048
 20
133.1130867725
 30
0.0
 11
129.9158667048
 21
133.9748221607
 31
0.0
  0
LINE
  5
8A
330
1F
100
AcDbEntity
  8
0
  6
Continuous
 62
     7
370
    15
100
AcDbLine
 10
95.6158667048
 20
90.7963599799
 30
0.0
 11
95.6158667048
 21
105.9004128086
 31
0.0
  0
LINE
  5
8B
330
1F
100
AcDbEntity
  8
0
  6
Continuous
 62
     7
370
    15
100
AcDbLine
 10
129.9158667048
 20
89.9346245916
 30
0.0
 11
129.9158667048
 21
105.4695451145
 31
0.0
  0
LINE
  5
8C
330
1F
100
AcDbEntity
  8
0
  6
Continuous
 62
     7
370
    15
100
AcDbLine
 10
95.6158667048
 20
90.7963599799
 30
0.0
 11
129.9158667048
 21
89.9346245916
 31
0.0
  0
ARC
  5
8D
330
1F
100
AcDbEntity
  8
0
  6
Continuous
 62
     7
370
    15
100
AcDbCircle
 10
130.1158036158
 20
89.9296014805
 30
0.0
 40
0.2000000000000059
100
AcDbArc
 50
88.5608333333
 51
178.5608333333
  0
LINE
  5
8E
330
1F
100
AcDbEntity
  8
0
  6
Continuous
 62
     7
370
    15
100
AcDbLine
 10
130.1208267269
 20
133.7799083609
 30
0.0
 11
131.2993544184
 21
133.8095170786
 31
0.0
  0
LINE
  5
8F
330
1F
100
AcDbEntity
  8
0
  6
Continuous
 62
     7
370
    15
100
AcDbLine
 10
130.1208267269
 20
90.1295383914
 30
0.0
 11
131.2993544184
 21
90.0999296737
 31
0.0
  0
LINE
  5
90
330
1F
100
AcDbEntity
  8
0
  6
Continuous
 62
     7
370
    15
100
AcDbLine
 10
94.1158667048
 20
132.2470613687
 30
0.0
 11
95.6158667048
 21
133.1130867725
 31
0.0
  0
LINE
  5
91
330
1F
100
AcDbEntity
  8
0
  6
Continuous
 62
     7
370
    15
100
AcDbLine
 10
94.1158667048
 20
117.5760212418
 30
0.0
 11
94.1158667048
 21
132.2470613687
 31
0.0
  0
LINE
  5
92
330
1F
100
AcDbEntity
  8
0
  6
Continuous
 62
     7
370
    15
100
AcDbLine
 10
94.1158667048
 20
91.6623853837
 30
0.0
 11
95.6158667048
 21
90.7963599799
 31
0.0
  0
LINE
  5
93
330
1F
100
AcDbEntity
  8
0
  6
Continuous
 62
     7
370
    15
100
AcDbLine
 10
94.1158667048
 20
91.6623853837
 30
0.0
 11
94.1158667048
 21
106.3334255105
 31
0.0
  0
LINE
  5
94
330
1F
100
AcDbEntity
  8
0
  6
Continuous
 62
     7
370
    15
100
AcDbLine
 10
241.4178476688
 20
131.9538320557
 30
0.0
 11
245.7016531425
 21
131.9538320557
 31
0.0
  0
SPLINE
  5
95
330
1F
100
AcDbEntity
  8
0
  6
Continuous
 62
     7
370
    15
100
AcDbSpline
210
0.0
220
0.0
230
1.0
 70
     8
 71
     3
 72
    14
 73
    10
 74
     0
 42
0.00000001
 43
0.00000001
 12
1.0
 22
0.0
 32
0.0
 13
1.0
 23
0.0
 33
0.0
 40
0.0
 40
0.0
 40
0.0
 40
0.0
 40
0.25
 40
0.25
 40
0.5
 40
0.5
 40
0.75
 40
0.75
 40
1.0
 40
1.0
 40
1.0
 40
1.0
 10
238.5200701899136
 20
131.8067878757869
 30
0.0
 10
238.604447364068
 20
131.8457298537053
 30
0.0
 10
238.7370753760525
 20
131.8743825145208
 30
0.0
 10
239.1008706182849
 20
131.9169017194891
 30
0.0
 10
239.3233699003315
 20
131.9297522909791
 30
0.0
 10
239.8457062278509
 20
131.9463227435044
 30
0.0
 10
240.1352563244151
 20
131.9497722951987
 30
0.0
 10
240.7602259812303
 20
131.9535299118129
 30
0.0
 10
241.0861112524365
 20
131.9538320556526
 30
0.0
 10
241.4178476687808
 20
131.9538320556526
 30
0.0
  0
ELLIPSE
  5
96
330
1F
100
AcDbEntity
  8
0
  6
Continuous
 62
     7
370
    15
100
AcDbEllipse
 10
239.5401440989
 20
111.9547233762
 30
0.0
 11
-0.4025701892336713
 21
19.99971074150076
 31
0.0
210
0.0
220
0.0
230
1.0
 40
0.2671959542
 41
0.1163255530663986
 42
2.874884195922336
  0
SPLINE
  5
97
330
1F
100
AcDbEntity
  8
0
  6
Continuous
 62
     7
370
    15
100
AcDbSpline
210
0.0
220
0.0
230
1.0
 70
     8
 71
     3
 72
    14
 73
    10
 74
     0
 42
0.00000001
 43
0.00000001
 12
1.0
 22
0.0
 32
0.0
 13
1.0
 23
0.0
 33
0.0
 40
0.0
 40
0.0
 40
0.0
 40
0.0
 40
0.25
 40
0.25
 40
0.5
 40
0.5
 40
0.75
 40
0.75
 40
1.0
 40
1.0
 40
1.0
 40
1.0
 10
241.4178476687808
 20
92.17652295641473
 30
0.0
 10
241.086116013537
 20
92.17652295641473
 30
0.0
 10
240.7635258327235
 20
92.18428600477642
 30
0.0
 10
240.1365735847981
 20
92.21784796022122
 30
0.0
 10
239.8480394366475
 20
92.24290021783996
 30
0.0
 10
239.3250248492456
 20
92.31566736020136
 30
0.0
 10
239.1019950815887
 20
92.3619570075885
 30
0.0
 10
238.7384979093395
 20
92.48052963985481
 30
0.0
 10
238.6044487963977
 20
92.55090415711443
 30
0.0
 10
238.5200701899136
 20
92.63378015520009
 30
0.0
  0
LINE
  5
98
330
1F
100
AcDbEntity
  8
0
  6
Continuous
 62
     7
370
    15
100
AcDbLine
 10
245.7016531425
 20
92.1765229564
 30
0.0
 11
241.4178476688
 21
92.1765229564
 31
0.0
  0
ELLIPSE
  5
99
330
1F
100
AcDbEntity
  8
0
  6
Continuous
 62
     7
370
    15
100
AcDbEllipse
 10
236.9085653493
 20
121.7233602417
 30
0.0
 11
0.1064029529044319
 21
2.367670791413374
 31
0.0
210
0.0
220
0.0
230
1.0
 40
0.2553617877
 41
0.0
 42
6.283185307179586
  0
SPLINE
  5
9A
330
1F
100
AcDbEntity
  8
0
  6
Continuous
 62
     7
370
    15
100
AcDbSpline
210
0.0
220
0.0
230
1.0
 70
     8
 71
     3
 72
    10
 73
     6
 74
     0
 42
0.00000001
 43
0.00000001
 12
1.0
 22
0.0
 32
0.0
 13
1.0
 23
0.0
 33
0.0
 40
0.0
 40
0.0
 40
0.0
 40
0.0
 40
0.5
 40
0.5
 40
1.0
 40
1.0
 40
1.0
 40
1.0
 10
245.7016531424708
 20
131.9538320556525
 30
0.0
 10
245.8337196094232
 20
131.9538320556525
 30
0.0
 10
245.9633223942405
 20
131.979848658639
 30
0.0
 10
246.2053086622002
 20
132.0801444843551
 30
0.0
 10
246.3155192978749
 20
132.1536205417926
 30
0.0
 10
246.4087599236577
 20
132.2469184918094
 30
0.0
  0
SPLINE
  5
9B
330
1F
100
AcDbEntity
  8
0
  6
Continuous
 62
     7
370
    15
100
AcDbSpline
210
0.0
220
0.0
230
1.0
 70
     8
 71
     3
 72
    10
 73
     6
 74
     0
 42
0.00000001
 43
0.00000001
 12
1.0
 22
0.0
 32
0.0
 13
1.0
 23
0.0
 33
0.0
 40
0.0
 40
0.0
 40
0.0
 40
0.0
 40
0.5
 40
0.5
 40
1.0
 40
1.0
 40
1.0
 40
1.0
 10
246.4087599236574
 20
91.88343652025766
 30
0.0
 10
246.3155203757436
 20
91.97673339174275
 30
0.0
 10
246.2056269236329
 20
92.0500279176646
 30
0.0
 10
245.963663634744
 20
92.15041548232308
 30
0.0
 10
245.8337263997394
 20
92.17652295641503
 30
0.0
 10
245.7016531424708
 20
92.17652295641503
 30
0.0
  0
ELLIPSE
  5
9C
330
1F
100
AcDbEntity
  8
0
  6
Continuous
 62
     7
370
    15
100
AcDbEllipse
 10
248.8307557915
 20
158.9942085966
 30
0.0
 11
0.0
 21
26.13144513619375
 31
0.0
210
0.0
220
0.0
230
1.0
 40
0.9949698482
 41
3.141592653589793
 42
3.444886158282743
  0
LINE
  5
9D
330
1F
100
AcDbEntity
  8
0
  6
Continuous
 62
     7
370
    15
100
AcDbLine
 10
256.59604588
 20
134.0554545565
 30
0.0
 11
261.1845488138
 21
135.4986797655
 31
0.0
  0
LINE
  5
9E
330
1F
100
AcDbEntity
  8
0
  6
Continuous
 62
     7
370
    15
100
AcDbLine
 10
258.8616704548
 20
128.1580601135
 30
0.0
 11
256.6616097687
 21
127.4660734048
 31
0.0
  0
ARC
  5
9F
330
1F
100
AcDbEntity
  8
0
  6
Continuous
 62
     7
370
    15
100
AcDbCircle
 10
257.1152932738
 20
126.0226063628
 30
0.0
 40
1.513084870018675
100
AcDbArc
 50
107.4479988746
 51
287.6322327363
  0
LINE
  5
A0
330
1F
100
AcDbEntity
  8
0
  6
Continuous
 62
     7
370
    15
100
AcDbLine
 10
257.5736158757
 20
124.5806055943
 30
0.0
 11
258.354261107
 21
124.8261425142
 31
0.0
  0
LINE
  5
A1
330
1F
100
AcDbEntity
  8
0
  6
Continuous
 62
     7
370
    15
100
AcDbLine
 10
268.6860515945
 20
128.0758081894
 30
0.0
 11
257.1812769455
 21
91.6762088222
 31
0.0
  0
LINE
  5
A2
330
1F
100
AcDbEntity
  8
0
  6
Continuous
 62
     7
370
    15
100
AcDbLine
 10
257.1812769455
 20
91.6762088222
 30
0.0
 11
246.6158667048
 21
91.6762088222
 31
0.0
  0
LINE
  5
A3
330
1F
100
AcDbEntity
  8
0
  6
Continuous
 62
     7
370
    15
100
AcDbLine
 10
246.6158667048
 20
91.6762088222
 30
0.0
 11
246.4087599237
 21
91.8834365203
 31
0.0
  0
LINE
  5
A4
330
1F
100
AcDbEntity
  8
0
  6
Continuous
 62
     7
370
    15
100
AcDbLine
 10
246.4087599237
 20
132.2469184918
 30
0.0
 11
247.0242819944
 21
132.8627634604
 31
0.0
  0
LINE
  5
A5
330
1F
100
AcDbEntity
  8
0
  6
Continuous
 62
     7
370
    15
100
AcDbLine
 10
247.0242819944
 20
132.8627634604
 30
0.0
 11
248.8307557915
 21
132.8627634604
 31
0.0
  0
LINE
  5
A6
330
1F
100
AcDbEntity
  8
0
  6
Continuous
 62
     7
370
    15
100
AcDbLine
 10
246.6158667048
 20
91.6762088222
 30
0.0
 11
246.6158667048
 21
91.4547233762
 31
0.0
  0
LINE
  5
A7
330
1F
100
AcDbEntity
  8
0
  6
Continuous
 62
     7
370
    15
100
AcDbLine
 10
247.0028862172
 20
132.8384232095
 30
0.0
 11
247.0242819944
 21
132.8627634604
 31
0.0
  0
ELLIPSE
  5
A8
330
1F
100
AcDbEntity
  8
0
  6
Continuous
 62
     7
370
    15
100
AcDbEllipse
 10
263.4217369499
 20
111.9547233762
 30
0.0
 11
6.697318860126301
 21
20.48986112711594
 31
0.0
210
0.0
220
0.0
230
1.0
 40
0.0962569477
 41
3.173044837569576
 42
3.320175251522272
  0
ARC
  5
A9
330
1F
100
AcDbEntity
  8
0
  6
Continuous
 62
     7
370
    15
100
AcDbCircle
 10
257.1157008239
 20
125.8713636287
 30
0.0
 40
1.247232315809076
100
AcDbArc
 50
107.4479988746
 51
287.6322327363
  0
LINE
  5
AA
330
1F
100
AcDbEntity
  8
0
  6
Continuous
 62
     7
370
    15
100
AcDbLine
 10
257.4934950716
 20
124.6827257713
 30
0.0
 11
258.136346975
 21
124.8849224542
 31
0.0
  0
LINE
  5
AB
330
1F
100
AcDbEntity
  8
0
  6
Continuous
 62
     7
370
    15
100
AcDbLine
 10
256.7417305728
 20
127.0612101317
 30
0.0
 11
258.7107358534
 21
127.6805228136
 31
0.0
  0
ARC
  5
AC
330
1F
100
AcDbEntity
  8
0
  6
Continuous
 62
     7
370
    15
100
AcDbCircle
 10
257.1146660083
 20
125.7665605645
 30
0.0
 40
1.247083075862979
100
AcDbArc
 50
107.4003237658
 51
177.5601030609
  0
LINE
  5
AD
330
1F
100
AcDbEntity
  8
0
  6
Continuous
 62
     7
370
    15
100
AcDbLine
 10
258.6740133927
 20
127.5643377603
 30
0.0
 11
256.7417305728
 21
126.9565754211
 31
0.0
  0
CIRCLE
  5
AE
330
1F
100
AcDbEntity
  8
0
  6
Continuous
 62
     7
370
    15
100
AcDbCircle
 10
264.9424365889
 20
131.7864457673
 30
0.0
 40
2.623133344009952
  0
CIRCLE
  5
AF
330
1F
100
AcDbEntity
  8
0
  6
Continuous
 62
     7
370
    15
100
AcDbCircle
 10
264.9429881248
 20
131.8042063653
 30
0.0
 40
1.798741723201251
  0
ARC
  5
B0
330
1F
100
AcDbEntity
  8
0
  6
Continuous
 62
     7
370
    15
100
AcDbCircle
 10
264.9482547457
 20
131.8024267713
 30
0.0
 40
1.671499009027189
100
AcDbArc
 50
293.3149799654
 51
351.9503208343
  0
ARC
  5
B1
330
1F
100
AcDbEntity
  8
0
  6
Continuous
 62
     7
370
    15
100
AcDbCircle
 10
264.9505050614
 20
131.8006596744
 30
0.0
 40
1.669024032652495
100
AcDbArc
 50
351.9995680764
 51
52.2046175961
  0
ARC
  5
B2
330
1F
100
AcDbEntity
  8
0
  6
Continuous
 62
     7
370
    15
100
AcDbCircle
 10
264.9445473991
 20
131.7936131331
 30
0.0
 40
1.67824339957926
100
AcDbArc
 50
52.1913252363
 51
110.6635337803
  0
LINE
  5
B3
330
1F
100
AcDbEntity
  8
0
  6
Continuous
 62
     7
370
    15
100
AcDbLine
 10
264.2736417634
 20
133.3319231088
 30
0.0
 11
264.3523298691
 21
133.3638931417
 31
0.0
  0
ARC
  5
B4
330
1F
100
AcDbEntity
  8
0
  6
Continuous
 62
     7
370
    15
100
AcDbCircle
 10
264.9410202633
 20
131.7992713927
 30
0.0
 40
1.671650485314797
100
AcDbArc
 50
113.5302556193
 51
170.0044536116
  0
LINE
  5
B5
330
1F
100
AcDbEntity
  8
0
  6
Continuous
 62
     7
370
    15
100
AcDbLine
 10
263.2782901521
 20
131.9710383164
 30
0.0
 11
263.2947433466
 21
132.0894224886
 31
0.0
  0
ARC
  5
B6
330
1F
100
AcDbEntity
  8
0
  6
Continuous
 62
     7
370
    15
100
AcDbCircle
 10
264.9385885741
 20
131.8011869362
 30
0.0
 40
1.668963852616893
100
AcDbArc
 50
174.1588638666
 51
230.0453218058
  0
LINE
  5
B7
330
1F
100
AcDbEntity
  8
0
  6
Continuous
 62
     7
370
    15
100
AcDbLine
 10
263.9612214533
 20
130.4482568144
 30
0.0
 11
263.8668109369
 21
130.5218382591
 31
0.0
  0
ARC
  5
B8
330
1F
100
AcDbEntity
  8
0
  6
Continuous
 62
     7
370
    15
100
AcDbCircle
 10
264.9446202017
 20
131.8083011075
 30
0.0
 40
1.678330592437945
100
AcDbArc
 50
234.1306715136
 51
290.4496812146
  0
LINE
  5
B9
330
1F
100
AcDbEntity
  8
0
  6
Continuous
 62
     7
370
    15
100
AcDbLine
 10
265.6098100116
 20
130.267417466
 30
0.0
 11
265.5310031216
 21
130.2357399326
 31
0.0
  0
SPLINE
  5
BA
330
1F
100
AcDbEntity
  8
0
  6
Continuous
 62
     7
370
    15
100
AcDbSpline
210
0.0
220
0.0
230
1.0
 70
     8
 71
     3
 72
    11
 73
     7
 74
     0
 42
0.00000001
 43
0.00000001
 12
1.0
 22
0.0
 32
0.0
 13
1.0
 23
0.0
 33
0.0
 40
0.0
 40
0.0
 40
0.0
 40
0.0
 40
0.2657596322624378
 40
0.5530029385953921
 40
0.8418208483438232
 40
1.0
 40
1.0
 40
1.0
 40
1.0
 10
263.9612214532714
 20
130.4482568143948
 30
0.0
 10
263.9933459031782
 20
130.4348723351893
 30
0.0
 10
264.0601917030763
 20
130.4070213923307
 30
0.0
 10
264.1717989908991
 20
130.407725175648
 30
0.0
 10
264.263658121269
 20
130.4365645707427
 30
0.0
 10
264.310365990906
 20
130.469433778697
 30
0.0
 10
264.3268945362428
 20
130.4810652274888
 30
0.0
  0
SPLINE
  5
BB
330
1F
100
AcDbEntity
  8
0
  6
Continuous
 62
     7
370
    15
100
AcDbSpline
210
0.0
220
0.0
230
1.0
 70
     8
 71
     3
 72
    12
 73
     8
 74
     0
 42
0.00000001
 43
0.00000001
 12
1.0
 22
0.0
 32
0.0
 13
1.0
 23
0.0
 33
0.0
 40
0.0
 40
0.0
 40
0.0
 40
0.0
 40
0.2057904614204226
 40
0.4120344203360107
 40
0.614130247142787
 40
0.8132633242113075
 40
1.0
 40
1.0
 40
1.0
 40
1.0
 10
264.3268945362428
 20
130.4810652274888
 30
0.0
 10
264.3816991843231
 20
130.5162627980474
 30
0.0
 10
264.4914292527026
 20
130.5867355035473
 30
0.0
 10
264.6902608445914
 20
130.6175902254079
 30
0.0
 10
264.8840692700419
 20
130.58638527145
 30
0.0
 10
265.0549668455171
 20
130.49980886112
 30
0.0
 10
265.1343705179804
 20
130.4077892871071
 30
0.0
 10
265.172796898207
 20
130.3632576045084
 30
0.0
  0
SPLINE
  5
BC
330
1F
100
AcDbEntity
  8
0
  6
Continuous
 62
     7
370
    15
100
AcDbSpline
210
0.0
220
0.0
230
1.0
 70
     8
 71
     3
 72
    11
 73
     7
 74
     0
 42
0.00000001
 43
0.00000001
 12
1.0
 22
0.0
 32
0.0
 13
1.0
 23
0.0
 33
0.0
 40
0.0
 40
0.0
 40
0.0
 40
0.0
 40
0.2802371411013515
 40
0.5612869875923885
 40
0.8399906057824802
 40
1.0
 40
1.0
 40
1.0
 40
1.0
 10
265.172796898207
 20
130.3632576045084
 30
0.0
 10
265.1975917077847
 20
130.3350838143029
 30
0.0
 10
265.2472532334525
 20
130.2786545281228
 30
0.0
 10
265.352758553882
 20
130.2314078220803
 30
0.0
 10
265.4513170273598
 20
130.2196363228624
 30
0.0
 10
265.5097069023319
 20
130.2314362205619
 30
0.0
 10
265.5310031216334
 20
130.2357399326227
 30
0.0
  0
SPLINE
  5
BD
330
1F
100
AcDbEntity
  8
0
  6
Continuous
 62
     7
370
    15
100
AcDbSpline
210
0.0
220
0.0
230
1.0
 70
     8
 71
     3
 72
    17
 73
    13
 74
     0
 42
0.00000001
 43
0.00000001
 12
1.0
 22
0.0
 32
0.0
 13
1.0
 23
0.0
 33
0.0
 40
0.0
 40
0.0
 40
0.0
 40
0.0
 40
0.1014945247751307
 40
0.2058686971734179
 40
0.3074868183274921
 40
0.4121678496040008
 40
0.5117467436471137
 40
0.6143038914427448
 40
0.7124838631635091
 40
0.8134268401203297
 40
0.9056366802758015
 40
1.0
 40
1.0
 40
1.0
 40
1.0
 10
265.7772606479215
 20
130.607522369901
 30
0.0
 10
265.7738484609083
 20
130.6391149786811
 30
0.0
 10
265.7669272748003
 20
130.7031965557345
 30
0.0
 10
265.7772074247362
 20
130.7999553586486
 30
0.0
 10
265.8028799214211
 20
130.8950615410718
 30
0.0
 10
265.8441302744544
 20
130.9837067515224
 30
0.0
 10
265.8998352058593
 20
131.0648677013826
 30
0.0
 10
265.9668214605528
 20
131.1345218732185
 30
0.0
 10
266.0444516259458
 20
131.192752818061
 30
0.0
 10
266.1272844355269
 20
131.2359640426865
 30
0.0
 10
266.2142033846704
 20
131.266342044363
 30
0.0
 10
266.2728234661791
 20
131.2750134226467
 30
0.0
 10
266.3024718116176
 20
131.2793991555247
 30
0.0
  0
SPLINE
  5
BE
330
1F
100
AcDbEntity
  8
0
  6
Continuous
 62
     7
370
    15
100
AcDbSpline
210
0.0
220
0.0
230
1.0
 70
     8
 71
     3
 72
    11
 73
     7
 74
     0
 42
0.00000001
 43
0.00000001
 12
1.0
 22
0.0
 32
0.0
 13
1.0
 23
0.0
 33
0.0
 40
0.0
 40
0.0
 40
0.0
 40
0.0
 40
0.2524782265335103
 40
0.50689024179331
 40
0.7591786113116797
 40
1.0
 40
1.0
 40
1.0
 40
1.0
 10
266.3024718116176
 20
131.2793991555247
 30
0.0
 10
266.3395088368816
 20
131.2868804469918
 30
0.0
 10
266.4138665624928
 20
131.3019003308557
 30
0.0
 10
266.508203485303
 20
131.3695922412992
 30
0.0
 10
266.5776263419052
 20
131.4607388747264
 30
0.0
 10
266.5948654193827
 20
131.5330494481651
 30
0.0
 10
266.6032845157578
 20
131.5683639647053
 30
0.0
  0
SPLINE
  5
BF
330
1F
100
AcDbEntity
  8
0
  6
Continuous
 62
     7
370
    15
100
AcDbSpline
210
0.0
220
0.0
230
1.0
 70
     8
 71
     3
 72
    11
 73
     7
 74
     0
 42
0.00000001
 43
0.00000001
 12
1.0
 22
0.0
 32
0.0
 13
1.0
 23
0.0
 33
0.0
 40
0.0
 40
0.0
 40
0.0
 40
0.0
 40
0.2423611237745299
 40
0.5166847928458317
 40
0.7923341374633385
 40
0.9999999999999999
 40
0.9999999999999999
 40
0.9999999999999999
 40
0.9999999999999999
 10
265.609810011617
 20
130.2674174659675
 30
0.0
 10
265.6372446159597
 20
130.2859263396838
 30
0.0
 10
265.6957318957714
 20
130.3253850343499
 30
0.0
 10
265.7558327393863
 20
130.4164914426087
 30
0.0
 10
265.7847631702365
 20
130.5157755721258
 30
0.0
 10
265.7795154387342
 20
130.5799489981681
 30
0.0
 10
265.7772606479214
 20
130.607522369901
 30
0.0
  0
LINE
  5
C0
330
1F
100
AcDbEntity
  8
0
  6
Continuous
 62
     7
370
    15
100
AcDbLine
 10
263.7875134245
 20
130.7072024373
 30
0.0
 11
263.8125946591
 21
130.7861451199
 31
0.0
  0
SPLINE
  5
C1
330
1F
100
AcDbEntity
  8
0
  6
Continuous
 62
     7
370
    15
100
AcDbSpline
210
0.0
220
0.0
230
1.0
 70
     8
 71
     3
 72
    11
 73
     7
 74
     0
 42
0.00000001
 43
0.00000001
 12
1.0
 22
0.0
 32
0.0
 13
1.0
 23
0.0
 33
0.0
 40
0.0
 40
0.0
 40
0.0
 40
0.0
 40
0.2928993220619773
 40
0.5864344719079636
 40
0.8775178868032905
 40
1.0
 40
1.0
 40
1.0
 40
1.0
 10
263.8125946590892
 20
130.8811386244458
 30
0.0
 10
263.8001842746172
 20
130.8458063013092
 30
0.0
 10
263.7753365651286
 20
130.7750649553954
 30
0.0
 10
263.7863081934933
 20
130.6606423270197
 30
0.0
 10
263.8228209207959
 20
130.5754246647664
 30
0.0
 10
263.856759609866
 20
130.5340822756701
 30
0.0
 10
263.8668109368603
 20
130.5218382590943
 30
0.0
  0
SPLINE
  5
C2
330
1F
100
AcDbEntity
  8
0
  6
Continuous
 62
     7
370
    15
100
AcDbSpline
210
0.0
220
0.0
230
1.0
 70
     8
 71
     3
 72
    11
 73
     7
 74
     0
 42
0.00000001
 43
0.00000001
 12
1.0
 22
0.0
 32
0.0
 13
1.0
 23
0.0
 33
0.0
 40
0.0
 40
0.0
 40
0.0
 40
0.0
 40
0.2669010467950164
 40
0.5546143410792596
 40
0.8439070439786305
 40
1.0
 40
1.0
 40
1.0
 40
1.0
 10
263.278290152131
 20
131.9710383164347
 30
0.0
 10
263.2828969108591
 20
131.9364634245016
 30
0.0
 10
263.2924696513454
 20
131.8646175807419
 30
0.0
 10
263.3498076478078
 20
131.7682634762353
 30
0.0
 10
263.4214539578706
 20
131.7033132748826
 30
0.0
 10
263.4736207307413
 20
131.6792547697312
 30
0.0
 10
263.4919034608212
 20
131.6708230586707
 30
0.0
  0
SPLINE
  5
C3
330
1F
100
AcDbEntity
  8
0
  6
Continuous
 62
     7
370
    15
100
AcDbSpline
210
0.0
220
0.0
230
1.0
 70
     8
 71
     3
 72
    12
 73
     8
 74
     0
 42
0.00000001
 43
0.00000001
 12
1.0
 22
0.0
 32
0.0
 13
1.0
 23
0.0
 33
0.0
 40
0.0
 40
0.0
 40
0.0
 40
0.0
 40
0.2058401281338193
 40
0.4120619935509967
 40
0.6141387330969426
 40
0.8132772113524612
 40
1.0
 40
1.0
 40
1.0
 40
1.0
 10
263.4919034608212
 20
131.6708230586707
 30
0.0
 10
263.5504690344361
 20
131.6407256999393
 30
0.0
 10
263.6677087934473
 20
131.5804751659356
 30
0.0
 10
263.7948574277984
 20
131.4235676511351
 30
0.0
 10
263.8645913697186
 20
131.2405829096629
 30
0.0
 10
263.8738724575301
 20
131.0502472083269
 30
0.0
 10
263.8325776839327
 20
130.9362858575209
 30
0.0
 10
263.8125946590892
 20
130.8811386244458
 30
0.0
  0
ARC
  5
C4
330
1F
100
AcDbEntity
  8
0
  6
Continuous
 62
     7
370
    15
100
AcDbCircle
 10
263.2826617408
 20
131.0305620995
 30
0.0
 40
0.5835825201517203
100
AcDbArc
 50
335.2397859018
 51
359.9988219146
  0
ARC
  5
C5
330
1F
100
AcDbEntity
  8
0
  6
Continuous
 62
     7
370
    15
100
AcDbCircle
 10
263.6125191713
 20
131.8869930734
 30
0.0
 40
0.3345702481823836
100
AcDbArc
 50
95.2221613512
 51
172.4997993097
  0
SPLINE
  5
C6
330
1F
100
AcDbEntity
  8
0
  6
Continuous
 62
     7
370
    15
100
AcDbSpline
210
0.0
220
0.0
230
1.0
 70
     8
 71
     3
 72
    11
 73
     7
 74
     0
 42
0.00000001
 43
0.00000001
 12
1.0
 22
0.0
 32
0.0
 13
1.0
 23
0.0
 33
0.0
 40
0.0
 40
0.0
 40
0.0
 40
0.0
 40
0.2908641666076953
 40
0.5839560789892076
 40
0.8745988053617594
 40
1.0
 40
1.0
 40
1.0
 40
1.0
 10
263.5820673333821
 20
132.3151612409216
 30
0.0
 10
263.5450425495903
 20
132.3084717733321
 30
0.0
 10
263.4707094070083
 20
132.2950416031271
 30
0.0
 10
263.3761584227662
 20
132.2290797996048
 30
0.0
 10
263.3196382257423
 20
132.1549276896304
 30
0.0
 10
263.3005091157884
 20
132.1045937963471
 30
0.0
 10
263.2947433465525
 20
132.0894224886323
 30
0.0
  0
ARC
  5
C7
330
1F
100
AcDbEntity
  8
0
  6
Continuous
 62
     7
370
    15
100
AcDbCircle
 10
266.2723075961
 20
131.5169409135
 30
0.0
 40
0.3342701703897048
100
AcDbArc
 50
9.3671343378
 51
68.9014893223
  0
SPLINE
  5
C8
330
1F
100
AcDbEntity
  8
0
  6
Continuous
 62
     7
370
    15
100
AcDbSpline
210
0.0
220
0.0
230
1.0
 70
     8
 71
     3
 72
    12
 73
     8
 74
     0
 42
0.00000001
 43
0.00000001
 12
1.0
 22
0.0
 32
0.0
 13
1.0
 23
0.0
 33
0.0
 40
0.0
 40
0.0
 40
0.0
 40
0.0
 40
0.0091681771491519
 40
0.2573268097002557
 40
0.5054934687429518
 40
0.7549925359452692
 40
1.0
 40
1.0
 40
1.0
 40
1.0
 10
266.6032845157577
 20
131.5683639647053
 30
0.0
 10
266.6034700900403
 20
131.5697206845455
 30
0.0
 10
266.6086786759249
 20
131.6078002703191
 30
0.0
 10
266.6055675627202
 20
131.6849126768039
 30
0.0
 10
266.5639120467702
 20
131.7891239827277
 30
0.0
 10
266.4913901675247
 20
131.8755512234512
 30
0.0
 10
266.4253539095022
 20
131.9077728427011
 30
0.0
 10
266.3926356841785
 20
131.9237373178317
 30
0.0
  0
SPLINE
  5
C9
330
1F
100
AcDbEntity
  8
0
  6
Continuous
 62
     7
370
    15
100
AcDbSpline
210
0.0
220
0.0
230
1.0
 70
     8
 71
     3
 72
    11
 73
     7
 74
     0
 42
0.00000001
 43
0.00000001
 12
1.0
 22
0.0
 32
0.0
 13
1.0
 23
0.0
 33
0.0
 40
0.0
 40
0.0
 40
0.0
 40
0.0
 40
0.2431090893442676
 40
0.5182793655622372
 40
0.794779408575203
 40
1.0
 40
1.0
 40
1.0
 40
1.0
 10
264.2736417633581
 20
133.331923108801
 30
0.0
 10
264.2462768890586
 20
133.3131743389919
 30
0.0
 10
264.1879382653203
 20
133.2732042146828
 30
0.0
 10
264.1281767897984
 20
133.1806081592405
 30
0.0
 10
264.0997487093866
 20
133.079916310651
 30
0.0
 10
264.1050290069834
 20
133.0147850127781
 30
0.0
 10
264.1072784970783
 20
132.987038052166
 30
0.0
  0
SPLINE
  5
CA
330
1F
100
AcDbEntity
  8
0
  6
Continuous
 62
     7
370
    15
100
AcDbSpline
210
0.0
220
0.0
230
1.0
 70
     8
 71
     3
 72
    12
 73
     8
 74
     0
 42
0.00000001
 43
0.00000001
 12
1.0
 22
0.0
 32
0.0
 13
1.0
 23
0.0
 33
0.0
 40
0.0
 40
0.0
 40
0.0
 40
0.0
 40
0.2058179564998887
 40
0.4120215045907332
 40
0.6140779969167852
 40
0.8132130006453986
 40
1.0
 40
1.0
 40
1.0
 40
1.0
 10
264.1072784970783
 20
132.987038052166
 30
0.0
 10
264.1110239822185
 20
132.9210596066122
 30
0.0
 10
264.1185219695134
 20
132.7889791075638
 30
0.0
 10
264.0468418371769
 20
132.600147476209
 30
0.0
 10
263.9228008383312
 20
132.4484586028674
 30
0.0
 10
263.7612021708232
 20
132.3458349398348
 30
0.0
 10
263.6404915219719
 20
132.3251653584659
 30
0.0
 10
263.5820673333821
 20
132.3151612409216
 30
0.0
  0
SPLINE
  5
CB
330
1F
100
AcDbEntity
  8
0
  6
Continuous
 62
     7
370
    15
100
AcDbSpline
210
0.0
220
0.0
230
1.0
 70
     8
 71
     3
 72
    12
 73
     8
 74
     0
 42
0.00000001
 43
0.00000001
 12
1.0
 22
0.0
 32
0.0
 13
1.0
 23
0.0
 33
0.0
 40
0.0
 40
0.0
 40
0.0
 40
0.0
 40
0.205843556409511
 40
0.4120691620553166
 40
0.6141397217727094
 40
0.8132604579561343
 40
0.9999999999999999
 40
0.9999999999999999
 40
0.9999999999999999
 40
0.9999999999999999
 10
266.3926356841785
 20
131.9237373178317
 30
0.0
 10
266.3340695244577
 20
131.9524726705835
 30
0.0
 10
266.2168285052005
 20
132.0099967094038
 30
0.0
 10
266.0896802014009
 20
132.1647150667662
 30
0.0
 10
266.0199491526804
 20
132.3478583978402
 30
0.0
 10
266.0106664003867
 20
132.5405044955032
 30
0.0
 10
266.0519601247163
 20
132.6570289832202
 30
0.0
 10
266.0719444859105
 20
132.7134217520565
 30
0.0
  0
SPLINE
  5
CC
330
1F
100
AcDbEntity
  8
0
  6
Continuous
 62
     7
370
    15
100
AcDbSpline
210
0.0
220
0.0
230
1.0
 70
     8
 71
     3
 72
    11
 73
     7
 74
     0
 42
0.00000001
 43
0.00000001
 12
1.0
 22
0.0
 32
0.0
 13
1.0
 23
0.0
 33
0.0
 40
0.0
 40
0.0
 40
0.0
 40
0.0
 40
0.2535086227484049
 40
0.5075674742604609
 40
0.7595056251924637
 40
1.0
 40
1.0
 40
1.0
 40
1.0
 10
266.0719444859105
 20
132.7134217520565
 30
0.0
 10
266.0843625943381
 20
132.7495643178468
 30
0.0
 10
266.1092257641244
 20
132.821927895198
 30
0.0
 10
266.0981402089244
 20
132.937900342113
 30
0.0
 10
266.054015132913
 20
133.0436477898621
 30
0.0
 10
265.9998221599937
 20
133.0946307440592
 30
0.0
 10
265.9733553763027
 20
133.119529817647
 30
0.0
  0
ARC
  5
CD
330
1F
100
AcDbEntity
  8
0
  6
Continuous
 62
     7
370
    15
100
AcDbCircle
 10
266.6031598675
 20
132.3744643447
 30
0.0
 40
0.5848651082819157
100
AcDbArc
 50
180.0374528729
 51
248.902665908
  0
ARC
  5
CE
330
1F
100
AcDbEntity
  8
0
  6
Continuous
 62
     7
370
    15
100
AcDbCircle
 10
263.5288918359
 20
132.8030574178
 30
0.0
 40
0.5853033408468392
100
AcDbArc
 50
275.2125765697
 51
359.945336511
  0
SPLINE
  5
CF
330
1F
100
AcDbEntity
  8
0
  6
Continuous
 62
     7
370
    15
100
AcDbSpline
210
0.0
220
0.0
230
1.0
 70
     8
 71
     3
 72
    16
 73
    12
 74
     0
 42
0.00000001
 43
0.00000001
 12
1.0
 22
0.0
 32
0.0
 13
1.0
 23
0.0
 33
0.0
 40
0.0
 40
0.0
 40
0.0
 40
0.0
 40
0.0091421480600366
 40
0.1316341845766631
 40
0.2576794931139374
 40
0.3801887899892391
 40
0.5062151177446074
 40
0.6293924506886095
 40
0.756077695195641
 40
0.8764433632866027
 40
1.0
 40
1.0
 40
1.0
 40
1.0
 10
265.9733553763027
 20
133.119529817647
 30
0.0
 10
265.9722695422291
 20
133.1203658515578
 30
0.0
 10
265.9566350456178
 20
133.1324035741372
 30
0.0
 10
265.923812791892
 20
133.1531418938757
 30
0.0
 10
265.8723275127405
 20
133.174702366024
 30
0.0
 10
265.8174781011393
 20
133.1874223105907
 30
0.0
 10
265.7617458383424
 20
133.190757988236
 30
0.0
 10
265.7056491097079
 20
133.184705334104
 30
0.0
 10
265.6523038234163
 20
133.1694782812376
 30
0.0
 10
265.601772746441
 20
133.1461799992682
 30
0.0
 10
265.5724817154879
 20
133.124484717605
 30
0.0
 10
265.5576446087569
 20
133.1134951689574
 30
0.0
  0
SPLINE
  5
D0
330
1F
100
AcDbEntity
  8
0
  6
Continuous
 62
     7
370
    15
100
AcDbSpline
210
0.0
220
0.0
230
1.0
 70
     8
 71
     3
 72
    12
 73
     8
 74
     0
 42
0.00000001
 43
0.00000001
 12
1.0
 22
0.0
 32
0.0
 13
1.0
 23
0.0
 33
0.0
 40
0.0
 40
0.0
 40
0.0
 40
0.0
 40
0.2057532787804205
 40
0.4119604088044557
 40
0.6140154573248973
 40
0.8131414684040996
 40
0.9999999999999999
 40
0.9999999999999999
 40
0.9999999999999999
 40
0.9999999999999999
 10
265.5576446087569
 20
133.1134951689574
 30
0.0
 10
265.5028483121933
 20
133.0769399902555
 30
0.0
 10
265.3931348492189
 20
133.0037489993211
 30
0.0
 10
265.1943338220607
 20
132.9706942913512
 30
0.0
 10
265.0005499285702
 20
133.0020333552823
 30
0.0
 10
264.8296240961175
 20
133.0909000150431
 30
0.0
 10
264.7501947135432
 20
133.1855041290724
 30
0.0
 10
264.7117422467928
 20
133.2313028175586
 30
0.0
  0
SPLINE
  5
D1
330
1F
100
AcDbEntity
  8
0
  6
Continuous
 62
     7
370
    15
100
AcDbSpline
210
0.0
220
0.0
230
1.0
 70
     8
 71
     3
 72
    11
 73
     7
 74
     0
 42
0.00000001
 43
0.00000001
 12
1.0
 22
0.0
 32
0.0
 13
1.0
 23
0.0
 33
0.0
 40
0.0
 40
0.0
 40
0.0
 40
0.0
 40
0.2794069064555881
 40
0.5596240257155276
 40
0.8375007392219622
 40
1.0
 40
1.0
 40
1.0
 40
1.0
 10
264.7117422467927
 20
133.2313028175586
 30
0.0
 10
264.6869451019489
 20
133.2602750626903
 30
0.0
 10
264.6372789065073
 20
133.318303565494
 30
0.0
 10
264.5317655762098
 20
133.3672782728319
 30
0.0
 10
264.4327838002658
 20
133.3800788497311
 30
0.0
 10
264.3740154577623
 20
133.3682558446809
 30
0.0
 10
264.3523298691479
 20
133.3638931416884
 30
0.0
  0
ARC
  5
D2
330
1F
100
AcDbEntity
  8
0
  6
Continuous
 62
     7
370
    15
100
AcDbCircle
 10
264.4383761676
 20
132.9422142212
 30
0.0
 40
0.3352849365802149
100
AcDbArc
 50
35.3805231252
 51
162.4614702427
  0
ARC
  5
D3
330
1F
100
AcDbEntity
  8
0
  6
Continuous
 62
     7
370
    15
100
AcDbCircle
 10
265.7676194378
 20
132.7574563396
 30
0.0
 40
0.3350539876414073
100
AcDbArc
 50
7.0215894552
 51
128.8063028464
  0
ARC
  5
D4
330
1F
100
AcDbEntity
  8
0
  6
Continuous
 62
     7
370
    15
100
AcDbCircle
 10
264.9468188396
 20
131.7349190123
 30
0.0
 40
2.622769362545935
100
AcDbArc
 50
261.9438797109
 51
359.9177639374
  0
ARC
  5
D5
330
1F
100
AcDbEntity
  8
0
  6
Continuous
 62
     7
370
    15
100
AcDbCircle
 10
264.9397532475
 20
131.7332835775
 30
0.0
 40
2.620168611796772
100
AcDbArc
 50
180.0465552683
 51
262.091848054
  0
ARC
  5
D6
330
1F
100
AcDbEntity
  8
0
  6
Continuous
 62
     7
370
    15
100
AcDbCircle
 10
265.1902643995
 20
133.4765225553
 30
0.0
 40
0.5871148448147593
100
AcDbArc
 50
215.4086710857
 51
308.7363927877
  0
LINE
  5
D7
330
1F
100
AcDbEntity
  8
0
  6
Continuous
 62
     7
370
    15
100
AcDbLine
 10
268.5129715659
 20
128.4068531649
 30
0.0
 11
268.6272397697
 21
128.0606276316
 31
0.0
  0
LINE
  5
D8
330
1F
100
AcDbEntity
  8
0
  6
Continuous
 62
     7
370
    15
100
AcDbLine
 10
258.4689541947
 20
124.865534584
 30
0.0
 11
268.6272397697
 21
128.0606276316
 31
0.0
  0
LINE
  5
D9
330
1F
100
AcDbEntity
  8
0
  6
Continuous
 62
     7
370
    15
100
AcDbLine
 10
258.3546859909
 20
125.2117601176
 30
0.0
 11
258.4689541947
 21
124.865534584
 31
0.0
  0
LINE
  5
DA
330
1F
100
AcDbEntity
  8
0
  6
Continuous
 62
     7
370
    15
100
AcDbLine
 10
259.7741731225
 20
126.5904579062
 30
0.0
 11
258.3546859909
 21
125.2117601176
 31
0.0
  0
LINE
  5
DB
330
1F
100
AcDbEntity
  8
0
  6
Continuous
 62
     7
370
    15
100
AcDbLine
 10
268.3372109894
 20
128.5733060818
 30
0.0
 11
268.5129715659
 21
128.4068531649
 31
0.0
  0
SPLINE
  5
DC
330
1F
100
AcDbEntity
  8
0
  6
Continuous
 62
     7
370
    15
100
AcDbSpline
210
0.0
220
0.0
230
1.0
 70
     8
 71
     3
 72
    10
 73
     6
 74
     0
 42
0.00000001
 43
0.00000001
 12
1.0
 22
0.0
 32
0.0
 13
1.0
 23
0.0
 33
0.0
 40
0.0
 40
0.0
 40
0.0
 40
0.0
 40
0.3518022785809884
 40
0.7034245935032408
 40
1.0
 40
1.0
 40
1.0
 40
1.0
 10
268.6347388584298
 20
128.042066825993
 30
0.0
 10
268.675912915972
 20
128.0596934221518
 30
0.0
 10
268.7582399685607
 20
128.0949375976241
 30
0.0
 10
268.8483036583046
 20
128.1900296188979
 30
0.0
 10
268.8796486129454
 20
128.2659500577167
 30
0.0
 10
268.8939901361521
 20
128.3006865806327
 30
0.0
  0
LINE
  5
DD
330
1F
100
AcDbEntity
  8
0
  6
Continuous
 62
     7
370
    15
100
AcDbLine
 10
258.4666793903
 20
124.8438995889
 30
0.0
 11
268.6347388584
 21
128.042066826
 31
0.0
  0
SPLINE
  5
DE
330
1F
100
AcDbEntity
  8
0
  6
Continuous
 62
     7
370
    15
100
AcDbSpline
210
0.0
220
0.0
230
1.0
 70
     8
 71
     3
 72
    20
 73
    16
 74
     0
 42
0.00000001
 43
0.00000001
 12
1.0
 22
0.0
 32
0.0
 13
1.0
 23
0.0
 33
0.0
 40
0.0
 40
0.0
 40
0.0
 40
0.0
 40
0.0783075311860513
 40
0.1588910126856601
 40
0.2369785693217687
 40
0.3174398160757229
 40
0.3936615824744797
 40
0.4721830276909721
 40
0.546924075715276
 40
0.6238523130449515
 40
0.6983189620749644
 40
0.7748908420225529
 40
0.8503894607879647
 40
0.9279814901989417
 40
1.0
 40
1.0
 40
1.0
 40
1.0
 10
257.9705857240278
 20
125.3387847959175
 30
0.0
 10
257.9648191003429
 20
125.3169526543432
 30
0.0
 10
257.9531182503325
 20
125.2726538361927
 30
0.0
 10
257.950045539306
 20
125.2040442603864
 30
0.0
 10
257.957974583465
 20
125.1354558221396
 30
0.0
 10
257.9774868425358
 20
125.0703855095918
 30
0.0
 10
258.0079161811951
 20
125.0095727676477
 30
0.0
 10
258.0474005645976
 20
124.9561641330967
 30
0.0
 10
258.0955516223423
 20
124.9101468729454
 30
0.0
 10
258.149845705345
 20
124.8735303249132
 30
0.0
 10
258.2099687661647
 20
124.8463126495765
 30
0.0
 10
258.273415379665
 20
124.829456277004
 30
0.0
 10
258.339591669907
 20
124.8233666452358
 30
0.0
 10
258.4048223257235
 20
124.8273951070262
 30
0.0
 10
258.4465788952106
 20
124.8385364463085
 30
0.0
 10
258.4666793903008
 20
124.843899588882
 30
0.0
  0
LINE
  5
DF
330
1F
100
AcDbEntity
  8
0
  6
Continuous
 62
     7
370
    15
100
AcDbLine
 10
261.1765625596
 20
135.4820753822
 30
0.0
 11
257.970585724
 21
125.3387847959
 31
0.0
  0
SPLINE
  5
E0
330
1F
100
AcDbEntity
  8
0
  6
Continuous
 62
     7
370
    15
100
AcDbSpline
210
0.0
220
0.0
230
1.0
 70
     8
 71
     3
 72
    10
 73
     6
 74
     0
 42
0.00000001
 43
0.00000001
 12
1.0
 22
0.0
 32
0.0
 13
1.0
 23
0.0
 33
0.0
 40
0.0
 40
0.0
 40
0.0
 40
0.0
 40
0.3518022785810964
 40
0.7034245935031808
 40
1.0
 40
1.0
 40
1.0
 40
1.0
 10
261.4358138373008
 20
135.7406951368666
 30
0.0
 10
261.3946397797585
 20
135.7230685407078
 30
0.0
 10
261.3123127271699
 20
135.6878243652355
 30
0.0
 10
261.222249037426
 20
135.5927323439617
 30
0.0
 10
261.1909040827852
 20
135.5168119051429
 30
0.0
 10
261.1765625595785
 20
135.482075382227
 30
0.0
  0
LINE
  5
E1
330
1F
100
AcDbEntity
  8
0
  6
Continuous
 62
     7
370
    15
100
AcDbLine
 10
271.6038733054
 20
138.938862374
 30
0.0
 11
261.4358138373
 21
135.7406951369
 31
0.0
  0
SPLINE
  5
E2
330
1F
100
AcDbEntity
  8
0
  6
Continuous
 62
     7
370
    15
100
AcDbSpline
210
0.0
220
0.0
230
1.0
 70
     8
 71
     3
 72
    20
 73
    16
 74
     0
 42
0.00000001
 43
0.00000001
 12
1.0
 22
0.0
 32
0.0
 13
1.0
 23
0.0
 33
0.0
 40
0.0
 40
0.0
 40
0.0
 40
0.0
 40
0.07830753118604
 40
0.1588910126856451
 40
0.2369785693217669
 40
0.3174398160757241
 40
0.3936615824744883
 40
0.4721830276909693
 40
0.5469240757152781
 40
0.6238523130449282
 40
0.6983189620749664
 40
0.7748908420225552
 40
0.850389460787967
 40
0.9279814901989111
 40
0.9999999999999999
 40
0.9999999999999999
 40
0.9999999999999999
 40
0.9999999999999999
 10
272.0999669717027
 20
138.4439771669421
 30
0.0
 10
272.1057335953877
 20
138.4658093085164
 30
0.0
 10
272.117434445398
 20
138.5101081266669
 30
0.0
 10
272.1205071564245
 20
138.5787177024732
 30
0.0
 10
272.1125781122655
 20
138.64730614072
 30
0.0
 10
272.0930658531948
 20
138.7123764532677
 30
0.0
 10
272.0626365145354
 20
138.7731891952118
 30
0.0
 10
272.0231521311329
 20
138.826597829763
 30
0.0
 10
271.9750010733882
 20
138.8726150899141
 30
0.0
 10
271.9207069903856
 20
138.9092316379464
 30
0.0
 10
271.8605839295658
 20
138.936449313283
 30
0.0
 10
271.7971373160655
 20
138.9533056858555
 30
0.0
 10
271.7309610258236
 20
138.959395317624
 30
0.0
 10
271.6657303700071
 20
138.9553668558333
 30
0.0
 10
271.6239738005199
 20
138.9442255165511
 30
0.0
 10
271.6038733054297
 20
138.9388623739776
 30
0.0
  0
LINE
  5
E3
330
1F
100
AcDbEntity
  8
0
  6
Continuous
 62
     7
370
    15
100
AcDbLine
 10
268.8939901362
 20
128.3006865806
 30
0.0
 11
272.0999669717
 21
138.4439771669
 31
0.0
  0
ARC
  5
E4
330
1F
100
AcDbEntity
  8
0
  6
Continuous
 62
     7
370
    15
100
AcDbCircle
 10
258.3543841256
 20
125.2273668093
 30
0.0
 40
0.379537692426566
100
AcDbArc
 50
162.5699396795
 51
287.56980009
  0
ARC
  5
E5
330
1F
100
AcDbEntity
  8
0
  6
Continuous
 62
     7
370
    15
100
AcDbCircle
 10
268.5135514429
 20
128.4227385494
 30
0.0
 40
0.3795383411496349
100
AcDbArc
 50
287.4301999787
 51
342.430060169
  0
LINE
  5
E6
330
1F
100
AcDbEntity
  8
0
  6
Continuous
 62
     7
370
    15
100
AcDbLine
 10
268.8753840072
 20
128.3081674019
 30
0.0
 11
272.0782791461
 21
138.4417079039
 31
0.0
  0
ARC
  5
E7
330
1F
100
AcDbEntity
  8
0
  6
Continuous
 62
     7
370
    15
100
AcDbCircle
 10
271.7161685702
 20
138.5553951536
 30
0.0
 40
0.3795376924265377
100
AcDbArc
 50
342.5699396795
 51
107.5698000901
  0
LINE
  5
E8
330
1F
100
AcDbEntity
  8
0
  6
Continuous
 62
     7
370
    15
100
AcDbLine
 10
271.601598501
 20
138.9172273789
 30
0.0
 11
261.443312926
 21
135.7221343315
 31
0.0
  0
ARC
  5
E9
330
1F
100
AcDbEntity
  8
0
  6
Continuous
 62
     7
370
    15
100
AcDbCircle
 10
261.5570012519
 20
135.3600234148
 30
0.0
 40
0.3795383398848095
100
AcDbArc
 50
107.4301999098
 51
162.4300603206
  0
LINE
  5
EA
330
1F
100
AcDbEntity
  8
0
  6
Continuous
 62
     7
370
    15
100
AcDbLine
 10
261.1951686885
 20
135.474594561
 30
0.0
 11
257.9922735496
 21
125.341054059
 31
0.0
  0
LINE
  5
EB
330
1F
100
AcDbEntity
  8
0
  6
Continuous
 62
     7
370
    15
100
AcDbLine
 10
258.3546859909
 20
125.2117601176
 30
0.0
 11
257.9922735496
 21
125.341054059
 31
0.0
  0
LINE
  5
EC
330
1F
100
AcDbEntity
  8
0
  6
Continuous
 62
     7
370
    15
100
AcDbLine
 10
261.5575811298
 20
135.3453006196
 30
0.0
 11
261.1951686885
 21
135.474594561
 31
0.0
  0
LINE
  5
ED
330
1F
100
AcDbEntity
  8
0
  6
Continuous
 62
     7
370
    15
100
AcDbLine
 10
261.7333417064
 20
135.1610886712
 30
0.0
 11
261.5575811298
 21
135.3453006196
 31
0.0
  0
SPLINE
  5
EE
330
1F
100
AcDbEntity
  8
0
  6
Continuous
 62
     7
370
    15
100
AcDbSpline
210
0.0
220
0.0
230
1.0
 70
     8
 71
     3
 72
    11
 73
     7
 74
     0
 42
0.00000001
 43
0.00000001
 12
1.0
 22
0.0
 32
0.0
 13
1.0
 23
0.0
 33
0.0
 40
0.0
 40
0.0
 40
0.0
 40
0.0
 40
0.0072987238691195
 40
0.126846209607903
 40
0.5874298328382862
 40
0.9999999999999999
 40
0.9999999999999999
 40
0.9999999999999999
 40
0.9999999999999999
 10
260.2603437815114
 20
127.0832629419295
 30
0.0
 10
260.2592831124615
 20
127.0821446547774
 30
0.0
 10
260.2408494998143
 20
127.0627096838107
 30
0.0
 10
260.1535465318512
 20
126.9711644059999
 30
0.0
 10
259.9897537042545
 20
126.8024988384345
 30
0.0
 10
259.8433498039346
 20
126.6584987654915
 30
0.0
 10
259.7741731224694
 20
126.5904579062304
 30
0.0
  0
LINE
  5
EF
330
1F
100
AcDbEntity
  8
0
  6
Continuous
 62
     7
370
    15
100
AcDbLine
 10
262.0550274563
 20
127.6670247869
 30
0.0
 11
267.0439390539
 21
129.2361908279
 31
0.0
  0
LINE
  5
F0
330
1F
100
AcDbEntity
  8
0
  6
Continuous
 62
     7
370
    15
100
AcDbLine
 10
268.0155252394
 20
136.115737176
 30
0.0
 11
263.0266136418
 21
134.546571135
 31
0.0
  0
ARC
  5
F1
330
1F
100
AcDbEntity
  8
0
  6
Continuous
 62
     7
370
    15
100
AcDbCircle
 10
268.3170254214
 20
135.1635471095
 30
0.0
 40
0.9987834011226064
100
AcDbArc
 50
342.5699396795
 51
107.56980009
  0
LINE
  5
F2
330
1F
100
AcDbEntity
  8
0
  6
Continuous
 62
     7
370
    15
100
AcDbLine
 10
267.6969502051
 20
129.8876112768
 30
0.0
 11
269.2699479897
 21
134.8643701365
 31
0.0
  0
ARC
  5
F3
330
1F
100
AcDbEntity
  8
0
  6
Continuous
 62
     7
370
    15
100
AcDbCircle
 10
266.7447592489
 20
130.1891142929
 30
0.0
 40
0.9987851049600162
100
AcDbArc
 50
287.4301999098
 51
342.4300603206
  0
ARC
  5
F4
330
1F
100
AcDbEntity
  8
0
  6
Continuous
 62
     7
370
    15
100
AcDbCircle
 10
261.753527274
 20
128.6192148532
 30
0.0
 40
0.9987834011074547
100
AcDbArc
 50
162.5699396668
 51
287.5698001121
  0
LINE
  5
F5
330
1F
100
AcDbEntity
  8
0
  6
Continuous
 62
     7
370
    15
100
AcDbLine
 10
262.3736024906
 20
133.8951506861
 30
0.0
 11
260.8006047058
 21
128.9183918265
 31
0.0
  0
ARC
  5
F6
330
1F
100
AcDbEntity
  8
0
  6
Continuous
 62
     7
370
    15
100
AcDbCircle
 10
263.3257934468
 20
133.59364767
 30
0.0
 40
0.9987851049603347
100
AcDbArc
 50
107.4301999098
 51
162.4300603206
  0
CIRCLE
  5
F7
330
1F
100
AcDbEntity
  8
0
  6
Continuous
 62
     7
370
    15
100
AcDbCircle
 10
265.0302613537
 20
131.8874915362
 30
0.0
 40
3.04571643968826
  0
SPLINE
  5
F8
330
1F
100
AcDbEntity
  8
0
  6
Continuous
 62
     7
370
    15
100
AcDbSpline
210
0.0
220
0.0
230
1.0
 70
     8
 71
     3
 72
    11
 73
     7
 74
     0
 42
0.00000001
 43
0.00000001
 12
1.0
 22
0.0
 32
0.0
 13
1.0
 23
0.0
 33
0.0
 40
0.0
 40
0.0
 40
0.0
 40
0.0
 40
0.3277695037502207
 40
0.6551509568909815
 40
0.9907861901609697
 40
1.0
 40
1.0
 40
1.0
 40
1.0
 10
268.337210989375
 20
128.5733060818427
 30
0.0
 10
268.2846515891163
 20
128.6237116721687
 30
0.0
 10
268.1795950143616
 20
128.724463176982
 30
0.0
 10
268.0063663947624
 20
128.8981465565365
 30
0.0
 10
267.8971092564894
 20
129.0110925554706
 30
0.0
 10
267.8461120468002
 20
129.0648512807393
 30
0.0
 10
267.8447494836678
 20
129.0662876271109
 30
0.0
  0
LINE
  5
F9
330
1F
100
AcDbEntity
  8
0
  6
Continuous
 62
     7
370
    15
100
AcDbLine
 10
268.5129715659
 20
128.4068531649
 30
0.0
 11
268.8753840072
 21
128.3081674019
 31
0.0
  0
LWPOLYLINE
  5
FA
330
1F
100
AcDbEntity
  8
0
  6
Continuous
 62
     7
370
    15
100
AcDbPolyline
 90
        3
 70
   128
 43
0.0
 10
262.1264396481
 20
132.7366457303
 10
261.988179272
 20
131.9544422345
 10
261.9852763479
 20
131.8217271796
  0
ARC
  5
FB
330
1F
100
AcDbEntity
  8
0
  6
Continuous
 62
     7
370
    15
100
AcDbCircle
 10
265.0345571015
 20
131.8148058843
 30
0.0
 40
3.050727097680535
100
AcDbArc
 50
0.1299891277
 51
162.4119826364
  0
LINE
  5
FC
330
1F
100
AcDbEntity
  8
0
  6
Continuous
 62
     7
370
    15
100
AcDbLine
 10
271.7158667048
 20
138.5403936669
 30
0.0
 11
272.0782791461
 21
138.4417079039
 31
0.0
  0
LINE
  5
FD
330
1F
100
AcDbEntity
  8
0
  6
Continuous
 62
     7
370
    15
100
AcDbLine
 10
270.2963795733
 20
137.087032791
 30
0.0
 11
271.7158667048
 21
138.5403936669
 31
0.0
  0
LINE
  5
FE
330
1F
100
AcDbEntity
  8
0
  6
Continuous
 62
     7
370
    15
100
AcDbLine
 10
261.5575811298
 20
135.3453006196
 30
0.0
 11
261.443312926
 21
135.7221343315
 31
0.0
  0
LINE
  5
FF
330
1F
100
AcDbEntity
  8
0
  6
Continuous
 62
     7
370
    15
100
AcDbLine
 10
271.7158667048
 20
138.5403936669
 30
0.0
 11
271.601598501
 21
138.9172273789
 31
0.0
  0
SPLINE
  5
100
330
1F
100
AcDbEntity
  8
0
  6
Continuous
 62
     7
370
    15
100
AcDbSpline
210
0.0
220
0.0
230
1.0
 70
     8
 71
     3
 72
    11
 73
     7
 74
     0
 42
0.00000001
 43
0.00000001
 12
1.0
 22
0.0
 32
0.0
 13
1.0
 23
0.0
 33
0.0
 40
0.0
 40
0.0
 40
0.0
 40
0.0
 40
0.0092138098390097
 40
0.3448490431109683
 40
0.6722304962507519
 40
1.0
 40
1.0
 40
1.0
 40
1.0
 10
262.2258032120627
 20
134.6715464280056
 30
0.0
 10
262.2244406489303
 20
134.6728285696283
 30
0.0
 10
262.1734434392408
 20
134.7208158104586
 30
0.0
 10
262.064186300967
 20
134.8258517982765
 30
0.0
 10
261.8909576813676
 20
134.9977817054986
 30
0.0
 10
261.7859011066129
 20
135.1066315251229
 30
0.0
 10
261.7333417063543
 20
135.1610886711993
 30
0.0
  0
SPLINE
  5
101
330
1F
100
AcDbEntity
  8
0
  6
Continuous
 62
     7
370
    15
100
AcDbSpline
210
0.0
220
0.0
230
1.0
 70
     8
 71
     3
 72
    11
 73
     7
 74
     0
 42
0.00000001
 43
0.00000001
 12
1.0
 22
0.0
 32
0.0
 13
1.0
 23
0.0
 33
0.0
 40
0.0
 40
0.0
 40
0.0
 40
0.0
 40
0.4125701671613055
 40
0.8731537903910419
 40
0.9927012761302811
 40
1.0
 40
1.0
 40
1.0
 40
1.0
 10
270.2963795732609
 20
137.0870327909506
 30
0.0
 10
270.2272028917958
 20
137.0170573091204
 30
0.0
 10
270.0807989914762
 20
136.868962846511
 30
0.0
 10
269.9170061638806
 20
136.7108407410757
 30
0.0
 10
269.8297031959158
 20
136.6282054142422
 30
0.0
 10
269.811269583269
 20
136.6108629666231
 30
0.0
 10
269.8102089142191
 20
136.6098650831484
 30
0.0
  0
SPLINE
  5
102
330
1F
100
AcDbEntity
  8
0
  6
HIDDEN
 62
     7
370
     0
100
AcDbSpline
210
0.0
220
0.0
230
1.0
 70
     8
 71
     3
 72
    60
 73
    56
 74
     0
 42
0.00000001
 43
0.00000001
 12
1.0
 22
0.0
 32
0.0
 13
1.0
 23
0.0
 33
0.0
 40
-0.0625000000000001
 40
-0.0625000000000001
 40
0.0
 40
0.0
 40
0.03125
 40
0.03125
 40
0.0625
 40
0.0625
 40
0.09375
 40
0.09375
 40
0.125
 40
0.125
 40
0.1875000000000003
 40
0.1875000000000003
 40
0.2500000000000005
 40
0.2500000000000005
 40
0.2812500000000004
 40
0.2812500000000004
 40
0.3125000000000003
 40
0.3125000000000003
 40
0.3437500000000003
 40
0.3437500000000003
 40
0.3750000000000003
 40
0.3750000000000003
 40
0.4062500000000002
 40
0.4062500000000002
 40
0.4375000000000002
 40
0.4375000000000002
 40
0.4687500000000001
 40
0.4687500000000001
 40
0.5
 40
0.5
 40
0.5624999999999999
 40
0.5624999999999999
 40
0.6249999999999998
 40
0.6249999999999998
 40
0.6562499999999998
 40
0.6562499999999998
 40
0.6874999999999998
 40
0.6874999999999998
 40
0.7187499999999998
 40
0.7187499999999998
 40
0.7499999999999998
 40
0.7499999999999998
 40
0.7812499999999999
 40
0.7812499999999999
 40
0.8124999999999999
 40
0.8124999999999999
 40
0.8437499999999999
 40
0.8437499999999999
 40
0.8749999999999999
 40
0.8749999999999999
 40
0.9062499999999999
 40
0.9062499999999999
 40
0.9374999999999999
 40
0.9374999999999999
 40
1.0
 40
1.0
 40
1.03125
 40
1.03125
 10
142.115866704844
 20
111.6903928510814
 30
0.0
 10
142.115866704844
 20
112.0868886387115
 30
0.0
 10
142.1288385633328
 20
112.2168386997156
 30
0.0
 10
142.1796587330252
 20
112.4724916330757
 30
0.0
 10
142.2181260564921
 20
112.599521139625
 30
0.0
 10
142.3185242925643
 20
112.8417092707495
 30
0.0
 10
142.3799573235374
 20
112.9565707633024
 30
0.0
 10
142.5250921550823
 20
113.1739509591265
 30
0.0
 10
142.6095472724902
 20
113.2768485263252
 30
0.0
 10
142.8862667228485
 20
113.5535155653329
 30
0.0
 10
143.1093436147666
 20
113.7025136558129
 30
0.0
 10
143.5906269769869
 20
113.9020247962776
 30
0.0
 10
143.8538573959779
 20
113.9545828992743
 30
0.0
 10
144.2452595976658
 20
113.9547931816524
 30
0.0
 10
144.3777826257747
 20
113.9418074109253
 30
0.0
 10
144.6343130790158
 20
113.8907802627115
 30
0.0
 10
144.7589999133124
 20
113.8530250635611
 30
0.0
 10
145.0011791755479
 20
113.7528867306523
 30
0.0
 10
145.1182727076979
 20
113.6902810632408
 30
0.0
 10
145.3349877110534
 20
113.5455477699758
 30
0.0
 10
145.4360065379161
 20
113.4629204226962
 30
0.0
 10
145.6227914253683
 20
113.2763153694447
 30
0.0
 10
145.7056483065645
 20
113.1752003055685
 30
0.0
 10
145.8505325716383
 20
112.9586675015787
 30
0.0
 10
145.9131700794592
 20
112.8417972939775
 30
0.0
 10
146.013618902859
 20
112.5994994233274
 30
0.0
 10
146.0514700038762
 20
112.4748354248664
 30
0.0
 10
146.1026915691326
 20
112.2185483808026
 30
0.0
 10
146.1158196957498
 20
112.085976385057
 30
0.0
 10
146.11596033609
 20
111.694372192283
 30
0.0
 10
146.0636355867181
 20
111.431206860959
 30
0.0
 10
145.8645245246609
 20
110.9497014917859
 30
0.0
 10
145.7156621882037
 20
110.7264499523018
 30
0.0
 10
145.4393412288781
 20
110.4495936534129
 30
0.0
 10
145.3365775805046
 20
110.3650802065692
 30
0.0
 10
145.1191940231251
 20
110.219662933129
 30
0.0
 10
145.0043952551687
 20
110.1581517340706
 30
0.0
 10
144.7625185317447
 20
110.0576218858158
 30
0.0
 10
144.6353649237444
 20
110.0189768625978
 30
0.0
 10
144.3796989143119
 20
109.9679205350468
 30
0.0
 10
144.2498328765558
 20
109.9548556765012
 30
0.0
 10
143.9858803498242
 20
109.9545930557032
 30
0.0
 10
143.8554760264001
 20
109.9674700559472
 30
0.0
 10
143.5998252630208
 20
110.0180560597531
 30
0.0
 10
143.4729597139064
 20
110.0563324243749
 30
0.0
 10
143.2304392559605
 20
110.1566032918549
 30
0.0
 10
143.1155126173002
 20
110.2179593159958
 30
0.0
 10
142.8981411484682
 20
110.3628056111686
 30
0.0
 10
142.795127335806
 20
110.4471831256632
 30
0.0
 10
142.610426790224
 20
110.6315904458515
 30
0.0
 10
142.5275970559674
 20
110.732163509121
 30
0.0
 10
142.3813446173699
 20
110.9503896496999
 30
0.0
 10
142.3189761365775
 20
111.0669447596212
 30
0.0
 10
142.1690199850108
 20
111.4277943536549
 30
0.0
 10
142.115866704844
 20
111.6903928510814
 30
0.0
 10
142.115866704844
 20
112.0868886387115
 30
0.0
  0
SPLINE
  5
103
330
1F
100
AcDbEntity
  8
0
  6
HIDDEN
 62
     7
370
     0
100
AcDbSpline
210
0.0
220
0.0
230
1.0
 70
     8
 71
     3
 72
    12
 73
     8
 74
     0
 42
0.00000001
 43
0.00000001
 12
1.0
 22
0.0
 32
0.0
 13
1.0
 23
0.0
 33
0.0
 40
0.0
 40
0.0
 40
0.0
 40
0.0
 40
0.2499999999999996
 40
0.2499999999999996
 40
0.4999999999999991
 40
0.4999999999999991
 40
1.0
 40
1.0
 40
1.0
 40
1.0
 10
142.6436235184105
 20
102.566656944832
 30
0.0
 10
142.5805434799171
 20
102.566656944832
 30
0.0
 10
142.5213948577357
 20
102.5412926256172
 30
0.0
 10
142.4229223076667
 20
102.4671277652442
 30
0.0
 10
142.3838856956818
 20
102.4206074246901
 30
0.0
 10
142.2839892289029
 20
102.2704650818448
 30
0.0
 10
142.2415683478361
 20
102.1587718748726
 30
0.0
 10
142.2106108165182
 20
102.0453540554829
 30
0.0
  0
LINE
  5
104
330
1F
100
AcDbEntity
  8
0
  6
HIDDEN
 62
     7
370
     0
100
AcDbLine
 10
145.5881098913
 20
102.5666569448
 30
0.0
 11
142.6436235184
 21
102.5666569448
 31
0.0
  0
SPLINE
  5
105
330
1F
100
AcDbEntity
  8
0
  6
HIDDEN
 62
     7
370
     0
100
AcDbSpline
210
0.0
220
0.0
230
1.0
 70
     8
 71
     3
 72
    12
 73
     8
 74
     0
 42
0.00000001
 43
0.00000001
 12
1.0
 22
0.0
 32
0.0
 13
1.0
 23
0.0
 33
0.0
 40
0.0
 40
0.0
 40
0.0
 40
0.0
 40
0.5000000000000009
 40
0.5000000000000009
 40
0.7500000000000004
 40
0.7500000000000004
 40
1.0
 40
1.0
 40
1.0
 40
1.0
 10
146.0211225931698
 20
102.0453540554829
 30
0.0
 10
145.9904003512508
 20
102.1579098548921
 30
0.0
 10
145.9475631367155
 20
102.2706677146317
 30
0.0
 10
145.8481361125158
 20
102.4202086004281
 30
0.0
 10
145.8083839176991
 20
102.4675013321348
 30
0.0
 10
145.7103424608408
 20
102.5412376254564
 30
0.0
 10
145.6507864052534
 20
102.566656944832
 30
0.0
 10
145.5881098912776
 20
102.566656944832
 30
0.0
  0
ELLIPSE
  5
106
330
1F
100
AcDbEntity
  8
0
  6
HIDDEN
 62
     7
370
     0
100
AcDbEllipse
 10
129.7687125155
 20
111.9547233762
 30
0.0
 11
-14.75368316065608
 21
31.09325491558119
 31
0.0
210
0.0
220
0.0
230
1.0
 40
0.3419987131
 41
3.30073485621713
 42
4.23149622336078
  0
SPLINE
  5
107
330
1F
100
AcDbEntity
  8
0
  6
HIDDEN
 62
     7
370
     0
100
AcDbSpline
210
0.0
220
0.0
230
1.0
 70
     8
 71
     3
 72
    12
 73
     8
 74
     0
 42
0.00000001
 43
0.00000001
 12
1.0
 22
0.0
 32
0.0
 13
1.0
 23
0.0
 33
0.0
 40
0.0
 40
0.0
 40
0.0
 40
0.0
 40
0.2499999999999995
 40
0.2499999999999995
 40
0.499999999999999
 40
0.499999999999999
 40
1.0
 40
1.0
 40
1.0
 40
1.0
 10
145.5881098912776
 20
81.88623141729498
 30
0.0
 10
145.6511899297709
 20
81.886231417295
 30
0.0
 10
145.7103385519523
 20
81.89413734350747
 30
0.0
 10
145.8088111020214
 20
81.9174625049437
 30
0.0
 10
145.8478477140061
 20
81.93217529477539
 30
0.0
 10
145.9477441807852
 20
81.98013109550632
 30
0.0
 10
145.9901650618518
 20
82.01639325208637
 30
0.0
 10
146.0211225931698
 20
82.05398091605088
 30
0.0
  0
LINE
  5
108
330
1F
100
AcDbEntity
  8
0
  6
HIDDEN
 62
     7
370
     0
100
AcDbLine
 10
142.6436235184
 20
81.8862314173
 30
0.0
 11
145.5881098913
 21
81.8862314173
 31
0.0
  0
SPLINE
  5
109
330
1F
100
AcDbEntity
  8
0
  6
HIDDEN
 62
     7
370
     0
100
AcDbSpline
210
0.0
220
0.0
230
1.0
 70
     8
 71
     3
 72
    12
 73
     8
 74
     0
 42
0.00000001
 43
0.00000001
 12
1.0
 22
0.0
 32
0.0
 13
1.0
 23
0.0
 33
0.0
 40
0.0
 40
0.0
 40
0.0
 40
0.0
 40
0.5000000000000019
 40
0.5000000000000019
 40
0.7500000000000009
 40
0.7500000000000009
 40
1.0
 40
1.0
 40
1.0
 40
1.0
 10
142.2106108165182
 20
82.05398091605088
 30
0.0
 10
142.2413330584374
 20
82.01667893309784
 30
0.0
 10
142.2841702729725
 20
81.98006710105145
 30
0.0
 10
142.3835972971723
 20
81.93230231776624
 30
0.0
 10
142.4233494919889
 20
81.91734480228386
 30
0.0
 10
142.5213909488472
 20
81.89415485651473
 30
0.0
 10
142.5809470044346
 20
81.886231417295
 30
0.0
 10
142.6436235184105
 20
81.88623141729501
 30
0.0
  0
ELLIPSE
  5
10A
330
1F
100
AcDbEntity
  8
0
  6
HIDDEN
 62
     7
370
     0
100
AcDbEllipse
 10
158.4630208942
 20
111.9547233762
 30
0.0
 11
14.75368316065606
 21
31.09325491558118
 31
0.0
210
0.0
220
0.0
230
1.0
 40
0.3419987131
 41
2.05168908381882
 42
2.982450450962491
  0
SPLINE
  5
10B
330
1F
100
AcDbEntity
  8
0
  6
HIDDEN
 62
     7
370
     0
100
AcDbSpline
210
0.0
220
0.0
230
1.0
 70
     8
 71
     3
 72
    12
 73
     8
 74
     0
 42
0.00000001
 43
0.00000001
 12
1.0
 22
0.0
 32
0.0
 13
1.0
 23
0.0
 33
0.0
 40
0.0
 40
0.0
 40
0.0
 40
0.0
 40
0.2499999999999996
 40
0.2499999999999996
 40
0.4999999999999991
 40
0.4999999999999991
 40
1.0
 40
1.0
 40
1.0
 40
1.0
 10
142.6436235184105
 20
142.0232153350414
 30
0.0
 10
142.5805434799171
 20
142.0232153350414
 30
0.0
 10
142.5213948577356
 20
142.0153094088289
 30
0.0
 10
142.4229223076666
 20
141.9919842473927
 30
0.0
 10
142.3838856956818
 20
141.977271457561
 30
0.0
 10
142.2839892289029
 20
141.92931565683
 30
0.0
 10
142.2415683478361
 20
141.89305350025
 30
0.0
 10
142.2106108165182
 20
141.8554658362855
 30
0.0
  0
LINE
  5
10C
330
1F
100
AcDbEntity
  8
0
  6
HIDDEN
 62
     7
370
     0
100
AcDbLine
 10
145.5881098913
 20
142.023215335
 30
0.0
 11
142.6436235184
 21
142.023215335
 31
0.0
  0
SPLINE
  5
10D
330
1F
100
AcDbEntity
  8
0
  6
HIDDEN
 62
     7
370
     0
100
AcDbSpline
210
0.0
220
0.0
230
1.0
 70
     8
 71
     3
 72
    12
 73
     8
 74
     0
 42
0.00000001
 43
0.00000001
 12
1.0
 22
0.0
 32
0.0
 13
1.0
 23
0.0
 33
0.0
 40
0.0
 40
0.0
 40
0.0
 40
0.0
 40
0.4999999999999982
 40
0.4999999999999982
 40
0.7499999999999991
 40
0.7499999999999991
 40
1.0
 40
1.0
 40
1.0
 40
1.0
 10
146.0211225931698
 20
141.8554658362855
 30
0.0
 10
145.9904003512508
 20
141.8927678192385
 30
0.0
 10
145.9475631367155
 20
141.9293796512849
 30
0.0
 10
145.8481361125158
 20
141.9771444345701
 30
0.0
 10
145.8083839176991
 20
141.9921019500525
 30
0.0
 10
145.7103424608408
 20
142.0152918958216
 30
0.0
 10
145.6507864052534
 20
142.0232153350414
 30
0.0
 10
145.5881098912776
 20
142.0232153350414
 30
0.0
  0
ELLIPSE
  5
10E
330
1F
100
AcDbEntity
  8
0
  6
HIDDEN
 62
     7
370
     0
100
AcDbEllipse
 10
129.7687125155
 20
111.9547233762
 30
0.0
 11
14.75368316065618
 21
31.09325491558116
 31
0.0
210
0.0
220
0.0
230
1.0
 40
0.3419987131
 41
5.193281737408636
 42
6.12404310455234
  0
SPLINE
  5
10F
330
1F
100
AcDbEntity
  8
0
  6
HIDDEN
 62
     7
370
     0
100
AcDbSpline
210
0.0
220
0.0
230
1.0
 70
     8
 71
     3
 72
    12
 73
     8
 74
     0
 42
0.00000001
 43
0.00000001
 12
1.0
 22
0.0
 32
0.0
 13
1.0
 23
0.0
 33
0.0
 40
0.0
 40
0.0
 40
0.0
 40
0.0
 40
0.2499999999999986
 40
0.2499999999999986
 40
0.4999999999999971
 40
0.4999999999999971
 40
1.0
 40
1.0
 40
1.0
 40
1.0
 10
145.5881098912776
 20
121.3427898075046
 30
0.0
 10
145.6511899297709
 20
121.3427898075046
 30
0.0
 10
145.7103385519523
 20
121.3681541267196
 30
0.0
 10
145.8088111020214
 20
121.4423189870925
 30
0.0
 10
145.8478477140061
 20
121.4888393276466
 30
0.0
 10
145.9477441807852
 20
121.6389816704918
 30
0.0
 10
145.9901650618518
 20
121.750674877464
 30
0.0
 10
146.0211225931698
 20
121.8640926968537
 30
0.0
  0
LINE
  5
110
330
1F
100
AcDbEntity
  8
0
  6
HIDDEN
 62
     7
370
     0
100
AcDbLine
 10
142.6436235184
 20
121.3427898075
 30
0.0
 11
145.5881098913
 21
121.3427898075
 31
0.0
  0
SPLINE
  5
111
330
1F
100
AcDbEntity
  8
0
  6
HIDDEN
 62
     7
370
     0
100
AcDbSpline
210
0.0
220
0.0
230
1.0
 70
     8
 71
     3
 72
    12
 73
     8
 74
     0
 42
0.00000001
 43
0.00000001
 12
1.0
 22
0.0
 32
0.0
 13
1.0
 23
0.0
 33
0.0
 40
0.0
 40
0.0
 40
0.0
 40
0.0
 40
0.4999999999999981
 40
0.4999999999999981
 40
0.749999999999999
 40
0.749999999999999
 40
1.0
 40
1.0
 40
1.0
 40
1.0
 10
142.2106108165182
 20
121.8640926968537
 30
0.0
 10
142.2413330584373
 20
121.7515368974446
 30
0.0
 10
142.2841702729724
 20
121.6387790377049
 30
0.0
 10
142.3835972971722
 20
121.4892381519086
 30
0.0
 10
142.4233494919889
 20
121.4419454202017
 30
0.0
 10
142.5213909488471
 20
121.3682091268803
 30
0.0
 10
142.5809470044346
 20
121.3427898075046
 30
0.0
 10
142.6436235184105
 20
121.3427898075046
 30
0.0
  0
ELLIPSE
  5
112
330
1F
100
AcDbEntity
  8
0
  6
HIDDEN
 62
     7
370
     0
100
AcDbEllipse
 10
158.4630208942
 20
111.9547233762
 30
0.0
 11
-14.75368316065621
 21
31.09325491558117
 31
0.0
210
0.0
220
0.0
230
1.0
 40
0.3419987131
 41
0.1591422026272839
 42
1.08990356977096
  0
LINE
  5
113
330
1F
100
AcDbEntity
  8
0
  6
HIDDEN
 62
     7
370
     0
100
AcDbLine
 10
132.1158667048
 20
142.9547233726
 30
0.0
 11
132.1158667048
 21
80.9547233762
 31
0.0
  0
LINE
  5
114
330
1F
100
AcDbEntity
  8
0
  6
HIDDEN
 62
     7
370
     0
100
AcDbLine
 10
154.1158667048
 20
81.4547233762
 30
0.0
 11
154.1158667048
 21
142.4547233741
 31
0.0
  0
LINE
  5
115
330
1F
100
AcDbEntity
  8
0
  6
HIDDEN
 62
     7
370
     0
100
AcDbLine
 10
132.1158667048
 20
87.7047233762
 30
0.0
 11
132.1158667048
 21
136.1795924621
 31
0.0
  0
SPLINE
  5
116
330
1F
100
AcDbEntity
  8
0
  6
HIDDEN
 62
     7
370
     0
100
AcDbSpline
210
0.0
220
0.0
230
1.0
 70
     8
 71
     3
 72
    12
 73
     8
 74
     0
 42
0.00000001
 43
0.00000001
 12
1.0
 22
0.0
 32
0.0
 13
1.0
 23
0.0
 33
0.0
 40
0.0
 40
0.0
 40
0.0
 40
0.0
 40
0.5000000000000009
 40
0.5000000000000009
 40
0.7500000000000006
 40
0.7500000000000006
 40
1.0
 40
1.0
 40
1.0
 40
1.0
 10
131.299354418397
 20
127.406991357999
 30
0.0
 10
131.3557605970773
 20
127.3591689843392
 30
0.0
 10
131.4259234985491
 20
127.3188981374007
 30
0.0
 10
131.5439342119382
 20
127.3108522689237
 30
0.0
 10
131.5841399955336
 20
127.3174148672626
 30
0.0
 10
131.6578606922668
 20
127.3447969617162
 30
0.0
 10
131.6907214140533
 20
127.3645584522466
 30
0.0
 10
131.7208898159825
 20
127.3874911634346
 30
0.0
  0
SPLINE
  5
117
330
1F
100
AcDbEntity
  8
0
  6
HIDDEN
 62
     7
370
     0
100
AcDbSpline
210
0.0
220
0.0
230
1.0
 70
     8
 71
     3
 72
    16
 73
    12
 74
     0
 42
0.00000001
 43
0.00000001
 12
1.0
 22
0.0
 32
0.0
 13
1.0
 23
0.0
 33
0.0
 40
0.0
 40
0.0
 40
0.0
 40
0.0
 40
0.0624999999999957
 40
0.0624999999999957
 40
0.1249999999999915
 40
0.1249999999999915
 40
0.2499999999999912
 40
0.2499999999999912
 40
0.4999999999999907
 40
0.4999999999999907
 40
1.0
 40
1.0
 40
1.0
 40
1.0
 10
131.7208898159374
 20
127.3874911634827
 30
0.0
 10
131.7325027157767
 20
127.3963187864641
 30
0.0
 10
131.7458539002093
 20
127.404153168346
 30
0.0
 10
131.7752537398284
 20
127.4124632944184
 30
0.0
 10
131.7900944643837
 20
127.4119674751833
 30
0.0
 10
131.8259276723523
 20
127.400516504214
 30
0.0
 10
131.8400408801739
 20
127.3838360033553
 30
0.0
 10
131.8745322513928
 20
127.3317153175982
 30
0.0
 10
131.8856163225032
 20
127.2919258235733
 30
0.0
 10
131.9117391402992
 20
127.1685891914761
 30
0.0
 10
131.915866704844
 20
127.0811677809775
 30
0.0
 10
131.915866704844
 20
126.9924305386593
 30
0.0
  0
LINE
  5
118
330
1F
100
AcDbEntity
  8
0
  6
HIDDEN
 62
     7
370
     0
100
AcDbLine
 10
131.9158667048
 20
96.9170162137
 30
0.0
 11
131.9158667048
 21
126.9924305387
 31
0.0
  0
SPLINE
  5
119
330
1F
100
AcDbEntity
  8
0
  6
HIDDEN
 62
     7
370
     0
100
AcDbSpline
210
0.0
220
0.0
230
1.0
 70
     8
 71
     3
 72
    16
 73
    12
 74
     0
 42
0.00000001
 43
0.00000001
 12
1.0
 22
0.0
 32
0.0
 13
1.0
 23
0.0
 33
0.0
 40
0.0
 40
0.0
 40
0.0
 40
0.0
 40
0.5000000000000032
 40
0.5000000000000032
 40
0.7500000000000023
 40
0.7500000000000023
 40
0.8750000000000021
 40
0.8750000000000021
 40
0.937500000000001
 40
0.937500000000001
 40
1.0
 40
1.0
 40
1.0
 40
1.0
 10
131.915866704844
 20
96.91701621367694
 30
0.0
 10
131.915866704844
 20
96.82788984848821
 30
0.0
 10
131.9117204297661
 20
96.74102848087477
 30
0.0
 10
131.8857548343726
 20
96.61804623438076
 30
0.0
 10
131.8742939289951
 20
96.57727493914946
 30
0.0
 10
131.8399821912208
 20
96.52557061914966
 30
0.0
 10
131.8259574552911
 20
96.50890025255924
 30
0.0
 10
131.7899344922573
 20
96.4974480321025
 30
0.0
 10
131.7751799831675
 20
96.4969949858275
 30
0.0
 10
131.7458278220208
 20
96.50531030704369
 30
0.0
 10
131.7324879475167
 20
96.51313919212195
 30
0.0
 10
131.7208898159683
 20
96.52195558888458
 30
0.0
  0
SPLINE
  5
11A
330
1F
100
AcDbEntity
  8
0
  6
HIDDEN
 62
     7
370
     0
100
AcDbSpline
210
0.0
220
0.0
230
1.0
 70
     8
 71
     3
 72
    12
 73
     8
 74
     0
 42
0.00000001
 43
0.00000001
 12
1.0
 22
0.0
 32
0.0
 13
1.0
 23
0.0
 33
0.0
 40
0.0
 40
0.0
 40
0.0
 40
0.0
 40
0.2500000000000004
 40
0.2500000000000004
 40
0.5000000000000006
 40
0.5000000000000006
 40
1.0
 40
1.0
 40
1.0
 40
1.0
 10
131.7208898159754
 20
96.52195558889346
 30
0.0
 10
131.6906979742582
 20
96.54490611799129
 30
0.0
 10
131.6573390048436
 20
96.56487559201545
 30
0.0
 10
131.584201720263
 20
96.59197672564096
 30
0.0
 10
131.5439598476091
 20
96.59857746628641
 30
0.0
 10
131.4262540706405
 20
96.59060859177973
 30
0.0
 10
131.3558435928612
 20
96.55034813361186
 30
0.0
 10
131.2993544183929
 20
96.50245539433374
 30
0.0
  0
SPLINE
  5
11B
330
1F
100
AcDbEntity
  8
0
  6
HIDDEN
 62
     7
370
     0
100
AcDbSpline
210
0.0
220
0.0
230
1.0
 70
     8
 71
     3
 72
    12
 73
     8
 74
     0
 42
0.00000001
 43
0.00000001
 12
1.0
 22
0.0
 32
0.0
 13
1.0
 23
0.0
 33
0.0
 40
0.0
 40
0.0
 40
0.0
 40
0.0
 40
0.2499999999999976
 40
0.2499999999999976
 40
0.4999999999999952
 40
0.4999999999999952
 40
1.0
 40
1.0
 40
1.0
 40
1.0
 10
131.2993544183924
 20
96.50245539433395
 30
0.0
 10
131.2112004806547
 20
96.42771658647986
 30
0.0
 10
131.150847056026
 20
96.33673608599747
 30
0.0
 10
131.0445850979591
 20
96.14782226324488
 30
0.0
 10
131.0023529313971
 20
96.05131780370426
 30
0.0
 10
130.8912822360799
 20
95.76055004953713
 30
0.0
 10
130.8383454596531
 20
95.56488323499337
 30
0.0
 10
130.7945463612843
 20
95.37081674992706
 30
0.0
  0
SPLINE
  5
11C
330
1F
100
AcDbEntity
  8
0
  6
HIDDEN
 62
     7
370
     0
100
AcDbSpline
210
0.0
220
0.0
230
1.0
 70
     8
 71
     3
 72
    12
 73
     8
 74
     0
 42
0.00000001
 43
0.00000001
 12
1.0
 22
0.0
 32
0.0
 13
1.0
 23
0.0
 33
0.0
 40
0.0
 40
0.0
 40
0.0
 40
0.0
 40
0.4999999999999991
 40
0.4999999999999991
 40
0.7499999999999996
 40
0.7499999999999996
 40
1.0
 40
1.0
 40
1.0
 40
1.0
 10
130.7945463612843
 20
90.184642421166
 30
0.0
 10
130.8382929021209
 20
90.15804825052483
 30
0.0
 10
130.8911772573524
 20
90.1382880251991
 30
0.0
 10
131.0027443446886
 20
90.11783703497002
 30
0.0
 10
131.0453279412316
 20
90.11257681031358
 30
0.0
 10
131.1502446683133
 20
90.10469401639092
 30
0.0
 10
131.2117782761582
 20
90.10212989121177
 30
0.0
 10
131.2993544183843
 20
90.09992967369215
 30
0.0
  0
LINE
  5
11D
330
1F
100
AcDbEntity
  8
0
  6
HIDDEN
 62
     7
370
     0
100
AcDbLine
 10
131.9158667048
 20
89.4149030973
 30
0.0
 11
131.9158667048
 21
89.8951288879
 31
0.0
  0
LINE
  5
11E
330
1F
100
AcDbEntity
  8
0
  6
HIDDEN
 62
     7
370
     0
100
AcDbLine
 10
131.9158667048
 20
134.0143178644
 30
0.0
 11
131.9158667048
 21
134.494543655
 31
0.0
  0
SPLINE
  5
11F
330
1F
100
AcDbEntity
  8
0
  6
HIDDEN
 62
     7
370
     0
100
AcDbSpline
210
0.0
220
0.0
230
1.0
 70
     8
 71
     3
 72
    12
 73
     8
 74
     0
 42
0.00000001
 43
0.00000001
 12
1.0
 22
0.0
 32
0.0
 13
1.0
 23
0.0
 33
0.0
 40
0.0
 40
0.0
 40
0.0
 40
0.0
 40
0.25
 40
0.25
 40
0.5
 40
0.5
 40
1.0
 40
1.0
 40
1.0
 40
1.0
 10
131.2993544183922
 20
133.8095170786441
 30
0.0
 10
131.2106697585359
 20
133.8072890113031
 30
0.0
 10
131.1507513428124
 20
133.8047872272727
 30
0.0
 10
131.0450921154917
 20
133.7968557914367
 30
0.0
 10
131.0024508773768
 20
133.7915636365399
 30
0.0
 10
130.8912615352743
 20
133.7711586960527
 30
0.0
 10
130.8383348531533
 20
133.7514240044659
 30
0.0
 10
130.7945463612843
 20
133.7248043311702
 30
0.0
  0
SPLINE
  5
120
330
1F
100
AcDbEntity
  8
0
  6
HIDDEN
 62
     7
370
     0
100
AcDbSpline
210
0.0
220
0.0
230
1.0
 70
     8
 71
     3
 72
    12
 73
     8
 74
     0
 42
0.00000001
 43
0.00000001
 12
1.0
 22
0.0
 32
0.0
 13
1.0
 23
0.0
 33
0.0
 40
0.0
 40
0.0
 40
0.0
 40
0.0
 40
0.5000000000000013
 40
0.5000000000000013
 40
0.750000000000002
 40
0.750000000000002
 40
1.0
 40
1.0
 40
1.0
 40
1.0
 10
130.7945463612827
 20
128.5386300024094
 30
0.0
 10
130.8383078375815
 20
128.3447302144473
 30
0.0
 10
130.8912141532345
 20
128.1488738505104
 30
0.0
 10
131.0029253508819
 20
127.8567317040114
 30
0.0
 10
131.0454447944683
 20
127.7600137673135
 30
0.0
 10
131.1505681370357
 20
127.573289330889
 30
0.0
 10
131.2121341007534
 20
127.4809386226193
 30
0.0
 10
131.2993544183961
 20
127.4069913579996
 30
0.0
  0
LINE
  5
121
330
1F
100
AcDbEntity
  8
0
  6
HIDDEN
 62
     7
370
     0
100
AcDbLine
 10
154.1158667048
 20
87.9547233762
 30
0.0
 11
154.1158667048
 21
135.9547233762
 31
0.0
  0
LINE
  5
122
330
1F
100
AcDbEntity
  8
0
  6
HIDDEN
 62
     7
370
     0
100
AcDbLine
 10
131.9158667048
 20
89.8951288879
 30
0.0
 11
131.9158667048
 21
104.9328360504
 31
0.0
  0
LINE
  5
123
330
1F
100
AcDbEntity
  8
0
  6
HIDDEN
 62
     7
370
     0
100
AcDbLine
 10
131.9158667048
 20
118.9766107019
 30
0.0
 11
131.9158667048
 21
134.0143178644
 31
0.0
  0
SPLINE
  5
124
330
1F
100
AcDbEntity
  8
0
  6
HIDDEN
 62
     7
370
     0
100
AcDbSpline
210
0.0
220
0.0
230
1.0
 70
     8
 71
     3
 72
    68
 73
    64
 74
     0
 42
0.00000001
 43
0.00000001
 12
1.0
 22
0.0
 32
0.0
 13
1.0
 23
0.0
 33
0.0
 40
-0.0625000000000002
 40
-0.0625000000000002
 40
0.0
 40
0.0
 40
0.03125
 40
0.03125
 40
0.0625
 40
0.0625
 40
0.09375
 40
0.09375
 40
0.125
 40
0.125
 40
0.15625
 40
0.15625
 40
0.1874999999999999
 40
0.1874999999999999
 40
0.2187499999999999
 40
0.2187499999999999
 40
0.2499999999999999
 40
0.2499999999999999
 40
0.2812499999999999
 40
0.2812499999999999
 40
0.3124999999999999
 40
0.3124999999999999
 40
0.3437499999999999
 40
0.3437499999999999
 40
0.3749999999999999
 40
0.3749999999999999
 40
0.4062499999999999
 40
0.4062499999999999
 40
0.4374999999999999
 40
0.4374999999999999
 40
0.4687499999999999
 40
0.4687499999999999
 40
0.4999999999999999
 40
0.4999999999999999
 40
0.5312499999999999
 40
0.5312499999999999
 40
0.5624999999999999
 40
0.5624999999999999
 40
0.5937499999999999
 40
0.5937499999999999
 40
0.6249999999999999
 40
0.6249999999999999
 40
0.6562499999999999
 40
0.6562499999999999
 40
0.6874999999999999
 40
0.6874999999999999
 40
0.7187499999999999
 40
0.7187499999999999
 40
0.7499999999999998
 40
0.7499999999999998
 40
0.7812499999999998
 40
0.7812499999999998
 40
0.8124999999999998
 40
0.8124999999999998
 40
0.8437499999999998
 40
0.8437499999999998
 40
0.8749999999999998
 40
0.8749999999999998
 40
0.9062499999999998
 40
0.9062499999999998
 40
0.9374999999999998
 40
0.9374999999999998
 40
1.0
 40
1.0
 40
1.03125
 40
1.03125
 10
229.7851961921673
 20
99.86809245021475
 30
0.0
 10
230.2812019611823
 20
99.86809245021475
 30
0.0
 10
230.4437417036049
 20
99.88112382296781
 30
0.0
 10
230.7634689133023
 20
99.93227433055937
 30
0.0
 10
230.9223254898876
 20
99.97102565875792
 30
0.0
 10
231.2249973881165
 20
100.0724481795714
 30
0.0
 10
231.3685252037127
 20
100.1346371502152
 30
0.0
 10
231.6401569826599
 20
100.2822654637082
 30
0.0
 10
231.768641614983
 20
100.3684268164253
 30
0.0
 10
231.9989983709434
 20
100.5577421848347
 30
0.0
 10
232.1024258709063
 20
100.6615640719618
 30
0.0
 10
232.2851909474616
 20
100.8886581814484
 30
0.0
 10
232.362757323183
 20
101.010119943857
 30
0.0
 10
232.4874925161792
 20
101.263364007263
 30
0.0
 10
232.5355728595219
 20
101.3970241978004
 30
0.0
 10
232.5998563683333
 20
101.6726153170033
 30
0.0
 10
232.6157756958898
 20
101.8121778674882
 30
0.0
 10
232.615956943076
 20
102.0948646836169
 30
0.0
 10
232.5996929137954
 20
102.2394861025321
 30
0.0
 10
232.5358526959963
 20
102.5211783833851
 30
0.0
 10
232.4886191514092
 20
102.6590726735121
 30
0.0
 10
232.3633139851809
 20
102.9286130390637
 30
0.0
 10
232.2851062075557
 20
103.0595858861025
 30
0.0
 10
232.1042543250576
 20
103.3034604208174
 30
0.0
 10
232.0008821613978
 20
103.417971371334
 30
0.0
 10
231.7677456255206
 20
103.6303767174182
 30
0.0
 10
231.6416555885363
 20
103.7249540633157
 30
0.0
 10
231.3711134522131
 20
103.8912216809374
 30
0.0
 10
231.2249184916261
 20
103.9634995317517
 30
0.0
 10
230.9222931426763
 20
104.0794888631506
 30
0.0
 10
230.7664706441273
 20
104.1234004220275
 30
0.0
 10
230.4458374718487
 20
104.1828952842407
 30
0.0
 10
230.2800322912407
 20
104.1981623685777
 30
0.0
 10
229.9535784751309
 20
104.1982762422663
 30
0.0
 10
229.7912388728423
 20
104.1836153312812
 30
0.0
 10
229.4683768851877
 20
104.1242426006291
 30
0.0
 10
229.3106361747624
 20
104.0798042412512
 30
0.0
 10
229.00968384209
 20
103.9647401915004
 30
0.0
 10
228.8641643641502
 20
103.8932085401042
 30
0.0
 10
228.5909611082596
 20
103.7256852621087
 30
0.0
 10
228.4651304603283
 20
103.6311404299788
 30
0.0
 10
228.2344506367525
 20
103.4215223978227
 30
0.0
 10
228.1288331588134
 20
103.3050984663791
 30
0.0
 10
227.9472887714894
 20
103.0606638130177
 30
0.0
 10
227.8703703144959
 20
102.9321432179101
 30
0.0
 10
227.7445425193714
 20
102.6627935958773
 30
0.0
 10
227.6962822500857
 20
102.5223782515428
 30
0.0
 10
227.6324074812874
 20
102.2416704514052
 30
0.0
 10
227.6160173208217
 20
102.0998618472652
 30
0.0
 10
227.6157181358612
 20
101.8135032545598
 30
0.0
 10
227.631807504776
 20
101.6737418903515
 30
0.0
 10
227.6951229116906
 20
101.4006585374992
 30
0.0
 10
227.7431365791813
 20
101.2659336644262
 30
0.0
 10
227.8683921181912
 20
101.0109823101136
 30
0.0
 10
227.9450625658396
 20
100.8909107689178
 30
0.0
 10
228.1262723500544
 20
100.6649318576006
 30
0.0
 10
228.2316353961417
 20
100.5587772354968
 30
0.0
 10
228.461817014456
 20
100.3693444981074
 30
0.0
 10
228.5874823543318
 20
100.2847580255026
 30
0.0
 10
228.8606105887771
 20
100.1357879047891
 30
0.0
 10
229.005730323497
 20
100.0729122453034
 30
0.0
 10
229.4566805737501
 20
99.92142438896258
 30
0.0
 10
229.7851961921673
 20
99.86809245021475
 30
0.0
 10
230.2812019611823
 20
99.86809245021475
 30
0.0
  0
CIRCLE
  5
125
330
1F
100
AcDbEntity
  8
0
  6
HIDDEN
 62
     7
370
     0
100
AcDbCircle
 10
116.6158667048
 20
111.9547233762
 30
0.0
 40
4.050000000000011
  0
LINE
  5
126
330
1F
100
AcDbEntity
  8
0
  6
HIDDEN
 62
     7
370
     0
100
AcDbLine
 10
95.6460951445
 20
127.2676744191
 30
0.0
 11
95.6460951445
 21
96.6417723333
 31
0.0
  0
LINE
  5
127
330
1F
100
AcDbEntity
  8
0
  6
HIDDEN
 62
     7
370
     0
100
AcDbLine
 10
94.1158667048
 20
95.7582945317
 30
0.0
 11
94.1158667048
 21
128.1511522206
 31
0.0
  0
LINE
  5
128
330
1F
100
AcDbEntity
  8
0
  6
HIDDEN
 62
     7
370
     0
100
AcDbLine
 10
102.1460951445
 20
126.3011335377
 30
0.0
 11
102.1460951445
 21
97.6083132147
 31
0.0
  0
LINE
  5
129
330
1F
100
AcDbEntity
  8
0
  6
HIDDEN
 62
     7
370
     0
100
AcDbLine
 10
107.9460951445
 20
125.9547233762
 30
0.0
 11
107.9460951445
 21
97.9547233762
 31
0.0
  0
LINE
  5
12A
330
1F
100
AcDbEntity
  8
0
  6
HIDDEN
 62
     7
370
     0
100
AcDbLine
 10
100.5460951445
 20
125.9547233762
 30
0.0
 11
100.5460951445
 21
97.9547233762
 31
0.0
  0
LINE
  5
12B
330
1F
100
AcDbEntity
  8
0
  6
HIDDEN
 62
     7
370
     0
100
AcDbLine
 10
101.5460951445
 20
125.9547233762
 30
0.0
 11
101.5460951445
 21
97.9547233762
 31
0.0
  0
SPLINE
  5
12C
330
1F
100
AcDbEntity
  8
0
  6
HIDDEN
 62
     7
370
     0
100
AcDbSpline
210
0.0
220
0.0
230
1.0
 70
     8
 71
     3
 72
    10
 73
     6
 74
     0
 42
0.00000001
 43
0.00000001
 12
1.0
 22
0.0
 32
0.0
 13
1.0
 23
0.0
 33
0.0
 40
0.0
 40
0.0
 40
0.0
 40
0.0
 40
0.5
 40
0.5
 40
1.0
 40
1.0
 40
1.0
 40
1.0
 10
120.6158667048441
 20
112.5891522531906
 30
0.0
 10
120.6490141229205
 20
112.3801616521826
 30
0.0
 10
120.6658729682821
 20
112.168599186161
 30
0.0
 10
120.6658604379345
 20
111.7406104201934
 30
0.0
 10
120.6489454801941
 20
111.5288523157777
 30
0.0
 10
120.6158667048441
 20
111.3202944991456
 30
0.0
  0
LINE
  5
12D
330
1F
100
AcDbEntity
  8
0
  6
HIDDEN
 62
     7
370
     0
100
AcDbLine
 10
121.1158667048
 20
125.4547233417
 30
0.0
 11
121.1158667048
 21
98.4547233762
 31
0.0
  0
SPLINE
  5
12E
330
1F
100
AcDbEntity
  8
0
  6
HIDDEN
 62
     7
370
     0
100
AcDbSpline
210
0.0
220
0.0
230
1.0
 70
     8
 71
     3
 72
    10
 73
     6
 74
     0
 42
0.00000001
 43
0.00000001
 12
1.0
 22
0.0
 32
0.0
 13
1.0
 23
0.0
 33
0.0
 40
0.0
 40
0.0
 40
0.0
 40
0.0
 40
0.5
 40
0.5
 40
1.0
 40
1.0
 40
1.0
 40
1.0
 10
120.6158667048441
 20
111.3202944991456
 30
0.0
 10
120.6490556673178
 20
111.5295470327281
 30
0.0
 10
120.6657564435724
 20
111.7403637936271
 30
0.0
 10
120.6659758840171
 20
112.1648960748303
 30
0.0
 10
120.6490961686237
 20
112.3796443636029
 30
0.0
 10
120.6158667048441
 20
112.5891522531906
 30
0.0
  0
SPLINE
  5
12F
330
1F
100
AcDbEntity
  8
0
  6
HIDDEN
 62
     7
370
     0
100
AcDbSpline
210
0.0
220
0.0
230
1.0
 70
     8
 71
     3
 72
    14
 73
    10
 74
     0
 42
0.00000001
 43
0.00000001
 12
1.0
 22
0.0
 32
0.0
 13
1.0
 23
0.0
 33
0.0
 40
0.0
 40
0.0
 40
0.0
 40
0.0
 40
0.2499999999999998
 40
0.2499999999999998
 40
0.4999999999999996
 40
0.4999999999999996
 40
0.7499999999999998
 40
0.7499999999999998
 40
1.0
 40
1.0
 40
1.0
 40
1.0
 10
232.1158667048439
 20
113.5009404667023
 30
0.0
 10
232.1477319575638
 20
113.5678980251291
 30
0.0
 10
232.1726991866445
 20
113.6427834357556
 30
0.0
 10
232.2069079251197
 20
113.8091333174416
 30
0.0
 10
232.2158546603079
 20
113.9008943169988
 30
0.0
 10
232.2158787243391
 20
114.0917273154653
 30
0.0
 10
232.2070459279047
 20
114.1930977940687
 30
0.0
 10
232.1727758169196
 20
114.4000785753333
 30
0.0
 10
232.1477475850222
 20
114.504508383809
 30
0.0
 10
232.1158667048439
 20
114.6099941173431
 30
0.0
  0
SPLINE
  5
130
330
1F
100
AcDbEntity
  8
0
  6
HIDDEN
 62
     7
370
     0
100
AcDbSpline
210
0.0
220
0.0
230
1.0
 70
     8
 71
     3
 72
    50
 73
    46
 74
     0
 42
0.00000001
 43
0.00000001
 12
1.0
 22
0.0
 32
0.0
 13
1.0
 23
0.0
 33
0.0
 40
0.0
 40
0.0
 40
0.0
 40
0.0
 40
0.0625000000000041
 40
0.0625000000000041
 40
0.1250000000000082
 40
0.1250000000000082
 40
0.1562500000000089
 40
0.1562500000000089
 40
0.1875000000000095
 40
0.1875000000000095
 40
0.2187500000000102
 40
0.2187500000000102
 40
0.2500000000000108
 40
0.2500000000000108
 40
0.2812500000000114
 40
0.2812500000000114
 40
0.312500000000012
 40
0.312500000000012
 40
0.3750000000000104
 40
0.3750000000000104
 40
0.4375000000000088
 40
0.4375000000000088
 40
0.5000000000000071
 40
0.5000000000000071
 40
0.5312500000000063
 40
0.5312500000000063
 40
0.5625000000000054
 40
0.5625000000000054
 40
0.5937500000000047
 40
0.5937500000000047
 40
0.6250000000000038
 40
0.6250000000000038
 40
0.6875000000000022
 40
0.6875000000000022
 40
0.7500000000000007
 40
0.7500000000000007
 40
0.8124999999999992
 40
0.8124999999999992
 40
0.8437499999999983
 40
0.8437499999999983
 40
0.8749999999999976
 40
0.8749999999999976
 40
0.9374999999999988
 40
0.9374999999999988
 40
1.0
 40
1.0
 40
1.0
 40
1.0
 10
232.115866704844
 20
114.6099941173431
 30
0.0
 10
232.0390032874919
 20
114.7996160127049
 30
0.0
 10
231.923058894445
 20
114.960687736831
 30
0.0
 10
231.6202205382644
 20
115.2349608827566
 30
0.0
 10
231.438647770603
 20
115.3429390336898
 30
0.0
 10
231.1260795408482
 20
115.46729072205
 30
0.0
 10
231.017102961073
 20
115.501640786656
 30
0.0
 10
230.7890593135133
 20
115.5577369616969
 30
0.0
 10
230.6687336292206
 20
115.5796286681362
 30
0.0
 10
230.422407301961
 20
115.6099954962328
 30
0.0
 10
230.2981851960059
 20
115.6184095728027
 30
0.0
 10
230.0476067148585
 20
115.6223714266643
 30
0.0
 10
229.9196986827481
 20
115.6177324674232
 30
0.0
 10
229.6708320523333
 20
115.5951949972797
 30
0.0
 10
229.5498435700227
 20
115.5775073812057
 30
0.0
 10
229.3142967719107
 20
115.5286879237766
 30
0.0
 10
229.19998628029
 20
115.497415324338
 30
0.0
 10
228.878599176542
 20
115.3850380306684
 30
0.0
 10
228.685969123628
 20
115.2828401875703
 30
0.0
 10
228.3679112131934
 20
115.026915500325
 30
0.0
 10
228.2386020484085
 20
114.8693341259815
 30
0.0
 10
228.0639983206129
 20
114.5099311422275
 30
0.0
 10
228.0165791911257
 20
114.3020128961277
 30
0.0
 10
228.0155228606788
 20
113.9762296397485
 30
0.0
 10
228.0266188458455
 20
113.8632304615335
 30
0.0
 10
228.0712013668544
 20
113.6372802284013
 30
0.0
 10
228.1042554455418
 20
113.5250474042266
 30
0.0
 10
228.191114401487
 20
113.3024570509761
 30
0.0
 10
228.245401167165
 20
113.1916405475782
 30
0.0
 10
228.3705883329039
 20
112.9806877818045
 30
0.0
 10
228.4417977389673
 20
112.8794846579932
 30
0.0
 10
228.6816095068802
 20
112.5897981888053
 30
0.0
 10
228.8703784426321
 20
112.4216979667044
 30
0.0
 10
229.3015946623142
 20
112.1536571583818
 30
0.0
 10
229.5352430253494
 20
112.0592230775997
 30
0.0
 10
230.0356941655234
 20
111.9678886319024
 30
0.0
 10
230.2902793642639
 20
111.974621521047
 30
0.0
 10
230.6615520825656
 20
112.0616289214916
 30
0.0
 10
230.7807709019791
 20
112.1025919643774
 30
0.0
 10
231.0109786528173
 20
112.2061233837164
 30
0.0
 10
231.1226141079614
 20
112.2693171941621
 30
0.0
 10
231.4348681077974
 20
112.4828229385721
 30
0.0
 10
231.6195966267328
 20
112.6612104378096
 30
0.0
 10
231.9201108987697
 20
113.0552665172976
 30
0.0
 10
232.0388999860429
 20
113.2744258871929
 30
0.0
 10
232.1158667048439
 20
113.5009404667023
 30
0.0
  0
SPLINE
  5
131
330
1F
100
AcDbEntity
  8
0
  6
HIDDEN
 62
     7
370
     0
100
AcDbSpline
210
0.0
220
0.0
230
1.0
 70
     8
 71
     3
 72
    10
 73
     6
 74
     0
 42
0.00000001
 43
0.00000001
 12
1.0
 22
0.0
 32
0.0
 13
1.0
 23
0.0
 33
0.0
 40
0.0
 40
0.0
 40
0.0
 40
0.0
 40
0.5
 40
0.5
 40
1.0
 40
1.0
 40
1.0
 40
1.0
 10
229.5704176138236
 20
120.4643331390664
 30
0.0
 10
229.5194796459679
 20
120.3167416073741
 30
0.0
 10
229.4929708542947
 20
120.1726786152343
 30
0.0
 10
229.5020143587906
 20
119.9000398423662
 30
0.0
 10
229.5382972133621
 20
119.771826314726
 30
0.0
 10
229.5981186127005
 20
119.6508556732085
 30
0.0
  0
SPLINE
  5
132
330
1F
100
AcDbEntity
  8
0
  6
HIDDEN
 62
     7
370
     0
100
AcDbSpline
210
0.0
220
0.0
230
1.0
 70
     8
 71
     3
 72
    68
 73
    64
 74
     0
 42
0.00000001
 43
0.00000001
 12
1.0
 22
0.0
 32
0.0
 13
1.0
 23
0.0
 33
0.0
 40
0.0
 40
0.0
 40
0.0
 40
0.0
 40
0.0312499999999992
 40
0.0312499999999992
 40
0.0624999999999983
 40
0.0624999999999983
 40
0.0937499999999975
 40
0.0937499999999975
 40
0.1249999999999966
 40
0.1249999999999966
 40
0.1874999999999975
 40
0.1874999999999975
 40
0.2187499999999968
 40
0.2187499999999968
 40
0.2499999999999962
 40
0.2499999999999962
 40
0.2812499999999956
 40
0.2812499999999956
 40
0.312499999999995
 40
0.312499999999995
 40
0.3437499999999944
 40
0.3437499999999944
 40
0.3749999999999937
 40
0.3749999999999937
 40
0.4374999999999932
 40
0.4374999999999932
 40
0.4687499999999928
 40
0.4687499999999928
 40
0.4843749999999928
 40
0.4843749999999928
 40
0.4999999999999927
 40
0.4999999999999927
 40
0.5156249999999926
 40
0.5156249999999926
 40
0.5312499999999925
 40
0.5312499999999925
 40
0.5624999999999932
 40
0.5624999999999932
 40
0.5937499999999939
 40
0.5937499999999939
 40
0.6249999999999947
 40
0.6249999999999947
 40
0.6562499999999953
 40
0.6562499999999953
 40
0.6874999999999961
 40
0.6874999999999961
 40
0.7187499999999968
 40
0.7187499999999968
 40
0.7499999999999977
 40
0.7499999999999977
 40
0.7812499999999987
 40
0.7812499999999987
 40
0.8124999999999996
 40
0.8124999999999996
 40
0.8750000000000012
 40
0.8750000000000012
 40
0.906250000000001
 40
0.906250000000001
 40
0.9375000000000007
 40
0.9375000000000007
 40
0.9687500000000004
 40
0.9687500000000004
 40
1.0
 40
1.0
 40
1.0
 40
1.0
 10
229.5981186127003
 20
119.6508556732073
 30
0.0
 10
229.7164295169916
 20
119.641796314821
 30
0.0
 10
229.8301893717961
 20
119.6188527509334
 30
0.0
 10
230.0573201441229
 20
119.5566335727445
 30
0.0
 10
230.1703980510786
 20
119.5169461156114
 30
0.0
 10
230.3986182389187
 20
119.4224371981604
 30
0.0
 10
230.5146176520744
 20
119.3670021143387
 30
0.0
 10
230.7438114374958
 20
119.2431696697166
 30
0.0
 10
230.8573702974961
 20
119.174720873659
 30
0.0
 10
231.1957041040982
 20
118.9477909871271
 30
0.0
 10
231.4173487902077
 20
118.7673975443025
 30
0.0
 10
231.7068552065219
 20
118.4693045732074
 30
0.0
 10
231.7935402507866
 20
118.3683093898655
 30
0.0
 10
231.9465472305643
 20
118.1632865927249
 30
0.0
 10
232.0124494169681
 20
118.0591066853218
 30
0.0
 10
232.1150287253486
 20
117.8619373434503
 30
0.0
 10
232.1533403632021
 20
117.766048671764
 30
0.0
 10
232.2029526934679
 20
117.5898212059622
 30
0.0
 10
232.214891093248
 20
117.5081193123786
 30
0.0
 10
232.2167265036573
 20
117.3602835752795
 30
0.0
 10
232.2068261385079
 20
117.2949253174522
 30
0.0
 10
232.1700025915343
 20
117.1788684195734
 30
0.0
 10
232.1427037270919
 20
117.1278778945007
 30
0.0
 10
232.0419100379274
 20
116.9995524703931
 30
0.0
 10
231.9488624218316
 20
116.9435387615779
 30
0.0
 10
231.8002045327795
 20
116.9189476158958
 30
0.0
 10
231.7493529317875
 20
116.9208014778868
 30
0.0
 10
231.6885008425604
 20
116.9542552402476
 30
0.0
 10
231.6714400054437
 20
116.9705935727212
 30
0.0
 10
231.6497810744009
 20
117.018435245616
 30
0.0
 10
231.6458139855839
 20
117.0503300608759
 30
0.0
 10
231.6537492410443
 20
117.1268179724611
 30
0.0
 10
231.6655907669354
 20
117.172437729154
 30
0.0
 10
231.6980673681485
 20
117.26930039675
 30
0.0
 10
231.7185052864385
 20
117.3208701904533
 30
0.0
 10
231.7853169812565
 20
117.4824729428326
 30
0.0
 10
231.8354825749917
 20
117.5964450742989
 30
0.0
 10
231.9310356069118
 20
117.83171488425
 30
0.0
 10
231.9771544616591
 20
117.9536467729251
 30
0.0
 10
232.0606517134724
 20
118.2066238690828
 30
0.0
 10
232.0979742594826
 20
118.3375659610392
 30
0.0
 10
232.1585264401049
 20
118.6020606954305
 30
0.0
 10
232.1821269864028
 20
118.7364761908498
 30
0.0
 10
232.212400127686
 20
119.0104486157296
 30
0.0
 10
232.2189896597715
 20
119.1515941661124
 30
0.0
 10
232.2098676709141
 20
119.4294161947479
 30
0.0
 10
232.1944934299091
 20
119.5665961854033
 30
0.0
 10
232.1366516547294
 20
119.8367105017798
 30
0.0
 10
232.0951452126099
 20
119.9644462599506
 30
0.0
 10
231.9855584554203
 20
120.2015737637663
 30
0.0
 10
231.9159504107585
 20
120.3124558205309
 30
0.0
 10
231.7570127028153
 20
120.5011654373231
 30
0.0
 10
231.6658755019734
 20
120.5817444359086
 30
0.0
 10
231.3720742238769
 20
120.7744217011421
 30
0.0
 10
231.150045438438
 20
120.837792765767
 30
0.0
 10
230.8149328486885
 20
120.8580527606697
 30
0.0
 10
230.7008392659485
 20
120.8525794454482
 30
0.0
 10
230.4741196273061
 20
120.8211043834043
 30
0.0
 10
230.3618630804868
 20
120.7953602527622
 30
0.0
 10
230.1378536166619
 20
120.7271439298802
 30
0.0
 10
230.0261791695216
 20
120.6846381247053
 30
0.0
 10
229.8002377158565
 20
120.5845203906688
 30
0.0
 10
229.6868855598566
 20
120.5271080307119
 30
0.0
 10
229.5704176138252
 20
120.4643331390646
 30
0.0
  0
LWPOLYLINE
  5
133
330
1F
100
AcDbEntity
  8
0
  6
HIDDEN
 62
     7
370
     0
100
AcDbPolyline
 90
       21
 70
   128
 43
0.0
 10
230.1158667048
 20
117.6360700282
 10
230.764802393
 20
117.7250812587
 10
231.3502157347
 20
117.9834019108
 10
231.814802393
 20
118.3857457592
 10
232.1130853891
 20
118.8927285848
 10
232.2158667048
 20
119.4547233762
 10
232.1130853891
 20
120.0167181676
 10
231.814802393
 20
120.5237009931
 10
231.3502157347
 20
120.9260448415
 10
230.764802393
 20
121.1843654936
 10
230.1158667048
 20
121.2733767241
 10
229.4669310167
 20
121.1843654936
 10
228.881517675
 20
120.9260448415
 10
228.4169310167
 20
120.5237009931
 10
228.1186480206
 20
120.0167181676
 10
228.0158667048
 20
119.4547233762
 10
228.1186480206
 20
118.8927285848
 10
228.4169310167
 20
118.3857457592
 10
228.881517675
 20
117.9834019108
 10
229.4669310167
 20
117.7250812587
 10
230.1158667048
 20
117.6360700282
  0
SPLINE
  5
134
330
1F
100
AcDbEntity
  8
0
  6
HIDDEN
 62
     7
370
     0
100
AcDbSpline
210
0.0
220
0.0
230
1.0
 70
     8
 71
     3
 72
    68
 73
    64
 74
     0
 42
0.00000001
 43
0.00000001
 12
1.0
 22
0.0
 32
0.0
 13
1.0
 23
0.0
 33
0.0
 40
0.0
 40
0.0
 40
0.0
 40
0.0
 40
0.0312499999999996
 40
0.0312499999999996
 40
0.0624999999999993
 40
0.0624999999999993
 40
0.093749999999999
 40
0.093749999999999
 40
0.1249999999999986
 40
0.1249999999999986
 40
0.1562499999999983
 40
0.1562499999999983
 40
0.187499999999998
 40
0.187499999999998
 40
0.2187499999999977
 40
0.2187499999999977
 40
0.2499999999999974
 40
0.2499999999999974
 40
0.2812499999999975
 40
0.2812499999999975
 40
0.3124999999999977
 40
0.3124999999999977
 40
0.3437499999999978
 40
0.3437499999999978
 40
0.3749999999999979
 40
0.3749999999999979
 40
0.4062499999999981
 40
0.4062499999999981
 40
0.4374999999999982
 40
0.4374999999999982
 40
0.4687499999999983
 40
0.4687499999999983
 40
0.4999999999999984
 40
0.4999999999999984
 40
0.5624999999999987
 40
0.5624999999999987
 40
0.5937499999999989
 40
0.5937499999999989
 40
0.624999999999999
 40
0.624999999999999
 40
0.6562499999999991
 40
0.6562499999999991
 40
0.6874999999999991
 40
0.6874999999999991
 40
0.7187499999999992
 40
0.7187499999999992
 40
0.7499999999999993
 40
0.7499999999999993
 40
0.7812499999999994
 40
0.7812499999999994
 40
0.8124999999999994
 40
0.8124999999999994
 40
0.8437499999999996
 40
0.8437499999999996
 40
0.8749999999999997
 40
0.8749999999999997
 40
0.9062499999999998
 40
0.9062499999999998
 40
0.9374999999999998
 40
0.9374999999999998
 40
0.9687499999999999
 40
0.9687499999999999
 40
1.0
 40
1.0
 40
1.0
 40
1.0
 10
120.615866704844
 20
111.3202944991456
 30
0.0
 10
120.5758517524943
 20
111.06800489633
 30
0.0
 10
120.5129099510831
 20
110.8240060459542
 30
0.0
 10
120.343523289011
 20
110.3515876568917
 30
0.0
 10
120.2358297264255
 20
110.1211742707318
 30
0.0
 10
119.9805449578876
 20
109.6864696749347
 30
0.0
 10
119.8345057274154
 20
109.4838277082833
 30
0.0
 10
119.5062842908561
 20
109.1068384175255
 30
0.0
 10
119.3220370030811
 20
108.9311804639481
 30
0.0
 10
118.9290768357729
 20
108.6209224950019
 30
0.0
 10
118.7197822388137
 20
108.484977287352
 30
0.0
 10
118.2748968118764
 20
108.2515871919462
 30
0.0
 10
118.0380992193774
 20
108.1543405855318
 30
0.0
 10
117.5573641504581
 20
108.0076691276604
 30
0.0
 10
117.3111210572753
 20
107.956776782718
 30
0.0
 10
116.8064042772959
 20
107.9012494324825
 30
0.0
 10
116.5502095763594
 20
107.8974245454125
 30
0.0
 10
116.0478308271593
 20
107.9368483280569
 30
0.0
 10
115.7985811279757
 20
107.9798757772682
 30
0.0
 10
115.307053330497
 20
108.1135807467194
 30
0.0
 10
115.0717577292711
 20
108.2022505926247
 30
0.0
 10
114.6208438346089
 20
108.4212819564021
 30
0.0
 10
114.4032314841456
 20
108.5532835220856
 30
0.0
 10
114.0000243145973
 20
108.8526408030885
 30
0.0
 10
113.8144128221628
 20
109.0192597305264
 30
0.0
 10
113.4744247517604
 20
109.3863711559539
 30
0.0
 10
113.3193518209374
 20
109.5886749014946
 30
0.0
 10
113.0530087442741
 20
110.0127555810886
 30
0.0
 10
112.9400246435573
 20
110.2359151865548
 30
0.0
 10
112.7551693866264
 20
110.705270428149
 30
0.0
 10
112.684028625123
 20
110.9514809314845
 30
0.0
 10
112.5900682138348
 20
111.4460067578556
 30
0.0
 10
112.5660588838785
 20
111.6969377529476
 30
0.0
 10
112.5654857632059
 20
112.4611831325038
 30
0.0
 10
112.6608848745245
 20
112.9634074345549
 30
0.0
 10
112.9387486667256
 20
113.6709719408272
 30
0.0
 10
113.0519106228062
 20
113.894678204568
 30
0.0
 10
113.31804180485
 20
114.3189481158886
 30
0.0
 10
113.4728695790498
 20
114.5212000779447
 30
0.0
 10
113.8130506848376
 20
114.8889108193128
 30
0.0
 10
113.9985531417873
 20
115.0555276945622
 30
0.0
 10
114.4008469428467
 20
115.3545770733576
 30
0.0
 10
114.6188549910987
 20
115.487033781386
 30
0.0
 10
115.069453358249
 20
115.7062401820907
 30
0.0
 10
115.3040023571297
 20
115.7947253120943
 30
0.0
 10
115.7924623506821
 20
115.928211542033
 30
0.0
 10
116.0447277463959
 20
115.9721532545267
 30
0.0
 10
116.5469083845562
 20
116.0119622510002
 30
0.0
 10
116.7993905019079
 20
116.0086180381867
 30
0.0
 10
117.3072555449774
 20
115.9534387181962
 30
0.0
 10
117.5548010181612
 20
115.9023927897268
 30
0.0
 10
118.0357685556319
 20
115.7559824014912
 30
0.0
 10
118.2717284207371
 20
115.6593361967176
 30
0.0
 10
118.7182988702587
 20
115.4254312524046
 30
0.0
 10
118.9279437328322
 20
115.289306238578
 30
0.0
 10
119.3209304395867
 20
114.979251974249
 30
0.0
 10
119.5053263434017
 20
114.8035947266738
 30
0.0
 10
119.8338767612621
 20
114.4264548040094
 30
0.0
 10
119.9798188577852
 20
114.2239885987396
 30
0.0
 10
120.2347042129874
 20
113.7904123006062
 30
0.0
 10
120.3430155257957
 20
113.5591204570247
 30
0.0
 10
120.5128505032127
 20
113.0857607768915
 30
0.0
 10
120.5758458643497
 20
112.8414789800707
 30
0.0
 10
120.615866704844
 20
112.5891522531906
 30
0.0
  0
SPLINE
  5
135
330
1F
100
AcDbEntity
  8
0
  6
HIDDEN
 62
     7
370
     0
100
AcDbSpline
210
0.0
220
0.0
230
1.0
 70
     8
 71
     3
 72
    68
 73
    64
 74
     0
 42
0.00000001
 43
0.00000001
 12
1.0
 22
0.0
 32
0.0
 13
1.0
 23
0.0
 33
0.0
 40
0.0
 40
0.0
 40
0.0
 40
0.0
 40
0.0312500000000001
 40
0.0312500000000001
 40
0.0625000000000002
 40
0.0625000000000002
 40
0.0937500000000003
 40
0.0937500000000003
 40
0.1250000000000005
 40
0.1250000000000005
 40
0.1562500000000006
 40
0.1562500000000006
 40
0.1875000000000007
 40
0.1875000000000007
 40
0.2187500000000009
 40
0.2187500000000009
 40
0.250000000000001
 40
0.250000000000001
 40
0.2812500000000009
 40
0.2812500000000009
 40
0.3125000000000009
 40
0.3125000000000009
 40
0.3437500000000008
 40
0.3437500000000008
 40
0.3750000000000007
 40
0.3750000000000007
 40
0.4062500000000007
 40
0.4062500000000007
 40
0.4375000000000006
 40
0.4375000000000006
 40
0.4687500000000006
 40
0.4687500000000006
 40
0.5000000000000004
 40
0.5000000000000004
 40
0.5625000000000003
 40
0.5625000000000003
 40
0.5937500000000003
 40
0.5937500000000003
 40
0.6250000000000003
 40
0.6250000000000003
 40
0.6562500000000003
 40
0.6562500000000003
 40
0.6875000000000003
 40
0.6875000000000003
 40
0.7187500000000003
 40
0.7187500000000003
 40
0.7500000000000002
 40
0.7500000000000002
 40
0.7812500000000002
 40
0.7812500000000002
 40
0.8125000000000002
 40
0.8125000000000002
 40
0.8437500000000002
 40
0.8437500000000002
 40
0.8750000000000002
 40
0.8750000000000002
 40
0.9062500000000002
 40
0.9062500000000002
 40
0.9375000000000002
 40
0.9375000000000002
 40
0.9687500000000001
 40
0.9687500000000001
 40
1.0
 40
1.0
 40
1.0
 40
1.0
 10
120.615866704844
 20
112.5891522531906
 30
0.0
 10
120.5758517524943
 20
112.8414418560062
 30
0.0
 10
120.5129099510831
 20
113.085440706382
 30
0.0
 10
120.343523289011
 20
113.5578590954445
 30
0.0
 10
120.2358297264255
 20
113.7882724816045
 30
0.0
 10
119.9805449578876
 20
114.2229770774016
 30
0.0
 10
119.8345057274154
 20
114.4256190440529
 30
0.0
 10
119.5062842908561
 20
114.8026083348107
 30
0.0
 10
119.3220370030811
 20
114.9782662883881
 30
0.0
 10
118.9290768357728
 20
115.2885242573343
 30
0.0
 10
118.7197822388137
 20
115.4244694649843
 30
0.0
 10
118.2748968118763
 20
115.6578595603901
 30
0.0
 10
118.0380992193773
 20
115.7551061668045
 30
0.0
 10
117.557364150458
 20
115.9017776246759
 30
0.0
 10
117.3111210572752
 20
115.9526699696183
 30
0.0
 10
116.8064042772958
 20
116.0081973198537
 30
0.0
 10
116.5502095763593
 20
116.0120222069237
 30
0.0
 10
116.0478308271592
 20
115.9725984242793
 30
0.0
 10
115.7985811279756
 20
115.929570975068
 30
0.0
 10
115.3070533304969
 20
115.7958660056167
 30
0.0
 10
115.071757729271
 20
115.7071961597115
 30
0.0
 10
114.6208438346089
 20
115.4881647959341
 30
0.0
 10
114.4032314841456
 20
115.3561632302506
 30
0.0
 10
114.0000243145973
 20
115.0568059492477
 30
0.0
 10
113.8144128221628
 20
114.8901870218098
 30
0.0
 10
113.4744247517603
 20
114.5230755963823
 30
0.0
 10
113.3193518209374
 20
114.3207718508416
 30
0.0
 10
113.0530087442741
 20
113.8966911712476
 30
0.0
 10
112.9400246435573
 20
113.6735315657814
 30
0.0
 10
112.7551693866264
 20
113.2041763241872
 30
0.0
 10
112.684028625123
 20
112.9579658208518
 30
0.0
 10
112.5900682138348
 20
112.4634399944806
 30
0.0
 10
112.5660588838784
 20
112.2125089993886
 30
0.0
 10
112.5654857632059
 20
111.4482636198324
 30
0.0
 10
112.6608848745245
 20
110.9460393177814
 30
0.0
 10
112.9387486667256
 20
110.238474811509
 30
0.0
 10
113.0519106228062
 20
110.0147685477682
 30
0.0
 10
113.31804180485
 20
109.5904986364476
 30
0.0
 10
113.4728695790497
 20
109.3882466743916
 30
0.0
 10
113.8130506848376
 20
109.0205359330234
 30
0.0
 10
113.9985531417873
 20
108.853919057774
 30
0.0
 10
114.4008469428466
 20
108.5548696789786
 30
0.0
 10
114.6188549910986
 20
108.4224129709502
 30
0.0
 10
115.0694533582489
 20
108.2032065702455
 30
0.0
 10
115.3040023571297
 20
108.1147214402419
 30
0.0
 10
115.792462350682
 20
107.9812352103033
 30
0.0
 10
116.0447277463959
 20
107.9372934978095
 30
0.0
 10
116.5469083845561
 20
107.897484501336
 30
0.0
 10
116.7993905019078
 20
107.9008287141495
 30
0.0
 10
117.3072555449773
 20
107.95600803414
 30
0.0
 10
117.5548010181611
 20
108.0070539626094
 30
0.0
 10
118.0357685556319
 20
108.153464350845
 30
0.0
 10
118.2717284207371
 20
108.2501105556186
 30
0.0
 10
118.7182988702587
 20
108.4840154999317
 30
0.0
 10
118.9279437328322
 20
108.6201405137582
 30
0.0
 10
119.3209304395867
 20
108.9301947780873
 30
0.0
 10
119.5053263434017
 20
109.1058520256624
 30
0.0
 10
119.8338767612621
 20
109.4829919483268
 30
0.0
 10
119.9798188577852
 20
109.6854581535967
 30
0.0
 10
120.2347042129874
 20
110.11903445173
 30
0.0
 10
120.3430155257957
 20
110.3503262953116
 30
0.0
 10
120.5128505032127
 20
110.8236859754448
 30
0.0
 10
120.5758458643497
 20
111.0679677722656
 30
0.0
 10
120.615866704844
 20
111.3202944991456
 30
0.0
  0
ARC
  5
136
330
1F
100
AcDbEntity
  8
0
  6
HIDDEN
 62
     7
370
     0
100
AcDbCircle
 10
230.538136474
 20
120.0900760759
 30
0.0
 40
1.037568379261578
100
AcDbArc
 50
158.8564443108
 51
205.0441856202
  0
LINE
  5
137
330
1F
100
AcDbEntity
  8
0
  6
HIDDEN
 62
     7
370
     0
100
AcDbLine
 10
122.3658667048
 20
120.9547233762
 30
0.0
 11
122.3658667048
 21
102.9547233762
 31
0.0
  0
LINE
  5
138
330
1F
100
AcDbEntity
  8
0
  6
HIDDEN
 62
     7
370
     0
100
AcDbLine
 10
121.1158667048
 20
101.7047233762
 30
0.0
 11
121.1158667048
 21
122.1797548913
 31
0.0
  0
LINE
  5
139
330
1F
100
AcDbEntity
  8
0
  6
HIDDEN
 62
     7
370
     0
100
AcDbLine
 10
148.1158667048
 20
120.9547233762
 30
0.0
 11
148.1158667048
 21
102.9547233762
 31
0.0
  0
LINE
  5
13A
330
1F
100
AcDbEntity
  8
0
  6
HIDDEN
 62
     7
370
     0
100
AcDbLine
 10
150.9699546452
 20
116.2047233762
 30
0.0
 11
150.9699546452
 21
107.7047233762
 31
0.0
  0
SPLINE
  5
13B
330
1F
100
AcDbEntity
  8
0
  6
HIDDEN
 62
     7
370
     0
100
AcDbSpline
210
0.0
220
0.0
230
1.0
 70
     8
 71
     3
 72
    50
 73
    46
 74
     0
 42
0.00000001
 43
0.00000001
 12
1.0
 22
0.0
 32
0.0
 13
1.0
 23
0.0
 33
0.0
 40
0.0
 40
0.0
 40
0.0
 40
0.0
 40
0.0624999999999954
 40
0.0624999999999954
 40
0.1249999999999908
 40
0.1249999999999908
 40
0.1562499999999899
 40
0.1562499999999899
 40
0.187499999999989
 40
0.187499999999989
 40
0.2187499999999881
 40
0.2187499999999881
 40
0.2499999999999872
 40
0.2499999999999872
 40
0.2812499999999863
 40
0.2812499999999863
 40
0.3124999999999855
 40
0.3124999999999855
 40
0.3749999999999866
 40
0.3749999999999866
 40
0.4374999999999877
 40
0.4374999999999877
 40
0.4999999999999889
 40
0.4999999999999889
 40
0.5312499999999896
 40
0.5312499999999896
 40
0.5624999999999902
 40
0.5624999999999902
 40
0.593749999999991
 40
0.593749999999991
 40
0.6249999999999917
 40
0.6249999999999917
 40
0.687499999999993
 40
0.687499999999993
 40
0.7499999999999943
 40
0.7499999999999943
 40
0.8124999999999958
 40
0.8124999999999958
 40
0.8437499999999964
 40
0.8437499999999964
 40
0.8749999999999971
 40
0.8749999999999971
 40
0.9374999999999986
 40
0.9374999999999986
 40
1.0
 40
1.0
 40
1.0
 40
1.0
 10
232.115866704844
 20
109.2994526349931
 30
0.0
 10
232.0390032874919
 20
109.1098307396312
 30
0.0
 10
231.923058894445
 20
108.9487590155052
 30
0.0
 10
231.6202205382644
 20
108.6744858695796
 30
0.0
 10
231.438647770603
 20
108.5665077186464
 30
0.0
 10
231.1260795408481
 20
108.4421560302862
 30
0.0
 10
231.017102961073
 20
108.4078059656802
 30
0.0
 10
230.7890593135133
 20
108.3517097906393
 30
0.0
 10
230.6687336292206
 20
108.3298180842
 30
0.0
 10
230.4224073019609
 20
108.2994512561035
 30
0.0
 10
230.2981851960059
 20
108.2910371795335
 30
0.0
 10
230.0476067148585
 20
108.2870753256719
 30
0.0
 10
229.9196986827481
 20
108.291714284913
 30
0.0
 10
229.6708320523333
 20
108.3142517550565
 30
0.0
 10
229.5498435700227
 20
108.3319393711305
 30
0.0
 10
229.3142967719107
 20
108.3807588285596
 30
0.0
 10
229.19998628029
 20
108.4120314279982
 30
0.0
 10
228.878599176542
 20
108.5244087216679
 30
0.0
 10
228.685969123628
 20
108.6266065647659
 30
0.0
 10
228.3679112131934
 20
108.8825312520112
 30
0.0
 10
228.2386020484085
 20
109.0401126263547
 30
0.0
 10
228.0639983206129
 20
109.3995156101087
 30
0.0
 10
228.0165791911257
 20
109.6074338562084
 30
0.0
 10
228.0155228606787
 20
109.9332171125877
 30
0.0
 10
228.0266188458455
 20
110.0462162908026
 30
0.0
 10
228.0712013668544
 20
110.2721665239349
 30
0.0
 10
228.1042554455418
 20
110.3843993481096
 30
0.0
 10
228.191114401487
 20
110.6069897013601
 30
0.0
 10
228.2454011671649
 20
110.717806204758
 30
0.0
 10
228.3705883329039
 20
110.9287589705317
 30
0.0
 10
228.4417977389673
 20
111.029962094343
 30
0.0
 10
228.6816095068802
 20
111.3196485635309
 30
0.0
 10
228.8703784426321
 20
111.4877487856319
 30
0.0
 10
229.3015946623143
 20
111.7557895939544
 30
0.0
 10
229.5352430253493
 20
111.8502236747365
 30
0.0
 10
230.0356941655233
 20
111.9415581204338
 30
0.0
 10
230.2902793642639
 20
111.9348252312892
 30
0.0
 10
230.6615520825656
 20
111.8478178308446
 30
0.0
 10
230.7807709019791
 20
111.8068547879588
 30
0.0
 10
231.0109786528172
 20
111.7033233686198
 30
0.0
 10
231.1226141079613
 20
111.6401295581741
 30
0.0
 10
231.4348681077974
 20
111.4266238137641
 30
0.0
 10
231.6195966267329
 20
111.2482363145266
 30
0.0
 10
231.9201108987696
 20
110.8541802350387
 30
0.0
 10
232.0388999860429
 20
110.6350208651434
 30
0.0
 10
232.115866704844
 20
110.4085062856339
 30
0.0
  0
LINE
  5
13C
330
1F
100
AcDbEntity
  8
0
  6
HIDDEN
 62
     7
370
     0
100
AcDbLine
 10
232.1158667048
 20
113.5009404667
 30
0.0
 11
232.1158667048
 21
107.7047233762
 31
0.0
  0
LINE
  5
13D
330
1F
100
AcDbEntity
  8
0
  6
HIDDEN
 62
     7
370
     0
100
AcDbLine
 10
232.1158667048
 20
110.4085062856
 30
0.0
 11
232.1158667048
 21
116.2047233762
 31
0.0
  0
SPLINE
  5
13E
330
1F
100
AcDbEntity
  8
0
  6
HIDDEN
 62
     7
370
     0
100
AcDbSpline
210
0.0
220
0.0
230
1.0
 70
     8
 71
     3
 72
    14
 73
    10
 74
     0
 42
0.00000001
 43
0.00000001
 12
1.0
 22
0.0
 32
0.0
 13
1.0
 23
0.0
 33
0.0
 40
0.0
 40
0.0
 40
0.0
 40
0.0
 40
0.25
 40
0.25
 40
0.5
 40
0.5
 40
0.75
 40
0.75
 40
1.0
 40
1.0
 40
1.0
 40
1.0
 10
232.1158667048439
 20
110.4085062856338
 30
0.0
 10
232.1477319575638
 20
110.3415487272071
 30
0.0
 10
232.1726991866446
 20
110.2666633165806
 30
0.0
 10
232.2069079251197
 20
110.1003134348946
 30
0.0
 10
232.2158546603079
 20
110.0085524353374
 30
0.0
 10
232.2158787243391
 20
109.8177194368709
 30
0.0
 10
232.2070459279047
 20
109.7163489582675
 30
0.0
 10
232.1727758169197
 20
109.5093681770029
 30
0.0
 10
232.1477475850222
 20
109.4049383685272
 30
0.0
 10
232.1158667048439
 20
109.2994526349931
 30
0.0
  0
LINE
  5
13F
330
1F
100
AcDbEntity
  8
0
  6
HIDDEN
 62
     7
370
     0
100
AcDbLine
 10
261.1845488138
 20
135.4986797655
 30
0.0
 11
261.2317393634
 21
135.5135226438
 31
0.0
  0
LINE
  5
140
330
1F
100
AcDbEntity
  8
0
  6
HIDDEN
 62
     7
370
     0
100
AcDbLine
 10
261.2317393634
 20
135.5135226438
 30
0.0
 11
258.9119013871
 21
128.1738592857
 31
0.0
  0
LINE
  5
141
330
1F
100
AcDbEntity
  8
0
  6
HIDDEN
 62
     7
370
     0
100
AcDbLine
 10
258.9119013871
 20
128.1738592857
 30
0.0
 11
258.8616704548
 21
128.1580601135
 31
0.0
  0
LINE
  5
142
330
1F
100
AcDbEntity
  8
0
  6
HIDDEN
 62
     7
370
     0
100
AcDbLine
 10
258.354261107
 20
124.8261425142
 30
0.0
 11
268.6860515945
 21
128.0758081894
 31
0.0
  0
LINE
  5
143
330
1F
100
AcDbEntity
  8
0
  6
HIDDEN
 62
     7
370
     0
100
AcDbLine
 10
246.6158667048
 20
91.4547233762
 30
0.0
 11
246.6158667048
 21
111.9547233762
 31
0.0
  0
SPLINE
  5
144
330
1F
100
AcDbEntity
  8
0
  6
HIDDEN
 62
     7
370
     0
100
AcDbSpline
210
0.0
220
0.0
230
1.0
 70
     8
 71
     3
 72
    10
 73
     6
 74
     0
 42
0.00000001
 43
0.00000001
 12
1.0
 22
0.0
 32
0.0
 13
1.0
 23
0.0
 33
0.0
 40
0.0
 40
0.0
 40
0.0
 40
0.0
 40
0.5
 40
0.5
 40
1.0
 40
1.0
 40
1.0
 40
1.0
 10
246.6158667048439
 20
111.9547233761681
 30
0.0
 10
246.615866704844
 20
112.5379818118975
 30
0.0
 10
246.6408038810701
 20
113.121703418268
 30
0.0
 10
246.740246327932
 20
114.2900672840075
 30
0.0
 10
246.8152266348422
 20
114.8767289761932
 30
0.0
 10
246.9125010479294
 20
115.4547233761681
 30
0.0
  0
SPLINE
  5
145
330
1F
100
AcDbEntity
  8
0
  6
HIDDEN
 62
     7
370
     0
100
AcDbSpline
210
0.0
220
0.0
230
1.0
 70
     8
 71
     3
 72
    16
 73
    12
 74
     0
 42
0.00000001
 43
0.00000001
 12
1.0
 22
0.0
 32
0.0
 13
1.0
 23
0.0
 33
0.0
 40
0.0
 40
0.0
 40
0.0
 40
0.0
 40
0.25
 40
0.25
 40
0.375
 40
0.375
 40
0.5
 40
0.5
 40
0.75
 40
0.75
 40
1.0
 40
1.0
 40
1.0
 40
1.0
 10
250.0547403382076
 20
129.7567370580565
 30
0.0
 10
249.768854349069
 20
128.7258458328967
 30
0.0
 10
249.4848576926419
 20
127.642374586107
 30
0.0
 10
249.0623011743097
 20
125.9360539742593
 30
0.0
 10
248.9215016964665
 20
125.3513627042903
 30
0.0
 10
248.6454491491831
 20
124.1718182806433
 30
0.0
 10
248.5098618330881
 20
123.5757448095402
 30
0.0
 10
248.110598679365
 20
121.7689081622046
 30
0.0
 10
247.8543501349582
 20
120.5396430245645
 30
0.0
 10
247.3643061699122
 20
118.0304721375712
 30
0.0
 10
247.1295000762919
 20
116.744108932071
 30
0.0
 10
246.9125010479293
 20
115.4547233761681
 30
0.0
  0
SPLINE
  5
146
330
1F
100
AcDbEntity
  8
0
  6
HIDDEN
 62
     7
370
     0
100
AcDbSpline
210
0.0
220
0.0
230
1.0
 70
     8
 71
     3
 72
     8
 73
     4
 74
     0
 42
0.00000001
 43
0.00000001
 12
1.0
 22
0.0
 32
0.0
 13
1.0
 23
0.0
 33
0.0
 40
0.0
 40
0.0
 40
0.0
 40
0.0
 40
1.0
 40
1.0
 40
1.0
 40
1.0
 10
250.0547403382078
 20
129.7567370580566
 30
0.0
 10
249.612935779472
 20
129.8935562871069
 30
0.0
 10
249.2028884770754
 20
130.0464477884079
 30
0.0
 10
248.8307557914526
 20
130.2113075204913
 30
0.0
  0
SPLINE
  5
147
330
1F
100
AcDbEntity
  8
0
  6
HIDDEN
 62
     7
370
     0
100
AcDbSpline
210
0.0
220
0.0
230
1.0
 70
     8
 71
     3
 72
    15
 73
    11
 74
     0
 42
0.00000001
 43
0.00000001
 12
1.0
 22
0.0
 32
0.0
 13
1.0
 23
0.0
 33
0.0
 40
0.0
 40
0.0
 40
0.0
 40
0.0
 40
0.1204400715621083
 40
0.2214912834589657
 40
0.3979869672118869
 40
0.5696450417968799
 40
0.6541686729999366
 40
0.7423386473020043
 40
0.9196089790816137
 40
1.0
 40
1.0
 40
1.0
 40
1.0
 10
248.8307557914526
 20
130.2113075204912
 30
0.0
 10
248.6136913512811
 20
130.3111534993495
 30
0.0
 10
248.214506255961
 20
130.4947719057379
 30
0.0
 10
247.6065335564407
 20
130.83269191179
 30
0.0
 10
247.056014330903
 20
131.2224694723725
 30
0.0
 10
246.7372673118535
 20
131.6067866352613
 30
0.0
 10
246.6213979531048
 20
131.9151457175557
 30
0.0
 10
246.602779978545
 20
132.2292432973918
 30
0.0
 10
246.7230482657597
 20
132.5397849262606
 30
0.0
 10
246.9363389589459
 20
132.7674051118325
 30
0.0
 10
247.0028862171905
 20
132.8384232094562
 30
0.0
  0
ELLIPSE
  5
148
330
1F
100
AcDbEntity
  8
0
  6
HIDDEN
 62
     7
370
     0
100
AcDbEllipse
 10
263.4217369499
 20
111.9547233762
 30
0.0
 11
6.697318860126301
 21
20.48986112711594
 31
0.0
210
0.0
220
0.0
230
1.0
 40
0.0962569477
 41
1.60224851077458
 42
3.173044837569576
  0
LINE
  5
149
330
1F
100
AcDbEntity
  8
0
  6
HIDDEN
 62
     7
370
     0
100
AcDbLine
 10
258.136346975
 20
124.8849224542
 30
0.0
 11
268.4736491192
 21
128.1363217149
 31
0.0
  0
LINE
  5
14A
330
1F
100
AcDbEntity
  8
0
  6
HIDDEN
 62
     7
370
     0
100
AcDbLine
 10
268.6860515945
 20
128.0758081894
 30
0.0
 11
268.4736491192
 21
128.1363217149
 31
0.0
  0
LINE
  5
14B
330
1F
100
AcDbEntity
  8
0
  6
HIDDEN
 62
     7
370
     0
100
AcDbLine
 10
258.9119013871
 20
128.1738592857
 30
0.0
 11
259.1243038623
 21
127.8106026642
 31
0.0
  0
LINE
  5
14C
330
1F
100
AcDbEntity
  8
0
  6
HIDDEN
 62
     7
370
     0
100
AcDbLine
 10
258.7107358534
 20
127.6805228136
 30
0.0
 11
259.1243038623
 21
127.8106026642
 31
0.0
  0
LINE
  5
14D
330
1F
100
AcDbEntity
  8
0
  6
HIDDEN
 62
     7
370
     0
100
AcDbLine
 10
261.4486687578
 20
135.1645886014
 30
0.0
 11
261.2317393634
 21
135.5135226438
 31
0.0
  0
LINE
  5
14E
330
1F
100
AcDbEntity
  8
0
  6
HIDDEN
 62
     7
370
     0
100
AcDbLine
 10
261.4486687578
 20
135.1645886014
 30
0.0
 11
259.1243038623
 21
127.8106026642
 31
0.0
  0
ARC
  5
14F
330
1F
100
AcDbEntity
  8
0
  6
HIDDEN
 62
     7
370
     0
100
AcDbCircle
 10
257.1170562839
 20
125.7693845648
 30
0.0
 40
1.249354382766732
100
AcDbArc
 50
177.6941619229
 51
287.5361006462
  0
LINE
  5
150
330
1F
100
AcDbEntity
  8
0
  6
HIDDEN
 62
     7
370
     0
100
AcDbLine
 10
268.4736491192
 20
128.1363217149
 30
0.0
 11
268.2592169185
 21
127.9642414862
 31
0.0
  0
LINE
  5
151
330
1F
100
AcDbEntity
  8
0
  6
HIDDEN
 62
     7
370
     0
100
AcDbLine
 10
259.1243038623
 20
127.8106026642
 30
0.0
 11
259.1243038623
 21
127.7059679535
 31
0.0
  0
LINE
  5
152
330
1F
100
AcDbEntity
  8
0
  6
HIDDEN
 62
     7
370
     0
100
AcDbLine
 10
259.1243038623
 20
127.7059679535
 30
0.0
 11
258.6740133927
 21
127.5643377603
 31
0.0
  0
LINE
  5
153
330
1F
100
AcDbEntity
  8
0
  6
HIDDEN
 62
     7
370
     0
100
AcDbLine
 10
261.3841877515
 20
134.8559444365
 30
0.0
 11
259.1243038623
 21
127.7059679535
 31
0.0
  0
LINE
  5
154
330
1F
100
AcDbEntity
  8
0
  6
HIDDEN
 62
     7
370
     0
100
AcDbLine
 10
261.3841877515
 20
134.8559444365
 30
0.0
 11
261.4486687578
 21
135.1645886014
 31
0.0
  0
LWPOLYLINE
  5
155
330
1F
100
AcDbEntity
  8
0
  6
HIDDEN
 62
     7
370
     0
100
AcDbPolyline
 90
       21
 70
   128
 43
0.0
 10
230.1158667048
 20
103.256242152
 10
230.764802393
 20
103.3452533825
 10
231.3502157347
 20
103.6035740346
 10
231.814802393
 20
104.005917883
 10
232.1130853891
 20
104.5129007086
 10
232.2158667048
 20
105.0748955
 10
232.1130853891
 20
105.6368902914
 10
231.814802393
 20
106.1438731169
 10
231.3502157347
 20
106.5462169653
 10
230.764802393
 20
106.8045376174
 10
230.1158667048
 20
106.8935488479
 10
229.4669310167
 20
106.8045376174
 10
228.881517675
 20
106.5462169653
 10
228.4169310167
 20
106.1438731169
 10
228.1186480206
 20
105.6368902914
 10
228.0158667048
 20
105.0748955
 10
228.1186480206
 20
104.5129007086
 10
228.4169310167
 20
104.005917883
 10
228.881517675
 20
103.6035740346
 10
229.4669310167
 20
103.3452533825
 10
230.1158667048
 20
103.256242152
  0
CIRCLE
  5
156
330
1F
100
AcDbEntity
  8
0
  6
HIDDEN
 62
     7
370
     0
100
AcDbCircle
 10
264.9434777189
 20
131.5280570369
 30
0.0
 40
2.398233161631136
  0
LINE
  5
157
330
1F
100
AcDbEntity
  8
0
  6
HIDDEN
 62
     7
370
     0
100
AcDbLine
 10
271.2826503666
 20
137.5299887155
 30
0.0
 11
270.9474933698
 21
137.8638979996
 31
0.0
  0
LINE
  5
158
330
1F
100
AcDbEntity
  8
0
  6
HIDDEN
 62
     7
370
     0
100
AcDbLine
 10
257.4934950716
 20
124.5780910607
 30
0.0
 11
268.2592169185
 21
127.9642414862
 31
0.0
  0
LINE
  5
159
330
1F
100
AcDbEntity
  8
0
  6
HIDDEN
 62
     7
370
     0
100
AcDbLine
 10
261.3841877515
 20
134.8559444365
 30
0.0
 11
270.9474933698
 21
137.8638979996
 31
0.0
  0
LINE
  5
15A
330
1F
100
AcDbEntity
  8
0
  6
HIDDEN
 62
     7
370
     0
100
AcDbLine
 10
271.2826503666
 20
137.5299887155
 30
0.0
 11
268.2592169185
 21
127.9642414862
 31
0.0
  0
CIRCLE
  5
15B
330
1F
100
AcDbEntity
  8
0
  6
HIDDEN
 62
     7
370
     0
100
AcDbCircle
 10
264.9418915081
 20
131.4740253399
 30
0.0
 40
1.647738383336427
  0
LINE
  5
15C
330
1F
100
AcDbEntity
  8
0
  6
HIDDEN
 62
     7
370
     0
100
AcDbLine
 10
270.9474933698
 20
137.8638979996
 30
0.0
 11
270.020061441
 21
136.6133384302
 31
0.0
  0
LINE
  5
15D
330
1F
100
AcDbEntity
  8
0
  6
HIDDEN
 62
     7
370
     0
100
AcDbLine
 10
270.1917197951
 20
136.0589657504
 30
0.0
 11
271.2826503666
 21
137.5299887155
 31
0.0
  0
CIRCLE
  5
15E
330
1F
100
AcDbEntity
  8
0
  6
HIDDEN
 62
     7
370
     0
100
AcDbCircle
 10
264.9436591316
 20
130.8641003152
 30
0.0
 40
1.648789907218251
  0
LINE
  5
15F
330
1F
100
AcDbEntity
  8
0
  6
HIDDEN
 62
     7
370
     0
100
AcDbLine
 10
95.6158667048
 20
133.1130867725
 30
0.0
 11
95.6158667048
 21
127.0587762049
 31
0.0
  0
LINE
  5
160
330
1F
100
AcDbEntity
  8
0
  6
HIDDEN
 62
     7
370
     0
100
AcDbLine
 10
94.1158667048
 20
132.2470613687
 30
0.0
 11
94.1158667048
 21
126.625763503
 31
0.0
  0
LINE
  5
161
330
1F
100
AcDbEntity
  8
0
  6
HIDDEN
 62
     7
370
     0
100
AcDbLine
 10
129.9158667048
 20
133.9748221607
 30
0.0
 11
129.9158667048
 21
127.489643899
 31
0.0
  0
SPLINE
  5
162
330
1F
100
AcDbEntity
  8
0
  6
HIDDEN
 62
     7
370
     0
100
AcDbSpline
210
0.0
220
0.0
230
1.0
 70
     8
 71
     3
 72
    16
 73
    12
 74
     0
 42
0.00000001
 43
0.00000001
 12
1.0
 22
0.0
 32
0.0
 13
1.0
 23
0.0
 33
0.0
 40
0.0
 40
0.0
 40
0.0
 40
0.0
 40
0.2500000000000001
 40
0.2500000000000001
 40
0.3750000000000001
 40
0.3750000000000001
 40
0.5000000000000001
 40
0.5000000000000001
 40
0.75
 40
0.75
 40
1.0
 40
1.0
 40
1.0
 40
1.0
 10
130.7945463612843
 20
133.7248043311702
 30
0.0
 10
130.6333138837998
 20
133.6267887181155
 30
0.0
 10
130.5128340441602
 20
133.4400526864395
 30
0.0
 10
130.3904535268469
 20
133.0270128788806
 30
0.0
 10
130.3594758664494
 20
132.8670123796477
 30
0.0
 10
130.3178621288214
 20
132.5002067285565
 30
0.0
 10
130.3076262158887
 20
132.2968695759325
 30
0.0
 10
130.3074378188326
 20
131.6295823093058
 30
0.0
 10
130.3475825214702
 20
131.1087678454178
 30
0.0
 10
130.5117362764097
 20
129.9114088299401
 30
0.0
 10
130.6332879268193
 20
129.2531391756441
 30
0.0
 10
130.7945463612843
 20
128.5386300024092
 30
0.0
  0
SPLINE
  5
163
330
1F
100
AcDbEntity
  8
0
  6
HIDDEN
 62
     7
370
     0
100
AcDbSpline
210
0.0
220
0.0
230
1.0
 70
     8
 71
     3
 72
    16
 73
    12
 74
     0
 42
0.00000001
 43
0.00000001
 12
1.0
 22
0.0
 32
0.0
 13
1.0
 23
0.0
 33
0.0
 40
0.0
 40
0.0
 40
0.0
 40
0.0
 40
0.2499999999999996
 40
0.2499999999999996
 40
0.3749999999999994
 40
0.3749999999999994
 40
0.4999999999999993
 40
0.4999999999999993
 40
0.7499999999999997
 40
0.7499999999999997
 40
1.0
 40
1.0
 40
1.0
 40
1.0
 10
130.7945463612843
 20
95.37081674992706
 30
0.0
 10
130.6333138837998
 20
94.65642258773495
 30
0.0
 10
130.5128340441602
 20
94.00308032502627
 30
0.0
 10
130.3904535268469
 20
93.11482508322239
 30
0.0
 10
130.3594758664494
 20
92.83414454687055
 30
0.0
 10
130.3178621288215
 20
92.30511055703056
 30
0.0
 10
130.3076262158887
 20
92.06178957845209
 30
0.0
 10
130.3074378188326
 20
91.39376688793888
 30
0.0
 10
130.3475825214702
 20
91.03008597851941
 30
0.0
 10
130.5117362764097
 20
90.4701951059711
 30
0.0
 10
130.6332879268193
 20
90.28267381385396
 30
0.0
 10
130.7945463612843
 20
90.184642421166
 30
0.0
  0
LINE
  5
164
330
1F
100
AcDbEntity
  8
0
  6
HIDDEN
 62
     7
370
     0
100
AcDbLine
 10
129.9158667048
 20
96.4198028533
 30
0.0
 11
129.9158667048
 21
89.9346245916
 31
0.0
  0
LINE
  5
165
330
1F
100
AcDbEntity
  8
0
  6
HIDDEN
 62
     7
370
     0
100
AcDbLine
 10
95.6158667048
 20
96.8506705474
 30
0.0
 11
95.6158667048
 21
90.7963599799
 31
0.0
  0
LINE
  5
166
330
1F
100
AcDbEntity
  8
0
  6
HIDDEN
 62
     7
370
     0
100
AcDbLine
 10
94.1158667048
 20
97.2836832493
 30
0.0
 11
94.1158667048
 21
91.6623853837
 31
0.0
  0
ELLIPSE
  5
167
330
1F
100
AcDbEntity
  8
0
  6
HIDDEN
 62
     7
370
     0
100
AcDbEllipse
 10
296.4247687644
 20
115.4547233762
 30
0.0
 11
26.15327782776723
 21
-24.36834782511482
 31
0.0
210
0.0
220
0.0
230
1.0
 40
0.2135193148
 41
3.478034781442821
 42
3.518384788999762
  0
ELLIPSE
  5
168
330
1F
100
AcDbEntity
  8
0
  6
HIDDEN
 62
     7
370
     0
100
AcDbEllipse
 10
195.5328647527
 20
115.4547233762
 30
0.0
 11
79.87403590516573
 21
24.61739821802047
 31
0.0
210
0.0
220
0.0
230
1.0
 40
0.054548757
 41
5.565666179333801
 42
5.896649262314386
  0
SPLINE
  5
169
330
1F
100
AcDbEntity
  8
0
  6
HIDDEN
 62
     7
370
     0
100
AcDbSpline
210
0.0
220
0.0
230
1.0
 70
     8
 71
     3
 72
    12
 73
     8
 74
     0
 42
0.00000001
 43
0.00000001
 12
1.0
 22
0.0
 32
0.0
 13
1.0
 23
0.0
 33
0.0
 40
0.0
 40
0.0
 40
0.0
 40
0.0
 40
0.5000000000000031
 40
0.5000000000000031
 40
0.7500000000000016
 40
0.7500000000000016
 40
1.0
 40
1.0
 40
1.0
 40
1.0
 10
256.596045879992
 20
131.1376146361696
 30
0.0
 10
255.5662315702374
 20
130.7483538543806
 30
0.0
 10
254.5047325648488
 20
130.4361627952115
 30
0.0
 10
252.8681634844347
 20
130.0881934991368
 30
0.0
 10
252.3152007688812
 20
129.9923106625108
 30
0.0
 10
251.1942799626165
 20
129.8424055165258
 30
0.0
 10
250.6246075801065
 20
129.7883879496077
 30
0.0
 10
250.0547403382078
 20
129.7567370580566
 30
0.0
  0
ELLIPSE
  5
16A
330
1F
100
AcDbEntity
  8
0
  6
HIDDEN
 62
     7
370
     0
100
AcDbEllipse
 10
265.0329863776
 20
115.4547233762
 30
0.0
 11
8.167462024544363
 21
24.98763552087306
 31
0.0
210
0.0
220
0.0
230
1.0
 40
0.0962569477
 41
0.6335139604149904
 42
1.602248510774579
  0
LWPOLYLINE
  5
16B
330
1F
100
AcDbEntity
  8
0
  6
HIDDEN
 62
     7
370
     0
100
AcDbPolyline
 90
       23
 70
   128
 43
0.0
 10
230.1158667048
 20
102.7896598667
 10
230.8201980969
 20
102.8773601514
 10
231.4674687485
 20
103.13335605
 10
232.0052406407
 20
103.5369082973
 10
232.3899466932
 20
104.0553234902
 10
232.5904203095
 20
104.646602713
 10
232.5904203095
 20
105.2628440394
 10
232.3899466932
 20
105.8541232621
 10
232.0052406407
 20
106.372538455
 10
231.4674687485
 20
106.7760907023
 10
230.8201980969
 20
107.0320866009
 10
230.1158667048
 20
107.1197868856
 10
229.4115353127
 20
107.0320866009
 10
228.7642646612
 20
106.7760907023
 10
228.226492769
 20
106.372538455
 10
227.8417867165
 20
105.8541232621
 10
227.6413131001
 20
105.2628440394
 10
227.6413131001
 20
104.646602713
 10
227.8417867165
 20
104.0553234902
 10
228.226492769
 20
103.5369082973
 10
228.7642646612
 20
103.13335605
 10
229.4115353127
 20
102.8773601514
 10
230.1158667048
 20
102.7896598667
  0
LINE
  5
16C
330
1F
100
AcDbEntity
  8
0
  6
HIDDEN
 62
     7
370
     0
100
AcDbLine
 10
94.1158667048
 20
126.625763503
 30
0.0
 11
94.1158667048
 21
114.8567107092
 31
0.0
  0
LINE
  5
16D
330
1F
100
AcDbEntity
  8
0
  6
HIDDEN
 62
     7
370
     0
100
AcDbLine
 10
94.1158667048
 20
109.0527360432
 30
0.0
 11
94.1158667048
 21
97.2836832493
 31
0.0
  0
LINE
  5
16E
330
1F
100
AcDbEntity
  8
0
  6
HIDDEN
 62
     7
370
     0
100
AcDbLine
 10
95.6158667048
 20
107.9895124793
 30
0.0
 11
95.6158667048
 21
96.8506705474
 31
0.0
  0
LINE
  5
16F
330
1F
100
AcDbEntity
  8
0
  6
HIDDEN
 62
     7
370
     0
100
AcDbLine
 10
95.6158667048
 20
127.0587762049
 30
0.0
 11
95.6158667048
 21
115.919934273
 31
0.0
  0
LINE
  5
170
330
1F
100
AcDbEntity
  8
0
  6
HIDDEN
 62
     7
370
     0
100
AcDbLine
 10
131.9158667048
 20
126.9924305387
 30
0.0
 11
131.9158667048
 21
96.9170162137
 31
0.0
  0
LINE
  5
171
330
1F
100
AcDbEntity
  8
0
  6
HIDDEN
 62
     7
370
     0
100
AcDbLine
 10
129.9158667048
 20
127.489643899
 30
0.0
 11
129.9158667048
 21
96.4198028533
 31
0.0
  0
SPLINE
  5
172
330
1F
100
AcDbEntity
  8
0
  6
HIDDEN
 62
     7
370
     0
100
AcDbSpline
210
0.0
220
0.0
230
1.0
 70
     8
 71
     3
 72
    24
 73
    20
 74
     0
 42
0.00000001
 43
0.00000001
 12
1.0
 22
0.0
 32
0.0
 13
1.0
 23
0.0
 33
0.0
 40
0.0
 40
0.0
 40
0.0
 40
0.0
 40
0.1249999999999999
 40
0.1249999999999999
 40
0.2499999999999999
 40
0.2499999999999999
 40
0.3749999999999998
 40
0.3749999999999998
 40
0.4374999999999998
 40
0.4374999999999998
 40
0.4999999999999999
 40
0.4999999999999999
 40
0.6249999999999999
 40
0.6249999999999999
 40
0.7499999999999999
 40
0.7499999999999999
 40
0.8749999999999999
 40
0.8749999999999999
 40
1.0
 40
1.0
 40
1.0
 40
1.0
 10
100.565866704844
 20
107.8687623230689
 30
0.0
 10
100.8036703371191
 20
108.167769425399
 30
0.0
 10
101.0337559983304
 20
108.4721072767178
 30
0.0
 10
101.4685093969402
 20
109.0978408141138
 30
0.0
 10
101.6734421892264
 20
109.4190655414413
 30
0.0
 10
102.0385441397251
 20
110.090991312174
 30
0.0
 10
102.2003445255166
 20
110.4463065440529
 30
0.0
 10
102.3722047300963
 20
110.9965377654053
 30
0.0
 10
102.4177899217564
 20
111.1829415503858
 30
0.0
 10
102.4802646613313
 20
111.5630760524821
 30
0.0
 10
102.4969358070797
 20
111.7587458447679
 30
0.0
 10
102.4974568502562
 20
112.3372262234424
 30
0.0
 10
102.4330145493695
 20
112.7151380624111
 30
0.0
 10
102.2031654559962
 20
113.4571060875096
 30
0.0
 10
102.0446447783331
 20
113.8058215476705
 30
0.0
 10
101.6804104484329
 20
114.4789139454037
 30
0.0
 10
101.4736742083693
 20
114.8038664326453
 30
0.0
 10
101.035736262629
 20
115.4347902431071
 30
0.0
 10
100.8044635353494
 20
115.7406799834477
 30
0.0
 10
100.5658667048441
 20
116.0406844292672
 30
0.0
  0
LINE
  5
173
330
1F
100
AcDbEntity
  8
0
  6
HIDDEN
 62
     7
370
     0
100
AcDbLine
 10
100.5658667048
 20
107.8687623231
 30
0.0
 11
100.5658667048
 21
116.0406844293
 31
0.0
  0
SPLINE
  5
174
330
1F
100
AcDbEntity
  8
0
  6
HIDDEN
 62
     7
370
     0
100
AcDbSpline
210
0.0
220
0.0
230
1.0
 70
     8
 71
     3
 72
     8
 73
     4
 74
     0
 42
0.00000001
 43
0.00000001
 12
1.0
 22
0.0
 32
0.0
 13
1.0
 23
0.0
 33
0.0
 40
0.0000249638557296
 40
0.0000249638557296
 40
0.0000249638557296
 40
0.0000249638557296
 40
0.0049776420541172
 40
0.0049776420541172
 40
0.0049776420541172
 40
0.0049776420541172
 10
95.61586670484402
 20
107.9895124793317
 30
0.0
 10
97.26584293935356
 20
107.9482332415635
 30
0.0
 10
98.91584425909858
 20
107.908011560324
 30
0.0
 10
100.565866704844
 20
107.868762323069
 30
0.0
  0
SPLINE
  5
175
330
1F
100
AcDbEntity
  8
0
  6
HIDDEN
 62
     7
370
     0
100
AcDbSpline
210
0.0
220
0.0
230
1.0
 70
     8
 71
     3
 72
     8
 73
     4
 74
     0
 42
0.00000001
 43
0.00000001
 12
1.0
 22
0.0
 32
0.0
 13
1.0
 23
0.0
 33
0.0
 40
0.0000249631533153
 40
0.0000249631533153
 40
0.0000249631533153
 40
0.0000249631533153
 40
0.0049776413517029
 40
0.0049776413517029
 40
0.0049776413517029
 40
0.0049776413517029
 10
100.565866704844
 20
116.0406844292673
 30
0.0
 10
98.91584425909858
 20
116.0014351920123
 30
0.0
 10
97.26584293935356
 20
115.9612135107728
 30
0.0
 10
95.61586670484402
 20
115.9199342730046
 30
0.0
  0
SPLINE
  5
176
330
1F
100
AcDbEntity
  8
0
  6
HIDDEN
 62
     7
370
     0
100
AcDbSpline
210
0.0
220
0.0
230
1.0
 70
     8
 71
     3
 72
     8
 73
     4
 74
     0
 42
0.00000001
 43
0.00000001
 12
1.0
 22
0.0
 32
0.0
 13
1.0
 23
0.0
 33
0.0
 40
0.0
 40
0.0
 40
0.0
 40
0.0
 40
1.0
 40
1.0
 40
1.0
 40
1.0
 10
94.11586670484188
 20
109.0527360431878
 30
0.0
 10
94.58262731621966
 20
108.6373727975648
 30
0.0
 10
95.08837486299973
 20
108.2927823682602
 30
0.0
 10
95.6158667048441
 20
107.9895124793317
 30
0.0
  0
SPLINE
  5
177
330
1F
100
AcDbEntity
  8
0
  6
HIDDEN
 62
     7
370
     0
100
AcDbSpline
210
0.0
220
0.0
230
1.0
 70
     8
 71
     3
 72
     8
 73
     4
 74
     0
 42
0.00000001
 43
0.00000001
 12
1.0
 22
0.0
 32
0.0
 13
1.0
 23
0.0
 33
0.0
 40
0.0
 40
0.0
 40
0.0
 40
0.0
 40
1.0
 40
1.0
 40
1.0
 40
1.0
 10
95.61586670484408
 20
115.9199342730046
 30
0.0
 10
95.08837486300057
 20
115.6166643840766
 30
0.0
 10
94.58262731622128
 20
115.2720739547726
 30
0.0
 10
94.1158667048441
 20
114.8567107091504
 30
0.0
  0
LINE
  5
178
330
1F
100
AcDbEntity
  8
0
  6
HIDDEN
 62
     7
370
     0
100
AcDbLine
 10
94.1158667048
 20
109.0527360432
 30
0.0
 11
94.1158667048
 21
114.8567107092
 31
0.0
  0
SPLINE
  5
179
330
1F
100
AcDbEntity
  8
0
  6
HIDDEN
 62
     7
370
     0
100
AcDbSpline
210
0.0
220
0.0
230
1.0
 70
     8
 71
     3
 72
    72
 73
    68
 74
     0
 42
0.00000001
 43
0.00000001
 12
1.0
 22
0.0
 32
0.0
 13
1.0
 23
0.0
 33
0.0
 40
-0.03125
 40
-0.03125
 40
0.0
 40
0.0
 40
0.0312500000000001
 40
0.0312500000000001
 40
0.0625000000000002
 40
0.0625000000000002
 40
0.0937500000000003
 40
0.0937500000000003
 40
0.1250000000000004
 40
0.1250000000000004
 40
0.1562500000000004
 40
0.1562500000000004
 40
0.1875000000000003
 40
0.1875000000000003
 40
0.2187500000000002
 40
0.2187500000000002
 40
0.2500000000000001
 40
0.2500000000000001
 40
0.2812500000000001
 40
0.2812500000000001
 40
0.3125
 40
0.3125
 40
0.3437499999999999
 40
0.3437499999999999
 40
0.3749999999999999
 40
0.3749999999999999
 40
0.3906249999999998
 40
0.3906249999999998
 40
0.4062499999999998
 40
0.4062499999999998
 40
0.4374999999999997
 40
0.4374999999999997
 40
0.4687499999999996
 40
0.4687499999999996
 40
0.4999999999999994
 40
0.4999999999999994
 40
0.5312499999999993
 40
0.5312499999999993
 40
0.5624999999999992
 40
0.5624999999999992
 40
0.5937499999999991
 40
0.5937499999999991
 40
0.624999999999999
 40
0.624999999999999
 40
0.6562499999999989
 40
0.6562499999999989
 40
0.687499999999999
 40
0.687499999999999
 40
0.7187499999999991
 40
0.7187499999999991
 40
0.7499999999999992
 40
0.7499999999999992
 40
0.7812499999999993
 40
0.7812499999999993
 40
0.8124999999999994
 40
0.8124999999999994
 40
0.8437499999999996
 40
0.8437499999999996
 40
0.8749999999999997
 40
0.8749999999999997
 40
0.9062499999999998
 40
0.9062499999999998
 40
0.9374999999999999
 40
0.9374999999999999
 40
0.96875
 40
0.96875
 40
1.0
 40
1.0
 40
1.03125
 40
1.03125
 10
113.2398130236692
 20
114.395557025983
 30
0.0
 10
113.6142432435431
 20
114.8059128264681
 30
0.0
 10
113.8190958448087
 20
114.9895619091266
 30
0.0
 10
114.2619640416557
 20
115.3165168126219
 30
0.0
 10
114.501919458974
 20
115.4602950208017
 30
0.0
 10
114.9975304417485
 20
115.6978123762476
 30
0.0
 10
115.254796732903
 20
115.7931319411453
 30
0.0
 10
115.7881505007401
 20
115.9372174737798
 30
0.0
 10
116.0624306406384
 20
115.9849534807494
 30
0.0
 10
116.6088591752179
 20
116.0305356212832
 30
0.0
 10
116.8834354936857
 20
116.029101861211
 30
0.0
 10
117.4354026679564
 20
115.9761885531201
 30
0.0
 10
117.706019630528
 20
115.925218826916
 30
0.0
 10
118.2323048016073
 20
115.7766121999724
 30
0.0
 10
118.4899363650148
 20
115.6783268292153
 30
0.0
 10
118.9858625296884
 20
115.4340734700296
 30
0.0
 10
119.21884620748
 20
115.2909933390074
 30
0.0
 10
119.655179482805
 20
114.9631347885386
 30
0.0
 10
119.8604607366633
 20
114.7761411508383
 30
0.0
 10
120.2284950345235
 20
114.3667105310153
 30
0.0
 10
120.3900100245087
 20
114.1466050900309
 30
0.0
 10
120.6671677076558
 20
113.6748550085928
 30
0.0
 10
120.7835618870895
 20
113.4198384821516
 30
0.0
 10
120.9568359237361
 20
112.8986006587546
 30
0.0
 10
121.0152824782019
 20
112.6311165409737
 30
0.0
 10
121.0591472036778
 20
112.2192008816412
 30
0.0
 10
121.0663274203071
 20
112.0794935785657
 30
0.0
 10
121.0653593930117
 20
111.8033705231033
 30
0.0
 10
121.0573566035981
 20
111.6661939567725
 30
0.0
 10
121.0112838716857
 20
111.2572605155093
 30
0.0
 10
120.9503490392336
 20
110.985334266505
 30
0.0
 10
120.7722288828251
 20
110.4621537500499
 30
0.0
 10
120.6566609714827
 20
110.2134417496866
 30
0.0
 10
120.3748141875434
 20
109.7405572246946
 30
0.0
 10
120.2079442421288
 20
109.5169480074625
 30
0.0
 10
119.83861868733
 20
109.1122906192748
 30
0.0
 10
119.6338335310325
 20
108.9278770311053
 30
0.0
 10
119.1891805835163
 20
108.5988509962109
 30
0.0
 10
118.9543314540055
 20
108.4576829202227
 30
0.0
 10
118.4609216915285
 20
108.2192733914422
 30
0.0
 10
118.1996347378239
 20
108.1214908350373
 30
0.0
 10
117.6688964573112
 20
107.9761628068472
 30
0.0
 10
117.399256756414
 20
107.9278734166523
 30
0.0
 10
116.8515054166687
 20
107.8794581928656
 30
0.0
 10
116.5716013748101
 20
107.8799163785016
 30
0.0
 10
116.0245234669751
 20
107.9300682341037
 30
0.0
 10
115.7549183622877
 20
107.9792418011358
 30
0.0
 10
115.2237636056316
 20
108.1269163244428
 30
0.0
 10
114.9624687891881
 20
108.2260714888084
 30
0.0
 10
114.4701548110127
 20
108.4670842592851
 30
0.0
 10
114.2361979354341
 20
108.6095723839098
 30
0.0
 10
113.7940293149036
 20
108.9410598128947
 30
0.0
 10
113.588835783792
 20
109.1284934408831
 30
0.0
 10
113.223141567434
 20
109.5353971599336
 30
0.0
 10
113.0603709450456
 20
109.7565762346025
 30
0.0
 10
112.7794185142801
 20
110.2363235638178
 30
0.0
 10
112.6662146620066
 20
110.4863355306281
 30
0.0
 10
112.4936059378676
 20
111.0064107406485
 30
0.0
 10
112.4339996551912
 20
111.2801422052783
 30
0.0
 10
112.3761078851214
 20
111.8287598551768
 30
0.0
 10
112.3768974239813
 20
112.1030997190683
 30
0.0
 10
112.4380878995978
 20
112.6518416702073
 30
0.0
 10
112.4992166233318
 20
112.9249069840644
 30
0.0
 10
112.6752963089616
 20
113.4450722328328
 30
0.0
 10
112.7916269039516
 20
113.6973913663918
 30
0.0
 10
113.0748281336923
 20
114.1737957077987
 30
0.0
 10
113.2398130236692
 20
114.395557025983
 30
0.0
 10
113.6142432435431
 20
114.8059128264681
 30
0.0
  0
CIRCLE
  5
17A
330
1F
100
AcDbEntity
  8
0
  6
HIDDEN
 62
     7
370
     0
100
AcDbCircle
 10
116.6158667048
 20
111.9547233762
 30
0.0
 40
4.050000000000011
  0
LINE
  5
17B
330
1F
100
AcDbEntity
  8
0
  6
HIDDEN
 62
     7
370
     0
100
AcDbLine
 10
261.2398103356
 20
111.9547233762
 30
0.0
 11
262.3721002626
 21
115.4547233762
 31
0.0
  0
CIRCLE
  5
17C
330
1F
100
AcDbEntity
  8
0
  6
HIDDEN
 62
     7
370
     0
100
AcDbCircle
 10
144.1158667048
 20
111.9547233762
 30
0.0
 40
2.0
  0
LINE
  5
17D
330
1F
100
AcDbEntity
  8
0
  6
HIDDEN
 62
     7
370
     0
100
AcDbLine
 10
132.1158667048
 20
87.7047233762
 30
0.0
 11
132.2087599237
 21
87.797616595
 31
0.0
  0
LINE
  5
17E
330
1F
100
AcDbEntity
  8
0
  6
HIDDEN
 62
     7
370
     0
100
AcDbLine
 10
132.2087599237
 20
136.1118301574
 30
0.0
 11
132.1158667048
 21
136.2047233762
 31
0.0
  0
ARC
  5
17F
330
1F
100
AcDbEntity
  8
0
  6
HIDDEN
 62
     7
370
     0
100
AcDbCircle
 10
131.5016531425
 20
88.5047233762
 30
0.0
 40
1.000000000000028
100
AcDbArc
 50
315.0
 51
0.0
  0
ARC
  5
180
330
1F
100
AcDbEntity
  8
0
  6
HIDDEN
 62
     7
370
     0
100
AcDbCircle
 10
131.5016531425
 20
88.5047233762
 30
0.0
 40
1.00000000000001
100
AcDbArc
 50
0.0
 51
52.1052014664
  0
ARC
  5
181
330
1F
100
AcDbEntity
  8
0
  6
HIDDEN
 62
     7
370
     0
100
AcDbCircle
 10
131.5016531425
 20
135.4047233762
 30
0.0
 40
1.000000000000028
100
AcDbArc
 50
351.8087250651
 51
45.0
  0
ARC
  5
182
330
1F
100
AcDbEntity
  8
0
  6
HIDDEN
 62
     7
370
     0
100
AcDbCircle
 10
131.5016531425
 20
135.4047233762
 30
0.0
 40
1.000000000000002
100
AcDbArc
 50
307.8947985336
 51
351.8087250651
  0
LINE
  5
183
330
1F
100
AcDbEntity
  8
0
  6
HIDDEN
 62
     7
370
     0
100
AcDbLine
 10
132.5016531425
 20
88.5047233762
 30
0.0
 11
132.5016531425
 21
135.4047233762
 31
0.0
  0
LINE
  5
184
330
1F
100
AcDbEntity
  8
0
  6
HIDDEN
 62
     7
370
     0
100
AcDbLine
 10
132.5016531425
 20
88.5047233762
 30
0.0
 11
132.5016531425
 21
135.4047233762
 31
0.0
  0
LINE
  5
185
330
1F
100
AcDbEntity
  8
0
  6
HIDDEN
 62
     7
370
     0
100
AcDbLine
 10
94.1158667048
 20
95.7582945317
 30
0.0
 11
95.6460951445
 21
96.6417723333
 31
0.0
  0
LINE
  5
186
330
1F
100
AcDbEntity
  8
0
  6
HIDDEN
 62
     7
370
     0
100
AcDbLine
 10
95.6460951445
 20
127.2676744191
 30
0.0
 11
94.1158667048
 21
128.1511522206
 31
0.0
  0
ARC
  5
187
330
1F
100
AcDbEntity
  8
0
  6
HIDDEN
 62
     7
370
     0
100
AcDbCircle
 10
104.1158667048
 20
97.9547233762
 30
0.0
 40
2.000000000000028
100
AcDbArc
 50
189.9742217944
 51
270.0
  0
ARC
  5
188
330
1F
100
AcDbEntity
  8
0
  6
HIDDEN
 62
     7
370
     0
100
AcDbCircle
 10
104.1158667048
 20
125.9547233762
 30
0.0
 40
2.000000000000028
100
AcDbArc
 50
90.0
 51
170.0257782056
  0
LINE
  5
189
330
1F
100
AcDbEntity
  8
0
  6
HIDDEN
 62
     7
370
     0
100
AcDbLine
 10
104.1158667048
 20
95.9547233762
 30
0.0
 11
105.1176680197
 21
95.9547233762
 31
0.0
  0
LINE
  5
18A
330
1F
100
AcDbEntity
  8
0
  6
HIDDEN
 62
     7
370
     0
100
AcDbLine
 10
105.1176680197
 20
127.9547233762
 30
0.0
 11
104.1158667048
 21
127.9547233762
 31
0.0
  0
ARC
  5
18B
330
1F
100
AcDbEntity
  8
0
  6
HIDDEN
 62
     7
370
     0
100
AcDbCircle
 10
105.1176680197
 20
97.9547233762
 30
0.0
 40
2.000000000000028
100
AcDbArc
 50
270.0
 51
315.0
  0
ARC
  5
18C
330
1F
100
AcDbEntity
  8
0
  6
HIDDEN
 62
     7
370
     0
100
AcDbCircle
 10
105.1176680197
 20
125.9547233762
 30
0.0
 40
2.000000000000036
100
AcDbArc
 50
45.0
 51
90.0
  0
LINE
  5
18D
330
1F
100
AcDbEntity
  8
0
  6
HIDDEN
 62
     7
370
     0
100
AcDbLine
 10
106.5318815821
 20
96.5405098138
 30
0.0
 11
107.9460951445
 21
97.9547233762
 31
0.0
  0
LINE
  5
18E
330
1F
100
AcDbEntity
  8
0
  6
HIDDEN
 62
     7
370
     0
100
AcDbLine
 10
107.9460951445
 20
125.9547233762
 30
0.0
 11
106.5318815821
 21
127.3689369385
 31
0.0
  0
LINE
  5
18F
330
1F
100
AcDbEntity
  8
0
  6
HIDDEN
 62
     7
370
     0
100
AcDbLine
 10
95.6460951445
 20
96.6417723333
 30
0.0
 11
100.5460951445
 21
97.9547233762
 31
0.0
  0
LINE
  5
190
330
1F
100
AcDbEntity
  8
0
  6
HIDDEN
 62
     7
370
     0
100
AcDbLine
 10
100.5460951445
 20
125.9547233762
 30
0.0
 11
95.6460951445
 21
127.2676744191
 31
0.0
  0
LINE
  5
191
330
1F
100
AcDbEntity
  8
0
  6
HIDDEN
 62
     7
370
     0
100
AcDbLine
 10
102.1460951445
 20
126.3011335377
 30
0.0
 11
101.5460951445
 21
125.9547233762
 31
0.0
  0
LINE
  5
192
330
1F
100
AcDbEntity
  8
0
  6
HIDDEN
 62
     7
370
     0
100
AcDbLine
 10
101.5460951445
 20
97.9547233762
 30
0.0
 11
102.1460951445
 21
97.6083132147
 31
0.0
  0
ARC
  5
193
330
1F
100
AcDbEntity
  8
0
  6
HIDDEN
 62
     7
370
     0
100
AcDbCircle
 10
120.6158667048
 20
98.4547233762
 30
0.0
 40
0.5000000000000284
100
AcDbArc
 50
270.0
 51
360.0
  0
ARC
  5
194
330
1F
100
AcDbEntity
  8
0
  6
HIDDEN
 62
     7
370
     0
100
AcDbCircle
 10
120.6158667048
 20
125.4547233762
 30
0.0
 40
0.5000000000000284
100
AcDbArc
 50
0.0
 51
90.0
  0
LINE
  5
195
330
1F
100
AcDbEntity
  8
0
  6
HIDDEN
 62
     7
370
     0
100
AcDbLine
 10
228.0158667048
 20
119.4547233762
 30
0.0
 11
228.0158667048
 21
114.07929628
 31
0.0
  0
LINE
  5
196
330
1F
100
AcDbEntity
  8
0
  6
HIDDEN
 62
     7
370
     0
100
AcDbLine
 10
232.2158667048
 20
119.2005881852
 30
0.0
 11
232.2158667048
 21
119.4547233762
 31
0.0
  0
LINE
  5
197
330
1F
100
AcDbEntity
  8
0
  6
HIDDEN
 62
     7
370
     0
100
AcDbLine
 10
232.2158667048
 20
113.9970151751
 30
0.0
 11
232.2158667048
 21
117.4256722149
 31
0.0
  0
LINE
  5
198
330
1F
100
AcDbEntity
  8
0
  6
HIDDEN
 62
     7
370
     0
100
AcDbLine
 10
100.5460951445
 20
97.9547233762
 30
0.0
 11
101.5460951445
 21
97.9547233762
 31
0.0
  0
LINE
  5
199
330
1F
100
AcDbEntity
  8
0
  6
HIDDEN
 62
     7
370
     0
100
AcDbLine
 10
101.5460951445
 20
125.9547233762
 30
0.0
 11
100.5460951445
 21
125.9547233762
 31
0.0
  0
LINE
  5
19A
330
1F
100
AcDbEntity
  8
0
  6
HIDDEN
 62
     7
370
     0
100
AcDbLine
 10
107.9460951445
 20
97.9547233762
 30
0.0
 11
120.6158667048
 21
97.9547233762
 31
0.0
  0
LINE
  5
19B
330
1F
100
AcDbEntity
  8
0
  6
HIDDEN
 62
     7
370
     0
100
AcDbLine
 10
120.6158667048
 20
125.9547233762
 30
0.0
 11
107.9460951445
 21
125.9547233762
 31
0.0
  0
LINE
  5
19C
330
1F
100
AcDbEntity
  8
0
  6
HIDDEN
 62
     7
370
     0
100
AcDbLine
 10
236.9303979774
 20
124.0720707283
 30
0.0
 11
229.7738391856
 21
120.569465911
 31
0.0
  0
LINE
  5
19D
330
1F
100
AcDbEntity
  8
0
  6
HIDDEN
 62
     7
370
     0
100
AcDbLine
 10
231.9579377253
 20
116.9623701108
 30
0.0
 11
236.8867327212
 21
119.3746497551
 31
0.0
  0
LINE
  5
19E
330
1F
100
AcDbEntity
  8
0
  6
HIDDEN
 62
     7
370
     0
100
AcDbLine
 10
229.5035498634
 20
120.2530241049
 30
0.0
 11
229.4981392482
 21
120.1151054384
 31
0.0
  0
LINE
  5
19F
330
1F
100
AcDbEntity
  8
0
  6
HIDDEN
 62
     7
370
     0
100
AcDbLine
 10
121.1158667048
 20
101.7047233762
 30
0.0
 11
122.3658667048
 21
102.9547233762
 31
0.0
  0
LINE
  5
1A0
330
1F
100
AcDbEntity
  8
0
  6
HIDDEN
 62
     7
370
     0
100
AcDbLine
 10
122.3658667048
 20
120.9547233762
 30
0.0
 11
121.1158667048
 21
122.2047233762
 31
0.0
  0
LINE
  5
1A1
330
1F
100
AcDbEntity
  8
0
  6
HIDDEN
 62
     7
370
     0
100
AcDbLine
 10
148.1158667048
 20
102.9547233762
 30
0.0
 11
150.9699546452
 21
107.7047233762
 31
0.0
  0
LINE
  5
1A2
330
1F
100
AcDbEntity
  8
0
  6
HIDDEN
 62
     7
370
     0
100
AcDbLine
 10
150.9699546452
 20
116.2047233762
 30
0.0
 11
148.1158667048
 21
120.9547233762
 31
0.0
  0
LINE
  5
1A3
330
1F
100
AcDbEntity
  8
0
  6
HIDDEN
 62
     7
370
     0
100
AcDbLine
 10
122.3658667048
 20
102.9547233762
 30
0.0
 11
148.1158667048
 21
102.9547233762
 31
0.0
  0
LINE
  5
1A4
330
1F
100
AcDbEntity
  8
0
  6
HIDDEN
 62
     7
370
     0
100
AcDbLine
 10
148.1158667048
 20
120.9547233762
 30
0.0
 11
122.3658667048
 21
120.9547233762
 31
0.0
  0
LINE
  5
1A5
330
1F
100
AcDbEntity
  8
0
  6
HIDDEN
 62
     7
370
     0
100
AcDbLine
 10
232.1158667048
 20
116.2047233762
 30
0.0
 11
150.9699546452
 21
116.2047233762
 31
0.0
  0
LINE
  5
1A6
330
1F
100
AcDbEntity
  8
0
  6
HIDDEN
 62
     7
370
     0
100
AcDbLine
 10
150.9699546452
 20
107.7047233762
 30
0.0
 11
232.1158667048
 21
107.7047233762
 31
0.0
  0
LINE
  5
1A7
330
1F
100
AcDbEntity
  8
0
  6
HIDDEN
 62
     7
370
     0
100
AcDbLine
 10
232.1158667048
 20
107.7047233762
 30
0.0
 11
234.6695243357
 21
111.9547233762
 31
0.0
  0
LINE
  5
1A8
330
1F
100
AcDbEntity
  8
0
  6
HIDDEN
 62
     7
370
     0
100
AcDbLine
 10
234.6695243357
 20
111.9547233762
 30
0.0
 11
232.1158667048
 21
116.2047233762
 31
0.0
  0
ARC
  5
1A9
330
1F
100
AcDbEntity
  8
0
  6
HIDDEN
 62
     7
370
     0
100
AcDbCircle
 10
245.7016531425
 20
132.9547233762
 30
0.0
 40
0.9999999999999846
100
AcDbArc
 50
270.0
 51
290.4014967397
  0
LINE
  5
1AA
330
1F
100
AcDbEntity
  8
0
  6
HIDDEN
 62
     7
370
     0
100
AcDbLine
 10
255.8676128222
 20
125.8719679515
 30
0.0
 11
255.8676128222
 21
125.7673332409
 31
0.0
  0
LINE
  5
1AB
330
1F
100
AcDbEntity
  8
0
  6
HIDDEN
 62
     7
370
     0
100
AcDbLine
 10
228.0158667048
 20
109.8301504723
 30
0.0
 11
228.0158667048
 21
105.0748955
 31
0.0
  0
LINE
  5
1AC
330
1F
100
AcDbEntity
  8
0
  6
HIDDEN
 62
     7
370
     0
100
AcDbLine
 10
232.2158667048
 20
105.0748955
 30
0.0
 11
232.2158667048
 21
109.9124315773
 31
0.0
  0
LINE
  5
1AD
330
1F
100
AcDbEntity
  8
0
  6
HIDDEN
 62
     7
370
     0
100
AcDbLine
 10
263.2945855006
 20
131.4716604965
 30
0.0
 11
263.2945855006
 21
130.8612913512
 31
0.0
  0
LINE
  5
1AE
330
1F
100
AcDbEntity
  8
0
  6
HIDDEN
 62
     7
370
     0
100
AcDbLine
 10
266.5945855006
 20
130.8612913512
 30
0.0
 11
266.5945855006
 21
131.4716604965
 31
0.0
  0
LINE
  5
1AF
330
1F
100
AcDbEntity
  8
0
  6
HIDDEN
 62
     7
370
     0
100
AcDbLine
 10
227.6158667048
 20
104.9547233762
 30
0.0
 11
227.6158667048
 21
101.9547427164
 31
0.0
  0
LINE
  5
1B0
330
1F
100
AcDbEntity
  8
0
  6
HIDDEN
 62
     7
370
     0
100
AcDbLine
 10
232.6158667048
 20
101.9548430332
 30
0.0
 11
232.6158667048
 21
104.9547233762
 31
0.0
  0
LINE
  5
1B1
330
1F
100
AcDbEntity
  8
VERMASSUNG
  6
CENTERX2
100
AcDbLine
 10
91.2827308499
 20
111.9547233762
 30
0.0
 11
272.1158667048
 21
111.9547233762
 31
0.0
  0
LINE
  5
1B2
330
1F
100
AcDbEntity
  8
VERMASSUNG
  6
CENTERX2
100
AcDbLine
 10
272.1158667048
 20
111.9547233762
 30
0.0
 11
272.1158667048
 21
138.9547233762
 31
0.0
  0
LINE
  5
1B3
330
1F
100
AcDbEntity
  8
VERMASSUNG
  6
CENTERX2
100
AcDbLine
 10
272.1158667048
 20
138.9547233762
 30
0.0
 11
280.8204018643
 21
138.9547233762
 31
0.0
  0
DIMENSION
  5
1B4
330
1F
100
AcDbEntity
  8
VERMASSUNG
100
AcDbDimension
  2
_D
 10
272.1158667048
 20
150.1540742897
 30
0.0
 11
202.1158667048
 21
150.1540742897
 31
0.0
 70
   160
  1
<>
 71
     2
 42
-1.0
  3
SLDDIMSTYLE0
100
AcDbAlignedDimension
 13
132.1158667048
 23
142.9547233762
 33
0.0
 14
272.1158667048
 24
138.9547233762
 34
0.0
100
AcDbRotatedDimension
  0
DIMENSION
  5
1BF
330
1F
100
AcDbEntity
  8
VERMASSUNG
100
AcDbDimension
  2
_D_1
 10
272.1158667048
 20
159.4547233762
 30
0.0
 11
183.1158667048
 21
159.4547233762
 31
0.0
 70
   160
  1
<>
 71
     2
 42
-1.0
  3
SLDDIMSTYLE0
100
AcDbAlignedDimension
 13
94.1158667048
 23
132.2470613687
 33
0.0
 14
272.1158667048
 24
138.9547233762
 34
0.0
 50
0.0
100
AcDbRotatedDimension
  0
DIMENSION
  5
1C9
330
1F
100
AcDbEntity
  8
VERMASSUNG
100
AcDbDimension
  2
_D_2
 10
288.2635085587
 20
138.9547233762
 30
0.0
 11
288.2635085587
 21
125.4547233762
 31
0.0
 70
   160
  1
<>
 71
     2
 42
-1.0
  3
SLDDIMSTYLE0
100
AcDbAlignedDimension
 13
272.1158667048
 23
111.9547233762
 33
0.0
 14
272.1158667048
 24
138.9547233762
 34
0.0
 50
90.0
100
AcDbRotatedDimension
  0
DIMENSION
  5
1D3
330
1F
100
AcDbEntity
  8
VERMASSUNG
100
AcDbDimension
  2
_D_3
 10
280.8204018643
 20
138.9547233762
 30
0.0
 11
278.2972474274
 21
130.7168171174
 31
0.0
 70
   162
  1
<>
 71
     1
 42
-1.0
  3
SLDDIMSTYLE1
100
AcDb2LineAngularDimension
 13
268.8939901362
 23
128.3006865806
 33
0.0
 14
272.0999669717
 24
138.4439771669
 34
0.0
 15
272.1158667048
 25
138.9547233762
 35
0.0
 16
278.2972474274
 26
130.7168171174
 36
0.0
  0
DIMENSION
  5
1DD
330
1F
100
AcDbEntity
  8
VERMASSUNG
100
AcDbDimension
  2
_D_4
 10
84.1158667048
 20
80.4547233762
 30
0.0
 11
84.1158667048
 21
111.9547233762
 31
0.0
 70
   160
  1
PSC%%c<>
 71
     2
 42
-1.0
  3
SLDDIMSTYLE0
100
AcDbAlignedDimension
 13
132.6158667048
 23
143.4547233762
 33
0.0
 14
132.6158667048
 24
80.4547233762
 34
0.0
 50
90.0
100
AcDbRotatedDimension
  0
DIMENSION
  5
1E9
330
1F
100
AcDbEntity
  8
VERMASSUNG
100
AcDbDimension
  2
_D_5
 10
177.5429332649
 20
91.9547233762
 30
0.0
 11
177.5429332649
 21
122.5689484534
 31
0.0
 70
   160
  1
%%c<>
 71
     2
 42
-1.0
  3
SLDDIMSTYLE0
100
AcDbAlignedDimension
 13
158.1158667048
 23
131.9547233762
 33
0.0
 14
158.1158667048
 24
91.9547233762
 34
0.0
 50
90.0
100
AcDbRotatedDimension
  0
LINE
  5
1F2
330
1F
100
AcDbEntity
  8
0
  6
Continuous
 62
     7
370
    15
100
AcDbLine
 10
60.004012668
 20
111.9547233762
 30
0.0
 11
60.004012668
 21
115.4547234842
 31
0.0
  0
ARC
  5
1F3
330
1F
100
AcDbEntity
  8
0
  6
Continuous
 62
     7
370
    15
100
AcDbCircle
 10
39.5040121018
 20
111.9547233762
 30
0.0
 40
20.50000000000006
100
AcDbArc
 50
261.5700482425
 51
0.0
  0
LINE
  5
1F4
330
1F
100
AcDbEntity
  8
0
  6
Continuous
 62
     7
370
    15
100
AcDbLine
 10
39.0440168064
 20
128.0758091093
 30
0.0
 11
36.4987088921
 21
91.676208082
 31
0.0
  0
LINE
  5
1F5
330
1F
100
AcDbEntity
  8
0
  6
Continuous
 62
     7
370
    15
100
AcDbLine
 10
39.0440168064
 20
128.0758091093
 30
0.0
 11
41.2235471974
 21
128.1363208623
 31
0.0
  0
LINE
  5
1F6
330
1F
100
AcDbEntity
  8
0
  6
Continuous
 62
     7
370
    15
100
AcDbLine
 10
41.2235471974
 20
128.1363208623
 30
0.0
 11
42.7151771816
 21
127.9642422528
 31
0.0
  0
LINE
  5
1F7
330
1F
100
AcDbEntity
  8
0
  6
Continuous
 62
     7
370
    15
100
AcDbLine
 10
42.7301351535
 20
128.1781521471
 30
0.0
 11
42.7151771816
 21
127.9642422528
 31
0.0
  0
LINE
  5
1F8
330
1F
100
AcDbEntity
  8
0
  6
Continuous
 62
     7
370
    15
100
AcDbLine
 10
49.1625852971
 20
136.0589665206
 30
0.0
 11
43.3840793646
 21
137.5299886645
 31
0.0
  0
ARC
  5
1F9
330
1F
100
AcDbEntity
  8
0
  6
Continuous
 62
     7
370
    15
100
AcDbCircle
 10
35.0040121018
 20
115.4547233762
 30
0.0
 40
25.00000000000005
100
AcDbArc
 50
0.0
 51
55.5044012041
  0
LINE
  5
1FA
330
1F
100
AcDbEntity
  8
0
  6
Continuous
 62
     7
370
    15
100
AcDbLine
 10
43.4074285529
 20
137.8638976098
 30
0.0
 11
48.3199050738
 21
136.6133381457
 31
0.0
  0
ARC
  5
1FB
330
1F
100
AcDbEntity
  8
0
  6
Continuous
 62
     7
370
    15
100
AcDbCircle
 10
35.0040121018
 20
115.4547233762
 30
0.0
 40
25.00000000000007
100
AcDbArc
 50
55.5044012041
 51
57.8162863404
  0
SPLINE
  5
1FC
330
1F
100
AcDbEntity
  8
0
  6
Continuous
 62
     7
370
    15
100
AcDbSpline
210
0.0
220
0.0
230
1.0
 70
     8
 71
     3
 72
    10
 73
     6
 74
     0
 42
0.00000001
 43
0.00000001
 12
1.0
 22
0.0
 32
0.0
 13
1.0
 23
0.0
 33
0.0
 40
0.0
 40
0.0
 40
0.0
 40
0.0
 40
0.3793897302032302
 40
0.7589209984753786
 40
0.9999999999999999
 40
0.9999999999999999
 40
0.9999999999999999
 40
0.9999999999999999
 10
37.07593982992479
 20
131.8067879260911
 30
0.0
 10
37.39043739883667
 20
131.8406011327942
 30
0.0
 10
38.01954986555744
 20
131.9082401608171
 30
0.0
 10
38.70220869066308
 20
131.9406100610894
 30
0.0
 10
38.92678358611034
 20
131.9455868306221
 30
0.0
 10
39.0140207689234
 20
131.9475200803412
 30
0.0
  0
SPLINE
  5
1FD
330
1F
100
AcDbEntity
  8
0
  6
Continuous
 62
     7
370
    15
100
AcDbSpline
210
0.0
220
0.0
230
1.0
 70
     8
 71
     3
 72
    14
 73
    10
 74
     0
 42
0.00000001
 43
0.00000001
 12
1.0
 22
0.0
 32
0.0
 13
1.0
 23
0.0
 33
0.0
 40
0.0
 40
0.0
 40
0.0
 40
0.0
 40
0.25
 40
0.25
 40
0.5
 40
0.5
 40
0.75
 40
0.75
 40
1.0
 40
1.0
 40
1.0
 40
1.0
 10
36.53369424740976
 20
92.17652295641473
 30
0.0
 10
36.53369424740976
 20
92.17652295641473
 30
0.0
 10
36.4805524580447
 20
92.18428600477642
 30
0.0
 10
36.26869899656096
 20
92.21784796022122
 30
0.0
 10
36.11503765551911
 20
92.24290021783996
 30
0.0
 10
35.71605766378575
 20
92.31566736020136
 30
0.0
 10
35.47912236609395
 20
92.3619570075885
 30
0.0
 10
34.93980245730735
 20
92.48052963985481
 30
0.0
 10
34.64657521446683
 20
92.55090415711443
 30
0.0
 10
34.3366962558119
 20
92.63378015520009
 30
0.0
  0
ELLIPSE
  5
1FE
330
1F
100
AcDbEntity
  8
0
  6
Continuous
 62
     7
370
    15
100
AcDbEllipse
 10
30.3419338028
 20
121.7233602417
 30
0.0
 11
1.77631046039809
 21
1.907117469001918
 31
0.0
210
0.0
220
0.0
230
1.0
 40
0.7900595085
 41
0.0
 42
6.283185307179586
  0
ARC
  5
1FF
330
1F
100
AcDbEntity
  8
0
  6
Continuous
 62
     7
370
    15
100
AcDbCircle
 10
39.5040121018
 20
111.9547233762
 30
0.0
 40
20.00000000000005
100
AcDbArc
 50
96.9731161125
 51
255.0268838875
  0
ARC
  5
200
330
1F
100
AcDbEntity
  8
0
  6
Continuous
 62
     7
370
    15
100
AcDbCircle
 10
28.4270109962
 20
118.1230806612
 30
0.0
 40
2.37413653459263
100
AcDbArc
 50
40.0538720476
 51
80.4527240754
  0
SPLINE
  5
201
330
1F
100
AcDbEntity
  8
0
  6
Continuous
 62
     7
370
    15
100
AcDbSpline
210
0.0
220
0.0
230
1.0
 70
     8
 71
     3
 72
    10
 73
     6
 74
     0
 42
0.00000001
 43
0.00000001
 12
1.0
 22
0.0
 32
0.0
 13
1.0
 23
0.0
 33
0.0
 40
0.0
 40
0.0
 40
0.0
 40
0.0
 40
0.0839899183861239
 40
0.7639496044464132
 40
1.0
 40
1.0
 40
1.0
 40
1.0
 10
28.07490621646651
 20
120.8371677280797
 30
0.0
 10
28.09944123421199
 20
120.8412001480632
 30
0.0
 10
28.32260512652079
 20
120.8778779507154
 30
0.0
 10
28.60445395006943
 20
120.703160478529
 30
0.0
 10
28.77646282424318
 20
120.5132675199079
 30
0.0
 10
28.82078849663743
 20
120.464333224429
 30
0.0
  0
SPLINE
  5
202
330
1F
100
AcDbEntity
  8
0
  6
Continuous
 62
     7
370
    15
100
AcDbSpline
210
0.0
220
0.0
230
1.0
 70
     8
 71
     3
 72
    10
 73
     6
 74
     0
 42
0.00000001
 43
0.00000001
 12
1.0
 22
0.0
 32
0.0
 13
1.0
 23
0.0
 33
0.0
 40
0.0
 40
0.0
 40
0.0
 40
0.0
 40
0.5
 40
0.5
 40
1.0
 40
1.0
 40
1.0
 40
1.0
 10
28.82078834385406
 20
120.4643331390664
 30
0.0
 10
29.04902291861212
 20
120.3167416073741
 30
0.0
 10
29.2810925515441
 20
120.1726786152343
 30
0.0
 10
29.75888982382494
 20
119.9000398423662
 30
0.0
 10
30.00430535943847
 20
119.771826314726
 30
0.0
 10
30.24426976095218
 20
119.6508556732085
 30
0.0
  0
CIRCLE
  5
203
330
1F
100
AcDbEntity
  8
0
  6
Continuous
 62
     7
370
    15
100
AcDbCircle
 10
39.5040121018
 20
111.9547233762
 30
0.0
 40
31.50000000000007
  0
SPLINE
  5
204
330
1F
100
AcDbEntity
  8
0
  6
Continuous
 62
     7
370
    15
100
AcDbSpline
210
0.0
220
0.0
230
1.0
 70
     8
 71
     3
 72
    14
 73
    10
 74
     0
 42
0.00000001
 43
0.00000001
 12
1.0
 22
0.0
 32
0.0
 13
1.0
 23
0.0
 33
0.0
 40
0.0
 40
0.0
 40
0.0
 40
0.0
 40
0.1588513198718017
 40
0.3173349912955668
 40
0.4720201374050087
 40
0.6236531521183097
 40
0.774671617591002
 40
0.9277512765839371
 40
1.0
 40
1.0
 40
1.0
 40
1.0
 10
39.46829724893691
 20
138.4439774633778
 30
0.0
 10
39.47144301896461
 20
138.4889639898929
 30
0.0
 10
39.47772727839141
 20
138.5788329252697
 30
0.0
 10
39.48723792245883
 20
138.7148429116836
 30
0.0
 10
39.49532516145999
 20
138.8304933888885
 30
0.0
 10
39.501195922774
 20
138.9144506533426
 30
0.0
 10
39.50427954633257
 20
138.9585480559823
 30
0.0
 10
39.50443652925307
 20
138.9607923367784
 30
0.0
 10
39.50327531973272
 20
138.9441863061501
 30
0.0
 10
39.50290299244502
 20
138.9388617904318
 30
0.0
  0
SPLINE
  5
205
330
1F
100
AcDbEntity
  8
0
  6
Continuous
 62
     7
370
    15
100
AcDbSpline
210
0.0
220
0.0
230
1.0
 70
     8
 71
     3
 72
    10
 73
     6
 74
     0
 42
0.00000001
 43
0.00000001
 12
1.0
 22
0.0
 32
0.0
 13
1.0
 23
0.0
 33
0.0
 40
0.0
 40
0.0
 40
0.0
 40
0.0
 40
0.2789470843569214
 40
0.5613894381833375
 40
1.0
 40
1.0
 40
1.0
 40
1.0
 10
39.50290299244502
 20
138.9388617904318
 30
0.0
 10
39.86560029207703
 20
138.8544449694835
 30
0.0
 10
40.5955395697735
 20
138.6845535659053
 30
0.0
 10
41.91495737712977
 20
138.4392126384938
 30
0.0
 10
42.85268507375071
 20
138.2208178504524
 30
0.0
 10
43.42309712385544
 20
138.0879700960053
 30
0.0
  0
SPLINE
  5
206
330
1F
100
AcDbEntity
  8
0
  6
Continuous
 62
     7
370
    15
100
AcDbSpline
210
0.0
220
0.0
230
1.0
 70
     8
 71
     3
 72
    14
 73
    10
 74
     0
 42
0.00000001
 43
0.00000001
 12
1.0
 22
0.0
 32
0.0
 13
1.0
 23
0.0
 33
0.0
 40
0.0
 40
0.0
 40
0.0
 40
0.0
 40
0.1583298996140242
 40
0.3168150193379446
 40
0.4713504097180525
 40
0.6221095756529227
 40
0.772121551610595
 40
0.9245892507942641
 40
1.0
 40
1.0
 40
1.0
 40
1.0
 10
43.42309712385544
 20
138.0879700960053
 30
0.0
 10
43.42326497327611
 20
138.0903699429697
 30
0.0
 10
43.4236008366701
 20
138.0951719896098
 30
0.0
 10
43.42307872110526
 20
138.0877008725691
 30
0.0
 10
43.42184885174441
 20
138.0701240534085
 30
0.0
 10
43.42002658875015
 20
138.0440524961202
 30
0.0
 10
43.41783930958847
 20
138.0127821085029
 30
0.0
 10
43.41589176116859
 20
137.984924776532
 30
0.0
 10
43.4147799888123
 20
137.9690277751359
 30
0.0
 10
43.41441207518587
 20
137.9637670548094
 30
0.0
  0
LINE
  5
207
330
1F
100
AcDbEntity
  8
0
  6
Continuous
 62
     7
370
    15
100
AcDbLine
 10
42.7361333366
 20
128.2639288188
 30
0.0
 11
43.4144120752
 21
137.9637670548
 31
0.0
  0
LINE
  5
208
330
1F
100
AcDbEntity
  8
0
  6
Continuous
 62
     7
370
    15
100
AcDbLine
 10
38.7590092812
 20
128.3006862582
 30
0.0
 11
39.4682972489
 21
138.4439774634
 31
0.0
  0
SPLINE
  5
209
330
1F
100
AcDbEntity
  8
0
  6
Continuous
 62
     7
370
    15
100
AcDbSpline
210
0.0
220
0.0
230
1.0
 70
     8
 71
     3
 72
    10
 73
     6
 74
     0
 42
0.00000001
 43
0.00000001
 12
1.0
 22
0.0
 32
0.0
 13
1.0
 23
0.0
 33
0.0
 40
0.0
 40
0.0
 40
0.0
 40
0.0
 40
0.2657061723107588
 40
0.6164575510000466
 40
1.0
 40
1.0
 40
1.0
 40
1.0
 10
42.73613333655307
 20
128.2639288188351
 30
0.0
 10
42.73558829361083
 20
128.2561347660627
 30
0.0
 10
42.73432375453581
 20
128.2380519995139
 30
0.0
 10
42.73261161198179
 20
128.2135686123093
 30
0.0
 10
42.73195497721004
 20
128.2041777786336
 30
0.0
 10
42.73161199828395
 20
128.199272680415
 30
0.0
  0
SPLINE
  5
20A
330
1F
100
AcDbEntity
  8
0
  6
Continuous
 62
     7
370
    15
100
AcDbSpline
210
0.0
220
0.0
230
1.0
 70
     8
 71
     3
 72
    10
 73
     6
 74
     0
 42
0.00000001
 43
0.00000001
 12
1.0
 22
0.0
 32
0.0
 13
1.0
 23
0.0
 33
0.0
 40
0.0
 40
0.0
 40
0.0
 40
0.0
 40
0.3518042703017321
 40
0.7034261277662821
 40
1.0
 40
1.0
 40
1.0
 40
1.0
 10
38.74092480120966
 20
128.0420672924651
 30
0.0
 10
38.74215738647082
 20
128.0596937079969
 30
0.0
 10
38.74462191788954
 20
128.0949373996476
 30
0.0
 10
38.75127134299257
 20
128.1900288209605
 30
0.0
 10
38.75658025478842
 20
128.2659496360861
 30
0.0
 10
38.7590092811712
 20
128.30068625821
 30
0.0
  0
LINE
  5
20B
330
1F
100
AcDbEntity
  8
0
  6
Continuous
 62
     7
370
    15
100
AcDbLine
 10
38.5172871263
 20
124.8438999833
 30
0.0
 11
38.8197493246
 21
124.8686340482
 31
0.0
  0
LINE
  5
20C
330
1F
100
AcDbEntity
  8
0
  6
Continuous
 62
     7
370
    15
100
AcDbLine
 10
42.7301351535
 20
128.1781521471
 30
0.0
 11
42.7316119983
 21
128.1992726804
 31
0.0
  0
LINE
  5
20D
330
1F
100
AcDbEntity
  8
0
  6
Continuous
 62
     7
370
    15
100
AcDbLine
 10
38.5172871263
 20
124.8438999833
 30
0.0
 11
38.7409248012
 21
128.0420672925
 31
0.0
  0
CIRCLE
  5
20E
330
1F
100
AcDbEntity
  8
VERMASSUNG
  6
CENTERX2
100
AcDbCircle
 10
39.492169711
 20
113.7853692983
 30
0.0
 40
25.0
  0
DIMENSION
  5
20F
330
1F
100
AcDbEntity
  8
VERMASSUNG
100
AcDbDimension
  2
_D_6
 10
24.268137731
 20
133.6153680444
 30
0.0
 11
16.4836999828
 21
143.7549546525
 31
0.0
 70
   160
  1
%%c<> min. 
 71
     2
 42
-1.0
  3
SLDDIMSTYLE2
100
AcDbAlignedDimension
 13
54.7162016911
 23
93.9553705522
 33
0.0
 14
24.268137731
 24
133.6153680444
 34
0.0
 50
-52.4855654737
100
AcDbRotatedDimension
  0
DIMENSION
  5
21E
330
1F
100
AcDbEntity
  8
VERMASSUNG
100
AcDbDimension
  2
_D_7
 10
39.5040121018
 20
145.9547233762
 30
0.0
 11
28.2279718814
 21
72.1730109291
 31
0.0
 70
   162
  1
<>
 71
     1
 42
-1.0
  3
SLDDIMSTYLE3
100
AcDb2LineAngularDimension
 13
36.498708875
 23
91.6762088222
 33
0.0
 14
39.0440168148
 24
128.0758081894
 34
0.0
 15
39.5040121018
 25
77.9547233762
 35
0.0
 16
37.2882296205
 26
71.2023389141
 36
0.0
  0
INSERT
  5
236
330
1F
100
AcDbEntity
  8
VERMASSUNG
100
AcDbBlockReference
  2
SW_CENTERMARKSYMBOL_0
 10
39.5040121018
 20
111.9547233762
 30
0.0
  0
OLE2FRAME
  5
237
330
1F
100
AcDbEntity
  8
0
100
AcDbOle2Frame
 70
     2
  3
Paintbrush-Bild
 10
13.8511154363
 20
38.264191557
 30
0.0
 11
51.6290888628
 21
31.9806341108
 31
0.0
 71
     2
 72
     0
 73
     1
 90
    12928
310
80552BED0767C5B32B40DDAF6807D121434000000000000000006FFBDDFB85D0
310
4940DDAF6807D121434000000000000000006FFBDDFB85D04940416F4BD60AFB
310
3F4000000000000000002BED0767C5B32B40416F4BD60AFB3F40000000000000
310
0000000000000100000000010000010000000100000000000100000000320000
310
D0CF11E0A1B11AE1000000000000000000000000000000003E000300FEFF0900
310
0600000000000000000000000100000001000000000000000010000002000000
310
01000000FEFFFFFF0000000000000000FFFFFFFFFFFFFFFFFFFFFFFFFFFFFFFF
310
FFFFFFFFFFFFFFFFFFFFFFFFFFFFFFFFFFFFFFFFFFFFFFFFFFFFFFFFFFFFFFFF
310
FFFFFFFFFFFFFFFFFFFFFFFFFFFFFFFFFFFFFFFFFFFFFFFFFFFFFFFFFFFFFFFF
310
FFFFFFFFFFFFFFFFFFFFFFFFFFFFFFFFFFFFFFFFFFFFFFFFFFFFFFFFFFFFFFFF
310
FFFFFFFFFFFFFFFFFFFFFFFFFFFFFFFFFFFFFFFFFFFFFFFFFFFFFFFFFFFFFFFF
310
FFFFFFFFFFFFFFFFFFFFFFFFFFFFFFFFFFFFFFFFFFFFFFFFFFFFFFFFFFFFFFFF
310
FFFFFFFFFFFFFFFFFFFFFFFFFFFFFFFFFFFFFFFFFFFFFFFFFFFFFFFFFFFFFFFF
310
FFFFFFFFFFFFFFFFFFFFFFFFFFFFFFFFFFFFFFFFFFFFFFFFFFFFFFFFFFFFFFFF
310
FFFFFFFFFFFFFFFFFFFFFFFFFFFFFFFFFFFFFFFFFFFFFFFFFFFFFFFFFFFFFFFF
310
FFFFFFFFFFFFFFFFFFFFFFFFFFFFFFFFFFFFFFFFFFFFFFFFFFFFFFFFFFFFFFFF
310
FFFFFFFFFFFFFFFFFFFFFFFFFFFFFFFFFFFFFFFFFFFFFFFFFFFFFFFFFFFFFFFF
310
FFFFFFFFFFFFFFFFFFFFFFFFFFFFFFFFFFFFFFFFFFFFFFFFFFFFFFFFFFFFFFFF
310
FFFFFFFFFFFFFFFFFFFFFFFFFFFFFFFFFFFFFFFFFFFFFFFFFFFFFFFFFFFFFFFF
310
FFFFFFFFFFFFFFFFFFFFFFFFFFFFFFFFFFFFFFFFFFFFFFFFFFFFFFFFFFFFFFFF
310
FDFFFFFFFEFFFFFFFEFFFFFFFEFFFFFF05000000060000000700000008000000
310
090000000A0000000B0000000C0000000D0000000E0000000F00000010000000
310
11000000120000001300000014000000150000001600000017000000FEFFFFFF
310
FFFFFFFFFFFFFFFFFFFFFFFFFFFFFFFFFFFFFFFFFFFFFFFFFFFFFFFFFFFFFFFF
310
FFFFFFFFFFFFFFFFFFFFFFFFFFFFFFFFFFFFFFFFFFFFFFFFFFFFFFFFFFFFFFFF
310
FFFFFFFFFFFFFFFFFFFFFFFFFFFFFFFFFFFFFFFFFFFFFFFFFFFFFFFFFFFFFFFF
310
FFFFFFFFFFFFFFFFFFFFFFFFFFFFFFFFFFFFFFFFFFFFFFFFFFFFFFFFFFFFFFFF
310
FFFFFFFFFFFFFFFFFFFFFFFFFFFFFFFFFFFFFFFFFFFFFFFFFFFFFFFFFFFFFFFF
310
FFFFFFFFFFFFFFFFFFFFFFFFFFFFFFFFFFFFFFFFFFFFFFFFFFFFFFFFFFFFFFFF
310
FFFFFFFFFFFFFFFFFFFFFFFFFFFFFFFFFFFFFFFFFFFFFFFFFFFFFFFFFFFFFFFF
310
FFFFFFFFFFFFFFFFFFFFFFFFFFFFFFFFFFFFFFFFFFFFFFFFFFFFFFFFFFFFFFFF
310
FFFFFFFFFFFFFFFFFFFFFFFFFFFFFFFFFFFFFFFFFFFFFFFFFFFFFFFFFFFFFFFF
310
FFFFFFFFFFFFFFFFFFFFFFFFFFFFFFFFFFFFFFFFFFFFFFFFFFFFFFFFFFFFFFFF
310
FFFFFFFFFFFFFFFFFFFFFFFFFFFFFFFFFFFFFFFFFFFFFFFFFFFFFFFFFFFFFFFF
310
FFFFFFFFFFFFFFFFFFFFFFFFFFFFFFFFFFFFFFFFFFFFFFFFFFFFFFFFFFFFFFFF
310
FFFFFFFFFFFFFFFFFFFFFFFFFFFFFFFFFFFFFFFFFFFFFFFFFFFFFFFFFFFFFFFF
310
52006F006F007400200045006E00740072007900000000000000000000000000
310
0000000000000000000000000000000000000000000000000000000000000000
310
16000500FFFFFFFFFFFFFFFF020000000A00030000000000C000000000000046
310
000000000000000000000000B0B899698A44CD0103000000C000000000000000
310
01004F006C006500000000000000000000000000000000000000000000000000
310
0000000000000000000000000000000000000000000000000000000000000000
310
0A000200FFFFFFFFFFFFFFFFFFFFFFFF00000000000000000000000000000000
310
0000000000000000000000000000000000000000000000001400000000000000
310
010043006F006D0070004F0062006A0000000000000000000000000000000000
310
0000000000000000000000000000000000000000000000000000000000000000
310
120002010100000003000000FFFFFFFF00000000000000000000000000000000
310
0000000000000000000000000000000000000000010000004D00000000000000
310
01004F006C006500310030004E00610074006900760065000000000000000000
310
0000000000000000000000000000000000000000000000000000000000000000
310
1A000200FFFFFFFFFFFFFFFFFFFFFFFF00000000000000000000000000000000
310
0000000000000000000000000000000000000000040000002426000000000000
310
FEFFFFFF02000000FEFFFFFFFFFFFFFFFFFFFFFFFFFFFFFFFFFFFFFFFFFFFFFF
310
FFFFFFFFFFFFFFFFFFFFFFFFFFFFFFFFFFFFFFFFFFFFFFFFFFFFFFFFFFFFFFFF
310
FFFFFFFFFFFFFFFFFFFFFFFFFFFFFFFFFFFFFFFFFFFFFFFFFFFFFFFFFFFFFFFF
310
FFFFFFFFFFFFFFFFFFFFFFFFFFFFFFFFFFFFFFFFFFFFFFFFFFFFFFFFFFFFFFFF
310
FFFFFFFFFFFFFFFFFFFFFFFFFFFFFFFFFFFFFFFFFFFFFFFFFFFFFFFFFFFFFFFF
310
FFFFFFFFFFFFFFFFFFFFFFFFFFFFFFFFFFFFFFFFFFFFFFFFFFFFFFFFFFFFFFFF
310
FFFFFFFFFFFFFFFFFFFFFFFFFFFFFFFFFFFFFFFFFFFFFFFFFFFFFFFFFFFFFFFF
310
FFFFFFFFFFFFFFFFFFFFFFFFFFFFFFFFFFFFFFFFFFFFFFFFFFFFFFFFFFFFFFFF
310
FFFFFFFFFFFFFFFFFFFFFFFFFFFFFFFFFFFFFFFFFFFFFFFFFFFFFFFFFFFFFFFF
310
FFFFFFFFFFFFFFFFFFFFFFFFFFFFFFFFFFFFFFFFFFFFFFFFFFFFFFFFFFFFFFFF
310
FFFFFFFFFFFFFFFFFFFFFFFFFFFFFFFFFFFFFFFFFFFFFFFFFFFFFFFFFFFFFFFF
310
FFFFFFFFFFFFFFFFFFFFFFFFFFFFFFFFFFFFFFFFFFFFFFFFFFFFFFFFFFFFFFFF
310
FFFFFFFFFFFFFFFFFFFFFFFFFFFFFFFFFFFFFFFFFFFFFFFFFFFFFFFFFFFFFFFF
310
FFFFFFFFFFFFFFFFFFFFFFFFFFFFFFFFFFFFFFFFFFFFFFFFFFFFFFFFFFFFFFFF
310
FFFFFFFFFFFFFFFFFFFFFFFFFFFFFFFFFFFFFFFFFFFFFFFFFFFFFFFFFFFFFFFF
310
FFFFFFFFFFFFFFFFFFFFFFFFFFFFFFFFFFFFFFFFFFFFFFFFFFFFFFFFFFFFFFFF
310
0100000200000000000000000000000000000000000000000000000000000000
310
0000000000000000000000000000000000000000000000000000000000000000
310
0100FEFF030A0000FFFFFFFF0A00030000000000C00000000000004607000000
310
5042727573680007000000504272757368000700000050427275736800F439B2
310
7100000000000000000000000000000000000000000000000000000000000000
310
0000000000000000000000000000000000000000000000000000000000000000
310
0000000000000000000000000000000000000000000000000000000000000000
310
0000000000000000000000000000000000000000000000000000000000000000
310
0000000000000000000000000000000000000000000000000000000000000000
310
0000000000000000000000000000000000000000000000000000000000000000
310
0000000000000000000000000000000000000000000000000000000000000000
310
0000000000000000000000000000000000000000000000000000000000000000
310
0000000000000000000000000000000000000000000000000000000000000000
310
0000000000000000000000000000000000000000000000000000000000000000
310
0000000000000000000000000000000000000000000000000000000000000000
310
0000000000000000000000000000000000000000000000000000000000000000
310
20260000424D0E260000000000003E00000028000000B40200006E0000000100
310
01000000000000000000130B0000130B00000200000002000000000000FFFFFF
310
FFFFFFFFFFFFFFFFFFFFFFFFFFFFFFFFFFFFFFFFFFFFFFFFFFFFFFFFFFFFFFFF
310
FFFFFFFFFFFFFFFFFFFFFFFFFFFFFFFFFFFFFFFFFFFFFFFFFFFFFFFFFFFFFFFF
310
FFFFFFFFFFFFFFFFFFFFFFFFFFFFFFFFFFFFFFFFFFFFFFFFF000FFFFFFFFFFFF
310
FFFFFFFFFFFFFFFFFFFFFFFFFFFFFFFFFFFFFFFFFFFFFFFFFFFFFFFFFFFFFFFF
310
FFFFFFFFFFFFFFFFFFFFFFFFFFFFFFFFFFFFFFFFFFFFFFFFFFFFFFFFFFFFFFFF
310
FFFFFFFFFFFFFFFFFFFFFFFFFFFFFFFFF000FFFFFFFFFFFFFFFFFFFFFFFFFFFF
310
FFFFFFFFFFFFFFFFFFFFFFFFFFFFFFFFFFFFFFFFFFFFFFFFFFFFFFFFFFFFFFFF
310
FFFFFFFFFFFFFFFFFFFFFFFFFFFFFFFFFFFFFFFFFFFFFFFFFFFFFFFFFFFFFFFF
310
FFFFFFFFFFFFFFFFF000FFFFFFFFFFFFFFFFFFFFFFFFFFFFFFFFFFFFFFFFFFFF
310
FFFFFFFFFFFFFFFFFFFFFFFFFFFFFFFFFFFFFFFFFFFFFFFFFFFFFFFFFFFFFFFF
310
FFFFFFFFFFFFFFFFFFFFFFFFFFFFFFFFFFFFFFFFFFFFFFFFFFFFFFFFFFFFFFFF
310
F000FFFFFFFFFFFFFFFFFFFFFFFFFFFFFFFFFFFFFFFFFFFFFFFFFFFFFFFFFFFF
310
FFFFFFFFFFFFFFFFFFFFFFFFFFFFFFFFFFFFFFFFFFFFFFFFFFFFFFFFFFFFFFFF
310
FFFFFFFFFFFFFFFFFFFFFFFFFFFFFFFFFFFFFFFFFFFFFFFFF000FFFFFFFFFFFF
310
FFFFFFFFFFFFFFFFFFFFFFFFFFFFFFFFFFFFFFFFFFFFFFFFFFFFFFFFFFFFFFFF
310
FFFFFFFFFFFFFFFFFFFFFFFFFFFFFFFFFFFFFFFFFFFFFFFFFFFFFFFFFFFFFFFF
310
FFFFFFFFFFFFFFFFFFFFFFFFFFFFFFFFF000FFFFFFFFFFFFFFFFFFFFFFFFFFFF
310
FFFFFFFFFFFFFFFFFFFFFFFFFFFFFFFFFFFFFFFFFFFFFFFFFFFFFFFFFFFFFFFF
310
FFFFFFFFFFFFFFFFFFFFFFFFFFFFFFFFFFFFFFFFFFFFFFFFFFFFFFFFFFFFFFFF
310
FFFFFFFFFFFFFFFFF000FFFFFFFFFFFFFFFFFFFFFFFFFFFFFFFFFFFFFFFFFFFF
310
FFFFFFFFFFFFFFFFFFFFFFFFFFFFFFFFFFFFFFFFFFFFFFFFFFFFFFFFFFFFFFFF
310
FFFFFFFFFFFFFFFFFFFFFFFFFFFFFFFFFFFFFFFFFFFFFFFFFFFFFFFFFFFFFFFF
310
F000FFFFFFFFFFFFFFFFFFFFFFFFFFFFFFFFFFFFFFFFFFFFFFFFFFFFFFFFFFFF
310
FFFFFFFFFFFFFFFFFFFFFFFFFFFFFFFFFFFFFFFFFFFFFFFFFFFFFFFFFFFFFFFF
310
FFFFFFFFFFFFFFFFFFFFFFFFFFFFFFFFFFFFFFFFFFFFFFFFF000FFFFFFFFFFFF
310
FFFFFFFFFFFFFFFFFFFFFFFFFFFFFFFFFFFFFFFFFFFFFFFFFFFFFFFFFFFFFFFF
310
FFFFFFFFFFFFFFFFFFFFFFFFFFFFFFFFFFFFFFFFFFFFFFFFFFFFFFFFFFFFFFFF
310
FFFFFFFFFFFFFFFFFFFFFFFFFFFFFFFFF000FFFFFFFFFFFFFFFFFFFFFFFFFFFF
310
FFFFFFFFFFFFFFFFFFFFFFFFFFFFFFFFFFFFFFFFFFFFFFFFFFFFFFFFFFFFFFFF
310
FFFFFFFFFFFFFFFFFFFFFFFFFFFFFFFFFFFFFFFFFFFFFFFFFFFFFFFFFFFFFFFF
310
FFFFFFFFFFFFFFFFF000FFFFFFFFFFFFFFFFFFFFFFFFFFFFFFFFFFFFFFFFFFFF
310
FFFFFFFFFFFFFFFFFFFFFFFFFFFFFFFFFFFFFFFFFFFFFFFFFFFFFFFFFFFFFFFF
310
FFFFFFFFFFFFFFFFFFFFFFFFFFFFFFFFFFFFFFFFFFFFFFFFFFFFFFFFFFFFFFFF
310
F000FFFFFFFFFFFFFFFFFFFFFFFFFFFFFFFFFFFFFFFFFFFFFFFFFFFFFFFFFFFF
310
FFFFFFFFFFFFFFFFFFFFFFFFFFFFFFFFFFFFFFFFFFFFFFFFFFFFFFFFFFFFFFFF
310
FFFFFFFFFFFFFFFFFFFFFFFFFFFFFFFFFFFFFFFFFFFFFFFFF000FFFFFFFFFFFF
310
FFFFFFFFFFFFFFFFFFFFFFFFFFFFFFFFFFFFFFFFFFFFFFFFFFFFFFFFFFFFFFFF
310
FFFFFFFFFFFFFFFFFFFFFFFFFFFFFFFFFFFFFFFFFFFFFFFFFFFFFFFFFFFFFFFF
310
FFFFFFFFFFFFFFFFFFFFFFFFFFFFFFFFF000FFFFFFFFFFFFFFFFFFFFFFFFFFFF
310
FFFFFFFFFFFFFFFFFFFFFFFFFFFFFFFFFFFFFFFFFFFFFFFFFFFFFFFFFFFFFFFF
310
FFFFFFFFFFFFFFFFFFFFFFFFFFFFFFFFFFFFFFFFFFFFFFFFFFFFFFFFFFFFFFFF
310
FFFFFFFFFFFFFFFFF000FFFFFFFFFFFFFFFFFFFFFFFFFFFFFFFFFFFFFFFFFFFF
310
FFFFFFFFFFFFFFFFFFFFFFFFFFFFFFFFFFFFFFFFFFFFFFFFFFFFFFFFFFFFFFFF
310
FFFFFFFFFFFFFFFFFFFFFFFFFFFFFFFFFFFFFFFFFFFFFFFFFFFFFFFFFFFFFFFF
310
F000FFFFFFFFFFFFFFFFFFFFFFFFFFFFFFFFFFFFFFFFFFFFFFFFFFFFFFFFFFFF
310
FFFFFFFFFFFFFFFFFFFFFFFFFFFFFFFFFFFFFFFFFFFFFFFFFFFFFFFFFFFFFFFF
310
FFFFFFFFFFFFFFFFFFFFFFFFFFFFFFFFFFFFFFFFFFFFFFFFF000FFFFFFFFFFFF
310
FFFFFFFFFFFFFFFFFFFFFFFFFFFFFFFFFFFFFFFFFFFFFFFFFFFFFFFFFFFFFFFF
310
FFFFFFFFFFFFFFFFFFFFFFFFFFFFFFFFFFFFFFFFFFFFFFFFFFFFFFFFFFFFFFFF
310
FFFFFFFFFFFFFFFFFFFFFFFFFFFFFFFFF000FFFFFFFFFFFFFFFFFFFFFFFFFFFF
310
FFFFFFFFFFFFFFFFFFFFFFFFFFFFFFFFFFFFFFFFFFFFFFFFFFFFFFFFFFFFFFFF
310
FFFFFFFFFFFFFFFFFFFFFFFFFFFFFFFFFFFFFFFFFFFFFFFFFFFFFFFFFFFFFFFF
310
FFFFFFFFFFFFFFFFF000FFFFF80003FFFFFFFFFFFFFFFFFFFFFFFFFFFFFFFFFF
310
FFFFF00007FFFFFFFFFF00007FFFFFF800000000000000007FFFFFFFFFFFFFFF
310
FFFFFFFC001FFFFFFFFFFFFFFC001FFFFFFFFFFFFFFFFFFFFFFFFFFE0007FFFF
310
F000FFFF8000007FFFFFFFF8000FFFFFC0007FFFFF80007FFFFF0000007FFFFF
310
FFF8000007FFFFF800000000000000007FFFFFF0001FFFFFFFFFFFC00001FFFF
310
FFFFFFFFC00001FFFFFFFF000000000003FFFFE000007FFFF000FFFE0000000F
310
FFFFFFF0000FFFFF80007FFFFF80007FFFFC0000001FFFFFFFC0000001FFFFF8
310
00000000000000007FFFFFF0001FFFFFFFFFFE0000003FFFFFFFFFFE0000003F
310
FFFFFF000000000003FFFF0000000FFFF000FFF800000003FFFFFFF00007FFFF
310
80007FFFFF80007FFFF000000007FFFFFF000000003FFFF80000000000000000
310
7FFFFFF0001FFFFFFFFFF80000000FFFFFFFFFF80000000FFFFFFF0000000000
310
03FFFC00000003FFF000FFE000000000FFFFFFF00007FFFF80003FFFFF80007F
310
FFC000000001FFFFFC000000001FFFF800000000000000007FFFFFF0001FFFFF
310
FFFFE000000003FFFFFFFFE000000003FFFFFF000000000003FFF000000000FF
310
F000FF80000000007FFFFFF00007FFFF80003FFFFF80007FFF8000000000FFFF
310
F80000000007FFF800000000000000007FFFFFF0001FFFFFFFFFC000000001FF
310
FFFFFFC000000001FFFFFF000000000003FFC0000000007FF000FF0000000000
310
3FFFFFE00007FFFF00003FFFFF80007FFE00000000003FFFF00000000003FFF8
310
00000000000000007FFFFFF0001FFFFFFFFF8000000000FFFFFFFF8000000000
310
FFFFFF000000000003FF80000000003FF000FE00000000001FFFFFE00003FFFF
310
00003FFFFF80007FFC00000000001FFFE00000000001FFF8000001FFFE000000
310
7FFFFFF0001FFFFFFFFE00000000003FFFFFFE00000000003FFFFF0000000000
310
03FF00000000001FF000FC00000000000FFFFFE00003FFFF00001FFFFF80007F
310
F800000000001FFFC00000000000FFF8000001FFFE0000007FFFFFF0001FFFFF
310
FFFC00000000001FFFFFFC00000000001FFFFF000000000003FE00000000000F
310
F000F8000000000007FFFFE00003FFFF00001FFFFF80007FF800000000000FFF
310
800000000000FFF8000001FFFE0000007FFFFFF0001FFFFFFFF800000000000F
310
FFFFF800000000000FFFFF000000000003FC000000000007F000F80000000000
310
03FFFFC00003FFFE00001FFFFF80007FF0000000000007FF0000000000007FF8
310
000001FFFE0000007FFFFFF0001FFFFFFFF0000000000007FFFFF00000000000
310
07FFFF000000000003F8000000000003F000F0000000000003FFFFC00001FFFE
310
00001FFFFF80007FE0000000000007FE0000000000003FF8000001FFFE000000
310
7FFFFFF0001FFFFFFFF0000000000007FFFFF0000000000007FFFF0000000000
310
03F800001F800003F000E00001FFF00001FFFFC00001FFFE00000FFFFF80007F
310
E00001FFE00003FE00001FFF00003FF8000001FFFE0000007FFFFFF0001FFFFF
310
FFE000003E000003FFFFE000003E000003FFFF000000000003F00001FFF80001
310
F000E00007FFFC0001FFFFC00001FFFE00000FFFFF80007FC0000FFFFC0003FC
310
0000FFFFC0001FF8000001FFFE0000007FFFFFF0001FFFFFFFC00003FFE00001
310
FFFFC00003FFE00001FFFF0001FFFFFFFFF00007FFFE0001F000E0000FFFFF00
310
00FFFF800001FFFC00000FFFFF80007FC0001FFFFE0001FC0001FFFFE0001FF8
310
000001FFFE0000007FFFFFF0001FFFFFFF80000FFFF80000FFFF80000FFFF800
310
00FFFF0003FFFFFFFFE0000FFFFF8000F000C0003FFFFF8000FFFF800000FFFC
310
000007FFFF80007F80003FFFFF0001FC0003FFFFF0001FF8000001FFFE000000
310
7FFFFFF0001FFFFFFF80003FFFFE0000FFFF80003FFFFE0000FFFF0003FFFFFF
310
FFE0003FFFFF8000F000C0003FFFFF8000FFFF800000FFFC000007FFFF80007F
310
80007FFFFF8001F80007FFFFF8000FF8000001FFFE0000007FFFFFF0001FFFFF
310
FF00007FFFFF00007FFF00007FFFFF00007FFF0003FFFFFFFFE0003FFFFFC000
310
F000C0007FFFFFC000FFFF000000FFFC000007FFFF80007F8000FFFFFF8000F8
310
000FFFFFF8000FF8000001FFFE0000007FFFFFF0001FFFFFFF0000FFFFFF8000
310
7FFF0000FFFFFF80007FFF0003FFFFFFFFC0007FFFFFC00070008000FFFFFFC0
310
00FFFF000000FFF8000007FFFF80007F8000FFFFFF8000F8000FFFFFF8000FF8
310
000001FFFE0000007FFFFFF0001FFFFFFE0001FFFFFFC0003FFE0001FFFFFFC0
310
003FFF0003FFFFFFFFC0007FFFFFE00070008000FFFFFFC0007FFF0000007FF8
310
000003FFFF80007F0001FFFFFF8000F8000FFFFFF8000FF8000001FFFE000000
310
7FFFFFF0001FFFFFFE0001FFFFFFC0003FFE0001FFFFFFC0003FFF0003FFFFFF
310
FFC000FFFFFFE00070008000FFFFFFC0007FFF0000007FF8000003FFFF80007F
310
0001FFFFFF8000F8001FFFFFF8000FF8000001FFFE0000007FFFFFF0001FFFFF
310
FE0003FFFFFFE0003FFE0003FFFFFFE0003FFF0003FFFFFFFFC000FFFFFFE000
310
70008000FFFFFFC0007FFE0000007FF8000003FFFF80007F0001FFFFFF8000F0
310
001FFFFFF8000FF8000001FFFE0000007FFFFFF0001FFFFFFC0003FFFFFFE000
310
1FFC0003FFFFFFE0001FFF0003FFFFFFFFC000FFFFFFC00070008000FFFFFF80
310
007FFE0000007FF0000003FFFF80007F0001FFFFFF0000F0001FFFFFF8000FF8
310
000001FFFE0000007FFFFFF0001FFFFFFC0007FFFFFFF0001FFC0007FFFFFFF0
310
001FFF0003FFFFFFFFC000FFFFFFC00070008001FFFFFF0000FFFE0000003FF0
310
000001FFFF80007F0001FFFFFF0000F8001FFFFFF0000FF8000001FFFE000000
310
7FFFFFF0001FFFFFFC0007FFFFFFF0001FFC0007FFFFFFF0001FFF0003FFFFFF
310
FFC001FFFFFF80007000FFFFFFFFFE0000FFFE0008003FF0008001FFFF80007F
310
FFFFFFFFFC0000FFFFFFFFFFE0000FF8000001FFFE0000007FFFFFF0001FFFFF
310
F8000FFFFFFFF8000FF8000FFFFFFFF8000FFF0003FFFFFFFFFFFFFFFFFF0000
310
7000FFFFFFFFFC0000FFFC0008003FF0008001FFFF80007FFFFFFFFFF80001FF
310
FFFFFFFF80000FF8000001FFFE0000007FFFFFF0001FFFFFF8000FFFFFFFF800
310
0FF8000FFFFFFFF8000FFF0003FFFFFFFFFFFFFFFFFE0000F000FFFFFFFFE000
310
00FFFC000C003FE000C001FFFF80007FFFFFFFFFC00001FFFFFFFFFE00001FF8
310
000001FFFE0000007FFFFFF0001FFFFFF8000FFFFFFFF8000FF8000FFFFFFFF8
310
000FFF0003FFFFFFFFFFFFFFFFF00000F000FFFFFFFE000001FFFC000C001FE0
310
00C000FFFF80007FFFFFFFFE000001FFFFFFFFE000001FF80FFFFFFFFFFFFFC0
310
7FFFFFF0001FFFFFF8000FFFFFFFF8000FF8000FFFFFFFF8000FFF0003FFFFFF
310
FFFFFFFFFF800000F000FFFFFFC0000001FFFC001C001FE001C000FFFF80007F
310
FFFFFF80000003FFFFFFF80000001FF80FFFFFFFFFFFFFC07FFFFFF0001FFFFF
310
F8001FFFFFFFFC000FF8001FFFFFFFFC000FFF0003FFFFFFFFFFFFFFF0000001
310
F000FFFFF800000001FFF8001C001FE001C000FFFF80007FFFFFF800000003FF
310
FFFF800000003FF80FFFFFFFFFFFFFC07FFFFFF0001FFFFFF8001FFFFFFFFC00
310
0FF8001FFFFFFFFC000FFF0003FFFFFFFFFFFFFE00000001F000FFFFC0000000
310
03FFF8001E001FC001E000FFFF80007FFFFF8000000007FFFFFC000000003FF8
310
0FFFFFFFFFFFFFC07FFFFFF0001FFFFFF8001FFFFFFFFC000FF8001FFFFFFFFC
310
000FFF0003FFFFFFFFFFFFE000000003F000FFFE0000000007FFF8001E000FC0
310
01E0007FFF80007FFFFE0000000007FFFFE0000000007FF80FFFFFFFFFFFFFC0
310
7FFFFFF0001FFFFFF0001FFFFFFFFC0007F0001FFFFFFFFC0007FF0003FFFFFF
310
FFFFFF0000000003F000FFF80000000007FFF8001E000FC003E0007FFF80007F
310
FFF0000000000FFFFF8000000000FFF80FFFFFFFFFFFFFC07FFFFFF0001FFFFF
310
F0001FFFFFFFFC0007F0001FFFFFFFFC0007FF0003FFFFFFFFFFFC0000000007
310
F000FFE0000000000FFFF0003E000FC003E0007FFF80007FFFC0000000001FFF
310
FE0000000001FFF80FFFFFFFFFFFFFC07FFFFFF0001FFFFFF0001FFFFFFFFC00
310
07F0001FFFFFFFFC0007FF0003FFFFFFFFFFF0000000000FF000FFC000000000
310
1FFFF0003F000F8003F0003FFF80007FFF80000000003FFFF80000000003FFF8
310
0FFFFFFFFFFFFFC07FFFFFF0001FFFFFF0001FFFFFFFFC0007F0001FFFFFFFFC
310
0007FF0003FFFFFFFFFFE0000000001FF000FF00000000007FFFF0003F000780
310
03F0003FFF80007FFF00000000007FFFF00000000007FFF80FFFFFFFFFFFFFC0
310
7FFFFFF0001FFFFFF0001FFFFFFFFC0007F0001FFFFFFFFC0007FF0003FFFFFF
310
FFFF80000000007FF000FE0000000000FFFFE0003F00078007F0003FFF80007F
310
FE0000000001FFFFE0000000001FFFF80FFFFFFFFFFFFFC07FFFFFF0001FFFFF
310
F0001FFFFFFFFC0007F0001FFFFFFFFC0007FF0003FFFFFFFFFF0000000000FF
310
F000FC0000000003FFFFE0007F00078007F0003FFF80007FFC0000000007FFFF
310
C0000000007FFFF80FFFFFFFFFFFFFC07FFFFFF0001FFFFFF8001FFFFFFFFC00
310
0FF8001FFFFFFFFC000FFF0003FFFFFFFFFE0000000003FFF000FC000000000F
310
FFFFE0007F80070007F8001FFF80007FF8000000001FFFFF8000000001FFFFF8
310
0FFFFFFFFFFFFFC07FFFFFF0001FFFFFF8001FFFFFFFFC000FF8001FFFFFFFFC
310
000FFF0003FFFFFFFFFC000000000FFFF000F8000000007FFFFFE0007F800700
310
07F8001FFF80007FF000000000FFFFFF800000000FFFFFF80FFFFFFFFFFFFFC0
310
7FFFFFF0001FFFFFF8000FFFFFFFF8000FF8000FFFFFFFF8000FFF0003FFFFFF
310
FFFC000000007FFFF000F800000007FFFFFFC0007F8003000FF8001FFF80007F
310
F000000007FFFFFF000000007FFFFFF80FFFFFFFFFFFFFC07FFFFFF0001FFFFF
310
F8000FFFFFFFF8000FF8000FFFFFFFF8000FFF0003FFFFFFFFF80000000FFFFF
310
F000F0000000FFFFFFFFC000FF8003000FF8001FFF80007FE0000000FFFFFFFF
310
0000000FFFFFFFF8000001FFFE0000007FFFFFF0001FFFFFF8000FFFFFFFF800
310
0FF8000FFFFFFFF8000FFF0003FFFFFFFFF8000000FFFFFFF000F000000FFFFF
310
FFFFC000FFC002000FF8000FFF80007FE000001FFFFFFFFE000001FFFFFFFFF8
310
000001FFFE0000007FFFFFF0001FFFFFF8000FFFFFFFF8000FF8000FFFFFFFF8
310
000FFF0003FFFFFFFFF000001FFFFFFFF000E00000FFFFFFFFFFC000FFC00200
310
0FFC000FFF80007FE00001FFFFFFFFFE00001FFFFFFFFFF8000001FFFE000000
310
7FFFFFF0001FFFFFFC000FFFFFFFF8001FFC000FFFFFFFF8001FFF0003FFFFFF
310
FFF00001FFFFFFFFF000E00007FFFFFFFFFF8000FFC000001FFC000FFF80007F
310
C0000FFFFFFFFFFE0000FFFFFFFFFFF8000001FFFE0000007FFFFFF0001FFFFF
310
FC0007FFFFFFF0001FFC0007FFFFFFF0001FFF0003FFFFFFFFF00007FFFFFFFF
310
F000E0001FFFFFFFFFFF8000FFC000001FFC000FFF80007FC0003FFFFFFFFFFE
310
0001FFFFFFFFFFF8000001FFFE0000007FFFFFF0001FFFFFFC0007FFFFFFF000
310
1FFC0007FFFFFFF0001FFF0003FFFFFFFFF0001FFFFFFFFFF000E0003FFFFF00
310
03FF8001FFE000001FFC0007FF80007FC0007FFFFF0007FC0003FFFFF0003FF8
310
000001FFFE0000007FFFFFF0001FFFFFFC0003FFFFFFE0001FFC0003FFFFFFE0
310
001FFF0003FFFFFFFFF0003FFFFFFFFFF000E0003FFFFF0001FF8001FFE00000
310
1FFE0007FF80007FC0007FFFFE0003FC0007FFFFE0003FF8000001FFFE000000
310
7FFFFFF0001FFFFFFE0003FFFFFFE0003FFE0003FFFFFFE0003FFF0003FFFFFF
310
FFF0003FFFFF8001F000E0003FFFFF0001FF0001FFE000001FFE0007FF80007F
310
C0007FFFFE0003FC0007FFFFE0003FF8000001FFFE0000007FFFFFF0001FFFFF
310
FE0001FFFFFFC0003FFE0001FFFFFFC0003FFF0003FFFFFFFFF0003FFFFF0001
310
F000E0003FFFFF0003FF0001FFE000003FFE0007FF80007FC0007FFFFE0003FC
310
0007FFFFE0003FF8000001FFFE0000007FFFFFF0001FFFFFFF0001FFFFFFC000
310
7FFF0001FFFFFFC0007FFF0003FFFFFFFFF0003FFFFF0001F000E0003FFFFE00
310
03FF0003FFF000003FFE0003FF80007FC0007FFFFC0003FE0007FFFFE0003FF8
310
000001FFFE0000007FFFFFF0001FFFFFFF0000FFFFFF80007FFF0000FFFFFF80
310
007FFF0003FFFFFFFFF0003FFFFF0001F000E0003FFFFE0003FF0003FFF00000
310
3FFF0003FF80007FC0007FFFFC0007FE0007FFFFC0003FF8000001FFFE000000
310
7FFFFFF0001FFFFFFF80007FFFFF0000FFFF80007FFFFF0000FFFF0003FFFFFF
310
FFF0003FFFFF0003F000E0003FFFFC0003FE0003FFF000003FFF0003FF80007F
310
E0003FFFF80007FE0003FFFFC0007FF8000001FFFE0000007FFFFFF0001FFFFF
310
FF80003FFFFE0000FFFF80003FFFFE0000FFFF0003FFFFFFFFF0001FFFFE0003
310
F000F0001FFFF80003FE0003FFF000007FFF0001FF80007FE0003FFFF00007FE
310
0001FFFF80007FF8000001FFFE0000007FFFFFF0001FFFFFFFC0000FFFF80001
310
FFFFC0000FFFF80001FFFF0003FFFFFFFFF0001FFFFC0003F000F0000FFFF000
310
07FE0007FFF800007FFF0001FF80007FE0001FFFE00007FF0000FFFE00007FF8
310
000001FFFE0000007FFFFFF0001FFFFFFFC00003FFE00001FFFFC00003FFE000
310
01FFFF0003FFFFFFFFF8000FFFF80003F000F00003FFC00007FC0007FFF80000
310
7FFF8001FF80007FF00007FF80000FFF00007FF80000FFF8000001FFFE000000
310
7F80000000000001FFE000003E000003FFFFE000003E000003FFFF0003FFFFFF
310
FFF80003FFE00007F000F800000000000FFC0007FFF800007FFF8001FF80007F
310
F000000000000FFF000000000000FFF8000001FFFE0000007F80000000000001
310
FFF0000000000007FFFFF0000000000007FFFF0003FFFFFFFFFC00007E000007
310
F000F800000000000FFC0007FFF80000FFFF8000FF80007FF800000000001FFF
310
800000000001FFF8000001FFFE0000007F80000000000001FFF800000000000F
310
FFFFF800000000000FFFFF0003FFFFFFFFFC00000000000FF000FC0000000000
310
1FFC0007FFFC0000FFFF8000FF80007FF800000000003FFFC00000000001FFF8
310
000001FFFE0000007F80000000000001FFF800000000000FFFFFF80000000000
310
0FFFFF0003FFFFFFFFFE00000000001FF000FE00000000003FF8000FFFFC0000
310
FFFF8000FF80007FFC00000000003FFFC00000000003FFF8000001FFFE000000
310
7F80000000000001FFFC00000000001FFFFFFC00000000001FFFFF0003FFFFFF
310
FFFF00000000001FF000FF00000000003FF8000FFFFC0000FFFFC000FF80007F
310
FE00000000007FFFE00000000007FFF8000001FFFE0000007F80000000000001
310
FFFE00000000003FFFFFFE00000000003FFFFF0003FFFFFFFFFF80000000003F
310
F000FF80000000007FF8000FFFFC0001FFFFC0007F80007FFF0000000000FFFF
310
F0000000000FFFF800000000000000007F80000000000001FFFF8000000000FF
310
FFFFFF8000000000FFFFFF0003FFFFFFFFFFC0000000007FF000FFC000000000
310
FFF8000FFFFE0001FFFFC0007F80007FFF8000000001FFFFF8000000001FFFF8
310
00000000000000007F80000000000001FFFFC000000001FFFFFFFFC000000001
310
FFFFFF0003FFFFFFFFFFE000000000FFF000FFE000000003FFF0001FFFFE0001
310
FFFFC0007F80007FFFC000000007FFFFFE000000003FFFF80000000000000000
310
7F80000000000001FFFFE000000003FFFFFFFFE000000003FFFFFF0003FFFFFF
310
FFFFF000000003FFF000FFF80000000FFFF0001FFFFE0001FFFFE0007F80007F
310
FFF00000000FFFFFFF00000000FFFFF800000000000000007F80000000000001
310
FFFFF80000000FFFFFFFFFF80000000FFFFFFF0003FFFFFFFFFFFC0000000FFF
310
F000FFFE0000003FFFF0001FFFFE0003FFFFE0003F80007FFFFC0000003FFFFF
310
FFC0000003FFFFF800000000000000007F80000000000001FFFFFE0000003FFF
310
FFFFFFFE0000003FFFFFFF0003FFFFFFFFFFFF0000003FFFF000FFFF800000FF
310
FFF0001FFFFF0003FFFFE0003F80007FFFFF000001FFFFFFFFF800001FFFFFF8
310
00000000000000007F80000000000001FFFFFFC00001FFFFFFFFFFFFC00001FF
310
FFFFFF0003FFFFFFFFFFFFC00000FFFFF000FFFFF8000FFFFFFFFFFFFFFFFFFF
310
FFFFFFFFFFFFFFFFFFFFF0001FFFFFFFFFFF0000FFFFFFF80000000000000000
310
7FFFFFFFFFFFFFFFFFFFFFFC001FFFFFFFFFFFFFFC001FFFFFFFFFFFFFFFFFFF
310
FFFFFFFC001FFFFFF000FFFFFFFFFFFFFFFFFFFFFFFFFFFFFFFFFFFFFFFFFFFF
310
FFFFFFFFFFFFFFFFFFFFFFFFFFFFFFFFFFFFFFFFFFFFFFFFFFFFFFFFFFFFFFFF
310
FFFFFFFFFFFFFFFFFFFFFFFFFFFFFFFFFFFFFFFFFFFFFFFFFFFFFFFFFFFFFFFF
310
F000FFFFFFFFFFFFFFFFFFFFFFFFFFFFFFFFFFFFFFFFFFFFFFFFFFFFFFFFFFFF
310
FFFFFFFFFFFFFFFFFFFFFFFFFFFFFFFFFFFFFFFFFFFFFFFFFFFFFFFFFFFFFFFF
310
FFFFFFFFFFFFFFFFFFFFFFFFFFFFFFFFFFFFFFFFFFFFFFFFF000FFFFFFFFFFFF
310
FFFFFFFFFFFFFFFFFFFFFFFFFFFFFFFFFFFFFFFFFFFFFFFFFFFFFFFFFFFFFFFF
310
FFFFFFFFFFFFFFFFFFFFFFFFFFFFFFFFFFFFFFFFFFFFFFFFFFFFFFFFFFFFFFFF
310
FFFFFFFFFFFFFFFFFFFFFFFFFFFFFFFFF000FFFFFFFFFFFFFFFFFFFFFFFFFFFF
310
FFFFFFFFFFFFFFFFFFFFFFFFFFFFFFFFFFFFFFFFFFFFFFFFFFFFFFFFFFFFFFFF
310
FFFFFFFFFFFFFFFFFFFFFFFFFFFFFFFFFFFFFFFFFFFFFFFFFFFFFFFFFFFFFFFF
310
FFFFFFFFFFFFFFFFF000FFFFFFFFFFFFFFFFFFFFFFFFFFFFFFFFFFFFFFFFFFFF
310
FFFFFFFFFFFFFFFFFFFFFFFFFFFFFFFFFFFFFFFFFFFFFFFFFFFFFFFFFFFFFFFF
310
FFFFFFFFFFFFFFFFFFFFFFFFFFFFFFFFFFFFFFFFFFFFFFFFFFFFFFFFFFFFFFFF
310
F000FFFFFFFFFFFFFFFFFFFFFFFFFFFFFFFFFFFFFFFFFFFFFFFFFFFFFFFFFFFF
310
FFFFFFFFFFFFFFFFFFFFFFFFFFFFFFFFFFFFFFFFFFFFFFFFFFFFFFFFFFFFFFFF
310
FFFFFFFFFFFFFFFFFFFFFFFFFFFFFFFFFFFFFFFFFFFFFFFFF000FFFFFFFFFFFF
310
FFFFFFFFFFFFFFFFFFFFFFFFFFFFFFFFFFFFFFFFFFFFFFFFFFFFFFFFFFFFFFFF
310
FFFFFFFFFFFFFFFFFFFFFFFFFFFFFFFFFFFFFFFFFFFFFFFFFFFFFFFFFFFFFFFF
310
FFFFFFFFFFFFFFFFFFFFFFFFFFFFFFFFF000FFFFFFFFFFFFFFFFFFFFFFFFFFFF
310
FFFFFFFFFFFFFFFFFFFFFFFFFFFFFFFFFFFFFFFFFFFFFFFFFFFFFFFFFFFFFFFF
310
FFFFFFFFFFFFFFFFFFFFFFFFFFFFFFFFFFFFFFFFFFFFFFFFFFFFFFFFFFFFFFFF
310
FFFFFFFFFFFFFFFFF000FFFFFFFFFFFFFFFFFFFFFFFFFFFFFFFFFFFFFFFFFFFF
310
FFFFFFFFFFFFFFFFFFFFFFFFFFFFFFFFFFFFFFFFFFFFFFFFFFFFFFFFFFFFFFFF
310
FFFFFFFFFFFFFFFFFFFFFFFFFFFFFFFFFFFFFFFFFFFFFFFFFFFFFFFFFFFFFFFF
310
F000FFFFFFFFFFFFFFFFFFFFFFFFFFFFFFFFFFFFFFFFFFFFFFFFFFFFFFFFFFFF
310
FFFFFFFFFFFFFFFFFFFFFFFFFFFFFFFFFFFFFFFFFFFFFFFFFFFFFFFFFFFFFFFF
310
FFFFFFFFFFFFFFFFFFFFFFFFFFFFFFFFFFFFFFFFFFFFFFFFF000FFFFFFFFFFFF
310
FFFFFFFFFFFFFFFFFFFFFFFFFFFFFFFFFFFFFFFFFFFFFFFFFFFFFFFFFFFFFFFF
310
FFFFFFFFFFFFFFFFFFFFFFFFFFFFFFFFFFFFFFFFFFFFFFFFFFFFFFFFFFFFFFFF
310
FFFFFFFFFFFFFFFFFFFFFFFFFFFFFFFFF000FFFFFFFFFFFFFFFFFFFFFFFFFFFF
310
FFFFFFFFFFFFFFFFFFFFFFFFFFFFFFFFFFFFFFFFFFFFFFFFFFFFFFFFFFFFFFFF
310
FFFFFFFFFFFFFFFFFFFFFFFFFFFFFFFFFFFFFFFFFFFFFFFFFFFFFFFFFFFFFFFF
310
FFFFFFFFFFFFFFFFF000FFFFFFFFFFFFFFFFFFFFFFFFFFFFFFFFFFFFFFFFFFFF
310
FFFFFFFFFFFFFFFFFFFFFFFFFFFFFFFFFFFFFFFFFFFFFFFFFFFFFFFFFFFFFFFF
310
FFFFFFFFFFFFFFFFFFFFFFFFFFFFFFFFFFFFFFFFFFFFFFFFFFFFFFFFFFFFFFFF
310
F000FFFFFFFFFFFFFFFFFFFFFFFFFFFFFFFFFFFFFFFFFFFFFFFFFFFFFFFFFFFF
310
FFFFFFFFFFFFFFFFFFFFFFFFFFFFFFFFFFFFFFFFFFFFFFFFFFFFFFFFFFFFFFFF
310
FFFFFFFFFFFFFFFFFFFFFFFFFFFFFFFFFFFFFFFFFFFFFFFFF000FFFFFFFFFFFF
310
FFFFFFFFFFFFFFFFFFFFFFFFFFFFFFFFFFFFFFFFFFFFFFFFFFFFFFFFFFFFFFFF
310
FFFFFFFFFFFFFFFFFFFFFFFFFFFFFFFFFFFFFFFFFFFFFFFFFFFFFFFFFFFFFFFF
310
FFFFFFFFFFFFFFFFFFFFFFFFFFFFFFFFF000FFFFFFFFFFFFFFFFFFFFFFFFFFFF
310
FFFFFFFFFFFFFFFFFFFFFFFFFFFFFFFFFFFFFFFFFFFFFFFFFFFFFFFFFFFFFFFF
310
FFFFFFFFFFFFFFFFFFFFFFFFFFFFFFFFFFFFFFFFFFFFFFFFFFFFFFFFFFFFFFFF
310
FFFFFFFFFFFFFFFFF000FFFFFFFFFFFFFFFFFFFFFFFFFFFFFFFFFFFFFFFFFFFF
310
FFFFFFFFFFFFFFFFFFFFFFFFFFFFFFFFFFFFFFFFFFFFFFFFFFFFFFFFFFFFFFFF
310
FFFFFFFFFFFFFFFFFFFFFFFFFFFFFFFFFFFFFFFFFFFFFFFFFFFFFFFFFFFFFFFF
310
F000FFFFFFFFFFFFFFFFFFFFFFFFFFFFFFFFFFFFFFFFFFFFFFFFFFFFFFFFFFFF
310
FFFFFFFFFFFFFFFFFFFFFFFFFFFFFFFFFFFFFFFFFFFFFFFFFFFFFFFFFFFFFFFF
310
FFFFFFFFFFFFFFFFFFFFFFFFFFFFFFFFFFFFFFFFFFFFFFFFF000FFFFFFFFFFFF
310
FFFFFFFFFFFFFFFFFFFFFFFFFFFFFFFFFFFFFFFFFFFFFFFFFFFFFFFFFFFFFFFF
310
FFFFFFFFFFFFFFFFFFFFFFFFFFFFFFFFFFFFFFFFFFFFFFFFFFFFFFFFFFFFFFFF
310
FFFFFFFFFFFFFFFFFFFFFFFFFFFFFFFFF000FFFFFFFFFFFFFFFFFFFFFFFFFFFF
310
FFFFFFFFFFFFFFFFFFFFFFFFFFFFFFFFFFFFFFFFFFFFFFFFFFFFFFFFFFFFFFFF
310
FFFFFFFFFFFFFFFFFFFFFFFFFFFFFFFFFFFFFFFFFFFFFFFFFFFFFFFFFFFFFFFF
310
FFFFFFFFFFFFFFFFF000FFFFFFFFFFFFFFFFFFFFFFFFFFFFFFFFFFFFFFFFFFFF
310
FFFFFFFFFFFFFFFFFFFFFFFFFFFFFFFFFFFFFFFFFFFFFFFFFFFFFFFFFFFFFFFF
310
FFFFFFFFFFFFFFFFFFFFFFFFFFFFFFFFFFFFFFFFFFFFFFFFFFFFFFFFFFFFFFFF
310
F000FFFFFFFFFFFFFFFFFFFFFFFFFFFFFFFFFFFFFFFFFFFFFFFFFFFFFFFFFFFF
310
FFFFFFFFFFFFFFFFFFFFFFFFFFFFFFFFFFFFFFFFFFFFFFFFFFFFFFFFFFFFFFFF
310
FFFFFFFFFFFFFFFFFFFFFFFFFFFFFFFFFFFFFFFFFFFFFFFFF000FFFFFFFFFFFF
310
FFFFFFFFFFFFFFFFFFFFFFFFFFFFFFFFFFFFFFFFFFFFFFFFFFFFFFFFFFFFFFFF
310
FFFFFFFFFFFFFFFFFFFFFFFFFFFFFFFFFFFFFFFFFFFFFFFFFFFFFFFFFFFFFFFF
310
FFFFFFFFFFFFFFFFFFFFFFFFFFFFFFFFF0000000000000000000000000000000
310
0000000000000000000000000000000000000000000000000000000000000000
310
0000000000000000000000000000000000000000000000000000000000000000
310
0000000000000000000000000000000000000000000000000000000000000000
310
0000000000000000000000000000000000000000000000000000000000000000
310
0000000000000000000000000000000000000000000000000000000000000000
310
0000000000000000000000000000000000000000000000000000000000000000
310
0000000000000000000000000000000000000000000000000000000000000000
310
0000000000000000000000000000000000000000000000000000000000000000
310
0000000000000000000000000000000000000000000000000000000000000000
310
0000000000000000000000000000000000000000000000000000000000000000
310
0000000000000000000000000000000000000000000000000000000000000000
310
0000000000000000000000000000000000000000000000000000000000000000
310
0000000000000000000000000000000000000000000000000000000000000000
310
0000000000000000000000000000000000000000000000000000000000000000
310
0000000000000000000000000000000000000000000000000000000000000000
  1
OLE
  0
ENDSEC
  0
SECTION
  2
OBJECTS
  0
DICTIONARY
  5
C
330
0
100
AcDbDictionary
281
     1
  3
ACAD_GROUP
350
D
  3
ACAD_LAYOUT
350
1A
  3
ACAD_MLINESTYLE
350
17
  3
ACAD_PLOTSETTINGS
350
19
  3
ACAD_PLOTSTYLENAME
350
E
  0
DICTIONARY
  5
D
102
{ACAD_REACTORS
330
C
102
}
330
C
100
AcDbDictionary
281
     1
  0
DICTIONARY
  5
1A
102
{ACAD_REACTORS
330
C
102
}
330
C
100
AcDbDictionary
281
     1
  3
Layout1
350
1E
  3
Layout2
350
26
  3
Model
350
22
  0
DICTIONARY
  5
17
102
{ACAD_REACTORS
330
C
102
}
330
C
100
AcDbDictionary
281
     1
  3
Standard
350
18
  0
DICTIONARY
  5
19
102
{ACAD_REACTORS
330
C
102
}
330
C
100
AcDbDictionary
281
     1
  0
ACDBDICTIONARYWDFLT
  5
E
102
{ACAD_REACTORS
330
C
102
}
330
C
100
AcDbDictionary
281
     1
  3
Normal
350
F
100
AcDbDictionaryWithDefault
340
F
  0
LAYOUT
  5
1E
102
{ACAD_REACTORS
330
1A
102
}
330
1A
100
AcDbPlotSettings
  1

  2
none_device
  4

  6

 40
0.0
 41
0.0
 42
0.0
 43
0.0
 44
0.0
 45
0.0
 46
0.0
 47
0.0
 48
0.0
 49
0.0
140
0.0
141
0.0
142
1.0
143
1.0
 70
   688
 72
     0
 73
     0
 74
     5
  7

 75
    16
147
1.0
148
0.0
149
0.0
100
AcDbLayout
  1
Layout1
 70
     1
 71
     1
 10
0.0
 20
0.0
 11
420.0
 21
297.0
 12
0.0
 22
0.0
 32
0.0
 14
1.0000000000E+20
 24
1.0000000000E+20
 34
1.0000000000E+20
 15
-1.0000000000E+20
 25
-1.0000000000E+20
 35
-1.0000000000E+20
146
0.0
 13
0.0
 23
0.0
 33
0.0
 16
1.0
 26
0.0
 36
0.0
 17
0.0
 27
1.0
 37
0.0
 76
     0
330
1B
  0
LAYOUT
  5
26
102
{ACAD_REACTORS
330
1A
102
}
330
1A
100
AcDbPlotSettings
  1

  2
none_device
  4

  6

 40
0.0
 41
0.0
 42
0.0
 43
0.0
 44
0.0
 45
0.0
 46
0.0
 47
0.0
 48
0.0
 49
0.0
140
0.0
141
0.0
142
1.0
143
1.0
 70
   688
 72
     0
 73
     0
 74
     5
  7

 75
    16
147
1.0
148
0.0
149
0.0
100
AcDbLayout
  1
Layout2
 70
     1
 71
     2
 10
0.0
 20
0.0
 11
0.0
 21
0.0
 12
0.0
 22
0.0
 32
0.0
 14
0.0
 24
0.0
 34
0.0
 15
0.0
 25
0.0
 35
0.0
146
0.0
 13
0.0
 23
0.0
 33
0.0
 16
1.0
 26
0.0
 36
0.0
 17
0.0
 27
1.0
 37
0.0
 76
     0
330
23
  0
LAYOUT
  5
22
102
{ACAD_REACTORS
330
1A
102
}
330
1A
100
AcDbPlotSettings
  1

  2
none_device
  4

  6

 40
0.0
 41
0.0
 42
0.0
 43
0.0
 44
0.0
 45
0.0
 46
0.0
 47
0.0
 48
0.0
 49
0.0
140
0.0
141
0.0
142
1.0
143
1.0
 70
  1712
 72
     0
 73
     0
 74
     0
  7

 75
     0
147
1.0
148
0.0
149
0.0
100
AcDbLayout
  1
Model
 70
     1
 71
     0
 10
0.0
 20
0.0
 11
297.0
 21
210.0
 12
0.0
 22
0.0
 32
0.0
 14
0.0
 24
0.0
 34
0.0
 15
297.0
 25
210.0
 35
0.0
146
0.0
 13
0.0
 23
0.0
 33
0.0
 16
1.0
 26
0.0
 36
0.0
 17
0.0
 27
1.0
 37
0.0
 76
     0
330
1F
331
29
  0
MLINESTYLE
  5
18
102
{ACAD_REACTORS
330
17
102
}
330
17
100
AcDbMlineStyle
  2
Standard
 70
     0
  3

 62
   256
 51
90.0
 52
90.0
 71
     2
 49
0.5
 62
   256
  6
BYLAYER
 49
-0.5
 62
   256
  6
BYLAYER
  0
ACDBPLACEHOLDER
  5
F
102
{ACAD_REACTORS
330
E
102
}
330
E
  0
ENDSEC
  0
EOF
