  0
SECTION
  2
HEADER
  9
$ACADVER
  1
AC1015
  9
$ACADMAINTVER
 70
     6
  9
$DWGCODEPAGE
  3
ANSI_1252
  9
$INSBASE
 10
0.0
 20
0.0
 30
0.0
  9
$EXTMIN
 10
0.0
 20
0.0
 30
0.0
  9
$EXTMAX
 10
297.0
 20
210.0
 30
0.0
  9
$LIMMIN
 10
0.0
 20
0.0
  9
$LIMMAX
 10
297.0
 20
210.0
  9
$ORTHOMODE
 70
     0
  9
$REGENMODE
 70
     1
  9
$FILLMODE
 70
     1
  9
$QTEXTMODE
 70
     0
  9
$MIRRTEXT
 70
     1
  9
$LTSCALE
 40
1.0
  9
$ATTMODE
 70
     1
  9
$TEXTSIZE
 40
2.0
  9
$TRACEWID
 40
1.0
  9
$TEXTSTYLE
  7
Standard
  9
$CLAYER
  8
0
  9
$CELTYPE
  6
ByLayer
  9
$CECOLOR
 62
   256
  9
$CELTSCALE
 40
1.0
  9
$DISPSILH
 70
     0
  9
$DIMSCALE
 40
1.0
  9
$DIMASZ
 40
3.0
  9
$DIMEXO
 40
0.0
  9
$DIMDLI
 40
3.75
  9
$DIMRND
 40
0.0
  9
$DIMDLE
 40
0.0
  9
$DIMEXE
 40
1.0
  9
$DIMTP
 40
0.0
  9
$DIMTM
 40
0.0
  9
$DIMTXT
 40
2.0
  9
$DIMCEN
 40
2.5
  9
$DIMTSZ
 40
0.0
  9
$DIMTOL
 70
     0
  9
$DIMLIM
 70
     0
  9
$DIMTIH
 70
     1
  9
$DIMTOH
 70
     1
  9
$DIMSE1
 70
     0
  9
$DIMSE2
 70
     0
  9
$DIMTAD
 70
     1
  9
$DIMZIN
 70
     0
  9
$DIMBLK
  1

  9
$DIMASO
 70
     1
  9
$DIMSHO
 70
     1
  9
$DIMPOST
  1

  9
$DIMAPOST
  1

  9
$DIMALT
 70
     0
  9
$DIMALTD
 70
     3
  9
$DIMALTF
 40
0.0393700787
  9
$DIMLFAC
 40
1.0
  9
$DIMTOFL
 70
     1
  9
$DIMTVP
 40
0.0
  9
$DIMTIX
 70
     0
  9
$DIMSOXD
 70
     0
  9
$DIMSAH
 70
     0
  9
$DIMBLK1
  1

  9
$DIMBLK2
  1

  9
$DIMSTYLE
  2
ISO-25
  9
$DIMCLRD
 70
     0
  9
$DIMCLRE
 70
     0
  9
$DIMCLRT
 70
     0
  9
$DIMTFAC
 40
1.0
  9
$DIMGAP
 40
1.524
  9
$DIMJUST
 70
     0
  9
$DIMSD1
 70
     0
  9
$DIMSD2
 70
     0
  9
$DIMTOLJ
 70
     0
  9
$DIMTZIN
 70
     0
  9
$DIMALTZ
 70
     0
  9
$DIMALTTZ
 70
     0
  9
$DIMUPT
 70
     0
  9
$DIMDEC
 70
     2
  9
$DIMTDEC
 70
     3
  9
$DIMALTU
 70
     2
  9
$DIMALTTD
 70
     3
  9
$DIMTXSTY
  7
Standard
  9
$DIMAUNIT
 70
     0
  9
$DIMADEC
 70
     2
  9
$DIMALTRND
 40
0.0
  9
$DIMAZIN
 70
     0
  9
$DIMDSEP
 70
    44
  9
$DIMATFIT
 70
     3
  9
$DIMFRAC
 70
     0
  9
$DIMLDRBLK
  1

  9
$DIMLUNIT
 70
     2
  9
$DIMLWD
 70
    -2
  9
$DIMLWE
 70
    -2
  9
$DIMTMOVE
 70
     0
  9
$LUNITS
 70
     2
  9
$LUPREC
 70
     2
  9
$SKETCHINC
 40
1.0
  9
$FILLETRAD
 40
10.0
  9
$AUNITS
 70
     0
  9
$AUPREC
 70
     2
  9
$MENU
  1
.
  9
$ELEVATION
 40
0.0
  9
$PELEVATION
 40
0.0
  9
$THICKNESS
 40
0.0
  9
$LIMCHECK
 70
     0
  9
$CHAMFERA
 40
10.0
  9
$CHAMFERB
 40
10.0
  9
$CHAMFERC
 40
20.0
  9
$CHAMFERD
 40
0.0
  9
$SKPOLY
 70
     0
  9
$TDCREATE
 40
2456071.355261331
  9
$TDUCREATE
 40
2456071.271927997
  9
$TDUPDATE
 40
2456071.355262778
  9
$TDUUPDATE
 40
2456071.271929444
  9
$TDINDWG
 40
0.0000000116
  9
$TDUSRTIMER
 40
0.0000000116
  9
$USRTIMER
 70
     1
  9
$ANGBASE
 50
0.0
  9
$ANGDIR
 70
     0
  9
$PDMODE
 70
     0
  9
$PDSIZE
 40
-1.0
  9
$PLINEWID
 40
0.0
  9
$SPLFRAME
 70
     0
  9
$SPLINETYPE
 70
     6
  9
$SPLINESEGS
 70
     8
  9
$HANDSEED
  5
1FE
  9
$SURFTAB1
 70
     6
  9
$SURFTAB2
 70
     6
  9
$SURFTYPE
 70
     6
  9
$SURFU
 70
     6
  9
$SURFV
 70
     6
  9
$UCSBASE
  2

  9
$UCSNAME
  2

  9
$UCSORG
 10
0.0
 20
0.0
 30
0.0
  9
$UCSXDIR
 10
1.0
 20
0.0
 30
0.0
  9
$UCSYDIR
 10
0.0
 20
1.0
 30
0.0
  9
$UCSORTHOREF
  2

  9
$UCSORTHOVIEW
 70
     0
  9
$UCSORGTOP
 10
0.0
 20
0.0
 30
0.0
  9
$UCSORGBOTTOM
 10
0.0
 20
0.0
 30
0.0
  9
$UCSORGLEFT
 10
0.0
 20
0.0
 30
0.0
  9
$UCSORGRIGHT
 10
0.0
 20
0.0
 30
0.0
  9
$UCSORGFRONT
 10
0.0
 20
0.0
 30
0.0
  9
$UCSORGBACK
 10
0.0
 20
0.0
 30
0.0
  9
$PUCSBASE
  2

  9
$PUCSNAME
  2

  9
$PUCSORG
 10
0.0
 20
0.0
 30
0.0
  9
$PUCSXDIR
 10
1.0
 20
0.0
 30
0.0
  9
$PUCSYDIR
 10
0.0
 20
1.0
 30
0.0
  9
$PUCSORTHOREF
  2

  9
$PUCSORTHOVIEW
 70
     0
  9
$PUCSORGTOP
 10
0.0
 20
0.0
 30
0.0
  9
$PUCSORGBOTTOM
 10
0.0
 20
0.0
 30
0.0
  9
$PUCSORGLEFT
 10
0.0
 20
0.0
 30
0.0
  9
$PUCSORGRIGHT
 10
0.0
 20
0.0
 30
0.0
  9
$PUCSORGFRONT
 10
0.0
 20
0.0
 30
0.0
  9
$PUCSORGBACK
 10
0.0
 20
0.0
 30
0.0
  9
$USERI1
 70
     0
  9
$USERI2
 70
     0
  9
$USERI3
 70
     0
  9
$USERI4
 70
     0
  9
$USERI5
 70
     0
  9
$USERR1
 40
0.0
  9
$USERR2
 40
0.0
  9
$USERR3
 40
0.0
  9
$USERR4
 40
0.0
  9
$USERR5
 40
0.0
  9
$WORLDVIEW
 70
     1
  9
$SHADEDGE
 70
     3
  9
$SHADEDIF
 70
    70
  9
$TILEMODE
 70
     1
  9
$MAXACTVP
 70
    64
  9
$PINSBASE
 10
0.0
 20
0.0
 30
0.0
  9
$PLIMCHECK
 70
     0
  9
$PEXTMIN
 10
1.0000000000E+20
 20
1.0000000000E+20
 30
1.0000000000E+20
  9
$PEXTMAX
 10
-1.0000000000E+20
 20
-1.0000000000E+20
 30
-1.0000000000E+20
  9
$PLIMMIN
 10
0.0
 20
0.0
  9
$PLIMMAX
 10
420.0
 20
297.0
  9
$UNITMODE
 70
     0
  9
$VISRETAIN
 70
     1
  9
$PLINEGEN
 70
     0
  9
$PSLTSCALE
 70
     1
  9
$TREEDEPTH
 70
  3020
  9
$CMLSTYLE
  2
Standard
  9
$CMLJUST
 70
     0
  9
$CMLSCALE
 40
20.0
  9
$PROXYGRAPHICS
 70
     1
  9
$MEASUREMENT
 70
     1
  9
$CELWEIGHT
370
    -1
  9
$ENDCAPS
280
     0
  9
$JOINSTYLE
280
     0
  9
$LWDISPLAY
290
     1
  9
$INSUNITS
 70
     4
  9
$HYPERLINKBASE
  1

  9
$STYLESHEET
  1

  9
$XEDIT
290
     1
  9
$CEPSNTYPE
380
     0
  9
$PSTYLEMODE
290
     1
  9
$FINGERPRINTGUID
  2
{7B7A9D0A-797F-48A5-97C3-A2E27FFB4751}
  9
$VERSIONGUID
  2
{FAEB1C32-E019-11D5-929B-00C0DF256EC4}
  9
$EXTNAMES
290
     1
  9
$PSVPSCALE
 40
0.0
  9
$OLESTARTUP
290
     0
  0
ENDSEC
  0
SECTION
  2
CLASSES
  0
CLASS
  1
ACDBDICTIONARYWDFLT
  2
AcDbDictionaryWithDefault
  3
ObjectDBX Classes
 90
        0
280
     0
281
     0
  0
CLASS
  1
VISUALSTYLE
  2
AcDbVisualStyle
  3
ObjectDBX Classes
 90
     4095
280
     0
281
     0
  0
CLASS
  1
MATERIAL
  2
AcDbMaterial
  3
ObjectDBX Classes
 90
     1153
280
     0
281
     0
  0
CLASS
  1
ACDBPLACEHOLDER
  2
AcDbPlaceHolder
  3
ObjectDBX Classes
 90
        0
280
     0
281
     0
  0
CLASS
  1
LAYOUT
  2
AcDbLayout
  3
ObjectDBX Classes
 90
        0
280
     0
281
     0
  0
ENDSEC
  0
SECTION
  2
TABLES
  0
TABLE
  2
VPORT
  5
8
330
0
100
AcDbSymbolTable
 70
     1
  0
VPORT
  5
29
330
8
100
AcDbSymbolTableRecord
100
AcDbViewportTableRecord
  2
*Active
 70
     0
 10
0.0
 20
0.0
 11
1.0
 21
1.0
 12
148.5
 22
105.0
 13
0.0
 23
0.0
 14
10.0
 24
10.0
 15
10.0
 25
10.0
 16
0.0
 26
0.0
 36
1.0
 17
0.0
 27
0.0
 37
0.0
 40
210.0
 41
1.4142857143
 42
50.0
 43
0.0
 44
0.0
 50
0.0
 51
0.0
 71
     0
 72
  2000
 73
     1
 74
     3
 75
     0
 76
     0
 77
     0
 78
     0
281
     0
 65
     1
110
0.0
120
0.0
130
0.0
111
1.0
121
0.0
131
0.0
112
0.0
122
1.0
132
0.0
 79
     0
146
0.0
  0
ENDTAB
  0
TABLE
  2
LTYPE
  5
5
330
0
100
AcDbSymbolTable
 70
     6
  0
LTYPE
  5
14
330
5
100
AcDbSymbolTableRecord
100
AcDbLinetypeTableRecord
  2
ByBlock
 70
     0
  3

 72
    65
 73
     0
 40
0.0
  0
LTYPE
  5
15
330
5
100
AcDbSymbolTableRecord
100
AcDbLinetypeTableRecord
  2
ByLayer
 70
     0
  3

 72
    65
 73
     0
 40
0.0
  0
LTYPE
  5
16
330
5
100
AcDbSymbolTableRecord
100
AcDbLinetypeTableRecord
  2
Continuous
 70
     0
  3
Solid line
 72
    65
 73
     0
 40
0.0
  0
LTYPE
  5
3F
330
5
100
AcDbSymbolTableRecord
100
AcDbLinetypeTableRecord
  2
HIDDEN
 70
     0
  3
Hidden __ __ __ __ __ __ __ __ __ __ __ __ __ __
 72
    65
 73
     2
 40
1.905
 49
1.27
 74
     0
 49
-0.635
 74
     0
  0
LTYPE
  5
40
330
5
100
AcDbSymbolTableRecord
100
AcDbLinetypeTableRecord
  2
PHANTOM
 70
     0
  3
Phantom ______  __  __  ______  __  __  ______
 72
    65
 73
     6
 40
12.7
 49
6.35
 74
     0
 49
-1.27
 74
     0
 49
1.27
 74
     0
 49
-1.27
 74
     0
 49
1.27
 74
     0
 49
-1.27
 74
     0
  0
LTYPE
  5
41
330
5
100
AcDbSymbolTableRecord
100
AcDbLinetypeTableRecord
  2
CENTER
 70
     0
  3
Center ____ _ ____ _ ____ _ ____ _ ____ _ ____
 72
    65
 73
     4
 40
10.16
 49
6.35
 74
     0
 49
-1.27
 74
     0
 49
1.27
 74
     0
 49
-1.27
 74
     0
  0
LTYPE
  5
42
330
5
100
AcDbSymbolTableRecord
100
AcDbLinetypeTableRecord
  2
CENTERX2
 70
     0
  3
Center (2x) ________  __  ________  __  _____
 72
    65
 73
     4
 40
20.32
 49
12.7
 74
     0
 49
-2.54
 74
     0
 49
2.54
 74
     0
 49
-2.54
 74
     0
  0
LTYPE
  5
43
330
5
100
AcDbSymbolTableRecord
100
AcDbLinetypeTableRecord
  2
DOT2
 70
     0
  3
Dot (.5x) ........................................
 72
    65
 73
     2
 40
0.635
 49
0.0
 74
     0
 49
-0.635
 74
     0
  0
ENDTAB
  0
TABLE
  2
LAYER
  5
2
330
0
100
AcDbSymbolTable
 70
     5
  0
LAYER
  5
10
330
2
100
AcDbSymbolTableRecord
100
AcDbLayerTableRecord
  2
0
 70
     0
 62
     7
  6
Continuous
370
    -3
390
F
  0
LAYER
  5
44
330
2
100
AcDbSymbolTableRecord
100
AcDbLayerTableRecord
  2
FORMAT
 70
     0
 62
     7
  6
Continuous
370
    -3
390
F
  0
LAYER
  5
45
330
2
100
AcDbSymbolTableRecord
100
AcDbLayerTableRecord
  2
VERMASSUNG
 70
     0
 62
     7
  6
Continuous
370
    -3
390
F
  0
LAYER
  5
46
330
2
100
AcDbSymbolTableRecord
100
AcDbLayerTableRecord
  2
KOPF_DÜNN
 70
     0
 62
     7
  6
Continuous
370
    -3
390
F
  0
LAYER
  5
47
330
2
100
AcDbSymbolTableRecord
100
AcDbLayerTableRecord
  2
KOPF_DICK
 70
     0
 62
     7
  6
Continuous
370
    15
390
F
  0
ENDTAB
  0
TABLE
  2
STYLE
  5
3
330
0
100
AcDbSymbolTable
 70
     2
  0
STYLE
  5
11
330
3
100
AcDbSymbolTableRecord
100
AcDbTextStyleTableRecord
  2
Standard
 70
     0
 40
0.0
 41
1.0
 50
0.0
 71
     0
 42
2.0
  3
txt
  4

  0
STYLE
  5
48
330
3
100
AcDbSymbolTableRecord
100
AcDbTextStyleTableRecord
  2
SLDTEXTSTYLE0
 70
     0
 40
0.0
 41
0.7
 50
0.0
 71
     0
 42
0.2
  3
TXT
  4

  0
ENDTAB
  0
TABLE
  2
VIEW
  5
6
330
0
100
AcDbSymbolTable
 70
     0
  0
ENDTAB
  0
TABLE
  2
UCS
  5
7
330
0
100
AcDbSymbolTable
 70
     0
  0
ENDTAB
  0
TABLE
  2
APPID
  5
9
330
0
100
AcDbSymbolTable
 70
     1
  0
APPID
  5
12
330
9
100
AcDbSymbolTableRecord
100
AcDbRegAppTableRecord
  2
ACAD
 70
     0
  0
ENDTAB
  0
TABLE
  2
DIMSTYLE
  5
A
330
0
100
AcDbSymbolTable
 70
     5
100
AcDbDimStyleTable
  0
DIMSTYLE
105
27
330
A
100
AcDbSymbolTableRecord
100
AcDbDimStyleTableRecord
  2
ISO-25
 70
     0
 41
2.5
 42
0.625
 43
3.75
 44
1.25
 73
     0
 74
     0
 77
     1
 78
     8
140
2.5
141
2.5
143
0.0393700787
147
0.625
171
     3
172
     1
178
     0
271
     2
272
     2
274
     3
278
    44
283
     0
284
     8
340
11
  0
DIMSTYLE
105
184
102
{ACAD_REACTORS
330
183
330
190
102
}
330
A
100
AcDbSymbolTableRecord
100
AcDbDimStyleTableRecord
  2
SLDDIMSTYLE0
 70
     0
 41
3.0
 44
0.0
 45
0.000000001
 47
0.1
 48
0.1
 71
     1
 73
     0
 74
     0
 77
     1
 78
    12
 79
     3
140
2.0
147
0.5
173
     1
178
     0
271
     2
272
     1
276
     2
284
     8
340
48
  0
DIMSTYLE
105
19D
102
{ACAD_REACTORS
330
19C
330
1B0
102
}
330
A
100
AcDbSymbolTableRecord
100
AcDbDimStyleTableRecord
  2
SLDDIMSTYLE1
 70
     0
 41
3.0
 44
0.0
 45
0.000000001
 73
     0
 74
     0
 77
     1
 78
    12
 79
     3
140
2.0
147
0.5
173
     1
178
     0
271
     2
272
     3
276
     2
284
    12
340
48
  0
DIMSTYLE
105
1A8
102
{ACAD_REACTORS
330
1A7
102
}
330
A
100
AcDbSymbolTableRecord
100
AcDbDimStyleTableRecord
  2
SLDDIMSTYLE2
 70
     0
 41
3.0
 44
0.0
 73
     0
 74
     0
 77
     1
 78
    12
 79
     3
140
2.0
147
0.5
173
     1
178
     0
179
     2
272
     3
276
     2
284
    12
340
48
  0
DIMSTYLE
105
1E3
102
{ACAD_REACTORS
330
1E2
102
}
330
A
100
AcDbSymbolTableRecord
100
AcDbDimStyleTableRecord
  2
SLDDIMSTYLE3
 70
     0
 41
3.0
 44
0.0
 45
0.000000001
 73
     0
 74
     0
 77
     1
 78
    12
 79
     3
140
2.0
147
0.5
172
     1
173
     1
178
     0
271
     2
272
     3
276
     2
284
    12
289
     0
340
48
  0
ENDTAB
  0
TABLE
  2
BLOCK_RECORD
  5
1
330
0
100
AcDbSymbolTable
 70
     8
  0
BLOCK_RECORD
  5
1F
330
1
100
AcDbSymbolTableRecord
100
AcDbBlockTableRecord
  2
*Model_Space
340
22
  0
BLOCK_RECORD
  5
1B
330
1
100
AcDbSymbolTableRecord
100
AcDbBlockTableRecord
  2
*Paper_Space
340
1E
  0
BLOCK_RECORD
  5
23
330
1
100
AcDbSymbolTableRecord
100
AcDbBlockTableRecord
  2
*Paper_Space0
340
26
  0
BLOCK_RECORD
  5
185
330
1
100
AcDbSymbolTableRecord
100
AcDbBlockTableRecord
  2
_D
340
0
  0
BLOCK_RECORD
  5
191
330
1
100
AcDbSymbolTableRecord
100
AcDbBlockTableRecord
  2
_D_1
340
0
  0
BLOCK_RECORD
  5
19E
330
1
100
AcDbSymbolTableRecord
100
AcDbBlockTableRecord
  2
_D_2
340
0
  0
BLOCK_RECORD
  5
1A9
330
1
100
AcDbSymbolTableRecord
100
AcDbBlockTableRecord
  2
_D_3
340
0
  0
BLOCK_RECORD
  5
1B1
330
1
100
AcDbSymbolTableRecord
100
AcDbBlockTableRecord
  2
_D_4
340
0
  0
BLOCK_RECORD
  5
1E4
330
1
100
AcDbSymbolTableRecord
100
AcDbBlockTableRecord
  2
_D_5
340
0
  0
BLOCK_RECORD
  5
1F1
330
1
100
AcDbSymbolTableRecord
100
AcDbBlockTableRecord
  2
SW_CENTERMARKSYMBOL_0
340
0
102
{BLKREFS
331
1FC
102
}
  0
ENDTAB
  0
ENDSEC
  0
SECTION
  2
BLOCKS
  0
BLOCK
  5
20
330
1F
100
AcDbEntity
  8
0
100
AcDbBlockBegin
  2
*Model_Space
 70
     0
 10
0.0
 20
0.0
 30
0.0
  3
*Model_Space
  1

  0
ENDBLK
  5
21
330
1F
100
AcDbEntity
  8
0
100
AcDbBlockEnd
  0
BLOCK
  5
1C
330
1B
100
AcDbEntity
 67
     1
  8
0
100
AcDbBlockBegin
  2
*Paper_Space
 70
     0
 10
0.0
 20
0.0
 30
0.0
  3
*Paper_Space
  1

  0
ENDBLK
  5
1D
330
1B
100
AcDbEntity
 67
     1
  8
0
100
AcDbBlockEnd
  0
BLOCK
  5
24
330
23
100
AcDbEntity
  8
0
100
AcDbBlockBegin
  2
*Paper_Space0
 70
     0
 10
0.0
 20
0.0
 30
0.0
  3
*Paper_Space0
  1

  0
ENDBLK
  5
25
330
23
100
AcDbEntity
  8
0
100
AcDbBlockEnd
  0
BLOCK
  5
186
330
185
100
AcDbEntity
  8
0
100
AcDbBlockBegin
  2
_D
 70
     0
 10
0.0
 20
0.0
 30
0.0
  3
_D
  1

  0
SOLID
  5
188
330
185
100
AcDbEntity
  8
VERMASSUNG
100
AcDbTrace
 10
265.4472790693
 20
86.7942489837
 30
0.0
 11
265.8972790693
 21
89.7942489837
 31
0.0
 12
264.9972790693
 22
89.7942489837
 32
0.0
 13
264.9972790693
 23
89.7942489837
 33
0.0
  0
SOLID
  5
189
330
185
100
AcDbEntity
  8
VERMASSUNG
100
AcDbTrace
 10
265.4472790693
 20
131.7942489837
 30
0.0
 11
264.9972790693
 21
128.7942489837
 31
0.0
 12
265.8972790693
 22
128.7942489837
 32
0.0
 13
265.8972790693
 23
128.7942489837
 33
0.0
  0
LINE
  5
18A
330
185
100
AcDbEntity
  8
VERMASSUNG
100
AcDbLine
 10
254.8914802302
 20
86.7942489837
 30
0.0
 11
266.4472790693
 21
86.7942489837
 31
0.0
  0
LINE
  5
18B
330
185
100
AcDbEntity
  8
VERMASSUNG
100
AcDbLine
 10
254.8914802302
 20
131.7942489837
 30
0.0
 11
266.4472790693
 21
131.7942489837
 31
0.0
  0
LINE
  5
18C
330
185
100
AcDbEntity
  8
VERMASSUNG
100
AcDbLine
 10
265.4472790693
 20
86.7942489837
 30
0.0
 11
265.4472790693
 21
131.7942489837
 31
0.0
  0
MTEXT
  5
18D
330
185
100
AcDbEntity
  8
VERMASSUNG
100
AcDbMText
 10
262.8691437062
 20
104.6442489666
 30
0.1
 40
2.0
 41
0.0
 71
     1
 72
     1
  1
45
  7
SLDTEXTSTYLE0
 11
6.123233995736766E-17
 21
1.0
 31
0.0
 73
     1
 44
1.0
  0
MTEXT
  5
18E
330
185
100
AcDbEntity
  8
VERMASSUNG
100
AcDbMText
 10
262.8691437062
 20
110.6317491946
 30
0.1
 40
2.0
 41
0.0
 71
     1
 72
     1
  1

  7
SLDTEXTSTYLE0
 11
6.123233995736766E-17
 21
1.0
 31
0.0
 73
     1
 44
1.0
  0
MTEXT
  5
18F
330
185
100
AcDbEntity
  8
VERMASSUNG
100
AcDbMText
 10
263.363677569
 20
110.6442490188
 30
0.1
 40
1.5
 41
0.0
 71
     1
 72
     1
  1
±0.1
  7
SLDTEXTSTYLE0
 11
6.123233995736766E-17
 21
1.0
 31
0.0
 73
     1
 44
1.0
  0
ENDBLK
  5
187
330
185
100
AcDbEntity
  8
0
100
AcDbBlockEnd
  0
BLOCK
  5
192
330
191
100
AcDbEntity
  8
0
100
AcDbBlockBegin
  2
_D_1
 70
     0
 10
0.0
 20
0.0
 30
0.0
  3
_D_1
  1

  0
SOLID
  5
194
330
191
100
AcDbEntity
  8
VERMASSUNG
100
AcDbTrace
 10
189.8914802302
 20
70.7462157995
 30
0.0
 11
192.8914802302
 21
70.2962157995
 31
0.0
 12
192.8914802302
 22
71.1962157995
 32
0.0
 13
192.8914802302
 23
71.1962157995
 33
0.0
  0
SOLID
  5
195
330
191
100
AcDbEntity
  8
VERMASSUNG
100
AcDbTrace
 10
254.8914802302
 20
70.7462157995
 30
0.0
 11
251.8914802302
 21
71.1962157995
 31
0.0
 12
251.8914802302
 22
70.2962157995
 32
0.0
 13
251.8914802302
 23
70.2962157995
 33
0.0
  0
LINE
  5
196
330
191
100
AcDbEntity
  8
VERMASSUNG
100
AcDbLine
 10
189.8914802302
 20
100.7942489837
 30
0.0
 11
189.8914802302
 21
69.7462157995
 31
0.0
  0
LINE
  5
197
330
191
100
AcDbEntity
  8
VERMASSUNG
100
AcDbLine
 10
254.8914802302
 20
86.7942489837
 30
0.0
 11
254.8914802302
 21
69.7462157995
 31
0.0
  0
LINE
  5
198
330
191
100
AcDbEntity
  8
VERMASSUNG
100
AcDbLine
 10
189.8914802302
 20
70.7462157995
 30
0.0
 11
254.8914802302
 21
70.7462157995
 31
0.0
  0
MTEXT
  5
199
330
191
100
AcDbEntity
  8
VERMASSUNG
100
AcDbMText
 10
217.8414800432
 20
73.3243511626
 30
0.1
 40
2.0
 41
0.0
 71
     1
 72
     1
  1
65
  7
SLDTEXTSTYLE0
 73
     1
 44
1.0
  0
MTEXT
  5
19A
330
191
100
AcDbEntity
  8
VERMASSUNG
100
AcDbMText
 10
223.6289801452
 20
73.3243511626
 30
0.1
 40
2.0
 41
0.0
 71
     1
 72
     1
  1

  7
SLDTEXTSTYLE0
 73
     1
 44
1.0
  0
MTEXT
  5
19B
330
191
100
AcDbEntity
  8
VERMASSUNG
100
AcDbMText
 10
223.6414804351
 20
72.8298172998
 30
0.1
 40
1.5
 41
0.0
 71
     1
 72
     1
  1
±0.1
  7
SLDTEXTSTYLE0
 73
     1
 44
1.0
  0
ENDBLK
  5
193
330
191
100
AcDbEntity
  8
0
100
AcDbBlockEnd
  0
BLOCK
  5
19F
330
19E
100
AcDbEntity
  8
0
100
AcDbBlockBegin
  2
_D_2
 70
     0
 10
0.0
 20
0.0
 30
0.0
  3
_D_2
  1

  0
SOLID
  5
1A1
330
19E
100
AcDbEntity
  8
VERMASSUNG
100
AcDbTrace
 10
151.8914802302
 20
62.8060092285
 30
0.0
 11
154.8914802302
 21
62.3560092285
 31
0.0
 12
154.8914802302
 22
63.2560092285
 32
0.0
 13
154.8914802302
 23
63.2560092285
 33
0.0
  0
SOLID
  5
1A2
330
19E
100
AcDbEntity
  8
VERMASSUNG
100
AcDbTrace
 10
254.8914802302
 20
62.8060092285
 30
0.0
 11
251.8914802302
 21
63.2560092285
 31
0.0
 12
251.8914802302
 22
62.3560092285
 32
0.0
 13
251.8914802302
 23
62.3560092285
 33
0.0
  0
LINE
  5
1A3
330
19E
100
AcDbEntity
  8
VERMASSUNG
100
AcDbLine
 10
151.8914802302
 20
111.5019109912
 30
0.0
 11
151.8914802302
 21
61.8060092285
 31
0.0
  0
LINE
  5
1A4
330
19E
100
AcDbEntity
  8
VERMASSUNG
100
AcDbLine
 10
254.8914802302
 20
86.7942489837
 30
0.0
 11
254.8914802302
 21
61.8060092285
 31
0.0
  0
LINE
  5
1A5
330
19E
100
AcDbEntity
  8
VERMASSUNG
100
AcDbLine
 10
151.8914802302
 20
62.8060092285
 30
0.0
 11
254.8914802302
 21
62.8060092285
 31
0.0
  0
MTEXT
  5
1A6
330
19E
100
AcDbEntity
  8
VERMASSUNG
100
AcDbMText
 10
200.5914800972
 20
65.3841445916
 30
0.1
 40
2.0
 41
0.0
 71
     1
 72
     1
  1
103
  7
SLDTEXTSTYLE0
 73
     1
 44
1.0
  0
ENDBLK
  5
1A0
330
19E
100
AcDbEntity
  8
0
100
AcDbBlockEnd
  0
BLOCK
  5
1AA
330
1A9
100
AcDbEntity
  8
0
100
AcDbBlockBegin
  2
_D_3
 70
     0
 10
0.0
 20
0.0
 30
0.0
  3
_D_3
  1

  0
ARC
  5
1AC
330
1A9
100
AcDbEntity
  8
VERMASSUNG
100
AcDbCircle
 10
254.8914802302
 20
86.7727369336
 30
0.0
 40
9.458076007171094
100
AcDbArc
 50
177.0
 51
270.0
  0
SOLID
  5
1AD
330
1A9
100
AcDbEntity
  8
VERMASSUNG
100
AcDbTrace
 10
245.4463661875
 20
87.2677343857
 30
0.0
 11
245.3017982353
 21
84.2376188586
 31
0.0
 12
246.1971920895
 22
84.3285575511
 32
0.0
 13
246.1971920895
 23
84.3285575511
 33
0.0
  0
SOLID
  5
1AE
330
1A9
100
AcDbEntity
  8
VERMASSUNG
100
AcDbTrace
 10
254.8914802302
 20
77.3146609265
 30
0.0
 11
251.9956266269
 21
78.2182824779
 31
0.0
 12
251.8579512691
 22
77.3288750933
 32
0.0
 13
251.8579512691
 23
77.3288750933
 33
0.0
  0
MTEXT
  5
1AF
330
1A9
100
AcDbEntity
  8
VERMASSUNG
100
AcDbMText
 10
247.9047192085
 20
84.1404841289
 30
0.1
 40
2.0
 41
0.0
 71
     1
 72
     1
  1
93°
  7
SLDTEXTSTYLE0
 11
0.688354575693764
 21
-0.7253743710122781
 31
0.0
 73
     1
 44
1.0
  0
ENDBLK
  5
1AB
330
1A9
100
AcDbEntity
  8
0
100
AcDbBlockEnd
  0
BLOCK
  5
1B2
330
1B1
100
AcDbEntity
  8
0
100
AcDbBlockBegin
  2
_D_4
 70
     0
 10
0.0
 20
0.0
 30
0.0
  3
_D_4
  1

  0
SOLID
  5
1B4
330
1B1
100
AcDbEntity
  8
VERMASSUNG
100
AcDbTrace
 10
141.8914802302
 20
163.2942489837
 30
0.0
 11
141.4414802302
 21
160.2942489837
 31
0.0
 12
142.3414802302
 22
160.2942489837
 32
0.0
 13
142.3414802302
 23
160.2942489837
 33
0.0
  0
SOLID
  5
1B5
330
1B1
100
AcDbEntity
  8
VERMASSUNG
100
AcDbTrace
 10
141.8914802302
 20
100.2942489837
 30
0.0
 11
142.3414802302
 21
103.2942489837
 31
0.0
 12
141.4414802302
 22
103.2942489837
 32
0.0
 13
141.4414802302
 23
103.2942489837
 33
0.0
  0
LINE
  5
1B6
330
1B1
100
AcDbEntity
  8
VERMASSUNG
100
AcDbLine
 10
190.3914802302
 20
163.2942489837
 30
0.0
 11
140.8914802302
 21
163.2942489837
 31
0.0
  0
LINE
  5
1B7
330
1B1
100
AcDbEntity
  8
VERMASSUNG
100
AcDbLine
 10
190.3914802302
 20
100.2942489837
 30
0.0
 11
140.8914802302
 21
100.2942489837
 31
0.0
  0
LINE
  5
1B8
330
1B1
100
AcDbEntity
  8
VERMASSUNG
100
AcDbLine
 10
141.8914802302
 20
163.2942489837
 30
0.0
 11
141.8914802302
 21
100.2942489837
 31
0.0
  0
MTEXT
  5
1B9
330
1B1
100
AcDbEntity
  8
VERMASSUNG
100
AcDbMText
 10
139.1133447411
 20
125.3892488745
 30
0.6058483104
 40
2.0
 41
0.0
 71
     1
 72
     1
  1
PSC
  7
SLDTEXTSTYLE0
 11
-7.044195017643634E-15
 21
1.0
 31
0.0
 73
     1
 44
1.0
  0
MTEXT
  5
1BA
330
1B1
100
AcDbEntity
  8
VERMASSUNG
100
AcDbMText
 10
139.3133447506
 20
129.9892489766
 30
0.6058483104
 40
2.0
 41
0.0
 71
     1
 72
     1
  1
%%c
  7
SLDTEXTSTYLE0
 11
-7.044195017643634E-15
 21
1.0
 31
0.0
 73
     1
 44
1.0
  0
MTEXT
  5
1BB
330
1B1
100
AcDbEntity
  8
VERMASSUNG
100
AcDbMText
 10
139.1133447411
 20
133.5992494566
 30
0.6058483104
 40
2.0
 41
0.0
 71
     1
 72
     1
  1
63
  7
SLDTEXTSTYLE0
 11
-7.044195017643634E-15
 21
1.0
 31
0.0
 73
     1
 44
1.0
  0
ENDBLK
  5
1B3
330
1B1
100
AcDbEntity
  8
0
100
AcDbBlockEnd
  0
BLOCK
  5
1E5
330
1E4
100
AcDbEntity
  8
0
100
AcDbBlockBegin
  2
_D_5
 70
     0
 10
0.0
 20
0.0
 30
0.0
  3
_D_5
  1

  0
SOLID
  5
1E7
330
1E4
100
AcDbEntity
  8
VERMASSUNG
100
AcDbTrace
 10
96.0201676625
 20
96.0331426735
 30
0.0
 11
97.6773021053
 21
93.4921968972
 31
0.0
 12
98.3498817464
 22
94.0902241762
 32
0.0
 13
98.3498817464
 23
94.0902241762
 33
0.0
  0
SOLID
  5
1E8
330
1E4
100
AcDbEntity
  8
VERMASSUNG
100
AcDbTrace
 10
42.8621873061
 20
155.8179996561
 30
0.0
 11
41.2050528633
 21
158.3589454325
 31
0.0
 12
40.5324732222
 22
157.7609181535
 32
0.0
 13
40.5324732222
 23
157.7609181535
 33
0.0
  0
LINE
  5
1E9
330
1E4
100
AcDbEntity
  8
VERMASSUNG
100
AcDbLine
 10
96.9966105026
 20
96.9013513125
 30
0.0
 11
95.2728569502
 21
95.368667919
 31
0.0
  0
LINE
  5
1EA
330
1E4
100
AcDbEntity
  8
VERMASSUNG
100
AcDbLine
 10
43.8386301463
 20
156.6862082952
 30
0.0
 11
42.1148765938
 21
155.1535249017
 31
0.0
  0
LINE
  5
1EB
330
1E4
100
AcDbEntity
  8
VERMASSUNG
100
AcDbLine
 10
96.0201676625
 20
96.0331426735
 30
0.0
 11
100.0070161892
 21
91.5492783998
 31
0.0
  0
LINE
  5
1EC
330
1E4
100
AcDbEntity
  8
VERMASSUNG
100
AcDbLine
 10
96.0201676625
 20
96.0331426735
 30
0.0
 11
42.8621873061
 21
155.8179996561
 31
0.0
  0
LINE
  5
1ED
330
1E4
100
AcDbEntity
  8
VERMASSUNG
100
AcDbLine
 10
42.8621873061
 20
155.8179996561
 30
0.0
 11
30.0837779996
 21
170.1894142158
 31
0.0
  0
MTEXT
  5
1EE
330
1E4
100
AcDbEntity
  8
VERMASSUNG
100
AcDbMText
 10
32.0104462612
 20
171.9025201555
 30
0.1
 40
2.0
 41
0.0
 71
     1
 72
     1
  1
%%c
  7
SLDTEXTSTYLE0
 11
0.6644747544544684
 21
-0.7473107122828322
 31
0.0
 73
     1
 44
1.0
  0
MTEXT
  5
1EF
330
1E4
100
AcDbEntity
  8
VERMASSUNG
100
AcDbMText
 10
34.5586622838
 20
169.3376234307
 30
0.1
 40
2.0
 41
0.0
 71
     1
 72
     1
  1
80
  7
SLDTEXTSTYLE0
 11
0.6644747544544684
 21
-0.7473107122828322
 31
0.0
 73
     1
 44
1.0
  0
MTEXT
  5
1F0
330
1E4
100
AcDbEntity
  8
VERMASSUNG
100
AcDbMText
 10
38.4043103025
 20
165.0125622591
 30
0.1
 40
2.0
 41
0.0
 71
     1
 72
     1
  1
min.
  7
SLDTEXTSTYLE0
 11
0.6644747544544684
 21
-0.7473107122828322
 31
0.0
 73
     1
 44
1.0
  0
ENDBLK
  5
1E6
330
1E4
100
AcDbEntity
  8
0
100
AcDbBlockEnd
  0
BLOCK
  5
1F2
330
1F1
100
AcDbEntity
  8
0
100
AcDbBlockBegin
  2
SW_CENTERMARKSYMBOL_0
 70
     0
 10
0.0
 20
0.0
 30
0.0
  3
SW_CENTERMARKSYMBOL_0
  1

  0
LINE
  5
1F4
330
1F1
100
AcDbEntity
  8
VERMASSUNG
 62
     0
100
AcDbLine
 10
0.0
 20
0.0
 30
0.0
 11
0.0
 21
2.5
 31
0.0
  0
LINE
  5
1F5
330
1F1
100
AcDbEntity
  8
VERMASSUNG
 62
     0
100
AcDbLine
 10
0.0
 20
0.0
 30
0.0
 11
-2.5
 21
0.0
 31
0.0
  0
LINE
  5
1F6
330
1F1
100
AcDbEntity
  8
VERMASSUNG
 62
     0
100
AcDbLine
 10
0.0
 20
0.0
 30
0.0
 11
0.0
 21
-2.5
 31
0.0
  0
LINE
  5
1F7
330
1F1
100
AcDbEntity
  8
VERMASSUNG
 62
     0
100
AcDbLine
 10
0.0
 20
0.0
 30
0.0
 11
2.5
 21
0.0
 31
0.0
  0
LINE
  5
1F8
330
1F1
100
AcDbEntity
  8
VERMASSUNG
 62
     0
100
AcDbLine
 10
0.0
 20
5.0
 30
0.0
 11
0.0
 21
34.0
 31
0.0
  0
LINE
  5
1F9
330
1F1
100
AcDbEntity
  8
VERMASSUNG
 62
     0
100
AcDbLine
 10
-5.0
 20
0.0
 30
0.0
 11
-34.0
 21
0.0
 31
0.0
  0
LINE
  5
1FA
330
1F1
100
AcDbEntity
  8
VERMASSUNG
 62
     0
100
AcDbLine
 10
0.0
 20
-5.0
 30
0.0
 11
0.0
 21
-34.0
 31
0.0
  0
LINE
  5
1FB
330
1F1
100
AcDbEntity
  8
VERMASSUNG
 62
     0
100
AcDbLine
 10
5.0
 20
0.0
 30
0.0
 11
34.0
 21
0.0
 31
0.0
  0
ENDBLK
  5
1F3
330
1F1
100
AcDbEntity
  8
0
100
AcDbBlockEnd
  0
ENDSEC
  0
SECTION
  2
ENTITIES
  0
MTEXT
  5
49
330
1F
100
AcDbEntity
  8
KOPF_DÜNN
100
AcDbMText
 10
13.8892156294
 20
23.8442973028
 30
0.0
 40
3.0
 41
0.0
 71
     1
 72
     1
  1
PS6.KDB.LJA.065
  7
SLDTEXTSTYLE0
 73
     1
 44
1.0
  0
MTEXT
  5
4A
330
1F
100
AcDbEntity
  8
VERMASSUNG
100
AcDbMText
 10
13.9329988022
 20
28.8834360957
 30
0.0
 40
3.0
 41
0.0
 71
     1
 72
     1
  1
Klemmhalter links_Turning tool left 55°/93°
  7
SLDTEXTSTYLE0
 73
     1
 44
1.0
  0
MTEXT
  5
4B
330
1F
100
AcDbEntity
  8
VERMASSUNG
100
AcDbMText
 10
98.8601118557
 20
13.8365368179
 30
0.0
 40
2.0
 41
0.0
 71
     1
 72
     1
  1
Datum: 22.05.2012
  7
SLDTEXTSTYLE0
 73
     1
 44
1.0
  0
MTEXT
  5
4C
330
1F
100
AcDbEntity
  8
VERMASSUNG
100
AcDbMText
 10
13.933048693
 20
18.0482802738
 30
0.0
 40
2.0
 41
0.0
 71
     1
 72
     1
  1
PSC ø63 / DC..11 T3 ..
  7
SLDTEXTSTYLE0
 73
     1
 44
1.0
  0
MTEXT
  5
4D
330
1F
100
AcDbEntity
  8
VERMASSUNG
100
AcDbMText
 10
13.9808475933
 20
13.9090973692
 30
0.0
 40
2.0
 41
0.0
 71
     1
 72
     1
  1
Gewicht: 1247g
  7
SLDTEXTSTYLE0
 73
     1
 44
1.0
  0
ARC
  5
4E
330
1F
100
AcDbEntity
  8
0
  6
Continuous
 62
     7
370
    15
100
AcDbCircle
 10
210.8914802302
 20
118.1442489837
 30
0.0
 40
2.499999999999999
100
AcDbArc
 50
287.4657338229
 51
338.6286669096
  0
ARC
  5
4F
330
1F
100
AcDbEntity
  8
0
  6
Continuous
 62
     7
370
    15
100
AcDbCircle
 10
210.8914802302
 20
118.1442489837
 30
0.0
 40
2.500000000000002
100
AcDbArc
 50
201.3713330904
 51
287.4657338229
  0
ARC
  5
50
330
1F
100
AcDbEntity
  8
0
  6
Continuous
 62
     7
370
    15
100
AcDbCircle
 10
190.3914802302
 20
100.7942489837
 30
0.0
 40
0.5
100
AcDbArc
 50
180.0
 51
270.0
  0
ARC
  5
51
330
1F
100
AcDbEntity
  8
0
  6
Continuous
 62
     7
370
    15
100
AcDbCircle
 10
190.3914802302
 20
162.7942489837
 30
0.0
 40
0.5
100
AcDbArc
 50
90.0
 51
180.0
  0
LINE
  5
52
330
1F
100
AcDbEntity
  8
0
  6
Continuous
 62
     7
370
    15
100
AcDbLine
 10
224.2037098337
 20
163.2942494904
 30
0.0
 11
190.3914802539
 21
163.2942494904
 31
0.0
  0
LINE
  5
53
330
1F
100
AcDbEntity
  8
0
  6
Continuous
 62
     7
370
    15
100
AcDbLine
 10
190.3914802539
 20
100.2942484771
 30
0.0
 11
227.1241548885
 21
100.2942484771
 31
0.0
  0
LWPOLYLINE
  5
54
330
1F
100
AcDbEntity
  8
0
  6
Continuous
 62
     7
370
    15
100
AcDbPolyline
 90
        3
 70
   128
 43
0.0
 10
189.6914802352
 20
109.2544284617
 10
189.8169351704
 20
109.1861271267
 10
189.8914802302
 20
109.1333881919
  0
LWPOLYLINE
  5
55
330
1F
100
AcDbEntity
  8
0
  6
Continuous
 62
     7
370
    15
100
AcDbPolyline
 90
        3
 70
   128
 43
0.0
 10
189.8914802302
 20
154.4551097755
 10
189.8169351704
 20
154.4023708408
 10
189.6914802352
 20
154.3340695058
  0
ARC
  5
56
330
1F
100
AcDbEntity
  8
0
  6
Continuous
 62
     7
370
    15
100
AcDbCircle
 10
227.1241532422
 20
99.2942489837
 30
0.0
 40
1.0
100
AcDbArc
 50
59.0494945538
 51
67.5244230154
  0
ARC
  5
57
330
1F
100
AcDbEntity
  8
0
  6
Continuous
 62
     7
370
    15
100
AcDbCircle
 10
210.8984858624
 20
116.8723827824
 30
0.0
 40
3.044323640454424
100
AcDbArc
 50
189.537014179
 51
347.6457859885
  0
LWPOLYLINE
  5
58
330
1F
100
AcDbEntity
  8
0
  6
Continuous
 62
     7
370
    15
100
AcDbPolyline
 90
       18
 70
   128
 43
0.0
 10
213.5795656074
 20
117.290031441
 10
213.7323323119
 20
116.7303717663
 10
213.7319504697
 20
116.1552865957
 10
213.5784368444
 20
115.5957796578
 10
213.2800671685
 20
115.0820136969
 10
212.8529291082
 20
114.6416843836
 10
212.3200505454
 20
114.2985348557
 10
211.710155331
 20
114.0710593169
 10
211.0561266024
 20
113.9715232854
 10
210.393220507
 20
114.0052930419
 10
209.7571756173
 20
114.1705487822
 10
209.1822832305
 20
114.4583777492
 10
208.6995321739
 20
114.8532678341
 10
208.334951051
 20
115.3339271401
 10
208.1081907678
 20
115.8744444107
 10
208.0314814527
 20
116.4456785624
 10
208.1089525897
 20
117.016837277
 10
208.1565580744
 20
117.1687136372
  0
LWPOLYLINE
  5
59
330
1F
100
AcDbEntity
  8
0
  6
Continuous
 62
     7
370
    15
100
AcDbPolyline
 90
       27
 70
   128
 43
0.0
 10
213.2412049402
 20
117.1835700949
 10
213.3772283275
 20
116.6750977715
 10
213.3687886823
 20
116.1532097464
 10
213.216377743
 20
115.6482354705
 10
212.9288523871
 20
115.1895237123
 10
212.5229224045
 20
114.8037307863
 10
212.0221781958
 20
114.513279215
 10
211.4557217289
 20
114.3350501512
 10
210.8564733941
 20
114.2793980395
 10
210.2592609305
 20
114.3495601569
 10
209.6987891424
 20
114.5414573108
 10
209.207633831
 20
114.8439378445
 10
208.8143363077
 20
115.2394239758
 10
208.5417549539
 20
115.7049288009
 10
208.4057315666
 20
116.213400193
 10
208.4141712118
 20
116.7352882181
 10
208.5665821511
 20
117.2402615626
 10
208.8541075069
 20
117.6989742522
 10
209.2600393523
 20
118.0847671782
 10
209.7607816983
 20
118.3752178182
 10
210.3272381652
 20
118.5534487446
 10
210.9264865
 20
118.609099925
 10
211.5236989636
 20
118.5389387389
 10
212.0841707516
 20
118.3470406537
 10
212.5753260631
 20
118.04456012
 10
212.9686235864
 20
117.64907492
 10
213.2412049402
 20
117.1835700949
  0
LINE
  5
5A
330
1F
100
AcDbEntity
  8
0
  6
Continuous
 62
     7
370
    15
100
AcDbLine
 10
254.813738488
 20
87.3956170832
 30
0.0
 11
249.1694319475
 21
96.4283992504
 31
0.0
  0
LINE
  5
5B
330
1F
100
AcDbEntity
  8
0
  6
Continuous
 62
     7
370
    15
100
AcDbLine
 10
252.7617964376
 20
88.2131096874
 30
0.0
 11
254.4914785255
 21
87.1942502414
 31
0.0
  0
LINE
  5
5C
330
1F
100
AcDbEntity
  8
0
  6
Continuous
 62
     7
370
    15
100
AcDbLine
 10
248.7210187543
 20
96.0128580188
 30
0.0
 11
248.847171985
 21
96.2270286833
 31
0.0
  0
SPLINE
  5
5D
330
1F
100
AcDbEntity
  8
0
  6
Continuous
 62
     7
370
    15
100
AcDbSpline
210
0.0
220
0.0
230
1.0
 70
     8
 71
     3
 72
    11
 73
     7
 74
     0
 42
0.00000001
 43
0.00000001
 12
1.0
 22
0.0
 32
0.0
 13
1.0
 23
0.0
 33
0.0
 40
0.0
 40
0.0
 40
0.0
 40
0.0
 40
0.3277696621201402
 40
0.6551514174388116
 40
0.990787791910115
 40
1.0
 40
1.0
 40
1.0
 40
1.0
 10
248.7210187543188
 20
96.01285801875781
 30
0.0
 10
248.6832934856613
 20
95.94881260577353
 30
0.0
 10
248.6078875952125
 20
95.82079757587202
 30
0.0
 10
248.4835511299024
 20
95.609714983479
 30
0.0
 10
248.405119233229
 20
95.47658161315763
 30
0.0
 10
248.3685222285661
 20
95.41444082212733
 30
0.0
 10
248.3675445843492
 20
95.41278080690097
 30
0.0
  0
LINE
  5
5E
330
1F
100
AcDbEntity
  8
0
  6
Continuous
 62
     7
370
    15
100
AcDbLine
 10
237.888254546
 20
96.5831031059
 30
0.0
 11
243.5325610865
 21
87.550324664
 31
0.0
  0
LINE
  5
5F
330
1F
100
AcDbEntity
  8
0
  6
Continuous
 62
     7
370
    15
100
AcDbLine
 10
239.9401965965
 20
95.7656105016
 30
0.0
 11
238.2105107833
 21
96.784473673
 31
0.0
  0
LINE
  5
60
330
1F
100
AcDbEntity
  8
0
  6
Continuous
 62
     7
370
    15
100
AcDbLine
 10
243.9809742797
 20
87.9658621703
 30
0.0
 11
243.8548173238
 21
87.7516915058
 31
0.0
  0
SPLINE
  5
61
330
1F
100
AcDbEntity
  8
0
  6
Continuous
 62
     7
370
    15
100
AcDbSpline
210
0.0
220
0.0
230
1.0
 70
     8
 71
     3
 72
    11
 73
     7
 74
     0
 42
0.00000001
 43
0.00000001
 12
1.0
 22
0.0
 32
0.0
 13
1.0
 23
0.0
 33
0.0
 40
0.0
 40
0.0
 40
0.0
 40
0.0
 40
0.0092144799173501
 40
0.3448484640907395
 40
0.6722302786095629
 40
1.0
 40
1.0
 40
1.0
 40
1.0
 10
244.3344484496866
 20
88.56593938219737
 30
0.0
 10
244.3334695482295
 20
88.56427937424596
 30
0.0
 10
244.2968345273713
 20
88.50215419761484
 30
0.0
 10
244.2184587725135
 20
88.36899756810973
 30
0.0
 10
244.0941011835831
 20
88.15792437600814
 30
0.0
 10
244.0186981294014
 20
88.02990817115065
 30
0.0
 10
243.980974279717
 20
87.96586217034053
 30
0.0
  0
LINE
  5
62
330
1F
100
AcDbEntity
  8
0
  6
Continuous
 62
     7
370
    15
100
AcDbLine
 10
254.8353079189
 20
87.3988469099
 30
0.0
 11
249.1855661798
 21
96.4403164541
 31
0.0
  0
LINE
  5
63
330
1F
100
AcDbEntity
  8
0
  6
Continuous
 62
     7
370
    15
100
AcDbLine
 10
243.8323314715
 20
87.3523217593
 30
0.0
 11
254.4792223204
 21
86.7943440532
 31
0.0
  0
LINE
  5
64
330
1F
100
AcDbEntity
  8
0
  6
Continuous
 62
     7
370
    15
100
AcDbLine
 10
237.8666888405
 20
96.5798732792
 30
0.0
 11
243.5164231289
 21
87.538403735
 31
0.0
  0
LINE
  5
65
330
1F
100
AcDbEntity
  8
0
  6
Continuous
 62
     7
370
    15
100
AcDbLine
 10
248.8696615625
 20
96.6263984298
 30
0.0
 11
238.2227669884
 21
97.1843798612
 31
0.0
  0
ARC
  5
66
330
1F
100
AcDbEntity
  8
0
  6
Continuous
 62
     7
370
    15
100
AcDbCircle
 10
254.4914802302
 20
87.1942489837
 30
0.0
 40
0.3800000000000444
100
AcDbArc
 50
267.0
 51
32.0
  0
ARC
  5
67
330
1F
100
AcDbEntity
  8
0
  6
Continuous
 62
     7
370
    15
100
AcDbCircle
 10
248.8471732756
 20
96.2270282957
 30
0.0
 40
0.3800000000000054
100
AcDbArc
 50
32.0
 51
87.0
  0
LINE
  5
68
330
1F
100
AcDbEntity
  8
0
  6
Continuous
 62
     7
370
    15
100
AcDbLine
 10
248.8670613099
 20
96.6065091048
 30
0.0
 11
238.2304001082
 21
97.1639503692
 31
0.0
  0
ARC
  5
69
330
1F
100
AcDbEntity
  8
0
  6
Continuous
 62
     7
370
    15
100
AcDbCircle
 10
238.210512168
 20
96.7844720833
 30
0.0
 40
0.3800000000000069
100
AcDbArc
 50
87.0
 51
212.0
  0
ARC
  5
6A
330
1F
100
AcDbEntity
  8
0
  6
Continuous
 62
     7
370
    15
100
AcDbCircle
 10
243.8548191225
 20
87.7516927714
 30
0.0
 40
0.3800000000000369
100
AcDbArc
 50
212.0
 51
267.0
  0
LINE
  5
6B
330
1F
100
AcDbEntity
  8
0
  6
Continuous
 62
     7
370
    15
100
AcDbLine
 10
243.8349317241
 20
87.3722148095
 30
0.0
 11
254.4715929259
 21
86.8147698199
 31
0.0
  0
SPLINE
  5
6C
330
1F
100
AcDbEntity
  8
0
  6
Continuous
 62
     7
370
    15
100
AcDbSpline
210
0.0
220
0.0
230
1.0
 70
     8
 71
     3
 72
    10
 73
     6
 74
     0
 42
0.00000001
 43
0.00000001
 12
1.0
 22
0.0
 32
0.0
 13
1.0
 23
0.0
 33
0.0
 40
0.0
 40
0.0
 40
0.0
 40
0.0
 40
0.3518034084919389
 40
0.7034237238769192
 40
1.0
 40
1.0
 40
1.0
 40
1.0
 10
243.5164231289182
 20
87.53840373504352
 30
0.0
 10
243.5438398023089
 20
87.5029652777084
 30
0.0
 10
243.5986588803146
 20
87.43210680668342
 30
0.0
 10
243.7134985418542
 20
87.36878143227896
 30
0.0
 10
243.7950282963657
 20
87.35748866101231
 30
0.0
 10
243.8323314715181
 20
87.35232175934505
 30
0.0
  0
SPLINE
  5
6D
330
1F
100
AcDbEntity
  8
0
  6
Continuous
 62
     7
370
    15
100
AcDbSpline
210
0.0
220
0.0
230
1.0
 70
     8
 71
     3
 72
    10
 73
     6
 74
     0
 42
0.00000001
 43
0.00000001
 12
1.0
 22
0.0
 32
0.0
 13
1.0
 23
0.0
 33
0.0
 40
0.0
 40
0.0
 40
0.0
 40
0.0
 40
0.3517991784884028
 40
0.7034217884784411
 40
1.0
 40
1.0
 40
1.0
 40
1.0
 10
249.1855661798273
 20
96.44031645405482
 30
0.0
 10
249.158150875345
 20
96.4757550172495
 30
0.0
 10
249.1033340261601
 20
96.54661435697457
 30
0.0
 10
248.9884943647936
 20
96.60993864183338
 30
0.0
 10
248.9069646976814
 20
96.62123149199046
 30
0.0
 10
248.8696615625177
 20
96.6263984297533
 30
0.0
  0
SPLINE
  5
6E
330
1F
100
AcDbEntity
  8
0
  6
Continuous
 62
     7
370
    15
100
AcDbSpline
210
0.0
220
0.0
230
1.0
 70
     8
 71
     3
 72
    14
 73
    10
 74
     0
 42
0.00000001
 43
0.00000001
 12
1.0
 22
0.0
 32
0.0
 13
1.0
 23
0.0
 33
0.0
 40
0.0
 40
0.0
 40
0.0
 40
0.0
 40
0.1588504677421283
 40
0.3173312405249198
 40
0.4720129070312298
 40
0.6236407902544813
 40
0.7746588294046296
 40
0.9277397343481868
 40
1.0
 40
1.0
 40
1.0
 40
1.0
 10
238.2227669883524
 20
97.18437986123752
 30
0.0
 10
238.1767205364335
 20
97.1823154020781
 30
0.0
 10
238.0847347971602
 20
97.17819128840452
 30
0.0
 10
237.9603717873048
 20
97.11453012711196
 30
0.0
 10
237.8658019934064
 20
97.01718594190442
 30
0.0
 10
237.8105017964083
 20
96.89484929062438
 30
0.0
 10
237.7991391892114
 20
96.7622598238263
 30
0.0
 10
237.8246756733749
 20
96.65451664027677
 30
0.0
 10
237.8564876712325
 20
96.5979973486673
 30
0.0
 10
237.8666888404642
 20
96.5798732792158
 30
0.0
  0
SPLINE
  5
6F
330
1F
100
AcDbEntity
  8
0
  6
Continuous
 62
     7
370
    15
100
AcDbSpline
210
0.0
220
0.0
230
1.0
 70
     8
 71
     3
 72
    14
 73
    10
 74
     0
 42
0.00000001
 43
0.00000001
 12
1.0
 22
0.0
 32
0.0
 13
1.0
 23
0.0
 33
0.0
 40
0.0
 40
0.0
 40
0.0
 40
0.0
 40
0.1588496142366552
 40
0.3173339100365684
 40
0.472018231685485
 40
0.6236479331529987
 40
0.7746613337356014
 40
0.927741899001018
 40
1.0
 40
1.0
 40
1.0
 40
1.0
 10
254.4792223203931
 20
86.79434405315112
 30
0.0
 10
254.5252688167427
 20
86.79640708667904
 30
0.0
 10
254.6172559128415
 20
86.80052840922112
 30
0.0
 10
254.741620162826
 20
86.86419046192007
 30
0.0
 10
254.8361970771303
 20
86.96153263123036
 30
0.0
 10
254.891488664274
 20
87.08387365990536
 30
0.0
 10
254.9028549124829
 20
87.2164616427371
 30
0.0
 10
254.8773156759336
 20
87.32420208902921
 30
0.0
 10
254.8455076289634
 20
87.38072274457701
 30
0.0
 10
254.8353079188619
 20
87.39884690988254
 30
0.0
  0
ARC
  5
70
330
1F
100
AcDbEntity
  8
0
  6
Continuous
 62
     7
370
    15
100
AcDbCircle
 10
250.3489301903
 20
89.63439744
 30
0.0
 40
1.000000000295363
100
AcDbArc
 50
267.0
 51
32.0
  0
LINE
  5
71
330
1F
100
AcDbEntity
  8
0
  6
Continuous
 62
     7
370
    15
100
AcDbLine
 10
251.1969770718
 20
90.1643161629
 30
0.0
 11
248.4249587584
 21
94.6004738067
 31
0.0
  0
LINE
  5
72
330
1F
100
AcDbEntity
  8
0
  6
Continuous
 62
     7
370
    15
100
AcDbLine
 10
241.5050159622
 20
93.8144040262
 30
0.0
 11
244.2770305503
 21
89.3782501076
 31
0.0
  0
ARC
  5
73
330
1F
100
AcDbEntity
  8
0
  6
Continuous
 62
     7
370
    15
100
AcDbCircle
 10
242.3530622079
 20
94.344323627
 30
0.0
 40
1.000000000000008
100
AcDbArc
 50
87.0
 51
212.0
  0
LINE
  5
74
330
1F
100
AcDbEntity
  8
0
  6
Continuous
 62
     7
370
    15
100
AcDbLine
 10
247.6292479265
 20
95.0691823815
 30
0.0
 11
242.4054000009
 21
95.3429539655
 31
0.0
  0
ARC
  5
75
330
1F
100
AcDbEntity
  8
0
  6
Continuous
 62
     7
370
    15
100
AcDbCircle
 10
247.5769123908
 20
94.0705532396
 30
0.0
 40
0.9999999999999835
100
AcDbArc
 50
32.0
 51
87.0
  0
LINE
  5
76
330
1F
100
AcDbEntity
  8
0
  6
Continuous
 62
     7
370
    15
100
AcDbLine
 10
245.0727451075
 20
88.9095378076
 30
0.0
 11
250.2965930332
 21
88.6357662236
 31
0.0
  0
ARC
  5
77
330
1F
100
AcDbEntity
  8
0
  6
Continuous
 62
     7
370
    15
100
AcDbCircle
 10
245.1250800073
 20
89.9081678274
 30
0.0
 40
1.000000000000008
100
AcDbArc
 50
212.0
 51
267.0
  0
CIRCLE
  5
78
330
1F
100
AcDbEntity
  8
0
  6
Continuous
 62
     7
370
    15
100
AcDbCircle
 10
246.3509961991
 20
91.9893605335
 30
0.0
 40
3.050000000000002
  0
SPLINE
  5
79
330
1F
100
AcDbEntity
  8
0
  6
Continuous
 62
     7
370
    15
100
AcDbSpline
210
0.0
220
0.0
230
1.0
 70
     8
 71
     3
 72
    11
 73
     7
 74
     0
 42
0.00000001
 43
0.00000001
 12
1.0
 22
0.0
 32
0.0
 13
1.0
 23
0.0
 33
0.0
 40
0.0
 40
0.0
 40
0.0
 40
0.0
 40
0.0073007384512893
 40
0.1268479275969566
 40
0.5874275093692116
 40
1.0
 40
1.0
 40
1.0
 40
1.0
 10
252.1693821478639
 20
88.56206880557727
 30
0.0
 10
252.170675519343
 20
88.56130795615493
 30
0.0
 10
252.193147423087
 20
88.54808844787073
 30
0.0
 10
252.2995038632212
 20
88.48539501099798
 30
0.0
 10
252.4991106946656
 20
88.36785520089039
 30
0.0
 10
252.677503958206
 20
88.26276553422244
 30
0.0
 10
252.7617964375768
 20
88.21310968744945
 30
0.0
  0
SPLINE
  5
7A
330
1F
100
AcDbEntity
  8
0
  6
Continuous
 62
     7
370
    15
100
AcDbSpline
210
0.0
220
0.0
230
1.0
 70
     8
 71
     3
 72
    11
 73
     7
 74
     0
 42
0.00000001
 43
0.00000001
 12
1.0
 22
0.0
 32
0.0
 13
1.0
 23
0.0
 33
0.0
 40
0.0
 40
0.0
 40
0.0
 40
0.0
 40
0.4125715963634354
 40
0.8731531403094375
 40
0.9927008387533137
 40
1.0
 40
1.0
 40
1.0
 40
1.0
 10
239.940196596459
 20
95.7656105016489
 30
0.0
 10
240.0244920404372
 20
95.71596030050593
 30
0.0
 10
240.2028921830356
 20
95.61088222574968
 30
0.0
 10
240.4024615970054
 20
95.49328828797454
 30
0.0
 10
240.5088605713984
 20
95.43065809890925
 30
0.0
 10
240.5313150600464
 20
95.41741351774944
 30
0.0
 10
240.5326071608816
 20
95.41665138352107
 30
0.0
  0
ARC
  5
7B
330
1F
100
AcDbEntity
  8
0
  6
Continuous
 62
     7
370
    15
100
AcDbCircle
 10
246.2404868946
 20
92.0544554886
 30
0.0
 40
1.675000000000023
100
AcDbArc
 50
149.07804828
 51
207.6779814073
  0
ARC
  5
7C
330
1F
100
AcDbEntity
  8
0
  6
Continuous
 62
     7
370
    15
100
AcDbCircle
 10
246.2404868946
 20
92.0544554886
 30
0.0
 40
1.675000000000006
100
AcDbArc
 50
207.6779814073
 51
267.784823142
  0
ARC
  5
7D
330
1F
100
AcDbEntity
  8
0
  6
Continuous
 62
     7
370
    15
100
AcDbCircle
 10
246.2404868946
 20
92.0544554886
 30
0.0
 40
1.675
100
AcDbArc
 50
267.784823142
 51
326.3847562692
  0
LINE
  5
7E
330
1F
100
AcDbEntity
  8
0
  6
Continuous
 62
     7
370
    15
100
AcDbLine
 10
247.6806122292
 20
91.1990788733
 30
0.0
 11
247.6353834797
 21
91.1271546935
 31
0.0
  0
ARC
  5
7F
330
1F
100
AcDbEntity
  8
0
  6
Continuous
 62
     7
370
    15
100
AcDbCircle
 10
246.2404868946
 20
92.0544554886
 30
0.0
 40
1.675000000000007
100
AcDbArc
 50
329.2913870411
 51
25.7351052074
  0
LINE
  5
80
330
1F
100
AcDbEntity
  8
0
  6
Continuous
 62
     7
370
    15
100
AcDbLine
 10
247.6934980083
 20
92.8877529656
 30
0.0
 11
247.7493438352
 21
92.7817572807
 31
0.0
  0
ARC
  5
81
330
1F
100
AcDbEntity
  8
0
  6
Continuous
 62
     7
370
    15
100
AcDbCircle
 10
246.2404868946
 20
92.0544554886
 30
0.0
 40
1.675000000000021
100
AcDbArc
 50
29.8341971076
 51
85.6286074416
  0
LINE
  5
82
330
1F
100
AcDbEntity
  8
0
  6
Continuous
 62
     7
370
    15
100
AcDbLine
 10
246.2484467257
 20
93.729437605
 30
0.0
 11
246.3681589294
 21
93.7245835518
 31
0.0
  0
ARC
  5
83
330
1F
100
AcDbEntity
  8
0
  6
Continuous
 62
     7
370
    15
100
AcDbCircle
 10
246.2404868946
 20
92.0544554886
 30
0.0
 40
1.675000000000005
100
AcDbArc
 50
89.7276993419
 51
146.1714175082
  0
LINE
  5
84
330
1F
100
AcDbEntity
  8
0
  6
Continuous
 62
     7
370
    15
100
AcDbLine
 10
244.8035593558
 20
92.9151860033
 30
0.0
 11
244.8490526009
 21
92.9869462703
 31
0.0
  0
CIRCLE
  5
85
330
1F
100
AcDbEntity
  8
0
  6
Continuous
 62
     7
370
    15
100
AcDbCircle
 10
246.2404868946
 20
92.0544554886
 30
0.0
 40
1.8
  0
SPLINE
  5
86
330
1F
100
AcDbEntity
  8
0
  6
Continuous
 62
     7
370
    15
100
AcDbSpline
210
0.0
220
0.0
230
1.0
 70
     8
 71
     3
 72
    11
 73
     7
 74
     0
 42
0.00000001
 43
0.00000001
 12
1.0
 22
0.0
 32
0.0
 13
1.0
 23
0.0
 33
0.0
 40
0.0
 40
0.0
 40
0.0
 40
0.0
 40
0.2669010977883937
 40
0.5546121516069561
 40
0.8439034497655405
 40
1.0
 40
1.0
 40
1.0
 40
1.0
 10
247.6934980083261
 20
92.8877529655714
 30
0.0
 10
247.6695948664281
 20
92.91314495826869
 30
0.0
 10
247.6199248835464
 20
92.9659087266463
 30
0.0
 10
247.5174314929176
 20
93.01035349393077
 30
0.0
 10
247.4217512980621
 20
93.02076982365543
 30
0.0
 10
247.3656693357227
 20
93.00943390128491
 30
0.0
 10
247.3460141051565
 20
93.0054609631319
 30
0.0
  0
SPLINE
  5
87
330
1F
100
AcDbEntity
  8
0
  6
Continuous
 62
     7
370
    15
100
AcDbSpline
210
0.0
220
0.0
230
1.0
 70
     8
 71
     3
 72
    12
 73
     8
 74
     0
 42
0.00000001
 43
0.00000001
 12
1.0
 22
0.0
 32
0.0
 13
1.0
 23
0.0
 33
0.0
 40
0.0
 40
0.0
 40
0.0
 40
0.0
 40
0.2058406687593661
 40
0.4120602529051371
 40
0.6141370189140166
 40
0.8132768211486431
 40
1.0
 40
1.0
 40
1.0
 40
1.0
 10
247.3460141051565
 20
93.0054609631319
 30
0.0
 10
247.2812420850123
 20
92.99525768026848
 30
0.0
 10
247.1515788111673
 20
92.97483233214606
 30
0.0
 10
246.9572002996763
 20
93.02755442728846
 30
0.0
 10
246.7935206398928
 20
93.13594644787916
 30
0.0
 10
246.6740297537299
 20
93.28646839530899
 30
0.0
 10
246.6401949141502
 20
93.40439359544814
 30
0.0
 10
246.6238218773161
 20
93.46145884740542
 30
0.0
  0
SPLINE
  5
88
330
1F
100
AcDbEntity
  8
0
  6
Continuous
 62
     7
370
    15
100
AcDbSpline
210
0.0
220
0.0
230
1.0
 70
     8
 71
     3
 72
    11
 73
     7
 74
     0
 42
0.00000001
 43
0.00000001
 12
1.0
 22
0.0
 32
0.0
 13
1.0
 23
0.0
 33
0.0
 40
0.0
 40
0.0
 40
0.0
 40
0.0
 40
0.2928922693866109
 40
0.5864344333847783
 40
0.8775212727497003
 40
1.0
 40
1.0
 40
1.0
 40
1.0
 10
246.6238218773161
 20
93.46145884740542
 30
0.0
 10
246.613013518876
 20
93.49779078413295
 30
0.0
 10
246.5913728194786
 20
93.57053527402067
 30
0.0
 10
246.5150568535247
 20
93.65801630740457
 30
0.0
 10
246.4353083360715
 20
93.70647725966944
 30
0.0
 10
246.3835016426204
 20
93.7204465137704
 30
0.0
 10
246.3681589294229
 20
93.72458355176639
 30
0.0
  0
SPLINE
  5
89
330
1F
100
AcDbEntity
  8
0
  6
Continuous
 62
     7
370
    15
100
AcDbSpline
210
0.0
220
0.0
230
1.0
 70
     8
 71
     3
 72
    12
 73
     8
 74
     0
 42
0.00000001
 43
0.00000001
 12
1.0
 22
0.0
 32
0.0
 13
1.0
 23
0.0
 33
0.0
 40
0.0
 40
0.0
 40
0.0
 40
0.0
 40
0.2057910355180603
 40
0.4120345747364802
 40
0.6141312926196285
 40
0.8132634379197774
 40
1.0
 40
1.0
 40
1.0
 40
1.0
 10
245.9721531201158
 20
93.48727510917377
 30
0.0
 10
245.948611049139
 20
93.4260953095952
 30
0.0
 10
245.9014751416932
 20
93.30360118521142
 30
0.0
 10
245.758646682081
 20
93.16161410697971
 30
0.0
 10
245.5829246420697
 20
93.07405076490389
 30
0.0
 10
245.3928111558348
 20
93.04582003438527
 30
0.0
 10
245.2737623892632
 20
93.07548099480944
 30
0.0
 10
245.2161501575266
 20
93.08983506310176
 30
0.0
  0
SPLINE
  5
8A
330
1F
100
AcDbEntity
  8
0
  6
Continuous
 62
     7
370
    15
100
AcDbSpline
210
0.0
220
0.0
230
1.0
 70
     8
 71
     3
 72
    11
 73
     7
 74
     0
 42
0.00000001
 43
0.00000001
 12
1.0
 22
0.0
 32
0.0
 13
1.0
 23
0.0
 33
0.0
 40
0.0
 40
0.0
 40
0.0
 40
0.0
 40
0.2802357436194275
 40
0.5612882420087534
 40
0.8399950523500764
 40
1.0
 40
1.0
 40
1.0
 40
1.0
 10
245.2161501575266
 20
93.08983506310176
 30
0.0
 10
245.1793052623138
 20
93.0986402385716
 30
0.0
 10
245.1055080864293
 20
93.11627625243699
 30
0.0
 10
244.9916770922357
 20
93.09391597882086
 30
0.0
 10
244.9044538959875
 20
93.0464123568972
 30
0.0
 10
244.8638584034645
 20
93.00283837420254
 30
0.0
 10
244.8490526009355
 20
92.98694627034854
 30
0.0
  0
SPLINE
  5
8B
330
1F
100
AcDbEntity
  8
0
  6
Continuous
 62
     7
370
    15
100
AcDbSpline
210
0.0
220
0.0
230
1.0
 70
     8
 71
     3
 72
    11
 73
     7
 74
     0
 42
0.00000001
 43
0.00000001
 12
1.0
 22
0.0
 32
0.0
 13
1.0
 23
0.0
 33
0.0
 40
0.0
 40
0.0
 40
0.0
 40
0.0
 40
0.2657650799161233
 40
0.5530026102709135
 40
0.8418281377543378
 40
1.0
 40
1.0
 40
1.0
 40
1.0
 10
246.2484467256818
 20
93.72943760502528
 30
0.0
 10
246.214579782407
 20
93.72152508104203
 30
0.0
 10
246.14410962117
 20
93.70506074186719
 30
0.0
 10
246.0542734344785
 20
93.63882109306718
 30
0.0
 10
245.9970127269602
 20
93.56107392583897
 30
0.0
 10
245.9786506252294
 20
93.50656375648256
 30
0.0
 10
245.9721531201158
 20
93.48727510917377
 30
0.0
  0
SPLINE
  5
8C
330
1F
100
AcDbEntity
  8
0
  6
Continuous
 62
     7
370
    15
100
AcDbSpline
210
0.0
220
0.0
230
1.0
 70
     8
 71
     3
 72
    11
 73
     7
 74
     0
 42
0.00000001
 43
0.00000001
 12
1.0
 22
0.0
 32
0.0
 13
1.0
 23
0.0
 33
0.0
 40
0.0
 40
0.0
 40
0.0
 40
0.0
 40
0.2431113979186996
 40
0.5182860523518742
 40
0.7947840428568298
 40
1.0
 40
1.0
 40
1.0
 40
1.0
 10
247.6806122291837
 20
91.19907887327861
 30
0.0
 10
247.6919198165954
 20
91.23024991756037
 30
0.0
 10
247.7160263162963
 20
91.2967030646641
 30
0.0
 10
247.7108002420568
 20
91.40644281129059
 30
0.0
 10
247.6755256196165
 20
91.50431928821918
 30
0.0
 10
247.6335614061272
 20
91.55371331970808
 30
0.0
 10
247.6156841445718
 20
91.574755773427
 30
0.0
  0
SPLINE
  5
8D
330
1F
100
AcDbEntity
  8
0
  6
Continuous
 62
     7
370
    15
100
AcDbSpline
210
0.0
220
0.0
230
1.0
 70
     8
 71
     3
 72
    12
 73
     8
 74
     0
 42
0.00000001
 43
0.00000001
 12
1.0
 22
0.0
 32
0.0
 13
1.0
 23
0.0
 33
0.0
 40
0.0
 40
0.0
 40
0.0
 40
0.0
 40
0.2058197675854113
 40
0.4120205206308281
 40
0.6140791539310888
 40
0.8132120088256068
 40
1.0
 40
1.0
 40
1.0
 40
1.0
 10
247.6156841445718
 20
91.574755773427
 30
0.0
 10
247.5744633107055
 20
91.62574284856014
 30
0.0
 10
247.4919453405917
 20
91.72781137914028
 30
0.0
 10
247.4404133116245
 20
91.92249460434648
 30
0.0
 10
247.4524315029913
 20
92.1184267811663
 30
0.0
 10
247.5230248401356
 20
92.29718588561062
 30
0.0
 10
247.6082443857121
 20
92.385463221443
 30
0.0
 10
247.6494911540304
 20
92.42818997848224
 30
0.0
  0
SPLINE
  5
8E
330
1F
100
AcDbEntity
  8
0
  6
Continuous
 62
     7
370
    15
100
AcDbSpline
210
0.0
220
0.0
230
1.0
 70
     8
 71
     3
 72
    11
 73
     7
 74
     0
 42
0.00000001
 43
0.00000001
 12
1.0
 22
0.0
 32
0.0
 13
1.0
 23
0.0
 33
0.0
 40
0.0
 40
0.0
 40
0.0
 40
0.0
 40
0.2908671000604487
 40
0.5839601863489436
 40
0.8745986337363553
 40
1.0
 40
1.0
 40
1.0
 40
1.0
 10
247.6494911540304
 20
92.42818997848224
 30
0.0
 10
247.6754230445473
 20
92.4555546785577
 30
0.0
 10
247.7274852805839
 20
92.51049349890599
 30
0.0
 10
247.7652242457142
 20
92.62005494997005
 30
0.0
 10
247.7675092209655
 20
92.71377283643642
 30
0.0
 10
247.7535510589469
 20
92.7660116327742
 30
0.0
 10
247.7493438351904
 20
92.78175728070926
 30
0.0
  0
SPLINE
  5
8F
330
1F
100
AcDbEntity
  8
0
  6
Continuous
 62
     7
370
    15
100
AcDbSpline
210
0.0
220
0.0
230
1.0
 70
     8
 71
     3
 72
    12
 73
     8
 74
     0
 42
0.00000001
 43
0.00000001
 12
1.0
 22
0.0
 32
0.0
 13
1.0
 23
0.0
 33
0.0
 40
0.0
 40
0.0
 40
0.0
 40
0.0
 40
0.2058591220653739
 40
0.4121010648841092
 40
0.6141953595189418
 40
0.8133177041578228
 40
1.0
 40
1.0
 40
1.0
 40
1.0
 10
244.8679584492002
 20
92.53838034022044
 30
0.0
 10
244.9091838634606
 20
92.48738491190143
 30
0.0
 10
244.9917113557891
 20
92.38529922289412
 30
0.0
 10
245.0432413216392
 20
92.19058520031116
 30
0.0
 10
245.0311944383663
 20
91.99462907653405
 30
0.0
 10
244.9605745169805
 20
91.81590055319133
 30
0.0
 10
244.8753767477949
 20
91.72764906837938
 30
0.0
 10
244.8341514397417
 20
91.6849461351652
 30
0.0
  0
SPLINE
  5
90
330
1F
100
AcDbEntity
  8
0
  6
Continuous
 62
     7
370
    15
100
AcDbSpline
210
0.0
220
0.0
230
1.0
 70
     8
 71
     3
 72
    11
 73
     7
 74
     0
 42
0.00000001
 43
0.00000001
 12
1.0
 22
0.0
 32
0.0
 13
1.0
 23
0.0
 33
0.0
 40
0.0
 40
0.0
 40
0.0
 40
0.0
 40
0.2524792049910362
 40
0.5068934361438542
 40
0.759182013788533
 40
1.0
 40
1.0
 40
1.0
 40
1.0
 10
244.8341514397417
 20
91.6849461351652
 30
0.0
 10
244.8082074376522
 20
91.65757620869257
 30
0.0
 10
244.7561205960172
 20
91.6026265898628
 30
0.0
 10
244.7185642537271
 20
91.49318736340292
 30
0.0
 10
244.7151331799307
 20
91.37893513852255
 30
0.0
 10
244.7433655827165
 20
91.31005488442266
 30
0.0
 10
244.7571534145628
 20
91.27641589987468
 30
0.0
  0
SPLINE
  5
91
330
1F
100
AcDbEntity
  8
0
  6
Continuous
 62
     7
370
    15
100
AcDbSpline
210
0.0
220
0.0
230
1.0
 70
     8
 71
     3
 72
    11
 73
     7
 74
     0
 42
0.00000001
 43
0.00000001
 12
1.0
 22
0.0
 32
0.0
 13
1.0
 23
0.0
 33
0.0
 40
0.0
 40
0.0
 40
0.0
 40
0.0
 40
0.2423565848533499
 40
0.5166853383983235
 40
0.792331159113673
 40
0.9999999999999999
 40
0.9999999999999999
 40
0.9999999999999999
 40
0.9999999999999999
 10
244.8035593558107
 20
92.91518600332927
 30
0.0
 10
244.7921352645498
 20
92.88405836593748
 30
0.0
 10
244.767779992905
 20
92.81769667054948
 30
0.0
 10
244.7725953672579
 20
92.70794201813268
 30
0.0
 10
244.8076442079509
 20
92.60952392825153
 30
0.0
 10
244.8498315496085
 20
92.55976190202288
 30
0.0
 10
244.8679584492002
 20
92.53838034022044
 30
0.0
  0
SPLINE
  5
92
330
1F
100
AcDbEntity
  8
0
  6
Continuous
 62
     7
370
    15
100
AcDbSpline
210
0.0
220
0.0
230
1.0
 70
     8
 71
     3
 72
    12
 73
     8
 74
     0
 42
0.00000001
 43
0.00000001
 12
1.0
 22
0.0
 32
0.0
 13
1.0
 23
0.0
 33
0.0
 40
0.0
 40
0.0
 40
0.0
 40
0.0
 40
0.0091729596985289
 40
0.2576770426191424
 40
0.5061874658149246
 40
0.75602889685214
 40
1.0
 40
1.0
 40
1.0
 40
1.0
 10
246.1757439602171
 20
90.3807071005125
 30
0.0
 10
246.1771146325549
 20
90.38065948760551
 30
0.0
 10
246.2156181042821
 20
90.37932199638534
 30
0.0
 10
246.2923458022057
 20
90.39022454808996
 30
0.0
 10
246.3926378080364
 20
90.44225525951529
 30
0.0
 10
246.4722370139344
 20
90.52307321692861
 30
0.0
 10
246.4985094271833
 20
90.59187351945286
 30
0.0
 10
246.5114894736562
 20
90.62586472976398
 30
0.0
  0
SPLINE
  5
93
330
1F
100
AcDbEntity
  8
0
  6
Continuous
 62
     7
370
    15
100
AcDbSpline
210
0.0
220
0.0
230
1.0
 70
     8
 71
     3
 72
    12
 73
     8
 74
     0
 42
0.00000001
 43
0.00000001
 12
1.0
 22
0.0
 32
0.0
 13
1.0
 23
0.0
 33
0.0
 40
0.0
 40
0.0
 40
0.0
 40
0.0
 40
0.2057506237569336
 40
0.4119596121954802
 40
0.6140139858851724
 40
0.8131409345928866
 40
1.0
 40
1.0
 40
1.0
 40
1.0
 10
246.5114894736562
 20
90.62586472976398
 30
0.0
 10
246.5350260616681
 20
90.68703514381168
 30
0.0
 10
246.5821516717523
 20
90.80951224540578
 30
0.0
 10
246.7249525714105
 20
90.95148391550467
 30
0.0
 10
246.9006371352949
 20
91.03905489447664
 30
0.0
 10
247.0907589003411
 20
91.06732524538182
 30
0.0
 10
247.209840372126
 20
91.03766151238163
 30
0.0
 10
247.2674887109552
 20
91.02330105054568
 30
0.0
  0
SPLINE
  5
94
330
1F
100
AcDbEntity
  8
0
  6
Continuous
 62
     7
370
    15
100
AcDbSpline
210
0.0
220
0.0
230
1.0
 70
     8
 71
     3
 72
    11
 73
     7
 74
     0
 42
0.00000001
 43
0.00000001
 12
1.0
 22
0.0
 32
0.0
 13
1.0
 23
0.0
 33
0.0
 40
0.0
 40
0.0
 40
0.0
 40
0.0
 40
0.27940847355343
 40
0.559625320248348
 40
0.8375000985969693
 40
1.0
 40
1.0
 40
1.0
 40
1.0
 10
247.2674887109552
 20
91.02330105054568
 30
0.0
 10
247.3043376881667
 20
91.01449509067139
 30
0.0
 10
247.3781422525399
 20
90.9968576938807
 30
0.0
 10
247.4919769493385
 20
91.01922881662264
 30
0.0
 10
247.5795790568445
 20
91.06693104866798
 30
0.0
 10
247.6203418549434
 20
91.11092190369708
 30
0.0
 10
247.6353834796701
 20
91.1271546934862
 30
0.0
  0
SPLINE
  5
95
330
1F
100
AcDbEntity
  8
0
  6
Continuous
 62
     7
370
    15
100
AcDbSpline
210
0.0
220
0.0
230
1.0
 70
     8
 71
     3
 72
    12
 73
     8
 74
     0
 42
0.00000001
 43
0.00000001
 12
1.0
 22
0.0
 32
0.0
 13
1.0
 23
0.0
 33
0.0
 40
0.0
 40
0.0
 40
0.0
 40
0.0
 40
0.205841710949398
 40
0.4120684174656338
 40
0.6141391098941732
 40
0.8132585329102543
 40
1.0
 40
1.0
 40
1.0
 40
1.0
 10
245.1376284886156
 20
91.10767515051555
 30
0.0
 10
245.2024002081578
 20
91.11787793800183
 30
0.0
 10
245.3320647928776
 20
91.13830259573433
 30
0.0
 10
245.5264474879953
 20
91.08558675949058
 30
0.0
 10
245.6901159878891
 20
90.97718506502841
 30
0.0
 10
245.8096120436503
 20
90.82667294252408
 30
0.0
 10
245.8434462794623
 20
90.7087481967274
 30
0.0
 10
245.859820716456
 20
90.65167726624202
 30
0.0
  0
SPLINE
  5
96
330
1F
100
AcDbEntity
  8
0
  6
Continuous
 62
     7
370
    15
100
AcDbSpline
210
0.0
220
0.0
230
1.0
 70
     8
 71
     3
 72
    11
 73
     7
 74
     0
 42
0.00000001
 43
0.00000001
 12
1.0
 22
0.0
 32
0.0
 13
1.0
 23
0.0
 33
0.0
 40
0.0
 40
0.0
 40
0.0
 40
0.0
 40
0.2535051283431486
 40
0.5075626008577881
 40
0.7595013149921938
 40
1.0
 40
1.0
 40
1.0
 40
1.0
 10
245.859820716456
 20
90.65167726624202
 30
0.0
 10
245.8706315550383
 20
90.61532960477611
 30
0.0
 10
245.8922767871649
 20
90.54255508652746
 30
0.0
 10
245.968575619942
 20
90.45528874794917
 30
0.0
 10
246.0659177254718
 20
90.39537225629873
 30
0.0
 10
246.13970662271
 20
90.38551918543817
 30
0.0
 10
246.1757439602171
 20
90.3807071005125
 30
0.0
  0
SPLINE
  5
97
330
1F
100
AcDbEntity
  8
0
  6
Continuous
 62
     7
370
    15
100
AcDbSpline
210
0.0
220
0.0
230
1.0
 70
     8
 71
     3
 72
    12
 73
     8
 74
     0
 42
0.00000001
 43
0.00000001
 12
1.0
 22
0.0
 32
0.0
 13
1.0
 23
0.0
 33
0.0
 40
0.0
 40
0.0
 40
0.0
 40
0.0
 40
0.0091709498649493
 40
0.2573264876927676
 40
0.5054971900571513
 40
0.7549906026113969
 40
1.0
 40
1.0
 40
1.0
 40
1.0
 10
244.7571534145628
 20
91.27641589987468
 30
0.0
 10
244.7577964960329
 20
91.27520269429408
 30
0.0
 10
244.7758406352374
 20
91.24116151693481
 30
0.0
 10
244.82351506198
 20
91.18006440912083
 30
0.0
 10
244.91861173716
 20
91.11904647760598
 30
0.0
 10
245.0285570263646
 20
91.09026578410554
 30
0.0
 10
245.1014917852948
 20
91.10190721547573
 30
0.0
 10
245.1376284886156
 20
91.10767515051555
 30
0.0
  0
CIRCLE
  5
98
330
1F
100
AcDbEntity
  8
0
  6
Continuous
 62
     7
370
    15
100
AcDbCircle
 10
246.2404868946
 20
92.0544554886
 30
0.0
 40
2.624999999999994
  0
LINE
  5
99
330
1F
100
AcDbEntity
  8
0
  6
Continuous
 62
     7
370
    15
100
AcDbLine
 10
189.8914802302
 20
100.7942494904
 30
0.0
 11
189.8914802302
 21
162.7942484771
 31
0.0
  0
SPLINE
  5
9A
330
1F
100
AcDbEntity
  8
0
  6
Continuous
 62
     7
370
    15
100
AcDbSpline
210
0.0
220
0.0
230
1.0
 70
     8
 71
     3
 72
    68
 73
    64
 74
     0
 42
0.00000001
 43
0.00000001
 12
1.0
 22
0.0
 32
0.0
 13
1.0
 23
0.0
 33
0.0
 40
-0.0624999999999987
 40
-0.0624999999999987
 40
0.0
 40
0.0
 40
0.0312500000000001
 40
0.0312500000000001
 40
0.0625000000000003
 40
0.0625000000000003
 40
0.0937500000000004
 40
0.0937500000000004
 40
0.1250000000000005
 40
0.1250000000000005
 40
0.1562500000000007
 40
0.1562500000000007
 40
0.1875000000000008
 40
0.1875000000000008
 40
0.2187500000000009
 40
0.2187500000000009
 40
0.2500000000000011
 40
0.2500000000000011
 40
0.2812500000000012
 40
0.2812500000000012
 40
0.3125000000000013
 40
0.3125000000000013
 40
0.3437500000000014
 40
0.3437500000000014
 40
0.3750000000000016
 40
0.3750000000000016
 40
0.4062500000000017
 40
0.4062500000000017
 40
0.4375000000000018
 40
0.4375000000000018
 40
0.468750000000002
 40
0.468750000000002
 40
0.5000000000000021
 40
0.5000000000000021
 40
0.5312500000000022
 40
0.5312500000000022
 40
0.5625000000000023
 40
0.5625000000000023
 40
0.5937500000000026
 40
0.5937500000000026
 40
0.6250000000000027
 40
0.6250000000000027
 40
0.6562500000000028
 40
0.6562500000000028
 40
0.6875000000000029
 40
0.6875000000000029
 40
0.718750000000003
 40
0.718750000000003
 40
0.7500000000000031
 40
0.7500000000000031
 40
0.7812500000000029
 40
0.7812500000000029
 40
0.8125000000000026
 40
0.8125000000000026
 40
0.8437500000000022
 40
0.8437500000000022
 40
0.8750000000000019
 40
0.8750000000000019
 40
0.9062500000000016
 40
0.9062500000000016
 40
0.9375000000000013
 40
0.9375000000000013
 40
1.0
 40
1.0
 40
1.03125
 40
1.03125
 10
210.4948506097981
 20
118.713916474821
 30
0.0
 10
211.0897950403529
 20
118.713916474821
 30
0.0
 10
211.2847732866025
 20
118.6961143116263
 30
0.0
 10
211.6683365117481
 20
118.6264857785066
 30
0.0
 10
211.8589172872104
 20
118.5738085888277
 30
0.0
 10
212.2221665739972
 20
118.4367183573069
 30
0.0
 10
212.3944333129931
 20
118.3529723249855
 30
0.0
 10
212.720455029701
 20
118.1557904853275
 30
0.0
 10
212.8747303964776
 20
118.0413773877122
 30
0.0
 10
213.1512933177287
 20
117.792484682675
 30
0.0
 10
213.2754362080441
 20
117.6571138399434
 30
0.0
 10
213.494750980415
 20
117.3644607132785
 30
0.0
 10
213.5878814358184
 20
117.2094111416628
 30
0.0
 10
213.7375357663445
 20
116.890246795988
 30
0.0
 10
213.7951827363364
 20
116.7237719141291
 30
0.0
 10
213.8722892981588
 20
116.384762938875
 30
0.0
 10
213.8913730795022
 20
116.2152114148726
 30
0.0
 10
213.8915864895795
 20
115.8761187827706
 30
0.0
 10
213.8720911990801
 20
115.7048323032763
 30
0.0
 10
213.795521324603
 20
115.3751275101213
 30
0.0
 10
213.7388680833939
 20
115.215749034315
 30
0.0
 10
213.5885921325846
 20
114.9076995783964
 30
0.0
 10
213.4947084701721
 20
114.7596757086431
 30
0.0
 10
213.2776432700757
 20
114.4868404362069
 30
0.0
 10
213.1537120138009
 20
114.3602688899782
 30
0.0
 10
212.8737551686486
 20
114.1270579590807
 30
0.0
 10
212.7222960177468
 20
114.0242306889022
 30
0.0
 10
212.3975630087991
 20
113.8446641424989
 30
0.0
 10
212.2221985699827
 20
113.7672753774401
 30
0.0
 10
211.858881551083
 20
113.6434645411522
 30
0.0
 10
211.6718900980924
 20
113.5969093851892
 30
0.0
 10
211.2873185997356
 20
113.5339319060851
 30
0.0
 10
211.0884107466163
 20
113.5178229035805
 30
0.0
 10
210.6967473469197
 20
113.5177055299415
 30
0.0
 10
210.5020396105328
 20
113.5331757508646
 30
0.0
 10
210.1149225468778
 20
113.5959946296072
 30
0.0
 10
209.9254515441509
 20
113.6431536697436
 30
0.0
 10
209.5643190461333
 20
113.7659084069925
 30
0.0
 10
209.3898997967731
 20
113.8423974699766
 30
0.0
 10
209.0617017589691
 20
114.0234378464316
 30
0.0
 10
208.9106235215186
 20
114.1262099324241
 30
0.0
 10
208.633787428491
 20
114.3561615157633
 30
0.0
 10
208.5070236119784
 20
114.4849214705381
 30
0.0
 10
208.2890190738215
 20
114.7584882066367
 30
0.0
 10
208.1967378942915
 20
114.9036520956612
 30
0.0
 10
208.0458582071261
 20
115.2113413451357
 30
0.0
 10
207.987911772656
 20
115.373764014763
 30
0.0
 10
207.9112995902414
 20
115.7023155723154
 30
0.0
 10
207.891671570226
 20
115.8701550828045
 30
0.0
 10
207.8912916469809
 20
116.2133618682291
 30
0.0
 10
207.9106039874854
 20
116.3834786221083
 30
0.0
 10
207.9865246041622
 20
116.7192343828131
 30
0.0
 10
208.0440303731283
 20
116.8868655541594
 30
0.0
 10
208.1943905197174
 20
117.2083447878103
 30
0.0
 10
208.2864098076088
 20
117.3615375399981
 30
0.0
 10
208.5037538225989
 20
117.652591097258
 30
0.0
 10
208.6302732427305
 20
117.7910613422432
 30
0.0
 10
208.9067068621902
 20
118.0401737112243
 30
0.0
 10
209.0575364522665
 20
118.152421826261
 30
0.0
 10
209.3850480445067
 20
118.3512222348843
 30
0.0
 10
209.5595965775948
 20
118.4360984283172
 30
0.0
 10
210.1008014459665
 20
118.6408499075618
 30
0.0
 10
210.4948506097981
 20
118.713916474821
 30
0.0
 10
211.0897950403529
 20
118.713916474821
 30
0.0
  0
SPLINE
  5
9B
330
1F
100
AcDbEntity
  8
0
  6
Continuous
 62
     7
370
    15
100
AcDbSpline
210
0.0
220
0.0
230
1.0
 70
     8
 71
     3
 72
    10
 73
     6
 74
     0
 42
0.00000001
 43
0.00000001
 12
1.0
 22
0.0
 32
0.0
 13
1.0
 23
0.0
 33
0.0
 40
0.0
 40
0.0
 40
0.0
 40
0.0
 40
0.5
 40
0.5
 40
1.0
 40
1.0
 40
1.0
 40
1.0
 10
224.5467132213228
 20
163.2096296330745
 30
0.0
 10
224.3557923085996
 20
163.1891756028563
 30
0.0
 10
224.1863620564979
 20
163.1634604156851
 30
0.0
 10
223.9027752202052
 20
163.1006621768572
 30
0.0
 10
223.787829852204
 20
163.0636554456141
 30
0.0
 10
223.6998872003073
 20
163.0200665063174
 30
0.0
  0
ELLIPSE
  5
9C
330
1F
100
AcDbEntity
  8
0
  6
Continuous
 62
     7
370
    15
100
AcDbEllipse
 10
224.8110954724
 20
131.7942489837
 30
0.0
 11
0.0
 21
31.5
 31
0.0
210
0.0
220
0.0
230
1.0
 40
0.2679491924
 41
0.132036829887352
 42
3.009555823702442
  0
SPLINE
  5
9D
330
1F
100
AcDbEntity
  8
0
  6
Continuous
 62
     7
370
    15
100
AcDbSpline
210
0.0
220
0.0
230
1.0
 70
     8
 71
     3
 72
    14
 73
    10
 74
     0
 42
0.00000001
 43
0.00000001
 12
1.0
 22
0.0
 32
0.0
 13
1.0
 23
0.0
 33
0.0
 40
0.0
 40
0.0
 40
0.0
 40
0.0
 40
0.25
 40
0.25
 40
0.5
 40
0.5
 40
0.75
 40
0.75
 40
1.0
 40
1.0
 40
1.0
 40
1.0
 10
223.6998872003073
 20
100.568431461168
 30
0.0
 10
223.8169483417977
 20
100.510409888241
 30
0.0
 10
223.9809029548057
 20
100.4643633167926
 30
0.0
 10
224.4002969377086
 20
100.3910718337718
 30
0.0
 10
224.659308269472
 20
100.3638421264719
 30
0.0
 10
225.2469311389572
 20
100.3253073004149
 30
0.0
 10
225.5780298308272
 20
100.3134622219197
 30
0.0
 10
226.3123328180282
 20
100.2986888629396
 30
0.0
 10
226.7053001928596
 20
100.2958910202534
 30
0.0
 10
227.124153242189
 20
100.2948127991693
 30
0.0
  0
ELLIPSE
  5
9E
330
1F
100
AcDbEntity
  8
0
  6
Continuous
 62
     7
370
    15
100
AcDbEllipse
 10
246.4258885349
 20
131.7942489837
 30
0.0
 11
-22.40942561795927
 21
31.44673815029753
 31
0.0
210
0.0
220
0.0
230
1.0
 40
0.0817078932
 41
6.151709852879119
 42
6.225024683327702
  0
SPLINE
  5
9F
330
1F
100
AcDbEntity
  8
0
  6
Continuous
 62
     7
370
    15
100
AcDbSpline
210
0.0
220
0.0
230
1.0
 70
     8
 71
     3
 72
    12
 73
     8
 74
     0
 42
0.00000001
 43
0.00000001
 12
1.0
 22
0.0
 32
0.0
 13
1.0
 23
0.0
 33
0.0
 40
0.0
 40
0.0
 40
0.0
 40
0.0
 40
0.5000000000000037
 40
0.5000000000000037
 40
0.7500000000000018
 40
0.7500000000000018
 40
1.0
 40
1.0
 40
1.0
 40
1.0
 10
199.9862243418422
 20
101.8935065236254
 30
0.0
 10
200.0173695398043
 20
101.8556910007052
 30
0.0
 10
200.0596438061387
 20
101.8196241426216
 30
0.0
 10
200.159589339964
 20
101.7716640776104
 30
0.0
 10
200.1993196446681
 20
101.7568031037127
 30
0.0
 10
200.2962076946743
 20
101.7338519575816
 30
0.0
 10
200.3562729364208
 20
101.7257570248696
 30
0.0
 10
200.4192370437344
 20
101.7257570248695
 30
0.0
  0
LINE
  5
A0
330
1F
100
AcDbEntity
  8
0
  6
Continuous
 62
     7
370
    15
100
AcDbLine
 10
200.4192372266
 20
101.7257564669
 30
0.0
 11
203.3637234423
 21
101.7257564669
 31
0.0
  0
SPLINE
  5
A1
330
1F
100
AcDbEntity
  8
0
  6
Continuous
 62
     7
370
    15
100
AcDbSpline
210
0.0
220
0.0
230
1.0
 70
     8
 71
     3
 72
    12
 73
     8
 74
     0
 42
0.00000001
 43
0.00000001
 12
1.0
 22
0.0
 32
0.0
 13
1.0
 23
0.0
 33
0.0
 40
0.0
 40
0.0
 40
0.0
 40
0.0
 40
0.2500000000000018
 40
0.2500000000000018
 40
0.5000000000000037
 40
0.5000000000000037
 40
1.0
 40
1.0
 40
1.0
 40
1.0
 10
203.3637234166015
 20
101.7257570248696
 30
0.0
 10
203.4267803714993
 20
101.7257570248696
 30
0.0
 10
203.4859105212449
 20
101.7336573559491
 30
0.0
 10
203.5843580717782
 20
101.7569681039542
 30
0.0
 10
203.6233903099663
 20
101.7716732302378
 30
0.0
 10
203.7232801944232
 20
101.8196067584244
 30
0.0
 10
203.7655791680325
 20
101.8556767311892
 30
0.0
 10
203.7967361184938
 20
101.8935065236254
 30
0.0
  0
ELLIPSE
  5
A2
330
1F
100
AcDbEntity
  8
0
  6
Continuous
 62
     7
370
    15
100
AcDbEllipse
 10
187.5443260408
 20
131.7942489837
 30
0.0
 11
-14.75368316065618
 21
31.09325491558116
 31
0.0
210
0.0
220
0.0
230
1.0
 40
0.3419987131
 41
3.300734856217124
 42
4.231496223360773
  0
SPLINE
  5
A3
330
1F
100
AcDbEntity
  8
0
  6
Continuous
 62
     7
370
    15
100
AcDbSpline
210
0.0
220
0.0
230
1.0
 70
     8
 71
     3
 72
    12
 73
     8
 74
     0
 42
0.00000001
 43
0.00000001
 12
1.0
 22
0.0
 32
0.0
 13
1.0
 23
0.0
 33
0.0
 40
0.0
 40
0.0
 40
0.0
 40
0.0
 40
0.4999999999999953
 40
0.4999999999999953
 40
0.7499999999999977
 40
0.7499999999999977
 40
1.0
 40
1.0
 40
1.0
 40
1.0
 10
203.7967361184937
 20
121.8848796630573
 30
0.0
 10
203.7655909205316
 20
121.9989850289226
 30
0.0
 10
203.7233166541972
 20
122.1100913561414
 30
0.0
 10
203.6233711203719
 20
122.2602489635717
 30
0.0
 10
203.5836408156678
 20
122.307241655189
 30
0.0
 10
203.4867527656616
 20
122.3802172397275
 30
0.0
 10
203.4266875239151
 20
122.4061825524065
 30
0.0
 10
203.3637234166015
 20
122.4061825524065
 30
0.0
  0
LINE
  5
A4
330
1F
100
AcDbEntity
  8
0
  6
Continuous
 62
     7
370
    15
100
AcDbLine
 10
203.3637234423
 20
122.4061821555
 30
0.0
 11
200.4192372266
 21
122.4061821555
 31
0.0
  0
SPLINE
  5
A5
330
1F
100
AcDbEntity
  8
0
  6
Continuous
 62
     7
370
    15
100
AcDbSpline
210
0.0
220
0.0
230
1.0
 70
     8
 71
     3
 72
    12
 73
     8
 74
     0
 42
0.00000001
 43
0.00000001
 12
1.0
 22
0.0
 32
0.0
 13
1.0
 23
0.0
 33
0.0
 40
0.0
 40
0.0
 40
0.0
 40
0.0
 40
0.2499999999999996
 40
0.2499999999999996
 40
0.4999999999999991
 40
0.4999999999999991
 40
1.0
 40
1.0
 40
1.0
 40
1.0
 10
200.4192370437344
 20
122.4061825524064
 30
0.0
 10
200.3561800888366
 20
122.4061825524064
 30
0.0
 10
200.297049939091
 20
122.3808361990257
 30
0.0
 10
200.1986023885577
 20
122.3067168168862
 30
0.0
 10
200.1595701503696
 20
122.2602203021882
 30
0.0
 10
200.0596802659127
 20
122.1101457951796
 30
0.0
 10
200.0173812923034
 20
121.9990280860648
 30
0.0
 10
199.9862243418421
 20
121.8848796630573
 30
0.0
  0
ELLIPSE
  5
A6
330
1F
100
AcDbEntity
  8
0
  6
Continuous
 62
     7
370
    15
100
AcDbEllipse
 10
216.2386344195
 20
131.7942489837
 30
0.0
 11
14.75368316065621
 21
31.09325491558116
 31
0.0
210
0.0
220
0.0
230
1.0
 40
0.3419987131
 41
2.051689083818828
 42
2.982450450962507
  0
SPLINE
  5
A7
330
1F
100
AcDbEntity
  8
0
  6
Continuous
 62
     7
370
    15
100
AcDbSpline
210
0.0
220
0.0
230
1.0
 70
     8
 71
     3
 72
    12
 73
     8
 74
     0
 42
0.00000001
 43
0.00000001
 12
1.0
 22
0.0
 32
0.0
 13
1.0
 23
0.0
 33
0.0
 40
0.0
 40
0.0
 40
0.0
 40
0.0
 40
0.4999999999999971
 40
0.4999999999999971
 40
0.7499999999999986
 40
0.7499999999999986
 40
1.0
 40
1.0
 40
1.0
 40
1.0
 10
199.9862243418422
 20
141.7036183044278
 30
0.0
 10
200.0169465837613
 20
141.5910625050186
 30
0.0
 10
200.0597837982964
 20
141.478304645279
 30
0.0
 10
200.1592108224962
 20
141.3287637594826
 30
0.0
 10
200.1989630173128
 20
141.2814710277757
 30
0.0
 10
200.2970044741711
 20
141.2077347344543
 30
0.0
 10
200.3565605297586
 20
141.1823154150786
 30
0.0
 10
200.4192370437344
 20
141.1823154150786
 30
0.0
  0
LINE
  5
A8
330
1F
100
AcDbEntity
  8
0
  6
Continuous
 62
     7
370
    15
100
AcDbLine
 10
200.4192372266
 20
141.182315812
 30
0.0
 11
203.3637234423
 21
141.182315812
 31
0.0
  0
SPLINE
  5
A9
330
1F
100
AcDbEntity
  8
0
  6
Continuous
 62
     7
370
    15
100
AcDbSpline
210
0.0
220
0.0
230
1.0
 70
     8
 71
     3
 72
    12
 73
     8
 74
     0
 42
0.00000001
 43
0.00000001
 12
1.0
 22
0.0
 32
0.0
 13
1.0
 23
0.0
 33
0.0
 40
0.0
 40
0.0
 40
0.0
 40
0.0
 40
0.2499999999999991
 40
0.2499999999999991
 40
0.4999999999999982
 40
0.4999999999999982
 40
1.0
 40
1.0
 40
1.0
 40
1.0
 10
203.3637234166015
 20
141.1823154150785
 30
0.0
 10
203.4268034550949
 20
141.1823154150785
 30
0.0
 10
203.4859520772763
 20
141.2076797342935
 30
0.0
 10
203.5844246273454
 20
141.2818445946664
 30
0.0
 10
203.6234612393301
 20
141.3283649352205
 30
0.0
 10
203.7233577061091
 20
141.4785072780658
 30
0.0
 10
203.7657785871758
 20
141.5902004850379
 30
0.0
 10
203.7967361184937
 20
141.7036183044277
 30
0.0
  0
ELLIPSE
  5
AA
330
1F
100
AcDbEntity
  8
0
  6
Continuous
 62
     7
370
    15
100
AcDbEllipse
 10
187.5443260408
 20
131.7942489837
 30
0.0
 11
14.75368316065604
 21
31.09325491558116
 31
0.0
210
0.0
220
0.0
230
1.0
 40
0.3419987131
 41
5.193281737408618
 42
6.124043104552319
  0
SPLINE
  5
AB
330
1F
100
AcDbEntity
  8
0
  6
Continuous
 62
     7
370
    15
100
AcDbSpline
210
0.0
220
0.0
230
1.0
 70
     8
 71
     3
 72
    12
 73
     8
 74
     0
 42
0.00000001
 43
0.00000001
 12
1.0
 22
0.0
 32
0.0
 13
1.0
 23
0.0
 33
0.0
 40
0.0
 40
0.0
 40
0.0
 40
0.0
 40
0.499999999999999
 40
0.499999999999999
 40
0.7499999999999994
 40
0.7499999999999994
 40
1.0
 40
1.0
 40
1.0
 40
1.0
 10
203.7967361184937
 20
161.6949914438598
 30
0.0
 10
203.7660138765746
 20
161.7322934268129
 30
0.0
 10
203.7231766620395
 20
161.7689052588593
 30
0.0
 10
203.6237496378397
 20
161.8166700421445
 30
0.0
 10
203.583997443023
 20
161.8316275576269
 30
0.0
 10
203.4859559861648
 20
161.854817503396
 30
0.0
 10
203.4263999305773
 20
161.8627409426157
 30
0.0
 10
203.3637234166015
 20
161.8627409426157
 30
0.0
  0
LINE
  5
AC
330
1F
100
AcDbEntity
  8
0
  6
Continuous
 62
     7
370
    15
100
AcDbLine
 10
203.3637234423
 20
161.8627415006
 30
0.0
 11
200.4192372266
 21
161.8627415006
 31
0.0
  0
SPLINE
  5
AD
330
1F
100
AcDbEntity
  8
0
  6
Continuous
 62
     7
370
    15
100
AcDbSpline
210
0.0
220
0.0
230
1.0
 70
     8
 71
     3
 72
    12
 73
     8
 74
     0
 42
0.00000001
 43
0.00000001
 12
1.0
 22
0.0
 32
0.0
 13
1.0
 23
0.0
 33
0.0
 40
0.0
 40
0.0
 40
0.0
 40
0.0
 40
0.2499999999999977
 40
0.2499999999999977
 40
0.4999999999999953
 40
0.4999999999999953
 40
1.0
 40
1.0
 40
1.0
 40
1.0
 10
200.4192370437344
 20
161.8627409426157
 30
0.0
 10
200.356157005241
 20
161.8627409426157
 30
0.0
 10
200.2970083830596
 20
161.8548350164033
 30
0.0
 10
200.1985358329906
 20
161.831509854967
 30
0.0
 10
200.1594992210058
 20
161.8167970651353
 30
0.0
 10
200.0596027542268
 20
161.7688412644044
 30
0.0
 10
200.0171818731602
 20
161.7325791078243
 30
0.0
 10
199.9862243418422
 20
161.6949914438598
 30
0.0
  0
ELLIPSE
  5
AE
330
1F
100
AcDbEntity
  8
0
  6
Continuous
 62
     7
370
    15
100
AcDbEllipse
 10
216.2386344195
 20
131.7942489837
 30
0.0
 11
-14.75368316065607
 21
31.09325491558116
 31
0.0
210
0.0
220
0.0
230
1.0
 40
0.3419987131
 41
0.1591422026273006
 42
1.089903569770976
  0
ELLIPSE
  5
AF
330
1F
100
AcDbEntity
  8
0
  6
Continuous
 62
     7
370
    15
100
AcDbEllipse
 10
221.5381197263
 20
114.229390024
 30
0.0
 11
-0.3267812967788473
 21
3.437685688267678
 31
0.0
210
0.0
220
0.0
230
1.0
 40
0.2095444568
 41
0.0
 42
6.283185307179586
  0
SPLINE
  5
B0
330
1F
100
AcDbEntity
  8
0
  6
Continuous
 62
     7
370
    15
100
AcDbSpline
210
0.0
220
0.0
230
1.0
 70
     8
 71
     3
 72
    12
 73
     8
 74
     0
 42
0.00000001
 43
0.00000001
 12
1.0
 22
0.0
 32
0.0
 13
1.0
 23
0.0
 33
0.0
 40
0.0
 40
0.0
 40
0.0
 40
0.0
 40
0.4999999999999998
 40
0.4999999999999998
 40
0.7499999999999997
 40
0.7499999999999997
 40
1.0
 40
1.0
 40
1.0
 40
1.0
 10
189.0749679437114
 20
109.9394552812668
 30
0.0
 10
189.1314044446186
 20
109.9380373999251
 30
0.0
 10
189.2004890753074
 20
109.9364730636768
 30
0.0
 10
189.3192913470253
 20
109.9335288717024
 30
0.0
 10
189.3594766224954
 20
109.9324906686049
 30
0.0
 10
189.4328576698992
 20
109.9305567733903
 30
0.0
 10
189.4662672336419
 20
109.9296618861015
 30
0.0
 10
189.4965033412983
 20
109.9288780958292
 30
0.0
  0
SPLINE
  5
B1
330
1F
100
AcDbEntity
  8
0
  6
Continuous
 62
     7
370
    15
100
AcDbSpline
210
0.0
220
0.0
230
1.0
 70
     8
 71
     3
 72
    16
 73
    12
 74
     0
 42
0.00000001
 43
0.00000001
 12
1.0
 22
0.0
 32
0.0
 13
1.0
 23
0.0
 33
0.0
 40
0.0
 40
0.0
 40
0.0
 40
0.0
 40
0.062500000000001
 40
0.062500000000001
 40
0.1250000000000019
 40
0.1250000000000019
 40
0.2499999999999984
 40
0.2499999999999984
 40
0.4999999999999964
 40
0.4999999999999964
 40
1.0
 40
1.0
 40
1.0
 40
1.0
 10
189.4965033412611
 20
109.9288780958534
 30
0.0
 10
189.508083748849
 20
109.9285779047421
 30
0.0
 10
189.5213932756103
 20
109.9272501564831
 30
0.0
 10
189.5506947056965
 20
109.9205514817081
 30
0.0
 10
189.5655088055807
 20
109.9151932986024
 30
0.0
 10
189.6013372072836
 20
109.898147649435
 30
0.0
 10
189.6154568316466
 20
109.8866851116593
 30
0.0
 10
189.6499609757351
 20
109.855121786287
 30
0.0
 10
189.6610655264398
 20
109.8372244872418
 30
0.0
 10
189.6872417036559
 20
109.7870630696275
 30
0.0
 10
189.691480230168
 20
109.759318657431
 30
0.0
 10
189.691480230168
 20
109.7346544955014
 30
0.0
  0
LINE
  5
B2
330
1F
100
AcDbEntity
  8
0
  6
Continuous
 62
     7
370
    15
100
AcDbLine
 10
189.6914802352
 20
124.7723617558
 30
0.0
 11
189.6914802352
 21
109.2544284617
 31
0.0
  0
SPLINE
  5
B3
330
1F
100
AcDbEntity
  8
0
  6
Continuous
 62
     7
370
    15
100
AcDbSpline
210
0.0
220
0.0
230
1.0
 70
     8
 71
     3
 72
    16
 73
    12
 74
     0
 42
0.00000001
 43
0.00000001
 12
1.0
 22
0.0
 32
0.0
 13
1.0
 23
0.0
 33
0.0
 40
0.0
 40
0.0
 40
0.0
 40
0.0
 40
0.5000000000000033
 40
0.5000000000000033
 40
0.7500000000000033
 40
0.7500000000000033
 40
0.8750000000000032
 40
0.8750000000000032
 40
0.9375000000000017
 40
0.9375000000000017
 40
1.0
 40
1.0
 40
1.0
 40
1.0
 10
189.691480230168
 20
124.7723616579926
 30
0.0
 10
189.691480230168
 20
124.8860542021205
 30
0.0
 10
189.68733395509
 20
125.00037436347
 30
0.0
 10
189.6613683596965
 20
125.1734226539671
 30
0.0
 10
189.649907454319
 20
125.2325981611288
 30
0.0
 10
189.6155957165447
 20
125.315721280597
 30
0.0
 10
189.6015709806151
 20
125.3438425966976
 30
0.0
 10
189.5655480175812
 20
125.3724584106751
 30
0.0
 10
189.5507935084916
 20
125.3782514585768
 30
0.0
 10
189.5214413473447
 20
125.3766580326398
 30
0.0
 10
189.5081014728407
 20
125.370161629316
 30
0.0
 10
189.4965033412923
 20
125.3616458831129
 30
0.0
  0
SPLINE
  5
B4
330
1F
100
AcDbEntity
  8
0
  6
Continuous
 62
     7
370
    15
100
AcDbSpline
210
0.0
220
0.0
230
1.0
 70
     8
 71
     3
 72
    12
 73
     8
 74
     0
 42
0.00000001
 43
0.00000001
 12
1.0
 22
0.0
 32
0.0
 13
1.0
 23
0.0
 33
0.0
 40
0.0
 40
0.0
 40
0.0
 40
0.0
 40
0.25
 40
0.25
 40
0.5000000000000003
 40
0.5000000000000003
 40
1.0
 40
1.0
 40
1.0
 40
1.0
 10
189.4965033412994
 20
125.3616458831037
 30
0.0
 10
189.4663048998588
 20
125.3394731510586
 30
0.0
 10
189.4329375445228
 20
125.3203934951814
 30
0.0
 10
189.3597822686928
 20
125.2952204507387
 30
0.0
 10
189.3195295696689
 20
125.2896639143219
 30
0.0
 10
189.201800826394
 20
125.3005757253087
 30
0.0
 10
189.1313423783351
 20
125.3425114807195
 30
0.0
 10
189.0749679437168
 20
125.3917232631011
 30
0.0
  0
SPLINE
  5
B5
330
1F
100
AcDbEntity
  8
0
  6
Continuous
 62
     7
370
    15
100
AcDbSpline
210
0.0
220
0.0
230
1.0
 70
     8
 71
     3
 72
    12
 73
     8
 74
     0
 42
0.00000001
 43
0.00000001
 12
1.0
 22
0.0
 32
0.0
 13
1.0
 23
0.0
 33
0.0
 40
0.0
 40
0.0
 40
0.0
 40
0.0
 40
0.5000000000000001
 40
0.5000000000000001
 40
0.7500000000000002
 40
0.7500000000000002
 40
1.0
 40
1.0
 40
1.0
 40
1.0
 10
188.5701598866083
 20
126.6080746549816
 30
0.0
 10
188.6139102384927
 20
126.3876276700071
 30
0.0
 10
188.6668003896173
 20
126.1720826802015
 30
0.0
 10
188.7784119327589
 20
125.8596686036296
 30
0.0
 10
188.8209712766624
 20
125.7575891280137
 30
0.0
 10
188.9259485119999
 20
125.5631491153719
 30
0.0
 10
188.9875157550944
 20
125.4680642163083
 30
0.0
 10
189.0749679437168
 20
125.3917232631011
 30
0.0
  0
SPLINE
  5
B6
330
1F
100
AcDbEntity
  8
0
  6
Continuous
 62
     7
370
    15
100
AcDbSpline
210
0.0
220
0.0
230
1.0
 70
     8
 71
     3
 72
    12
 73
     8
 74
     0
 42
0.00000001
 43
0.00000001
 12
1.0
 22
0.0
 32
0.0
 13
1.0
 23
0.0
 33
0.0
 40
0.0
 40
0.0
 40
0.0
 40
0.0
 40
0.2500000000000012
 40
0.2500000000000012
 40
0.5000000000000023
 40
0.5000000000000023
 40
1.0
 40
1.0
 40
1.0
 40
1.0
 10
189.0749679437168
 20
138.1967747043843
 30
0.0
 10
188.9864745361489
 20
138.119524824276
 30
0.0
 10
188.926416495383
 20
138.0262055003867
 30
0.0
 10
188.8205682224004
 20
137.8301724474173
 30
0.0
 10
188.7780347011229
 20
137.7278460892056
 30
0.0
 10
188.6668833942993
 20
137.4165016834297
 30
0.0
 10
188.6139525372515
 20
137.2010834302517
 30
0.0
 10
188.5701598866083
 20
136.9804233125038
 30
0.0
  0
SPLINE
  5
B7
330
1F
100
AcDbEntity
  8
0
  6
Continuous
 62
     7
370
    15
100
AcDbSpline
210
0.0
220
0.0
230
1.0
 70
     8
 71
     3
 72
    12
 73
     8
 74
     0
 42
0.00000001
 43
0.00000001
 12
1.0
 22
0.0
 32
0.0
 13
1.0
 23
0.0
 33
0.0
 40
0.0
 40
0.0
 40
0.0
 40
0.0
 40
0.5
 40
0.5
 40
0.7499999999999999
 40
0.7499999999999999
 40
1.0
 40
1.0
 40
1.0
 40
1.0
 10
189.0749679437167
 20
138.1967747043843
 30
0.0
 10
189.1312764920124
 20
138.2459289716281
 30
0.0
 10
189.2015511527305
 20
138.2878862902319
 30
0.0
 10
189.319589067054
 20
138.2988459677643
 30
0.0
 10
189.359765307908
 20
138.2933372095169
 30
0.0
 10
189.4337224025859
 20
138.267779980728
 30
0.0
 10
189.4663387902973
 20
138.2489999328887
 30
0.0
 10
189.4965033412931
 20
138.226852084372
 30
0.0
  0
SPLINE
  5
B8
330
1F
100
AcDbEntity
  8
0
  6
Continuous
 62
     7
370
    15
100
AcDbSpline
210
0.0
220
0.0
230
1.0
 70
     8
 71
     3
 72
    16
 73
    12
 74
     0
 42
0.00000001
 43
0.00000001
 12
1.0
 22
0.0
 32
0.0
 13
1.0
 23
0.0
 33
0.0
 40
0.0
 40
0.0
 40
0.0
 40
0.0
 40
0.0624999999999998
 40
0.0624999999999998
 40
0.1249999999999996
 40
0.1249999999999996
 40
0.2500000000000001
 40
0.2500000000000001
 40
0.4999999999999978
 40
0.4999999999999978
 40
1.0
 40
1.0
 40
1.0
 40
1.0
 10
189.4965033412613
 20
138.2268520843174
 30
0.0
 10
189.5081162411007
 20
138.2183254947222
 30
0.0
 10
189.5214674255332
 20
138.2118252331894
 30
0.0
 10
189.5508672651524
 20
138.2102558360719
 30
0.0
 10
189.5657079897076
 20
138.2161392267025
 30
0.0
 10
189.6015411976762
 20
138.244686862753
 30
0.0
 10
189.6156544054978
 20
138.2728538820588
 30
0.0
 10
189.6501457767167
 20
138.3566081404807
 30
0.0
 10
189.6612298478271
 20
138.4143215541022
 30
0.0
 10
189.6873526656231
 20
138.587912090748
 30
0.0
 10
189.691480230168
 20
138.70294014339
 30
0.0
 10
189.691480230168
 20
138.8161363094928
 30
0.0
  0
LINE
  5
B9
330
1F
100
AcDbEntity
  8
0
  6
Continuous
 62
     7
370
    15
100
AcDbLine
 10
189.6914802352
 20
154.3340695058
 30
0.0
 11
189.6914802352
 21
138.8161362116
 31
0.0
  0
SPLINE
  5
BA
330
1F
100
AcDbEntity
  8
0
  6
Continuous
 62
     7
370
    15
100
AcDbSpline
210
0.0
220
0.0
230
1.0
 70
     8
 71
     3
 72
    16
 73
    12
 74
     0
 42
0.00000001
 43
0.00000001
 12
1.0
 22
0.0
 32
0.0
 13
1.0
 23
0.0
 33
0.0
 40
0.0
 40
0.0
 40
0.0
 40
0.0
 40
0.5000000000000071
 40
0.5000000000000071
 40
0.7500000000000087
 40
0.7500000000000087
 40
0.8750000000000079
 40
0.8750000000000079
 40
0.937500000000004
 40
0.937500000000004
 40
1.0
 40
1.0
 40
1.0
 40
1.0
 10
189.691480230168
 20
153.853843471984
 30
0.0
 10
189.691480230168
 20
153.829172315941
 30
0.0
 10
189.687314531708
 20
153.8015904845498
 30
0.0
 10
189.661056203383
 20
153.7512476137265
 30
0.0
 10
189.6495524216454
 20
153.7329581156646
 30
0.0
 10
189.6154216622989
 20
153.7018030846276
 30
0.0
 10
189.6009997756282
 20
153.6901637094158
 30
0.0
 10
189.5654328071903
 20
153.6732816834848
 30
0.0
 10
189.5504810388957
 20
153.6678925796771
 30
0.0
 10
189.521477220536
 20
153.6612720837326
 30
0.0
 10
189.5080618665267
 20
153.6599194955261
 30
0.0
 10
189.4965033412901
 20
153.6596198716545
 30
0.0
  0
SPLINE
  5
BB
330
1F
100
AcDbEntity
  8
0
  6
Continuous
 62
     7
370
    15
100
AcDbSpline
210
0.0
220
0.0
230
1.0
 70
     8
 71
     3
 72
    12
 73
     8
 74
     0
 42
0.00000001
 43
0.00000001
 12
1.0
 22
0.0
 32
0.0
 13
1.0
 23
0.0
 33
0.0
 40
0.0
 40
0.0
 40
0.0
 40
0.0
 40
0.2500000000000001
 40
0.2500000000000001
 40
0.5000000000000001
 40
0.5000000000000001
 40
1.0
 40
1.0
 40
1.0
 40
1.0
 10
189.4965033412994
 20
153.6596198716563
 30
0.0
 10
189.4663155647497
 20
153.6588373342387
 30
0.0
 10
189.432961760658
 20
153.6579440024202
 30
0.0
 10
189.3598355574621
 20
153.6560166936166
 30
0.0
 10
189.3196003544379
 20
153.6549771624039
 30
0.0
 10
189.2019087243048
 20
153.6520592790567
 30
0.0
 10
189.1315280511448
 20
153.6504636729865
 30
0.0
 10
189.0749679437141
 20
153.6490426862186
 30
0.0
  0
SPLINE
  5
BC
330
1F
100
AcDbEntity
  8
0
  6
Continuous
 62
     7
370
    15
100
AcDbSpline
210
0.0
220
0.0
230
1.0
 70
     8
 71
     3
 72
    16
 73
    12
 74
     0
 42
0.00000001
 43
0.00000001
 12
1.0
 22
0.0
 32
0.0
 13
1.0
 23
0.0
 33
0.0
 40
0.0
 40
0.0
 40
0.0
 40
0.0
 40
0.2499999999999999
 40
0.2499999999999999
 40
0.375
 40
0.375
 40
0.5
 40
0.5
 40
0.75
 40
0.75
 40
1.0
 40
1.0
 40
1.0
 40
1.0
 10
188.5701598866083
 20
136.9804233125038
 30
0.0
 10
188.4089274091239
 20
136.168013537257
 30
0.0
 10
188.2884475694842
 20
135.3279352428722
 30
0.0
 10
188.1660670521709
 20
134.0266401935094
 30
0.0
 10
188.1350893917734
 20
133.5859591579247
 30
0.0
 10
188.0934756541455
 20
132.6901195169935
 30
0.0
 10
188.0832397412127
 20
132.2434613857911
 30
0.0
 10
188.0830513441566
 20
130.9081514286512
 30
0.0
 10
188.1231960467942
 20
130.0236560553436
 30
0.0
 10
188.2873498017337
 20
128.2664061673176
 30
0.0
 10
188.4089014521433
 20
127.4206152209045
 30
0.0
 10
188.5701598866083
 20
126.6080746549816
 30
0.0
  0
LINE
  5
BD
330
1F
100
AcDbEntity
  8
0
  6
Continuous
 62
     7
370
    15
100
AcDbLine
 10
187.6914802421
 20
138.2794271191
 30
0.0
 11
187.6914802421
 21
125.3090708484
 31
0.0
  0
LINE
  5
BE
330
1F
100
AcDbEntity
  8
0
  6
Continuous
 62
     7
370
    15
100
AcDbLine
 10
153.3914807666
 20
137.8485595775
 30
0.0
 11
153.3914807666
 21
125.73993839
 31
0.0
  0
LINE
  5
BF
330
1F
100
AcDbEntity
  8
0
  6
Continuous
 62
     7
370
    15
100
AcDbLine
 10
151.8914814521
 20
137.4155467344
 30
0.0
 11
151.8914814521
 21
126.1729512331
 31
0.0
  0
LINE
  5
C0
330
1F
100
AcDbEntity
  8
0
  6
Continuous
 62
     7
370
    15
100
AcDbLine
 10
187.6914802421
 20
109.7741492991
 30
0.0
 11
187.6914802421
 21
125.3090708484
 31
0.0
  0
ARC
  5
C1
330
1F
100
AcDbEntity
  8
0
  6
Continuous
 62
     7
370
    15
100
AcDbCircle
 10
187.8914171411
 20
109.7691270881
 30
0.0
 40
0.1999999999999775
100
AcDbArc
 50
88.5608333333
 51
178.5608333333
  0
LINE
  5
C2
330
1F
100
AcDbEntity
  8
0
  6
Continuous
 62
     7
370
    15
100
AcDbLine
 10
153.3914807666
 20
110.6358853136
 30
0.0
 11
153.3914807666
 21
125.73993839
 31
0.0
  0
LINE
  5
C3
330
1F
100
AcDbEntity
  8
0
  6
Continuous
 62
     7
370
    15
100
AcDbLine
 10
153.3914807666
 20
110.6358853136
 30
0.0
 11
187.6914802421
 21
109.7741492991
 31
0.0
  0
LINE
  5
C4
330
1F
100
AcDbEntity
  8
0
  6
Continuous
 62
     7
370
    15
100
AcDbLine
 10
187.6914802421
 20
138.2794271191
 30
0.0
 11
187.6914802421
 21
153.8143486683
 31
0.0
  0
ARC
  5
C5
330
1F
100
AcDbEntity
  8
0
  6
Continuous
 62
     7
370
    15
100
AcDbCircle
 10
187.8914171411
 20
153.8193708794
 30
0.0
 40
0.2000000000000059
100
AcDbArc
 50
181.4391666667
 51
271.4391666667
  0
LINE
  5
C6
330
1F
100
AcDbEntity
  8
0
  6
Continuous
 62
     7
370
    15
100
AcDbLine
 10
153.3914807666
 20
137.8485595775
 30
0.0
 11
153.3914807666
 21
152.9526126539
 31
0.0
  0
LINE
  5
C7
330
1F
100
AcDbEntity
  8
0
  6
Continuous
 62
     7
370
    15
100
AcDbLine
 10
153.3914807666
 20
152.9526126539
 30
0.0
 11
187.6914802421
 21
153.8143486683
 31
0.0
  0
LINE
  5
C8
330
1F
100
AcDbEntity
  8
0
  6
Continuous
 62
     7
370
    15
100
AcDbLine
 10
187.8964403592
 20
153.6194340293
 30
0.0
 11
189.0749679593
 21
153.6490426366
 31
0.0
  0
LINE
  5
C9
330
1F
100
AcDbEntity
  8
0
  6
Continuous
 62
     7
370
    15
100
AcDbLine
 10
187.8964403592
 20
109.9690639381
 30
0.0
 11
189.0749679593
 21
109.9394553309
 31
0.0
  0
LINE
  5
CA
330
1F
100
AcDbEntity
  8
0
  6
Continuous
 62
     7
370
    15
100
AcDbLine
 10
151.8914814521
 20
111.5019109999
 30
0.0
 11
153.3914807666
 21
110.6358853136
 31
0.0
  0
LINE
  5
CB
330
1F
100
AcDbEntity
  8
0
  6
Continuous
 62
     7
370
    15
100
AcDbLine
 10
151.8914814521
 20
111.5019109999
 30
0.0
 11
151.8914814521
 21
126.1729512331
 31
0.0
  0
LINE
  5
CC
330
1F
100
AcDbEntity
  8
0
  6
Continuous
 62
     7
370
    15
100
AcDbLine
 10
151.8914814521
 20
152.0865869676
 30
0.0
 11
153.3914807666
 21
152.9526126539
 31
0.0
  0
LINE
  5
CD
330
1F
100
AcDbEntity
  8
0
  6
Continuous
 62
     7
370
    15
100
AcDbLine
 10
151.8914814521
 20
137.4155467344
 30
0.0
 11
151.8914814521
 21
152.0865869676
 31
0.0
  0
SPLINE
  5
CE
330
1F
100
AcDbEntity
  8
0
  6
Continuous
 62
     7
370
    15
100
AcDbSpline
210
0.0
220
0.0
230
1.0
 70
     8
 71
     3
 72
     8
 73
     4
 74
     0
 42
0.00000001
 43
0.00000001
 12
1.0
 22
0.0
 32
0.0
 13
1.0
 23
0.0
 33
0.0
 40
0.0
 40
0.0
 40
0.0
 40
0.0
 40
1.0
 40
1.0
 40
1.0
 40
1.0
 10
228.090079068478
 20
99.553342730017
 30
0.0
 10
228.5581129382141
 20
97.80706715512072
 30
0.0
 10
229.0266348499531
 20
96.05905076541238
 30
0.0
 10
229.4954421580417
 20
94.30938204074238
 30
0.0
  0
SPLINE
  5
CF
330
1F
100
AcDbEntity
  8
0
  6
Continuous
 62
     7
370
    15
100
AcDbSpline
210
0.0
220
0.0
230
1.0
 70
     8
 71
     3
 72
    12
 73
     8
 74
     0
 42
0.00000001
 43
0.00000001
 12
1.0
 22
0.0
 32
0.0
 13
1.0
 23
0.0
 33
0.0
 40
0.0
 40
0.0
 40
0.0
 40
0.0
 40
0.2499999999999948
 40
0.2499999999999948
 40
0.4999999999999896
 40
0.4999999999999896
 40
1.0
 40
1.0
 40
1.0
 40
1.0
 10
227.124153242189
 20
100.2948127991693
 30
0.0
 10
227.2287279312459
 20
100.2945436006167
 30
0.0
 10
227.332089883285
 20
100.2783783945725
 30
0.0
 10
227.5356951467083
 20
100.2118977289397
 30
0.0
 10
227.6324213846719
 20
100.1623745081519
 30
0.0
 10
227.8962387854655
 20
99.96653626439195
 30
0.0
 10
228.031144158016
 20
99.77323406973274
 30
0.0
 10
228.090079068478
 20
99.553342730017
 30
0.0
  0
ELLIPSE
  5
D0
330
1F
100
AcDbEntity
  8
0
  6
Continuous
 62
     7
370
    15
100
AcDbEllipse
 10
229.495442158
 20
156.785274786
 30
0.0
 11
-5.979804102358855
 21
8.561999034030805
 31
0.0
210
0.0
220
0.0
230
1.0
 40
0.05744884
 41
0.6830404712408035
 42
1.652867916810284
  0
LINE
  5
D1
330
1F
100
AcDbEntity
  8
0
  6
Continuous
 62
     7
370
    15
100
AcDbLine
 10
246.7945668329
 20
107.2364889984
 30
0.0
 11
246.7945668329
 21
131.2194330236
 31
0.0
  0
ELLIPSE
  5
D2
330
1F
100
AcDbEntity
  8
0
  6
Continuous
 62
     7
370
    15
100
AcDbEllipse
 10
272.9898217202
 20
107.2364896231
 30
0.0
 11
26.19525546193006
 21
1.421085471520200E-14
 31
1.896538481815923E-13
210
-7.240007582946423E-15
220
-3.927684387263913E-30
230
1.0
 40
0.9925461516
 41
3.141592653589793
 42
3.563999972621034
  0
LINE
  5
D3
330
1F
100
AcDbEntity
  8
0
  6
Continuous
 62
     7
370
    15
100
AcDbLine
 10
249.0218806494
 20
96.5815347587
 30
0.0
 11
249.0970048536
 21
96.5775971268
 31
0.0
  0
LINE
  5
D4
330
1F
100
AcDbEntity
  8
0
  6
Continuous
 62
     7
370
    15
100
AcDbLine
 10
239.9798932899
 20
98.9908439075
 30
0.0
 11
241.2064078677
 21
97.0280145262
 31
0.0
  0
ARC
  5
D5
330
1F
100
AcDbEntity
  8
0
  6
Continuous
 62
     7
370
    15
100
AcDbCircle
 10
238.6938781608
 20
98.1872522909
 30
0.0
 40
1.51644249715926
100
AcDbArc
 50
32.0
 51
212.0
  0
LINE
  5
D6
330
1F
100
AcDbEntity
  8
0
  6
Continuous
 62
     7
370
    15
100
AcDbLine
 10
237.8130632866
 20
96.7352029835
 30
0.0
 11
237.4078634609
 21
97.3836605405
 31
0.0
  0
LINE
  5
D7
330
1F
100
AcDbEntity
  8
0
  6
Continuous
 62
     7
370
    15
100
AcDbLine
 10
243.3795075346
 20
87.7575178598
 30
0.0
 11
231.0782227147
 21
88.4022016977
 31
0.0
  0
LINE
  5
D8
330
1F
100
AcDbEntity
  8
0
  6
Continuous
 62
     7
370
    15
100
AcDbLine
 10
229.4954437245
 20
94.3093833481
 30
0.0
 11
231.0782227147
 21
88.4022016977
 31
0.0
  0
LINE
  5
D9
330
1F
100
AcDbEntity
  8
0
  6
Continuous
 62
     7
370
    15
100
AcDbLine
 10
246.7945668329
 20
131.2194330236
 30
0.0
 11
229.4954437245
 21
155.7409905796
 31
0.0
  0
LINE
  5
DA
330
1F
100
AcDbEntity
  8
0
  6
Continuous
 62
     7
370
    15
100
AcDbLine
 10
239.7539395321
 20
98.8496516799
 30
0.0
 11
240.8815886308
 21
97.0450353776
 31
0.0
  0
ARC
  5
DB
330
1F
100
AcDbEntity
  8
0
  6
Continuous
 62
     7
370
    15
100
AcDbCircle
 10
238.6938781608
 20
98.1872522909
 30
0.0
 40
1.250000000000026
100
AcDbArc
 50
32.0
 51
212.0
  0
LINE
  5
DC
330
1F
100
AcDbEntity
  8
0
  6
Continuous
 62
     7
370
    15
100
AcDbLine
 10
237.6338172186
 20
97.5248527681
 30
0.0
 11
237.9217709828
 21
97.0640343581
 31
0.0
  0
LINE
  5
DD
330
1F
100
AcDbEntity
  8
0
  6
HIDDEN
 62
     7
370
     0
100
AcDbLine
 10
189.8914802302
 20
100.7942494904
 30
0.0
 11
189.8914802302
 21
162.7942484771
 31
0.0
  0
ELLIPSE
  5
DE
330
1F
100
AcDbEntity
  8
0
  6
HIDDEN
 62
     7
370
     0
100
AcDbEllipse
 10
246.4258885349
 20
131.7942489837
 30
0.0
 11
-22.40942561795927
 21
31.44673815029753
 31
0.0
210
0.0
220
0.0
230
1.0
 40
0.0817078932
 41
6.225024683327702
 42
6.941210057984921
  0
SPLINE
  5
DF
330
1F
100
AcDbEntity
  8
0
  6
HIDDEN
 62
     7
370
     0
100
AcDbSpline
210
0.0
220
0.0
230
1.0
 70
     8
 71
     3
 72
    12
 73
     8
 74
     0
 42
0.00000001
 43
0.00000001
 12
1.0
 22
0.0
 32
0.0
 13
1.0
 23
0.0
 33
0.0
 40
0.0
 40
0.0
 40
0.0
 40
0.0
 40
0.4999999999999953
 40
0.4999999999999953
 40
0.7499999999999977
 40
0.7499999999999977
 40
1.0
 40
1.0
 40
1.0
 40
1.0
 10
199.9862243418422
 20
161.6949914438601
 30
0.0
 10
200.0169465837613
 20
161.7322934268131
 30
0.0
 10
200.0597837982964
 20
161.7689052588595
 30
0.0
 10
200.1592108224962
 20
161.8166700421447
 30
0.0
 10
200.1989630173129
 20
161.831627557627
 30
0.0
 10
200.2970044741711
 20
161.8548175033962
 30
0.0
 10
200.3565605297586
 20
161.8627409426159
 30
0.0
 10
200.4192370437344
 20
161.8627409426159
 30
0.0
  0
LINE
  5
E0
330
1F
100
AcDbEntity
  8
0
  6
HIDDEN
 62
     7
370
     0
100
AcDbLine
 10
200.4192372266
 20
161.8627415006
 30
0.0
 11
203.3637234423
 21
161.8627415006
 31
0.0
  0
SPLINE
  5
E1
330
1F
100
AcDbEntity
  8
0
  6
HIDDEN
 62
     7
370
     0
100
AcDbSpline
210
0.0
220
0.0
230
1.0
 70
     8
 71
     3
 72
    12
 73
     8
 74
     0
 42
0.00000001
 43
0.00000001
 12
1.0
 22
0.0
 32
0.0
 13
1.0
 23
0.0
 33
0.0
 40
0.0
 40
0.0
 40
0.0
 40
0.0
 40
0.25
 40
0.25
 40
0.5
 40
0.5
 40
1.0
 40
1.0
 40
1.0
 40
1.0
 10
203.3637234166015
 20
161.8627409426159
 30
0.0
 10
203.4268034550949
 20
161.8627409426159
 30
0.0
 10
203.4859520772763
 20
161.8548350164035
 30
0.0
 10
203.5844246273454
 20
161.8315098549672
 30
0.0
 10
203.6234612393301
 20
161.8167970651355
 30
0.0
 10
203.7233577061091
 20
161.7688412644046
 30
0.0
 10
203.7657785871758
 20
161.7325791078246
 30
0.0
 10
203.7967361184937
 20
161.6949914438601
 30
0.0
  0
ELLIPSE
  5
E2
330
1F
100
AcDbEntity
  8
0
  6
HIDDEN
 62
     7
370
     0
100
AcDbEllipse
 10
187.5443260408
 20
131.7942489837
 30
0.0
 11
14.75368316065624
 21
31.09325491558118
 31
0.0
210
0.0
220
0.0
230
1.0
 40
0.3419987131
 41
5.193281737408636
 42
6.12404310455234
  0
SPLINE
  5
E3
330
1F
100
AcDbEntity
  8
0
  6
HIDDEN
 62
     7
370
     0
100
AcDbSpline
210
0.0
220
0.0
230
1.0
 70
     8
 71
     3
 72
    12
 73
     8
 74
     0
 42
0.00000001
 43
0.00000001
 12
1.0
 22
0.0
 32
0.0
 13
1.0
 23
0.0
 33
0.0
 40
0.0
 40
0.0
 40
0.0
 40
0.0
 40
0.5
 40
0.5
 40
0.75
 40
0.75
 40
1.0
 40
1.0
 40
1.0
 40
1.0
 10
203.7967361184937
 20
141.7036183044283
 30
0.0
 10
203.7660138765746
 20
141.5910625050191
 30
0.0
 10
203.7231766620395
 20
141.4783046452796
 30
0.0
 10
203.6237496378397
 20
141.3287637594832
 30
0.0
 10
203.583997443023
 20
141.2814710277763
 30
0.0
 10
203.4859559861648
 20
141.2077347344549
 30
0.0
 10
203.4263999305773
 20
141.1823154150792
 30
0.0
 10
203.3637234166015
 20
141.1823154150792
 30
0.0
  0
LINE
  5
E4
330
1F
100
AcDbEntity
  8
0
  6
HIDDEN
 62
     7
370
     0
100
AcDbLine
 10
203.3637234423
 20
141.182315812
 30
0.0
 11
200.4192372266
 21
141.182315812
 31
0.0
  0
SPLINE
  5
E5
330
1F
100
AcDbEntity
  8
0
  6
HIDDEN
 62
     7
370
     0
100
AcDbSpline
210
0.0
220
0.0
230
1.0
 70
     8
 71
     3
 72
    12
 73
     8
 74
     0
 42
0.00000001
 43
0.00000001
 12
1.0
 22
0.0
 32
0.0
 13
1.0
 23
0.0
 33
0.0
 40
0.0
 40
0.0
 40
0.0
 40
0.0
 40
0.2500000000000023
 40
0.2500000000000023
 40
0.5000000000000047
 40
0.5000000000000047
 40
1.0
 40
1.0
 40
1.0
 40
1.0
 10
200.4192370437344
 20
141.1823154150792
 30
0.0
 10
200.356157005241
 20
141.1823154150792
 30
0.0
 10
200.2970083830596
 20
141.2076797342941
 30
0.0
 10
200.1985358329906
 20
141.2818445946671
 30
0.0
 10
200.1594992210058
 20
141.3283649352212
 30
0.0
 10
200.0596027542268
 20
141.4785072780664
 30
0.0
 10
200.0171818731602
 20
141.5902004850385
 30
0.0
 10
199.9862243418422
 20
141.7036183044283
 30
0.0
  0
ELLIPSE
  5
E6
330
1F
100
AcDbEntity
  8
0
  6
HIDDEN
 62
     7
370
     0
100
AcDbEllipse
 10
216.2386344195
 20
131.7942489837
 30
0.0
 11
-14.75368316065624
 21
31.09325491558116
 31
0.0
210
0.0
220
0.0
230
1.0
 40
0.3419987131
 41
0.1591422026272837
 42
1.089903569770961
  0
SPLINE
  5
E7
330
1F
100
AcDbEntity
  8
0
  6
HIDDEN
 62
     7
370
     0
100
AcDbSpline
210
0.0
220
0.0
230
1.0
 70
     8
 71
     3
 72
    12
 73
     8
 74
     0
 42
0.00000001
 43
0.00000001
 12
1.0
 22
0.0
 32
0.0
 13
1.0
 23
0.0
 33
0.0
 40
0.0
 40
0.0
 40
0.0
 40
0.0
 40
0.5
 40
0.5
 40
0.75
 40
0.75
 40
1.0
 40
1.0
 40
1.0
 40
1.0
 10
199.9862243418422
 20
121.8848796630575
 30
0.0
 10
200.0169465837613
 20
121.9974354624667
 30
0.0
 10
200.0597837982964
 20
122.1101933222063
 30
0.0
 10
200.1592108224962
 20
122.2597342080026
 30
0.0
 10
200.1989630173128
 20
122.3070269397095
 30
0.0
 10
200.2970044741711
 20
122.3807632330309
 30
0.0
 10
200.3565605297586
 20
122.4061825524066
 30
0.0
 10
200.4192370437344
 20
122.4061825524066
 30
0.0
  0
LINE
  5
E8
330
1F
100
AcDbEntity
  8
0
  6
HIDDEN
 62
     7
370
     0
100
AcDbLine
 10
200.4192372266
 20
122.4061821555
 30
0.0
 11
203.3637234423
 21
122.4061821555
 31
0.0
  0
SPLINE
  5
E9
330
1F
100
AcDbEntity
  8
0
  6
HIDDEN
 62
     7
370
     0
100
AcDbSpline
210
0.0
220
0.0
230
1.0
 70
     8
 71
     3
 72
    12
 73
     8
 74
     0
 42
0.00000001
 43
0.00000001
 12
1.0
 22
0.0
 32
0.0
 13
1.0
 23
0.0
 33
0.0
 40
0.0
 40
0.0
 40
0.0
 40
0.0
 40
0.25
 40
0.25
 40
0.5
 40
0.5
 40
1.0
 40
1.0
 40
1.0
 40
1.0
 10
203.3637234166015
 20
122.4061825524066
 30
0.0
 10
203.4268034550949
 20
122.4061825524066
 30
0.0
 10
203.4859520772763
 20
122.3808182331917
 30
0.0
 10
203.5844246273454
 20
122.3066533728188
 30
0.0
 10
203.6234612393301
 20
122.2601330322647
 30
0.0
 10
203.7233577061091
 20
122.1099906894194
 30
0.0
 10
203.7657785871757
 20
121.9982974824473
 30
0.0
 10
203.7967361184937
 20
121.8848796630575
 30
0.0
  0
ELLIPSE
  5
EA
330
1F
100
AcDbEntity
  8
0
  6
HIDDEN
 62
     7
370
     0
100
AcDbEllipse
 10
187.5443260408
 20
131.7942489837
 30
0.0
 11
-14.7536831606561
 21
31.09325491558116
 31
0.0
210
0.0
220
0.0
230
1.0
 40
0.3419987131
 41
3.300734856217133
 42
4.23149622336078
  0
SPLINE
  5
EB
330
1F
100
AcDbEntity
  8
0
  6
HIDDEN
 62
     7
370
     0
100
AcDbSpline
210
0.0
220
0.0
230
1.0
 70
     8
 71
     3
 72
    12
 73
     8
 74
     0
 42
0.00000001
 43
0.00000001
 12
1.0
 22
0.0
 32
0.0
 13
1.0
 23
0.0
 33
0.0
 40
0.0
 40
0.0
 40
0.0
 40
0.0
 40
0.5000000000000047
 40
0.5000000000000047
 40
0.7500000000000023
 40
0.7500000000000023
 40
1.0
 40
1.0
 40
1.0
 40
1.0
 10
203.7967361184937
 20
101.8935065236255
 30
0.0
 10
203.7660138765746
 20
101.8562045406725
 30
0.0
 10
203.7231766620395
 20
101.8195927086261
 30
0.0
 10
203.6237496378397
 20
101.7718279253409
 30
0.0
 10
203.583997443023
 20
101.7568704098585
 30
0.0
 10
203.4859559861648
 20
101.7336804640894
 30
0.0
 10
203.4263999305773
 20
101.7257570248696
 30
0.0
 10
203.3637234166015
 20
101.7257570248696
 30
0.0
  0
LINE
  5
EC
330
1F
100
AcDbEntity
  8
0
  6
HIDDEN
 62
     7
370
     0
100
AcDbLine
 10
203.3637234423
 20
101.7257564669
 30
0.0
 11
200.4192372266
 21
101.7257564669
 31
0.0
  0
SPLINE
  5
ED
330
1F
100
AcDbEntity
  8
0
  6
HIDDEN
 62
     7
370
     0
100
AcDbSpline
210
0.0
220
0.0
230
1.0
 70
     8
 71
     3
 72
    12
 73
     8
 74
     0
 42
0.00000001
 43
0.00000001
 12
1.0
 22
0.0
 32
0.0
 13
1.0
 23
0.0
 33
0.0
 40
0.0
 40
0.0
 40
0.0
 40
0.0
 40
0.2500000000000009
 40
0.2500000000000009
 40
0.5000000000000019
 40
0.5000000000000019
 40
1.0
 40
1.0
 40
1.0
 40
1.0
 10
200.4192370437344
 20
101.7257570248696
 30
0.0
 10
200.356157005241
 20
101.7257570248696
 30
0.0
 10
200.2970083830596
 20
101.7336629510821
 30
0.0
 10
200.1985358329906
 20
101.7569881125183
 30
0.0
 10
200.1594992210058
 20
101.77170090235
 30
0.0
 10
200.0596027542268
 20
101.8196567030809
 30
0.0
 10
200.0171818731602
 20
101.855918859661
 30
0.0
 10
199.9862243418422
 20
101.8935065236255
 30
0.0
  0
ELLIPSE
  5
EE
330
1F
100
AcDbEntity
  8
0
  6
HIDDEN
 62
     7
370
     0
100
AcDbEllipse
 10
216.2386344195
 20
131.7942489837
 30
0.0
 11
14.75368316065612
 21
31.09325491558116
 31
0.0
210
0.0
220
0.0
230
1.0
 40
0.3419987131
 41
2.051689083818821
 42
2.982450450962499
  0
SPLINE
  5
EF
330
1F
100
AcDbEntity
  8
0
  6
HIDDEN
 62
     7
370
     0
100
AcDbSpline
210
0.0
220
0.0
230
1.0
 70
     8
 71
     3
 72
    60
 73
    56
 74
     0
 42
0.00000001
 43
0.00000001
 12
1.0
 22
0.0
 32
0.0
 13
1.0
 23
0.0
 33
0.0
 40
-0.0625000000000001
 40
-0.0625000000000001
 40
0.0
 40
0.0
 40
0.0312500000000002
 40
0.0312500000000002
 40
0.0625000000000005
 40
0.0625000000000005
 40
0.0937500000000007
 40
0.0937500000000007
 40
0.125000000000001
 40
0.125000000000001
 40
0.1875000000000012
 40
0.1875000000000012
 40
0.2500000000000013
 40
0.2500000000000013
 40
0.2812500000000012
 40
0.2812500000000012
 40
0.3125000000000011
 40
0.3125000000000011
 40
0.3437500000000009
 40
0.3437500000000009
 40
0.3750000000000008
 40
0.3750000000000008
 40
0.4062500000000006
 40
0.4062500000000006
 40
0.4375000000000005
 40
0.4375000000000005
 40
0.4687500000000003
 40
0.4687500000000003
 40
0.5000000000000002
 40
0.5000000000000002
 40
0.5624999999999999
 40
0.5624999999999999
 40
0.6249999999999997
 40
0.6249999999999997
 40
0.6562499999999997
 40
0.6562499999999997
 40
0.6874999999999997
 40
0.6874999999999997
 40
0.7187499999999998
 40
0.7187499999999998
 40
0.7499999999999998
 40
0.7499999999999998
 40
0.7812499999999998
 40
0.7812499999999998
 40
0.8124999999999998
 40
0.8124999999999998
 40
0.8437499999999999
 40
0.8437499999999999
 40
0.8749999999999999
 40
0.8749999999999999
 40
0.9062499999999999
 40
0.9062499999999999
 40
0.9374999999999999
 40
0.9374999999999999
 40
1.0
 40
1.0
 40
1.03125
 40
1.03125
 10
203.891480230168
 20
131.529918458656
 30
0.0
 10
203.891480230168
 20
131.9264142462861
 30
0.0
 10
203.8785083716791
 20
132.0563643072902
 30
0.0
 10
203.8276882019867
 20
132.3120172406503
 30
0.0
 10
203.7892208785198
 20
132.4390467471996
 30
0.0
 10
203.6888226424477
 20
132.6812348783241
 30
0.0
 10
203.6273896114746
 20
132.796096370877
 30
0.0
 10
203.4822547799296
 20
133.0134765667011
 30
0.0
 10
203.3977996625217
 20
133.1163741338998
 30
0.0
 10
203.1210802121634
 20
133.3930411729075
 30
0.0
 10
202.8980033202454
 20
133.5420392633875
 30
0.0
 10
202.4167199580251
 20
133.7415504038522
 30
0.0
 10
202.1534895390341
 20
133.7941085068489
 30
0.0
 10
201.7620873373461
 20
133.794318789227
 30
0.0
 10
201.6295643092373
 20
133.7813330184999
 30
0.0
 10
201.3730338559962
 20
133.7303058702861
 30
0.0
 10
201.2483470216996
 20
133.6925506711357
 30
0.0
 10
201.0061677594641
 20
133.5924123382269
 30
0.0
 10
200.889074227314
 20
133.5298066708154
 30
0.0
 10
200.6723592239586
 20
133.3850733775504
 30
0.0
 10
200.5713403970958
 20
133.3024460302708
 30
0.0
 10
200.3845555096437
 20
133.1158409770193
 30
0.0
 10
200.3016986284475
 20
133.0147259131431
 30
0.0
 10
200.1568143633737
 20
132.7981931091533
 30
0.0
 10
200.0941768555527
 20
132.6813229015522
 30
0.0
 10
199.993728032153
 20
132.439025030902
 30
0.0
 10
199.9558769311357
 20
132.314361032441
 30
0.0
 10
199.9046553658794
 20
132.0580739883771
 30
0.0
 10
199.8915272392622
 20
131.9255019926316
 30
0.0
 10
199.8913865989219
 20
131.5338977998576
 30
0.0
 10
199.9437113482938
 20
131.2707324685336
 30
0.0
 10
200.142822410351
 20
130.7892270993605
 30
0.0
 10
200.2916847468083
 20
130.5659755598764
 30
0.0
 10
200.5680057061338
 20
130.2891192609875
 30
0.0
 10
200.6707693545074
 20
130.2046058141438
 30
0.0
 10
200.8881529118868
 20
130.0591885407036
 30
0.0
 10
201.0029516798433
 20
129.9976773416452
 30
0.0
 10
201.2448284032673
 20
129.8971474933903
 30
0.0
 10
201.3719820112675
 20
129.8585024701723
 30
0.0
 10
201.6276480207001
 20
129.8074461426214
 30
0.0
 10
201.7575140584561
 20
129.7943812840757
 30
0.0
 10
202.0214665851878
 20
129.7941186632778
 30
0.0
 10
202.1518709086118
 20
129.8069956635218
 30
0.0
 10
202.4075216719912
 20
129.8575816673277
 30
0.0
 10
202.5343872211055
 20
129.8958580319494
 30
0.0
 10
202.7769076790514
 20
129.9961288994295
 30
0.0
 10
202.8918343177117
 20
130.0574849235704
 30
0.0
 10
203.1092057865437
 20
130.2023312187432
 30
0.0
 10
203.212219599206
 20
130.2867087332378
 30
0.0
 10
203.3969201447879
 20
130.4711160534261
 30
0.0
 10
203.4797498790445
 20
130.5716891166955
 30
0.0
 10
203.626002317642
 20
130.7899152572745
 30
0.0
 10
203.6883707984344
 20
130.9064703671958
 30
0.0
 10
203.8383269500011
 20
131.2673199612295
 30
0.0
 10
203.891480230168
 20
131.529918458656
 30
0.0
 10
203.891480230168
 20
131.9264142462861
 30
0.0
  0
LWPOLYLINE
  5
F0
330
1F
100
AcDbEntity
  8
0
  6
HIDDEN
 62
     7
370
     0
100
AcDbPolyline
 90
       29
 70
   128
 43
0.0
 10
210.891479947
 20
122.1423254316
 10
211.5590426553
 20
122.0771859368
 10
212.1931317676
 20
121.8850345318
 10
212.7619500685
 20
121.5755066802
 10
213.236974873
 20
121.1641228725
 10
213.5943866748
 20
120.6715119039
 10
213.8162631024
 20
120.1223752429
 10
213.8914804388
 20
119.5442493041
 10
213.8162631024
 20
118.966122434
 10
213.5943866748
 20
118.416985773
 10
213.236974873
 20
117.9243748044
 10
212.7619500685
 20
117.5129909967
 10
212.1931317676
 20
117.2034631451
 10
211.5590426553
 20
117.0113117402
 10
210.891479947
 20
116.9461731766
 10
210.2239172388
 20
117.0113117402
 10
209.5898281265
 20
117.2034631451
 10
209.0210116882
 20
117.5129909967
 10
208.5459850211
 20
117.9243748044
 10
208.1885732193
 20
118.416985773
 10
207.9666967917
 20
118.966122434
 10
207.8914794553
 20
119.5442493041
 10
207.9666967917
 20
120.1223752429
 10
208.1885732193
 20
120.6715119039
 10
208.5459850211
 20
121.1641228725
 10
209.0210116882
 20
121.5755066802
 10
209.5898281265
 20
121.8850345318
 10
210.2239172388
 20
122.0771859368
 10
210.891479947
 20
122.1423254316
  0
LINE
  5
F1
330
1F
100
AcDbEntity
  8
0
  6
HIDDEN
 62
     7
370
     0
100
AcDbLine
 10
189.8914802302
 20
107.5442482685
 30
0.0
 11
189.8914802302
 21
156.0260125403
 31
0.0
  0
SPLINE
  5
F2
330
1F
100
AcDbEntity
  8
0
  6
HIDDEN
 62
     7
370
     0
100
AcDbSpline
210
0.0
220
0.0
230
1.0
 70
     8
 71
     3
 72
    12
 73
     8
 74
     0
 42
0.00000001
 43
0.00000001
 12
1.0
 22
0.0
 32
0.0
 13
1.0
 23
0.0
 33
0.0
 40
0.0
 40
0.0
 40
0.0
 40
0.0
 40
0.5000000000000001
 40
0.5000000000000001
 40
0.7500000000000002
 40
0.7500000000000002
 40
1.0
 40
1.0
 40
1.0
 40
1.0
 10
189.0749679437125
 20
147.2465169655807
 30
0.0
 10
189.1313741223932
 20
147.1986945919186
 30
0.0
 10
189.2015370238653
 20
147.1584237449775
 30
0.0
 10
189.3195477372572
 20
147.1503778764977
 30
0.0
 10
189.3597535208538
 20
147.1569404748361
 30
0.0
 10
189.4334742175889
 20
147.1843225692897
 30
0.0
 10
189.4663349393764
 20
147.2040840598206
 30
0.0
 10
189.4965033413064
 20
147.2270167710091
 30
0.0
  0
SPLINE
  5
F3
330
1F
100
AcDbEntity
  8
0
  6
HIDDEN
 62
     7
370
     0
100
AcDbSpline
210
0.0
220
0.0
230
1.0
 70
     8
 71
     3
 72
    16
 73
    12
 74
     0
 42
0.00000001
 43
0.00000001
 12
1.0
 22
0.0
 32
0.0
 13
1.0
 23
0.0
 33
0.0
 40
0.0
 40
0.0
 40
0.0
 40
0.0
 40
0.0624999999999997
 40
0.0624999999999997
 40
0.1249999999999994
 40
0.1249999999999994
 40
0.2499999999999989
 40
0.2499999999999989
 40
0.4999999999999977
 40
0.4999999999999977
 40
1.0
 40
1.0
 40
1.0
 40
1.0
 10
189.4965033412613
 20
147.2270167710572
 30
0.0
 10
189.5081162411007
 20
147.2358443940386
 30
0.0
 10
189.5214674255331
 20
147.2436787759205
 30
0.0
 10
189.5508672651523
 20
147.2519889019929
 30
0.0
 10
189.5657079897076
 20
147.2514930827579
 30
0.0
 10
189.6015411976762
 20
147.2400421117885
 30
0.0
 10
189.6156544054978
 20
147.2233616109299
 30
0.0
 10
189.6501457767167
 20
147.1712409251729
 30
0.0
 10
189.6612298478271
 20
147.1314514311479
 30
0.0
 10
189.6873526656231
 20
147.0081147990507
 30
0.0
 10
189.691480230168
 20
146.9206933885521
 30
0.0
 10
189.691480230168
 20
146.8319561462339
 30
0.0
  0
LINE
  5
F4
330
1F
100
AcDbEntity
  8
0
  6
HIDDEN
 62
     7
370
     0
100
AcDbLine
 10
189.6914802352
 20
116.7565419306
 30
0.0
 11
189.6914802352
 21
146.8319560369
 31
0.0
  0
SPLINE
  5
F5
330
1F
100
AcDbEntity
  8
0
  6
HIDDEN
 62
     7
370
     0
100
AcDbSpline
210
0.0
220
0.0
230
1.0
 70
     8
 71
     3
 72
    16
 73
    12
 74
     0
 42
0.00000001
 43
0.00000001
 12
1.0
 22
0.0
 32
0.0
 13
1.0
 23
0.0
 33
0.0
 40
0.0
 40
0.0
 40
0.0
 40
0.0
 40
0.4999999999999896
 40
0.4999999999999896
 40
0.7499999999999843
 40
0.7499999999999843
 40
0.874999999999989
 40
0.874999999999989
 40
0.9374999999999946
 40
0.9374999999999946
 40
1.0
 40
1.0
 40
1.0
 40
1.0
 10
189.691480230168
 20
116.7565418212515
 30
0.0
 10
189.691480230168
 20
116.6674154560628
 30
0.0
 10
189.68733395509
 20
116.5805540884494
 30
0.0
 10
189.6613683596965
 20
116.4575718419553
 30
0.0
 10
189.649907454319
 20
116.4168005467241
 30
0.0
 10
189.6155957165447
 20
116.3650962267243
 30
0.0
 10
189.601570980615
 20
116.3484258601339
 30
0.0
 10
189.5655480175812
 20
116.3369736396771
 30
0.0
 10
189.5507935084916
 20
116.3365205934021
 30
0.0
 10
189.5214413473447
 20
116.3448359146183
 30
0.0
 10
189.5081014728407
 20
116.3526647996966
 30
0.0
 10
189.4965033412923
 20
116.3614811964592
 30
0.0
  0
SPLINE
  5
F6
330
1F
100
AcDbEntity
  8
0
  6
HIDDEN
 62
     7
370
     0
100
AcDbSpline
210
0.0
220
0.0
230
1.0
 70
     8
 71
     3
 72
    12
 73
     8
 74
     0
 42
0.00000001
 43
0.00000001
 12
1.0
 22
0.0
 32
0.0
 13
1.0
 23
0.0
 33
0.0
 40
0.0
 40
0.0
 40
0.0
 40
0.0
 40
0.2500000000000006
 40
0.2500000000000006
 40
0.5000000000000011
 40
0.5000000000000011
 40
1.0
 40
1.0
 40
1.0
 40
1.0
 10
189.4965033412994
 20
116.3614811964681
 30
0.0
 10
189.4663114995822
 20
116.3844317255659
 30
0.0
 10
189.4329525301676
 20
116.4044011995901
 30
0.0
 10
189.359815245587
 20
116.4315023332156
 30
0.0
 10
189.319573372933
 20
116.438103073861
 30
0.0
 10
189.2018675959645
 20
116.4301341993543
 30
0.0
 10
189.1314571181851
 20
116.3898737411865
 30
0.0
 10
189.0749679437168
 20
116.3419810019083
 30
0.0
  0
SPLINE
  5
F7
330
1F
100
AcDbEntity
  8
0
  6
HIDDEN
 62
     7
370
     0
100
AcDbSpline
210
0.0
220
0.0
230
1.0
 70
     8
 71
     3
 72
    12
 73
     8
 74
     0
 42
0.00000001
 43
0.00000001
 12
1.0
 22
0.0
 32
0.0
 13
1.0
 23
0.0
 33
0.0
 40
0.0
 40
0.0
 40
0.0
 40
0.0
 40
0.25
 40
0.25
 40
0.5
 40
0.5
 40
1.0
 40
1.0
 40
1.0
 40
1.0
 10
189.0749679437164
 20
116.3419810019085
 30
0.0
 10
188.9868140059787
 20
116.2672421940544
 30
0.0
 10
188.92646058135
 20
116.176261693572
 30
0.0
 10
188.8201986232831
 20
115.9873478708195
 30
0.0
 10
188.777966456721
 20
115.8908434112789
 30
0.0
 10
188.6668957614039
 20
115.6000756571117
 30
0.0
 10
188.6139589849771
 20
115.404408842568
 30
0.0
 10
188.5701598866083
 20
115.2103423575017
 30
0.0
  0
SPLINE
  5
F8
330
1F
100
AcDbEntity
  8
0
  6
HIDDEN
 62
     7
370
     0
100
AcDbSpline
210
0.0
220
0.0
230
1.0
 70
     8
 71
     3
 72
    12
 73
     8
 74
     0
 42
0.00000001
 43
0.00000001
 12
1.0
 22
0.0
 32
0.0
 13
1.0
 23
0.0
 33
0.0
 40
0.0
 40
0.0
 40
0.0
 40
0.0
 40
0.5000000000000003
 40
0.5000000000000003
 40
0.7500000000000002
 40
0.7500000000000002
 40
1.0
 40
1.0
 40
1.0
 40
1.0
 10
188.5701598866083
 20
110.0241680287406
 30
0.0
 10
188.6139064274449
 20
109.9975738580994
 30
0.0
 10
188.6667907826764
 20
109.9778136327737
 30
0.0
 10
188.7783578700125
 20
109.9573626425446
 30
0.0
 10
188.8209414665555
 20
109.9521024178882
 30
0.0
 10
188.9258581936373
 20
109.9442196239655
 30
0.0
 10
188.9873918014821
 20
109.9416554987864
 30
0.0
 10
189.0749679437083
 20
109.9394552812667
 30
0.0
  0
LINE
  5
F9
330
1F
100
AcDbEntity
  8
0
  6
HIDDEN
 62
     7
370
     0
100
AcDbLine
 10
189.6914802352
 20
109.2544284617
 30
0.0
 11
189.6914802352
 21
109.7346537714
 31
0.0
  0
LINE
  5
FA
330
1F
100
AcDbEntity
  8
0
  6
HIDDEN
 62
     7
370
     0
100
AcDbLine
 10
189.6914802352
 20
153.8538441961
 30
0.0
 11
189.6914802352
 21
154.3340695058
 31
0.0
  0
SPLINE
  5
FB
330
1F
100
AcDbEntity
  8
0
  6
HIDDEN
 62
     7
370
     0
100
AcDbSpline
210
0.0
220
0.0
230
1.0
 70
     8
 71
     3
 72
    12
 73
     8
 74
     0
 42
0.00000001
 43
0.00000001
 12
1.0
 22
0.0
 32
0.0
 13
1.0
 23
0.0
 33
0.0
 40
0.0
 40
0.0
 40
0.0
 40
0.0
 40
0.2499999999999997
 40
0.2499999999999997
 40
0.4999999999999992
 40
0.4999999999999992
 40
1.0
 40
1.0
 40
1.0
 40
1.0
 10
189.0749679437162
 20
153.6490426862186
 30
0.0
 10
188.9862832838599
 20
153.6468146188776
 30
0.0
 10
188.9263648681365
 20
153.6443128348473
 30
0.0
 10
188.8207056408157
 20
153.6363813990113
 30
0.0
 10
188.7780644027008
 20
153.6310892441145
 30
0.0
 10
188.6668750605983
 20
153.6106843036273
 30
0.0
 10
188.6139483784773
 20
153.5909496120404
 30
0.0
 10
188.5701598866083
 20
153.5643299387448
 30
0.0
  0
SPLINE
  5
FC
330
1F
100
AcDbEntity
  8
0
  6
HIDDEN
 62
     7
370
     0
100
AcDbSpline
210
0.0
220
0.0
230
1.0
 70
     8
 71
     3
 72
    12
 73
     8
 74
     0
 42
0.00000001
 43
0.00000001
 12
1.0
 22
0.0
 32
0.0
 13
1.0
 23
0.0
 33
0.0
 40
0.0
 40
0.0
 40
0.0
 40
0.0
 40
0.4999999999999996
 40
0.4999999999999996
 40
0.7500000000000011
 40
0.7500000000000011
 40
1.0
 40
1.0
 40
1.0
 40
1.0
 10
188.5701598866067
 20
148.3781556099839
 30
0.0
 10
188.6139213629052
 20
148.1842558220231
 30
0.0
 10
188.6668276785578
 20
147.9883994580875
 30
0.0
 10
188.778538876204
 20
147.6962573115904
 30
0.0
 10
188.82105831979
 20
147.5995393748931
 30
0.0
 10
188.9261816623559
 20
147.4128149384695
 30
0.0
 10
188.9877476260727
 20
147.3204642302002
 30
0.0
 10
189.0749679437134
 20
147.24651696558
 30
0.0
  0
LWPOLYLINE
  5
FD
330
1F
100
AcDbEntity
  8
0
  6
HIDDEN
 62
     7
370
     0
100
AcDbPolyline
 90
       27
 70
   128
 43
0.0
 10
210.891479947
 20
121.8595274692
 10
211.4897690196
 20
121.7966147666
 10
212.0532880951
 20
121.6115330313
 10
212.5492862839
 20
121.3150371765
 10
212.9489391524
 20
120.924360395
 10
213.2290213782
 20
120.4622064685
 10
213.3732515801
 20
119.9554338087
 10
213.3732515801
 20
119.4334945609
 10
213.2290213782
 20
118.9267219012
 10
212.9489391524
 20
118.4645679747
 10
212.5492862839
 20
118.0738911932
 10
212.0532880951
 20
117.7773953383
 10
211.4897690196
 20
117.592313603
 10
210.891479947
 20
117.5294009005
 10
210.2931908745
 20
117.592313603
 10
209.729671799
 20
117.7773953383
 10
209.2336736102
 20
118.0738911932
 10
208.8340207417
 20
118.4645679747
 10
208.5539403785
 20
118.9267219012
 10
208.409708314
 20
119.4334945609
 10
208.409708314
 20
119.9554338087
 10
208.5539403785
 20
120.4622064685
 10
208.8340207417
 20
120.924360395
 10
209.2336736102
 20
121.3150371765
 10
209.729671799
 20
121.6115330313
 10
210.2931908745
 20
121.7966147666
 10
210.891479947
 20
121.8595274692
  0
SPLINE
  5
FE
330
1F
100
AcDbEntity
  8
0
  6
HIDDEN
 62
     7
370
     0
100
AcDbSpline
210
0.0
220
0.0
230
1.0
 70
     8
 71
     3
 72
    62
 73
    58
 74
     0
 42
0.00000001
 43
0.00000001
 12
1.0
 22
0.0
 32
0.0
 13
1.0
 23
0.0
 33
0.0
 40
-0.0312500000000003
 40
-0.0312500000000003
 40
0.0
 40
0.0
 40
0.0312499999999997
 40
0.0312499999999997
 40
0.0624999999999995
 40
0.0624999999999995
 40
0.0937499999999992
 40
0.0937499999999992
 40
0.1249999999999989
 40
0.1249999999999989
 40
0.1874999999999987
 40
0.1874999999999987
 40
0.2187499999999986
 40
0.2187499999999986
 40
0.2499999999999986
 40
0.2499999999999986
 40
0.2812499999999985
 40
0.2812499999999985
 40
0.3124999999999984
 40
0.3124999999999984
 40
0.3749999999999982
 40
0.3749999999999982
 40
0.4062499999999984
 40
0.4062499999999984
 40
0.4374999999999985
 40
0.4374999999999985
 40
0.4687499999999986
 40
0.4687499999999986
 40
0.4999999999999988
 40
0.4999999999999988
 40
0.5624999999999983
 40
0.5624999999999983
 40
0.5937499999999984
 40
0.5937499999999984
 40
0.6249999999999984
 40
0.6249999999999984
 40
0.6562499999999986
 40
0.6562499999999986
 40
0.6874999999999986
 40
0.6874999999999986
 40
0.7187499999999987
 40
0.7187499999999987
 40
0.7499999999999987
 40
0.7499999999999987
 40
0.7812499999999988
 40
0.7812499999999988
 40
0.8124999999999989
 40
0.8124999999999989
 40
0.8749999999999989
 40
0.8749999999999989
 40
0.9062499999999991
 40
0.9062499999999991
 40
0.9374999999999994
 40
0.9374999999999994
 40
0.9687499999999997
 40
0.9687499999999997
 40
1.0
 40
1.0
 40
1.03125
 40
1.03125
 10
211.0575240491043
 20
129.6364083767562
 30
0.0
 10
210.725436411232
 20
129.6364083767562
 30
0.0
 10
210.5623396806549
 20
129.6198347327007
 30
0.0
 10
210.2417433757464
 20
129.5553461618722
 30
0.0
 10
210.0825411724399
 20
129.5066021364137
 30
0.0
 10
209.7802306707258
 20
129.3810245928438
 30
0.0
 10
209.6369790964814
 20
129.3046502645231
 30
0.0
 10
209.3658682554143
 20
129.1260664740936
 30
0.0
 10
209.2381862602854
 20
129.0234645496072
 30
0.0
 10
208.8941861720702
 20
128.6910276272647
 30
0.0
 10
208.7081845434859
 20
128.4277712859681
 30
0.0
 10
208.5206980303043
 20
128.0132269596593
 30
0.0
 10
208.4722260855522
 20
127.8694700476814
 30
0.0
 10
208.4076641061384
 20
127.5808545802133
 30
0.0
 10
208.3915856059185
 20
127.437645159173
 30
0.0
 10
208.3913758770048
 20
127.1536223189345
 30
0.0
 10
208.4078074244157
 20
127.0116563145565
 30
0.0
 10
208.4719761145681
 20
126.7421465262624
 30
0.0
 10
208.5194450773595
 20
126.6132285173602
 30
0.0
 10
208.7085685613137
 20
126.2430355448177
 30
0.0
 10
208.8927084536799
 20
126.0278632097072
 30
0.0
 10
209.2394440374838
 20
125.7623593958189
 30
0.0
 10
209.3647609936356
 20
125.6847480818686
 30
0.0
 10
209.6348204964355
 20
125.5494842225359
 30
0.0
 10
209.7811938723166
 20
125.4915140517752
 30
0.0
 10
210.0826117753702
 20
125.3996341761307
 30
0.0
 10
210.2384639368092
 20
125.3650365203106
 30
0.0
 10
210.5608069981256
 20
125.3181749032966
 30
0.0
 10
210.7267584651951
 20
125.3063325893645
 30
0.0
 10
211.2176798327463
 20
125.3061794008951
 30
0.0
 10
211.548162819849
 20
125.3534316737053
 30
0.0
 10
212.0000723174475
 20
125.4909045322981
 30
0.0
 10
212.1463695348268
 20
125.5486988371622
 30
0.0
 10
212.4172530973832
 20
125.6841737247111
 30
0.0
 10
212.5426096195411
 20
125.7617825305202
 30
0.0
 10
212.7733872610303
 20
125.9382606661604
 30
0.0
 10
212.8781751411003
 20
126.0371448282011
 30
0.0
 10
213.0588387652824
 20
126.2496025684986
 30
0.0
 10
213.1360272624777
 20
126.3640756903298
 30
0.0
 10
213.262890666769
 20
126.6116177400231
 30
0.0
 10
213.3105520207013
 20
126.7409247855859
 30
0.0
 10
213.3747823877639
 20
127.0095129467189
 30
0.0
 10
213.391415601643
 20
127.1506584902179
 30
0.0
 10
213.3915444766544
 20
127.4361468132595
 30
0.0
 10
213.3754634975256
 20
127.579412801083
 30
0.0
 10
213.3114960850572
 20
127.8667495247272
 30
0.0
 10
213.2629320348135
 20
128.0115178444578
 30
0.0
 10
213.075201192771
 20
128.4272849241696
 30
0.0
 10
212.8892553552753
 20
128.6904128498216
 30
0.0
 10
212.545480133171
 20
129.0228569770804
 30
0.0
 10
212.4183048288034
 20
129.1251826328034
 30
0.0
 10
212.1466624195288
 20
129.3042861266656
 30
0.0
 10
212.0035032485816
 20
129.380600674548
 30
0.0
 10
211.7023763060438
 20
129.5058909084424
 30
0.0
 10
211.5428600773523
 20
129.5549465097565
 30
0.0
 10
211.2209941851205
 20
129.6198283504875
 30
0.0
 10
211.0575240491043
 20
129.6364083767562
 30
0.0
 10
210.725436411232
 20
129.6364083767562
 30
0.0
  0
SPLINE
  5
FF
330
1F
100
AcDbEntity
  8
0
  6
HIDDEN
 62
     7
370
     0
100
AcDbSpline
210
0.0
220
0.0
230
1.0
 70
     8
 71
     3
 72
    12
 73
     8
 74
     0
 42
0.00000001
 43
0.00000001
 12
1.0
 22
0.0
 32
0.0
 13
1.0
 23
0.0
 33
0.0
 40
0.0
 40
0.0
 40
0.0
 40
0.0
 40
0.5
 40
0.5
 40
0.75
 40
0.75
 40
1.0
 40
1.0
 40
1.0
 40
1.0
 10
212.786342247285
 20
123.3739123263105
 30
0.0
 10
212.7269973262642
 20
123.6445972160709
 30
0.0
 10
212.6922937010757
 20
123.8883493590803
 30
0.0
 10
212.7243450016736
 20
124.1874294472553
 30
0.0
 10
212.7484220443039
 20
124.2740391358093
 30
0.0
 10
212.8141266355999
 20
124.4209220098875
 30
0.0
 10
212.8555314662659
 20
124.482008841616
 30
0.0
 10
212.9001899474148
 20
124.5331407528045
 30
0.0
  0
SPLINE
  5
100
330
1F
100
AcDbEntity
  8
0
  6
HIDDEN
 62
     7
370
     0
100
AcDbSpline
210
0.0
220
0.0
230
1.0
 70
     8
 71
     3
 72
    62
 73
    58
 74
     0
 42
0.00000001
 43
0.00000001
 12
1.0
 22
0.0
 32
0.0
 13
1.0
 23
0.0
 33
0.0
 40
0.0
 40
0.0
 40
0.0
 40
0.0
 40
0.0312499999999996
 40
0.0312499999999996
 40
0.0624999999999992
 40
0.0624999999999992
 40
0.0937499999999989
 40
0.0937499999999989
 40
0.1249999999999987
 40
0.1249999999999987
 40
0.1562499999999984
 40
0.1562499999999984
 40
0.1874999999999982
 40
0.1874999999999982
 40
0.218749999999998
 40
0.218749999999998
 40
0.2499999999999977
 40
0.2499999999999977
 40
0.3124999999999974
 40
0.3124999999999974
 40
0.3437499999999971
 40
0.3437499999999971
 40
0.3749999999999966
 40
0.3749999999999966
 40
0.4374999999999964
 40
0.4374999999999964
 40
0.4687499999999962
 40
0.4687499999999962
 40
0.4843749999999963
 40
0.4843749999999963
 40
0.4999999999999962
 40
0.4999999999999962
 40
0.5312499999999964
 40
0.5312499999999964
 40
0.5624999999999968
 40
0.5624999999999968
 40
0.6249999999999972
 40
0.6249999999999972
 40
0.6562499999999976
 40
0.6562499999999976
 40
0.6874999999999978
 40
0.6874999999999978
 40
0.718749999999998
 40
0.718749999999998
 40
0.7499999999999982
 40
0.7499999999999982
 40
0.7812499999999986
 40
0.7812499999999986
 40
0.8124999999999988
 40
0.8124999999999988
 40
0.8749999999999993
 40
0.8749999999999993
 40
0.9374999999999998
 40
0.9374999999999998
 40
0.9687499999999999
 40
0.9687499999999999
 40
1.0
 40
1.0
 40
1.0
 40
1.0
 10
212.9001899474149
 20
124.5331407528045
 30
0.0
 10
212.9933150711178
 20
124.4445664972712
 30
0.0
 10
213.0695480540812
 20
124.3630974902696
 30
0.0
 10
213.1979612480928
 20
124.2004514396551
 30
0.0
 10
213.2501242176931
 20
124.1190542477287
 30
0.0
 10
213.330869339122
 20
123.9510728347946
 30
0.0
 10
213.3590701404392
 20
123.8655504582753
 30
0.0
 10
213.3916294248513
 20
123.6864256556843
 30
0.0
 10
213.395845829459
 20
123.5919745948035
 30
0.0
 10
213.3776446081062
 20
123.3955515881252
 30
0.0
 10
213.3555296482974
 20
123.2939192170638
 30
0.0
 10
213.282327090584
 20
123.0807255686971
 30
0.0
 10
213.2307097828797
 20
122.968943354712
 30
0.0
 10
213.1001312108554
 20
122.7439546012758
 30
0.0
 10
213.019338402264
 20
122.6277138718648
 30
0.0
 10
212.8343490010712
 20
122.3990810121186
 30
0.0
 10
212.7310039021357
 20
122.2871671617213
 30
0.0
 10
212.389923986398
 20
121.9569080956848
 30
0.0
 10
212.1321098282523
 20
121.7560887289909
 30
0.0
 10
211.7505319477046
 20
121.4962413811628
 30
0.0
 10
211.6229347519963
 20
121.4154953377557
 30
0.0
 10
211.3748261099744
 20
121.2658949842817
 30
0.0
 10
211.2552815642274
 20
121.1975858998544
 30
0.0
 10
210.9123969151788
 20
121.0043614296118
 30
0.0
 10
210.699932095611
 20
120.892686135614
 30
0.0
 10
210.4703434060407
 20
120.7109711222157
 30
0.0
 10
210.409307126186
 20
120.6466068735029
 30
0.0
 10
210.3601514752681
 20
120.5385918048645
 30
0.0
 10
210.3507154420487
 20
120.5000186785791
 30
0.0
 10
210.3476581057127
 20
120.4208374646146
 30
0.0
 10
210.3537670408428
 20
120.3800566113714
 30
0.0
 10
210.3927944749178
 20
120.254896214285
 30
0.0
 10
210.4463103687199
 20
120.1689233144098
 30
0.0
 10
210.5824962639307
 20
120.0077031905509
 30
0.0
 10
210.6665404346426
 20
119.9305284910253
 30
0.0
 10
210.9417877793813
 20
119.7233275497113
 30
0.0
 10
211.1571370435416
 20
119.6141598254846
 30
0.0
 10
211.5086168948907
 20
119.517091475727
 30
0.0
 10
211.6286232062342
 20
119.4966243811157
 30
0.0
 10
211.8732700558188
 20
119.4838566969206
 30
0.0
 10
211.9994178155646
 20
119.4918573852054
 30
0.0
 10
212.2477145654946
 20
119.5426397440396
 30
0.0
 10
212.3695667429598
 20
119.5848818747516
 30
0.0
 10
212.6065827610293
 20
119.7099270099187
 30
0.0
 10
212.7176013644268
 20
119.7909171180912
 30
0.0
 10
212.9187901898251
 20
119.9880179258592
 30
0.0
 10
213.0102255772775
 20
120.1063788535981
 30
0.0
 10
213.1615712441119
 20
120.3646432100352
 30
0.0
 10
213.2236974395437
 20
120.5075826820306
 30
0.0
 10
213.3648168841129
 20
120.9539250413289
 30
0.0
 10
213.4003321602658
 20
121.2767146265612
 30
0.0
 10
213.3789234140936
 20
121.9096507298328
 30
0.0
 10
213.3226273578677
 20
122.2285138573366
 30
0.0
 10
213.1762991184276
 20
122.6806688749442
 30
0.0
 10
213.1170408313133
 20
122.8279958455863
 30
0.0
 10
212.971541571587
 20
123.1143501907814
 30
0.0
 10
212.8871954316933
 20
123.2498690238186
 30
0.0
 10
212.786342247285
 20
123.3739123263103
 30
0.0
  0
LINE
  5
101
330
1F
100
AcDbEntity
  8
0
  6
HIDDEN
 62
     7
370
     0
100
AcDbLine
 10
189.6914802352
 20
109.7346537714
 30
0.0
 11
189.6914802352
 21
124.7723617558
 31
0.0
  0
LINE
  5
102
330
1F
100
AcDbEntity
  8
0
  6
HIDDEN
 62
     7
370
     0
100
AcDbLine
 10
189.6914802352
 20
138.8161362116
 30
0.0
 11
189.6914802352
 21
153.8538441961
 31
0.0
  0
LWPOLYLINE
  5
103
330
1F
100
AcDbEntity
  8
0
  6
HIDDEN
 62
     7
370
     0
100
AcDbPolyline
 90
        9
 70
   128
 43
0.0
 10
212.9001900036
 20
124.5331408424
 10
212.9894554097
 20
124.4976621089
 10
213.0499876518
 20
124.426870883
 10
213.0806821812
 20
124.3220570465
 10
213.0809802044
 20
124.1851298106
 10
213.0508779962
 20
124.0185823259
 10
212.9909213115
 20
123.8254488413
 10
212.9022053856
 20
123.6092460309
 10
212.7863414068
 20
123.3739119922
  0
CIRCLE
  5
104
330
1F
100
AcDbEntity
  8
0
  6
HIDDEN
 62
     7
370
     0
100
AcDbCircle
 10
174.3914802302
 20
131.7942489837
 30
0.0
 40
4.049999999999983
  0
LINE
  5
105
330
1F
100
AcDbEntity
  8
0
  6
HIDDEN
 62
     7
370
     0
100
AcDbLine
 10
153.4217077721
 20
147.1072000419
 30
0.0
 11
153.4217077721
 21
116.4812979256
 31
0.0
  0
LINE
  5
106
330
1F
100
AcDbEntity
  8
0
  6
HIDDEN
 62
     7
370
     0
100
AcDbLine
 10
151.8914814521
 20
115.5978192543
 30
0.0
 11
151.8914814521
 21
147.9906787132
 31
0.0
  0
LINE
  5
107
330
1F
100
AcDbEntity
  8
0
  6
HIDDEN
 62
     7
370
     0
100
AcDbLine
 10
159.9217079062
 20
146.1406595041
 30
0.0
 11
159.9217079062
 21
117.4478384634
 31
0.0
  0
LINE
  5
108
330
1F
100
AcDbEntity
  8
0
  6
HIDDEN
 62
     7
370
     0
100
AcDbLine
 10
165.7217092294
 20
145.7942494159
 30
0.0
 11
165.7217092294
 21
117.7942485516
 31
0.0
  0
LINE
  5
109
330
1F
100
AcDbEntity
  8
0
  6
HIDDEN
 62
     7
370
     0
100
AcDbLine
 10
158.3217087615
 20
145.7942494159
 30
0.0
 11
158.3217087615
 21
117.7942485516
 31
0.0
  0
LINE
  5
10A
330
1F
100
AcDbEntity
  8
0
  6
HIDDEN
 62
     7
370
     0
100
AcDbLine
 10
159.3217089254
 20
145.7942494159
 30
0.0
 11
159.3217089254
 21
117.7942485516
 31
0.0
  0
SPLINE
  5
10B
330
1F
100
AcDbEntity
  8
0
  6
HIDDEN
 62
     7
370
     0
100
AcDbSpline
210
0.0
220
0.0
230
1.0
 70
     8
 71
     3
 72
    10
 73
     6
 74
     0
 42
0.00000001
 43
0.00000001
 12
1.0
 22
0.0
 32
0.0
 13
1.0
 23
0.0
 33
0.0
 40
0.0
 40
0.0
 40
0.0
 40
0.0
 40
0.5
 40
0.5
 40
1.0
 40
1.0
 40
1.0
 40
1.0
 10
178.391480230168
 20
132.4286778607652
 30
0.0
 10
178.4246276482444
 20
132.2196872597572
 30
0.0
 10
178.441486493606
 20
132.0081247937356
 30
0.0
 10
178.4414739632584
 20
131.580136027768
 30
0.0
 10
178.424559005518
 20
131.3683779233523
 30
0.0
 10
178.391480230168
 20
131.1598201067202
 30
0.0
  0
LINE
  5
10C
330
1F
100
AcDbEntity
  8
0
  6
HIDDEN
 62
     7
370
     0
100
AcDbLine
 10
178.8914802898
 20
145.2942493339
 30
0.0
 11
178.8914802898
 21
118.2942486336
 31
0.0
  0
SPLINE
  5
10D
330
1F
100
AcDbEntity
  8
0
  6
HIDDEN
 62
     7
370
     0
100
AcDbSpline
210
0.0
220
0.0
230
1.0
 70
     8
 71
     3
 72
    10
 73
     6
 74
     0
 42
0.00000001
 43
0.00000001
 12
1.0
 22
0.0
 32
0.0
 13
1.0
 23
0.0
 33
0.0
 40
0.0
 40
0.0
 40
0.0
 40
0.0
 40
0.5
 40
0.5
 40
1.0
 40
1.0
 40
1.0
 40
1.0
 10
178.391480230168
 20
131.1598201067202
 30
0.0
 10
178.4246691926417
 20
131.3690726403027
 30
0.0
 10
178.4413699688963
 20
131.5798894012016
 30
0.0
 10
178.441589409341
 20
132.0044216824049
 30
0.0
 10
178.4247096939476
 20
132.2191699711776
 30
0.0
 10
178.391480230168
 20
132.4286778607652
 30
0.0
  0
SPLINE
  5
10E
330
1F
100
AcDbEntity
  8
0
  6
HIDDEN
 62
     7
370
     0
100
AcDbSpline
210
0.0
220
0.0
230
1.0
 70
     8
 71
     3
 72
    68
 73
    64
 74
     0
 42
0.00000001
 43
0.00000001
 12
1.0
 22
0.0
 32
0.0
 13
1.0
 23
0.0
 33
0.0
 40
0.0
 40
0.0
 40
0.0
 40
0.0
 40
0.0312500000000002
 40
0.0312500000000002
 40
0.0625000000000004
 40
0.0625000000000004
 40
0.0937500000000007
 40
0.0937500000000007
 40
0.1250000000000009
 40
0.1250000000000009
 40
0.1562500000000011
 40
0.1562500000000011
 40
0.1875000000000013
 40
0.1875000000000013
 40
0.2187500000000016
 40
0.2187500000000016
 40
0.2500000000000018
 40
0.2500000000000018
 40
0.2812500000000016
 40
0.2812500000000016
 40
0.3125000000000013
 40
0.3125000000000013
 40
0.3437500000000011
 40
0.3437500000000011
 40
0.3750000000000009
 40
0.3750000000000009
 40
0.4062500000000007
 40
0.4062500000000007
 40
0.4375000000000004
 40
0.4375000000000004
 40
0.4687500000000002
 40
0.4687500000000002
 40
0.5
 40
0.5
 40
0.5624999999999996
 40
0.5624999999999996
 40
0.5937499999999993
 40
0.5937499999999993
 40
0.6249999999999991
 40
0.6249999999999991
 40
0.6562499999999989
 40
0.6562499999999989
 40
0.6874999999999987
 40
0.6874999999999987
 40
0.7187499999999984
 40
0.7187499999999984
 40
0.7499999999999982
 40
0.7499999999999982
 40
0.7812499999999984
 40
0.7812499999999984
 40
0.8124999999999987
 40
0.8124999999999987
 40
0.8437499999999989
 40
0.8437499999999989
 40
0.8749999999999991
 40
0.8749999999999991
 40
0.9062499999999993
 40
0.9062499999999993
 40
0.9374999999999996
 40
0.9374999999999996
 40
0.9687499999999998
 40
0.9687499999999998
 40
1.0
 40
1.0
 40
1.0
 40
1.0
 10
178.391480230168
 20
131.1598201067202
 30
0.0
 10
178.3514652778182
 20
130.9075305039046
 30
0.0
 10
178.2885234764069
 20
130.6635316535288
 30
0.0
 10
178.1191368143349
 20
130.1911132644663
 30
0.0
 10
178.0114432517494
 20
129.9606998783063
 30
0.0
 10
177.7561584832115
 20
129.5259952825093
 30
0.0
 10
177.6101192527393
 20
129.3233533158579
 30
0.0
 10
177.28189781618
 20
128.9463640251001
 30
0.0
 10
177.0976505284051
 20
128.7707060715227
 30
0.0
 10
176.7046903610968
 20
128.4604481025765
 30
0.0
 10
176.4953957641376
 20
128.3245028949266
 30
0.0
 10
176.0505103372003
 20
128.0911127995207
 30
0.0
 10
175.8137127447012
 20
127.9938661931063
 30
0.0
 10
175.3329776757819
 20
127.847194735235
 30
0.0
 10
175.0867345825991
 20
127.7963023902926
 30
0.0
 10
174.5820178026197
 20
127.7407750400571
 30
0.0
 10
174.3258231016833
 20
127.7369501529871
 30
0.0
 10
173.8234443524831
 20
127.7763739356315
 30
0.0
 10
173.5741946532995
 20
127.8194013848428
 30
0.0
 10
173.0826668558208
 20
127.9531063542941
 30
0.0
 10
172.8473712545949
 20
128.0417762001993
 30
0.0
 10
172.3964573599328
 20
128.2608075639767
 30
0.0
 10
172.1788450094695
 20
128.3928091296602
 30
0.0
 10
171.7756378399212
 20
128.6921664106631
 30
0.0
 10
171.5900263474867
 20
128.858785338101
 30
0.0
 10
171.2500382770842
 20
129.2258967635285
 30
0.0
 10
171.0949653462613
 20
129.4282005090692
 30
0.0
 10
170.828622269598
 20
129.8522811886632
 30
0.0
 10
170.7156381688812
 20
130.0754407941294
 30
0.0
 10
170.5307829119503
 20
130.5447960357236
 30
0.0
 10
170.4596421504469
 20
130.7910065390591
 30
0.0
 10
170.3656817391587
 20
131.2855323654302
 30
0.0
 10
170.3416724092023
 20
131.5364633605222
 30
0.0
 10
170.3410992885298
 20
132.3007087400784
 30
0.0
 10
170.4364983998484
 20
132.8029330421294
 30
0.0
 10
170.7143621920495
 20
133.5104975484018
 30
0.0
 10
170.8275241481301
 20
133.7342038121426
 30
0.0
 10
171.093655330174
 20
134.1584737234632
 30
0.0
 10
171.2484831043737
 20
134.3607256855193
 30
0.0
 10
171.5886642101615
 20
134.7284364268874
 30
0.0
 10
171.7741666671112
 20
134.8950533021368
 30
0.0
 10
172.1764604681705
 20
135.1941026809322
 30
0.0
 10
172.3944685164225
 20
135.3265593889606
 30
0.0
 10
172.8450668835729
 20
135.5457657896653
 30
0.0
 10
173.0796158824536
 20
135.6342509196689
 30
0.0
 10
173.5680758760059
 20
135.7677371496076
 30
0.0
 10
173.8203412717198
 20
135.8116788621013
 30
0.0
 10
174.3225219098801
 20
135.8514878585748
 30
0.0
 10
174.5750040272318
 20
135.8481436457613
 30
0.0
 10
175.0828690703012
 20
135.7929643257708
 30
0.0
 10
175.3304145434851
 20
135.7419183973014
 30
0.0
 10
175.8113820809558
 20
135.5955080090658
 30
0.0
 10
176.047341946061
 20
135.4988618042922
 30
0.0
 10
176.4939123955826
 20
135.2649568599792
 30
0.0
 10
176.7035572581561
 20
135.1288318461527
 30
0.0
 10
177.0965439649106
 20
134.8187775818236
 30
0.0
 10
177.2809398687256
 20
134.6431203342484
 30
0.0
 10
177.609490286586
 20
134.265980411584
 30
0.0
 10
177.7554323831091
 20
134.0635142063142
 30
0.0
 10
178.0103177383113
 20
133.6299379081808
 30
0.0
 10
178.1186290511196
 20
133.3986460645993
 30
0.0
 10
178.2884640285366
 20
132.925286384466
 30
0.0
 10
178.3514593896736
 20
132.6810045876452
 30
0.0
 10
178.391480230168
 20
132.4286778607652
 30
0.0
  0
SPLINE
  5
10F
330
1F
100
AcDbEntity
  8
0
  6
HIDDEN
 62
     7
370
     0
100
AcDbSpline
210
0.0
220
0.0
230
1.0
 70
     8
 71
     3
 72
    68
 73
    64
 74
     0
 42
0.00000001
 43
0.00000001
 12
1.0
 22
0.0
 32
0.0
 13
1.0
 23
0.0
 33
0.0
 40
0.0
 40
0.0
 40
0.0
 40
0.0
 40
0.0312500000000002
 40
0.0312500000000002
 40
0.0625000000000004
 40
0.0625000000000004
 40
0.0937500000000007
 40
0.0937500000000007
 40
0.1250000000000009
 40
0.1250000000000009
 40
0.1562500000000011
 40
0.1562500000000011
 40
0.1875000000000013
 40
0.1875000000000013
 40
0.2187500000000016
 40
0.2187500000000016
 40
0.2500000000000018
 40
0.2500000000000018
 40
0.2812500000000016
 40
0.2812500000000016
 40
0.3125000000000013
 40
0.3125000000000013
 40
0.3437500000000011
 40
0.3437500000000011
 40
0.3750000000000009
 40
0.3750000000000009
 40
0.4062500000000007
 40
0.4062500000000007
 40
0.4375000000000004
 40
0.4375000000000004
 40
0.4687500000000002
 40
0.4687500000000002
 40
0.5
 40
0.5
 40
0.5624999999999996
 40
0.5624999999999996
 40
0.5937499999999993
 40
0.5937499999999993
 40
0.6249999999999991
 40
0.6249999999999991
 40
0.6562499999999989
 40
0.6562499999999989
 40
0.6874999999999987
 40
0.6874999999999987
 40
0.7187499999999984
 40
0.7187499999999984
 40
0.7499999999999982
 40
0.7499999999999982
 40
0.7812499999999984
 40
0.7812499999999984
 40
0.8124999999999987
 40
0.8124999999999987
 40
0.8437499999999989
 40
0.8437499999999989
 40
0.8749999999999991
 40
0.8749999999999991
 40
0.9062499999999993
 40
0.9062499999999993
 40
0.9374999999999996
 40
0.9374999999999996
 40
0.9687499999999998
 40
0.9687499999999998
 40
1.0
 40
1.0
 40
1.0
 40
1.0
 10
178.391480230168
 20
132.4286778607652
 30
0.0
 10
178.3514652778182
 20
132.6809674635808
 30
0.0
 10
178.2885234764069
 20
132.9249663139566
 30
0.0
 10
178.1191368143349
 20
133.3973847030192
 30
0.0
 10
178.0114432517494
 20
133.6277980891791
 30
0.0
 10
177.7561584832115
 20
134.0625026849762
 30
0.0
 10
177.6101192527393
 20
134.2651446516275
 30
0.0
 10
177.28189781618
 20
134.6421339423853
 30
0.0
 10
177.0976505284051
 20
134.8177918959627
 30
0.0
 10
176.7046903610968
 20
135.1280498649089
 30
0.0
 10
176.4953957641376
 20
135.2639950725589
 30
0.0
 10
176.0505103372003
 20
135.4973851679647
 30
0.0
 10
175.8137127447012
 20
135.5946317743791
 30
0.0
 10
175.3329776757819
 20
135.7413032322505
 30
0.0
 10
175.0867345825991
 20
135.7921955771928
 30
0.0
 10
174.5820178026197
 20
135.8477229274284
 30
0.0
 10
174.3258231016833
 20
135.8515478144983
 30
0.0
 10
173.8234443524831
 20
135.8121240318539
 30
0.0
 10
173.5741946532995
 20
135.7690965826426
 30
0.0
 10
173.0826668558208
 20
135.6353916131914
 30
0.0
 10
172.8473712545949
 20
135.5467217672862
 30
0.0
 10
172.3964573599328
 20
135.3276904035087
 30
0.0
 10
172.1788450094695
 20
135.1956888378252
 30
0.0
 10
171.7756378399212
 20
134.8963315568223
 30
0.0
 10
171.5900263474867
 20
134.7297126293844
 30
0.0
 10
171.2500382770842
 20
134.3626012039569
 30
0.0
 10
171.0949653462613
 20
134.1602974584162
 30
0.0
 10
170.828622269598
 20
133.7362167788222
 30
0.0
 10
170.7156381688812
 20
133.513057173356
 30
0.0
 10
170.5307829119503
 20
133.0437019317619
 30
0.0
 10
170.4596421504469
 20
132.7974914284263
 30
0.0
 10
170.3656817391587
 20
132.3029656020552
 30
0.0
 10
170.3416724092023
 20
132.0520346069632
 30
0.0
 10
170.3410992885298
 20
131.287789227407
 30
0.0
 10
170.4364983998484
 20
130.785564925356
 30
0.0
 10
170.7143621920495
 20
130.0780004190836
 30
0.0
 10
170.8275241481301
 20
129.8542941553428
 30
0.0
 10
171.093655330174
 20
129.4300242440222
 30
0.0
 10
171.2484831043737
 20
129.2277722819662
 30
0.0
 10
171.5886642101615
 20
128.860061540598
 30
0.0
 10
171.7741666671112
 20
128.6934446653486
 30
0.0
 10
172.1764604681705
 20
128.3943952865532
 30
0.0
 10
172.3944685164225
 20
128.2619385785248
 30
0.0
 10
172.8450668835729
 20
128.0427321778201
 30
0.0
 10
173.0796158824536
 20
127.9542470478165
 30
0.0
 10
173.5680758760059
 20
127.8207608178779
 30
0.0
 10
173.8203412717198
 20
127.7768191053841
 30
0.0
 10
174.3225219098801
 20
127.7370101089106
 30
0.0
 10
174.5750040272318
 20
127.7403543217241
 30
0.0
 10
175.0828690703012
 20
127.7955336417146
 30
0.0
 10
175.3304145434851
 20
127.846579570184
 30
0.0
 10
175.8113820809558
 20
127.9929899584196
 30
0.0
 10
176.047341946061
 20
128.0896361631932
 30
0.0
 10
176.4939123955826
 20
128.3235411075063
 30
0.0
 10
176.7035572581561
 20
128.4596661213328
 30
0.0
 10
177.0965439649106
 20
128.7697203856619
 30
0.0
 10
177.2809398687256
 20
128.945377633237
 30
0.0
 10
177.609490286586
 20
129.3225175559014
 30
0.0
 10
177.7554323831091
 20
129.5249837611713
 30
0.0
 10
178.0103177383113
 20
129.9585600593046
 30
0.0
 10
178.1186290511196
 20
130.1898519028861
 30
0.0
 10
178.2884640285366
 20
130.6632115830193
 30
0.0
 10
178.3514593896736
 20
130.9074933798401
 30
0.0
 10
178.391480230168
 20
131.1598201067202
 30
0.0
  0
LINE
  5
110
330
1F
100
AcDbEntity
  8
0
  6
HIDDEN
 62
     7
370
     0
100
AcDbLine
 10
180.141480029
 20
140.7942485963
 30
0.0
 11
180.141480029
 21
122.7942493712
 31
0.0
  0
LINE
  5
111
330
1F
100
AcDbEntity
  8
0
  6
HIDDEN
 62
     7
370
     0
100
AcDbLine
 10
178.8914802898
 20
121.5442487006
 30
0.0
 11
178.8914802898
 21
142.0442492669
 31
0.0
  0
LINE
  5
112
330
1F
100
AcDbEntity
  8
0
  6
HIDDEN
 62
     7
370
     0
100
AcDbLine
 10
216.8914809305
 20
122.7942493712
 30
0.0
 11
216.8914809305
 21
140.7942485963
 31
0.0
  0
SPLINE
  5
113
330
1F
100
AcDbEntity
  8
0
  6
HIDDEN
 62
     7
370
     0
100
AcDbSpline
210
0.0
220
0.0
230
1.0
 70
     8
 71
     3
 72
     9
 73
     5
 74
     0
 42
0.00000001
 43
0.00000001
 12
1.0
 22
0.0
 32
0.0
 13
1.0
 23
0.0
 33
0.0
 40
0.0
 40
0.0
 40
0.0
 40
0.0
 40
0.5
 40
1.0
 40
1.0
 40
1.0
 40
1.0
 10
228.090079068478
 20
127.8580389580398
 30
0.0
 10
228.0827978594249
 20
128.0806177217572
 30
0.0
 10
228.0670020260582
 20
128.5257626678455
 30
0.0
 10
228.0507954181822
 20
128.9709034238637
 30
0.0
 10
228.0430550802309
 20
129.1934775042761
 30
0.0
  0
LINE
  5
114
330
1F
100
AcDbEntity
  8
0
  6
HIDDEN
 62
     7
370
     0
100
AcDbLine
 10
228.0430536199
 20
129.1934776087
 30
0.0
 11
228.0430536199
 21
153.779863656
 31
0.0
  0
SPLINE
  5
115
330
1F
100
AcDbEntity
  8
0
  6
HIDDEN
 62
     7
370
     0
100
AcDbSpline
210
0.0
220
0.0
230
1.0
 70
     8
 71
     3
 72
    12
 73
     8
 74
     0
 42
0.00000001
 43
0.00000001
 12
1.0
 22
0.0
 32
0.0
 13
1.0
 23
0.0
 33
0.0
 40
0.0
 40
0.0
 40
0.0
 40
0.0
 40
0.25
 40
0.25
 40
0.5
 40
0.5
 40
1.0
 40
1.0
 40
1.0
 40
1.0
 10
228.0430550802296
 20
153.7798635826407
 30
0.0
 10
227.9959071202897
 20
153.8911224053674
 30
0.0
 10
227.9362209883008
 20
154.0181857766943
 30
0.0
 10
227.8035594026721
 20
154.2890639029688
 30
0.0
 10
227.7300735813177
 20
154.4336240769278
 30
0.0
 10
227.4950250560233
 20
154.8849218025017
 30
0.0
 10
227.3209358970649
 20
155.2065245443673
 30
0.0
 10
227.1241532421894
 20
155.5551890804994
 30
0.0
  0
LINE
  5
116
330
1F
100
AcDbEntity
  8
0
  6
HIDDEN
 62
     7
370
     0
100
AcDbLine
 10
241.2302385498
 20
96.9898787295
 30
0.0
 11
249.0218806494
 21
96.5815347587
 31
0.0
  0
LINE
  5
117
330
1F
100
AcDbEntity
  8
0
  6
HIDDEN
 62
     7
370
     0
100
AcDbLine
 10
241.2064078677
 20
97.0280145262
 30
0.0
 11
241.2302385498
 21
96.9898787295
 31
0.0
  0
LINE
  5
118
330
1F
100
AcDbEntity
  8
0
  6
HIDDEN
 62
     7
370
     0
100
AcDbLine
 10
243.4244121838
 20
87.7551672016
 30
0.0
 11
237.8130632866
 21
96.7352029835
 31
0.0
  0
LINE
  5
119
330
1F
100
AcDbEntity
  8
0
  6
HIDDEN
 62
     7
370
     0
100
AcDbLine
 10
243.4244121838
 20
87.7551672016
 30
0.0
 11
243.3795075346
 21
87.7575178598
 31
0.0
  0
LINE
  5
11A
330
1F
100
AcDbEntity
  8
0
  6
HIDDEN
 62
     7
370
     0
100
AcDbLine
 10
241.2302385498
 20
96.9898787295
 30
0.0
 11
241.0777810443
 21
96.7310604607
 31
0.0
  0
ELLIPSE
  5
11B
330
1F
100
AcDbEntity
  8
0
  6
HIDDEN
 62
     7
370
     0
100
AcDbEllipse
 10
285.5414609667
 20
107.2364896231
 30
0.0
 11
38.05970883280628
 21
21.75919211935656
 31
0.0
210
0.0
220
0.0
230
1.0
 40
0.373927429
 41
2.572419717037082
 42
2.583371894670328
  0
LINE
  5
11C
330
1F
100
AcDbEntity
  8
0
  6
HIDDEN
 62
     7
370
     0
100
AcDbLine
 10
248.9496100176
 20
96.3185143625
 30
0.0
 11
241.0777810443
 21
96.7310604607
 31
0.0
  0
LINE
  5
11D
330
1F
100
AcDbEntity
  8
0
  6
HIDDEN
 62
     7
370
     0
100
AcDbLine
 10
240.8815886308
 20
97.0450353776
 30
0.0
 11
241.0777810443
 21
96.7310604607
 31
0.0
  0
LINE
  5
11E
330
1F
100
AcDbEntity
  8
0
  6
HIDDEN
 62
     7
370
     0
100
AcDbLine
 10
242.9022941221
 20
131.2194330236
 30
0.0
 11
246.7945668329
 21
131.2194330236
 31
0.0
  0
LINE
  5
11F
330
1F
100
AcDbEntity
  8
0
  6
HIDDEN
 62
     7
370
     0
100
AcDbLine
 10
237.9217709828
 20
97.0640343581
 30
0.0
 11
243.6653527845
 21
87.8723797356
 31
0.0
  0
ELLIPSE
  5
120
330
1F
100
AcDbEntity
  8
0
  6
HIDDEN
 62
     7
370
     0
100
AcDbEllipse
 10
217.3670111102
 20
129.1545102875
 30
0.0
 11
-26.23613238030587
 21
41.32889059954991
 31
0.0
210
0.0
220
0.0
230
1.0
 40
0.1000778042
 41
3.103075604935441
 42
3.157429058086048
  0
SPLINE
  5
121
330
1F
100
AcDbEntity
  8
0
  6
HIDDEN
 62
     7
370
     0
100
AcDbSpline
210
0.0
220
0.0
230
1.0
 70
     8
 71
     3
 72
    22
 73
    18
 74
     0
 42
0.00000001
 43
0.00000001
 12
1.0
 22
0.0
 32
0.0
 13
1.0
 23
0.0
 33
0.0
 40
0.0
 40
0.0
 40
0.0
 40
0.0
 40
0.2499999999999997
 40
0.2499999999999997
 40
0.3124999999999996
 40
0.3124999999999996
 40
0.3749999999999996
 40
0.3749999999999996
 40
0.4999999999999998
 40
0.4999999999999998
 40
0.6249999999999999
 40
0.6249999999999999
 40
0.6875
 40
0.6875
 40
0.75
 40
0.75
 40
1.0
 40
1.0
 40
1.0
 40
1.0
 10
230.4928226778637
 20
105.8302842355512
 30
0.0
 10
230.5623474575726
 20
103.2251456400908
 30
0.0
 10
230.6275916385857
 20
100.8785461604361
 30
0.0
 10
230.7040237886008
 20
98.25745901981624
 30
0.0
 10
230.7190509350887
 20
97.74905331475765
 30
0.0
 10
230.7485797911166
 20
96.76441005531647
 30
0.0
 10
230.7631242526314
 20
96.2867992677389
 30
0.0
 10
230.8056268450333
 20
94.91399394850374
 30
0.0
 10
230.8323306427824
 20
94.08251137348104
 30
0.0
 10
230.8826041832169
 20
92.58150453205707
 30
0.0
 10
230.9061735989653
 20
91.91199447230186
 30
0.0
 10
230.9391767052873
 20
91.03018358898574
 30
0.0
 10
230.9497849402482
 20
90.75670674798958
 30
0.0
 10
230.9702037330467
 20
90.25147803080128
 30
0.0
 10
230.9800370084906
 20
90.01926405154292
 30
0.0
 10
231.026659918144
 20
88.97635019945072
 30
0.0
 10
231.0562626508843
 20
88.50594141163481
 30
0.0
 10
231.0782225214698
 20
88.40220188598002
 30
0.0
  0
LINE
  5
122
330
1F
100
AcDbEntity
  8
0
  6
HIDDEN
 62
     7
370
     0
100
AcDbLine
 10
248.7608234812
 20
96.3284087335
 30
0.0
 11
248.9496100176
 21
96.3185143625
 31
0.0
  0
LWPOLYLINE
  5
123
330
1F
100
AcDbEntity
  8
0
  6
HIDDEN
 62
     7
370
     0
100
AcDbPolyline
 90
        3
 70
   128
 43
0.0
 10
243.5623857606
 20
88.0371642267
 10
243.618443929
 20
87.9474517857
 10
243.6653527845
 20
87.8723797356
  0
SPLINE
  5
124
330
1F
100
AcDbEntity
  8
0
  6
HIDDEN
 62
     7
370
     0
100
AcDbSpline
210
0.0
220
0.0
230
1.0
 70
     8
 71
     3
 72
    22
 73
    18
 74
     0
 42
0.00000001
 43
0.00000001
 12
1.0
 22
0.0
 32
0.0
 13
1.0
 23
0.0
 33
0.0
 40
0.0
 40
0.0
 40
0.0
 40
0.0
 40
0.0375394352424148
 40
0.074823845322349
 40
0.1118549026644943
 40
0.1486343142551262
 40
0.1851638223583443
 40
0.2214452052404042
 40
0.2574802779015726
 40
0.3848834995921284
 40
0.5096476722796046
 40
0.6343882121892747
 40
0.7569320816852214
 40
0.8183540355811993
 40
0.8793288877581134
 40
0.939872232542137
 40
1.0
 40
1.0
 40
1.0
 40
1.0
 10
248.1327166429811
 20
93.13453147615608
 30
0.0
 10
248.2191252027775
 20
93.0288524878643
 30
0.0
 10
248.3913553034966
 20
92.81821244432867
 30
0.0
 10
248.6442934859828
 20
92.5121119203795
 30
0.0
 10
248.8921374322105
 20
92.21459764471278
 30
0.0
 10
249.1345681321621
 20
91.92626255234373
 30
0.0
 10
249.3716679020863
 20
91.64691495366014
 30
0.0
 10
249.6034145739119
 20
91.37656543553702
 30
0.0
 10
250.0216550168292
 20
90.89366919863834
 30
0.0
 10
250.6019895943385
 20
90.24035938719865
 30
0.0
 10
251.3101578980173
 20
89.4795578780938
 30
0.0
 10
251.9558715086696
 20
88.824967913851
 30
0.0
 10
252.4447918630603
 20
88.36532917350243
 30
0.0
 10
252.8033241444255
 20
88.05202019511421
 30
0.0
 10
253.0557744642158
 20
87.84464953255203
 30
0.0
 10
253.2923593427984
 20
87.66307324615993
 30
0.0
 10
253.4364127490352
 20
87.56486169114457
 30
0.0
 10
253.5081914005352
 20
87.51592502824381
 30
0.0
  0
SPLINE
  5
125
330
1F
100
AcDbEntity
  8
0
  6
HIDDEN
 62
     7
370
     0
100
AcDbSpline
210
0.0
220
0.0
230
1.0
 70
     8
 71
     3
 72
    21
 73
    17
 74
     0
 42
0.00000001
 43
0.00000001
 12
1.0
 22
0.0
 32
0.0
 13
1.0
 23
0.0
 33
0.0
 40
0.0
 40
0.0
 40
0.0
 40
0.0
 40
0.0301719548130877
 40
0.0603923104981525
 40
0.090667908298938
 40
0.1210055520873441
 40
0.1818526423491859
 40
0.2429832198330622
 40
0.3660257527828401
 40
0.4902346948246337
 40
0.6156836001277309
 40
0.742430891909243
 40
0.8062911416954894
 40
0.870531206014539
 40
0.9350793931038706
 40
1.0
 40
1.0
 40
1.0
 40
1.0
 10
253.7643800122466
 20
87.95313741598773
 30
0.0
 10
253.7287122698431
 20
87.97692531078467
 30
0.0
 10
253.657319568
 20
88.0245392601483
 30
0.0
 10
253.54516158442
 20
88.10443789635605
 30
0.0
 10
253.4291980211366
 20
88.19060411729718
 30
0.0
 10
253.2689000417087
 20
88.31475133674901
 30
0.0
 10
253.0583233858033
 20
88.48679143616171
 30
0.0
 10
252.6995177615306
 20
88.79817749094953
 30
0.0
 10
252.2108037016494
 20
89.25457748502309
 30
0.0
 10
251.5636829566182
 20
89.90602364977023
 30
0.0
 10
250.8562843206552
 20
90.66071597112071
 30
0.0
 10
250.219763689691
 20
91.3721879352807
 30
0.0
 10
249.6827196985478
 20
91.99024914982348
 30
0.0
 10
249.2648602675488
 20
92.4798209852122
 30
0.0
 10
248.8341368732154
 20
92.99212103716026
 30
0.0
 10
248.5370886544711
 20
93.35214852220653
 30
0.0
 10
248.3881373122622
 20
93.53268007818224
 30
0.0
  0
CIRCLE
  5
126
330
1F
100
AcDbEntity
  8
0
  6
HIDDEN
 62
     7
370
     0
100
AcDbCircle
 10
246.2404868946
 20
92.0544554886
 30
0.0
 40
2.40000000000002
  0
LINE
  5
127
330
1F
100
AcDbEntity
  8
0
  6
HIDDEN
 62
     7
370
     0
100
AcDbLine
 10
250.2778958011
 20
93.5326789473
 30
0.0
 11
253.764376365
 21
87.9531365787
 31
0.0
  0
LINE
  5
128
330
1F
100
AcDbEntity
  8
0
  6
HIDDEN
 62
     7
370
     0
100
AcDbLine
 10
253.5081881512
 20
87.5159253334
 30
0.0
 11
253.764376365
 21
87.9531365787
 31
0.0
  0
ARC
  5
129
330
1F
100
AcDbEntity
  8
0
  6
HIDDEN
 62
     7
370
     0
100
AcDbCircle
 10
238.6938781608
 20
98.1872522909
 30
0.0
 40
1.250000000000011
100
AcDbArc
 50
32.0
 51
212.0
  0
LINE
  5
12A
330
1F
100
AcDbEntity
  8
0
  6
HIDDEN
 62
     7
370
     0
100
AcDbLine
 10
237.6338172186
 20
97.5248527681
 30
0.0
 11
243.5623857606
 21
88.0371642267
 31
0.0
  0
LINE
  5
12B
330
1F
100
AcDbEntity
  8
0
  6
HIDDEN
 62
     7
370
     0
100
AcDbLine
 10
241.0777810443
 20
96.7310604607
 30
0.0
 11
239.7539395321
 21
98.8496516799
 31
0.0
  0
LINE
  5
12C
330
1F
100
AcDbEntity
  8
0
  6
HIDDEN
 62
     7
370
     0
100
AcDbLine
 10
248.7608234812
 20
96.3284087335
 30
0.0
 11
241.0777810443
 21
96.7310604607
 31
0.0
  0
LINE
  5
12D
330
1F
100
AcDbEntity
  8
0
  6
HIDDEN
 62
     7
370
     0
100
AcDbLine
 10
243.5623857606
 20
88.0371642267
 30
0.0
 11
253.5081881512
 21
87.5159253334
 31
0.0
  0
ELLIPSE
  5
12E
330
1F
100
AcDbEntity
  8
0
  6
HIDDEN
 62
     7
370
     0
100
AcDbEllipse
 10
272.5392023816
 20
107.2364896231
 30
0.0
 11
26.19525546193012
 21
1.421085471520200E-14
 31
1.896260926059767E-13
210
-7.238948017955490E-15
220
0.0
230
1.0
 40
0.9925461516
 41
3.574532897562651
 42
3.696741263369101
  0
CIRCLE
  5
12F
330
1F
100
AcDbEntity
  8
0
  6
HIDDEN
 62
     7
370
     0
100
AcDbCircle
 10
246.2404868946
 20
92.0544554886
 30
0.0
 40
1.650000000000006
  0
LINE
  5
130
330
1F
100
AcDbEntity
  8
0
  6
HIDDEN
 62
     7
370
     0
100
AcDbLine
 10
187.6914802421
 20
153.8143486683
 30
0.0
 11
187.6914802421
 21
147.3291696017
 31
0.0
  0
LINE
  5
131
330
1F
100
AcDbEntity
  8
0
  6
HIDDEN
 62
     7
370
     0
100
AcDbLine
 10
153.3914807666
 20
152.9526126539
 30
0.0
 11
153.3914807666
 21
146.8983015944
 31
0.0
  0
SPLINE
  5
132
330
1F
100
AcDbEntity
  8
0
  6
HIDDEN
 62
     7
370
     0
100
AcDbSpline
210
0.0
220
0.0
230
1.0
 70
     8
 71
     3
 72
    16
 73
    12
 74
     0
 42
0.00000001
 43
0.00000001
 12
1.0
 22
0.0
 32
0.0
 13
1.0
 23
0.0
 33
0.0
 40
0.0
 40
0.0
 40
0.0
 40
0.0
 40
0.2500000000000004
 40
0.2500000000000004
 40
0.3750000000000003
 40
0.3750000000000003
 40
0.5000000000000003
 40
0.5000000000000003
 40
0.7500000000000001
 40
0.7500000000000001
 40
1.0
 40
1.0
 40
1.0
 40
1.0
 10
188.5701598866083
 20
153.5643299387448
 30
0.0
 10
188.4089274091239
 20
153.4663143256901
 30
0.0
 10
188.2884475694842
 20
153.279578294014
 30
0.0
 10
188.1660670521709
 20
152.8665384864551
 30
0.0
 10
188.1350893917734
 20
152.7065379872222
 30
0.0
 10
188.0934756541455
 20
152.3397323361311
 30
0.0
 10
188.0832397412127
 20
152.1363951835071
 30
0.0
 10
188.0830513441566
 20
151.4691079168804
 30
0.0
 10
188.1231960467942
 20
150.9482934529923
 30
0.0
 10
188.2873498017337
 20
149.7509344375146
 30
0.0
 10
188.4089014521433
 20
149.0926647832187
 30
0.0
 10
188.5701598866083
 20
148.3781556099837
 30
0.0
  0
LINE
  5
133
330
1F
100
AcDbEntity
  8
0
  6
HIDDEN
 62
     7
370
     0
100
AcDbLine
 10
151.8914814521
 20
152.0865869676
 30
0.0
 11
151.8914814521
 21
146.4652887513
 31
0.0
  0
LINE
  5
134
330
1F
100
AcDbEntity
  8
0
  6
HIDDEN
 62
     7
370
     0
100
AcDbLine
 10
153.3914807666
 20
116.690196373
 30
0.0
 11
153.3914807666
 21
110.6358853136
 31
0.0
  0
LINE
  5
135
330
1F
100
AcDbEntity
  8
0
  6
HIDDEN
 62
     7
370
     0
100
AcDbLine
 10
151.8914814521
 20
117.1232092162
 30
0.0
 11
151.8914814521
 21
111.5019109999
 31
0.0
  0
LINE
  5
136
330
1F
100
AcDbEntity
  8
0
  6
HIDDEN
 62
     7
370
     0
100
AcDbLine
 10
187.6914802421
 20
116.2593283658
 30
0.0
 11
187.6914802421
 21
109.7741492991
 31
0.0
  0
SPLINE
  5
137
330
1F
100
AcDbEntity
  8
0
  6
HIDDEN
 62
     7
370
     0
100
AcDbSpline
210
0.0
220
0.0
230
1.0
 70
     8
 71
     3
 72
    16
 73
    12
 74
     0
 42
0.00000001
 43
0.00000001
 12
1.0
 22
0.0
 32
0.0
 13
1.0
 23
0.0
 33
0.0
 40
0.0
 40
0.0
 40
0.0
 40
0.0
 40
0.2499999999999998
 40
0.2499999999999998
 40
0.3749999999999997
 40
0.3749999999999997
 40
0.4999999999999996
 40
0.4999999999999996
 40
0.7499999999999998
 40
0.7499999999999998
 40
1.0
 40
1.0
 40
1.0
 40
1.0
 10
188.5701598866083
 20
115.2103423575017
 30
0.0
 10
188.4089274091239
 20
114.4959481953096
 30
0.0
 10
188.2884475694842
 20
113.8426059326009
 30
0.0
 10
188.1660670521709
 20
112.954350690797
 30
0.0
 10
188.1350893917734
 20
112.6736701544451
 30
0.0
 10
188.0934756541455
 20
112.1446361646052
 30
0.0
 10
188.0832397412127
 20
111.9013151860267
 30
0.0
 10
188.0830513441566
 20
111.2332924955135
 30
0.0
 10
188.1231960467942
 20
110.869611586094
 30
0.0
 10
188.2873498017337
 20
110.3097207135457
 30
0.0
 10
188.4089014521433
 20
110.1221994214285
 30
0.0
 10
188.5701598866083
 20
110.0241680287406
 30
0.0
  0
CIRCLE
  5
138
330
1F
100
AcDbEntity
  8
0
  6
HIDDEN
 62
     7
370
     0
100
AcDbCircle
 10
246.2404868946
 20
92.0544554886
 30
0.0
 40
1.650000000000006
  0
LINE
  5
139
330
1F
100
AcDbEntity
  8
0
  6
HIDDEN
 62
     7
370
     0
100
AcDbLine
 10
151.8914814521
 20
146.4652887513
 30
0.0
 11
151.8914814521
 21
134.6962363892
 31
0.0
  0
LINE
  5
13A
330
1F
100
AcDbEntity
  8
0
  6
HIDDEN
 62
     7
370
     0
100
AcDbLine
 10
151.8914814521
 20
128.8922615782
 30
0.0
 11
151.8914814521
 21
117.1232092162
 31
0.0
  0
LINE
  5
13B
330
1F
100
AcDbEntity
  8
0
  6
HIDDEN
 62
     7
370
     0
100
AcDbLine
 10
153.3914807666
 20
127.8290378829
 30
0.0
 11
153.3914807666
 21
116.690196373
 31
0.0
  0
LINE
  5
13C
330
1F
100
AcDbEntity
  8
0
  6
HIDDEN
 62
     7
370
     0
100
AcDbLine
 10
153.3914807666
 20
146.8983015944
 30
0.0
 11
153.3914807666
 21
135.7594600846
 31
0.0
  0
LINE
  5
13D
330
1F
100
AcDbEntity
  8
0
  6
HIDDEN
 62
     7
370
     0
100
AcDbLine
 10
189.6914802352
 20
146.8319560369
 30
0.0
 11
189.6914802352
 21
116.7565419306
 31
0.0
  0
LINE
  5
13E
330
1F
100
AcDbEntity
  8
0
  6
HIDDEN
 62
     7
370
     0
100
AcDbLine
 10
187.6914802421
 20
147.3291696017
 30
0.0
 11
187.6914802421
 21
116.2593283658
 31
0.0
  0
SPLINE
  5
13F
330
1F
100
AcDbEntity
  8
0
  6
HIDDEN
 62
     7
370
     0
100
AcDbSpline
210
0.0
220
0.0
230
1.0
 70
     8
 71
     3
 72
    24
 73
    20
 74
     0
 42
0.00000001
 43
0.00000001
 12
1.0
 22
0.0
 32
0.0
 13
1.0
 23
0.0
 33
0.0
 40
0.0
 40
0.0
 40
0.0
 40
0.0
 40
0.125
 40
0.125
 40
0.25
 40
0.25
 40
0.375
 40
0.375
 40
0.4375
 40
0.4375
 40
0.5
 40
0.5
 40
0.625
 40
0.625
 40
0.75
 40
0.75
 40
0.875
 40
0.875
 40
1.0
 40
1.0
 40
1.0
 40
1.0
 10
158.3414802301679
 20
127.7082879306435
 30
0.0
 10
158.579283862443
 20
128.0072950329736
 30
0.0
 10
158.8093695236543
 20
128.3116328842923
 30
0.0
 10
159.2441229222642
 20
128.9373664216883
 30
0.0
 10
159.4490557145503
 20
129.2585911490158
 30
0.0
 10
159.814157665049
 20
129.9305169197486
 30
0.0
 10
159.9759580508405
 20
130.2858321516275
 30
0.0
 10
160.1478182554202
 20
130.8360633729799
 30
0.0
 10
160.1934034470804
 20
131.0224671579604
 30
0.0
 10
160.2558781866552
 20
131.4026016600566
 30
0.0
 10
160.2725493324037
 20
131.5982714523425
 30
0.0
 10
160.2730703755802
 20
132.1767518310169
 30
0.0
 10
160.2086280746935
 20
132.5546636699857
 30
0.0
 10
159.9787789813201
 20
133.2966316950842
 30
0.0
 10
159.820258303657
 20
133.6453471552451
 30
0.0
 10
159.4560239737569
 20
134.3184395529782
 30
0.0
 10
159.2492877336933
 20
134.6433920402199
 30
0.0
 10
158.8113497879529
 20
135.2743158506817
 30
0.0
 10
158.5800770606734
 20
135.5802055910223
 30
0.0
 10
158.3414802301681
 20
135.8802100368418
 30
0.0
  0
LINE
  5
140
330
1F
100
AcDbEntity
  8
0
  6
HIDDEN
 62
     7
370
     0
100
AcDbLine
 10
158.3414788771
 20
127.7082877201
 30
0.0
 11
158.3414788771
 21
135.8802102474
 31
0.0
  0
SPLINE
  5
141
330
1F
100
AcDbEntity
  8
0
  6
HIDDEN
 62
     7
370
     0
100
AcDbSpline
210
0.0
220
0.0
230
1.0
 70
     8
 71
     3
 72
     8
 73
     4
 74
     0
 42
0.00000001
 43
0.00000001
 12
1.0
 22
0.0
 32
0.0
 13
1.0
 23
0.0
 33
0.0
 40
0.0000249638557296
 40
0.0000249638557296
 40
0.0000249638557296
 40
0.0000249638557296
 40
0.0049776420541172
 40
0.0049776420541172
 40
0.0049776420541172
 40
0.0049776420541172
 10
153.391480230168
 20
127.8290380869062
 30
0.0
 10
155.0414564646775
 20
127.787758849138
 30
0.0
 10
156.6914577844225
 20
127.7475371678985
 30
0.0
 10
158.3414802301679
 20
127.7082879306435
 30
0.0
  0
SPLINE
  5
142
330
1F
100
AcDbEntity
  8
0
  6
HIDDEN
 62
     7
370
     0
100
AcDbSpline
210
0.0
220
0.0
230
1.0
 70
     8
 71
     3
 72
     8
 73
     4
 74
     0
 42
0.00000001
 43
0.00000001
 12
1.0
 22
0.0
 32
0.0
 13
1.0
 23
0.0
 33
0.0
 40
0.0000249631533153
 40
0.0000249631533153
 40
0.0000249631533153
 40
0.0000249631533153
 40
0.0049776413517029
 40
0.0049776413517029
 40
0.0049776413517029
 40
0.0049776413517029
 10
158.3414802301679
 20
135.880210036842
 30
0.0
 10
156.6914577844225
 20
135.840960799587
 30
0.0
 10
155.0414564646775
 20
135.8007391183475
 30
0.0
 10
153.3914802301679
 20
135.7594598805792
 30
0.0
  0
SPLINE
  5
143
330
1F
100
AcDbEntity
  8
0
  6
HIDDEN
 62
     7
370
     0
100
AcDbSpline
210
0.0
220
0.0
230
1.0
 70
     8
 71
     3
 72
     8
 73
     4
 74
     0
 42
0.00000001
 43
0.00000001
 12
1.0
 22
0.0
 32
0.0
 13
1.0
 23
0.0
 33
0.0
 40
0.0
 40
0.0
 40
0.0
 40
0.0
 40
1.0
 40
1.0
 40
1.0
 40
1.0
 10
151.8914802301657
 20
128.8922616507624
 30
0.0
 10
152.3582408415435
 20
128.4768984051393
 30
0.0
 10
152.8639883883236
 20
128.1323079758347
 30
0.0
 10
153.391480230168
 20
127.8290380869062
 30
0.0
  0
SPLINE
  5
144
330
1F
100
AcDbEntity
  8
0
  6
HIDDEN
 62
     7
370
     0
100
AcDbSpline
210
0.0
220
0.0
230
1.0
 70
     8
 71
     3
 72
     8
 73
     4
 74
     0
 42
0.00000001
 43
0.00000001
 12
1.0
 22
0.0
 32
0.0
 13
1.0
 23
0.0
 33
0.0
 40
0.0
 40
0.0
 40
0.0
 40
0.0
 40
1.0
 40
1.0
 40
1.0
 40
1.0
 10
153.391480230168
 20
135.7594598805792
 30
0.0
 10
152.8639883883244
 20
135.4561899916512
 30
0.0
 10
152.3582408415451
 20
135.1115995623472
 30
0.0
 10
151.8914802301679
 20
134.696236316725
 30
0.0
  0
LINE
  5
145
330
1F
100
AcDbEntity
  8
0
  6
HIDDEN
 62
     7
370
     0
100
AcDbLine
 10
151.8914814521
 20
128.8922615782
 30
0.0
 11
151.8914814521
 21
134.6962363892
 31
0.0
  0
LWPOLYLINE
  5
146
330
1F
100
AcDbEntity
  8
0
  6
HIDDEN
 62
     7
370
     0
100
AcDbPolyline
 90
        3
 70
   128
 43
0.0
 10
248.3881379891
 20
93.5326789473
 10
248.2604275871
 20
93.3336068844
 10
248.1327171851
 20
93.1345310961
  0
SPLINE
  5
147
330
1F
100
AcDbEntity
  8
0
  6
HIDDEN
 62
     7
370
     0
100
AcDbSpline
210
0.0
220
0.0
230
1.0
 70
     8
 71
     3
 72
    24
 73
    20
 74
     0
 42
0.00000001
 43
0.00000001
 12
1.0
 22
0.0
 32
0.0
 13
1.0
 23
0.0
 33
0.0
 40
0.0
 40
0.0
 40
0.0
 40
0.0
 40
0.0206863355353056
 40
0.0415151479580142
 40
0.0624883998354166
 40
0.093578530579302
 40
0.1250338096723816
 40
0.2506231797359599
 40
0.3763935220000664
 40
0.5012011944201155
 40
0.5634162921038764
 40
0.6255785386158161
 40
0.6877387386267001
 40
0.7499428455648547
 40
0.8122329485588067
 40
0.8746480713004334
 40
0.9372249978068918
 40
0.9678320657380045
 40
1.0
 40
1.0
 40
1.0
 40
1.0
 10
242.7013560088245
 20
105.1904622997015
 30
0.0
 10
242.7177796886385
 20
105.0865899822532
 30
0.0
 10
242.7507401661638
 20
104.8781299280184
 30
0.0
 10
242.8052044853442
 20
104.5673616029526
 30
0.0
 10
242.8727998408227
 20
104.2075019017278
 30
0.0
 10
242.9564760029142
 20
103.7993444045672
 30
0.0
 10
243.1608692410139
 20
102.8912581371489
 30
0.0
 10
243.5265332305587
 20
101.5692966494106
 30
0.0
 10
244.1194659843423
 20
99.90857096711036
 30
0.0
 10
244.6875204368835
 20
98.60980837340539
 30
0.0
 10
245.1771456630382
 20
97.62458076506053
 30
0.0
 10
245.560497371192
 20
96.91149114457116
 30
0.0
 10
245.9589208593284
 20
96.22286008836996
 30
0.0
 10
246.3711133297434
 20
95.55810343462737
 30
0.0
 10
246.7957986269916
 20
94.91677768379114
 30
0.0
 10
247.2317040804189
 20
94.29839504904977
 30
0.0
 10
247.6012830350975
 20
93.80503561603982
 30
0.0
 10
247.9025154372603
 20
93.4190753907745
 30
0.0
 10
248.0547214346246
 20
93.23093875910457
 30
0.0
 10
248.1327166930308
 20
93.1345314856932
 30
0.0
  0
SPLINE
  5
148
330
1F
100
AcDbEntity
  8
0
  6
HIDDEN
 62
     7
370
     0
100
AcDbSpline
210
0.0
220
0.0
230
1.0
 70
     8
 71
     3
 72
    23
 73
    19
 74
     0
 42
0.00000001
 43
0.00000001
 12
1.0
 22
0.0
 32
0.0
 13
1.0
 23
0.0
 33
0.0
 40
0.0
 40
0.0
 40
0.0
 40
0.0
 40
0.0314018533117012
 40
0.0628010831056846
 40
0.0942007297134064
 40
0.1256038333405584
 40
0.1881553455449931
 40
0.2504893355271584
 40
0.3749609104573015
 40
0.4993948627938655
 40
0.6242412785528726
 40
0.6875215461858423
 40
0.7499977726811821
 40
0.8130635917834249
 40
0.8752905583381969
 40
0.9172251711045022
 40
0.9587899040928177
 40
1.0
 40
1.0
 40
1.0
 40
1.0
 10
248.3881372423862
 20
93.53268021364438
 30
0.0
 10
248.3112510460696
 20
93.62675449834052
 30
0.0
 10
248.1574850770159
 20
93.81489520814718
 30
0.0
 10
247.92889140989
 20
94.10500756183137
 30
0.0
 10
247.7020570390234
 20
94.4009338705451
 30
0.0
 10
247.4030116498167
 20
94.80321145907664
 30
0.0
 10
247.0358167006246
 20
95.32030157161648
 30
0.0
 10
246.4641930962635
 20
96.17855163249165
 30
0.0
 10
245.781230196271
 20
97.31233286689617
 30
0.0
 10
245.0237743144784
 20
98.77453142243021
 30
0.0
 10
244.4548649675435
 20
100.0823363770673
 30
0.0
 10
244.0459033458823
 20
101.1817305836208
 30
0.0
 10
243.7636192306725
 20
102.0356250431027
 30
0.0
 10
243.510846125282
 20
102.9097500514959
 30
0.0
 10
243.3124237805988
 20
103.7099654570349
 30
0.0
 10
243.1608431045001
 20
104.4228098503136
 30
0.0
 10
243.0450474993511
 20
105.0424553905777
 30
0.0
 10
242.9814790690965
 20
105.4619927782407
 30
0.0
 10
242.9498310289565
 20
105.670862747686
 30
0.0
  0
SPLINE
  5
149
330
1F
100
AcDbEntity
  8
0
  6
HIDDEN
 62
     7
370
     0
100
AcDbSpline
210
0.0
220
0.0
230
1.0
 70
     8
 71
     3
 72
    72
 73
    68
 74
     0
 42
0.00000001
 43
0.00000001
 12
1.0
 22
0.0
 32
0.0
 13
1.0
 23
0.0
 33
0.0
 40
-0.03125
 40
-0.03125
 40
0.0
 40
0.0
 40
0.03125
 40
0.03125
 40
0.0625
 40
0.0625
 40
0.09375
 40
0.09375
 40
0.125
 40
0.125
 40
0.15625
 40
0.15625
 40
0.1875
 40
0.1875
 40
0.21875
 40
0.21875
 40
0.25
 40
0.25
 40
0.28125
 40
0.28125
 40
0.3125
 40
0.3125
 40
0.34375
 40
0.34375
 40
0.3749999999999999
 40
0.3749999999999999
 40
0.390625
 40
0.390625
 40
0.40625
 40
0.40625
 40
0.4374999999999999
 40
0.4374999999999999
 40
0.4687499999999999
 40
0.4687499999999999
 40
0.4999999999999999
 40
0.4999999999999999
 40
0.5312499999999999
 40
0.5312499999999999
 40
0.5624999999999999
 40
0.5624999999999999
 40
0.5937499999999999
 40
0.5937499999999999
 40
0.6249999999999999
 40
0.6249999999999999
 40
0.6562499999999999
 40
0.6562499999999999
 40
0.6874999999999999
 40
0.6874999999999999
 40
0.7187499999999999
 40
0.7187499999999999
 40
0.7499999999999999
 40
0.7499999999999999
 40
0.78125
 40
0.78125
 40
0.8125
 40
0.8125
 40
0.84375
 40
0.84375
 40
0.875
 40
0.875
 40
0.90625
 40
0.90625
 40
0.9375
 40
0.9375
 40
0.96875
 40
0.96875
 40
1.0
 40
1.0
 40
1.03125
 40
1.03125
 10
171.0154265489932
 20
134.2350826335575
 30
0.0
 10
171.389856768867
 20
134.6454384340427
 30
0.0
 10
171.5947093701326
 20
134.8290875167012
 30
0.0
 10
172.0375775669796
 20
135.1560424201965
 30
0.0
 10
172.2775329842979
 20
135.2998206283764
 30
0.0
 10
172.7731439670724
 20
135.5373379838223
 30
0.0
 10
173.0304102582269
 20
135.6326575487199
 30
0.0
 10
173.563764026064
 20
135.7767430813545
 30
0.0
 10
173.8380441659623
 20
135.824479088324
 30
0.0
 10
174.3844727005419
 20
135.8700612288578
 30
0.0
 10
174.6590490190096
 20
135.8686274687856
 30
0.0
 10
175.2110161932803
 20
135.8157141606948
 30
0.0
 10
175.481633155852
 20
135.7647444344906
 30
0.0
 10
176.0079183269312
 20
135.616137807547
 30
0.0
 10
176.2655498903388
 20
135.5178524367899
 30
0.0
 10
176.7614760550124
 20
135.2735990776042
 30
0.0
 10
176.994459732804
 20
135.130518946582
 30
0.0
 10
177.430793008129
 20
134.8026603961132
 30
0.0
 10
177.6360742619873
 20
134.6156667584129
 30
0.0
 10
178.0041085598475
 20
134.2062361385899
 30
0.0
 10
178.1656235498326
 20
133.9861306976055
 30
0.0
 10
178.4427812329798
 20
133.5143806161674
 30
0.0
 10
178.5591754124135
 20
133.2593640897262
 30
0.0
 10
178.7324494490601
 20
132.7381262663292
 30
0.0
 10
178.7908960035259
 20
132.4706421485483
 30
0.0
 10
178.8347607290017
 20
132.0587264892158
 30
0.0
 10
178.8419409456311
 20
131.9190191861403
 30
0.0
 10
178.8409729183357
 20
131.6428961306779
 30
0.0
 10
178.8329701289221
 20
131.5057195643471
 30
0.0
 10
178.7868973970096
 20
131.0967861230838
 30
0.0
 10
178.7259625645576
 20
130.8248598740796
 30
0.0
 10
178.5478424081491
 20
130.3016793576245
 30
0.0
 10
178.4322744968067
 20
130.0529673572612
 30
0.0
 10
178.1504277128674
 20
129.5800828322692
 30
0.0
 10
177.9835577674527
 20
129.3564736150371
 30
0.0
 10
177.614232212654
 20
128.9518162268494
 30
0.0
 10
177.4094470563565
 20
128.7674026386799
 30
0.0
 10
176.9647941088403
 20
128.4383766037855
 30
0.0
 10
176.7299449793295
 20
128.2972085277973
 30
0.0
 10
176.2365352168524
 20
128.0587989990168
 30
0.0
 10
175.9752482631478
 20
127.9610164426119
 30
0.0
 10
175.4445099826351
 20
127.8156884144218
 30
0.0
 10
175.1748702817379
 20
127.7673990242268
 30
0.0
 10
174.6271189419927
 20
127.7189838004402
 30
0.0
 10
174.347214900134
 20
127.7194419860761
 30
0.0
 10
173.800136992299
 20
127.7695938416783
 30
0.0
 10
173.5305318876116
 20
127.8187674087103
 30
0.0
 10
172.9993771309555
 20
127.9664419320174
 30
0.0
 10
172.738082314512
 20
128.0655970963829
 30
0.0
 10
172.2457683363366
 20
128.3066098668596
 30
0.0
 10
172.011811460758
 20
128.4490979914844
 30
0.0
 10
171.5696428402275
 20
128.7805854204693
 30
0.0
 10
171.3644493091159
 20
128.9680190484577
 30
0.0
 10
170.9987550927578
 20
129.3749227675081
 30
0.0
 10
170.8359844703695
 20
129.5961018421771
 30
0.0
 10
170.555032039604
 20
130.0758491713924
 30
0.0
 10
170.4418281873305
 20
130.3258611382027
 30
0.0
 10
170.2692194631915
 20
130.8459363482231
 30
0.0
 10
170.2096131805151
 20
131.1196678128529
 30
0.0
 10
170.1517214104453
 20
131.6682854627513
 30
0.0
 10
170.1525109493053
 20
131.9426253266429
 30
0.0
 10
170.2137014249217
 20
132.4913672777819
 30
0.0
 10
170.2748301486557
 20
132.764432591639
 30
0.0
 10
170.4509098342855
 20
133.2845978404074
 30
0.0
 10
170.5672404292754
 20
133.5369169739663
 30
0.0
 10
170.8504416590162
 20
134.0133213153733
 30
0.0
 10
171.0154265489932
 20
134.2350826335575
 30
0.0
 10
171.389856768867
 20
134.6454384340427
 30
0.0
  0
CIRCLE
  5
14A
330
1F
100
AcDbEntity
  8
0
  6
HIDDEN
 62
     7
370
     0
100
AcDbCircle
 10
174.3914802302
 20
131.7942489837
 30
0.0
 40
4.049999999999983
  0
ELLIPSE
  5
14B
330
1F
100
AcDbEntity
  8
0
  6
HIDDEN
 62
     7
370
     0
100
AcDbEllipse
 10
246.4258885349
 20
131.7942489837
 30
0.0
 11
-22.7651307864983
 21
31.9458927241117
 31
0.0
210
0.0
220
0.0
230
1.0
 40
0.0817078932
 41
0.7539134645975136
 42
1.512635702942826
  0
LINE
  5
14C
330
1F
100
AcDbEntity
  8
0
  6
HIDDEN
 62
     7
370
     0
100
AcDbLine
 10
228.0430536199
 20
131.7942489837
 30
0.0
 11
228.0430536199
 21
153.8100794857
 31
0.0
  0
LINE
  5
14D
330
1F
100
AcDbEntity
  8
0
  6
HIDDEN
 62
     7
370
     0
100
AcDbLine
 10
228.0430536199
 20
153.8100794857
 30
0.0
 11
228.0430536199
 21
153.779863656
 31
0.0
  0
CIRCLE
  5
14E
330
1F
100
AcDbEntity
  8
0
  6
HIDDEN
 62
     7
370
     0
100
AcDbCircle
 10
201.8914802302
 20
131.7942489837
 30
0.0
 40
2.0
  0
LINE
  5
14F
330
1F
100
AcDbEntity
  8
0
  6
HIDDEN
 62
     7
370
     0
100
AcDbLine
 10
228.0430536199
 20
131.7942489837
 30
0.0
 11
228.0430536199
 21
129.1934776087
 31
0.0
  0
LINE
  5
150
330
1F
100
AcDbEntity
  8
0
  6
HIDDEN
 62
     7
370
     0
100
AcDbLine
 10
242.9498325516
 20
105.6708631073
 30
0.0
 11
242.7013556886
 21
105.190462709
 31
0.0
  0
LINE
  5
151
330
1F
100
AcDbEntity
  8
0
  6
HIDDEN
 62
     7
370
     0
100
AcDbLine
 10
230.4928231467
 20
105.830285043
 30
0.0
 11
242.7013556886
 21
105.190462709
 31
0.0
  0
LINE
  5
152
330
1F
100
AcDbEntity
  8
0
  6
HIDDEN
 62
     7
370
     0
100
AcDbLine
 10
242.9022941221
 20
107.2364889984
 30
0.0
 11
242.9022941221
 21
131.2194330236
 31
0.0
  0
ELLIPSE
  5
153
330
1F
100
AcDbEntity
  8
0
  6
HIDDEN
 62
     7
370
     0
100
AcDbEllipse
 10
269.0975511395
 20
107.2364896231
 30
0.0
 11
26.19525546193006
 21
0.0
 31
0.0
210
0.0
220
0.0
230
1.0
 40
0.9925461516
 41
3.141592653589808
 42
3.201845522343405
  0
SPLINE
  5
154
330
1F
100
AcDbEntity
  8
0
  6
HIDDEN
 62
     7
370
     0
100
AcDbSpline
210
0.0
220
0.0
230
1.0
 70
     8
 71
     3
 72
     8
 73
     4
 74
     0
 42
0.00000001
 43
0.00000001
 12
1.0
 22
0.0
 32
0.0
 13
1.0
 23
0.0
 33
0.0
 40
0.0
 40
0.0
 40
0.0
 40
0.0
 40
1.0
 40
1.0
 40
1.0
 40
1.0
 10
230.4928226778637
 20
105.8302842355511
 30
0.0
 10
229.2642640973438
 20
113.1073709383411
 30
0.0
 10
228.333072090758
 20
120.4300024745105
 30
0.0
 10
228.090079068478
 20
127.8580389580398
 30
0.0
  0
LINE
  5
155
330
1F
100
AcDbEntity
  8
0
  6
HIDDEN
 62
     7
370
     0
100
AcDbLine
 10
242.9022941221
 20
131.2194330236
 30
0.0
 11
242.4967813719
 21
131.7942489837
 31
0.0
  0
LINE
  5
156
330
1F
100
AcDbEntity
  8
0
  6
HIDDEN
 62
     7
370
     0
100
AcDbLine
 10
207.8914794553
 20
119.5442493041
 30
0.0
 11
207.8914794553
 21
116.0443306868
 31
0.0
  0
LINE
  5
157
330
1F
100
AcDbEntity
  8
0
  6
HIDDEN
 62
     7
370
     0
100
AcDbLine
 10
213.8914804388
 20
116.0460405951
 30
0.0
 11
213.8914804388
 21
119.5442493041
 31
0.0
  0
LINE
  5
158
330
1F
100
AcDbEntity
  8
0
  6
HIDDEN
 62
     7
370
     0
100
AcDbLine
 10
189.8914802302
 20
107.5442482685
 30
0.0
 11
189.9843734506
 21
107.6371421074
 31
0.0
  0
LINE
  5
159
330
1F
100
AcDbEntity
  8
0
  6
HIDDEN
 62
     7
370
     0
100
AcDbLine
 10
189.9843734506
 20
155.9513558601
 30
0.0
 11
189.8914802302
 21
156.044249699
 31
0.0
  0
ARC
  5
15A
330
1F
100
AcDbEntity
  8
0
  6
HIDDEN
 62
     7
370
     0
100
AcDbCircle
 10
189.2772666678
 20
108.3442489837
 30
0.0
 40
1.0
100
AcDbArc
 50
315.0
 51
0.0
  0
ARC
  5
15B
330
1F
100
AcDbEntity
  8
0
  6
HIDDEN
 62
     7
370
     0
100
AcDbCircle
 10
189.2772666678
 20
108.3442489837
 30
0.0
 40
1.0
100
AcDbArc
 50
0.0
 51
52.1052014664
  0
ARC
  5
15C
330
1F
100
AcDbEntity
  8
0
  6
HIDDEN
 62
     7
370
     0
100
AcDbCircle
 10
189.2772666678
 20
155.2442489837
 30
0.0
 40
1.00000000000003
100
AcDbArc
 50
351.8087250651
 51
45.0
  0
ARC
  5
15D
330
1F
100
AcDbEntity
  8
0
  6
HIDDEN
 62
     7
370
     0
100
AcDbCircle
 10
189.2772666678
 20
155.2442489837
 30
0.0
 40
1.00000000000003
100
AcDbArc
 50
307.8947985336
 51
351.8087250651
  0
LINE
  5
15E
330
1F
100
AcDbEntity
  8
0
  6
HIDDEN
 62
     7
370
     0
100
AcDbLine
 10
190.277266666
 20
108.3442487721
 30
0.0
 11
190.277266666
 21
155.2442491953
 31
0.0
  0
LINE
  5
15F
330
1F
100
AcDbEntity
  8
0
  6
HIDDEN
 62
     7
370
     0
100
AcDbLine
 10
190.277266666
 20
108.3442487721
 30
0.0
 11
190.277266666
 21
155.2442491953
 31
0.0
  0
LINE
  5
160
330
1F
100
AcDbEntity
  8
0
  6
HIDDEN
 62
     7
370
     0
100
AcDbLine
 10
208.3914804686
 20
127.2982142833
 30
0.0
 11
208.3914804686
 21
119.6944641848
 31
0.0
  0
LINE
  5
161
330
1F
100
AcDbEntity
  8
0
  6
HIDDEN
 62
     7
370
     0
100
AcDbLine
 10
213.3914794255
 20
123.5944743236
 30
0.0
 11
213.3914794255
 21
127.2965746899
 31
0.0
  0
LINE
  5
162
330
1F
100
AcDbEntity
  8
0
  6
HIDDEN
 62
     7
370
     0
100
AcDbLine
 10
213.3914794255
 20
119.6944641848
 30
0.0
 11
213.3914794255
 21
121.4929188569
 31
0.0
  0
LINE
  5
163
330
1F
100
AcDbEntity
  8
0
  6
HIDDEN
 62
     7
370
     0
100
AcDbLine
 10
221.365318023
 20
117.6086257179
 30
0.0
 11
212.9999719042
 21
124.4896238637
 31
0.0
  0
LINE
  5
164
330
1F
100
AcDbEntity
  8
0
  6
HIDDEN
 62
     7
370
     0
100
AcDbLine
 10
210.7011790801
 20
119.9063288947
 30
0.0
 11
221.7109243799
 21
110.8501546984
 31
0.0
  0
LINE
  5
165
330
1F
100
AcDbEntity
  8
0
  6
HIDDEN
 62
     7
370
     0
100
AcDbLine
 10
151.8914814521
 20
115.5978192543
 30
0.0
 11
153.4217077721
 21
116.4812979256
 31
0.0
  0
LINE
  5
166
330
1F
100
AcDbEntity
  8
0
  6
HIDDEN
 62
     7
370
     0
100
AcDbLine
 10
153.4217077721
 20
147.1072000419
 30
0.0
 11
151.8914814521
 21
147.9906787132
 31
0.0
  0
ARC
  5
167
330
1F
100
AcDbEntity
  8
0
  6
HIDDEN
 62
     7
370
     0
100
AcDbCircle
 10
162.8932815451
 20
117.7942489837
 30
0.0
 40
2.000000000000014
100
AcDbArc
 50
270.0
 51
315.0
  0
ARC
  5
168
330
1F
100
AcDbEntity
  8
0
  6
HIDDEN
 62
     7
370
     0
100
AcDbCircle
 10
162.8932815451
 20
145.7942489837
 30
0.0
 40
2.0
100
AcDbArc
 50
45.0
 51
90.0
  0
LINE
  5
169
330
1F
100
AcDbEntity
  8
0
  6
HIDDEN
 62
     7
370
     0
100
AcDbLine
 10
161.8914793659
 20
115.7942482238
 30
0.0
 11
162.8932807077
 21
115.7942482238
 31
0.0
  0
LINE
  5
16A
330
1F
100
AcDbEntity
  8
0
  6
HIDDEN
 62
     7
370
     0
100
AcDbLine
 10
162.8932807077
 20
147.7942497437
 30
0.0
 11
161.8914793659
 21
147.7942497437
 31
0.0
  0
ARC
  5
16B
330
1F
100
AcDbEntity
  8
0
  6
HIDDEN
 62
     7
370
     0
100
AcDbCircle
 10
161.8914802302
 20
117.7942489837
 30
0.0
 40
2.000000000000004
100
AcDbArc
 50
189.9742217944
 51
270.0
  0
ARC
  5
16C
330
1F
100
AcDbEntity
  8
0
  6
HIDDEN
 62
     7
370
     0
100
AcDbCircle
 10
161.8914802302
 20
145.7942489837
 30
0.0
 40
2.000000000000004
100
AcDbArc
 50
90.0
 51
170.0257782056
  0
LINE
  5
16D
330
1F
100
AcDbEntity
  8
0
  6
HIDDEN
 62
     7
370
     0
100
AcDbLine
 10
164.3074958999
 20
116.3800352221
 30
0.0
 11
165.7217092294
 21
117.7942485516
 31
0.0
  0
LINE
  5
16E
330
1F
100
AcDbEntity
  8
0
  6
HIDDEN
 62
     7
370
     0
100
AcDbLine
 10
165.7217092294
 20
145.7942494159
 30
0.0
 11
164.3074958999
 21
147.2084627454
 31
0.0
  0
LINE
  5
16F
330
1F
100
AcDbEntity
  8
0
  6
HIDDEN
 62
     7
370
     0
100
AcDbLine
 10
153.4217077721
 20
116.4812979256
 30
0.0
 11
158.3217087615
 21
117.7942485516
 31
0.0
  0
LINE
  5
170
330
1F
100
AcDbEntity
  8
0
  6
HIDDEN
 62
     7
370
     0
100
AcDbLine
 10
158.3217087615
 20
145.7942494159
 30
0.0
 11
153.4217077721
 21
147.1072000419
 31
0.0
  0
LINE
  5
171
330
1F
100
AcDbEntity
  8
0
  6
HIDDEN
 62
     7
370
     0
100
AcDbLine
 10
159.9217079062
 20
146.1406595041
 30
0.0
 11
159.3217089254
 21
145.7942494159
 31
0.0
  0
LINE
  5
172
330
1F
100
AcDbEntity
  8
0
  6
HIDDEN
 62
     7
370
     0
100
AcDbLine
 10
159.3217089254
 20
117.7942485516
 30
0.0
 11
159.9217079062
 21
117.4478384634
 31
0.0
  0
ARC
  5
173
330
1F
100
AcDbEntity
  8
0
  6
HIDDEN
 62
     7
370
     0
100
AcDbCircle
 10
178.3914802302
 20
118.2942489837
 30
0.0
 40
0.5
100
AcDbArc
 50
270.0
 51
0.0
  0
ARC
  5
174
330
1F
100
AcDbEntity
  8
0
  6
HIDDEN
 62
     7
370
     0
100
AcDbCircle
 10
178.3914802302
 20
145.2942489837
 30
0.0
 40
0.5
100
AcDbArc
 50
0.0
 51
90.0
  0
LINE
  5
175
330
1F
100
AcDbEntity
  8
0
  6
HIDDEN
 62
     7
370
     0
100
AcDbLine
 10
165.7217092294
 20
117.7942485516
 30
0.0
 11
178.3914802078
 21
117.7942485516
 31
0.0
  0
LINE
  5
176
330
1F
100
AcDbEntity
  8
0
  6
HIDDEN
 62
     7
370
     0
100
AcDbLine
 10
178.3914802078
 20
145.7942494159
 30
0.0
 11
165.7217092294
 21
145.7942494159
 31
0.0
  0
LINE
  5
177
330
1F
100
AcDbEntity
  8
0
  6
HIDDEN
 62
     7
370
     0
100
AcDbLine
 10
158.3217087615
 20
117.7942485516
 30
0.0
 11
159.3217089254
 21
117.7942485516
 31
0.0
  0
LINE
  5
178
330
1F
100
AcDbEntity
  8
0
  6
HIDDEN
 62
     7
370
     0
100
AcDbLine
 10
159.3217089254
 20
145.7942494159
 30
0.0
 11
158.3217087615
 21
145.7942494159
 31
0.0
  0
LINE
  5
179
330
1F
100
AcDbEntity
  8
0
  6
HIDDEN
 62
     7
370
     0
100
AcDbLine
 10
178.8914802898
 20
121.5442487006
 30
0.0
 11
180.141480029
 21
122.7942493712
 31
0.0
  0
LINE
  5
17A
330
1F
100
AcDbEntity
  8
0
  6
HIDDEN
 62
     7
370
     0
100
AcDbLine
 10
180.141480029
 20
140.7942485963
 30
0.0
 11
178.8914802898
 21
142.0442492669
 31
0.0
  0
LINE
  5
17B
330
1F
100
AcDbEntity
  8
0
  6
HIDDEN
 62
     7
370
     0
100
AcDbLine
 10
216.8914809305
 20
140.7942485963
 30
0.0
 11
180.141480029
 21
140.7942485963
 31
0.0
  0
LINE
  5
17C
330
1F
100
AcDbEntity
  8
0
  6
HIDDEN
 62
     7
370
     0
100
AcDbLine
 10
180.141480029
 20
122.7942493712
 30
0.0
 11
216.8914809305
 21
122.7942493712
 31
0.0
  0
LINE
  5
17D
330
1F
100
AcDbEntity
  8
0
  6
HIDDEN
 62
     7
370
     0
100
AcDbLine
 10
216.8914809305
 20
122.7942493712
 30
0.0
 11
222.2992259491
 21
131.7942489837
 31
0.0
  0
LINE
  5
17E
330
1F
100
AcDbEntity
  8
0
  6
HIDDEN
 62
     7
370
     0
100
AcDbLine
 10
222.2992259491
 20
131.7942489837
 30
0.0
 11
216.8914809305
 21
140.7942485963
 31
0.0
  0
ARC
  5
17F
330
1F
100
AcDbEntity
  8
0
  6
HIDDEN
 62
     7
370
     0
100
AcDbCircle
 10
227.1241532422
 20
99.2942489837
 30
0.0
 40
1.0
100
AcDbArc
 50
67.5244230154
 51
90.0
  0
LINE
  5
180
330
1F
100
AcDbEntity
  8
VERMASSUNG
  6
CENTERX2
100
AcDbLine
 10
148.0402590326
 20
131.7942489837
 30
0.0
 11
254.8914802302
 21
131.7942489837
 31
0.0
  0
LINE
  5
181
330
1F
100
AcDbEntity
  8
VERMASSUNG
  6
CENTERX2
100
AcDbLine
 10
254.8914802302
 20
86.7942489837
 30
0.0
 11
254.8914802302
 21
131.7942489837
 31
0.0
  0
LINE
  5
182
330
1F
100
AcDbEntity
  8
VERMASSUNG
  6
CENTERX2
100
AcDbLine
 10
254.8914802302
 20
86.7942489837
 30
0.0
 11
254.8914802302
 21
59.7855446511
 31
0.0
  0
DIMENSION
  5
183
330
1F
100
AcDbEntity
  8
VERMASSUNG
100
AcDbDimension
  2
_D
 10
265.4472790693
 20
131.7942489837
 30
0.0
 11
265.4472790693
 21
109.2942489837
 31
0.0
 70
   160
  1
<>
 71
     2
 42
-1.0
  3
SLDDIMSTYLE0
100
AcDbAlignedDimension
 13
254.8914802302
 23
86.7942489837
 33
0.0
 14
254.8914802302
 24
131.7942489837
 34
0.0
 50
90.0
100
AcDbRotatedDimension
  0
DIMENSION
  5
190
330
1F
100
AcDbEntity
  8
VERMASSUNG
100
AcDbDimension
  2
_D_1
 10
254.8914802302
 20
70.7462157995
 30
0.0
 11
222.3914802302
 21
70.7462157995
 31
0.0
 70
   160
  1
<>
 71
     2
 42
-1.0
  3
SLDDIMSTYLE0
100
AcDbAlignedDimension
 13
189.8914802302
 23
100.7942489837
 33
0.0
 14
254.8914802302
 24
86.7942489837
 34
0.0
100
AcDbRotatedDimension
  0
DIMENSION
  5
19C
330
1F
100
AcDbEntity
  8
VERMASSUNG
100
AcDbDimension
  2
_D_2
 10
254.8914802302
 20
62.8060092285
 30
0.0
 11
203.3914802302
 21
62.8060092285
 31
0.0
 70
   160
  1
<>
 71
     2
 42
-1.0
  3
SLDDIMSTYLE1
100
AcDbAlignedDimension
 13
151.8914802302
 23
111.5019109912
 33
0.0
 14
254.8914802302
 24
86.7942489837
 34
0.0
 50
0.0
100
AcDbRotatedDimension
  0
DIMENSION
  5
1A7
330
1F
100
AcDbEntity
  8
VERMASSUNG
100
AcDbDimension
  2
_D_3
 10
254.8914802302
 20
86.7942489837
 30
0.0
 11
248.0308342955
 21
80.2622270368
 31
0.0
 70
   162
  1
<>
 71
     1
 42
-1.0
  3
SLDDIMSTYLE2
100
AcDb2LineAngularDimension
 13
243.8323298368
 23
87.3523224465
 33
0.0
 14
254.4792251112
 24
86.7943423089
 34
0.0
 15
254.8914802302
 25
59.7855446511
 35
0.0
 16
248.0308342955
 26
80.2622270368
 36
0.0
  0
DIMENSION
  5
1B0
330
1F
100
AcDbEntity
  8
VERMASSUNG
100
AcDbDimension
  2
_D_4
 10
141.8914802302
 20
100.2942489837
 30
0.0
 11
141.8914802302
 21
131.7942489837
 31
0.0
 70
   160
  1
PSC%%c<>
 71
     2
 42
-1.0
  3
SLDDIMSTYLE1
100
AcDbAlignedDimension
 13
190.3914802302
 23
163.2942489837
 33
0.0
 14
190.3914802302
 24
100.2942489837
 34
0.0
 50
90.0
100
AcDbRotatedDimension
  0
LINE
  5
1BC
330
1F
100
AcDbEntity
  8
0
  6
Continuous
 62
     7
370
    15
100
AcDbLine
 10
74.387620286
 20
87.4520701324
 30
0.0
 11
74.387620286
 21
95.7747300123
 31
0.0
  0
LINE
  5
1BD
330
1F
100
AcDbEntity
  8
0
  6
Continuous
 62
     7
370
    15
100
AcDbLine
 10
70.4176203245
 20
87.3988469099
 30
0.0
 11
70.4176203245
 21
96.4403164541
 31
0.0
  0
SPLINE
  5
1BE
330
1F
100
AcDbEntity
  8
0
  6
Continuous
 62
     7
370
    15
100
AcDbSpline
210
0.0
220
0.0
230
1.0
 70
     8
 71
     3
 72
    10
 73
     6
 74
     0
 42
0.00000001
 43
0.00000001
 12
1.0
 22
0.0
 32
0.0
 13
1.0
 23
0.0
 33
0.0
 40
0.0
 40
0.0
 40
0.0
 40
0.0
 40
0.2780943202334608
 40
0.560146545302787
 40
1.0
 40
1.0
 40
1.0
 40
1.0
 10
74.38762028600698
 20
87.3003539596815
 30
0.0
 10
74.02271359345362
 20
87.2522045705441
 30
0.0
 10
73.28770676907821
 20
87.15522051865436
 30
0.0
 10
71.95388124894853
 20
86.99179387810999
 30
0.0
 10
70.99926384668503
 20
86.8691005022817
 30
0.0
 10
70.41762032445165
 20
86.79434405315112
 30
0.0
  0
SPLINE
  5
1BF
330
1F
100
AcDbEntity
  8
0
  6
Continuous
 62
     7
370
    15
100
AcDbSpline
210
0.0
220
0.0
230
1.0
 70
    24
 71
     3
 72
    14
 73
    10
 74
     0
 42
0.00000001
 43
0.00000001
 12
1.0
 22
0.0
 32
0.0
 13
1.0
 23
0.0
 33
0.0
 40
0.0
 40
0.0
 40
0.0
 40
0.0
 40
0.1583126855183721
 40
0.3167983873613359
 40
0.4713707801167848
 40
0.6221289237271271
 40
0.772117142604884
 40
0.9245685695381686
 40
1.0
 40
1.0
 40
1.0
 40
1.0
 10
74.38762028600698
 20
87.45207013237666
 30
0.0
 10
74.38762028600698
 20
87.44174373214935
 30
0.0
 10
74.38762028600698
 20
87.42107964620732
 30
0.0
 10
74.38762028600698
 20
87.38604743987274
 30
0.0
 10
74.38762028600698
 20
87.35342661975659
 30
0.0
 10
74.38762028600699
 20
87.32646323929029
 30
0.0
 10
74.38762028600698
 20
87.307859663499
 30
0.0
 10
74.38762028600698
 20
87.30024094707136
 30
0.0
 10
74.38762028600698
 20
87.3003258545009
 30
0.0
 10
74.38762028600698
 20
87.3003539596815
 30
0.0
  0
SPLINE
  5
1C0
330
1F
100
AcDbEntity
  8
0
  6
Continuous
 62
     7
370
    15
100
AcDbSpline
210
0.0
220
0.0
230
1.0
 70
    24
 71
     3
 72
    14
 73
    10
 74
     0
 42
0.00000001
 43
0.00000001
 12
1.0
 22
0.0
 32
0.0
 13
1.0
 23
0.0
 33
0.0
 40
0.0
 40
0.0
 40
0.0
 40
0.0
 40
0.1588496142366552
 40
0.3173339100365684
 40
0.472018231685485
 40
0.6236479331529987
 40
0.7746613337356014
 40
0.927741899001018
 40
1.0
 40
1.0
 40
1.0
 40
1.0
 10
70.41762032445152
 20
86.79434405315112
 30
0.0
 10
70.4176203244515
 20
86.79640708667904
 30
0.0
 10
70.41762032445149
 20
86.80052840922112
 30
0.0
 10
70.41762032445162
 20
86.86419046192007
 30
0.0
 10
70.41762032445116
 20
86.96153263123036
 30
0.0
 10
70.4176203244516
 20
87.08387365990536
 30
0.0
 10
70.41762032445149
 20
87.2164616427371
 30
0.0
 10
70.41762032445152
 20
87.32420208902921
 30
0.0
 10
70.41762032445152
 20
87.38072274457701
 30
0.0
 10
70.41762032445152
 20
87.39884690988254
 30
0.0
  0
SPLINE
  5
1C1
330
1F
100
AcDbEntity
  8
0
  6
Continuous
 62
     7
370
    15
100
AcDbSpline
210
0.0
220
0.0
230
1.0
 70
    24
 71
     3
 72
    10
 73
     6
 74
     0
 42
0.00000001
 43
0.00000001
 12
1.0
 22
0.0
 32
0.0
 13
1.0
 23
0.0
 33
0.0
 40
0.0
 40
0.0
 40
0.0
 40
0.0
 40
0.2657217075213907
 40
0.6165291828491343
 40
0.9999999999999999
 40
0.9999999999999999
 40
0.9999999999999999
 40
0.9999999999999999
 10
74.38762028600698
 20
96.14478172409724
 30
0.0
 10
74.38762028600698
 20
96.1436956136319
 30
0.0
 10
74.38762028600698
 20
96.14117561327545
 30
0.0
 10
74.38762028600698
 20
96.12627753060941
 30
0.0
 10
74.38762028600698
 20
96.10787228660698
 30
0.0
 10
74.38762028600698
 20
96.09826029885005
 30
0.0
  0
SPLINE
  5
1C2
330
1F
100
AcDbEntity
  8
0
  6
Continuous
 62
     7
370
    15
100
AcDbSpline
210
0.0
220
0.0
230
1.0
 70
    24
 71
     3
 72
    10
 73
     6
 74
     0
 42
0.00000001
 43
0.00000001
 12
1.0
 22
0.0
 32
0.0
 13
1.0
 23
0.0
 33
0.0
 40
0.0
 40
0.0
 40
0.0
 40
0.0
 40
0.3517991784884028
 40
0.7034217884784411
 40
1.0
 40
1.0
 40
1.0
 40
1.0
 10
70.41762032445155
 20
96.44031645405482
 30
0.0
 10
70.41762032445155
 20
96.4757550172495
 30
0.0
 10
70.41762032445156
 20
96.54661435697457
 30
0.0
 10
70.41762032445156
 20
96.60993864183338
 30
0.0
 10
70.41762032445156
 20
96.62123149199046
 30
0.0
 10
70.41762032445156
 20
96.6263984297533
 30
0.0
  0
LINE
  5
1C3
330
1F
100
AcDbEntity
  8
0
  6
Continuous
 62
     7
370
    15
100
AcDbLine
 10
70.7176203387
 20
97.1461881851
 30
0.0
 11
70.4176203245
 21
97.1843798612
 31
0.0
  0
LINE
  5
1C4
330
1F
100
AcDbEntity
  8
0
  6
Continuous
 62
     7
370
    15
100
AcDbLine
 10
70.4176203245
 20
96.6263984298
 30
0.0
 11
70.4176203245
 21
97.1843798612
 31
0.0
  0
SPLINE
  5
1C5
330
1F
100
AcDbEntity
  8
0
  6
Continuous
 62
     7
370
    15
100
AcDbSpline
210
0.0
220
0.0
230
1.0
 70
     8
 71
     3
 72
    21
 73
    17
 74
     0
 42
0.00000001
 43
0.00000001
 12
1.0
 22
0.0
 32
0.0
 13
1.0
 23
0.0
 33
0.0
 40
0.0
 40
0.0
 40
0.0
 40
0.0
 40
0.0301719548130877
 40
0.0603923104981525
 40
0.090667908298938
 40
0.1210055520873441
 40
0.1818526423491859
 40
0.2429832198330622
 40
0.3660257527828401
 40
0.4902346948246337
 40
0.6156836001277309
 40
0.742430891909243
 40
0.8062911416954894
 40
0.870531206014539
 40
0.9350793931038706
 40
1.0
 40
1.0
 40
1.0
 40
1.0
 10
74.38762027957695
 20
87.95313741598773
 30
0.0
 10
74.55705050635315
 20
87.97692531078467
 30
0.0
 10
74.89618275438377
 20
88.0245392601483
 30
0.0
 10
75.40301988518219
 20
88.10443789635605
 30
0.0
 10
75.90895428109201
 20
88.19060411729718
 30
0.0
 10
76.58267242822201
 20
88.31475133674901
 30
0.0
 10
77.42214336597688
 20
88.48679143616171
 30
0.0
 10
78.75968955921331
 20
88.79817749094953
 30
0.0
 10
80.41725700805522
 20
89.25457748502309
 30
0.0
 10
82.37232367520436
 20
89.90602364977023
 30
0.0
 10
84.292878934724
 20
90.66071597112071
 30
0.0
 10
85.85613415513949
 20
91.3721879352807
 30
0.0
 10
87.08459870689033
 20
91.99024914982348
 30
0.0
 10
87.99628495378809
 20
92.4798209852122
 30
0.0
 10
88.89707241498212
 20
92.99212103716026
 30
0.0
 10
89.48410124795491
 20
93.35214852220653
 30
0.0
 10
89.77845996505552
 20
93.53268007818224
 30
0.0
  0
LWPOLYLINE
  5
1C6
330
1F
100
AcDbEntity
  8
0
  6
Continuous
 62
     7
370
    15
100
AcDbPolyline
 90
        3
 70
   128
 43
0.0
 10
89.778460645
 20
93.5326789473
 10
89.8371637696
 20
93.3336068844
 10
89.8958687567
 20
93.1345310961
  0
SPLINE
  5
1C7
330
1F
100
AcDbEntity
  8
0
  6
Continuous
 62
     7
370
    15
100
AcDbSpline
210
0.0
220
0.0
230
1.0
 70
     8
 71
     3
 72
    22
 73
    18
 74
     0
 42
0.00000001
 43
0.00000001
 12
1.0
 22
0.0
 32
0.0
 13
1.0
 23
0.0
 33
0.0
 40
0.0
 40
0.0
 40
0.0
 40
0.0
 40
0.0375394352424148
 40
0.074823845322349
 40
0.1118549026644943
 40
0.1486343142551262
 40
0.1851638223583443
 40
0.2214452052404042
 40
0.2574802779015726
 40
0.3848834995921284
 40
0.5096476722796046
 40
0.6343882121892747
 40
0.7569320816852214
 40
0.8183540355811993
 40
0.8793288877581134
 40
0.939872232542137
 40
1.0
 40
1.0
 40
1.0
 40
1.0
 10
89.89586846165942
 20
93.13453147615608
 30
0.0
 10
89.72471405195446
 20
93.0288524878643
 30
0.0
 10
89.38356797462797
 20
92.81821244432867
 30
0.0
 10
88.8659925940775
 20
92.5121119203795
 30
0.0
 10
88.34653983791301
 20
92.21459764471278
 30
0.0
 10
87.82482384436403
 20
91.92626255234373
 30
0.0
 10
87.30115095083251
 20
91.64691495366014
 30
0.0
 10
86.7756359762194
 20
91.37656543553702
 30
0.0
 10
85.80172264756307
 20
90.89366919863834
 30
0.0
 10
84.3648951236878
 20
90.24035938719865
 30
0.0
 10
82.42688563940638
 20
89.4795578780938
 30
0.0
 10
80.46034930567919
 20
88.824967913851
 30
0.0
 10
78.78861909484687
 20
88.36532917350243
 30
0.0
 10
77.441670881585
 20
88.05202019511421
 30
0.0
 10
76.4259260290061
 20
87.84464953255203
 30
0.0
 10
75.40920802872134
 20
87.66307324615993
 30
0.0
 10
74.7273668202648
 20
87.56486169114457
 30
0.0
 10
74.38762030708871
 20
87.51592502824381
 30
0.0
  0
ELLIPSE
  5
1C8
330
1F
100
AcDbEntity
  8
0
  6
Continuous
 62
     7
370
    15
100
AcDbEllipse
 10
1963.1997219401
 20
107.2364896231
 30
0.0
 11
4046.116558414387
 21
25.96383481333455
 31
0.0
210
0.0
220
0.0
230
1.0
 40
0.000338811
 41
2.056486761348743
 42
2.056906014040385
  0
ELLIPSE
  5
1C9
330
1F
100
AcDbEntity
  8
0
  6
Continuous
 62
     7
370
    15
100
AcDbEllipse
 10
-31.5072779387
 20
107.2364896231
 30
0.0
 11
223.451895388397
 21
-25.9647897264343
 31
0.0
210
0.0
220
0.0
230
1.0
 40
0.0060534818
 41
1.085387871197646
 42
1.096340048830891
  0
LINE
  5
1CA
330
1F
100
AcDbEntity
  8
0
  6
Continuous
 62
     7
370
    15
100
AcDbLine
 10
70.7176203387
 20
96.5775971268
 30
0.0
 11
70.7176203387
 21
107.2364889984
 31
0.0
  0
LINE
  5
1CB
330
1F
100
AcDbEntity
  8
0
  6
Continuous
 62
     7
370
    15
100
AcDbLine
 10
102.4176218444
 20
105.6708631073
 30
0.0
 11
102.4176218444
 21
107.2364889984
 31
0.0
  0
SPLINE
  5
1CC
330
1F
100
AcDbEntity
  8
0
  6
Continuous
 62
     7
370
    15
100
AcDbSpline
210
0.0
220
0.0
230
1.0
 70
     8
 71
     3
 72
    23
 73
    19
 74
     0
 42
0.00000001
 43
0.00000001
 12
1.0
 22
0.0
 32
0.0
 13
1.0
 23
0.0
 33
0.0
 40
0.0
 40
0.0
 40
0.0
 40
0.0
 40
0.0314018533117012
 40
0.0628010831056846
 40
0.0942007297134064
 40
0.1256038333405584
 40
0.1881553455449931
 40
0.2504893355271584
 40
0.3749609104573015
 40
0.4993948627938655
 40
0.6242412785528726
 40
0.6875215461858423
 40
0.7499977726811821
 40
0.8130635917834249
 40
0.8752905583381969
 40
0.9172251711045022
 40
0.9587899040928177
 40
1.0
 40
1.0
 40
1.0
 40
1.0
 10
89.77845984476252
 20
93.53268021364438
 30
0.0
 10
89.92978047670661
 20
93.62675449834052
 30
0.0
 10
90.2324090982722
 20
93.81489520814718
 30
0.0
 10
90.68240549338309
 20
94.10500756183137
 30
0.0
 10
91.12949496984967
 20
94.4009338705451
 30
0.0
 10
91.7201555556088
 20
94.80321145907664
 30
0.0
 10
92.44875567707433
 20
95.32030157161648
 30
0.0
 10
93.59404711197665
 20
96.17855163249165
 30
0.0
 10
94.99106089855798
 20
97.31233286689617
 30
0.0
 10
96.61243797197731
 20
98.77453142243021
 30
0.0
 10
97.91726329602257
 20
100.0823363770673
 30
0.0
 10
98.92884799399813
 20
101.1817305836208
 30
0.0
 10
99.67275708965339
 20
102.0356250431027
 30
0.0
 10
100.3932321174045
 20
102.9097500514959
 30
0.0
 10
101.0168176161023
 20
103.7099654570349
 30
0.0
 10
101.5459890708383
 20
104.4228098503136
 30
0.0
 10
101.9896227983524
 20
105.0424553905777
 30
0.0
 10
102.2753625529796
 20
105.4619927782407
 30
0.0
 10
102.417620324452
 20
105.670862747686
 30
0.0
  0
LINE
  5
1CD
330
1F
100
AcDbEntity
  8
0
  6
Continuous
 62
     7
370
    15
100
AcDbLine
 10
74.387620286
 20
96.3284087335
 30
0.0
 11
74.387620286
 21
95.7747300123
 31
0.0
  0
LINE
  5
1CE
330
1F
100
AcDbEntity
  8
0
  6
Continuous
 62
     7
370
    15
100
AcDbLine
 10
102.4176218444
 20
105.6708631073
 30
0.0
 11
102.4176218444
 21
105.190462709
 31
0.0
  0
SPLINE
  5
1CF
330
1F
100
AcDbEntity
  8
0
  6
Continuous
 62
     7
370
    15
100
AcDbSpline
210
0.0
220
0.0
230
1.0
 70
     8
 71
     3
 72
    24
 73
    20
 74
     0
 42
0.00000001
 43
0.00000001
 12
1.0
 22
0.0
 32
0.0
 13
1.0
 23
0.0
 33
0.0
 40
0.0
 40
0.0
 40
0.0
 40
0.0
 40
0.0206863355353056
 40
0.0415151479580142
 40
0.0624883998354166
 40
0.093578530579302
 40
0.1250338096723816
 40
0.2506231797359599
 40
0.3763935220000664
 40
0.5012011944201155
 40
0.5634162921038764
 40
0.6255785386158161
 40
0.6877387386267001
 40
0.7499428455648547
 40
0.8122329485588067
 40
0.8746480713004334
 40
0.9372249978068918
 40
0.9678320657380045
 40
1.0
 40
1.0
 40
1.0
 40
1.0
 10
102.417620450546
 20
105.1904622997015
 30
0.0
 10
102.3467430167836
 20
105.0865899822532
 30
0.0
 10
102.2044999817857
 20
104.8781299280184
 30
0.0
 10
101.9871954732028
 20
104.5673616029526
 30
0.0
 10
101.7310241610426
 20
104.2075019017278
 30
0.0
 10
101.4333735880206
 20
103.7993444045672
 30
0.0
 10
100.752272971509
 20
102.8912581371489
 30
0.0
 10
99.68882315462523
 20
101.5692966494106
 30
0.0
 10
98.20022003050464
 20
99.90857096711036
 30
0.0
 10
96.90688300643284
 20
98.60980837340539
 30
0.0
 10
95.84683549361898
 20
97.62458076506053
 30
0.0
 10
95.03897672456341
 20
96.91149114457116
 30
0.0
 10
94.21743539976026
 20
96.22286008836996
 30
0.0
 10
93.38205297294658
 20
95.55810343462737
 30
0.0
 10
92.5326005261869
 20
94.91677768379114
 30
0.0
 10
91.66885726117151
 20
94.29839504904977
 30
0.0
 10
90.94077868369749
 20
93.80503561603982
 30
0.0
 10
90.34844253748975
 20
93.4190753907745
 30
0.0
 10
90.04920661342334
 20
93.23093875910457
 30
0.0
 10
89.89586848203491
 20
93.1345314856932
 30
0.0
  0
LINE
  5
1D0
330
1F
100
AcDbEntity
  8
0
  6
Continuous
 62
     7
370
    15
100
AcDbLine
 10
102.4176218444
 20
131.2194330236
 30
0.0
 11
70.7176203387
 21
131.2194330236
 31
0.0
  0
LINE
  5
1D1
330
1F
100
AcDbEntity
  8
0
  6
Continuous
 62
     7
370
    15
100
AcDbLine
 10
102.4176218444
 20
107.2364889984
 30
0.0
 11
102.4176218444
 21
131.2194330236
 31
0.0
  0
LINE
  5
1D2
330
1F
100
AcDbEntity
  8
0
  6
Continuous
 62
     7
370
    15
100
AcDbLine
 10
70.7176203387
 20
107.2364889984
 30
0.0
 11
70.7176203387
 21
131.2194330236
 31
0.0
  0
LINE
  5
1D3
330
1F
100
AcDbEntity
  8
0
  6
Continuous
 62
     7
370
    15
100
AcDbLine
 10
102.4176218444
 20
131.2194330236
 30
0.0
 11
102.4176218444
 21
131.7942489837
 31
0.0
  0
ELLIPSE
  5
1D4
330
1F
100
AcDbEntity
  8
0
  6
Continuous
 62
     7
370
    15
100
AcDbEllipse
 10
64.7176203245
 20
156.785274786
 30
0.0
 11
-1.38784064923415
 21
8.515918281078967
 31
0.0
210
0.0
220
0.0
230
1.0
 40
0.6854557539
 41
4.478968310195299
 42
5.44879575576488
  0
ARC
  5
1D5
330
1F
100
AcDbEntity
  8
0
  6
Continuous
 62
     7
370
    15
100
AcDbCircle
 10
70.4176203245
 20
131.7942489837
 30
0.0
 40
31.50000000000001
100
AcDbArc
 50
48.9656006831
 51
94.2006303604
  0
SPLINE
  5
1D6
330
1F
100
AcDbEntity
  8
0
  6
Continuous
 62
     7
370
    15
100
AcDbSpline
210
0.0
220
0.0
230
1.0
 70
     8
 71
     3
 72
    12
 73
     8
 74
     0
 42
0.00000001
 43
0.00000001
 12
1.0
 22
0.0
 32
0.0
 13
1.0
 23
0.0
 33
0.0
 40
0.0
 40
0.0
 40
0.0
 40
0.0
 40
0.25
 40
0.25
 40
0.5
 40
0.5
 40
1.0
 40
1.0
 40
1.0
 40
1.0
 10
93.81413209430659
 20
153.7798635826407
 30
0.0
 10
93.5588772508793
 20
153.8911224053674
 30
0.0
 10
93.31493165315297
 20
154.0181857766943
 30
0.0
 10
92.83902722922981
 20
154.2890639029688
 30
0.0
 10
92.60694216538063
 20
154.4336240769278
 30
0.0
 10
91.92830094287955
 20
154.8849218025017
 30
0.0
 10
91.49835574146468
 20
155.2065245443673
 30
0.0
 10
91.09774908900022
 20
155.5551890804994
 30
0.0
  0
LINE
  5
1D7
330
1F
100
AcDbEntity
  8
0
  6
Continuous
 62
     7
370
    15
100
AcDbLine
 10
93.6405231142
 20
153.8100794857
 30
0.0
 11
93.8141328179
 21
153.779863656
 31
0.0
  0
ARC
  5
1D8
330
1F
100
AcDbEntity
  8
0
  6
Continuous
 62
     7
370
    15
100
AcDbCircle
 10
70.4176203245
 20
131.7942489837
 30
0.0
 40
32.0
100
AcDbArc
 50
0.0
 51
43.4715820799
  0
LINE
  5
1D9
330
1F
100
AcDbEntity
  8
0
  6
Continuous
 62
     7
370
    15
100
AcDbLine
 10
70.7176203387
 20
131.2194330236
 30
0.0
 11
70.7176203387
 21
155.7409905796
 31
0.0
  0
SPLINE
  5
1DA
330
1F
100
AcDbEntity
  8
0
  6
Continuous
 62
     7
370
    15
100
AcDbSpline
210
0.0
220
0.0
230
1.0
 70
     8
 71
     3
 72
    12
 73
     8
 74
     0
 42
0.00000001
 43
0.00000001
 12
1.0
 22
0.0
 32
0.0
 13
1.0
 23
0.0
 33
0.0
 40
0.0
 40
0.0
 40
0.0
 40
0.0
 40
0.2499999999999948
 40
0.2499999999999948
 40
0.4999999999999896
 40
0.4999999999999896
 40
1.0
 40
1.0
 40
1.0
 40
1.0
 10
70.22915267739668
 20
100.2948127991693
 30
0.0
 10
70.274145028917
 20
100.2945436006167
 30
0.0
 10
70.31508921524292
 20
100.2783783945725
 30
0.0
 10
70.38958142266456
 20
100.2118977289397
 30
0.0
 10
70.42179674824057
 20
100.1623745081519
 30
0.0
 10
70.50350391090485
 20
99.96653626439195
 30
0.0
 10
70.53651251340843
 20
99.77323406973274
 30
0.0
 10
70.55071166494155
 20
99.553342730017
 30
0.0
  0
SPLINE
  5
1DB
330
1F
100
AcDbEntity
  8
0
  6
Continuous
 62
     7
370
    15
100
AcDbSpline
210
0.0
220
0.0
230
1.0
 70
     8
 71
     3
 72
    14
 73
    10
 74
     0
 42
0.00000001
 43
0.00000001
 12
1.0
 22
0.0
 32
0.0
 13
1.0
 23
0.0
 33
0.0
 40
0.0
 40
0.0
 40
0.0
 40
0.0
 40
0.25
 40
0.25
 40
0.5
 40
0.5
 40
0.75
 40
0.75
 40
1.0
 40
1.0
 40
1.0
 40
1.0
 10
66.27053459506732
 20
100.568431461168
 30
0.0
 10
66.70741272270142
 20
100.510409888241
 30
0.0
 10
67.12413113129348
 20
100.4643633167926
 30
0.0
 10
67.9177659572614
 20
100.3910718337718
 30
0.0
 10
68.29729033773161
 20
100.3638421264719
 30
0.0
 10
68.97818161527546
 20
100.3253073004149
 30
0.0
 10
69.28503799622227
 20
100.3134622219197
 30
0.0
 10
69.82401224628194
 20
100.2986888629396
 30
0.0
 10
70.04894479152347
 20
100.2958910202534
 30
0.0
 10
70.22915267739668
 20
100.2948127991693
 30
0.0
  0
SPLINE
  5
1DC
330
1F
100
AcDbEntity
  8
0
  6
Continuous
 62
     7
370
    15
100
AcDbSpline
210
0.0
220
0.0
230
1.0
 70
     8
 71
     3
 72
    10
 73
     6
 74
     0
 42
0.00000001
 43
0.00000001
 12
1.0
 22
0.0
 32
0.0
 13
1.0
 23
0.0
 33
0.0
 40
0.0
 40
0.0
 40
0.0
 40
0.0
 40
0.5
 40
0.5
 40
1.0
 40
1.0
 40
1.0
 40
1.0
 10
68.11027148702124
 20
163.2096296330745
 30
0.0
 10
67.83178254131343
 20
163.1891756028563
 30
0.0
 10
67.53342855305121
 20
163.1634604156851
 30
0.0
 10
66.91698023753716
 20
163.1006621768572
 30
0.0
 10
66.59874104009833
 20
163.0636554456141
 30
0.0
 10
66.27053459506732
 20
163.0200665063174
 30
0.0
  0
LINE
  5
1DD
330
1F
100
AcDbEntity
  8
0
  6
Continuous
 62
     7
370
    15
100
AcDbLine
 10
70.5507116609
 20
99.5533441161
 30
0.0
 11
70.6269610192
 21
97.1577291344
 31
0.0
  0
ARC
  5
1DE
330
1F
100
AcDbEntity
  8
0
  6
Continuous
 62
     7
370
    15
100
AcDbCircle
 10
70.4176203245
 20
131.7942489837
 30
0.0
 40
32.10551373655944
100
AcDbArc
 50
355.3535493072
 51
43.2192896152
  0
ELLIPSE
  5
1DF
330
1F
100
AcDbEntity
  8
0
  6
Continuous
 62
     7
370
    15
100
AcDbEllipse
 10
58.2027085478
 20
114.229390024
 30
0.0
 11
-2.156649216541993
 21
3.149035452977216
 31
0.0
210
0.0
220
0.0
230
1.0
 40
0.6401414518
 41
0.0
 42
6.283185307179586
  0
ARC
  5
1E0
330
1F
100
AcDbEntity
  8
0
  6
Continuous
 62
     7
370
    15
100
AcDbCircle
 10
70.4176203245
 20
131.7942489837
 30
0.0
 40
31.50000000000003
100
AcDbArc
 50
97.5651530928
 51
262.4348469072
  0
CIRCLE
  5
1E1
330
1F
100
AcDbEntity
  8
VERMASSUNG
  6
CENTERX2
100
AcDbCircle
 10
70.4176203245
 20
126.7937798038
 30
0.0
 40
40.0
  0
DIMENSION
  5
1E2
330
1F
100
AcDbEntity
  8
VERMASSUNG
100
AcDbDimension
  2
_D_5
 10
42.8621873061
 20
155.8179996561
 30
0.0
 11
34.6719759967
 21
165.0292339526
 31
0.0
 70
   160
  1
%%c<> min. 
 71
     2
 42
-1.0
  3
SLDDIMSTYLE3
100
AcDbAlignedDimension
 13
96.9966105026
 23
96.9013513125
 33
0.0
 14
43.8386301463
 24
156.6862082952
 34
0.0
 50
-48.3579574026
100
AcDbRotatedDimension
  0
INSERT
  5
1FC
330
1F
100
AcDbEntity
  8
VERMASSUNG
100
AcDbBlockReference
  2
SW_CENTERMARKSYMBOL_0
 10
70.4176203245
 20
131.7942489837
 30
0.0
  0
OLE2FRAME
  5
1FD
330
1F
100
AcDbEntity
  8
0
100
AcDbOle2Frame
 70
     2
  3
Paintbrush-Bild
 10
13.8511154363
 20
38.264191557
 30
0.0
 11
51.6290888628
 21
31.9806341108
 31
0.0
 71
     2
 72
     0
 73
     1
 90
    12928
310
80552BED0767C5B32B40DDAF6807D121434000000000000000006FFBDDFB85D0
310
4940DDAF6807D121434000000000000000006FFBDDFB85D04940416F4BD60AFB
310
3F4000000000000000002BED0767C5B32B40416F4BD60AFB3F40000000000000
310
0000000000000100000000010000010000000100000000000100000000320000
310
D0CF11E0A1B11AE1000000000000000000000000000000003E000300FEFF0900
310
0600000000000000000000000100000001000000000000000010000002000000
310
01000000FEFFFFFF0000000000000000FFFFFFFFFFFFFFFFFFFFFFFFFFFFFFFF
310
FFFFFFFFFFFFFFFFFFFFFFFFFFFFFFFFFFFFFFFFFFFFFFFFFFFFFFFFFFFFFFFF
310
FFFFFFFFFFFFFFFFFFFFFFFFFFFFFFFFFFFFFFFFFFFFFFFFFFFFFFFFFFFFFFFF
310
FFFFFFFFFFFFFFFFFFFFFFFFFFFFFFFFFFFFFFFFFFFFFFFFFFFFFFFFFFFFFFFF
310
FFFFFFFFFFFFFFFFFFFFFFFFFFFFFFFFFFFFFFFFFFFFFFFFFFFFFFFFFFFFFFFF
310
FFFFFFFFFFFFFFFFFFFFFFFFFFFFFFFFFFFFFFFFFFFFFFFFFFFFFFFFFFFFFFFF
310
FFFFFFFFFFFFFFFFFFFFFFFFFFFFFFFFFFFFFFFFFFFFFFFFFFFFFFFFFFFFFFFF
310
FFFFFFFFFFFFFFFFFFFFFFFFFFFFFFFFFFFFFFFFFFFFFFFFFFFFFFFFFFFFFFFF
310
FFFFFFFFFFFFFFFFFFFFFFFFFFFFFFFFFFFFFFFFFFFFFFFFFFFFFFFFFFFFFFFF
310
FFFFFFFFFFFFFFFFFFFFFFFFFFFFFFFFFFFFFFFFFFFFFFFFFFFFFFFFFFFFFFFF
310
FFFFFFFFFFFFFFFFFFFFFFFFFFFFFFFFFFFFFFFFFFFFFFFFFFFFFFFFFFFFFFFF
310
FFFFFFFFFFFFFFFFFFFFFFFFFFFFFFFFFFFFFFFFFFFFFFFFFFFFFFFFFFFFFFFF
310
FFFFFFFFFFFFFFFFFFFFFFFFFFFFFFFFFFFFFFFFFFFFFFFFFFFFFFFFFFFFFFFF
310
FFFFFFFFFFFFFFFFFFFFFFFFFFFFFFFFFFFFFFFFFFFFFFFFFFFFFFFFFFFFFFFF
310
FDFFFFFFFEFFFFFFFEFFFFFFFEFFFFFF05000000060000000700000008000000
310
090000000A0000000B0000000C0000000D0000000E0000000F00000010000000
310
11000000120000001300000014000000150000001600000017000000FEFFFFFF
310
FFFFFFFFFFFFFFFFFFFFFFFFFFFFFFFFFFFFFFFFFFFFFFFFFFFFFFFFFFFFFFFF
310
FFFFFFFFFFFFFFFFFFFFFFFFFFFFFFFFFFFFFFFFFFFFFFFFFFFFFFFFFFFFFFFF
310
FFFFFFFFFFFFFFFFFFFFFFFFFFFFFFFFFFFFFFFFFFFFFFFFFFFFFFFFFFFFFFFF
310
FFFFFFFFFFFFFFFFFFFFFFFFFFFFFFFFFFFFFFFFFFFFFFFFFFFFFFFFFFFFFFFF
310
FFFFFFFFFFFFFFFFFFFFFFFFFFFFFFFFFFFFFFFFFFFFFFFFFFFFFFFFFFFFFFFF
310
FFFFFFFFFFFFFFFFFFFFFFFFFFFFFFFFFFFFFFFFFFFFFFFFFFFFFFFFFFFFFFFF
310
FFFFFFFFFFFFFFFFFFFFFFFFFFFFFFFFFFFFFFFFFFFFFFFFFFFFFFFFFFFFFFFF
310
FFFFFFFFFFFFFFFFFFFFFFFFFFFFFFFFFFFFFFFFFFFFFFFFFFFFFFFFFFFFFFFF
310
FFFFFFFFFFFFFFFFFFFFFFFFFFFFFFFFFFFFFFFFFFFFFFFFFFFFFFFFFFFFFFFF
310
FFFFFFFFFFFFFFFFFFFFFFFFFFFFFFFFFFFFFFFFFFFFFFFFFFFFFFFFFFFFFFFF
310
FFFFFFFFFFFFFFFFFFFFFFFFFFFFFFFFFFFFFFFFFFFFFFFFFFFFFFFFFFFFFFFF
310
FFFFFFFFFFFFFFFFFFFFFFFFFFFFFFFFFFFFFFFFFFFFFFFFFFFFFFFFFFFFFFFF
310
FFFFFFFFFFFFFFFFFFFFFFFFFFFFFFFFFFFFFFFFFFFFFFFFFFFFFFFFFFFFFFFF
310
52006F006F007400200045006E00740072007900000000000000000000000000
310
0000000000000000000000000000000000000000000000000000000000000000
310
16000500FFFFFFFFFFFFFFFF020000000A00030000000000C000000000000046
310
0000000000000000000000000013FDB2AD38CD0103000000C000000000000000
310
01004F006C006500000000000000000000000000000000000000000000000000
310
0000000000000000000000000000000000000000000000000000000000000000
310
0A000200FFFFFFFFFFFFFFFFFFFFFFFF00000000000000000000000000000000
310
0000000000000000000000000000000000000000000000001400000000000000
310
010043006F006D0070004F0062006A0000000000000000000000000000000000
310
0000000000000000000000000000000000000000000000000000000000000000
310
120002010100000003000000FFFFFFFF00000000000000000000000000000000
310
0000000000000000000000000000000000000000010000004D00000000000000
310
01004F006C006500310030004E00610074006900760065000000000000000000
310
0000000000000000000000000000000000000000000000000000000000000000
310
1A000200FFFFFFFFFFFFFFFFFFFFFFFF00000000000000000000000000000000
310
0000000000000000000000000000000000000000040000002426000000000000
310
FEFFFFFF02000000FEFFFFFFFFFFFFFFFFFFFFFFFFFFFFFFFFFFFFFFFFFFFFFF
310
FFFFFFFFFFFFFFFFFFFFFFFFFFFFFFFFFFFFFFFFFFFFFFFFFFFFFFFFFFFFFFFF
310
FFFFFFFFFFFFFFFFFFFFFFFFFFFFFFFFFFFFFFFFFFFFFFFFFFFFFFFFFFFFFFFF
310
FFFFFFFFFFFFFFFFFFFFFFFFFFFFFFFFFFFFFFFFFFFFFFFFFFFFFFFFFFFFFFFF
310
FFFFFFFFFFFFFFFFFFFFFFFFFFFFFFFFFFFFFFFFFFFFFFFFFFFFFFFFFFFFFFFF
310
FFFFFFFFFFFFFFFFFFFFFFFFFFFFFFFFFFFFFFFFFFFFFFFFFFFFFFFFFFFFFFFF
310
FFFFFFFFFFFFFFFFFFFFFFFFFFFFFFFFFFFFFFFFFFFFFFFFFFFFFFFFFFFFFFFF
310
FFFFFFFFFFFFFFFFFFFFFFFFFFFFFFFFFFFFFFFFFFFFFFFFFFFFFFFFFFFFFFFF
310
FFFFFFFFFFFFFFFFFFFFFFFFFFFFFFFFFFFFFFFFFFFFFFFFFFFFFFFFFFFFFFFF
310
FFFFFFFFFFFFFFFFFFFFFFFFFFFFFFFFFFFFFFFFFFFFFFFFFFFFFFFFFFFFFFFF
310
FFFFFFFFFFFFFFFFFFFFFFFFFFFFFFFFFFFFFFFFFFFFFFFFFFFFFFFFFFFFFFFF
310
FFFFFFFFFFFFFFFFFFFFFFFFFFFFFFFFFFFFFFFFFFFFFFFFFFFFFFFFFFFFFFFF
310
FFFFFFFFFFFFFFFFFFFFFFFFFFFFFFFFFFFFFFFFFFFFFFFFFFFFFFFFFFFFFFFF
310
FFFFFFFFFFFFFFFFFFFFFFFFFFFFFFFFFFFFFFFFFFFFFFFFFFFFFFFFFFFFFFFF
310
FFFFFFFFFFFFFFFFFFFFFFFFFFFFFFFFFFFFFFFFFFFFFFFFFFFFFFFFFFFFFFFF
310
FFFFFFFFFFFFFFFFFFFFFFFFFFFFFFFFFFFFFFFFFFFFFFFFFFFFFFFFFFFFFFFF
310
0100000200000000000000000000000000000000000000000000000000000000
310
0000000000000000000000000000000000000000000000000000000000000000
310
0100FEFF030A0000FFFFFFFF0A00030000000000C00000000000004607000000
310
5042727573680007000000504272757368000700000050427275736800F439B2
310
7100000000000000000000000000000000000000000000000000000000000000
310
0000000000000000000000000000000000000000000000000000000000000000
310
0000000000000000000000000000000000000000000000000000000000000000
310
0000000000000000000000000000000000000000000000000000000000000000
310
0000000000000000000000000000000000000000000000000000000000000000
310
0000000000000000000000000000000000000000000000000000000000000000
310
0000000000000000000000000000000000000000000000000000000000000000
310
0000000000000000000000000000000000000000000000000000000000000000
310
0000000000000000000000000000000000000000000000000000000000000000
310
0000000000000000000000000000000000000000000000000000000000000000
310
0000000000000000000000000000000000000000000000000000000000000000
310
0000000000000000000000000000000000000000000000000000000000000000
310
20260000424D0E260000000000003E00000028000000B40200006E0000000100
310
01000000000000000000130B0000130B00000200000002000000000000FFFFFF
310
FFFFFFFFFFFFFFFFFFFFFFFFFFFFFFFFFFFFFFFFFFFFFFFFFFFFFFFFFFFFFFFF
310
FFFFFFFFFFFFFFFFFFFFFFFFFFFFFFFFFFFFFFFFFFFFFFFFFFFFFFFFFFFFFFFF
310
FFFFFFFFFFFFFFFFFFFFFFFFFFFFFFFFFFFFFFFFFFFFFFFFF000FFFFFFFFFFFF
310
FFFFFFFFFFFFFFFFFFFFFFFFFFFFFFFFFFFFFFFFFFFFFFFFFFFFFFFFFFFFFFFF
310
FFFFFFFFFFFFFFFFFFFFFFFFFFFFFFFFFFFFFFFFFFFFFFFFFFFFFFFFFFFFFFFF
310
FFFFFFFFFFFFFFFFFFFFFFFFFFFFFFFFF000FFFFFFFFFFFFFFFFFFFFFFFFFFFF
310
FFFFFFFFFFFFFFFFFFFFFFFFFFFFFFFFFFFFFFFFFFFFFFFFFFFFFFFFFFFFFFFF
310
FFFFFFFFFFFFFFFFFFFFFFFFFFFFFFFFFFFFFFFFFFFFFFFFFFFFFFFFFFFFFFFF
310
FFFFFFFFFFFFFFFFF000FFFFFFFFFFFFFFFFFFFFFFFFFFFFFFFFFFFFFFFFFFFF
310
FFFFFFFFFFFFFFFFFFFFFFFFFFFFFFFFFFFFFFFFFFFFFFFFFFFFFFFFFFFFFFFF
310
FFFFFFFFFFFFFFFFFFFFFFFFFFFFFFFFFFFFFFFFFFFFFFFFFFFFFFFFFFFFFFFF
310
F000FFFFFFFFFFFFFFFFFFFFFFFFFFFFFFFFFFFFFFFFFFFFFFFFFFFFFFFFFFFF
310
FFFFFFFFFFFFFFFFFFFFFFFFFFFFFFFFFFFFFFFFFFFFFFFFFFFFFFFFFFFFFFFF
310
FFFFFFFFFFFFFFFFFFFFFFFFFFFFFFFFFFFFFFFFFFFFFFFFF000FFFFFFFFFFFF
310
FFFFFFFFFFFFFFFFFFFFFFFFFFFFFFFFFFFFFFFFFFFFFFFFFFFFFFFFFFFFFFFF
310
FFFFFFFFFFFFFFFFFFFFFFFFFFFFFFFFFFFFFFFFFFFFFFFFFFFFFFFFFFFFFFFF
310
FFFFFFFFFFFFFFFFFFFFFFFFFFFFFFFFF000FFFFFFFFFFFFFFFFFFFFFFFFFFFF
310
FFFFFFFFFFFFFFFFFFFFFFFFFFFFFFFFFFFFFFFFFFFFFFFFFFFFFFFFFFFFFFFF
310
FFFFFFFFFFFFFFFFFFFFFFFFFFFFFFFFFFFFFFFFFFFFFFFFFFFFFFFFFFFFFFFF
310
FFFFFFFFFFFFFFFFF000FFFFFFFFFFFFFFFFFFFFFFFFFFFFFFFFFFFFFFFFFFFF
310
FFFFFFFFFFFFFFFFFFFFFFFFFFFFFFFFFFFFFFFFFFFFFFFFFFFFFFFFFFFFFFFF
310
FFFFFFFFFFFFFFFFFFFFFFFFFFFFFFFFFFFFFFFFFFFFFFFFFFFFFFFFFFFFFFFF
310
F000FFFFFFFFFFFFFFFFFFFFFFFFFFFFFFFFFFFFFFFFFFFFFFFFFFFFFFFFFFFF
310
FFFFFFFFFFFFFFFFFFFFFFFFFFFFFFFFFFFFFFFFFFFFFFFFFFFFFFFFFFFFFFFF
310
FFFFFFFFFFFFFFFFFFFFFFFFFFFFFFFFFFFFFFFFFFFFFFFFF000FFFFFFFFFFFF
310
FFFFFFFFFFFFFFFFFFFFFFFFFFFFFFFFFFFFFFFFFFFFFFFFFFFFFFFFFFFFFFFF
310
FFFFFFFFFFFFFFFFFFFFFFFFFFFFFFFFFFFFFFFFFFFFFFFFFFFFFFFFFFFFFFFF
310
FFFFFFFFFFFFFFFFFFFFFFFFFFFFFFFFF000FFFFFFFFFFFFFFFFFFFFFFFFFFFF
310
FFFFFFFFFFFFFFFFFFFFFFFFFFFFFFFFFFFFFFFFFFFFFFFFFFFFFFFFFFFFFFFF
310
FFFFFFFFFFFFFFFFFFFFFFFFFFFFFFFFFFFFFFFFFFFFFFFFFFFFFFFFFFFFFFFF
310
FFFFFFFFFFFFFFFFF000FFFFFFFFFFFFFFFFFFFFFFFFFFFFFFFFFFFFFFFFFFFF
310
FFFFFFFFFFFFFFFFFFFFFFFFFFFFFFFFFFFFFFFFFFFFFFFFFFFFFFFFFFFFFFFF
310
FFFFFFFFFFFFFFFFFFFFFFFFFFFFFFFFFFFFFFFFFFFFFFFFFFFFFFFFFFFFFFFF
310
F000FFFFFFFFFFFFFFFFFFFFFFFFFFFFFFFFFFFFFFFFFFFFFFFFFFFFFFFFFFFF
310
FFFFFFFFFFFFFFFFFFFFFFFFFFFFFFFFFFFFFFFFFFFFFFFFFFFFFFFFFFFFFFFF
310
FFFFFFFFFFFFFFFFFFFFFFFFFFFFFFFFFFFFFFFFFFFFFFFFF000FFFFFFFFFFFF
310
FFFFFFFFFFFFFFFFFFFFFFFFFFFFFFFFFFFFFFFFFFFFFFFFFFFFFFFFFFFFFFFF
310
FFFFFFFFFFFFFFFFFFFFFFFFFFFFFFFFFFFFFFFFFFFFFFFFFFFFFFFFFFFFFFFF
310
FFFFFFFFFFFFFFFFFFFFFFFFFFFFFFFFF000FFFFFFFFFFFFFFFFFFFFFFFFFFFF
310
FFFFFFFFFFFFFFFFFFFFFFFFFFFFFFFFFFFFFFFFFFFFFFFFFFFFFFFFFFFFFFFF
310
FFFFFFFFFFFFFFFFFFFFFFFFFFFFFFFFFFFFFFFFFFFFFFFFFFFFFFFFFFFFFFFF
310
FFFFFFFFFFFFFFFFF000FFFFFFFFFFFFFFFFFFFFFFFFFFFFFFFFFFFFFFFFFFFF
310
FFFFFFFFFFFFFFFFFFFFFFFFFFFFFFFFFFFFFFFFFFFFFFFFFFFFFFFFFFFFFFFF
310
FFFFFFFFFFFFFFFFFFFFFFFFFFFFFFFFFFFFFFFFFFFFFFFFFFFFFFFFFFFFFFFF
310
F000FFFFFFFFFFFFFFFFFFFFFFFFFFFFFFFFFFFFFFFFFFFFFFFFFFFFFFFFFFFF
310
FFFFFFFFFFFFFFFFFFFFFFFFFFFFFFFFFFFFFFFFFFFFFFFFFFFFFFFFFFFFFFFF
310
FFFFFFFFFFFFFFFFFFFFFFFFFFFFFFFFFFFFFFFFFFFFFFFFF000FFFFFFFFFFFF
310
FFFFFFFFFFFFFFFFFFFFFFFFFFFFFFFFFFFFFFFFFFFFFFFFFFFFFFFFFFFFFFFF
310
FFFFFFFFFFFFFFFFFFFFFFFFFFFFFFFFFFFFFFFFFFFFFFFFFFFFFFFFFFFFFFFF
310
FFFFFFFFFFFFFFFFFFFFFFFFFFFFFFFFF000FFFFFFFFFFFFFFFFFFFFFFFFFFFF
310
FFFFFFFFFFFFFFFFFFFFFFFFFFFFFFFFFFFFFFFFFFFFFFFFFFFFFFFFFFFFFFFF
310
FFFFFFFFFFFFFFFFFFFFFFFFFFFFFFFFFFFFFFFFFFFFFFFFFFFFFFFFFFFFFFFF
310
FFFFFFFFFFFFFFFFF000FFFFF80003FFFFFFFFFFFFFFFFFFFFFFFFFFFFFFFFFF
310
FFFFF00007FFFFFFFFFF00007FFFFFF800000000000000007FFFFFFFFFFFFFFF
310
FFFFFFFC001FFFFFFFFFFFFFFC001FFFFFFFFFFFFFFFFFFFFFFFFFFE0007FFFF
310
F000FFFF8000007FFFFFFFF8000FFFFFC0007FFFFF80007FFFFF0000007FFFFF
310
FFF8000007FFFFF800000000000000007FFFFFF0001FFFFFFFFFFFC00001FFFF
310
FFFFFFFFC00001FFFFFFFF000000000003FFFFE000007FFFF000FFFE0000000F
310
FFFFFFF0000FFFFF80007FFFFF80007FFFFC0000001FFFFFFFC0000001FFFFF8
310
00000000000000007FFFFFF0001FFFFFFFFFFE0000003FFFFFFFFFFE0000003F
310
FFFFFF000000000003FFFF0000000FFFF000FFF800000003FFFFFFF00007FFFF
310
80007FFFFF80007FFFF000000007FFFFFF000000003FFFF80000000000000000
310
7FFFFFF0001FFFFFFFFFF80000000FFFFFFFFFF80000000FFFFFFF0000000000
310
03FFFC00000003FFF000FFE000000000FFFFFFF00007FFFF80003FFFFF80007F
310
FFC000000001FFFFFC000000001FFFF800000000000000007FFFFFF0001FFFFF
310
FFFFE000000003FFFFFFFFE000000003FFFFFF000000000003FFF000000000FF
310
F000FF80000000007FFFFFF00007FFFF80003FFFFF80007FFF8000000000FFFF
310
F80000000007FFF800000000000000007FFFFFF0001FFFFFFFFFC000000001FF
310
FFFFFFC000000001FFFFFF000000000003FFC0000000007FF000FF0000000000
310
3FFFFFE00007FFFF00003FFFFF80007FFE00000000003FFFF00000000003FFF8
310
00000000000000007FFFFFF0001FFFFFFFFF8000000000FFFFFFFF8000000000
310
FFFFFF000000000003FF80000000003FF000FE00000000001FFFFFE00003FFFF
310
00003FFFFF80007FFC00000000001FFFE00000000001FFF8000001FFFE000000
310
7FFFFFF0001FFFFFFFFE00000000003FFFFFFE00000000003FFFFF0000000000
310
03FF00000000001FF000FC00000000000FFFFFE00003FFFF00001FFFFF80007F
310
F800000000001FFFC00000000000FFF8000001FFFE0000007FFFFFF0001FFFFF
310
FFFC00000000001FFFFFFC00000000001FFFFF000000000003FE00000000000F
310
F000F8000000000007FFFFE00003FFFF00001FFFFF80007FF800000000000FFF
310
800000000000FFF8000001FFFE0000007FFFFFF0001FFFFFFFF800000000000F
310
FFFFF800000000000FFFFF000000000003FC000000000007F000F80000000000
310
03FFFFC00003FFFE00001FFFFF80007FF0000000000007FF0000000000007FF8
310
000001FFFE0000007FFFFFF0001FFFFFFFF0000000000007FFFFF00000000000
310
07FFFF000000000003F8000000000003F000F0000000000003FFFFC00001FFFE
310
00001FFFFF80007FE0000000000007FE0000000000003FF8000001FFFE000000
310
7FFFFFF0001FFFFFFFF0000000000007FFFFF0000000000007FFFF0000000000
310
03F800001F800003F000E00001FFF00001FFFFC00001FFFE00000FFFFF80007F
310
E00001FFE00003FE00001FFF00003FF8000001FFFE0000007FFFFFF0001FFFFF
310
FFE000003E000003FFFFE000003E000003FFFF000000000003F00001FFF80001
310
F000E00007FFFC0001FFFFC00001FFFE00000FFFFF80007FC0000FFFFC0003FC
310
0000FFFFC0001FF8000001FFFE0000007FFFFFF0001FFFFFFFC00003FFE00001
310
FFFFC00003FFE00001FFFF0001FFFFFFFFF00007FFFE0001F000E0000FFFFF00
310
00FFFF800001FFFC00000FFFFF80007FC0001FFFFE0001FC0001FFFFE0001FF8
310
000001FFFE0000007FFFFFF0001FFFFFFF80000FFFF80000FFFF80000FFFF800
310
00FFFF0003FFFFFFFFE0000FFFFF8000F000C0003FFFFF8000FFFF800000FFFC
310
000007FFFF80007F80003FFFFF0001FC0003FFFFF0001FF8000001FFFE000000
310
7FFFFFF0001FFFFFFF80003FFFFE0000FFFF80003FFFFE0000FFFF0003FFFFFF
310
FFE0003FFFFF8000F000C0003FFFFF8000FFFF800000FFFC000007FFFF80007F
310
80007FFFFF8001F80007FFFFF8000FF8000001FFFE0000007FFFFFF0001FFFFF
310
FF00007FFFFF00007FFF00007FFFFF00007FFF0003FFFFFFFFE0003FFFFFC000
310
F000C0007FFFFFC000FFFF000000FFFC000007FFFF80007F8000FFFFFF8000F8
310
000FFFFFF8000FF8000001FFFE0000007FFFFFF0001FFFFFFF0000FFFFFF8000
310
7FFF0000FFFFFF80007FFF0003FFFFFFFFC0007FFFFFC00070008000FFFFFFC0
310
00FFFF000000FFF8000007FFFF80007F8000FFFFFF8000F8000FFFFFF8000FF8
310
000001FFFE0000007FFFFFF0001FFFFFFE0001FFFFFFC0003FFE0001FFFFFFC0
310
003FFF0003FFFFFFFFC0007FFFFFE00070008000FFFFFFC0007FFF0000007FF8
310
000003FFFF80007F0001FFFFFF8000F8000FFFFFF8000FF8000001FFFE000000
310
7FFFFFF0001FFFFFFE0001FFFFFFC0003FFE0001FFFFFFC0003FFF0003FFFFFF
310
FFC000FFFFFFE00070008000FFFFFFC0007FFF0000007FF8000003FFFF80007F
310
0001FFFFFF8000F8001FFFFFF8000FF8000001FFFE0000007FFFFFF0001FFFFF
310
FE0003FFFFFFE0003FFE0003FFFFFFE0003FFF0003FFFFFFFFC000FFFFFFE000
310
70008000FFFFFFC0007FFE0000007FF8000003FFFF80007F0001FFFFFF8000F0
310
001FFFFFF8000FF8000001FFFE0000007FFFFFF0001FFFFFFC0003FFFFFFE000
310
1FFC0003FFFFFFE0001FFF0003FFFFFFFFC000FFFFFFC00070008000FFFFFF80
310
007FFE0000007FF0000003FFFF80007F0001FFFFFF0000F0001FFFFFF8000FF8
310
000001FFFE0000007FFFFFF0001FFFFFFC0007FFFFFFF0001FFC0007FFFFFFF0
310
001FFF0003FFFFFFFFC000FFFFFFC00070008001FFFFFF0000FFFE0000003FF0
310
000001FFFF80007F0001FFFFFF0000F8001FFFFFF0000FF8000001FFFE000000
310
7FFFFFF0001FFFFFFC0007FFFFFFF0001FFC0007FFFFFFF0001FFF0003FFFFFF
310
FFC001FFFFFF80007000FFFFFFFFFE0000FFFE0008003FF0008001FFFF80007F
310
FFFFFFFFFC0000FFFFFFFFFFE0000FF8000001FFFE0000007FFFFFF0001FFFFF
310
F8000FFFFFFFF8000FF8000FFFFFFFF8000FFF0003FFFFFFFFFFFFFFFFFF0000
310
7000FFFFFFFFFC0000FFFC0008003FF0008001FFFF80007FFFFFFFFFF80001FF
310
FFFFFFFF80000FF8000001FFFE0000007FFFFFF0001FFFFFF8000FFFFFFFF800
310
0FF8000FFFFFFFF8000FFF0003FFFFFFFFFFFFFFFFFE0000F000FFFFFFFFE000
310
00FFFC000C003FE000C001FFFF80007FFFFFFFFFC00001FFFFFFFFFE00001FF8
310
000001FFFE0000007FFFFFF0001FFFFFF8000FFFFFFFF8000FF8000FFFFFFFF8
310
000FFF0003FFFFFFFFFFFFFFFFF00000F000FFFFFFFE000001FFFC000C001FE0
310
00C000FFFF80007FFFFFFFFE000001FFFFFFFFE000001FF80FFFFFFFFFFFFFC0
310
7FFFFFF0001FFFFFF8000FFFFFFFF8000FF8000FFFFFFFF8000FFF0003FFFFFF
310
FFFFFFFFFF800000F000FFFFFFC0000001FFFC001C001FE001C000FFFF80007F
310
FFFFFF80000003FFFFFFF80000001FF80FFFFFFFFFFFFFC07FFFFFF0001FFFFF
310
F8001FFFFFFFFC000FF8001FFFFFFFFC000FFF0003FFFFFFFFFFFFFFF0000001
310
F000FFFFF800000001FFF8001C001FE001C000FFFF80007FFFFFF800000003FF
310
FFFF800000003FF80FFFFFFFFFFFFFC07FFFFFF0001FFFFFF8001FFFFFFFFC00
310
0FF8001FFFFFFFFC000FFF0003FFFFFFFFFFFFFE00000001F000FFFFC0000000
310
03FFF8001E001FC001E000FFFF80007FFFFF8000000007FFFFFC000000003FF8
310
0FFFFFFFFFFFFFC07FFFFFF0001FFFFFF8001FFFFFFFFC000FF8001FFFFFFFFC
310
000FFF0003FFFFFFFFFFFFE000000003F000FFFE0000000007FFF8001E000FC0
310
01E0007FFF80007FFFFE0000000007FFFFE0000000007FF80FFFFFFFFFFFFFC0
310
7FFFFFF0001FFFFFF0001FFFFFFFFC0007F0001FFFFFFFFC0007FF0003FFFFFF
310
FFFFFF0000000003F000FFF80000000007FFF8001E000FC003E0007FFF80007F
310
FFF0000000000FFFFF8000000000FFF80FFFFFFFFFFFFFC07FFFFFF0001FFFFF
310
F0001FFFFFFFFC0007F0001FFFFFFFFC0007FF0003FFFFFFFFFFFC0000000007
310
F000FFE0000000000FFFF0003E000FC003E0007FFF80007FFFC0000000001FFF
310
FE0000000001FFF80FFFFFFFFFFFFFC07FFFFFF0001FFFFFF0001FFFFFFFFC00
310
07F0001FFFFFFFFC0007FF0003FFFFFFFFFFF0000000000FF000FFC000000000
310
1FFFF0003F000F8003F0003FFF80007FFF80000000003FFFF80000000003FFF8
310
0FFFFFFFFFFFFFC07FFFFFF0001FFFFFF0001FFFFFFFFC0007F0001FFFFFFFFC
310
0007FF0003FFFFFFFFFFE0000000001FF000FF00000000007FFFF0003F000780
310
03F0003FFF80007FFF00000000007FFFF00000000007FFF80FFFFFFFFFFFFFC0
310
7FFFFFF0001FFFFFF0001FFFFFFFFC0007F0001FFFFFFFFC0007FF0003FFFFFF
310
FFFF80000000007FF000FE0000000000FFFFE0003F00078007F0003FFF80007F
310
FE0000000001FFFFE0000000001FFFF80FFFFFFFFFFFFFC07FFFFFF0001FFFFF
310
F0001FFFFFFFFC0007F0001FFFFFFFFC0007FF0003FFFFFFFFFF0000000000FF
310
F000FC0000000003FFFFE0007F00078007F0003FFF80007FFC0000000007FFFF
310
C0000000007FFFF80FFFFFFFFFFFFFC07FFFFFF0001FFFFFF8001FFFFFFFFC00
310
0FF8001FFFFFFFFC000FFF0003FFFFFFFFFE0000000003FFF000FC000000000F
310
FFFFE0007F80070007F8001FFF80007FF8000000001FFFFF8000000001FFFFF8
310
0FFFFFFFFFFFFFC07FFFFFF0001FFFFFF8001FFFFFFFFC000FF8001FFFFFFFFC
310
000FFF0003FFFFFFFFFC000000000FFFF000F8000000007FFFFFE0007F800700
310
07F8001FFF80007FF000000000FFFFFF800000000FFFFFF80FFFFFFFFFFFFFC0
310
7FFFFFF0001FFFFFF8000FFFFFFFF8000FF8000FFFFFFFF8000FFF0003FFFFFF
310
FFFC000000007FFFF000F800000007FFFFFFC0007F8003000FF8001FFF80007F
310
F000000007FFFFFF000000007FFFFFF80FFFFFFFFFFFFFC07FFFFFF0001FFFFF
310
F8000FFFFFFFF8000FF8000FFFFFFFF8000FFF0003FFFFFFFFF80000000FFFFF
310
F000F0000000FFFFFFFFC000FF8003000FF8001FFF80007FE0000000FFFFFFFF
310
0000000FFFFFFFF8000001FFFE0000007FFFFFF0001FFFFFF8000FFFFFFFF800
310
0FF8000FFFFFFFF8000FFF0003FFFFFFFFF8000000FFFFFFF000F000000FFFFF
310
FFFFC000FFC002000FF8000FFF80007FE000001FFFFFFFFE000001FFFFFFFFF8
310
000001FFFE0000007FFFFFF0001FFFFFF8000FFFFFFFF8000FF8000FFFFFFFF8
310
000FFF0003FFFFFFFFF000001FFFFFFFF000E00000FFFFFFFFFFC000FFC00200
310
0FFC000FFF80007FE00001FFFFFFFFFE00001FFFFFFFFFF8000001FFFE000000
310
7FFFFFF0001FFFFFFC000FFFFFFFF8001FFC000FFFFFFFF8001FFF0003FFFFFF
310
FFF00001FFFFFFFFF000E00007FFFFFFFFFF8000FFC000001FFC000FFF80007F
310
C0000FFFFFFFFFFE0000FFFFFFFFFFF8000001FFFE0000007FFFFFF0001FFFFF
310
FC0007FFFFFFF0001FFC0007FFFFFFF0001FFF0003FFFFFFFFF00007FFFFFFFF
310
F000E0001FFFFFFFFFFF8000FFC000001FFC000FFF80007FC0003FFFFFFFFFFE
310
0001FFFFFFFFFFF8000001FFFE0000007FFFFFF0001FFFFFFC0007FFFFFFF000
310
1FFC0007FFFFFFF0001FFF0003FFFFFFFFF0001FFFFFFFFFF000E0003FFFFF00
310
03FF8001FFE000001FFC0007FF80007FC0007FFFFF0007FC0003FFFFF0003FF8
310
000001FFFE0000007FFFFFF0001FFFFFFC0003FFFFFFE0001FFC0003FFFFFFE0
310
001FFF0003FFFFFFFFF0003FFFFFFFFFF000E0003FFFFF0001FF8001FFE00000
310
1FFE0007FF80007FC0007FFFFE0003FC0007FFFFE0003FF8000001FFFE000000
310
7FFFFFF0001FFFFFFE0003FFFFFFE0003FFE0003FFFFFFE0003FFF0003FFFFFF
310
FFF0003FFFFF8001F000E0003FFFFF0001FF0001FFE000001FFE0007FF80007F
310
C0007FFFFE0003FC0007FFFFE0003FF8000001FFFE0000007FFFFFF0001FFFFF
310
FE0001FFFFFFC0003FFE0001FFFFFFC0003FFF0003FFFFFFFFF0003FFFFF0001
310
F000E0003FFFFF0003FF0001FFE000003FFE0007FF80007FC0007FFFFE0003FC
310
0007FFFFE0003FF8000001FFFE0000007FFFFFF0001FFFFFFF0001FFFFFFC000
310
7FFF0001FFFFFFC0007FFF0003FFFFFFFFF0003FFFFF0001F000E0003FFFFE00
310
03FF0003FFF000003FFE0003FF80007FC0007FFFFC0003FE0007FFFFE0003FF8
310
000001FFFE0000007FFFFFF0001FFFFFFF0000FFFFFF80007FFF0000FFFFFF80
310
007FFF0003FFFFFFFFF0003FFFFF0001F000E0003FFFFE0003FF0003FFF00000
310
3FFF0003FF80007FC0007FFFFC0007FE0007FFFFC0003FF8000001FFFE000000
310
7FFFFFF0001FFFFFFF80007FFFFF0000FFFF80007FFFFF0000FFFF0003FFFFFF
310
FFF0003FFFFF0003F000E0003FFFFC0003FE0003FFF000003FFF0003FF80007F
310
E0003FFFF80007FE0003FFFFC0007FF8000001FFFE0000007FFFFFF0001FFFFF
310
FF80003FFFFE0000FFFF80003FFFFE0000FFFF0003FFFFFFFFF0001FFFFE0003
310
F000F0001FFFF80003FE0003FFF000007FFF0001FF80007FE0003FFFF00007FE
310
0001FFFF80007FF8000001FFFE0000007FFFFFF0001FFFFFFFC0000FFFF80001
310
FFFFC0000FFFF80001FFFF0003FFFFFFFFF0001FFFFC0003F000F0000FFFF000
310
07FE0007FFF800007FFF0001FF80007FE0001FFFE00007FF0000FFFE00007FF8
310
000001FFFE0000007FFFFFF0001FFFFFFFC00003FFE00001FFFFC00003FFE000
310
01FFFF0003FFFFFFFFF8000FFFF80003F000F00003FFC00007FC0007FFF80000
310
7FFF8001FF80007FF00007FF80000FFF00007FF80000FFF8000001FFFE000000
310
7F80000000000001FFE000003E000003FFFFE000003E000003FFFF0003FFFFFF
310
FFF80003FFE00007F000F800000000000FFC0007FFF800007FFF8001FF80007F
310
F000000000000FFF000000000000FFF8000001FFFE0000007F80000000000001
310
FFF0000000000007FFFFF0000000000007FFFF0003FFFFFFFFFC00007E000007
310
F000F800000000000FFC0007FFF80000FFFF8000FF80007FF800000000001FFF
310
800000000001FFF8000001FFFE0000007F80000000000001FFF800000000000F
310
FFFFF800000000000FFFFF0003FFFFFFFFFC00000000000FF000FC0000000000
310
1FFC0007FFFC0000FFFF8000FF80007FF800000000003FFFC00000000001FFF8
310
000001FFFE0000007F80000000000001FFF800000000000FFFFFF80000000000
310
0FFFFF0003FFFFFFFFFE00000000001FF000FE00000000003FF8000FFFFC0000
310
FFFF8000FF80007FFC00000000003FFFC00000000003FFF8000001FFFE000000
310
7F80000000000001FFFC00000000001FFFFFFC00000000001FFFFF0003FFFFFF
310
FFFF00000000001FF000FF00000000003FF8000FFFFC0000FFFFC000FF80007F
310
FE00000000007FFFE00000000007FFF8000001FFFE0000007F80000000000001
310
FFFE00000000003FFFFFFE00000000003FFFFF0003FFFFFFFFFF80000000003F
310
F000FF80000000007FF8000FFFFC0001FFFFC0007F80007FFF0000000000FFFF
310
F0000000000FFFF800000000000000007F80000000000001FFFF8000000000FF
310
FFFFFF8000000000FFFFFF0003FFFFFFFFFFC0000000007FF000FFC000000000
310
FFF8000FFFFE0001FFFFC0007F80007FFF8000000001FFFFF8000000001FFFF8
310
00000000000000007F80000000000001FFFFC000000001FFFFFFFFC000000001
310
FFFFFF0003FFFFFFFFFFE000000000FFF000FFE000000003FFF0001FFFFE0001
310
FFFFC0007F80007FFFC000000007FFFFFE000000003FFFF80000000000000000
310
7F80000000000001FFFFE000000003FFFFFFFFE000000003FFFFFF0003FFFFFF
310
FFFFF000000003FFF000FFF80000000FFFF0001FFFFE0001FFFFE0007F80007F
310
FFF00000000FFFFFFF00000000FFFFF800000000000000007F80000000000001
310
FFFFF80000000FFFFFFFFFF80000000FFFFFFF0003FFFFFFFFFFFC0000000FFF
310
F000FFFE0000003FFFF0001FFFFE0003FFFFE0003F80007FFFFC0000003FFFFF
310
FFC0000003FFFFF800000000000000007F80000000000001FFFFFE0000003FFF
310
FFFFFFFE0000003FFFFFFF0003FFFFFFFFFFFF0000003FFFF000FFFF800000FF
310
FFF0001FFFFF0003FFFFE0003F80007FFFFF000001FFFFFFFFF800001FFFFFF8
310
00000000000000007F80000000000001FFFFFFC00001FFFFFFFFFFFFC00001FF
310
FFFFFF0003FFFFFFFFFFFFC00000FFFFF000FFFFF8000FFFFFFFFFFFFFFFFFFF
310
FFFFFFFFFFFFFFFFFFFFF0001FFFFFFFFFFF0000FFFFFFF80000000000000000
310
7FFFFFFFFFFFFFFFFFFFFFFC001FFFFFFFFFFFFFFC001FFFFFFFFFFFFFFFFFFF
310
FFFFFFFC001FFFFFF000FFFFFFFFFFFFFFFFFFFFFFFFFFFFFFFFFFFFFFFFFFFF
310
FFFFFFFFFFFFFFFFFFFFFFFFFFFFFFFFFFFFFFFFFFFFFFFFFFFFFFFFFFFFFFFF
310
FFFFFFFFFFFFFFFFFFFFFFFFFFFFFFFFFFFFFFFFFFFFFFFFFFFFFFFFFFFFFFFF
310
F000FFFFFFFFFFFFFFFFFFFFFFFFFFFFFFFFFFFFFFFFFFFFFFFFFFFFFFFFFFFF
310
FFFFFFFFFFFFFFFFFFFFFFFFFFFFFFFFFFFFFFFFFFFFFFFFFFFFFFFFFFFFFFFF
310
FFFFFFFFFFFFFFFFFFFFFFFFFFFFFFFFFFFFFFFFFFFFFFFFF000FFFFFFFFFFFF
310
FFFFFFFFFFFFFFFFFFFFFFFFFFFFFFFFFFFFFFFFFFFFFFFFFFFFFFFFFFFFFFFF
310
FFFFFFFFFFFFFFFFFFFFFFFFFFFFFFFFFFFFFFFFFFFFFFFFFFFFFFFFFFFFFFFF
310
FFFFFFFFFFFFFFFFFFFFFFFFFFFFFFFFF000FFFFFFFFFFFFFFFFFFFFFFFFFFFF
310
FFFFFFFFFFFFFFFFFFFFFFFFFFFFFFFFFFFFFFFFFFFFFFFFFFFFFFFFFFFFFFFF
310
FFFFFFFFFFFFFFFFFFFFFFFFFFFFFFFFFFFFFFFFFFFFFFFFFFFFFFFFFFFFFFFF
310
FFFFFFFFFFFFFFFFF000FFFFFFFFFFFFFFFFFFFFFFFFFFFFFFFFFFFFFFFFFFFF
310
FFFFFFFFFFFFFFFFFFFFFFFFFFFFFFFFFFFFFFFFFFFFFFFFFFFFFFFFFFFFFFFF
310
FFFFFFFFFFFFFFFFFFFFFFFFFFFFFFFFFFFFFFFFFFFFFFFFFFFFFFFFFFFFFFFF
310
F000FFFFFFFFFFFFFFFFFFFFFFFFFFFFFFFFFFFFFFFFFFFFFFFFFFFFFFFFFFFF
310
FFFFFFFFFFFFFFFFFFFFFFFFFFFFFFFFFFFFFFFFFFFFFFFFFFFFFFFFFFFFFFFF
310
FFFFFFFFFFFFFFFFFFFFFFFFFFFFFFFFFFFFFFFFFFFFFFFFF000FFFFFFFFFFFF
310
FFFFFFFFFFFFFFFFFFFFFFFFFFFFFFFFFFFFFFFFFFFFFFFFFFFFFFFFFFFFFFFF
310
FFFFFFFFFFFFFFFFFFFFFFFFFFFFFFFFFFFFFFFFFFFFFFFFFFFFFFFFFFFFFFFF
310
FFFFFFFFFFFFFFFFFFFFFFFFFFFFFFFFF000FFFFFFFFFFFFFFFFFFFFFFFFFFFF
310
FFFFFFFFFFFFFFFFFFFFFFFFFFFFFFFFFFFFFFFFFFFFFFFFFFFFFFFFFFFFFFFF
310
FFFFFFFFFFFFFFFFFFFFFFFFFFFFFFFFFFFFFFFFFFFFFFFFFFFFFFFFFFFFFFFF
310
FFFFFFFFFFFFFFFFF000FFFFFFFFFFFFFFFFFFFFFFFFFFFFFFFFFFFFFFFFFFFF
310
FFFFFFFFFFFFFFFFFFFFFFFFFFFFFFFFFFFFFFFFFFFFFFFFFFFFFFFFFFFFFFFF
310
FFFFFFFFFFFFFFFFFFFFFFFFFFFFFFFFFFFFFFFFFFFFFFFFFFFFFFFFFFFFFFFF
310
F000FFFFFFFFFFFFFFFFFFFFFFFFFFFFFFFFFFFFFFFFFFFFFFFFFFFFFFFFFFFF
310
FFFFFFFFFFFFFFFFFFFFFFFFFFFFFFFFFFFFFFFFFFFFFFFFFFFFFFFFFFFFFFFF
310
FFFFFFFFFFFFFFFFFFFFFFFFFFFFFFFFFFFFFFFFFFFFFFFFF000FFFFFFFFFFFF
310
FFFFFFFFFFFFFFFFFFFFFFFFFFFFFFFFFFFFFFFFFFFFFFFFFFFFFFFFFFFFFFFF
310
FFFFFFFFFFFFFFFFFFFFFFFFFFFFFFFFFFFFFFFFFFFFFFFFFFFFFFFFFFFFFFFF
310
FFFFFFFFFFFFFFFFFFFFFFFFFFFFFFFFF000FFFFFFFFFFFFFFFFFFFFFFFFFFFF
310
FFFFFFFFFFFFFFFFFFFFFFFFFFFFFFFFFFFFFFFFFFFFFFFFFFFFFFFFFFFFFFFF
310
FFFFFFFFFFFFFFFFFFFFFFFFFFFFFFFFFFFFFFFFFFFFFFFFFFFFFFFFFFFFFFFF
310
FFFFFFFFFFFFFFFFF000FFFFFFFFFFFFFFFFFFFFFFFFFFFFFFFFFFFFFFFFFFFF
310
FFFFFFFFFFFFFFFFFFFFFFFFFFFFFFFFFFFFFFFFFFFFFFFFFFFFFFFFFFFFFFFF
310
FFFFFFFFFFFFFFFFFFFFFFFFFFFFFFFFFFFFFFFFFFFFFFFFFFFFFFFFFFFFFFFF
310
F000FFFFFFFFFFFFFFFFFFFFFFFFFFFFFFFFFFFFFFFFFFFFFFFFFFFFFFFFFFFF
310
FFFFFFFFFFFFFFFFFFFFFFFFFFFFFFFFFFFFFFFFFFFFFFFFFFFFFFFFFFFFFFFF
310
FFFFFFFFFFFFFFFFFFFFFFFFFFFFFFFFFFFFFFFFFFFFFFFFF000FFFFFFFFFFFF
310
FFFFFFFFFFFFFFFFFFFFFFFFFFFFFFFFFFFFFFFFFFFFFFFFFFFFFFFFFFFFFFFF
310
FFFFFFFFFFFFFFFFFFFFFFFFFFFFFFFFFFFFFFFFFFFFFFFFFFFFFFFFFFFFFFFF
310
FFFFFFFFFFFFFFFFFFFFFFFFFFFFFFFFF000FFFFFFFFFFFFFFFFFFFFFFFFFFFF
310
FFFFFFFFFFFFFFFFFFFFFFFFFFFFFFFFFFFFFFFFFFFFFFFFFFFFFFFFFFFFFFFF
310
FFFFFFFFFFFFFFFFFFFFFFFFFFFFFFFFFFFFFFFFFFFFFFFFFFFFFFFFFFFFFFFF
310
FFFFFFFFFFFFFFFFF000FFFFFFFFFFFFFFFFFFFFFFFFFFFFFFFFFFFFFFFFFFFF
310
FFFFFFFFFFFFFFFFFFFFFFFFFFFFFFFFFFFFFFFFFFFFFFFFFFFFFFFFFFFFFFFF
310
FFFFFFFFFFFFFFFFFFFFFFFFFFFFFFFFFFFFFFFFFFFFFFFFFFFFFFFFFFFFFFFF
310
F000FFFFFFFFFFFFFFFFFFFFFFFFFFFFFFFFFFFFFFFFFFFFFFFFFFFFFFFFFFFF
310
FFFFFFFFFFFFFFFFFFFFFFFFFFFFFFFFFFFFFFFFFFFFFFFFFFFFFFFFFFFFFFFF
310
FFFFFFFFFFFFFFFFFFFFFFFFFFFFFFFFFFFFFFFFFFFFFFFFF000FFFFFFFFFFFF
310
FFFFFFFFFFFFFFFFFFFFFFFFFFFFFFFFFFFFFFFFFFFFFFFFFFFFFFFFFFFFFFFF
310
FFFFFFFFFFFFFFFFFFFFFFFFFFFFFFFFFFFFFFFFFFFFFFFFFFFFFFFFFFFFFFFF
310
FFFFFFFFFFFFFFFFFFFFFFFFFFFFFFFFF000FFFFFFFFFFFFFFFFFFFFFFFFFFFF
310
FFFFFFFFFFFFFFFFFFFFFFFFFFFFFFFFFFFFFFFFFFFFFFFFFFFFFFFFFFFFFFFF
310
FFFFFFFFFFFFFFFFFFFFFFFFFFFFFFFFFFFFFFFFFFFFFFFFFFFFFFFFFFFFFFFF
310
FFFFFFFFFFFFFFFFF000FFFFFFFFFFFFFFFFFFFFFFFFFFFFFFFFFFFFFFFFFFFF
310
FFFFFFFFFFFFFFFFFFFFFFFFFFFFFFFFFFFFFFFFFFFFFFFFFFFFFFFFFFFFFFFF
310
FFFFFFFFFFFFFFFFFFFFFFFFFFFFFFFFFFFFFFFFFFFFFFFFFFFFFFFFFFFFFFFF
310
F000FFFFFFFFFFFFFFFFFFFFFFFFFFFFFFFFFFFFFFFFFFFFFFFFFFFFFFFFFFFF
310
FFFFFFFFFFFFFFFFFFFFFFFFFFFFFFFFFFFFFFFFFFFFFFFFFFFFFFFFFFFFFFFF
310
FFFFFFFFFFFFFFFFFFFFFFFFFFFFFFFFFFFFFFFFFFFFFFFFF000FFFFFFFFFFFF
310
FFFFFFFFFFFFFFFFFFFFFFFFFFFFFFFFFFFFFFFFFFFFFFFFFFFFFFFFFFFFFFFF
310
FFFFFFFFFFFFFFFFFFFFFFFFFFFFFFFFFFFFFFFFFFFFFFFFFFFFFFFFFFFFFFFF
310
FFFFFFFFFFFFFFFFFFFFFFFFFFFFFFFFF0000000000000000000000000000000
310
0000000000000000000000000000000000000000000000000000000000000000
310
0000000000000000000000000000000000000000000000000000000000000000
310
0000000000000000000000000000000000000000000000000000000000000000
310
0000000000000000000000000000000000000000000000000000000000000000
310
0000000000000000000000000000000000000000000000000000000000000000
310
0000000000000000000000000000000000000000000000000000000000000000
310
0000000000000000000000000000000000000000000000000000000000000000
310
0000000000000000000000000000000000000000000000000000000000000000
310
0000000000000000000000000000000000000000000000000000000000000000
310
0000000000000000000000000000000000000000000000000000000000000000
310
0000000000000000000000000000000000000000000000000000000000000000
310
0000000000000000000000000000000000000000000000000000000000000000
310
0000000000000000000000000000000000000000000000000000000000000000
310
0000000000000000000000000000000000000000000000000000000000000000
310
0000000000000000000000000000000000000000000000000000000000000000
  1
OLE
  0
ENDSEC
  0
SECTION
  2
OBJECTS
  0
DICTIONARY
  5
C
330
0
100
AcDbDictionary
281
     1
  3
ACAD_GROUP
350
D
  3
ACAD_LAYOUT
350
1A
  3
ACAD_MLINESTYLE
350
17
  3
ACAD_PLOTSETTINGS
350
19
  3
ACAD_PLOTSTYLENAME
350
E
  0
DICTIONARY
  5
D
102
{ACAD_REACTORS
330
C
102
}
330
C
100
AcDbDictionary
281
     1
  0
DICTIONARY
  5
1A
102
{ACAD_REACTORS
330
C
102
}
330
C
100
AcDbDictionary
281
     1
  3
Layout1
350
1E
  3
Layout2
350
26
  3
Model
350
22
  0
DICTIONARY
  5
17
102
{ACAD_REACTORS
330
C
102
}
330
C
100
AcDbDictionary
281
     1
  3
Standard
350
18
  0
DICTIONARY
  5
19
102
{ACAD_REACTORS
330
C
102
}
330
C
100
AcDbDictionary
281
     1
  0
ACDBDICTIONARYWDFLT
  5
E
102
{ACAD_REACTORS
330
C
102
}
330
C
100
AcDbDictionary
281
     1
  3
Normal
350
F
100
AcDbDictionaryWithDefault
340
F
  0
LAYOUT
  5
1E
102
{ACAD_REACTORS
330
1A
102
}
330
1A
100
AcDbPlotSettings
  1

  2
none_device
  4

  6

 40
0.0
 41
0.0
 42
0.0
 43
0.0
 44
0.0
 45
0.0
 46
0.0
 47
0.0
 48
0.0
 49
0.0
140
0.0
141
0.0
142
1.0
143
1.0
 70
   688
 72
     0
 73
     0
 74
     5
  7

 75
    16
147
1.0
148
0.0
149
0.0
100
AcDbLayout
  1
Layout1
 70
     1
 71
     1
 10
0.0
 20
0.0
 11
420.0
 21
297.0
 12
0.0
 22
0.0
 32
0.0
 14
1.0000000000E+20
 24
1.0000000000E+20
 34
1.0000000000E+20
 15
-1.0000000000E+20
 25
-1.0000000000E+20
 35
-1.0000000000E+20
146
0.0
 13
0.0
 23
0.0
 33
0.0
 16
1.0
 26
0.0
 36
0.0
 17
0.0
 27
1.0
 37
0.0
 76
     0
330
1B
  0
LAYOUT
  5
26
102
{ACAD_REACTORS
330
1A
102
}
330
1A
100
AcDbPlotSettings
  1

  2
none_device
  4

  6

 40
0.0
 41
0.0
 42
0.0
 43
0.0
 44
0.0
 45
0.0
 46
0.0
 47
0.0
 48
0.0
 49
0.0
140
0.0
141
0.0
142
1.0
143
1.0
 70
   688
 72
     0
 73
     0
 74
     5
  7

 75
    16
147
1.0
148
0.0
149
0.0
100
AcDbLayout
  1
Layout2
 70
     1
 71
     2
 10
0.0
 20
0.0
 11
0.0
 21
0.0
 12
0.0
 22
0.0
 32
0.0
 14
0.0
 24
0.0
 34
0.0
 15
0.0
 25
0.0
 35
0.0
146
0.0
 13
0.0
 23
0.0
 33
0.0
 16
1.0
 26
0.0
 36
0.0
 17
0.0
 27
1.0
 37
0.0
 76
     0
330
23
  0
LAYOUT
  5
22
102
{ACAD_REACTORS
330
1A
102
}
330
1A
100
AcDbPlotSettings
  1

  2
none_device
  4

  6

 40
0.0
 41
0.0
 42
0.0
 43
0.0
 44
0.0
 45
0.0
 46
0.0
 47
0.0
 48
0.0
 49
0.0
140
0.0
141
0.0
142
1.0
143
1.0
 70
  1712
 72
     0
 73
     0
 74
     0
  7

 75
     0
147
1.0
148
0.0
149
0.0
100
AcDbLayout
  1
Model
 70
     1
 71
     0
 10
0.0
 20
0.0
 11
297.0
 21
210.0
 12
0.0
 22
0.0
 32
0.0
 14
0.0
 24
0.0
 34
0.0
 15
297.0
 25
210.0
 35
0.0
146
0.0
 13
0.0
 23
0.0
 33
0.0
 16
1.0
 26
0.0
 36
0.0
 17
0.0
 27
1.0
 37
0.0
 76
     0
330
1F
331
29
  0
MLINESTYLE
  5
18
102
{ACAD_REACTORS
330
17
102
}
330
17
100
AcDbMlineStyle
  2
Standard
 70
     0
  3

 62
   256
 51
90.0
 52
90.0
 71
     2
 49
0.5
 62
   256
  6
BYLAYER
 49
-0.5
 62
   256
  6
BYLAYER
  0
ACDBPLACEHOLDER
  5
F
102
{ACAD_REACTORS
330
E
102
}
330
E
  0
ENDSEC
  0
EOF
