  0
SECTION
  2
HEADER
  9
$ACADVER
  1
AC1015
  9
$ACADMAINTVER
 70
     6
  9
$DWGCODEPAGE
  3
ANSI_1252
  9
$INSBASE
 10
0.0
 20
0.0
 30
0.0
  9
$EXTMIN
 10
0.0
 20
0.0
 30
0.0
  9
$EXTMAX
 10
297.0
 20
210.0
 30
0.0
  9
$LIMMIN
 10
0.0
 20
0.0
  9
$LIMMAX
 10
297.0
 20
210.0
  9
$ORTHOMODE
 70
     0
  9
$REGENMODE
 70
     1
  9
$FILLMODE
 70
     1
  9
$QTEXTMODE
 70
     0
  9
$MIRRTEXT
 70
     1
  9
$LTSCALE
 40
1.0
  9
$ATTMODE
 70
     1
  9
$TEXTSIZE
 40
2.0
  9
$TRACEWID
 40
1.0
  9
$TEXTSTYLE
  7
Standard
  9
$CLAYER
  8
0
  9
$CELTYPE
  6
ByLayer
  9
$CECOLOR
 62
   256
  9
$CELTSCALE
 40
1.0
  9
$DISPSILH
 70
     0
  9
$DIMSCALE
 40
1.0
  9
$DIMASZ
 40
3.0
  9
$DIMEXO
 40
0.0
  9
$DIMDLI
 40
3.75
  9
$DIMRND
 40
0.0
  9
$DIMDLE
 40
0.0
  9
$DIMEXE
 40
1.0
  9
$DIMTP
 40
0.0
  9
$DIMTM
 40
0.0
  9
$DIMTXT
 40
2.0
  9
$DIMCEN
 40
2.5
  9
$DIMTSZ
 40
0.0
  9
$DIMTOL
 70
     0
  9
$DIMLIM
 70
     0
  9
$DIMTIH
 70
     1
  9
$DIMTOH
 70
     1
  9
$DIMSE1
 70
     0
  9
$DIMSE2
 70
     0
  9
$DIMTAD
 70
     1
  9
$DIMZIN
 70
     0
  9
$DIMBLK
  1

  9
$DIMASO
 70
     1
  9
$DIMSHO
 70
     1
  9
$DIMPOST
  1

  9
$DIMAPOST
  1

  9
$DIMALT
 70
     0
  9
$DIMALTD
 70
     3
  9
$DIMALTF
 40
0.0393700787
  9
$DIMLFAC
 40
1.0
  9
$DIMTOFL
 70
     1
  9
$DIMTVP
 40
0.0
  9
$DIMTIX
 70
     0
  9
$DIMSOXD
 70
     0
  9
$DIMSAH
 70
     0
  9
$DIMBLK1
  1

  9
$DIMBLK2
  1

  9
$DIMSTYLE
  2
ISO-25
  9
$DIMCLRD
 70
     0
  9
$DIMCLRE
 70
     0
  9
$DIMCLRT
 70
     0
  9
$DIMTFAC
 40
1.0
  9
$DIMGAP
 40
1.524
  9
$DIMJUST
 70
     0
  9
$DIMSD1
 70
     0
  9
$DIMSD2
 70
     0
  9
$DIMTOLJ
 70
     0
  9
$DIMTZIN
 70
     0
  9
$DIMALTZ
 70
     0
  9
$DIMALTTZ
 70
     0
  9
$DIMUPT
 70
     0
  9
$DIMDEC
 70
     2
  9
$DIMTDEC
 70
     3
  9
$DIMALTU
 70
     2
  9
$DIMALTTD
 70
     3
  9
$DIMTXSTY
  7
Standard
  9
$DIMAUNIT
 70
     0
  9
$DIMADEC
 70
     2
  9
$DIMALTRND
 40
0.0
  9
$DIMAZIN
 70
     0
  9
$DIMDSEP
 70
    44
  9
$DIMATFIT
 70
     3
  9
$DIMFRAC
 70
     0
  9
$DIMLDRBLK
  1

  9
$DIMLUNIT
 70
     2
  9
$DIMLWD
 70
    -2
  9
$DIMLWE
 70
    -2
  9
$DIMTMOVE
 70
     0
  9
$LUNITS
 70
     2
  9
$LUPREC
 70
     2
  9
$SKETCHINC
 40
1.0
  9
$FILLETRAD
 40
10.0
  9
$AUNITS
 70
     0
  9
$AUPREC
 70
     2
  9
$MENU
  1
.
  9
$ELEVATION
 40
0.0
  9
$PELEVATION
 40
0.0
  9
$THICKNESS
 40
0.0
  9
$LIMCHECK
 70
     0
  9
$CHAMFERA
 40
10.0
  9
$CHAMFERB
 40
10.0
  9
$CHAMFERC
 40
20.0
  9
$CHAMFERD
 40
0.0
  9
$SKPOLY
 70
     0
  9
$TDCREATE
 40
2455917.484919745
  9
$TDUCREATE
 40
2455917.443253078
  9
$TDUPDATE
 40
2455917.484919757
  9
$TDUUPDATE
 40
2455917.44325309
  9
$TDINDWG
 40
0.0000000116
  9
$TDUSRTIMER
 40
0.0000000116
  9
$USRTIMER
 70
     1
  9
$ANGBASE
 50
0.0
  9
$ANGDIR
 70
     0
  9
$PDMODE
 70
     0
  9
$PDSIZE
 40
-1.0
  9
$PLINEWID
 40
0.0
  9
$SPLFRAME
 70
     0
  9
$SPLINETYPE
 70
     6
  9
$SPLINESEGS
 70
     8
  9
$HANDSEED
  5
309
  9
$SURFTAB1
 70
     6
  9
$SURFTAB2
 70
     6
  9
$SURFTYPE
 70
     6
  9
$SURFU
 70
     6
  9
$SURFV
 70
     6
  9
$UCSBASE
  2

  9
$UCSNAME
  2

  9
$UCSORG
 10
0.0
 20
0.0
 30
0.0
  9
$UCSXDIR
 10
1.0
 20
0.0
 30
0.0
  9
$UCSYDIR
 10
0.0
 20
1.0
 30
0.0
  9
$UCSORTHOREF
  2

  9
$UCSORTHOVIEW
 70
     0
  9
$UCSORGTOP
 10
0.0
 20
0.0
 30
0.0
  9
$UCSORGBOTTOM
 10
0.0
 20
0.0
 30
0.0
  9
$UCSORGLEFT
 10
0.0
 20
0.0
 30
0.0
  9
$UCSORGRIGHT
 10
0.0
 20
0.0
 30
0.0
  9
$UCSORGFRONT
 10
0.0
 20
0.0
 30
0.0
  9
$UCSORGBACK
 10
0.0
 20
0.0
 30
0.0
  9
$PUCSBASE
  2

  9
$PUCSNAME
  2

  9
$PUCSORG
 10
0.0
 20
0.0
 30
0.0
  9
$PUCSXDIR
 10
1.0
 20
0.0
 30
0.0
  9
$PUCSYDIR
 10
0.0
 20
1.0
 30
0.0
  9
$PUCSORTHOREF
  2

  9
$PUCSORTHOVIEW
 70
     0
  9
$PUCSORGTOP
 10
0.0
 20
0.0
 30
0.0
  9
$PUCSORGBOTTOM
 10
0.0
 20
0.0
 30
0.0
  9
$PUCSORGLEFT
 10
0.0
 20
0.0
 30
0.0
  9
$PUCSORGRIGHT
 10
0.0
 20
0.0
 30
0.0
  9
$PUCSORGFRONT
 10
0.0
 20
0.0
 30
0.0
  9
$PUCSORGBACK
 10
0.0
 20
0.0
 30
0.0
  9
$USERI1
 70
     0
  9
$USERI2
 70
     0
  9
$USERI3
 70
     0
  9
$USERI4
 70
     0
  9
$USERI5
 70
     0
  9
$USERR1
 40
0.0
  9
$USERR2
 40
0.0
  9
$USERR3
 40
0.0
  9
$USERR4
 40
0.0
  9
$USERR5
 40
0.0
  9
$WORLDVIEW
 70
     1
  9
$SHADEDGE
 70
     3
  9
$SHADEDIF
 70
    70
  9
$TILEMODE
 70
     1
  9
$MAXACTVP
 70
    64
  9
$PINSBASE
 10
0.0
 20
0.0
 30
0.0
  9
$PLIMCHECK
 70
     0
  9
$PEXTMIN
 10
1.0000000000E+20
 20
1.0000000000E+20
 30
1.0000000000E+20
  9
$PEXTMAX
 10
-1.0000000000E+20
 20
-1.0000000000E+20
 30
-1.0000000000E+20
  9
$PLIMMIN
 10
0.0
 20
0.0
  9
$PLIMMAX
 10
420.0
 20
297.0
  9
$UNITMODE
 70
     0
  9
$VISRETAIN
 70
     1
  9
$PLINEGEN
 70
     0
  9
$PSLTSCALE
 70
     1
  9
$TREEDEPTH
 70
  3020
  9
$CMLSTYLE
  2
Standard
  9
$CMLJUST
 70
     0
  9
$CMLSCALE
 40
20.0
  9
$PROXYGRAPHICS
 70
     1
  9
$MEASUREMENT
 70
     1
  9
$CELWEIGHT
370
    -1
  9
$ENDCAPS
280
     0
  9
$JOINSTYLE
280
     0
  9
$LWDISPLAY
290
     1
  9
$INSUNITS
 70
     4
  9
$HYPERLINKBASE
  1

  9
$STYLESHEET
  1

  9
$XEDIT
290
     1
  9
$CEPSNTYPE
380
     0
  9
$PSTYLEMODE
290
     1
  9
$FINGERPRINTGUID
  2
{F8C83635-B929-4BEA-B225-CB26D6336C85}
  9
$VERSIONGUID
  2
{FAEB1C32-E019-11D5-929B-00C0DF256EC4}
  9
$EXTNAMES
290
     1
  9
$PSVPSCALE
 40
0.0
  9
$OLESTARTUP
290
     0
  0
ENDSEC
  0
SECTION
  2
CLASSES
  0
CLASS
  1
ACDBDICTIONARYWDFLT
  2
AcDbDictionaryWithDefault
  3
ObjectDBX Classes
 90
        0
280
     0
281
     0
  0
CLASS
  1
VISUALSTYLE
  2
AcDbVisualStyle
  3
ObjectDBX Classes
 90
     4095
280
     0
281
     0
  0
CLASS
  1
MATERIAL
  2
AcDbMaterial
  3
ObjectDBX Classes
 90
     1153
280
     0
281
     0
  0
CLASS
  1
ACDBPLACEHOLDER
  2
AcDbPlaceHolder
  3
ObjectDBX Classes
 90
        0
280
     0
281
     0
  0
CLASS
  1
LAYOUT
  2
AcDbLayout
  3
ObjectDBX Classes
 90
        0
280
     0
281
     0
  0
ENDSEC
  0
SECTION
  2
TABLES
  0
TABLE
  2
VPORT
  5
8
330
0
100
AcDbSymbolTable
 70
     1
  0
VPORT
  5
29
330
8
100
AcDbSymbolTableRecord
100
AcDbViewportTableRecord
  2
*Active
 70
     0
 10
0.0
 20
0.0
 11
1.0
 21
1.0
 12
148.5
 22
105.0
 13
0.0
 23
0.0
 14
10.0
 24
10.0
 15
10.0
 25
10.0
 16
0.0
 26
0.0
 36
1.0
 17
0.0
 27
0.0
 37
0.0
 40
210.0
 41
1.4142857143
 42
50.0
 43
0.0
 44
0.0
 50
0.0
 51
0.0
 71
     0
 72
  2000
 73
     1
 74
     3
 75
     0
 76
     0
 77
     0
 78
     0
281
     0
 65
     1
110
0.0
120
0.0
130
0.0
111
1.0
121
0.0
131
0.0
112
0.0
122
1.0
132
0.0
 79
     0
146
0.0
  0
ENDTAB
  0
TABLE
  2
LTYPE
  5
5
330
0
100
AcDbSymbolTable
 70
     6
  0
LTYPE
  5
14
330
5
100
AcDbSymbolTableRecord
100
AcDbLinetypeTableRecord
  2
ByBlock
 70
     0
  3

 72
    65
 73
     0
 40
0.0
  0
LTYPE
  5
15
330
5
100
AcDbSymbolTableRecord
100
AcDbLinetypeTableRecord
  2
ByLayer
 70
     0
  3

 72
    65
 73
     0
 40
0.0
  0
LTYPE
  5
16
330
5
100
AcDbSymbolTableRecord
100
AcDbLinetypeTableRecord
  2
Continuous
 70
     0
  3
Solid line
 72
    65
 73
     0
 40
0.0
  0
LTYPE
  5
3F
330
5
100
AcDbSymbolTableRecord
100
AcDbLinetypeTableRecord
  2
HIDDEN
 70
     0
  3
Hidden __ __ __ __ __ __ __ __ __ __ __ __ __ __
 72
    65
 73
     2
 40
1.905
 49
1.27
 74
     0
 49
-0.635
 74
     0
  0
LTYPE
  5
40
330
5
100
AcDbSymbolTableRecord
100
AcDbLinetypeTableRecord
  2
PHANTOM
 70
     0
  3
Phantom ______  __  __  ______  __  __  ______
 72
    65
 73
     6
 40
12.7
 49
6.35
 74
     0
 49
-1.27
 74
     0
 49
1.27
 74
     0
 49
-1.27
 74
     0
 49
1.27
 74
     0
 49
-1.27
 74
     0
  0
LTYPE
  5
41
330
5
100
AcDbSymbolTableRecord
100
AcDbLinetypeTableRecord
  2
CENTER
 70
     0
  3
Center ____ _ ____ _ ____ _ ____ _ ____ _ ____
 72
    65
 73
     4
 40
10.16
 49
6.35
 74
     0
 49
-1.27
 74
     0
 49
1.27
 74
     0
 49
-1.27
 74
     0
  0
LTYPE
  5
42
330
5
100
AcDbSymbolTableRecord
100
AcDbLinetypeTableRecord
  2
CENTERX2
 70
     0
  3
Center (2x) ________  __  ________  __  _____
 72
    65
 73
     4
 40
20.32
 49
12.7
 74
     0
 49
-2.54
 74
     0
 49
2.54
 74
     0
 49
-2.54
 74
     0
  0
LTYPE
  5
43
330
5
100
AcDbSymbolTableRecord
100
AcDbLinetypeTableRecord
  2
DOT2
 70
     0
  3
Dot (.5x) ........................................
 72
    65
 73
     2
 40
0.635
 49
0.0
 74
     0
 49
-0.635
 74
     0
  0
ENDTAB
  0
TABLE
  2
LAYER
  5
2
330
0
100
AcDbSymbolTable
 70
     5
  0
LAYER
  5
10
330
2
100
AcDbSymbolTableRecord
100
AcDbLayerTableRecord
  2
0
 70
     0
 62
     7
  6
Continuous
370
    -3
390
F
  0
LAYER
  5
44
330
2
100
AcDbSymbolTableRecord
100
AcDbLayerTableRecord
  2
FORMAT
 70
     0
 62
     7
  6
Continuous
370
    -3
390
F
  0
LAYER
  5
45
330
2
100
AcDbSymbolTableRecord
100
AcDbLayerTableRecord
  2
VERMASSUNG
 70
     0
 62
     7
  6
Continuous
370
    -3
390
F
  0
LAYER
  5
46
330
2
100
AcDbSymbolTableRecord
100
AcDbLayerTableRecord
  2
KOPF_DÜNN
 70
     0
 62
     7
  6
Continuous
370
    -3
390
F
  0
LAYER
  5
47
330
2
100
AcDbSymbolTableRecord
100
AcDbLayerTableRecord
  2
KOPF_DICK
 70
     0
 62
     7
  6
Continuous
370
    15
390
F
  0
ENDTAB
  0
TABLE
  2
STYLE
  5
3
330
0
100
AcDbSymbolTable
 70
     2
  0
STYLE
  5
11
330
3
100
AcDbSymbolTableRecord
100
AcDbTextStyleTableRecord
  2
Standard
 70
     0
 40
0.0
 41
1.0
 50
0.0
 71
     0
 42
2.5
  3
txt
  4

  0
STYLE
  5
48
330
3
100
AcDbSymbolTableRecord
100
AcDbTextStyleTableRecord
  2
SLDTEXTSTYLE0
 70
     0
 40
0.0
 41
0.7
 50
0.0
 71
     0
 42
0.2
  3
TXT
  4

  0
ENDTAB
  0
TABLE
  2
VIEW
  5
6
330
0
100
AcDbSymbolTable
 70
     0
  0
ENDTAB
  0
TABLE
  2
UCS
  5
7
330
0
100
AcDbSymbolTable
 70
     0
  0
ENDTAB
  0
TABLE
  2
APPID
  5
9
330
0
100
AcDbSymbolTable
 70
     1
  0
APPID
  5
12
330
9
100
AcDbSymbolTableRecord
100
AcDbRegAppTableRecord
  2
ACAD
 70
     0
  0
ENDTAB
  0
TABLE
  2
DIMSTYLE
  5
A
330
0
100
AcDbSymbolTable
 70
     4
100
AcDbDimStyleTable
  0
DIMSTYLE
105
27
330
A
100
AcDbSymbolTableRecord
100
AcDbDimStyleTableRecord
  2
ISO-25
 70
     0
 41
2.5
 42
0.625
 43
3.75
 44
1.25
 73
     0
 74
     0
 77
     1
 78
     8
140
2.5
141
2.5
143
0.0393700787
147
0.625
171
     3
172
     1
178
     0
271
     2
272
     2
274
     3
278
    44
283
     0
284
     8
340
11
  0
DIMSTYLE
105
23D
102
{ACAD_REACTORS
330
23C
330
260
102
}
330
A
100
AcDbSymbolTableRecord
100
AcDbDimStyleTableRecord
  2
SLDDIMSTYLE0
 70
     0
 41
3.0
 44
0.0
 45
0.000000001
 73
     0
 74
     0
 77
     1
 78
    12
 79
     3
140
2.0
147
0.5
173
     1
178
     0
271
     2
272
     3
276
     2
284
    12
340
48
  0
DIMSTYLE
105
248
102
{ACAD_REACTORS
330
247
330
254
102
}
330
A
100
AcDbSymbolTableRecord
100
AcDbDimStyleTableRecord
  2
SLDDIMSTYLE1
 70
     0
 41
3.0
 44
0.0
 45
0.000000001
 47
0.1
 48
0.1
 71
     1
 73
     0
 74
     0
 77
     1
 78
    12
 79
     3
140
2.0
147
0.5
173
     1
178
     0
271
     2
272
     1
276
     2
284
     8
340
48
  0
DIMSTYLE
105
2F4
102
{ACAD_REACTORS
330
2F3
102
}
330
A
100
AcDbSymbolTableRecord
100
AcDbDimStyleTableRecord
  2
SLDDIMSTYLE2
 70
     0
 41
3.0
 44
0.0
 45
0.000000001
 73
     0
 74
     0
 77
     1
 78
    12
 79
     3
140
2.0
141
0.0
147
0.5
173
     1
178
     0
271
     2
272
     3
276
     2
284
    12
340
48
  0
ENDTAB
  0
TABLE
  2
BLOCK_RECORD
  5
1
330
0
100
AcDbSymbolTable
 70
     7
  0
BLOCK_RECORD
  5
1F
330
1
100
AcDbSymbolTableRecord
100
AcDbBlockTableRecord
  2
*Model_Space
340
22
  0
BLOCK_RECORD
  5
1B
330
1
100
AcDbSymbolTableRecord
100
AcDbBlockTableRecord
  2
*Paper_Space
340
1E
  0
BLOCK_RECORD
  5
23
330
1
100
AcDbSymbolTableRecord
100
AcDbBlockTableRecord
  2
*Paper_Space0
340
26
  0
BLOCK_RECORD
  5
23E
330
1
100
AcDbSymbolTableRecord
100
AcDbBlockTableRecord
  2
*D1
340
0
  0
BLOCK_RECORD
  5
249
330
1
100
AcDbSymbolTableRecord
100
AcDbBlockTableRecord
  2
*D2
340
0
  0
BLOCK_RECORD
  5
255
330
1
100
AcDbSymbolTableRecord
100
AcDbBlockTableRecord
  2
*D3
340
0
  0
BLOCK_RECORD
  5
261
330
1
100
AcDbSymbolTableRecord
100
AcDbBlockTableRecord
  2
*D4
340
0
  0
BLOCK_RECORD
  5
2F5
330
1
100
AcDbSymbolTableRecord
100
AcDbBlockTableRecord
  2
*D5
340
0
  0
BLOCK_RECORD
  5
2FC
330
1
100
AcDbSymbolTableRecord
100
AcDbBlockTableRecord
  2
SW_CENTERMARKSYMBOL_0
340
0
102
{BLKREFS
331
307
102
}
  0
ENDTAB
  0
ENDSEC
  0
SECTION
  2
BLOCKS
  0
BLOCK
  5
20
330
1F
100
AcDbEntity
  8
0
100
AcDbBlockBegin
  2
*Model_Space
 70
     0
 10
0.0
 20
0.0
 30
0.0
  3
*Model_Space
  1

  0
ENDBLK
  5
21
330
1F
100
AcDbEntity
  8
0
100
AcDbBlockEnd
  0
BLOCK
  5
1C
330
1B
100
AcDbEntity
 67
     1
  8
0
100
AcDbBlockBegin
  2
*Paper_Space
 70
     0
 10
0.0
 20
0.0
 30
0.0
  3
*Paper_Space
  1

  0
ENDBLK
  5
1D
330
1B
100
AcDbEntity
 67
     1
  8
0
100
AcDbBlockEnd
  0
BLOCK
  5
24
330
23
100
AcDbEntity
  8
0
100
AcDbBlockBegin
  2
*Paper_Space0
 70
     0
 10
0.0
 20
0.0
 30
0.0
  3
*Paper_Space0
  1

  0
ENDBLK
  5
25
330
23
100
AcDbEntity
  8
0
100
AcDbBlockEnd
  0
BLOCK
  5
23F
330
23E
100
AcDbEntity
  8
0
100
AcDbBlockBegin
  2
*D1
 70
     1
 10
0.0
 20
0.0
 30
0.0
  3
*D1
  1

  0
SOLID
  5
241
330
23E
100
AcDbEntity
  8
VERMASSUNG
100
AcDbTrace
 10
140.2542439707
 20
58.6624545681
 30
0.0
 11
143.2542439707
 21
58.2124545681
 31
0.0
 12
143.2542439707
 22
59.1124545681
 32
0.0
 13
143.2542439707
 23
59.1124545681
 33
0.0
  0
SOLID
  5
242
330
23E
100
AcDbEntity
  8
VERMASSUNG
100
AcDbTrace
 10
243.2542439707
 20
58.6624545681
 30
0.0
 11
240.2542439707
 21
59.1124545681
 31
0.0
 12
240.2542439707
 22
58.2124545681
 32
0.0
 13
240.2542439707
 23
58.2124545681
 33
0.0
  0
LINE
  5
243
330
23E
100
AcDbEntity
  8
VERMASSUNG
100
AcDbLine
 10
140.2542439707
 20
102.666717483
 30
0.0
 11
140.2542439707
 21
57.6624545681
 31
0.0
  0
LINE
  5
244
330
23E
100
AcDbEntity
  8
VERMASSUNG
100
AcDbLine
 10
243.2542439707
 20
77.9590554755
 30
0.0
 11
243.2542439707
 21
57.6624545681
 31
0.0
  0
LINE
  5
245
330
23E
100
AcDbEntity
  8
VERMASSUNG
100
AcDbLine
 10
140.2542439707
 20
58.6624545681
 30
0.0
 11
243.2542439707
 21
58.6624545681
 31
0.0
  0
MTEXT
  5
246
330
23E
100
AcDbEntity
  8
VERMASSUNG
100
AcDbMText
 10
188.9542438377
 20
61.2405899313
 30
0.1
 40
2.0
 41
0.0
 71
     1
 72
     1
  1
103
  7
SLDTEXTSTYLE0
 73
     1
 44
1.0
  0
ENDBLK
  5
240
330
23E
100
AcDbEntity
  8
0
100
AcDbBlockEnd
  0
BLOCK
  5
24A
330
249
100
AcDbEntity
  8
0
100
AcDbBlockBegin
  2
*D2
 70
     1
 10
0.0
 20
0.0
 30
0.0
  3
*D2
  1

  0
SOLID
  5
24C
330
249
100
AcDbEntity
  8
VERMASSUNG
100
AcDbTrace
 10
178.2542439707
 20
68.231420715
 30
0.0
 11
181.2542439707
 21
67.781420715
 31
0.0
 12
181.2542439707
 22
68.681420715
 32
0.0
 13
181.2542439707
 23
68.681420715
 33
0.0
  0
SOLID
  5
24D
330
249
100
AcDbEntity
  8
VERMASSUNG
100
AcDbTrace
 10
243.2542439707
 20
68.231420715
 30
0.0
 11
240.2542439707
 21
68.681420715
 31
0.0
 12
240.2542439707
 22
67.781420715
 32
0.0
 13
240.2542439707
 23
67.781420715
 33
0.0
  0
LINE
  5
24E
330
249
100
AcDbEntity
  8
VERMASSUNG
100
AcDbLine
 10
178.2542439707
 20
91.9590554755
 30
0.0
 11
178.2542439707
 21
67.231420715
 31
0.0
  0
LINE
  5
24F
330
249
100
AcDbEntity
  8
VERMASSUNG
100
AcDbLine
 10
243.2542439707
 20
77.9590554755
 30
0.0
 11
243.2542439707
 21
67.231420715
 31
0.0
  0
LINE
  5
250
330
249
100
AcDbEntity
  8
VERMASSUNG
100
AcDbLine
 10
178.2542439707
 20
68.231420715
 30
0.0
 11
243.2542439707
 21
68.231420715
 31
0.0
  0
MTEXT
  5
251
330
249
100
AcDbEntity
  8
VERMASSUNG
100
AcDbMText
 10
206.2042437837
 20
70.8095560781
 30
0.1
 40
2.0
 41
0.0
 71
     1
 72
     1
  1
65
  7
SLDTEXTSTYLE0
 73
     1
 44
1.0
  0
MTEXT
  5
252
330
249
100
AcDbEntity
  8
VERMASSUNG
100
AcDbMText
 10
211.9917438858
 20
70.8095560781
 30
0.1
 40
2.0
 41
0.0
 71
     1
 72
     1
  1

  7
SLDTEXTSTYLE0
 73
     1
 44
1.0
  0
MTEXT
  5
253
330
249
100
AcDbEntity
  8
VERMASSUNG
100
AcDbMText
 10
212.0042441756
 20
70.3150222153
 30
0.1
 40
1.5
 41
0.0
 71
     1
 72
     1
  1
±0.1
  7
SLDTEXTSTYLE0
 73
     1
 44
1.0
  0
ENDBLK
  5
24B
330
249
100
AcDbEntity
  8
0
100
AcDbBlockEnd
  0
BLOCK
  5
256
330
255
100
AcDbEntity
  8
0
100
AcDbBlockBegin
  2
*D3
 70
     1
 10
0.0
 20
0.0
 30
0.0
  3
*D3
  1

  0
SOLID
  5
258
330
255
100
AcDbEntity
  8
VERMASSUNG
100
AcDbTrace
 10
256.1340556395
 20
122.9590554755
 30
0.0
 11
255.6840556395
 21
119.9590554755
 31
0.0
 12
256.5840556395
 22
119.9590554755
 32
0.0
 13
256.5840556395
 23
119.9590554755
 33
0.0
  0
SOLID
  5
259
330
255
100
AcDbEntity
  8
VERMASSUNG
100
AcDbTrace
 10
256.1340556395
 20
77.9590554755
 30
0.0
 11
256.5840556395
 21
80.9590554755
 31
0.0
 12
255.6840556395
 22
80.9590554755
 32
0.0
 13
255.6840556395
 23
80.9590554755
 33
0.0
  0
LINE
  5
25A
330
255
100
AcDbEntity
  8
VERMASSUNG
100
AcDbLine
 10
243.2542439707
 20
122.9590554755
 30
0.0
 11
257.1340556395
 21
122.9590554755
 31
0.0
  0
LINE
  5
25B
330
255
100
AcDbEntity
  8
VERMASSUNG
100
AcDbLine
 10
250.7554170051
 20
77.9590554755
 30
0.0
 11
257.1340556395
 21
77.9590554755
 31
0.0
  0
LINE
  5
25C
330
255
100
AcDbEntity
  8
VERMASSUNG
100
AcDbLine
 10
256.1340556395
 20
122.9590554755
 30
0.0
 11
256.1340556395
 21
77.9590554755
 31
0.0
  0
MTEXT
  5
25D
330
255
100
AcDbEntity
  8
VERMASSUNG
100
AcDbMText
 10
253.5559202764
 20
95.8090554584
 30
0.1
 40
2.0
 41
0.0
 71
     1
 72
     1
  1
45
  7
SLDTEXTSTYLE0
 11
-7.044195017643634E-15
 21
1.0
 31
0.0
 73
     1
 44
1.0
  0
MTEXT
  5
25E
330
255
100
AcDbEntity
  8
VERMASSUNG
100
AcDbMText
 10
253.5559202764
 20
101.7965556864
 30
0.1
 40
2.0
 41
0.0
 71
     1
 72
     1
  1

  7
SLDTEXTSTYLE0
 11
-7.044195017643634E-15
 21
1.0
 31
0.0
 73
     1
 44
1.0
  0
MTEXT
  5
25F
330
255
100
AcDbEntity
  8
VERMASSUNG
100
AcDbMText
 10
254.0504541391
 20
101.8090555105
 30
0.1
 40
1.5
 41
0.0
 71
     1
 72
     1
  1
±0.1
  7
SLDTEXTSTYLE0
 11
-7.044195017643634E-15
 21
1.0
 31
0.0
 73
     1
 44
1.0
  0
ENDBLK
  5
257
330
255
100
AcDbEntity
  8
0
100
AcDbBlockEnd
  0
BLOCK
  5
262
330
261
100
AcDbEntity
  8
0
100
AcDbBlockBegin
  2
*D4
 70
     1
 10
0.0
 20
0.0
 30
0.0
  3
*D4
  1

  0
SOLID
  5
264
330
261
100
AcDbEntity
  8
VERMASSUNG
100
AcDbTrace
 10
130.2542439707
 20
154.4590554755
 30
0.0
 11
129.8042439707
 21
151.4590554755
 31
0.0
 12
130.7042439707
 22
151.4590554755
 32
0.0
 13
130.7042439707
 23
151.4590554755
 33
0.0
  0
SOLID
  5
265
330
261
100
AcDbEntity
  8
VERMASSUNG
100
AcDbTrace
 10
130.2542439707
 20
91.4590554755
 30
0.0
 11
130.7042439707
 21
94.4590554755
 31
0.0
 12
129.8042439707
 22
94.4590554755
 32
0.0
 13
129.8042439707
 23
94.4590554755
 33
0.0
  0
LINE
  5
266
330
261
100
AcDbEntity
  8
VERMASSUNG
100
AcDbLine
 10
178.7542439707
 20
154.4590554755
 30
0.0
 11
129.2542439707
 21
154.4590554755
 31
0.0
  0
LINE
  5
267
330
261
100
AcDbEntity
  8
VERMASSUNG
100
AcDbLine
 10
178.7542439707
 20
91.4590554755
 30
0.0
 11
129.2542439707
 21
91.4590554755
 31
0.0
  0
LINE
  5
268
330
261
100
AcDbEntity
  8
VERMASSUNG
100
AcDbLine
 10
130.2542439707
 20
154.4590554755
 30
0.0
 11
130.2542439707
 21
91.4590554755
 31
0.0
  0
MTEXT
  5
269
330
261
100
AcDbEntity
  8
VERMASSUNG
100
AcDbMText
 10
127.4761084817
 20
116.5540553663
 30
0.3280725561
 40
2.0
 41
0.0
 71
     1
 72
     1
  1
PSC
  7
SLDTEXTSTYLE0
 11
-7.044195017643634E-15
 21
1.0
 31
0.0
 73
     1
 44
1.0
  0
MTEXT
  5
26A
330
261
100
AcDbEntity
  8
VERMASSUNG
100
AcDbMText
 10
127.6761084912
 20
121.1540554684
 30
0.3280725561
 40
2.0
 41
0.0
 71
     1
 72
     1
  1
%%c
  7
SLDTEXTSTYLE0
 11
-7.044195017643634E-15
 21
1.0
 31
0.0
 73
     1
 44
1.0
  0
MTEXT
  5
26B
330
261
100
AcDbEntity
  8
VERMASSUNG
100
AcDbMText
 10
127.4761084817
 20
124.7640559483
 30
0.3280725561
 40
2.0
 41
0.0
 71
     1
 72
     1
  1
63
  7
SLDTEXTSTYLE0
 11
-7.044195017643634E-15
 21
1.0
 31
0.0
 73
     1
 44
1.0
  0
ENDBLK
  5
263
330
261
100
AcDbEntity
  8
0
100
AcDbBlockEnd
  0
BLOCK
  5
2F6
330
2F5
100
AcDbEntity
  8
0
100
AcDbBlockBegin
  2
*D5
 70
     1
 10
0.0
 20
0.0
 30
0.0
  3
*D5
  1

  0
SOLID
  5
2F8
330
2F5
100
AcDbEntity
  8
VERMASSUNG
100
AcDbTrace
 10
92.352005994
 20
88.0754488774
 30
0.0
 11
93.8983497678
 21
85.4655981282
 31
0.0
 12
94.5960218998
 22
86.0341520801
 32
0.0
 13
94.5960218998
 23
86.0341520801
 33
0.0
  0
LINE
  5
2F9
330
2F5
100
AcDbEntity
  8
VERMASSUNG
100
AcDbLine
 10
92.352005994
 20
88.0754488774
 30
0.0
 11
98.2043992846
 21
80.8939814192
 31
0.0
  0
LINE
  5
2FA
330
2F5
100
AcDbEntity
  8
VERMASSUNG
100
AcDbLine
 10
92.352005994
 20
88.0754488774
 30
0.0
 11
63.9243083963
 21
122.9590554755
 31
0.0
  0
MTEXT
  5
2FB
330
2F5
100
AcDbEntity
  8
VERMASSUNG
100
AcDbMText
 10
96.1588796758
 20
87.4830535716
 30
-16.5624226959
 40
2.0
 41
0.0
 71
     1
 72
     1
  1
R45
  7
SLDTEXTSTYLE0
 11
0.631726613281299
 21
-0.775191257737173
 31
0.0
 73
     1
 44
1.0
  0
ENDBLK
  5
2F7
330
2F5
100
AcDbEntity
  8
0
100
AcDbBlockEnd
  0
BLOCK
  5
2FD
330
2FC
100
AcDbEntity
  8
0
100
AcDbBlockBegin
  2
SW_CENTERMARKSYMBOL_0
 70
     0
 10
0.0
 20
0.0
 30
0.0
  3
SW_CENTERMARKSYMBOL_0
  1

  0
LINE
  5
2FF
330
2FC
100
AcDbEntity
  8
VERMASSUNG
 62
     0
100
AcDbLine
 10
0.0
 20
0.0
 30
0.0
 11
0.0
 21
2.5
 31
0.0
  0
LINE
  5
300
330
2FC
100
AcDbEntity
  8
VERMASSUNG
 62
     0
100
AcDbLine
 10
0.0
 20
0.0
 30
0.0
 11
-2.5
 21
0.0
 31
0.0
  0
LINE
  5
301
330
2FC
100
AcDbEntity
  8
VERMASSUNG
 62
     0
100
AcDbLine
 10
0.0
 20
0.0
 30
0.0
 11
0.0
 21
-2.5
 31
0.0
  0
LINE
  5
302
330
2FC
100
AcDbEntity
  8
VERMASSUNG
 62
     0
100
AcDbLine
 10
0.0
 20
0.0
 30
0.0
 11
2.5
 21
0.0
 31
0.0
  0
LINE
  5
303
330
2FC
100
AcDbEntity
  8
VERMASSUNG
 62
     0
100
AcDbLine
 10
0.0
 20
5.0
 30
0.0
 11
0.0
 21
34.0
 31
0.0
  0
LINE
  5
304
330
2FC
100
AcDbEntity
  8
VERMASSUNG
 62
     0
100
AcDbLine
 10
-5.0
 20
0.0
 30
0.0
 11
-34.0
 21
0.0
 31
0.0
  0
LINE
  5
305
330
2FC
100
AcDbEntity
  8
VERMASSUNG
 62
     0
100
AcDbLine
 10
0.0
 20
-5.0
 30
0.0
 11
0.0
 21
-34.0
 31
0.0
  0
LINE
  5
306
330
2FC
100
AcDbEntity
  8
VERMASSUNG
 62
     0
100
AcDbLine
 10
5.0
 20
0.0
 30
0.0
 11
34.0
 21
0.0
 31
0.0
  0
ENDBLK
  5
2FE
330
2FC
100
AcDbEntity
  8
0
100
AcDbBlockEnd
  0
ENDSEC
  0
SECTION
  2
ENTITIES
  0
MTEXT
  5
49
330
1F
100
AcDbEntity
  8
KOPF_DÜNN
100
AcDbMText
 10
13.8892156294
 20
23.8442973028
 30
0.0
 40
3.0
 41
0.0
 71
     1
 72
     1
  1
PS6.KGB.LGA.065
  7
SLDTEXTSTYLE0
 73
     1
 44
1.0
  0
MTEXT
  5
4A
330
1F
100
AcDbEntity
  8
VERMASSUNG
100
AcDbMText
 10
13.9329988022
 20
28.8834360957
 30
0.0
 40
3.0
 41
0.0
 71
     1
 72
     1
  1
Klemmhalter / Aussengewinde axial
  7
SLDTEXTSTYLE0
 73
     1
 44
1.0
  0
MTEXT
  5
4B
330
1F
100
AcDbEntity
  8
VERMASSUNG
100
AcDbMText
 10
98.8601118557
 20
13.8365368179
 30
0.0
 40
2.0
 41
0.0
 71
     1
 72
     1
  1
Datum: 21.12.2011
  7
SLDTEXTSTYLE0
 73
     1
 44
1.0
  0
MTEXT
  5
4C
330
1F
100
AcDbEntity
  8
VERMASSUNG
100
AcDbMText
 10
13.933048693
 20
18.0482802738
 30
0.0
 40
2.0
 41
0.0
 71
     1
 72
     1
  1
PSC ø 63 / linke Ausführung
  7
SLDTEXTSTYLE0
 73
     1
 44
1.0
  0
MTEXT
  5
4D
330
1F
100
AcDbEntity
  8
VERMASSUNG
100
AcDbMText
 10
13.9808475933
 20
13.9090973692
 30
0.0
 40
2.0
 41
0.0
 71
     1
 72
     1
  1
Gewicht: 1389g
  7
SLDTEXTSTYLE0
 73
     1
 44
1.0
  0
ARC
  5
4E
330
1F
100
AcDbEntity
  8
0
  6
Continuous
 62
     7
370
    15
100
AcDbCircle
 10
199.2542439707
 20
109.3090554755
 30
0.0
 40
2.500000000000018
100
AcDbArc
 50
243.3052549208
 51
338.6286669096
  0
ARC
  5
4F
330
1F
100
AcDbEntity
  8
0
  6
Continuous
 62
     7
370
    15
100
AcDbCircle
 10
199.2542439707
 20
109.3090554755
 30
0.0
 40
2.500000000000015
100
AcDbArc
 50
201.3713330904
 51
243.3052549208
  0
LINE
  5
50
330
1F
100
AcDbEntity
  8
0
  6
Continuous
 62
     7
370
    15
100
AcDbLine
 10
230.1190591154
 20
86.9379432008
 30
0.0
 11
230.1449274576
 21
86.7664010053
 31
0.0
  0
LINE
  5
51
330
1F
100
AcDbEntity
  8
0
  6
Continuous
 62
     7
370
    15
100
AcDbLine
 10
241.0092097601
 20
86.4932761923
 30
0.0
 11
241.0022292406
 21
86.5395665051
 31
0.0
  0
LINE
  5
52
330
1F
100
AcDbEntity
  8
0
  6
Continuous
 62
     7
370
    15
100
AcDbLine
 10
238.7749979514
 20
87.2148347727
 30
0.0
 11
238.7975932397
 21
87.0649973636
 31
0.0
  0
LINE
  5
53
330
1F
100
AcDbEntity
  8
0
  6
Continuous
 62
     7
370
    15
100
AcDbLine
 10
237.3688648843
 20
86.5056146262
 30
0.0
 11
237.3374525464
 21
86.7139210335
 31
0.0
  0
LINE
  5
54
330
1F
100
AcDbEntity
  8
0
  6
Continuous
 62
     7
370
    15
100
AcDbLine
 10
239.1866117687
 20
85.8228333907
 30
0.0
 11
239.2180241067
 21
85.6145269833
 31
0.0
  0
LINE
  5
55
330
1F
100
AcDbEntity
  8
0
  6
Continuous
 62
     7
370
    15
100
AcDbLine
 10
237.7892957513
 20
85.0551442459
 30
0.0
 11
237.7578834133
 21
85.2634506532
 31
0.0
  0
ARC
  5
56
330
1F
100
AcDbEntity
  8
0
  6
Continuous
 62
     7
370
    15
100
AcDbCircle
 10
178.7542439707
 20
91.9590554755
 30
0.0
 40
0.5
100
AcDbArc
 50
180.0
 51
270.0
  0
ARC
  5
57
330
1F
100
AcDbEntity
  8
0
  6
Continuous
 62
     7
370
    15
100
AcDbCircle
 10
178.7542439707
 20
153.9590554755
 30
0.0
 40
0.5
100
AcDbArc
 50
90.0
 51
180.0
  0
LINE
  5
58
330
1F
100
AcDbEntity
  8
0
  6
Continuous
 62
     7
370
    15
100
AcDbLine
 10
178.7542439707
 20
91.4590554755
 30
0.0
 11
215.4869169827
 21
91.4590554755
 31
0.0
  0
LINE
  5
59
330
1F
100
AcDbEntity
  8
0
  6
Continuous
 62
     7
370
    15
100
AcDbLine
 10
211.3605755819
 20
154.4590554755
 30
0.0
 11
178.7542439707
 21
154.4590554755
 31
0.0
  0
LWPOLYLINE
  5
5A
330
1F
100
AcDbEntity
  8
0
  6
Continuous
 62
     7
370
    15
100
AcDbPolyline
 90
        3
 70
   128
 43
0.0
 10
178.0542439707
 20
100.4192351966
 10
178.1796989142
 20
100.3509330817
 10
178.2542439707
 20
100.2981953236
  0
LWPOLYLINE
  5
5B
330
1F
100
AcDbEntity
  8
0
  6
Continuous
 62
     7
370
    15
100
AcDbPolyline
 90
        3
 70
   128
 43
0.0
 10
178.2542439707
 20
145.6199156275
 10
178.1796989142
 20
145.5671778693
 10
178.0542439707
 20
145.4988757544
  0
ARC
  5
5C
330
1F
100
AcDbEntity
  8
0
  6
Continuous
 62
     7
370
    15
100
AcDbCircle
 10
215.4869169827
 20
90.4590554755
 30
0.0
 40
1.00000000000002
100
AcDbArc
 50
15.0
 51
90.0
  0
LINE
  5
5D
330
1F
100
AcDbEntity
  8
0
  6
Continuous
 62
     7
370
    15
100
AcDbLine
 10
216.452842809
 20
90.7178745206
 30
0.0
 11
219.0227692313
 21
81.1267785409
 31
0.0
  0
LWPOLYLINE
  5
5E
330
1F
100
AcDbEntity
  8
0
  6
Continuous
 62
     7
370
    15
100
AcDbPolyline
 90
       16
 70
   128
 43
0.0
 10
202.2542439707
 20
107.6790554755
 10
202.2452971853
 20
107.4785548507
 10
202.1187875949
 20
106.9071795991
 10
201.848637826
 20
106.3745094269
 10
201.4483943158
 20
105.907254641
 10
200.9381269454
 20
105.5288453473
 10
200.3434226514
 20
105.2582565679
 10
199.6941023903
 20
105.1090567541
 10
199.0227257913
 20
105.0887274076
 10
198.3629584806
 20
105.1982879267
 10
197.7478839461
 20
105.4322444895
 10
197.2083445932
 20
105.7788655369
 10
196.771395178
 20
106.2207700424
 10
196.4589461688
 20
106.7357990688
 10
196.2866650635
 20
107.2981269101
 10
196.2542439707
 20
107.6790554755
  0
LWPOLYLINE
  5
5F
330
1F
100
AcDbEntity
  8
0
  6
Continuous
 62
     7
370
    15
100
AcDbPolyline
 90
       17
 70
   128
 43
0.0
 10
202.0375452862
 20
108.178814495
 10
202.0957105161
 20
107.8905708455
 10
202.0940837846
 20
107.3154871297
 10
201.9393605536
 20
106.7562297594
 10
201.6398819927
 20
106.2429484441
 10
201.2117930684
 20
105.8033143126
 10
200.6781721657
 20
105.4610281545
 10
200.0677869253
 20
105.2345427053
 10
199.4135433737
 20
105.1360678542
 10
198.7507119501
 20
105.1709124059
 10
198.115026068
 20
105.3371978815
 10
197.5407557179
 20
105.625959788
 10
197.0588599631
 20
106.0216308964
 10
196.6953179284
 20
106.5028804748
 10
196.4697282589
 20
107.0437642337
 10
196.3942525523
 20
107.6151229898
 10
196.4630179563
 20
108.1489563946
  0
LWPOLYLINE
  5
60
330
1F
100
AcDbEntity
  8
0
  6
Continuous
 62
     7
370
    15
100
AcDbPolyline
 90
       26
 70
   128
 43
0.0
 10
200.5095439913
 20
109.4813979639
 10
201.0077726954
 20
109.1522187069
 10
201.3958207407
 20
108.7260768288
 10
201.6493056414
 20
108.2297483909
 10
201.7523000089
 20
107.6944195344
 10
201.6983323283
 20
107.1537269401
 10
201.4907935875
 20
106.6416443123
 10
201.1427242088
 20
106.1903476858
 10
200.6759946714
 20
105.8281936873
 10
200.1199313087
 20
105.5779377845
 10
199.5094736267
 20
105.4553044762
 10
198.8829789267
 20
105.4679992641
 10
198.2798121749
 20
105.6152244881
 10
197.7378725566
 20
105.8877294457
 10
197.291212131
 20
106.2683916485
 10
196.9678962154
 20
106.7332926901
 10
196.7882399379
 20
107.2532211283
 10
196.7635317631
 20
107.7955079472
 10
196.8953241965
 20
108.3260792716
 10
197.1753362348
 20
108.8115973539
 10
197.5859736919
 20
109.2215553073
 10
198.101434706
 20
109.530193966
 10
198.689330966
 20
109.7181204278
 10
199.3127227877
 20
109.773526582
 10
199.9324401702
 20
109.6929310563
 10
200.5095439913
 20
109.4813979639
  0
ARC
  5
61
330
1F
100
AcDbEntity
  8
0
  6
Continuous
 62
     7
370
    15
100
AcDbCircle
 10
231.460619435
 20
86.6513965479
 30
0.0
 40
1.285390505219881
100
AcDbArc
 50
119.6146314125
 51
174.8732816474
  0
LINE
  5
62
330
1F
100
AcDbEntity
  8
0
  6
Continuous
 62
     7
370
    15
100
AcDbLine
 10
232.3930510404
 20
88.6676274382
 30
0.0
 11
230.8254258625
 21
87.768874904
 31
0.0
  0
LINE
  5
63
330
1F
100
AcDbEntity
  8
0
  6
Continuous
 62
     7
370
    15
100
AcDbLine
 10
231.9454123196
 20
88.920197196
 30
0.0
 11
230.7547481021
 21
88.2375643205
 31
0.0
  0
ARC
  5
64
330
1F
100
AcDbEntity
  8
0
  6
Continuous
 62
     7
370
    15
100
AcDbCircle
 10
231.3844912572
 20
87.1242563437
 30
0.0
 40
1.279074310845453
100
AcDbArc
 50
119.4946902404
 51
188.3756441153
  0
LINE
  5
65
330
1F
100
AcDbEntity
  8
0
  6
Continuous
 62
     7
370
    15
100
AcDbLine
 10
230.9286164193
 20
87.1396591134
 30
0.0
 11
230.3499911097
 21
86.1497070576
 31
0.0
  0
LINE
  5
66
330
1F
100
AcDbEntity
  8
0
  6
Continuous
 62
     7
370
    15
100
AcDbLine
 10
242.2776742359
 20
93.6463130103
 30
0.0
 11
230.9286164193
 21
87.1396591134
 31
0.0
  0
LINE
  5
67
330
1F
100
AcDbEntity
  8
0
  6
Continuous
 62
     7
370
    15
100
AcDbLine
 10
242.8866738912
 20
93.6543179275
 30
0.0
 11
242.2776742359
 21
93.6463130103
 31
0.0
  0
LINE
  5
68
330
1F
100
AcDbEntity
  8
0
  6
Continuous
 62
     7
370
    15
100
AcDbLine
 10
242.9866396237
 20
93.4841987791
 30
0.0
 11
242.8866738912
 21
93.6543179275
 31
0.0
  0
LINE
  5
69
330
1F
100
AcDbEntity
  8
0
  6
Continuous
 62
     7
370
    15
100
AcDbLine
 10
242.6775371659
 20
92.9658364165
 30
0.0
 11
242.9866396237
 21
93.4841987791
 31
0.0
  0
LINE
  5
6A
330
1F
100
AcDbEntity
  8
0
  6
Continuous
 62
     7
370
    15
100
AcDbLine
 10
243.2561624755
 20
91.9811465385
 30
0.0
 11
242.6775371659
 21
92.9658364165
 31
0.0
  0
LINE
  5
6B
330
1F
100
AcDbEntity
  8
0
  6
Continuous
 62
     7
370
    15
100
AcDbLine
 10
243.2561624755
 20
79.0710501987
 30
0.0
 11
243.2561624755
 21
91.9811465385
 31
0.0
  0
LINE
  5
6C
330
1F
100
AcDbEntity
  8
0
  6
Continuous
 62
     7
370
    15
100
AcDbLine
 10
242.956265278
 20
78.5474939817
 30
0.0
 11
243.2561624755
 21
79.0710501987
 31
0.0
  0
LINE
  5
6D
330
1F
100
AcDbEntity
  8
0
  6
Continuous
 62
     7
370
    15
100
AcDbLine
 10
242.756333813
 20
78.5465848658
 30
0.0
 11
242.956265278
 21
78.5474939817
 31
0.0
  0
LINE
  5
6E
330
1F
100
AcDbEntity
  8
0
  6
Continuous
 62
     7
370
    15
100
AcDbLine
 10
242.4564366155
 20
79.0674137352
 30
0.0
 11
242.756333813
 21
78.5465848658
 31
0.0
  0
LINE
  5
6F
330
1F
100
AcDbEntity
  8
0
  6
Continuous
 62
     7
370
    15
100
AcDbLine
 10
241.2991859964
 20
79.0621515575
 30
0.0
 11
242.4564366155
 21
79.0674137352
 31
0.0
  0
LINE
  5
70
330
1F
100
AcDbEntity
  8
0
  6
Continuous
 62
     7
370
    15
100
AcDbLine
 10
229.9501281797
 20
85.4655940003
 30
0.0
 11
241.2991859964
 21
79.0621515575
 31
0.0
  0
LINE
  5
71
330
1F
100
AcDbEntity
  8
0
  6
Continuous
 62
     7
370
    15
100
AcDbLine
 10
229.641025722
 20
85.9811453
 30
0.0
 11
229.9501281797
 21
85.4655940003
 31
0.0
  0
LINE
  5
72
330
1F
100
AcDbEntity
  8
0
  6
Continuous
 62
     7
370
    15
100
AcDbLine
 10
229.7409914545
 20
86.1521735644
 30
0.0
 11
229.641025722
 21
85.9811453
 31
0.0
  0
LINE
  5
73
330
1F
100
AcDbEntity
  8
0
  6
Continuous
 62
     7
370
    15
100
AcDbLine
 10
230.3499911097
 20
86.1497070576
 30
0.0
 11
229.7409914545
 21
86.1521735644
 31
0.0
  0
CIRCLE
  5
74
330
1F
100
AcDbEntity
  8
0
  6
Continuous
 62
     7
370
    15
100
AcDbCircle
 10
238.5316172445
 20
86.0370643776
 30
0.0
 40
2.825275067807024
  0
LINE
  5
75
330
1F
100
AcDbEntity
  8
0
  6
Continuous
 62
     7
370
    15
100
AcDbLine
 10
230.8356882528
 20
87.7558989017
 30
0.0
 11
230.9286164193
 21
87.1396591134
 31
0.0
  0
LINE
  5
76
330
1F
100
AcDbEntity
  8
0
  6
Continuous
 62
     7
370
    15
100
AcDbLine
 10
232.4096302523
 20
88.6582730027
 30
0.0
 11
230.8356882528
 21
87.7558989017
 31
0.0
  0
LINE
  5
77
330
1F
100
AcDbEntity
  8
0
  6
Continuous
 62
     7
370
    15
100
AcDbLine
 10
242.2724388463
 20
93.6810307449
 30
0.0
 11
242.2776742359
 21
93.6463130103
 31
0.0
  0
LINE
  5
78
330
1F
100
AcDbEntity
  8
0
  6
Continuous
 62
     7
370
    15
100
AcDbLine
 10
242.8340876775
 20
94.0030358501
 30
0.0
 11
242.8866738912
 21
93.6543179275
 31
0.0
  0
LINE
  5
79
330
1F
100
AcDbEntity
  8
0
  6
Continuous
 62
     7
370
    15
100
AcDbLine
 10
242.902486194
 20
94.0422501603
 30
0.0
 11
242.9866396237
 21
93.4841987791
 31
0.0
  0
LINE
  5
7A
330
1F
100
AcDbEntity
  8
0
  6
Continuous
 62
     7
370
    15
100
AcDbLine
 10
243.163234309
 20
92.5973863268
 30
0.0
 11
242.8131182918
 21
93.193204886
 31
0.0
  0
LINE
  5
7B
330
1F
100
AcDbEntity
  8
0
  6
Continuous
 62
     7
370
    15
100
AcDbLine
 10
243.163234309
 20
92.5973863268
 30
0.0
 11
243.2561624755
 21
91.9811465385
 31
0.0
  0
LINE
  5
7C
330
1F
100
AcDbEntity
  8
0
  6
Continuous
 62
     7
370
    15
100
AcDbLine
 10
230.2570629432
 20
86.7659468459
 30
0.0
 11
230.3499911097
 21
86.1497070576
 31
0.0
  0
LINE
  5
7D
330
1F
100
AcDbEntity
  8
0
  6
Continuous
 62
     7
370
    15
100
AcDbLine
 10
230.8356882528
 20
87.7558989017
 30
0.0
 11
230.2570629432
 21
86.7659468459
 31
0.0
  0
LINE
  5
7E
330
1F
100
AcDbEntity
  8
0
  6
Continuous
 62
     7
370
    15
100
AcDbLine
 10
229.648063288
 20
86.7684133527
 30
0.0
 11
229.7409914545
 21
86.1521735644
 31
0.0
  0
LINE
  5
7F
330
1F
100
AcDbEntity
  8
0
  6
Continuous
 62
     7
370
    15
100
AcDbLine
 10
230.2570629432
 20
86.7659468459
 30
0.0
 11
229.648063288
 21
86.7684133527
 31
0.0
  0
LINE
  5
80
330
1F
100
AcDbEntity
  8
0
  6
Continuous
 62
     7
370
    15
100
AcDbLine
 10
229.5480975555
 20
86.5973850884
 30
0.0
 11
229.641025722
 21
85.9811453
 31
0.0
  0
LINE
  5
81
330
1F
100
AcDbEntity
  8
0
  6
Continuous
 62
     7
370
    15
100
AcDbLine
 10
229.648063288
 20
86.7684133527
 30
0.0
 11
229.5480975555
 21
86.5973850884
 31
0.0
  0
ARC
  5
82
330
1F
100
AcDbEntity
  8
0
  6
Continuous
 62
     7
370
    15
100
AcDbCircle
 10
238.3163325423
 20
86.0822378017
 30
0.0
 40
2.710695828701404
100
AcDbArc
 50
264.8887883221
 51
95.1112116784
  0
CIRCLE
  5
83
330
1F
100
AcDbEntity
  8
0
  6
Continuous
 62
     7
370
    15
100
AcDbCircle
 10
238.2850764164
 20
86.0314663261
 30
0.0
 40
2.505801444188185
  0
ARC
  5
84
330
1F
100
AcDbEntity
  8
0
  6
Continuous
 62
     7
370
    15
100
AcDbCircle
 10
236.8175002582
 20
86.422605115
 30
0.0
 40
0.5570959375367688
100
AcDbArc
 50
300.5643377861
 51
30.8937453144
  0
ARC
  5
85
330
1F
100
AcDbEntity
  8
0
  6
Continuous
 62
     7
370
    15
100
AcDbCircle
 10
237.2140561651
 20
85.7521525664
 30
0.0
 40
0.2218545809305316
100
AcDbArc
 50
120.7009712729
 51
271.6283673661
  0
ARC
  5
86
330
1F
100
AcDbEntity
  8
0
  6
Continuous
 62
     7
370
    15
100
AcDbCircle
 10
237.2338506263
 20
84.9688446831
 30
0.0
 40
0.5617049095630087
100
AcDbArc
 50
1.5878581319
 51
91.376169697
  0
ARC
  5
87
330
1F
100
AcDbEntity
  8
0
  6
Continuous
 62
     7
370
    15
100
AcDbCircle
 10
238.0212971972
 20
84.9928932777
 30
0.0
 40
0.2261165633231434
100
AcDbArc
 50
182.1502341307
 51
330.5772819452
  0
ARC
  5
88
330
1F
100
AcDbEntity
  8
0
  6
Continuous
 62
     7
370
    15
100
AcDbCircle
 10
238.7162518452
 20
84.595426508
 30
0.0
 40
0.5744775189068302
100
AcDbArc
 50
61.7687542783
 51
150.0980212602
  0
ARC
  5
89
330
1F
100
AcDbEntity
  8
0
  6
Continuous
 62
     7
370
    15
100
AcDbCircle
 10
239.0968236224
 20
85.2984623947
 30
0.0
 40
0.2249682586030946
100
AcDbArc
 50
241.0701101246
 51
30.1619990704
  0
ARC
  5
8A
330
1F
100
AcDbEntity
  8
0
  6
Continuous
 62
     7
370
    15
100
AcDbCircle
 10
239.7693887329
 20
85.6975364945
 30
0.0
 40
0.5570959375368647
100
AcDbArc
 50
120.5643377861
 51
210.8937453144
  0
ARC
  5
8B
330
1F
100
AcDbEntity
  8
0
  6
Continuous
 62
     7
370
    15
100
AcDbCircle
 10
239.3728328259
 20
86.3679890431
 30
0.0
 40
0.2218545809305439
100
AcDbArc
 50
300.7009712729
 51
91.6283673661
  0
ARC
  5
8C
330
1F
100
AcDbEntity
  8
0
  6
Continuous
 62
     7
370
    15
100
AcDbCircle
 10
239.3530383648
 20
87.1512969264
 30
0.0
 40
0.5617049095630279
100
AcDbArc
 50
181.5878581319
 51
271.376169697
  0
ARC
  5
8D
330
1F
100
AcDbEntity
  8
0
  6
Continuous
 62
     7
370
    15
100
AcDbCircle
 10
238.5655917938
 20
87.1272483318
 30
0.0
 40
0.2261165633231423
100
AcDbArc
 50
2.1502341307
 51
150.5772819452
  0
ARC
  5
8E
330
1F
100
AcDbEntity
  8
0
  6
Continuous
 62
     7
370
    15
100
AcDbCircle
 10
237.8706371458
 20
87.5247151015
 30
0.0
 40
0.5744775189068808
100
AcDbArc
 50
241.7687542783
 51
330.0980212602
  0
ARC
  5
8F
330
1F
100
AcDbEntity
  8
0
  6
Continuous
 62
     7
370
    15
100
AcDbCircle
 10
237.4900653687
 20
86.8216792148
 30
0.0
 40
0.2249682586030711
100
AcDbArc
 50
61.0701101246
 51
210.1619990704
  0
ARC
  5
90
330
1F
100
AcDbEntity
  8
0
  6
Continuous
 62
     7
370
    15
100
AcDbCircle
 10
238.3513464554
 20
86.137487546
 30
0.0
 40
2.681202534288393
100
AcDbArc
 50
8.6247344526
 51
48.4598519881
  0
LWPOLYLINE
  5
91
330
1F
100
AcDbEntity
  8
0
  6
Continuous
 62
     7
370
    15
100
AcDbPolyline
 90
        3
 70
   128
 43
0.0
 10
237.3374525464
 20
86.7139210335
 10
237.3110934296
 20
86.8182724103
 10
237.2765473395
 20
86.8953077933
  0
ARC
  5
92
330
1F
100
AcDbEntity
  8
0
  6
Continuous
 62
     7
370
    15
100
AcDbCircle
 10
239.3396669811
 20
86.5781255435
 30
0.0
 40
0.2243241735968188
100
AcDbArc
 50
300.8474198076
 51
339.8933384727
  0
ARC
  5
93
330
1F
100
AcDbEntity
  8
0
  6
Continuous
 62
     7
370
    15
100
AcDbCircle
 10
239.7394129869
 20
85.9046807548
 30
0.0
 40
0.558827502772841
100
AcDbArc
 50
120.630574515
 51
188.42198794
  0
ARC
  5
94
330
1F
100
AcDbEntity
  8
0
  6
Continuous
 62
     7
370
    15
100
AcDbCircle
 10
237.1847169981
 20
85.9646208666
 30
0.0
 40
0.2259664992843604
100
AcDbArc
 50
217.3796175498
 51
271.0729128101
  0
ARC
  5
95
330
1F
100
AcDbEntity
  8
0
  6
Continuous
 62
     7
370
    15
100
AcDbCircle
 10
237.2021234241
 20
85.1762959803
 30
0.0
 40
0.5625523110334243
100
AcDbArc
 50
8.9125760269
 51
91.3420184702
  0
ARC
  5
96
330
1F
100
AcDbEntity
  8
0
  6
Continuous
 62
     7
370
    15
100
AcDbCircle
 10
238.6848395073
 20
84.8037329154
 30
0.0
 40
0.5744775189068451
100
AcDbArc
 50
61.7687542783
 51
150.0980212602
  0
ARC
  5
97
330
1F
100
AcDbEntity
  8
0
  6
Continuous
 62
     7
370
    15
100
AcDbCircle
 10
239.064752829
 20
85.5101148048
 30
0.0
 40
0.2275887847391807
100
AcDbArc
 50
241.622682743
 51
340.2316675163
  0
ARC
  5
98
330
1F
100
AcDbEntity
  8
0
  6
Continuous
 62
     7
370
    15
100
AcDbCircle
 10
237.9894859649
 20
85.202677467
 30
0.0
 40
0.227192587643935
100
AcDbArc
 50
203.0802988539
 51
330.3020857846
  0
LINE
  5
99
330
1F
100
AcDbEntity
  8
0
  6
Continuous
 62
     7
370
    15
100
AcDbLine
 10
178.2542439707
 20
91.9590554755
 30
0.0
 11
178.2542439707
 21
153.9590554688
 31
0.0
  0
SPLINE
  5
9A
330
1F
100
AcDbEntity
  8
0
  6
Continuous
 62
     7
370
    15
100
AcDbSpline
210
0.0
220
0.0
230
1.0
 70
     8
 71
     3
 72
    68
 73
    64
 74
     0
 42
0.00000001
 43
0.00000001
 40
-0.0625
 40
-0.0625
 40
0.0
 40
0.0
 40
0.0312499999999999
 40
0.0312499999999999
 40
0.0624999999999998
 40
0.0624999999999998
 40
0.0937499999999997
 40
0.0937499999999997
 40
0.1249999999999996
 40
0.1249999999999996
 40
0.1562499999999995
 40
0.1562499999999995
 40
0.1874999999999994
 40
0.1874999999999994
 40
0.2187499999999993
 40
0.2187499999999993
 40
0.2499999999999992
 40
0.2499999999999992
 40
0.2812499999999991
 40
0.2812499999999991
 40
0.3124999999999989
 40
0.3124999999999989
 40
0.3437499999999988
 40
0.3437499999999988
 40
0.3749999999999988
 40
0.3749999999999988
 40
0.4062499999999987
 40
0.4062499999999987
 40
0.4374999999999986
 40
0.4374999999999986
 40
0.4687499999999984
 40
0.4687499999999984
 40
0.4999999999999983
 40
0.4999999999999983
 40
0.5312499999999984
 40
0.5312499999999984
 40
0.5624999999999986
 40
0.5624999999999986
 40
0.5937499999999987
 40
0.5937499999999987
 40
0.6249999999999988
 40
0.6249999999999988
 40
0.6562499999999989
 40
0.6562499999999989
 40
0.687499999999999
 40
0.687499999999999
 40
0.7187499999999991
 40
0.7187499999999991
 40
0.7499999999999992
 40
0.7499999999999992
 40
0.7812499999999994
 40
0.7812499999999994
 40
0.8124999999999996
 40
0.8124999999999996
 40
0.8437499999999997
 40
0.8437499999999997
 40
0.8749999999999998
 40
0.8749999999999998
 40
0.9062499999999999
 40
0.9062499999999999
 40
0.9375
 40
0.9375
 40
1.0
 40
1.0
 40
1.03125
 40
1.03125
 10
196.2542439707226
 20
107.5525466576519
 30
0.0
 10
196.2542439707226
 20
107.0373098844622
 30
0.0
 10
196.2737146438229
 20
106.8693892882693
 30
0.0
 10
196.3499836699432
 20
106.5407760353918
 30
0.0
 10
196.4077157769575
 20
106.3783970352108
 30
0.0
 10
196.5583346879361
 20
106.0704425811317
 30
0.0
 10
196.6504881522463
 20
105.9251835116237
 30
0.0
 10
196.8681886605061
 20
105.6514734099336
 30
0.0
 10
196.9948290616415
 20
105.5226022114775
 30
0.0
 10
197.2714477678306
 20
105.2924263771664
 30
0.0
 10
197.4224026848379
 20
105.189560256863
 30
0.0
 10
197.7502907130665
 20
105.0083372186898
 30
0.0
 10
197.9247396822803
 20
104.9316667966635
 30
0.0
 10
198.2856712850286
 20
104.8086715589558
 30
0.0
 10
198.4748230230379
 20
104.7614226680795
 30
0.0
 10
198.8621177082956
 20
104.6982633690504
 30
0.0
 10
199.0568392528449
 20
104.6826582366871
 30
0.0
 10
199.4483774903597
 20
104.6824835807089
 30
0.0
 10
199.647243886937
 20
104.6984255956416
 30
0.0
 10
200.0320840981631
 20
104.761145154358
 30
0.0
 10
200.2191433495096
 20
104.8075777666256
 30
0.0
 10
200.5824880666648
 20
104.9310815233485
 30
0.0
 10
200.7580312896849
 20
105.0083741375277
 30
0.0
 10
201.0830127159241
 20
105.1877347129114
 30
0.0
 10
201.2345256144765
 20
105.2904151153429
 30
0.0
 10
201.5147297125868
 20
105.5234125581868
 30
0.0
 10
201.6388338125633
 20
105.649934003169
 30
0.0
 10
201.8561421313228
 20
105.9225494274726
 30
0.0
 10
201.9501401322073
 20
106.0704154606969
 30
0.0
 10
202.1007868032792
 20
106.3784272582981
 30
0.0
 10
202.1575888333984
 20
106.5377410089899
 30
0.0
 10
202.2344728360413
 20
106.8671997842112
 30
0.0
 10
202.2541720583464
 20
107.0385122950248
 30
0.0
 10
202.2543154808176
 20
107.3776959061189
 30
0.0
 10
202.2353966218212
 20
107.5472276071934
 30
0.0
 10
202.1587046200834
 20
107.8860645193243
 30
0.0
 10
202.1011664524302
 20
108.0528110497222
 30
0.0
 10
201.9518019640791
 20
108.3721386145229
 30
0.0
 10
201.8588895785439
 20
108.5271548665179
 30
0.0
 10
201.6397894506921
 20
108.8200733056268
 30
0.0
 10
201.5157560915259
 20
108.9555501146484
 30
0.0
 10
201.2394527463361
 20
109.2046304581772
 30
0.0
 10
201.0853044048384
 20
109.3191516035633
 30
0.0
 10
200.7594401662099
 20
109.5166036852658
 30
0.0
 10
200.5872790962188
 20
109.6004639865959
 30
0.0
 10
200.2243256195721
 20
109.7377890616752
 30
0.0
 10
200.033683936353
 20
109.7906609758358
 30
0.0
 10
199.6501744310465
 20
109.8606021155682
 30
0.0
 10
199.4552813791546
 20
109.8785480603267
 30
0.0
 10
199.0589598666548
 20
109.8788953521053
 30
0.0
 10
198.8635970272459
 20
109.861237879971
 30
0.0
 10
198.4799959501374
 20
109.7919268029288
 30
0.0
 10
198.2895036581016
 20
109.7394553606296
 30
0.0
 10
197.9259376347007
 20
109.6025980732468
 30
0.0
 10
197.753578282005
 20
109.5189721897217
 30
0.0
 10
197.4274575333367
 20
109.3221080036166
 30
0.0
 10
197.2730330501361
 20
109.2078005333875
 30
0.0
 10
196.9961635202611
 20
108.9590660664921
 30
0.0
 10
196.8719137742898
 20
108.8238029439745
 30
0.0
 10
196.6524149063341
 20
108.5314738308697
 30
0.0
 10
196.559017136628
 20
108.3763287569402
 30
0.0
 10
196.3340559019277
 20
107.897731466882
 30
0.0
 10
196.2542439707226
 20
107.5525466576519
 30
0.0
 10
196.2542439707226
 20
107.0373098844622
 30
0.0
  0
ELLIPSE
  5
9B
330
1F
100
AcDbEntity
  8
0
  6
Continuous
 62
     7
370
    15
100
AcDbEllipse
 10
212.4991760472
 20
122.9590554755
 30
0.0
 11
1.574944762879824
 21
31.49727103316099
 31
0.0
210
0.0
220
0.0
230
1.0
 40
0.263265937
 41
0.6028856954968446
 42
2.914099239140663
  0
SPLINE
  5
9C
330
1F
100
AcDbEntity
  8
0
  6
Continuous
 62
     7
370
    15
100
AcDbSpline
210
0.0
220
0.0
230
1.0
 70
     8
 71
     3
 72
    20
 73
    16
 74
     0
 42
0.00000001
 43
0.00000001
 40
0.0
 40
0.0
 40
0.0
 40
0.0
 40
0.2500000000000007
 40
0.2500000000000007
 40
0.3750000000000006
 40
0.3750000000000006
 40
0.5000000000000004
 40
0.5000000000000004
 40
0.6250000000000003
 40
0.6250000000000003
 40
0.7500000000000002
 40
0.7500000000000002
 40
0.8750000000000001
 40
0.8750000000000001
 40
1.0
 40
1.0
 40
1.0
 40
1.0
 10
209.0946278840725
 20
92.36683246609176
 30
0.0
 10
209.2528847511008
 20
92.21299301340858
 30
0.0
 10
209.4986853864757
 20
92.08740059930004
 30
0.0
 10
210.0104482663482
 20
91.93254583795914
 30
0.0
 10
210.2035989320281
 20
91.88723561740714
 30
0.0
 10
210.6263794786828
 20
91.80878996911035
 30
0.0
 10
210.8571543912342
 20
91.77529457574033
 30
0.0
 10
211.3592270232453
 20
91.7176084955443
 30
0.0
 10
211.631055042507
 20
91.69351997461057
 30
0.0
 10
212.194999764349
 20
91.65428714827716
 30
0.0
 10
212.489550063554
 20
91.63882752201039
 30
0.0
 10
213.1043021943808
 20
91.61431817692473
 30
0.0
 10
213.4257306770272
 20
91.60530253202167
 30
0.0
 10
214.0724957283919
 20
91.59305823748757
 30
0.0
 10
214.4004553902812
 20
91.58969959911231
 30
0.0
 10
214.7331211519597
 20
91.58888086961672
 30
0.0
  0
ELLIPSE
  5
9D
330
1F
100
AcDbEntity
  8
0
  6
Continuous
 62
     7
370
    15
100
AcDbEllipse
 10
530.2048153842
 20
122.9590554755
 30
0.0
 11
1202.936459575499
 21
5.473557541774484
 31
0.0
210
0.0
220
0.0
230
0.9999999999999999
 40
0.025787565
 41
4.446917186578286
 42
4.447566486902594
  0
ELLIPSE
  5
9E
330
1F
100
AcDbEntity
  8
0
  6
Continuous
 62
     7
370
    15
100
AcDbEllipse
 10
233.019931603
 20
122.9590554755
 30
0.0
 11
-21.77023436953101
 21
31.46903455576083
 31
0.0
210
0.0
220
0.0
230
1.0
 40
0.0641414938
 41
5.735355272831406
 42
6.698297985151514
  0
SPLINE
  5
9F
330
1F
100
AcDbEntity
  8
0
  6
Continuous
 62
     7
370
    15
100
AcDbSpline
210
0.0
220
0.0
230
1.0
 70
     8
 71
     3
 72
    14
 73
    10
 74
     0
 42
0.00000001
 43
0.00000001
 40
0.0
 40
0.0
 40
0.0
 40
0.0
 40
0.2499999999999997
 40
0.2499999999999997
 40
0.4999999999999993
 40
0.4999999999999993
 40
0.7499999999999997
 40
0.7499999999999997
 40
1.0
 40
1.0
 40
1.0
 40
1.0
 10
212.2845887299081
 20
151.1923042838908
 30
0.0
 10
211.8860386445729
 20
151.1035181703963
 30
0.0
 10
211.5132089230804
 20
150.9937823106397
 30
0.0
 10
210.8197008590426
 20
150.7264002683614
 30
0.0
 10
210.5108020239908
 20
150.5730860899963
 30
0.0
 10
209.9674686977596
 20
150.2259741155594
 30
0.0
 10
209.7313715539274
 20
150.0297092742809
 30
0.0
 10
209.3501723252179
 20
149.6083740524569
 30
0.0
 10
209.20196616914
 20
149.3820157739331
 30
0.0
 10
209.0946278840725
 20
149.1385494974461
 30
0.0
  0
SPLINE
  5
A0
330
1F
100
AcDbEntity
  8
0
  6
Continuous
 62
     7
370
    15
100
AcDbSpline
210
0.0
220
0.0
230
1.0
 70
     8
 71
     3
 72
    12
 73
     8
 74
     0
 42
0.00000001
 43
0.00000001
 40
0.0
 40
0.0
 40
0.0
 40
0.0
 40
0.2500000000000009
 40
0.2500000000000009
 40
0.5000000000000019
 40
0.5000000000000019
 40
1.0
 40
1.0
 40
1.0
 40
1.0
 10
188.782000784289
 20
92.89056351665207
 30
0.0
 10
188.7189438293912
 20
92.89056351665207
 30
0.0
 10
188.6598136796457
 20
92.89846384773165
 30
0.0
 10
188.5613661291124
 20
92.9217745957367
 30
0.0
 10
188.5223338909243
 20
92.93647972202034
 30
0.0
 10
188.4224440064673
 20
92.98441325020698
 30
0.0
 10
188.380145032858
 20
93.0204832229717
 30
0.0
 10
188.3489880823967
 20
93.05831301540793
 30
0.0
  0
LINE
  5
A1
330
1F
100
AcDbEntity
  8
0
  6
Continuous
 62
     7
370
    15
100
AcDbLine
 10
191.7264871572
 20
92.8905635167
 30
0.0
 11
188.7820007843
 21
92.8905635167
 31
0.0
  0
SPLINE
  5
A2
330
1F
100
AcDbEntity
  8
0
  6
Continuous
 62
     7
370
    15
100
AcDbSpline
210
0.0
220
0.0
230
1.0
 70
     8
 71
     3
 72
    12
 73
     8
 74
     0
 42
0.00000001
 43
0.00000001
 40
0.0
 40
0.0
 40
0.0
 40
0.0
 40
0.5
 40
0.5
 40
0.75
 40
0.75
 40
1.0
 40
1.0
 40
1.0
 40
1.0
 10
192.1594998590484
 20
93.05831301540792
 30
0.0
 10
192.1283546610863
 20
93.02049749248772
 30
0.0
 10
192.0860803947518
 20
92.98443063440415
 30
0.0
 10
191.9861348609266
 20
92.93647056939288
 30
0.0
 10
191.9464045562225
 20
92.92160959549523
 30
0.0
 10
191.8495165062163
 20
92.89865844936409
 30
0.0
 10
191.7894512644697
 20
92.89056351665201
 30
0.0
 10
191.7264871571562
 20
92.89056351665201
 30
0.0
  0
ELLIPSE
  5
A3
330
1F
100
AcDbEntity
  8
0
  6
Continuous
 62
     7
370
    15
100
AcDbEllipse
 10
175.9070897814
 20
122.9590554755
 30
0.0
 11
-14.75368316065621
 21
31.09325491558116
 31
0.0
210
0.0
220
0.0
230
1.0
 40
0.3419987131
 41
3.300734856217119
 42
4.231496223360772
  0
SPLINE
  5
A4
330
1F
100
AcDbEntity
  8
0
  6
Continuous
 62
     7
370
    15
100
AcDbSpline
210
0.0
220
0.0
230
1.0
 70
     8
 71
     3
 72
    12
 73
     8
 74
     0
 42
0.00000001
 43
0.00000001
 40
0.0
 40
0.0
 40
0.0
 40
0.0
 40
0.2499999999999986
 40
0.2499999999999986
 40
0.4999999999999971
 40
0.4999999999999971
 40
1.0
 40
1.0
 40
1.0
 40
1.0
 10
191.7264871571562
 20
113.5709890441889
 30
0.0
 10
191.789544112054
 20
113.5709890441889
 30
0.0
 10
191.8486742617995
 20
113.5456426908083
 30
0.0
 10
191.9471218123328
 20
113.4715233086688
 30
0.0
 10
191.9861540505209
 20
113.4250267939708
 30
0.0
 10
192.0860439349779
 20
113.2749522869622
 30
0.0
 10
192.1283429085872
 20
113.1638345778473
 30
0.0
 10
192.1594998590484
 20
113.0496861548398
 30
0.0
  0
LINE
  5
A5
330
1F
100
AcDbEntity
  8
0
  6
Continuous
 62
     7
370
    15
100
AcDbLine
 10
188.7820007843
 20
113.5709890442
 30
0.0
 11
191.7264871572
 21
113.5709890442
 31
0.0
  0
SPLINE
  5
A6
330
1F
100
AcDbEntity
  8
0
  6
Continuous
 62
     7
370
    15
100
AcDbSpline
210
0.0
220
0.0
230
1.0
 70
     8
 71
     3
 72
    12
 73
     8
 74
     0
 42
0.00000001
 43
0.00000001
 40
0.0
 40
0.0
 40
0.0
 40
0.0
 40
0.500000000000001
 40
0.500000000000001
 40
0.7500000000000004
 40
0.7500000000000004
 40
1.0
 40
1.0
 40
1.0
 40
1.0
 10
188.3489880823968
 20
113.0496861548398
 30
0.0
 10
188.3801332803589
 20
113.1637915207051
 30
0.0
 10
188.4224075466933
 20
113.2748978479239
 30
0.0
 10
188.5223530805187
 20
113.4250554553542
 30
0.0
 10
188.5620833852227
 20
113.4720481469715
 30
0.0
 10
188.6589714352289
 20
113.54502373151
 30
0.0
 10
188.7190366769755
 20
113.570989044189
 30
0.0
 10
188.782000784289
 20
113.570989044189
 30
0.0
  0
ELLIPSE
  5
A7
330
1F
100
AcDbEntity
  8
0
  6
Continuous
 62
     7
370
    15
100
AcDbEllipse
 10
204.6013981601
 20
122.9590554755
 30
0.0
 11
14.75368316065618
 21
31.09325491558116
 31
0.0
210
0.0
220
0.0
230
1.0
 40
0.3419987131
 41
2.051689083818826
 42
2.982450450962502
  0
SPLINE
  5
A8
330
1F
100
AcDbEntity
  8
0
  6
Continuous
 62
     7
370
    15
100
AcDbSpline
210
0.0
220
0.0
230
1.0
 70
     8
 71
     3
 72
    12
 73
     8
 74
     0
 42
0.00000001
 43
0.00000001
 40
0.0
 40
0.0
 40
0.0
 40
0.0
 40
0.2499999999999982
 40
0.2499999999999982
 40
0.4999999999999964
 40
0.4999999999999964
 40
1.0
 40
1.0
 40
1.0
 40
1.0
 10
188.782000784289
 20
132.3471219068611
 30
0.0
 10
188.7189207457957
 20
132.3471219068611
 30
0.0
 10
188.6597721236143
 20
132.3724862260761
 30
0.0
 10
188.5612995735452
 20
132.446651086449
 30
0.0
 10
188.5222629615605
 20
132.4931714270031
 30
0.0
 10
188.4223664947815
 20
132.6433137698483
 30
0.0
 10
188.3799456137148
 20
132.7550069768205
 30
0.0
 10
188.3489880823968
 20
132.8684247962102
 30
0.0
  0
LINE
  5
A9
330
1F
100
AcDbEntity
  8
0
  6
Continuous
 62
     7
370
    15
100
AcDbLine
 10
191.7264871572
 20
132.3471219069
 30
0.0
 11
188.7820007843
 21
132.3471219069
 31
0.0
  0
SPLINE
  5
AA
330
1F
100
AcDbEntity
  8
0
  6
Continuous
 62
     7
370
    15
100
AcDbSpline
210
0.0
220
0.0
230
1.0
 70
     8
 71
     3
 72
    12
 73
     8
 74
     0
 42
0.00000001
 43
0.00000001
 40
0.0
 40
0.0
 40
0.0
 40
0.0
 40
0.5000000000000047
 40
0.5000000000000047
 40
0.7500000000000023
 40
0.7500000000000023
 40
1.0
 40
1.0
 40
1.0
 40
1.0
 10
192.1594998590483
 20
132.8684247962102
 30
0.0
 10
192.1287776171293
 20
132.755868996801
 30
0.0
 10
192.0859404025941
 20
132.6431111370615
 30
0.0
 10
191.9865133783943
 20
132.4935702512651
 30
0.0
 10
191.9467611835776
 20
132.4462775195582
 30
0.0
 10
191.8487197267194
 20
132.3725412262368
 30
0.0
 10
191.789163671132
 20
132.3471219068611
 30
0.0
 10
191.7264871571562
 20
132.3471219068611
 30
0.0
  0
ELLIPSE
  5
AB
330
1F
100
AcDbEntity
  8
0
  6
Continuous
 62
     7
370
    15
100
AcDbEllipse
 10
175.9070897814
 20
122.9590554755
 30
0.0
 11
14.75368316065604
 21
31.09325491558116
 31
0.0
210
0.0
220
0.0
230
1.0
 40
0.3419987131
 41
5.193281737408618
 42
6.124043104552324
  0
SPLINE
  5
AC
330
1F
100
AcDbEntity
  8
0
  6
Continuous
 62
     7
370
    15
100
AcDbSpline
210
0.0
220
0.0
230
1.0
 70
     8
 71
     3
 72
    12
 73
     8
 74
     0
 42
0.00000001
 43
0.00000001
 40
0.0
 40
0.0
 40
0.0
 40
0.0
 40
0.25
 40
0.25
 40
0.5
 40
0.5
 40
1.0
 40
1.0
 40
1.0
 40
1.0
 10
191.7264871571562
 20
153.0275474343983
 30
0.0
 10
191.7895671956495
 20
153.0275474343983
 30
0.0
 10
191.8487158178309
 20
153.0196415081858
 30
0.0
 10
191.9471883679
 20
152.9963163467496
 30
0.0
 10
191.9862249798847
 20
152.9816035569179
 30
0.0
 10
192.0861214466638
 20
152.933647756187
 30
0.0
 10
192.1285423277304
 20
152.8973855996069
 30
0.0
 10
192.1594998590484
 20
152.8597979356424
 30
0.0
  0
LINE
  5
AD
330
1F
100
AcDbEntity
  8
0
  6
Continuous
 62
     7
370
    15
100
AcDbLine
 10
188.7820007843
 20
153.0275474344
 30
0.0
 11
191.7264871572
 21
153.0275474344
 31
0.0
  0
SPLINE
  5
AE
330
1F
100
AcDbEntity
  8
0
  6
Continuous
 62
     7
370
    15
100
AcDbSpline
210
0.0
220
0.0
230
1.0
 70
     8
 71
     3
 72
    12
 73
     8
 74
     0
 42
0.00000001
 43
0.00000001
 40
0.0
 40
0.0
 40
0.0
 40
0.0
 40
0.4999999999999981
 40
0.4999999999999981
 40
0.749999999999999
 40
0.749999999999999
 40
1.0
 40
1.0
 40
1.0
 40
1.0
 10
188.3489880823968
 20
152.8597979356424
 30
0.0
 10
188.3797103243159
 20
152.8970999185954
 30
0.0
 10
188.4225475388511
 20
152.9337117506418
 30
0.0
 10
188.5219745630509
 20
152.981476533927
 30
0.0
 10
188.5617267578675
 20
152.9964340494094
 30
0.0
 10
188.6597682147257
 20
153.0196239951785
 30
0.0
 10
188.7193242703132
 20
153.0275474343983
 30
0.0
 10
188.782000784289
 20
153.0275474343983
 30
0.0
  0
ELLIPSE
  5
AF
330
1F
100
AcDbEntity
  8
0
  6
Continuous
 62
     7
370
    15
100
AcDbEllipse
 10
204.6013981601
 20
122.9590554755
 30
0.0
 11
-14.75368316065607
 21
31.09325491558116
 31
0.0
210
0.0
220
0.0
230
1.0
 40
0.3419987131
 41
0.1591422026273014
 42
1.089903569770981
  0
ELLIPSE
  5
B0
330
1F
100
AcDbEntity
  8
0
  6
Continuous
 62
     7
370
    15
100
AcDbEllipse
 10
207.7019302531
 20
106.7872720344
 30
0.0
 11
-0.1359444410772142
 21
3.12053115963441
 31
0.0
210
0.0
220
0.0
230
0.9999999999999999
 40
0.2331539851
 41
0.0
 42
6.283185307179586
  0
SPLINE
  5
B1
330
1F
100
AcDbEntity
  8
0
  6
Continuous
 62
     7
370
    15
100
AcDbSpline
210
0.0
220
0.0
230
1.0
 70
     8
 71
     3
 72
    12
 73
     8
 74
     0
 42
0.00000001
 43
0.00000001
 40
0.0
 40
0.0
 40
0.0
 40
0.0
 40
0.5000000000000001
 40
0.5000000000000001
 40
0.7499999999999999
 40
0.7499999999999999
 40
1.0
 40
1.0
 40
1.0
 40
1.0
 10
177.4377316842661
 20
101.1042617730494
 30
0.0
 10
177.4941681851733
 20
101.1028438917076
 30
0.0
 10
177.563252815862
 20
101.1012795554593
 30
0.0
 10
177.68205508758
 20
101.0983353634849
 30
0.0
 10
177.72224036305
 20
101.0972971603875
 30
0.0
 10
177.7956214104539
 20
101.0953632651728
 30
0.0
 10
177.8290309741965
 20
101.0944683778841
 30
0.0
 10
177.8592670818529
 20
101.0936845876117
 30
0.0
  0
SPLINE
  5
B2
330
1F
100
AcDbEntity
  8
0
  6
Continuous
 62
     7
370
    15
100
AcDbSpline
210
0.0
220
0.0
230
1.0
 70
     8
 71
     3
 72
    16
 73
    12
 74
     0
 42
0.00000001
 43
0.00000001
 40
0.0
 40
0.0
 40
0.0
 40
0.0
 40
0.0625000000000014
 40
0.0625000000000014
 40
0.1250000000000029
 40
0.1250000000000029
 40
0.2499999999999985
 40
0.2499999999999985
 40
0.4999999999999979
 40
0.4999999999999979
 40
1.0
 40
1.0
 40
1.0
 40
1.0
 10
177.8592670818157
 20
101.093684587636
 30
0.0
 10
177.8708474894037
 20
101.0933843965246
 30
0.0
 10
177.8841570161649
 20
101.0920566482656
 30
0.0
 10
177.9134584462511
 20
101.0853579734906
 30
0.0
 10
177.9282725461354
 20
101.0799997903849
 30
0.0
 10
177.9641009478383
 20
101.0629541412176
 30
0.0
 10
177.9782205722013
 20
101.0514916034418
 30
0.0
 10
178.0127247162898
 20
101.0199282780696
 30
0.0
 10
178.0238292669944
 20
101.0020309790243
 30
0.0
 10
178.0500054442106
 20
100.9518695614101
 30
0.0
 10
178.0542439707226
 20
100.9241251492135
 30
0.0
 10
178.0542439707226
 20
100.8994609872839
 30
0.0
  0
LINE
  5
B3
330
1F
100
AcDbEntity
  8
0
  6
Continuous
 62
     7
370
    15
100
AcDbLine
 10
178.0542439707
 20
115.9371681498
 30
0.0
 11
178.0542439707
 21
100.4192351966
 31
0.0
  0
SPLINE
  5
B4
330
1F
100
AcDbEntity
  8
0
  6
Continuous
 62
     7
370
    15
100
AcDbSpline
210
0.0
220
0.0
230
1.0
 70
     8
 71
     3
 72
    16
 73
    12
 74
     0
 42
0.00000001
 43
0.00000001
 40
0.0
 40
0.0
 40
0.0
 40
0.0
 40
0.4999999999999951
 40
0.4999999999999951
 40
0.7499999999999944
 40
0.7499999999999944
 40
0.8749999999999967
 40
0.8749999999999967
 40
0.9374999999999982
 40
0.9374999999999982
 40
1.0
 40
1.0
 40
1.0
 40
1.0
 10
178.0542439707226
 20
115.9371681497751
 30
0.0
 10
178.0542439707226
 20
116.050860693903
 30
0.0
 10
178.0500976956446
 20
116.1651808552525
 30
0.0
 10
178.0241321002511
 20
116.3382291457496
 30
0.0
 10
178.0126711948737
 20
116.3974046529113
 30
0.0
 10
177.9783594570994
 20
116.4805277723795
 30
0.0
 10
177.9643347211698
 20
116.5086490884802
 30
0.0
 10
177.9283117581359
 20
116.5372649024576
 30
0.0
 10
177.9135572490462
 20
116.5430579503594
 30
0.0
 10
177.8842050878994
 20
116.5414645244224
 30
0.0
 10
177.8708652133953
 20
116.5349681210986
 30
0.0
 10
177.8592670818469
 20
116.5264523748954
 30
0.0
  0
SPLINE
  5
B5
330
1F
100
AcDbEntity
  8
0
  6
Continuous
 62
     7
370
    15
100
AcDbSpline
210
0.0
220
0.0
230
1.0
 70
     8
 71
     3
 72
    12
 73
     8
 74
     0
 42
0.00000001
 43
0.00000001
 40
0.0
 40
0.0
 40
0.0
 40
0.0
 40
0.2500000000000002
 40
0.2500000000000002
 40
0.5000000000000003
 40
0.5000000000000003
 40
1.0
 40
1.0
 40
1.0
 40
1.0
 10
177.859267081854
 20
116.5264523748863
 30
0.0
 10
177.8290686404134
 20
116.5042796428412
 30
0.0
 10
177.7957012850774
 20
116.485199986964
 30
0.0
 10
177.7225460092475
 20
116.4600269425213
 30
0.0
 10
177.6822933102235
 20
116.4544704061045
 30
0.0
 10
177.5645645669487
 20
116.4653822170913
 30
0.0
 10
177.4941061188897
 20
116.5073179725021
 30
0.0
 10
177.4377316842715
 20
116.5565297548836
 30
0.0
  0
SPLINE
  5
B6
330
1F
100
AcDbEntity
  8
0
  6
Continuous
 62
     7
370
    15
100
AcDbSpline
210
0.0
220
0.0
230
1.0
 70
     8
 71
     3
 72
    12
 73
     8
 74
     0
 42
0.00000001
 43
0.00000001
 40
0.0
 40
0.0
 40
0.0
 40
0.0
 40
0.5000000000000016
 40
0.5000000000000016
 40
0.7500000000000008
 40
0.7500000000000008
 40
1.0
 40
1.0
 40
1.0
 40
1.0
 10
176.9329236271629
 20
117.7728811467642
 30
0.0
 10
176.9766739790474
 20
117.5524341617896
 30
0.0
 10
177.0295641301719
 20
117.3368891719841
 30
0.0
 10
177.1411756733135
 20
117.0244750954122
 30
0.0
 10
177.1837350172171
 20
116.9223956197962
 30
0.0
 10
177.2887122525545
 20
116.7279556071545
 30
0.0
 10
177.3502794956491
 20
116.6328707080908
 30
0.0
 10
177.4377316842715
 20
116.5565297548836
 30
0.0
  0
SPLINE
  5
B7
330
1F
100
AcDbEntity
  8
0
  6
Continuous
 62
     7
370
    15
100
AcDbSpline
210
0.0
220
0.0
230
1.0
 70
     8
 71
     3
 72
    12
 73
     8
 74
     0
 42
0.00000001
 43
0.00000001
 40
0.0
 40
0.0
 40
0.0
 40
0.0
 40
0.2500000000000003
 40
0.2500000000000003
 40
0.5000000000000007
 40
0.5000000000000007
 40
1.0
 40
1.0
 40
1.0
 40
1.0
 10
177.4377316842713
 20
129.3615811961668
 30
0.0
 10
177.3492382767035
 20
129.2843313160585
 30
0.0
 10
177.2891802359376
 20
129.1910119921693
 30
0.0
 10
177.183331962955
 20
128.9949789391998
 30
0.0
 10
177.1407984416775
 20
128.8926525809881
 30
0.0
 10
177.0296471348539
 20
128.5813081752122
 30
0.0
 10
176.9767162778061
 20
128.3658899220342
 30
0.0
 10
176.9329236271629
 20
128.1452298042863
 30
0.0
  0
SPLINE
  5
B8
330
1F
100
AcDbEntity
  8
0
  6
Continuous
 62
     7
370
    15
100
AcDbSpline
210
0.0
220
0.0
230
1.0
 70
     8
 71
     3
 72
    12
 73
     8
 74
     0
 42
0.00000001
 43
0.00000001
 40
0.0
 40
0.0
 40
0.0
 40
0.0
 40
0.4999999999999997
 40
0.4999999999999997
 40
0.7499999999999998
 40
0.7499999999999998
 40
1.0
 40
1.0
 40
1.0
 40
1.0
 10
177.4377316842714
 20
129.3615811961668
 30
0.0
 10
177.494040232567
 20
129.4107354634106
 30
0.0
 10
177.5643148932851
 20
129.4526927820143
 30
0.0
 10
177.6823528076087
 20
129.4636524595468
 30
0.0
 10
177.7225290484626
 20
129.4581437012994
 30
0.0
 10
177.7964861431406
 20
129.4325864725105
 30
0.0
 10
177.829102530852
 20
129.4138064246712
 30
0.0
 10
177.8592670818477
 20
129.3916585761544
 30
0.0
  0
SPLINE
  5
B9
330
1F
100
AcDbEntity
  8
0
  6
Continuous
 62
     7
370
    15
100
AcDbSpline
210
0.0
220
0.0
230
1.0
 70
     8
 71
     3
 72
    16
 73
    12
 74
     0
 42
0.00000001
 43
0.00000001
 40
0.0
 40
0.0
 40
0.0
 40
0.0
 40
0.0625000000000001
 40
0.0625000000000001
 40
0.1250000000000002
 40
0.1250000000000002
 40
0.2500000000000013
 40
0.2500000000000013
 40
0.500000000000002
 40
0.500000000000002
 40
1.0
 40
1.0
 40
1.0
 40
1.0
 10
177.859267081816
 20
129.3916585761
 30
0.0
 10
177.8708799816553
 20
129.3831319865047
 30
0.0
 10
177.8842311660878
 20
129.3766317249719
 30
0.0
 10
177.913631005707
 20
129.3750623278544
 30
0.0
 10
177.9284717302623
 20
129.380945718485
 30
0.0
 10
177.9643049382309
 20
129.4094933545355
 30
0.0
 10
177.9784181460525
 20
129.4376603738413
 30
0.0
 10
178.0129095172713
 20
129.5214146322633
 30
0.0
 10
178.0239935883817
 20
129.5791280458847
 30
0.0
 10
178.0501164061778
 20
129.7527185825305
 30
0.0
 10
178.0542439707226
 20
129.8677466351725
 30
0.0
 10
178.0542439707226
 20
129.9809428012753
 30
0.0
  0
LINE
  5
BA
330
1F
100
AcDbEntity
  8
0
  6
Continuous
 62
     7
370
    15
100
AcDbLine
 10
178.0542439707
 20
145.4988757544
 30
0.0
 11
178.0542439707
 21
129.9809428013
 31
0.0
  0
SPLINE
  5
BB
330
1F
100
AcDbEntity
  8
0
  6
Continuous
 62
     7
370
    15
100
AcDbSpline
210
0.0
220
0.0
230
1.0
 70
     8
 71
     3
 72
    16
 73
    12
 74
     0
 42
0.00000001
 43
0.00000001
 40
0.0
 40
0.0
 40
0.0
 40
0.0
 40
0.499999999999999
 40
0.499999999999999
 40
0.7499999999999984
 40
0.7499999999999984
 40
0.8749999999999967
 40
0.8749999999999967
 40
0.9374999999999983
 40
0.9374999999999983
 40
1.0
 40
1.0
 40
1.0
 40
1.0
 10
178.0542439707226
 20
145.0186499637665
 30
0.0
 10
178.0542439707226
 20
144.9939788077236
 30
0.0
 10
178.0500782722626
 20
144.9663969763323
 30
0.0
 10
178.0238199439377
 20
144.916054105509
 30
0.0
 10
178.0123161622001
 20
144.8977646074471
 30
0.0
 10
177.9781854028536
 20
144.8666095764101
 30
0.0
 10
177.9637635161828
 20
144.8549702011983
 30
0.0
 10
177.928196547745
 20
144.8380881752673
 30
0.0
 10
177.9132447794503
 20
144.8326990714596
 30
0.0
 10
177.8842409610906
 20
144.8260785755151
 30
0.0
 10
177.8708256070813
 20
144.8247259873087
 30
0.0
 10
177.8592670818447
 20
144.8244263634371
 30
0.0
  0
SPLINE
  5
BC
330
1F
100
AcDbEntity
  8
0
  6
Continuous
 62
     7
370
    15
100
AcDbSpline
210
0.0
220
0.0
230
1.0
 70
     8
 71
     3
 72
    12
 73
     8
 74
     0
 42
0.00000001
 43
0.00000001
 40
0.0
 40
0.0
 40
0.0
 40
0.0
 40
0.2500000000000001
 40
0.2500000000000001
 40
0.5000000000000001
 40
0.5000000000000001
 40
1.0
 40
1.0
 40
1.0
 40
1.0
 10
177.859267081854
 20
144.8244263634388
 30
0.0
 10
177.8290793053043
 20
144.8236438260212
 30
0.0
 10
177.7957255012127
 20
144.8227504942027
 30
0.0
 10
177.7225992980167
 20
144.8208231853991
 30
0.0
 10
177.6823640949926
 20
144.8197836541864
 30
0.0
 10
177.5646724648595
 20
144.8168657708392
 30
0.0
 10
177.4942917916994
 20
144.815270164769
 30
0.0
 10
177.4377316842688
 20
144.8138491780011
 30
0.0
  0
SPLINE
  5
BD
330
1F
100
AcDbEntity
  8
0
  6
Continuous
 62
     7
370
    15
100
AcDbSpline
210
0.0
220
0.0
230
1.0
 70
     8
 71
     3
 72
    16
 73
    12
 74
     0
 42
0.00000001
 43
0.00000001
 40
0.0
 40
0.0
 40
0.0
 40
0.0
 40
0.2500000000000001
 40
0.2500000000000001
 40
0.3750000000000002
 40
0.3750000000000002
 40
0.5000000000000001
 40
0.5000000000000001
 40
0.7500000000000001
 40
0.7500000000000001
 40
1.0
 40
1.0
 40
1.0
 40
1.0
 10
176.9329236271629
 20
128.1452298042863
 30
0.0
 10
176.7716911496785
 20
127.3328200290395
 30
0.0
 10
176.6512113100388
 20
126.4927417346547
 30
0.0
 10
176.5288307927255
 20
125.191446685292
 30
0.0
 10
176.4978531323281
 20
124.7507656497072
 30
0.0
 10
176.4562393947001
 20
123.854926008776
 30
0.0
 10
176.4460034817673
 20
123.4082678775736
 30
0.0
 10
176.4458150847112
 20
122.0729579204337
 30
0.0
 10
176.4859597873488
 20
121.1884625471262
 30
0.0
 10
176.6501135422884
 20
119.4312126591002
 30
0.0
 10
176.7716651926979
 20
118.5854217126871
 30
0.0
 10
176.9329236271629
 20
117.7728811467642
 30
0.0
  0
LINE
  5
BE
330
1F
100
AcDbEntity
  8
0
  6
Continuous
 62
     7
370
    15
100
AcDbLine
 10
176.0542439707
 20
129.4442337372
 30
0.0
 11
176.0542439707
 21
116.4738772138
 31
0.0
  0
LINE
  5
BF
330
1F
100
AcDbEntity
  8
0
  6
Continuous
 62
     7
370
    15
100
AcDbLine
 10
141.7542439707
 20
129.0133660431
 30
0.0
 11
141.7542439707
 21
116.904744908
 31
0.0
  0
LINE
  5
C0
330
1F
100
AcDbEntity
  8
0
  6
Continuous
 62
     7
370
    15
100
AcDbLine
 10
140.2542439707
 20
128.5803533412
 30
0.0
 11
140.2542439707
 21
117.3377576099
 31
0.0
  0
LINE
  5
C1
330
1F
100
AcDbEntity
  8
0
  6
Continuous
 62
     7
370
    15
100
AcDbLine
 10
141.7542439707
 20
129.0133660431
 30
0.0
 11
141.7542439707
 21
144.1174188718
 31
0.0
  0
LINE
  5
C2
330
1F
100
AcDbEntity
  8
0
  6
Continuous
 62
     7
370
    15
100
AcDbLine
 10
141.7542439707
 20
144.1174188718
 30
0.0
 11
176.0542439707
 21
144.9791542601
 31
0.0
  0
LINE
  5
C3
330
1F
100
AcDbEntity
  8
0
  6
Continuous
 62
     7
370
    15
100
AcDbLine
 10
176.0542439707
 20
129.4442337372
 30
0.0
 11
176.0542439707
 21
144.9791542601
 31
0.0
  0
ARC
  5
C4
330
1F
100
AcDbEntity
  8
0
  6
Continuous
 62
     7
370
    15
100
AcDbCircle
 10
176.2541808817
 20
144.9841773712
 30
0.0
 40
0.2000000000000059
100
AcDbArc
 50
181.4391666667
 51
271.4391666667
  0
LINE
  5
C5
330
1F
100
AcDbEntity
  8
0
  6
Continuous
 62
     7
370
    15
100
AcDbLine
 10
141.7542439707
 20
101.8006920792
 30
0.0
 11
141.7542439707
 21
116.904744908
 31
0.0
  0
LINE
  5
C6
330
1F
100
AcDbEntity
  8
0
  6
Continuous
 62
     7
370
    15
100
AcDbLine
 10
176.0542439707
 20
100.938956691
 30
0.0
 11
176.0542439707
 21
116.4738772138
 31
0.0
  0
LINE
  5
C7
330
1F
100
AcDbEntity
  8
0
  6
Continuous
 62
     7
370
    15
100
AcDbLine
 10
141.7542439707
 20
101.8006920792
 30
0.0
 11
176.0542439707
 21
100.938956691
 31
0.0
  0
ARC
  5
C8
330
1F
100
AcDbEntity
  8
0
  6
Continuous
 62
     7
370
    15
100
AcDbCircle
 10
176.2541808817
 20
100.9339335798
 30
0.0
 40
0.2000000000000063
100
AcDbArc
 50
88.5608333333
 51
178.5608333333
  0
LINE
  5
C9
330
1F
100
AcDbEntity
  8
0
  6
Continuous
 62
     7
370
    15
100
AcDbLine
 10
176.2592039928
 20
144.7842404603
 30
0.0
 11
177.4377316843
 21
144.813849178
 31
0.0
  0
LINE
  5
CA
330
1F
100
AcDbEntity
  8
0
  6
Continuous
 62
     7
370
    15
100
AcDbLine
 10
176.2592039928
 20
101.1338704908
 30
0.0
 11
177.4377316843
 21
101.104261773
 31
0.0
  0
LINE
  5
CB
330
1F
100
AcDbEntity
  8
0
  6
Continuous
 62
     7
370
    15
100
AcDbLine
 10
140.2542439707
 20
143.251393468
 30
0.0
 11
141.7542439707
 21
144.1174188718
 31
0.0
  0
LINE
  5
CC
330
1F
100
AcDbEntity
  8
0
  6
Continuous
 62
     7
370
    15
100
AcDbLine
 10
140.2542439707
 20
128.5803533412
 30
0.0
 11
140.2542439707
 21
143.251393468
 31
0.0
  0
LINE
  5
CD
330
1F
100
AcDbEntity
  8
0
  6
Continuous
 62
     7
370
    15
100
AcDbLine
 10
140.2542439707
 20
102.666717483
 30
0.0
 11
141.7542439707
 21
101.8006920792
 31
0.0
  0
LINE
  5
CE
330
1F
100
AcDbEntity
  8
0
  6
Continuous
 62
     7
370
    15
100
AcDbLine
 10
140.2542439707
 20
102.666717483
 30
0.0
 11
140.2542439707
 21
117.3377576099
 31
0.0
  0
ELLIPSE
  5
CF
330
1F
100
AcDbEntity
  8
0
  6
Continuous
 62
     7
370
    15
100
AcDbEllipse
 10
214.8901828418
 20
146.7551245468
 30
0.0
 11
-5.98760546841757
 21
8.554242125761363
 31
0.0
210
0.0
220
0.0
230
1.0
 40
0.0450608875
 41
4.802856816624975
 42
5.225899799950845
  0
LINE
  5
D0
330
1F
100
AcDbEntity
  8
0
  6
Continuous
 62
     7
370
    15
100
AcDbLine
 10
242.1659810413
 20
114.0565844148
 30
0.0
 11
236.0438647443
 21
122.9602038562
 31
0.0
  0
LINE
  5
D1
330
1F
100
AcDbEntity
  8
0
  6
Continuous
 62
     7
370
    15
100
AcDbLine
 10
242.1659810413
 20
114.0565844148
 30
0.0
 11
243.1464251537
 21
107.5549101098
 31
0.0
  0
LINE
  5
D2
330
1F
100
AcDbEntity
  8
0
  6
Continuous
 62
     7
370
    15
100
AcDbLine
 10
214.733121152
 20
147.7966565835
 30
0.0
 11
243.1464251537
 21
107.5549101098
 31
0.0
  0
SPLINE
  5
D3
330
1F
100
AcDbEntity
  8
0
  6
Continuous
 62
     7
370
    15
100
AcDbSpline
210
0.0
220
0.0
230
1.0
 70
     8
 71
     3
 72
    10
 73
     6
 74
     0
 42
0.00000001
 43
0.00000001
 40
0.0
 40
0.0
 40
0.0
 40
0.0
 40
0.5
 40
0.5
 40
1.0
 40
1.0
 40
1.0
 40
1.0
 10
215.4869169827437
 20
150.550091151677
 30
0.0
 10
215.6581979620337
 20
150.350795591325
 30
0.0
 10
215.81237991005
 20
150.1789089389906
 30
0.0
 10
216.094672270937
 20
149.8769270257312
 30
0.0
 10
216.2235761451982
 20
149.7458844514986
 30
0.0
 10
216.3260962743146
 20
149.6553472783928
 30
0.0
  0
ELLIPSE
  5
D4
330
1F
100
AcDbEntity
  8
0
  6
Continuous
 62
     7
370
    15
100
AcDbEllipse
 10
233.019931603
 20
122.9590554755
 30
0.0
 11
-22.08548473293277
 21
31.92473128420266
 31
0.0
210
0.0
220
0.0
230
0.9999999999999998
 40
0.0641414938
 41
4.668081008806457
 42
5.656912498289205
  0
SPLINE
  5
D5
330
1F
100
AcDbEntity
  8
0
  6
Continuous
 62
     7
370
    15
100
AcDbSpline
210
0.0
220
0.0
230
1.0
 70
     8
 71
     3
 72
     8
 73
     4
 74
     0
 42
0.00000001
 43
0.00000001
 40
0.0
 40
0.0
 40
0.0
 40
0.0
 40
1.0
 40
1.0
 40
1.0
 40
1.0
 10
216.4528428090327
 20
90.82922565328487
 30
0.0
 10
217.3170391340045
 20
87.54261951521845
 30
0.0
 10
218.1896515794733
 20
84.25821794609617
 30
0.0
 10
219.0659151382771
 20
80.97477277144
 30
0.0
  0
SPLINE
  5
D6
330
1F
100
AcDbEntity
  8
0
  6
Continuous
 62
     7
370
    15
100
AcDbSpline
210
0.0
220
0.0
230
1.0
 70
     8
 71
     3
 72
    10
 73
     6
 74
     0
 42
0.00000001
 43
0.00000001
 40
0.0
 40
0.0
 40
0.0
 40
0.0
 40
0.5
 40
0.5
 40
1.0
 40
1.0
 40
1.0
 40
1.0
 10
215.4869169827437
 20
91.5870324659332
 30
0.0
 10
215.709642332606
 20
91.58648831678777
 30
0.0
 10
215.9279521787803
 20
91.50818796020916
 30
0.0
 10
216.2735297162972
 20
91.23337001036099
 30
0.0
 10
216.3968852814345
 20
91.0420365023491
 30
0.0
 10
216.4528428090327
 20
90.82922565328488
 30
0.0
  0
LINE
  5
D7
330
1F
100
AcDbEntity
  8
0
  6
Continuous
 62
     7
370
    15
100
AcDbLine
 10
243.1464251537
 20
107.5549101098
 30
0.0
 11
243.1464251537
 21
94.1821055041
 31
0.0
  0
LINE
  5
D8
330
1F
100
AcDbEntity
  8
0
  6
Continuous
 62
     7
370
    15
100
AcDbLine
 10
243.1464251537
 20
94.1821055041
 30
0.0
 11
232.9650338504
 21
88.3448994144
 31
0.0
  0
LINE
  5
D9
330
1F
100
AcDbEntity
  8
0
  6
Continuous
 62
     7
370
    15
100
AcDbLine
 10
232.9650338504
 20
88.3448994144
 30
0.0
 11
230.5309363764
 21
89.7182824147
 31
0.0
  0
ARC
  5
DA
330
1F
100
AcDbEntity
  8
0
  6
Continuous
 62
     7
370
    15
100
AcDbCircle
 10
229.5237946354
 20
88.0123743999
 30
0.0
 40
1.981024139460182
100
AcDbArc
 50
59.4430539567
 51
239.9445181004
  0
LINE
  5
DB
330
1F
100
AcDbEntity
  8
0
  6
Continuous
 62
     7
370
    15
100
AcDbLine
 10
228.5316217264
 20
86.2977171281
 30
0.0
 11
229.9213480559
 21
85.5135963045
 31
0.0
  0
LINE
  5
DC
330
1F
100
AcDbEntity
  8
0
  6
Continuous
 62
     7
370
    15
100
AcDbLine
 10
236.7625727417
 20
80.9747727714
 30
0.0
 11
236.7655963433
 21
81.6201242872
 31
0.0
  0
LINE
  5
DD
330
1F
100
AcDbEntity
  8
0
  6
Continuous
 62
     7
370
    15
100
AcDbLine
 10
236.7625727417
 20
80.9747727714
 30
0.0
 11
219.0659151383
 21
80.9747727714
 31
0.0
  0
LINE
  5
DE
330
1F
100
AcDbEntity
  8
0
  6
Continuous
 62
     7
370
    15
100
AcDbLine
 10
219.0283480932
 20
81.1282733924
 30
0.0
 11
219.0659151383
 21
80.9747727714
 31
0.0
  0
ARC
  5
DF
330
1F
100
AcDbEntity
  8
0
  6
Continuous
 62
     7
370
    15
100
AcDbCircle
 10
229.3199963866
 20
89.1653722439
 30
0.0
 40
1.96511495109668
100
AcDbArc
 50
206.1155286598
 51
240.6746342977
  0
LINE
  5
E0
330
1F
100
AcDbEntity
  8
0
  6
Continuous
 62
     7
370
    15
100
AcDbLine
 10
228.3575450202
 20
87.4520818021
 30
0.0
 11
229.6285139881
 21
86.7349670632
 31
0.0
  0
LINE
  5
E1
330
1F
100
AcDbEntity
  8
0
  6
Continuous
 62
     7
370
    15
100
AcDbLine
 10
242.9723484475
 20
93.9350165894
 30
0.0
 11
242.9186936696
 21
93.9347726138
 31
0.0
  0
LINE
  5
E2
330
1F
100
AcDbEntity
  8
0
  6
Continuous
 62
     7
370
    15
100
AcDbLine
 10
242.8608404844
 20
93.2732346233
 30
0.0
 11
242.8595290812
 21
93.1142241816
 31
0.0
  0
LINE
  5
E3
330
1F
100
AcDbEntity
  8
0
  6
Continuous
 62
     7
370
    15
100
AcDbLine
 10
242.9723484475
 20
94.0823036618
 30
0.0
 11
242.9723484475
 21
93.9350165894
 31
0.0
  0
ARC
  5
E4
330
1F
100
AcDbEntity
  8
0
  6
HIDDEN
 62
     7
370
     0
100
AcDbCircle
 10
199.7131813457
 20
107.6096803807
 30
0.0
 40
2.542009474463286
100
AcDbArc
 50
1.563878409
 51
65.6666277987
  0
ARC
  5
E5
330
1F
100
AcDbEntity
  8
0
  6
HIDDEN
 62
     7
370
     0
100
AcDbCircle
 10
199.2307935302
 20
107.3516208086
 30
0.0
 40
2.994505091204745
100
AcDbArc
 50
59.2780323529
 51
173.7224311492
  0
ARC
  5
E6
330
1F
100
AcDbEntity
  8
0
  6
HIDDEN
 62
     7
370
     0
100
AcDbCircle
 10
199.5571597383
 20
107.4023935608
 30
0.0
 40
2.607690002169601
100
AcDbArc
 50
24.632113218
 51
64.2439280751
  0
ARC
  5
E7
330
1F
100
AcDbEntity
  8
0
  6
HIDDEN
 62
     7
370
     0
100
AcDbCircle
 10
199.2582185311
 20
107.0850571905
 30
0.0
 40
3.026253539558491
100
AcDbArc
 50
61.7563757901
 51
151.4555910311
  0
LWPOLYLINE
  5
E8
330
1F
100
AcDbEntity
  8
0
  6
HIDDEN
 62
     7
370
     0
100
AcDbPolyline
 90
       29
 70
   128
 43
0.0
 10
200.7606039954
 20
110.2008664616
 10
201.3001433483
 20
109.8542454141
 10
201.7370927635
 20
109.4123409086
 10
202.0495417727
 20
108.8973118822
 10
202.221822878
 20
108.3349840409
 10
202.2452971853
 20
107.7535548507
 10
202.1187875949
 20
107.1821795991
 10
201.848637826
 20
106.6495094269
 10
201.4483943158
 20
106.182254641
 10
200.9381269454
 20
105.8038453473
 10
200.3434226514
 20
105.5332565679
 10
199.6941023903
 20
105.3840567541
 10
199.0227257913
 20
105.3637274076
 10
198.3629584806
 20
105.4732879267
 10
197.7478839461
 20
105.7072444895
 10
197.2083445932
 20
106.0538655369
 10
196.771395178
 20
106.4957700424
 10
196.4589461688
 20
107.0107990688
 10
196.2866650635
 20
107.5731269101
 10
196.2631907561
 20
108.1545561003
 10
196.3897003465
 20
108.725931352
 10
196.6598501155
 20
109.2586015241
 10
197.0600936256
 20
109.7258563101
 10
197.570360996
 20
110.1042656038
 10
198.1650652901
 20
110.3748543832
 10
198.8143855512
 20
110.5240541969
 10
199.4857621501
 20
110.5443835434
 10
200.1455294608
 20
110.4348230244
 10
200.7606039954
 20
110.2008664616
  0
LWPOLYLINE
  5
E9
330
1F
100
AcDbEntity
  8
0
  6
HIDDEN
 62
     7
370
     0
100
AcDbPolyline
 90
       26
 70
   128
 43
0.0
 10
200.5095439913
 20
111.9097101274
 10
201.0077726954
 20
111.5805308705
 10
201.3958207407
 20
111.1543889923
 10
201.6493056414
 20
110.6580605544
 10
201.7523000089
 20
110.1227316979
 10
201.6983323283
 20
109.5820391036
 10
201.4907935875
 20
109.0699564758
 10
201.1427242088
 20
108.6186598493
 10
200.6759946714
 20
108.2565058508
 10
200.1199313087
 20
108.006249948
 10
199.5094736267
 20
107.8836166397
 10
198.8829789267
 20
107.8963114276
 10
198.2798121749
 20
108.0435366516
 10
197.7378725566
 20
108.3160416093
 10
197.291212131
 20
108.696703812
 10
196.9678962154
 20
109.1616048536
 10
196.7882399379
 20
109.6815332918
 10
196.7635317631
 20
110.2238201107
 10
196.8953241965
 20
110.7543914352
 10
197.1753362348
 20
111.2399095174
 10
197.5859736919
 20
111.6498674709
 10
198.101434706
 20
111.9585061295
 10
198.689330966
 20
112.1464325913
 10
199.3127227877
 20
112.2018387456
 10
199.9324401702
 20
112.1212432198
 10
200.5095439913
 20
111.9097101274
  0
LWPOLYLINE
  5
EA
330
1F
100
AcDbEntity
  8
0
  6
HIDDEN
 62
     7
370
     0
100
AcDbPolyline
 90
       28
 70
   128
 43
0.0
 10
200.6601799937
 20
110.3062100743
 10
201.1807039777
 20
109.9688921108
 10
201.5973720041
 20
109.5367079615
 10
201.8877213917
 20
109.032956786
 10
202.0360993299
 20
108.4847959405
 10
202.0345067256
 20
107.921776918
 10
201.8830294365
 20
107.3742522198
 10
201.5898336426
 20
106.871739044
 10
201.1707256049
 20
106.4413280062
 10
200.6482995462
 20
106.1062226766
 10
200.0507195906
 20
105.8844886704
 10
199.4102014282
 20
105.7880797252
 10
198.7612755589
 20
105.8221932723
 10
198.1389257443
 20
105.9849902414
 10
197.576703024
 20
106.2676942059
 10
197.1049169703
 20
106.6550645218
 10
196.7490016915
 20
107.1262179551
 10
196.5281446725
 20
107.6557545023
 10
196.4542523722
 20
108.2151267111
 10
196.5313083438
 20
108.7741786809
 10
196.7551584799
 20
109.3027717753
 10
197.1137349616
 20
109.7724094037
 10
197.587706838
 20
110.1577732801
 10
198.1515221627
 20
110.4380883381
 10
198.7747855054
 20
110.5982427205
 10
199.4238965781
 20
110.6296024629
 10
200.0638616348
 20
110.5304769535
 10
200.6601799937
 20
110.3062100743
  0
LWPOLYLINE
  5
EB
330
1F
100
AcDbEntity
  8
0
  6
HIDDEN
 62
     7
370
     0
100
AcDbPolyline
 90
       29
 70
   128
 43
0.0
 10
200.7606039954
 20
110.5458664616
 10
201.3001433483
 20
110.1992454141
 10
201.7370927635
 20
109.7573409086
 10
202.0495417727
 20
109.2423118822
 10
202.221822878
 20
108.6799840409
 10
202.2452971853
 20
108.0985548507
 10
202.1187875949
 20
107.5271795991
 10
201.848637826
 20
106.9945094269
 10
201.4483943158
 20
106.527254641
 10
200.9381269454
 20
106.1488453473
 10
200.3434226514
 20
105.8782565679
 10
199.6941023903
 20
105.7290567541
 10
199.0227257913
 20
105.7087274076
 10
198.3629584806
 20
105.8182879267
 10
197.7478839461
 20
106.0522444895
 10
197.2083445932
 20
106.3988655369
 10
196.771395178
 20
106.8407700424
 10
196.4589461688
 20
107.3557990688
 10
196.2866650635
 20
107.9181269101
 10
196.2631907561
 20
108.4995561003
 10
196.3897003465
 20
109.070931352
 10
196.6598501155
 20
109.6036015241
 10
197.0600936256
 20
110.0708563101
 10
197.570360996
 20
110.4492656038
 10
198.1650652901
 20
110.7198543832
 10
198.8143855512
 20
110.8690541969
 10
199.4857621501
 20
110.8893835434
 10
200.1455294608
 20
110.7798230244
 10
200.7606039954
 20
110.5458664616
  0
LWPOLYLINE
  5
EC
330
1F
100
AcDbEntity
  8
0
  6
HIDDEN
 62
     7
370
     0
100
AcDbPolyline
 90
       28
 70
   128
 43
0.0
 10
200.6601799937
 20
110.6512100743
 10
201.1807039777
 20
110.3138921108
 10
201.5973720041
 20
109.8817079615
 10
201.8877213917
 20
109.377956786
 10
202.0360993299
 20
108.8297959405
 10
202.0345067256
 20
108.266776918
 10
201.8830294365
 20
107.7192522198
 10
201.5898336426
 20
107.216739044
 10
201.1707256049
 20
106.7863280062
 10
200.6482995462
 20
106.4512226766
 10
200.0507195906
 20
106.2294886704
 10
199.4102014282
 20
106.1330797252
 10
198.7612755589
 20
106.1671932723
 10
198.1389257443
 20
106.3299902414
 10
197.576703024
 20
106.6126942059
 10
197.1049169703
 20
107.0000645218
 10
196.7490016915
 20
107.4712179551
 10
196.5281446725
 20
108.0007545023
 10
196.4542523722
 20
108.5601267111
 10
196.5313083438
 20
109.1191786809
 10
196.7551584799
 20
109.6477717753
 10
197.1137349616
 20
110.1174094037
 10
197.587706838
 20
110.5027732801
 10
198.1515221627
 20
110.7830883381
 10
198.7747855054
 20
110.9432427205
 10
199.4238965781
 20
110.9746024629
 10
200.0638616348
 20
110.8754769535
 10
200.6601799937
 20
110.6512100743
  0
LWPOLYLINE
  5
ED
330
1F
100
AcDbEntity
  8
0
  6
HIDDEN
 62
     7
370
     0
100
AcDbPolyline
 90
       29
 70
   128
 43
0.0
 10
200.7606039954
 20
110.8908664616
 10
201.3001433483
 20
110.5442454141
 10
201.7370927635
 20
110.1023409086
 10
202.0495417727
 20
109.5873118822
 10
202.221822878
 20
109.0249840409
 10
202.2452971853
 20
108.4435548507
 10
202.1187875949
 20
107.8721795991
 10
201.848637826
 20
107.3395094269
 10
201.4483943158
 20
106.872254641
 10
200.9381269454
 20
106.4938453473
 10
200.3434226514
 20
106.2232565679
 10
199.6941023903
 20
106.0740567541
 10
199.0227257913
 20
106.0537274076
 10
198.3629584806
 20
106.1632879267
 10
197.7478839461
 20
106.3972444895
 10
197.2083445932
 20
106.7438655369
 10
196.771395178
 20
107.1857700424
 10
196.4589461688
 20
107.7007990688
 10
196.2866650635
 20
108.2631269101
 10
196.2631907561
 20
108.8445561003
 10
196.3897003465
 20
109.415931352
 10
196.6598501155
 20
109.9486015241
 10
197.0600936256
 20
110.4158563101
 10
197.570360996
 20
110.7942656038
 10
198.1650652901
 20
111.0648543832
 10
198.8143855512
 20
111.2140541969
 10
199.4857621501
 20
111.2343835434
 10
200.1455294608
 20
111.1248230244
 10
200.7606039954
 20
110.8908664616
  0
LWPOLYLINE
  5
EE
330
1F
100
AcDbEntity
  8
0
  6
HIDDEN
 62
     7
370
     0
100
AcDbPolyline
 90
       28
 70
   128
 43
0.0
 10
200.6601799937
 20
110.9962100743
 10
201.1807039777
 20
110.6588921108
 10
201.5973720041
 20
110.2267079615
 10
201.8877213917
 20
109.722956786
 10
202.0360993299
 20
109.1747959405
 10
202.0345067256
 20
108.611776918
 10
201.8830294365
 20
108.0642522198
 10
201.5898336426
 20
107.561739044
 10
201.1707256049
 20
107.1313280062
 10
200.6482995462
 20
106.7962226766
 10
200.0507195906
 20
106.5744886704
 10
199.4102014282
 20
106.4780797252
 10
198.7612755589
 20
106.5121932723
 10
198.1389257443
 20
106.6749902414
 10
197.576703024
 20
106.9576942059
 10
197.1049169703
 20
107.3450645218
 10
196.7490016915
 20
107.8162179551
 10
196.5281446725
 20
108.3457545023
 10
196.4542523722
 20
108.9051267111
 10
196.5313083438
 20
109.4641786809
 10
196.7551584799
 20
109.9927717753
 10
197.1137349616
 20
110.4624094037
 10
197.587706838
 20
110.8477732801
 10
198.1515221627
 20
111.1280883381
 10
198.7747855054
 20
111.2882427205
 10
199.4238965781
 20
111.3196024629
 10
200.0638616348
 20
111.2204769535
 10
200.6601799937
 20
110.9962100743
  0
LWPOLYLINE
  5
EF
330
1F
100
AcDbEntity
  8
0
  6
HIDDEN
 62
     7
370
     0
100
AcDbPolyline
 90
       29
 70
   128
 43
0.0
 10
200.7606039954
 20
111.2358664616
 10
201.3001433483
 20
110.8892454141
 10
201.7370927635
 20
110.4473409086
 10
202.0495417727
 20
109.9323118822
 10
202.221822878
 20
109.3699840409
 10
202.2452971853
 20
108.7885548507
 10
202.1187875949
 20
108.2171795991
 10
201.848637826
 20
107.6845094269
 10
201.4483943158
 20
107.217254641
 10
200.9381269454
 20
106.8388453473
 10
200.3434226514
 20
106.5682565679
 10
199.6941023903
 20
106.4190567541
 10
199.0227257913
 20
106.3987274076
 10
198.3629584806
 20
106.5082879267
 10
197.7478839461
 20
106.7422444895
 10
197.2083445932
 20
107.0888655369
 10
196.771395178
 20
107.5307700424
 10
196.4589461688
 20
108.0457990688
 10
196.2866650635
 20
108.6081269101
 10
196.2631907561
 20
109.1895561003
 10
196.3897003465
 20
109.760931352
 10
196.6598501155
 20
110.2936015241
 10
197.0600936256
 20
110.7608563101
 10
197.570360996
 20
111.1392656038
 10
198.1650652901
 20
111.4098543832
 10
198.8143855512
 20
111.5590541969
 10
199.4857621501
 20
111.5793835434
 10
200.1455294608
 20
111.4698230244
 10
200.7606039954
 20
111.2358664616
  0
LWPOLYLINE
  5
F0
330
1F
100
AcDbEntity
  8
0
  6
HIDDEN
 62
     7
370
     0
100
AcDbPolyline
 90
       28
 70
   128
 43
0.0
 10
200.6601799937
 20
111.3412100743
 10
201.1807039777
 20
111.0038921108
 10
201.5973720041
 20
110.5717079615
 10
201.8877213917
 20
110.067956786
 10
202.0360993299
 20
109.5197959405
 10
202.0345067256
 20
108.956776918
 10
201.8830294365
 20
108.4092522198
 10
201.5898336426
 20
107.906739044
 10
201.1707256049
 20
107.4763280062
 10
200.6482995462
 20
107.1412226766
 10
200.0507195906
 20
106.9194886704
 10
199.4102014282
 20
106.8230797252
 10
198.7612755589
 20
106.8571932723
 10
198.1389257443
 20
107.0199902414
 10
197.576703024
 20
107.3026942059
 10
197.1049169703
 20
107.6900645218
 10
196.7490016915
 20
108.1612179551
 10
196.5281446725
 20
108.6907545023
 10
196.4542523722
 20
109.2501267111
 10
196.5313083438
 20
109.8091786809
 10
196.7551584799
 20
110.3377717753
 10
197.1137349616
 20
110.8074094037
 10
197.587706838
 20
111.1927732801
 10
198.1515221627
 20
111.4730883381
 10
198.7747855054
 20
111.6332427205
 10
199.4238965781
 20
111.6646024629
 10
200.0638616348
 20
111.5654769535
 10
200.6601799937
 20
111.3412100743
  0
LWPOLYLINE
  5
F1
330
1F
100
AcDbEntity
  8
0
  6
HIDDEN
 62
     7
370
     0
100
AcDbPolyline
 90
       29
 70
   128
 43
0.0
 10
200.7606039954
 20
111.5808664616
 10
201.3001433483
 20
111.2342454141
 10
201.7370927635
 20
110.7923409086
 10
202.0495417727
 20
110.2773118822
 10
202.221822878
 20
109.7149840409
 10
202.2452971853
 20
109.1335548507
 10
202.1187875949
 20
108.5621795991
 10
201.848637826
 20
108.0295094269
 10
201.4483943158
 20
107.562254641
 10
200.9381269454
 20
107.1838453473
 10
200.3434226514
 20
106.9132565679
 10
199.6941023903
 20
106.7640567541
 10
199.0227257913
 20
106.7437274076
 10
198.3629584806
 20
106.8532879267
 10
197.7478839461
 20
107.0872444895
 10
197.2083445932
 20
107.4338655369
 10
196.771395178
 20
107.8757700424
 10
196.4589461688
 20
108.3907990688
 10
196.2866650635
 20
108.9531269101
 10
196.2631907561
 20
109.5345561003
 10
196.3897003465
 20
110.105931352
 10
196.6598501155
 20
110.6386015241
 10
197.0600936256
 20
111.1058563101
 10
197.570360996
 20
111.4842656038
 10
198.1650652901
 20
111.7548543832
 10
198.8143855512
 20
111.9040541969
 10
199.4857621501
 20
111.9243835434
 10
200.1455294608
 20
111.8148230244
 10
200.7606039954
 20
111.5808664616
  0
LWPOLYLINE
  5
F2
330
1F
100
AcDbEntity
  8
0
  6
HIDDEN
 62
     7
370
     0
100
AcDbPolyline
 90
       29
 70
   128
 43
0.0
 10
200.7606039954
 20
112.9558664616
 10
201.3001433483
 20
112.6092454141
 10
201.7370927635
 20
112.1673409086
 10
202.0495417727
 20
111.6523118822
 10
202.221822878
 20
111.0899840409
 10
202.2452971853
 20
110.5085548507
 10
202.1187875949
 20
109.9371795991
 10
201.848637826
 20
109.4045094269
 10
201.4483943158
 20
108.937254641
 10
200.9381269454
 20
108.5588453473
 10
200.3434226514
 20
108.2882565679
 10
199.6941023903
 20
108.1390567541
 10
199.0227257913
 20
108.1187274076
 10
198.3629584806
 20
108.2282879267
 10
197.7478839461
 20
108.4622444895
 10
197.2083445932
 20
108.8088655369
 10
196.771395178
 20
109.2507700424
 10
196.4589461688
 20
109.7657990688
 10
196.2866650635
 20
110.3281269101
 10
196.2631907561
 20
110.9095561003
 10
196.3897003465
 20
111.480931352
 10
196.6598501155
 20
112.0136015241
 10
197.0600936256
 20
112.4808563101
 10
197.570360996
 20
112.8592656038
 10
198.1650652901
 20
113.1298543832
 10
198.8143855512
 20
113.2790541969
 10
199.4857621501
 20
113.2993835434
 10
200.1455294608
 20
113.1898230244
 10
200.7606039954
 20
112.9558664616
  0
LWPOLYLINE
  5
F3
330
1F
100
AcDbEntity
  8
0
  6
HIDDEN
 62
     7
370
     0
100
AcDbPolyline
 90
       26
 70
   128
 43
0.0
 10
200.4996947857
 20
112.7167073833
 10
200.9940143391
 20
112.3901108987
 10
201.3790177218
 20
111.967312571
 10
201.6305137554
 20
111.4748783741
 10
201.7327000192
 20
110.9437497597
 10
201.6791557742
 20
110.4072994919
 10
201.4732454025
 20
109.899234714
 10
201.1279070099
 20
109.4514790046
 10
200.6648394776
 20
109.0921665015
 10
200.1131390419
 20
108.8438741308
 10
199.5074710701
 20
108.7222030153
 10
198.8858919083
 20
108.7347981987
 10
198.2874576612
 20
108.8808682792
 10
197.7497701537
 20
109.1512351366
 10
197.3066142691
 20
109.5289106268
 10
196.9858351215
 20
109.9901640097
 10
196.8075884445
 20
110.5060130391
 10
196.7830741325
 20
111.0440450231
 10
196.9138325097
 20
111.5704534335
 10
197.1916475464
 20
112.0521620938
 10
197.5990631022
 20
112.4589034774
 10
198.1104797592
 20
112.7651205272
 10
198.6937633282
 20
112.9515724998
 10
199.3122639572
 20
113.006543932
 10
199.9271189771
 20
112.9265807666
 10
200.4996947857
 20
112.7167073833
  0
ARC
  5
F4
330
1F
100
AcDbEntity
  8
0
  6
HIDDEN
 62
     7
370
     0
100
AcDbCircle
 10
241.3668144627
 20
81.0589558968
 30
0.0
 40
0.0996918271874578
100
AcDbArc
 50
210.1671663354
 51
270.4689194752
  0
LINE
  5
F5
330
1F
100
AcDbEntity
  8
0
  6
HIDDEN
 62
     7
370
     0
100
AcDbLine
 10
240.7024060072
 20
82.013045542
 30
0.0
 11
241.2806246056
 21
81.0088583025
 31
0.0
  0
ARC
  5
F6
330
1F
100
AcDbEntity
  8
0
  6
HIDDEN
 62
     7
370
     0
100
AcDbCircle
 10
240.4869313646
 20
81.8878015564
 30
0.0
 40
0.2492295679685111
100
AcDbArc
 50
30.1671663354
 51
90.4689194752
  0
LINE
  5
F7
330
1F
100
AcDbEntity
  8
0
  6
HIDDEN
 62
     7
370
     0
100
AcDbLine
 10
236.905727201
 20
82.1207478245
 30
0.0
 11
240.4848916455
 21
82.1370227776
 31
0.0
  0
LINE
  5
F8
330
1F
100
AcDbEntity
  8
0
  6
HIDDEN
 62
     7
370
     0
100
AcDbLine
 10
236.905727201
 20
82.1207478245
 30
0.0
 11
230.8254258625
 21
85.551416721
 31
0.0
  0
ARC
  5
F9
330
1F
100
AcDbEntity
  8
0
  6
HIDDEN
 62
     7
370
     0
100
AcDbCircle
 10
231.4449518191
 20
86.6590474756
 30
0.0
 40
1.269117133874825
100
AcDbArc
 50
175.1541046592
 51
240.7806086998
  0
LINE
  5
FA
330
1F
100
AcDbEntity
  8
0
  6
HIDDEN
 62
     7
370
     0
100
AcDbLine
 10
240.5345976313
 20
93.3353475881
 30
0.0
 11
232.3930510404
 21
88.6676274382
 31
0.0
  0
ARC
  5
FB
330
1F
100
AcDbEntity
  8
0
  6
HIDDEN
 62
     7
370
     0
100
AcDbCircle
 10
241.4164225793
 20
91.8325495041
 30
0.0
 40
1.74241709133322
100
AcDbArc
 50
0.7303594883
 51
120.4039295198
  0
LINE
  5
FC
330
1F
100
AcDbEntity
  8
0
  6
HIDDEN
 62
     7
370
     0
100
AcDbLine
 10
243.1586981094
 20
83.4043101746
 30
0.0
 11
243.1586981094
 21
91.854759803
 31
0.0
  0
LINE
  5
FD
330
1F
100
AcDbEntity
  8
0
  6
HIDDEN
 62
     7
370
     0
100
AcDbLine
 10
241.787885307
 20
81.0111648867
 30
0.0
 11
243.1586981094
 21
83.4043101746
 31
0.0
  0
ARC
  5
FE
330
1F
100
AcDbEntity
  8
0
  6
HIDDEN
 62
     7
370
     0
100
AcDbCircle
 10
241.7006276926
 20
81.0615345822
 30
0.0
 40
0.100752158729204
100
AcDbArc
 50
270.1432335081
 51
330.0041919185
  0
LINE
  5
FF
330
1F
100
AcDbEntity
  8
0
  6
HIDDEN
 62
     7
370
     0
100
AcDbLine
 10
241.3676303503
 20
80.9592674083
 30
0.0
 11
241.7008795623
 21
80.9607827383
 31
0.0
  0
CIRCLE
  5
100
330
1F
100
AcDbEntity
  8
0
  6
HIDDEN
 62
     7
370
     0
100
AcDbCircle
 10
238.1660661869
 20
86.7243907987
 30
0.0
 40
3.009886204977517
  0
LINE
  5
101
330
1F
100
AcDbEntity
  8
0
  6
HIDDEN
 62
     7
370
     0
100
AcDbLine
 10
240.2056641163
 20
93.3559603767
 30
0.0
 11
240.5067761902
 21
93.5198414786
 31
0.0
  0
LINE
  5
102
330
1F
100
AcDbEntity
  8
0
  6
HIDDEN
 62
     7
370
     0
100
AcDbLine
 10
240.1640226734
 20
93.6320996244
 30
0.0
 11
231.9454123196
 21
88.920197196
 31
0.0
  0
LINE
  5
103
330
1F
100
AcDbEntity
  8
0
  6
HIDDEN
 62
     7
370
     0
100
AcDbLine
 10
240.2056641163
 20
93.3559603767
 30
0.0
 11
240.1640226734
 21
93.6320996244
 31
0.0
  0
ELLIPSE
  5
104
330
1F
100
AcDbEntity
  8
0
  6
HIDDEN
 62
     7
370
     0
100
AcDbEllipse
 10
241.3708461811
 20
92.1017913651
 30
0.0
 11
1.742869122870161
 21
0.1616128851061376
 31
0.0
210
0.0
220
0.0
230
0.9999999999999999
 40
0.9375704985
 41
6.189447877956952
 42
8.283842980350101
  0
ARC
  5
105
330
1F
100
AcDbEntity
  8
0
  6
HIDDEN
 62
     7
370
     0
100
AcDbCircle
 10
231.3763354585
 20
87.1296700881
 30
0.0
 40
1.271810914494148
100
AcDbArc
 50
188.6704560766
 51
240.742072388
  0
LINE
  5
106
330
1F
100
AcDbEntity
  8
0
  6
HIDDEN
 62
     7
370
     0
100
AcDbLine
 10
240.1509341993
 20
86.0345856502
 30
0.0
 11
242.5751032123
 21
86.0456086801
 31
0.0
  0
LINE
  5
107
330
1F
100
AcDbEntity
  8
0
  6
HIDDEN
 62
     7
370
     0
100
AcDbLine
 10
243.1202464998
 20
92.109746129
 30
0.0
 11
243.088020349
 21
87.7987634184
 31
0.0
  0
LINE
  5
108
330
1F
100
AcDbEntity
  8
0
  6
HIDDEN
 62
     7
370
     0
100
AcDbLine
 10
240.2056641163
 20
93.3559603767
 30
0.0
 11
240.1509341993
 21
86.0345856502
 31
0.0
  0
LINE
  5
109
330
1F
100
AcDbEntity
  8
0
  6
HIDDEN
 62
     7
370
     0
100
AcDbLine
 10
240.1509341993
 20
86.0345856502
 30
0.0
 11
240.1509341993
 21
93.1503149394
 31
0.0
  0
LINE
  5
10A
330
1F
100
AcDbEntity
  8
0
  6
HIDDEN
 62
     7
370
     0
100
AcDbLine
 10
241.7041190724
 20
81.5666486396
 30
0.0
 11
242.5751032123
 21
83.0872002325
 31
0.0
  0
LINE
  5
10B
330
1F
100
AcDbEntity
  8
0
  6
HIDDEN
 62
     7
370
     0
100
AcDbLine
 10
243.1586981094
 20
83.4043101746
 30
0.0
 11
243.088020349
 21
83.8729995911
 31
0.0
  0
CIRCLE
  5
10C
330
1F
100
AcDbEntity
  8
0
  6
HIDDEN
 62
     7
370
     0
100
AcDbCircle
 10
238.1030531589
 20
87.0139879684
 30
0.0
 40
1.992428502134039
  0
LINE
  5
10D
330
1F
100
AcDbEntity
  8
0
  6
HIDDEN
 62
     7
370
     0
100
AcDbLine
 10
240.1509341993
 20
93.1503149394
 30
0.0
 11
240.1640226734
 21
93.6320996244
 31
0.0
  0
LINE
  5
10E
330
1F
100
AcDbEntity
  8
0
  6
HIDDEN
 62
     7
370
     0
100
AcDbLine
 10
230.9915739592
 20
87.8990607858
 30
0.0
 11
240.1509341993
 21
93.1503149394
 31
0.0
  0
LINE
  5
10F
330
1F
100
AcDbEntity
  8
0
  6
HIDDEN
 62
     7
370
     0
100
AcDbLine
 10
237.8216182914
 20
82.6807771568
 30
0.0
 11
240.4011254109
 21
82.6925065305
 31
0.0
  0
LINE
  5
110
330
1F
100
AcDbEntity
  8
0
  6
HIDDEN
 62
     7
370
     0
100
AcDbLine
 10
236.905727201
 20
82.1207478245
 30
0.0
 11
236.8350494405
 21
82.589437241
 31
0.0
  0
LINE
  5
111
330
1F
100
AcDbEntity
  8
0
  6
HIDDEN
 62
     7
370
     0
100
AcDbLine
 10
240.6186397726
 20
82.5685292949
 30
0.0
 11
241.1968583711
 21
81.5643420554
 31
0.0
  0
CIRCLE
  5
112
330
1F
100
AcDbEntity
  8
0
  6
HIDDEN
 62
     7
370
     0
100
AcDbCircle
 10
238.0697526362
 20
87.2348156014
 30
0.0
 40
1.992428502134096
  0
ARC
  5
113
330
1F
100
AcDbEntity
  8
0
  6
HIDDEN
 62
     7
370
     0
100
AcDbCircle
 10
240.40316513
 20
82.4432853093
 30
0.0
 40
0.2492295679682902
100
AcDbArc
 50
30.1671663353
 51
90.4689194752
  0
ARC
  5
114
330
1F
100
AcDbEntity
  8
0
  6
HIDDEN
 62
     7
370
     0
100
AcDbCircle
 10
241.2830482281
 20
81.6144396497
 30
0.0
 40
0.0996918271872034
100
AcDbArc
 50
210.1671663353
 51
270.4689194753
  0
ARC
  5
115
330
1F
100
AcDbEntity
  8
0
  6
HIDDEN
 62
     7
370
     0
100
AcDbCircle
 10
241.616861458
 20
81.6170183351
 30
0.0
 40
0.1007521587294368
100
AcDbArc
 50
270.1432335082
 51
330.0041919185
  0
LINE
  5
116
330
1F
100
AcDbEntity
  8
0
  6
HIDDEN
 62
     7
370
     0
100
AcDbLine
 10
241.2838641157
 20
81.5147511612
 30
0.0
 11
241.6171133277
 21
81.5162664912
 31
0.0
  0
LINE
  5
117
330
1F
100
AcDbEntity
  8
0
  6
HIDDEN
 62
     7
370
     0
100
AcDbLine
 10
236.8350494405
 20
82.589437241
 30
0.0
 11
237.8216182914
 21
82.6807771568
 31
0.0
  0
LINE
  5
118
330
1F
100
AcDbEntity
  8
0
  6
HIDDEN
 62
     7
370
     0
100
AcDbLine
 10
237.8216182914
 20
82.6807771568
 30
0.0
 11
230.9915739592
 21
86.5344711347
 31
0.0
  0
LINE
  5
119
330
1F
100
AcDbEntity
  8
0
  6
HIDDEN
 62
     7
370
     0
100
AcDbLine
 10
230.7547481021
 20
86.0201061375
 30
0.0
 11
236.8350494405
 21
82.589437241
 31
0.0
  0
ARC
  5
11A
330
1F
100
AcDbEntity
  8
0
  6
HIDDEN
 62
     7
370
     0
100
AcDbCircle
 10
231.3747995261
 20
87.2167659602
 30
0.0
 40
0.7825522756392619
100
AcDbArc
 50
119.32168138
 51
240.67831862
  0
LINE
  5
11B
330
1F
100
AcDbEntity
  8
0
  6
HIDDEN
 62
     7
370
     0
100
AcDbLine
 10
242.5751032123
 20
83.0872002325
 30
0.0
 11
243.088020349
 21
83.8729995911
 31
0.0
  0
LINE
  5
11C
330
1F
100
AcDbEntity
  8
0
  6
HIDDEN
 62
     7
370
     0
100
AcDbLine
 10
243.088020349
 20
87.7987634184
 30
0.0
 11
242.5751032123
 21
86.0456086801
 31
0.0
  0
LINE
  5
11D
330
1F
100
AcDbEntity
  8
0
  6
HIDDEN
 62
     7
370
     0
100
AcDbLine
 10
242.5751032123
 20
86.0456086801
 30
0.0
 11
242.5751032123
 21
83.0872002325
 31
0.0
  0
LINE
  5
11E
330
1F
100
AcDbEntity
  8
0
  6
HIDDEN
 62
     7
370
     0
100
AcDbLine
 10
243.088020349
 20
83.8729995911
 30
0.0
 11
243.088020349
 21
87.7987634184
 31
0.0
  0
LINE
  5
11F
330
1F
100
AcDbEntity
  8
0
  6
HIDDEN
 62
     7
370
     0
100
AcDbLine
 10
242.1847460694
 20
94.2625527987
 30
0.0
 11
232.4096302523
 21
88.6582730027
 31
0.0
  0
LINE
  5
120
330
1F
100
AcDbEntity
  8
0
  6
HIDDEN
 62
     7
370
     0
100
AcDbLine
 10
242.1847460694
 20
94.2625527987
 30
0.0
 11
242.2724388463
 21
93.6810307449
 31
0.0
  0
LINE
  5
121
330
1F
100
AcDbEntity
  8
0
  6
HIDDEN
 62
     7
370
     0
100
AcDbLine
 10
242.7937457247
 20
94.2705577159
 30
0.0
 11
242.1847460694
 21
94.2625527987
 31
0.0
  0
LINE
  5
122
330
1F
100
AcDbEntity
  8
0
  6
HIDDEN
 62
     7
370
     0
100
AcDbLine
 10
242.7937457247
 20
94.2705577159
 30
0.0
 11
242.8340876775
 21
94.0030358501
 31
0.0
  0
LINE
  5
123
330
1F
100
AcDbEntity
  8
0
  6
HIDDEN
 62
     7
370
     0
100
AcDbLine
 10
242.8937114572
 20
94.1004385674
 30
0.0
 11
242.7937457247
 21
94.2705577159
 31
0.0
  0
LINE
  5
124
330
1F
100
AcDbEntity
  8
0
  6
HIDDEN
 62
     7
370
     0
100
AcDbLine
 10
242.8937114572
 20
94.1004385674
 30
0.0
 11
242.902486194
 21
94.0422501603
 31
0.0
  0
LINE
  5
125
330
1F
100
AcDbEntity
  8
0
  6
HIDDEN
 62
     7
370
     0
100
AcDbLine
 10
242.8131182918
 20
93.193204886
 30
0.0
 11
242.5846089994
 21
93.5820762048
 31
0.0
  0
LINE
  5
126
330
1F
100
AcDbEntity
  8
0
  6
HIDDEN
 62
     7
370
     0
100
AcDbLine
 10
242.5846089994
 20
93.5820762048
 30
0.0
 11
242.6775371659
 21
92.9658364165
 31
0.0
  0
LINE
  5
127
330
1F
100
AcDbEntity
  8
0
  6
HIDDEN
 62
     7
370
     0
100
AcDbLine
 10
229.8572000132
 20
86.0818337886
 30
0.0
 11
229.9501281797
 21
85.4655940003
 31
0.0
  0
CIRCLE
  5
128
330
1F
100
AcDbEntity
  8
0
  6
HIDDEN
 62
     7
370
     0
100
AcDbCircle
 10
238.4263697814
 20
86.3561013791
 30
0.0
 40
1.982072409141552
  0
CIRCLE
  5
129
330
1F
100
AcDbEntity
  8
0
  6
HIDDEN
 62
     7
370
     0
100
AcDbCircle
 10
238.4253484048
 20
86.6782899625
 30
0.0
 40
1.982072409141432
  0
LINE
  5
12A
330
1F
100
AcDbEntity
  8
0
  6
HIDDEN
 62
     7
370
     0
100
AcDbLine
 10
241.2062578299
 20
79.6783913458
 30
0.0
 11
241.2991859964
 21
79.0621515575
 31
0.0
  0
LINE
  5
12B
330
1F
100
AcDbEntity
  8
0
  6
HIDDEN
 62
     7
370
     0
100
AcDbLine
 10
242.363508449
 20
79.6836535236
 30
0.0
 11
242.4564366155
 21
79.0674137352
 31
0.0
  0
LINE
  5
12C
330
1F
100
AcDbEntity
  8
0
  6
HIDDEN
 62
     7
370
     0
100
AcDbLine
 10
243.163234309
 20
79.6872899871
 30
0.0
 11
243.2561624755
 21
79.0710501987
 31
0.0
  0
LINE
  5
12D
330
1F
100
AcDbEntity
  8
0
  6
HIDDEN
 62
     7
370
     0
100
AcDbLine
 10
242.8633371115
 20
79.1637337701
 30
0.0
 11
242.956265278
 21
78.5474939817
 31
0.0
  0
LINE
  5
12E
330
1F
100
AcDbEntity
  8
0
  6
HIDDEN
 62
     7
370
     0
100
AcDbLine
 10
242.6634056465
 20
79.1628246542
 30
0.0
 11
242.756333813
 21
78.5465848658
 31
0.0
  0
LINE
  5
12F
330
1F
100
AcDbEntity
  8
0
  6
HIDDEN
 62
     7
370
     0
100
AcDbLine
 10
230.9062505532
 20
87.7014975974
 30
0.0
 11
242.209318508
 21
94.1817845378
 31
0.0
  0
LINE
  5
130
330
1F
100
AcDbEntity
  8
0
  6
HIDDEN
 62
     7
370
     0
100
AcDbLine
 10
242.209318508
 20
94.1817845378
 30
0.0
 11
242.733704312
 21
94.1886772592
 31
0.0
  0
LINE
  5
131
330
1F
100
AcDbEntity
  8
0
  6
HIDDEN
 62
     7
370
     0
100
AcDbLine
 10
242.1847460694
 20
94.2625527987
 30
0.0
 11
242.209318508
 21
94.1817845378
 31
0.0
  0
LINE
  5
132
330
1F
100
AcDbEntity
  8
0
  6
HIDDEN
 62
     7
370
     0
100
AcDbLine
 10
242.7937457247
 20
94.2705577159
 30
0.0
 11
242.733704312
 21
94.1886772592
 31
0.0
  0
LINE
  5
133
330
1F
100
AcDbEntity
  8
0
  6
HIDDEN
 62
     7
370
     0
100
AcDbLine
 10
242.733704312
 20
94.1886772592
 30
0.0
 11
242.7753717524
 21
94.1177686659
 31
0.0
  0
LINE
  5
134
330
1F
100
AcDbEntity
  8
0
  6
HIDDEN
 62
     7
370
     0
100
AcDbLine
 10
242.8937114572
 20
94.1004385674
 30
0.0
 11
242.7753717524
 21
94.1177686659
 31
0.0
  0
LINE
  5
135
330
1F
100
AcDbEntity
  8
0
  6
HIDDEN
 62
     7
370
     0
100
AcDbLine
 10
242.7753717524
 20
94.1177686659
 30
0.0
 11
242.4662692947
 21
93.5994063033
 31
0.0
  0
LINE
  5
136
330
1F
100
AcDbEntity
  8
0
  6
HIDDEN
 62
     7
370
     0
100
AcDbLine
 10
242.5846089994
 20
93.5820762048
 30
0.0
 11
242.8937114572
 21
94.1004385674
 31
0.0
  0
LINE
  5
137
330
1F
100
AcDbEntity
  8
0
  6
HIDDEN
 62
     7
370
     0
100
AcDbLine
 10
242.5846089994
 20
93.5820762048
 30
0.0
 11
242.4662692947
 21
93.5994063033
 31
0.0
  0
LINE
  5
138
330
1F
100
AcDbEntity
  8
0
  6
HIDDEN
 62
     7
370
     0
100
AcDbLine
 10
242.4662692947
 20
93.5994063033
 30
0.0
 11
243.0606508817
 21
92.5879027919
 31
0.0
  0
LINE
  5
139
330
1F
100
AcDbEntity
  8
0
  6
HIDDEN
 62
     7
370
     0
100
AcDbLine
 10
243.0606508817
 20
92.5879027919
 30
0.0
 11
243.163234309
 21
92.5973863268
 31
0.0
  0
LINE
  5
13A
330
1F
100
AcDbEntity
  8
0
  6
HIDDEN
 62
     7
370
     0
100
AcDbLine
 10
243.0606508817
 20
92.5879027919
 30
0.0
 11
243.0606508817
 21
79.7301221208
 31
0.0
  0
LINE
  5
13B
330
1F
100
AcDbEntity
  8
0
  6
HIDDEN
 62
     7
370
     0
100
AcDbLine
 10
243.163234309
 20
79.6872899871
 30
0.0
 11
243.163234309
 21
92.5973863268
 31
0.0
  0
LINE
  5
13C
330
1F
100
AcDbEntity
  8
0
  6
HIDDEN
 62
     7
370
     0
100
AcDbLine
 10
230.3118689662
 20
86.6845886163
 30
0.0
 11
230.9062505532
 21
87.7014975974
 31
0.0
  0
LINE
  5
13D
330
1F
100
AcDbEntity
  8
0
  6
HIDDEN
 62
     7
370
     0
100
AcDbLine
 10
230.8356882528
 20
87.7558989017
 30
0.0
 11
230.9062505532
 21
87.7014975974
 31
0.0
  0
LINE
  5
13E
330
1F
100
AcDbEntity
  8
0
  6
HIDDEN
 62
     7
370
     0
100
AcDbLine
 10
230.2570629432
 20
86.7659468459
 30
0.0
 11
230.3118689662
 21
86.6845886163
 31
0.0
  0
LINE
  5
13F
330
1F
100
AcDbEntity
  8
0
  6
HIDDEN
 62
     7
370
     0
100
AcDbLine
 10
229.7028693109
 20
86.6870551231
 30
0.0
 11
230.3118689662
 21
86.6845886163
 31
0.0
  0
LINE
  5
140
330
1F
100
AcDbEntity
  8
0
  6
HIDDEN
 62
     7
370
     0
100
AcDbLine
 10
229.648063288
 20
86.7684133527
 30
0.0
 11
229.7028693109
 21
86.6870551231
 31
0.0
  0
LINE
  5
141
330
1F
100
AcDbEntity
  8
0
  6
HIDDEN
 62
     7
370
     0
100
AcDbLine
 10
229.6612018706
 20
86.6157675946
 30
0.0
 11
229.7028693109
 21
86.6870551231
 31
0.0
  0
LINE
  5
142
330
1F
100
AcDbEntity
  8
0
  6
HIDDEN
 62
     7
370
     0
100
AcDbLine
 10
229.6612018706
 20
86.6157675946
 30
0.0
 11
229.5480975555
 21
86.5973850884
 31
0.0
  0
LINE
  5
143
330
1F
100
AcDbEntity
  8
0
  6
HIDDEN
 62
     7
370
     0
100
AcDbLine
 10
229.9273579176
 20
86.1718465175
 30
0.0
 11
229.6612018706
 21
86.6157675946
 31
0.0
  0
LINE
  5
144
330
1F
100
AcDbEntity
  8
0
  6
HIDDEN
 62
     7
370
     0
100
AcDbLine
 10
229.5480975555
 20
86.5973850884
 30
0.0
 11
229.8572000132
 21
86.0818337886
 31
0.0
  0
LINE
  5
145
330
1F
100
AcDbEntity
  8
0
  6
HIDDEN
 62
     7
370
     0
100
AcDbLine
 10
229.9273579176
 20
86.1718465175
 30
0.0
 11
229.8572000132
 21
86.0818337886
 31
0.0
  0
LINE
  5
146
330
1F
100
AcDbEntity
  8
0
  6
HIDDEN
 62
     7
370
     0
100
AcDbLine
 10
241.2304258723
 20
79.7943527868
 30
0.0
 11
229.9273579176
 21
86.1718465175
 31
0.0
  0
LINE
  5
147
330
1F
100
AcDbEntity
  8
0
  6
HIDDEN
 62
     7
370
     0
100
AcDbLine
 10
229.8572000132
 20
86.0818337886
 30
0.0
 11
241.2062578299
 21
79.6783913458
 31
0.0
  0
LINE
  5
148
330
1F
100
AcDbEntity
  8
0
  6
HIDDEN
 62
     7
370
     0
100
AcDbLine
 10
241.2304258723
 20
79.7943527868
 30
0.0
 11
241.2062578299
 21
79.6783913458
 31
0.0
  0
LINE
  5
149
330
1F
100
AcDbEntity
  8
0
  6
HIDDEN
 62
     7
370
     0
100
AcDbLine
 10
242.4191890463
 20
79.7997582565
 30
0.0
 11
241.2304258723
 21
79.7943527868
 31
0.0
  0
LINE
  5
14A
330
1F
100
AcDbEntity
  8
0
  6
HIDDEN
 62
     7
370
     0
100
AcDbLine
 10
241.2062578299
 20
79.6783913458
 30
0.0
 11
242.363508449
 21
79.6836535236
 31
0.0
  0
LINE
  5
14B
330
1F
100
AcDbEntity
  8
0
  6
HIDDEN
 62
     7
370
     0
100
AcDbLine
 10
242.4191890463
 20
79.7997582565
 30
0.0
 11
242.363508449
 21
79.6836535236
 31
0.0
  0
LINE
  5
14C
330
1F
100
AcDbEntity
  8
0
  6
HIDDEN
 62
     7
370
     0
100
AcDbLine
 10
242.7190862438
 20
79.2789293871
 30
0.0
 11
242.4191890463
 21
79.7997582565
 31
0.0
  0
LINE
  5
14D
330
1F
100
AcDbEntity
  8
0
  6
HIDDEN
 62
     7
370
     0
100
AcDbLine
 10
242.363508449
 20
79.6836535236
 30
0.0
 11
242.6634056465
 21
79.1628246542
 31
0.0
  0
LINE
  5
14E
330
1F
100
AcDbEntity
  8
0
  6
HIDDEN
 62
     7
370
     0
100
AcDbLine
 10
243.0606508817
 20
79.7301221208
 30
0.0
 11
243.163234309
 21
79.6872899871
 31
0.0
  0
LINE
  5
14F
330
1F
100
AcDbEntity
  8
0
  6
HIDDEN
 62
     7
370
     0
100
AcDbLine
 10
243.0606508817
 20
79.7301221208
 30
0.0
 11
242.8024211246
 21
79.2793083223
 31
0.0
  0
LINE
  5
150
330
1F
100
AcDbEntity
  8
0
  6
HIDDEN
 62
     7
370
     0
100
AcDbLine
 10
242.8633371115
 20
79.1637337701
 30
0.0
 11
243.163234309
 21
79.6872899871
 31
0.0
  0
LINE
  5
151
330
1F
100
AcDbEntity
  8
0
  6
HIDDEN
 62
     7
370
     0
100
AcDbLine
 10
242.8024211246
 20
79.2793083223
 30
0.0
 11
242.8633371115
 21
79.1637337701
 31
0.0
  0
LINE
  5
152
330
1F
100
AcDbEntity
  8
0
  6
HIDDEN
 62
     7
370
     0
100
AcDbLine
 10
242.7190862438
 20
79.2789293871
 30
0.0
 11
242.6634056465
 21
79.1628246542
 31
0.0
  0
LINE
  5
153
330
1F
100
AcDbEntity
  8
0
  6
HIDDEN
 62
     7
370
     0
100
AcDbLine
 10
242.8024211246
 20
79.2793083223
 30
0.0
 11
242.7190862438
 21
79.2789293871
 31
0.0
  0
LINE
  5
154
330
1F
100
AcDbEntity
  8
0
  6
HIDDEN
 62
     7
370
     0
100
AcDbLine
 10
242.6634056465
 20
79.1628246542
 30
0.0
 11
242.8633371115
 21
79.1637337701
 31
0.0
  0
LINE
  5
155
330
1F
100
AcDbEntity
  8
0
  6
HIDDEN
 62
     7
370
     0
100
AcDbLine
 10
237.536044108
 20
88.6841770122
 30
0.0
 11
238.0748388162
 21
88.782154959
 31
0.0
  0
ARC
  5
156
330
1F
100
AcDbEntity
  8
0
  6
HIDDEN
 62
     7
370
     0
100
AcDbCircle
 10
238.2471607584
 20
86.0781380148
 30
0.0
 40
2.701319334352943
100
AcDbArc
 50
105.262868872
 51
266.3425173155
  0
ARC
  5
157
330
1F
100
AcDbEntity
  8
0
  6
HIDDEN
 62
     7
370
     0
100
AcDbCircle
 10
238.2958171274
 20
86.0709993873
 30
0.0
 40
2.767793471445369
100
AcDbArc
 50
48.5121849638
 51
106.0828469869
  0
ARC
  5
158
330
1F
100
AcDbEntity
  8
0
  6
HIDDEN
 62
     7
370
     0
100
AcDbCircle
 10
238.3040976991
 20
86.1107042027
 30
0.0
 40
2.732002322370459
100
AcDbArc
 50
106.4803926597
 51
9.0314902455
  0
ARC
  5
159
330
1F
100
AcDbEntity
  8
0
  6
HIDDEN
 62
     7
370
     0
100
AcDbCircle
 10
238.5341794559
 20
87.3355547391
 30
0.0
 40
0.2261165633230844
100
AcDbArc
 50
2.1502341307
 51
150.5772819452
  0
ARC
  5
15A
330
1F
100
AcDbEntity
  8
0
  6
HIDDEN
 62
     7
370
     0
100
AcDbCircle
 10
239.3216260268
 20
87.3596033337
 30
0.0
 40
0.5617049095630634
100
AcDbArc
 50
181.5878581319
 51
271.376169697
  0
ARC
  5
15B
330
1F
100
AcDbEntity
  8
0
  6
HIDDEN
 62
     7
370
     0
100
AcDbCircle
 10
237.4586530307
 20
87.0299856221
 30
0.0
 40
0.2249682586030596
100
AcDbArc
 50
61.0701101246
 51
210.1619990704
  0
ARC
  5
15C
330
1F
100
AcDbEntity
  8
0
  6
HIDDEN
 62
     7
370
     0
100
AcDbCircle
 10
236.7846513282
 20
86.6320736694
 30
0.0
 40
0.5588275027685975
100
AcDbArc
 50
300.6305745147
 51
8.4219879403
  0
LINE
  5
15D
330
1F
100
AcDbEntity
  8
0
  6
HIDDEN
 62
     7
370
     0
100
AcDbLine
 10
237.2765473395
 20
86.8953077933
 30
0.0
 11
237.2641436216
 21
86.9169510825
 31
0.0
  0
ARC
  5
15E
330
1F
100
AcDbEntity
  8
0
  6
HIDDEN
 62
     7
370
     0
100
AcDbCircle
 10
239.341065034
 20
86.5758910169
 30
0.0
 40
0.222249053070307
100
AcDbArc
 50
340.3103939631
 51
91.5338055455
  0
LWPOLYLINE
  5
15F
330
1F
100
AcDbEntity
  8
0
  6
HIDDEN
 62
     7
370
     0
100
AcDbPolyline
 90
        3
 70
   128
 43
0.0
 10
239.1866117687
 20
85.8228333907
 10
239.2129708856
 20
85.7184820138
 10
239.2599206935
 20
85.6198033417
  0
ARC
  5
160
330
1F
100
AcDbEntity
  8
0
  6
HIDDEN
 62
     7
370
     0
100
AcDbCircle
 10
237.18174766
 20
85.9606728095
 30
0.0
 40
0.2212141594439775
100
AcDbArc
 50
120.529667573
 51
217.0339507449
  0
LINE
  5
161
330
1F
100
AcDbEntity
  8
0
  6
HIDDEN
 62
     7
370
     0
100
AcDbLine
 10
237.7639275086
 20
85.192715824
 30
0.0
 11
237.7578834133
 21
85.2634506532
 31
0.0
  0
ARC
  5
162
330
1F
100
AcDbEntity
  8
0
  6
HIDDEN
 62
     7
370
     0
100
AcDbCircle
 10
239.0720124203
 20
85.5063684976
 30
0.0
 40
0.2194925579310843
100
AcDbArc
 50
340.5110324514
 51
31.1181779581
  0
LWPOLYLINE
  5
163
330
1F
100
AcDbEntity
  8
0
  6
HIDDEN
 62
     7
370
     0
100
AcDbPolyline
 90
        3
 70
   128
 43
0.0
 10
237.7639275086
 20
85.192715824
 10
237.7773206239
 20
85.1217125893
 10
237.7804787017
 20
85.1136132441
  0
ARC
  5
164
330
1F
100
AcDbEntity
  8
0
  6
HIDDEN
 62
     7
370
     0
100
AcDbCircle
 10
237.8392248078
 20
87.7330215088
 30
0.0
 40
0.5744775189069569
100
AcDbArc
 50
241.7687542783
 51
330.0980212602
  0
CIRCLE
  5
165
330
1F
100
AcDbEntity
  8
0
  6
HIDDEN
 62
     7
370
     0
100
AcDbCircle
 10
238.1910775154
 20
86.6864435929
 30
0.0
 40
1.38009592128172
  0
CIRCLE
  5
166
330
1F
100
AcDbEntity
  8
0
  6
HIDDEN
 62
     7
370
     0
100
AcDbCircle
 10
238.2156859612
 20
86.5232562189
 30
0.0
 40
1.380095921281755
  0
CIRCLE
  5
167
330
1F
100
AcDbEntity
  8
0
  6
HIDDEN
 62
     7
370
     0
100
AcDbCircle
 10
237.9759599085
 20
88.1053079346
 30
0.0
 40
1.578254492379429
  0
CIRCLE
  5
168
330
1F
100
AcDbEntity
  8
0
  6
HIDDEN
 62
     7
370
     0
100
AcDbCircle
 10
238.190152788
 20
86.6849186196
 30
0.0
 40
1.578254492379356
  0
CIRCLE
  5
169
330
1F
100
AcDbEntity
  8
0
  6
HIDDEN
 62
     7
370
     0
100
AcDbCircle
 10
237.9694443834
 20
88.1620512953
 30
0.0
 40
1.264528925100968
  0
LWPOLYLINE
  5
16A
330
1F
100
AcDbEntity
  8
0
  6
HIDDEN
 62
     7
370
     0
100
AcDbPolyline
 90
       27
 70
   128
 43
0.0
 10
239.4902588532
 20
93.0322775145
 10
239.4980146944
 20
92.4100960117
 10
239.5019145147
 20
91.7602416457
 10
239.5017316707
 20
91.1204815902
 10
239.4974767887
 20
90.5279963742
 10
239.4893971468
 20
90.0172190848
 10
239.4779623046
 20
89.6178342415
 10
239.4638368135
 20
89.3530526397
 10
239.4478415956
 20
89.2382624236
 10
239.4309062349
 20
89.2801347833
 10
239.4140149531
 20
89.4762362496
 10
239.39814941
 20
89.8151701179
 10
239.3842316533
 20
90.2772387838
 10
239.3730705324
 20
90.8355884961
 10
239.3653146912
 20
91.4577699989
 10
239.3614148708
 20
92.1076243648
 10
239.3615977148
 20
92.7473844203
 10
239.3658525969
 20
93.3398696363
 10
239.3739322387
 20
93.8506469257
 10
239.385367081
 20
94.250031769
 10
239.3994925721
 20
94.5148133708
 10
239.41548779
 20
94.6296035869
 10
239.4324231506
 20
94.5877312272
 10
239.4493144325
 20
94.391629761
 10
239.4651799756
 20
94.0526958926
 10
239.4790977323
 20
93.5906272267
 10
239.4902588532
 20
93.0322775145
  0
LWPOLYLINE
  5
16B
330
1F
100
AcDbEntity
  8
0
  6
HIDDEN
 62
     7
370
     0
100
AcDbPolyline
 90
       27
 70
   128
 43
0.0
 10
241.8719424299
 20
93.0431073573
 10
241.860781309
 20
93.6014570696
 10
241.8468635523
 20
94.0635257355
 10
241.8309980092
 20
94.4024596038
 10
241.8141067274
 20
94.59856107
 10
241.7971713667
 20
94.6404334298
 10
241.7811761489
 20
94.5256432137
 10
241.7670506577
 20
94.2608616118
 10
241.7556158155
 20
93.8614767685
 10
241.7475361736
 20
93.3506994792
 10
241.7432812916
 20
92.7582142631
 10
241.7430984476
 20
92.1184542077
 10
241.7469982679
 20
91.4685998417
 10
241.7547541092
 20
90.8464183389
 10
241.76591523
 20
90.2880686267
 10
241.7798329867
 20
89.8259999607
 10
241.7956985299
 20
89.4870660924
 10
241.8125898117
 20
89.2909646262
 10
241.8295251723
 20
89.2490922664
 10
241.8455203902
 20
89.3638824825
 10
241.8596458814
 20
89.6286640844
 10
241.8710807236
 20
90.0280489277
 10
241.8791603654
 20
90.5388262171
 10
241.8834152475
 20
91.1313114331
 10
241.8835980915
 20
91.7710714886
 10
241.8796982712
 20
92.4209258545
 10
241.8719424299
 20
93.0431073573
  0
LWPOLYLINE
  5
16C
330
1F
100
AcDbEntity
  8
0
  6
HIDDEN
 62
     7
370
     0
100
AcDbPolyline
 90
       21
 70
   128
 43
0.0
 10
239.3972134966
 20
91.2881471133
 10
239.4060806198
 20
90.8716193073
 10
239.4174520903
 20
90.5590781677
 10
239.4302147894
 20
90.3811173988
 10
239.4431194151
 20
90.3551570405
 10
239.4549027728
 20
90.4837382737
 10
239.4644114253
 20
90.7542746712
 10
239.4707145994
 20
91.1402842457
 10
239.4731952966
 20
91.6039816904
 10
239.471610689
 20
92.0999770687
 10
239.4661158889
 20
92.5797188972
 10
239.4572487657
 20
92.9962467032
 10
239.4458772952
 20
93.3087878428
 10
239.4331145962
 20
93.4867486117
 10
239.4202099705
 20
93.51270897
 10
239.4084266128
 20
93.3841277368
 10
239.3989179603
 20
93.1135913393
 10
239.3926147861
 20
92.7275817648
 10
239.3901340889
 20
92.2638843201
 10
239.3917186966
 20
91.7678889418
 10
239.3972134966
 20
91.2881471133
  0
LWPOLYLINE
  5
16D
330
1F
100
AcDbEntity
  8
0
  6
HIDDEN
 62
     7
370
     0
100
AcDbPolyline
 90
       26
 70
   128
 43
0.0
 10
242.1824433914
 20
92.9153934004
 10
242.1894921813
 20
92.3436874765
 10
242.1928493223
 20
91.747006334
 10
242.1923038729
 20
91.1628416435
 10
242.1878901056
 20
90.6278986209
 10
242.1798853538
 20
90.1757897037
 10
242.1687925853
 20
89.8349225579
 10
242.1553087996
 20
89.6267151199
 10
242.1402812327
 20
89.5642498287
 10
242.1246541217
 20
89.6514516084
 10
242.1094093755
 20
89.8828412504
 10
242.0955048776
 20
90.2438796925
 10
242.0838142988
 20
90.7118815616
 10
242.0750722011
 20
91.2574405791
 10
242.0698278826
 20
91.8462772654
 10
242.0684108632
 20
92.441392846
 10
242.0709101794
 20
93.0053940203
 10
242.0771687899
 20
93.5028425202
 10
242.0867934434
 20
93.902481827
 10
242.0991793873
 20
94.1792011333
 10
242.1135483673
 20
94.3156131473
 10
242.1289975275
 20
94.3031466006
 10
242.1445561404
 20
94.1425848121
 10
242.1592466011
 20
93.8440164695
 10
242.1721458539
 20
93.4262017198
 10
242.1824433914
 20
92.9153934004
  0
LWPOLYLINE
  5
16E
330
1F
100
AcDbEntity
  8
0
  6
HIDDEN
 62
     7
370
     0
100
AcDbPolyline
 90
       21
 70
   128
 43
0.0
 10
235.4660610662
 20
91.2702716224
 10
235.4605662661
 20
91.7500134509
 10
235.4589816585
 20
92.2460088292
 10
235.4614623557
 20
92.7097062739
 10
235.4677655298
 20
93.0957158484
 10
235.4772741823
 20
93.366252246
 10
235.48905754
 20
93.4948334791
 10
235.5019621657
 20
93.4688731208
 10
235.5147248648
 20
93.2909123519
 10
235.5260963353
 20
92.9783712123
 10
235.5349634585
 20
92.5618434064
 10
235.5404582585
 20
92.0821015779
 10
235.5420428662
 20
91.5861061995
 10
235.5395621689
 20
91.1224087548
 10
235.5332589948
 20
90.7363991804
 10
235.5237503423
 20
90.4658627828
 10
235.5119669846
 20
90.3372815497
 10
235.4990623589
 20
90.3632419079
 10
235.4862996599
 20
90.5412026769
 10
235.4749281894
 20
90.8537438165
 10
235.4660610662
 20
91.2702716224
  0
LWPOLYLINE
  5
16F
330
1F
100
AcDbEntity
  8
0
  6
HIDDEN
 62
     7
370
     0
100
AcDbPolyline
 90
       19
 70
   128
 43
0.0
 10
235.1555601047
 20
91.3979855793
 10
235.163580547
 20
91.0323454551
 10
235.1739578636
 20
90.7731199737
 10
235.1854403973
 20
90.6515755538
 10
235.1966431848
 20
90.6823722463
 10
235.2062150046
 20
90.8617955155
 10
235.2130013542
 20
91.1682042673
 10
235.2161836994
 20
91.5646410841
 10
235.2153782026
 20
92.0032898348
 10
235.2106820185
 20
92.4312430065
 10
235.2026615763
 20
92.7968831307
 10
235.1922842596
 20
93.0561086122
 10
235.180801726
 20
93.1776530321
 10
235.1695989385
 20
93.1468563396
 10
235.1600271186
 20
92.9674330703
 10
235.1532407691
 20
92.6610243185
 10
235.1500584238
 20
92.2645875018
 10
235.1508639206
 20
91.825938751
 10
235.1555601047
 20
91.3979855793
  0
ARC
  5
170
330
1F
100
AcDbEntity
  8
0
  6
HIDDEN
 62
     7
370
     0
100
AcDbCircle
 10
236.134803093
 20
91.8087873086
 30
0.0
 40
4.831998521986104
100
AcDbArc
 50
357.5325977354
 51
2.677828103
  0
ARC
  5
171
330
1F
100
AcDbEntity
  8
0
  6
HIDDEN
 62
     7
370
     0
100
AcDbCircle
 10
237.3343918829
 20
91.8142420039
 30
0.0
 40
4.831998522006477
100
AcDbArc
 50
357.5325977354
 51
2.677828103
  0
ARC
  5
172
330
1F
100
AcDbEntity
  8
0
  6
HIDDEN
 62
     7
370
     0
100
AcDbCircle
 10
249.9182338247
 20
91.1497679731
 30
0.0
 40
8.967260413009681
100
AcDbArc
 50
177.1171648778
 51
181.2576535194
  0
ARC
  5
173
330
1F
100
AcDbEntity
  8
0
  6
HIDDEN
 62
     7
370
     0
100
AcDbCircle
 10
251.1178226147
 20
91.1552226684
 30
0.0
 40
8.96726041299471
100
AcDbArc
 50
177.1171648778
 51
181.2576535194
  0
ARC
  5
174
330
1F
100
AcDbEntity
  8
0
  6
HIDDEN
 62
     7
370
     0
100
AcDbCircle
 10
254.5192930112
 20
92.6176112572
 30
0.0
 40
13.57030000793426
100
AcDbArc
 50
179.3734916657
 51
182.4625789475
  0
ARC
  5
175
330
1F
100
AcDbEntity
  8
0
  6
HIDDEN
 62
     7
370
     0
100
AcDbCircle
 10
255.7188818011
 20
92.6230659524
 30
0.0
 40
13.57030000788664
100
AcDbArc
 50
179.3734916657
 51
182.4625789475
  0
LWPOLYLINE
  5
176
330
1F
100
AcDbEntity
  8
0
  6
HIDDEN
 62
     7
370
     0
100
AcDbPolyline
 90
        9
 70
   128
 43
0.0
 10
240.9395423058
 20
93.0223385246
 10
240.9410269117
 20
93.0583703744
 10
240.9428239409
 20
93.0720187847
 10
240.9447439579
 20
93.0618449963
 10
240.9465845625
 20
93.0289214881
 10
240.9481517257
 20
92.9767189205
 10
240.9492802437
 20
92.9107402728
 10
240.9498511527
 20
92.8379407417
 10
240.9498042698
 20
92.7659945535
  0
LWPOLYLINE
  5
177
330
1F
100
AcDbEntity
  8
0
  6
HIDDEN
 62
     7
370
     0
100
AcDbPolyline
 90
        9
 70
   128
 43
0.0
 10
242.1391310957
 20
93.0277932199
 10
242.1406157017
 20
93.0638250696
 10
242.1424127309
 20
93.0774734799
 10
242.1443327479
 20
93.0672996915
 10
242.1461733525
 20
93.0343761834
 10
242.1477405157
 20
92.9821736158
 10
242.1488690336
 20
92.916194968
 10
242.1494399426
 20
92.8433954369
 10
242.1493930598
 20
92.7714492488
  0
LWPOLYLINE
  5
178
330
1F
100
AcDbEntity
  8
0
  6
HIDDEN
 62
     7
370
     0
100
AcDbPolyline
 90
        9
 70
   128
 43
0.0
 10
240.9531335875
 20
90.9529506662
 10
240.9534473512
 20
90.8795617897
 10
240.9531373367
 20
90.8102862027
 10
240.9522362246
 20
90.7524266518
 10
240.9508390063
 20
90.7120824521
 10
240.9490929708
 20
90.6935065228
 10
240.9471821781
 20
90.6986570615
 10
240.9453080559
 20
90.7269911199
 10
240.9436681665
 20
90.7755218383
  0
LWPOLYLINE
  5
179
330
1F
100
AcDbEntity
  8
0
  6
HIDDEN
 62
     7
370
     0
100
AcDbPolyline
 90
        9
 70
   128
 43
0.0
 10
242.1527223775
 20
90.9584053615
 10
242.1530361412
 20
90.8850164849
 10
242.1527261267
 20
90.8157408979
 10
242.1518250145
 20
90.757881347
 10
242.1504277962
 20
90.7175371474
 10
242.1486817608
 20
90.698961218
 10
242.146770968
 20
90.7041117568
 10
242.1448968459
 20
90.7324458151
 10
242.1432569565
 20
90.7809765335
  0
LWPOLYLINE
  5
17A
330
1F
100
AcDbEntity
  8
0
  6
HIDDEN
 62
     7
370
     0
100
AcDbPolyline
 90
        9
 70
   128
 43
0.0
 10
240.9395423058
 20
93.0223385246
 10
240.937425137
 20
92.9617139307
 10
240.9349631971
 20
92.9202448117
 10
240.9322500167
 20
92.8995066053
 10
240.9293886713
 20
92.9002871688
 10
240.9264878651
 20
92.9225568481
 10
240.9236578016
 20
92.9654696043
 10
240.9210059967
 20
93.0273951551
 10
240.918633194
 20
93.1059809104
  0
LWPOLYLINE
  5
17B
330
1F
100
AcDbEntity
  8
0
  6
HIDDEN
 62
     7
370
     0
100
AcDbPolyline
 90
        9
 70
   128
 43
0.0
 10
242.1391310957
 20
93.0277932199
 10
242.1370139269
 20
92.9671686259
 10
242.134551987
 20
92.925699507
 10
242.1318388067
 20
92.9049613006
 10
242.1289774613
 20
92.9057418641
 10
242.1260766551
 20
92.9280115434
 10
242.1232465916
 20
92.9709242996
 10
242.1205947866
 20
93.0328498504
 10
242.1182219839
 20
93.1114356056
  0
LWPOLYLINE
  5
17C
330
1F
100
AcDbEntity
  8
0
  6
HIDDEN
 62
     7
370
     0
100
AcDbPolyline
 90
        9
 70
   128
 43
0.0
 10
240.9227590547
 20
90.859164224
 10
240.9248762235
 20
90.9197888179
 10
240.9273381634
 20
90.9612579369
 10
240.9300513438
 20
90.9819961433
 10
240.9329126892
 20
90.9812155798
 10
240.9358134953
 20
90.9589459005
 10
240.9386435588
 20
90.9160331443
 10
240.9412953638
 20
90.8541075935
 10
240.9436681665
 20
90.7755218383
  0
LWPOLYLINE
  5
17D
330
1F
100
AcDbEntity
  8
0
  6
HIDDEN
 62
     7
370
     0
100
AcDbPolyline
 90
        9
 70
   128
 43
0.0
 10
242.1223478447
 20
90.8646189192
 10
242.1244650135
 20
90.9252435132
 10
242.1269269534
 20
90.9667126322
 10
242.1296401337
 20
90.9874508386
 10
242.1325014791
 20
90.9866702751
 10
242.1354022853
 20
90.9644005957
 10
242.1382323488
 20
90.9214878395
 10
242.1408841538
 20
90.8595622888
 10
242.1432569565
 20
90.7809765335
  0
LWPOLYLINE
  5
17E
330
1F
100
AcDbEntity
  8
0
  6
HIDDEN
 62
     7
370
     0
100
AcDbPolyline
 90
        9
 70
   128
 43
0.0
 10
240.9091677729
 20
92.9285520824
 10
240.9088540093
 20
93.0019409589
 10
240.9091640238
 20
93.0712165459
 10
240.9100651359
 20
93.1290760968
 10
240.9114623542
 20
93.1694202965
 10
240.9132083897
 20
93.1879962259
 10
240.9151191824
 20
93.1828456871
 10
240.9169933046
 20
93.1545116288
 10
240.918633194
 20
93.1059809104
  0
LWPOLYLINE
  5
17F
330
1F
100
AcDbEntity
  8
0
  6
HIDDEN
 62
     7
370
     0
100
AcDbPolyline
 90
        9
 70
   128
 43
0.0
 10
242.1087565629
 20
92.9340067776
 10
242.1084427993
 20
93.0073956542
 10
242.1087528137
 20
93.0766712412
 10
242.1096539259
 20
93.1345307921
 10
242.1110511442
 20
93.1748749918
 10
242.1127971796
 20
93.1934509211
 10
242.1147079724
 20
93.1883003824
 10
242.1165820946
 20
93.159966324
 10
242.1182219839
 20
93.1114356056
  0
LWPOLYLINE
  5
180
330
1F
100
AcDbEntity
  8
0
  6
HIDDEN
 62
     7
370
     0
100
AcDbPolyline
 90
        9
 70
   128
 43
0.0
 10
240.9227590547
 20
90.859164224
 10
240.9212744488
 20
90.8231323742
 10
240.9194774196
 20
90.809483964
 10
240.9175574026
 20
90.8196577523
 10
240.915716798
 20
90.8525812605
 10
240.9141496348
 20
90.9047838281
 10
240.9130211168
 20
90.9707624759
 10
240.9124502078
 20
91.0435620069
 10
240.9124970907
 20
91.1155081951
  0
LWPOLYLINE
  5
181
330
1F
100
AcDbEntity
  8
0
  6
HIDDEN
 62
     7
370
     0
100
AcDbPolyline
 90
        9
 70
   128
 43
0.0
 10
242.1223478447
 20
90.8646189192
 10
242.1208632387
 20
90.8285870695
 10
242.1190662096
 20
90.8149386592
 10
242.1171461925
 20
90.8251124476
 10
242.115305588
 20
90.8580359558
 10
242.1137384247
 20
90.9102385234
 10
242.1126099068
 20
90.9762171711
 10
242.1120389978
 20
91.0490167022
 10
242.1120858806
 20
91.1209628904
  0
ARC
  5
182
330
1F
100
AcDbEntity
  8
0
  6
HIDDEN
 62
     7
370
     0
100
AcDbCircle
 10
231.9440675358
 20
92.7317347755
 30
0.0
 40
8.96726041293792
100
AcDbArc
 50
357.1171648778
 51
1.2576535194
  0
ARC
  5
183
330
1F
100
AcDbEntity
  8
0
  6
HIDDEN
 62
     7
370
     0
100
AcDbCircle
 10
233.1436563258
 20
92.7371894707
 30
0.0
 40
8.967260412972225
100
AcDbArc
 50
357.1171648778
 51
1.2576535194
  0
ARC
  5
184
330
1F
100
AcDbEntity
  8
0
  6
HIDDEN
 62
     7
370
     0
100
AcDbCircle
 10
227.3430083495
 20
91.2638914915
 30
0.0
 40
13.57030000773876
100
AcDbArc
 50
359.3734916657
 51
2.4625789475
  0
ARC
  5
185
330
1F
100
AcDbEntity
  8
0
  6
HIDDEN
 62
     7
370
     0
100
AcDbCircle
 10
228.5425971394
 20
91.2693461867
 30
0.0
 40
13.57030000778454
100
AcDbArc
 50
359.3734916657
 51
2.4625789475
  0
ARC
  5
186
330
1F
100
AcDbEntity
  8
0
  6
HIDDEN
 62
     7
370
     0
100
AcDbCircle
 10
245.7274982675
 20
92.07271544
 30
0.0
 40
4.831998521998655
100
AcDbArc
 50
177.5325977354
 51
182.677828103
  0
ARC
  5
187
330
1F
100
AcDbEntity
  8
0
  6
HIDDEN
 62
     7
370
     0
100
AcDbCircle
 10
246.9270870575
 20
92.0781701352
 30
0.0
 40
4.831998521998967
100
AcDbArc
 50
177.5325977354
 51
182.677828103
  0
LWPOLYLINE
  5
188
330
1F
100
AcDbEntity
  8
0
  6
HIDDEN
 62
     7
370
     0
100
AcDbPolyline
 90
       29
 70
   128
 43
0.0
 10
199.2542439707
 20
113.3071316869
 10
199.9218067726
 20
113.2419924919
 10
200.5558951881
 20
113.0498412584
 10
201.1247133763
 20
112.7403132514
 10
201.5997384181
 20
112.3289294978
 10
201.9571505744
 20
111.8363184966
 10
202.1790277073
 20
111.2871818206
 10
202.2542439707
 20
110.7090554755
 10
202.1790277073
 20
110.1309291305
 10
201.9571505744
 20
109.5817924544
 10
201.5997384181
 20
109.0891814533
 10
201.1247133763
 20
108.6777976996
 10
200.5558951881
 20
108.3682696927
 10
199.9218067726
 20
108.1761184591
 10
199.2542439707
 20
108.1109792642
 10
198.5866811689
 20
108.1761184591
 10
197.9525927534
 20
108.3682696927
 10
197.3837745651
 20
108.6777976996
 10
196.9087495233
 20
109.0891814533
 10
196.551337367
 20
109.5817924544
 10
196.3294602342
 20
110.1309291305
 10
196.2542439707
 20
110.7090554755
 10
196.3294602342
 20
111.2871818206
 10
196.551337367
 20
111.8363184966
 10
196.9087495233
 20
112.3289294978
 10
197.3837745651
 20
112.7403132514
 10
197.9525927534
 20
113.0498412584
 10
198.5866811689
 20
113.2419924919
 10
199.2542439707
 20
113.3071316869
  0
SPLINE
  5
189
330
1F
100
AcDbEntity
  8
0
  6
HIDDEN
 62
     7
370
     0
100
AcDbSpline
210
0.0
220
0.0
230
1.0
 70
     8
 71
     3
 72
    12
 73
     8
 74
     0
 42
0.00000001
 43
0.00000001
 40
0.0
 40
0.0
 40
0.0
 40
0.0
 40
0.5000000000000003
 40
0.5000000000000003
 40
0.7500000000000001
 40
0.7500000000000001
 40
1.0
 40
1.0
 40
1.0
 40
1.0
 10
177.4377316842756
 20
138.4113234573561
 30
0.0
 10
177.4941378629558
 20
138.3635010836963
 30
0.0
 10
177.5643007644276
 20
138.3232302367578
 30
0.0
 10
177.6823114778168
 20
138.3151843682808
 30
0.0
 10
177.7225172614122
 20
138.3217469666197
 30
0.0
 10
177.7962379581453
 20
138.3491290610733
 30
0.0
 10
177.8290986799318
 20
138.3688905516036
 30
0.0
 10
177.859267081861
 20
138.3918232627917
 30
0.0
  0
SPLINE
  5
18A
330
1F
100
AcDbEntity
  8
0
  6
HIDDEN
 62
     7
370
     0
100
AcDbSpline
210
0.0
220
0.0
230
1.0
 70
     8
 71
     3
 72
    16
 73
    12
 74
     0
 42
0.00000001
 43
0.00000001
 40
0.0
 40
0.0
 40
0.0
 40
0.0
 40
0.0625000000000036
 40
0.0625000000000036
 40
0.1250000000000072
 40
0.1250000000000072
 40
0.2500000000000062
 40
0.2500000000000062
 40
0.5000000000000041
 40
0.5000000000000041
 40
1.0
 40
1.0
 40
1.0
 40
1.0
 10
177.8592670818159
 20
138.3918232628398
 30
0.0
 10
177.8708799816553
 20
138.4006508858212
 30
0.0
 10
177.8842311660878
 20
138.4084852677031
 30
0.0
 10
177.9136310057069
 20
138.4167953937755
 30
0.0
 10
177.9284717302622
 20
138.4162995745404
 30
0.0
 10
177.9643049382308
 20
138.4048486035711
 30
0.0
 10
177.9784181460524
 20
138.3881681027124
 30
0.0
 10
178.0129095172713
 20
138.3360474169554
 30
0.0
 10
178.0239935883817
 20
138.2962579229304
 30
0.0
 10
178.0501164061777
 20
138.1729212908333
 30
0.0
 10
178.0542439707226
 20
138.0854998803347
 30
0.0
 10
178.0542439707226
 20
137.9967626380164
 30
0.0
  0
SPLINE
  5
18B
330
1F
100
AcDbEntity
  8
0
  6
HIDDEN
 62
     7
370
     0
100
AcDbSpline
210
0.0
220
0.0
230
1.0
 70
     8
 71
     3
 72
    15
 73
    11
 74
     0
 42
0.00000001
 43
0.00000001
 40
0.0
 40
0.0
 40
0.0
 40
0.0
 40
0.4213981229228115
 40
0.5804177346767548
 40
0.7403657884171929
 40
0.8100405793976161
 40
0.8543986917585888
 40
0.8990834027461996
 40
0.9384333595497159
 40
1.0
 40
1.0
 40
1.0
 40
1.0
 10
178.0444073991524
 20
107.745822133041
 30
0.0
 10
178.0382734982778
 20
107.6980640114585
 30
0.0
 10
178.0298248966901
 20
107.6322837926264
 30
0.0
 10
177.998553300615
 20
107.5577726417141
 30
0.0
 10
177.9734728820186
 20
107.5225257606824
 30
0.0
 10
177.9444119221031
 20
107.5056694065708
 30
0.0
 10
177.9225463849353
 20
107.5015123109483
 30
0.0
 10
177.9023972165237
 20
107.5037409407707
 30
0.0
 10
177.8800797736726
 20
107.5118851967787
 30
0.0
 10
177.8671532338745
 20
107.520830429844
 30
0.0
 10
177.8592670818473
 20
107.5262876882421
 30
0.0
  0
SPLINE
  5
18C
330
1F
100
AcDbEntity
  8
0
  6
HIDDEN
 62
     7
370
     0
100
AcDbSpline
210
0.0
220
0.0
230
1.0
 70
     8
 71
     3
 72
    12
 73
     8
 74
     0
 42
0.00000001
 43
0.00000001
 40
0.0
 40
0.0
 40
0.0
 40
0.0
 40
0.2500000000000002
 40
0.2500000000000002
 40
0.5000000000000003
 40
0.5000000000000003
 40
1.0
 40
1.0
 40
1.0
 40
1.0
 10
177.859267081854
 20
107.5262876882506
 30
0.0
 10
177.8290752401368
 20
107.5492382173484
 30
0.0
 10
177.7957162707222
 20
107.5692076913726
 30
0.0
 10
177.7225789861416
 20
107.5963088249981
 30
0.0
 10
177.6823371134876
 20
107.6029095656435
 30
0.0
 10
177.5646313365191
 20
107.5949406911368
 30
0.0
 10
177.4942208587397
 20
107.554680232969
 30
0.0
 10
177.4377316842714
 20
107.5067874936908
 30
0.0
  0
SPLINE
  5
18D
330
1F
100
AcDbEntity
  8
0
  6
HIDDEN
 62
     7
370
     0
100
AcDbSpline
210
0.0
220
0.0
230
1.0
 70
     8
 71
     3
 72
    12
 73
     8
 74
     0
 42
0.00000001
 43
0.00000001
 40
0.0
 40
0.0
 40
0.0
 40
0.0
 40
0.2499999999999991
 40
0.2499999999999991
 40
0.4999999999999982
 40
0.4999999999999982
 40
1.0
 40
1.0
 40
1.0
 40
1.0
 10
177.4377316842711
 20
107.5067874936911
 30
0.0
 10
177.3495777465333
 20
107.432048685837
 30
0.0
 10
177.2892243219046
 20
107.3410681853546
 30
0.0
 10
177.1829623638377
 20
107.152154362602
 30
0.0
 10
177.1407301972757
 20
107.0556499030614
 30
0.0
 10
177.0296595019585
 20
106.7648821488942
 30
0.0
 10
176.9767227255317
 20
106.5692153343505
 30
0.0
 10
176.9329236271629
 20
106.3751488492842
 30
0.0
  0
SPLINE
  5
18E
330
1F
100
AcDbEntity
  8
0
  6
HIDDEN
 62
     7
370
     0
100
AcDbSpline
210
0.0
220
0.0
230
1.0
 70
     8
 71
     3
 72
    12
 73
     8
 74
     0
 42
0.00000001
 43
0.00000001
 40
0.0
 40
0.0
 40
0.0
 40
0.0
 40
0.5000000000000001
 40
0.5000000000000001
 40
0.7500000000000002
 40
0.7500000000000002
 40
1.0
 40
1.0
 40
1.0
 40
1.0
 10
176.9329236271629
 20
101.1889745205231
 30
0.0
 10
176.9766701679995
 20
101.1623803498819
 30
0.0
 10
177.029554523231
 20
101.1426201245562
 30
0.0
 10
177.1411216105672
 20
101.1221691343271
 30
0.0
 10
177.1837052071102
 20
101.1169089096707
 30
0.0
 10
177.288621934192
 20
101.109026115748
 30
0.0
 10
177.3501555420367
 20
101.1064619905689
 30
0.0
 10
177.4377316842629
 20
101.1042617730492
 30
0.0
  0
SPLINE
  5
18F
330
1F
100
AcDbEntity
  8
0
  6
HIDDEN
 62
     7
370
     0
100
AcDbSpline
210
0.0
220
0.0
230
1.0
 70
     8
 71
     3
 72
    12
 73
     8
 74
     0
 42
0.00000001
 43
0.00000001
 40
0.0
 40
0.0
 40
0.0
 40
0.0
 40
0.25
 40
0.25
 40
0.5
 40
0.5
 40
1.0
 40
1.0
 40
1.0
 40
1.0
 10
177.4377316842709
 20
144.8138491780011
 30
0.0
 10
177.3490470244145
 20
144.8116211106602
 30
0.0
 10
177.2891286086911
 20
144.8091193266298
 30
0.0
 10
177.1834693813704
 20
144.8011878907938
 30
0.0
 10
177.1408281432554
 20
144.7958957358969
 30
0.0
 10
177.0296388011529
 20
144.7754907954098
 30
0.0
 10
176.9767121190319
 20
144.755756103823
 30
0.0
 10
176.9329236271629
 20
144.7291364305273
 30
0.0
  0
SPLINE
  5
190
330
1F
100
AcDbEntity
  8
0
  6
HIDDEN
 62
     7
370
     0
100
AcDbSpline
210
0.0
220
0.0
230
1.0
 70
     8
 71
     3
 72
    12
 73
     8
 74
     0
 42
0.00000001
 43
0.00000001
 40
0.0
 40
0.0
 40
0.0
 40
0.0
 40
0.5000000000000029
 40
0.5000000000000029
 40
0.7500000000000014
 40
0.7500000000000014
 40
1.0
 40
1.0
 40
1.0
 40
1.0
 10
176.9329236271613
 20
139.5429621017664
 30
0.0
 10
176.9766851034601
 20
139.3490623138044
 30
0.0
 10
177.0295914191131
 20
139.1532059498675
 30
0.0
 10
177.1413026167605
 20
138.8610638033686
 30
0.0
 10
177.1838220603469
 20
138.7643458666706
 30
0.0
 10
177.2889454029143
 20
138.5776214302462
 30
0.0
 10
177.350511366632
 20
138.4852707219765
 30
0.0
 10
177.4377316842747
 20
138.4113234573568
 30
0.0
  0
LWPOLYLINE
  5
191
330
1F
100
AcDbEntity
  8
0
  6
HIDDEN
 62
     7
370
     0
100
AcDbPolyline
 90
       26
 70
   128
 43
0.0
 10
199.2542439707
 20
113.0243341397
 10
199.8759686886
 20
112.9563146883
 10
200.458628156
 20
112.7565302463
 10
200.9656117355
 20
112.4375340051
 10
201.3650637845
 20
112.0193696715
 10
201.6318852615
 20
111.5283120486
 10
201.7493107918
 20
110.9952160929
 10
201.7099620975
 20
110.4535781837
 10
201.5163116019
 20
109.937431423
 10
201.1805270777
 20
109.47920721
 10
200.7237071015
 20
109.1076974572
 10
200.1745553524
 20
108.8462454887
 10
199.5675770546
 20
108.7112792933
 10
198.9409108868
 20
108.7112792933
 10
198.333932589
 20
108.8462454887
 10
197.78478084
 20
109.1076974572
 10
197.3279608638
 20
109.47920721
 10
196.9921763396
 20
109.937431423
 10
196.7985258439
 20
110.4535781837
 10
196.7591771497
 20
110.9952160929
 10
196.87660268
 20
111.5283120486
 10
197.143424157
 20
112.0193696715
 10
197.5428762059
 20
112.4375340051
 10
198.0498597855
 20
112.7565302463
 10
198.6325192528
 20
112.9563146883
 10
199.2542439707
 20
113.0243341397
  0
SPLINE
  5
192
330
1F
100
AcDbEntity
  8
0
  6
HIDDEN
 62
     7
370
     0
100
AcDbSpline
210
0.0
220
0.0
230
1.0
 70
     8
 71
     3
 72
    62
 73
    58
 74
     0
 42
0.00000001
 43
0.00000001
 40
-0.0312500000000002
 40
-0.0312500000000002
 40
0.0
 40
0.0
 40
0.0312499999999999
 40
0.0312499999999999
 40
0.0624999999999999
 40
0.0624999999999999
 40
0.0937499999999998
 40
0.0937499999999998
 40
0.1249999999999997
 40
0.1249999999999997
 40
0.1874999999999996
 40
0.1874999999999996
 40
0.2187499999999994
 40
0.2187499999999994
 40
0.2499999999999992
 40
0.2499999999999992
 40
0.2812499999999991
 40
0.2812499999999991
 40
0.3124999999999989
 40
0.3124999999999989
 40
0.3749999999999985
 40
0.3749999999999985
 40
0.4062499999999983
 40
0.4062499999999983
 40
0.4374999999999981
 40
0.4374999999999981
 40
0.4687499999999978
 40
0.4687499999999978
 40
0.4999999999999976
 40
0.4999999999999976
 40
0.5624999999999978
 40
0.5624999999999978
 40
0.5937499999999979
 40
0.5937499999999979
 40
0.6249999999999981
 40
0.6249999999999981
 40
0.6562499999999982
 40
0.6562499999999982
 40
0.6874999999999983
 40
0.6874999999999983
 40
0.7187499999999986
 40
0.7187499999999986
 40
0.7499999999999987
 40
0.7499999999999987
 40
0.7812499999999988
 40
0.7812499999999988
 40
0.812499999999999
 40
0.812499999999999
 40
0.8749999999999989
 40
0.8749999999999989
 40
0.9062499999999992
 40
0.9062499999999992
 40
0.9374999999999994
 40
0.9374999999999994
 40
0.9687499999999998
 40
0.9687499999999998
 40
1.0
 40
1.0
 40
1.03125
 40
1.03125
 10
199.0882001517866
 20
120.8012148685387
 30
0.0
 10
199.4202877896589
 20
120.8012148685387
 30
0.0
 10
199.583384520236
 20
120.7846412244833
 30
0.0
 10
199.9039808251445
 20
120.7201526536547
 30
0.0
 10
200.0631830284509
 20
120.6714086281962
 30
0.0
 10
200.365493530165
 20
120.5458310846264
 30
0.0
 10
200.5087451044095
 20
120.4694567563056
 30
0.0
 10
200.7798559454766
 20
120.2908729658762
 30
0.0
 10
200.9075379406055
 20
120.1882710413897
 30
0.0
 10
201.2515380288206
 20
119.8558341190472
 30
0.0
 10
201.437539657405
 20
119.5925777777507
 30
0.0
 10
201.6250261705866
 20
119.1780334514418
 30
0.0
 10
201.6734981153387
 20
119.0342765394639
 30
0.0
 10
201.7380600947524
 20
118.7456610719958
 30
0.0
 10
201.7541385949724
 20
118.6024516509555
 30
0.0
 10
201.754348323886
 20
118.3184288107171
 30
0.0
 10
201.7379167764751
 20
118.176462806339
 30
0.0
 10
201.6737480863228
 20
117.9069530180449
 30
0.0
 10
201.6262791235314
 20
117.7780350091427
 30
0.0
 10
201.4371556395771
 20
117.4078420366002
 30
0.0
 10
201.253015747211
 20
117.1926697014897
 30
0.0
 10
200.906280163407
 20
116.9271658876015
 30
0.0
 10
200.7809632072553
 20
116.8495545736512
 30
0.0
 10
200.5109037044554
 20
116.7142907143184
 30
0.0
 10
200.3645303285742
 20
116.6563205435577
 30
0.0
 10
200.0631124255206
 20
116.5644406679132
 30
0.0
 10
199.9072602640817
 20
116.5298430120931
 30
0.0
 10
199.5849172027653
 20
116.4829813950792
 30
0.0
 10
199.4189657356958
 20
116.471139081147
 30
0.0
 10
198.9280443681446
 20
116.4709858926776
 30
0.0
 10
198.5975613810419
 20
116.5182381654878
 30
0.0
 10
198.1456518834433
 20
116.6557110240806
 30
0.0
 10
197.999354666064
 20
116.7135053289448
 30
0.0
 10
197.7284711035077
 20
116.8489802164936
 30
0.0
 10
197.6031145813498
 20
116.9265890223027
 30
0.0
 10
197.3723369398606
 20
117.1030671579429
 30
0.0
 10
197.2675490597906
 20
117.2019513199837
 30
0.0
 10
197.0868854356085
 20
117.4144090602812
 30
0.0
 10
197.0096969384131
 20
117.5288821821124
 30
0.0
 10
196.8828335341219
 20
117.7764242318056
 30
0.0
 10
196.8351721801895
 20
117.9057312773684
 30
0.0
 10
196.770941813127
 20
118.1743194385014
 30
0.0
 10
196.7543085992478
 20
118.3154649820004
 30
0.0
 10
196.7541797242365
 20
118.6009533050421
 30
0.0
 10
196.7702607033653
 20
118.7442192928655
 30
0.0
 10
196.8342281158337
 20
119.0315560165097
 30
0.0
 10
196.8827921660773
 20
119.1763243362403
 30
0.0
 10
197.0705230081199
 20
119.5920914159521
 30
0.0
 10
197.2564688456155
 20
119.8552193416041
 30
0.0
 10
197.6002440677199
 20
120.1876634688629
 30
0.0
 10
197.7274193720875
 20
120.289989124586
 30
0.0
 10
197.9990617813621
 20
120.4690926184481
 30
0.0
 10
198.1422209523092
 20
120.5454071663306
 30
0.0
 10
198.443347894847
 20
120.670697400225
 30
0.0
 10
198.6028641235386
 20
120.719753001539
 30
0.0
 10
198.9247300157704
 20
120.78463484227
 30
0.0
 10
199.0882001517866
 20
120.8012148685387
 30
0.0
 10
199.4202877896589
 20
120.8012148685387
 30
0.0
  0
SPLINE
  5
193
330
1F
100
AcDbEntity
  8
0
  6
HIDDEN
 62
     7
370
     0
100
AcDbSpline
210
0.0
220
0.0
230
1.0
 70
     8
 71
     3
 72
    66
 73
    62
 74
     0
 42
0.00000001
 43
0.00000001
 40
0.0
 40
0.0
 40
0.0
 40
0.0
 40
0.0624999999999999
 40
0.0624999999999999
 40
0.0937499999999998
 40
0.0937499999999998
 40
0.1249999999999997
 40
0.1249999999999997
 40
0.1562499999999996
 40
0.1562499999999996
 40
0.1874999999999995
 40
0.1874999999999995
 40
0.2187499999999993
 40
0.2187499999999993
 40
0.2499999999999992
 40
0.2499999999999992
 40
0.2812499999999991
 40
0.2812499999999991
 40
0.3124999999999991
 40
0.3124999999999991
 40
0.3437499999999989
 40
0.3437499999999989
 40
0.374999999999999
 40
0.374999999999999
 40
0.406249999999999
 40
0.406249999999999
 40
0.437499999999999
 40
0.437499999999999
 40
0.4687499999999991
 40
0.4687499999999991
 40
0.4999999999999991
 40
0.4999999999999991
 40
0.5312499999999991
 40
0.5312499999999991
 40
0.5624999999999991
 40
0.5624999999999991
 40
0.5937499999999992
 40
0.5937499999999992
 40
0.6249999999999993
 40
0.6249999999999993
 40
0.6562499999999993
 40
0.6562499999999993
 40
0.6874999999999994
 40
0.6874999999999994
 40
0.7187499999999996
 40
0.7187499999999996
 40
0.7499999999999996
 40
0.7499999999999996
 40
0.7812499999999997
 40
0.7812499999999997
 40
0.8124999999999998
 40
0.8124999999999998
 40
0.8437499999999999
 40
0.8437499999999999
 40
0.8749999999999999
 40
0.8749999999999999
 40
0.90625
 40
0.90625
 40
0.9375000000000001
 40
0.9375000000000001
 40
1.0
 40
1.0
 40
1.0
 40
1.0
 10
201.34519360639
 20
114.3263674721283
 30
0.0
 10
201.4989677853483
 20
114.1769871040876
 30
0.0
 10
201.6040917035693
 20
114.035332613427
 30
0.0
 10
201.7061340702476
 20
113.7977207918783
 30
0.0
 10
201.7299157275155
 20
113.7150482546791
 30
0.0
 10
201.7556727337514
 20
113.5434481906971
 30
0.0
 10
201.757926849854
 20
113.4539951534562
 30
0.0
 10
201.7389622463692
 20
113.2643964430642
 30
0.0
 10
201.7172566665505
 20
113.1633864982468
 30
0.0
 10
201.648916089209
 20
112.9563178818715
 30
0.0
 10
201.6021957262336
 20
112.84907277389
 30
0.0
 10
201.481524647296
 20
112.6268191979339
 30
0.0
 10
201.4098058573872
 20
112.5158396517892
 30
0.0
 10
201.2443511327936
 20
112.2931340479445
 30
0.0
 10
201.1493437349116
 20
112.1803238751978
 30
0.0
 10
200.9483579735474
 20
111.9650085585363
 30
0.0
 10
200.8406476649727
 20
111.8603396483412
 30
0.0
 10
200.6183261843151
 20
111.6604697983357
 30
0.0
 10
200.5054785844551
 20
111.5667044598778
 30
0.0
 10
200.2781665498355
 20
111.3883789964954
 30
0.0
 10
200.1641637205422
 20
111.3042970958064
 30
0.0
 10
199.9439535273795
 20
111.1478415952927
 30
0.0
 10
199.8366704564648
 20
111.0746816476519
 30
0.0
 10
199.629653062127
 20
110.934679703527
 30
0.0
 10
199.5296631768744
 20
110.8677225832276
 30
0.0
 10
199.3468020637136
 20
110.7393930976257
 30
0.0
 10
199.2630128762061
 20
110.6775530247742
 30
0.0
 10
199.1179449176605
 20
110.5514228377296
 30
0.0
 10
199.0560614495933
 20
110.4860876362202
 30
0.0
 10
198.9746222367772
 20
110.3492509844075
 30
0.0
 10
198.9550551836396
 20
110.2756871482052
 30
0.0
 10
198.9681254326842
 20
110.1251854487263
 30
0.0
 10
199.0001465950514
 20
110.0476945625837
 30
0.0
 10
199.1004252883079
 20
109.8994491053585
 30
0.0
 10
199.1671471198838
 20
109.8295396628584
 30
0.0
 10
199.3219526684651
 20
109.7011276046496
 30
0.0
 10
199.4101507154924
 20
109.64289533255
 30
0.0
 10
199.5968541281495
 20
109.5439210586272
 30
0.0
 10
199.6960732369478
 20
109.5026027014155
 30
0.0
 10
199.9035993623562
 20
109.4390155117212
 30
0.0
 10
200.0129257380569
 20
109.4166714765841
 30
0.0
 10
200.234295870974
 20
109.3962250357249
 30
0.0
 10
200.3462108734433
 20
109.3978759747179
 30
0.0
 10
200.5711353820641
 20
109.429199466379
 30
0.0
 10
200.6850747209226
 20
109.4594869910293
 30
0.0
 10
200.9027427348888
 20
109.5510077675703
 30
0.0
 10
201.0081323073502
 20
109.6125926266564
 30
0.0
 10
201.2057101066475
 20
109.7697362130694
 30
0.0
 10
201.2948191288474
 20
109.8626400727352
 30
0.0
 10
201.4528133370472
 20
110.0769310853777
 30
0.0
 10
201.5215318909565
 20
110.1992123871581
 30
0.0
 10
201.6309291650663
 20
110.4578612419015
 30
0.0
 10
201.6731728792957
 20
110.5973865810001
 30
0.0
 10
201.7313729048522
 20
110.8828818710945
 30
0.0
 10
201.7476561596547
 20
111.0283792030969
 30
0.0
 10
201.7575868806186
 20
111.3238173502849
 30
0.0
 10
201.7509585115509
 20
111.4744945643522
 30
0.0
 10
201.7170797194196
 20
111.7696357070927
 30
0.0
 10
201.6899735963349
 20
111.9153587680501
 30
0.0
 10
201.5790157294594
 20
112.3468785124959
 30
0.0
 10
201.4662408932841
 20
112.6286878620903
 30
0.0
 10
201.3068304415426
 20
112.8832852055955
 30
0.0
  0
SPLINE
  5
194
330
1F
100
AcDbEntity
  8
0
  6
HIDDEN
 62
     7
370
     0
100
AcDbSpline
210
0.0
220
0.0
230
1.0
 70
     8
 71
     3
 72
    12
 73
     8
 74
     0
 42
0.00000001
 43
0.00000001
 40
0.0
 40
0.0
 40
0.0
 40
0.0
 40
0.5000000000000016
 40
0.5000000000000016
 40
0.7500000000000008
 40
0.7500000000000008
 40
1.0
 40
1.0
 40
1.0
 40
1.0
 10
201.3068304415417
 20
112.8832852055982
 30
0.0
 10
201.2233197390477
 20
113.2291688898507
 30
0.0
 10
201.1584032462345
 20
113.5386103383903
 30
0.0
 10
201.1690875304678
 20
113.912617929844
 30
0.0
 10
201.1902610948344
 20
114.018428003615
 30
0.0
 10
201.2552365222676
 20
114.1951390416117
 30
0.0
 10
201.2985480597916
 20
114.2670893593518
 30
0.0
 10
201.3451936063907
 20
114.3263674721286
 30
0.0
  0
LWPOLYLINE
  5
195
330
1F
100
AcDbEntity
  8
0
  6
HIDDEN
 62
     7
370
     0
100
AcDbPolyline
 90
        9
 70
   128
 43
0.0
 10
201.3451936064
 20
114.3263674721
 10
201.4743280184
 20
114.3062576694
 10
201.5674570242
 20
114.2335995507
 10
201.6222027303
 20
114.1102483197
 10
201.6371672967
 20
113.9393535438
 10
201.611968628
 20
113.7252787357
 10
201.5472501302
 20
113.4734899375
 10
201.444664282
 20
113.1904161555
 10
201.3068304415
 20
112.8832852056
  0
CIRCLE
  5
196
330
1F
100
AcDbEntity
  8
0
  6
HIDDEN
 62
     7
370
     0
100
AcDbCircle
 10
162.7542439707
 20
122.9590554755
 30
0.0
 40
4.049999999999997
  0
LINE
  5
197
330
1F
100
AcDbEntity
  8
0
  6
HIDDEN
 62
     7
370
     0
100
AcDbLine
 10
141.7844724104
 20
107.6461044326
 30
0.0
 11
141.7844724104
 21
138.2720065184
 31
0.0
  0
LINE
  5
198
330
1F
100
AcDbEntity
  8
0
  6
HIDDEN
 62
     7
370
     0
100
AcDbLine
 10
148.2844724104
 20
108.612645314
 30
0.0
 11
148.2844724104
 21
137.305465637
 31
0.0
  0
LINE
  5
199
330
1F
100
AcDbEntity
  8
0
  6
HIDDEN
 62
     7
370
     0
100
AcDbLine
 10
154.0844724104
 20
108.9590554755
 30
0.0
 11
154.0844724104
 21
136.9590554755
 31
0.0
  0
LINE
  5
19A
330
1F
100
AcDbEntity
  8
0
  6
HIDDEN
 62
     7
370
     0
100
AcDbLine
 10
146.6844724104
 20
108.9590554755
 30
0.0
 11
146.6844724104
 21
136.9590554755
 31
0.0
  0
LINE
  5
19B
330
1F
100
AcDbEntity
  8
0
  6
HIDDEN
 62
     7
370
     0
100
AcDbLine
 10
147.6844724104
 20
108.9590554755
 30
0.0
 11
147.6844724104
 21
136.9590554755
 31
0.0
  0
LINE
  5
19C
330
1F
100
AcDbEntity
  8
0
  6
HIDDEN
 62
     7
370
     0
100
AcDbLine
 10
167.2542439707
 20
109.4590554755
 30
0.0
 11
167.2542439707
 21
136.4590554747
 31
0.0
  0
LINE
  5
19D
330
1F
100
AcDbEntity
  8
0
  6
HIDDEN
 62
     7
370
     0
100
AcDbLine
 10
166.7542439707
 20
123.5934843525
 30
0.0
 11
166.5373005698
 21
124.2392612894
 31
0.0
  0
LINE
  5
19E
330
1F
100
AcDbEntity
  8
0
  6
HIDDEN
 62
     7
370
     0
100
AcDbLine
 10
162.8787747715
 20
126.9849503365
 30
0.0
 11
161.9273843473
 21
126.8937096083
 31
0.0
  0
LINE
  5
19F
330
1F
100
AcDbEntity
  8
0
  6
HIDDEN
 62
     7
370
     0
100
AcDbLine
 10
166.6149635798
 20
121.8963321328
 30
0.0
 11
166.7542439707
 21
122.3246265985
 31
0.0
  0
LINE
  5
1A0
330
1F
100
AcDbEntity
  8
0
  6
HIDDEN
 62
     7
370
     0
100
AcDbLine
 10
229.9213480559
 20
85.5135963045
 30
0.0
 11
236.7657447706
 21
81.6518043279
 31
0.0
  0
LINE
  5
1A1
330
1F
100
AcDbEntity
  8
0
  6
HIDDEN
 62
     7
370
     0
100
AcDbLine
 10
236.7655963433
 20
81.6201242872
 30
0.0
 11
236.7657447706
 21
81.6518043279
 31
0.0
  0
LINE
  5
1A2
330
1F
100
AcDbEntity
  8
0
  6
HIDDEN
 62
     7
370
     0
100
AcDbLine
 10
168.5042439707
 20
113.9590554755
 30
0.0
 11
168.5042439707
 21
131.9590554755
 31
0.0
  0
LINE
  5
1A3
330
1F
100
AcDbEntity
  8
0
  6
HIDDEN
 62
     7
370
     0
100
AcDbLine
 10
205.2542439707
 20
113.9590554755
 30
0.0
 11
205.2542439707
 21
131.9590554755
 31
0.0
  0
SPLINE
  5
1A4
330
1F
100
AcDbEntity
  8
0
  6
HIDDEN
 62
     7
370
     0
100
AcDbSpline
210
0.0
220
0.0
230
1.0
 70
     8
 71
     3
 72
    14
 73
    10
 74
     0
 42
0.00000001
 43
0.00000001
 40
0.0
 40
0.0
 40
0.0
 40
0.0
 40
0.4999999999999999
 40
0.4999999999999999
 40
0.7499999999999999
 40
0.7499999999999999
 40
0.8750000000000001
 40
0.8750000000000001
 40
1.0
 40
1.0
 40
1.0
 40
1.0
 10
216.3260962743148
 20
122.960203856179
 30
0.0
 10
216.3260797140769
 20
122.2491429098936
 30
0.0
 10
216.3426833707342
 20
121.5379767414446
 30
0.0
 10
216.3807931723736
 20
120.4711438925835
 30
0.0
 10
216.3954627209718
 20
120.1155204944865
 30
0.0
 10
216.4175696507068
 20
119.5820847477397
 30
0.0
 10
216.4249202561095
 20
119.405076063715
 30
0.0
 10
216.4394214536263
 20
119.0432420047535
 30
0.0
 10
216.4464102072283
 20
118.8623173070621
 30
0.0
 10
216.4528428090327
 20
118.6813763223058
 30
0.0
  0
LINE
  5
1A5
330
1F
100
AcDbEntity
  8
0
  6
HIDDEN
 62
     7
370
     0
100
AcDbLine
 10
216.3260962743
 20
122.9602038562
 30
0.0
 11
216.3260962743
 21
149.6553472784
 31
0.0
  0
SPLINE
  5
1A6
330
1F
100
AcDbEntity
  8
0
  6
HIDDEN
 62
     7
370
     0
100
AcDbSpline
210
0.0
220
0.0
230
1.0
 70
     8
 71
     3
 72
    12
 73
     8
 74
     0
 42
0.00000001
 43
0.00000001
 40
0.0
 40
0.0
 40
0.0
 40
0.0
 40
0.1292552684391856
 40
0.3879474532622621
 40
0.6473459816509332
 40
0.9074949799483929
 40
1.0
 40
1.0
 40
1.0
 40
1.0
 10
219.6729592302326
 20
85.19097248154937
 30
0.0
 10
219.5791758107446
 20
85.01676787266815
 30
0.0
 10
219.2976937544391
 20
84.4939092288535
 30
0.0
 10
218.9767872807085
 20
83.61849560377051
 30
0.0
 10
218.8177728881253
 20
82.56340634441375
 30
0.0
 10
218.8699584626918
 20
81.73240965621542
 30
0.0
 10
218.9954343821801
 20
81.25381422700531
 30
0.0
 10
219.0283480931951
 20
81.12827339244188
 30
0.0
  0
SPLINE
  5
1A7
330
1F
100
AcDbEntity
  8
0
  6
HIDDEN
 62
     7
370
     0
100
AcDbSpline
210
0.0
220
0.0
230
1.0
 70
     8
 71
     3
 72
    12
 73
     8
 74
     0
 42
0.00000001
 43
0.00000001
 40
0.0
 40
0.0
 40
0.0
 40
0.0
 40
0.2500000000000001
 40
0.2500000000000001
 40
0.5000000000000001
 40
0.5000000000000001
 40
1.0
 40
1.0
 40
1.0
 40
1.0
 10
216.4528428090327
 20
118.6813763223058
 30
0.0
 10
216.5310074485089
 20
116.4827034882154
 30
0.0
 10
216.6688955545354
 20
114.2822091396259
 30
0.0
 10
217.0492053974516
 20
109.8780322563742
 30
0.0
 10
217.2916424787827
 20
107.6721867643176
 30
0.0
 10
218.1414946941331
 20
101.0656978731695
 30
0.0
 10
218.8655436162881
 20
96.6933851027224
 30
0.0
 10
219.6729592302326
 20
92.33801935917911
 30
0.0
  0
LINE
  5
1A8
330
1F
100
AcDbEntity
  8
0
  6
HIDDEN
 62
     7
370
     0
100
AcDbLine
 10
243.1464251537
 20
94.1821055041
 30
0.0
 11
242.9723484475
 21
95.3364701781
 31
0.0
  0
ARC
  5
1A9
330
1F
100
AcDbEntity
  8
0
  6
HIDDEN
 62
     7
370
     0
100
AcDbCircle
 10
229.3584486164
 20
89.1484144164
 30
0.0
 40
1.992436433083089
100
AcDbArc
 50
59.9271594134
 51
205.1908884789
  0
LINE
  5
1AA
330
1F
100
AcDbEntity
  8
0
  6
HIDDEN
 62
     7
370
     0
100
AcDbLine
 10
232.7909571441
 20
89.4992640883
 30
0.0
 11
232.9650338504
 21
88.3448994144
 31
0.0
  0
LINE
  5
1AB
330
1F
100
AcDbEntity
  8
0
  6
HIDDEN
 62
     7
370
     0
100
AcDbLine
 10
229.6285139881
 20
86.7349670632
 30
0.0
 11
236.5916680644
 21
82.8061690019
 31
0.0
  0
LINE
  5
1AC
330
1F
100
AcDbEntity
  8
0
  6
HIDDEN
 62
     7
370
     0
100
AcDbLine
 10
236.7657447706
 20
81.6518043279
 30
0.0
 11
236.5916680644
 21
82.8061690019
 31
0.0
  0
LINE
  5
1AD
330
1F
100
AcDbEntity
  8
0
  6
HIDDEN
 62
     7
370
     0
100
AcDbLine
 10
236.7625727417
 20
80.9747727714
 30
0.0
 11
236.5884960355
 21
82.1291374454
 31
0.0
  0
LINE
  5
1AE
330
1F
100
AcDbEntity
  8
0
  6
HIDDEN
 62
     7
370
     0
100
AcDbLine
 10
239.4735478101
 20
93.3305340757
 30
0.0
 11
239.4899012778
 21
93.2220884031
 31
0.0
  0
LINE
  5
1AF
330
1F
100
AcDbEntity
  8
0
  6
HIDDEN
 62
     7
370
     0
100
AcDbLine
 10
242.9186936696
 20
93.9347726138
 30
0.0
 11
240.5083578797
 21
93.9238124853
 31
0.0
  0
LINE
  5
1B0
330
1F
100
AcDbEntity
  8
0
  6
HIDDEN
 62
     7
370
     0
100
AcDbLine
 10
239.4735478101
 20
89.393275196
 30
0.0
 11
242.9723484475
 21
89.4091847238
 31
0.0
  0
LWPOLYLINE
  5
1B1
330
1F
100
AcDbEntity
  8
0
  6
HIDDEN
 62
     7
370
     0
100
AcDbPolyline
 90
       21
 70
   128
 43
0.0
 10
239.4899012778
 20
93.2220884031
 10
239.4780284665
 20
93.7621637018
 10
239.4636413032
 20
94.2030922995
 10
239.4475200178
 20
94.5209622162
 10
239.4305388829
 20
94.6985350621
 10
239.4136188018
 20
94.7261808918
 10
239.3976773666
 20
94.6024004454
 10
239.3835790967
 20
94.3339064551
 10
239.3720885546
 20
93.9352596069
 10
239.3638288836
 20
93.4280789012
 10
239.3592480135
 20
92.8398692331
 10
239.3585943691
 20
92.202529776
 10
239.3619033984
 20
91.5506240589
 10
239.3689956495
 20
90.919505553
 10
239.3794865028
 20
90.3434004189
 10
239.3928070293
 20
89.8535513897
 10
239.4082348441
 20
89.4765234472
 10
239.424933282
 20
89.2327631777
 10
239.4419967707
 20
89.1354899338
 10
239.458499941
 20
89.1899789369
 10
239.4735478101
 20
89.393275196
  0
ELLIPSE
  5
1B2
330
1F
100
AcDbEntity
  8
0
  6
HIDDEN
 62
     7
370
     0
100
AcDbEllipse
 10
236.4878888434
 20
91.9205472515
 30
0.0
 11
4.843233757471438
 21
2.79366845015727
 31
0.0
210
0.0
220
0.0
230
0.9999999999999998
 40
0.081893915
 41
5.332840795203225
 42
5.642854161867287
  0
LWPOLYLINE
  5
1B3
330
1F
100
AcDbEntity
  8
0
  6
HIDDEN
 62
     7
370
     0
100
AcDbPolyline
 90
        9
 70
   128
 43
0.0
 10
242.9723484475
 20
93.9350165894
 10
242.9567054294
 20
94.3505318988
 10
242.9395317149
 20
94.6260048075
 10
242.9218291197
 20
94.7453658116
 10
242.9046303113
 20
94.7016520769
 10
242.8889385693
 20
94.4974136112
 10
242.8756692594
 20
94.1445645111
 10
242.865596437
 20
93.6636879623
 10
242.8608404844
 20
93.2732346233
  0
LWPOLYLINE
  5
1B4
330
1F
100
AcDbEntity
  8
0
  6
HIDDEN
 62
     7
370
     0
100
AcDbPolyline
 90
       12
 70
   128
 43
0.0
 10
242.8595290812
 20
93.1142241816
 10
242.8593076924
 20
93.082835535
 10
242.8571698749
 20
92.4358908168
 10
242.8593076924
 20
91.7605928392
 10
242.865596437
 20
91.0963345995
 10
242.8756692594
 20
90.4818651003
 10
242.8889385693
 20
89.9530289558
 10
242.9046303113
 20
89.5406754229
 10
242.9218291197
 20
89.2688588335
 10
242.9395317149
 20
89.153435403
 10
242.9567054294
 20
89.20113827
 10
242.9723484475
 20
89.4091847238
  0
LINE
  5
1B5
330
1F
100
AcDbEntity
  8
0
  6
HIDDEN
 62
     7
370
     0
100
AcDbLine
 10
242.9723484475
 20
95.3364701781
 30
0.0
 11
240.5083578797
 21
93.9238124853
 31
0.0
  0
LINE
  5
1B6
330
1F
100
AcDbEntity
  8
0
  6
HIDDEN
 62
     7
370
     0
100
AcDbLine
 10
242.9723484475
 20
95.3364701781
 30
0.0
 11
242.9723484475
 21
94.0823036618
 31
0.0
  0
LINE
  5
1B7
330
1F
100
AcDbEntity
  8
0
  6
HIDDEN
 62
     7
370
     0
100
AcDbLine
 10
242.4725251093
 20
82.1291374454
 30
0.0
 11
242.9723484475
 21
82.6215413219
 31
0.0
  0
CIRCLE
  5
1B8
330
1F
100
AcDbEntity
  8
0
  6
HIDDEN
 62
     7
370
     0
100
AcDbCircle
 10
238.1045500463
 20
87.2630145409
 30
0.0
 40
1.28336353596397
  0
LINE
  5
1B9
330
1F
100
AcDbEntity
  8
0
  6
HIDDEN
 62
     7
370
     0
100
AcDbLine
 10
239.4735478101
 20
89.393275196
 30
0.0
 11
239.4735478101
 21
93.3305340757
 31
0.0
  0
LINE
  5
1BA
330
1F
100
AcDbEntity
  8
0
  6
HIDDEN
 62
     7
370
     0
100
AcDbLine
 10
236.5916680644
 20
82.8061690019
 30
0.0
 11
236.5884960355
 21
82.1291374454
 31
0.0
  0
LINE
  5
1BB
330
1F
100
AcDbEntity
  8
0
  6
HIDDEN
 62
     7
370
     0
100
AcDbLine
 10
242.4725251093
 20
82.1291374454
 30
0.0
 11
236.5884960355
 21
82.1291374454
 31
0.0
  0
LINE
  5
1BC
330
1F
100
AcDbEntity
  8
0
  6
HIDDEN
 62
     7
370
     0
100
AcDbLine
 10
232.7909571441
 20
89.4992640883
 30
0.0
 11
230.3568596701
 21
90.8726470886
 31
0.0
  0
LINE
  5
1BD
330
1F
100
AcDbEntity
  8
0
  6
HIDDEN
 62
     7
370
     0
100
AcDbLine
 10
239.4735478101
 20
93.3305340757
 30
0.0
 11
232.7909571441
 21
89.4992640883
 31
0.0
  0
LINE
  5
1BE
330
1F
100
AcDbEntity
  8
0
  6
HIDDEN
 62
     7
370
     0
100
AcDbLine
 10
242.9723484475
 20
89.4091847238
 30
0.0
 11
242.9723484475
 21
82.6215413219
 31
0.0
  0
LWPOLYLINE
  5
1BF
330
1F
100
AcDbEntity
  8
0
  6
HIDDEN
 62
     7
370
     0
100
AcDbPolyline
 90
       19
 70
   128
 43
0.0
 10
231.4676371935
 20
91.8975683703
 10
231.4676365068
 20
91.4566918594
 10
231.4636277417
 20
91.0689915623
 10
231.4560944145
 20
90.7812298568
 10
231.4459451557
 20
90.6281150514
 10
231.4344041156
 20
90.6281150514
 10
231.422863314
 20
90.7812298568
 10
231.4127147419
 20
91.0689915623
 10
231.4051824669
 20
91.4566918594
 10
231.4011749924
 20
91.8975683703
 10
231.4011756792
 20
92.3384448812
 10
231.4051844443
 20
92.7261451783
 10
231.4127177714
 20
93.0139068838
 10
231.4228670303
 20
93.1670216892
 10
231.4344080704
 20
93.1670216892
 10
231.445948872
 20
93.0139068838
 10
231.4560974441
 20
92.7261451783
 10
231.4636297191
 20
92.3384448812
 10
231.4676371935
 20
91.8975683703
  0
LWPOLYLINE
  5
1C0
330
1F
100
AcDbEntity
  8
0
  6
HIDDEN
 62
     7
370
     0
100
AcDbPolyline
 90
       19
 70
   128
 43
0.0
 10
239.4648957933
 20
91.9339330053
 10
239.4648951066
 20
91.4930564943
 10
239.4608863415
 20
91.1053561973
 10
239.4533530143
 20
90.8175944917
 10
239.4432037555
 20
90.6644796863
 10
239.4316627154
 20
90.6644796863
 10
239.4201219138
 20
90.8175944917
 10
239.4099733417
 20
91.1053561973
 10
239.4024410667
 20
91.4930564943
 10
239.3984335922
 20
91.9339330053
 10
239.398434279
 20
92.3748095162
 10
239.4024430441
 20
92.7625098132
 10
239.4099763712
 20
93.0502715188
 10
239.4201256301
 20
93.2033863242
 10
239.4316666702
 20
93.2033863242
 10
239.4432074718
 20
93.0502715188
 10
239.4533560439
 20
92.7625098132
 10
239.4608883189
 20
92.3748095162
 10
239.4648957933
 20
91.9339330053
  0
CIRCLE
  5
1C1
330
1F
100
AcDbEntity
  8
0
  6
HIDDEN
 62
     7
370
     0
100
AcDbCircle
 10
237.8820459856
 20
88.7385182595
 30
0.0
 40
1.283363535963955
  0
SPLINE
  5
1C2
330
1F
100
AcDbEntity
  8
0
  6
HIDDEN
 62
     7
370
     0
100
AcDbSpline
210
0.0
220
0.0
230
1.0
 70
     8
 71
     3
 72
    16
 73
    12
 74
     0
 42
0.00000001
 43
0.00000001
 40
0.0
 40
0.0
 40
0.0
 40
0.0
 40
0.2499999999999999
 40
0.2499999999999999
 40
0.3750000000000001
 40
0.3750000000000001
 40
0.5000000000000002
 40
0.5000000000000002
 40
0.7500000000000001
 40
0.7500000000000001
 40
1.0
 40
1.0
 40
1.0
 40
1.0
 10
176.9329236271629
 20
144.7291364305273
 30
0.0
 10
176.7716911496785
 20
144.6311208174726
 30
0.0
 10
176.6512113100389
 20
144.4443847857966
 30
0.0
 10
176.5288307927255
 20
144.0313449782377
 30
0.0
 10
176.4978531323281
 20
143.8713444790047
 30
0.0
 10
176.4562393947001
 20
143.5045388279136
 30
0.0
 10
176.4460034817673
 20
143.3012016752896
 30
0.0
 10
176.4458150847112
 20
142.6339144086629
 30
0.0
 10
176.4859597873488
 20
142.1130999447749
 30
0.0
 10
176.6501135422884
 20
140.9157409292972
 30
0.0
 10
176.7716651926979
 20
140.2574712750012
 30
0.0
 10
176.9329236271629
 20
139.5429621017662
 30
0.0
  0
SPLINE
  5
1C3
330
1F
100
AcDbEntity
  8
0
  6
HIDDEN
 62
     7
370
     0
100
AcDbSpline
210
0.0
220
0.0
230
1.0
 70
     8
 71
     3
 72
    16
 73
    12
 74
     0
 42
0.00000001
 43
0.00000001
 40
0.0
 40
0.0
 40
0.0
 40
0.0
 40
0.2499999999999995
 40
0.2499999999999995
 40
0.3749999999999996
 40
0.3749999999999996
 40
0.4999999999999997
 40
0.4999999999999997
 40
0.7499999999999998
 40
0.7499999999999998
 40
1.0
 40
1.0
 40
1.0
 40
1.0
 10
176.9329236271629
 20
106.3751488492842
 30
0.0
 10
176.7716911496785
 20
105.6607546870921
 30
0.0
 10
176.6512113100388
 20
105.0074124243834
 30
0.0
 10
176.5288307927255
 20
104.1191571825795
 30
0.0
 10
176.4978531323281
 20
103.8384766462276
 30
0.0
 10
176.4562393947001
 20
103.3094426563877
 30
0.0
 10
176.4460034817673
 20
103.0661216778092
 30
0.0
 10
176.4458150847112
 20
102.398098987296
 30
0.0
 10
176.4859597873488
 20
102.0344180778765
 30
0.0
 10
176.6501135422884
 20
101.4745272053282
 30
0.0
 10
176.7716651926979
 20
101.2870059132111
 30
0.0
 10
176.9329236271629
 20
101.1889745205231
 30
0.0
  0
LINE
  5
1C4
330
1F
100
AcDbEntity
  8
0
  6
HIDDEN
 62
     7
370
     0
100
AcDbLine
 10
241.9817552001
 20
85.383607606
 30
0.0
 11
242.4725251093
 21
82.1291374454
 31
0.0
  0
LINE
  5
1C5
330
1F
100
AcDbEntity
  8
0
  6
HIDDEN
 62
     7
370
     0
100
AcDbLine
 10
242.9723484475
 20
82.6215413219
 30
0.0
 11
242.4528647613
 21
86.0664227704
 31
0.0
  0
LINE
  5
1C6
330
1F
100
AcDbEntity
  8
0
  6
HIDDEN
 62
     7
370
     0
100
AcDbLine
 10
178.0542439707
 20
129.9809428013
 30
0.0
 11
178.0542439707
 21
115.9371681498
 31
0.0
  0
SPLINE
  5
1C7
330
1F
100
AcDbEntity
  8
0
  6
HIDDEN
 62
     7
370
     0
100
AcDbSpline
210
0.0
220
0.0
230
1.0
 70
     8
 71
     3
 72
     8
 73
     4
 74
     0
 42
0.00000001
 43
0.00000001
 40
0.0000249638557296
 40
0.0000249638557296
 40
0.0000249638557296
 40
0.0000249638557296
 40
0.0049776420541172
 40
0.0049776420541172
 40
0.0049776420541172
 40
0.0049776420541172
 10
141.7542439707226
 20
118.9938445786887
 30
0.0
 10
143.4042202052321
 20
118.9525653409205
 30
0.0
 10
145.0542215249772
 20
118.912343659681
 30
0.0
 10
146.7042439707226
 20
118.873094422426
 30
0.0
  0
SPLINE
  5
1C8
330
1F
100
AcDbEntity
  8
0
  6
HIDDEN
 62
     7
370
     0
100
AcDbSpline
210
0.0
220
0.0
230
1.0
 70
     8
 71
     3
 72
     8
 73
     4
 74
     0
 42
0.00000001
 43
0.00000001
 40
0.0000249631533153
 40
0.0000249631533153
 40
0.0000249631533153
 40
0.0000249631533153
 40
0.0049776413517029
 40
0.0049776413517029
 40
0.0049776413517029
 40
0.0049776413517029
 10
146.7042439707226
 20
127.0450165286245
 30
0.0
 10
145.0542215249772
 20
127.0057672913694
 30
0.0
 10
143.4042202052321
 20
126.96554561013
 30
0.0
 10
141.7542439707226
 20
126.9242663723618
 30
0.0
  0
SPLINE
  5
1C9
330
1F
100
AcDbEntity
  8
0
  6
HIDDEN
 62
     7
370
     0
100
AcDbSpline
210
0.0
220
0.0
230
1.0
 70
     8
 71
     3
 72
     8
 73
     4
 74
     0
 42
0.00000001
 43
0.00000001
 40
0.0
 40
0.0
 40
0.0
 40
0.0
 40
1.0
 40
1.0
 40
1.0
 40
1.0
 10
140.2542439707203
 20
120.0570681425449
 30
0.0
 10
140.7210045820981
 20
119.6417048969219
 30
0.0
 10
141.2267521288782
 20
119.2971144676173
 30
0.0
 10
141.7542439707226
 20
118.9938445786887
 30
0.0
  0
SPLINE
  5
1CA
330
1F
100
AcDbEntity
  8
0
  6
HIDDEN
 62
     7
370
     0
100
AcDbSpline
210
0.0
220
0.0
230
1.0
 70
     8
 71
     3
 72
     8
 73
     4
 74
     0
 42
0.00000001
 43
0.00000001
 40
0.0
 40
0.0
 40
0.0
 40
0.0
 40
1.0
 40
1.0
 40
1.0
 40
1.0
 10
141.7542439707226
 20
126.9242663723618
 30
0.0
 10
141.2267521288791
 20
126.6209964834337
 30
0.0
 10
140.7210045820998
 20
126.2764060541297
 30
0.0
 10
140.2542439707226
 20
125.8610428085076
 30
0.0
  0
LINE
  5
1CB
330
1F
100
AcDbEntity
  8
0
  6
HIDDEN
 62
     7
370
     0
100
AcDbLine
 10
146.7042439707
 20
118.8730944224
 30
0.0
 11
146.7042439707
 21
127.0450165286
 31
0.0
  0
SPLINE
  5
1CC
330
1F
100
AcDbEntity
  8
0
  6
HIDDEN
 62
     7
370
     0
100
AcDbSpline
210
0.0
220
0.0
230
1.0
 70
     8
 71
     3
 72
    24
 73
    20
 74
     0
 42
0.00000001
 43
0.00000001
 40
0.0
 40
0.0
 40
0.0
 40
0.0
 40
0.1250000000000002
 40
0.1250000000000002
 40
0.2500000000000004
 40
0.2500000000000004
 40
0.3750000000000006
 40
0.3750000000000006
 40
0.4375000000000006
 40
0.4375000000000006
 40
0.5000000000000006
 40
0.5000000000000006
 40
0.6250000000000004
 40
0.6250000000000004
 40
0.7500000000000002
 40
0.7500000000000002
 40
0.8750000000000001
 40
0.8750000000000001
 40
1.0
 40
1.0
 40
1.0
 40
1.0
 10
146.7042439707225
 20
118.873094422426
 30
0.0
 10
146.9420476029976
 20
119.1721015247561
 30
0.0
 10
147.1721332642089
 20
119.4764393760749
 30
0.0
 10
147.6068866628187
 20
120.1021729134709
 30
0.0
 10
147.8118194551049
 20
120.4233976407984
 30
0.0
 10
148.1769214056036
 20
121.0953234115311
 30
0.0
 10
148.3387217913951
 20
121.45063864341
 30
0.0
 10
148.5105819959748
 20
122.0008698647624
 30
0.0
 10
148.5561671876349
 20
122.1872736497429
 30
0.0
 10
148.6186419272098
 20
122.5674081518392
 30
0.0
 10
148.6353130729582
 20
122.763077944125
 30
0.0
 10
148.6358341161347
 20
123.3415583227994
 30
0.0
 10
148.5713918152481
 20
123.7194701617682
 30
0.0
 10
148.3415427218748
 20
124.4614381868666
 30
0.0
 10
148.1830220442116
 20
124.8101536470276
 30
0.0
 10
147.8187877143115
 20
125.4832460447607
 30
0.0
 10
147.6120514742479
 20
125.8081985320024
 30
0.0
 10
147.1741135285075
 20
126.4391223424642
 30
0.0
 10
146.942840801228
 20
126.7450120828048
 30
0.0
 10
146.7042439707226
 20
127.0450165286243
 30
0.0
  0
SPLINE
  5
1CD
330
1F
100
AcDbEntity
  8
0
  6
HIDDEN
 62
     7
370
     0
100
AcDbSpline
210
0.0
220
0.0
230
1.0
 70
     8
 71
     3
 72
     9
 73
     5
 74
     0
 42
0.00000001
 43
0.00000001
 40
0.0
 40
0.0
 40
0.0
 40
0.0
 40
0.5373381360146176
 40
1.0
 40
1.0
 40
1.0
 40
1.0
 10
159.5654053994847
 20
125.6050670255826
 30
0.0
 10
159.8644790486635
 20
125.8924044697038
 30
0.0
 10
160.4210627510542
 20
126.4271467946247
 30
0.0
 10
161.1542783714997
 20
126.6645996406416
 30
0.0
 10
161.4935092771581
 20
126.7744600169885
 30
0.0
  0
SPLINE
  5
1CE
330
1F
100
AcDbEntity
  8
0
  6
HIDDEN
 62
     7
370
     0
100
AcDbSpline
210
0.0
220
0.0
230
1.0
 70
     8
 71
     3
 72
    17
 73
    13
 74
     0
 42
0.00000001
 43
0.00000001
 40
0.0
 40
0.0
 40
0.0
 40
0.0
 40
0.020745426760003
 40
0.1433563279330449
 40
0.2656472977364927
 40
0.3832836958021091
 40
0.4926771429014331
 40
0.5951586951342626
 40
0.6963638765270898
 40
0.8019759863842459
 40
0.9149478985498158
 40
1.0
 40
1.0
 40
1.0
 40
1.0
 10
163.0801786652212
 20
126.9876583054841
 30
0.0
 10
163.1665550021888
 20
126.9945535811246
 30
0.0
 10
163.7634380950864
 20
127.0422017402755
 30
0.0
 10
164.8501698122445
 20
126.6426794137689
 30
0.0
 10
166.1068755828348
 20
125.7951409363577
 30
0.0
 10
166.9466347286657
 20
124.5619727952383
 30
0.0
 10
167.2759017682606
 20
123.1999873710472
 30
0.0
 10
167.1217851599174
 20
121.8785554946561
 30
0.0
 10
166.5542641971807
 20
120.6961162001366
 30
0.0
 10
165.615220643796
 20
119.7360611877073
 30
0.0
 10
164.4874930731321
 20
119.0923699340865
 30
0.0
 10
163.6617590610345
 20
119.0014102847065
 30
0.0
 10
163.3071030186413
 20
118.9623427535234
 30
0.0
  0
SPLINE
  5
1CF
330
1F
100
AcDbEntity
  8
0
  6
HIDDEN
 62
     7
370
     0
100
AcDbSpline
210
0.0
220
0.0
230
1.0
 70
     8
 71
     3
 72
    13
 73
     9
 74
     0
 42
0.00000001
 43
0.00000001
 40
0.0
 40
0.0
 40
0.0
 40
0.0
 40
0.071014248727515
 40
0.2845446372516947
 40
0.4859796794468187
 40
0.6752848579245591
 40
0.8594836789677596
 40
1.0
 40
1.0
 40
1.0
 40
1.0
 10
160.4613406310051
 20
119.637797626125
 30
0.0
 10
160.3142467470244
 20
119.7117131518619
 30
0.0
 10
159.724861143301
 20
120.0078828197097
 30
0.0
 10
159.0137410025791
 20
120.9406466312867
 30
0.0
 10
158.5008623041453
 20
122.2539528217261
 30
0.0
 10
158.5068474192997
 20
123.6103092023366
 30
0.0
 10
158.8954118196355
 20
124.7606490511827
 30
0.0
 10
159.3630436926329
 20
125.3500229957065
 30
0.0
 10
159.5654053994847
 20
125.6050670255826
 30
0.0
  0
SPLINE
  5
1D0
330
1F
100
AcDbEntity
  8
0
  6
HIDDEN
 62
     7
370
     0
100
AcDbSpline
210
0.0
220
0.0
230
1.0
 70
     8
 71
     3
 72
    16
 73
    12
 74
     0
 42
0.00000001
 43
0.00000001
 40
0.0
 40
0.0
 40
0.0
 40
0.0
 40
0.1250000000000021
 40
0.1250000000000021
 40
0.2500000000000041
 40
0.2500000000000041
 40
0.5000000000000028
 40
0.5000000000000028
 40
0.7500000000000014
 40
0.7500000000000014
 40
1.0
 40
1.0
 40
1.0
 40
1.0
 10
220.638885056522
 20
85.51980597570551
 30
0.0
 10
220.5413672137028
 20
85.52042694894138
 30
0.0
 10
220.448219295701
 20
85.51459657868281
 30
0.0
 10
220.2896532117172
 20
85.49633879552452
 30
0.0
 10
220.2235009144143
 20
85.48429422535452
 30
0.0
 10
220.0512203399966
 20
85.44494475954045
 30
0.0
 10
219.9711927885101
 20
85.41495236674793
 30
0.0
 10
219.8412210184452
 20
85.35304056958253
 30
0.0
 10
219.7931627854223
 20
85.32106016779503
 30
0.0
 10
219.7183298753599
 20
85.2565919599654
 30
0.0
 10
219.6916267827095
 20
85.223939219567
 30
0.0
 10
219.6729592302326
 20
85.19097248154932
 30
0.0
  0
ELLIPSE
  5
1D1
330
1F
100
AcDbEntity
  8
0
  6
HIDDEN
 62
     7
370
     0
100
AcDbEllipse
 10
283.9589545385
 20
122.9590554755
 30
0.0
 11
45.01413910695975
 21
44.7714419861119
 31
0.0
210
0.0
220
0.0
230
1.0
 40
0.1006278929
 41
2.632751642389772
 42
2.659777475973494
  0
ELLIPSE
  5
1D2
330
1F
100
AcDbEntity
  8
0
  6
HIDDEN
 62
     7
370
     0
100
AcDbEllipse
 10
-8709.2498673569
 20
122.9590554755
 30
0.0
 11
9752.671091336826
 21
-44.31732111967455
 31
0.0
210
0.0
220
0.0
230
1.0
 40
0.0008006681
 41
0.4082369919065593
 42
0.4137148664549227
  0
ELLIPSE
  5
1D3
330
1F
100
AcDbEntity
  8
0
  6
HIDDEN
 62
     7
370
     0
100
AcDbEllipse
 10
242.9495885012
 20
122.9590554755
 30
0.0
 11
-0.20475735499042
 21
44.99999969021729
 31
0.0
210
0.0
220
0.0
230
0.9999999999999999
 40
0.025787565
 41
2.351783168698237
 42
2.531804028596209
  0
CIRCLE
  5
1D4
330
1F
100
AcDbEntity
  8
0
  6
HIDDEN
 62
     7
370
     0
100
AcDbCircle
 10
190.2542439707
 20
122.9590554755
 30
0.0
 40
1.999999999999986
  0
LINE
  5
1D5
330
1F
100
AcDbEntity
  8
0
  6
HIDDEN
 62
     7
370
     0
100
AcDbLine
 10
220.6388850565
 20
91.276176983
 30
0.0
 11
242.2695666876
 21
91.276176983
 31
0.0
  0
SPLINE
  5
1D6
330
1F
100
AcDbEntity
  8
0
  6
HIDDEN
 62
     7
370
     0
100
AcDbSpline
210
0.0
220
0.0
230
1.0
 70
     8
 71
     3
 72
    12
 73
     8
 74
     0
 42
0.00000001
 43
0.00000001
 40
0.0
 40
0.0
 40
0.0
 40
0.0
 40
0.5000000000000068
 40
0.5000000000000068
 40
0.7500000000000033
 40
0.7500000000000033
 40
1.0
 40
1.0
 40
1.0
 40
1.0
 10
219.6729592302326
 20
92.3380193591791
 30
0.0
 10
219.7196625356812
 20
92.08609213217487
 30
0.0
 10
219.8149331254465
 20
91.83757755512417
 30
0.0
 10
220.0571669885456
 20
91.5315603650621
 30
0.0
 10
220.1539614162128
 20
91.44246812306875
 30
0.0
 10
220.380868561774
 20
91.31331375621782
 30
0.0
 10
220.5097354407194
 20
91.27617698301069
 30
0.0
 10
220.6388850565217
 20
91.27617698301069
 30
0.0
  0
LINE
  5
1D7
330
1F
100
AcDbEntity
  8
0
  6
HIDDEN
 62
     7
370
     0
100
AcDbLine
 10
242.2695666876
 20
91.276176983
 30
0.0
 11
242.1659810413
 21
114.0565844148
 31
0.0
  0
LINE
  5
1D8
330
1F
100
AcDbEntity
  8
0
  6
HIDDEN
 62
     7
370
     0
100
AcDbLine
 10
196.2542439707
 20
107.9540554755
 30
0.0
 11
196.2542439707
 21
107.6790554755
 31
0.0
  0
LINE
  5
1D9
330
1F
100
AcDbEntity
  8
0
  6
HIDDEN
 62
     7
370
     0
100
AcDbLine
 10
202.2542439707
 20
107.6790554755
 30
0.0
 11
202.2542439707
 21
107.9540554755
 31
0.0
  0
LINE
  5
1DA
330
1F
100
AcDbEntity
  8
0
  6
HIDDEN
 62
     7
370
     0
100
AcDbLine
 10
196.7542439707
 20
110.037367639
 30
0.0
 11
196.7542439707
 21
107.6090554755
 31
0.0
  0
LINE
  5
1DB
330
1F
100
AcDbEntity
  8
0
  6
HIDDEN
 62
     7
370
     0
100
AcDbLine
 10
201.7542439707
 20
107.6090554755
 30
0.0
 11
201.7542439707
 21
110.037367639
 31
0.0
  0
LINE
  5
1DC
330
1F
100
AcDbEntity
  8
0
  6
HIDDEN
 62
     7
370
     0
100
AcDbLine
 10
201.4569727776
 20
109.7178551673
 30
0.0
 11
201.3101241905
 21
109.855399533
 31
0.0
  0
LINE
  5
1DD
330
1F
100
AcDbEntity
  8
0
  6
HIDDEN
 62
     7
370
     0
100
AcDbLine
 10
197.198363751
 20
109.855399533
 30
0.0
 11
197.0515151639
 21
109.7178551673
 31
0.0
  0
LINE
  5
1DE
330
1F
100
AcDbEntity
  8
0
  6
HIDDEN
 62
     7
370
     0
100
AcDbLine
 10
201.4569727776
 20
110.0628551673
 30
0.0
 11
201.3101241905
 21
110.200399533
 31
0.0
  0
LINE
  5
1DF
330
1F
100
AcDbEntity
  8
0
  6
HIDDEN
 62
     7
370
     0
100
AcDbLine
 10
197.198363751
 20
110.200399533
 30
0.0
 11
197.0515151639
 21
110.0628551673
 31
0.0
  0
LINE
  5
1E0
330
1F
100
AcDbEntity
  8
0
  6
HIDDEN
 62
     7
370
     0
100
AcDbLine
 10
201.4569727776
 20
110.4078551673
 30
0.0
 11
201.3101241905
 21
110.545399533
 31
0.0
  0
LINE
  5
1E1
330
1F
100
AcDbEntity
  8
0
  6
HIDDEN
 62
     7
370
     0
100
AcDbLine
 10
197.198363751
 20
110.545399533
 30
0.0
 11
197.0515151639
 21
110.4078551673
 31
0.0
  0
LINE
  5
1E2
330
1F
100
AcDbEntity
  8
0
  6
HIDDEN
 62
     7
370
     0
100
AcDbLine
 10
201.4569727776
 20
110.7528551673
 30
0.0
 11
201.3101241905
 21
110.890399533
 31
0.0
  0
LINE
  5
1E3
330
1F
100
AcDbEntity
  8
0
  6
HIDDEN
 62
     7
370
     0
100
AcDbLine
 10
197.198363751
 20
110.890399533
 30
0.0
 11
197.0515151639
 21
110.7528551673
 31
0.0
  0
LINE
  5
1E4
330
1F
100
AcDbEntity
  8
0
  6
HIDDEN
 62
     7
370
     0
100
AcDbLine
 10
196.2542439707
 20
110.7090554755
 30
0.0
 11
196.2542439707
 21
109.3340554755
 31
0.0
  0
LINE
  5
1E5
330
1F
100
AcDbEntity
  8
0
  6
HIDDEN
 62
     7
370
     0
100
AcDbLine
 10
202.2542439707
 20
109.3340554755
 30
0.0
 11
202.2542439707
 21
110.7090554755
 31
0.0
  0
ARC
  5
1E6
330
1F
100
AcDbEntity
  8
0
  6
HIDDEN
 62
     7
370
     0
100
AcDbCircle
 10
199.2542439707
 20
109.3090554755
 30
0.0
 40
2.500000000000018
100
AcDbArc
 50
338.6286669096
 51
201.3713330904
  0
LINE
  5
1E7
330
1F
100
AcDbEntity
  8
0
  6
HIDDEN
 62
     7
370
     0
100
AcDbLine
 10
243.1397331244
 20
92.107752459
 30
0.0
 11
243.1030840175
 21
92.3507857469
 31
0.0
  0
LINE
  5
1E8
330
1F
100
AcDbEntity
  8
0
  6
HIDDEN
 62
     7
370
     0
100
AcDbLine
 10
230.1449274576
 20
86.7664010053
 30
0.0
 11
230.1897368759
 21
86.4692537843
 31
0.0
  0
LINE
  5
1E9
330
1F
100
AcDbEntity
  8
0
  6
HIDDEN
 62
     7
370
     0
100
AcDbLine
 10
236.0991403328
 20
86.9489500408
 30
0.0
 11
236.1324408554
 21
86.7281224079
 31
0.0
  0
LINE
  5
1EA
330
1F
100
AcDbEntity
  8
0
  6
HIDDEN
 62
     7
370
     0
100
AcDbLine
 10
240.1124421229
 20
87.3283014735
 30
0.0
 11
240.0791416002
 21
87.5491291065
 31
0.0
  0
LINE
  5
1EB
330
1F
100
AcDbEntity
  8
0
  6
HIDDEN
 62
     7
370
     0
100
AcDbLine
 10
240.4302494652
 20
86.6380325722
 30
0.0
 11
240.3767494838
 21
86.9928100148
 31
0.0
  0
LINE
  5
1EC
330
1F
100
AcDbEntity
  8
0
  6
HIDDEN
 62
     7
370
     0
100
AcDbLine
 10
236.421468721
 20
86.3963587693
 30
0.0
 11
236.4749687025
 21
86.0415813268
 31
0.0
  0
LINE
  5
1ED
330
1F
100
AcDbEntity
  8
0
  6
HIDDEN
 62
     7
370
     0
100
AcDbLine
 10
235.5637181918
 20
85.7194460426
 30
0.0
 11
235.5706987114
 21
85.6731557299
 31
0.0
  0
LINE
  5
1EE
330
1F
100
AcDbEntity
  8
0
  6
HIDDEN
 62
     7
370
     0
100
AcDbLine
 10
238.7891469541
 20
87.1638453374
 30
0.0
 11
238.7577346162
 21
87.3721517448
 31
0.0
  0
LINE
  5
1EF
330
1F
100
AcDbEntity
  8
0
  6
HIDDEN
 62
     7
370
     0
100
AcDbLine
 10
238.7661809018
 20
87.2733037709
 30
0.0
 11
238.7749979514
 21
87.2148347727
 31
0.0
  0
LINE
  5
1F0
330
1F
100
AcDbEntity
  8
0
  6
HIDDEN
 62
     7
370
     0
100
AcDbLine
 10
237.2350074178
 20
86.9976441893
 30
0.0
 11
237.2664197558
 21
86.789337782
 31
0.0
  0
LINE
  5
1F1
330
1F
100
AcDbEntity
  8
0
  6
HIDDEN
 62
     7
370
     0
100
AcDbLine
 10
239.5926484743
 20
86.4008713466
 30
0.0
 11
239.5612361364
 21
86.6091777539
 31
0.0
  0
LINE
  5
1F2
330
1F
100
AcDbEntity
  8
0
  6
HIDDEN
 62
     7
370
     0
100
AcDbLine
 10
236.9628281787
 20
85.9275766702
 30
0.0
 11
236.9942405167
 21
85.7192702629
 31
0.0
  0
LINE
  5
1F3
330
1F
100
AcDbEntity
  8
0
  6
HIDDEN
 62
     7
370
     0
100
AcDbLine
 10
239.3204692353
 20
85.3308038275
 30
0.0
 11
239.2890568973
 21
85.5391102349
 31
0.0
  0
LINE
  5
1F4
330
1F
100
AcDbEntity
  8
0
  6
HIDDEN
 62
     7
370
     0
100
AcDbLine
 10
237.766329699
 20
85.1646026794
 30
0.0
 11
237.7977420369
 21
84.956296272
 31
0.0
  0
LINE
  5
1F5
330
1F
100
AcDbEntity
  8
0
  6
HIDDEN
 62
     7
370
     0
100
AcDbLine
 10
236.8246017722
 20
86.4954548682
 30
0.0
 11
236.8492102181
 21
86.3322674943
 31
0.0
  0
LINE
  5
1F6
330
1F
100
AcDbEntity
  8
0
  6
HIDDEN
 62
     7
370
     0
100
AcDbLine
 10
239.5931862472
 20
86.7460555458
 30
0.0
 11
239.5685778014
 21
86.9092429198
 31
0.0
  0
LINE
  5
1F7
330
1F
100
AcDbEntity
  8
0
  6
HIDDEN
 62
     7
370
     0
100
AcDbLine
 10
236.4126448546
 20
87.8860216209
 30
0.0
 11
236.6268377341
 21
86.465632306
 31
0.0
  0
LINE
  5
1F8
330
1F
100
AcDbEntity
  8
0
  6
HIDDEN
 62
     7
370
     0
100
AcDbLine
 10
239.7663418395
 20
86.939065482
 30
0.0
 11
239.55214896
 21
88.359454797
 31
0.0
  0
LINE
  5
1F9
330
1F
100
AcDbEntity
  8
0
  6
HIDDEN
 62
     7
370
     0
100
AcDbLine
 10
241.801071125
 20
94.6447349353
 30
0.0
 11
239.4193875483
 21
94.6339050925
 31
0.0
  0
LINE
  5
1FA
330
1F
100
AcDbEntity
  8
0
  6
HIDDEN
 62
     7
370
     0
100
AcDbLine
 10
239.4439418373
 20
89.233960918
 30
0.0
 11
241.825625414
 21
89.2447907609
 31
0.0
  0
LINE
  5
1FB
330
1F
100
AcDbEntity
  8
0
  6
HIDDEN
 62
     7
370
     0
100
AcDbLine
 10
241.827416249
 20
89.2456968292
 30
0.0
 11
242.1431531595
 21
89.5645302214
 31
0.0
  0
LINE
  5
1FC
330
1F
100
AcDbEntity
  8
0
  6
HIDDEN
 62
     7
370
     0
100
AcDbLine
 10
242.1214934786
 20
94.3278963217
 30
0.0
 11
241.8028701258
 21
94.6438451905
 31
0.0
  0
LINE
  5
1FD
330
1F
100
AcDbEntity
  8
0
  6
HIDDEN
 62
     7
370
     0
100
AcDbLine
 10
235.5077307686
 20
90.3285739261
 30
0.0
 11
239.438883199
 21
90.3464494169
 31
0.0
  0
LINE
  5
1FE
330
1F
100
AcDbEntity
  8
0
  6
HIDDEN
 62
     7
370
     0
100
AcDbLine
 10
239.4244461865
 20
93.5214165936
 30
0.0
 11
235.4932937561
 21
93.5035411027
 31
0.0
  0
LINE
  5
1FF
330
1F
100
AcDbEntity
  8
0
  6
HIDDEN
 62
     7
370
     0
100
AcDbLine
 10
235.4922408114
 20
93.5030083681
 30
0.0
 11
235.1765039009
 21
93.1841749759
 31
0.0
  0
LINE
  5
200
330
1F
100
AcDbEntity
  8
0
  6
HIDDEN
 62
     7
370
     0
100
AcDbLine
 10
235.18804967
 20
90.6450459319
 30
0.0
 11
235.5066730227
 21
90.3290970631
 31
0.0
  0
LINE
  5
201
330
1F
100
AcDbEntity
  8
0
  6
HIDDEN
 62
     7
370
     0
100
AcDbLine
 10
242.1425515509
 20
93.0775385332
 30
0.0
 11
240.942962761
 21
93.072083838
 31
0.0
  0
LINE
  5
202
330
1F
100
AcDbEntity
  8
0
  6
HIDDEN
 62
     7
370
     0
100
AcDbLine
 10
240.9485579156
 20
90.6925333474
 30
0.0
 11
242.1481467056
 21
90.6979880426
 31
0.0
  0
LINE
  5
203
330
1F
100
AcDbEntity
  8
0
  6
HIDDEN
 62
     7
370
     0
100
AcDbLine
 10
240.930936178
 20
92.897175499
 30
0.0
 11
242.1305249679
 21
92.9026301942
 31
0.0
  0
LINE
  5
204
330
1F
100
AcDbEntity
  8
0
  6
HIDDEN
 62
     7
370
     0
100
AcDbLine
 10
242.1309539725
 20
90.9897819449
 30
0.0
 11
240.9313651825
 21
90.9843272496
 31
0.0
  0
LINE
  5
205
330
1F
100
AcDbEntity
  8
0
  6
HIDDEN
 62
     7
370
     0
100
AcDbLine
 10
242.1133322348
 20
93.1944240965
 30
0.0
 11
240.9137434448
 21
93.1889694012
 31
0.0
  0
LINE
  5
206
330
1F
100
AcDbEntity
  8
0
  6
HIDDEN
 62
     7
370
     0
100
AcDbLine
 10
240.9193385995
 20
90.8094189107
 30
0.0
 11
242.1189273895
 21
90.8148736059
 31
0.0
  0
LINE
  5
207
330
1F
100
AcDbEntity
  8
0
  6
HIDDEN
 62
     7
370
     0
100
AcDbLine
 10
196.2542439707
 20
110.7090554755
 30
0.0
 11
196.2542439707
 21
107.2090554755
 31
0.0
  0
LINE
  5
208
330
1F
100
AcDbEntity
  8
0
  6
HIDDEN
 62
     7
370
     0
100
AcDbLine
 10
202.2542439707
 20
107.2093264985
 30
0.0
 11
202.2542439707
 21
110.7090554755
 31
0.0
  0
LINE
  5
209
330
1F
100
AcDbEntity
  8
0
  6
HIDDEN
 62
     7
370
     0
100
AcDbLine
 10
178.2542439707
 20
98.7090554755
 30
0.0
 11
178.3471371895
 21
98.8019486943
 31
0.0
  0
LINE
  5
20A
330
1F
100
AcDbEntity
  8
0
  6
HIDDEN
 62
     7
370
     0
100
AcDbLine
 10
178.3471371895
 20
147.1161622567
 30
0.0
 11
178.2542439707
 21
147.2090554755
 31
0.0
  0
ARC
  5
20B
330
1F
100
AcDbEntity
  8
0
  6
HIDDEN
 62
     7
370
     0
100
AcDbCircle
 10
177.6400304083
 20
99.5090554755
 30
0.0
 40
1.0
100
AcDbArc
 50
315.0
 51
0.0
  0
ARC
  5
20C
330
1F
100
AcDbEntity
  8
0
  6
HIDDEN
 62
     7
370
     0
100
AcDbCircle
 10
177.6400304083
 20
99.5090554755
 30
0.0
 40
1.0
100
AcDbArc
 50
0.0
 51
52.1052014664
  0
ARC
  5
20D
330
1F
100
AcDbEntity
  8
0
  6
HIDDEN
 62
     7
370
     0
100
AcDbCircle
 10
177.6400304083
 20
146.4090554755
 30
0.0
 40
1.000000000000008
100
AcDbArc
 50
351.8087250651
 51
45.0
  0
ARC
  5
20E
330
1F
100
AcDbEntity
  8
0
  6
HIDDEN
 62
     7
370
     0
100
AcDbCircle
 10
177.6400304083
 20
146.4090554755
 30
0.0
 40
0.9999999999999989
100
AcDbArc
 50
307.8947985336
 51
351.8087250651
  0
LINE
  5
20F
330
1F
100
AcDbEntity
  8
0
  6
HIDDEN
 62
     7
370
     0
100
AcDbLine
 10
178.6400304083
 20
99.5090554755
 30
0.0
 11
178.6400304083
 21
146.4090554755
 31
0.0
  0
LINE
  5
210
330
1F
100
AcDbEntity
  8
0
  6
HIDDEN
 62
     7
370
     0
100
AcDbLine
 10
196.7542439707
 20
118.4600156405
 30
0.0
 11
196.7542439707
 21
110.8592706303
 31
0.0
  0
LINE
  5
211
330
1F
100
AcDbEntity
  8
0
  6
HIDDEN
 62
     7
370
     0
100
AcDbLine
 10
201.7542439707
 20
113.4729226286
 30
0.0
 11
201.7542439707
 21
118.4602802685
 31
0.0
  0
LINE
  5
212
330
1F
100
AcDbEntity
  8
0
  6
HIDDEN
 62
     7
370
     0
100
AcDbLine
 10
201.7542439707
 20
110.8592706303
 30
0.0
 11
201.7542439707
 21
111.2746900426
 31
0.0
  0
LINE
  5
213
330
1F
100
AcDbEntity
  8
0
  6
HIDDEN
 62
     7
370
     0
100
AcDbLine
 10
207.698851865
 20
109.8627658035
 30
0.0
 11
201.5182473114
 21
114.2818786698
 31
0.0
  0
LINE
  5
214
330
1F
100
AcDbEntity
  8
0
  6
HIDDEN
 62
     7
370
     0
100
AcDbLine
 10
199.32436897
 20
109.7039093389
 30
0.0
 11
207.7050086413
 21
103.7117782653
 31
0.0
  0
LINE
  5
215
330
1F
100
AcDbEntity
  8
0
  6
HIDDEN
 62
     7
370
     0
100
AcDbLine
 10
140.2542439707
 20
106.7626266311
 30
0.0
 11
141.7844724104
 21
107.6461044326
 31
0.0
  0
LINE
  5
216
330
1F
100
AcDbEntity
  8
0
  6
HIDDEN
 62
     7
370
     0
100
AcDbLine
 10
141.7844724104
 20
138.2720065184
 30
0.0
 11
140.2542439707
 21
139.15548432
 31
0.0
  0
LINE
  5
217
330
1F
100
AcDbEntity
  8
0
  6
HIDDEN
 62
     7
370
     0
100
AcDbLine
 10
150.2542439707
 20
106.9590554755
 30
0.0
 11
151.2560452856
 21
106.9590554755
 31
0.0
  0
LINE
  5
218
330
1F
100
AcDbEntity
  8
0
  6
HIDDEN
 62
     7
370
     0
100
AcDbLine
 10
151.2560452856
 20
138.9590554755
 30
0.0
 11
150.2542439707
 21
138.9590554755
 31
0.0
  0
ARC
  5
219
330
1F
100
AcDbEntity
  8
0
  6
HIDDEN
 62
     7
370
     0
100
AcDbCircle
 10
151.2560452856
 20
108.9590554755
 30
0.0
 40
2.000000000000006
100
AcDbArc
 50
270.0
 51
315.0
  0
ARC
  5
21A
330
1F
100
AcDbEntity
  8
0
  6
HIDDEN
 62
     7
370
     0
100
AcDbCircle
 10
151.2560452856
 20
136.9590554755
 30
0.0
 40
2.000000000000016
100
AcDbArc
 50
45.0
 51
90.0
  0
ARC
  5
21B
330
1F
100
AcDbEntity
  8
0
  6
HIDDEN
 62
     7
370
     0
100
AcDbCircle
 10
150.2542439707
 20
108.9590554755
 30
0.0
 40
2.000000000000029
100
AcDbArc
 50
189.9742217944
 51
270.0
  0
ARC
  5
21C
330
1F
100
AcDbEntity
  8
0
  6
HIDDEN
 62
     7
370
     0
100
AcDbCircle
 10
150.2542439707
 20
136.9590554755
 30
0.0
 40
2.000000000000027
100
AcDbArc
 50
90.0
 51
170.0257782056
  0
LINE
  5
21D
330
1F
100
AcDbEntity
  8
0
  6
HIDDEN
 62
     7
370
     0
100
AcDbLine
 10
152.670258848
 20
107.5448419132
 30
0.0
 11
154.0844724104
 21
108.9590554755
 31
0.0
  0
LINE
  5
21E
330
1F
100
AcDbEntity
  8
0
  6
HIDDEN
 62
     7
370
     0
100
AcDbLine
 10
154.0844724104
 20
136.9590554755
 30
0.0
 11
152.670258848
 21
138.3732690379
 31
0.0
  0
LINE
  5
21F
330
1F
100
AcDbEntity
  8
0
  6
HIDDEN
 62
     7
370
     0
100
AcDbLine
 10
141.7844724104
 20
107.6461044326
 30
0.0
 11
146.6844724104
 21
108.9590554755
 31
0.0
  0
LINE
  5
220
330
1F
100
AcDbEntity
  8
0
  6
HIDDEN
 62
     7
370
     0
100
AcDbLine
 10
146.6844724104
 20
136.9590554755
 30
0.0
 11
141.7844724104
 21
138.2720065184
 31
0.0
  0
LINE
  5
221
330
1F
100
AcDbEntity
  8
0
  6
HIDDEN
 62
     7
370
     0
100
AcDbLine
 10
148.2844724104
 20
137.305465637
 30
0.0
 11
147.6844724104
 21
136.9590554755
 31
0.0
  0
LINE
  5
222
330
1F
100
AcDbEntity
  8
0
  6
HIDDEN
 62
     7
370
     0
100
AcDbLine
 10
147.6844724104
 20
108.9590554755
 30
0.0
 11
148.2844724104
 21
108.612645314
 31
0.0
  0
ARC
  5
223
330
1F
100
AcDbEntity
  8
0
  6
HIDDEN
 62
     7
370
     0
100
AcDbCircle
 10
166.7542439707
 20
109.4590554755
 30
0.0
 40
0.5
100
AcDbArc
 50
270.0
 51
0.0
  0
ARC
  5
224
330
1F
100
AcDbEntity
  8
0
  6
HIDDEN
 62
     7
370
     0
100
AcDbCircle
 10
166.7542439707
 20
136.4590554755
 30
0.0
 40
0.5
100
AcDbArc
 50
0.0
 51
90.0
  0
LINE
  5
225
330
1F
100
AcDbEntity
  8
0
  6
HIDDEN
 62
     7
370
     0
100
AcDbLine
 10
146.6844724104
 20
108.9590554755
 30
0.0
 11
147.6844724104
 21
108.9590554755
 31
0.0
  0
LINE
  5
226
330
1F
100
AcDbEntity
  8
0
  6
HIDDEN
 62
     7
370
     0
100
AcDbLine
 10
147.6844724104
 20
136.9590554755
 30
0.0
 11
146.6844724104
 21
136.9590554755
 31
0.0
  0
LINE
  5
227
330
1F
100
AcDbEntity
  8
0
  6
HIDDEN
 62
     7
370
     0
100
AcDbLine
 10
154.0844724104
 20
108.9590554755
 30
0.0
 11
166.7542439707
 21
108.9590554755
 31
0.0
  0
LINE
  5
228
330
1F
100
AcDbEntity
  8
0
  6
HIDDEN
 62
     7
370
     0
100
AcDbLine
 10
166.7542439707
 20
136.9590554755
 30
0.0
 11
154.0844724104
 21
136.9590554755
 31
0.0
  0
LINE
  5
229
330
1F
100
AcDbEntity
  8
0
  6
HIDDEN
 62
     7
370
     0
100
AcDbLine
 10
167.2542439707
 20
112.7090554755
 30
0.0
 11
168.5042439707
 21
113.9590554755
 31
0.0
  0
LINE
  5
22A
330
1F
100
AcDbEntity
  8
0
  6
HIDDEN
 62
     7
370
     0
100
AcDbLine
 10
168.5042439707
 20
131.9590554755
 30
0.0
 11
167.2542439707
 21
133.2090554755
 31
0.0
  0
LINE
  5
22B
330
1F
100
AcDbEntity
  8
0
  6
HIDDEN
 62
     7
370
     0
100
AcDbLine
 10
205.2542439707
 20
113.9590554755
 30
0.0
 11
210.661989542
 21
122.9590554755
 31
0.0
  0
LINE
  5
22C
330
1F
100
AcDbEntity
  8
0
  6
HIDDEN
 62
     7
370
     0
100
AcDbLine
 10
210.661989542
 20
122.9590554755
 30
0.0
 11
205.2542439707
 21
131.9590554755
 31
0.0
  0
LINE
  5
22D
330
1F
100
AcDbEntity
  8
0
  6
HIDDEN
 62
     7
370
     0
100
AcDbLine
 10
168.5042439707
 20
113.9590554755
 30
0.0
 11
205.2542439707
 21
113.9590554755
 31
0.0
  0
LINE
  5
22E
330
1F
100
AcDbEntity
  8
0
  6
HIDDEN
 62
     7
370
     0
100
AcDbLine
 10
205.2542439707
 20
131.9590554755
 30
0.0
 11
168.5042439707
 21
131.9590554755
 31
0.0
  0
LINE
  5
22F
330
1F
100
AcDbEntity
  8
0
  6
HIDDEN
 62
     7
370
     0
100
AcDbLine
 10
227.3795619638
 20
88.8641388226
 30
0.0
 11
227.55363867
 21
87.7097741487
 31
0.0
  0
LINE
  5
230
330
1F
100
AcDbEntity
  8
0
  6
HIDDEN
 62
     7
370
     0
100
AcDbLine
 10
242.9177334766
 20
94.7498135865
 30
0.0
 11
239.4189328392
 21
94.7339040587
 31
0.0
  0
LINE
  5
231
330
1F
100
AcDbEntity
  8
0
  6
HIDDEN
 62
     7
370
     0
100
AcDbLine
 10
239.4443965463
 20
89.1339619519
 30
0.0
 11
242.9431971837
 21
89.1498714797
 31
0.0
  0
LINE
  5
232
330
1F
100
AcDbEntity
  8
0
  6
HIDDEN
 62
     7
370
     0
100
AcDbLine
 10
239.4258032657
 20
93.222969679
 30
0.0
 11
231.4285446659
 21
93.186605044
 31
0.0
  0
LINE
  5
233
330
1F
100
AcDbEntity
  8
0
  6
HIDDEN
 62
     7
370
     0
100
AcDbLine
 10
231.4402675201
 20
90.6085316966
 30
0.0
 11
239.4375261199
 21
90.6448963315
 31
0.0
  0
LINE
  5
234
330
1F
100
AcDbEntity
  8
0
  6
HIDDEN
 62
     7
370
     0
100
AcDbLine
 10
231.4271238785
 20
93.1854108293
 30
0.0
 11
230.6601321273
 21
91.8940476401
 31
0.0
  0
LINE
  5
235
330
1F
100
AcDbEntity
  8
0
  6
HIDDEN
 62
     7
370
     0
100
AcDbLine
 10
230.6601321273
 20
91.8940476401
 30
0.0
 11
231.4388359311
 21
90.6097129411
 31
0.0
  0
LINE
  5
236
330
1F
100
AcDbEntity
  8
0
  6
HIDDEN
 62
     7
370
     0
100
AcDbLine
 10
239.3887710664
 20
87.4413670827
 30
0.0
 11
239.1662670058
 21
88.9168708013
 31
0.0
  0
LINE
  5
237
330
1F
100
AcDbEntity
  8
0
  6
HIDDEN
 62
     7
370
     0
100
AcDbLine
 10
236.6169896722
 20
88.5324430623
 30
0.0
 11
236.8394937328
 21
87.0569393438
 31
0.0
  0
LINE
  5
238
330
1F
100
AcDbEntity
  8
VERMASSUNG
  6
CENTERX2
100
AcDbLine
 10
250.7554170051
 20
77.9590554755
 30
0.0
 11
243.2542439707
 21
77.9590554755
 31
0.0
  0
LINE
  5
239
330
1F
100
AcDbEntity
  8
VERMASSUNG
  6
CENTERX2
100
AcDbLine
 10
243.2542439707
 20
77.9590554755
 30
0.0
 11
243.2542439707
 21
122.9590554755
 31
0.0
  0
LINE
  5
23A
330
1F
100
AcDbEntity
  8
VERMASSUNG
  6
CENTERX2
100
AcDbLine
 10
134.9525804021
 20
122.9590554755
 30
0.0
 11
243.2542439707
 21
122.9590554755
 31
0.0
  0
LINE
  5
23B
330
1F
100
AcDbEntity
  8
VERMASSUNG
100
AcDbLine
 10
243.2542439707
 20
77.9590554755
 30
0.0
 11
228.9716399401
 21
86.0176832771
 31
0.0
  0
DIMENSION
  5
23C
330
1F
100
AcDbEntity
  8
VERMASSUNG
100
AcDbDimension
  2
*D1
 10
243.2542439707
 20
58.6624545681
 30
0.0
 11
191.7542439707
 21
58.6624545681
 31
0.0
 70
   160
 71
     2
 42
-1.0
  3
SLDDIMSTYLE0
100
AcDbAlignedDimension
 13
140.2542439707
 23
102.666717483
 33
0.0
 14
243.2542439707
 24
77.9590554755
 34
0.0
 50
0.0
100
AcDbRotatedDimension
  0
DIMENSION
  5
247
330
1F
100
AcDbEntity
  8
VERMASSUNG
100
AcDbDimension
  2
*D2
 10
243.2542439707
 20
68.231420715
 30
0.0
 11
210.7542439707
 21
68.231420715
 31
0.0
 70
   160
 71
     2
 42
-1.0
  3
SLDDIMSTYLE1
100
AcDbAlignedDimension
 13
178.2542439707
 23
91.9590554755
 33
0.0
 14
243.2542439707
 24
77.9590554755
 34
0.0
100
AcDbRotatedDimension
  0
DIMENSION
  5
254
330
1F
100
AcDbEntity
  8
VERMASSUNG
100
AcDbDimension
  2
*D3
 10
256.1340556395
 20
77.9590554755
 30
0.0
 11
256.1340556395
 21
100.4590554755
 31
0.0
 70
   160
 71
     2
 42
-1.0
  3
SLDDIMSTYLE1
100
AcDbAlignedDimension
 13
243.2542439707
 23
122.9590554755
 33
0.0
 14
250.7554170051
 24
77.9590554755
 34
0.0
 50
90.0
100
AcDbRotatedDimension
  0
DIMENSION
  5
260
330
1F
100
AcDbEntity
  8
VERMASSUNG
100
AcDbDimension
  2
*D4
 10
130.2542439707
 20
91.4590554755
 30
0.0
 11
130.2542439707
 21
122.9590554755
 31
0.0
 70
   160
  1
PSC%%c<>
 71
     2
 42
-1.0
  3
SLDDIMSTYLE0
100
AcDbAlignedDimension
 13
178.7542439707
 23
154.4590554755
 33
0.0
 14
178.7542439707
 24
91.4590554755
 34
0.0
 50
90.0
100
AcDbRotatedDimension
  0
LINE
  5
26C
330
1F
100
AcDbEntity
  8
0
  6
Continuous
 62
     7
370
    15
100
AcDbLine
 10
65.9162076147
 20
93.7438071739
 30
0.0
 11
64.9593630763
 21
93.5750906389
 31
0.0
  0
LINE
  5
26D
330
1F
100
AcDbEntity
  8
0
  6
Continuous
 62
     7
370
    15
100
AcDbLine
 10
62.0527388485
 20
88.6124190908
 30
0.0
 11
62.0256258365
 21
88.537786625
 31
0.0
  0
LINE
  5
26E
330
1F
100
AcDbEntity
  8
0
  6
Continuous
 62
     7
370
    15
100
AcDbLine
 10
62.8995859254
 20
83.5813139599
 30
0.0
 11
62.9505888749
 21
83.5204576176
 31
0.0
  0
LINE
  5
26F
330
1F
100
AcDbEntity
  8
0
  6
Continuous
 62
     7
370
    15
100
AcDbLine
 10
62.6484126508
 20
85.1723109406
 30
0.0
 11
62.6337233655
 21
85.1697181385
 31
0.0
  0
LINE
  5
270
330
1F
100
AcDbEntity
  8
0
  6
Continuous
 62
     7
370
    15
100
AcDbLine
 10
62.2973791281
 20
86.9504218023
 30
0.0
 11
62.3219576621
 21
86.954754315
 31
0.0
  0
LINE
  5
271
330
1F
100
AcDbEntity
  8
0
  6
Continuous
 62
     7
370
    15
100
AcDbLine
 10
70.1745576182
 20
90.9811486524
 30
0.0
 11
70.1436223419
 21
90.9756911021
 31
0.0
  0
LINE
  5
272
330
1F
100
AcDbEntity
  8
0
  6
Continuous
 62
     7
370
    15
100
AcDbLine
 10
70.0204996349
 20
92.9058105718
 30
0.0
 11
70.0514349112
 21
92.9112643968
 31
0.0
  0
LINE
  5
273
330
1F
100
AcDbEntity
  8
0
  6
Continuous
 62
     7
370
    15
100
AcDbLine
 10
69.6359612005
 20
94.6037438732
 30
0.0
 11
69.5745418737
 21
94.5929144543
 31
0.0
  0
LINE
  5
274
330
1F
100
AcDbEntity
  8
0
  6
Continuous
 62
     7
370
    15
100
AcDbLine
 10
70.5122421453
 20
89.2749507945
 30
0.0
 11
70.5736614721
 21
89.2857802134
 31
0.0
  0
LINE
  5
275
330
1F
100
AcDbEntity
  8
0
  6
Continuous
 62
     7
370
    15
100
AcDbLine
 10
66.7707775677
 20
83.4043105166
 30
0.0
 11
65.280735372
 21
91.8547590297
 31
0.0
  0
LINE
  5
276
330
1F
100
AcDbEntity
  8
0
  6
Continuous
 62
     7
370
    15
100
AcDbLine
 10
66.7268347418
 20
92.1097458374
 30
0.0
 11
68.7366290906
 21
87.7987635356
 31
0.0
  0
LINE
  5
277
330
1F
100
AcDbEntity
  8
0
  6
Continuous
 62
     7
370
    15
100
AcDbLine
 10
69.4288471671
 20
83.873000465
 30
0.0
 11
68.7366290906
 21
87.7987635356
 31
0.0
  0
LINE
  5
278
330
1F
100
AcDbEntity
  8
0
  6
Continuous
 62
     7
370
    15
100
AcDbLine
 10
66.7707775677
 20
83.4043105166
 30
0.0
 11
69.4288471671
 21
83.873000465
 31
0.0
  0
LWPOLYLINE
  5
279
330
1F
100
AcDbEntity
  8
0
  6
Continuous
 62
     7
370
    15
100
AcDbPolyline
 90
        3
 70
   128
 43
0.0
 10
65.280735372
 20
91.8547590297
 10
65.2005471013
 20
92.3005403053
 10
65.1779015273
 20
92.4231749993
  0
LINE
  5
27A
330
1F
100
AcDbEntity
  8
0
  6
Continuous
 62
     7
370
    15
100
AcDbLine
 10
66.7983523993
 20
83.233140878
 30
0.0
 11
66.7707775677
 21
83.4043105166
 31
0.0
  0
LINE
  5
27B
330
1F
100
AcDbEntity
  8
0
  6
Continuous
 62
     7
370
    15
100
AcDbLine
 10
70.0616538482
 20
83.0871989053
 30
0.0
 11
69.4288471671
 21
83.873000465
 31
0.0
  0
LINE
  5
27C
330
1F
100
AcDbEntity
  8
0
  6
Continuous
 62
     7
370
    15
100
AcDbLine
 10
70.3066089148
 20
81.5666471642
 30
0.0
 11
70.0616538482
 21
83.0871989053
 31
0.0
  0
ELLIPSE
  5
27D
330
1F
100
AcDbEntity
  8
0
  6
Continuous
 62
     7
370
    15
100
AcDbEllipse
 10
66.681720958
 20
92.1017913651
 30
0.0
 11
-0.7657922570394362
 21
1.641928660910551
 31
0.0
210
0.0
220
0.0
230
1.0
 40
0.0244235004
 41
4.705842874032099
 42
6.27663920082786
  0
LINE
  5
27E
330
1F
100
AcDbEntity
  8
0
  6
Continuous
 62
     7
370
    15
100
AcDbLine
 10
69.5400065699
 20
86.0456083935
 30
0.0
 11
70.0616538482
 21
83.0871989053
 31
0.0
  0
LINE
  5
27F
330
1F
100
AcDbEntity
  8
0
  6
Continuous
 62
     7
370
    15
100
AcDbLine
 10
68.7366290906
 20
87.7987635356
 30
0.0
 11
69.5400065699
 21
86.0456083935
 31
0.0
  0
LINE
  5
280
330
1F
100
AcDbEntity
  8
0
  6
Continuous
 62
     7
370
    15
100
AcDbLine
 10
70.3131789299
 20
81.5162663382
 30
0.0
 11
67.1979400752
 21
80.9669648331
 31
0.0
  0
ARC
  5
281
330
1F
100
AcDbEntity
  8
0
  6
Continuous
 62
     7
370
    15
100
AcDbCircle
 10
69.9434233506
 20
81.4936664035
 30
0.0
 40
0.3704456038452734
100
AcDbArc
 50
3.4976402654
 51
11.3620513701
  0
LINE
  5
282
330
1F
100
AcDbEntity
  8
0
  6
Continuous
 62
     7
370
    15
100
AcDbLine
 10
67.8355386438
 20
93.4652150642
 30
0.0
 11
67.630305882
 21
93.6320987564
 31
0.0
  0
LINE
  5
283
330
1F
100
AcDbEntity
  8
0
  6
Continuous
 62
     7
370
    15
100
AcDbLine
 10
66.1234774118
 20
93.3664054643
 30
0.0
 11
67.630305882
 21
93.6320987564
 31
0.0
  0
LINE
  5
284
330
1F
100
AcDbEntity
  8
0
  6
Continuous
 62
     7
370
    15
100
AcDbLine
 10
69.4352327803
 20
86.2742480856
 30
0.0
 11
68.8633681232
 21
89.5174560171
 31
0.0
  0
LINE
  5
285
330
1F
100
AcDbEntity
  8
0
  6
Continuous
 62
     7
370
    15
100
AcDbLine
 10
62.0793608207
 20
87.1396590989
 30
0.0
 11
62.2385304844
 21
86.1497079056
 31
0.0
  0
LINE
  5
286
330
1F
100
AcDbEntity
  8
0
  6
Continuous
 62
     7
370
    15
100
AcDbLine
 10
61.2338322638
 20
93.6463126015
 30
0.0
 11
62.0793608207
 21
87.1396590989
 31
0.0
  0
LINE
  5
287
330
1F
100
AcDbEntity
  8
0
  6
Continuous
 62
     7
370
    15
100
AcDbLine
 10
61.2486139828
 20
93.6543182504
 30
0.0
 11
61.2338322638
 21
93.6463126015
 31
0.0
  0
LINE
  5
288
330
1F
100
AcDbEntity
  8
0
  6
Continuous
 62
     7
370
    15
100
AcDbLine
 10
61.2812687134
 20
93.4841991436
 30
0.0
 11
61.2486139828
 21
93.6543182504
 31
0.0
  0
LINE
  5
289
330
1F
100
AcDbEntity
  8
0
  6
Continuous
 62
     7
370
    15
100
AcDbLine
 10
61.3644509533
 20
92.9658361744
 30
0.0
 11
61.2812687134
 21
93.4841991436
 31
0.0
  0
LINE
  5
28A
330
1F
100
AcDbEntity
  8
0
  6
Continuous
 62
     7
370
    15
100
AcDbLine
 10
61.5534638012
 20
91.9811469536
 30
0.0
 11
61.3644509533
 21
92.9658361744
 31
0.0
  0
LINE
  5
28B
330
1F
100
AcDbEntity
  8
0
  6
Continuous
 62
     7
370
    15
100
AcDbLine
 10
63.8298622028
 20
79.0710491162
 30
0.0
 11
61.5534638012
 21
91.9811469536
 31
0.0
  0
LINE
  5
28C
330
1F
100
AcDbEntity
  8
0
  6
Continuous
 62
     7
370
    15
100
AcDbLine
 10
63.9142050625
 20
78.5474930924
 30
0.0
 11
63.8298622028
 21
79.0710491162
 31
0.0
  0
LINE
  5
28D
330
1F
100
AcDbEntity
  8
0
  6
Continuous
 62
     7
370
    15
100
AcDbLine
 10
63.9090492107
 20
78.5465841215
 30
0.0
 11
63.9142050625
 21
78.5474930924
 31
0.0
  0
LINE
  5
28E
330
1F
100
AcDbEntity
  8
0
  6
Continuous
 62
     7
370
    15
100
AcDbLine
 10
63.8092387992
 20
79.0674132329
 30
0.0
 11
63.9090492107
 21
78.5465841215
 31
0.0
  0
LINE
  5
28F
330
1F
100
AcDbEntity
  8
0
  6
Continuous
 62
     7
370
    15
100
AcDbLine
 10
63.7793955059
 20
79.062153123
 30
0.0
 11
63.8092387992
 21
79.0674132329
 31
0.0
  0
LINE
  5
290
330
1F
100
AcDbEntity
  8
0
  6
Continuous
 62
     7
370
    15
100
AcDbLine
 10
62.3485257341
 20
85.4655955952
 30
0.0
 11
63.7793955059
 21
79.062153123
 31
0.0
  0
LINE
  5
291
330
1F
100
AcDbEntity
  8
0
  6
Continuous
 62
     7
370
    15
100
AcDbLine
 10
62.2494011143
 20
85.9811459702
 30
0.0
 11
62.3485257341
 21
85.4655955952
 31
0.0
  0
LINE
  5
292
330
1F
100
AcDbEntity
  8
0
  6
Continuous
 62
     7
370
    15
100
AcDbLine
 10
62.2219023019
 20
86.1521740478
 30
0.0
 11
62.2494011143
 21
85.9811459702
 31
0.0
  0
LINE
  5
293
330
1F
100
AcDbEntity
  8
0
  6
Continuous
 62
     7
370
    15
100
AcDbLine
 10
62.2385304844
 20
86.1497079056
 30
0.0
 11
62.2219023019
 21
86.1521740478
 31
0.0
  0
LWPOLYLINE
  5
294
330
1F
100
AcDbEntity
  8
0
  6
Continuous
 62
     7
370
    15
100
AcDbPolyline
 90
       28
 70
   128
 43
0.0
 10
62.0788818881
 20
88.4981383603
 10
62.0177052872
 20
88.7534921091
 10
61.9809520388
 20
88.8636936467
 10
61.9706031823
 20
88.8227974098
 10
61.9872170458
 20
88.6330124956
 10
62.0298976967
 20
88.3045722764
 10
62.0963441864
 20
87.8551756065
 10
62.1829745317
 20
87.3090554994
 10
62.2851183828
 20
86.6956491988
 10
62.3972691785
 20
86.0480298322
 10
62.5133807728
 20
85.4011108201
 10
62.6271935137
 20
84.7897646051
 10
62.7325719645
 20
84.2469488304
 10
62.8238349412
 20
83.8019293767
 10
62.8960623829
 20
83.4786971133
 10
62.9453606628
 20
83.2946752232
 10
62.9690720191
 20
83.2597841542
 10
62.9659181534
 20
83.3759089034
 10
62.9360690903
 20
83.6367872577
 10
62.8811340969
 20
84.0283562463
 10
62.8040746044
 20
84.5295009237
 10
62.7090450101
 20
85.11320921
 10
62.6011682864
 20
85.748013578
 10
62.4862600773
 20
86.3996897858
 10
62.3705153078
 20
87.0331083458
 10
62.2601736061
 20
87.6141157966
 10
62.1611835625
 20
88.111397348
 10
62.0788818881
 20
88.4981383603
  0
LINE
  5
295
330
1F
100
AcDbEntity
  8
0
  6
Continuous
 62
     7
370
    15
100
AcDbLine
 10
65.0483333696
 20
92.5973863375
 30
0.0
 11
61.5534638012
 21
91.9811469536
 31
0.0
  0
LINE
  5
296
330
1F
100
AcDbEntity
  8
0
  6
Continuous
 62
     7
370
    15
100
AcDbLine
 10
67.3247317275
 20
79.6872903626
 30
0.0
 11
65.0483333696
 21
92.5973863375
 31
0.0
  0
LINE
  5
297
330
1F
100
AcDbEntity
  8
0
  6
Continuous
 62
     7
370
    15
100
AcDbLine
 10
67.3247317275
 20
79.6872903626
 30
0.0
 11
63.8298622028
 21
79.0710491162
 31
0.0
  0
LINE
  5
298
330
1F
100
AcDbEntity
  8
0
  6
Continuous
 62
     7
370
    15
100
AcDbLine
 10
67.4160290467
 20
79.7301237505
 30
0.0
 11
67.3247317275
 21
79.6872903626
 31
0.0
  0
LINE
  5
299
330
1F
100
AcDbEntity
  8
0
  6
Continuous
 62
     7
370
    15
100
AcDbLine
 10
65.1488554388
 20
92.587903611
 30
0.0
 11
65.0483333696
 21
92.5973863375
 31
0.0
  0
LINE
  5
29A
330
1F
100
AcDbEntity
  8
0
  6
Continuous
 62
     7
370
    15
100
AcDbLine
 10
65.1488554388
 20
92.587903611
 30
0.0
 11
67.4160290467
 21
79.7301237505
 31
0.0
  0
LINE
  5
29B
330
1F
100
AcDbEntity
  8
0
  6
Continuous
 62
     7
370
    15
100
AcDbLine
 10
64.8593204635
 20
93.5820755582
 30
0.0
 11
61.3644509533
 21
92.9658361744
 31
0.0
  0
LINE
  5
29C
330
1F
100
AcDbEntity
  8
0
  6
Continuous
 62
     7
370
    15
100
AcDbLine
 10
65.0483333696
 20
92.5973863375
 30
0.0
 11
64.8593204635
 21
93.5820755582
 31
0.0
  0
LINE
  5
29D
330
1F
100
AcDbEntity
  8
0
  6
Continuous
 62
     7
370
    15
100
AcDbLine
 10
64.8593204635
 20
93.5820755582
 30
0.0
 11
64.9546955204
 21
93.5994056087
 31
0.0
  0
LINE
  5
29E
330
1F
100
AcDbEntity
  8
0
  6
Continuous
 62
     7
370
    15
100
AcDbLine
 10
64.9546955204
 20
93.5994056087
 30
0.0
 11
65.1488554388
 21
92.587903611
 31
0.0
  0
LINE
  5
29F
330
1F
100
AcDbEntity
  8
0
  6
Continuous
 62
     7
370
    15
100
AcDbLine
 10
67.4090746282
 20
79.1637343388
 30
0.0
 11
67.3247317275
 21
79.6872903626
 31
0.0
  0
LINE
  5
2A0
330
1F
100
AcDbEntity
  8
0
  6
Continuous
 62
     7
370
    15
100
AcDbLine
 10
67.4090746282
 20
79.1637343388
 30
0.0
 11
63.9142050625
 21
78.5474930924
 31
0.0
  0
LINE
  5
2A1
330
1F
100
AcDbEntity
  8
0
  6
Continuous
 62
     7
370
    15
100
AcDbLine
 10
67.4886533482
 20
79.279307745
 30
0.0
 11
67.4090746282
 21
79.1637343388
 31
0.0
  0
LINE
  5
2A2
330
1F
100
AcDbEntity
  8
0
  6
Continuous
 62
     7
370
    15
100
AcDbLine
 10
67.4160290467
 20
79.7301237505
 30
0.0
 11
67.4886533482
 21
79.279307745
 31
0.0
  0
LINE
  5
2A3
330
1F
100
AcDbEntity
  8
0
  6
Continuous
 62
     7
370
    15
100
AcDbLine
 10
64.743483493
 20
94.2705576342
 30
0.0
 11
61.2486139828
 21
93.6543182504
 31
0.0
  0
LINE
  5
2A4
330
1F
100
AcDbEntity
  8
0
  6
Continuous
 62
     7
370
    15
100
AcDbLine
 10
64.7761381654
 20
94.1004385274
 30
0.0
 11
64.743483493
 21
94.2705576342
 31
0.0
  0
LINE
  5
2A5
330
1F
100
AcDbEntity
  8
0
  6
Continuous
 62
     7
370
    15
100
AcDbLine
 10
64.7761381654
 20
94.1004385274
 30
0.0
 11
61.2812687134
 21
93.4841991436
 31
0.0
  0
LINE
  5
2A6
330
1F
100
AcDbEntity
  8
0
  6
Continuous
 62
     7
370
    15
100
AcDbLine
 10
64.8593204635
 20
93.5820755582
 30
0.0
 11
64.7761381654
 21
94.1004385274
 31
0.0
  0
LINE
  5
2A7
330
1F
100
AcDbEntity
  8
0
  6
Continuous
 62
     7
370
    15
100
AcDbLine
 10
64.743483493
 20
94.2705576342
 30
0.0
 11
64.8579021756
 21
94.1886776161
 31
0.0
  0
LINE
  5
2A8
330
1F
100
AcDbEntity
  8
0
  6
Continuous
 62
     7
370
    15
100
AcDbLine
 10
64.7761381654
 20
94.1004385274
 30
0.0
 11
64.8715132222
 21
94.1177685779
 31
0.0
  0
LINE
  5
2A9
330
1F
100
AcDbEntity
  8
0
  6
Continuous
 62
     7
370
    15
100
AcDbLine
 10
64.8579021756
 20
94.1886776161
 30
0.0
 11
64.8715132222
 21
94.1177685779
 31
0.0
  0
LINE
  5
2AA
330
1F
100
AcDbEntity
  8
0
  6
Continuous
 62
     7
370
    15
100
AcDbLine
 10
64.8715132222
 20
94.1177685779
 30
0.0
 11
64.9546955204
 21
93.5994056087
 31
0.0
  0
LINE
  5
2AB
330
1F
100
AcDbEntity
  8
0
  6
Continuous
 62
     7
370
    15
100
AcDbLine
 10
62.2376863569
 20
86.1549568396
 30
0.0
 11
62.2219023019
 21
86.1521740478
 31
0.0
  0
LWPOLYLINE
  5
2AC
330
1F
100
AcDbEntity
  8
0
  6
Continuous
 62
     7
370
    15
100
AcDbPolyline
 90
       26
 70
   128
 43
0.0
 10
62.0270827742
 20
88.4426091831
 10
62.0265552964
 20
88.539686523
 10
62.0536114978
 20
88.480964772
 10
62.1065514818
 20
88.2701282423
 10
62.1820486806
 20
87.9204240661
 10
62.2753594028
 20
87.4538277309
 10
62.3806206234
 20
86.8996572714
 10
62.4912182059
 20
86.292732976
 10
62.6002032034
 20
85.6711906415
 10
62.7007274846
 20
85.0740787607
 10
62.7864747032
 20
84.5389221829
 10
62.8520571584
 20
84.0993491035
 10
62.8933539804
 20
83.7829713743
 10
62.9077705046
 20
83.6096708696
 10
62.8944006706
 20
83.5903403383
 10
62.8540846476
 20
83.7261904996
 10
62.7893556332
 20
84.0086904388
 10
62.7042808294
 20
84.420081697
 10
62.604205795
 20
84.9345219355
 10
62.4954185871
 20
85.519683085
 10
62.3847546479
 20
86.1388002556
 10
62.2791674644
 20
86.7529702406
 10
62.1852914294
 20
87.323602758
 10
62.1090251909
 20
87.8148418885
 10
62.0551607529
 20
88.195823602
 10
62.0270827742
 20
88.4426091831
  0
ARC
  5
2AD
330
1F
100
AcDbEntity
  8
0
  6
Continuous
 62
     7
370
    15
100
AcDbCircle
 10
46.3126303196
 20
83.5997037707
 30
0.0
 40
16.31105399629952
100
AcDbArc
 50
8.2595609961
 51
10.9879888955
  0
ARC
  5
2AE
330
1F
100
AcDbEntity
  8
0
  6
Continuous
 62
     7
370
    15
100
AcDbCircle
 10
66.5606773735
 20
86.4853372395
 30
0.0
 40
4.141852618948828
100
AcDbArc
 50
187.525166898
 51
193.3301267653
  0
ARC
  5
2AF
330
1F
100
AcDbEntity
  8
0
  6
Continuous
 62
     7
370
    15
100
AcDbCircle
 10
57.5463125889
 20
84.2275968875
 30
0.0
 40
5.15155711126906
100
AcDbArc
 50
8.4478861569
 51
14.6487278922
  0
LWPOLYLINE
  5
2B0
330
1F
100
AcDbEntity
  8
0
  6
Continuous
 62
     7
370
    15
100
AcDbPolyline
 90
        9
 70
   128
 43
0.0
 10
62.6419747671
 20
84.9844110232
 10
62.6548507674
 20
84.9134069901
 10
62.666898589
 20
84.8504756611
 10
62.6768483737
 20
84.8022555035
 10
62.6836512195
 20
84.7738278132
 10
62.6865900079
 20
84.7681877237
 10
62.6853549577
 20
84.7859312814
 10
62.6800762214
 20
84.8251846653
 10
62.671310264
 20
84.8818128031
  0
LWPOLYLINE
  5
2B1
330
1F
100
AcDbEntity
  8
0
  6
Continuous
 62
     7
370
    15
100
AcDbPolyline
 90
        9
 70
   128
 43
0.0
 10
62.6530293332
 20
85.1015676778
 10
62.6428098142
 20
85.1441700976
 10
62.635997306
 20
85.1664622348
 10
62.6328504834
 20
85.1675984483
 10
62.633488905
 20
85.1475377601
 10
62.6378883565
 20
85.1070364039
 10
62.6458816653
 20
85.0476403754
 10
62.6571652204
 20
84.9716034751
 10
62.671310264
 20
84.8818128031
  0
LWPOLYLINE
  5
2B2
330
1F
100
AcDbEntity
  8
0
  6
Continuous
 62
     7
370
    15
100
AcDbPolyline
 90
        9
 70
   128
 43
0.0
 10
62.6530293332
 20
85.1015676778
 10
62.6590634886
 20
85.0777779739
 10
62.6611325381
 20
85.0771036964
 10
62.6590183195
 20
85.0996230763
 10
62.6529436516
 20
85.1429593783
 10
62.6435490515
 20
85.2025453966
 10
62.631824748
 20
85.2720965665
 10
62.6190066062
 20
85.3442852419
 10
62.606445975
 20
85.4114969295
  0
ARC
  5
2B3
330
1F
100
AcDbEntity
  8
0
  6
Continuous
 62
     7
370
    15
100
AcDbCircle
 10
78.6191015017
 20
88.520529047
 30
0.0
 40
16.31168960356386
100
AcDbArc
 50
188.2595533352
 51
190.9878877339
  0
ARC
  5
2B4
330
1F
100
AcDbEntity
  8
0
  6
Continuous
 62
     7
370
    15
100
AcDbCircle
 10
58.3705844257
 20
85.6348259835
 30
0.0
 40
4.141692124171699
100
AcDbArc
 50
7.5251872968
 51
13.3303218473
  0
ARC
  5
2B5
330
1F
100
AcDbEntity
  8
0
  6
Continuous
 62
     7
370
    15
100
AcDbCircle
 10
67.3850007258
 20
87.8925809901
 30
0.0
 40
5.151770786087912
100
AcDbArc
 50
188.4479178707
 51
194.6485428204
  0
LWPOLYLINE
  5
2B6
330
1F
100
AcDbEntity
  8
0
  6
Continuous
 62
     7
370
    15
100
AcDbPolyline
 90
        9
 70
   128
 43
0.0
 10
62.2891276101
 20
87.1357326429
 10
62.2762517262
 20
87.206736676
 10
62.2642039046
 20
87.2696642798
 10
62.2542540034
 20
87.3178844374
 10
62.2474511577
 20
87.3463121276
 10
62.2445123693
 20
87.3519559424
 10
62.2457474194
 20
87.3342123848
 10
62.2510261558
 20
87.2949590009
 10
62.2597921131
 20
87.2383271378
  0
LWPOLYLINE
  5
2B7
330
1F
100
AcDbEntity
  8
0
  6
Continuous
 62
     7
370
    15
100
AcDbPolyline
 90
        9
 70
   128
 43
0.0
 10
62.2780731603
 20
87.0185759883
 10
62.288292563
 20
86.9759735685
 10
62.2951051876
 20
86.9536814313
 10
62.2982520101
 20
86.9525452178
 10
62.2976135885
 20
86.9726059061
 10
62.2932141371
 20
87.0131035369
 10
62.2852207119
 20
87.0724995654
 10
62.2739372732
 20
87.1485364657
 10
62.2597921131
 20
87.2383271378
  0
LWPOLYLINE
  5
2B8
330
1F
100
AcDbEntity
  8
0
  6
Continuous
 62
     7
370
    15
100
AcDbPolyline
 90
        9
 70
   128
 43
0.0
 10
62.2780731603
 20
87.0185759883
 10
62.272039005
 20
87.0423656922
 10
62.2699699554
 20
87.0430362444
 10
62.2720841741
 20
87.0205168646
 10
62.2781587256
 20
86.9771805625
 10
62.2875534421
 20
86.9175982695
 10
62.2992777456
 20
86.8480433744
 10
62.312095771
 20
86.7758584242
 10
62.3246564021
 20
86.7086430114
  0
LINE
  5
2B9
330
1F
100
AcDbEntity
  8
0
  6
Continuous
 62
     7
370
    15
100
AcDbLine
 10
62.5823625553
 20
85.5395463329
 30
0.0
 11
62.5304154776
 21
85.530385844
 31
0.0
  0
CIRCLE
  5
2BA
330
1F
100
AcDbEntity
  8
0
  6
Continuous
 62
     7
370
    15
100
AcDbCircle
 10
70.1054368913
 20
91.9453518456
 30
0.0
 40
2.699696483087067
  0
CIRCLE
  5
2BB
330
1F
100
AcDbEntity
  8
0
  6
Continuous
 62
     7
370
    15
100
AcDbCircle
 10
70.1134240016
 20
91.9468855112
 30
0.0
 40
2.382053413329019
  0
ARC
  5
2BC
330
1F
100
AcDbEntity
  8
0
  6
Continuous
 62
     7
370
    15
100
AcDbCircle
 10
68.712267415
 20
92.5699914173
 30
0.0
 40
0.5687497281131352
100
AcDbArc
 50
291.2720706316
 51
20.7450785673
  0
ARC
  5
2BD
330
1F
100
AcDbEntity
  8
0
  6
Continuous
 62
     7
370
    15
100
AcDbCircle
 10
69.0006379459
 20
91.8293315566
 30
0.0
 40
0.2260676048170901
100
AcDbArc
 50
111.2756516547
 51
260.7260885825
  0
ARC
  5
2BE
330
1F
100
AcDbEntity
  8
0
  6
Continuous
 62
     7
370
    15
100
AcDbCircle
 10
68.8725334707
 20
91.0448527398
 30
0.0
 40
0.5688020515721596
100
AcDbArc
 50
351.2582663217
 51
80.7253040302
  0
ARC
  5
2BF
330
1F
100
AcDbEntity
  8
0
  6
Continuous
 62
     7
370
    15
100
AcDbCircle
 10
69.6580831011
 20
90.9239972241
 30
0.0
 40
0.2259899259508447
100
AcDbArc
 50
171.2422586611
 51
320.738682681
  0
ARC
  5
2C0
330
1F
100
AcDbEntity
  8
0
  6
Continuous
 62
     7
370
    15
100
AcDbCircle
 10
70.2732679229
 20
90.4213446737
 30
0.0
 40
0.5684356268504834
100
AcDbArc
 50
51.2434057485
 51
140.7525114007
  0
ARC
  5
2C1
330
1F
100
AcDbEntity
  8
0
  6
Continuous
 62
     7
370
    15
100
AcDbCircle
 10
70.7705430035
 20
91.0408681342
 30
0.0
 40
0.2259772568763061
100
AcDbArc
 50
231.2557246671
 51
20.7588586044
  0
ARC
  5
2C2
330
1F
100
AcDbEntity
  8
0
  6
Continuous
 62
     7
370
    15
100
AcDbCircle
 10
71.5137242392
 20
91.3224202902
 30
0.0
 40
0.5687490941145954
100
AcDbArc
 50
111.2720512185
 51
200.7451588713
  0
ARC
  5
2C3
330
1F
100
AcDbEntity
  8
0
  6
Continuous
 62
     7
370
    15
100
AcDbCircle
 10
71.2253547873
 20
92.0630797394
 30
0.0
 40
0.2260674639362066
100
AcDbArc
 50
291.2754834915
 51
80.7261350745
  0
ARC
  5
2C4
330
1F
100
AcDbEntity
  8
0
  6
Continuous
 62
     7
370
    15
100
AcDbCircle
 10
71.3534602745
 20
92.8475599825
 30
0.0
 40
0.5688037631569489
100
AcDbArc
 50
171.2582595139
 51
260.725208098
  0
ARC
  5
2C5
330
1F
100
AcDbEntity
  8
0
  6
Continuous
 62
     7
370
    15
100
AcDbCircle
 10
70.5679084905
 20
92.9684143058
 30
0.0
 40
0.2259901613246094
100
AcDbArc
 50
351.2426575989
 51
140.7382339521
  0
ARC
  5
2C6
330
1F
100
AcDbEntity
  8
0
  6
Continuous
 62
     7
370
    15
100
AcDbCircle
 10
69.9527234598
 20
93.4710694186
 30
0.0
 40
0.5684371748702546
100
AcDbArc
 50
231.2436792362
 51
320.7525031113
  0
ARC
  5
2C7
330
1F
100
AcDbEntity
  8
0
  6
Continuous
 62
     7
370
    15
100
AcDbCircle
 10
69.4554493656
 20
92.851543273
 30
0.0
 40
0.2259771851503034
100
AcDbArc
 50
51.2556579546
 51
200.7589253168
  0
LWPOLYLINE
  5
2C8
330
1F
100
AcDbEntity
  8
0
  6
Continuous
 62
     7
370
    15
100
AcDbPolyline
 90
        3
 70
   128
 43
0.0
 10
69.6817710953
 20
90.6992298585
 10
69.747090801
 20
90.7269907218
 10
69.8021245146
 20
90.7755200785
  0
ARC
  5
2C9
330
1F
100
AcDbEntity
  8
0
  6
Continuous
 62
     7
370
    15
100
AcDbCircle
 10
69.4245032486
 20
92.8461409307
 30
0.0
 40
0.2259423671035878
100
AcDbArc
 50
51.2450476333
 51
96.0112215523
  0
ARC
  5
2CA
330
1F
100
AcDbEntity
  8
0
  6
Continuous
 62
     7
370
    15
100
AcDbCircle
 10
70.2423249106
 20
90.4159132026
 30
0.0
 40
0.5684131365733337
100
AcDbArc
 50
99.9998631884
 51
140.7540538284
  0
ARC
  5
2CB
330
1F
100
AcDbEntity
  8
0
  6
Continuous
 62
     7
370
    15
100
AcDbCircle
 10
69.9218039306
 20
93.4656635482
 30
0.0
 40
0.5684858812505511
100
AcDbArc
 50
231.2455847289
 51
279.9978679325
  0
ARC
  5
2CC
330
1F
100
AcDbEntity
  8
0
  6
Continuous
 62
     7
370
    15
100
AcDbCircle
 10
71.4827890417
 20
91.3169662988
 30
0.0
 40
0.5687491088578903
100
AcDbArc
 50
111.272008819
 51
200.7451403799
  0
ARC
  5
2CD
330
1F
100
AcDbEntity
  8
0
  6
Continuous
 62
     7
370
    15
100
AcDbCircle
 10
70.7395631538
 20
91.0354259103
 30
0.0
 40
0.2260148263627226
100
AcDbArc
 50
283.9932940911
 51
20.7521036279
  0
ARC
  5
2CE
330
1F
100
AcDbEntity
  8
0
  6
Continuous
 62
     7
370
    15
100
AcDbCircle
 10
71.3225246286
 20
92.8421056404
 30
0.0
 40
0.5688031932966516
100
AcDbArc
 50
171.2583878233
 51
260.7252364521
  0
ARC
  5
2CF
330
1F
100
AcDbEntity
  8
0
  6
Continuous
 62
     7
370
    15
100
AcDbCircle
 10
70.5369197763
 20
92.962926468
 30
0.0
 40
0.2260380849433979
100
AcDbArc
 50
351.2527742354
 51
96.0015814355
  0
ARC
  5
2D0
330
1F
100
AcDbEntity
  8
0
  6
Continuous
 62
     7
370
    15
100
AcDbCircle
 10
71.1944191836
 20
92.0576257919
 30
0.0
 40
0.2260676375587594
100
AcDbArc
 50
291.2756820404
 51
80.7260581968
  0
ARC
  5
2D1
330
1F
100
AcDbEntity
  8
0
  6
Continuous
 62
     7
370
    15
100
AcDbCircle
 10
70.0437096541
 20
91.9324765479
 30
0.0
 40
2.698511779674552
100
AcDbArc
 50
244.1146453358
 51
279.9987244803
  0
ARC
  5
2D2
330
1F
100
AcDbEntity
  8
0
  6
Continuous
 62
     7
370
    15
100
AcDbCircle
 10
70.0433027227
 20
91.9351979423
 30
0.0
 40
2.698739296668993
100
AcDbArc
 50
100.0027958402
 51
145.25679358
  0
LINE
  5
2D3
330
1F
100
AcDbEntity
  8
0
  6
Continuous
 62
     7
370
    15
100
AcDbLine
 10
95.8804520735
 20
114.056583963
 30
0.0
 11
95.8804520735
 21
122.9602038562
 31
0.0
  0
LINE
  5
2D4
330
1F
100
AcDbEntity
  8
0
  6
Continuous
 62
     7
370
    15
100
AcDbLine
 10
95.8804520735
 20
114.056583963
 30
0.0
 11
59.0076260226
 21
107.5549102422
 31
0.0
  0
LINE
  5
2D5
330
1F
100
AcDbEntity
  8
0
  6
Continuous
 62
     7
370
    15
100
AcDbLine
 10
51.1564142028
 20
147.7966574054
 30
0.0
 11
59.0076260226
 21
107.5549102422
 31
0.0
  0
ELLIPSE
  5
2D6
330
1F
100
AcDbEntity
  8
0
  6
Continuous
 62
     7
370
    15
100
AcDbEllipse
 10
45.2495924775
 20
146.7551245468
 30
0.0
 11
-1.79967165472754
 21
8.467223621562852
 31
0.0
210
0.0
220
0.0
230
1.0
 40
0.692674477
 41
4.688212198328115
 42
5.111255181653928
  0
ARC
  5
2D7
330
1F
100
AcDbEntity
  8
0
  6
Continuous
 62
     7
370
    15
100
AcDbCircle
 10
63.9243083963
 20
122.9590554755
 30
0.0
 40
31.50000000000003
100
AcDbArc
 50
61.152369901
 51
116.3249232298
  0
SPLINE
  5
2D8
330
1F
100
AcDbEntity
  8
0
  6
Continuous
 62
     7
370
    15
100
AcDbSpline
210
0.0
220
0.0
230
1.0
 70
     8
 71
     3
 72
    10
 73
     6
 74
     0
 42
0.00000001
 43
0.00000001
 40
0.0
 40
0.0
 40
0.0
 40
0.0
 40
0.5
 40
0.5
 40
1.0
 40
1.0
 40
1.0
 40
1.0
 10
79.12249086387024
 20
150.550091151677
 30
0.0
 10
79.48429537092274
 20
150.350795591325
 30
0.0
 10
79.86456002670535
 20
150.1789089389906
 30
0.0
 10
80.65323622031924
 20
149.8769270257312
 30
0.0
 10
81.06314893748288
 20
149.7458844514986
 30
0.0
 10
81.48856800847092
 20
149.6553472783928
 30
0.0
  0
ARC
  5
2D9
330
1F
100
AcDbEntity
  8
0
  6
Continuous
 62
     7
370
    15
100
AcDbCircle
 10
63.9243083963
 20
122.9590554755
 30
0.0
 40
31.95614513278059
100
AcDbArc
 50
0.0020589894
 51
56.6579299864
  0
ARC
  5
2DA
330
1F
100
AcDbEntity
  8
0
  6
Continuous
 62
     7
370
    15
100
AcDbCircle
 10
70.1336219837
 20
91.9498427859
 30
0.0
 40
2.799688519748417
100
AcDbArc
 50
245.1592634566
 51
134.840728228
  0
LINE
  5
2DB
330
1F
100
AcDbEntity
  8
0
  6
Continuous
 62
     7
370
    15
100
AcDbLine
 10
67.9123396942
 20
95.3364693593
 30
0.0
 11
68.1594540322
 21
93.9350170117
 31
0.0
  0
LINE
  5
2DC
330
1F
100
AcDbEntity
  8
0
  6
Continuous
 62
     7
370
    15
100
AcDbLine
 10
61.3656125454
 20
94.182106204
 30
0.0
 11
67.9123396942
 21
95.3364693593
 31
0.0
  0
LINE
  5
2DD
330
1F
100
AcDbEntity
  8
0
  6
Continuous
 62
     7
370
    15
100
AcDbLine
 10
59.0076260226
 20
107.5549102422
 30
0.0
 11
61.3656125454
 21
94.182106204
 31
0.0
  0
LINE
  5
2DE
330
1F
100
AcDbEntity
  8
0
  6
Continuous
 62
     7
370
    15
100
AcDbLine
 10
95.8804520735
 20
91.2761767428
 30
0.0
 11
95.8804520735
 21
114.056583963
 31
0.0
  0
ARC
  5
2DF
330
1F
100
AcDbEntity
  8
0
  6
Continuous
 62
     7
370
    15
100
AcDbCircle
 10
63.9243083963
 20
122.9590554755
 30
0.0
 40
45.00000000000006
100
AcDbArc
 50
304.9315916559
 51
315.2460271524
  0
LINE
  5
2E0
330
1F
100
AcDbEntity
  8
0
  6
Continuous
 62
     7
370
    15
100
AcDbLine
 10
70.154325101
 20
82.6215413433
 30
0.0
 11
89.6912175188
 21
86.0664215904
 31
0.0
  0
LINE
  5
2E1
330
1F
100
AcDbEntity
  8
0
  6
Continuous
 62
     7
370
    15
100
AcDbLine
 10
68.957480132
 20
89.4091841798
 30
0.0
 11
70.154325101
 21
82.6215413433
 31
0.0
  0
LINE
  5
2E2
330
1F
100
AcDbEntity
  8
0
  6
Continuous
 62
     7
370
    15
100
AcDbLine
 10
61.3656125454
 20
94.182106204
 30
0.0
 11
61.4300405098
 21
93.6863091808
 31
0.0
  0
LINE
  5
2E3
330
1F
100
AcDbEntity
  8
0
  6
Continuous
 62
     7
370
    15
100
AcDbLine
 10
67.9123396942
 20
95.3364693593
 30
0.0
 11
68.0959122213
 21
93.9238132011
 31
0.0
  0
ELLIPSE
  5
2E4
330
1F
100
AcDbEntity
  8
0
  6
Continuous
 62
     7
370
    15
100
AcDbEllipse
 10
69.9674777443
 20
91.9205472515
 30
0.0
 11
1.660238869127596
 21
2.333341762740475
 31
0.0
210
0.0
220
0.0
230
0.9999999999999997
 40
0.9556677339
 41
1.378529898362907
 42
1.560567681485191
  0
SPLINE
  5
2E5
330
1F
100
AcDbEntity
  8
0
  6
Continuous
 62
     7
370
    15
100
AcDbSpline
210
0.0
220
0.0
230
1.0
 70
     8
 71
     3
 72
     8
 73
     4
 74
     0
 42
0.00000001
 43
0.00000001
 40
0.0
 40
0.0
 40
0.0
 40
0.0
 40
1.0
 40
1.0
 40
1.0
 40
1.0
 10
61.24703647132179
 20
90.82922565328487
 30
0.0
 10
61.84953268640074
 20
87.54261951521845
 30
0.0
 10
62.45186396014172
 20
84.25821794609617
 30
0.0
 10
63.05412367840546
 20
80.97477277144
 30
0.0
  0
SPLINE
  5
2E6
330
1F
100
AcDbEntity
  8
0
  6
Continuous
 62
     7
370
    15
100
AcDbSpline
210
0.0
220
0.0
230
1.0
 70
     8
 71
     3
 72
    10
 73
     6
 74
     0
 42
0.00000001
 43
0.00000001
 40
0.0
 40
0.0
 40
0.0
 40
0.0
 40
0.5
 40
0.5
 40
1.0
 40
1.0
 40
1.0
 40
1.0
 10
61.08773083071431
 20
91.5870324659332
 30
0.0
 10
61.09374901957637
 20
91.58648831678777
 30
0.0
 10
61.11336031800612
 20
91.50818796020916
 30
0.0
 10
61.17100700315979
 20
91.23337001036099
 30
0.0
 10
61.20802427280981
 20
91.0420365023491
 30
0.0
 10
61.24703647132178
 20
90.82922565328488
 30
0.0
  0
LINE
  5
2E7
330
1F
100
AcDbEntity
  8
0
  6
Continuous
 62
     7
370
    15
100
AcDbLine
 10
61.0673615654
 20
91.5888808696
 30
0.0
 11
61.0877308307
 21
91.5870324659
 31
0.0
  0
LINE
  5
2E8
330
1F
100
AcDbEntity
  8
0
  6
Continuous
 62
     7
370
    15
100
AcDbLine
 10
63.3520141667
 20
80.9747730415
 30
0.0
 11
63.0541236563
 21
80.9747730415
 31
0.0
  0
ARC
  5
2E9
330
1F
100
AcDbEntity
  8
0
  6
Continuous
 62
     7
370
    15
100
AcDbCircle
 10
63.9243083963
 20
122.9590554755
 30
0.0
 40
45.00000000000007
100
AcDbArc
 50
303.3831254538
 51
304.9315916559
  0
LINE
  5
2EA
330
1F
100
AcDbEntity
  8
0
  6
Continuous
 62
     7
370
    15
100
AcDbLine
 10
88.6848769108
 20
85.3836094063
 30
0.0
 11
70.2278586062
 21
82.1291361969
 31
0.0
  0
LINE
  5
2EB
330
1F
100
AcDbEntity
  8
0
  6
Continuous
 62
     7
370
    15
100
AcDbLine
 10
70.2278586062
 20
82.1291361969
 30
0.0
 11
70.154325101
 21
82.6215413433
 31
0.0
  0
LINE
  5
2EC
330
1F
100
AcDbEntity
  8
0
  6
Continuous
 62
     7
370
    15
100
AcDbLine
 10
68.1594540322
 20
93.9350170117
 30
0.0
 11
68.0959122213
 21
93.9238132011
 31
0.0
  0
LINE
  5
2ED
330
1F
100
AcDbEntity
  8
0
  6
Continuous
 62
     7
370
    15
100
AcDbLine
 10
68.8847214872
 20
89.39635428
 30
0.0
 11
68.957480132
 21
89.4091841798
 31
0.0
  0
LINE
  5
2EE
330
1F
100
AcDbEntity
  8
0
  6
Continuous
 62
     7
370
    15
100
AcDbLine
 10
70.2278586062
 20
82.1291361969
 30
0.0
 11
70.2159940222
 21
82.1291361969
 31
0.0
  0
SPLINE
  5
2EF
330
1F
100
AcDbEntity
  8
0
  6
Continuous
 62
     7
370
    15
100
AcDbSpline
210
0.0
220
0.0
230
1.0
 70
     8
 71
     3
 72
    20
 73
    16
 74
     0
 42
0.00000001
 43
0.00000001
 40
0.0
 40
0.0
 40
0.0
 40
0.0
 40
0.2500000000000007
 40
0.2500000000000007
 40
0.3750000000000006
 40
0.3750000000000006
 40
0.5000000000000004
 40
0.5000000000000004
 40
0.6250000000000003
 40
0.6250000000000003
 40
0.7500000000000002
 40
0.7500000000000002
 40
0.8750000000000001
 40
0.8750000000000001
 40
1.0
 40
1.0
 40
1.0
 40
1.0
 10
56.41658628230477
 20
92.36683246609176
 30
0.0
 10
57.04344630358274
 20
92.21299301340858
 30
0.0
 10
57.63834950352029
 20
92.08740059930004
 30
0.0
 10
58.4757959195246
 20
91.93254583795914
 30
0.0
 10
58.74215699440303
 20
91.88723561740714
 30
0.0
 10
59.23670332255583
 20
91.80878996911035
 30
0.0
 10
59.46685886080451
 20
91.77529457574033
 30
0.0
 10
59.89097344696975
 20
91.7176084955443
 30
0.0
 10
60.08443920468863
 20
91.69351997461057
 30
0.0
 10
60.41862935437745
 20
91.65428714827716
 30
0.0
 10
60.5616489962993
 20
91.63882752201039
 30
0.0
 10
60.79835238536965
 20
91.61431817692473
 30
0.0
 10
60.89175195538348
 20
91.60530253202167
 30
0.0
 10
61.02113091756748
 20
91.59305823748757
 30
0.0
 10
61.05837165804753
 20
91.58969959911231
 30
0.0
 10
61.06736156536893
 20
91.58888086961672
 30
0.0
  0
SPLINE
  5
2F0
330
1F
100
AcDbEntity
  8
0
  6
Continuous
 62
     7
370
    15
100
AcDbSpline
210
0.0
220
0.0
230
1.0
 70
     8
 71
     3
 72
    14
 73
    10
 74
     0
 42
0.00000001
 43
0.00000001
 40
0.0
 40
0.0
 40
0.0
 40
0.0
 40
0.2499999999999997
 40
0.2499999999999997
 40
0.4999999999999993
 40
0.4999999999999993
 40
0.7499999999999997
 40
0.7499999999999997
 40
1.0
 40
1.0
 40
1.0
 40
1.0
 10
49.9552833149026
 20
151.1923042838908
 30
0.0
 10
49.77583482666476
 20
151.1035181703963
 30
0.0
 10
49.55813115694006
 20
150.9937823106397
 30
0.0
 10
49.04790021596506
 20
150.7264002683614
 30
0.0
 10
48.76382597290241
 20
150.5730860899963
 30
0.0
 10
48.14805846278158
 20
150.2259741155594
 30
0.0
 10
47.8124392933019
 20
150.0297092742809
 30
0.0
 10
47.12471189907956
 20
149.6083740524569
 30
0.0
 10
46.77004286484475
 20
149.3820157739331
 30
0.0
 10
46.40620082853067
 20
149.1385494974461
 30
0.0
  0
ELLIPSE
  5
2F1
330
1F
100
AcDbEntity
  8
0
  6
Continuous
 62
     7
370
    15
100
AcDbEllipse
 10
48.596073754
 20
106.7872720344
 30
0.0
 11
-2.294858831193466
 21
2.689707100225149
 31
0.0
210
0.0
220
0.0
230
1.0
 40
0.6895695935
 41
0.0
 42
6.283185307179586
  0
ARC
  5
2F2
330
1F
100
AcDbEntity
  8
0
  6
Continuous
 62
     7
370
    15
100
AcDbCircle
 10
63.9243083963
 20
122.9590554755
 30
0.0
 40
31.50000000000003
100
AcDbArc
 50
123.7886091979
 51
256.2113908021
  0
DIMENSION
  5
2F3
330
1F
100
AcDbEntity
  8
VERMASSUNG
100
AcDbDimension
  2
*D5
 10
63.9243083963
 20
122.9590554755
 30
0.0
 11
96.2051755866
 21
83.3472496044
 31
0.0
 70
   164
  1
<>
 71
     1
 42
-1.0
  3
SLDDIMSTYLE2
100
AcDbRadialDimension
 15
92.352005994
 25
88.0754488774
 35
0.0
 40
0.0
  0
INSERT
  5
307
330
1F
100
AcDbEntity
  8
VERMASSUNG
100
AcDbBlockReference
  2
SW_CENTERMARKSYMBOL_0
 10
63.9243083963
 20
122.9590554755
 30
0.0
  0
OLE2FRAME
  5
308
330
1F
100
AcDbEntity
  8
0
100
AcDbOle2Frame
 70
     2
  3
Paintbrush-Bild
 10
13.8511154363
 20
38.264191557
 30
0.0
 11
51.6290888628
 21
31.9806341108
 31
0.0
 71
     2
 72
     0
 73
     1
 90
    12928
310
80552BED0767C5B32B40DDAF6807D121434000000000000000006FFBDDFB85D0
310
4940DDAF6807D121434000000000000000006FFBDDFB85D04940416F4BD60AFB
310
3F4000000000000000002BED0767C5B32B40416F4BD60AFB3F40000000000000
310
0000000000000100000000010000010000000100000000000100000000320000
310
D0CF11E0A1B11AE1000000000000000000000000000000003E000300FEFF0900
310
0600000000000000000000000100000001000000000000000010000002000000
310
01000000FEFFFFFF0000000000000000FFFFFFFFFFFFFFFFFFFFFFFFFFFFFFFF
310
FFFFFFFFFFFFFFFFFFFFFFFFFFFFFFFFFFFFFFFFFFFFFFFFFFFFFFFFFFFFFFFF
310
FFFFFFFFFFFFFFFFFFFFFFFFFFFFFFFFFFFFFFFFFFFFFFFFFFFFFFFFFFFFFFFF
310
FFFFFFFFFFFFFFFFFFFFFFFFFFFFFFFFFFFFFFFFFFFFFFFFFFFFFFFFFFFFFFFF
310
FFFFFFFFFFFFFFFFFFFFFFFFFFFFFFFFFFFFFFFFFFFFFFFFFFFFFFFFFFFFFFFF
310
FFFFFFFFFFFFFFFFFFFFFFFFFFFFFFFFFFFFFFFFFFFFFFFFFFFFFFFFFFFFFFFF
310
FFFFFFFFFFFFFFFFFFFFFFFFFFFFFFFFFFFFFFFFFFFFFFFFFFFFFFFFFFFFFFFF
310
FFFFFFFFFFFFFFFFFFFFFFFFFFFFFFFFFFFFFFFFFFFFFFFFFFFFFFFFFFFFFFFF
310
FFFFFFFFFFFFFFFFFFFFFFFFFFFFFFFFFFFFFFFFFFFFFFFFFFFFFFFFFFFFFFFF
310
FFFFFFFFFFFFFFFFFFFFFFFFFFFFFFFFFFFFFFFFFFFFFFFFFFFFFFFFFFFFFFFF
310
FFFFFFFFFFFFFFFFFFFFFFFFFFFFFFFFFFFFFFFFFFFFFFFFFFFFFFFFFFFFFFFF
310
FFFFFFFFFFFFFFFFFFFFFFFFFFFFFFFFFFFFFFFFFFFFFFFFFFFFFFFFFFFFFFFF
310
FFFFFFFFFFFFFFFFFFFFFFFFFFFFFFFFFFFFFFFFFFFFFFFFFFFFFFFFFFFFFFFF
310
FFFFFFFFFFFFFFFFFFFFFFFFFFFFFFFFFFFFFFFFFFFFFFFFFFFFFFFFFFFFFFFF
310
FDFFFFFFFEFFFFFFFEFFFFFFFEFFFFFF05000000060000000700000008000000
310
090000000A0000000B0000000C0000000D0000000E0000000F00000010000000
310
11000000120000001300000014000000150000001600000017000000FEFFFFFF
310
FFFFFFFFFFFFFFFFFFFFFFFFFFFFFFFFFFFFFFFFFFFFFFFFFFFFFFFFFFFFFFFF
310
FFFFFFFFFFFFFFFFFFFFFFFFFFFFFFFFFFFFFFFFFFFFFFFFFFFFFFFFFFFFFFFF
310
FFFFFFFFFFFFFFFFFFFFFFFFFFFFFFFFFFFFFFFFFFFFFFFFFFFFFFFFFFFFFFFF
310
FFFFFFFFFFFFFFFFFFFFFFFFFFFFFFFFFFFFFFFFFFFFFFFFFFFFFFFFFFFFFFFF
310
FFFFFFFFFFFFFFFFFFFFFFFFFFFFFFFFFFFFFFFFFFFFFFFFFFFFFFFFFFFFFFFF
310
FFFFFFFFFFFFFFFFFFFFFFFFFFFFFFFFFFFFFFFFFFFFFFFFFFFFFFFFFFFFFFFF
310
FFFFFFFFFFFFFFFFFFFFFFFFFFFFFFFFFFFFFFFFFFFFFFFFFFFFFFFFFFFFFFFF
310
FFFFFFFFFFFFFFFFFFFFFFFFFFFFFFFFFFFFFFFFFFFFFFFFFFFFFFFFFFFFFFFF
310
FFFFFFFFFFFFFFFFFFFFFFFFFFFFFFFFFFFFFFFFFFFFFFFFFFFFFFFFFFFFFFFF
310
FFFFFFFFFFFFFFFFFFFFFFFFFFFFFFFFFFFFFFFFFFFFFFFFFFFFFFFFFFFFFFFF
310
FFFFFFFFFFFFFFFFFFFFFFFFFFFFFFFFFFFFFFFFFFFFFFFFFFFFFFFFFFFFFFFF
310
FFFFFFFFFFFFFFFFFFFFFFFFFFFFFFFFFFFFFFFFFFFFFFFFFFFFFFFFFFFFFFFF
310
FFFFFFFFFFFFFFFFFFFFFFFFFFFFFFFFFFFFFFFFFFFFFFFFFFFFFFFFFFFFFFFF
310
52006F006F007400200045006E00740072007900000000000000000000000000
310
0000000000000000000000000000000000000000000000000000000000000000
310
16000500FFFFFFFFFFFFFFFF020000000A00030000000000C000000000000046
310
000000000000000000000000801C53A6CCBFCC0103000000C000000000000000
310
01004F006C006500000000000000000000000000000000000000000000000000
310
0000000000000000000000000000000000000000000000000000000000000000
310
0A000200FFFFFFFFFFFFFFFFFFFFFFFF00000000000000000000000000000000
310
0000000000000000000000000000000000000000000000001400000000000000
310
010043006F006D0070004F0062006A0000000000000000000000000000000000
310
0000000000000000000000000000000000000000000000000000000000000000
310
120002010100000003000000FFFFFFFF00000000000000000000000000000000
310
0000000000000000000000000000000000000000010000004D00000000000000
310
01004F006C006500310030004E00610074006900760065000000000000000000
310
0000000000000000000000000000000000000000000000000000000000000000
310
1A000200FFFFFFFFFFFFFFFFFFFFFFFF00000000000000000000000000000000
310
0000000000000000000000000000000000000000040000002426000000000000
310
FEFFFFFF02000000FEFFFFFFFFFFFFFFFFFFFFFFFFFFFFFFFFFFFFFFFFFFFFFF
310
FFFFFFFFFFFFFFFFFFFFFFFFFFFFFFFFFFFFFFFFFFFFFFFFFFFFFFFFFFFFFFFF
310
FFFFFFFFFFFFFFFFFFFFFFFFFFFFFFFFFFFFFFFFFFFFFFFFFFFFFFFFFFFFFFFF
310
FFFFFFFFFFFFFFFFFFFFFFFFFFFFFFFFFFFFFFFFFFFFFFFFFFFFFFFFFFFFFFFF
310
FFFFFFFFFFFFFFFFFFFFFFFFFFFFFFFFFFFFFFFFFFFFFFFFFFFFFFFFFFFFFFFF
310
FFFFFFFFFFFFFFFFFFFFFFFFFFFFFFFFFFFFFFFFFFFFFFFFFFFFFFFFFFFFFFFF
310
FFFFFFFFFFFFFFFFFFFFFFFFFFFFFFFFFFFFFFFFFFFFFFFFFFFFFFFFFFFFFFFF
310
FFFFFFFFFFFFFFFFFFFFFFFFFFFFFFFFFFFFFFFFFFFFFFFFFFFFFFFFFFFFFFFF
310
FFFFFFFFFFFFFFFFFFFFFFFFFFFFFFFFFFFFFFFFFFFFFFFFFFFFFFFFFFFFFFFF
310
FFFFFFFFFFFFFFFFFFFFFFFFFFFFFFFFFFFFFFFFFFFFFFFFFFFFFFFFFFFFFFFF
310
FFFFFFFFFFFFFFFFFFFFFFFFFFFFFFFFFFFFFFFFFFFFFFFFFFFFFFFFFFFFFFFF
310
FFFFFFFFFFFFFFFFFFFFFFFFFFFFFFFFFFFFFFFFFFFFFFFFFFFFFFFFFFFFFFFF
310
FFFFFFFFFFFFFFFFFFFFFFFFFFFFFFFFFFFFFFFFFFFFFFFFFFFFFFFFFFFFFFFF
310
FFFFFFFFFFFFFFFFFFFFFFFFFFFFFFFFFFFFFFFFFFFFFFFFFFFFFFFFFFFFFFFF
310
FFFFFFFFFFFFFFFFFFFFFFFFFFFFFFFFFFFFFFFFFFFFFFFFFFFFFFFFFFFFFFFF
310
FFFFFFFFFFFFFFFFFFFFFFFFFFFFFFFFFFFFFFFFFFFFFFFFFFFFFFFFFFFFFFFF
310
0100000200000000000000000000000000000000000000000000000000000000
310
0000000000000000000000000000000000000000000000000000000000000000
310
0100FEFF030A0000FFFFFFFF0A00030000000000C00000000000004607000000
310
5042727573680007000000504272757368000700000050427275736800F439B2
310
7100000000000000000000000000000000000000000000000000000000000000
310
0000000000000000000000000000000000000000000000000000000000000000
310
0000000000000000000000000000000000000000000000000000000000000000
310
0000000000000000000000000000000000000000000000000000000000000000
310
0000000000000000000000000000000000000000000000000000000000000000
310
0000000000000000000000000000000000000000000000000000000000000000
310
0000000000000000000000000000000000000000000000000000000000000000
310
0000000000000000000000000000000000000000000000000000000000000000
310
0000000000000000000000000000000000000000000000000000000000000000
310
0000000000000000000000000000000000000000000000000000000000000000
310
0000000000000000000000000000000000000000000000000000000000000000
310
0000000000000000000000000000000000000000000000000000000000000000
310
20260000424D0E260000000000003E00000028000000B40200006E0000000100
310
01000000000000000000130B0000130B00000200000002000000000000FFFFFF
310
FFFFFFFFFFFFFFFFFFFFFFFFFFFFFFFFFFFFFFFFFFFFFFFFFFFFFFFFFFFFFFFF
310
FFFFFFFFFFFFFFFFFFFFFFFFFFFFFFFFFFFFFFFFFFFFFFFFFFFFFFFFFFFFFFFF
310
FFFFFFFFFFFFFFFFFFFFFFFFFFFFFFFFFFFFFFFFFFFFFFFFF000FFFFFFFFFFFF
310
FFFFFFFFFFFFFFFFFFFFFFFFFFFFFFFFFFFFFFFFFFFFFFFFFFFFFFFFFFFFFFFF
310
FFFFFFFFFFFFFFFFFFFFFFFFFFFFFFFFFFFFFFFFFFFFFFFFFFFFFFFFFFFFFFFF
310
FFFFFFFFFFFFFFFFFFFFFFFFFFFFFFFFF000FFFFFFFFFFFFFFFFFFFFFFFFFFFF
310
FFFFFFFFFFFFFFFFFFFFFFFFFFFFFFFFFFFFFFFFFFFFFFFFFFFFFFFFFFFFFFFF
310
FFFFFFFFFFFFFFFFFFFFFFFFFFFFFFFFFFFFFFFFFFFFFFFFFFFFFFFFFFFFFFFF
310
FFFFFFFFFFFFFFFFF000FFFFFFFFFFFFFFFFFFFFFFFFFFFFFFFFFFFFFFFFFFFF
310
FFFFFFFFFFFFFFFFFFFFFFFFFFFFFFFFFFFFFFFFFFFFFFFFFFFFFFFFFFFFFFFF
310
FFFFFFFFFFFFFFFFFFFFFFFFFFFFFFFFFFFFFFFFFFFFFFFFFFFFFFFFFFFFFFFF
310
F000FFFFFFFFFFFFFFFFFFFFFFFFFFFFFFFFFFFFFFFFFFFFFFFFFFFFFFFFFFFF
310
FFFFFFFFFFFFFFFFFFFFFFFFFFFFFFFFFFFFFFFFFFFFFFFFFFFFFFFFFFFFFFFF
310
FFFFFFFFFFFFFFFFFFFFFFFFFFFFFFFFFFFFFFFFFFFFFFFFF000FFFFFFFFFFFF
310
FFFFFFFFFFFFFFFFFFFFFFFFFFFFFFFFFFFFFFFFFFFFFFFFFFFFFFFFFFFFFFFF
310
FFFFFFFFFFFFFFFFFFFFFFFFFFFFFFFFFFFFFFFFFFFFFFFFFFFFFFFFFFFFFFFF
310
FFFFFFFFFFFFFFFFFFFFFFFFFFFFFFFFF000FFFFFFFFFFFFFFFFFFFFFFFFFFFF
310
FFFFFFFFFFFFFFFFFFFFFFFFFFFFFFFFFFFFFFFFFFFFFFFFFFFFFFFFFFFFFFFF
310
FFFFFFFFFFFFFFFFFFFFFFFFFFFFFFFFFFFFFFFFFFFFFFFFFFFFFFFFFFFFFFFF
310
FFFFFFFFFFFFFFFFF000FFFFFFFFFFFFFFFFFFFFFFFFFFFFFFFFFFFFFFFFFFFF
310
FFFFFFFFFFFFFFFFFFFFFFFFFFFFFFFFFFFFFFFFFFFFFFFFFFFFFFFFFFFFFFFF
310
FFFFFFFFFFFFFFFFFFFFFFFFFFFFFFFFFFFFFFFFFFFFFFFFFFFFFFFFFFFFFFFF
310
F000FFFFFFFFFFFFFFFFFFFFFFFFFFFFFFFFFFFFFFFFFFFFFFFFFFFFFFFFFFFF
310
FFFFFFFFFFFFFFFFFFFFFFFFFFFFFFFFFFFFFFFFFFFFFFFFFFFFFFFFFFFFFFFF
310
FFFFFFFFFFFFFFFFFFFFFFFFFFFFFFFFFFFFFFFFFFFFFFFFF000FFFFFFFFFFFF
310
FFFFFFFFFFFFFFFFFFFFFFFFFFFFFFFFFFFFFFFFFFFFFFFFFFFFFFFFFFFFFFFF
310
FFFFFFFFFFFFFFFFFFFFFFFFFFFFFFFFFFFFFFFFFFFFFFFFFFFFFFFFFFFFFFFF
310
FFFFFFFFFFFFFFFFFFFFFFFFFFFFFFFFF000FFFFFFFFFFFFFFFFFFFFFFFFFFFF
310
FFFFFFFFFFFFFFFFFFFFFFFFFFFFFFFFFFFFFFFFFFFFFFFFFFFFFFFFFFFFFFFF
310
FFFFFFFFFFFFFFFFFFFFFFFFFFFFFFFFFFFFFFFFFFFFFFFFFFFFFFFFFFFFFFFF
310
FFFFFFFFFFFFFFFFF000FFFFFFFFFFFFFFFFFFFFFFFFFFFFFFFFFFFFFFFFFFFF
310
FFFFFFFFFFFFFFFFFFFFFFFFFFFFFFFFFFFFFFFFFFFFFFFFFFFFFFFFFFFFFFFF
310
FFFFFFFFFFFFFFFFFFFFFFFFFFFFFFFFFFFFFFFFFFFFFFFFFFFFFFFFFFFFFFFF
310
F000FFFFFFFFFFFFFFFFFFFFFFFFFFFFFFFFFFFFFFFFFFFFFFFFFFFFFFFFFFFF
310
FFFFFFFFFFFFFFFFFFFFFFFFFFFFFFFFFFFFFFFFFFFFFFFFFFFFFFFFFFFFFFFF
310
FFFFFFFFFFFFFFFFFFFFFFFFFFFFFFFFFFFFFFFFFFFFFFFFF000FFFFFFFFFFFF
310
FFFFFFFFFFFFFFFFFFFFFFFFFFFFFFFFFFFFFFFFFFFFFFFFFFFFFFFFFFFFFFFF
310
FFFFFFFFFFFFFFFFFFFFFFFFFFFFFFFFFFFFFFFFFFFFFFFFFFFFFFFFFFFFFFFF
310
FFFFFFFFFFFFFFFFFFFFFFFFFFFFFFFFF000FFFFFFFFFFFFFFFFFFFFFFFFFFFF
310
FFFFFFFFFFFFFFFFFFFFFFFFFFFFFFFFFFFFFFFFFFFFFFFFFFFFFFFFFFFFFFFF
310
FFFFFFFFFFFFFFFFFFFFFFFFFFFFFFFFFFFFFFFFFFFFFFFFFFFFFFFFFFFFFFFF
310
FFFFFFFFFFFFFFFFF000FFFFFFFFFFFFFFFFFFFFFFFFFFFFFFFFFFFFFFFFFFFF
310
FFFFFFFFFFFFFFFFFFFFFFFFFFFFFFFFFFFFFFFFFFFFFFFFFFFFFFFFFFFFFFFF
310
FFFFFFFFFFFFFFFFFFFFFFFFFFFFFFFFFFFFFFFFFFFFFFFFFFFFFFFFFFFFFFFF
310
F000FFFFFFFFFFFFFFFFFFFFFFFFFFFFFFFFFFFFFFFFFFFFFFFFFFFFFFFFFFFF
310
FFFFFFFFFFFFFFFFFFFFFFFFFFFFFFFFFFFFFFFFFFFFFFFFFFFFFFFFFFFFFFFF
310
FFFFFFFFFFFFFFFFFFFFFFFFFFFFFFFFFFFFFFFFFFFFFFFFF000FFFFFFFFFFFF
310
FFFFFFFFFFFFFFFFFFFFFFFFFFFFFFFFFFFFFFFFFFFFFFFFFFFFFFFFFFFFFFFF
310
FFFFFFFFFFFFFFFFFFFFFFFFFFFFFFFFFFFFFFFFFFFFFFFFFFFFFFFFFFFFFFFF
310
FFFFFFFFFFFFFFFFFFFFFFFFFFFFFFFFF000FFFFFFFFFFFFFFFFFFFFFFFFFFFF
310
FFFFFFFFFFFFFFFFFFFFFFFFFFFFFFFFFFFFFFFFFFFFFFFFFFFFFFFFFFFFFFFF
310
FFFFFFFFFFFFFFFFFFFFFFFFFFFFFFFFFFFFFFFFFFFFFFFFFFFFFFFFFFFFFFFF
310
FFFFFFFFFFFFFFFFF000FFFFF80003FFFFFFFFFFFFFFFFFFFFFFFFFFFFFFFFFF
310
FFFFF00007FFFFFFFFFF00007FFFFFF800000000000000007FFFFFFFFFFFFFFF
310
FFFFFFFC001FFFFFFFFFFFFFFC001FFFFFFFFFFFFFFFFFFFFFFFFFFE0007FFFF
310
F000FFFF8000007FFFFFFFF8000FFFFFC0007FFFFF80007FFFFF0000007FFFFF
310
FFF8000007FFFFF800000000000000007FFFFFF0001FFFFFFFFFFFC00001FFFF
310
FFFFFFFFC00001FFFFFFFF000000000003FFFFE000007FFFF000FFFE0000000F
310
FFFFFFF0000FFFFF80007FFFFF80007FFFFC0000001FFFFFFFC0000001FFFFF8
310
00000000000000007FFFFFF0001FFFFFFFFFFE0000003FFFFFFFFFFE0000003F
310
FFFFFF000000000003FFFF0000000FFFF000FFF800000003FFFFFFF00007FFFF
310
80007FFFFF80007FFFF000000007FFFFFF000000003FFFF80000000000000000
310
7FFFFFF0001FFFFFFFFFF80000000FFFFFFFFFF80000000FFFFFFF0000000000
310
03FFFC00000003FFF000FFE000000000FFFFFFF00007FFFF80003FFFFF80007F
310
FFC000000001FFFFFC000000001FFFF800000000000000007FFFFFF0001FFFFF
310
FFFFE000000003FFFFFFFFE000000003FFFFFF000000000003FFF000000000FF
310
F000FF80000000007FFFFFF00007FFFF80003FFFFF80007FFF8000000000FFFF
310
F80000000007FFF800000000000000007FFFFFF0001FFFFFFFFFC000000001FF
310
FFFFFFC000000001FFFFFF000000000003FFC0000000007FF000FF0000000000
310
3FFFFFE00007FFFF00003FFFFF80007FFE00000000003FFFF00000000003FFF8
310
00000000000000007FFFFFF0001FFFFFFFFF8000000000FFFFFFFF8000000000
310
FFFFFF000000000003FF80000000003FF000FE00000000001FFFFFE00003FFFF
310
00003FFFFF80007FFC00000000001FFFE00000000001FFF8000001FFFE000000
310
7FFFFFF0001FFFFFFFFE00000000003FFFFFFE00000000003FFFFF0000000000
310
03FF00000000001FF000FC00000000000FFFFFE00003FFFF00001FFFFF80007F
310
F800000000001FFFC00000000000FFF8000001FFFE0000007FFFFFF0001FFFFF
310
FFFC00000000001FFFFFFC00000000001FFFFF000000000003FE00000000000F
310
F000F8000000000007FFFFE00003FFFF00001FFFFF80007FF800000000000FFF
310
800000000000FFF8000001FFFE0000007FFFFFF0001FFFFFFFF800000000000F
310
FFFFF800000000000FFFFF000000000003FC000000000007F000F80000000000
310
03FFFFC00003FFFE00001FFFFF80007FF0000000000007FF0000000000007FF8
310
000001FFFE0000007FFFFFF0001FFFFFFFF0000000000007FFFFF00000000000
310
07FFFF000000000003F8000000000003F000F0000000000003FFFFC00001FFFE
310
00001FFFFF80007FE0000000000007FE0000000000003FF8000001FFFE000000
310
7FFFFFF0001FFFFFFFF0000000000007FFFFF0000000000007FFFF0000000000
310
03F800001F800003F000E00001FFF00001FFFFC00001FFFE00000FFFFF80007F
310
E00001FFE00003FE00001FFF00003FF8000001FFFE0000007FFFFFF0001FFFFF
310
FFE000003E000003FFFFE000003E000003FFFF000000000003F00001FFF80001
310
F000E00007FFFC0001FFFFC00001FFFE00000FFFFF80007FC0000FFFFC0003FC
310
0000FFFFC0001FF8000001FFFE0000007FFFFFF0001FFFFFFFC00003FFE00001
310
FFFFC00003FFE00001FFFF0001FFFFFFFFF00007FFFE0001F000E0000FFFFF00
310
00FFFF800001FFFC00000FFFFF80007FC0001FFFFE0001FC0001FFFFE0001FF8
310
000001FFFE0000007FFFFFF0001FFFFFFF80000FFFF80000FFFF80000FFFF800
310
00FFFF0003FFFFFFFFE0000FFFFF8000F000C0003FFFFF8000FFFF800000FFFC
310
000007FFFF80007F80003FFFFF0001FC0003FFFFF0001FF8000001FFFE000000
310
7FFFFFF0001FFFFFFF80003FFFFE0000FFFF80003FFFFE0000FFFF0003FFFFFF
310
FFE0003FFFFF8000F000C0003FFFFF8000FFFF800000FFFC000007FFFF80007F
310
80007FFFFF8001F80007FFFFF8000FF8000001FFFE0000007FFFFFF0001FFFFF
310
FF00007FFFFF00007FFF00007FFFFF00007FFF0003FFFFFFFFE0003FFFFFC000
310
F000C0007FFFFFC000FFFF000000FFFC000007FFFF80007F8000FFFFFF8000F8
310
000FFFFFF8000FF8000001FFFE0000007FFFFFF0001FFFFFFF0000FFFFFF8000
310
7FFF0000FFFFFF80007FFF0003FFFFFFFFC0007FFFFFC00070008000FFFFFFC0
310
00FFFF000000FFF8000007FFFF80007F8000FFFFFF8000F8000FFFFFF8000FF8
310
000001FFFE0000007FFFFFF0001FFFFFFE0001FFFFFFC0003FFE0001FFFFFFC0
310
003FFF0003FFFFFFFFC0007FFFFFE00070008000FFFFFFC0007FFF0000007FF8
310
000003FFFF80007F0001FFFFFF8000F8000FFFFFF8000FF8000001FFFE000000
310
7FFFFFF0001FFFFFFE0001FFFFFFC0003FFE0001FFFFFFC0003FFF0003FFFFFF
310
FFC000FFFFFFE00070008000FFFFFFC0007FFF0000007FF8000003FFFF80007F
310
0001FFFFFF8000F8001FFFFFF8000FF8000001FFFE0000007FFFFFF0001FFFFF
310
FE0003FFFFFFE0003FFE0003FFFFFFE0003FFF0003FFFFFFFFC000FFFFFFE000
310
70008000FFFFFFC0007FFE0000007FF8000003FFFF80007F0001FFFFFF8000F0
310
001FFFFFF8000FF8000001FFFE0000007FFFFFF0001FFFFFFC0003FFFFFFE000
310
1FFC0003FFFFFFE0001FFF0003FFFFFFFFC000FFFFFFC00070008000FFFFFF80
310
007FFE0000007FF0000003FFFF80007F0001FFFFFF0000F0001FFFFFF8000FF8
310
000001FFFE0000007FFFFFF0001FFFFFFC0007FFFFFFF0001FFC0007FFFFFFF0
310
001FFF0003FFFFFFFFC000FFFFFFC00070008001FFFFFF0000FFFE0000003FF0
310
000001FFFF80007F0001FFFFFF0000F8001FFFFFF0000FF8000001FFFE000000
310
7FFFFFF0001FFFFFFC0007FFFFFFF0001FFC0007FFFFFFF0001FFF0003FFFFFF
310
FFC001FFFFFF80007000FFFFFFFFFE0000FFFE0008003FF0008001FFFF80007F
310
FFFFFFFFFC0000FFFFFFFFFFE0000FF8000001FFFE0000007FFFFFF0001FFFFF
310
F8000FFFFFFFF8000FF8000FFFFFFFF8000FFF0003FFFFFFFFFFFFFFFFFF0000
310
7000FFFFFFFFFC0000FFFC0008003FF0008001FFFF80007FFFFFFFFFF80001FF
310
FFFFFFFF80000FF8000001FFFE0000007FFFFFF0001FFFFFF8000FFFFFFFF800
310
0FF8000FFFFFFFF8000FFF0003FFFFFFFFFFFFFFFFFE0000F000FFFFFFFFE000
310
00FFFC000C003FE000C001FFFF80007FFFFFFFFFC00001FFFFFFFFFE00001FF8
310
000001FFFE0000007FFFFFF0001FFFFFF8000FFFFFFFF8000FF8000FFFFFFFF8
310
000FFF0003FFFFFFFFFFFFFFFFF00000F000FFFFFFFE000001FFFC000C001FE0
310
00C000FFFF80007FFFFFFFFE000001FFFFFFFFE000001FF80FFFFFFFFFFFFFC0
310
7FFFFFF0001FFFFFF8000FFFFFFFF8000FF8000FFFFFFFF8000FFF0003FFFFFF
310
FFFFFFFFFF800000F000FFFFFFC0000001FFFC001C001FE001C000FFFF80007F
310
FFFFFF80000003FFFFFFF80000001FF80FFFFFFFFFFFFFC07FFFFFF0001FFFFF
310
F8001FFFFFFFFC000FF8001FFFFFFFFC000FFF0003FFFFFFFFFFFFFFF0000001
310
F000FFFFF800000001FFF8001C001FE001C000FFFF80007FFFFFF800000003FF
310
FFFF800000003FF80FFFFFFFFFFFFFC07FFFFFF0001FFFFFF8001FFFFFFFFC00
310
0FF8001FFFFFFFFC000FFF0003FFFFFFFFFFFFFE00000001F000FFFFC0000000
310
03FFF8001E001FC001E000FFFF80007FFFFF8000000007FFFFFC000000003FF8
310
0FFFFFFFFFFFFFC07FFFFFF0001FFFFFF8001FFFFFFFFC000FF8001FFFFFFFFC
310
000FFF0003FFFFFFFFFFFFE000000003F000FFFE0000000007FFF8001E000FC0
310
01E0007FFF80007FFFFE0000000007FFFFE0000000007FF80FFFFFFFFFFFFFC0
310
7FFFFFF0001FFFFFF0001FFFFFFFFC0007F0001FFFFFFFFC0007FF0003FFFFFF
310
FFFFFF0000000003F000FFF80000000007FFF8001E000FC003E0007FFF80007F
310
FFF0000000000FFFFF8000000000FFF80FFFFFFFFFFFFFC07FFFFFF0001FFFFF
310
F0001FFFFFFFFC0007F0001FFFFFFFFC0007FF0003FFFFFFFFFFFC0000000007
310
F000FFE0000000000FFFF0003E000FC003E0007FFF80007FFFC0000000001FFF
310
FE0000000001FFF80FFFFFFFFFFFFFC07FFFFFF0001FFFFFF0001FFFFFFFFC00
310
07F0001FFFFFFFFC0007FF0003FFFFFFFFFFF0000000000FF000FFC000000000
310
1FFFF0003F000F8003F0003FFF80007FFF80000000003FFFF80000000003FFF8
310
0FFFFFFFFFFFFFC07FFFFFF0001FFFFFF0001FFFFFFFFC0007F0001FFFFFFFFC
310
0007FF0003FFFFFFFFFFE0000000001FF000FF00000000007FFFF0003F000780
310
03F0003FFF80007FFF00000000007FFFF00000000007FFF80FFFFFFFFFFFFFC0
310
7FFFFFF0001FFFFFF0001FFFFFFFFC0007F0001FFFFFFFFC0007FF0003FFFFFF
310
FFFF80000000007FF000FE0000000000FFFFE0003F00078007F0003FFF80007F
310
FE0000000001FFFFE0000000001FFFF80FFFFFFFFFFFFFC07FFFFFF0001FFFFF
310
F0001FFFFFFFFC0007F0001FFFFFFFFC0007FF0003FFFFFFFFFF0000000000FF
310
F000FC0000000003FFFFE0007F00078007F0003FFF80007FFC0000000007FFFF
310
C0000000007FFFF80FFFFFFFFFFFFFC07FFFFFF0001FFFFFF8001FFFFFFFFC00
310
0FF8001FFFFFFFFC000FFF0003FFFFFFFFFE0000000003FFF000FC000000000F
310
FFFFE0007F80070007F8001FFF80007FF8000000001FFFFF8000000001FFFFF8
310
0FFFFFFFFFFFFFC07FFFFFF0001FFFFFF8001FFFFFFFFC000FF8001FFFFFFFFC
310
000FFF0003FFFFFFFFFC000000000FFFF000F8000000007FFFFFE0007F800700
310
07F8001FFF80007FF000000000FFFFFF800000000FFFFFF80FFFFFFFFFFFFFC0
310
7FFFFFF0001FFFFFF8000FFFFFFFF8000FF8000FFFFFFFF8000FFF0003FFFFFF
310
FFFC000000007FFFF000F800000007FFFFFFC0007F8003000FF8001FFF80007F
310
F000000007FFFFFF000000007FFFFFF80FFFFFFFFFFFFFC07FFFFFF0001FFFFF
310
F8000FFFFFFFF8000FF8000FFFFFFFF8000FFF0003FFFFFFFFF80000000FFFFF
310
F000F0000000FFFFFFFFC000FF8003000FF8001FFF80007FE0000000FFFFFFFF
310
0000000FFFFFFFF8000001FFFE0000007FFFFFF0001FFFFFF8000FFFFFFFF800
310
0FF8000FFFFFFFF8000FFF0003FFFFFFFFF8000000FFFFFFF000F000000FFFFF
310
FFFFC000FFC002000FF8000FFF80007FE000001FFFFFFFFE000001FFFFFFFFF8
310
000001FFFE0000007FFFFFF0001FFFFFF8000FFFFFFFF8000FF8000FFFFFFFF8
310
000FFF0003FFFFFFFFF000001FFFFFFFF000E00000FFFFFFFFFFC000FFC00200
310
0FFC000FFF80007FE00001FFFFFFFFFE00001FFFFFFFFFF8000001FFFE000000
310
7FFFFFF0001FFFFFFC000FFFFFFFF8001FFC000FFFFFFFF8001FFF0003FFFFFF
310
FFF00001FFFFFFFFF000E00007FFFFFFFFFF8000FFC000001FFC000FFF80007F
310
C0000FFFFFFFFFFE0000FFFFFFFFFFF8000001FFFE0000007FFFFFF0001FFFFF
310
FC0007FFFFFFF0001FFC0007FFFFFFF0001FFF0003FFFFFFFFF00007FFFFFFFF
310
F000E0001FFFFFFFFFFF8000FFC000001FFC000FFF80007FC0003FFFFFFFFFFE
310
0001FFFFFFFFFFF8000001FFFE0000007FFFFFF0001FFFFFFC0007FFFFFFF000
310
1FFC0007FFFFFFF0001FFF0003FFFFFFFFF0001FFFFFFFFFF000E0003FFFFF00
310
03FF8001FFE000001FFC0007FF80007FC0007FFFFF0007FC0003FFFFF0003FF8
310
000001FFFE0000007FFFFFF0001FFFFFFC0003FFFFFFE0001FFC0003FFFFFFE0
310
001FFF0003FFFFFFFFF0003FFFFFFFFFF000E0003FFFFF0001FF8001FFE00000
310
1FFE0007FF80007FC0007FFFFE0003FC0007FFFFE0003FF8000001FFFE000000
310
7FFFFFF0001FFFFFFE0003FFFFFFE0003FFE0003FFFFFFE0003FFF0003FFFFFF
310
FFF0003FFFFF8001F000E0003FFFFF0001FF0001FFE000001FFE0007FF80007F
310
C0007FFFFE0003FC0007FFFFE0003FF8000001FFFE0000007FFFFFF0001FFFFF
310
FE0001FFFFFFC0003FFE0001FFFFFFC0003FFF0003FFFFFFFFF0003FFFFF0001
310
F000E0003FFFFF0003FF0001FFE000003FFE0007FF80007FC0007FFFFE0003FC
310
0007FFFFE0003FF8000001FFFE0000007FFFFFF0001FFFFFFF0001FFFFFFC000
310
7FFF0001FFFFFFC0007FFF0003FFFFFFFFF0003FFFFF0001F000E0003FFFFE00
310
03FF0003FFF000003FFE0003FF80007FC0007FFFFC0003FE0007FFFFE0003FF8
310
000001FFFE0000007FFFFFF0001FFFFFFF0000FFFFFF80007FFF0000FFFFFF80
310
007FFF0003FFFFFFFFF0003FFFFF0001F000E0003FFFFE0003FF0003FFF00000
310
3FFF0003FF80007FC0007FFFFC0007FE0007FFFFC0003FF8000001FFFE000000
310
7FFFFFF0001FFFFFFF80007FFFFF0000FFFF80007FFFFF0000FFFF0003FFFFFF
310
FFF0003FFFFF0003F000E0003FFFFC0003FE0003FFF000003FFF0003FF80007F
310
E0003FFFF80007FE0003FFFFC0007FF8000001FFFE0000007FFFFFF0001FFFFF
310
FF80003FFFFE0000FFFF80003FFFFE0000FFFF0003FFFFFFFFF0001FFFFE0003
310
F000F0001FFFF80003FE0003FFF000007FFF0001FF80007FE0003FFFF00007FE
310
0001FFFF80007FF8000001FFFE0000007FFFFFF0001FFFFFFFC0000FFFF80001
310
FFFFC0000FFFF80001FFFF0003FFFFFFFFF0001FFFFC0003F000F0000FFFF000
310
07FE0007FFF800007FFF0001FF80007FE0001FFFE00007FF0000FFFE00007FF8
310
000001FFFE0000007FFFFFF0001FFFFFFFC00003FFE00001FFFFC00003FFE000
310
01FFFF0003FFFFFFFFF8000FFFF80003F000F00003FFC00007FC0007FFF80000
310
7FFF8001FF80007FF00007FF80000FFF00007FF80000FFF8000001FFFE000000
310
7F80000000000001FFE000003E000003FFFFE000003E000003FFFF0003FFFFFF
310
FFF80003FFE00007F000F800000000000FFC0007FFF800007FFF8001FF80007F
310
F000000000000FFF000000000000FFF8000001FFFE0000007F80000000000001
310
FFF0000000000007FFFFF0000000000007FFFF0003FFFFFFFFFC00007E000007
310
F000F800000000000FFC0007FFF80000FFFF8000FF80007FF800000000001FFF
310
800000000001FFF8000001FFFE0000007F80000000000001FFF800000000000F
310
FFFFF800000000000FFFFF0003FFFFFFFFFC00000000000FF000FC0000000000
310
1FFC0007FFFC0000FFFF8000FF80007FF800000000003FFFC00000000001FFF8
310
000001FFFE0000007F80000000000001FFF800000000000FFFFFF80000000000
310
0FFFFF0003FFFFFFFFFE00000000001FF000FE00000000003FF8000FFFFC0000
310
FFFF8000FF80007FFC00000000003FFFC00000000003FFF8000001FFFE000000
310
7F80000000000001FFFC00000000001FFFFFFC00000000001FFFFF0003FFFFFF
310
FFFF00000000001FF000FF00000000003FF8000FFFFC0000FFFFC000FF80007F
310
FE00000000007FFFE00000000007FFF8000001FFFE0000007F80000000000001
310
FFFE00000000003FFFFFFE00000000003FFFFF0003FFFFFFFFFF80000000003F
310
F000FF80000000007FF8000FFFFC0001FFFFC0007F80007FFF0000000000FFFF
310
F0000000000FFFF800000000000000007F80000000000001FFFF8000000000FF
310
FFFFFF8000000000FFFFFF0003FFFFFFFFFFC0000000007FF000FFC000000000
310
FFF8000FFFFE0001FFFFC0007F80007FFF8000000001FFFFF8000000001FFFF8
310
00000000000000007F80000000000001FFFFC000000001FFFFFFFFC000000001
310
FFFFFF0003FFFFFFFFFFE000000000FFF000FFE000000003FFF0001FFFFE0001
310
FFFFC0007F80007FFFC000000007FFFFFE000000003FFFF80000000000000000
310
7F80000000000001FFFFE000000003FFFFFFFFE000000003FFFFFF0003FFFFFF
310
FFFFF000000003FFF000FFF80000000FFFF0001FFFFE0001FFFFE0007F80007F
310
FFF00000000FFFFFFF00000000FFFFF800000000000000007F80000000000001
310
FFFFF80000000FFFFFFFFFF80000000FFFFFFF0003FFFFFFFFFFFC0000000FFF
310
F000FFFE0000003FFFF0001FFFFE0003FFFFE0003F80007FFFFC0000003FFFFF
310
FFC0000003FFFFF800000000000000007F80000000000001FFFFFE0000003FFF
310
FFFFFFFE0000003FFFFFFF0003FFFFFFFFFFFF0000003FFFF000FFFF800000FF
310
FFF0001FFFFF0003FFFFE0003F80007FFFFF000001FFFFFFFFF800001FFFFFF8
310
00000000000000007F80000000000001FFFFFFC00001FFFFFFFFFFFFC00001FF
310
FFFFFF0003FFFFFFFFFFFFC00000FFFFF000FFFFF8000FFFFFFFFFFFFFFFFFFF
310
FFFFFFFFFFFFFFFFFFFFF0001FFFFFFFFFFF0000FFFFFFF80000000000000000
310
7FFFFFFFFFFFFFFFFFFFFFFC001FFFFFFFFFFFFFFC001FFFFFFFFFFFFFFFFFFF
310
FFFFFFFC001FFFFFF000FFFFFFFFFFFFFFFFFFFFFFFFFFFFFFFFFFFFFFFFFFFF
310
FFFFFFFFFFFFFFFFFFFFFFFFFFFFFFFFFFFFFFFFFFFFFFFFFFFFFFFFFFFFFFFF
310
FFFFFFFFFFFFFFFFFFFFFFFFFFFFFFFFFFFFFFFFFFFFFFFFFFFFFFFFFFFFFFFF
310
F000FFFFFFFFFFFFFFFFFFFFFFFFFFFFFFFFFFFFFFFFFFFFFFFFFFFFFFFFFFFF
310
FFFFFFFFFFFFFFFFFFFFFFFFFFFFFFFFFFFFFFFFFFFFFFFFFFFFFFFFFFFFFFFF
310
FFFFFFFFFFFFFFFFFFFFFFFFFFFFFFFFFFFFFFFFFFFFFFFFF000FFFFFFFFFFFF
310
FFFFFFFFFFFFFFFFFFFFFFFFFFFFFFFFFFFFFFFFFFFFFFFFFFFFFFFFFFFFFFFF
310
FFFFFFFFFFFFFFFFFFFFFFFFFFFFFFFFFFFFFFFFFFFFFFFFFFFFFFFFFFFFFFFF
310
FFFFFFFFFFFFFFFFFFFFFFFFFFFFFFFFF000FFFFFFFFFFFFFFFFFFFFFFFFFFFF
310
FFFFFFFFFFFFFFFFFFFFFFFFFFFFFFFFFFFFFFFFFFFFFFFFFFFFFFFFFFFFFFFF
310
FFFFFFFFFFFFFFFFFFFFFFFFFFFFFFFFFFFFFFFFFFFFFFFFFFFFFFFFFFFFFFFF
310
FFFFFFFFFFFFFFFFF000FFFFFFFFFFFFFFFFFFFFFFFFFFFFFFFFFFFFFFFFFFFF
310
FFFFFFFFFFFFFFFFFFFFFFFFFFFFFFFFFFFFFFFFFFFFFFFFFFFFFFFFFFFFFFFF
310
FFFFFFFFFFFFFFFFFFFFFFFFFFFFFFFFFFFFFFFFFFFFFFFFFFFFFFFFFFFFFFFF
310
F000FFFFFFFFFFFFFFFFFFFFFFFFFFFFFFFFFFFFFFFFFFFFFFFFFFFFFFFFFFFF
310
FFFFFFFFFFFFFFFFFFFFFFFFFFFFFFFFFFFFFFFFFFFFFFFFFFFFFFFFFFFFFFFF
310
FFFFFFFFFFFFFFFFFFFFFFFFFFFFFFFFFFFFFFFFFFFFFFFFF000FFFFFFFFFFFF
310
FFFFFFFFFFFFFFFFFFFFFFFFFFFFFFFFFFFFFFFFFFFFFFFFFFFFFFFFFFFFFFFF
310
FFFFFFFFFFFFFFFFFFFFFFFFFFFFFFFFFFFFFFFFFFFFFFFFFFFFFFFFFFFFFFFF
310
FFFFFFFFFFFFFFFFFFFFFFFFFFFFFFFFF000FFFFFFFFFFFFFFFFFFFFFFFFFFFF
310
FFFFFFFFFFFFFFFFFFFFFFFFFFFFFFFFFFFFFFFFFFFFFFFFFFFFFFFFFFFFFFFF
310
FFFFFFFFFFFFFFFFFFFFFFFFFFFFFFFFFFFFFFFFFFFFFFFFFFFFFFFFFFFFFFFF
310
FFFFFFFFFFFFFFFFF000FFFFFFFFFFFFFFFFFFFFFFFFFFFFFFFFFFFFFFFFFFFF
310
FFFFFFFFFFFFFFFFFFFFFFFFFFFFFFFFFFFFFFFFFFFFFFFFFFFFFFFFFFFFFFFF
310
FFFFFFFFFFFFFFFFFFFFFFFFFFFFFFFFFFFFFFFFFFFFFFFFFFFFFFFFFFFFFFFF
310
F000FFFFFFFFFFFFFFFFFFFFFFFFFFFFFFFFFFFFFFFFFFFFFFFFFFFFFFFFFFFF
310
FFFFFFFFFFFFFFFFFFFFFFFFFFFFFFFFFFFFFFFFFFFFFFFFFFFFFFFFFFFFFFFF
310
FFFFFFFFFFFFFFFFFFFFFFFFFFFFFFFFFFFFFFFFFFFFFFFFF000FFFFFFFFFFFF
310
FFFFFFFFFFFFFFFFFFFFFFFFFFFFFFFFFFFFFFFFFFFFFFFFFFFFFFFFFFFFFFFF
310
FFFFFFFFFFFFFFFFFFFFFFFFFFFFFFFFFFFFFFFFFFFFFFFFFFFFFFFFFFFFFFFF
310
FFFFFFFFFFFFFFFFFFFFFFFFFFFFFFFFF000FFFFFFFFFFFFFFFFFFFFFFFFFFFF
310
FFFFFFFFFFFFFFFFFFFFFFFFFFFFFFFFFFFFFFFFFFFFFFFFFFFFFFFFFFFFFFFF
310
FFFFFFFFFFFFFFFFFFFFFFFFFFFFFFFFFFFFFFFFFFFFFFFFFFFFFFFFFFFFFFFF
310
FFFFFFFFFFFFFFFFF000FFFFFFFFFFFFFFFFFFFFFFFFFFFFFFFFFFFFFFFFFFFF
310
FFFFFFFFFFFFFFFFFFFFFFFFFFFFFFFFFFFFFFFFFFFFFFFFFFFFFFFFFFFFFFFF
310
FFFFFFFFFFFFFFFFFFFFFFFFFFFFFFFFFFFFFFFFFFFFFFFFFFFFFFFFFFFFFFFF
310
F000FFFFFFFFFFFFFFFFFFFFFFFFFFFFFFFFFFFFFFFFFFFFFFFFFFFFFFFFFFFF
310
FFFFFFFFFFFFFFFFFFFFFFFFFFFFFFFFFFFFFFFFFFFFFFFFFFFFFFFFFFFFFFFF
310
FFFFFFFFFFFFFFFFFFFFFFFFFFFFFFFFFFFFFFFFFFFFFFFFF000FFFFFFFFFFFF
310
FFFFFFFFFFFFFFFFFFFFFFFFFFFFFFFFFFFFFFFFFFFFFFFFFFFFFFFFFFFFFFFF
310
FFFFFFFFFFFFFFFFFFFFFFFFFFFFFFFFFFFFFFFFFFFFFFFFFFFFFFFFFFFFFFFF
310
FFFFFFFFFFFFFFFFFFFFFFFFFFFFFFFFF000FFFFFFFFFFFFFFFFFFFFFFFFFFFF
310
FFFFFFFFFFFFFFFFFFFFFFFFFFFFFFFFFFFFFFFFFFFFFFFFFFFFFFFFFFFFFFFF
310
FFFFFFFFFFFFFFFFFFFFFFFFFFFFFFFFFFFFFFFFFFFFFFFFFFFFFFFFFFFFFFFF
310
FFFFFFFFFFFFFFFFF000FFFFFFFFFFFFFFFFFFFFFFFFFFFFFFFFFFFFFFFFFFFF
310
FFFFFFFFFFFFFFFFFFFFFFFFFFFFFFFFFFFFFFFFFFFFFFFFFFFFFFFFFFFFFFFF
310
FFFFFFFFFFFFFFFFFFFFFFFFFFFFFFFFFFFFFFFFFFFFFFFFFFFFFFFFFFFFFFFF
310
F000FFFFFFFFFFFFFFFFFFFFFFFFFFFFFFFFFFFFFFFFFFFFFFFFFFFFFFFFFFFF
310
FFFFFFFFFFFFFFFFFFFFFFFFFFFFFFFFFFFFFFFFFFFFFFFFFFFFFFFFFFFFFFFF
310
FFFFFFFFFFFFFFFFFFFFFFFFFFFFFFFFFFFFFFFFFFFFFFFFF000FFFFFFFFFFFF
310
FFFFFFFFFFFFFFFFFFFFFFFFFFFFFFFFFFFFFFFFFFFFFFFFFFFFFFFFFFFFFFFF
310
FFFFFFFFFFFFFFFFFFFFFFFFFFFFFFFFFFFFFFFFFFFFFFFFFFFFFFFFFFFFFFFF
310
FFFFFFFFFFFFFFFFFFFFFFFFFFFFFFFFF000FFFFFFFFFFFFFFFFFFFFFFFFFFFF
310
FFFFFFFFFFFFFFFFFFFFFFFFFFFFFFFFFFFFFFFFFFFFFFFFFFFFFFFFFFFFFFFF
310
FFFFFFFFFFFFFFFFFFFFFFFFFFFFFFFFFFFFFFFFFFFFFFFFFFFFFFFFFFFFFFFF
310
FFFFFFFFFFFFFFFFF000FFFFFFFFFFFFFFFFFFFFFFFFFFFFFFFFFFFFFFFFFFFF
310
FFFFFFFFFFFFFFFFFFFFFFFFFFFFFFFFFFFFFFFFFFFFFFFFFFFFFFFFFFFFFFFF
310
FFFFFFFFFFFFFFFFFFFFFFFFFFFFFFFFFFFFFFFFFFFFFFFFFFFFFFFFFFFFFFFF
310
F000FFFFFFFFFFFFFFFFFFFFFFFFFFFFFFFFFFFFFFFFFFFFFFFFFFFFFFFFFFFF
310
FFFFFFFFFFFFFFFFFFFFFFFFFFFFFFFFFFFFFFFFFFFFFFFFFFFFFFFFFFFFFFFF
310
FFFFFFFFFFFFFFFFFFFFFFFFFFFFFFFFFFFFFFFFFFFFFFFFF000FFFFFFFFFFFF
310
FFFFFFFFFFFFFFFFFFFFFFFFFFFFFFFFFFFFFFFFFFFFFFFFFFFFFFFFFFFFFFFF
310
FFFFFFFFFFFFFFFFFFFFFFFFFFFFFFFFFFFFFFFFFFFFFFFFFFFFFFFFFFFFFFFF
310
FFFFFFFFFFFFFFFFFFFFFFFFFFFFFFFFF0000000000000000000000000000000
310
0000000000000000000000000000000000000000000000000000000000000000
310
0000000000000000000000000000000000000000000000000000000000000000
310
0000000000000000000000000000000000000000000000000000000000000000
310
0000000000000000000000000000000000000000000000000000000000000000
310
0000000000000000000000000000000000000000000000000000000000000000
310
0000000000000000000000000000000000000000000000000000000000000000
310
0000000000000000000000000000000000000000000000000000000000000000
310
0000000000000000000000000000000000000000000000000000000000000000
310
0000000000000000000000000000000000000000000000000000000000000000
310
0000000000000000000000000000000000000000000000000000000000000000
310
0000000000000000000000000000000000000000000000000000000000000000
310
0000000000000000000000000000000000000000000000000000000000000000
310
0000000000000000000000000000000000000000000000000000000000000000
310
0000000000000000000000000000000000000000000000000000000000000000
310
0000000000000000000000000000000000000000000000000000000000000000
  1
OLE
  0
ENDSEC
  0
SECTION
  2
OBJECTS
  0
DICTIONARY
  5
C
330
0
100
AcDbDictionary
281
     1
  3
ACAD_GROUP
350
D
  3
ACAD_LAYOUT
350
1A
  3
ACAD_MLINESTYLE
350
17
  3
ACAD_PLOTSETTINGS
350
19
  3
ACAD_PLOTSTYLENAME
350
E
  0
DICTIONARY
  5
D
102
{ACAD_REACTORS
330
C
102
}
330
C
100
AcDbDictionary
281
     1
  0
DICTIONARY
  5
1A
102
{ACAD_REACTORS
330
C
102
}
330
C
100
AcDbDictionary
281
     1
  3
Layout1
350
1E
  3
Layout2
350
26
  3
Model
350
22
  0
DICTIONARY
  5
17
102
{ACAD_REACTORS
330
C
102
}
330
C
100
AcDbDictionary
281
     1
  3
Standard
350
18
  0
DICTIONARY
  5
19
102
{ACAD_REACTORS
330
C
102
}
330
C
100
AcDbDictionary
281
     1
  0
ACDBDICTIONARYWDFLT
  5
E
102
{ACAD_REACTORS
330
C
102
}
330
C
100
AcDbDictionary
281
     1
  3
Normal
350
F
100
AcDbDictionaryWithDefault
340
F
  0
LAYOUT
  5
1E
102
{ACAD_REACTORS
330
1A
102
}
330
1A
100
AcDbPlotSettings
  1

  2
none_device
  4

  6

 40
0.0
 41
0.0
 42
0.0
 43
0.0
 44
0.0
 45
0.0
 46
0.0
 47
0.0
 48
0.0
 49
0.0
140
0.0
141
0.0
142
1.0
143
1.0
 70
   688
 72
     0
 73
     0
 74
     5
  7

 75
    16
147
1.0
148
0.0
149
0.0
100
AcDbLayout
  1
Layout1
 70
     1
 71
     1
 10
0.0
 20
0.0
 11
420.0
 21
297.0
 12
0.0
 22
0.0
 32
0.0
 14
1.0000000000E+20
 24
1.0000000000E+20
 34
1.0000000000E+20
 15
-1.0000000000E+20
 25
-1.0000000000E+20
 35
-1.0000000000E+20
146
0.0
 13
0.0
 23
0.0
 33
0.0
 16
1.0
 26
0.0
 36
0.0
 17
0.0
 27
1.0
 37
0.0
 76
     0
330
1B
  0
LAYOUT
  5
26
102
{ACAD_REACTORS
330
1A
102
}
330
1A
100
AcDbPlotSettings
  1

  2
none_device
  4

  6

 40
0.0
 41
0.0
 42
0.0
 43
0.0
 44
0.0
 45
0.0
 46
0.0
 47
0.0
 48
0.0
 49
0.0
140
0.0
141
0.0
142
1.0
143
1.0
 70
   688
 72
     0
 73
     0
 74
     5
  7

 75
    16
147
1.0
148
0.0
149
0.0
100
AcDbLayout
  1
Layout2
 70
     1
 71
     2
 10
0.0
 20
0.0
 11
0.0
 21
0.0
 12
0.0
 22
0.0
 32
0.0
 14
0.0
 24
0.0
 34
0.0
 15
0.0
 25
0.0
 35
0.0
146
0.0
 13
0.0
 23
0.0
 33
0.0
 16
1.0
 26
0.0
 36
0.0
 17
0.0
 27
1.0
 37
0.0
 76
     0
330
23
  0
LAYOUT
  5
22
102
{ACAD_REACTORS
330
1A
102
}
330
1A
100
AcDbPlotSettings
  1

  2
none_device
  4

  6

 40
0.0
 41
0.0
 42
0.0
 43
0.0
 44
0.0
 45
0.0
 46
0.0
 47
0.0
 48
0.0
 49
0.0
140
0.0
141
0.0
142
1.0
143
1.0
 70
  1712
 72
     0
 73
     0
 74
     0
  7

 75
     0
147
1.0
148
0.0
149
0.0
100
AcDbLayout
  1
Model
 70
     1
 71
     0
 10
0.0
 20
0.0
 11
297.0
 21
210.0
 12
0.0
 22
0.0
 32
0.0
 14
0.0
 24
0.0
 34
0.0
 15
297.0
 25
210.0
 35
0.0
146
0.0
 13
0.0
 23
0.0
 33
0.0
 16
1.0
 26
0.0
 36
0.0
 17
0.0
 27
1.0
 37
0.0
 76
     0
330
1F
331
29
  0
MLINESTYLE
  5
18
102
{ACAD_REACTORS
330
17
102
}
330
17
100
AcDbMlineStyle
  2
Standard
 70
     0
  3

 62
   256
 51
90.0
 52
90.0
 71
     2
 49
0.5
 62
   256
  6
BYLAYER
 49
-0.5
 62
   256
  6
BYLAYER
  0
ACDBPLACEHOLDER
  5
F
102
{ACAD_REACTORS
330
E
102
}
330
E
  0
ENDSEC
  0
EOF
