  0
SECTION
  2
HEADER
  9
$ACADVER
  1
AC1015
  9
$ACADMAINTVER
 70
     6
  9
$DWGCODEPAGE
  3
ANSI_1252
  9
$INSBASE
 10
0.0
 20
0.0
 30
0.0
  9
$EXTMIN
 10
0.0
 20
0.0
 30
0.0
  9
$EXTMAX
 10
297.0
 20
210.0
 30
0.0
  9
$LIMMIN
 10
0.0
 20
0.0
  9
$LIMMAX
 10
297.0
 20
210.0
  9
$ORTHOMODE
 70
     0
  9
$REGENMODE
 70
     1
  9
$FILLMODE
 70
     1
  9
$QTEXTMODE
 70
     0
  9
$MIRRTEXT
 70
     1
  9
$LTSCALE
 40
1.0
  9
$ATTMODE
 70
     1
  9
$TEXTSIZE
 40
2.0
  9
$TRACEWID
 40
1.0
  9
$TEXTSTYLE
  7
Standard
  9
$CLAYER
  8
0
  9
$CELTYPE
  6
ByLayer
  9
$CECOLOR
 62
   256
  9
$CELTSCALE
 40
1.0
  9
$DISPSILH
 70
     0
  9
$DIMSCALE
 40
1.0
  9
$DIMASZ
 40
3.0
  9
$DIMEXO
 40
0.0
  9
$DIMDLI
 40
3.75
  9
$DIMRND
 40
0.0
  9
$DIMDLE
 40
0.0
  9
$DIMEXE
 40
1.0
  9
$DIMTP
 40
0.0
  9
$DIMTM
 40
0.0
  9
$DIMTXT
 40
2.0
  9
$DIMCEN
 40
2.5
  9
$DIMTSZ
 40
0.0
  9
$DIMTOL
 70
     0
  9
$DIMLIM
 70
     0
  9
$DIMTIH
 70
     1
  9
$DIMTOH
 70
     1
  9
$DIMSE1
 70
     0
  9
$DIMSE2
 70
     0
  9
$DIMTAD
 70
     1
  9
$DIMZIN
 70
     0
  9
$DIMBLK
  1

  9
$DIMASO
 70
     1
  9
$DIMSHO
 70
     1
  9
$DIMPOST
  1

  9
$DIMAPOST
  1

  9
$DIMALT
 70
     0
  9
$DIMALTD
 70
     3
  9
$DIMALTF
 40
0.0393700787
  9
$DIMLFAC
 40
2.0
  9
$DIMTOFL
 70
     1
  9
$DIMTVP
 40
0.0
  9
$DIMTIX
 70
     0
  9
$DIMSOXD
 70
     0
  9
$DIMSAH
 70
     0
  9
$DIMBLK1
  1

  9
$DIMBLK2
  1

  9
$DIMSTYLE
  2
ISO-25
  9
$DIMCLRD
 70
     0
  9
$DIMCLRE
 70
     0
  9
$DIMCLRT
 70
     0
  9
$DIMTFAC
 40
1.0
  9
$DIMGAP
 40
1.524
  9
$DIMJUST
 70
     0
  9
$DIMSD1
 70
     0
  9
$DIMSD2
 70
     0
  9
$DIMTOLJ
 70
     0
  9
$DIMTZIN
 70
     0
  9
$DIMALTZ
 70
     0
  9
$DIMALTTZ
 70
     0
  9
$DIMUPT
 70
     0
  9
$DIMDEC
 70
     2
  9
$DIMTDEC
 70
     3
  9
$DIMALTU
 70
     2
  9
$DIMALTTD
 70
     3
  9
$DIMTXSTY
  7
Standard
  9
$DIMAUNIT
 70
     0
  9
$DIMADEC
 70
     2
  9
$DIMALTRND
 40
0.0
  9
$DIMAZIN
 70
     0
  9
$DIMDSEP
 70
    44
  9
$DIMATFIT
 70
     3
  9
$DIMFRAC
 70
     0
  9
$DIMLDRBLK
  1

  9
$DIMLUNIT
 70
     2
  9
$DIMLWD
 70
    -2
  9
$DIMLWE
 70
    -2
  9
$DIMTMOVE
 70
     0
  9
$LUNITS
 70
     2
  9
$LUPREC
 70
     2
  9
$SKETCHINC
 40
1.0
  9
$FILLETRAD
 40
10.0
  9
$AUNITS
 70
     0
  9
$AUPREC
 70
     2
  9
$MENU
  1
.
  9
$ELEVATION
 40
0.0
  9
$PELEVATION
 40
0.0
  9
$THICKNESS
 40
0.0
  9
$LIMCHECK
 70
     0
  9
$CHAMFERA
 40
0.0
  9
$CHAMFERB
 40
0.0
  9
$CHAMFERC
 40
0.0
  9
$CHAMFERD
 40
0.0
  9
$SKPOLY
 70
     0
  9
$TDCREATE
 40
2458162.431329641
  9
$TDUCREATE
 40
2458162.389662975
  9
$TDUPDATE
 40
2458162.431331829
  9
$TDUUPDATE
 40
2458162.389665162
  9
$TDINDWG
 40
0.0000000116
  9
$TDUSRTIMER
 40
0.0000000116
  9
$USRTIMER
 70
     1
  9
$ANGBASE
 50
0.0
  9
$ANGDIR
 70
     0
  9
$PDMODE
 70
     0
  9
$PDSIZE
 40
-1.0
  9
$PLINEWID
 40
0.0
  9
$SPLFRAME
 70
     0
  9
$SPLINETYPE
 70
     6
  9
$SPLINESEGS
 70
     8
  9
$HANDSEED
  5
29A
  9
$SURFTAB1
 70
     6
  9
$SURFTAB2
 70
     6
  9
$SURFTYPE
 70
     6
  9
$SURFU
 70
     6
  9
$SURFV
 70
     6
  9
$UCSBASE
  2

  9
$UCSNAME
  2

  9
$UCSORG
 10
0.0
 20
0.0
 30
0.0
  9
$UCSXDIR
 10
1.0
 20
0.0
 30
0.0
  9
$UCSYDIR
 10
0.0
 20
1.0
 30
0.0
  9
$UCSORTHOREF
  2

  9
$UCSORTHOVIEW
 70
     0
  9
$UCSORGTOP
 10
0.0
 20
0.0
 30
0.0
  9
$UCSORGBOTTOM
 10
0.0
 20
0.0
 30
0.0
  9
$UCSORGLEFT
 10
0.0
 20
0.0
 30
0.0
  9
$UCSORGRIGHT
 10
0.0
 20
0.0
 30
0.0
  9
$UCSORGFRONT
 10
0.0
 20
0.0
 30
0.0
  9
$UCSORGBACK
 10
0.0
 20
0.0
 30
0.0
  9
$PUCSBASE
  2

  9
$PUCSNAME
  2

  9
$PUCSORG
 10
0.0
 20
0.0
 30
0.0
  9
$PUCSXDIR
 10
1.0
 20
0.0
 30
0.0
  9
$PUCSYDIR
 10
0.0
 20
1.0
 30
0.0
  9
$PUCSORTHOREF
  2

  9
$PUCSORTHOVIEW
 70
     0
  9
$PUCSORGTOP
 10
0.0
 20
0.0
 30
0.0
  9
$PUCSORGBOTTOM
 10
0.0
 20
0.0
 30
0.0
  9
$PUCSORGLEFT
 10
0.0
 20
0.0
 30
0.0
  9
$PUCSORGRIGHT
 10
0.0
 20
0.0
 30
0.0
  9
$PUCSORGFRONT
 10
0.0
 20
0.0
 30
0.0
  9
$PUCSORGBACK
 10
0.0
 20
0.0
 30
0.0
  9
$USERI1
 70
     0
  9
$USERI2
 70
     0
  9
$USERI3
 70
     0
  9
$USERI4
 70
     0
  9
$USERI5
 70
     0
  9
$USERR1
 40
0.0
  9
$USERR2
 40
0.0
  9
$USERR3
 40
0.0
  9
$USERR4
 40
0.0
  9
$USERR5
 40
0.0
  9
$WORLDVIEW
 70
     1
  9
$SHADEDGE
 70
     3
  9
$SHADEDIF
 70
    70
  9
$TILEMODE
 70
     1
  9
$MAXACTVP
 70
    64
  9
$PINSBASE
 10
0.0
 20
0.0
 30
0.0
  9
$PLIMCHECK
 70
     0
  9
$PEXTMIN
 10
1.0000000000E+20
 20
1.0000000000E+20
 30
1.0000000000E+20
  9
$PEXTMAX
 10
-1.0000000000E+20
 20
-1.0000000000E+20
 30
-1.0000000000E+20
  9
$PLIMMIN
 10
0.0
 20
0.0
  9
$PLIMMAX
 10
420.0
 20
297.0
  9
$UNITMODE
 70
     0
  9
$VISRETAIN
 70
     1
  9
$PLINEGEN
 70
     0
  9
$PSLTSCALE
 70
     1
  9
$TREEDEPTH
 70
  3020
  9
$CMLSTYLE
  2
Standard
  9
$CMLJUST
 70
     0
  9
$CMLSCALE
 40
20.0
  9
$PROXYGRAPHICS
 70
     1
  9
$MEASUREMENT
 70
     1
  9
$CELWEIGHT
370
    -1
  9
$ENDCAPS
280
     0
  9
$JOINSTYLE
280
     0
  9
$LWDISPLAY
290
     1
  9
$INSUNITS
 70
     4
  9
$HYPERLINKBASE
  1

  9
$STYLESHEET
  1

  9
$XEDIT
290
     1
  9
$CEPSNTYPE
380
     0
  9
$PSTYLEMODE
290
     1
  9
$FINGERPRINTGUID
  2
{409FEAD1-3DF9-422A-884B-63CBBB76C271}
  9
$VERSIONGUID
  2
{FAEB1C32-E019-11D5-929B-00C0DF256EC4}
  9
$EXTNAMES
290
     1
  9
$PSVPSCALE
 40
0.0
  9
$OLESTARTUP
290
     0
  0
ENDSEC
  0
SECTION
  2
CLASSES
  0
CLASS
  1
ACDBDICTIONARYWDFLT
  2
AcDbDictionaryWithDefault
  3
ObjectDBX Classes
 90
        0
280
     0
281
     0
  0
CLASS
  1
VISUALSTYLE
  2
AcDbVisualStyle
  3
ObjectDBX Classes
 90
     4095
280
     0
281
     0
  0
CLASS
  1
MATERIAL
  2
AcDbMaterial
  3
ObjectDBX Classes
 90
     1153
280
     0
281
     0
  0
CLASS
  1
SCALE
  2
AcDbScale
  3
ObjectDBX Classes
 90
     1153
280
     0
281
     0
  0
CLASS
  1
TABLESTYLE
  2
AcDbTableStyle
  3
ObjectDBX Classes
 90
     4095
280
     0
281
     0
  0
CLASS
  1
MLEADERSTYLE
  2
AcDbMLeaderStyle
  3
ACDB_MLEADERSTYLE_CLASS
 90
     4095
280
     0
281
     0
  0
CLASS
  1
SUN
  2
AcDbSun
  3
SCENEOE
 90
     1153
280
     0
281
     0
  0
CLASS
  1
ACDBPLACEHOLDER
  2
AcDbPlaceHolder
  3
ObjectDBX Classes
 90
        0
280
     0
281
     0
  0
CLASS
  1
LAYOUT
  2
AcDbLayout
  3
ObjectDBX Classes
 90
        0
280
     0
281
     0
  0
ENDSEC
  0
SECTION
  2
TABLES
  0
TABLE
  2
VPORT
  5
8
330
0
100
AcDbSymbolTable
 70
     1
  0
VPORT
  5
29
330
8
100
AcDbSymbolTableRecord
100
AcDbViewportTableRecord
  2
*Active
 70
     0
 10
0.0
 20
0.0
 11
1.0
 21
1.0
 12
148.5
 22
105.0
 13
0.0
 23
0.0
 14
10.0
 24
10.0
 15
10.0
 25
10.0
 16
0.0
 26
0.0
 36
1.0
 17
0.0
 27
0.0
 37
0.0
 40
210.0
 41
1.4142857143
 42
50.0
 43
0.0
 44
0.0
 50
0.0
 51
0.0
 71
     0
 72
  2000
 73
     1
 74
     3
 75
     0
 76
     0
 77
     0
 78
     0
281
     0
 65
     1
110
0.0
120
0.0
130
0.0
111
1.0
121
0.0
131
0.0
112
0.0
122
1.0
132
0.0
 79
     0
146
0.0
  0
ENDTAB
  0
TABLE
  2
LTYPE
  5
5
330
0
100
AcDbSymbolTable
 70
     6
  0
LTYPE
  5
14
330
5
100
AcDbSymbolTableRecord
100
AcDbLinetypeTableRecord
  2
ByBlock
 70
     0
  3

 72
    65
 73
     0
 40
0.0
  0
LTYPE
  5
15
330
5
100
AcDbSymbolTableRecord
100
AcDbLinetypeTableRecord
  2
ByLayer
 70
     0
  3

 72
    65
 73
     0
 40
0.0
  0
LTYPE
  5
16
330
5
100
AcDbSymbolTableRecord
100
AcDbLinetypeTableRecord
  2
Continuous
 70
     0
  3
Solid line
 72
    65
 73
     0
 40
0.0
  0
LTYPE
  5
6E
330
5
100
AcDbSymbolTableRecord
100
AcDbLinetypeTableRecord
  2
HIDDEN
 70
     0
  3
Hidden __ __ __ __ __ __ __ __ __ __ __ __ __ __
 72
    65
 73
     2
 40
1.905
 49
1.27
 74
     0
 49
-0.635
 74
     0
  0
LTYPE
  5
6F
330
5
100
AcDbSymbolTableRecord
100
AcDbLinetypeTableRecord
  2
PHANTOM
 70
     0
  3
Phantom ______  __  __  ______  __  __  ______
 72
    65
 73
     6
 40
12.7
 49
6.35
 74
     0
 49
-1.27
 74
     0
 49
1.27
 74
     0
 49
-1.27
 74
     0
 49
1.27
 74
     0
 49
-1.27
 74
     0
  0
LTYPE
  5
70
330
5
100
AcDbSymbolTableRecord
100
AcDbLinetypeTableRecord
  2
CENTER
 70
     0
  3
Center ____ _ ____ _ ____ _ ____ _ ____ _ ____
 72
    65
 73
     4
 40
10.16
 49
6.35
 74
     0
 49
-1.27
 74
     0
 49
1.27
 74
     0
 49
-1.27
 74
     0
  0
LTYPE
  5
71
330
5
100
AcDbSymbolTableRecord
100
AcDbLinetypeTableRecord
  2
CENTERX2
 70
     0
  3
Center (2x) ________  __  ________  __  _____
 72
    65
 73
     4
 40
20.32
 49
12.7
 74
     0
 49
-2.54
 74
     0
 49
2.54
 74
     0
 49
-2.54
 74
     0
  0
LTYPE
  5
72
330
5
100
AcDbSymbolTableRecord
100
AcDbLinetypeTableRecord
  2
DOT2
 70
     0
  3
Dot (.5x) ........................................
 72
    65
 73
     2
 40
0.635
 49
0.0
 74
     0
 49
-0.635
 74
     0
  0
ENDTAB
  0
TABLE
  2
LAYER
  5
2
330
0
100
AcDbSymbolTable
 70
     5
  0
LAYER
  5
10
330
2
100
AcDbSymbolTableRecord
100
AcDbLayerTableRecord
  2
0
 70
     0
 62
     7
  6
Continuous
370
    -3
390
F
  0
LAYER
  5
73
330
2
100
AcDbSymbolTableRecord
100
AcDbLayerTableRecord
  2
FORMAT
 70
     0
 62
     7
  6
Continuous
370
    -3
390
F
  0
LAYER
  5
74
330
2
100
AcDbSymbolTableRecord
100
AcDbLayerTableRecord
  2
VERMASSUNG
 70
     0
 62
     7
  6
Continuous
370
    -3
390
F
  0
LAYER
  5
75
330
2
100
AcDbSymbolTableRecord
100
AcDbLayerTableRecord
  2
KOPF_DÜNN
 70
     0
 62
     7
  6
Continuous
370
    -3
390
F
  0
LAYER
  5
76
330
2
100
AcDbSymbolTableRecord
100
AcDbLayerTableRecord
  2
KOPF_DICK
 70
     0
 62
     7
  6
Continuous
370
    25
390
F
  0
ENDTAB
  0
TABLE
  2
STYLE
  5
3
330
0
100
AcDbSymbolTable
 70
     3
  0
STYLE
  5
11
330
3
100
AcDbSymbolTableRecord
100
AcDbTextStyleTableRecord
  2
Standard
 70
     0
 40
0.0
 41
1.0
 50
0.0
 71
     0
 42
2.0
  3
txt
  4

  0
STYLE
  5
77
330
3
100
AcDbSymbolTableRecord
100
AcDbTextStyleTableRecord
  2
SLDTEXTSTYLE0
 70
     0
 40
0.0
 41
0.7
 50
0.0
 71
     0
 42
2.0
  3
TXT
  4

  0
STYLE
  5
7B
330
3
100
AcDbSymbolTableRecord
100
AcDbTextStyleTableRecord
  2
SLDTEXTSTYLE1
 70
     0
 40
0.0
 41
0.6416666667
 50
0.0
 71
     0
 42
2.0
  3
TXT
  4

  0
ENDTAB
  0
TABLE
  2
VIEW
  5
6
330
0
100
AcDbSymbolTable
 70
     0
  0
ENDTAB
  0
TABLE
  2
UCS
  5
7
330
0
100
AcDbSymbolTable
 70
     0
  0
ENDTAB
  0
TABLE
  2
APPID
  5
9
330
0
100
AcDbSymbolTable
 70
     1
  0
APPID
  5
12
330
9
100
AcDbSymbolTableRecord
100
AcDbRegAppTableRecord
  2
ACAD
 70
     0
  0
ENDTAB
  0
TABLE
  2
DIMSTYLE
  5
A
330
0
100
AcDbSymbolTable
 70
     4
100
AcDbDimStyleTable
  0
DIMSTYLE
105
27
330
A
100
AcDbSymbolTableRecord
100
AcDbDimStyleTableRecord
  2
ISO-25
 70
     0
 41
2.5
 42
0.625
 43
3.75
 44
1.25
 73
     0
 74
     0
 77
     1
 78
     8
140
2.5
141
2.5
143
0.0393700787
147
0.625
171
     3
172
     1
178
     0
271
     2
272
     2
274
     3
278
    44
283
     0
284
     8
340
11
  0
DIMSTYLE
105
14C
102
{ACAD_REACTORS
330
14B
330
158
102
}
330
A
100
AcDbSymbolTableRecord
100
AcDbDimStyleTableRecord
  2
SLDDIMSTYLE0
 70
     0
 41
3.0
 44
0.0
 45
0.000000001
 47
0.1
 48
0.1
 71
     1
 73
     0
 74
     0
 77
     1
 78
    12
 79
     3
140
2.0
147
0.5
173
     1
178
     0
271
     2
272
     1
276
     2
284
     8
340
77
  0
DIMSTYLE
105
165
102
{ACAD_REACTORS
330
164
330
17A
102
}
330
A
100
AcDbSymbolTableRecord
100
AcDbDimStyleTableRecord
  2
SLDDIMSTYLE1
 70
     0
 41
3.0
 44
0.0
 45
0.000000001
 73
     0
 74
     0
 77
     1
 78
    12
 79
     3
140
2.0
147
0.5
173
     1
178
     0
271
     2
272
     3
276
     2
284
    12
340
77
  0
DIMSTYLE
105
170
102
{ACAD_REACTORS
330
16F
102
}
330
A
100
AcDbSymbolTableRecord
100
AcDbDimStyleTableRecord
  2
SLDDIMSTYLE2
 70
     0
 41
3.0
 44
0.0
 73
     0
 74
     0
 77
     1
 78
    12
 79
     3
140
2.0
147
0.5
173
     1
178
     0
179
     2
272
     3
276
     2
284
    12
340
77
  0
ENDTAB
  0
TABLE
  2
BLOCK_RECORD
  5
1
330
0
100
AcDbSymbolTable
 70
     7
  0
BLOCK_RECORD
  5
1F
330
1
100
AcDbSymbolTableRecord
100
AcDbBlockTableRecord
  2
*Model_Space
340
22
  0
BLOCK_RECORD
  5
1B
330
1
100
AcDbSymbolTableRecord
100
AcDbBlockTableRecord
  2
*Paper_Space
340
1E
  0
BLOCK_RECORD
  5
23
330
1
100
AcDbSymbolTableRecord
100
AcDbBlockTableRecord
  2
*Paper_Space0
340
26
  0
BLOCK_RECORD
  5
14D
330
1
100
AcDbSymbolTableRecord
100
AcDbBlockTableRecord
  2
_D
340
0
  0
BLOCK_RECORD
  5
159
330
1
100
AcDbSymbolTableRecord
100
AcDbBlockTableRecord
  2
_D_1
340
0
  0
BLOCK_RECORD
  5
166
330
1
100
AcDbSymbolTableRecord
100
AcDbBlockTableRecord
  2
_D_2
340
0
  0
BLOCK_RECORD
  5
171
330
1
100
AcDbSymbolTableRecord
100
AcDbBlockTableRecord
  2
_D_3
340
0
  0
BLOCK_RECORD
  5
17B
330
1
100
AcDbSymbolTableRecord
100
AcDbBlockTableRecord
  2
_D_4
340
0
  0
BLOCK_RECORD
  5
1AF
330
1
100
AcDbSymbolTableRecord
100
AcDbBlockTableRecord
  2
SW_CENTERMARKSYMBOL_0
340
0
102
{BLKREFS
331
1BA
102
}
  0
ENDTAB
  0
ENDSEC
  0
SECTION
  2
BLOCKS
  0
BLOCK
  5
20
330
1F
100
AcDbEntity
  8
0
100
AcDbBlockBegin
  2
*Model_Space
 70
     0
 10
0.0
 20
0.0
 30
0.0
  3
*Model_Space
  1

  0
ENDBLK
  5
21
330
1F
100
AcDbEntity
  8
0
100
AcDbBlockEnd
  0
BLOCK
  5
1C
330
1B
100
AcDbEntity
 67
     1
  8
0
100
AcDbBlockBegin
  2
*Paper_Space
 70
     0
 10
0.0
 20
0.0
 30
0.0
  3
*Paper_Space
  1

  0
ENDBLK
  5
1D
330
1B
100
AcDbEntity
 67
     1
  8
0
100
AcDbBlockEnd
  0
BLOCK
  5
24
330
23
100
AcDbEntity
  8
0
100
AcDbBlockBegin
  2
*Paper_Space0
 70
     0
 10
0.0
 20
0.0
 30
0.0
  3
*Paper_Space0
  1

  0
ENDBLK
  5
25
330
23
100
AcDbEntity
  8
0
100
AcDbBlockEnd
  0
BLOCK
  5
14E
330
14D
100
AcDbEntity
  8
0
100
AcDbBlockBegin
  2
_D
 70
     0
 10
0.0
 20
0.0
 30
0.0
  3
_D
  1

  0
SOLID
  5
150
330
14D
100
AcDbEntity
  8
VERMASSUNG
100
AcDbTrace
 10
267.1267666705
 20
108.8541015795
 30
0.0
 11
267.5767666705
 21
111.8541015795
 31
0.0
 12
266.6767666705
 22
111.8541015795
 32
0.0
 13
266.6767666705
 23
111.8541015795
 33
0.0
  0
SOLID
  5
151
330
14D
100
AcDbEntity
  8
VERMASSUNG
100
AcDbTrace
 10
267.1267666705
 20
153.8541015795
 30
0.0
 11
266.6767666705
 21
150.8541015795
 31
0.0
 12
267.5767666705
 22
150.8541015795
 32
0.0
 13
267.5767666705
 23
150.8541015795
 33
0.0
  0
LINE
  5
152
330
14D
100
AcDbEntity
  8
VERMASSUNG
100
AcDbLine
 10
256.9610812456
 20
108.8541015795
 30
0.0
 11
268.1267666705
 21
108.8541015795
 31
0.0
  0
LINE
  5
153
330
14D
100
AcDbEntity
  8
VERMASSUNG
100
AcDbLine
 10
263.0278221347
 20
153.8541015795
 30
0.0
 11
268.1267666705
 21
153.8541015795
 31
0.0
  0
LINE
  5
154
330
14D
100
AcDbEntity
  8
VERMASSUNG
100
AcDbLine
 10
267.1267666705
 20
108.8541015795
 30
0.0
 11
267.1267666705
 21
153.8541015795
 31
0.0
  0
MTEXT
  5
155
330
14D
100
AcDbEntity
  8
VERMASSUNG
100
AcDbMText
 10
264.5486310746
 20
127.6041011976
 30
0.0
 40
2.0
 41
0.0
 71
     1
 72
     1
  1
45
  7
SLDTEXTSTYLE0
 11
6.123233995736766E-17
 21
1.0
 31
0.0
 73
     1
 44
1.0
  0
MTEXT
  5
156
330
14D
100
AcDbEntity
  8
VERMASSUNG
100
AcDbMText
 10
264.5486310746
 20
131.7916012237
 30
0.0
 40
2.0
 41
0.0
 71
     1
 72
     1
  1

  7
SLDTEXTSTYLE0
 11
6.123233995736766E-17
 21
1.0
 31
0.0
 73
     1
 44
1.0
  0
MTEXT
  5
157
330
14D
100
AcDbEntity
  8
VERMASSUNG
100
AcDbMText
 10
265.0431649082
 20
131.8041010479
 30
0.0
 40
1.5
 41
0.0
 71
     1
 72
     1
  1
±0.1
  7
SLDTEXTSTYLE0
 11
6.123233995736766E-17
 21
1.0
 31
0.0
 73
     1
 44
1.0
  0
ENDBLK
  5
14F
330
14D
100
AcDbEntity
  8
0
100
AcDbBlockEnd
  0
BLOCK
  5
15A
330
159
100
AcDbEntity
  8
0
100
AcDbBlockBegin
  2
_D_1
 70
     0
 10
0.0
 20
0.0
 30
0.0
  3
_D_1
  1

  0
SOLID
  5
15C
330
159
100
AcDbEntity
  8
VERMASSUNG
100
AcDbTrace
 10
256.9610812456
 20
92.2988673528
 30
0.0
 11
253.9610812456
 21
92.7488673528
 31
0.0
 12
253.9610812456
 22
91.8488673528
 32
0.0
 13
253.9610812456
 23
91.8488673528
 33
0.0
  0
SOLID
  5
15D
330
159
100
AcDbEntity
  8
VERMASSUNG
100
AcDbTrace
 10
191.9610812456
 20
92.2988673528
 30
0.0
 11
194.9610812456
 21
91.8488673528
 31
0.0
 12
194.9610812456
 22
92.7488673528
 32
0.0
 13
194.9610812456
 23
92.7488673528
 33
0.0
  0
LINE
  5
15E
330
159
100
AcDbEntity
  8
VERMASSUNG
100
AcDbLine
 10
256.9610812456
 20
108.8541015795
 30
0.0
 11
256.9610812456
 21
91.2988673528
 31
0.0
  0
LINE
  5
15F
330
159
100
AcDbEntity
  8
VERMASSUNG
100
AcDbLine
 10
191.9610812456
 20
122.8541015795
 30
0.0
 11
191.9610812456
 21
91.2988673528
 31
0.0
  0
LINE
  5
160
330
159
100
AcDbEntity
  8
VERMASSUNG
100
AcDbLine
 10
256.9610812456
 20
92.2988673528
 30
0.0
 11
191.9610812456
 21
92.2988673528
 31
0.0
  0
MTEXT
  5
161
330
159
100
AcDbEntity
  8
VERMASSUNG
100
AcDbMText
 10
220.8110811595
 20
94.8770029487
 30
0.0
 40
2.0
 41
0.0
 71
     1
 72
     1
  1
65
  7
SLDTEXTSTYLE0
 73
     1
 44
1.0
  0
MTEXT
  5
162
330
159
100
AcDbEntity
  8
VERMASSUNG
100
AcDbMText
 10
224.7985810597
 20
94.8770029487
 30
0.0
 40
2.0
 41
0.0
 71
     1
 72
     1
  1

  7
SLDTEXTSTYLE0
 73
     1
 44
1.0
  0
MTEXT
  5
163
330
159
100
AcDbEntity
  8
VERMASSUNG
100
AcDbMText
 10
224.8110808839
 20
94.3824691151
 30
0.0
 40
1.5
 41
0.0
 71
     1
 72
     1
  1
±0.1
  7
SLDTEXTSTYLE0
 73
     1
 44
1.0
  0
ENDBLK
  5
15B
330
159
100
AcDbEntity
  8
0
100
AcDbBlockEnd
  0
BLOCK
  5
167
330
166
100
AcDbEntity
  8
0
100
AcDbBlockBegin
  2
_D_2
 70
     0
 10
0.0
 20
0.0
 30
0.0
  3
_D_2
  1

  0
SOLID
  5
169
330
166
100
AcDbEntity
  8
VERMASSUNG
100
AcDbTrace
 10
256.9610812456
 20
83.625855796
 30
0.0
 11
253.9610812456
 21
84.075855796
 31
0.0
 12
253.9610812456
 22
83.175855796
 32
0.0
 13
253.9610812456
 23
83.175855796
 33
0.0
  0
SOLID
  5
16A
330
166
100
AcDbEntity
  8
VERMASSUNG
100
AcDbTrace
 10
153.9610812456
 20
83.625855796
 30
0.0
 11
156.9610812456
 21
83.175855796
 31
0.0
 12
156.9610812456
 22
84.075855796
 32
0.0
 13
156.9610812456
 23
84.075855796
 33
0.0
  0
LINE
  5
16B
330
166
100
AcDbEntity
  8
VERMASSUNG
100
AcDbLine
 10
256.9610812456
 20
108.8541015795
 30
0.0
 11
256.9610812456
 21
82.625855796
 31
0.0
  0
LINE
  5
16C
330
166
100
AcDbEntity
  8
VERMASSUNG
100
AcDbLine
 10
153.9610812456
 20
133.561763587
 30
0.0
 11
153.9610812456
 21
82.625855796
 31
0.0
  0
LINE
  5
16D
330
166
100
AcDbEntity
  8
VERMASSUNG
100
AcDbLine
 10
256.9610812456
 20
83.625855796
 30
0.0
 11
153.9610812456
 21
83.625855796
 31
0.0
  0
MTEXT
  5
16E
330
166
100
AcDbEntity
  8
VERMASSUNG
100
AcDbMText
 10
203.5610812136
 20
86.2039913919
 30
0.0
 40
2.0
 41
0.0
 71
     1
 72
     1
  1
103
  7
SLDTEXTSTYLE0
 73
     1
 44
1.0
  0
ENDBLK
  5
168
330
166
100
AcDbEntity
  8
0
100
AcDbBlockEnd
  0
BLOCK
  5
172
330
171
100
AcDbEntity
  8
0
100
AcDbBlockBegin
  2
_D_3
 70
     0
 10
0.0
 20
0.0
 30
0.0
  3
_D_3
  1

  0
ARC
  5
174
330
171
100
AcDbEntity
  8
VERMASSUNG
100
AcDbCircle
 10
256.9610812456
 20
117.5029868507
 30
0.0
 40
18.28973271035265
100
AcDbArc
 50
225.0
 51
270.0
  0
SOLID
  5
175
330
171
100
AcDbEntity
  8
VERMASSUNG
100
AcDbTrace
 10
244.02828722
 20
104.5701928251
 30
0.0
 11
246.0235438805
 21
102.2851434036
 31
0.0
 12
246.6061632221
 22
102.971113303
 32
0.0
 13
246.6061632221
 23
102.971113303
 33
0.0
  0
SOLID
  5
176
330
171
100
AcDbEntity
  8
VERMASSUNG
100
AcDbTrace
 10
256.9610812456
 20
99.2132541403
 30
0.0
 11
254.0075276697
 21
99.9053677687
 31
0.0
 12
253.9344477894
 22
99.0083397139
 32
0.0
 13
253.9344477894
 23
99.0083397139
 33
0.0
  0
LINE
  5
177
330
171
100
AcDbEntity
  8
VERMASSUNG
100
AcDbLine
 10
248.4293532619
 20
108.971258867
 30
0.0
 11
243.3211804388
 21
103.8630860439
 31
0.0
  0
LINE
  5
178
330
171
100
AcDbEntity
  8
VERMASSUNG
100
AcDbLine
 10
256.9610812456
 20
108.8541015795
 30
0.0
 11
256.9610812456
 21
98.2132541403
 31
0.0
  0
MTEXT
  5
179
330
171
100
AcDbEntity
  8
VERMASSUNG
100
AcDbMText
 10
249.0083661697
 20
103.790999122
 30
0.0
 40
2.0
 41
0.0
 71
     1
 72
     1
  1
45°
  7
SLDTEXTSTYLE0
 11
0.9238795325112943
 21
-0.3826834323650715
 31
0.0
 73
     1
 44
1.0
  0
ENDBLK
  5
173
330
171
100
AcDbEntity
  8
0
100
AcDbBlockEnd
  0
BLOCK
  5
17C
330
17B
100
AcDbEntity
  8
0
100
AcDbBlockBegin
  2
_D_4
 70
     0
 10
0.0
 20
0.0
 30
0.0
  3
_D_4
  1

  0
SOLID
  5
17E
330
17B
100
AcDbEntity
  8
VERMASSUNG
100
AcDbTrace
 10
143.9610812456
 20
185.3541015795
 30
0.0
 11
143.5110812456
 21
182.3541015795
 31
0.0
 12
144.4110812456
 22
182.3541015795
 32
0.0
 13
144.4110812456
 23
182.3541015795
 33
0.0
  0
SOLID
  5
17F
330
17B
100
AcDbEntity
  8
VERMASSUNG
100
AcDbTrace
 10
143.9610812456
 20
122.3541015795
 30
0.0
 11
144.4110812456
 21
125.3541015795
 31
0.0
 12
143.5110812456
 22
125.3541015795
 32
0.0
 13
143.5110812456
 23
125.3541015795
 33
0.0
  0
LINE
  5
180
330
17B
100
AcDbEntity
  8
VERMASSUNG
100
AcDbLine
 10
192.4610812456
 20
185.3541015795
 30
0.0
 11
142.9610812456
 21
185.3541015795
 31
0.0
  0
LINE
  5
181
330
17B
100
AcDbEntity
  8
VERMASSUNG
100
AcDbLine
 10
192.4610812456
 20
122.3541015795
 30
0.0
 11
142.9610812456
 21
122.3541015795
 31
0.0
  0
LINE
  5
182
330
17B
100
AcDbEntity
  8
VERMASSUNG
100
AcDbLine
 10
143.9610812456
 20
185.3541015795
 30
0.0
 11
143.9610812456
 21
122.3541015795
 31
0.0
  0
MTEXT
  5
183
330
17B
100
AcDbEntity
  8
VERMASSUNG
100
AcDbMText
 10
141.1829459894
 20
148.3491022697
 30
0.0
 40
2.0
 41
0.0
 71
     1
 72
     1
  1
PSC
  7
SLDTEXTSTYLE0
 11
-7.044195017643634E-15
 21
1.0
 31
0.0
 73
     1
 44
1.0
  0
MTEXT
  5
184
330
17B
100
AcDbEntity
  8
VERMASSUNG
100
AcDbMText
 10
141.3829459407
 20
152.9491019061
 30
0.0
 40
2.0
 41
0.0
 71
     1
 72
     1
  1
%%c
  7
SLDTEXTSTYLE0
 11
-7.044195017643634E-15
 21
1.0
 31
0.0
 73
     1
 44
1.0
  0
MTEXT
  5
185
330
17B
100
AcDbEntity
  8
VERMASSUNG
100
AcDbMText
 10
141.1829459894
 20
156.5591019204
 30
0.0
 40
2.0
 41
0.0
 71
     1
 72
     1
  1
63
  7
SLDTEXTSTYLE0
 11
-7.044195017643634E-15
 21
1.0
 31
0.0
 73
     1
 44
1.0
  0
ENDBLK
  5
17D
330
17B
100
AcDbEntity
  8
0
100
AcDbBlockEnd
  0
BLOCK
  5
1B0
330
1AF
100
AcDbEntity
  8
0
100
AcDbBlockBegin
  2
SW_CENTERMARKSYMBOL_0
 70
     0
 10
0.0
 20
0.0
 30
0.0
  3
SW_CENTERMARKSYMBOL_0
  1

  0
LINE
  5
1B2
330
1AF
100
AcDbEntity
  8
VERMASSUNG
 62
     0
100
AcDbLine
 10
0.0
 20
0.0
 30
0.0
 11
0.0
 21
2.5
 31
0.0
  0
LINE
  5
1B3
330
1AF
100
AcDbEntity
  8
VERMASSUNG
 62
     0
100
AcDbLine
 10
0.0
 20
0.0
 30
0.0
 11
-2.5
 21
0.0
 31
0.0
  0
LINE
  5
1B4
330
1AF
100
AcDbEntity
  8
VERMASSUNG
 62
     0
100
AcDbLine
 10
0.0
 20
0.0
 30
0.0
 11
0.0
 21
-2.5
 31
0.0
  0
LINE
  5
1B5
330
1AF
100
AcDbEntity
  8
VERMASSUNG
 62
     0
100
AcDbLine
 10
0.0
 20
0.0
 30
0.0
 11
2.5
 21
0.0
 31
0.0
  0
LINE
  5
1B6
330
1AF
100
AcDbEntity
  8
VERMASSUNG
 62
     0
100
AcDbLine
 10
0.0
 20
5.0
 30
0.0
 11
0.0
 21
34.0
 31
0.0
  0
LINE
  5
1B7
330
1AF
100
AcDbEntity
  8
VERMASSUNG
 62
     0
100
AcDbLine
 10
-5.0
 20
0.0
 30
0.0
 11
-34.0
 21
0.0
 31
0.0
  0
LINE
  5
1B8
330
1AF
100
AcDbEntity
  8
VERMASSUNG
 62
     0
100
AcDbLine
 10
0.0
 20
-5.0
 30
0.0
 11
0.0
 21
-47.5457734828
 31
0.0
  0
LINE
  5
1B9
330
1AF
100
AcDbEntity
  8
VERMASSUNG
 62
     0
100
AcDbLine
 10
5.0
 20
0.0
 30
0.0
 11
34.0305986009
 21
0.0
 31
0.0
  0
ENDBLK
  5
1B1
330
1AF
100
AcDbEntity
  8
0
100
AcDbBlockEnd
  0
ENDSEC
  0
SECTION
  2
ENTITIES
  0
MTEXT
  5
78
330
1F
100
AcDbEntity
  8
KOPF_DÜNN
100
AcDbMText
 10
13.8892156294
 20
23.8442973028
 30
0.0
 40
3.0
 41
0.0
 71
     1
 72
     1
  1
PS6.KSB.LSA.065
  7
SLDTEXTSTYLE0
 73
     1
 44
1.0
  0
MTEXT
  5
79
330
1F
100
AcDbEntity
  8
VERMASSUNG
100
AcDbMText
 10
13.9329988022
 20
28.8834360957
 30
0.0
 40
3.0
 41
0.0
 71
     1
 72
     1
  1
Klemmhalter links_Turning tool left 90°/45°
  7
SLDTEXTSTYLE0
 73
     1
 44
1.0
  0
MTEXT
  5
7A
330
1F
100
AcDbEntity
  8
VERMASSUNG
100
AcDbMText
 10
98.8601118557
 20
13.8365368761
 30
0.0
 40
2.0
 41
0.0
 71
     1
 72
     1
  1
Datum: 12.02.2018
  7
SLDTEXTSTYLE0
 73
     1
 44
1.0
  0
MTEXT
  5
7C
330
1F
100
AcDbEntity
  8
VERMASSUNG
100
AcDbMText
 10
13.933048693
 20
18.0482802738
 30
0.0
 40
2.0
 41
0.0
 71
     1
 72
     1
  1
PSC Ø63 / SC .. 12 04 ..
  7
SLDTEXTSTYLE1
 73
     1
 44
1.0
  0
MTEXT
  5
7D
330
1F
100
AcDbEntity
  8
VERMASSUNG
100
AcDbMText
 10
13.9808475933
 20
13.9090974274
 30
0.0
 40
2.0
 41
0.0
 71
     1
 72
     1
  1
Gewicht: 1213g
  7
SLDTEXTSTYLE0
 73
     1
 44
1.0
  0
ARC
  5
7E
330
1F
100
AcDbEntity
  8
0
  6
Continuous
 62
     7
370
    25
100
AcDbCircle
 10
212.9610812456
 20
140.2041015795
 30
0.0
 40
2.500000000000004
100
AcDbArc
 50
201.3713330904
 51
338.6286669096
  0
LINE
  5
7F
330
1F
100
AcDbEntity
  8
0
  6
Continuous
 62
     7
370
    25
100
AcDbLine
 10
192.4610812456
 20
122.3541015795
 30
0.0
 11
229.1937542576
 21
122.3541015795
 31
0.0
  0
LINE
  5
80
330
1F
100
AcDbEntity
  8
0
  6
Continuous
 62
     7
370
    25
100
AcDbLine
 10
229.1937542576
 20
185.3541015795
 30
0.0
 11
192.4610812456
 21
185.3541015795
 31
0.0
  0
ARC
  5
81
330
1F
100
AcDbEntity
  8
0
  6
Continuous
 62
     7
370
    25
100
AcDbCircle
 10
192.4610812456
 20
122.8541015795
 30
0.0
 40
0.5
100
AcDbArc
 50
180.0
 51
270.0
  0
ARC
  5
82
330
1F
100
AcDbEntity
  8
0
  6
Continuous
 62
     7
370
    25
100
AcDbCircle
 10
192.4610812456
 20
184.8541015795
 30
0.0
 40
0.5
100
AcDbArc
 50
90.0
 51
180.0
  0
LWPOLYLINE
  5
83
330
1F
100
AcDbEntity
  8
0
  6
Continuous
 62
     7
370
    25
100
AcDbPolyline
 90
        3
 70
   128
 43
0.0
 10
191.7610812456
 20
131.3142813006
 10
191.8865361891
 20
131.2459791857
 10
191.9610812456
 20
131.1932414275
  0
LWPOLYLINE
  5
84
330
1F
100
AcDbEntity
  8
0
  6
Continuous
 62
     7
370
    25
100
AcDbPolyline
 90
        3
 70
   128
 43
0.0
 10
191.9610812456
 20
176.5149617314
 10
191.8865361891
 20
176.4622239733
 10
191.7610812456
 20
176.3939218584
  0
ARC
  5
85
330
1F
100
AcDbEntity
  8
0
  6
Continuous
 62
     7
370
    25
100
AcDbCircle
 10
229.1937542576
 20
121.3541015795
 30
0.0
 40
1.000000000000003
100
AcDbArc
 50
59.0494945538
 51
67.5244230154
  0
LWPOLYLINE
  5
86
330
1F
100
AcDbEntity
  8
0
  6
Continuous
 62
     7
370
    25
100
AcDbPolyline
 90
        3
 70
   128
 43
0.0
 10
229.6982252038
 20
185.4906729116
 10
229.6400959058
 20
185.4592389459
 10
229.6179470453
 20
185.4485296724
  0
ARC
  5
87
330
1F
100
AcDbEntity
  8
0
  6
Continuous
 62
     7
370
    25
100
AcDbCircle
 10
212.2827780793
 20
138.5812232008
 30
0.0
 40
2.321707756237855
100
AcDbArc
 50
180.1757497182
 51
213.4795056545
  0
ARC
  5
88
330
1F
100
AcDbEntity
  8
0
  6
Continuous
 62
     7
370
    25
100
AcDbCircle
 10
212.9156852685
 20
138.9865014337
 30
0.0
 40
3.073192199791936
100
AcDbArc
 50
213.2725537828
 51
352.2880617266
  0
ARC
  5
89
330
1F
100
AcDbEntity
  8
0
  6
Continuous
 62
     7
370
    25
100
AcDbCircle
 10
212.289437641
 20
138.5019478776
 30
0.0
 40
2.187589690685107
100
AcDbArc
 50
162.7338552353
 51
213.6452650204
  0
LWPOLYLINE
  5
8A
330
1F
100
AcDbEntity
  8
0
  6
Continuous
 62
     7
370
    25
100
AcDbPolyline
 90
       14
 70
   128
 43
0.0
 10
215.6485843113
 20
139.3512706616
 10
215.7830446677
 20
138.9067078802
 10
215.8141892242
 20
138.3322552909
 10
215.6915219911
 20
137.7670669795
 10
215.4216559906
 20
137.2416123942
 10
215.0191397688
 20
136.7842189276
 10
214.5056730793
 20
136.4195447799
 10
213.9089370442
 20
136.1672496289
 10
213.2611018576
 20
136.0409347714
 10
212.5970924822
 20
136.0474098741
 10
211.9527058353
 20
136.1863258626
 10
211.3626809677
 20
136.4501937398
 10
210.8588262729
 20
136.8247883204
 10
210.4683046877
 20
137.2899151134
  0
LWPOLYLINE
  5
8B
330
1F
100
AcDbEntity
  8
0
  6
Continuous
 62
     7
370
    25
100
AcDbPolyline
 90
       27
 70
   128
 43
0.0
 10
210.782080758
 20
137.4427497734
 10
210.5521067947
 20
137.9251960853
 10
210.4621336703
 20
138.4412862802
 10
210.5173902956
 20
138.961027072
 10
210.7146653565
 20
139.454213015
 10
211.0424939435
 20
139.8921819349
 10
211.4818238506
 20
140.24948067
 10
212.0071228208
 20
140.5053443166
 10
212.587862387
 20
140.6449030095
 10
213.1902920767
 20
140.6600461048
 10
213.7794008661
 20
140.5498935408
 10
214.3209518936
 20
140.3208469842
 10
214.783472182
 20
139.9862177883
 10
215.1400817332
 20
139.5654533855
 10
215.3700556965
 20
139.0830070737
 10
215.4600288209
 20
138.5669168788
 10
215.4047721956
 20
138.047176087
 10
215.2074971347
 20
137.553990144
 10
214.8796685477
 20
137.1160212241
 10
214.4403386405
 20
136.758722489
 10
213.9150396704
 20
136.5028588424
 10
213.3343001042
 20
136.3633001495
 10
212.7318704144
 20
136.3481570542
 10
212.1427616251
 20
136.4583096182
 10
211.6012105976
 20
136.6873561748
 10
211.1386903092
 20
137.0219853707
 10
210.782080758
 20
137.4427497734
  0
CIRCLE
  5
8C
330
1F
100
AcDbEntity
  8
0
  6
Continuous
 62
     7
370
    25
100
AcDbCircle
 10
248.0439703189
 20
117.6686722756
 30
0.0
 40
3.499999999999987
  0
CIRCLE
  5
8D
330
1F
100
AcDbEntity
  8
0
  6
Continuous
 62
     7
370
    25
100
AcDbCircle
 10
248.0439703189
 20
117.6686722756
 30
0.0
 40
2.633974596215596
  0
CIRCLE
  5
8E
330
1F
100
AcDbEntity
  8
0
  6
Continuous
 62
     7
370
    25
100
AcDbCircle
 10
248.0439703189
 20
117.6686722756
 30
0.0
 40
2.000000000000032
  0
SPLINE
  5
8F
330
1F
100
AcDbEntity
  8
0
  6
Continuous
 62
     7
370
    25
100
AcDbSpline
210
0.0
220
0.0
230
1.0
 70
     8
 71
     3
 72
    15
 73
    11
 74
     0
 42
0.000000001
 43
0.00000001
 40
0.0
 40
0.0
 40
0.0
 40
0.0
 40
0.1262470803730248
 40
0.2533633350513455
 40
0.3794185517357302
 40
0.5042689738350777
 40
0.6284502821607667
 40
0.7526361292231216
 40
0.8774891912114618
 40
1.0
 40
1.0
 40
1.0
 40
1.0
 10
248.6102891757996
 20
116.0550027950917
 30
0.0
 10
248.6448367068101
 20
116.0271991927657
 30
0.0
 10
248.7141696185001
 20
115.9714005684257
 30
0.0
 10
248.8464234206537
 20
115.9371916196324
 30
0.0
 10
248.9809504082716
 20
115.9462271672391
 30
0.0
 10
249.1045217327008
 20
115.9997181876881
 30
0.0
 10
249.2031572598983
 20
116.0903267089156
 30
0.0
 10
249.2657491519517
 20
116.2077125216821
 30
0.0
 10
249.2890203660084
 20
116.3392684918323
 30
0.0
 10
249.268471317455
 20
116.4236375094697
 30
0.0
 10
249.2582940811828
 20
116.465422579193
 30
0.0
  0
SPLINE
  5
90
330
1F
100
AcDbEntity
  8
0
  6
Continuous
 62
     7
370
    25
100
AcDbSpline
210
0.0
220
0.0
230
1.0
 70
     8
 71
     3
 72
    12
 73
     8
 74
     0
 42
0.000000001
 43
0.00000001
 40
0.0
 40
0.0
 40
0.0
 40
0.0
 40
0.2058748011360211
 40
0.412099581266307
 40
0.6141693366125058
 40
0.8132901286728217
 40
1.0
 40
1.0
 40
1.0
 40
1.0
 10
249.2582940811828
 20
116.465422579193
 30
0.0
 10
249.2401983199449
 20
116.5404012478056
 30
0.0
 10
249.203976035393
 20
116.6904860457927
 30
0.0
 10
249.2473933674239
 20
116.9233600443883
 30
0.0
 10
249.35898167371
 20
117.1254882025478
 30
0.0
 10
249.5241148836793
 20
117.279805393981
 30
0.0
 10
249.6591448430517
 20
117.3306269956919
 30
0.0
 10
249.7244880848728
 20
117.3552204135213
 30
0.0
  0
SPLINE
  5
91
330
1F
100
AcDbEntity
  8
0
  6
Continuous
 62
     7
370
    25
100
AcDbSpline
210
0.0
220
0.0
230
1.0
 70
     8
 71
     3
 72
    15
 73
    11
 74
     0
 42
0.000000001
 43
0.00000001
 40
0.0
 40
0.0
 40
0.0
 40
0.0
 40
0.1268765508970228
 40
0.2539936290345438
 40
0.3800496379883674
 40
0.5049006370991294
 40
0.6290821973265797
 40
0.7532679407718403
 40
0.8781205851189354
 40
1.0
 40
1.0
 40
1.0
 40
1.0
 10
249.7244880848728
 20
117.3552204135213
 30
0.0
 10
249.766042646126
 20
117.3713382722346
 30
0.0
 10
249.8492305460257
 20
117.4036045452211
 30
0.0
 10
249.9449775968911
 20
117.5013657074498
 30
0.0
 10
250.0042115460961
 20
117.6224861822232
 30
0.0
 10
250.0194463747603
 20
117.7562746100819
 30
0.0
 10
249.9900736169125
 20
117.8869498749206
 30
0.0
 10
249.919519183379
 20
117.9997315167038
 30
0.0
 10
249.8172535157433
 20
118.0853372879389
 30
0.0
 10
249.734121632247
 20
118.1096226560304
 30
0.0
 10
249.6930565783169
 20
118.1216190154108
 30
0.0
  0
SPLINE
  5
92
330
1F
100
AcDbEntity
  8
0
  6
Continuous
 62
     7
370
    25
100
AcDbSpline
210
0.0
220
0.0
230
1.0
 70
     8
 71
     3
 72
    12
 73
     8
 74
     0
 42
0.000000001
 43
0.00000001
 40
0.0
 40
0.0
 40
0.0
 40
0.0
 40
0.2057949882088113
 40
0.4120010155283734
 40
0.6140549927930744
 40
0.8131810826684508
 40
1.0
 40
1.0
 40
1.0
 40
1.0
 10
249.6930565783169
 20
118.1216190154108
 30
0.0
 10
249.6191020131828
 20
118.1434262837384
 30
0.0
 10
249.4710451717434
 20
118.1870843765573
 30
0.0
 10
249.291088451067
 20
118.3410714423146
 30
0.0
 10
249.1718103104153
 20
118.5387440279082
 30
0.0
 10
249.1206876175808
 20
118.7589358585261
 30
0.0
 10
249.1441897217034
 20
118.9013280280341
 30
0.0
 10
249.1555660514012
 20
118.9702537828624
 30
0.0
  0
SPLINE
  5
93
330
1F
100
AcDbEntity
  8
0
  6
Continuous
 62
     7
370
    25
100
AcDbSpline
210
0.0
220
0.0
230
1.0
 70
     8
 71
     3
 72
    23
 73
    19
 74
     0
 42
0.000000001
 43
0.00000001
 40
0.0
 40
0.0
 40
0.0
 40
0.0
 40
0.0625065224135103
 40
0.1268032294229985
 40
0.1894476925804238
 40
0.2539381432714637
 40
0.3160572949800214
 40
0.3800123143128444
 40
0.4415418845482684
 40
0.5048752096398763
 40
0.5660803612052966
 40
0.629061021931911
 40
0.6902737759323082
 40
0.7532438799216044
 40
0.8147897755420248
 40
0.8780884206730718
 40
0.9382463322174297
 40
1.0
 40
1.0
 40
1.0
 40
1.0
 10
249.1555660514012
 20
118.9702537828624
 30
0.0
 10
249.159981896161
 20
118.9916681779449
 30
0.0
 10
249.1689400553186
 20
119.0351102756292
 30
0.0
 10
249.1682952897494
 20
119.1018877582093
 30
0.0
 10
249.1570527983148
 20
119.1683096319819
 30
0.0
 10
249.1347133256393
 20
119.2313367150592
 30
0.0
 10
249.1018305310016
 20
119.2901631066469
 30
0.0
 10
249.0600636071551
 20
119.3418957976375
 30
0.0
 10
249.0098536979479
 20
119.3861855490888
 30
0.0
 10
248.953716409668
 20
119.4209717065102
 30
0.0
 10
248.8921147549418
 20
119.4460825848259
 30
0.0
 10
248.8279408409462
 20
119.4604270627263
 30
0.0
 10
248.7617472534735
 20
119.4639337993408
 30
0.0
 10
248.6964833975218
 20
119.4564605371226
 30
0.0
 10
248.6327597203661
 20
119.4381187510659
 30
0.0
 10
248.5741321901887
 20
119.4097882980979
 30
0.0
 10
248.5204439911674
 20
119.3727515592471
 30
0.0
 10
248.4910294302297
 20
119.3418736452139
 30
0.0
 10
248.4761296394621
 20
119.3262326006506
 30
0.0
  0
SPLINE
  5
94
330
1F
100
AcDbEntity
  8
0
  6
Continuous
 62
     7
370
    25
100
AcDbSpline
210
0.0
220
0.0
230
1.0
 70
     8
 71
     3
 72
    24
 73
    20
 74
     0
 42
0.000000001
 43
0.00000001
 40
0.0
 40
0.0
 40
0.0
 40
0.0
 40
0.0505859026578882
 40
0.1015124920922337
 40
0.153523098943483
 40
0.2059133560217899
 40
0.2565457747772087
 40
0.3075386833225248
 40
0.359684468199832
 40
0.4122354523956988
 40
0.4618527364634086
 40
0.5628242007286122
 40
0.6143035729475287
 40
0.6632407918098499
 40
0.7627364360950517
 40
0.8133998437451473
 40
0.8593962826477233
 40
0.95265662047134
 40
1.0
 40
1.0
 40
1.0
 40
1.0
 10
248.4761296394621
 20
119.3262326006506
 30
0.0
 10
248.4634563771251
 20
119.3122811485724
 30
0.0
 10
248.4380245003535
 20
119.2842842839451
 30
0.0
 10
248.3952456718669
 20
119.2460646439458
 30
0.0
 10
248.3490573501791
 20
119.2108519535095
 30
0.0
 10
248.2999892234289
 20
119.179754206755
 30
0.0
 10
248.2487585984844
 20
119.1529974021544
 30
0.0
 10
248.195477950206
 20
119.130581193028
 30
0.0
 10
248.1397295112143
 20
119.1124809256761
 30
0.0
 10
248.0830629206892
 20
119.0993228482899
 30
0.0
 10
248.0072609310477
 20
119.0882916243691
 30
0.0
 10
247.9306765192251
 20
119.0866944423195
 30
0.0
 10
247.8551654748409
 20
119.0946037227185
 30
0.0
 10
247.7811830385329
 20
119.108557355889
 30
0.0
 10
247.7095656679902
 20
119.1313606863801
 30
0.0
 10
247.6427223965651
 20
119.1620559001679
 30
0.0
 10
247.58071207254
 20
119.1967652914474
 30
0.0
 10
247.5235761436395
 20
119.2372471563525
 30
0.0
 10
247.4853248820777
 20
119.2730232026425
 30
0.0
 10
247.4724451088564
 20
119.285069533774
 30
0.0
  0
SPLINE
  5
95
330
1F
100
AcDbEntity
  8
0
  6
Continuous
 62
     7
370
    25
100
AcDbSpline
210
0.0
220
0.0
230
1.0
 70
     8
 71
     3
 72
    23
 73
    19
 74
     0
 42
0.000000001
 43
0.00000001
 40
0.0
 40
0.0
 40
0.0
 40
0.0
 40
0.0622426492047962
 40
0.1262521514661462
 40
0.1888981177529203
 40
0.2533901296441086
 40
0.3155105033805055
 40
0.379466821246803
 40
0.4409968994993736
 40
0.5043307901199459
 40
0.5655357116527538
 40
0.6285161663440276
 40
0.689728162178291
 40
0.7526974991099951
 40
0.8142424170099641
 40
0.8775400527690044
 40
0.9379613017252606
 40
1.0
 40
1.0
 40
1.0
 40
1.0
 10
247.4724451088564
 20
119.285069533774
 30
0.0
 10
247.456179716072
 20
119.299542751673
 30
0.0
 10
247.4231872123835
 20
119.3289000319579
 30
0.0
 10
247.3652438246629
 20
119.3616981563774
 30
0.0
 10
247.3022276878073
 20
119.3852305475754
 30
0.0
 10
247.236491948003
 20
119.3974941985267
 30
0.0
 10
247.1691056801075
 20
119.3985287971941
 30
0.0
 10
247.1034045135011
 20
119.3883198404214
 30
0.0
 10
247.039911647635
 20
119.3670740778207
 30
0.0
 10
246.9816714675706
 20
119.3359355509234
 30
0.0
 10
246.9290643665278
 20
119.2952188616475
 30
0.0
 10
246.8844843061983
 20
119.2468798693158
 30
0.0
 10
246.8482697434215
 20
119.1913608448966
 30
0.0
 10
246.8220221832523
 20
119.1311427834002
 30
0.0
 10
246.8059509134746
 20
119.0668093786635
 30
0.0
 10
246.801070437785
 20
119.0017867680673
 30
0.0
 10
246.8062417667057
 20
118.9365708466352
 30
0.0
 10
246.8183208776397
 20
118.8954710637846
 30
0.0
 10
246.8244402034732
 20
118.8746497496726
 30
0.0
  0
SPLINE
  5
96
330
1F
100
AcDbEntity
  8
0
  6
Continuous
 62
     7
370
    25
100
AcDbSpline
210
0.0
220
0.0
230
1.0
 70
     8
 71
     3
 72
    12
 73
     8
 74
     0
 42
0.000000001
 43
0.00000001
 40
0.0
 40
0.0
 40
0.0
 40
0.0
 40
0.2058713741444189
 40
0.4120924153877304
 40
0.6141683533432367
 40
0.8133068872803334
 40
1.0
 40
1.0
 40
1.0
 40
1.0
 10
246.8244402034732
 20
118.8746497496726
 30
0.0
 10
246.8425358342904
 20
118.7996718735922
 30
0.0
 10
246.8787578308763
 20
118.6495887734864
 30
0.0
 10
246.8353418839657
 20
118.4167154390025
 30
0.0
 10
246.7237527133016
 20
118.2145820876908
 30
0.0
 10
246.5586152657718
 20
118.0602638726957
 30
0.0
 10
246.4235840284265
 20
118.0094428047751
 30
0.0
 10
246.3582461997833
 20
117.9848519153443
 30
0.0
  0
SPLINE
  5
97
330
1F
100
AcDbEntity
  8
0
  6
Continuous
 62
     7
370
    25
100
AcDbSpline
210
0.0
220
0.0
230
1.0
 70
     8
 71
     3
 72
    15
 73
    11
 74
     0
 42
0.000000001
 43
0.00000001
 40
0.0
 40
0.0
 40
0.0
 40
0.0
 40
0.1268702503424994
 40
0.2539810595565821
 40
0.3800301963394102
 40
0.5048749967544808
 40
0.6290527571813112
 40
0.7532384607996242
 40
0.8780953942141858
 40
1.0
 40
1.0
 40
1.0
 40
1.0
 10
246.3582461997833
 20
117.9848519153443
 30
0.0
 10
246.3166928950945
 20
117.9687347036742
 30
0.0
 10
246.2335074964338
 20
117.9364697204648
 30
0.0
 10
246.1377617997512
 20
117.8387130114009
 30
0.0
 10
246.0785267893792
 20
117.7175980398593
 30
0.0
 10
246.0632875240707
 20
117.5838150004469
 30
0.0
 10
246.0926529568515
 20
117.4531422460148
 30
0.0
 10
246.1631998294273
 20
117.3403583068963
 30
0.0
 10
246.2654658359999
 20
117.2547416194773
 30
0.0
 10
246.348605317964
 20
117.2304525482651
 30
0.0
 10
246.3896777063391
 20
117.2184533134548
 30
0.0
  0
SPLINE
  5
98
330
1F
100
AcDbEntity
  8
0
  6
Continuous
 62
     7
370
    25
100
AcDbSpline
210
0.0
220
0.0
230
1.0
 70
     8
 71
     3
 72
    12
 73
     8
 74
     0
 42
0.000000001
 43
0.00000001
 40
0.0
 40
0.0
 40
0.0
 40
0.0
 40
0.2058321750920474
 40
0.4120750343575919
 40
0.6141697879283425
 40
0.8133029339856263
 40
1.0
 40
1.0
 40
1.0
 40
1.0
 10
246.3896777063391
 20
117.2184533134548
 30
0.0
 10
246.4636424923049
 20
117.1966418321909
 30
0.0
 10
246.6117196415868
 20
117.1529753505673
 30
0.0
 10
246.7916914374097
 20
116.9989539336886
 30
0.0
 10
246.9109638914395
 20
116.8012387017465
 30
0.0
 10
246.9620443396372
 20
116.5810546285367
 30
0.0
 10
246.9385410830469
 20
116.4387011274187
 30
0.0
 10
246.9271682332547
 20
116.3698185460032
 30
0.0
  0
SPLINE
  5
99
330
1F
100
AcDbEntity
  8
0
  6
Continuous
 62
     7
370
    25
100
AcDbSpline
210
0.0
220
0.0
230
1.0
 70
     8
 71
     3
 72
    15
 73
    11
 74
     0
 42
0.000000001
 43
0.00000001
 40
0.0
 40
0.0
 40
0.0
 40
0.0
 40
0.1267880291974163
 40
0.2538950064075531
 40
0.379940902287715
 40
0.5047841289691819
 40
0.6289621452108456
 40
0.7531495391279969
 40
0.8780089278148011
 40
1.0
 40
1.0
 40
1.0
 40
1.0
 10
246.9271682332547
 20
116.3698185460032
 30
0.0
 10
246.9203512698777
 20
116.3258026857628
 30
0.0
 10
246.906700194368
 20
116.237660238968
 30
0.0
 10
246.9434491191241
 20
116.1058857410451
 30
0.0
 10
247.0186937777458
 20
115.9940140683104
 30
0.0
 10
247.1269136324946
 20
115.9139008971961
 30
0.0
 10
247.2547524757523
 20
115.8739658279106
 30
0.0
 10
247.3877011360736
 20
115.8786381874075
 30
0.0
 10
247.5130214693051
 20
115.9243762133649
 30
0.0
 10
247.5756528381386
 20
115.9842504625823
 30
0.0
 10
247.6066046451938
 20
116.013839728215
 30
0.0
  0
SPLINE
  5
9A
330
1F
100
AcDbEntity
  8
0
  6
Continuous
 62
     7
370
    25
100
AcDbSpline
210
0.0
220
0.0
230
1.0
 70
     8
 71
     3
 72
    17
 73
    13
 74
     0
 42
0.000000001
 43
0.00000001
 40
0.0
 40
0.0
 40
0.0
 40
0.0
 40
0.1015098469728792
 40
0.2059006998422785
 40
0.3075184015869266
 40
0.4121990015727002
 40
0.51177749508329
 40
0.6143342058938068
 40
0.7125142060558582
 40
0.813457190689023
 40
0.9056523878265541
 40
1.0
 40
1.0
 40
1.0
 40
1.0
 10
247.6066046451938
 20
116.013839728215
 30
0.0
 10
247.6327336657999
 20
116.0412569200341
 30
0.0
 10
247.6857332888849
 20
116.0968694458294
 30
0.0
 10
247.7813570281651
 20
116.1620904398563
 30
0.0
 10
247.8870240846225
 20
116.212090305909
 30
0.0
 10
247.9984807300114
 20
116.2429810657705
 30
0.0
 10
248.1139389210542
 20
116.2549766766525
 30
0.0
 10
248.2273628226154
 20
116.2478525811552
 30
0.0
 10
248.3383610304511
 20
116.2222597041138
 30
0.0
 10
248.4396112696353
 20
116.1803863391692
 30
0.0
 10
248.5322822709706
 20
116.1249471860473
 30
0.0
 10
248.5840876230205
 20
116.0784962493601
 30
0.0
 10
248.6102891757996
 20
116.0550027950917
 30
0.0
  0
LINE
  5
9B
330
1F
100
AcDbEntity
  8
0
  6
Continuous
 62
     7
370
    25
100
AcDbLine
 10
247.863667837
 20
126.3660856842
 30
0.0
 11
239.4490971409
 21
117.9515149881
 31
0.0
  0
ARC
  5
9C
330
1F
100
AcDbEntity
  8
0
  6
Continuous
 62
     7
370
    25
100
AcDbCircle
 10
248.1465105494
 20
126.0832429717
 30
0.0
 40
0.4000000000000193
100
AcDbArc
 50
45.0
 51
135.0
  0
LINE
  5
9D
330
1F
100
AcDbEntity
  8
0
  6
Continuous
 62
     7
370
    25
100
AcDbLine
 10
256.843923958
 20
117.9515149881
 30
0.0
 11
248.4293532619
 21
126.3660856842
 31
0.0
  0
ARC
  5
9E
330
1F
100
AcDbEntity
  8
0
  6
Continuous
 62
     7
370
    25
100
AcDbCircle
 10
256.5610812456
 20
117.6686722756
 30
0.0
 40
0.4000000000000093
100
AcDbArc
 50
315.0
 51
45.0
  0
LINE
  5
9F
330
1F
100
AcDbEntity
  8
0
  6
Continuous
 62
     7
370
    25
100
AcDbLine
 10
248.4293532619
 20
108.971258867
 30
0.0
 11
256.843923958
 21
117.3858295631
 31
0.0
  0
ARC
  5
A0
330
1F
100
AcDbEntity
  8
0
  6
Continuous
 62
     7
370
    25
100
AcDbCircle
 10
248.1465105494
 20
109.2541015795
 30
0.0
 40
0.4000000000000093
100
AcDbArc
 50
225.0
 51
315.0
  0
LINE
  5
A1
330
1F
100
AcDbEntity
  8
0
  6
Continuous
 62
     7
370
    25
100
AcDbLine
 10
239.4490971409
 20
117.3858295631
 30
0.0
 11
247.863667837
 21
108.971258867
 31
0.0
  0
ARC
  5
A2
330
1F
100
AcDbEntity
  8
0
  6
Continuous
 62
     7
370
    25
100
AcDbCircle
 10
239.7319398533
 20
117.6686722756
 30
0.0
 40
0.3999999999999992
100
AcDbArc
 50
135.0
 51
225.0
  0
ARC
  5
A3
330
1F
100
AcDbEntity
  8
0
  6
Continuous
 62
     7
370
    25
100
AcDbCircle
 10
256.5610812456
 20
117.6686722756
 30
0.0
 40
0.3800000000000927
100
AcDbArc
 50
315.0
 51
45.0
  0
LINE
  5
A4
330
1F
100
AcDbEntity
  8
0
  6
Continuous
 62
     7
370
    25
100
AcDbLine
 10
256.8297818224
 20
117.9373728525
 30
0.0
 11
248.4152111263
 21
126.3519435486
 31
0.0
  0
ARC
  5
A5
330
1F
100
AcDbEntity
  8
0
  6
Continuous
 62
     7
370
    25
100
AcDbCircle
 10
248.1465105494
 20
126.0832429717
 30
0.0
 40
0.3800000000000224
100
AcDbArc
 50
45.0
 51
135.0
  0
LINE
  5
A6
330
1F
100
AcDbEntity
  8
0
  6
Continuous
 62
     7
370
    25
100
AcDbLine
 10
247.8778099726
 20
126.3519435486
 30
0.0
 11
239.4632392765
 21
117.9373728525
 31
0.0
  0
ARC
  5
A7
330
1F
100
AcDbEntity
  8
0
  6
Continuous
 62
     7
370
    25
100
AcDbCircle
 10
239.7319398533
 20
117.6686722756
 30
0.0
 40
0.3799999999999822
100
AcDbArc
 50
135.0
 51
225.0
  0
LINE
  5
A8
330
1F
100
AcDbEntity
  8
0
  6
Continuous
 62
     7
370
    25
100
AcDbLine
 10
239.4632392765
 20
117.3999716988
 30
0.0
 11
247.8778099726
 21
108.9854010026
 31
0.0
  0
ARC
  5
A9
330
1F
100
AcDbEntity
  8
0
  6
Continuous
 62
     7
370
    25
100
AcDbCircle
 10
248.1465105494
 20
109.2541015795
 30
0.0
 40
0.3799999999999822
100
AcDbArc
 50
225.0
 51
315.0
  0
LINE
  5
AA
330
1F
100
AcDbEntity
  8
0
  6
Continuous
 62
     7
370
    25
100
AcDbLine
 10
248.4152111261
 20
108.9854010028
 30
0.0
 11
256.8297818224
 21
117.3999716988
 31
0.0
  0
LINE
  5
AB
330
1F
100
AcDbEntity
  8
0
  6
Continuous
 62
     7
370
    25
100
AcDbLine
 10
256.5610812456
 20
117.6686722756
 30
0.0
 11
256.8297818224
 21
117.9373728525
 31
0.0
  0
LINE
  5
AC
330
1F
100
AcDbEntity
  8
0
  6
Continuous
 62
     7
370
    25
100
AcDbLine
 10
256.5610812456
 20
117.6686722756
 30
0.0
 11
256.8297818224
 21
117.3999716988
 31
0.0
  0
LINE
  5
AD
330
1F
100
AcDbEntity
  8
0
  6
Continuous
 62
     7
370
    25
100
AcDbLine
 10
248.1465105494
 20
125.0638106347
 30
0.0
 11
248.1465105494
 21
126.0832429717
 31
0.0
  0
LINE
  5
AE
330
1F
100
AcDbEntity
  8
0
  6
Continuous
 62
     7
370
    25
100
AcDbLine
 10
248.1465105494
 20
126.0832429717
 30
0.0
 11
248.4152111263
 21
126.3519435486
 31
0.0
  0
LINE
  5
AF
330
1F
100
AcDbEntity
  8
0
  6
Continuous
 62
     7
370
    25
100
AcDbLine
 10
255.5416489085
 20
117.6686722756
 30
0.0
 11
256.5610812456
 21
117.6686722756
 31
0.0
  0
LINE
  5
B0
330
1F
100
AcDbEntity
  8
0
  6
Continuous
 62
     7
370
    25
100
AcDbLine
 10
248.1465105494
 20
109.2541015795
 30
0.0
 11
248.4152111261
 21
108.9854010028
 31
0.0
  0
LINE
  5
B1
330
1F
100
AcDbEntity
  8
0
  6
Continuous
 62
     7
370
    25
100
AcDbLine
 10
248.1465105494
 20
110.2735339166
 30
0.0
 11
248.1465105494
 21
109.2541015795
 31
0.0
  0
ARC
  5
B2
330
1F
100
AcDbEntity
  8
0
  6
Continuous
 62
     7
370
    25
100
AcDbCircle
 10
252.8558417122
 20
117.6686722756
 30
0.0
 40
0.999999999999988
100
AcDbArc
 50
315.0
 51
45.0
  0
LINE
  5
B3
330
1F
100
AcDbEntity
  8
0
  6
Continuous
 62
     7
370
    25
100
AcDbLine
 10
247.4394037683
 20
123.0851102195
 30
0.0
 11
242.7300726056
 21
118.3757790568
 31
0.0
  0
ARC
  5
B4
330
1F
100
AcDbEntity
  8
0
  6
Continuous
 62
     7
370
    25
100
AcDbCircle
 10
248.1465105494
 20
122.3780034383
 30
0.0
 40
1.000000000000028
100
AcDbArc
 50
45.0
 51
135.0
  0
LINE
  5
B5
330
1F
100
AcDbEntity
  8
0
  6
Continuous
 62
     7
370
    25
100
AcDbLine
 10
253.5629484933
 20
118.3757790568
 30
0.0
 11
248.8536173306
 21
123.0851102195
 31
0.0
  0
LINE
  5
B6
330
1F
100
AcDbEntity
  8
0
  6
Continuous
 62
     7
370
    25
100
AcDbLine
 10
248.8536173306
 20
112.2522343317
 30
0.0
 11
253.5629484933
 21
116.9615654944
 31
0.0
  0
ARC
  5
B7
330
1F
100
AcDbEntity
  8
0
  6
Continuous
 62
     7
370
    25
100
AcDbCircle
 10
248.1465105494
 20
112.9593411129
 30
0.0
 40
1.000000000295376
100
AcDbArc
 50
225.0
 51
315.0
  0
LINE
  5
B8
330
1F
100
AcDbEntity
  8
0
  6
Continuous
 62
     7
370
    25
100
AcDbLine
 10
242.7300726056
 20
116.9615654944
 30
0.0
 11
247.4394037681
 21
112.2522343315
 31
0.0
  0
ARC
  5
B9
330
1F
100
AcDbEntity
  8
0
  6
Continuous
 62
     7
370
    25
100
AcDbCircle
 10
243.4371793867
 20
117.6686722756
 30
0.0
 40
0.9999999999999779
100
AcDbArc
 50
135.0
 51
225.0
  0
CIRCLE
  5
BA
330
1F
100
AcDbEntity
  8
0
  6
Continuous
 62
     7
370
    25
100
AcDbCircle
 10
248.1465105494
 20
117.6686722756
 30
0.0
 40
3.800000000000013
  0
LINE
  5
BB
330
1F
100
AcDbEntity
  8
0
  6
Continuous
 62
     7
370
    25
100
AcDbLine
 10
248.1465105494
 20
109.2541015795
 30
0.0
 11
247.8778099726
 21
108.9854010026
 31
0.0
  0
LINE
  5
BC
330
1F
100
AcDbEntity
  8
0
  6
Continuous
 62
     7
370
    25
100
AcDbLine
 10
239.7319398533
 20
117.6686722756
 30
0.0
 11
239.4632392765
 21
117.3999716988
 31
0.0
  0
LINE
  5
BD
330
1F
100
AcDbEntity
  8
0
  6
Continuous
 62
     7
370
    25
100
AcDbLine
 10
240.7513721904
 20
117.6686722756
 30
0.0
 11
239.7319398533
 21
117.6686722756
 31
0.0
  0
LINE
  5
BE
330
1F
100
AcDbEntity
  8
0
  6
Continuous
 62
     7
370
    25
100
AcDbLine
 10
239.7319398533
 20
117.6686722756
 30
0.0
 11
239.4632392765
 21
117.9373728525
 31
0.0
  0
LINE
  5
BF
330
1F
100
AcDbEntity
  8
0
  6
Continuous
 62
     7
370
    25
100
AcDbLine
 10
248.1465105494
 20
126.0832429717
 30
0.0
 11
247.8778099726
 21
126.3519435486
 31
0.0
  0
SPLINE
  5
C0
330
1F
100
AcDbEntity
  8
0
  6
Continuous
 62
     7
370
    25
100
AcDbSpline
210
0.0
220
0.0
230
1.0
 70
    24
 71
     3
 72
    11
 73
     7
 74
     0
 42
0.000000001
 43
0.00000001
 40
0.0
 40
0.0
 40
0.0
 40
0.0
 40
0.3429685074212135
 40
0.6848841677076105
 40
0.9921619810197854
 40
0.9999999999999999
 40
0.9999999999999999
 40
0.9999999999999999
 40
0.9999999999999999
 10
248.1465105494494
 20
125.06381063466
 30
0.0
 10
248.1465105494493
 20
124.9843146963298
 30
0.0
 10
248.1465105494491
 20
124.8255668568596
 30
0.0
 10
248.1465105494492
 20
124.5845585753819
 30
0.0
 10
248.1465105494497
 20
124.4380869352606
 30
0.0
 10
248.1465105494494
 20
124.3727737532111
 30
0.0
 10
248.1465105494494
 20
124.3711491888189
 30
0.0
  0
SPLINE
  5
C1
330
1F
100
AcDbEntity
  8
0
  6
Continuous
 62
     7
370
    25
100
AcDbSpline
210
0.0
220
0.0
230
1.0
 70
    24
 71
     3
 72
    11
 73
     7
 74
     0
 42
0.000000001
 43
0.00000001
 40
0.0
 40
0.0
 40
0.0
 40
0.0
 40
0.3429685074212513
 40
0.6848841677076665
 40
0.9921619810194852
 40
1.0
 40
1.0
 40
1.0
 40
1.0
 10
255.5416489085003
 20
117.6686722756089
 30
0.0
 10
255.4621529701702
 20
117.6686722756089
 30
0.0
 10
255.3034051307
 20
117.6686722756088
 30
0.0
 10
255.0623968492219
 20
117.6686722756091
 30
0.0
 10
254.9159252091018
 20
117.6686722756085
 30
0.0
 10
254.8506120270516
 20
117.6686722756089
 30
0.0
 10
254.8489874626593
 20
117.6686722756089
 30
0.0
  0
SPLINE
  5
C2
330
1F
100
AcDbEntity
  8
0
  6
Continuous
 62
     7
370
    25
100
AcDbSpline
210
0.0
220
0.0
230
1.0
 70
    24
 71
     3
 72
    11
 73
     7
 74
     0
 42
0.000000001
 43
0.00000001
 40
0.0
 40
0.0
 40
0.0
 40
0.0
 40
0.0078380189802104
 40
0.3151158322923774
 40
0.6570314925787804
 40
1.0
 40
1.0
 40
1.0
 40
1.0
 10
248.1465105494493
 20
110.9661953623988
 30
0.0
 10
248.1465105494493
 20
110.9645707980066
 30
0.0
 10
248.1465105494495
 20
110.899257615957
 30
0.0
 10
248.1465105494491
 20
110.7527859758359
 30
0.0
 10
248.1465105494492
 20
110.5117776943581
 30
0.0
 10
248.1465105494492
 20
110.353029854888
 30
0.0
 10
248.1465105494492
 20
110.2735339165578
 30
0.0
  0
SPLINE
  5
C3
330
1F
100
AcDbEntity
  8
0
  6
Continuous
 62
     7
370
    25
100
AcDbSpline
210
0.0
220
0.0
230
1.0
 70
    24
 71
     3
 72
    11
 73
     7
 74
     0
 42
0.000000001
 43
0.00000001
 40
0.0
 40
0.0
 40
0.0
 40
0.0
 40
0.0078380189801733
 40
0.315115832298586
 40
0.6570314925819856
 40
1.0
 40
1.0
 40
1.0
 40
1.0
 10
241.4440336362392
 20
117.6686722756089
 30
0.0
 10
241.442409071847
 20
117.6686722756089
 30
0.0
 10
241.3770958897959
 20
117.6686722756086
 30
0.0
 10
241.2306242496725
 20
117.6686722756091
 30
0.0
 10
240.9896159681929
 20
117.6686722756089
 30
0.0
 10
240.8308681287235
 20
117.6686722756089
 30
0.0
 10
240.7513721903936
 20
117.6686722756089
 30
0.0
  0
SPLINE
  5
C4
330
1F
100
AcDbEntity
  8
0
  6
Continuous
 62
     7
370
    25
100
AcDbSpline
210
0.0
220
0.0
230
1.0
 70
    11
 71
     3
 72
    68
 73
    64
 74
     0
 42
0.000000001
 43
0.00000001
 40
0.0
 40
0.0
 40
0.0
 40
0.0
 40
0.03125
 40
0.03125
 40
0.0625
 40
0.0625
 40
0.09375
 40
0.09375
 40
0.125
 40
0.125
 40
0.15625
 40
0.15625
 40
0.1875000000000001
 40
0.1875000000000001
 40
0.2187500000000001
 40
0.2187500000000001
 40
0.2500000000000001
 40
0.2500000000000001
 40
0.2812500000000001
 40
0.2812500000000001
 40
0.3125000000000001
 40
0.3125000000000001
 40
0.3437500000000001
 40
0.3437500000000001
 40
0.3750000000000001
 40
0.3750000000000001
 40
0.4062500000000001
 40
0.4062500000000001
 40
0.4375000000000001
 40
0.4375000000000001
 40
0.4687500000000001
 40
0.4687500000000001
 40
0.5000000000000001
 40
0.5000000000000001
 40
0.5312500000000001
 40
0.5312500000000001
 40
0.5625000000000001
 40
0.5625000000000001
 40
0.5937500000000001
 40
0.5937500000000001
 40
0.6250000000000001
 40
0.6250000000000001
 40
0.6562500000000001
 40
0.6562500000000001
 40
0.6875000000000001
 40
0.6875000000000001
 40
0.7187500000000001
 40
0.7187500000000001
 40
0.7500000000000002
 40
0.7500000000000002
 40
0.7812500000000002
 40
0.7812500000000002
 40
0.8125000000000002
 40
0.8125000000000002
 40
0.8437500000000002
 40
0.8437500000000002
 40
0.8750000000000002
 40
0.8750000000000002
 40
0.9062500000000002
 40
0.9062500000000002
 40
0.9375000000000002
 40
0.9375000000000002
 40
1.0
 40
1.0
 40
1.0
 40
1.0
 10
209.9610812455889
 20
138.1041015794888
 30
0.0
 10
209.9610812455889
 20
137.9323559884255
 30
0.0
 10
209.9805519186892
 20
137.7644353922327
 30
0.0
 10
210.0568209448095
 20
137.4358221393551
 30
0.0
 10
210.1145530518238
 20
137.2734431391741
 30
0.0
 10
210.2651719628023
 20
136.965488685095
 30
0.0
 10
210.3573254271126
 20
136.820229615587
 30
0.0
 10
210.5750259353724
 20
136.546519513897
 30
0.0
 10
210.7016663365077
 20
136.4176483154408
 30
0.0
 10
210.9782850426968
 20
136.1874724811297
 30
0.0
 10
211.1292399597043
 20
136.0846063608264
 30
0.0
 10
211.4571279879328
 20
135.9033833226532
 30
0.0
 10
211.6315769571466
 20
135.8267129006269
 30
0.0
 10
211.9925085598949
 20
135.7037176629192
 30
0.0
 10
212.1816602979042
 20
135.6564687720429
 30
0.0
 10
212.5689549831619
 20
135.5933094730137
 30
0.0
 10
212.7636765277112
 20
135.5777043406505
 30
0.0
 10
213.155214765226
 20
135.5775296846723
 30
0.0
 10
213.3540811618033
 20
135.5934716996049
 30
0.0
 10
213.7389213730294
 20
135.6561912583213
 30
0.0
 10
213.9259806243759
 20
135.7026238705889
 30
0.0
 10
214.2893253415311
 20
135.8261276273119
 30
0.0
 10
214.4648685645512
 20
135.9034202414911
 30
0.0
 10
214.7898499907904
 20
136.0827808168748
 30
0.0
 10
214.9413628893428
 20
136.1854612193062
 30
0.0
 10
215.2215669874531
 20
136.4184586621502
 30
0.0
 10
215.3456710874296
 20
136.5449801071324
 30
0.0
 10
215.5629794061891
 20
136.817595531436
 30
0.0
 10
215.6569774070736
 20
136.9654615646602
 30
0.0
 10
215.8076240781455
 20
137.2734733622615
 30
0.0
 10
215.8644261082648
 20
137.4327871129533
 30
0.0
 10
215.9413101109076
 20
137.7622458881746
 30
0.0
 10
215.9610093332127
 20
137.9335583989882
 30
0.0
 10
215.9611527556839
 20
138.2727420100823
 30
0.0
 10
215.9422338966875
 20
138.4422737111567
 30
0.0
 10
215.8655418949497
 20
138.7811106232876
 30
0.0
 10
215.8080037272964
 20
138.9478571536855
 30
0.0
 10
215.6586392389453
 20
139.2671847184862
 30
0.0
 10
215.5657268534102
 20
139.4222009704813
 30
0.0
 10
215.3466267255584
 20
139.7151194095902
 30
0.0
 10
215.2225933663923
 20
139.8505962186117
 30
0.0
 10
214.9462900212024
 20
140.0996765621406
 30
0.0
 10
214.7921416797047
 20
140.2141977075266
 30
0.0
 10
214.4662774410762
 20
140.4116497892291
 30
0.0
 10
214.2941163710851
 20
140.4955100905592
 30
0.0
 10
213.9311628944384
 20
140.6328351656386
 30
0.0
 10
213.7405212112193
 20
140.6857070797991
 30
0.0
 10
213.3570117059128
 20
140.7556482195315
 30
0.0
 10
213.1621186540209
 20
140.77359416429
 30
0.0
 10
212.7657971415211
 20
140.7739414560686
 30
0.0
 10
212.5704343021122
 20
140.7562839839343
 30
0.0
 10
212.1868332250037
 20
140.6869729068922
 30
0.0
 10
211.9963409329679
 20
140.6345014645929
 30
0.0
 10
211.632774909567
 20
140.4976441772101
 30
0.0
 10
211.4604155568713
 20
140.414018293685
 30
0.0
 10
211.134294808203
 20
140.2171541075799
 30
0.0
 10
210.9798703250024
 20
140.1028466373508
 30
0.0
 10
210.7030007951274
 20
139.8541121704554
 30
0.0
 10
210.5787510491561
 20
139.7188490479379
 30
0.0
 10
210.3592521812003
 20
139.426519934833
 30
0.0
 10
210.2658544114943
 20
139.2713748609036
 30
0.0
 10
210.040893176794
 20
138.7927775708454
 30
0.0
 10
209.9610812455889
 20
138.4475927616153
 30
0.0
 10
209.9610812455889
 20
138.1041015794888
 30
0.0
  0
ELLIPSE
  5
C5
330
1F
100
AcDbEntity
  8
0
  6
Continuous
 62
     7
370
    25
100
AcDbEllipse
 10
226.8806964879
 20
153.8541015795
 30
0.0
 11
0.0
 21
31.5
 31
0.0
210
0.0
220
0.0
230
1.0
 40
0.2679491924
 41
0.1320368298873489
 42
3.009555823702445
  0
SPLINE
  5
C6
330
1F
100
AcDbEntity
  8
0
  6
Continuous
 62
     7
370
    25
100
AcDbSpline
210
0.0
220
0.0
230
1.0
 70
     8
 71
     3
 72
    14
 73
    10
 74
     0
 42
0.000000001
 43
0.00000001
 40
0.0
 40
0.0
 40
0.0
 40
0.0
 40
0.25
 40
0.25
 40
0.5
 40
0.5
 40
0.75
 40
0.75
 40
1.0
 40
1.0
 40
1.0
 40
1.0
 10
225.7694882157282
 20
122.6282840569143
 30
0.0
 10
225.8865493572186
 20
122.5702624839872
 30
0.0
 10
226.0505039702266
 20
122.5242159125388
 30
0.0
 10
226.4698979531295
 20
122.4509244295181
 30
0.0
 10
226.7289092848929
 20
122.4236947222181
 30
0.0
 10
227.3165321543781
 20
122.3851598961612
 30
0.0
 10
227.6476308462481
 20
122.3733148176659
 30
0.0
 10
228.3819338334491
 20
122.3585414586859
 30
0.0
 10
228.7749012082805
 20
122.3557436159996
 30
0.0
 10
229.1937542576099
 20
122.3546653949155
 30
0.0
  0
SPLINE
  5
C7
330
1F
100
AcDbEntity
  8
0
  6
Continuous
 62
     7
370
    25
100
AcDbSpline
210
0.0
220
0.0
230
1.0
 70
     8
 71
     3
 72
    14
 73
    10
 74
     0
 42
0.000000001
 43
0.00000001
 40
0.0
 40
0.0
 40
0.0
 40
0.0
 40
0.25
 40
0.25
 40
0.5
 40
0.5
 40
0.75
 40
0.75
 40
1.0
 40
1.0
 40
1.0
 40
1.0
 10
229.1937542576099
 20
185.3535377640624
 30
0.0
 10
228.7748926307817
 20
185.3524595208979
 30
0.0
 10
228.3843240084643
 20
185.349650886351
 30
0.0
 10
227.6577207634197
 20
185.3351492366932
 30
0.0
 10
227.3195252257532
 20
185.3231772210007
 30
0.0
 10
226.7314300524294
 20
185.2847354803237
 30
0.0
 10
226.4767625991391
 20
185.2582628818434
 30
0.0
 10
226.0512178572171
 20
185.1843236766978
 30
0.0
 10
225.8865566495132
 20
185.1379442894301
 30
0.0
 10
225.7694882157282
 20
185.0799191020637
 30
0.0
  0
SPLINE
  5
C8
330
1F
100
AcDbEntity
  8
0
  6
Continuous
 62
     7
370
    25
100
AcDbSpline
210
0.0
220
0.0
230
1.0
 70
     8
 71
     3
 72
    12
 73
     8
 74
     0
 42
0.000000001
 43
0.00000001
 40
0.0
 40
0.0
 40
0.0
 40
0.0
 40
0.2500000000000018
 40
0.2500000000000018
 40
0.5000000000000037
 40
0.5000000000000037
 40
1.0
 40
1.0
 40
1.0
 40
1.0
 10
202.4888380591553
 20
123.7856096206158
 30
0.0
 10
202.4257811042575
 20
123.7856096206158
 30
0.0
 10
202.366650954512
 20
123.7935099516954
 30
0.0
 10
202.2682034039787
 20
123.8168206997004
 30
0.0
 10
202.2291711657906
 20
123.8315258259841
 30
0.0
 10
202.1292812813336
 20
123.8794593541707
 30
0.0
 10
202.0869823077243
 20
123.9155293269355
 30
0.0
 10
202.055825357263
 20
123.9533591193717
 30
0.0
  0
LINE
  5
C9
330
1F
100
AcDbEntity
  8
0
  6
Continuous
 62
     7
370
    25
100
AcDbLine
 10
205.433324432
 20
123.7856096206
 30
0.0
 11
202.4888380592
 21
123.7856096206
 31
0.0
  0
SPLINE
  5
CA
330
1F
100
AcDbEntity
  8
0
  6
Continuous
 62
     7
370
    25
100
AcDbSpline
210
0.0
220
0.0
230
1.0
 70
     8
 71
     3
 72
    12
 73
     8
 74
     0
 42
0.000000001
 43
0.00000001
 40
0.0
 40
0.0
 40
0.0
 40
0.0
 40
0.4999999999999953
 40
0.4999999999999953
 40
0.7499999999999977
 40
0.7499999999999977
 40
1.0
 40
1.0
 40
1.0
 40
1.0
 10
205.8663371339147
 20
123.9533591193717
 30
0.0
 10
205.8351919359526
 20
123.9155435964515
 30
0.0
 10
205.7929176696181
 20
123.8794767383679
 30
0.0
 10
205.6929721357928
 20
123.8315166733566
 30
0.0
 10
205.6532418310888
 20
123.816655699459
 30
0.0
 10
205.5563537810826
 20
123.7937045533278
 30
0.0
 10
205.496288539336
 20
123.7856096206158
 30
0.0
 10
205.4333244320225
 20
123.7856096206158
 30
0.0
  0
ELLIPSE
  5
CB
330
1F
100
AcDbEntity
  8
0
  6
Continuous
 62
     7
370
    25
100
AcDbEllipse
 10
189.6139270562
 20
153.8541015795
 30
0.0
 11
-14.75368316065621
 21
31.09325491558119
 31
0.0
210
0.0
220
0.0
230
1.0
 40
0.3419987131
 41
3.30073485621712
 42
4.231496223360773
  0
SPLINE
  5
CC
330
1F
100
AcDbEntity
  8
0
  6
Continuous
 62
     7
370
    25
100
AcDbSpline
210
0.0
220
0.0
230
1.0
 70
     8
 71
     3
 72
    12
 73
     8
 74
     0
 42
0.000000001
 43
0.00000001
 40
0.0
 40
0.0
 40
0.0
 40
0.0
 40
0.2499999999999982
 40
0.2499999999999982
 40
0.4999999999999963
 40
0.4999999999999963
 40
1.0
 40
1.0
 40
1.0
 40
1.0
 10
205.4333244320225
 20
144.4660351481527
 30
0.0
 10
205.4963813869202
 20
144.4660351481527
 30
0.0
 10
205.5555115366658
 20
144.440688794772
 30
0.0
 10
205.6539590871991
 20
144.3665694126325
 30
0.0
 10
205.6929913253872
 20
144.3200728979345
 30
0.0
 10
205.7928812098442
 20
144.1699983909259
 30
0.0
 10
205.8351801834534
 20
144.0588806818111
 30
0.0
 10
205.8663371339147
 20
143.9447322588036
 30
0.0
  0
LINE
  5
CD
330
1F
100
AcDbEntity
  8
0
  6
Continuous
 62
     7
370
    25
100
AcDbLine
 10
202.4888380592
 20
144.4660351482
 30
0.0
 11
205.433324432
 21
144.4660351482
 31
0.0
  0
SPLINE
  5
CE
330
1F
100
AcDbEntity
  8
0
  6
Continuous
 62
     7
370
    25
100
AcDbSpline
210
0.0
220
0.0
230
1.0
 70
     8
 71
     3
 72
    12
 73
     8
 74
     0
 42
0.000000001
 43
0.00000001
 40
0.0
 40
0.0
 40
0.0
 40
0.0
 40
0.4999999999999989
 40
0.4999999999999989
 40
0.7499999999999994
 40
0.7499999999999994
 40
1.0
 40
1.0
 40
1.0
 40
1.0
 10
202.0558253572631
 20
143.9447322588036
 30
0.0
 10
202.0869705552252
 20
144.0588376246689
 30
0.0
 10
202.1292448215596
 20
144.1699439518877
 30
0.0
 10
202.229190355385
 20
144.3201015593179
 30
0.0
 10
202.268920660089
 20
144.3670942509353
 30
0.0
 10
202.3658087100952
 20
144.4400698354738
 30
0.0
 10
202.4258739518417
 20
144.4660351481528
 30
0.0
 10
202.4888380591553
 20
144.4660351481528
 30
0.0
  0
ELLIPSE
  5
CF
330
1F
100
AcDbEntity
  8
0
  6
Continuous
 62
     7
370
    25
100
AcDbEllipse
 10
218.308235435
 20
153.8541015795
 30
0.0
 11
14.75368316065624
 21
31.09325491558118
 31
0.0
210
0.0
220
0.0
230
1.0
 40
0.3419987131
 41
2.051689083818827
 42
2.982450450962505
  0
SPLINE
  5
D0
330
1F
100
AcDbEntity
  8
0
  6
Continuous
 62
     7
370
    25
100
AcDbSpline
210
0.0
220
0.0
230
1.0
 70
     8
 71
     3
 72
    12
 73
     8
 74
     0
 42
0.000000001
 43
0.00000001
 40
0.0
 40
0.0
 40
0.0
 40
0.0
 40
0.2499999999999986
 40
0.2499999999999986
 40
0.4999999999999972
 40
0.4999999999999972
 40
1.0
 40
1.0
 40
1.0
 40
1.0
 10
202.4888380591553
 20
163.2421680108248
 30
0.0
 10
202.425758020662
 20
163.2421680108248
 30
0.0
 10
202.3666093984806
 20
163.2675323300398
 30
0.0
 10
202.2681368484115
 20
163.3416971904127
 30
0.0
 10
202.2291002364268
 20
163.3882175309668
 30
0.0
 10
202.1292037696477
 20
163.5383598738121
 30
0.0
 10
202.0867828885811
 20
163.6500530807842
 30
0.0
 10
202.0558253572631
 20
163.763470900174
 30
0.0
  0
LINE
  5
D1
330
1F
100
AcDbEntity
  8
0
  6
Continuous
 62
     7
370
    25
100
AcDbLine
 10
205.433324432
 20
163.2421680108
 30
0.0
 11
202.4888380592
 21
163.2421680108
 31
0.0
  0
SPLINE
  5
D2
330
1F
100
AcDbEntity
  8
0
  6
Continuous
 62
     7
370
    25
100
AcDbSpline
210
0.0
220
0.0
230
1.0
 70
     8
 71
     3
 72
    12
 73
     8
 74
     0
 42
0.000000001
 43
0.00000001
 40
0.0
 40
0.0
 40
0.0
 40
0.0
 40
0.4999999999999972
 40
0.4999999999999972
 40
0.7499999999999986
 40
0.7499999999999986
 40
1.0
 40
1.0
 40
1.0
 40
1.0
 10
205.8663371339147
 20
163.763470900174
 30
0.0
 10
205.8356148919956
 20
163.6509151007648
 30
0.0
 10
205.7927776774604
 20
163.5381572410252
 30
0.0
 10
205.6933506532606
 20
163.3886163552288
 30
0.0
 10
205.653598458444
 20
163.341323623522
 30
0.0
 10
205.5555570015858
 20
163.2675873302005
 30
0.0
 10
205.4960009459983
 20
163.2421680108248
 30
0.0
 10
205.4333244320225
 20
163.2421680108248
 30
0.0
  0
ELLIPSE
  5
D3
330
1F
100
AcDbEntity
  8
0
  6
Continuous
 62
     7
370
    25
100
AcDbEllipse
 10
189.6139270562
 20
153.8541015795
 30
0.0
 11
14.75368316065601
 21
31.09325491558116
 31
0.0
210
0.0
220
0.0
230
1.0
 40
0.3419987131
 41
5.193281737408618
 42
6.124043104552322
  0
SPLINE
  5
D4
330
1F
100
AcDbEntity
  8
0
  6
Continuous
 62
     7
370
    25
100
AcDbSpline
210
0.0
220
0.0
230
1.0
 70
     8
 71
     3
 72
    12
 73
     8
 74
     0
 42
0.000000001
 43
0.00000001
 40
0.0
 40
0.0
 40
0.0
 40
0.0
 40
0.2500000000000014
 40
0.2500000000000014
 40
0.5000000000000028
 40
0.5000000000000028
 40
1.0
 40
1.0
 40
1.0
 40
1.0
 10
205.4333244320225
 20
183.922593538362
 30
0.0
 10
205.4964044705158
 20
183.922593538362
 30
0.0
 10
205.5555530926972
 20
183.9146876121496
 30
0.0
 10
205.6540256427663
 20
183.8913624507133
 30
0.0
 10
205.693062254751
 20
183.8766496608816
 30
0.0
 10
205.7929587215301
 20
183.8286938601507
 30
0.0
 10
205.8353796025967
 20
183.7924317035706
 30
0.0
 10
205.8663371339147
 20
183.7548440396061
 30
0.0
  0
LINE
  5
D5
330
1F
100
AcDbEntity
  8
0
  6
Continuous
 62
     7
370
    25
100
AcDbLine
 10
202.4888380592
 20
183.9225935384
 30
0.0
 11
205.433324432
 21
183.9225935384
 31
0.0
  0
SPLINE
  5
D6
330
1F
100
AcDbEntity
  8
0
  6
Continuous
 62
     7
370
    25
100
AcDbSpline
210
0.0
220
0.0
230
1.0
 70
     8
 71
     3
 72
    12
 73
     8
 74
     0
 42
0.000000001
 43
0.00000001
 40
0.0
 40
0.0
 40
0.0
 40
0.0
 40
0.5
 40
0.5
 40
0.75
 40
0.75
 40
1.0
 40
1.0
 40
1.0
 40
1.0
 10
202.0558253572631
 20
183.7548440396061
 30
0.0
 10
202.0865475991822
 20
183.7921460225592
 30
0.0
 10
202.1293848137174
 20
183.8287578546056
 30
0.0
 10
202.2288118379171
 20
183.8765226378908
 30
0.0
 10
202.2685640327338
 20
183.8914801533732
 30
0.0
 10
202.366605489592
 20
183.9146700991423
 30
0.0
 10
202.4261615451795
 20
183.922593538362
 30
0.0
 10
202.4888380591553
 20
183.922593538362
 30
0.0
  0
ELLIPSE
  5
D7
330
1F
100
AcDbEntity
  8
0
  6
Continuous
 62
     7
370
    25
100
AcDbEllipse
 10
218.308235435
 20
153.8541015795
 30
0.0
 11
-14.75368316065607
 21
31.09325491558116
 31
0.0
210
0.0
220
0.0
230
1.0
 40
0.3419987131
 41
0.1591422026273013
 42
1.089903569770979
  0
LINE
  5
D8
330
1F
100
AcDbEntity
  8
0
  6
Continuous
 62
     7
370
    25
100
AcDbLine
 10
191.9610812456
 20
122.8541015795
 30
0.0
 11
191.9610812456
 21
184.8541015781
 31
0.0
  0
ELLIPSE
  5
D9
330
1F
100
AcDbEntity
  8
0
  6
Continuous
 62
     7
370
    25
100
AcDbEllipse
 10
223.6077207417
 20
136.2892426198
 30
0.0
 11
-0.3267812967789041
 21
3.437685688268032
 31
0.0
210
0.0
220
0.0
230
1.0
 40
0.2095444568
 41
0.0
 42
6.283185307179586
  0
SPLINE
  5
DA
330
1F
100
AcDbEntity
  8
0
  6
Continuous
 62
     7
370
    25
100
AcDbSpline
210
0.0
220
0.0
230
1.0
 70
     8
 71
     3
 72
    12
 73
     8
 74
     0
 42
0.000000001
 43
0.00000001
 40
0.0
 40
0.0
 40
0.0
 40
0.0
 40
0.5000000000000002
 40
0.5000000000000002
 40
0.7500000000000001
 40
0.7500000000000001
 40
1.0
 40
1.0
 40
1.0
 40
1.0
 10
191.1445689591324
 20
131.9993078770131
 30
0.0
 10
191.2010054600396
 20
131.9978899956714
 30
0.0
 10
191.2700900907283
 20
131.996325659423
 30
0.0
 10
191.3888923624463
 20
131.9933814674486
 30
0.0
 10
191.4290776379164
 20
131.9923432643512
 30
0.0
 10
191.5024586853202
 20
131.9904093691366
 30
0.0
 10
191.5358682490628
 20
131.9895144818478
 30
0.0
 10
191.5661043567193
 20
131.9887306915755
 30
0.0
  0
SPLINE
  5
DB
330
1F
100
AcDbEntity
  8
0
  6
Continuous
 62
     7
370
    25
100
AcDbSpline
210
0.0
220
0.0
230
1.0
 70
     8
 71
     3
 72
    16
 73
    12
 74
     0
 42
0.000000001
 43
0.00000001
 40
0.0
 40
0.0
 40
0.0
 40
0.0
 40
0.0624999999999982
 40
0.0624999999999982
 40
0.1249999999999964
 40
0.1249999999999964
 40
0.2499999999999947
 40
0.2499999999999947
 40
0.4999999999999964
 40
0.4999999999999964
 40
1.0
 40
1.0
 40
1.0
 40
1.0
 10
191.566104356682
 20
131.9887306915997
 30
0.0
 10
191.57768476427
 20
131.9884305004883
 30
0.0
 10
191.5909942910313
 20
131.9871027522294
 30
0.0
 10
191.6202957211174
 20
131.9804040774544
 30
0.0
 10
191.6351098210017
 20
131.9750458943487
 30
0.0
 10
191.6709382227045
 20
131.9580002451813
 30
0.0
 10
191.6850578470676
 20
131.9465377074056
 30
0.0
 10
191.7195619911561
 20
131.9149743820333
 30
0.0
 10
191.7306665418607
 20
131.8970770829881
 30
0.0
 10
191.7568427190769
 20
131.8469156653738
 30
0.0
 10
191.7610812455889
 20
131.8191712531772
 30
0.0
 10
191.7610812455889
 20
131.7945070912477
 30
0.0
  0
LINE
  5
DC
330
1F
100
AcDbEntity
  8
0
  6
Continuous
 62
     7
370
    25
100
AcDbLine
 10
191.7610812456
 20
146.8322142537
 30
0.0
 11
191.7610812456
 21
131.3142813006
 31
0.0
  0
SPLINE
  5
DD
330
1F
100
AcDbEntity
  8
0
  6
Continuous
 62
     7
370
    25
100
AcDbSpline
210
0.0
220
0.0
230
1.0
 70
     8
 71
     3
 72
    16
 73
    12
 74
     0
 42
0.000000001
 43
0.00000001
 40
0.0
 40
0.0
 40
0.0
 40
0.0
 40
0.5000000000000024
 40
0.5000000000000024
 40
0.7500000000000002
 40
0.7500000000000002
 40
0.875
 40
0.875
 40
0.9375
 40
0.9375
 40
1.0
 40
1.0
 40
1.0
 40
1.0
 10
191.7610812455889
 20
146.8322142537389
 30
0.0
 10
191.7610812455889
 20
146.9459067978668
 30
0.0
 10
191.7569349705109
 20
147.0602269592163
 30
0.0
 10
191.7309693751174
 20
147.2332752497134
 30
0.0
 10
191.71950846974
 20
147.2924507568751
 30
0.0
 10
191.6851967319656
 20
147.3755738763432
 30
0.0
 10
191.6711719960361
 20
147.4036951924439
 30
0.0
 10
191.6351490330022
 20
147.4323110064213
 30
0.0
 10
191.6203945239126
 20
147.4381040543231
 30
0.0
 10
191.5910423627657
 20
147.4365106283861
 30
0.0
 10
191.5777024882616
 20
147.4300142250623
 30
0.0
 10
191.5661043567132
 20
147.4214984788592
 30
0.0
  0
SPLINE
  5
DE
330
1F
100
AcDbEntity
  8
0
  6
Continuous
 62
     7
370
    25
100
AcDbSpline
210
0.0
220
0.0
230
1.0
 70
     8
 71
     3
 72
    12
 73
     8
 74
     0
 42
0.000000001
 43
0.00000001
 40
0.0
 40
0.0
 40
0.0
 40
0.0
 40
0.2500000000000002
 40
0.2500000000000002
 40
0.5000000000000003
 40
0.5000000000000003
 40
1.0
 40
1.0
 40
1.0
 40
1.0
 10
191.5661043567203
 20
147.42149847885
 30
0.0
 10
191.5359059152797
 20
147.399325746805
 30
0.0
 10
191.5025385599437
 20
147.3802460909278
 30
0.0
 10
191.4293832841138
 20
147.355073046485
 30
0.0
 10
191.3891305850898
 20
147.3495165100682
 30
0.0
 10
191.271401841815
 20
147.360428321055
 30
0.0
 10
191.200943393756
 20
147.4023640764658
 30
0.0
 10
191.1445689591378
 20
147.4515758588473
 30
0.0
  0
SPLINE
  5
DF
330
1F
100
AcDbEntity
  8
0
  6
Continuous
 62
     7
370
    25
100
AcDbSpline
210
0.0
220
0.0
230
1.0
 70
     8
 71
     3
 72
    12
 73
     8
 74
     0
 42
0.000000001
 43
0.00000001
 40
0.0
 40
0.0
 40
0.0
 40
0.0
 40
0.4999999999999986
 40
0.4999999999999986
 40
0.7499999999999992
 40
0.7499999999999992
 40
1.0
 40
1.0
 40
1.0
 40
1.0
 10
190.6397609020292
 20
148.6679272507279
 30
0.0
 10
190.6835112539137
 20
148.4474802657534
 30
0.0
 10
190.7364014050382
 20
148.2319352759478
 30
0.0
 10
190.8480129481798
 20
147.9195211993759
 30
0.0
 10
190.8905722920834
 20
147.81744172376
 30
0.0
 10
190.9955495274208
 20
147.6230017111182
 30
0.0
 10
191.0571167705154
 20
147.5279168120546
 30
0.0
 10
191.1445689591378
 20
147.4515758588474
 30
0.0
  0
SPLINE
  5
E0
330
1F
100
AcDbEntity
  8
0
  6
Continuous
 62
     7
370
    25
100
AcDbSpline
210
0.0
220
0.0
230
1.0
 70
     8
 71
     3
 72
    12
 73
     8
 74
     0
 42
0.000000001
 43
0.00000001
 40
0.0
 40
0.0
 40
0.0
 40
0.0
 40
0.2499999999999988
 40
0.2499999999999988
 40
0.4999999999999977
 40
0.4999999999999977
 40
1.0
 40
1.0
 40
1.0
 40
1.0
 10
191.1445689591377
 20
160.2566273001305
 30
0.0
 10
191.0560755515698
 20
160.1793774200222
 30
0.0
 10
190.9960175108039
 20
160.086058096133
 30
0.0
 10
190.8901692378213
 20
159.8900250431635
 30
0.0
 10
190.8476357165439
 20
159.7876986849518
 30
0.0
 10
190.7364844097202
 20
159.4763542791759
 30
0.0
 10
190.6835535526724
 20
159.2609360259979
 30
0.0
 10
190.6397609020292
 20
159.04027590825
 30
0.0
  0
SPLINE
  5
E1
330
1F
100
AcDbEntity
  8
0
  6
Continuous
 62
     7
370
    25
100
AcDbSpline
210
0.0
220
0.0
230
1.0
 70
     8
 71
     3
 72
    12
 73
     8
 74
     0
 42
0.000000001
 43
0.00000001
 40
0.0
 40
0.0
 40
0.0
 40
0.0
 40
0.5000000000000001
 40
0.5000000000000001
 40
0.75
 40
0.75
 40
1.0
 40
1.0
 40
1.0
 40
1.0
 10
191.1445689591377
 20
160.2566273001305
 30
0.0
 10
191.2008775074333
 20
160.3057815673744
 30
0.0
 10
191.2711521681514
 20
160.3477388859781
 30
0.0
 10
191.389190082475
 20
160.3586985635105
 30
0.0
 10
191.4293663233289
 20
160.3531898052632
 30
0.0
 10
191.5033234180069
 20
160.3276325764742
 30
0.0
 10
191.5359398057183
 20
160.3088525286349
 30
0.0
 10
191.566104356714
 20
160.2867046801182
 30
0.0
  0
SPLINE
  5
E2
330
1F
100
AcDbEntity
  8
0
  6
Continuous
 62
     7
370
    25
100
AcDbSpline
210
0.0
220
0.0
230
1.0
 70
     8
 71
     3
 72
    16
 73
    12
 74
     0
 42
0.000000001
 43
0.00000001
 40
0.0
 40
0.0
 40
0.0
 40
0.0
 40
0.0625
 40
0.0625
 40
0.125
 40
0.125
 40
0.25
 40
0.25
 40
0.5
 40
0.5
 40
1.0
 40
1.0
 40
1.0
 40
1.0
 10
191.5661043566823
 20
160.2867046800637
 30
0.0
 10
191.5777172565217
 20
160.2781780904684
 30
0.0
 10
191.5910684409541
 20
160.2716778289357
 30
0.0
 10
191.6204682805733
 20
160.2701084318182
 30
0.0
 10
191.6353090051286
 20
160.2759918224487
 30
0.0
 10
191.6711422130972
 20
160.3045394584992
 30
0.0
 10
191.6852554209187
 20
160.3327064778051
 30
0.0
 10
191.7197467921376
 20
160.416460736227
 30
0.0
 10
191.730830863248
 20
160.4741741498484
 30
0.0
 10
191.756953681044
 20
160.6477646864943
 30
0.0
 10
191.7610812455889
 20
160.7627927391362
 30
0.0
 10
191.7610812455889
 20
160.875988905239
 30
0.0
  0
LINE
  5
E3
330
1F
100
AcDbEntity
  8
0
  6
Continuous
 62
     7
370
    25
100
AcDbLine
 10
191.7610812456
 20
176.3939218584
 30
0.0
 11
191.7610812456
 21
160.8759889052
 31
0.0
  0
SPLINE
  5
E4
330
1F
100
AcDbEntity
  8
0
  6
Continuous
 62
     7
370
    25
100
AcDbSpline
210
0.0
220
0.0
230
1.0
 70
     8
 71
     3
 72
    16
 73
    12
 74
     0
 42
0.000000001
 43
0.00000001
 40
0.0
 40
0.0
 40
0.0
 40
0.0
 40
0.5000000000000023
 40
0.5000000000000023
 40
0.7500000000000038
 40
0.7500000000000038
 40
0.8750000000000046
 40
0.8750000000000046
 40
0.9375000000000022
 40
0.9375000000000022
 40
1.0
 40
1.0
 40
1.0
 40
1.0
 10
191.7610812455889
 20
175.9136960677303
 30
0.0
 10
191.7610812455889
 20
175.8890249116873
 30
0.0
 10
191.7569155471289
 20
175.8614430802961
 30
0.0
 10
191.730657218804
 20
175.8111002094728
 30
0.0
 10
191.7191534370664
 20
175.7928107114109
 30
0.0
 10
191.6850226777198
 20
175.7616556803738
 30
0.0
 10
191.6706007910491
 20
175.7500163051621
 30
0.0
 10
191.6350338226113
 20
175.7331342792311
 30
0.0
 10
191.6200820543167
 20
175.7277451754234
 30
0.0
 10
191.5910782359569
 20
175.7211246794789
 30
0.0
 10
191.5776628819477
 20
175.7197720912724
 30
0.0
 10
191.5661043567111
 20
175.7194724674008
 30
0.0
  0
SPLINE
  5
E5
330
1F
100
AcDbEntity
  8
0
  6
Continuous
 62
     7
370
    25
100
AcDbSpline
210
0.0
220
0.0
230
1.0
 70
     8
 71
     3
 72
    12
 73
     8
 74
     0
 42
0.000000001
 43
0.00000001
 40
0.0
 40
0.0
 40
0.0
 40
0.0
 40
0.2499999999999999
 40
0.2499999999999999
 40
0.4999999999999998
 40
0.4999999999999998
 40
1.0
 40
1.0
 40
1.0
 40
1.0
 10
191.5661043567203
 20
175.7194724674025
 30
0.0
 10
191.5359165801707
 20
175.718689929985
 30
0.0
 10
191.502562776079
 20
175.7177965981664
 30
0.0
 10
191.429436572883
 20
175.7158692893628
 30
0.0
 10
191.3892013698589
 20
175.7148297581502
 30
0.0
 10
191.2715097397258
 20
175.711911874803
 30
0.0
 10
191.2011290665657
 20
175.7103162687327
 30
0.0
 10
191.1445689591351
 20
175.7088952819649
 30
0.0
  0
SPLINE
  5
E6
330
1F
100
AcDbEntity
  8
0
  6
Continuous
 62
     7
370
    25
100
AcDbSpline
210
0.0
220
0.0
230
1.0
 70
     8
 71
     3
 72
    16
 73
    12
 74
     0
 42
0.000000001
 43
0.00000001
 40
0.0
 40
0.0
 40
0.0
 40
0.0
 40
0.2500000000000001
 40
0.2500000000000001
 40
0.3750000000000001
 40
0.3750000000000001
 40
0.5
 40
0.5
 40
0.75
 40
0.75
 40
1.0
 40
1.0
 40
1.0
 40
1.0
 10
190.6397609020293
 20
159.04027590825
 30
0.0
 10
190.4785284245448
 20
158.2278661330032
 30
0.0
 10
190.3580485849052
 20
157.3877878386185
 30
0.0
 10
190.2356680675918
 20
156.0864927892557
 30
0.0
 10
190.2046904071944
 20
155.6458117536709
 30
0.0
 10
190.1630766695664
 20
154.7499721127398
 30
0.0
 10
190.1528407566336
 20
154.3033139815373
 30
0.0
 10
190.1526523595775
 20
152.9680040243975
 30
0.0
 10
190.1927970622151
 20
152.0835086510899
 30
0.0
 10
190.3569508171547
 20
150.3262587630639
 30
0.0
 10
190.4785024675642
 20
149.4804678166508
 30
0.0
 10
190.6397609020292
 20
148.6679272507279
 30
0.0
  0
LINE
  5
E7
330
1F
100
AcDbEntity
  8
0
  6
Continuous
 62
     7
370
    25
100
AcDbLine
 10
189.7610812456
 20
160.3392798412
 30
0.0
 11
189.7610812456
 21
147.3689233178
 31
0.0
  0
LINE
  5
E8
330
1F
100
AcDbEntity
  8
0
  6
Continuous
 62
     7
370
    25
100
AcDbLine
 10
155.4610812456
 20
159.908412147
 30
0.0
 11
155.4610812456
 21
147.7997910119
 31
0.0
  0
LINE
  5
E9
330
1F
100
AcDbEntity
  8
0
  6
Continuous
 62
     7
370
    25
100
AcDbLine
 10
153.9610812456
 20
159.4753994451
 30
0.0
 11
153.9610812456
 21
148.2328037138
 31
0.0
  0
LINE
  5
EA
330
1F
100
AcDbEntity
  8
0
  6
Continuous
 62
     7
370
    25
100
AcDbLine
 10
155.4610812456
 20
159.908412147
 30
0.0
 11
155.4610812456
 21
175.0124649758
 31
0.0
  0
LINE
  5
EB
330
1F
100
AcDbEntity
  8
0
  6
Continuous
 62
     7
370
    25
100
AcDbLine
 10
155.4610812456
 20
175.0124649758
 30
0.0
 11
189.7610812456
 21
175.8742003641
 31
0.0
  0
LINE
  5
EC
330
1F
100
AcDbEntity
  8
0
  6
Continuous
 62
     7
370
    25
100
AcDbLine
 10
189.7610812456
 20
160.3392798412
 30
0.0
 11
189.7610812456
 21
175.8742003641
 31
0.0
  0
ARC
  5
ED
330
1F
100
AcDbEntity
  8
0
  6
Continuous
 62
     7
370
    25
100
AcDbCircle
 10
189.9610181565
 20
175.8792234752
 30
0.0
 40
0.2000000000000059
100
AcDbArc
 50
181.4391666667
 51
271.4391666667
  0
LINE
  5
EE
330
1F
100
AcDbEntity
  8
0
  6
Continuous
 62
     7
370
    25
100
AcDbLine
 10
155.4610812456
 20
132.6957381832
 30
0.0
 11
155.4610812456
 21
147.7997910119
 31
0.0
  0
LINE
  5
EF
330
1F
100
AcDbEntity
  8
0
  6
Continuous
 62
     7
370
    25
100
AcDbLine
 10
189.7610812456
 20
131.8340027949
 30
0.0
 11
189.7610812456
 21
147.3689233178
 31
0.0
  0
LINE
  5
F0
330
1F
100
AcDbEntity
  8
0
  6
Continuous
 62
     7
370
    25
100
AcDbLine
 10
155.4610812456
 20
132.6957381832
 30
0.0
 11
189.7610812456
 21
131.8340027949
 31
0.0
  0
ARC
  5
F1
330
1F
100
AcDbEntity
  8
0
  6
Continuous
 62
     7
370
    25
100
AcDbCircle
 10
189.9610181565
 20
131.8289796838
 30
0.0
 40
0.2000000000000066
100
AcDbArc
 50
88.5608333333
 51
178.5608333333
  0
LINE
  5
F2
330
1F
100
AcDbEntity
  8
0
  6
Continuous
 62
     7
370
    25
100
AcDbLine
 10
189.9660412676
 20
175.6792865642
 30
0.0
 11
191.1445689591
 21
175.708895282
 31
0.0
  0
LINE
  5
F3
330
1F
100
AcDbEntity
  8
0
  6
Continuous
 62
     7
370
    25
100
AcDbLine
 10
189.9660412676
 20
132.0289165947
 30
0.0
 11
191.1445689591
 21
131.999307877
 31
0.0
  0
LINE
  5
F4
330
1F
100
AcDbEntity
  8
0
  6
Continuous
 62
     7
370
    25
100
AcDbLine
 10
153.9610812456
 20
174.146439572
 30
0.0
 11
155.4610812456
 21
175.0124649758
 31
0.0
  0
LINE
  5
F5
330
1F
100
AcDbEntity
  8
0
  6
Continuous
 62
     7
370
    25
100
AcDbLine
 10
153.9610812456
 20
159.4753994451
 30
0.0
 11
153.9610812456
 21
174.146439572
 31
0.0
  0
LINE
  5
F6
330
1F
100
AcDbEntity
  8
0
  6
Continuous
 62
     7
370
    25
100
AcDbLine
 10
153.9610812456
 20
133.561763587
 30
0.0
 11
155.4610812456
 21
132.6957381832
 31
0.0
  0
LINE
  5
F7
330
1F
100
AcDbEntity
  8
0
  6
Continuous
 62
     7
370
    25
100
AcDbLine
 10
153.9610812456
 20
133.561763587
 30
0.0
 11
153.9610812456
 21
148.2328037138
 31
0.0
  0
SPLINE
  5
F8
330
1F
100
AcDbEntity
  8
0
  6
Continuous
 62
     7
370
    25
100
AcDbSpline
210
0.0
220
0.0
230
1.0
 70
     8
 71
     3
 72
     8
 73
     4
 74
     0
 42
0.000000001
 43
0.00000001
 40
0.0
 40
0.0
 40
0.0
 40
0.0
 40
1.0
 40
1.0
 40
1.0
 40
1.0
 10
230.159680083899
 20
121.6131953257632
 30
0.0
 10
230.627713953635
 20
119.8669197508669
 30
0.0
 10
231.096235865374
 20
118.1189033611586
 30
0.0
 10
231.5650431734627
 20
116.3692346364885
 30
0.0
  0
SPLINE
  5
F9
330
1F
100
AcDbEntity
  8
0
  6
Continuous
 62
     7
370
    25
100
AcDbSpline
210
0.0
220
0.0
230
1.0
 70
     8
 71
     3
 72
    12
 73
     8
 74
     0
 42
0.000000001
 43
0.00000001
 40
0.0
 40
0.0
 40
0.0
 40
0.0
 40
0.2500000000000022
 40
0.2500000000000022
 40
0.5000000000000044
 40
0.5000000000000044
 40
1.0
 40
1.0
 40
1.0
 40
1.0
 10
229.1937542576099
 20
122.3546653949156
 30
0.0
 10
229.2983289466668
 20
122.354396196363
 30
0.0
 10
229.401690898706
 20
122.3382309903187
 30
0.0
 10
229.6052961621292
 20
122.271750324686
 30
0.0
 10
229.7020224000928
 20
122.2222271038982
 30
0.0
 10
229.9658398008865
 20
122.0263888601382
 30
0.0
 10
230.1007451734369
 20
121.833086665479
 30
0.0
 10
230.159680083899
 20
121.6131953257633
 30
0.0
  0
SPLINE
  5
FA
330
1F
100
AcDbEntity
  8
0
  6
Continuous
 62
     7
370
    25
100
AcDbSpline
210
0.0
220
0.0
230
1.0
 70
     8
 71
     3
 72
    12
 73
     8
 74
     0
 42
0.000000001
 43
0.00000001
 40
0.0
 40
0.0
 40
0.0
 40
0.0
 40
0.4999999999999956
 40
0.4999999999999956
 40
0.7499999999999978
 40
0.7499999999999978
 40
1.0
 40
1.0
 40
1.0
 40
1.0
 10
230.0597796613943
 20
185.8539189458986
 30
0.0
 10
229.9695189277369
 20
185.6976609100189
 30
0.0
 10
229.8359850420474
 20
185.5680526608642
 30
0.0
 10
229.6082922609485
 20
185.4399097424724
 30
0.0
 10
229.5267645100541
 20
185.4072888042368
 30
0.0
 10
229.3614963715831
 20
185.3643750642906
 30
0.0
 10
229.277988775574
 20
185.353754602482
 30
0.0
 10
229.1937542576099
 20
185.3535377640624
 30
0.0
  0
SPLINE
  5
FB
330
1F
100
AcDbEntity
  8
0
  6
Continuous
 62
     7
370
    25
100
AcDbSpline
210
0.0
220
0.0
230
1.0
 70
     8
 71
     3
 72
     8
 73
     4
 74
     0
 42
0.000000001
 43
0.00000001
 40
0.0
 40
0.0
 40
0.0
 40
0.0
 40
1.0
 40
1.0
 40
1.0
 40
1.0
 10
231.5650431734627
 20
185.8526952985886
 30
0.0
 10
231.052397301879
 20
185.8526952985886
 30
0.0
 10
230.5507587597777
 20
185.8534890407525
 30
0.0
 10
230.0597796613939
 20
185.8539189458988
 30
0.0
  0
LINE
  5
FC
330
1F
100
AcDbEntity
  8
0
  6
Continuous
 62
     7
370
    25
100
AcDbLine
 10
231.8568063512
 20
185.8526952986
 30
0.0
 11
247.110080027
 21
129.0424155019
 31
0.0
  0
ELLIPSE
  5
FD
330
1F
100
AcDbEntity
  8
0
  6
Continuous
 62
     7
370
    25
100
AcDbEllipse
 10
255.836116224
 20
131.4457693674
 30
0.0
 11
-6.41175326724624
 21
-6.411753267246212
 31
-4.598404990119320E-14
210
-7.172053334876786E-15
220
2.162437494911033E-19
230
1.0
 40
0.9925461516
 41
5.763327380235124
 42
6.058105413673315
  0
LINE
  5
FE
330
1F
100
AcDbEntity
  8
0
  6
Continuous
 62
     7
370
    25
100
AcDbLine
 10
248.1657554177
 20
126.6160801876
 30
0.0
 11
248.0082712191
 21
126.458595989
 31
0.0
  0
ARC
  5
FF
330
1F
100
AcDbEntity
  8
0
  6
Continuous
 62
     7
370
    25
100
AcDbCircle
 10
240.9729025071
 20
117.6686722756
 30
0.0
 40
2.09999999999999
100
AcDbArc
 50
82.4688525022
 51
277.5311474978
  0
LINE
  5
100
330
1F
100
AcDbEntity
  8
0
  6
Continuous
 62
     7
370
    25
100
AcDbLine
 10
231.5650431735
 20
116.3692346365
 30
0.0
 11
233.3797965051
 21
109.5962992926
 31
0.0
  0
LINE
  5
101
330
1F
100
AcDbEntity
  8
0
  6
Continuous
 62
     7
370
    25
100
AcDbLine
 10
231.8568063512
 20
185.8526952986
 30
0.0
 11
231.5650431735
 21
185.8526952986
 31
0.0
  0
SPLINE
  5
102
330
1F
100
AcDbEntity
  8
0
  6
Continuous
 62
     7
370
    25
100
AcDbSpline
210
0.0
220
0.0
230
1.0
 70
     8
 71
     3
 72
    10
 73
     6
 74
     0
 42
0.000000001
 43
0.00000001
 40
0.0
 40
0.0
 40
0.0
 40
0.0
 40
0.5
 40
0.5
 40
1.0
 40
1.0
 40
1.0
 40
1.0
 10
233.3797965050989
 20
109.59629929258
 30
0.0
 10
233.4058865318265
 20
109.4989277503446
 30
0.0
 10
233.4474812208146
 20
109.404182413191
 30
0.0
 10
233.5556401399744
 20
109.2338641780263
 30
0.0
 10
233.6234766712106
 20
109.1561267096609
 30
0.0
 10
233.7007073341425
 20
109.0909369477599
 30
0.0
  0
LINE
  5
103
330
1F
100
AcDbEntity
  8
0
  6
Continuous
 62
     7
370
    25
100
AcDbLine
 10
233.7007073341
 20
109.0909369478
 30
0.0
 11
247.7439897562
 21
109.0909369478
 31
0.0
  0
ELLIPSE
  5
104
330
1F
100
AcDbEntity
  8
0
  6
Continuous
 62
     7
370
    25
100
AcDbEllipse
 10
254.4157804108
 20
130.0254335541
 30
0.0
 11
3.395387141164064
 21
14.19215912287433
 31
0.0
210
0.0
220
0.0
230
1.0
 40
0.3832346354
 41
1.90379436717161
 42
1.913408451627665
  0
SPLINE
  5
105
330
1F
100
AcDbEntity
  8
0
  6
Continuous
 62
     7
370
    18
100
AcDbSpline
210
0.0
220
0.0
230
1.0
 70
     8
 71
     3
 72
    11
 73
     7
 74
     0
 42
0.000000001
 43
0.00000001
 40
0.0
 40
0.0
 40
0.0
 40
0.0
 40
0.2085817008428623
 40
0.4188734465857705
 40
0.7058469748783303
 40
1.0
 40
1.0
 40
1.0
 40
1.0
 10
248.1465105494494
 20
125.0638106346646
 30
0.0
 10
248.2724063628433
 20
125.0159618383884
 30
0.0
 10
248.5252301391091
 20
124.9198719602727
 30
0.0
 10
248.9368036127201
 20
124.7119090545452
 30
0.0
 10
249.3799923521924
 20
124.4331480572954
 30
0.0
 10
249.6643009491197
 20
124.1719280115123
 30
0.0
 10
249.8082114852377
 20
124.0397043740997
 30
0.0
  0
SPLINE
  5
106
330
1F
100
AcDbEntity
  8
0
  6
Continuous
 62
     7
370
    18
100
AcDbSpline
210
0.0
220
0.0
230
1.0
 70
     8
 71
     3
 72
    10
 73
     6
 74
     0
 42
0.000000001
 43
0.00000001
 40
0.0
 40
0.0
 40
0.0
 40
0.0
 40
0.2869058690258027
 40
0.5813861634300813
 40
1.0
 40
1.0
 40
1.0
 40
1.0
 10
254.51754264794
 20
119.3303732113973
 30
0.0
 10
254.6462585193847
 20
119.1901160688369
 30
0.0
 10
254.9070884108255
 20
118.9058989411648
 30
0.0
 10
255.2656863528965
 20
118.3481500973712
 30
0.0
 10
255.4395715639374
 20
117.9200081555262
 30
0.0
 10
255.541648908505
 20
117.6686722756089
 30
0.0
  0
LINE
  5
107
330
1F
100
AcDbEntity
  8
0
  6
Continuous
 62
     7
370
    18
100
AcDbLine
 10
249.8082114852
 20
124.0397043741
 30
0.0
 11
254.5175426479
 21
119.3303732114
 31
0.0
  0
SPLINE
  5
108
330
1F
100
AcDbEntity
  8
0
  6
Continuous
 62
     7
370
    18
100
AcDbSpline
210
0.0
220
0.0
230
1.0
 70
     8
 71
     3
 72
    10
 73
     6
 74
     0
 42
0.000000001
 43
0.00000001
 40
0.0
 40
0.0
 40
0.0
 40
0.0
 40
0.4186148563934011
 40
0.7057160824128138
 40
1.0
 40
1.0
 40
1.0
 40
1.0
 10
255.5416489084959
 20
117.6686722756089
 30
0.0
 10
255.4395788561428
 20
117.4173306272968
 30
0.0
 10
255.267505466061
 20
116.993609775815
 30
0.0
 10
254.9100252734978
 20
116.4354768057049
 30
0.0
 10
254.649443305109
 20
116.1509781031017
 30
0.0
 10
254.51754264794
 20
116.0069713398205
 30
0.0
  0
SPLINE
  5
109
330
1F
100
AcDbEntity
  8
0
  6
Continuous
 62
     7
370
    18
100
AcDbSpline
210
0.0
220
0.0
230
1.0
 70
     8
 71
     3
 72
    10
 73
     6
 74
     0
 42
0.000000001
 43
0.00000001
 40
0.0
 40
0.0
 40
0.0
 40
0.0
 40
0.2869058690257925
 40
0.5813861634300627
 40
1.0
 40
1.0
 40
1.0
 40
1.0
 10
249.8082114852376
 20
111.2976401771181
 30
0.0
 10
249.6679543426773
 20
111.1689243056735
 30
0.0
 10
249.3837372150051
 20
110.9080944142326
 30
0.0
 10
248.8259883712116
 20
110.5494964721617
 30
0.0
 10
248.3978464293665
 20
110.3756112611208
 30
0.0
 10
248.1465105494493
 20
110.2735339165531
 30
0.0
  0
LINE
  5
10A
330
1F
100
AcDbEntity
  8
0
  6
Continuous
 62
     7
370
    18
100
AcDbLine
 10
254.5175426479
 20
116.0069713398
 30
0.0
 11
249.8082114852
 21
111.2976401771
 31
0.0
  0
LINE
  5
10B
330
1F
100
AcDbEntity
  8
0
  6
Continuous
 62
     7
370
    18
100
AcDbLine
 10
254.0225679011
 20
118.8353984646
 30
0.0
 11
253.5629484933
 21
118.3757790568
 31
0.0
  0
SPLINE
  5
10C
330
1F
100
AcDbEntity
  8
0
  6
Continuous
 62
     7
370
    18
100
AcDbSpline
210
0.0
220
0.0
230
1.0
 70
     8
 71
     3
 72
     9
 73
     5
 74
     0
 42
0.000000001
 43
0.00000001
 40
0.0
 40
0.0
 40
0.0
 40
0.0
 40
0.3354905641519798
 40
1.0
 40
1.0
 40
1.0
 40
1.0
 10
254.8489874626593
 20
117.6686722756089
 30
0.0
 10
254.7763317905469
 20
117.8092901979879
 30
0.0
 10
254.559766319336
 20
118.2284314120917
 30
0.0
 10
254.2370295377612
 20
118.5930836269743
 30
0.0
 10
254.0225679011095
 20
118.8353984645667
 30
0.0
  0
SPLINE
  5
10D
330
1F
100
AcDbEntity
  8
0
  6
Continuous
 62
     7
370
    18
100
AcDbSpline
210
0.0
220
0.0
230
1.0
 70
     8
 71
     3
 72
     9
 73
     5
 74
     0
 42
0.000000001
 43
0.00000001
 40
0.0
 40
0.0
 40
0.0
 40
0.0
 40
0.6645094358480272
 40
1.0
 40
1.0
 40
1.0
 40
1.0
 10
254.0225679011095
 20
116.5019460866511
 30
0.0
 10
254.2370295377612
 20
116.7442609242434
 30
0.0
 10
254.559766319336
 20
117.1089131391261
 30
0.0
 10
254.7763317905469
 20
117.5280543532298
 30
0.0
 10
254.8489874626593
 20
117.6686722756089
 30
0.0
  0
LINE
  5
10E
330
1F
100
AcDbEntity
  8
0
  6
Continuous
 62
     7
370
    18
100
AcDbLine
 10
254.0225679011
 20
116.5019460867
 30
0.0
 11
253.5629484933
 21
116.9615654944
 31
0.0
  0
LINE
  5
10F
330
1F
100
AcDbEntity
  8
0
  6
Continuous
 62
     7
370
    18
100
AcDbLine
 10
249.3132367384
 20
111.7926149239
 30
0.0
 11
254.0225679011
 21
116.5019460867
 31
0.0
  0
LINE
  5
110
330
1F
100
AcDbEntity
  8
0
  6
Continuous
 62
     7
370
    18
100
AcDbLine
 10
249.3132367384
 20
111.7926149239
 30
0.0
 11
248.8536173306
 21
112.2522343317
 31
0.0
  0
LINE
  5
111
330
1F
100
AcDbEntity
  8
0
  6
Continuous
 62
     7
370
    18
100
AcDbLine
 10
249.3132367384
 20
123.5447296273
 30
0.0
 11
248.8536173306
 21
123.0851102195
 31
0.0
  0
LINE
  5
112
330
1F
100
AcDbEntity
  8
0
  6
Continuous
 62
     7
370
    18
100
AcDbLine
 10
254.0225679011
 20
118.8353984646
 30
0.0
 11
249.3132367384
 21
123.5447296273
 31
0.0
  0
LINE
  5
113
330
1F
100
AcDbEntity
  8
0
  6
Continuous
 62
     7
370
    18
100
AcDbLine
 10
246.9797843605
 20
111.7926149239
 30
0.0
 11
247.4394037681
 21
112.2522343315
 31
0.0
  0
SPLINE
  5
114
330
1F
100
AcDbEntity
  8
0
  6
Continuous
 62
     7
370
    18
100
AcDbSpline
210
0.0
220
0.0
230
1.0
 70
     8
 71
     3
 72
    15
 73
    11
 74
     0
 42
0.000000001
 43
0.00000001
 40
0.0
 40
0.0
 40
0.0
 40
0.0
 40
0.0835331193667899
 40
0.167135923706357
 40
0.2509641604325096
 40
0.3348750226124275
 40
0.499043538284712
 40
0.663974260311401
 40
0.8314956925033407
 40
1.0
 40
1.0
 40
1.0
 40
1.0
 10
248.1465105494493
 20
110.9661953623988
 30
0.0
 10
248.1817025295959
 20
110.9836479460155
 30
0.0
 10
248.2521158477318
 20
111.0185676725376
 30
0.0
 10
248.3565657032819
 20
111.0746551821625
 30
0.0
 10
248.4600957470063
 20
111.1335731873305
 30
0.0
 10
248.5951035774616
 20
111.2153977286117
 30
0.0
 10
248.7598072105316
 20
111.3244981599745
 30
0.0
 10
248.9512327958348
 20
111.4675350535774
 30
0.0
 10
249.1374114053687
 20
111.622633834218
 30
0.0
 10
249.2545141189133
 20
111.7358441806156
 30
0.0
 10
249.313236738407
 20
111.7926149239487
 30
0.0
  0
SPLINE
  5
115
330
1F
100
AcDbEntity
  8
0
  6
Continuous
 62
     7
370
    18
100
AcDbSpline
210
0.0
220
0.0
230
1.0
 70
     8
 71
     3
 72
    15
 73
    11
 74
     0
 42
0.000000001
 43
0.00000001
 40
0.0
 40
0.0
 40
0.0
 40
0.0
 40
0.1639933695856007
 40
0.3289251812151787
 40
0.4966006679214883
 40
0.6651251777529448
 40
0.748644516045811
 40
0.8322477122701665
 40
0.916087642591282
 40
1.0
 40
1.0
 40
1.0
 40
1.0
 10
246.9797843604914
 20
111.7926149239487
 30
0.0
 10
247.0369096142637
 20
111.7373400903284
 30
0.0
 10
247.1514870175848
 20
111.6264741162276
 30
0.0
 10
247.3357407944149
 20
111.472324238521
 30
0.0
 10
247.5286678492246
 20
111.3275804129813
 30
0.0
 10
247.6959897589883
 20
111.216574850351
 30
0.0
 10
247.8325141939412
 20
111.1338194184379
 30
0.0
 10
247.9358807044813
 20
111.0749724317393
 30
0.0
 10
248.0404868849589
 20
111.0187793422849
 30
0.0
 10
248.1111591570294
 20
110.9837284001116
 30
0.0
 10
248.1465105494493
 20
110.9661953623988
 30
0.0
  0
SPLINE
  5
116
330
1F
100
AcDbEntity
  8
0
  6
Continuous
 62
     7
370
    18
100
AcDbSpline
210
0.0
220
0.0
230
1.0
 70
     8
 71
     3
 72
    10
 73
     6
 74
     0
 42
0.000000001
 43
0.00000001
 40
0.0
 40
0.0
 40
0.0
 40
0.0
 40
0.4186148563933998
 40
0.7057160824128133
 40
1.0
 40
1.0
 40
1.0
 40
1.0
 10
248.1465105494493
 20
110.2735339165624
 30
0.0
 10
247.8951689011372
 20
110.3756039689153
 30
0.0
 10
247.4714480496554
 20
110.5476773589971
 30
0.0
 10
246.9133150795452
 20
110.9051575515603
 30
0.0
 10
246.628816376942
 20
111.165739519949
 30
0.0
 10
246.4848096136608
 20
111.2976401771181
 30
0.0
  0
SPLINE
  5
117
330
1F
100
AcDbEntity
  8
0
  6
Continuous
 62
     7
370
    18
100
AcDbSpline
210
0.0
220
0.0
230
1.0
 70
     8
 71
     3
 72
     9
 73
     5
 74
     0
 42
0.000000001
 43
0.00000001
 40
0.0
 40
0.0
 40
0.0
 40
0.0
 40
0.5806114688480131
 40
1.0
 40
1.0
 40
1.0
 40
1.0
 10
241.7754784509585
 20
116.0069713398205
 30
0.0
 10
241.5236513477255
 20
116.3022707025627
 30
0.0
 10
241.0899239469688
 20
116.8108713392813
 30
0.0
 10
240.8514045076858
 20
117.4152167440109
 30
0.0
 10
240.7513721903936
 20
117.6686722756089
 30
0.0
  0
LINE
  5
118
330
1F
100
AcDbEntity
  8
0
  6
Continuous
 62
     7
370
    18
100
AcDbLine
 10
246.4848096137
 20
111.2976401771
 30
0.0
 11
241.775478451
 21
116.0069713398
 31
0.0
  0
LINE
  5
119
330
1F
100
AcDbEntity
  8
0
  6
Continuous
 62
     7
370
    18
100
AcDbLine
 10
246.9797843605
 20
123.5447296273
 30
0.0
 11
247.4394037683
 21
123.0851102195
 31
0.0
  0
SPLINE
  5
11A
330
1F
100
AcDbEntity
  8
0
  6
Continuous
 62
     7
370
    18
100
AcDbSpline
210
0.0
220
0.0
230
1.0
 70
     8
 71
     3
 72
    11
 73
     7
 74
     0
 42
0.000000001
 43
0.00000001
 40
0.0
 40
0.0
 40
0.0
 40
0.0
 40
0.1671987051613267
 40
0.3349976109658173
 40
0.6640606561770079
 40
1.0
 40
1.0
 40
1.0
 40
1.0
 10
248.1465105494494
 20
124.3711491888189
 30
0.0
 10
248.0762611538478
 20
124.3356905812169
 30
0.0
 10
247.9355101852585
 20
124.2646460786688
 30
0.0
 10
247.6641866769249
 20
124.1040034724819
 30
0.0
 10
247.3344022989336
 20
123.8763433757496
 30
0.0
 10
247.098802394846
 20
123.6560269200188
 30
0.0
 10
246.9797843604914
 20
123.5447296272691
 30
0.0
  0
SPLINE
  5
11B
330
1F
100
AcDbEntity
  8
0
  6
Continuous
 62
     7
370
    18
100
AcDbSpline
210
0.0
220
0.0
230
1.0
 70
     8
 71
     3
 72
    11
 73
     7
 74
     0
 42
0.000000001
 43
0.00000001
 40
0.0
 40
0.0
 40
0.0
 40
0.0
 40
0.3288499140900366
 40
0.6650031282444225
 40
0.8321851168248652
 40
1.0
 40
1.0
 40
1.0
 40
1.0
 10
249.3132367384071
 20
123.5447296272691
 30
0.0
 10
249.1968071279909
 20
123.6537435054319
 30
0.0
 10
248.9613621671452
 20
123.8741923086523
 30
0.0
 10
248.6319754414155
 20
124.1021262047508
 30
0.0
 10
248.3577668868967
 20
124.2645032980607
 30
0.0
 10
248.2170179654775
 20
124.3355558131207
 30
0.0
 10
248.1465105494494
 20
124.3711491888189
 30
0.0
  0
SPLINE
  5
11C
330
1F
100
AcDbEntity
  8
0
  6
Continuous
 62
     7
370
    18
100
AcDbSpline
210
0.0
220
0.0
230
1.0
 70
     8
 71
     3
 72
     9
 73
     5
 74
     0
 42
0.000000001
 43
0.00000001
 40
0.0
 40
0.0
 40
0.0
 40
0.0
 40
0.4193885311519953
 40
1.0
 40
1.0
 40
1.0
 40
1.0
 10
240.7513721903937
 20
117.6686722756088
 30
0.0
 10
240.8514045076858
 20
117.9221278072069
 30
0.0
 10
241.0899239469688
 20
118.5264732119365
 30
0.0
 10
241.5236513477255
 20
119.0350738486551
 30
0.0
 10
241.7754784509584
 20
119.3303732113973
 30
0.0
  0
SPLINE
  5
11D
330
1F
100
AcDbEntity
  8
0
  6
Continuous
 62
     7
370
    18
100
AcDbSpline
210
0.0
220
0.0
230
1.0
 70
     8
 71
     3
 72
    11
 73
     7
 74
     0
 42
0.000000001
 43
0.00000001
 40
0.0
 40
0.0
 40
0.0
 40
0.0
 40
0.2867781709678955
 40
0.5811273960364012
 40
0.7896362833609073
 40
1.0
 40
1.0
 40
1.0
 40
1.0
 10
246.4848096136608
 20
124.0397043740997
 30
0.0
 10
246.6249733878233
 20
124.1687319236178
 30
0.0
 10
246.9090013137381
 20
124.4301933996268
 30
0.0
 10
247.3509219486925
 20
124.7091224757889
 30
0.0
 10
247.7667245307227
 20
124.9193941283152
 30
0.0
 10
248.0195420388739
 20
125.0155298981194
 30
0.0
 10
248.1465105494494
 20
125.0638106346646
 30
0.0
  0
LINE
  5
11E
330
1F
100
AcDbEntity
  8
0
  6
Continuous
 62
     7
370
    18
100
AcDbLine
 10
241.775478451
 20
119.3303732114
 30
0.0
 11
246.4848096137
 21
124.0397043741
 31
0.0
  0
LINE
  5
11F
330
1F
100
AcDbEntity
  8
0
  6
Continuous
 62
     7
370
    18
100
AcDbLine
 10
242.2704531978
 20
116.5019460867
 30
0.0
 11
246.9797843605
 21
111.7926149239
 31
0.0
  0
LINE
  5
120
330
1F
100
AcDbEntity
  8
0
  6
Continuous
 62
     7
370
    18
100
AcDbLine
 10
242.2704531978
 20
116.5019460867
 30
0.0
 11
242.7300726056
 21
116.9615654944
 31
0.0
  0
LINE
  5
121
330
1F
100
AcDbEntity
  8
0
  6
Continuous
 62
     7
370
    18
100
AcDbLine
 10
242.2704531978
 20
118.8353984646
 30
0.0
 11
242.7300726056
 21
118.3757790568
 31
0.0
  0
LINE
  5
122
330
1F
100
AcDbEntity
  8
0
  6
Continuous
 62
     7
370
    18
100
AcDbLine
 10
246.9797843605
 20
123.5447296273
 30
0.0
 11
242.2704531978
 21
118.8353984646
 31
0.0
  0
SPLINE
  5
123
330
1F
100
AcDbEntity
  8
0
  6
Continuous
 62
     7
370
    18
100
AcDbSpline
210
0.0
220
0.0
230
1.0
 70
     8
 71
     3
 72
     9
 73
     5
 74
     0
 42
0.000000001
 43
0.00000001
 40
0.0
 40
0.0
 40
0.0
 40
0.0
 40
0.3354905641519704
 40
0.9999999999999999
 40
0.9999999999999999
 40
0.9999999999999999
 40
0.9999999999999999
 10
241.4440336362392
 20
117.6686722756089
 30
0.0
 10
241.5166893083516
 20
117.5280543532299
 30
0.0
 10
241.7332547795625
 20
117.1089131391261
 30
0.0
 10
242.0559915611373
 20
116.7442609242434
 30
0.0
 10
242.270453197789
 20
116.5019460866511
 30
0.0
  0
SPLINE
  5
124
330
1F
100
AcDbEntity
  8
0
  6
Continuous
 62
     7
370
    18
100
AcDbSpline
210
0.0
220
0.0
230
1.0
 70
     8
 71
     3
 72
     9
 73
     5
 74
     0
 42
0.000000001
 43
0.00000001
 40
0.0
 40
0.0
 40
0.0
 40
0.0
 40
0.664509435848038
 40
0.9999999999999999
 40
0.9999999999999999
 40
0.9999999999999999
 40
0.9999999999999999
 10
242.270453197789
 20
118.8353984645667
 30
0.0
 10
242.0559915611373
 20
118.5930836269743
 30
0.0
 10
241.7332547795625
 20
118.2284314120917
 30
0.0
 10
241.5166893083516
 20
117.8092901979879
 30
0.0
 10
241.4440336362392
 20
117.6686722756089
 30
0.0
  0
LINE
  5
125
330
1F
100
AcDbEntity
  8
0
  6
Continuous
 62
     7
370
    18
100
AcDbLine
 10
246.9797843605
 20
123.5447296273
 30
0.0
 11
246.4848096137
 21
124.0397043741
 31
0.0
  0
LINE
  5
126
330
1F
100
AcDbEntity
  8
0
  6
Continuous
 62
     7
370
    18
100
AcDbLine
 10
254.5175426479
 20
116.0069713398
 30
0.0
 11
254.0225679011
 21
116.5019460867
 31
0.0
  0
LINE
  5
127
330
1F
100
AcDbEntity
  8
0
  6
Continuous
 62
     7
370
    18
100
AcDbLine
 10
249.8082114852
 20
124.0397043741
 30
0.0
 11
249.3132367384
 21
123.5447296273
 31
0.0
  0
SPLINE
  5
128
330
1F
100
AcDbEntity
  8
0
  6
Continuous
 62
     7
370
    18
100
AcDbSpline
210
0.0
220
0.0
230
1.0
 70
    24
 71
     3
 72
    10
 73
     6
 74
     0
 42
0.000000001
 43
0.00000001
 40
0.0
 40
0.0
 40
0.0
 40
0.0
 40
0.2765306019329259
 40
0.5626682704061358
 40
1.0
 40
1.0
 40
1.0
 40
1.0
 10
254.51754264794
 20
119.3303732113973
 30
0.0
 10
254.4743414246774
 20
119.2871719881346
 30
0.0
 10
254.3864381061922
 20
119.1992686696494
 30
0.0
 10
254.2098226743661
 20
119.0226532378233
 30
0.0
 10
254.0931161215683
 20
118.9059466850254
 30
0.0
 10
254.0225679011095
 20
118.8353984645667
 30
0.0
  0
SPLINE
  5
129
330
1F
100
AcDbEntity
  8
0
  6
Continuous
 62
     7
370
    18
100
AcDbSpline
210
0.0
220
0.0
230
1.0
 70
    24
 71
     3
 72
    10
 73
     6
 74
     0
 42
0.000000001
 43
0.00000001
 40
0.0
 40
0.0
 40
0.0
 40
0.0
 40
0.2765306019329761
 40
0.5626682704061998
 40
1.0
 40
1.0
 40
1.0
 40
1.0
 10
246.9797843604914
 20
111.7926149239487
 30
0.0
 10
246.9365831372288
 20
111.749413700686
 30
0.0
 10
246.8486798187436
 20
111.6615103822008
 30
0.0
 10
246.6720643869175
 20
111.4848949503746
 30
0.0
 10
246.5553578341196
 20
111.3681883975768
 30
0.0
 10
246.4848096136608
 20
111.2976401771181
 30
0.0
  0
SPLINE
  5
12A
330
1F
100
AcDbEntity
  8
0
  6
Continuous
 62
     7
370
    18
100
AcDbSpline
210
0.0
220
0.0
230
1.0
 70
    24
 71
     3
 72
    10
 73
     6
 74
     0
 42
0.000000001
 43
0.00000001
 40
0.0
 40
0.0
 40
0.0
 40
0.0
 40
0.2765306019330265
 40
0.5626682704062579
 40
1.0
 40
1.0
 40
1.0
 40
1.0
 10
242.270453197789
 20
118.8353984645667
 30
0.0
 10
242.2272519745264
 20
118.8785996878293
 30
0.0
 10
242.1393486560411
 20
118.9665030063146
 30
0.0
 10
241.962733224215
 20
119.1431184381407
 30
0.0
 10
241.8460266714171
 20
119.2598249909385
 30
0.0
 10
241.7754784509584
 20
119.3303732113973
 30
0.0
  0
SPLINE
  5
12B
330
1F
100
AcDbEntity
  8
0
  6
Continuous
 62
     7
370
    18
100
AcDbSpline
210
0.0
220
0.0
230
1.0
 70
    24
 71
     3
 72
    10
 73
     6
 74
     0
 42
0.000000001
 43
0.00000001
 40
0.0
 40
0.0
 40
0.0
 40
0.0
 40
0.2765306019329773
 40
0.5626682704061955
 40
1.0
 40
1.0
 40
1.0
 40
1.0
 10
249.8082114852376
 20
111.2976401771181
 30
0.0
 10
249.765010261975
 20
111.3408414003808
 30
0.0
 10
249.6771069434898
 20
111.428744718866
 30
0.0
 10
249.5004915116637
 20
111.6053601506921
 30
0.0
 10
249.3837849588658
 20
111.7220667034899
 30
0.0
 10
249.313236738407
 20
111.7926149239487
 30
0.0
  0
LINE
  5
12C
330
1F
100
AcDbEntity
  8
0
  6
Continuous
 62
     7
370
    18
100
AcDbLine
 10
242.2704531978
 20
116.5019460867
 30
0.0
 11
241.775478451
 21
116.0069713398
 31
0.0
  0
CIRCLE
  5
12D
330
1F
100
AcDbEntity
  8
0
  6
Continuous
 62
     7
370
    18
100
AcDbCircle
 10
248.1465105494
 20
117.6686722756
 30
0.0
 40
3.668750000000022
  0
LINE
  5
12E
330
1F
100
AcDbEntity
  8
0
  6
Continuous
 62
     7
370
    18
100
AcDbLine
 10
192.4610812456
 20
122.3541015795
 30
0.0
 11
192.4610812456
 21
185.3541015795
 31
0.0
  0
LINE
  5
12F
330
1F
100
AcDbEntity
  8
0
  6
Continuous
 62
     7
370
    18
100
AcDbLine
 10
229.1937542576
 20
185.3535377641
 30
0.0
 11
229.1937542576
 21
185.3541015795
 31
0.0
  0
LINE
  5
130
330
1F
100
AcDbEntity
  8
0
  6
Continuous
 62
     7
370
    18
100
AcDbLine
 10
229.1937542576
 20
122.3541015795
 30
0.0
 11
229.1937542576
 21
122.3546653949
 31
0.0
  0
LINE
  5
131
330
1F
100
AcDbEntity
  8
0
  6
Continuous
 62
     7
370
    18
100
AcDbLine
 10
225.7694882157
 20
122.6282840569
 30
0.0
 11
225.7694882157
 21
185.0799191021
 31
0.0
  0
LINE
  5
132
330
1F
100
AcDbEntity
  8
0
  6
Continuous
 62
     7
370
    18
100
AcDbLine
 10
202.0558253573
 20
143.9447322588
 30
0.0
 11
202.0558253573
 21
123.9533591194
 31
0.0
  0
LINE
  5
133
330
1F
100
AcDbEntity
  8
0
  6
Continuous
 62
     7
370
    18
100
AcDbLine
 10
202.4888380592
 20
144.4660351482
 30
0.0
 11
202.4888380592
 21
123.7856096206
 31
0.0
  0
LINE
  5
134
330
1F
100
AcDbEntity
  8
0
  6
Continuous
 62
     7
370
    18
100
AcDbLine
 10
202.4888380592
 20
183.9225935384
 30
0.0
 11
202.4888380592
 21
163.2421680108
 31
0.0
  0
LINE
  5
135
330
1F
100
AcDbEntity
  8
0
  6
Continuous
 62
     7
370
    18
100
AcDbLine
 10
202.0558253573
 20
183.7548440396
 30
0.0
 11
202.0558253573
 21
163.7634709002
 31
0.0
  0
LINE
  5
136
330
1F
100
AcDbEntity
  8
0
  6
Continuous
 62
     7
370
    18
100
AcDbLine
 10
205.433324432
 20
144.4660351482
 30
0.0
 11
205.433324432
 21
123.7856096206
 31
0.0
  0
LINE
  5
137
330
1F
100
AcDbEntity
  8
0
  6
Continuous
 62
     7
370
    18
100
AcDbLine
 10
205.8663371339
 20
143.9447322588
 30
0.0
 11
205.8663371339
 21
123.9533591194
 31
0.0
  0
LINE
  5
138
330
1F
100
AcDbEntity
  8
0
  6
Continuous
 62
     7
370
    18
100
AcDbLine
 10
205.8663371339
 20
183.7548440396
 30
0.0
 11
205.8663371339
 21
163.7634709002
 31
0.0
  0
LINE
  5
139
330
1F
100
AcDbEntity
  8
0
  6
Continuous
 62
     7
370
    18
100
AcDbLine
 10
205.433324432
 20
183.9225935384
 30
0.0
 11
205.433324432
 21
163.2421680108
 31
0.0
  0
LINE
  5
13A
330
1F
100
AcDbEntity
  8
0
  6
Continuous
 62
     7
370
    18
100
AcDbLine
 10
190.639760902
 20
148.6679272507
 30
0.0
 11
190.639760902
 21
159.0402759083
 31
0.0
  0
LINE
  5
13B
330
1F
100
AcDbEntity
  8
0
  6
Continuous
 62
     7
370
    18
100
AcDbLine
 10
189.9660412676
 20
147.4663802177
 30
0.0
 11
191.1445689591
 21
147.4515758588
 31
0.0
  0
LINE
  5
13C
330
1F
100
AcDbEntity
  8
0
  6
Continuous
 62
     7
370
    18
100
AcDbLine
 10
189.9660412676
 20
160.2418229413
 30
0.0
 11
189.9660412676
 21
147.4663802177
 31
0.0
  0
LINE
  5
13D
330
1F
100
AcDbEntity
  8
0
  6
Continuous
 62
     7
370
    18
100
AcDbLine
 10
189.9660412676
 20
160.2418229413
 30
0.0
 11
191.1445689591
 21
160.2566273001
 31
0.0
  0
LWPOLYLINE
  5
13E
330
1F
100
AcDbEntity
  8
0
  6
Continuous
 62
     7
370
    18
100
AcDbPolyline
 90
        9
 70
   128
 43
0.0
 10
189.7610812456
 20
147.3689233178
 10
189.7659029376
 20
147.3883779371
 10
189.7782227981
 20
147.4069884087
 10
189.7975673817
 20
147.4240395425
 10
189.8231932869
 20
147.438876073
 10
189.8541157246
 20
147.4509278407
 10
189.8891463627
 20
147.4597317028
 10
189.9269389936
 20
147.4649493321
 10
189.9660412676
 20
147.4663802177
  0
LWPOLYLINE
  5
13F
330
1F
100
AcDbEntity
  8
0
  6
Continuous
 62
     7
370
    18
100
AcDbPolyline
 90
        9
 70
   128
 43
0.0
 10
189.7610812456
 20
160.3392798412
 10
189.7659029376
 20
160.3198252218
 10
189.7782227981
 20
160.3012147503
 10
189.7975673817
 20
160.2841636165
 10
189.8231932869
 20
160.269327086
 10
189.8541157246
 20
160.2572753183
 10
189.8891463627
 20
160.2484714561
 10
189.9269389936
 20
160.2432538269
 10
189.9660412676
 20
160.2418229413
  0
LINE
  5
140
330
1F
100
AcDbEntity
  8
0
  6
Continuous
 62
     7
370
    18
100
AcDbLine
 10
155.4610812456
 20
147.7997910119
 30
0.0
 11
189.7610812456
 21
147.3689233178
 31
0.0
  0
LINE
  5
141
330
1F
100
AcDbEntity
  8
0
  6
Continuous
 62
     7
370
    18
100
AcDbLine
 10
155.4610812456
 20
159.908412147
 30
0.0
 11
189.7610812456
 21
160.3392798412
 31
0.0
  0
LINE
  5
142
330
1F
100
AcDbEntity
  8
0
  6
Continuous
 62
     7
370
    18
100
AcDbLine
 10
153.9610812456
 20
148.2328037138
 30
0.0
 11
155.4610812456
 21
147.7997910119
 31
0.0
  0
LINE
  5
143
330
1F
100
AcDbEntity
  8
0
  6
Continuous
 62
     7
370
    18
100
AcDbLine
 10
153.9610812456
 20
159.4753994451
 30
0.0
 11
155.4610812456
 21
159.908412147
 31
0.0
  0
LINE
  5
144
330
1F
100
AcDbEntity
  8
0
  6
Continuous
 62
     7
370
    18
100
AcDbLine
 10
189.9660412676
 20
160.2418229413
 30
0.0
 11
189.9660412676
 21
175.6792865642
 31
0.0
  0
LINE
  5
145
330
1F
100
AcDbEntity
  8
0
  6
Continuous
 62
     7
370
    18
100
AcDbLine
 10
189.9660412676
 20
132.0289165947
 30
0.0
 11
189.9660412676
 21
147.4663802177
 31
0.0
  0
LINE
  5
146
330
1F
100
AcDbEntity
  8
0
  6
Continuous
 62
     7
370
    18
100
AcDbLine
 10
191.5661043567
 20
131.9887306916
 30
0.0
 11
191.5661043567
 21
147.4214984789
 31
0.0
  0
LINE
  5
147
330
1F
100
AcDbEntity
  8
0
  6
Continuous
 62
     7
370
    18
100
AcDbLine
 10
191.5661043567
 20
160.2867046801
 30
0.0
 11
191.5661043567
 21
175.7194724674
 31
0.0
  0
LINE
  5
148
330
1F
100
AcDbEntity
  8
0
  6
Continuous
 62
     7
370
    18
100
AcDbLine
 10
231.5650431735
 20
116.3692346365
 30
0.0
 11
231.5650431735
 21
185.8526952986
 31
0.0
  0
LINE
  5
149
330
1F
100
AcDbEntity
  8
VERMASSUNG
100
AcDbLine
 10
256.9610812456
 20
153.8541015795
 30
0.0
 11
256.9610812456
 21
108.8541015795
 31
0.0
  0
LINE
  5
14A
330
1F
100
AcDbEntity
  8
VERMASSUNG
100
AcDbLine
 10
256.9610812456
 20
108.8541015795
 30
0.0
 11
212.751553252
 21
108.8541015795
 31
0.0
  0
DIMENSION
  5
14B
330
1F
100
AcDbEntity
  8
VERMASSUNG
100
AcDbDimension
  2
_D
 10
267.1267666705
 20
153.8541015795
 30
0.0
 11
267.1267666705
 21
131.3541015795
 31
0.0
 70
   160
  1
<>
 71
     2
 42
-1.0
  3
SLDDIMSTYLE0
100
AcDbAlignedDimension
 13
256.9610812456
 23
108.8541015795
 33
0.0
 14
263.0278221347
 24
153.8541015795
 34
0.0
 50
90.0
100
AcDbRotatedDimension
  0
DIMENSION
  5
158
330
1F
100
AcDbEntity
  8
VERMASSUNG
100
AcDbDimension
  2
_D_1
 10
191.9610812456
 20
92.2988673528
 30
0.0
 11
224.4610812456
 21
92.2988673528
 31
0.0
 70
   160
  1
<>
 71
     2
 42
-1.0
  3
SLDDIMSTYLE0
100
AcDbAlignedDimension
 13
256.9610812456
 23
108.8541015795
 33
0.0
 14
191.9610812456
 24
122.8541015795
 34
0.0
100
AcDbRotatedDimension
  0
DIMENSION
  5
164
330
1F
100
AcDbEntity
  8
VERMASSUNG
100
AcDbDimension
  2
_D_2
 10
153.9610812456
 20
83.625855796
 30
0.0
 11
205.4610812456
 21
83.625855796
 31
0.0
 70
   160
  1
<>
 71
     2
 42
-1.0
  3
SLDDIMSTYLE1
100
AcDbAlignedDimension
 13
256.9610812456
 23
108.8541015795
 33
0.0
 14
153.9610812456
 24
133.561763587
 34
0.0
100
AcDbRotatedDimension
  0
DIMENSION
  5
16F
330
1F
100
AcDbEntity
  8
VERMASSUNG
100
AcDbDimension
  2
_D_3
 10
256.9610812456
 20
108.8541015795
 30
0.0
 11
249.961903555
 21
100.6054771445
 31
0.0
 70
   162
  1
<>
 71
     1
 42
-1.0
  3
SLDDIMSTYLE2
100
AcDb2LineAngularDimension
 13
248.4293532619
 23
108.971258867
 33
0.0
 14
256.843923958
 24
117.3858295631
 34
0.0
 15
256.9610812456
 25
153.8541015795
 35
0.0
 16
249.961903555
 26
100.6054771445
 36
0.0
  0
DIMENSION
  5
17A
330
1F
100
AcDbEntity
  8
VERMASSUNG
100
AcDbDimension
  2
_D_4
 10
143.9610812456
 20
122.3541015795
 30
0.0
 11
143.9610812456
 21
153.8541015795
 31
0.0
 70
   160
  1
PSC%%c<>
 71
     2
 42
-1.0
  3
SLDDIMSTYLE1
100
AcDbAlignedDimension
 13
192.4610812456
 23
185.3541015795
 33
0.0
 14
192.4610812456
 24
122.3541015795
 34
0.0
 50
90.0
100
AcDbRotatedDimension
  0
LINE
  5
186
330
1F
100
AcDbEntity
  8
VERMASSUNG
  6
CENTERX2
370
    18
100
AcDbLine
 10
263.0278221347
 20
153.8541015795
 30
0.0
 11
148.730075188
 21
153.8541015795
 31
0.0
  0
LINE
  5
187
330
1F
100
AcDbEntity
  8
0
  6
Continuous
 62
     7
370
    25
100
AcDbLine
 10
74.1840172882
 20
126.0832429717
 30
0.0
 11
70.9262787171
 21
126.4832429717
 31
0.0
  0
LINE
  5
188
330
1F
100
AcDbEntity
  8
0
  6
Continuous
 62
     7
370
    25
100
AcDbLine
 10
70.9262787171
 20
108.8541015795
 30
0.0
 11
74.1840172882
 21
109.2541015795
 31
0.0
  0
LINE
  5
189
330
1F
100
AcDbEntity
  8
0
  6
Continuous
 62
     7
370
    25
100
AcDbLine
 10
70.9262787171
 20
117.3858295631
 30
0.0
 11
70.9262787171
 21
117.9515149881
 31
0.0
  0
LINE
  5
18A
330
1F
100
AcDbEntity
  8
0
  6
Continuous
 62
     7
370
    25
100
AcDbLine
 10
74.1840172882
 20
117.6686722756
 30
0.0
 11
70.9262787171
 21
117.9515149881
 31
0.0
  0
LINE
  5
18B
330
1F
100
AcDbEntity
  8
0
  6
Continuous
 62
     7
370
    25
100
AcDbLine
 10
74.1840172882
 20
117.6686722756
 30
0.0
 11
70.9262787171
 21
117.3858295631
 31
0.0
  0
LINE
  5
18C
330
1F
100
AcDbEntity
  8
0
  6
Continuous
 62
     7
370
    25
100
AcDbLine
 10
74.1840172882
 20
126.0832429717
 30
0.0
 11
70.9262787171
 21
126.3660856842
 31
0.0
  0
LINE
  5
18D
330
1F
100
AcDbEntity
  8
0
  6
Continuous
 62
     7
370
    25
100
AcDbLine
 10
75.6862787171
 20
125.8223849022
 30
0.0
 11
74.1840172882
 21
126.0832429717
 31
0.0
  0
LINE
  5
18E
330
1F
100
AcDbEntity
  8
0
  6
Continuous
 62
     7
370
    25
100
AcDbLine
 10
75.6862787171
 20
117.6686722756
 30
0.0
 11
75.6862787171
 21
125.8223849022
 31
0.0
  0
LINE
  5
18F
330
1F
100
AcDbEntity
  8
0
  6
Continuous
 62
     7
370
    25
100
AcDbLine
 10
75.6862787171
 20
117.6686722756
 30
0.0
 11
74.1840172882
 21
117.6686722756
 31
0.0
  0
LINE
  5
190
330
1F
100
AcDbEntity
  8
0
  6
Continuous
 62
     7
370
    25
100
AcDbLine
 10
70.9262787171
 20
117.9515149881
 30
0.0
 11
70.9262787171
 21
126.3660856842
 31
0.0
  0
LINE
  5
191
330
1F
100
AcDbEntity
  8
0
  6
Continuous
 62
     7
370
    25
100
AcDbLine
 10
75.6862787171
 20
109.514959649
 30
0.0
 11
75.6862787171
 21
117.6686722756
 31
0.0
  0
LINE
  5
192
330
1F
100
AcDbEntity
  8
0
  6
Continuous
 62
     7
370
    25
100
AcDbLine
 10
75.6862787171
 20
109.514959649
 30
0.0
 11
74.1840172882
 21
109.2541015795
 31
0.0
  0
LINE
  5
193
330
1F
100
AcDbEntity
  8
0
  6
Continuous
 62
     7
370
    25
100
AcDbLine
 10
74.1840172882
 20
109.2541015795
 30
0.0
 11
70.9262787171
 21
108.971258867
 31
0.0
  0
LINE
  5
194
330
1F
100
AcDbEntity
  8
0
  6
Continuous
 62
     7
370
    25
100
AcDbLine
 10
70.9262787171
 20
108.971258867
 30
0.0
 11
70.9262787171
 21
117.3858295631
 31
0.0
  0
LINE
  5
195
330
1F
100
AcDbEntity
  8
0
  6
Continuous
 62
     7
370
    25
100
AcDbLine
 10
70.9262787171
 20
126.3660856842
 30
0.0
 11
70.9262787171
 21
126.4832429717
 31
0.0
  0
LINE
  5
196
330
1F
100
AcDbEntity
  8
0
  6
Continuous
 62
     7
370
    25
100
AcDbLine
 10
70.9262787171
 20
108.8541015795
 30
0.0
 11
70.9262787171
 21
108.971258867
 31
0.0
  0
LINE
  5
197
330
1F
100
AcDbEntity
  8
0
  6
Continuous
 62
     7
370
    25
100
AcDbLine
 10
102.9262787171
 20
122.2155175404
 30
0.0
 11
102.9262787171
 21
122.2817651783
 31
0.0
  0
ARC
  5
198
330
1F
100
AcDbEntity
  8
0
  6
Continuous
 62
     7
370
    25
100
AcDbCircle
 10
70.9262787171
 20
153.8541015795
 30
0.0
 40
45.00000000000001
100
AcDbArc
 50
307.2284715773
 51
315.3253904356
  0
LINE
  5
199
330
1F
100
AcDbEntity
  8
0
  6
Continuous
 62
     7
370
    25
100
AcDbLine
 10
75.6862787171
 20
118.0237794513
 30
0.0
 11
98.1510471493
 21
118.0237794513
 31
0.0
  0
LINE
  5
19A
330
1F
100
AcDbEntity
  8
0
  6
Continuous
 62
     7
370
    25
100
AcDbLine
 10
75.6862787171
 20
109.6385560894
 30
0.0
 11
83.2053119427
 21
110.5617772824
 31
0.0
  0
LINE
  5
19B
330
1F
100
AcDbEntity
  8
0
  6
Continuous
 62
     7
370
    25
100
AcDbLine
 10
97.1871613719
 20
117.3114410005
 30
0.0
 11
75.6862787171
 21
117.3114410005
 31
0.0
  0
ARC
  5
19C
330
1F
100
AcDbEntity
  8
0
  6
Continuous
 62
     7
370
    25
100
AcDbCircle
 10
70.9262787171
 20
153.8541015795
 30
0.0
 40
44.99999999999999
100
AcDbArc
 50
285.8349656535
 51
305.7023959634
  0
ARC
  5
19D
330
1F
100
AcDbEntity
  8
0
  6
Continuous
 62
     7
370
    25
100
AcDbCircle
 10
70.9262787171
 20
153.8541015795
 30
0.0
 40
45.00000000000001
100
AcDbArc
 50
305.7023959634
 51
307.2284715773
  0
LINE
  5
19E
330
1F
100
AcDbEntity
  8
0
  6
Continuous
 62
     7
370
    25
100
AcDbLine
 10
75.6862787171
 20
126.0218893371
 30
0.0
 11
73.1862787172
 21
126.2389438262
 31
0.0
  0
ELLIPSE
  5
19F
330
1F
100
AcDbEntity
  8
0
  6
Continuous
 62
     7
370
    25
100
AcDbEllipse
 10
87.5854867109
 20
130.0254335541
 30
0.0
 11
73.2910352360222
 21
-12.82173379661333
 31
0.0
210
0.0
220
0.0
230
1.0
 40
0.0848949017
 41
4.502159740923737
 42
4.529509203426204
  0
LINE
  5
1A0
330
1F
100
AcDbEntity
  8
0
  6
Continuous
 62
     7
370
    25
100
AcDbLine
 10
71.2262787171
 20
129.0424155019
 30
0.0
 11
71.2262787171
 21
126.6160801876
 31
0.0
  0
LINE
  5
1A1
330
1F
100
AcDbEntity
  8
0
  6
Continuous
 62
     7
370
    25
100
AcDbLine
 10
102.9262787171
 20
122.2817651783
 30
0.0
 11
102.9262787171
 21
126.2901645802
 31
0.0
  0
LINE
  5
1A2
330
1F
100
AcDbEntity
  8
0
  6
Continuous
 62
     7
370
    25
100
AcDbLine
 10
75.6862787171
 20
126.0218893371
 30
0.0
 11
75.6862787171
 21
125.8223849022
 31
0.0
  0
LINE
  5
1A3
330
1F
100
AcDbEntity
  8
0
  6
Continuous
 62
     7
370
    25
100
AcDbLine
 10
71.2262787171
 20
126.6160801876
 30
0.0
 11
71.2262787171
 21
126.4464076035
 31
0.0
  0
LINE
  5
1A4
330
1F
100
AcDbEntity
  8
0
  6
Continuous
 62
     7
370
    25
100
AcDbLine
 10
73.1862787172
 20
126.2057498641
 30
0.0
 11
73.1862787172
 21
126.2389438262
 31
0.0
  0
LINE
  5
1A5
330
1F
100
AcDbEntity
  8
0
  6
Continuous
 62
     7
370
    25
100
AcDbLine
 10
102.9262787171
 20
126.2901645802
 30
0.0
 11
102.9262787171
 21
153.8541015795
 31
0.0
  0
ARC
  5
1A6
330
1F
100
AcDbEntity
  8
0
  6
Continuous
 62
     7
370
    25
100
AcDbCircle
 10
70.9262787171
 20
153.8541015795
 30
0.0
 40
32.00000000000004
100
AcDbArc
 50
0.0
 51
89.4628441984
  0
LINE
  5
1A7
330
1F
100
AcDbEntity
  8
0
  6
Continuous
 62
     7
370
    25
100
AcDbLine
 10
71.2262787171
 20
185.8526952986
 30
0.0
 11
71.2262787171
 21
129.0424155019
 31
0.0
  0
SPLINE
  5
1A8
330
1F
100
AcDbEntity
  8
0
  6
Continuous
 62
     7
370
    25
100
AcDbSpline
210
0.0
220
0.0
230
1.0
 70
     8
 71
     3
 72
     9
 73
     5
 74
     0
 42
0.000000001
 43
0.00000001
 40
0.0
 40
0.0
 40
0.0
 40
0.0
 40
0.6518647949664785
 40
1.0
 40
1.0
 40
1.0
 40
1.0
 10
70.73781106999805
 20
122.3546653949156
 30
0.0
 10
70.7861208548066
 20
122.3475463402108
 30
0.0
 10
70.86023098497711
 20
122.3366252799546
 30
0.0
 10
70.9092229048221
 20
122.2343262445526
 30
0.0
 10
70.92627871688232
 20
122.1987123488882
 30
0.0
  0
SPLINE
  5
1A9
330
1F
100
AcDbEntity
  8
0
  6
Continuous
 62
     7
370
    25
100
AcDbSpline
210
0.0
220
0.0
230
1.0
 70
     8
 71
     3
 72
    14
 73
    10
 74
     0
 42
0.000000001
 43
0.00000001
 40
0.0
 40
0.0
 40
0.0
 40
0.0
 40
0.25
 40
0.25
 40
0.5
 40
0.5
 40
0.75
 40
0.75
 40
1.0
 40
1.0
 40
1.0
 40
1.0
 10
66.77919298766871
 20
122.6282840569143
 30
0.0
 10
67.21607111530282
 20
122.5702624839872
 30
0.0
 10
67.63278952389487
 20
122.5242159125388
 30
0.0
 10
68.42642434986278
 20
122.4509244295181
 30
0.0
 10
68.80594873033299
 20
122.4236947222181
 30
0.0
 10
69.48684000787684
 20
122.3851598961612
 30
0.0
 10
69.79369638882363
 20
122.3733148176659
 30
0.0
 10
70.33267063888331
 20
122.3585414586859
 30
0.0
 10
70.55760318412484
 20
122.3557436159996
 30
0.0
 10
70.73781106999805
 20
122.3546653949155
 30
0.0
  0
SPLINE
  5
1AA
330
1F
100
AcDbEntity
  8
0
  6
Continuous
 62
     7
370
    25
100
AcDbSpline
210
0.0
220
0.0
230
1.0
 70
     8
 71
     3
 72
    14
 73
    10
 74
     0
 42
0.000000001
 43
0.00000001
 40
0.0
 40
0.0
 40
0.0
 40
0.0
 40
0.25
 40
0.25
 40
0.5
 40
0.5
 40
0.75
 40
0.75
 40
1.0
 40
1.0
 40
1.0
 40
1.0
 10
70.73781106999805
 20
185.3535377640624
 30
0.0
 10
70.55759949373049
 20
185.3524595208979
 30
0.0
 10
70.3336986494092
 20
185.349650886351
 30
0.0
 10
69.80181632000121
 20
185.3351492366932
 30
0.0
 10
69.48982201777508
 20
185.3231772210007
 30
0.0
 10
68.80935118598659
 20
185.2847354803237
 30
0.0
 10
68.43809040403463
 20
185.2582628818434
 30
0.0
 10
67.63544120588587
 20
185.1843236766978
 30
0.0
 10
67.21609833051674
 20
185.1379442894301
 30
0.0
 10
66.77919298766871
 20
185.0799191020637
 30
0.0
  0
SPLINE
  5
1AB
330
1F
100
AcDbEntity
  8
0
  6
Continuous
 62
     7
370
    25
100
AcDbSpline
210
0.0
220
0.0
230
1.0
 70
     8
 71
     3
 72
    12
 73
     8
 74
     0
 42
0.000000001
 43
0.00000001
 40
0.0
 40
0.0
 40
0.0
 40
0.0
 40
0.4999999999999956
 40
0.4999999999999956
 40
0.7499999999999978
 40
0.7499999999999978
 40
1.0
 40
1.0
 40
1.0
 40
1.0
 10
71.0343921594062
 20
185.8539189458986
 30
0.0
 10
71.01099967744187
 20
185.6976609100189
 30
0.0
 10
70.9739661432519
 20
185.5680526608642
 30
0.0
 10
70.89880144148117
 20
185.4399097424724
 30
0.0
 10
70.8701447267604
 20
185.4072888042368
 30
0.0
 10
70.8076929587272
 20
185.3643750642906
 30
0.0
 10
70.77405223960197
 20
185.353754602482
 30
0.0
 10
70.73781106999805
 20
185.3535377640624
 30
0.0
  0
SPLINE
  5
1AC
330
1F
100
AcDbEntity
  8
0
  6
Continuous
 62
     7
370
    25
100
AcDbSpline
210
0.0
220
0.0
230
1.0
 70
     8
 71
     3
 72
     8
 73
     4
 74
     0
 42
0.000000001
 43
0.00000001
 40
0.0
 40
0.0
 40
0.0
 40
0.0
 40
1.0
 40
1.0
 40
1.0
 40
1.0
 10
71.22627871705352
 20
185.8526952985886
 30
0.0
 10
71.22627871705352
 20
185.8526952985886
 30
0.0
 10
71.16163707797043
 20
185.8534890407525
 30
0.0
 10
71.03439215940593
 20
185.8539189458988
 30
0.0
  0
ELLIPSE
  5
1AD
330
1F
100
AcDbEntity
  8
0
  6
Continuous
 62
     7
370
    25
100
AcDbEllipse
 10
58.7113669404
 20
136.2892426198
 30
0.0
 11
-2.156649216542248
 21
3.149035452977528
 31
0.0
210
0.0
220
0.0
230
1.0
 40
0.6401414518
 41
0.0
 42
6.283185307179586
  0
ARC
  5
1AE
330
1F
100
AcDbEntity
  8
0
  6
Continuous
 62
     7
370
    25
100
AcDbCircle
 10
70.9262787171
 20
153.8541015795
 30
0.0
 40
31.50000000000002
100
AcDbArc
 50
97.5651530928
 51
262.4348469072
  0
INSERT
  5
1BA
330
1F
100
AcDbEntity
  8
VERMASSUNG
100
AcDbBlockReference
  2
SW_CENTERMARKSYMBOL_0
 10
70.9262787171
 20
153.8541015795
 30
0.0
  0
ARC
  5
1BB
330
1F
100
AcDbEntity
  8
0
  6
Continuous
 62
     7
370
    25
100
AcDbCircle
 10
213.5005900918
 20
49.1460899625
 30
0.0
 40
1.249999999999998
100
AcDbArc
 50
91.103241814
 51
187.2277565647
  0
LWPOLYLINE
  5
1BC
330
1F
100
AcDbEntity
  8
0
  6
Continuous
 62
     7
370
    25
100
AcDbPolyline
 90
        3
 70
   128
 43
0.0
 10
214.0685916029
 20
50.2595863853
 10
213.8639001622
 20
50.3421275007
 10
213.4765225765
 20
50.395858243
  0
LINE
  5
1BD
330
1F
100
AcDbEntity
  8
0
  6
Continuous
 62
     7
370
    25
100
AcDbLine
 10
216.1867870367
 20
27.5294087031
 30
0.0
 11
216.1867870367
 21
27.4477546219
 31
0.0
  0
LINE
  5
1BE
330
1F
100
AcDbEntity
  8
0
  6
Continuous
 62
     7
370
    25
100
AcDbLine
 10
219.6867870367
 20
27.4477546219
 30
0.0
 11
219.6867870367
 21
27.5294087031
 31
0.0
  0
LINE
  5
1BF
330
1F
100
AcDbEntity
  8
0
  6
Continuous
 62
     7
370
    25
100
AcDbLine
 10
218.6206753858
 20
27.5615300081
 30
0.0
 11
218.6206753858
 21
27.3269112756
 31
0.0
  0
LINE
  5
1C0
330
1F
100
AcDbEntity
  8
0
  6
Continuous
 62
     7
370
    25
100
AcDbLine
 10
217.2520223787
 20
27.4550032662
 30
0.0
 11
217.2520223787
 21
27.8284815702
 31
0.0
  0
LINE
  5
1C1
330
1F
100
AcDbEntity
  8
0
  6
Continuous
 62
     7
370
    25
100
AcDbLine
 10
220.9480404828
 20
24.6651460447
 30
0.0
 11
221.1472855004
 21
25.9851616916
 31
0.0
  0
LINE
  5
1C2
330
1F
100
AcDbEntity
  8
0
  6
Continuous
 62
     7
370
    25
100
AcDbLine
 10
214.7987954653
 20
25.9851616916
 30
0.0
 11
214.9980404828
 21
24.6651460447
 31
0.0
  0
LINE
  5
1C3
330
1F
100
AcDbEntity
  8
0
  6
Continuous
 62
     7
370
    25
100
AcDbLine
 10
208.6276788831
 20
29.692575798
 30
0.0
 11
209.8985085373
 21
28.9589414545
 31
0.0
  0
LINE
  5
1C4
330
1F
100
AcDbEntity
  8
0
  6
Continuous
 62
     7
370
    25
100
AcDbLine
 10
203.2043893468
 20
32.8233742065
 30
0.0
 11
205.912827794
 21
31.2598259719
 31
0.0
  0
LINE
  5
1C5
330
1F
100
AcDbEntity
  8
0
  6
Continuous
 62
     7
370
    25
100
AcDbLine
 10
221.661547833
 20
58.5403651369
 30
0.0
 11
218.9531093858
 21
60.1039133715
 31
0.0
  0
LINE
  5
1C6
330
1F
100
AcDbEntity
  8
0
  6
Continuous
 62
     7
370
    25
100
AcDbLine
 10
229.0120096989
 20
54.2970338236
 30
0.0
 11
224.3763989222
 21
56.973114963
 31
0.0
  0
LINE
  5
1C7
330
1F
100
AcDbEntity
  8
0
  6
Continuous
 62
     7
370
    25
100
AcDbLine
 10
214.6381204938
 20
18.4288041996
 30
0.0
 11
219.0936403563
 21
15.856687332
 31
0.0
  0
SPLINE
  5
1C8
330
1F
100
AcDbEntity
  8
0
  6
Continuous
 62
     7
370
    25
100
AcDbSpline
210
0.0
220
0.0
230
1.0
 70
     8
 71
     3
 72
    10
 73
     6
 74
     0
 42
0.000000001
 43
0.00000001
 40
0.0
 40
0.0
 40
0.0
 40
0.0
 40
0.1470468888579869
 40
0.8829451831725875
 40
1.0
 40
1.0
 40
1.0
 40
1.0
 10
213.6929102203157
 20
19.08079529385378
 30
0.0
 10
213.7387623969799
 20
19.04129612781147
 30
0.0
 10
214.0140824587505
 20
18.80412281073377
 30
0.0
 10
214.3585761305202
 20
18.58338871096018
 30
0.0
 10
214.663500138211
 20
18.41646181095205
 30
0.0
 10
214.7053463116997
 20
18.39355363763189
 30
0.0
  0
SPLINE
  5
1C9
330
1F
100
AcDbEntity
  8
0
  6
Continuous
 62
     7
370
    25
100
AcDbSpline
210
0.0
220
0.0
230
1.0
 70
     8
 71
     3
 72
    14
 73
    10
 74
     0
 42
0.000000001
 43
0.00000001
 40
0.0
 40
0.0
 40
0.0
 40
0.0
 40
0.1425071927737872
 40
0.2914195111703997
 40
0.4400115645963633
 40
0.588160816948557
 40
0.7357609157547452
 40
0.8827539598954227
 40
1.0
 40
1.0
 40
1.0
 40
1.0
 10
210.3135932197901
 20
24.71847279352134
 30
0.0
 10
210.4043688371988
 20
24.38066093535652
 30
0.0
 10
210.5900000712195
 20
23.68985393356381
 30
0.0
 10
210.9611172233739
 20
22.72513084046869
 30
0.0
 10
211.4023582635401
 20
21.81153351341236
 30
0.0
 10
211.9126686190099
 20
20.97340676316009
 30
0.0
 10
212.4894492788955
 20
20.21676155065249
 30
0.0
 10
213.0797987893955
 20
19.57858898380719
 30
0.0
 10
213.5044759070754
 20
19.23378773107019
 30
0.0
 10
213.6929102203157
 20
19.08079529385378
 30
0.0
  0
SPLINE
  5
1CA
330
1F
100
AcDbEntity
  8
0
  6
Continuous
 62
     7
370
    25
100
AcDbSpline
210
0.0
220
0.0
230
1.0
 70
     8
 71
     3
 72
    32
 73
    28
 74
     0
 42
0.000000001
 43
0.00000001
 40
0.0
 40
0.0
 40
0.0
 40
0.0
 40
0.0156671743607198
 40
0.056412774531598
 40
0.0972642896290921
 40
0.1381897586056573
 40
0.1791595276984108
 40
0.2201505134102756
 40
0.2611454460862048
 40
0.3021339143901911
 40
0.3431119202464803
 40
0.3840781161659495
 40
0.4250328154041078
 40
0.4659773241046462
 40
0.5069135161170369
 40
0.5478435757703234
 40
0.588769850597985
 40
0.6296947726892169
 40
0.670620730418545
 40
0.7115494890799969
 40
0.7524835698892668
 40
0.7934254883776976
 40
0.8343777069581513
 40
0.8753425405420661
 40
0.9163219820310519
 40
0.9573174000470538
 40
0.9999999999999999
 40
0.9999999999999999
 40
0.9999999999999999
 40
0.9999999999999999
 10
215.4797927334282
 20
60.83516414721002
 30
0.0
 10
215.3734603196132
 20
60.83071125995823
 30
0.0
 10
214.9905893342119
 20
60.81467775456881
 30
0.0
 10
214.3037041726915
 20
60.68866589811419
 30
0.0
 10
213.4256536247775
 20
60.45925255862191
 30
0.0
 10
212.5304100528061
 20
60.13159847721573
 30
0.0
 10
211.6262549133138
 20
59.71562488064898
 30
0.0
 10
210.7187001599809
 20
59.2121655867023
 30
0.0
 10
209.8139440128475
 20
58.62528080020856
 30
0.0
 10
208.9178742946968
 20
57.95885733633666
 30
0.0
 10
208.0362988543965
 20
57.21744132256686
 30
0.0
 10
207.1748725055025
 20
56.40596405336159
 30
0.0
 10
206.3391135675259
 20
55.5297897508369
 30
0.0
 10
205.5343745336143
 20
54.59466986196357
 30
0.0
 10
204.7658153852091
 20
53.60671638493815
 30
0.0
 10
204.038373326632
 20
52.57236587245077
 30
0.0
 10
203.3567326274204
 20
51.49834155704453
 30
0.0
 10
202.7252951481215
 20
50.39161252296024
 30
0.0
 10
202.1481562340913
 20
49.25935641897032
 30
0.0
 10
201.6290697593602
 20
48.1089047652809
 30
0.0
 10
201.1714396487756
 20
46.94770229972689
 30
0.0
 10
200.7782419304872
 20
45.7832208106249
 30
0.0
 10
200.4522232293422
 20
44.62303479021447
 30
0.0
 10
200.1950991203968
 20
43.47433816111561
 30
0.0
 10
200.0104912251509
 20
42.34552900921861
 30
0.0
 10
199.8913233466535
 20
41.2250659929995
 30
0.0
 10
199.876271781293
 20
40.5041875848269
 30
0.0
 10
199.86859425787
 20
40.13648092234159
 30
0.0
  0
SPLINE
  5
1CB
330
1F
100
AcDbEntity
  8
0
  6
Continuous
 62
     7
370
    25
100
AcDbSpline
210
0.0
220
0.0
230
1.0
 70
     8
 71
     3
 72
    13
 73
     9
 74
     0
 42
0.000000001
 43
0.00000001
 40
0.0
 40
0.0
 40
0.0
 40
0.0
 40
0.102223297988244
 40
0.2963671923968753
 40
0.4905792308557748
 40
0.6847298192483725
 40
0.8787120482626039
 40
1.0
 40
1.0
 40
1.0
 40
1.0
 10
199.86859425787
 20
40.13648092234159
 30
0.0
 10
199.8706493281804
 20
39.95374521921644
 30
0.0
 10
199.8766074163076
 20
39.42395535377796
 30
0.0
 10
199.9431538331165
 20
38.58045582913036
 30
0.0
 10
200.0913873186487
 20
37.62701187250575
 30
0.0
 10
200.3166387076023
 20
36.73432092358328
 30
0.0
 10
200.5669667394821
 20
35.99839019414326
 30
0.0
 10
200.7709253652194
 20
35.59133307331098
 30
0.0
 10
200.8493905213464
 20
35.4347336629
 30
0.0
  0
LINE
  5
1CC
330
1F
100
AcDbEntity
  8
0
  6
Continuous
 62
     7
370
    25
100
AcDbLine
 10
191.7174892283
 20
44.8237366784
 30
0.0
 11
199.8754040585
 21
39.7734838864
 31
0.0
  0
LINE
  5
1CD
330
1F
100
AcDbEntity
  8
0
  6
Continuous
 62
     7
370
    25
100
AcDbLine
 10
210.2350351358
 20
58.8842237032
 30
0.0
 11
202.2137442243
 21
63.1914334118
 31
0.0
  0
LINE
  5
1CE
330
1F
100
AcDbEntity
  8
0
  6
Continuous
 62
     7
370
    25
100
AcDbLine
 10
199.5243746599
 20
63.7816899442
 30
0.0
 11
198.8848242074
 21
63.6944788788
 31
0.0
  0
LINE
  5
1CF
330
1F
100
AcDbEntity
  8
0
  6
Continuous
 62
     7
370
    25
100
AcDbLine
 10
190.5542381618
 20
46.5597787319
 30
0.0
 11
190.7985424545
 21
45.9623291827
 31
0.0
  0
LWPOLYLINE
  5
1D0
330
1F
100
AcDbEntity
  8
0
  6
Continuous
 62
     7
370
    25
100
AcDbPolyline
 90
       10
 70
   128
 43
0.0
 10
211.549533017
 20
49.9395754968
 10
211.6842922358
 20
50.3058075775
 10
211.9195093523
 20
50.6445145318
 10
212.2361284746
 20
50.9282563367
 10
212.6084990044
 20
51.1340459186
 10
213.006453696
 20
51.2452114295
 10
213.397752627
 20
51.2527469008
 10
213.7506950852
 20
51.1560418534
 10
214.0366877715
 20
50.9629307552
 10
214.0959826956
 20
50.899963631
  0
ARC
  5
1D1
330
1F
100
AcDbEntity
  8
0
  6
Continuous
 62
     7
370
    25
100
AcDbCircle
 10
212.5678404342
 20
49.6862986055
 30
0.0
 40
1.049332730644285
100
AcDbArc
 50
166.0326179616
 51
208.9826228614
  0
LWPOLYLINE
  5
1D2
330
1F
100
AcDbEntity
  8
0
  6
Continuous
 62
     7
370
    25
100
AcDbPolyline
 90
       11
 70
   128
 43
0.0
 10
211.5889399819
 20
49.9760239946
 10
211.7174104372
 20
50.3251652448
 10
211.9416507549
 20
50.6480658746
 10
212.2434943181
 20
50.9185663953
 10
212.5984875566
 20
51.1147524633
 10
212.9778710293
 20
51.2207302504
 10
213.3509093435
 20
51.2279140664
 10
213.6873811535
 20
51.1357219213
 10
213.9600275145
 20
50.9516226743
 10
214.1467602397
 20
50.6905309517
 10
214.1868549366
 20
50.5905425949
  0
ARC
  5
1D3
330
1F
100
AcDbEntity
  8
0
  6
Continuous
 62
     7
370
    25
100
AcDbCircle
 10
212.5109352133
 20
49.730667267
 30
0.0
 40
0.9540833981305376
100
AcDbArc
 50
165.0980985173
 51
233.303900574
  0
LWPOLYLINE
  5
1D4
330
1F
100
AcDbEntity
  8
0
  6
Continuous
 62
     7
370
    25
100
AcDbPolyline
 90
       12
 70
   128
 43
0.0
 10
211.7539117877
 20
49.9792009527
 10
211.8822576757
 20
50.314050439
 10
212.1101831585
 20
50.6182821273
 10
212.4153773018
 20
50.8621157002
 10
212.7679655764
 20
51.0216830288
 10
213.1334341854
 20
51.0813645511
 10
213.476008515
 20
51.0353182238
 10
213.7621550029
 20
50.8880513825
 10
213.9638636372
 20
50.6539795314
 10
214.0613897714
 20
50.3560152544
 10
214.045186868
 20
50.0233253708
 10
213.9336758788
 20
49.7196364253
  0
ARC
  5
1D5
330
1F
100
AcDbEntity
  8
0
  6
Continuous
 62
     7
370
    25
100
AcDbCircle
 10
212.6370213894
 20
49.8045408876
 30
0.0
 40
0.9002159224490044
100
AcDbArc
 50
168.8125084376
 51
289.3419712662
  0
LWPOLYLINE
  5
1D6
330
1F
100
AcDbEntity
  8
0
  6
Continuous
 62
     7
370
    25
100
AcDbPolyline
 90
        3
 70
   128
 43
0.0
 10
216.2296346611
 20
27.751593812
 10
216.1881908149
 20
27.4889521873
 10
216.2629421771
 20
27.2346280586
  0
LWPOLYLINE
  5
1D7
330
1F
100
AcDbEntity
  8
0
  6
Continuous
 62
     7
370
    25
100
AcDbPolyline
 90
       15
 70
   128
 43
0.0
 10
219.4523469301
 20
27.0242973906
 10
219.4861559528
 20
27.0597235175
 10
219.6439394122
 20
27.3072235942
 10
219.6853832584
 20
27.5698652189
 10
219.6076631618
 20
27.829749799
 10
219.4160756185
 20
28.0691666297
 10
219.123677003
 20
28.2717998497
 10
218.7503937978
 20
28.4238403399
 10
218.3216646363
 20
28.5149267922
 10
217.8667067024
 20
28.5388518153
 10
217.4165246275
 20
28.4939849586
 10
217.001797576
 20
28.3833838241
 10
216.6507885111
 20
28.2145856963
 10
216.3874181205
 20
27.9990938888
 10
216.2296346611
 20
27.751593812
  0
LWPOLYLINE
  5
1D8
330
1F
100
AcDbEntity
  8
0
  6
Continuous
 62
     7
370
    25
100
AcDbPolyline
 90
       22
 70
   128
 43
0.0
 10
216.6520453255
 20
27.9007524583
 10
216.6237484056
 20
27.6747140773
 10
216.7121207302
 20
27.4539029847
 10
216.9093100305
 20
27.2579392152
 10
217.1977951718
 20
27.1042350097
 10
217.5519429833
 20
27.0064476612
 10
217.9402858778
 20
26.973266005
 10
218.328317885
 20
27.0076383767
 10
218.681560658
 20
27.1065106402
 10
218.9686270264
 20
27.2610975611
 10
219.1640098836
 20
27.4576634131
 10
219.2503486052
 20
27.6787424575
 10
219.219971617
 20
27.9046908512
 10
219.0755780477
 20
28.1154320877
 10
218.8299978995
 20
28.2922408834
 10
218.5050520464
 20
28.4194070008
 10
218.1296133534
 20
28.4856311724
 10
217.7370411959
 20
28.48502909
 10
217.362217333
 20
28.4176542511
 10
217.0384465096
 20
28.2894932059
 10
216.7944971845
 20
28.1119336256
 10
216.6520453255
 20
27.9007524583
  0
LWPOLYLINE
  5
1D9
330
1F
100
AcDbEntity
  8
0
  6
Continuous
 62
     7
370
    25
100
AcDbPolyline
 90
        3
 70
   128
 43
0.0
 10
216.1867870367
 20
27.4477546219
 10
216.1881908149
 20
27.4072981061
 10
216.2017999295
 20
27.3157086695
  0
LWPOLYLINE
  5
1DA
330
1F
100
AcDbEntity
  8
0
  6
Continuous
 62
     7
370
    25
100
AcDbPolyline
 90
        3
 70
   128
 43
0.0
 10
219.6143188572
 20
27.1600434429
 10
219.6439394122
 20
27.225569513
 10
219.6867870367
 20
27.4477546219
  0
LWPOLYLINE
  5
1DB
330
1F
100
AcDbEntity
  8
0
  6
Continuous
 62
     7
370
    25
100
AcDbPolyline
 90
       19
 70
   128
 43
0.0
 10
216.9612713935
 20
27.8605068255
 10
216.9448816757
 20
27.6602402885
 10
217.0481303834
 20
27.4688152497
 10
217.2585641987
 20
27.3093203938
 10
217.5508016977
 20
27.2009931543
 10
217.8895947252
 20
27.1568993952
 10
218.2340798419
 20
27.1823574744
 10
218.5427070587
 20
27.2742967719
 10
218.7782513784
 20
27.4216280516
 10
218.9123026798
 20
27.6065809867
 10
218.9286923976
 20
27.8068475237
 10
218.8254436899
 20
27.9982725625
 10
218.6150098746
 20
28.1577674184
 10
218.3227723756
 20
28.2660946578
 10
217.9839793481
 20
28.310188417
 10
217.6394942314
 20
28.2847303378
 10
217.3308670146
 20
28.1927910403
 10
217.0953226949
 20
28.0454597606
 10
216.9612713935
 20
27.8605068255
  0
SPLINE
  5
1DC
330
1F
100
AcDbEntity
  8
0
  6
Continuous
 62
     7
370
    25
100
AcDbSpline
210
0.0
220
0.0
230
1.0
 70
     8
 71
     3
 72
    15
 73
    11
 74
     0
 42
0.000000001
 43
0.00000001
 40
0.0
 40
0.0
 40
0.0
 40
0.0
 40
0.1262470803730248
 40
0.2533633350513455
 40
0.3794185517357302
 40
0.5042689738350777
 40
0.6284502821607667
 40
0.7526361292231216
 40
0.8774891912114618
 40
1.0
 40
1.0
 40
1.0
 40
1.0
 10
217.5664926725204
 20
27.26773852750611
 30
0.0
 10
217.5688770113728
 20
27.25773826243963
 30
0.0
 10
217.5736621045546
 20
27.23766888340007
 30
0.0
 10
217.6083261948904
 20
27.20968021750584
 30
0.0
 10
217.6590832159812
 20
27.18782498841667
 30
0.0
 10
217.7216842083593
 20
27.17471036582668
 30
0.0
 10
217.7885920833295
 20
27.1717051243286
 30
0.0
 10
217.8522238110998
 20
27.17903367832532
 30
0.0
 10
217.9069634870322
 20
27.19518154996675
 30
0.0
 10
217.9295272534893
 20
27.2112441935472
 30
0.0
 10
217.9407023101753
 20
27.21919946789725
 30
0.0
  0
SPLINE
  5
1DD
330
1F
100
AcDbEntity
  8
0
  6
Continuous
 62
     7
370
    25
100
AcDbSpline
210
0.0
220
0.0
230
1.0
 70
     8
 71
     3
 72
    12
 73
     8
 74
     0
 42
0.000000001
 43
0.00000001
 40
0.0
 40
0.0
 40
0.0
 40
0.0
 40
0.2058748011360211
 40
0.412099581266307
 40
0.6141693366125058
 40
0.8132901286728217
 40
1.0
 40
1.0
 40
1.0
 40
1.0
 10
217.9407023101753
 20
27.21919946789725
 30
0.0
 10
217.9608134549445
 20
27.23350497291547
 30
0.0
 10
218.001069932631
 20
27.26214030174287
 30
0.0
 10
218.0987536693655
 20
27.29326546759357
 30
0.0
 10
218.2096691890551
 20
27.31230417668154
 30
0.0
 10
218.3226119615974
 20
27.31806543157072
 30
0.0
 10
218.3883204111654
 20
27.30970407042303
 30
0.0
 10
218.4201178221235
 20
27.30565786878032
 30
0.0
  0
SPLINE
  5
1DE
330
1F
100
AcDbEntity
  8
0
  6
Continuous
 62
     7
370
    25
100
AcDbSpline
210
0.0
220
0.0
230
1.0
 70
     8
 71
     3
 72
    15
 73
    11
 74
     0
 42
0.000000001
 43
0.00000001
 40
0.0
 40
0.0
 40
0.0
 40
0.0
 40
0.1268765508970228
 40
0.2539936290345438
 40
0.3800496379883674
 40
0.5049006370991294
 40
0.6290821973265797
 40
0.7532679407718403
 40
0.8781205851189354
 40
1.0
 40
1.0
 40
1.0
 40
1.0
 10
218.4201178221235
 20
27.30565786878032
 30
0.0
 10
218.4405081017463
 20
27.3032077478923
 30
0.0
 10
218.4813273160284
 20
27.29830286127992
 30
0.0
 10
218.5497428008755
 20
27.3047116075023
 30
0.0
 10
218.6135077189815
 20
27.32110190738107
 30
0.0
 10
218.6661953966025
 20
27.34648916842307
 30
0.0
 10
218.7020112414247
 20
27.37778967873905
 30
0.0
 10
218.7169408140767
 20
27.41135519663892
 30
0.0
 10
218.7110506512173
 20
27.44375792814167
 30
0.0
 10
218.6902452661713
 20
27.46034866220066
 30
0.0
 10
218.6799679306532
 20
27.46854406642126
 30
0.0
  0
SPLINE
  5
1DF
330
1F
100
AcDbEntity
  8
0
  6
Continuous
 62
     7
370
    25
100
AcDbSpline
210
0.0
220
0.0
230
1.0
 70
     8
 71
     3
 72
    12
 73
     8
 74
     0
 42
0.000000001
 43
0.00000001
 40
0.0
 40
0.0
 40
0.0
 40
0.0
 40
0.2057949882088113
 40
0.4120010155283734
 40
0.6140549927930744
 40
0.8131810826684508
 40
1.0
 40
1.0
 40
1.0
 40
1.0
 10
218.6799679306532
 20
27.46854406642126
 30
0.0
 10
218.6615310770569
 20
27.4834048947742
 30
0.0
 10
218.6246205455085
 20
27.51315623335781
 30
0.0
 10
218.6154388859593
 20
27.57379940252057
 30
0.0
 10
218.6431555077722
 20
27.6390754462131
 30
0.0
 10
218.7029304746802
 20
27.70243979758885
 30
0.0
 10
218.7615829576023
 20
27.73554018817485
 30
0.0
 10
218.7899740318582
 20
27.75156262405834
 30
0.0
  0
SPLINE
  5
1E0
330
1F
100
AcDbEntity
  8
0
  6
Continuous
 62
     7
370
    25
100
AcDbSpline
210
0.0
220
0.0
230
1.0
 70
     8
 71
     3
 72
    15
 73
    11
 74
     0
 42
0.000000001
 43
0.00000001
 40
0.0
 40
0.0
 40
0.0
 40
0.0
 40
0.1268036956061016
 40
0.2539263442698728
 40
0.3799872671766544
 40
0.5048410097957365
 40
0.6290227167746326
 40
0.7532063308915156
 40
0.8780553361591561
 40
1.0
 40
1.0
 40
1.0
 40
1.0
 10
218.7899740318582
 20
27.75156262405834
 30
0.0
 10
218.8079474673579
 20
27.76189756562579
 30
0.0
 10
218.8439395474671
 20
27.78259344454257
 30
0.0
 10
218.8775363798658
 20
27.82299838468552
 30
0.0
 10
218.8904827518472
 20
27.86496110080158
 30
0.0
 10
218.8805388164595
 20
27.90460152665608
 30
0.0
 10
218.8494522554447
 20
27.93748631264928
 30
0.0
 10
218.8007901214823
 20
27.95981753709268
 30
0.0
 10
218.7403157284133
 20
27.97011640449507
 30
0.0
 10
218.6970117064156
 20
27.96534524785368
 30
0.0
 10
218.675614502733
 20
27.96298774372942
 30
0.0
  0
SPLINE
  5
1E1
330
1F
100
AcDbEntity
  8
0
  6
Continuous
 62
     7
370
    25
100
AcDbSpline
210
0.0
220
0.0
230
1.0
 70
     8
 71
     3
 72
    12
 73
     8
 74
     0
 42
0.000000001
 43
0.00000001
 40
0.0
 40
0.0
 40
0.0
 40
0.0
 40
0.205849740095415
 40
0.4120524486337365
 40
0.6141081262894811
 40
0.8132431903674227
 40
1.0
 40
1.0
 40
1.0
 40
1.0
 10
218.675614502733
 20
27.96298774372942
 30
0.0
 10
218.6370645423835
 20
27.95885956852543
 30
0.0
 10
218.559898520462
 20
27.95059613957768
 30
0.0
 10
218.4530538947547
 20
27.97258436425659
 30
0.0
 10
218.3698726506724
 20
28.01937815919504
 30
0.0
 10
218.316701578093
 20
28.08493264614757
 30
0.0
 10
218.3096282907398
 20
28.13521365278168
 30
0.0
 10
218.3062050919899
 20
28.15954772412091
 30
0.0
  0
SPLINE
  5
1E2
330
1F
100
AcDbEntity
  8
0
  6
Continuous
 62
     7
370
    25
100
AcDbSpline
210
0.0
220
0.0
230
1.0
 70
     8
 71
     3
 72
    15
 73
    11
 74
     0
 42
0.000000001
 43
0.00000001
 40
0.0
 40
0.0
 40
0.0
 40
0.0
 40
0.1262564375372391
 40
0.2533820972841722
 40
0.3794454811307689
 40
0.5043002379033772
 40
0.6284814530466039
 40
0.7526634909000652
 40
0.8775104621121753
 40
1.0
 40
1.0
 40
1.0
 40
1.0
 10
218.3062050919899
 20
28.15954772412091
 30
0.0
 10
218.3038205327374
 20
28.1750039287271
 30
0.0
 10
218.2990349975497
 20
28.20602274737557
 30
0.0
 10
218.2643678757977
 20
28.24600144129107
 30
0.0
 10
218.2136068598277
 20
28.27538795351716
 30
0.0
 10
218.1510024637285
 20
28.2908936152267
 30
0.0
 10
218.0840935691927
 20
28.29117545428034
 30
0.0
 10
218.020463521388
 20
28.27614518763206
 30
0.0
 10
217.9657295608417
 20
28.24809874850975
 30
0.0
 10
217.9431684778436
 20
28.22133899557381
 30
0.0
 10
217.931995454335
 20
28.20808664644411
 30
0.0
  0
SPLINE
  5
1E3
330
1F
100
AcDbEntity
  8
0
  6
Continuous
 62
     7
370
    25
100
AcDbSpline
210
0.0
220
0.0
230
1.0
 70
     8
 71
     3
 72
    12
 73
     8
 74
     0
 42
0.000000001
 43
0.00000001
 40
0.0
 40
0.0
 40
0.0
 40
0.0
 40
0.2058713741444189
 40
0.4120924153877304
 40
0.6141683533432367
 40
0.8133068872803334
 40
1.0
 40
1.0
 40
1.0
 40
1.0
 10
217.931995454335
 20
28.20808664644411
 30
0.0
 10
217.9118845436576
 20
28.1844020636369
 30
0.0
 10
217.8716285644515
 20
28.1369926703833
 30
0.0
 10
217.7739455522299
 20
28.09079093761275
 30
0.0
 10
217.6630278908798
 20
28.07286899006908
 30
0.0
 10
217.55008325825
 20
28.08303608459439
 30
0.0
 10
217.4843745455736
 20
28.10904382796259
 30
0.0
 10
217.4525799423868
 20
28.12162824556103
 30
0.0
  0
SPLINE
  5
1E4
330
1F
100
AcDbEntity
  8
0
  6
Continuous
 62
     7
370
    25
100
AcDbSpline
210
0.0
220
0.0
230
1.0
 70
     8
 71
     3
 72
    15
 73
    11
 74
     0
 42
0.000000001
 43
0.00000001
 40
0.0
 40
0.0
 40
0.0
 40
0.0
 40
0.1268702503424994
 40
0.2539810595565821
 40
0.3800301963394102
 40
0.5048749967544808
 40
0.6290527571813112
 40
0.7532384607996242
 40
0.8780953942141858
 40
1.0
 40
1.0
 40
1.0
 40
1.0
 10
217.4525799423868
 20
28.12162824556103
 30
0.0
 10
217.4321903357909
 20
28.12955959679973
 30
0.0
 10
217.3913724618354
 20
28.14543733792408
 30
0.0
 10
217.3229590301958
 20
28.15101582451736
 30
0.0
 10
217.2591956825968
 20
28.14213403618968
 30
0.0
 10
217.2065083414887
 20
28.11911601512332
 30
0.0
 10
217.170690794427
 20
28.08507164366947
 30
0.0
 10
217.1557577363421
 20
28.04378463145491
 30
0.0
 10
217.1616441595799
 20
27.99948031998912
 30
0.0
 10
217.1824509218391
 20
27.97221281799576
 30
0.0
 10
217.1927298338572
 20
27.95874218520577
 30
0.0
  0
SPLINE
  5
1E5
330
1F
100
AcDbEntity
  8
0
  6
Continuous
 62
     7
370
    25
100
AcDbSpline
210
0.0
220
0.0
230
1.0
 70
     8
 71
     3
 72
    12
 73
     8
 74
     0
 42
0.000000001
 43
0.00000001
 40
0.0
 40
0.0
 40
0.0
 40
0.0
 40
0.2058321750920474
 40
0.4120750343575919
 40
0.6141697879283425
 40
0.8133029339856263
 40
1.0
 40
1.0
 40
1.0
 40
1.0
 10
217.1927298338572
 20
27.95874218520577
 30
0.0
 10
217.2111688115652
 20
27.93450176601461
 30
0.0
 10
217.2480835571299
 20
27.88597256222725
 30
0.0
 10
217.2572584015927
 20
27.81024008833116
 30
0.0
 10
217.2295246914943
 20
27.74606937191857
 30
0.0
 10
217.1697375315097
 20
27.69864074095969
 30
0.0
 10
217.1110983124691
 20
27.68319685380852
 30
0.0
 10
217.0827237326521
 20
27.67572380393123
 30
0.0
  0
SPLINE
  5
1E6
330
1F
100
AcDbEntity
  8
0
  6
Continuous
 62
     7
370
    25
100
AcDbSpline
210
0.0
220
0.0
230
1.0
 70
     8
 71
     3
 72
    15
 73
    11
 74
     0
 42
0.000000001
 43
0.00000001
 40
0.0
 40
0.0
 40
0.0
 40
0.0
 40
0.1267880291974163
 40
0.2538950064075531
 40
0.379940902287715
 40
0.5047841289691819
 40
0.6289621452108456
 40
0.7531495391279969
 40
0.8780089278148011
 40
1.0
 40
1.0
 40
1.0
 40
1.0
 10
217.0827237326521
 20
27.67572380393123
 30
0.0
 10
217.0647516155087
 20
27.67086765295056
 30
0.0
 10
217.0287621705575
 20
27.66114313485402
 30
0.0
 10
216.9951655569714
 20
27.63272848794031
 30
0.0
 10
216.9822159519444
 20
27.59827938609631
 30
0.0
 10
216.9921531652417
 20
27.56101147260479
 30
0.0
 10
217.0232318425755
 20
27.52538338387119
 30
0.0
 10
217.0718882207491
 20
27.49532931826933
 30
0.0
 10
217.1323664836297
 20
27.47312523071213
 30
0.0
 10
217.1756787602583
 20
27.46721798636922
 30
0.0
 10
217.1970832617773
 20
27.46429868426014
 30
0.0
  0
SPLINE
  5
1E7
330
1F
100
AcDbEntity
  8
0
  6
Continuous
 62
     7
370
    25
100
AcDbSpline
210
0.0
220
0.0
230
1.0
 70
     8
 71
     3
 72
    12
 73
     8
 74
     0
 42
0.000000001
 43
0.00000001
 40
0.0
 40
0.0
 40
0.0
 40
0.0
 40
0.2058903596432583
 40
0.412133643076745
 40
0.6142239121176086
 40
0.8133482777366945
 40
1.0
 40
1.0
 40
1.0
 40
1.0
 10
217.1970832617773
 20
27.46429868426014
 30
0.0
 10
217.2356391038006
 20
27.45904730482655
 30
0.0
 10
217.3128168777502
 20
27.44853554438816
 30
0.0
 10
217.4196733705438
 20
27.41146186349333
 30
0.0
 10
217.5028549877676
 20
27.36577370861443
 30
0.0
 10
217.5560047076649
 20
27.3161469859496
 30
0.0
 10
217.5630728584083
 20
27.28352308929791
 30
0.0
 10
217.5664926725204
 20
27.26773852750611
 30
0.0
  0
ARC
  5
1E8
330
1F
100
AcDbEntity
  8
0
  6
Continuous
 62
     7
370
    25
100
AcDbCircle
 10
217.3555722861
 20
27.13567786
 30
0.0
 40
0.3271140530331062
100
AcDbArc
 50
72.7491306931
 51
104.214840509
  0
ARC
  5
1E9
330
1F
100
AcDbEntity
  8
0
  6
Continuous
 62
     7
370
    25
100
AcDbCircle
 10
217.6187047923
 20
27.8993263788
 30
0.0
 40
0.4808571704187947
100
AcDbArc
 50
249.7891144921
 51
310.656709742
  0
LWPOLYLINE
  5
1EA
330
1F
100
AcDbEntity
  8
0
  6
Continuous
 62
     7
370
    25
100
AcDbPolyline
 90
        9
 70
   128
 43
0.0
 10
217.9319954543
 20
27.5345352338
 10
217.9701205408
 20
27.5654026532
 10
218.0237021525
 20
27.5873209331
 10
218.0867861928
 20
27.59785447
 10
218.1523626354
 20
27.595832756
 10
218.2131444938
 20
27.581480448
 10
218.2623775649
 20
27.5563924035
 10
218.2945909706
 20
27.5233564567
 10
218.306205092
 20
27.4860436288
  0
ARC
  5
1EB
330
1F
100
AcDbEntity
  8
0
  6
Continuous
 62
     7
370
    25
100
AcDbCircle
 10
218.5414373008
 20
27.5452215711
 30
0.0
 40
0.242561787884202
100
AcDbArc
 50
194.1210069274
 51
265.5336592258
  0
LINE
  5
1EC
330
1F
100
AcDbEntity
  8
0
  6
Continuous
 62
     7
370
    25
100
AcDbLine
 10
220.9480404828
 20
29.545503723
 30
0.0
 11
214.9980404828
 21
29.545503723
 31
0.0
  0
LWPOLYLINE
  5
1ED
330
1F
100
AcDbEntity
  8
0
  6
Continuous
 62
     7
370
    25
100
AcDbPolyline
 90
        9
 70
   128
 43
0.0
 10
221.1480404828
 20
29.4300461806
 10
221.1441975389
 20
29.4525708297
 10
221.1328163893
 20
29.4742298692
 10
221.1143344053
 20
29.4941909543
 10
221.0894618391
 20
29.5116869917
 10
221.0591545294
 20
29.5260456186
 10
221.0245771693
 20
29.5367150409
 10
220.9870585472
 20
29.5432852387
 10
220.9480404828
 20
29.545503723
  0
LINE
  5
1EE
330
1F
100
AcDbEntity
  8
0
  6
Continuous
 62
     7
370
    25
100
AcDbLine
 10
221.1480404828
 20
25.9951842936
 30
0.0
 11
221.1480404828
 21
29.4300461806
 31
0.0
  0
LWPOLYLINE
  5
1EF
330
1F
100
AcDbEntity
  8
0
  6
Continuous
 62
     7
370
    25
100
AcDbPolyline
 90
        9
 70
   128
 43
0.0
 10
220.9480404828
 20
25.8797267512
 10
220.9870585472
 20
25.8819452355
 10
221.0245771693
 20
25.8885154333
 10
221.0591545294
 20
25.8991848556
 10
221.0894618391
 20
25.9135434825
 10
221.1143344053
 20
25.9310395199
 10
221.1328163893
 20
25.951000605
 10
221.1441975389
 20
25.9726596445
 10
221.1480404828
 20
25.9951842936
  0
LINE
  5
1F0
330
1F
100
AcDbEntity
  8
0
  6
Continuous
 62
     7
370
    25
100
AcDbLine
 10
214.9980404828
 20
25.8797267512
 30
0.0
 11
220.9480404828
 21
25.8797267512
 31
0.0
  0
LWPOLYLINE
  5
1F1
330
1F
100
AcDbEntity
  8
0
  6
Continuous
 62
     7
370
    25
100
AcDbPolyline
 90
        9
 70
   128
 43
0.0
 10
214.7980404828
 20
25.9951842936
 10
214.8018834267
 20
25.9726596445
 10
214.8132645763
 20
25.951000605
 10
214.8317465604
 20
25.9310395199
 10
214.8566191266
 20
25.9135434825
 10
214.8869264362
 20
25.8991848556
 10
214.9215037964
 20
25.8885154333
 10
214.9590224184
 20
25.8819452355
 10
214.9980404828
 20
25.8797267512
  0
LINE
  5
1F2
330
1F
100
AcDbEntity
  8
0
  6
Continuous
 62
     7
370
    25
100
AcDbLine
 10
214.7980404828
 20
29.4300461806
 30
0.0
 11
214.7980404828
 21
25.9951842936
 31
0.0
  0
LWPOLYLINE
  5
1F3
330
1F
100
AcDbEntity
  8
0
  6
Continuous
 62
     7
370
    25
100
AcDbPolyline
 90
        9
 70
   128
 43
0.0
 10
214.9980404828
 20
29.545503723
 10
214.9590224184
 20
29.5432852387
 10
214.9215037964
 20
29.5367150409
 10
214.8869264362
 20
29.5260456186
 10
214.8566191266
 20
29.5116869917
 10
214.8317465604
 20
29.4941909543
 10
214.8132645763
 20
29.4742298692
 10
214.8018834267
 20
29.4525708297
 10
214.7980404828
 20
29.4300461806
  0
LWPOLYLINE
  5
1F4
330
1F
100
AcDbEntity
  8
0
  6
Continuous
 62
     7
370
    25
100
AcDbPolyline
 90
        9
 70
   128
 43
0.0
 10
220.9480404828
 20
25.8854996284
 10
220.985107644
 20
25.8876071885
 10
221.020750335
 20
25.8938488764
 10
221.0535988271
 20
25.9039848276
 10
221.0823907712
 20
25.9176255231
 10
221.1060197092
 20
25.9342467587
 10
221.123577594
 20
25.9532097895
 10
221.1343896861
 20
25.973785877
 10
221.1380404828
 20
25.9951842937
  0
LINE
  5
1F5
330
1F
100
AcDbEntity
  8
0
  6
Continuous
 62
     7
370
    25
100
AcDbLine
 10
221.1380404828
 20
25.9951842937
 30
0.0
 11
221.1380404828
 21
29.4300461806
 31
0.0
  0
LWPOLYLINE
  5
1F6
330
1F
100
AcDbEntity
  8
0
  6
Continuous
 62
     7
370
    25
100
AcDbPolyline
 90
        9
 70
   128
 43
0.0
 10
221.1380404828
 20
29.4300461806
 10
221.1343896861
 20
29.4514445973
 10
221.123577594
 20
29.4720206848
 10
221.1060197092
 20
29.4909837157
 10
221.0823907712
 20
29.5076049512
 10
221.0535988271
 20
29.5212456468
 10
221.020750335
 20
29.5313815979
 10
220.985107644
 20
29.5376232858
 10
220.9480404828
 20
29.5397308459
  0
LINE
  5
1F7
330
1F
100
AcDbEntity
  8
0
  6
Continuous
 62
     7
370
    25
100
AcDbLine
 10
220.9480404828
 20
29.5397308459
 30
0.0
 11
214.9980404828
 21
29.5397308459
 31
0.0
  0
LWPOLYLINE
  5
1F8
330
1F
100
AcDbEntity
  8
0
  6
Continuous
 62
     7
370
    25
100
AcDbPolyline
 90
        9
 70
   128
 43
0.0
 10
214.9980404828
 20
29.5397308459
 10
214.9609733216
 20
29.5376232858
 10
214.9253306307
 20
29.5313815979
 10
214.8924821385
 20
29.5212456468
 10
214.8636901944
 20
29.5076049512
 10
214.8400612565
 20
29.4909837157
 10
214.8225033716
 20
29.4720206848
 10
214.8116912795
 20
29.4514445973
 10
214.8080404828
 20
29.4300461806
  0
LINE
  5
1F9
330
1F
100
AcDbEntity
  8
0
  6
Continuous
 62
     7
370
    25
100
AcDbLine
 10
214.8080404828
 20
29.4300461806
 30
0.0
 11
214.8080404828
 21
25.9951842937
 31
0.0
  0
LWPOLYLINE
  5
1FA
330
1F
100
AcDbEntity
  8
0
  6
Continuous
 62
     7
370
    25
100
AcDbPolyline
 90
        9
 70
   128
 43
0.0
 10
214.8080404828
 20
25.9951842937
 10
214.8116912795
 20
25.973785877
 10
214.8225033716
 20
25.9532097895
 10
214.8400612565
 20
25.9342467587
 10
214.8636901944
 20
25.9176255231
 10
214.8924821385
 20
25.9039848276
 10
214.9253306307
 20
25.8938488764
 10
214.9609733216
 20
25.8876071885
 10
214.9980404828
 20
25.8854996284
  0
LINE
  5
1FB
330
1F
100
AcDbEntity
  8
0
  6
Continuous
 62
     7
370
    25
100
AcDbLine
 10
214.9980404828
 20
25.8854996284
 30
0.0
 11
220.9480404828
 21
25.8854996284
 31
0.0
  0
LINE
  5
1FC
330
1F
100
AcDbEntity
  8
0
  6
Continuous
 62
     7
370
    25
100
AcDbLine
 10
220.9480404828
 20
24.6651460447
 30
0.0
 11
220.9480404828
 21
25.8797267512
 31
0.0
  0
LINE
  5
1FD
330
1F
100
AcDbEntity
  8
0
  6
Continuous
 62
     7
370
    25
100
AcDbLine
 10
220.8558132279
 20
24.1050588224
 30
0.0
 11
220.9480404828
 21
24.6651460447
 31
0.0
  0
LINE
  5
1FE
330
1F
100
AcDbEntity
  8
0
  6
Continuous
 62
     7
370
    25
100
AcDbLine
 10
215.0902677378
 20
24.1050588224
 30
0.0
 11
220.8558132279
 21
24.1050588224
 31
0.0
  0
LINE
  5
1FF
330
1F
100
AcDbEntity
  8
0
  6
Continuous
 62
     7
370
    25
100
AcDbLine
 10
215.0902677378
 20
24.1050588224
 30
0.0
 11
214.9980404828
 21
24.6651460447
 31
0.0
  0
LINE
  5
200
330
1F
100
AcDbEntity
  8
0
  6
Continuous
 62
     7
370
    25
100
AcDbLine
 10
214.9980404828
 20
24.6651460447
 30
0.0
 11
214.9980404828
 21
25.8797267512
 31
0.0
  0
LINE
  5
201
330
1F
100
AcDbEntity
  8
0
  6
Continuous
 62
     7
370
    25
100
AcDbLine
 10
220.9480404828
 20
25.9056125828
 30
0.0
 11
221.1380404828
 21
25.9951842937
 31
0.0
  0
LINE
  5
202
330
1F
100
AcDbEntity
  8
0
  6
Continuous
 62
     7
370
    25
100
AcDbLine
 10
220.9480404828
 20
25.9056125828
 30
0.0
 11
220.9480404828
 21
25.8854996284
 31
0.0
  0
LINE
  5
203
330
1F
100
AcDbEntity
  8
0
  6
Continuous
 62
     7
370
    25
100
AcDbLine
 10
220.5876167236
 20
25.9437661966
 30
0.0
 11
220.9480404828
 21
25.9056125828
 31
0.0
  0
LINE
  5
204
330
1F
100
AcDbEntity
  8
0
  6
Continuous
 62
     7
370
    25
100
AcDbLine
 10
214.9980404828
 20
25.9056125828
 30
0.0
 11
214.9980404828
 21
25.8854996284
 31
0.0
  0
LINE
  5
205
330
1F
100
AcDbEntity
  8
0
  6
Continuous
 62
     7
370
    25
100
AcDbLine
 10
215.3584642421
 20
25.9437661966
 30
0.0
 11
214.9980404828
 21
25.9056125828
 31
0.0
  0
LINE
  5
206
330
1F
100
AcDbEntity
  8
0
  6
Continuous
 62
     7
370
    25
100
AcDbLine
 10
214.9980404828
 20
25.9056125828
 30
0.0
 11
214.8080404828
 21
25.9951842937
 31
0.0
  0
LINE
  5
207
330
1F
100
AcDbEntity
  8
0
  6
Continuous
 62
     7
370
    25
100
AcDbLine
 10
220.5876167236
 20
28.9624916688
 30
0.0
 11
220.9480404828
 21
29.3404744697
 31
0.0
  0
LINE
  5
208
330
1F
100
AcDbEntity
  8
0
  6
Continuous
 62
     7
370
    25
100
AcDbLine
 10
220.9480404828
 20
29.3404744697
 30
0.0
 11
221.1380404828
 21
29.4300461806
 31
0.0
  0
LINE
  5
209
330
1F
100
AcDbEntity
  8
0
  6
Continuous
 62
     7
370
    25
100
AcDbLine
 10
214.9980404828
 20
29.3404744697
 30
0.0
 11
214.8080404828
 21
29.4300461806
 31
0.0
  0
LINE
  5
20A
330
1F
100
AcDbEntity
  8
0
  6
Continuous
 62
     7
370
    25
100
AcDbLine
 10
215.3584642421
 20
28.9624916688
 30
0.0
 11
214.9980404828
 21
29.3404744697
 31
0.0
  0
SPLINE
  5
20B
330
1F
100
AcDbEntity
  8
0
  6
Continuous
 62
     7
370
    25
100
AcDbSpline
210
0.0
220
0.0
230
1.0
 70
     8
 71
     3
 72
    11
 73
     7
 74
     0
 42
0.000000001
 43
0.00000001
 40
0.0
 40
0.0
 40
0.0
 40
0.0
 40
0.3429685074212502
 40
0.6848841677076642
 40
0.9921619810195356
 40
1.0
 40
1.0
 40
1.0
 40
1.0
 10
220.5876167235722
 20
25.94376619657438
 30
0.0
 10
220.5595106650372
 20
25.95056664187455
 30
0.0
 10
220.5033848281431
 20
25.9641466564201
 30
0.0
 10
220.4181755330656
 20
26.02679383945523
 30
0.0
 10
220.3663899880751
 20
26.08116119179323
 30
0.0
 10
220.343298291111
 20
26.10981403259756
 30
0.0
 10
220.3427239208619
 20
26.11052672769903
 30
0.0
  0
SPLINE
  5
20C
330
1F
100
AcDbEntity
  8
0
  6
Continuous
 62
     7
370
    25
100
AcDbSpline
210
0.0
220
0.0
230
1.0
 70
     8
 71
     3
 72
    11
 73
     7
 74
     0
 42
0.000000001
 43
0.00000001
 40
0.0
 40
0.0
 40
0.0
 40
0.0
 40
0.0078380189802104
 40
0.3151158322923774
 40
0.6570314925787804
 40
1.0
 40
1.0
 40
1.0
 40
1.0
 10
215.6033570447848
 20
26.110526727699
 30
0.0
 10
215.6027826745357
 20
26.10981403259754
 30
0.0
 10
215.5796909775717
 20
26.08116119179275
 30
0.0
 10
215.527905432581
 20
26.02679383945546
 30
0.0
 10
215.4426961375034
 20
25.96414665642003
 30
0.0
 10
215.3865703006095
 20
25.95056664187451
 30
0.0
 10
215.3584642420744
 20
25.94376619657437
 30
0.0
  0
LWPOLYLINE
  5
20D
330
1F
100
AcDbEntity
  8
0
  6
Continuous
 62
     7
370
    25
100
AcDbPolyline
 90
        9
 70
   128
 43
0.0
 10
219.6380404828
 20
26.4627873405
 10
219.7355856438
 20
26.4683335513
 10
219.829382199
 20
26.4847590458
 10
219.9158255993
 20
26.5114326015
 10
219.9915938734
 20
26.5473291686
 10
220.053775289
 20
26.5910692622
 10
220.0999802491
 20
26.640971975
 10
220.128433123
 20
26.6951195737
 10
220.1380404828
 20
26.7514311965
  0
LWPOLYLINE
  5
20E
330
1F
100
AcDbEntity
  8
0
  6
Continuous
 62
     7
370
    25
100
AcDbPolyline
 90
        9
 70
   128
 43
0.0
 10
215.8080404827
 20
26.7514311965
 10
215.8176478425
 20
26.6951195736
 10
215.8461007164
 20
26.6409719749
 10
215.8923056765
 20
26.5910692621
 10
215.9544870921
 20
26.5473291685
 10
216.0302553662
 20
26.5114326014
 10
216.1166987666
 20
26.4847590457
 10
216.2104953218
 20
26.4683335512
 10
216.3080404828
 20
26.4627873405
  0
LINE
  5
20F
330
1F
100
AcDbEntity
  8
0
  6
Continuous
 62
     7
370
    25
100
AcDbLine
 10
216.3080404828
 20
26.4627873405
 30
0.0
 11
219.6380404828
 21
26.4627873405
 31
0.0
  0
LINE
  5
210
330
1F
100
AcDbEntity
  8
0
  6
Continuous
 62
     7
370
    25
100
AcDbLine
 10
219.6380404828
 20
28.9624431338
 30
0.0
 11
216.3080404828
 21
28.9624431338
 31
0.0
  0
LWPOLYLINE
  5
211
330
1F
100
AcDbEntity
  8
0
  6
Continuous
 62
     7
370
    25
100
AcDbPolyline
 90
        9
 70
   128
 43
0.0
 10
220.1380404828
 20
28.6737992778
 10
220.128433123
 20
28.7301109006
 10
220.0999802491
 20
28.7842584994
 10
220.053775289
 20
28.8341612122
 10
219.9915938734
 20
28.8779013057
 10
219.9158255993
 20
28.9137978729
 10
219.829382199
 20
28.9404714286
 10
219.7355856438
 20
28.9568969231
 10
219.6380404828
 20
28.9624431338
  0
LINE
  5
212
330
1F
100
AcDbEntity
  8
0
  6
Continuous
 62
     7
370
    25
100
AcDbLine
 10
220.1380404828
 20
26.7514311965
 30
0.0
 11
220.1380404828
 21
28.6737992778
 31
0.0
  0
LINE
  5
213
330
1F
100
AcDbEntity
  8
0
  6
Continuous
 62
     7
370
    25
100
AcDbLine
 10
215.8080404828
 20
28.6737992778
 30
0.0
 11
215.8080404827
 21
26.7514311965
 31
0.0
  0
LWPOLYLINE
  5
214
330
1F
100
AcDbEntity
  8
0
  6
Continuous
 62
     7
370
    25
100
AcDbPolyline
 90
        9
 70
   128
 43
0.0
 10
216.3080404828
 20
28.9624431338
 10
216.2104953218
 20
28.9568969231
 10
216.1166987666
 20
28.9404714286
 10
216.0302553663
 20
28.9137978729
 10
215.9544870922
 20
28.8779013057
 10
215.8923056767
 20
28.8341612122
 10
215.8461007166
 20
28.7842584994
 10
215.8176478426
 20
28.7301109006
 10
215.8080404828
 20
28.6737992778
  0
LWPOLYLINE
  5
215
330
1F
100
AcDbEntity
  8
0
  6
Continuous
 62
     7
370
    25
100
AcDbPolyline
 90
       26
 70
   128
 43
0.0
 10
216.0730404828
 20
27.7126152371
 10
216.1327324767
 20
27.4398405667
 10
216.3080577907
 20
27.1842053321
 10
216.5880000907
 20
26.9617720352
 10
216.9549695724
 20
26.786516978
 10
217.3859081935
 20
26.6694520804
 10
217.8537384957
 20
26.6179329605
 10
218.3290649805
 20
26.6351967539
 10
218.7820211368
 20
26.7201587131
 10
219.1841460633
 20
26.8674803657
 10
219.5101727721
 20
27.0679049505
 10
219.739615806
 20
27.3088390536
 10
219.8580584153
 20
27.5751438994
 10
219.8580584153
 20
27.8500865748
 10
219.739615806
 20
28.1163914206
 10
219.5101727721
 20
28.3573255237
 10
219.1841460633
 20
28.5577501085
 10
218.7820211368
 20
28.7050717611
 10
218.3290649805
 20
28.7900337203
 10
217.8537384957
 20
28.8072975137
 10
217.3859081935
 20
28.7557783938
 10
216.9549695724
 20
28.6387134962
 10
216.5880000907
 20
28.463458439
 10
216.3080577907
 20
28.2410251421
 10
216.1327324767
 20
27.9853899075
 10
216.0730404828
 20
27.7126152371
  0
LWPOLYLINE
  5
216
330
1F
100
AcDbEntity
  8
0
  6
Continuous
 62
     7
370
    25
100
AcDbPolyline
 90
        3
 70
   128
 43
0.0
 10
219.8290129383
 20
27.4778597537
 10
219.739615806
 20
27.6468804538
 10
219.6339598221
 20
27.7757587762
  0
LWPOLYLINE
  5
217
330
1F
100
AcDbEntity
  8
0
  6
Continuous
 62
     7
370
    25
100
AcDbPolyline
 90
        3
 70
   128
 43
0.0
 10
216.1955987771
 20
27.6306621453
 10
216.1327324767
 20
27.5158789407
 10
216.1170680274
 20
27.4778597537
  0
SPLINE
  5
218
330
1F
100
AcDbEntity
  8
0
  6
Continuous
 62
     7
370
    25
100
AcDbSpline
210
0.0
220
0.0
230
1.0
 70
     8
 71
     3
 72
    11
 73
     7
 74
     0
 42
0.000000001
 43
0.00000001
 40
0.0
 40
0.0
 40
0.0
 40
0.0
 40
0.3429685074212196
 40
0.6848841677076181
 40
0.9921619810197897
 40
1.0
 40
1.0
 40
1.0
 40
1.0
 10
220.5876167235722
 20
28.96249166876461
 30
0.0
 10
220.5595106650372
 20
28.93684154960991
 30
0.0
 10
220.5033848281431
 20
28.88562005221658
 30
0.0
 10
220.4181755330656
 20
28.84988667724455
 30
0.0
 10
220.3663899880751
 20
28.84446371200831
 30
0.0
 10
220.343298291111
 20
28.84645544699605
 30
0.0
 10
220.3427239208619
 20
28.84650498832351
 30
0.0
  0
SPLINE
  5
219
330
1F
100
AcDbEntity
  8
0
  6
Continuous
 62
     7
370
    25
100
AcDbSpline
210
0.0
220
0.0
230
1.0
 70
     8
 71
     3
 72
    11
 73
     7
 74
     0
 42
0.000000001
 43
0.00000001
 40
0.0
 40
0.0
 40
0.0
 40
0.0
 40
0.0078380189801735
 40
0.315115832298586
 40
0.6570314925819856
 40
1.0
 40
1.0
 40
1.0
 40
1.0
 10
215.6033570447848
 20
28.84650498832354
 30
0.0
 10
215.6027826745357
 20
28.84645544699608
 30
0.0
 10
215.5796909775709
 20
28.84446371200833
 30
0.0
 10
215.5279054325798
 20
28.8498866772448
 30
0.0
 10
215.4426961375015
 20
28.88562005221781
 30
0.0
 10
215.3865703006077
 20
28.93684154961146
 30
0.0
 10
215.3584642420728
 20
28.96249166876631
 30
0.0
  0
LINE
  5
21A
330
1F
100
AcDbEntity
  8
0
  6
Continuous
 62
     7
370
    25
100
AcDbLine
 10
214.9980404828
 20
29.3404744697
 30
0.0
 11
214.9980404828
 21
29.5397308459
 31
0.0
  0
LINE
  5
21B
330
1F
100
AcDbEntity
  8
0
  6
Continuous
 62
     7
370
    25
100
AcDbLine
 10
220.9480404828
 20
29.3404744697
 30
0.0
 11
220.9480404828
 21
29.5397308459
 31
0.0
  0
LINE
  5
21C
330
1F
100
AcDbEntity
  8
0
  6
Continuous
 62
     7
370
    25
100
AcDbLine
 10
215.0776636189
 20
24.1627875936
 30
0.0
 11
215.2688689885
 21
21.3594709714
 31
0.0
  0
LINE
  5
21D
330
1F
100
AcDbEntity
  8
0
  6
Continuous
 62
     7
370
    25
100
AcDbLine
 10
215.0776636189
 20
24.1627875936
 30
0.0
 11
215.0807617789
 21
24.1627875936
 31
0.0
  0
LINE
  5
21E
330
1F
100
AcDbEntity
  8
0
  6
Continuous
 62
     7
370
    25
100
AcDbLine
 10
219.1832243529
 20
16.1466264822
 30
0.0
 11
220.493706612
 21
24.1050588224
 31
0.0
  0
ELLIPSE
  5
21F
330
1F
100
AcDbEntity
  8
0
  6
Continuous
 62
     7
370
    25
100
AcDbEllipse
 10
246.6350029238
 20
25.9374555224
 30
0.0
 11
31.92253334696719
 21
1.995287197261892
 31
0.0
210
0.0
220
0.0
230
1.0
 40
0.5218336767
 41
3.298755166829085
 42
3.645507239647315
  0
LINE
  5
220
330
1F
100
AcDbEntity
  8
0
  6
Continuous
 62
     7
370
    25
100
AcDbLine
 10
214.9367870367
 20
24.2441139134
 30
0.0
 11
215.0776636189
 21
24.1627875936
 31
0.0
  0
SPLINE
  5
221
330
1F
100
AcDbEntity
  8
0
  6
Continuous
 62
     7
370
    25
100
AcDbSpline
210
0.0
220
0.0
230
1.0
 70
     8
 71
     3
 72
    28
 73
    24
 74
     0
 42
0.000000001
 43
0.00000001
 40
0.0
 40
0.0
 40
0.0
 40
0.0
 40
0.1250000000000001
 40
0.1250000000000001
 40
0.2500000000000003
 40
0.2500000000000003
 40
0.5000000000000006
 40
0.5000000000000006
 40
0.6250000000000004
 40
0.6250000000000004
 40
0.7500000000000003
 40
0.7500000000000003
 40
0.8750000000000003
 40
0.8750000000000003
 40
0.9375000000000001
 40
0.9375000000000001
 40
0.9687500000000003
 40
0.9687500000000003
 40
0.9843750000000001
 40
0.9843750000000001
 40
0.9921875000000001
 40
0.9921875000000001
 40
1.0
 40
1.0
 40
1.0
 40
1.0
 10
209.8329903674357
 20
28.78781867132725
 30
0.0
 10
209.8303662643583
 20
28.60898295140013
 30
0.0
 10
209.8372153378294
 20
28.42387164900938
 30
0.0
 10
209.8583605125228
 20
28.04871570043109
 30
0.0
 10
209.8730448961322
 20
27.85845825771084
 30
0.0
 10
209.9237245699527
 20
27.28437292782549
 30
0.0
 10
209.9658537829884
 20
26.89697221185697
 30
0.0
 10
210.0382303855727
 20
26.31072303934882
 30
0.0
 10
210.0640557056697
 20
26.11435370588979
 30
0.0
 10
210.1208939608997
 20
25.71870673182961
 30
0.0
 10
210.1518141772368
 20
25.51948107171165
 30
0.0
 10
210.2234651930228
 20
25.11552969244399
 30
0.0
 10
210.263581912459
 20
24.91068194979534
 30
0.0
 10
210.3424895365415
 20
24.59548068976918
 30
0.0
 10
210.3716450380834
 20
24.48915166514049
 30
0.0
 10
210.4277691915611
 20
24.32607137944417
 30
0.0
 10
210.4484571448409
 20
24.27093271663014
 30
0.0
 10
210.4873428121957
 20
24.18808840975404
 30
0.0
 10
210.5017005874938
 20
24.16015348754059
 30
0.0
 10
210.5276918530068
 20
24.11979813851119
 30
0.0
 10
210.5371083203522
 20
24.10665461701013
 30
0.0
 10
210.5578856902424
 20
24.0829591631738
 30
0.0
 10
210.5695414749781
 20
24.07233499997984
 30
0.0
 10
210.5810581940337
 20
24.0656865395855
 30
0.0
  0
LINE
  5
222
330
1F
100
AcDbEntity
  8
0
  6
Continuous
 62
     7
370
    25
100
AcDbLine
 10
209.8329903674
 20
28.7878186713
 30
0.0
 11
214.8093846527
 21
25.9150074
 31
0.0
  0
LINE
  5
223
330
1F
100
AcDbEntity
  8
0
  6
Continuous
 62
     7
370
    25
100
AcDbLine
 10
214.9367870367
 20
24.2441139134
 30
0.0
 11
214.9367870367
 21
25.0709554765
 31
0.0
  0
LINE
  5
224
330
1F
100
AcDbEntity
  8
0
  6
Continuous
 62
     7
370
    25
100
AcDbLine
 10
210.581058194
 20
24.0656865396
 30
0.0
 11
215.2688689885
 21
21.3594709714
 31
0.0
  0
LINE
  5
225
330
1F
100
AcDbEntity
  8
0
  6
Continuous
 62
     7
370
    25
100
AcDbLine
 10
211.6511858879
 20
30.7092273759
 30
0.0
 11
209.8982038262
 21
28.9564627018
 31
0.0
  0
LINE
  5
226
330
1F
100
AcDbEntity
  8
0
  6
Continuous
 62
     7
370
    25
100
AcDbLine
 10
236.3204528558
 20
44.8313931501
 30
0.0
 11
236.2172989951
 21
44.8909426064
 31
0.0
  0
LINE
  5
227
330
1F
100
AcDbEntity
  8
0
  6
Continuous
 62
     7
370
    25
100
AcDbLine
 10
236.3204528558
 20
44.8313931501
 30
0.0
 11
221.6278324389
 21
30.1230757447
 31
0.0
  0
ELLIPSE
  5
228
330
1F
100
AcDbEntity
  8
0
  6
Continuous
 62
     7
370
    25
100
AcDbEllipse
 10
225.5626660307
 20
28.8326034587
 30
0.0
 11
4.533794214564836
 21
2.842170943040401E-14
 31
0.0
210
0.0
220
0.0
230
1.0
 40
0.572984697
 41
2.621734726645307
 42
2.9165127600835
  0
LWPOLYLINE
  5
229
330
1F
100
AcDbEntity
  8
0
  6
Continuous
 62
     7
370
    25
100
AcDbPolyline
 90
       11
 70
   128
 43
0.0
 10
216.0519674574
 20
29.545503723
 10
216.0243886529
 20
29.5566299705
 10
215.6956417984
 20
29.6417256302
 10
215.3364186366
 20
29.6576585263
 10
214.9890123646
 20
29.6025527966
 10
214.6943249164
 20
29.4828963232
 10
214.4870513665
 20
29.3127768805
 10
214.3915951001
 20
29.1122235086
 10
214.4191946761
 20
28.9048483913
 10
214.5666006539
 20
28.7150668719
 10
214.7980404828
 20
28.5731887449
  0
SPLINE
  5
22A
330
1F
100
AcDbEntity
  8
0
  6
Continuous
 62
     7
370
    25
100
AcDbSpline
210
0.0
220
0.0
230
1.0
 70
     8
 71
     3
 72
    10
 73
     6
 74
     0
 42
0.000000001
 43
0.00000001
 40
0.0
 40
0.0
 40
0.0
 40
0.0
 40
0.5
 40
0.5
 40
1.0
 40
1.0
 40
1.0
 40
1.0
 10
209.8982038262385
 20
28.95646270175819
 30
0.0
 10
209.8730020047441
 20
28.93126394515826
 30
0.0
 10
209.854210412873
 20
28.90343666933121
 30
0.0
 10
209.8322337759425
 20
28.84659891739427
 30
0.0
 10
209.8287332660504
 20
28.81688696885794
 30
0.0
 10
209.8329903674357
 20
28.78781867132724
 30
0.0
  0
SPLINE
  5
22B
330
1F
100
AcDbEntity
  8
0
  6
Continuous
 62
     7
370
    25
100
AcDbSpline
210
0.0
220
0.0
230
1.0
 70
    11
 71
     3
 72
    68
 73
    64
 74
     0
 42
0.000000001
 43
0.00000001
 40
0.0
 40
0.0
 40
0.0
 40
0.0
 40
0.03125
 40
0.03125
 40
0.0625
 40
0.0625
 40
0.09375
 40
0.09375
 40
0.125
 40
0.125
 40
0.15625
 40
0.15625
 40
0.1875000000000001
 40
0.1875000000000001
 40
0.2187500000000001
 40
0.2187500000000001
 40
0.2500000000000001
 40
0.2500000000000001
 40
0.2812500000000001
 40
0.2812500000000001
 40
0.3125000000000001
 40
0.3125000000000001
 40
0.3437500000000001
 40
0.3437500000000001
 40
0.3750000000000001
 40
0.3750000000000001
 40
0.4062500000000001
 40
0.4062500000000001
 40
0.4375000000000001
 40
0.4375000000000001
 40
0.4687500000000001
 40
0.4687500000000001
 40
0.5000000000000001
 40
0.5000000000000001
 40
0.5312500000000001
 40
0.5312500000000001
 40
0.5625000000000001
 40
0.5625000000000001
 40
0.5937500000000001
 40
0.5937500000000001
 40
0.6250000000000001
 40
0.6250000000000001
 40
0.6562500000000001
 40
0.6562500000000001
 40
0.6875000000000001
 40
0.6875000000000001
 40
0.7187500000000001
 40
0.7187500000000001
 40
0.7500000000000002
 40
0.7500000000000002
 40
0.7812500000000002
 40
0.7812500000000002
 40
0.8125000000000002
 40
0.8125000000000002
 40
0.8437500000000002
 40
0.8437500000000002
 40
0.8750000000000002
 40
0.8750000000000002
 40
0.9062500000000002
 40
0.9062500000000002
 40
0.9375000000000002
 40
0.9375000000000002
 40
1.0
 40
1.0
 40
1.0
 40
1.0
 10
211.6974677997997
 20
50.81478646897851
 30
0.0
 10
211.6367465637598
 20
50.73924982861089
 30
0.0
 10
211.5842615901171
 20
50.6605393096559
 30
0.0
 10
211.4950444331504
 20
50.49708377231349
 30
0.0
 10
211.4580461692563
 20
50.41136682221411
 30
0.0
 10
211.4024196545323
 20
50.23893062339739
 30
0.0
 10
211.3836439877551
 20
50.15253022383826
 30
0.0
 10
211.3638416060921
 20
49.97957466037808
 30
0.0
 10
211.3630529001356
 20
49.89258252226146
 30
0.0
 10
211.3794729349569
 20
49.72608770872814
 30
0.0
 10
211.3964748920812
 20
49.64565627183089
 30
0.0
 10
211.4483287965966
 20
49.49081823296374
 30
0.0
 10
211.482898733482
 20
49.41773695910045
 30
0.0
 10
211.5670219420876
 20
49.28374374613756
 30
0.0
 10
211.6171921748263
 20
49.22183481798803
 30
0.0
 10
211.7317913396387
 20
49.11159844236654
 30
0.0
 10
211.7951185544779
 20
49.06412276251604
 30
0.0
 10
211.9334864756849
 20
48.98412256953305
 30
0.0
 10
212.0094327179022
 20
48.9514326631155
 30
0.0
 10
212.1676689920585
 20
48.90385767837655
 30
0.0
 10
212.2502208321152
 20
48.8885804638153
 30
0.0
 10
212.42234776076
 20
48.87499927721092
 30
0.0
 10
212.5117387282654
 20
48.87694832270518
 30
0.0
 10
212.6900505529577
 20
48.89763457857037
 30
0.0
 10
212.7799214563867
 20
48.9162524048609
 30
0.0
 10
212.9613656012487
 20
48.97045060177125
 30
0.0
 10
213.0499751124381
 20
49.00514716650017
 30
0.0
 10
213.2231893129302
 20
49.08881504660272
 30
0.0
 10
213.308701162252
 20
49.13843972444282
 30
0.0
 10
213.4708614189757
 20
49.24941338146055
 30
0.0
 10
213.5472698860421
 20
49.31036495485648
 30
0.0
 10
213.6909337528991
 20
49.44295991580319
 30
0.0
 10
213.7584665987863
 20
49.51517795028442
 30
0.0
 10
213.8784368220233
 20
49.66433385438543
 30
0.0
 10
213.9316865030069
 20
49.74190047129773
 30
0.0
 10
214.0243687249031
 20
49.90320145901752
 30
0.0
 10
214.0629797118326
 20
49.98577534192262
 30
0.0
 10
214.123070733787
 20
50.15050548805362
 30
0.0
 10
214.1450277663429
 20
50.23390989381185
 30
0.0
 10
214.1711264805757
 20
50.39926616974921
 30
0.0
 10
214.1751723510722
 20
50.47979260585237
 30
0.0
 10
214.1655475665328
 20
50.6369360766991
 30
0.0
 10
214.1515372369878
 20
50.7142963253074
 30
0.0
 10
214.1061366835132
 20
50.85948777591724
 30
0.0
 10
214.0749176473612
 20
50.92779176734739
 30
0.0
 10
213.9951459609729
 20
51.05598965345786
 30
0.0
 10
213.9464369920009
 20
51.11561863740249
 30
0.0
 10
213.8355738331695
 20
51.22126711652151
 30
0.0
 10
213.7730135834868
 20
51.26804468411419
 30
0.0
 10
213.6330155551633
 20
51.34907031301192
 30
0.0
 10
213.5577015017519
 20
51.38205740736676
 30
0.0
 10
213.397572874011
 20
51.43322548376028
 30
0.0
 10
213.3116722219457
 20
51.45154511751385
 30
0.0
 10
213.1347458636862
 20
51.47182020732524
 30
0.0
 10
213.0442414154786
 20
51.47392942126982
 30
0.0
 10
212.8593383185602
 20
51.462052926007
 30
0.0
 10
212.7643272252644
 20
51.44776508178617
 30
0.0
 10
212.5784981500968
 20
51.40368011487615
 30
0.0
 10
212.48674649554
 20
51.37392438778632
 30
0.0
 10
212.3057879774355
 20
51.29835130353896
 30
0.0
 10
212.2179148123605
 20
51.25293220958745
 30
0.0
 10
211.9691693104513
 20
51.09768493364512
 30
0.0
 10
211.8189102718794
 20
50.96585974971372
 30
0.0
 10
211.6974677997997
 20
50.81478646897851
 30
0.0
  0
ARC
  5
22C
330
1F
100
AcDbEntity
  8
0
  6
Continuous
 62
     7
370
    25
100
AcDbCircle
 10
216.1017199155
 20
55.0208851964
 30
0.0
 40
5.828172727349559
100
AcDbArc
 50
60.7091982155
 51
95.2256664708
  0
ARC
  5
22D
330
1F
100
AcDbEntity
  8
0
  6
Continuous
 62
     7
370
    25
100
AcDbCircle
 10
206.2402284529
 20
37.8871566614
 30
0.0
 40
5.904084334507674
100
AcDbArc
 50
205.3297498474
 51
239.0564677197
  0
ELLIPSE
  5
22E
330
1F
100
AcDbEntity
  8
0
  6
Continuous
 62
     7
370
    25
100
AcDbEllipse
 10
223.2479210381
 20
39.4385305166
 30
0.0
 11
3.47591856092609
 21
15.7518319531232
 31
0.0
210
0.0
220
0.0
230
1.0
 40
0.6979108556
 41
5.412461905590188
 42
8.289980899405272
  0
SPLINE
  5
22F
330
1F
100
AcDbEntity
  8
0
  6
Continuous
 62
     7
370
    25
100
AcDbSpline
210
0.0
220
0.0
230
1.0
 70
     8
 71
     3
 72
    14
 73
    10
 74
     0
 42
0.000000001
 43
0.00000001
 40
0.0
 40
0.0
 40
0.0
 40
0.0
 40
0.25
 40
0.25
 40
0.5
 40
0.5
 40
0.75
 40
0.75
 40
1.0
 40
1.0
 40
1.0
 40
1.0
 10
211.8150559266617
 20
34.98521007167346
 30
0.0
 10
211.8359295663064
 20
34.77111092408415
 30
0.0
 10
211.8776163541781
 20
34.55811546262376
 30
0.0
 10
211.9999820665042
 20
34.13353974731611
 30
0.0
 10
212.0819292457105
 20
33.92016879787937
 30
0.0
 10
212.2760611851988
 20
33.51438098411337
 30
0.0
 10
212.3889343826666
 20
33.31910508589174
 30
0.0
 10
212.6433265223564
 20
32.94616984867795
 30
0.0
 10
212.7812722833525
 20
32.77356006363275
 30
0.0
 10
212.9289779903831
 20
32.61427769301979
 30
0.0
  0
SPLINE
  5
230
330
1F
100
AcDbEntity
  8
0
  6
Continuous
 62
     7
370
    25
100
AcDbSpline
210
0.0
220
0.0
230
1.0
 70
     8
 71
     3
 72
    14
 73
    10
 74
     0
 42
0.000000001
 43
0.00000001
 40
0.0
 40
0.0
 40
0.0
 40
0.0
 40
0.25
 40
0.25
 40
0.5
 40
0.5
 40
0.75
 40
0.75
 40
1.0
 40
1.0
 40
1.0
 40
1.0
 10
235.202442920048
 20
45.47247530248352
 30
0.0
 10
235.0539717551668
 20
45.63132079173383
 30
0.0
 10
234.9148918922201
 20
45.80187548019986
 30
0.0
 10
234.6528717439128
 20
46.16436867447
 30
0.0
 10
234.529068818147
 20
46.35832959729347
 30
0.0
 10
234.3075545678701
 20
46.74833108029605
 30
0.0
 10
234.2081565493351
 20
46.94648090309003
 30
0.0
 10
234.0315623063024
 20
47.34594222014445
 30
0.0
 10
233.9569481883974
 20
47.54128906552199
 30
0.0
 10
233.895043244968
 20
47.73171543353629
 30
0.0
  0
SPLINE
  5
231
330
1F
100
AcDbEntity
  8
0
  6
Continuous
 62
     7
370
    25
100
AcDbSpline
210
0.0
220
0.0
230
1.0
 70
     8
 71
     3
 72
    12
 73
     8
 74
     0
 42
0.000000001
 43
0.00000001
 40
0.0
 40
0.0
 40
0.0
 40
0.0
 40
0.2500000000000018
 40
0.2500000000000018
 40
0.5000000000000037
 40
0.5000000000000037
 40
1.0
 40
1.0
 40
1.0
 40
1.0
 10
203.9932795056565
 20
42.11278779403762
 30
0.0
 10
203.9709855054519
 20
42.12565784640897
 30
0.0
 10
203.952873029363
 20
42.14968706946413
 30
0.0
 10
203.9263081580709
 20
42.20479893535056
 30
0.0
 10
203.9177072251737
 20
42.23474999134692
 30
0.0
 10
203.8993378792515
 20
42.32619202954488
 30
0.0
 10
203.8971355948829
 20
42.38755336263633
 30
0.0
 10
203.899494800788
 20
42.44823711976277
 30
0.0
  0
LINE
  5
232
330
1F
100
AcDbEntity
  8
0
  6
Continuous
 62
     7
370
    25
100
AcDbLine
 10
205.0343126463
 20
41.511812154
 30
0.0
 11
203.9932795057
 21
42.112787794
 31
0.0
  0
SPLINE
  5
233
330
1F
100
AcDbEntity
  8
0
  6
Continuous
 62
     7
370
    25
100
AcDbSpline
210
0.0
220
0.0
230
1.0
 70
     8
 71
     3
 72
    12
 73
     8
 74
     0
 42
0.000000001
 43
0.00000001
 40
0.0
 40
0.0
 40
0.0
 40
0.0
 40
0.4999999999999953
 40
0.4999999999999953
 40
0.7499999999999977
 40
0.7499999999999977
 40
1.0
 40
1.0
 40
1.0
 40
1.0
 10
205.2467141593188
 20
41.6705039385992
 30
0.0
 10
205.2223328626331
 20
41.62255666770604
 30
0.0
 10
205.1946350924722
 20
41.57846218700195
 30
0.0
 10
205.1423425665158
 20
41.52776761927015
 30
0.0
 10
205.1230416348693
 20
41.51365777483868
 30
0.0
 10
205.080672080749
 20
41.49895467533689
 30
0.0
 10
205.0565738199658
 20
41.49896105205642
 30
0.0
 10
205.0343126463394
 20
41.51181215404753
 30
0.0
  0
ELLIPSE
  5
234
330
1F
100
AcDbEntity
  8
0
  6
Continuous
 62
     7
370
    25
100
AcDbEllipse
 10
210.0721283491
 20
47.0447537329
 30
0.0
 11
7.874888476696753
 21
13.6399645105016
 31
0.0
210
0.0
220
0.0
230
1.0
 40
0.1059897947
 41
1.105338485463655
 42
2.03609985260734
  0
SPLINE
  5
235
330
1F
100
AcDbEntity
  8
0
  6
Continuous
 62
     7
370
    25
100
AcDbSpline
210
0.0
220
0.0
230
1.0
 70
     8
 71
     3
 72
    12
 73
     8
 74
     0
 42
0.000000001
 43
0.00000001
 40
0.0
 40
0.0
 40
0.0
 40
0.0
 40
0.2499999999999982
 40
0.2499999999999982
 40
0.4999999999999963
 40
0.4999999999999963
 40
1.0
 40
1.0
 40
1.0
 40
1.0
 10
212.3459472105117
 20
54.17593466840311
 30
0.0
 10
212.3682412107163
 20
54.16306461603175
 30
0.0
 10
212.3801855864683
 20
54.14259731905214
 30
0.0
 10
212.3887868928908
 20
54.09785896958469
 30
0.0
 10
212.3861478726224
 20
54.07439870979486
 30
0.0
 10
212.3684049291636
 20
54.003810629569
 30
0.0
 10
212.3440738318893
 20
53.95777167107975
 30
0.0
 10
212.3147319153803
 20
53.91266976496726
 30
0.0
  0
LINE
  5
236
330
1F
100
AcDbEntity
  8
0
  6
Continuous
 62
     7
370
    25
100
AcDbLine
 10
211.3049140698
 20
54.7769103084
 30
0.0
 11
212.3459472105
 21
54.1759346684
 31
0.0
  0
SPLINE
  5
237
330
1F
100
AcDbEntity
  8
0
  6
Continuous
 62
     7
370
    25
100
AcDbSpline
210
0.0
220
0.0
230
1.0
 70
     8
 71
     3
 72
    12
 73
     8
 74
     0
 42
0.000000001
 43
0.00000001
 40
0.0
 40
0.0
 40
0.0
 40
0.0
 40
0.4999999999999989
 40
0.4999999999999989
 40
0.7499999999999994
 40
0.7499999999999994
 40
1.0
 40
1.0
 40
1.0
 40
1.0
 10
210.9675125568495
 20
54.69040294613083
 30
0.0
 10
211.0188663861762
 20
54.72277424353299
 30
0.0
 10
211.0730946150782
 20
54.75154803753873
 30
0.0
 10
211.1615194286671
 20
54.78137709880055
 30
0.0
 10
211.192180638059
 20
54.78892666254328
 30
0.0
 10
211.2522365019907
 20
54.7934163535957
 30
0.0
 10
211.2826528962025
 20
54.7897614103843
 30
0.0
 10
211.3049140698289
 20
54.77691030839319
 30
0.0
  0
ELLIPSE
  5
238
330
1F
100
AcDbEntity
  8
0
  6
Continuous
 62
     7
370
    25
100
AcDbEllipse
 10
220.2170983671
 20
41.188187202
 30
0.0
 11
14.30238360604707
 21
-8.263902107297781
 31
0.0
210
0.0
220
0.0
230
1.0
 40
0.9534948969
 41
2.676532761479947
 42
3.607294128623637
  0
SPLINE
  5
239
330
1F
100
AcDbEntity
  8
0
  6
Continuous
 62
     7
370
    25
100
AcDbSpline
210
0.0
220
0.0
230
1.0
 70
     8
 71
     3
 72
    12
 73
     8
 74
     0
 42
0.000000001
 43
0.00000001
 40
0.0
 40
0.0
 40
0.0
 40
0.0
 40
0.2499999999999986
 40
0.2499999999999986
 40
0.4999999999999972
 40
0.4999999999999972
 40
1.0
 40
1.0
 40
1.0
 40
1.0
 10
217.9432795056564
 20
58.60915710282981
 30
0.0
 10
217.9209773441683
 20
58.62203186660983
 30
0.0
 10
217.9090327893057
 20
58.63605337363322
 30
0.0
 10
217.9004387231961
 20
58.66176604607719
 30
0.0
 10
217.9030846208061
 20
58.67322159691893
 30
0.0
 10
217.9208492206527
 20
58.70467609079914
 30
0.0
 10
217.9453406863508
 20
58.72132632331709
 30
0.0
 10
217.9744948007879
 20
58.73544769435812
 30
0.0
  0
LINE
  5
23A
330
1F
100
AcDbEntity
  8
0
  6
Continuous
 62
     7
370
    25
100
AcDbLine
 10
218.9843126463
 20
58.0081814628
 30
0.0
 11
217.9432795057
 21
58.6091571028
 31
0.0
  0
SPLINE
  5
23B
330
1F
100
AcDbEntity
  8
0
  6
Continuous
 62
     7
370
    25
100
AcDbSpline
210
0.0
220
0.0
230
1.0
 70
     8
 71
     3
 72
    12
 73
     8
 74
     0
 42
0.000000001
 43
0.00000001
 40
0.0
 40
0.0
 40
0.0
 40
0.0
 40
0.4999999999999972
 40
0.4999999999999972
 40
0.7499999999999986
 40
0.7499999999999986
 40
1.0
 40
1.0
 40
1.0
 40
1.0
 10
219.3217141593187
 20
57.95771451319455
 30
0.0
 10
219.2710577220095
 20
57.95624141387871
 30
0.0
 10
219.2160465559401
 20
57.95691799592841
 30
0.0
 10
219.128023107212
 20
57.96619060260949
 30
0.0
 10
219.0972480783057
 20
57.9707582746562
 30
0.0
 10
219.0365154723011
 20
57.98518677639681
 30
0.0
 10
219.006472140366
 20
57.99538905923211
 30
0.0
 10
218.9843126463393
 20
58.00818146283977
 30
0.0
  0
ELLIPSE
  5
23C
330
1F
100
AcDbEntity
  8
0
  6
Continuous
 62
     7
370
    25
100
AcDbEllipse
 10
210.0721283491
 20
47.0447537329
 30
0.0
 11
15.90471575942231
 21
8.322204981099004
 31
0.0
210
0.0
220
0.0
230
1.0
 40
0.4445305117
 41
0.2747775750656686
 42
0.74007699457543
  0
ELLIPSE
  5
23D
330
1F
100
AcDbEntity
  8
0
  6
Continuous
 62
     7
370
    25
100
AcDbEllipse
 10
220.2170983671
 20
41.188187202
 30
0.0
 11
-0.7461041289971889
 21
17.9347738606024
 31
0.0
210
0.0
220
0.0
230
1.0
 40
0.4444802122
 41
5.846123912132797
 42
6.473758866427504
  0
ELLIPSE
  5
23E
330
1F
100
AcDbEntity
  8
0
  6
Continuous
 62
     7
370
    25
100
AcDbEllipse
 10
210.0721283491
 20
47.0447537329
 30
0.0
 11
-0.7461041289971605
 21
17.93477386060238
 31
0.0
210
0.0
220
0.0
230
1.0
 40
0.4444802122
 41
2.401404845694032
 42
2.866866793327969
  0
SPLINE
  5
23F
330
1F
100
AcDbEntity
  8
0
  6
Continuous
 62
     7
370
    25
100
AcDbSpline
210
0.0
220
0.0
230
1.0
 70
     8
 71
     3
 72
    12
 73
     8
 74
     0
 42
0.000000001
 43
0.00000001
 40
0.0
 40
0.0
 40
0.0
 40
0.0
 40
0.2500000000000023
 40
0.2500000000000023
 40
0.5000000000000046
 40
0.5000000000000046
 40
1.0
 40
1.0
 40
1.0
 40
1.0
 10
205.0343126463394
 20
33.84607276816693
 30
0.0
 10
205.0566148078275
 20
33.8331980043869
 30
0.0
 10
205.0803221707668
 20
33.81238376531937
 30
0.0
 10
205.123384164636
 20
33.76676671325269
 30
0.0
 10
205.1423874478906
 20
33.74280929350098
 30
0.0
 10
205.1946611183756
 20
33.67090942296456
 30
0.0
 10
205.2224797731178
 20
33.62405138385564
 30
0.0
 10
205.2467141593188
 20
33.579099468211
 30
0.0
  0
LINE
  5
240
330
1F
100
AcDbEntity
  8
0
  6
Continuous
 62
     7
370
    25
100
AcDbLine
 10
203.9932795057
 20
34.4470484082
 30
0.0
 11
205.0343126463
 21
33.8460727682
 31
0.0
  0
SPLINE
  5
241
330
1F
100
AcDbEntity
  8
0
  6
Continuous
 62
     7
370
    25
100
AcDbSpline
210
0.0
220
0.0
230
1.0
 70
     8
 71
     3
 72
    12
 73
     8
 74
     0
 42
0.000000001
 43
0.00000001
 40
0.0
 40
0.0
 40
0.0
 40
0.0
 40
0.5
 40
0.5
 40
0.75
 40
0.75
 40
1.0
 40
1.0
 40
1.0
 40
1.0
 10
203.899494800788
 20
34.35683264937459
 30
0.0
 10
203.8971685110363
 20
34.38890196904408
 30
0.0
 10
203.8993695161229
 20
34.41872195468677
 30
0.0
 10
203.9176348765639
 20
34.44973292642975
 30
0.0
 10
203.9264011195112
 20
34.45787478638097
 30
0.0
 10
203.9528651250478
 20
34.46323555765988
 30
0.0
 10
203.9711200116298
 20
34.45984081176462
 30
0.0
 10
203.9932795056565
 20
34.44704840815696
 30
0.0
  0
ELLIPSE
  5
242
330
1F
100
AcDbEntity
  8
0
  6
Continuous
 62
     7
370
    25
100
AcDbEllipse
 10
220.2170983671
 20
41.188187202
 30
0.0
 11
15.90471575942232
 21
8.322204981098977
 31
0.0
210
0.0
220
0.0
230
1.0
 40
0.4445305117
 41
2.950908281021527
 42
3.578705763440481
  0
ELLIPSE
  5
243
330
1F
100
AcDbEntity
  8
0
  6
Continuous
 62
     7
370
    25
100
AcDbEllipse
 10
215.8806339252
 20
41.508515159
 30
0.0
 11
0.7849570700370806
 21
1.725973029687623
 31
0.0
210
0.0
220
0.0
230
1.0
 40
0.4747191434
 41
0.0
 42
6.283185307179586
  0
LINE
  5
244
330
1F
100
AcDbEntity
  8
0
  6
Continuous
 62
     7
370
    25
100
AcDbLine
 10
220.72161556
 20
24.1050588224
 30
0.0
 11
219.3758988815
 21
15.9326512516
 31
0.0
  0
ELLIPSE
  5
245
330
1F
100
AcDbEntity
  8
0
  6
Continuous
 62
     7
370
    25
100
AcDbEllipse
 10
233.7152213748
 20
33.3958866535
 30
0.0
 11
13.74362755307348
 21
17.99796246659594
 31
0.0
210
0.0
220
0.0
230
1.0
 40
0.4710319141
 41
3.040078071553722
 42
3.066713115652148
  0
ELLIPSE
  5
246
330
1F
100
AcDbEntity
  8
0
  6
Continuous
 62
     7
370
    25
100
AcDbEllipse
 10
221.0472895003
 20
40.7089280622
 30
0.0
 11
1.875607000141685
 21
24.87733991867219
 31
0.0
210
0.0
220
0.0
230
1.0
 40
0.0815354673
 41
3.102397427558421
 42
3.238117450508359
  0
ELLIPSE
  5
247
330
1F
100
AcDbEntity
  8
0
  6
Continuous
 62
     7
370
    25
100
AcDbEllipse
 10
223.6165307404
 20
15.8904315903
 30
0.0
 11
4.533794214564836
 21
3.552713678800501E-15
 31
0.0
210
0.0
220
0.0
230
1.0
 40
0.572984697
 41
2.621734726645307
 42
2.678633476052734
  0
LINE
  5
248
330
1F
100
AcDbEntity
  8
0
  6
Continuous
 62
     7
370
    25
100
AcDbLine
 10
219.6816971486
 20
17.1809038763
 30
0.0
 11
226.8104503422
 21
24.3172731352
 31
0.0
  0
ELLIPSE
  5
249
330
1F
100
AcDbEntity
  8
0
  6
Continuous
 62
     7
370
    25
100
AcDbEllipse
 10
228.0564631134
 20
36.6626182635
 30
0.0
 11
6.543066883315189
 21
14.68468430397832
 31
0.0
210
0.0
220
0.0
230
1.0
 40
0.3553756933
 41
3.889694686910776
 42
5.451115876371137
  0
SPLINE
  5
24A
330
1F
100
AcDbEntity
  8
0
  6
Continuous
 62
     7
370
    25
100
AcDbSpline
210
0.0
220
0.0
230
1.0
 70
     8
 71
     3
 72
    12
 73
     8
 74
     0
 42
0.000000001
 43
0.00000001
 40
0.0
 40
0.0
 40
0.0
 40
0.0
 40
0.2500000000000022
 40
0.2500000000000022
 40
0.5000000000000044
 40
0.5000000000000044
 40
1.0
 40
1.0
 40
1.0
 40
1.0
 10
212.9289779903831
 20
32.61427769301979
 30
0.0
 10
212.9658555502085
 20
32.57450979732042
 30
0.0
 10
212.9966842554037
 20
32.53339776238753
 30
0.0
 10
213.0451651218862
 20
32.4478597127813
 30
0.0
 10
213.0618539086549
 20
32.40485733761223
 30
0.0
 10
213.0858881701139
 20
32.27768207192815
 30
0.0
 10
213.0652417756575
 20
32.19721780632652
 30
0.0
 10
213.008335084357
 20
32.13451170985748
 30
0.0
  0
SPLINE
  5
24B
330
1F
100
AcDbEntity
  8
0
  6
Continuous
 62
     7
370
    25
100
AcDbSpline
210
0.0
220
0.0
230
1.0
 70
     8
 71
     3
 72
    12
 73
     8
 74
     0
 42
0.000000001
 43
0.00000001
 40
0.0
 40
0.0
 40
0.0
 40
0.0
 40
0.4999999999999956
 40
0.4999999999999956
 40
0.7499999999999978
 40
0.7499999999999978
 40
1.0
 40
1.0
 40
1.0
 40
1.0
 10
235.6855406013231
 20
45.27676129350598
 30
0.0
 10
235.5983830545084
 20
45.27284156839038
 30
0.0
 10
235.5053482605263
 20
45.28876249480538
 30
0.0
 10
235.3795413424772
 20
45.33976834697113
 30
0.0
 10
235.3391836864035
 20
45.36145001516768
 30
0.0
 10
235.2655802774291
 20
45.41192000472265
 30
0.0
 10
235.2323009834377
 20
45.44053092667832
 30
0.0
 10
235.202442920048
 20
45.47247530248352
 30
0.0
  0
SPLINE
  5
24C
330
1F
100
AcDbEntity
  8
0
  6
Continuous
 62
     7
370
    25
100
AcDbSpline
210
0.0
220
0.0
230
1.0
 70
     8
 71
     3
 72
     8
 73
     4
 74
     0
 42
0.000000001
 43
0.00000001
 40
0.0
 40
0.0
 40
0.0
 40
0.0
 40
1.0
 40
1.0
 40
1.0
 40
1.0
 10
236.2172989950959
 20
44.89094260640201
 30
0.0
 10
236.0360513090238
 20
44.99557466841533
 30
0.0
 10
235.8589759318449
 20
45.12451338477352
 30
0.0
 10
235.6855406013231
 20
45.2767612935062
 30
0.0
  0
SPLINE
  5
24D
330
1F
100
AcDbEntity
  8
0
  6
Continuous
 62
     7
370
    25
100
AcDbSpline
210
0.0
220
0.0
230
1.0
 70
     8
 71
     3
 72
     8
 73
     4
 74
     0
 42
0.000000001
 43
0.00000001
 40
0.0
 40
0.0
 40
0.0
 40
0.0
 40
1.0
 40
1.0
 40
1.0
 40
1.0
 10
213.008335084357
 20
32.13451170985744
 30
0.0
 10
212.5564083954999
 20
31.63652882066079
 30
0.0
 10
212.1040387845685
 20
31.16202283314595
 30
0.0
 10
211.651185887856
 20
30.70922737588885
 30
0.0
  0
ARC
  5
24E
330
1F
100
AcDbEntity
  8
0
  6
Continuous
 62
     7
370
    25
100
AcDbCircle
 10
213.6751967993
 20
46.4962579071
 30
0.0
 40
23.18312597171879
100
AcDbArc
 50
140.2279276209
 51
177.3607126388
  0
LINE
  5
24F
330
1F
100
AcDbEntity
  8
0
  6
Continuous
 62
     7
370
    25
100
AcDbLine
 10
203.9932795057
 20
34.4470484082
 30
0.0
 11
205.0358272118
 21
33.8450027771
 31
0.0
  0
LWPOLYLINE
  5
250
330
1F
100
AcDbEntity
  8
0
  6
Continuous
 62
     7
370
    25
100
AcDbPolyline
 90
        9
 70
   128
 43
0.0
 10
200.1377959432
 20
63.7987123719
 10
199.6355585484
 20
63.794784084
 10
199.1052896494
 20
63.696526072
 10
198.5560622939
 20
63.5056195577
 10
197.9972739143
 20
63.2253310045
 10
197.4384855347
 20
62.8604562273
 10
196.8892581792
 20
62.4172383347
 10
196.3589892802
 20
61.9032609077
 10
195.8567518854
 20
61.3273182425
  0
ARC
  5
251
330
1F
100
AcDbEntity
  8
0
  6
Continuous
 62
     7
370
    25
100
AcDbCircle
 10
193.5875938504
 20
47.276466423
 30
0.0
 40
3.084343446773501
100
AcDbArc
 50
174.6547638622
 51
232.6759834224
  0
ARC
  5
252
330
1F
100
AcDbEntity
  8
0
  6
Continuous
 62
     7
370
    25
100
AcDbCircle
 10
199.7025735357
 20
58.4590350201
 30
0.0
 40
5.357384881182396
100
AcDbArc
 50
62.0480659028
 51
85.3402793033
  0
LWPOLYLINE
  5
253
330
1F
100
AcDbEntity
  8
0
  6
Continuous
 62
     7
370
    25
100
AcDbPolyline
 90
       12
 70
   128
 43
0.0
 10
190.2925189281
 20
48.0467042715
 10
190.3394931669
 20
49.2125460799
 10
190.4799904774
 20
50.422065146
 10
190.7127384942
 20
51.6643078779
 10
191.0356294151
 20
52.9280243331
 10
191.4457390901
 20
54.2017700996
 10
191.9393535023
 20
55.4740099386
 10
192.5120024033
 20
56.733222249
 10
193.1584997958
 20
57.9680034091
 10
193.8729908995
 20
59.1671710497
 10
194.6490051722
 20
60.3198653228
 10
195.4795149085
 20
61.4156472506
  0
ARC
  5
254
330
1F
100
AcDbEntity
  8
0
  6
Continuous
 62
     7
370
    25
100
AcDbCircle
 10
200.2588742531
 20
57.9574741166
 30
0.0
 40
5.899257340447868
100
AcDbArc
 50
103.4689958683
 51
144.1118487458
  0
ARC
  5
255
330
1F
100
AcDbEntity
  8
0
  6
Continuous
 62
     7
370
    25
100
AcDbCircle
 10
194.2035565848
 20
47.9686045433
 30
0.0
 40
3.911817367876785
100
AcDbArc
 50
178.8560094402
 51
201.1091694604
  0
LINE
  5
256
330
1F
100
AcDbEntity
  8
0
  6
Continuous
 62
     7
370
    18
100
AcDbLine
 10
218.6799679307
 20
27.3619372507
 30
0.0
 11
218.6799679307
 21
27.4685440664
 31
0.0
  0
LINE
  5
257
330
1F
100
AcDbEntity
  8
0
  6
Continuous
 62
     7
370
    18
100
AcDbLine
 10
217.0827237327
 20
27.4934720223
 30
0.0
 11
217.0827237327
 21
27.6757238039
 31
0.0
  0
LINE
  5
258
330
1F
100
AcDbEntity
  8
0
  6
Continuous
 62
     7
370
    18
100
AcDbLine
 10
218.6756145027
 20
27.6668051598
 30
0.0
 11
218.6756145027
 21
27.9629877437
 31
0.0
  0
LINE
  5
259
330
1F
100
AcDbEntity
  8
0
  6
Continuous
 62
     7
370
    18
100
AcDbLine
 10
217.4525799424
 20
27.448076833
 30
0.0
 11
217.4525799424
 21
28.1216282456
 31
0.0
  0
LINE
  5
25A
330
1F
100
AcDbEntity
  8
0
  6
Continuous
 62
     7
370
    18
100
AcDbLine
 10
218.306205092
 20
27.4860436288
 30
0.0
 11
218.306205092
 21
28.1595477241
 31
0.0
  0
LINE
  5
25B
330
1F
100
AcDbEntity
  8
0
  6
Continuous
 62
     7
370
    18
100
AcDbLine
 10
217.9319954543
 20
27.5345352338
 30
0.0
 11
217.9319954543
 21
28.2080866464
 31
0.0
  0
SPLINE
  5
25C
330
1F
100
AcDbEntity
  8
0
  6
Continuous
 62
     7
370
    18
100
AcDbSpline
210
0.0
220
0.0
230
1.0
 70
     8
 71
     3
 72
     9
 73
     5
 74
     0
 42
0.000000001
 43
0.00000001
 40
0.0
 40
0.0
 40
0.0
 40
0.0
 40
0.419388531151151
 40
1.0
 40
1.0
 40
1.0
 40
1.0
 10
220.5876167235706
 20
25.94376619657453
 30
0.0
 10
220.4626398960632
 20
25.93802412831456
 30
0.0
 10
220.1646421726529
 20
25.92433260402753
 30
0.0
 10
219.8314788999524
 20
25.9215303733895
 30
0.0
 10
219.6380404828233
 20
25.9199033661427
 30
0.0
  0
SPLINE
  5
25D
330
1F
100
AcDbEntity
  8
0
  6
Continuous
 62
     7
370
    18
100
AcDbSpline
210
0.0
220
0.0
230
1.0
 70
     8
 71
     3
 72
     9
 73
     5
 74
     0
 42
0.000000001
 43
0.00000001
 40
0.0
 40
0.0
 40
0.0
 40
0.0
 40
0.5806114688479949
 40
1.0
 40
1.0
 40
1.0
 40
1.0
 10
216.3080404828233
 20
25.91990336614269
 30
0.0
 10
216.1146020656945
 20
25.92153037338953
 30
0.0
 10
215.781438792994
 20
25.92433260402764
 30
0.0
 10
215.4834410695814
 20
25.93802412831435
 30
0.0
 10
215.3584642420728
 20
25.94376619657418
 30
0.0
  0
LINE
  5
25E
330
1F
100
AcDbEntity
  8
0
  6
Continuous
 62
     7
370
    18
100
AcDbLine
 10
219.6380404828
 20
25.9199033661
 30
0.0
 11
216.3080404828
 21
25.9199033661
 31
0.0
  0
SPLINE
  5
25F
330
1F
100
AcDbEntity
  8
0
  6
Continuous
 62
     7
370
    18
100
AcDbSpline
210
0.0
220
0.0
230
1.0
 70
     8
 71
     3
 72
     9
 73
     5
 74
     0
 42
0.000000001
 43
0.00000001
 40
0.0
 40
0.0
 40
0.0
 40
0.0
 40
0.4193885311511158
 40
1.0
 40
1.0
 40
1.0
 40
1.0
 10
220.5876167235706
 20
28.9624916687629
 30
0.0
 10
220.6418600211855
 20
28.91591600286353
 30
0.0
 10
220.7711990316395
 20
28.80485987605067
 30
0.0
 10
220.7976707180776
 20
28.62500836126337
 30
0.0
 10
220.8130404828233
 20
28.52058450908802
 30
0.0
  0
SPLINE
  5
260
330
1F
100
AcDbEntity
  8
0
  6
Continuous
 62
     7
370
    18
100
AcDbSpline
210
0.0
220
0.0
230
1.0
 70
     8
 71
     3
 72
     9
 73
     5
 74
     0
 42
0.000000001
 43
0.00000001
 40
0.0
 40
0.0
 40
0.0
 40
0.0
 40
0.5806114688480135
 40
1.0
 40
1.0
 40
1.0
 40
1.0
 10
220.8130404828233
 20
26.5982164278432
 30
0.0
 10
220.7976707180771
 20
26.47930103751065
 30
0.0
 10
220.771199031638
 20
26.27449042540115
 30
0.0
 10
220.6418600211874
 20
26.04148570430583
 30
0.0
 10
220.5876167235739
 20
25.9437661965742
 30
0.0
  0
LINE
  5
261
330
1F
100
AcDbEntity
  8
0
  6
Continuous
 62
     7
370
    18
100
AcDbLine
 10
220.8130404828
 20
28.5205845091
 30
0.0
 11
220.8130404828
 21
26.5982164278
 31
0.0
  0
SPLINE
  5
262
330
1F
100
AcDbEntity
  8
0
  6
Continuous
 62
     7
370
    18
100
AcDbSpline
210
0.0
220
0.0
230
1.0
 70
     8
 71
     3
 72
     9
 73
     5
 74
     0
 42
0.000000001
 43
0.00000001
 40
0.0
 40
0.0
 40
0.0
 40
0.0
 40
0.4193885311511507
 40
1.0
 40
1.0
 40
1.0
 40
1.0
 10
215.3584642420761
 20
25.94376619657451
 30
0.0
 10
215.3042209444612
 20
26.04148570430609
 30
0.0
 10
215.1748819340071
 20
26.27449042540169
 30
0.0
 10
215.148410247569
 20
26.47930103751073
 30
0.0
 10
215.1330404828233
 20
26.59821642784318
 30
0.0
  0
SPLINE
  5
263
330
1F
100
AcDbEntity
  8
0
  6
Continuous
 62
     7
370
    18
100
AcDbSpline
210
0.0
220
0.0
230
1.0
 70
     8
 71
     3
 72
     9
 73
     5
 74
     0
 42
0.000000001
 43
0.00000001
 40
0.0
 40
0.0
 40
0.0
 40
0.0
 40
0.5806114688480131
 40
1.0
 40
1.0
 40
1.0
 40
1.0
 10
215.1330404828233
 20
28.52058450908802
 30
0.0
 10
215.1484102475696
 20
28.62500836126298
 30
0.0
 10
215.1748819340086
 20
28.80485987604987
 30
0.0
 10
215.3042209444592
 20
28.91591600286563
 30
0.0
 10
215.3584642420728
 20
28.96249166876631
 30
0.0
  0
LINE
  5
264
330
1F
100
AcDbEntity
  8
0
  6
Continuous
 62
     7
370
    18
100
AcDbLine
 10
215.1330404828
 20
26.5982164278
 30
0.0
 11
215.1330404828
 21
28.5205845091
 31
0.0
  0
LINE
  5
265
330
1F
100
AcDbEntity
  8
0
  6
Continuous
 62
     7
370
    18
100
AcDbLine
 10
219.6380404828
 20
25.9199033661
 30
0.0
 11
219.6380404828
 21
26.1219540654
 31
0.0
  0
SPLINE
  5
266
330
1F
100
AcDbEntity
  8
0
  6
Continuous
 62
     7
370
    18
100
AcDbSpline
210
0.0
220
0.0
230
1.0
 70
     8
 71
     3
 72
     9
 73
     5
 74
     0
 42
0.000000001
 43
0.00000001
 40
0.0
 40
0.0
 40
0.0
 40
0.0
 40
0.6645094358480271
 40
1.0
 40
1.0
 40
1.0
 40
1.0
 10
219.6380404828233
 20
26.12195406537263
 30
0.0
 10
219.7995353540356
 20
26.1201145603729
 30
0.0
 10
220.0425640643896
 20
26.11734634535519
 30
0.0
 10
220.2673203184054
 20
26.11223989395881
 30
0.0
 10
220.3427239208619
 20
26.11052672769903
 30
0.0
  0
SPLINE
  5
267
330
1F
100
AcDbEntity
  8
0
  6
Continuous
 62
     7
370
    18
100
AcDbSpline
210
0.0
220
0.0
230
1.0
 70
     8
 71
     3
 72
     9
 73
     5
 74
     0
 42
0.000000001
 43
0.00000001
 40
0.0
 40
0.0
 40
0.0
 40
0.0
 40
0.3354905641519514
 40
1.0
 40
1.0
 40
1.0
 40
1.0
 10
215.6033570447848
 20
26.110526727699
 30
0.0
 10
215.6787606472412
 20
26.11223989395878
 30
0.0
 10
215.903516901257
 20
26.11734634535516
 30
0.0
 10
216.1465456116111
 20
26.12011456037289
 30
0.0
 10
216.3080404828233
 20
26.12195406537262
 30
0.0
  0
SPLINE
  5
268
330
1F
100
AcDbEntity
  8
0
  6
Continuous
 62
     7
370
    18
100
AcDbSpline
210
0.0
220
0.0
230
1.0
 70
    24
 71
     3
 72
    10
 73
     6
 74
     0
 42
0.000000001
 43
0.00000001
 40
0.0
 40
0.0
 40
0.0
 40
0.0
 40
0.2765306019329772
 40
0.5626682704061954
 40
1.0
 40
1.0
 40
1.0
 40
1.0
 10
216.3080404828233
 20
25.91990336614269
 30
0.0
 10
216.3080404828233
 20
25.9258908975258
 30
0.0
 10
216.3080404828233
 20
25.93807397565093
 30
0.0
 10
216.3080404828233
 20
26.00108427121845
 30
0.0
 10
216.3080404828233
 20
26.0764163803433
 30
0.0
 10
216.3080404828233
 20
26.12195406537262
 30
0.0
  0
LINE
  5
269
330
1F
100
AcDbEntity
  8
0
  6
Continuous
 62
     7
370
    18
100
AcDbLine
 10
216.3080404828
 20
26.1219540654
 30
0.0
 11
219.6380404828
 21
26.1219540654
 31
0.0
  0
LINE
  5
26A
330
1F
100
AcDbEntity
  8
0
  6
Continuous
 62
     7
370
    18
100
AcDbLine
 10
220.4630404828
 20
26.5982164278
 30
0.0
 11
220.1380404828
 21
26.7514311965
 31
0.0
  0
SPLINE
  5
26B
330
1F
100
AcDbEntity
  8
0
  6
Continuous
 62
     7
370
    18
100
AcDbSpline
210
0.0
220
0.0
230
1.0
 70
     8
 71
     3
 72
     9
 73
     5
 74
     0
 42
0.000000001
 43
0.00000001
 40
0.0
 40
0.0
 40
0.0
 40
0.0
 40
0.3354905641519798
 40
1.0
 40
1.0
 40
1.0
 40
1.0
 10
220.3427239208619
 20
26.11052672769903
 30
0.0
 10
220.366752204876
 20
26.16964070020776
 30
0.0
 10
220.4383735456277
 20
26.34584229520092
 30
0.0
 10
220.4531928891919
 20
26.49746302333076
 30
0.0
 10
220.4630404828233
 20
26.59821642784319
 30
0.0
  0
LINE
  5
26C
330
1F
100
AcDbEntity
  8
0
  6
Continuous
 62
     7
370
    18
100
AcDbLine
 10
219.6380404828
 20
26.1219540654
 30
0.0
 11
219.6380404828
 21
26.4627873405
 31
0.0
  0
LINE
  5
26D
330
1F
100
AcDbEntity
  8
0
  6
Continuous
 62
     7
370
    18
100
AcDbLine
 10
215.4830404828
 20
26.5982164278
 30
0.0
 11
215.8080404827
 21
26.7514311965
 31
0.0
  0
LINE
  5
26E
330
1F
100
AcDbEntity
  8
0
  6
Continuous
 62
     7
370
    18
100
AcDbLine
 10
216.3080404828
 20
26.1219540654
 30
0.0
 11
216.3080404828
 21
26.4627873405
 31
0.0
  0
SPLINE
  5
26F
330
1F
100
AcDbEntity
  8
0
  6
Continuous
 62
     7
370
    18
100
AcDbSpline
210
0.0
220
0.0
230
1.0
 70
     8
 71
     3
 72
     9
 73
     5
 74
     0
 42
0.000000001
 43
0.00000001
 40
0.0
 40
0.0
 40
0.0
 40
0.0
 40
0.6645094358480015
 40
1.0
 40
1.0
 40
1.0
 40
1.0
 10
215.4830404828233
 20
26.59821642784318
 30
0.0
 10
215.4928880764548
 20
26.49746302333075
 30
0.0
 10
215.5077074200189
 20
26.3458422952009
 30
0.0
 10
215.5793287607706
 20
26.16964070020774
 30
0.0
 10
215.6033570447848
 20
26.110526727699
 30
0.0
  0
SPLINE
  5
270
330
1F
100
AcDbEntity
  8
0
  6
Continuous
 62
     7
370
    18
100
AcDbSpline
210
0.0
220
0.0
230
1.0
 70
     8
 71
     3
 72
    10
 73
     6
 74
     0
 42
0.000000001
 43
0.00000001
 40
0.0
 40
0.0
 40
0.0
 40
0.0
 40
0.2765306019329449
 40
0.5626682704061614
 40
1.0
 40
1.0
 40
1.0
 40
1.0
 10
220.8130404828233
 20
26.5982164278432
 30
0.0
 10
220.7824926048987
 20
26.58656904467016
 30
0.0
 10
220.720335572309
 20
26.56286963166155
 30
0.0
 10
220.5954496028026
 20
26.55378479162111
 30
0.0
 10
220.5129256079103
 20
26.58147681254247
 30
0.0
 10
220.4630404828233
 20
26.59821642784319
 30
0.0
  0
SPLINE
  5
271
330
1F
100
AcDbEntity
  8
0
  6
Continuous
 62
     7
370
    18
100
AcDbSpline
210
0.0
220
0.0
230
1.0
 70
     8
 71
     3
 72
    10
 73
     6
 74
     0
 42
0.000000001
 43
0.00000001
 40
0.0
 40
0.0
 40
0.0
 40
0.0
 40
0.2765306019329762
 40
0.5626682704061998
 40
1.0
 40
1.0
 40
1.0
 40
1.0
 10
215.4830404828233
 20
26.59821642784319
 30
0.0
 10
215.4524926048987
 20
26.58656904467015
 30
0.0
 10
215.390335572309
 20
26.56286963166154
 30
0.0
 10
215.2654496028026
 20
26.55378479162109
 30
0.0
 10
215.1829256079103
 20
26.58147681254245
 30
0.0
 10
215.1330404828233
 20
26.59821642784318
 30
0.0
  0
LINE
  5
272
330
1F
100
AcDbEntity
  8
0
  6
Continuous
 62
     7
370
    18
100
AcDbLine
 10
220.4630404828
 20
28.5205845091
 30
0.0
 11
220.1380404828
 21
28.6737992778
 31
0.0
  0
LINE
  5
273
330
1F
100
AcDbEntity
  8
0
  6
Continuous
 62
     7
370
    18
100
AcDbLine
 10
220.4630404828
 20
26.5982164278
 30
0.0
 11
220.4630404828
 21
28.5205845091
 31
0.0
  0
LINE
  5
274
330
1F
100
AcDbEntity
  8
0
  6
Continuous
 62
     7
370
    18
100
AcDbLine
 10
215.4830404828
 20
28.5205845091
 30
0.0
 11
215.4830404828
 21
26.5982164278
 31
0.0
  0
LINE
  5
275
330
1F
100
AcDbEntity
  8
0
  6
Continuous
 62
     7
370
    18
100
AcDbLine
 10
215.4830404828
 20
28.5205845091
 30
0.0
 11
215.8080404828
 21
28.6737992778
 31
0.0
  0
ARC
  5
276
330
1F
100
AcDbEntity
  8
0
  6
Continuous
 62
     7
370
    18
100
AcDbCircle
 10
220.6380404828
 20
28.899741997
 30
0.0
 40
0.4175947804103554
100
AcDbArc
 50
245.2243316833
 51
294.7756683167
  0
ARC
  5
277
330
1F
100
AcDbEntity
  8
0
  6
Continuous
 62
     7
370
    18
100
AcDbCircle
 10
215.3080404828
 20
28.899741997
 30
0.0
 40
0.4175947804106521
100
AcDbArc
 50
245.2243316833
 51
294.7756683167
  0
LINE
  5
278
330
1F
100
AcDbEntity
  8
0
  6
Continuous
 62
     7
370
    18
100
AcDbLine
 10
219.774956769
 20
27.3647555829
 30
0.0
 11
219.6865945977
 21
27.544390396
 31
0.0
  0
LINE
  5
279
330
1F
100
AcDbEntity
  8
0
  6
Continuous
 62
     7
370
    18
100
AcDbLine
 10
216.1879876926
 20
27.4103382973
 30
0.0
 11
216.1711241967
 21
27.3647555829
 31
0.0
  0
LINE
  5
27A
330
1F
100
AcDbEntity
  8
0
  6
Continuous
 62
     7
370
    18
100
AcDbLine
 10
219.6380404828
 20
28.9968468716
 30
0.0
 11
219.6380404828
 21
28.9624431338
 31
0.0
  0
SPLINE
  5
27B
330
1F
100
AcDbEntity
  8
0
  6
Continuous
 62
     7
370
    18
100
AcDbSpline
210
0.0
220
0.0
230
1.0
 70
     8
 71
     3
 72
     9
 73
     5
 74
     0
 42
0.000000001
 43
0.00000001
 40
0.0
 40
0.0
 40
0.0
 40
0.0
 40
0.3354905641520218
 40
1.0
 40
1.0
 40
1.0
 40
1.0
 10
220.3427239208619
 20
28.84650498832351
 30
0.0
 10
220.2673203184055
 20
28.87596062079102
 30
0.0
 10
220.0425640643896
 20
28.96375931206557
 30
0.0
 10
219.7995353540356
 20
28.98363757696479
 30
0.0
 10
219.6380404828233
 20
28.9968468715586
 30
0.0
  0
SPLINE
  5
27C
330
1F
100
AcDbEntity
  8
0
  6
Continuous
 62
     7
370
    18
100
AcDbSpline
210
0.0
220
0.0
230
1.0
 70
     8
 71
     3
 72
     9
 73
     5
 74
     0
 42
0.000000001
 43
0.00000001
 40
0.0
 40
0.0
 40
0.0
 40
0.0
 40
0.6645094358480238
 40
1.0
 40
1.0
 40
1.0
 40
1.0
 10
220.4630404828233
 20
28.52058450908803
 30
0.0
 10
220.4531928891919
 20
28.60628911400691
 30
0.0
 10
220.4383735456278
 20
28.73526336221981
 30
0.0
 10
220.366752204876
 20
28.81855981454206
 30
0.0
 10
220.3427239208619
 20
28.84650498832351
 30
0.0
  0
SPLINE
  5
27D
330
1F
100
AcDbEntity
  8
0
  6
Continuous
 62
     7
370
    18
100
AcDbSpline
210
0.0
220
0.0
230
1.0
 70
     8
 71
     3
 72
     9
 73
     5
 74
     0
 42
0.000000001
 43
0.00000001
 40
0.0
 40
0.0
 40
0.0
 40
0.0
 40
0.3354905641519704
 40
0.9999999999999999
 40
0.9999999999999999
 40
0.9999999999999999
 40
0.9999999999999999
 10
215.6033570447848
 20
28.84650498832354
 30
0.0
 10
215.5793287607707
 20
28.81855981454209
 30
0.0
 10
215.5077074200189
 20
28.73526336221983
 30
0.0
 10
215.4928880764548
 20
28.60628911400692
 30
0.0
 10
215.4830404828233
 20
28.52058450908803
 30
0.0
  0
SPLINE
  5
27E
330
1F
100
AcDbEntity
  8
0
  6
Continuous
 62
     7
370
    18
100
AcDbSpline
210
0.0
220
0.0
230
1.0
 70
     8
 71
     3
 72
     9
 73
     5
 74
     0
 42
0.000000001
 43
0.00000001
 40
0.0
 40
0.0
 40
0.0
 40
0.0
 40
0.664509435848038
 40
0.9999999999999999
 40
0.9999999999999999
 40
0.9999999999999999
 40
0.9999999999999999
 10
216.3080404828233
 20
28.99684687155859
 30
0.0
 10
216.1465456116111
 20
28.98363757696477
 30
0.0
 10
215.9035169012571
 20
28.96375931206554
 30
0.0
 10
215.6787606472412
 20
28.87596062079104
 30
0.0
 10
215.6033570447848
 20
28.84650498832354
 30
0.0
  0
LINE
  5
27F
330
1F
100
AcDbEntity
  8
0
  6
Continuous
 62
     7
370
    18
100
AcDbLine
 10
216.3080404828
 20
28.9968468716
 30
0.0
 11
216.3080404828
 21
28.9624431338
 31
0.0
  0
LINE
  5
280
330
1F
100
AcDbEntity
  8
0
  6
Continuous
 62
     7
370
    18
100
AcDbLine
 10
219.6380404828
 20
28.9968468716
 30
0.0
 11
216.3080404828
 21
28.9968468716
 31
0.0
  0
LINE
  5
281
330
1F
100
AcDbEntity
  8
0
  6
Continuous
 62
     7
370
    18
100
AcDbLine
 10
219.6380404828
 20
28.9968468716
 30
0.0
 11
219.6380404828
 21
29.1988975708
 31
0.0
  0
SPLINE
  5
282
330
1F
100
AcDbEntity
  8
0
  6
Continuous
 62
     7
370
    18
100
AcDbSpline
210
0.0
220
0.0
230
1.0
 70
     8
 71
     3
 72
     9
 73
     5
 74
     0
 42
0.000000001
 43
0.00000001
 40
0.0
 40
0.0
 40
0.0
 40
0.0
 40
0.5806114688480062
 40
1.0
 40
1.0
 40
1.0
 40
1.0
 10
219.6380404828233
 20
29.19889757078855
 30
0.0
 10
219.8314788999522
 20
29.18277902538408
 30
0.0
 10
220.1646421726527
 20
29.15501769742333
 30
0.0
 10
220.4626398960652
 20
29.01937757885709
 30
0.0
 10
220.5876167235739
 20
28.96249166876632
 30
0.0
  0
SPLINE
  5
283
330
1F
100
AcDbEntity
  8
0
  6
Continuous
 62
     7
370
    18
100
AcDbSpline
210
0.0
220
0.0
230
1.0
 70
     8
 71
     3
 72
     9
 73
     5
 74
     0
 42
0.000000001
 43
0.00000001
 40
0.0
 40
0.0
 40
0.0
 40
0.0
 40
0.4193885311519953
 40
1.0
 40
1.0
 40
1.0
 40
1.0
 10
215.3584642420728
 20
28.96249166876631
 30
0.0
 10
215.4834410695815
 20
29.01937757885709
 30
0.0
 10
215.781438792994
 20
29.15501769742334
 30
0.0
 10
216.1146020656945
 20
29.18277902538408
 30
0.0
 10
216.3080404828233
 20
29.19889757078854
 30
0.0
  0
SPLINE
  5
284
330
1F
100
AcDbEntity
  8
0
  6
Continuous
 62
     7
370
    18
100
AcDbSpline
210
0.0
220
0.0
230
1.0
 70
    24
 71
     3
 72
    10
 73
     6
 74
     0
 42
0.000000001
 43
0.00000001
 40
0.0
 40
0.0
 40
0.0
 40
0.0
 40
0.2765306019330265
 40
0.5626682704062578
 40
1.0
 40
1.0
 40
1.0
 40
1.0
 10
216.3080404828233
 20
28.9968468715586
 30
0.0
 10
216.3080404828233
 20
29.00283440294171
 30
0.0
 10
216.3080404828233
 20
29.01501748106686
 30
0.0
 10
216.3080404828233
 20
29.07802777663437
 30
0.0
 10
216.3080404828233
 20
29.15335988575923
 30
0.0
 10
216.3080404828233
 20
29.19889757078854
 30
0.0
  0
LINE
  5
285
330
1F
100
AcDbEntity
  8
0
  6
Continuous
 62
     7
370
    18
100
AcDbLine
 10
216.3080404828
 20
29.1988975708
 30
0.0
 11
219.6380404828
 21
29.1988975708
 31
0.0
  0
LINE
  5
286
330
1F
100
AcDbEntity
  8
0
  6
Continuous
 62
     7
370
    18
100
AcDbLine
 10
211.6511858879
 20
30.7092273759
 30
0.0
 11
236.2172989951
 21
44.8909426064
 31
0.0
  0
LWPOLYLINE
  5
287
330
1F
100
AcDbEntity
  8
0
  6
Continuous
 62
     7
370
    18
100
AcDbPolyline
 90
       25
 70
   128
 43
0.0
 10
199.9418175626
 20
40.0344299084
 10
199.9830445359
 20
41.1637815567
 10
200.1064202257
 20
42.3323715307
 10
200.3110312016
 20
43.5315479992
 10
200.5953625955
 20
44.752432679
 10
200.9573093172
 20
45.9859865671
 10
201.3941916399
 20
47.2230768623
 10
201.9027750396
 20
48.4545445806
 10
202.4792941429
 20
49.6712723661
 10
203.119480604
 20
50.8642519918
 10
203.8185947063
 20
52.024651054
 10
204.5714604535
 20
53.143878364
 10
205.3725038912
 20
54.2136475545
 10
206.215794374
 20
55.2260384286
 10
207.0950884741
 20
56.1735555984
 10
208.0038762057
 20
57.0491839784
 10
208.9354292223
 20
57.8464407224
 10
209.8828506315
 20
58.5594232204
 10
210.8391260564
 20
59.1828527995
 10
211.7971755685
 20
59.712113805
 10
212.7499061044
 20
60.1432877739
 10
213.6902639805
 20
60.4731824447
 10
214.611287116
 20
60.6993553928
 10
215.506156578
 20
60.8201321129
 10
215.5708975675
 20
60.8248342808
  0
ARC
  5
288
330
1F
100
AcDbEntity
  8
0
  6
Continuous
 62
     7
370
    18
100
AcDbCircle
 10
210.5500518256
 20
39.7824475071
 30
0.0
 40
10.61122656951256
100
AcDbArc
 50
178.6392821545
 51
204.6235730296
  0
LINE
  5
289
330
1F
100
AcDbEntity
  8
0
  6
Continuous
 62
     7
370
    18
100
AcDbLine
 10
212.9364694623
 20
32.063795491
 30
0.0
 11
212.9289779904
 21
32.614277693
 31
0.0
  0
LINE
  5
28A
330
1F
100
AcDbEntity
  8
0
  6
Continuous
 62
     7
370
    18
100
AcDbLine
 10
211.8150559267
 20
34.9852100717
 30
0.0
 11
233.895043245
 21
47.7317154335
 31
0.0
  0
ARC
  5
28B
330
1F
100
AcDbEntity
  8
0
  6
Continuous
 62
     7
370
    18
100
AcDbCircle
 10
219.4972996704
 20
26.2045725252
 30
0.0
 40
9.169198183299523
100
AcDbArc
 50
193.489584378
 51
237.9981989952
  0
LINE
  5
28C
330
1F
100
AcDbEntity
  8
0
  6
Continuous
 62
     7
370
    18
100
AcDbLine
 10
221.6278324389
 20
30.1230757447
 30
0.0
 11
221.1480404828
 21
26.9323674791
 31
0.0
  0
LINE
  5
28D
330
1F
100
AcDbEntity
  8
0
  6
Continuous
 62
     7
370
    18
100
AcDbLine
 10
220.7228935129
 20
24.1050588224
 30
0.0
 11
219.6816971486
 21
17.1809038763
 31
0.0
  0
LINE
  5
28E
330
1F
100
AcDbEntity
  8
0
  6
Continuous
 62
     7
370
    18
100
AcDbLine
 10
212.3459472105
 20
54.1759346684
 30
0.0
 11
210.9924712208
 21
51.8316454943
 31
0.0
  0
LINE
  5
28F
330
1F
100
AcDbEntity
  8
0
  6
Continuous
 62
     7
370
    18
100
AcDbLine
 10
206.3878789919
 20
43.8562578291
 30
0.0
 11
205.0343126463
 21
41.511812154
 31
0.0
  0
LINE
  5
290
330
1F
100
AcDbEntity
  8
0
  6
Continuous
 62
     7
370
    18
100
AcDbLine
 10
211.3049140698
 20
54.7769103084
 30
0.0
 11
203.9932795057
 21
42.112787794
 31
0.0
  0
LINE
  5
291
330
1F
100
AcDbEntity
  8
0
  6
Continuous
 62
     7
370
    18
100
AcDbLine
 10
210.9675125568
 20
54.6904029461
 30
0.0
 11
203.8994948008
 21
42.4482371198
 31
0.0
  0
LINE
  5
292
330
1F
100
AcDbEntity
  8
0
  6
Continuous
 62
     7
370
    18
100
AcDbLine
 10
195.8567518854
 20
61.3273182425
 30
0.0
 11
206.2666644287
 21
55.4297777172
 31
0.0
  0
LINE
  5
293
330
1F
100
AcDbEntity
  8
0
  6
Continuous
 62
     7
370
    18
100
AcDbLine
 10
190.5166627961
 20
47.5637936884
 30
0.0
 11
199.9679606563
 21
41.8264570253
 31
0.0
  0
LINE
  5
294
330
1F
100
AcDbEntity
  8
0
  6
Continuous
 62
     7
370
    18
100
AcDbLine
 10
219.3212812162
 20
57.9577116996
 30
0.0
 11
217.9744948008
 21
58.7354476944
 31
0.0
  0
LINE
  5
295
330
1F
100
AcDbEntity
  8
0
  6
Continuous
 62
     7
370
    18
100
AcDbLine
 10
203.8994948008
 20
34.3568326494
 30
0.0
 11
205.2469120904
 21
33.5787323403
 31
0.0
  0
LINE
  5
296
330
1F
100
AcDbEntity
  8
0
  6
Continuous
 62
     7
370
    18
100
AcDbLine
 10
200.1377959432
 20
63.7987123719
 30
0.0
 11
209.7987576404
 21
58.5996559931
 31
0.0
  0
LINE
  5
297
330
1F
100
AcDbEntity
  8
0
  6
Continuous
 62
     7
370
    18
100
AcDbLine
 10
195.4795149085
 20
61.4156472506
 30
0.0
 11
195.8567518854
 21
61.3273182425
 31
0.0
  0
LINE
  5
298
330
1F
100
AcDbEntity
  8
0
  6
Continuous
 62
     7
370
    18
100
AcDbLine
 10
190.2925189281
 20
48.0467042715
 30
0.0
 11
190.5166627961
 21
47.5637936884
 31
0.0
  0
OLE2FRAME
  5
299
330
1F
100
AcDbEntity
  8
0
100
AcDbOle2Frame
 70
     2
  3
Paintbrush-Bild
 10
13.8511154363
 20
38.264191557
 30
0.0
 11
51.6290888628
 21
31.9806341108
 31
0.0
 71
     2
 72
     0
 73
     1
 90
    12928
310
80552BED0767C5B32B40DDAF6807D121434000000000000000006FFBDDFB85D0
310
4940DDAF6807D121434000000000000000006FFBDDFB85D04940416F4BD60AFB
310
3F4000000000000000002BED0767C5B32B40416F4BD60AFB3F40000000000000
310
0000000000000100000000010000010000000100000000000100000000320000
310
D0CF11E0A1B11AE1000000000000000000000000000000003E000300FEFF0900
310
0600000000000000000000000100000001000000000000000010000002000000
310
01000000FEFFFFFF0000000000000000FFFFFFFFFFFFFFFFFFFFFFFFFFFFFFFF
310
FFFFFFFFFFFFFFFFFFFFFFFFFFFFFFFFFFFFFFFFFFFFFFFFFFFFFFFFFFFFFFFF
310
FFFFFFFFFFFFFFFFFFFFFFFFFFFFFFFFFFFFFFFFFFFFFFFFFFFFFFFFFFFFFFFF
310
FFFFFFFFFFFFFFFFFFFFFFFFFFFFFFFFFFFFFFFFFFFFFFFFFFFFFFFFFFFFFFFF
310
FFFFFFFFFFFFFFFFFFFFFFFFFFFFFFFFFFFFFFFFFFFFFFFFFFFFFFFFFFFFFFFF
310
FFFFFFFFFFFFFFFFFFFFFFFFFFFFFFFFFFFFFFFFFFFFFFFFFFFFFFFFFFFFFFFF
310
FFFFFFFFFFFFFFFFFFFFFFFFFFFFFFFFFFFFFFFFFFFFFFFFFFFFFFFFFFFFFFFF
310
FFFFFFFFFFFFFFFFFFFFFFFFFFFFFFFFFFFFFFFFFFFFFFFFFFFFFFFFFFFFFFFF
310
FFFFFFFFFFFFFFFFFFFFFFFFFFFFFFFFFFFFFFFFFFFFFFFFFFFFFFFFFFFFFFFF
310
FFFFFFFFFFFFFFFFFFFFFFFFFFFFFFFFFFFFFFFFFFFFFFFFFFFFFFFFFFFFFFFF
310
FFFFFFFFFFFFFFFFFFFFFFFFFFFFFFFFFFFFFFFFFFFFFFFFFFFFFFFFFFFFFFFF
310
FFFFFFFFFFFFFFFFFFFFFFFFFFFFFFFFFFFFFFFFFFFFFFFFFFFFFFFFFFFFFFFF
310
FFFFFFFFFFFFFFFFFFFFFFFFFFFFFFFFFFFFFFFFFFFFFFFFFFFFFFFFFFFFFFFF
310
FFFFFFFFFFFFFFFFFFFFFFFFFFFFFFFFFFFFFFFFFFFFFFFFFFFFFFFFFFFFFFFF
310
FDFFFFFFFEFFFFFFFEFFFFFFFEFFFFFF05000000060000000700000008000000
310
090000000A0000000B0000000C0000000D0000000E0000000F00000010000000
310
11000000120000001300000014000000150000001600000017000000FEFFFFFF
310
FFFFFFFFFFFFFFFFFFFFFFFFFFFFFFFFFFFFFFFFFFFFFFFFFFFFFFFFFFFFFFFF
310
FFFFFFFFFFFFFFFFFFFFFFFFFFFFFFFFFFFFFFFFFFFFFFFFFFFFFFFFFFFFFFFF
310
FFFFFFFFFFFFFFFFFFFFFFFFFFFFFFFFFFFFFFFFFFFFFFFFFFFFFFFFFFFFFFFF
310
FFFFFFFFFFFFFFFFFFFFFFFFFFFFFFFFFFFFFFFFFFFFFFFFFFFFFFFFFFFFFFFF
310
FFFFFFFFFFFFFFFFFFFFFFFFFFFFFFFFFFFFFFFFFFFFFFFFFFFFFFFFFFFFFFFF
310
FFFFFFFFFFFFFFFFFFFFFFFFFFFFFFFFFFFFFFFFFFFFFFFFFFFFFFFFFFFFFFFF
310
FFFFFFFFFFFFFFFFFFFFFFFFFFFFFFFFFFFFFFFFFFFFFFFFFFFFFFFFFFFFFFFF
310
FFFFFFFFFFFFFFFFFFFFFFFFFFFFFFFFFFFFFFFFFFFFFFFFFFFFFFFFFFFFFFFF
310
FFFFFFFFFFFFFFFFFFFFFFFFFFFFFFFFFFFFFFFFFFFFFFFFFFFFFFFFFFFFFFFF
310
FFFFFFFFFFFFFFFFFFFFFFFFFFFFFFFFFFFFFFFFFFFFFFFFFFFFFFFFFFFFFFFF
310
FFFFFFFFFFFFFFFFFFFFFFFFFFFFFFFFFFFFFFFFFFFFFFFFFFFFFFFFFFFFFFFF
310
FFFFFFFFFFFFFFFFFFFFFFFFFFFFFFFFFFFFFFFFFFFFFFFFFFFFFFFFFFFFFFFF
310
FFFFFFFFFFFFFFFFFFFFFFFFFFFFFFFFFFFFFFFFFFFFFFFFFFFFFFFFFFFFFFFF
310
52006F006F007400200045006E00740072007900000000000000000000000000
310
0000000000000000000000000000000000000000000000000000000000000000
310
16000500FFFFFFFFFFFFFFFF020000000A00030000000000C000000000000046
310
000000000000000000000000C0E3F3CFE2A3D30103000000C000000000000000
310
01004F006C006500000000000000000000000000000000000000000000000000
310
0000000000000000000000000000000000000000000000000000000000000000
310
0A000200FFFFFFFFFFFFFFFFFFFFFFFF00000000000000000000000000000000
310
0000000000000000000000000000000000000000000000001400000000000000
310
010043006F006D0070004F0062006A0000000000000000000000000000000000
310
0000000000000000000000000000000000000000000000000000000000000000
310
120002010100000003000000FFFFFFFF00000000000000000000000000000000
310
0000000000000000000000000000000000000000010000004D00000000000000
310
01004F006C006500310030004E00610074006900760065000000000000000000
310
0000000000000000000000000000000000000000000000000000000000000000
310
1A000200FFFFFFFFFFFFFFFFFFFFFFFF00000000000000000000000000000000
310
0000000000000000000000000000000000000000040000002426000000000000
310
FEFFFFFF02000000FEFFFFFFFFFFFFFFFFFFFFFFFFFFFFFFFFFFFFFFFFFFFFFF
310
FFFFFFFFFFFFFFFFFFFFFFFFFFFFFFFFFFFFFFFFFFFFFFFFFFFFFFFFFFFFFFFF
310
FFFFFFFFFFFFFFFFFFFFFFFFFFFFFFFFFFFFFFFFFFFFFFFFFFFFFFFFFFFFFFFF
310
FFFFFFFFFFFFFFFFFFFFFFFFFFFFFFFFFFFFFFFFFFFFFFFFFFFFFFFFFFFFFFFF
310
FFFFFFFFFFFFFFFFFFFFFFFFFFFFFFFFFFFFFFFFFFFFFFFFFFFFFFFFFFFFFFFF
310
FFFFFFFFFFFFFFFFFFFFFFFFFFFFFFFFFFFFFFFFFFFFFFFFFFFFFFFFFFFFFFFF
310
FFFFFFFFFFFFFFFFFFFFFFFFFFFFFFFFFFFFFFFFFFFFFFFFFFFFFFFFFFFFFFFF
310
FFFFFFFFFFFFFFFFFFFFFFFFFFFFFFFFFFFFFFFFFFFFFFFFFFFFFFFFFFFFFFFF
310
FFFFFFFFFFFFFFFFFFFFFFFFFFFFFFFFFFFFFFFFFFFFFFFFFFFFFFFFFFFFFFFF
310
FFFFFFFFFFFFFFFFFFFFFFFFFFFFFFFFFFFFFFFFFFFFFFFFFFFFFFFFFFFFFFFF
310
FFFFFFFFFFFFFFFFFFFFFFFFFFFFFFFFFFFFFFFFFFFFFFFFFFFFFFFFFFFFFFFF
310
FFFFFFFFFFFFFFFFFFFFFFFFFFFFFFFFFFFFFFFFFFFFFFFFFFFFFFFFFFFFFFFF
310
FFFFFFFFFFFFFFFFFFFFFFFFFFFFFFFFFFFFFFFFFFFFFFFFFFFFFFFFFFFFFFFF
310
FFFFFFFFFFFFFFFFFFFFFFFFFFFFFFFFFFFFFFFFFFFFFFFFFFFFFFFFFFFFFFFF
310
FFFFFFFFFFFFFFFFFFFFFFFFFFFFFFFFFFFFFFFFFFFFFFFFFFFFFFFFFFFFFFFF
310
FFFFFFFFFFFFFFFFFFFFFFFFFFFFFFFFFFFFFFFFFFFFFFFFFFFFFFFFFFFFFFFF
310
0100000200000000000000000000000000000000000000000000000000000000
310
0000000000000000000000000000000000000000000000000000000000000000
310
0100FEFF030A0000FFFFFFFF0A00030000000000C00000000000004607000000
310
5042727573680007000000504272757368000700000050427275736800F439B2
310
7100000000000000000000000000000000000000000000000000000000000000
310
0000000000000000000000000000000000000000000000000000000000000000
310
0000000000000000000000000000000000000000000000000000000000000000
310
0000000000000000000000000000000000000000000000000000000000000000
310
0000000000000000000000000000000000000000000000000000000000000000
310
0000000000000000000000000000000000000000000000000000000000000000
310
0000000000000000000000000000000000000000000000000000000000000000
310
0000000000000000000000000000000000000000000000000000000000000000
310
0000000000000000000000000000000000000000000000000000000000000000
310
0000000000000000000000000000000000000000000000000000000000000000
310
0000000000000000000000000000000000000000000000000000000000000000
310
0000000000000000000000000000000000000000000000000000000000000000
310
20260000424D0E260000000000003E00000028000000B40200006E0000000100
310
01000000000000000000130B0000130B00000200000002000000000000FFFFFF
310
FFFFFFFFFFFFFFFFFFFFFFFFFFFFFFFFFFFFFFFFFFFFFFFFFFFFFFFFFFFFFFFF
310
FFFFFFFFFFFFFFFFFFFFFFFFFFFFFFFFFFFFFFFFFFFFFFFFFFFFFFFFFFFFFFFF
310
FFFFFFFFFFFFFFFFFFFFFFFFFFFFFFFFFFFFFFFFFFFFFFFFF000FFFFFFFFFFFF
310
FFFFFFFFFFFFFFFFFFFFFFFFFFFFFFFFFFFFFFFFFFFFFFFFFFFFFFFFFFFFFFFF
310
FFFFFFFFFFFFFFFFFFFFFFFFFFFFFFFFFFFFFFFFFFFFFFFFFFFFFFFFFFFFFFFF
310
FFFFFFFFFFFFFFFFFFFFFFFFFFFFFFFFF000FFFFFFFFFFFFFFFFFFFFFFFFFFFF
310
FFFFFFFFFFFFFFFFFFFFFFFFFFFFFFFFFFFFFFFFFFFFFFFFFFFFFFFFFFFFFFFF
310
FFFFFFFFFFFFFFFFFFFFFFFFFFFFFFFFFFFFFFFFFFFFFFFFFFFFFFFFFFFFFFFF
310
FFFFFFFFFFFFFFFFF000FFFFFFFFFFFFFFFFFFFFFFFFFFFFFFFFFFFFFFFFFFFF
310
FFFFFFFFFFFFFFFFFFFFFFFFFFFFFFFFFFFFFFFFFFFFFFFFFFFFFFFFFFFFFFFF
310
FFFFFFFFFFFFFFFFFFFFFFFFFFFFFFFFFFFFFFFFFFFFFFFFFFFFFFFFFFFFFFFF
310
F000FFFFFFFFFFFFFFFFFFFFFFFFFFFFFFFFFFFFFFFFFFFFFFFFFFFFFFFFFFFF
310
FFFFFFFFFFFFFFFFFFFFFFFFFFFFFFFFFFFFFFFFFFFFFFFFFFFFFFFFFFFFFFFF
310
FFFFFFFFFFFFFFFFFFFFFFFFFFFFFFFFFFFFFFFFFFFFFFFFF000FFFFFFFFFFFF
310
FFFFFFFFFFFFFFFFFFFFFFFFFFFFFFFFFFFFFFFFFFFFFFFFFFFFFFFFFFFFFFFF
310
FFFFFFFFFFFFFFFFFFFFFFFFFFFFFFFFFFFFFFFFFFFFFFFFFFFFFFFFFFFFFFFF
310
FFFFFFFFFFFFFFFFFFFFFFFFFFFFFFFFF000FFFFFFFFFFFFFFFFFFFFFFFFFFFF
310
FFFFFFFFFFFFFFFFFFFFFFFFFFFFFFFFFFFFFFFFFFFFFFFFFFFFFFFFFFFFFFFF
310
FFFFFFFFFFFFFFFFFFFFFFFFFFFFFFFFFFFFFFFFFFFFFFFFFFFFFFFFFFFFFFFF
310
FFFFFFFFFFFFFFFFF000FFFFFFFFFFFFFFFFFFFFFFFFFFFFFFFFFFFFFFFFFFFF
310
FFFFFFFFFFFFFFFFFFFFFFFFFFFFFFFFFFFFFFFFFFFFFFFFFFFFFFFFFFFFFFFF
310
FFFFFFFFFFFFFFFFFFFFFFFFFFFFFFFFFFFFFFFFFFFFFFFFFFFFFFFFFFFFFFFF
310
F000FFFFFFFFFFFFFFFFFFFFFFFFFFFFFFFFFFFFFFFFFFFFFFFFFFFFFFFFFFFF
310
FFFFFFFFFFFFFFFFFFFFFFFFFFFFFFFFFFFFFFFFFFFFFFFFFFFFFFFFFFFFFFFF
310
FFFFFFFFFFFFFFFFFFFFFFFFFFFFFFFFFFFFFFFFFFFFFFFFF000FFFFFFFFFFFF
310
FFFFFFFFFFFFFFFFFFFFFFFFFFFFFFFFFFFFFFFFFFFFFFFFFFFFFFFFFFFFFFFF
310
FFFFFFFFFFFFFFFFFFFFFFFFFFFFFFFFFFFFFFFFFFFFFFFFFFFFFFFFFFFFFFFF
310
FFFFFFFFFFFFFFFFFFFFFFFFFFFFFFFFF000FFFFFFFFFFFFFFFFFFFFFFFFFFFF
310
FFFFFFFFFFFFFFFFFFFFFFFFFFFFFFFFFFFFFFFFFFFFFFFFFFFFFFFFFFFFFFFF
310
FFFFFFFFFFFFFFFFFFFFFFFFFFFFFFFFFFFFFFFFFFFFFFFFFFFFFFFFFFFFFFFF
310
FFFFFFFFFFFFFFFFF000FFFFFFFFFFFFFFFFFFFFFFFFFFFFFFFFFFFFFFFFFFFF
310
FFFFFFFFFFFFFFFFFFFFFFFFFFFFFFFFFFFFFFFFFFFFFFFFFFFFFFFFFFFFFFFF
310
FFFFFFFFFFFFFFFFFFFFFFFFFFFFFFFFFFFFFFFFFFFFFFFFFFFFFFFFFFFFFFFF
310
F000FFFFFFFFFFFFFFFFFFFFFFFFFFFFFFFFFFFFFFFFFFFFFFFFFFFFFFFFFFFF
310
FFFFFFFFFFFFFFFFFFFFFFFFFFFFFFFFFFFFFFFFFFFFFFFFFFFFFFFFFFFFFFFF
310
FFFFFFFFFFFFFFFFFFFFFFFFFFFFFFFFFFFFFFFFFFFFFFFFF000FFFFFFFFFFFF
310
FFFFFFFFFFFFFFFFFFFFFFFFFFFFFFFFFFFFFFFFFFFFFFFFFFFFFFFFFFFFFFFF
310
FFFFFFFFFFFFFFFFFFFFFFFFFFFFFFFFFFFFFFFFFFFFFFFFFFFFFFFFFFFFFFFF
310
FFFFFFFFFFFFFFFFFFFFFFFFFFFFFFFFF000FFFFFFFFFFFFFFFFFFFFFFFFFFFF
310
FFFFFFFFFFFFFFFFFFFFFFFFFFFFFFFFFFFFFFFFFFFFFFFFFFFFFFFFFFFFFFFF
310
FFFFFFFFFFFFFFFFFFFFFFFFFFFFFFFFFFFFFFFFFFFFFFFFFFFFFFFFFFFFFFFF
310
FFFFFFFFFFFFFFFFF000FFFFFFFFFFFFFFFFFFFFFFFFFFFFFFFFFFFFFFFFFFFF
310
FFFFFFFFFFFFFFFFFFFFFFFFFFFFFFFFFFFFFFFFFFFFFFFFFFFFFFFFFFFFFFFF
310
FFFFFFFFFFFFFFFFFFFFFFFFFFFFFFFFFFFFFFFFFFFFFFFFFFFFFFFFFFFFFFFF
310
F000FFFFFFFFFFFFFFFFFFFFFFFFFFFFFFFFFFFFFFFFFFFFFFFFFFFFFFFFFFFF
310
FFFFFFFFFFFFFFFFFFFFFFFFFFFFFFFFFFFFFFFFFFFFFFFFFFFFFFFFFFFFFFFF
310
FFFFFFFFFFFFFFFFFFFFFFFFFFFFFFFFFFFFFFFFFFFFFFFFF000FFFFFFFFFFFF
310
FFFFFFFFFFFFFFFFFFFFFFFFFFFFFFFFFFFFFFFFFFFFFFFFFFFFFFFFFFFFFFFF
310
FFFFFFFFFFFFFFFFFFFFFFFFFFFFFFFFFFFFFFFFFFFFFFFFFFFFFFFFFFFFFFFF
310
FFFFFFFFFFFFFFFFFFFFFFFFFFFFFFFFF000FFFFFFFFFFFFFFFFFFFFFFFFFFFF
310
FFFFFFFFFFFFFFFFFFFFFFFFFFFFFFFFFFFFFFFFFFFFFFFFFFFFFFFFFFFFFFFF
310
FFFFFFFFFFFFFFFFFFFFFFFFFFFFFFFFFFFFFFFFFFFFFFFFFFFFFFFFFFFFFFFF
310
FFFFFFFFFFFFFFFFF000FFFFF80003FFFFFFFFFFFFFFFFFFFFFFFFFFFFFFFFFF
310
FFFFF00007FFFFFFFFFF00007FFFFFF800000000000000007FFFFFFFFFFFFFFF
310
FFFFFFFC001FFFFFFFFFFFFFFC001FFFFFFFFFFFFFFFFFFFFFFFFFFE0007FFFF
310
F000FFFF8000007FFFFFFFF8000FFFFFC0007FFFFF80007FFFFF0000007FFFFF
310
FFF8000007FFFFF800000000000000007FFFFFF0001FFFFFFFFFFFC00001FFFF
310
FFFFFFFFC00001FFFFFFFF000000000003FFFFE000007FFFF000FFFE0000000F
310
FFFFFFF0000FFFFF80007FFFFF80007FFFFC0000001FFFFFFFC0000001FFFFF8
310
00000000000000007FFFFFF0001FFFFFFFFFFE0000003FFFFFFFFFFE0000003F
310
FFFFFF000000000003FFFF0000000FFFF000FFF800000003FFFFFFF00007FFFF
310
80007FFFFF80007FFFF000000007FFFFFF000000003FFFF80000000000000000
310
7FFFFFF0001FFFFFFFFFF80000000FFFFFFFFFF80000000FFFFFFF0000000000
310
03FFFC00000003FFF000FFE000000000FFFFFFF00007FFFF80003FFFFF80007F
310
FFC000000001FFFFFC000000001FFFF800000000000000007FFFFFF0001FFFFF
310
FFFFE000000003FFFFFFFFE000000003FFFFFF000000000003FFF000000000FF
310
F000FF80000000007FFFFFF00007FFFF80003FFFFF80007FFF8000000000FFFF
310
F80000000007FFF800000000000000007FFFFFF0001FFFFFFFFFC000000001FF
310
FFFFFFC000000001FFFFFF000000000003FFC0000000007FF000FF0000000000
310
3FFFFFE00007FFFF00003FFFFF80007FFE00000000003FFFF00000000003FFF8
310
00000000000000007FFFFFF0001FFFFFFFFF8000000000FFFFFFFF8000000000
310
FFFFFF000000000003FF80000000003FF000FE00000000001FFFFFE00003FFFF
310
00003FFFFF80007FFC00000000001FFFE00000000001FFF8000001FFFE000000
310
7FFFFFF0001FFFFFFFFE00000000003FFFFFFE00000000003FFFFF0000000000
310
03FF00000000001FF000FC00000000000FFFFFE00003FFFF00001FFFFF80007F
310
F800000000001FFFC00000000000FFF8000001FFFE0000007FFFFFF0001FFFFF
310
FFFC00000000001FFFFFFC00000000001FFFFF000000000003FE00000000000F
310
F000F8000000000007FFFFE00003FFFF00001FFFFF80007FF800000000000FFF
310
800000000000FFF8000001FFFE0000007FFFFFF0001FFFFFFFF800000000000F
310
FFFFF800000000000FFFFF000000000003FC000000000007F000F80000000000
310
03FFFFC00003FFFE00001FFFFF80007FF0000000000007FF0000000000007FF8
310
000001FFFE0000007FFFFFF0001FFFFFFFF0000000000007FFFFF00000000000
310
07FFFF000000000003F8000000000003F000F0000000000003FFFFC00001FFFE
310
00001FFFFF80007FE0000000000007FE0000000000003FF8000001FFFE000000
310
7FFFFFF0001FFFFFFFF0000000000007FFFFF0000000000007FFFF0000000000
310
03F800001F800003F000E00001FFF00001FFFFC00001FFFE00000FFFFF80007F
310
E00001FFE00003FE00001FFF00003FF8000001FFFE0000007FFFFFF0001FFFFF
310
FFE000003E000003FFFFE000003E000003FFFF000000000003F00001FFF80001
310
F000E00007FFFC0001FFFFC00001FFFE00000FFFFF80007FC0000FFFFC0003FC
310
0000FFFFC0001FF8000001FFFE0000007FFFFFF0001FFFFFFFC00003FFE00001
310
FFFFC00003FFE00001FFFF0001FFFFFFFFF00007FFFE0001F000E0000FFFFF00
310
00FFFF800001FFFC00000FFFFF80007FC0001FFFFE0001FC0001FFFFE0001FF8
310
000001FFFE0000007FFFFFF0001FFFFFFF80000FFFF80000FFFF80000FFFF800
310
00FFFF0003FFFFFFFFE0000FFFFF8000F000C0003FFFFF8000FFFF800000FFFC
310
000007FFFF80007F80003FFFFF0001FC0003FFFFF0001FF8000001FFFE000000
310
7FFFFFF0001FFFFFFF80003FFFFE0000FFFF80003FFFFE0000FFFF0003FFFFFF
310
FFE0003FFFFF8000F000C0003FFFFF8000FFFF800000FFFC000007FFFF80007F
310
80007FFFFF8001F80007FFFFF8000FF8000001FFFE0000007FFFFFF0001FFFFF
310
FF00007FFFFF00007FFF00007FFFFF00007FFF0003FFFFFFFFE0003FFFFFC000
310
F000C0007FFFFFC000FFFF000000FFFC000007FFFF80007F8000FFFFFF8000F8
310
000FFFFFF8000FF8000001FFFE0000007FFFFFF0001FFFFFFF0000FFFFFF8000
310
7FFF0000FFFFFF80007FFF0003FFFFFFFFC0007FFFFFC00070008000FFFFFFC0
310
00FFFF000000FFF8000007FFFF80007F8000FFFFFF8000F8000FFFFFF8000FF8
310
000001FFFE0000007FFFFFF0001FFFFFFE0001FFFFFFC0003FFE0001FFFFFFC0
310
003FFF0003FFFFFFFFC0007FFFFFE00070008000FFFFFFC0007FFF0000007FF8
310
000003FFFF80007F0001FFFFFF8000F8000FFFFFF8000FF8000001FFFE000000
310
7FFFFFF0001FFFFFFE0001FFFFFFC0003FFE0001FFFFFFC0003FFF0003FFFFFF
310
FFC000FFFFFFE00070008000FFFFFFC0007FFF0000007FF8000003FFFF80007F
310
0001FFFFFF8000F8001FFFFFF8000FF8000001FFFE0000007FFFFFF0001FFFFF
310
FE0003FFFFFFE0003FFE0003FFFFFFE0003FFF0003FFFFFFFFC000FFFFFFE000
310
70008000FFFFFFC0007FFE0000007FF8000003FFFF80007F0001FFFFFF8000F0
310
001FFFFFF8000FF8000001FFFE0000007FFFFFF0001FFFFFFC0003FFFFFFE000
310
1FFC0003FFFFFFE0001FFF0003FFFFFFFFC000FFFFFFC00070008000FFFFFF80
310
007FFE0000007FF0000003FFFF80007F0001FFFFFF0000F0001FFFFFF8000FF8
310
000001FFFE0000007FFFFFF0001FFFFFFC0007FFFFFFF0001FFC0007FFFFFFF0
310
001FFF0003FFFFFFFFC000FFFFFFC00070008001FFFFFF0000FFFE0000003FF0
310
000001FFFF80007F0001FFFFFF0000F8001FFFFFF0000FF8000001FFFE000000
310
7FFFFFF0001FFFFFFC0007FFFFFFF0001FFC0007FFFFFFF0001FFF0003FFFFFF
310
FFC001FFFFFF80007000FFFFFFFFFE0000FFFE0008003FF0008001FFFF80007F
310
FFFFFFFFFC0000FFFFFFFFFFE0000FF8000001FFFE0000007FFFFFF0001FFFFF
310
F8000FFFFFFFF8000FF8000FFFFFFFF8000FFF0003FFFFFFFFFFFFFFFFFF0000
310
7000FFFFFFFFFC0000FFFC0008003FF0008001FFFF80007FFFFFFFFFF80001FF
310
FFFFFFFF80000FF8000001FFFE0000007FFFFFF0001FFFFFF8000FFFFFFFF800
310
0FF8000FFFFFFFF8000FFF0003FFFFFFFFFFFFFFFFFE0000F000FFFFFFFFE000
310
00FFFC000C003FE000C001FFFF80007FFFFFFFFFC00001FFFFFFFFFE00001FF8
310
000001FFFE0000007FFFFFF0001FFFFFF8000FFFFFFFF8000FF8000FFFFFFFF8
310
000FFF0003FFFFFFFFFFFFFFFFF00000F000FFFFFFFE000001FFFC000C001FE0
310
00C000FFFF80007FFFFFFFFE000001FFFFFFFFE000001FF80FFFFFFFFFFFFFC0
310
7FFFFFF0001FFFFFF8000FFFFFFFF8000FF8000FFFFFFFF8000FFF0003FFFFFF
310
FFFFFFFFFF800000F000FFFFFFC0000001FFFC001C001FE001C000FFFF80007F
310
FFFFFF80000003FFFFFFF80000001FF80FFFFFFFFFFFFFC07FFFFFF0001FFFFF
310
F8001FFFFFFFFC000FF8001FFFFFFFFC000FFF0003FFFFFFFFFFFFFFF0000001
310
F000FFFFF800000001FFF8001C001FE001C000FFFF80007FFFFFF800000003FF
310
FFFF800000003FF80FFFFFFFFFFFFFC07FFFFFF0001FFFFFF8001FFFFFFFFC00
310
0FF8001FFFFFFFFC000FFF0003FFFFFFFFFFFFFE00000001F000FFFFC0000000
310
03FFF8001E001FC001E000FFFF80007FFFFF8000000007FFFFFC000000003FF8
310
0FFFFFFFFFFFFFC07FFFFFF0001FFFFFF8001FFFFFFFFC000FF8001FFFFFFFFC
310
000FFF0003FFFFFFFFFFFFE000000003F000FFFE0000000007FFF8001E000FC0
310
01E0007FFF80007FFFFE0000000007FFFFE0000000007FF80FFFFFFFFFFFFFC0
310
7FFFFFF0001FFFFFF0001FFFFFFFFC0007F0001FFFFFFFFC0007FF0003FFFFFF
310
FFFFFF0000000003F000FFF80000000007FFF8001E000FC003E0007FFF80007F
310
FFF0000000000FFFFF8000000000FFF80FFFFFFFFFFFFFC07FFFFFF0001FFFFF
310
F0001FFFFFFFFC0007F0001FFFFFFFFC0007FF0003FFFFFFFFFFFC0000000007
310
F000FFE0000000000FFFF0003E000FC003E0007FFF80007FFFC0000000001FFF
310
FE0000000001FFF80FFFFFFFFFFFFFC07FFFFFF0001FFFFFF0001FFFFFFFFC00
310
07F0001FFFFFFFFC0007FF0003FFFFFFFFFFF0000000000FF000FFC000000000
310
1FFFF0003F000F8003F0003FFF80007FFF80000000003FFFF80000000003FFF8
310
0FFFFFFFFFFFFFC07FFFFFF0001FFFFFF0001FFFFFFFFC0007F0001FFFFFFFFC
310
0007FF0003FFFFFFFFFFE0000000001FF000FF00000000007FFFF0003F000780
310
03F0003FFF80007FFF00000000007FFFF00000000007FFF80FFFFFFFFFFFFFC0
310
7FFFFFF0001FFFFFF0001FFFFFFFFC0007F0001FFFFFFFFC0007FF0003FFFFFF
310
FFFF80000000007FF000FE0000000000FFFFE0003F00078007F0003FFF80007F
310
FE0000000001FFFFE0000000001FFFF80FFFFFFFFFFFFFC07FFFFFF0001FFFFF
310
F0001FFFFFFFFC0007F0001FFFFFFFFC0007FF0003FFFFFFFFFF0000000000FF
310
F000FC0000000003FFFFE0007F00078007F0003FFF80007FFC0000000007FFFF
310
C0000000007FFFF80FFFFFFFFFFFFFC07FFFFFF0001FFFFFF8001FFFFFFFFC00
310
0FF8001FFFFFFFFC000FFF0003FFFFFFFFFE0000000003FFF000FC000000000F
310
FFFFE0007F80070007F8001FFF80007FF8000000001FFFFF8000000001FFFFF8
310
0FFFFFFFFFFFFFC07FFFFFF0001FFFFFF8001FFFFFFFFC000FF8001FFFFFFFFC
310
000FFF0003FFFFFFFFFC000000000FFFF000F8000000007FFFFFE0007F800700
310
07F8001FFF80007FF000000000FFFFFF800000000FFFFFF80FFFFFFFFFFFFFC0
310
7FFFFFF0001FFFFFF8000FFFFFFFF8000FF8000FFFFFFFF8000FFF0003FFFFFF
310
FFFC000000007FFFF000F800000007FFFFFFC0007F8003000FF8001FFF80007F
310
F000000007FFFFFF000000007FFFFFF80FFFFFFFFFFFFFC07FFFFFF0001FFFFF
310
F8000FFFFFFFF8000FF8000FFFFFFFF8000FFF0003FFFFFFFFF80000000FFFFF
310
F000F0000000FFFFFFFFC000FF8003000FF8001FFF80007FE0000000FFFFFFFF
310
0000000FFFFFFFF8000001FFFE0000007FFFFFF0001FFFFFF8000FFFFFFFF800
310
0FF8000FFFFFFFF8000FFF0003FFFFFFFFF8000000FFFFFFF000F000000FFFFF
310
FFFFC000FFC002000FF8000FFF80007FE000001FFFFFFFFE000001FFFFFFFFF8
310
000001FFFE0000007FFFFFF0001FFFFFF8000FFFFFFFF8000FF8000FFFFFFFF8
310
000FFF0003FFFFFFFFF000001FFFFFFFF000E00000FFFFFFFFFFC000FFC00200
310
0FFC000FFF80007FE00001FFFFFFFFFE00001FFFFFFFFFF8000001FFFE000000
310
7FFFFFF0001FFFFFFC000FFFFFFFF8001FFC000FFFFFFFF8001FFF0003FFFFFF
310
FFF00001FFFFFFFFF000E00007FFFFFFFFFF8000FFC000001FFC000FFF80007F
310
C0000FFFFFFFFFFE0000FFFFFFFFFFF8000001FFFE0000007FFFFFF0001FFFFF
310
FC0007FFFFFFF0001FFC0007FFFFFFF0001FFF0003FFFFFFFFF00007FFFFFFFF
310
F000E0001FFFFFFFFFFF8000FFC000001FFC000FFF80007FC0003FFFFFFFFFFE
310
0001FFFFFFFFFFF8000001FFFE0000007FFFFFF0001FFFFFFC0007FFFFFFF000
310
1FFC0007FFFFFFF0001FFF0003FFFFFFFFF0001FFFFFFFFFF000E0003FFFFF00
310
03FF8001FFE000001FFC0007FF80007FC0007FFFFF0007FC0003FFFFF0003FF8
310
000001FFFE0000007FFFFFF0001FFFFFFC0003FFFFFFE0001FFC0003FFFFFFE0
310
001FFF0003FFFFFFFFF0003FFFFFFFFFF000E0003FFFFF0001FF8001FFE00000
310
1FFE0007FF80007FC0007FFFFE0003FC0007FFFFE0003FF8000001FFFE000000
310
7FFFFFF0001FFFFFFE0003FFFFFFE0003FFE0003FFFFFFE0003FFF0003FFFFFF
310
FFF0003FFFFF8001F000E0003FFFFF0001FF0001FFE000001FFE0007FF80007F
310
C0007FFFFE0003FC0007FFFFE0003FF8000001FFFE0000007FFFFFF0001FFFFF
310
FE0001FFFFFFC0003FFE0001FFFFFFC0003FFF0003FFFFFFFFF0003FFFFF0001
310
F000E0003FFFFF0003FF0001FFE000003FFE0007FF80007FC0007FFFFE0003FC
310
0007FFFFE0003FF8000001FFFE0000007FFFFFF0001FFFFFFF0001FFFFFFC000
310
7FFF0001FFFFFFC0007FFF0003FFFFFFFFF0003FFFFF0001F000E0003FFFFE00
310
03FF0003FFF000003FFE0003FF80007FC0007FFFFC0003FE0007FFFFE0003FF8
310
000001FFFE0000007FFFFFF0001FFFFFFF0000FFFFFF80007FFF0000FFFFFF80
310
007FFF0003FFFFFFFFF0003FFFFF0001F000E0003FFFFE0003FF0003FFF00000
310
3FFF0003FF80007FC0007FFFFC0007FE0007FFFFC0003FF8000001FFFE000000
310
7FFFFFF0001FFFFFFF80007FFFFF0000FFFF80007FFFFF0000FFFF0003FFFFFF
310
FFF0003FFFFF0003F000E0003FFFFC0003FE0003FFF000003FFF0003FF80007F
310
E0003FFFF80007FE0003FFFFC0007FF8000001FFFE0000007FFFFFF0001FFFFF
310
FF80003FFFFE0000FFFF80003FFFFE0000FFFF0003FFFFFFFFF0001FFFFE0003
310
F000F0001FFFF80003FE0003FFF000007FFF0001FF80007FE0003FFFF00007FE
310
0001FFFF80007FF8000001FFFE0000007FFFFFF0001FFFFFFFC0000FFFF80001
310
FFFFC0000FFFF80001FFFF0003FFFFFFFFF0001FFFFC0003F000F0000FFFF000
310
07FE0007FFF800007FFF0001FF80007FE0001FFFE00007FF0000FFFE00007FF8
310
000001FFFE0000007FFFFFF0001FFFFFFFC00003FFE00001FFFFC00003FFE000
310
01FFFF0003FFFFFFFFF8000FFFF80003F000F00003FFC00007FC0007FFF80000
310
7FFF8001FF80007FF00007FF80000FFF00007FF80000FFF8000001FFFE000000
310
7F80000000000001FFE000003E000003FFFFE000003E000003FFFF0003FFFFFF
310
FFF80003FFE00007F000F800000000000FFC0007FFF800007FFF8001FF80007F
310
F000000000000FFF000000000000FFF8000001FFFE0000007F80000000000001
310
FFF0000000000007FFFFF0000000000007FFFF0003FFFFFFFFFC00007E000007
310
F000F800000000000FFC0007FFF80000FFFF8000FF80007FF800000000001FFF
310
800000000001FFF8000001FFFE0000007F80000000000001FFF800000000000F
310
FFFFF800000000000FFFFF0003FFFFFFFFFC00000000000FF000FC0000000000
310
1FFC0007FFFC0000FFFF8000FF80007FF800000000003FFFC00000000001FFF8
310
000001FFFE0000007F80000000000001FFF800000000000FFFFFF80000000000
310
0FFFFF0003FFFFFFFFFE00000000001FF000FE00000000003FF8000FFFFC0000
310
FFFF8000FF80007FFC00000000003FFFC00000000003FFF8000001FFFE000000
310
7F80000000000001FFFC00000000001FFFFFFC00000000001FFFFF0003FFFFFF
310
FFFF00000000001FF000FF00000000003FF8000FFFFC0000FFFFC000FF80007F
310
FE00000000007FFFE00000000007FFF8000001FFFE0000007F80000000000001
310
FFFE00000000003FFFFFFE00000000003FFFFF0003FFFFFFFFFF80000000003F
310
F000FF80000000007FF8000FFFFC0001FFFFC0007F80007FFF0000000000FFFF
310
F0000000000FFFF800000000000000007F80000000000001FFFF8000000000FF
310
FFFFFF8000000000FFFFFF0003FFFFFFFFFFC0000000007FF000FFC000000000
310
FFF8000FFFFE0001FFFFC0007F80007FFF8000000001FFFFF8000000001FFFF8
310
00000000000000007F80000000000001FFFFC000000001FFFFFFFFC000000001
310
FFFFFF0003FFFFFFFFFFE000000000FFF000FFE000000003FFF0001FFFFE0001
310
FFFFC0007F80007FFFC000000007FFFFFE000000003FFFF80000000000000000
310
7F80000000000001FFFFE000000003FFFFFFFFE000000003FFFFFF0003FFFFFF
310
FFFFF000000003FFF000FFF80000000FFFF0001FFFFE0001FFFFE0007F80007F
310
FFF00000000FFFFFFF00000000FFFFF800000000000000007F80000000000001
310
FFFFF80000000FFFFFFFFFF80000000FFFFFFF0003FFFFFFFFFFFC0000000FFF
310
F000FFFE0000003FFFF0001FFFFE0003FFFFE0003F80007FFFFC0000003FFFFF
310
FFC0000003FFFFF800000000000000007F80000000000001FFFFFE0000003FFF
310
FFFFFFFE0000003FFFFFFF0003FFFFFFFFFFFF0000003FFFF000FFFF800000FF
310
FFF0001FFFFF0003FFFFE0003F80007FFFFF000001FFFFFFFFF800001FFFFFF8
310
00000000000000007F80000000000001FFFFFFC00001FFFFFFFFFFFFC00001FF
310
FFFFFF0003FFFFFFFFFFFFC00000FFFFF000FFFFF8000FFFFFFFFFFFFFFFFFFF
310
FFFFFFFFFFFFFFFFFFFFF0001FFFFFFFFFFF0000FFFFFFF80000000000000000
310
7FFFFFFFFFFFFFFFFFFFFFFC001FFFFFFFFFFFFFFC001FFFFFFFFFFFFFFFFFFF
310
FFFFFFFC001FFFFFF000FFFFFFFFFFFFFFFFFFFFFFFFFFFFFFFFFFFFFFFFFFFF
310
FFFFFFFFFFFFFFFFFFFFFFFFFFFFFFFFFFFFFFFFFFFFFFFFFFFFFFFFFFFFFFFF
310
FFFFFFFFFFFFFFFFFFFFFFFFFFFFFFFFFFFFFFFFFFFFFFFFFFFFFFFFFFFFFFFF
310
F000FFFFFFFFFFFFFFFFFFFFFFFFFFFFFFFFFFFFFFFFFFFFFFFFFFFFFFFFFFFF
310
FFFFFFFFFFFFFFFFFFFFFFFFFFFFFFFFFFFFFFFFFFFFFFFFFFFFFFFFFFFFFFFF
310
FFFFFFFFFFFFFFFFFFFFFFFFFFFFFFFFFFFFFFFFFFFFFFFFF000FFFFFFFFFFFF
310
FFFFFFFFFFFFFFFFFFFFFFFFFFFFFFFFFFFFFFFFFFFFFFFFFFFFFFFFFFFFFFFF
310
FFFFFFFFFFFFFFFFFFFFFFFFFFFFFFFFFFFFFFFFFFFFFFFFFFFFFFFFFFFFFFFF
310
FFFFFFFFFFFFFFFFFFFFFFFFFFFFFFFFF000FFFFFFFFFFFFFFFFFFFFFFFFFFFF
310
FFFFFFFFFFFFFFFFFFFFFFFFFFFFFFFFFFFFFFFFFFFFFFFFFFFFFFFFFFFFFFFF
310
FFFFFFFFFFFFFFFFFFFFFFFFFFFFFFFFFFFFFFFFFFFFFFFFFFFFFFFFFFFFFFFF
310
FFFFFFFFFFFFFFFFF000FFFFFFFFFFFFFFFFFFFFFFFFFFFFFFFFFFFFFFFFFFFF
310
FFFFFFFFFFFFFFFFFFFFFFFFFFFFFFFFFFFFFFFFFFFFFFFFFFFFFFFFFFFFFFFF
310
FFFFFFFFFFFFFFFFFFFFFFFFFFFFFFFFFFFFFFFFFFFFFFFFFFFFFFFFFFFFFFFF
310
F000FFFFFFFFFFFFFFFFFFFFFFFFFFFFFFFFFFFFFFFFFFFFFFFFFFFFFFFFFFFF
310
FFFFFFFFFFFFFFFFFFFFFFFFFFFFFFFFFFFFFFFFFFFFFFFFFFFFFFFFFFFFFFFF
310
FFFFFFFFFFFFFFFFFFFFFFFFFFFFFFFFFFFFFFFFFFFFFFFFF000FFFFFFFFFFFF
310
FFFFFFFFFFFFFFFFFFFFFFFFFFFFFFFFFFFFFFFFFFFFFFFFFFFFFFFFFFFFFFFF
310
FFFFFFFFFFFFFFFFFFFFFFFFFFFFFFFFFFFFFFFFFFFFFFFFFFFFFFFFFFFFFFFF
310
FFFFFFFFFFFFFFFFFFFFFFFFFFFFFFFFF000FFFFFFFFFFFFFFFFFFFFFFFFFFFF
310
FFFFFFFFFFFFFFFFFFFFFFFFFFFFFFFFFFFFFFFFFFFFFFFFFFFFFFFFFFFFFFFF
310
FFFFFFFFFFFFFFFFFFFFFFFFFFFFFFFFFFFFFFFFFFFFFFFFFFFFFFFFFFFFFFFF
310
FFFFFFFFFFFFFFFFF000FFFFFFFFFFFFFFFFFFFFFFFFFFFFFFFFFFFFFFFFFFFF
310
FFFFFFFFFFFFFFFFFFFFFFFFFFFFFFFFFFFFFFFFFFFFFFFFFFFFFFFFFFFFFFFF
310
FFFFFFFFFFFFFFFFFFFFFFFFFFFFFFFFFFFFFFFFFFFFFFFFFFFFFFFFFFFFFFFF
310
F000FFFFFFFFFFFFFFFFFFFFFFFFFFFFFFFFFFFFFFFFFFFFFFFFFFFFFFFFFFFF
310
FFFFFFFFFFFFFFFFFFFFFFFFFFFFFFFFFFFFFFFFFFFFFFFFFFFFFFFFFFFFFFFF
310
FFFFFFFFFFFFFFFFFFFFFFFFFFFFFFFFFFFFFFFFFFFFFFFFF000FFFFFFFFFFFF
310
FFFFFFFFFFFFFFFFFFFFFFFFFFFFFFFFFFFFFFFFFFFFFFFFFFFFFFFFFFFFFFFF
310
FFFFFFFFFFFFFFFFFFFFFFFFFFFFFFFFFFFFFFFFFFFFFFFFFFFFFFFFFFFFFFFF
310
FFFFFFFFFFFFFFFFFFFFFFFFFFFFFFFFF000FFFFFFFFFFFFFFFFFFFFFFFFFFFF
310
FFFFFFFFFFFFFFFFFFFFFFFFFFFFFFFFFFFFFFFFFFFFFFFFFFFFFFFFFFFFFFFF
310
FFFFFFFFFFFFFFFFFFFFFFFFFFFFFFFFFFFFFFFFFFFFFFFFFFFFFFFFFFFFFFFF
310
FFFFFFFFFFFFFFFFF000FFFFFFFFFFFFFFFFFFFFFFFFFFFFFFFFFFFFFFFFFFFF
310
FFFFFFFFFFFFFFFFFFFFFFFFFFFFFFFFFFFFFFFFFFFFFFFFFFFFFFFFFFFFFFFF
310
FFFFFFFFFFFFFFFFFFFFFFFFFFFFFFFFFFFFFFFFFFFFFFFFFFFFFFFFFFFFFFFF
310
F000FFFFFFFFFFFFFFFFFFFFFFFFFFFFFFFFFFFFFFFFFFFFFFFFFFFFFFFFFFFF
310
FFFFFFFFFFFFFFFFFFFFFFFFFFFFFFFFFFFFFFFFFFFFFFFFFFFFFFFFFFFFFFFF
310
FFFFFFFFFFFFFFFFFFFFFFFFFFFFFFFFFFFFFFFFFFFFFFFFF000FFFFFFFFFFFF
310
FFFFFFFFFFFFFFFFFFFFFFFFFFFFFFFFFFFFFFFFFFFFFFFFFFFFFFFFFFFFFFFF
310
FFFFFFFFFFFFFFFFFFFFFFFFFFFFFFFFFFFFFFFFFFFFFFFFFFFFFFFFFFFFFFFF
310
FFFFFFFFFFFFFFFFFFFFFFFFFFFFFFFFF000FFFFFFFFFFFFFFFFFFFFFFFFFFFF
310
FFFFFFFFFFFFFFFFFFFFFFFFFFFFFFFFFFFFFFFFFFFFFFFFFFFFFFFFFFFFFFFF
310
FFFFFFFFFFFFFFFFFFFFFFFFFFFFFFFFFFFFFFFFFFFFFFFFFFFFFFFFFFFFFFFF
310
FFFFFFFFFFFFFFFFF000FFFFFFFFFFFFFFFFFFFFFFFFFFFFFFFFFFFFFFFFFFFF
310
FFFFFFFFFFFFFFFFFFFFFFFFFFFFFFFFFFFFFFFFFFFFFFFFFFFFFFFFFFFFFFFF
310
FFFFFFFFFFFFFFFFFFFFFFFFFFFFFFFFFFFFFFFFFFFFFFFFFFFFFFFFFFFFFFFF
310
F000FFFFFFFFFFFFFFFFFFFFFFFFFFFFFFFFFFFFFFFFFFFFFFFFFFFFFFFFFFFF
310
FFFFFFFFFFFFFFFFFFFFFFFFFFFFFFFFFFFFFFFFFFFFFFFFFFFFFFFFFFFFFFFF
310
FFFFFFFFFFFFFFFFFFFFFFFFFFFFFFFFFFFFFFFFFFFFFFFFF000FFFFFFFFFFFF
310
FFFFFFFFFFFFFFFFFFFFFFFFFFFFFFFFFFFFFFFFFFFFFFFFFFFFFFFFFFFFFFFF
310
FFFFFFFFFFFFFFFFFFFFFFFFFFFFFFFFFFFFFFFFFFFFFFFFFFFFFFFFFFFFFFFF
310
FFFFFFFFFFFFFFFFFFFFFFFFFFFFFFFFF000FFFFFFFFFFFFFFFFFFFFFFFFFFFF
310
FFFFFFFFFFFFFFFFFFFFFFFFFFFFFFFFFFFFFFFFFFFFFFFFFFFFFFFFFFFFFFFF
310
FFFFFFFFFFFFFFFFFFFFFFFFFFFFFFFFFFFFFFFFFFFFFFFFFFFFFFFFFFFFFFFF
310
FFFFFFFFFFFFFFFFF000FFFFFFFFFFFFFFFFFFFFFFFFFFFFFFFFFFFFFFFFFFFF
310
FFFFFFFFFFFFFFFFFFFFFFFFFFFFFFFFFFFFFFFFFFFFFFFFFFFFFFFFFFFFFFFF
310
FFFFFFFFFFFFFFFFFFFFFFFFFFFFFFFFFFFFFFFFFFFFFFFFFFFFFFFFFFFFFFFF
310
F000FFFFFFFFFFFFFFFFFFFFFFFFFFFFFFFFFFFFFFFFFFFFFFFFFFFFFFFFFFFF
310
FFFFFFFFFFFFFFFFFFFFFFFFFFFFFFFFFFFFFFFFFFFFFFFFFFFFFFFFFFFFFFFF
310
FFFFFFFFFFFFFFFFFFFFFFFFFFFFFFFFFFFFFFFFFFFFFFFFF000FFFFFFFFFFFF
310
FFFFFFFFFFFFFFFFFFFFFFFFFFFFFFFFFFFFFFFFFFFFFFFFFFFFFFFFFFFFFFFF
310
FFFFFFFFFFFFFFFFFFFFFFFFFFFFFFFFFFFFFFFFFFFFFFFFFFFFFFFFFFFFFFFF
310
FFFFFFFFFFFFFFFFFFFFFFFFFFFFFFFFF0000000000000000000000000000000
310
0000000000000000000000000000000000000000000000000000000000000000
310
0000000000000000000000000000000000000000000000000000000000000000
310
0000000000000000000000000000000000000000000000000000000000000000
310
0000000000000000000000000000000000000000000000000000000000000000
310
0000000000000000000000000000000000000000000000000000000000000000
310
0000000000000000000000000000000000000000000000000000000000000000
310
0000000000000000000000000000000000000000000000000000000000000000
310
0000000000000000000000000000000000000000000000000000000000000000
310
0000000000000000000000000000000000000000000000000000000000000000
310
0000000000000000000000000000000000000000000000000000000000000000
310
0000000000000000000000000000000000000000000000000000000000000000
310
0000000000000000000000000000000000000000000000000000000000000000
310
0000000000000000000000000000000000000000000000000000000000000000
310
0000000000000000000000000000000000000000000000000000000000000000
310
0000000000000000000000000000000000000000000000000000000000000000
  1
OLE
  0
ENDSEC
  0
SECTION
  2
OBJECTS
  0
DICTIONARY
  5
C
330
0
100
AcDbDictionary
281
     1
  3
ACAD_GROUP
350
D
  3
ACAD_LAYOUT
350
1A
  3
ACAD_MLINESTYLE
350
17
  3
ACAD_PLOTSETTINGS
350
19
  3
ACAD_PLOTSTYLENAME
350
E
  3
ACAD_SCALELIST
350
47
  0
DICTIONARY
  5
D
102
{ACAD_REACTORS
330
C
102
}
330
C
100
AcDbDictionary
281
     1
  0
DICTIONARY
  5
1A
102
{ACAD_REACTORS
330
C
102
}
330
C
100
AcDbDictionary
281
     1
  3
Layout1
350
1E
  3
Layout2
350
26
  3
Model
350
22
  0
DICTIONARY
  5
17
102
{ACAD_REACTORS
330
C
102
}
330
C
100
AcDbDictionary
281
     1
  3
Standard
350
18
  0
DICTIONARY
  5
19
102
{ACAD_REACTORS
330
C
102
}
330
C
100
AcDbDictionary
281
     1
  0
ACDBDICTIONARYWDFLT
  5
E
102
{ACAD_REACTORS
330
C
102
}
330
C
100
AcDbDictionary
281
     1
  3
Normal
350
F
100
AcDbDictionaryWithDefault
340
F
  0
DICTIONARY
  5
47
102
{ACAD_REACTORS
330
C
102
}
330
C
100
AcDbDictionary
281
     1
  3
A0
350
48
  3
A1
350
49
  3
A2
350
4A
  3
A3
350
4B
  3
A4
350
4C
  3
A5
350
4D
  3
A6
350
4E
  3
A7
350
4F
  3
A8
350
50
  3
A9
350
51
  3
B0
350
52
  3
B1
350
53
  3
B2
350
54
  3
B3
350
55
  3
B4
350
56
  3
B5
350
57
  3
B6
350
58
  3
B7
350
59
  3
B8
350
5A
  3
B9
350
5B
  3
C0
350
5C
  3
C1
350
5D
  3
C2
350
5E
  3
C3
350
5F
  3
C4
350
60
  3
C5
350
61
  3
C6
350
62
  3
C7
350
63
  3
C8
350
64
  3
C9
350
65
  3
D0
350
66
  3
D1
350
67
  3
D2
350
68
  0
LAYOUT
  5
1E
102
{ACAD_REACTORS
330
1A
102
}
330
1A
100
AcDbPlotSettings
  1

  2
none_device
  4

  6

 40
0.0
 41
0.0
 42
0.0
 43
0.0
 44
0.0
 45
0.0
 46
0.0
 47
0.0
 48
0.0
 49
0.0
140
0.0
141
0.0
142
1.0
143
1.0
 70
   688
 72
     1
 73
     0
 74
     5
  7

 75
    16
147
1.0
148
0.0
149
0.0
100
AcDbLayout
  1
Layout1
 70
     1
 71
     1
 10
0.0
 20
0.0
 11
420.0
 21
297.0
 12
0.0
 22
0.0
 32
0.0
 14
1.0000000000E+20
 24
1.0000000000E+20
 34
1.0000000000E+20
 15
-1.0000000000E+20
 25
-1.0000000000E+20
 35
-1.0000000000E+20
146
0.0
 13
0.0
 23
0.0
 33
0.0
 16
1.0
 26
0.0
 36
0.0
 17
0.0
 27
1.0
 37
0.0
 76
     0
330
1B
  0
LAYOUT
  5
26
102
{ACAD_REACTORS
330
1A
102
}
330
1A
100
AcDbPlotSettings
  1

  2
none_device
  4

  6

 40
0.0
 41
0.0
 42
0.0
 43
0.0
 44
0.0
 45
0.0
 46
0.0
 47
0.0
 48
0.0
 49
0.0
140
0.0
141
0.0
142
1.0
143
1.0
 70
   688
 72
     1
 73
     0
 74
     5
  7

 75
    16
147
1.0
148
0.0
149
0.0
100
AcDbLayout
  1
Layout2
 70
     1
 71
     2
 10
0.0
 20
0.0
 11
0.0
 21
0.0
 12
0.0
 22
0.0
 32
0.0
 14
0.0
 24
0.0
 34
0.0
 15
0.0
 25
0.0
 35
0.0
146
0.0
 13
0.0
 23
0.0
 33
0.0
 16
1.0
 26
0.0
 36
0.0
 17
0.0
 27
1.0
 37
0.0
 76
     0
330
23
  0
LAYOUT
  5
22
102
{ACAD_REACTORS
330
1A
102
}
330
1A
100
AcDbPlotSettings
  1

  2
none_device
  4
Letter_(8.50_x_11.00_Inches)
  6

 40
6.35
 41
6.35
 42
6.35000508
 43
6.35000508
 44
215.9
 45
279.4
 46
0.0
 47
0.0
 48
0.0
 49
0.0
140
0.0
141
0.0
142
1.0
143
1.0
 70
  1712
 72
     1
 73
     0
 74
     0
  7

 75
     0
147
1.0
148
0.0
149
0.0
100
AcDbLayout
  1
Model
 70
     1
 71
     0
 10
0.0
 20
0.0
 11
297.0
 21
210.0
 12
0.0
 22
0.0
 32
0.0
 14
0.0
 24
0.0
 34
0.0
 15
297.0
 25
210.0
 35
0.0
146
0.0
 13
0.0
 23
0.0
 33
0.0
 16
1.0
 26
0.0
 36
0.0
 17
0.0
 27
1.0
 37
0.0
 76
     0
330
1F
331
29
  0
MLINESTYLE
  5
18
102
{ACAD_REACTORS
330
17
102
}
330
17
100
AcDbMlineStyle
  2
Standard
 70
     0
  3

 62
   256
 51
90.0
 52
90.0
 71
     2
 49
0.5
 62
   256
  6
BYLAYER
 49
-0.5
 62
   256
  6
BYLAYER
  0
ACDBPLACEHOLDER
  5
F
102
{ACAD_REACTORS
330
E
102
}
330
E
  0
SCALE
  5
48
102
{ACAD_REACTORS
330
47
102
}
330
47
100
AcDbScale
 70
     0
300
1:1
140
1.0
141
1.0
290
     1
  0
SCALE
  5
49
102
{ACAD_REACTORS
330
47
102
}
330
47
100
AcDbScale
 70
     0
300
1:2
140
1.0
141
2.0
290
     0
  0
SCALE
  5
4A
102
{ACAD_REACTORS
330
47
102
}
330
47
100
AcDbScale
 70
     0
300
1:4
140
1.0
141
4.0
290
     0
  0
SCALE
  5
4B
102
{ACAD_REACTORS
330
47
102
}
330
47
100
AcDbScale
 70
     0
300
1:5
140
1.0
141
5.0
290
     0
  0
SCALE
  5
4C
102
{ACAD_REACTORS
330
47
102
}
330
47
100
AcDbScale
 70
     0
300
1:8
140
1.0
141
8.0
290
     0
  0
SCALE
  5
4D
102
{ACAD_REACTORS
330
47
102
}
330
47
100
AcDbScale
 70
     0
300
1:10
140
1.0
141
10.0
290
     0
  0
SCALE
  5
4E
102
{ACAD_REACTORS
330
47
102
}
330
47
100
AcDbScale
 70
     0
300
1:16
140
1.0
141
16.0
290
     0
  0
SCALE
  5
4F
102
{ACAD_REACTORS
330
47
102
}
330
47
100
AcDbScale
 70
     0
300
1:20
140
1.0
141
20.0
290
     0
  0
SCALE
  5
50
102
{ACAD_REACTORS
330
47
102
}
330
47
100
AcDbScale
 70
     0
300
1:30
140
1.0
141
30.0
290
     0
  0
SCALE
  5
51
102
{ACAD_REACTORS
330
47
102
}
330
47
100
AcDbScale
 70
     0
300
1:40
140
1.0
141
40.0
290
     0
  0
SCALE
  5
52
102
{ACAD_REACTORS
330
47
102
}
330
47
100
AcDbScale
 70
     0
300
1:50
140
1.0
141
50.0
290
     0
  0
SCALE
  5
53
102
{ACAD_REACTORS
330
47
102
}
330
47
100
AcDbScale
 70
     0
300
1:100
140
1.0
141
100.0
290
     0
  0
SCALE
  5
54
102
{ACAD_REACTORS
330
47
102
}
330
47
100
AcDbScale
 70
     0
300
2:1
140
2.0
141
1.0
290
     0
  0
SCALE
  5
55
102
{ACAD_REACTORS
330
47
102
}
330
47
100
AcDbScale
 70
     0
300
4:1
140
4.0
141
1.0
290
     0
  0
SCALE
  5
56
102
{ACAD_REACTORS
330
47
102
}
330
47
100
AcDbScale
 70
     0
300
8:1
140
8.0
141
1.0
290
     0
  0
SCALE
  5
57
102
{ACAD_REACTORS
330
47
102
}
330
47
100
AcDbScale
 70
     0
300
10:1
140
10.0
141
1.0
290
     0
  0
SCALE
  5
58
102
{ACAD_REACTORS
330
47
102
}
330
47
100
AcDbScale
 70
     0
300
100:1
140
100.0
141
1.0
290
     0
  0
SCALE
  5
59
102
{ACAD_REACTORS
330
47
102
}
330
47
100
AcDbScale
 70
     0
300
1/128" = 1'-0"
140
0.0078125
141
12.0
290
     0
  0
SCALE
  5
5A
102
{ACAD_REACTORS
330
47
102
}
330
47
100
AcDbScale
 70
     0
300
1/64" = 1'-0"
140
0.015625
141
12.0
290
     0
  0
SCALE
  5
5B
102
{ACAD_REACTORS
330
47
102
}
330
47
100
AcDbScale
 70
     0
300
1/32" = 1'-0"
140
0.03125
141
12.0
290
     0
  0
SCALE
  5
5C
102
{ACAD_REACTORS
330
47
102
}
330
47
100
AcDbScale
 70
     0
300
1/16" = 1'-0"
140
0.0625
141
12.0
290
     0
  0
SCALE
  5
5D
102
{ACAD_REACTORS
330
47
102
}
330
47
100
AcDbScale
 70
     0
300
3/32" = 1'-0"
140
0.09375
141
12.0
290
     0
  0
SCALE
  5
5E
102
{ACAD_REACTORS
330
47
102
}
330
47
100
AcDbScale
 70
     0
300
1/8" = 1'-0"
140
0.125
141
12.0
290
     0
  0
SCALE
  5
5F
102
{ACAD_REACTORS
330
47
102
}
330
47
100
AcDbScale
 70
     0
300
3/16" = 1'-0"
140
0.1875
141
12.0
290
     0
  0
SCALE
  5
60
102
{ACAD_REACTORS
330
47
102
}
330
47
100
AcDbScale
 70
     0
300
1/4" = 1'-0"
140
0.25
141
12.0
290
     0
  0
SCALE
  5
61
102
{ACAD_REACTORS
330
47
102
}
330
47
100
AcDbScale
 70
     0
300
3/8" = 1'-0"
140
0.375
141
12.0
290
     0
  0
SCALE
  5
62
102
{ACAD_REACTORS
330
47
102
}
330
47
100
AcDbScale
 70
     0
300
1/2" = 1'-0"
140
0.5
141
12.0
290
     0
  0
SCALE
  5
63
102
{ACAD_REACTORS
330
47
102
}
330
47
100
AcDbScale
 70
     0
300
3/4" = 1'-0"
140
0.75
141
12.0
290
     0
  0
SCALE
  5
64
102
{ACAD_REACTORS
330
47
102
}
330
47
100
AcDbScale
 70
     0
300
1" = 1'-0"
140
1.0
141
12.0
290
     0
  0
SCALE
  5
65
102
{ACAD_REACTORS
330
47
102
}
330
47
100
AcDbScale
 70
     0
300
1-1/2" = 1'-0"
140
1.5
141
12.0
290
     0
  0
SCALE
  5
66
102
{ACAD_REACTORS
330
47
102
}
330
47
100
AcDbScale
 70
     0
300
3" = 1'-0"
140
3.0
141
12.0
290
     0
  0
SCALE
  5
67
102
{ACAD_REACTORS
330
47
102
}
330
47
100
AcDbScale
 70
     0
300
6" = 1'-0"
140
6.0
141
12.0
290
     0
  0
SCALE
  5
68
102
{ACAD_REACTORS
330
47
102
}
330
47
100
AcDbScale
 70
     0
300
1'-0" = 1'-0"
140
12.0
141
12.0
290
     0
  0
ENDSEC
  0
EOF
