  0
SECTION
  2
HEADER
  9
$ACADVER
  1
AC1015
  9
$ACADMAINTVER
 70
     6
  9
$DWGCODEPAGE
  3
ANSI_1252
  9
$INSBASE
 10
0.0
 20
0.0
 30
0.0
  9
$EXTMIN
 10
0.0
 20
0.0
 30
0.0
  9
$EXTMAX
 10
297.0
 20
210.0
 30
0.0
  9
$LIMMIN
 10
0.0
 20
0.0
  9
$LIMMAX
 10
297.0
 20
210.0
  9
$ORTHOMODE
 70
     0
  9
$REGENMODE
 70
     1
  9
$FILLMODE
 70
     1
  9
$QTEXTMODE
 70
     0
  9
$MIRRTEXT
 70
     1
  9
$LTSCALE
 40
1.0
  9
$ATTMODE
 70
     1
  9
$TEXTSIZE
 40
2.0
  9
$TRACEWID
 40
1.0
  9
$TEXTSTYLE
  7
Standard
  9
$CLAYER
  8
0
  9
$CELTYPE
  6
ByLayer
  9
$CECOLOR
 62
   256
  9
$CELTSCALE
 40
1.0
  9
$DISPSILH
 70
     0
  9
$DIMSCALE
 40
1.0
  9
$DIMASZ
 40
3.0
  9
$DIMEXO
 40
0.0
  9
$DIMDLI
 40
3.75
  9
$DIMRND
 40
0.0
  9
$DIMDLE
 40
0.0
  9
$DIMEXE
 40
1.0
  9
$DIMTP
 40
0.0
  9
$DIMTM
 40
0.0
  9
$DIMTXT
 40
2.0
  9
$DIMCEN
 40
2.5
  9
$DIMTSZ
 40
0.0
  9
$DIMTOL
 70
     0
  9
$DIMLIM
 70
     0
  9
$DIMTIH
 70
     1
  9
$DIMTOH
 70
     1
  9
$DIMSE1
 70
     0
  9
$DIMSE2
 70
     0
  9
$DIMTAD
 70
     1
  9
$DIMZIN
 70
     0
  9
$DIMBLK
  1

  9
$DIMASO
 70
     1
  9
$DIMSHO
 70
     1
  9
$DIMPOST
  1

  9
$DIMAPOST
  1

  9
$DIMALT
 70
     0
  9
$DIMALTD
 70
     3
  9
$DIMALTF
 40
0.0393700787
  9
$DIMLFAC
 40
1.0
  9
$DIMTOFL
 70
     1
  9
$DIMTVP
 40
0.0
  9
$DIMTIX
 70
     0
  9
$DIMSOXD
 70
     0
  9
$DIMSAH
 70
     0
  9
$DIMBLK1
  1

  9
$DIMBLK2
  1

  9
$DIMSTYLE
  2
ISO-25
  9
$DIMCLRD
 70
     0
  9
$DIMCLRE
 70
     0
  9
$DIMCLRT
 70
     0
  9
$DIMTFAC
 40
1.0
  9
$DIMGAP
 40
1.524
  9
$DIMJUST
 70
     0
  9
$DIMSD1
 70
     0
  9
$DIMSD2
 70
     0
  9
$DIMTOLJ
 70
     0
  9
$DIMTZIN
 70
     0
  9
$DIMALTZ
 70
     0
  9
$DIMALTTZ
 70
     0
  9
$DIMUPT
 70
     0
  9
$DIMDEC
 70
     2
  9
$DIMTDEC
 70
     3
  9
$DIMALTU
 70
     2
  9
$DIMALTTD
 70
     3
  9
$DIMTXSTY
  7
Standard
  9
$DIMAUNIT
 70
     0
  9
$DIMADEC
 70
     2
  9
$DIMALTRND
 40
0.0
  9
$DIMAZIN
 70
     0
  9
$DIMDSEP
 70
    44
  9
$DIMATFIT
 70
     3
  9
$DIMFRAC
 70
     0
  9
$DIMLDRBLK
  1

  9
$DIMLUNIT
 70
     2
  9
$DIMLWD
 70
    -2
  9
$DIMLWE
 70
    -2
  9
$DIMTMOVE
 70
     0
  9
$LUNITS
 70
     2
  9
$LUPREC
 70
     2
  9
$SKETCHINC
 40
1.0
  9
$FILLETRAD
 40
10.0
  9
$AUNITS
 70
     0
  9
$AUPREC
 70
     2
  9
$MENU
  1
.
  9
$ELEVATION
 40
0.0
  9
$PELEVATION
 40
0.0
  9
$THICKNESS
 40
0.0
  9
$LIMCHECK
 70
     0
  9
$CHAMFERA
 40
10.0
  9
$CHAMFERB
 40
10.0
  9
$CHAMFERC
 40
20.0
  9
$CHAMFERD
 40
0.0
  9
$SKPOLY
 70
     0
  9
$TDCREATE
 40
2456343.646965972
  9
$TDUCREATE
 40
2456343.605299306
  9
$TDUPDATE
 40
2456343.646967419
  9
$TDUUPDATE
 40
2456343.605300752
  9
$TDINDWG
 40
0.0000000116
  9
$TDUSRTIMER
 40
0.0000000116
  9
$USRTIMER
 70
     1
  9
$ANGBASE
 50
0.0
  9
$ANGDIR
 70
     0
  9
$PDMODE
 70
     0
  9
$PDSIZE
 40
-1.0
  9
$PLINEWID
 40
0.0
  9
$SPLFRAME
 70
     0
  9
$SPLINETYPE
 70
     6
  9
$SPLINESEGS
 70
     8
  9
$HANDSEED
  5
282
  9
$SURFTAB1
 70
     6
  9
$SURFTAB2
 70
     6
  9
$SURFTYPE
 70
     6
  9
$SURFU
 70
     6
  9
$SURFV
 70
     6
  9
$UCSBASE
  2

  9
$UCSNAME
  2

  9
$UCSORG
 10
0.0
 20
0.0
 30
0.0
  9
$UCSXDIR
 10
1.0
 20
0.0
 30
0.0
  9
$UCSYDIR
 10
0.0
 20
1.0
 30
0.0
  9
$UCSORTHOREF
  2

  9
$UCSORTHOVIEW
 70
     0
  9
$UCSORGTOP
 10
0.0
 20
0.0
 30
0.0
  9
$UCSORGBOTTOM
 10
0.0
 20
0.0
 30
0.0
  9
$UCSORGLEFT
 10
0.0
 20
0.0
 30
0.0
  9
$UCSORGRIGHT
 10
0.0
 20
0.0
 30
0.0
  9
$UCSORGFRONT
 10
0.0
 20
0.0
 30
0.0
  9
$UCSORGBACK
 10
0.0
 20
0.0
 30
0.0
  9
$PUCSBASE
  2

  9
$PUCSNAME
  2

  9
$PUCSORG
 10
0.0
 20
0.0
 30
0.0
  9
$PUCSXDIR
 10
1.0
 20
0.0
 30
0.0
  9
$PUCSYDIR
 10
0.0
 20
1.0
 30
0.0
  9
$PUCSORTHOREF
  2

  9
$PUCSORTHOVIEW
 70
     0
  9
$PUCSORGTOP
 10
0.0
 20
0.0
 30
0.0
  9
$PUCSORGBOTTOM
 10
0.0
 20
0.0
 30
0.0
  9
$PUCSORGLEFT
 10
0.0
 20
0.0
 30
0.0
  9
$PUCSORGRIGHT
 10
0.0
 20
0.0
 30
0.0
  9
$PUCSORGFRONT
 10
0.0
 20
0.0
 30
0.0
  9
$PUCSORGBACK
 10
0.0
 20
0.0
 30
0.0
  9
$USERI1
 70
     0
  9
$USERI2
 70
     0
  9
$USERI3
 70
     0
  9
$USERI4
 70
     0
  9
$USERI5
 70
     0
  9
$USERR1
 40
0.0
  9
$USERR2
 40
0.0
  9
$USERR3
 40
0.0
  9
$USERR4
 40
0.0
  9
$USERR5
 40
0.0
  9
$WORLDVIEW
 70
     1
  9
$SHADEDGE
 70
     3
  9
$SHADEDIF
 70
    70
  9
$TILEMODE
 70
     1
  9
$MAXACTVP
 70
    64
  9
$PINSBASE
 10
0.0
 20
0.0
 30
0.0
  9
$PLIMCHECK
 70
     0
  9
$PEXTMIN
 10
1.0000000000E+20
 20
1.0000000000E+20
 30
1.0000000000E+20
  9
$PEXTMAX
 10
-1.0000000000E+20
 20
-1.0000000000E+20
 30
-1.0000000000E+20
  9
$PLIMMIN
 10
0.0
 20
0.0
  9
$PLIMMAX
 10
420.0
 20
297.0
  9
$UNITMODE
 70
     0
  9
$VISRETAIN
 70
     1
  9
$PLINEGEN
 70
     0
  9
$PSLTSCALE
 70
     1
  9
$TREEDEPTH
 70
  3020
  9
$CMLSTYLE
  2
Standard
  9
$CMLJUST
 70
     0
  9
$CMLSCALE
 40
20.0
  9
$PROXYGRAPHICS
 70
     1
  9
$MEASUREMENT
 70
     1
  9
$CELWEIGHT
370
    -1
  9
$ENDCAPS
280
     0
  9
$JOINSTYLE
280
     0
  9
$LWDISPLAY
290
     1
  9
$INSUNITS
 70
     4
  9
$HYPERLINKBASE
  1

  9
$STYLESHEET
  1

  9
$XEDIT
290
     1
  9
$CEPSNTYPE
380
     0
  9
$PSTYLEMODE
290
     1
  9
$FINGERPRINTGUID
  2
{369DC947-F134-4615-8376-F4F7D00D778C}
  9
$VERSIONGUID
  2
{FAEB1C32-E019-11D5-929B-00C0DF256EC4}
  9
$EXTNAMES
290
     1
  9
$PSVPSCALE
 40
0.0
  9
$OLESTARTUP
290
     0
  0
ENDSEC
  0
SECTION
  2
CLASSES
  0
CLASS
  1
ACDBDICTIONARYWDFLT
  2
AcDbDictionaryWithDefault
  3
ObjectDBX Classes
 90
        0
280
     0
281
     0
  0
CLASS
  1
VISUALSTYLE
  2
AcDbVisualStyle
  3
ObjectDBX Classes
 90
     4095
280
     0
281
     0
  0
CLASS
  1
MATERIAL
  2
AcDbMaterial
  3
ObjectDBX Classes
 90
     1153
280
     0
281
     0
  0
CLASS
  1
ACDBPLACEHOLDER
  2
AcDbPlaceHolder
  3
ObjectDBX Classes
 90
        0
280
     0
281
     0
  0
CLASS
  1
LAYOUT
  2
AcDbLayout
  3
ObjectDBX Classes
 90
        0
280
     0
281
     0
  0
ENDSEC
  0
SECTION
  2
TABLES
  0
TABLE
  2
VPORT
  5
8
330
0
100
AcDbSymbolTable
 70
     1
  0
VPORT
  5
29
330
8
100
AcDbSymbolTableRecord
100
AcDbViewportTableRecord
  2
*Active
 70
     0
 10
0.0
 20
0.0
 11
1.0
 21
1.0
 12
148.5
 22
105.0
 13
0.0
 23
0.0
 14
10.0
 24
10.0
 15
10.0
 25
10.0
 16
0.0
 26
0.0
 36
1.0
 17
0.0
 27
0.0
 37
0.0
 40
210.0
 41
1.4142857143
 42
50.0
 43
0.0
 44
0.0
 50
0.0
 51
0.0
 71
     0
 72
  2000
 73
     1
 74
     3
 75
     0
 76
     0
 77
     0
 78
     0
281
     0
 65
     1
110
0.0
120
0.0
130
0.0
111
1.0
121
0.0
131
0.0
112
0.0
122
1.0
132
0.0
 79
     0
146
0.0
  0
ENDTAB
  0
TABLE
  2
LTYPE
  5
5
330
0
100
AcDbSymbolTable
 70
     6
  0
LTYPE
  5
14
330
5
100
AcDbSymbolTableRecord
100
AcDbLinetypeTableRecord
  2
ByBlock
 70
     0
  3

 72
    65
 73
     0
 40
0.0
  0
LTYPE
  5
15
330
5
100
AcDbSymbolTableRecord
100
AcDbLinetypeTableRecord
  2
ByLayer
 70
     0
  3

 72
    65
 73
     0
 40
0.0
  0
LTYPE
  5
16
330
5
100
AcDbSymbolTableRecord
100
AcDbLinetypeTableRecord
  2
Continuous
 70
     0
  3
Solid line
 72
    65
 73
     0
 40
0.0
  0
LTYPE
  5
3F
330
5
100
AcDbSymbolTableRecord
100
AcDbLinetypeTableRecord
  2
HIDDEN
 70
     0
  3
Hidden __ __ __ __ __ __ __ __ __ __ __ __ __ __
 72
    65
 73
     2
 40
1.905
 49
1.27
 74
     0
 49
-0.635
 74
     0
  0
LTYPE
  5
40
330
5
100
AcDbSymbolTableRecord
100
AcDbLinetypeTableRecord
  2
PHANTOM
 70
     0
  3
Phantom ______  __  __  ______  __  __  ______
 72
    65
 73
     6
 40
12.7
 49
6.35
 74
     0
 49
-1.27
 74
     0
 49
1.27
 74
     0
 49
-1.27
 74
     0
 49
1.27
 74
     0
 49
-1.27
 74
     0
  0
LTYPE
  5
41
330
5
100
AcDbSymbolTableRecord
100
AcDbLinetypeTableRecord
  2
CENTER
 70
     0
  3
Center ____ _ ____ _ ____ _ ____ _ ____ _ ____
 72
    65
 73
     4
 40
10.16
 49
6.35
 74
     0
 49
-1.27
 74
     0
 49
1.27
 74
     0
 49
-1.27
 74
     0
  0
LTYPE
  5
42
330
5
100
AcDbSymbolTableRecord
100
AcDbLinetypeTableRecord
  2
CENTERX2
 70
     0
  3
Center (2x) ________  __  ________  __  _____
 72
    65
 73
     4
 40
20.32
 49
12.7
 74
     0
 49
-2.54
 74
     0
 49
2.54
 74
     0
 49
-2.54
 74
     0
  0
LTYPE
  5
43
330
5
100
AcDbSymbolTableRecord
100
AcDbLinetypeTableRecord
  2
DOT2
 70
     0
  3
Dot (.5x) ........................................
 72
    65
 73
     2
 40
0.635
 49
0.0
 74
     0
 49
-0.635
 74
     0
  0
ENDTAB
  0
TABLE
  2
LAYER
  5
2
330
0
100
AcDbSymbolTable
 70
     5
  0
LAYER
  5
10
330
2
100
AcDbSymbolTableRecord
100
AcDbLayerTableRecord
  2
0
 70
     0
 62
     7
  6
Continuous
370
    -3
390
F
  0
LAYER
  5
44
330
2
100
AcDbSymbolTableRecord
100
AcDbLayerTableRecord
  2
FORMAT
 70
     0
 62
     7
  6
Continuous
370
    -3
390
F
  0
LAYER
  5
45
330
2
100
AcDbSymbolTableRecord
100
AcDbLayerTableRecord
  2
VERMASSUNG
 70
     0
 62
     7
  6
Continuous
370
    -3
390
F
  0
LAYER
  5
46
330
2
100
AcDbSymbolTableRecord
100
AcDbLayerTableRecord
  2
KOPF_DÜNN
 70
     0
 62
     7
  6
Continuous
370
    -3
390
F
  0
LAYER
  5
47
330
2
100
AcDbSymbolTableRecord
100
AcDbLayerTableRecord
  2
KOPF_DICK
 70
     0
 62
     7
  6
Continuous
370
    15
390
F
  0
ENDTAB
  0
TABLE
  2
STYLE
  5
3
330
0
100
AcDbSymbolTable
 70
     2
  0
STYLE
  5
11
330
3
100
AcDbSymbolTableRecord
100
AcDbTextStyleTableRecord
  2
Standard
 70
     0
 40
0.0
 41
1.0
 50
0.0
 71
     0
 42
2.0
  3
txt
  4

  0
STYLE
  5
48
330
3
100
AcDbSymbolTableRecord
100
AcDbTextStyleTableRecord
  2
SLDTEXTSTYLE0
 70
     0
 40
0.0
 41
0.7
 50
0.0
 71
     0
 42
0.2
  3
TXT
  4

  0
ENDTAB
  0
TABLE
  2
VIEW
  5
6
330
0
100
AcDbSymbolTable
 70
     0
  0
ENDTAB
  0
TABLE
  2
UCS
  5
7
330
0
100
AcDbSymbolTable
 70
     0
  0
ENDTAB
  0
TABLE
  2
APPID
  5
9
330
0
100
AcDbSymbolTable
 70
     1
  0
APPID
  5
12
330
9
100
AcDbSymbolTableRecord
100
AcDbRegAppTableRecord
  2
ACAD
 70
     0
  0
ENDTAB
  0
TABLE
  2
DIMSTYLE
  5
A
330
0
100
AcDbSymbolTable
 70
     5
100
AcDbDimStyleTable
  0
DIMSTYLE
105
27
330
A
100
AcDbSymbolTableRecord
100
AcDbDimStyleTableRecord
  2
ISO-25
 70
     0
 41
2.5
 42
0.625
 43
3.75
 44
1.25
 73
     0
 74
     0
 77
     1
 78
     8
140
2.5
141
2.5
143
0.0393700787
147
0.625
171
     3
172
     1
178
     0
271
     2
272
     2
274
     3
278
    44
283
     0
284
     8
340
11
  0
DIMSTYLE
105
1C6
102
{ACAD_REACTORS
330
1C5
330
1D0
330
1DA
330
1ED
330
1F9
102
}
330
A
100
AcDbSymbolTableRecord
100
AcDbDimStyleTableRecord
  2
SLDDIMSTYLE0
 70
     0
 41
3.0
 44
0.0
 45
0.000000001
 73
     0
 74
     0
 77
     1
 78
    12
 79
     3
140
2.0
147
0.5
173
     1
178
     0
271
     2
272
     3
276
     2
284
    12
340
48
  0
DIMSTYLE
105
1E5
102
{ACAD_REACTORS
330
1E4
102
}
330
A
100
AcDbSymbolTableRecord
100
AcDbDimStyleTableRecord
  2
SLDDIMSTYLE1
 70
     0
 41
3.0
 44
0.0
 73
     0
 74
     0
 77
     1
 78
    12
 79
     3
140
2.0
147
0.5
173
     1
178
     0
179
     1
272
     3
276
     2
284
    12
340
48
  0
DIMSTYLE
105
25A
102
{ACAD_REACTORS
330
259
102
}
330
A
100
AcDbSymbolTableRecord
100
AcDbDimStyleTableRecord
  2
SLDDIMSTYLE2
 70
     0
 41
3.0
 44
0.0
 73
     0
 74
     0
 77
     1
 78
    12
 79
     3
140
2.0
147
0.5
173
     1
178
     0
179
     2
272
     3
276
     2
284
    12
340
48
  0
DIMSTYLE
105
267
102
{ACAD_REACTORS
330
266
102
}
330
A
100
AcDbSymbolTableRecord
100
AcDbDimStyleTableRecord
  2
SLDDIMSTYLE3
 70
     0
 41
3.0
 44
0.0
 45
0.000000001
 73
     0
 74
     0
 77
     1
 78
    12
 79
     3
140
2.0
147
0.5
172
     1
173
     1
178
     0
271
     2
272
     3
276
     2
284
    12
289
     0
340
48
  0
ENDTAB
  0
TABLE
  2
BLOCK_RECORD
  5
1
330
0
100
AcDbSymbolTable
 70
    10
  0
BLOCK_RECORD
  5
1F
330
1
100
AcDbSymbolTableRecord
100
AcDbBlockTableRecord
  2
*Model_Space
340
22
  0
BLOCK_RECORD
  5
1B
330
1
100
AcDbSymbolTableRecord
100
AcDbBlockTableRecord
  2
*Paper_Space
340
1E
  0
BLOCK_RECORD
  5
23
330
1
100
AcDbSymbolTableRecord
100
AcDbBlockTableRecord
  2
*Paper_Space0
340
26
  0
BLOCK_RECORD
  5
1C7
330
1
100
AcDbSymbolTableRecord
100
AcDbBlockTableRecord
  2
_D
340
0
  0
BLOCK_RECORD
  5
1D1
330
1
100
AcDbSymbolTableRecord
100
AcDbBlockTableRecord
  2
_D_1
340
0
  0
BLOCK_RECORD
  5
1DB
330
1
100
AcDbSymbolTableRecord
100
AcDbBlockTableRecord
  2
_D_2
340
0
  0
BLOCK_RECORD
  5
1E6
330
1
100
AcDbSymbolTableRecord
100
AcDbBlockTableRecord
  2
_D_3
340
0
  0
BLOCK_RECORD
  5
1EE
330
1
100
AcDbSymbolTableRecord
100
AcDbBlockTableRecord
  2
_D_4
340
0
  0
BLOCK_RECORD
  5
1FA
330
1
100
AcDbSymbolTableRecord
100
AcDbBlockTableRecord
  2
_D_5
340
0
  0
BLOCK_RECORD
  5
25B
330
1
100
AcDbSymbolTableRecord
100
AcDbBlockTableRecord
  2
_D_6
340
0
  0
BLOCK_RECORD
  5
268
330
1
100
AcDbSymbolTableRecord
100
AcDbBlockTableRecord
  2
_D_7
340
0
  0
BLOCK_RECORD
  5
275
330
1
100
AcDbSymbolTableRecord
100
AcDbBlockTableRecord
  2
SW_CENTERMARKSYMBOL_0
340
0
102
{BLKREFS
331
280
102
}
  0
ENDTAB
  0
ENDSEC
  0
SECTION
  2
BLOCKS
  0
BLOCK
  5
20
330
1F
100
AcDbEntity
  8
0
100
AcDbBlockBegin
  2
*Model_Space
 70
     0
 10
0.0
 20
0.0
 30
0.0
  3
*Model_Space
  1

  0
ENDBLK
  5
21
330
1F
100
AcDbEntity
  8
0
100
AcDbBlockEnd
  0
BLOCK
  5
1C
330
1B
100
AcDbEntity
 67
     1
  8
0
100
AcDbBlockBegin
  2
*Paper_Space
 70
     0
 10
0.0
 20
0.0
 30
0.0
  3
*Paper_Space
  1

  0
ENDBLK
  5
1D
330
1B
100
AcDbEntity
 67
     1
  8
0
100
AcDbBlockEnd
  0
BLOCK
  5
24
330
23
100
AcDbEntity
  8
0
100
AcDbBlockBegin
  2
*Paper_Space0
 70
     0
 10
0.0
 20
0.0
 30
0.0
  3
*Paper_Space0
  1

  0
ENDBLK
  5
25
330
23
100
AcDbEntity
  8
0
100
AcDbBlockEnd
  0
BLOCK
  5
1C8
330
1C7
100
AcDbEntity
  8
0
100
AcDbBlockBegin
  2
_D
 70
     0
 10
0.0
 20
0.0
 30
0.0
  3
_D
  1

  0
SOLID
  5
1CA
330
1C7
100
AcDbEntity
  8
VERMASSUNG
100
AcDbTrace
 10
258.5038016005
 20
160.2587201226
 30
0.0
 11
258.0538016005
 21
157.2587201226
 31
0.0
 12
258.9538016005
 22
157.2587201226
 32
0.0
 13
258.9538016005
 23
157.2587201226
 33
0.0
  0
SOLID
  5
1CB
330
1C7
100
AcDbEntity
  8
VERMASSUNG
100
AcDbTrace
 10
258.5038016005
 20
133.2587201226
 30
0.0
 11
258.9538016005
 21
136.2587201226
 31
0.0
 12
258.0538016005
 22
136.2587201226
 32
0.0
 13
258.0538016005
 23
136.2587201226
 33
0.0
  0
LINE
  5
1CC
330
1C7
100
AcDbEntity
  8
VERMASSUNG
100
AcDbLine
 10
240.7494388051
 20
160.2587201226
 30
0.0
 11
259.5038016005
 21
160.2587201226
 31
0.0
  0
LINE
  5
1CD
330
1C7
100
AcDbEntity
  8
VERMASSUNG
100
AcDbLine
 10
240.7494388051
 20
133.2587201226
 30
0.0
 11
259.5038016005
 21
133.2587201226
 31
0.0
  0
LINE
  5
1CE
330
1C7
100
AcDbEntity
  8
VERMASSUNG
100
AcDbLine
 10
258.5038016005
 20
160.2587201226
 30
0.0
 11
258.5038016005
 21
133.2587201226
 31
0.0
  0
MTEXT
  5
1CF
330
1C7
100
AcDbEntity
  8
VERMASSUNG
100
AcDbMText
 10
255.9256662374
 20
144.4587200715
 30
0.1
 40
2.0
 41
0.0
 71
     1
 72
     1
  1
27
  7
SLDTEXTSTYLE0
 11
-7.044195017643634E-15
 21
1.0
 31
0.0
 73
     1
 44
1.0
  0
ENDBLK
  5
1C9
330
1C7
100
AcDbEntity
  8
0
100
AcDbBlockEnd
  0
BLOCK
  5
1D2
330
1D1
100
AcDbEntity
  8
0
100
AcDbBlockBegin
  2
_D_1
 70
     0
 10
0.0
 20
0.0
 30
0.0
  3
_D_1
  1

  0
SOLID
  5
1D4
330
1D1
100
AcDbEntity
  8
VERMASSUNG
100
AcDbTrace
 10
100.7494388051
 20
118.7587201226
 30
0.0
 11
103.7494388051
 21
118.3087201226
 31
0.0
 12
103.7494388051
 22
119.2087201226
 32
0.0
 13
103.7494388051
 23
119.2087201226
 33
0.0
  0
SOLID
  5
1D5
330
1D1
100
AcDbEntity
  8
VERMASSUNG
100
AcDbTrace
 10
240.7494388051
 20
118.7587201226
 30
0.0
 11
237.7494388051
 21
119.2087201226
 31
0.0
 12
237.7494388051
 22
118.3087201226
 32
0.0
 13
237.7494388051
 23
118.3087201226
 33
0.0
  0
LINE
  5
1D6
330
1D1
100
AcDbEntity
  8
VERMASSUNG
100
AcDbLine
 10
100.7494388051
 20
129.2587201226
 30
0.0
 11
100.7494388051
 21
117.7587201226
 31
0.0
  0
LINE
  5
1D7
330
1D1
100
AcDbEntity
  8
VERMASSUNG
100
AcDbLine
 10
240.7494388051
 20
133.2587201226
 30
0.0
 11
240.7494388051
 21
117.7587201226
 31
0.0
  0
LINE
  5
1D8
330
1D1
100
AcDbEntity
  8
VERMASSUNG
100
AcDbLine
 10
100.7494388051
 20
118.7587201226
 30
0.0
 11
240.7494388051
 21
118.7587201226
 31
0.0
  0
MTEXT
  5
1D9
330
1D1
100
AcDbEntity
  8
VERMASSUNG
100
AcDbMText
 10
167.8494386091
 20
121.3368554857
 30
0.1
 40
2.0
 41
0.0
 71
     1
 72
     1
  1
140
  7
SLDTEXTSTYLE0
 73
     1
 44
1.0
  0
ENDBLK
  5
1D3
330
1D1
100
AcDbEntity
  8
0
100
AcDbBlockEnd
  0
BLOCK
  5
1DC
330
1DB
100
AcDbEntity
  8
0
100
AcDbBlockBegin
  2
_D_2
 70
     0
 10
0.0
 20
0.0
 30
0.0
  3
_D_2
  1

  0
SOLID
  5
1DE
330
1DB
100
AcDbEntity
  8
VERMASSUNG
100
AcDbTrace
 10
240.7494388051
 20
109.8225633826
 30
0.0
 11
237.7494388051
 21
110.2725633826
 31
0.0
 12
237.7494388051
 22
109.3725633826
 32
0.0
 13
237.7494388051
 23
109.3725633826
 33
0.0
  0
SOLID
  5
1DF
330
1DB
100
AcDbEntity
  8
VERMASSUNG
100
AcDbTrace
 10
62.7494388051
 20
109.8225633826
 30
0.0
 11
65.7494388051
 21
109.3725633826
 31
0.0
 12
65.7494388051
 22
110.2725633826
 32
0.0
 13
65.7494388051
 23
110.2725633826
 33
0.0
  0
LINE
  5
1E0
330
1DB
100
AcDbEntity
  8
VERMASSUNG
100
AcDbLine
 10
240.7494388051
 20
133.2587201226
 30
0.0
 11
240.7494388051
 21
108.8225633826
 31
0.0
  0
LINE
  5
1E1
330
1DB
100
AcDbEntity
  8
VERMASSUNG
100
AcDbLine
 10
62.7494388051
 20
139.9663821301
 30
0.0
 11
62.7494388051
 21
108.8225633826
 31
0.0
  0
LINE
  5
1E2
330
1DB
100
AcDbEntity
  8
VERMASSUNG
100
AcDbLine
 10
240.7494388051
 20
109.8225633826
 30
0.0
 11
62.7494388051
 21
109.8225633826
 31
0.0
  0
MTEXT
  5
1E3
330
1DB
100
AcDbEntity
  8
VERMASSUNG
100
AcDbMText
 10
148.9494386721
 20
112.4006987457
 30
0.1
 40
2.0
 41
0.0
 71
     1
 72
     1
  1
178
  7
SLDTEXTSTYLE0
 73
     1
 44
1.0
  0
ENDBLK
  5
1DD
330
1DB
100
AcDbEntity
  8
0
100
AcDbBlockEnd
  0
BLOCK
  5
1E7
330
1E6
100
AcDbEntity
  8
0
100
AcDbBlockBegin
  2
_D_3
 70
     0
 10
0.0
 20
0.0
 30
0.0
  3
_D_3
  1

  0
ARC
  5
1E9
330
1E6
100
AcDbEntity
  8
VERMASSUNG
100
AcDbCircle
 10
240.7863245746
 20
133.2587201226
 30
0.0
 40
10.70938015380682
100
AcDbArc
 50
0.0
 51
95.0277975181
  0
SOLID
  5
1EA
330
1E6
100
AcDbEntity
  8
VERMASSUNG
100
AcDbTrace
 10
251.4957047284
 20
133.2587201226
 30
0.0
 11
251.533095869
 21
136.292051938
 31
0.0
 12
250.6414751884
 22
136.1695261781
 32
0.0
 13
250.6414751884
 23
136.1695261781
 33
0.0
  0
SOLID
  5
1EB
330
1E6
100
AcDbEntity
  8
VERMASSUNG
100
AcDbTrace
 10
239.8477647306
 20
143.9268937572
 30
0.0
 11
242.8222347282
 21
143.3310513006
 31
0.0
 12
242.8661482608
 22
144.2299793298
 32
0.0
 13
242.8661482608
 23
144.2299793298
 33
0.0
  0
MTEXT
  5
1EC
330
1E6
100
AcDbEntity
  8
VERMASSUNG
100
AcDbMText
 10
247.6222836085
 20
145.0161745169
 30
0.1
 40
2.0
 41
0.0
 71
     1
 72
     1
  1
95°
  7
SLDTEXTSTYLE0
 11
0.7374411991856007
 21
-0.6754113396617674
 31
0.0
 73
     1
 44
1.0
  0
ENDBLK
  5
1E8
330
1E6
100
AcDbEntity
  8
0
100
AcDbBlockEnd
  0
BLOCK
  5
1EF
330
1EE
100
AcDbEntity
  8
0
100
AcDbBlockBegin
  2
_D_4
 70
     0
 10
0.0
 20
0.0
 30
0.0
  3
_D_4
  1

  0
SOLID
  5
1F1
330
1EE
100
AcDbEntity
  8
VERMASSUNG
100
AcDbTrace
 10
52.7494388051
 20
191.7587201226
 30
0.0
 11
52.2994388051
 21
188.7587201226
 31
0.0
 12
53.1994388051
 22
188.7587201226
 32
0.0
 13
53.1994388051
 23
188.7587201226
 33
0.0
  0
SOLID
  5
1F2
330
1EE
100
AcDbEntity
  8
VERMASSUNG
100
AcDbTrace
 10
52.7494388051
 20
128.7587201226
 30
0.0
 11
53.1994388051
 21
131.7587201226
 31
0.0
 12
52.2994388051
 22
131.7587201226
 32
0.0
 13
52.2994388051
 23
131.7587201226
 33
0.0
  0
LINE
  5
1F3
330
1EE
100
AcDbEntity
  8
VERMASSUNG
100
AcDbLine
 10
101.2494388051
 20
191.7587201226
 30
0.0
 11
51.7494388051
 21
191.7587201226
 31
0.0
  0
LINE
  5
1F4
330
1EE
100
AcDbEntity
  8
VERMASSUNG
100
AcDbLine
 10
101.2494388051
 20
128.7587201226
 30
0.0
 11
51.7494388051
 21
128.7587201226
 31
0.0
  0
LINE
  5
1F5
330
1EE
100
AcDbEntity
  8
VERMASSUNG
100
AcDbLine
 10
52.7494388051
 20
191.7587201226
 30
0.0
 11
52.7494388051
 21
128.7587201226
 31
0.0
  0
MTEXT
  5
1F6
330
1EE
100
AcDbEntity
  8
VERMASSUNG
100
AcDbMText
 10
49.971303316
 20
153.8537200133
 30
0.1
 40
2.0
 41
0.0
 71
     1
 72
     1
  1
PSC
  7
SLDTEXTSTYLE0
 11
-7.044195017643634E-15
 21
1.0
 31
0.0
 73
     1
 44
1.0
  0
MTEXT
  5
1F7
330
1EE
100
AcDbEntity
  8
VERMASSUNG
100
AcDbMText
 10
50.1713033255
 20
158.4537201154
 30
0.1
 40
2.0
 41
0.0
 71
     1
 72
     1
  1
%%c
  7
SLDTEXTSTYLE0
 11
-7.044195017643634E-15
 21
1.0
 31
0.0
 73
     1
 44
1.0
  0
MTEXT
  5
1F8
330
1EE
100
AcDbEntity
  8
VERMASSUNG
100
AcDbMText
 10
49.971303316
 20
162.0637205954
 30
0.1
 40
2.0
 41
0.0
 71
     1
 72
     1
  1
63
  7
SLDTEXTSTYLE0
 11
-7.044195017643634E-15
 21
1.0
 31
0.0
 73
     1
 44
1.0
  0
ENDBLK
  5
1F0
330
1EE
100
AcDbEntity
  8
0
100
AcDbBlockEnd
  0
BLOCK
  5
1FB
330
1FA
100
AcDbEntity
  8
0
100
AcDbBlockBegin
  2
_D_5
 70
     0
 10
0.0
 20
0.0
 30
0.0
  3
_D_5
  1

  0
SOLID
  5
1FD
330
1FA
100
AcDbEntity
  8
VERMASSUNG
100
AcDbTrace
 10
146.916482335
 20
140.2587201226
 30
0.0
 11
147.366482335
 21
143.2587201226
 31
0.0
 12
146.466482335
 22
143.2587201226
 32
0.0
 13
146.466482335
 23
143.2587201226
 33
0.0
  0
SOLID
  5
1FE
330
1FA
100
AcDbEntity
  8
VERMASSUNG
100
AcDbTrace
 10
146.916482335
 20
180.2587201226
 30
0.0
 11
146.466482335
 21
177.2587201226
 31
0.0
 12
147.366482335
 22
177.2587201226
 32
0.0
 13
147.366482335
 23
177.2587201226
 33
0.0
  0
LINE
  5
1FF
330
1FA
100
AcDbEntity
  8
VERMASSUNG
100
AcDbLine
 10
146.916482335
 20
140.2587201226
 30
0.0
 11
146.916482335
 21
180.2587201226
 31
0.0
  0
MTEXT
  5
200
330
1FA
100
AcDbEntity
  8
VERMASSUNG
100
AcDbMText
 10
144.3383468555
 20
145.8231217742
 30
0.1
 40
2.0
 41
0.0
 71
     1
 72
     1
  1
%%c
  7
SLDTEXTSTYLE0
 11
6.123233995736766E-17
 21
1.0
 31
0.0
 73
     1
 44
1.0
  0
MTEXT
  5
201
330
1FA
100
AcDbEntity
  8
VERMASSUNG
100
AcDbMText
 10
144.138346846
 20
149.4331217885
 30
0.1
 40
2.0
 41
0.0
 71
     1
 72
     1
  1
40
  7
SLDTEXTSTYLE0
 11
6.123233995736766E-17
 21
1.0
 31
0.0
 73
     1
 44
1.0
  0
ENDBLK
  5
1FC
330
1FA
100
AcDbEntity
  8
0
100
AcDbBlockEnd
  0
BLOCK
  5
25C
330
25B
100
AcDbEntity
  8
0
100
AcDbBlockBegin
  2
_D_6
 70
     0
 10
0.0
 20
0.0
 30
0.0
  3
_D_6
  1

  0
ARC
  5
25E
330
25B
100
AcDbEntity
  8
VERMASSUNG
100
AcDbCircle
 10
171.7119376505
 20
30.3447911249
 30
0.0
 40
65.91231869815891
100
AcDbArc
 50
90.0
 51
98.0
  0
ARC
  5
25F
330
25B
100
AcDbEntity
  8
VERMASSUNG
100
AcDbCircle
 10
171.7119376505
 20
30.3447911249
 30
0.0
 40
65.91231869815891
100
AcDbArc
 50
84.7893095789
 51
90.0
  0
ARC
  5
260
330
25B
100
AcDbEntity
  8
VERMASSUNG
100
AcDbCircle
 10
171.7119376505
 20
30.3447911249
 30
0.0
 40
65.91231869815893
100
AcDbArc
 50
98.0
 51
103.2106904211
  0
SOLID
  5
261
330
25B
100
AcDbEntity
  8
VERMASSUNG
100
AcDbTrace
 10
171.7119376505
 20
96.2571098231
 30
0.0
 11
174.7009289663
 21
95.7390066343
 31
0.0
 12
174.7213948317
 22
96.6387739089
 32
0.0
 13
174.7213948317
 23
96.6387739089
 33
0.0
  0
SOLID
  5
262
330
25B
100
AcDbEntity
  8
VERMASSUNG
100
AcDbTrace
 10
162.5387158658
 20
95.6156556684
 30
0.0
 11
159.5054291406
 21
95.5747699374
 31
0.0
 12
159.6509192354
 22
94.6866074341
 32
0.0
 13
159.6509192354
 23
94.6866074341
 33
0.0
  0
LINE
  5
263
330
25B
100
AcDbEntity
  8
VERMASSUNG
100
AcDbLine
 10
171.7119376505
 20
91.3028617261
 30
0.0
 11
171.7119376505
 21
97.2571098231
 31
0.0
  0
LINE
  5
264
330
25B
100
AcDbEntity
  8
VERMASSUNG
100
AcDbLine
 10
163.7916065687
 20
86.7008750952
 30
0.0
 11
162.3995427648
 21
96.6059237371
 31
0.0
  0
MTEXT
  5
265
330
25B
100
AcDbEntity
  8
VERMASSUNG
100
AcDbMText
 10
164.7396439591
 20
98.5149416248
 30
0.1
 40
2.0
 41
0.0
 71
     1
 72
     1
  1
8°
  7
SLDTEXTSTYLE0
 11
0.9975640502598235
 21
0.06975647374413603
 31
0.0
 73
     1
 44
1.0
  0
ENDBLK
  5
25D
330
25B
100
AcDbEntity
  8
0
100
AcDbBlockEnd
  0
BLOCK
  5
269
330
268
100
AcDbEntity
  8
0
100
AcDbBlockBegin
  2
_D_7
 70
     0
 10
0.0
 20
0.0
 30
0.0
  3
_D_7
  1

  0
SOLID
  5
26B
330
268
100
AcDbEntity
  8
VERMASSUNG
100
AcDbTrace
 10
187.2406876846
 20
74.9370835476
 30
0.0
 11
189.4567989523
 21
77.0086411377
 31
0.0
 12
188.7514764251
 22
77.567676139
 32
0.0
 13
188.7514764251
 23
77.567676139
 33
0.0
  0
SOLID
  5
26C
330
268
100
AcDbEntity
  8
VERMASSUNG
100
AcDbTrace
 10
156.1831876163
 20
35.7524987022
 30
0.0
 11
153.9670763486
 21
33.6809411121
 31
0.0
 12
154.6723988759
 22
33.1219061108
 32
0.0
 13
154.6723988759
 23
33.1219061108
 33
0.0
  0
LINE
  5
26D
330
268
100
AcDbEntity
  8
VERMASSUNG
100
AcDbLine
 10
187.2406876846
 20
74.9370835476
 30
0.0
 11
186.4569959877
 21
75.558233549
 31
0.0
  0
LINE
  5
26E
330
268
100
AcDbEntity
  8
VERMASSUNG
100
AcDbLine
 10
156.1831876163
 20
35.7524987022
 30
0.0
 11
155.3994959194
 21
36.3736487035
 31
0.0
  0
LINE
  5
26F
330
268
100
AcDbEntity
  8
VERMASSUNG
100
AcDbLine
 10
187.2406876846
 20
74.9370835476
 30
0.0
 11
190.9675876928
 21
79.6392337291
 31
0.0
  0
LINE
  5
270
330
268
100
AcDbEntity
  8
VERMASSUNG
100
AcDbLine
 10
187.2406876846
 20
74.9370835476
 30
0.0
 11
156.1831876163
 21
35.7524987022
 31
0.0
  0
LINE
  5
271
330
268
100
AcDbEntity
  8
VERMASSUNG
100
AcDbLine
 10
156.1831876163
 20
35.7524987022
 30
0.0
 11
143.0418728723
 21
19.1723824198
 31
0.0
  0
MTEXT
  5
272
330
268
100
AcDbEntity
  8
VERMASSUNG
100
AcDbMText
 10
141.0214095034
 20
20.7737912765
 30
0.1
 40
2.0
 41
0.0
 71
     1
 72
     1
  1
%%c
  7
SLDTEXTSTYLE0
 11
0.6211500013650404
 21
0.7836916969090654
 31
0.0
 73
     1
 44
1.0
  0
MTEXT
  5
273
330
268
100
AcDbEntity
  8
VERMASSUNG
100
AcDbMText
 10
143.1070226704
 20
23.7271483197
 30
0.1
 40
2.0
 41
0.0
 71
     1
 72
     1
  1
50
  7
SLDTEXTSTYLE0
 11
0.6211500013650404
 21
0.7836916969090654
 31
0.0
 73
     1
 44
1.0
  0
MTEXT
  5
274
330
268
100
AcDbEntity
  8
VERMASSUNG
100
AcDbMText
 10
146.701928656
 20
28.2627644605
 30
0.1
 40
2.0
 41
0.0
 71
     1
 72
     1
  1
min.
  7
SLDTEXTSTYLE0
 11
0.6211500013650404
 21
0.7836916969090654
 31
0.0
 73
     1
 44
1.0
  0
ENDBLK
  5
26A
330
268
100
AcDbEntity
  8
0
100
AcDbBlockEnd
  0
BLOCK
  5
276
330
275
100
AcDbEntity
  8
0
100
AcDbBlockBegin
  2
SW_CENTERMARKSYMBOL_0
 70
     0
 10
0.0
 20
0.0
 30
0.0
  3
SW_CENTERMARKSYMBOL_0
  1

  0
LINE
  5
278
330
275
100
AcDbEntity
  8
VERMASSUNG
 62
     0
100
AcDbLine
 10
0.0
 20
0.0
 30
0.0
 11
0.0
 21
2.5
 31
0.0
  0
LINE
  5
279
330
275
100
AcDbEntity
  8
VERMASSUNG
 62
     0
100
AcDbLine
 10
0.0
 20
0.0
 30
0.0
 11
-2.5
 21
0.0
 31
0.0
  0
LINE
  5
27A
330
275
100
AcDbEntity
  8
VERMASSUNG
 62
     0
100
AcDbLine
 10
0.0
 20
0.0
 30
0.0
 11
0.0
 21
-2.5
 31
0.0
  0
LINE
  5
27B
330
275
100
AcDbEntity
  8
VERMASSUNG
 62
     0
100
AcDbLine
 10
0.0
 20
0.0
 30
0.0
 11
2.5
 21
0.0
 31
0.0
  0
LINE
  5
27C
330
275
100
AcDbEntity
  8
VERMASSUNG
 62
     0
100
AcDbLine
 10
0.0
 20
5.0
 30
0.0
 11
0.0
 21
34.0
 31
0.0
  0
LINE
  5
27D
330
275
100
AcDbEntity
  8
VERMASSUNG
 62
     0
100
AcDbLine
 10
-5.0
 20
0.0
 30
0.0
 11
-34.0
 21
0.0
 31
0.0
  0
LINE
  5
27E
330
275
100
AcDbEntity
  8
VERMASSUNG
 62
     0
100
AcDbLine
 10
0.0
 20
-5.0
 30
0.0
 11
0.0
 21
-34.0
 31
0.0
  0
LINE
  5
27F
330
275
100
AcDbEntity
  8
VERMASSUNG
 62
     0
100
AcDbLine
 10
5.0
 20
0.0
 30
0.0
 11
34.0
 21
0.0
 31
0.0
  0
ENDBLK
  5
277
330
275
100
AcDbEntity
  8
0
100
AcDbBlockEnd
  0
ENDSEC
  0
SECTION
  2
ENTITIES
  0
MTEXT
  5
49
330
1F
100
AcDbEntity
  8
KOPF_DÜNN
100
AcDbMText
 10
13.8892156294
 20
23.8442973028
 30
0.0
 40
3.0
 41
0.0
 71
     1
 72
     1
  1
PS6.PCD.LLC.140
  7
SLDTEXTSTYLE0
 73
     1
 44
1.0
  0
MTEXT
  5
4A
330
1F
100
AcDbEntity
  8
VERMASSUNG
100
AcDbMText
 10
13.9329988022
 20
28.8834360957
 30
0.0
 40
3.0
 41
0.0
 71
     1
 72
     1
  1
Bohrstange links_Boring bar left
  7
SLDTEXTSTYLE0
 73
     1
 44
1.0
  0
MTEXT
  5
4B
330
1F
100
AcDbEntity
  8
VERMASSUNG
100
AcDbMText
 10
98.8601118557
 20
13.8365368179
 30
0.0
 40
2.0
 41
0.0
 71
     1
 72
     1
  1
Datum: 06.06.2012
  7
SLDTEXTSTYLE0
 73
     1
 44
1.0
  0
MTEXT
  5
4C
330
1F
100
AcDbEntity
  8
VERMASSUNG
100
AcDbMText
 10
13.933048693
 20
18.0482802738
 30
0.0
 40
2.0
 41
0.0
 71
     1
 72
     1
  1
PSC ø63 / Wp.: CN..12 04..
  7
SLDTEXTSTYLE0
 73
     1
 44
1.0
  0
MTEXT
  5
4D
330
1F
100
AcDbEntity
  8
VERMASSUNG
100
AcDbMText
 10
13.9808475933
 20
13.9090973692
 30
0.0
 40
2.0
 41
0.0
 71
     1
 72
     1
  1
Gewicht: 1731g
  7
SLDTEXTSTYLE0
 73
     1
 44
1.0
  0
LINE
  5
4E
330
1F
100
AcDbEntity
  8
0
  6
Continuous
 62
     7
370
    15
100
AcDbLine
 10
239.6234480567
 20
145.8010575327
 30
0.0
 11
239.1258982844
 21
146.4598918858
 31
0.0
  0
LINE
  5
4F
330
1F
100
AcDbEntity
  8
0
  6
Continuous
 62
     7
370
    15
100
AcDbLine
 10
227.6726124711
 20
134.7955730337
 30
0.0
 11
228.060772819
 21
134.2815947312
 31
0.0
  0
LINE
  5
50
330
1F
100
AcDbEntity
  8
0
  6
Continuous
 62
     7
370
    15
100
AcDbLine
 10
231.2807200379
 20
139.8530122417
 30
0.0
 11
231.8938581175
 21
139.2172318476
 31
0.0
  0
ARC
  5
51
330
1F
100
AcDbEntity
  8
0
  6
Continuous
 62
     7
370
    15
100
AcDbCircle
 10
121.7494388051
 20
129.7587201226
 30
0.0
 40
1.0
100
AcDbArc
 50
270.0
 51
0.0
  0
ARC
  5
52
330
1F
100
AcDbEntity
  8
0
  6
Continuous
 62
     7
370
    15
100
AcDbCircle
 10
121.7494388051
 20
190.7587201226
 30
0.0
 40
1.0
100
AcDbArc
 50
0.0
 51
90.0
  0
ARC
  5
53
330
1F
100
AcDbEntity
  8
0
  6
Continuous
 62
     7
370
    15
100
AcDbCircle
 10
101.2494388051
 20
129.2587201226
 30
0.0
 40
0.5
100
AcDbArc
 50
180.0
 51
270.0
  0
ARC
  5
54
330
1F
100
AcDbEntity
  8
0
  6
Continuous
 62
     7
370
    15
100
AcDbCircle
 10
101.2494388051
 20
191.2587201226
 30
0.0
 40
0.5
100
AcDbArc
 50
90.0
 51
180.0
  0
LINE
  5
55
330
1F
100
AcDbEntity
  8
0
  6
Continuous
 62
     7
370
    15
100
AcDbLine
 10
101.2494388288
 20
128.7587196159
 30
0.0
 11
121.7494385219
 21
128.7587196159
 31
0.0
  0
LINE
  5
56
330
1F
100
AcDbEntity
  8
0
  6
Continuous
 62
     7
370
    15
100
AcDbLine
 10
121.7494385219
 20
191.7587206292
 30
0.0
 11
101.2494388288
 21
191.7587206292
 31
0.0
  0
LWPOLYLINE
  5
57
330
1F
100
AcDbEntity
  8
0
  6
Continuous
 62
     7
370
    15
100
AcDbPolyline
 90
        3
 70
   128
 43
0.0
 10
100.5494388101
 20
137.7188996005
 10
100.6748937453
 20
137.6505982655
 10
100.7494388051
 20
137.5978593308
  0
LWPOLYLINE
  5
58
330
1F
100
AcDbEntity
  8
0
  6
Continuous
 62
     7
370
    15
100
AcDbPolyline
 90
        3
 70
   128
 43
0.0
 10
100.7494388051
 20
182.9195809144
 10
100.6748937453
 20
182.8668419796
 10
100.5494388101
 20
182.7985406446
  0
ARC
  5
59
330
1F
100
AcDbEntity
  8
0
  6
Continuous
 62
     7
370
    15
100
AcDbCircle
 10
126.7494388051
 20
136.2587201226
 30
0.0
 40
4.0
100
AcDbArc
 50
90.0
 51
180.0
  0
ARC
  5
5A
330
1F
100
AcDbEntity
  8
0
  6
Continuous
 62
     7
370
    15
100
AcDbCircle
 10
126.7494388051
 20
184.2587201226
 30
0.0
 40
4.0
100
AcDbArc
 50
180.0
 51
270.0
  0
LINE
  5
5B
330
1F
100
AcDbEntity
  8
0
  6
Continuous
 62
     7
370
    15
100
AcDbLine
 10
126.7494393415
 20
140.2587205696
 30
0.0
 11
214.3352238364
 21
140.2587205696
 31
0.0
  0
LINE
  5
5C
330
1F
100
AcDbEntity
  8
0
  6
Continuous
 62
     7
370
    15
100
AcDbLine
 10
214.3352238364
 20
180.2587196755
 30
0.0
 11
126.7494393415
 21
180.2587196755
 31
0.0
  0
ARC
  5
5D
330
1F
100
AcDbEntity
  8
0
  6
Continuous
 62
     7
370
    15
100
AcDbCircle
 10
214.3352252427
 20
139.2587201226
 30
0.0
 40
0.9999999999999716
100
AcDbArc
 50
45.0
 51
90.0
  0
ARC
  5
5E
330
1F
100
AcDbEntity
  8
0
  6
Continuous
 62
     7
370
    15
100
AcDbCircle
 10
214.3352252427
 20
181.2587201226
 30
0.0
 40
1.0
100
AcDbArc
 50
270.0
 51
315.0
  0
LINE
  5
5F
330
1F
100
AcDbEntity
  8
0
  6
Continuous
 62
     7
370
    15
100
AcDbLine
 10
215.2494398779
 20
180.7587206888
 30
0.0
 11
215.0423286385
 21
180.5516131747
 31
0.0
  0
LINE
  5
60
330
1F
100
AcDbEntity
  8
0
  6
Continuous
 62
     7
370
    15
100
AcDbLine
 10
215.0423286385
 20
139.9658270705
 30
0.0
 11
219.2249281234
 21
135.7832313108
 31
0.0
  0
LINE
  5
61
330
1F
100
AcDbEntity
  8
0
  6
Continuous
 62
     7
370
    15
100
AcDbLine
 10
219.6101901955
 20
180.7587206888
 30
0.0
 11
215.2494398779
 21
180.7587206888
 31
0.0
  0
LINE
  5
62
330
1F
100
AcDbEntity
  8
0
  6
Continuous
 62
     7
370
    15
100
AcDbLine
 10
219.4374410338
 20
135.6516298431
 30
0.0
 11
221.8663750119
 21
135.3963394242
 31
0.0
  0
ARC
  5
63
330
1F
100
AcDbEntity
  8
0
  6
Continuous
 62
     7
370
    15
100
AcDbCircle
 10
235.9530205317
 20
140.2518428604
 30
0.0
 40
0.3446588176965543
100
AcDbArc
 50
224.8082703493
 51
241.0359751582
  0
ARC
  5
64
330
1F
100
AcDbEntity
  8
0
  6
Continuous
 62
     7
370
    15
100
AcDbCircle
 10
233.076024313
 20
141.0419652698
 30
0.0
 40
2.827901745574713
100
AcDbArc
 50
258.5698282304
 51
338.5743107032
  0
LINE
  5
65
330
1F
100
AcDbEntity
  8
0
  6
Continuous
 62
     7
370
    15
100
AcDbLine
 10
235.6406954951
 20
140.0987193513
 30
0.0
 11
235.7084957785
 21
140.0089491683
 31
0.0
  0
LINE
  5
66
330
1F
100
AcDbEntity
  8
0
  6
Continuous
 62
     7
370
    15
100
AcDbLine
 10
235.710015697
 20
140.3574947792
 30
0.0
 11
235.8476726241
 21
140.1752181876
 31
0.0
  0
LWPOLYLINE
  5
67
330
1F
100
AcDbEntity
  8
0
  6
Continuous
 62
     7
370
    15
100
AcDbPolyline
 90
        3
 70
   128
 43
0.0
 10
232.2301922268
 20
138.9323756623
 10
231.9472638793
 20
138.9796123433
 10
231.4240692086
 20
139.1513091105
  0
CIRCLE
  5
68
330
1F
100
AcDbEntity
  8
0
  6
Continuous
 62
     7
370
    15
100
AcDbCircle
 10
229.4643323928
 20
151.9613738997
 30
0.0
 40
3.478131201316835
  0
CIRCLE
  5
69
330
1F
100
AcDbEntity
  8
0
  6
Continuous
 62
     7
370
    15
100
AcDbCircle
 10
229.4418537164
 20
151.9642032949
 30
0.0
 40
1.989756565002981
  0
SPLINE
  5
6A
330
1F
100
AcDbEntity
  8
0
  6
Continuous
 62
     7
370
    15
100
AcDbSpline
210
0.0
220
0.0
230
1.0
 70
     8
 71
     3
 72
    11
 73
     7
 74
     0
 42
0.00000001
 43
0.00000001
 12
1.0
 22
0.0
 32
0.0
 13
1.0
 23
0.0
 33
0.0
 40
0.0
 40
0.0
 40
0.0
 40
0.0
 40
0.1081092176967589
 40
0.4711541299919463
 40
0.8135752178283717
 40
1.0
 40
1.0
 40
1.0
 40
1.0
 10
228.2851843065843
 20
150.6741134974253
 30
0.0
 10
228.3396612065439
 20
150.6690719288437
 30
0.0
 10
228.5770786715108
 20
150.6471001126616
 30
0.0
 10
229.0399971426228
 20
150.5908033659801
 30
0.0
 10
229.582109585307
 20
150.4948352370078
 30
0.0
 10
229.8786627338224
 20
150.4324455101395
 30
0.0
 10
229.9832014269456
 20
150.4104523512613
 30
0.0
  0
SPLINE
  5
6B
330
1F
100
AcDbEntity
  8
0
  6
Continuous
 62
     7
370
    15
100
AcDbSpline
210
0.0
220
0.0
230
1.0
 70
     8
 71
     3
 72
    10
 73
     6
 74
     0
 42
0.00000001
 43
0.00000001
 12
1.0
 22
0.0
 32
0.0
 13
1.0
 23
0.0
 33
0.0
 40
0.0
 40
0.0
 40
0.0
 40
0.0
 40
0.4391162160472969
 40
0.751364527095138
 40
1.0
 40
1.0
 40
1.0
 40
1.0
 10
229.9832014269456
 20
150.4104523512613
 30
0.0
 10
230.129926554304
 20
150.6159412751463
 30
0.0
 10
230.3809855038527
 20
150.9675499893675
 30
0.0
 10
230.7808131453182
 20
151.4325011753296
 30
0.0
 10
230.9902769464559
 20
151.6500802913383
 30
0.0
 10
231.0831306404695
 20
151.746531442095
 30
0.0
  0
SPLINE
  5
6C
330
1F
100
AcDbEntity
  8
0
  6
Continuous
 62
     7
370
    15
100
AcDbSpline
210
0.0
220
0.0
230
1.0
 70
     8
 71
     3
 72
    10
 73
     6
 74
     0
 42
0.00000001
 43
0.00000001
 12
1.0
 22
0.0
 32
0.0
 13
1.0
 23
0.0
 33
0.0
 40
0.0
 40
0.0
 40
0.0
 40
0.0
 40
0.4391173580995533
 40
0.7513679012099146
 40
1.0
 40
1.0
 40
1.0
 40
1.0
 10
231.0831306404695
 20
151.746531442095
 30
0.0
 10
230.9867693371124
 20
151.9897659686624
 30
0.0
 10
230.8218867859541
 20
152.4059613486849
 30
0.0
 10
230.6170812912033
 20
152.964791051641
 30
0.0
 10
230.5255966877974
 20
153.229104460925
 30
0.0
 10
230.485042733632
 20
153.3462712134313
 30
0.0
  0
SPLINE
  5
6D
330
1F
100
AcDbEntity
  8
0
  6
Continuous
 62
     7
370
    15
100
AcDbSpline
210
0.0
220
0.0
230
1.0
 70
     8
 71
     3
 72
    11
 73
     7
 74
     0
 42
0.00000001
 43
0.00000001
 12
1.0
 22
0.0
 32
0.0
 13
1.0
 23
0.0
 33
0.0
 40
0.0
 40
0.0
 40
0.0
 40
0.0
 40
0.1864248159617991
 40
0.5288458524323529
 40
0.8918907622435038
 40
1.0
 40
1.0
 40
1.0
 40
1.0
 10
230.485042733632
 20
153.3462712134313
 30
0.0
 10
230.380504048242
 20
153.3682643863267
 30
0.0
 10
230.0839509852712
 20
153.4306541395766
 30
0.0
 10
229.5418383841811
 20
153.5266217473328
 30
0.0
 10
229.0789199377972
 20
153.5829180523897
 30
0.0
 10
228.8415025122592
 20
153.6048906182484
 30
0.0
 10
228.7870256132707
 20
153.6099323595953
 30
0.0
  0
SPLINE
  5
6E
330
1F
100
AcDbEntity
  8
0
  6
Continuous
 62
     7
370
    15
100
AcDbSpline
210
0.0
220
0.0
230
1.0
 70
     8
 71
     3
 72
    10
 73
     6
 74
     0
 42
0.00000001
 43
0.00000001
 12
1.0
 22
0.0
 32
0.0
 13
1.0
 23
0.0
 33
0.0
 40
0.0
 40
0.0
 40
0.0
 40
0.0
 40
0.4391177047008237
 40
0.7513634929930418
 40
1.0
 40
1.0
 40
1.0
 40
1.0
 10
228.7870256132707
 20
153.6099323595953
 30
0.0
 10
228.6188184860713
 20
153.4328834210082
 30
0.0
 10
228.3310034121494
 20
153.1299393413151
 30
0.0
 10
227.9475148221641
 20
152.6433524055923
 30
0.0
 10
227.7670712797967
 20
152.3873413227522
 30
0.0
 10
227.6870814985856
 20
152.2738528031003
 30
0.0
  0
SPLINE
  5
6F
330
1F
100
AcDbEntity
  8
0
  6
Continuous
 62
     7
370
    15
100
AcDbSpline
210
0.0
220
0.0
230
1.0
 70
     8
 71
     3
 72
    10
 73
     6
 74
     0
 42
0.00000001
 43
0.00000001
 12
1.0
 22
0.0
 32
0.0
 13
1.0
 23
0.0
 33
0.0
 40
0.0
 40
0.0
 40
0.0
 40
0.0
 40
0.4391167758860307
 40
0.7513669836013265
 40
1.0
 40
1.0
 40
1.0
 40
1.0
 10
227.6870814985856
 20
152.2738528031003
 30
0.0
 10
227.7619673493385
 20
152.0590576216698
 30
0.0
 10
227.8901035511065
 20
151.6915243903603
 30
0.0
 10
228.1112436122775
 20
151.1110638445141
 30
0.0
 10
228.2317605488687
 20
150.8083174545248
 30
0.0
 10
228.2851843065843
 20
150.6741134974253
 30
0.0
  0
LINE
  5
70
330
1F
100
AcDbEntity
  8
0
  6
Continuous
 62
     7
370
    15
100
AcDbLine
 10
230.6930182404
 20
152.2630876455
 30
0.0
 11
231.0831306405
 21
151.7465314421
 31
0.0
  0
LINE
  5
71
330
1F
100
AcDbEntity
  8
0
  6
Continuous
 62
     7
370
    15
100
AcDbLine
 10
230.6930182404
 20
152.2630876455
 30
0.0
 11
230.3939817376
 21
153.0629572983
 31
0.0
  0
LINE
  5
72
330
1F
100
AcDbEntity
  8
0
  6
Continuous
 62
     7
370
    15
100
AcDbLine
 10
230.3939817376
 20
153.0629572983
 30
0.0
 11
230.2715985007
 21
153.3902780677
 31
0.0
  0
LINE
  5
73
330
1F
100
AcDbEntity
  8
0
  6
Continuous
 62
     7
370
    15
100
AcDbLine
 10
229.5930890269
 20
150.9270085546
 30
0.0
 11
229.9832014269
 21
150.4104523513
 31
0.0
  0
LINE
  5
74
330
1F
100
AcDbEntity
  8
0
  6
Continuous
 62
     7
370
    15
100
AcDbLine
 10
229.5930890269
 20
150.9270085546
 30
0.0
 11
230.1430610842
 21
151.5950481
 31
0.0
  0
LINE
  5
75
330
1F
100
AcDbEntity
  8
0
  6
Continuous
 62
     7
370
    15
100
AcDbLine
 10
230.1430610842
 20
151.5950481
 30
0.0
 11
230.6930182404
 21
152.2630876455
 31
0.0
  0
LINE
  5
76
330
1F
100
AcDbEntity
  8
0
  6
Continuous
 62
     7
370
    15
100
AcDbLine
 10
228.0943749375
 20
151.159722783
 30
0.0
 11
228.7440804667
 21
151.0588391277
 31
0.0
  0
LINE
  5
77
330
1F
100
AcDbEntity
  8
0
  6
Continuous
 62
     7
370
    15
100
AcDbLine
 10
228.7440804667
 20
151.0588391277
 30
0.0
 11
229.5930890269
 21
150.9270085546
 31
0.0
  0
ARC
  5
78
330
1F
100
AcDbEntity
  8
0
  6
Continuous
 62
     7
370
    15
100
AcDbCircle
 10
228.9960988793
 20
152.5465073604
 30
0.0
 40
1.490233882217446
100
AcDbArc
 50
320.3226922122
 51
20.276826984
  0
ARC
  5
79
330
1F
100
AcDbEntity
  8
0
  6
Continuous
 62
     7
370
    15
100
AcDbCircle
 10
228.9724021692
 20
152.5562325325
 30
0.0
 40
1.514700567280953
100
AcDbArc
 50
261.3303499771
 51
320.611856808
  0
ARC
  5
7A
330
1F
100
AcDbEntity
  8
0
  6
Continuous
 62
     7
370
    15
100
AcDbCircle
 10
228.967375753
 20
152.5099332215
 30
0.0
 40
1.468173986284323
100
AcDbArc
 50
226.518239117
 51
261.2519075813
  0
ARC
  5
7B
330
1F
100
AcDbEntity
  8
0
  6
Continuous
 62
     7
370
    15
100
AcDbCircle
 10
229.0315333511
 20
152.5540287065
 30
0.0
 40
1.454398128925793
100
AcDbArc
 50
20.4826574731
 51
35.9501616096
  0
LINE
  5
7C
330
1F
100
AcDbEntity
  8
0
  6
Continuous
 62
     7
370
    15
100
AcDbLine
 10
226.936301393
 20
146.3874619979
 30
0.0
 11
227.9836891121
 21
134.4823357242
 31
0.0
  0
ARC
  5
7D
330
1F
100
AcDbEntity
  8
0
  6
Continuous
 62
     7
370
    15
100
AcDbCircle
 10
227.3383841342
 20
146.4204876938
 30
0.0
 40
0.4034367699729002
100
AcDbArc
 50
85.8937429496
 51
184.6955382042
  0
LINE
  5
7E
330
1F
100
AcDbEntity
  8
0
  6
Continuous
 62
     7
370
    15
100
AcDbLine
 10
239.3389103837
 20
145.9551020118
 30
0.0
 11
227.367272777
 21
146.8228888291
 31
0.0
  0
ARC
  5
7F
330
1F
100
AcDbEntity
  8
0
  6
Continuous
 62
     7
370
    15
100
AcDbCircle
 10
239.3121644967
 20
145.5661373343
 30
0.0
 40
0.3898831399655084
100
AcDbArc
 50
5.0291677491
 51
86.0664343939
  0
LINE
  5
80
330
1F
100
AcDbEntity
  8
0
  6
Continuous
 62
     7
370
    15
100
AcDbLine
 10
240.7479194827
 20
133.6951893347
 30
0.0
 11
239.7005466647
 21
145.6003156084
 31
0.0
  0
ARC
  5
81
330
1F
100
AcDbEntity
  8
0
  6
Continuous
 62
     7
370
    15
100
AcDbCircle
 10
240.3458442375
 20
133.6621572081
 30
0.0
 40
0.4034298255824088
100
AcDbArc
 50
265.8947265405
 51
4.6965355873
  0
LINE
  5
82
330
1F
100
AcDbEntity
  8
0
  6
Continuous
 62
     7
370
    15
100
AcDbLine
 10
228.345310492
 20
134.1275502521
 30
0.0
 11
240.3169629998
 21
133.2597625035
 31
0.0
  0
ARC
  5
83
330
1F
100
AcDbEntity
  8
0
  6
Continuous
 62
     7
370
    15
100
AcDbCircle
 10
228.3720374139
 20
134.5164793768
 30
0.0
 40
0.3898463703176335
100
AcDbArc
 50
185.0245353496
 51
266.0688566883
  0
ARC
  5
84
330
1F
100
AcDbEntity
  8
0
  6
Continuous
 62
     7
370
    15
100
AcDbCircle
 10
240.3461303123
 20
133.6618056063
 30
0.0
 40
0.3832713348716341
100
AcDbArc
 50
265.8946259377
 51
4.6945498896
  0
LINE
  5
85
330
1F
100
AcDbEntity
  8
0
  6
Continuous
 62
     7
370
    15
100
AcDbLine
 10
240.7281158394
 20
133.6931739527
 30
0.0
 11
239.6807281203
 21
145.598299295
 31
0.0
  0
ARC
  5
86
330
1F
100
AcDbEntity
  8
0
  6
Continuous
 62
     7
370
    15
100
AcDbCircle
 10
239.311767611
 20
145.5658336115
 30
0.0
 40
0.3703861201567634
100
AcDbArc
 50
5.0286357368
 51
86.0655285938
  0
LINE
  5
87
330
1F
100
AcDbEntity
  8
0
  6
Continuous
 62
     7
370
    15
100
AcDbLine
 10
239.337181849
 20
145.9353467974
 30
0.0
 11
227.3655293412
 21
146.8031336146
 31
0.0
  0
ARC
  5
88
330
1F
100
AcDbEntity
  8
0
  6
Continuous
 62
     7
370
    15
100
AcDbCircle
 10
227.3380948933
 20
146.4208552008
 30
0.0
 40
0.3832615746787924
100
AcDbArc
 50
85.8951701799
 51
184.6960908775
  0
LINE
  5
89
330
1F
100
AcDbEntity
  8
0
  6
Continuous
 62
     7
370
    15
100
AcDbLine
 10
226.9561199374
 20
146.3894773799
 30
0.0
 11
228.0034927554
 21
134.4843529689
 31
0.0
  0
ARC
  5
8A
330
1F
100
AcDbEntity
  8
0
  6
Continuous
 62
     7
370
    15
100
AcDbCircle
 10
228.3724521506
 20
134.5168175169
 30
0.0
 40
0.370384910894451
100
AcDbArc
 50
185.0284758648
 51
266.0656884658
  0
LINE
  5
8B
330
1F
100
AcDbEntity
  8
0
  6
Continuous
 62
     7
370
    15
100
AcDbLine
 10
228.3470390267
 20
134.1473054665
 30
0.0
 11
240.3186915345
 21
133.2795177179
 31
0.0
  0
LINE
  5
8C
330
1F
100
AcDbEntity
  8
0
  6
Continuous
 62
     7
370
    15
100
AcDbLine
 10
238.8413606114
 20
146.6139372963
 30
0.0
 11
238.5824082322
 21
146.6327081028
 31
0.0
  0
LINE
  5
8D
330
1F
100
AcDbEntity
  8
0
  6
Continuous
 62
     7
370
    15
100
AcDbLine
 10
238.673260612
 20
145.0635701942
 30
0.0
 11
239.2813173956
 21
145.5903616327
 31
0.0
  0
LINE
  5
8E
330
1F
100
AcDbEntity
  8
0
  6
Continuous
 62
     7
370
    15
100
AcDbLine
 10
228.1732169814
 20
145.628218964
 30
0.0
 11
227.3096648879
 21
146.4581484499
 31
0.0
  0
LINE
  5
8F
330
1F
100
AcDbEntity
  8
0
  6
Continuous
 62
     7
370
    15
100
AcDbLine
 10
228.8900820441
 20
135.1791456866
 30
0.0
 11
228.357052607
 21
134.5530231076
 31
0.0
  0
LINE
  5
90
330
1F
100
AcDbEntity
  8
0
  6
Continuous
 62
     7
370
    15
100
AcDbLine
 10
226.4490930266
 20
146.9286945242
 30
0.0
 11
226.8111018366
 21
142.8139344382
 31
0.0
  0
ARC
  5
91
330
1F
100
AcDbEntity
  8
0
  6
Continuous
 62
     7
370
    15
100
AcDbCircle
 10
230.2134476635
 20
143.5973547319
 30
0.0
 40
1.008595714966332
100
AcDbArc
 50
85.8948390979
 51
184.6953324707
  0
SPLINE
  5
92
330
1F
100
AcDbEntity
  8
0
  6
Continuous
 62
     7
370
    15
100
AcDbSpline
210
0.0
220
0.0
230
1.0
 70
     8
 71
     3
 72
    11
 73
     7
 74
     0
 42
0.00000001
 43
0.00000001
 12
1.0
 22
0.0
 32
0.0
 13
1.0
 23
0.0
 33
0.0
 40
0.0
 40
0.0
 40
0.0
 40
0.0
 40
0.3367746689724325
 40
0.679010133556358
 40
0.9923652565270338
 40
1.0
 40
1.0
 40
1.0
 40
1.0
 10
228.1732169813737
 20
145.6282189640295
 30
0.0
 10
228.2262750356688
 20
145.5768827692324
 30
0.0
 10
228.3332514797199
 20
145.4733779641001
 30
0.0
 10
228.5056204064327
 20
145.3030368337315
 30
0.0
 10
228.6154060114065
 20
145.192987824851
 30
0.0
 10
228.6661329464898
 20
145.1419461581486
 30
0.0
 10
228.6673394865617
 20
145.1407321321857
 30
0.0
  0
LINE
  5
93
330
1F
100
AcDbEntity
  8
0
  6
Continuous
 62
     7
370
    15
100
AcDbLine
 10
229.2082367367
 20
143.5147937912
 30
0.0
 11
229.7944186158
 21
136.8519258279
 31
0.0
  0
LINE
  5
94
330
1F
100
AcDbEntity
  8
0
  6
Continuous
 62
     7
370
    15
100
AcDbLine
 10
236.9857488103
 20
144.1176929104
 30
0.0
 11
230.2856502957
 21
144.6033627319
 31
0.0
  0
ARC
  5
95
330
1F
100
AcDbEntity
  8
0
  6
Continuous
 62
     7
370
    15
100
AcDbCircle
 10
236.9188789588
 20
143.1453168979
 30
0.0
 40
0.9746726049361351
100
AcDbArc
 50
5.0271620249
 51
86.0659894122
  0
LINE
  5
96
330
1F
100
AcDbEntity
  8
0
  6
Continuous
 62
     7
370
    15
100
AcDbLine
 10
238.4759841389
 20
136.5678575414
 30
0.0
 11
237.8898022599
 21
143.2307255047
 31
0.0
  0
ARC
  5
97
330
1F
100
AcDbEntity
  8
0
  6
Continuous
 62
     7
370
    15
100
AcDbCircle
 10
237.4707748049
 20
136.4852967457
 30
0.0
 40
1.008594115738174
100
AcDbArc
 50
265.8947418672
 51
4.695331668
  0
LINE
  5
98
330
1F
100
AcDbEntity
  8
0
  6
Continuous
 62
     7
370
    15
100
AcDbLine
 10
230.6984720654
 20
135.9649584222
 30
0.0
 11
237.39857058
 21
135.4792904633
 31
0.0
  0
ARC
  5
99
330
1F
100
AcDbEntity
  8
0
  6
Continuous
 62
     7
370
    15
100
AcDbCircle
 10
230.7653419169
 20
136.9373344347
 30
0.0
 40
0.9746726049361351
100
AcDbArc
 50
185.0271620249
 51
266.0659894122
  0
CIRCLE
  5
9A
330
1F
100
AcDbEntity
  8
0
  6
Continuous
 62
     7
370
    15
100
AcDbCircle
 10
233.8035778836
 20
140.043950476
 30
0.0
 40
2.557771735476676
  0
ARC
  5
9B
330
1F
100
AcDbEntity
  8
0
  6
Continuous
 62
     7
370
    15
100
AcDbCircle
 10
233.3174619484
 20
140.7324312103
 30
0.0
 40
2.588183619797354
100
AcDbArc
 50
265.6449599761
 51
26.9377466116
  0
ARC
  5
9C
330
1F
100
AcDbEntity
  8
0
  6
Continuous
 62
     7
370
    15
100
AcDbCircle
 10
233.2987849271
 20
140.6737471117
 30
0.0
 40
2.528290384004502
100
AcDbArc
 50
226.6067729791
 51
265.9660082898
  0
LINE
  5
9D
330
1F
100
AcDbEntity
  8
0
  6
Continuous
 62
     7
370
    15
100
AcDbLine
 10
239.3643168635
 20
134.6486829746
 30
0.0
 11
240.3286902136
 21
133.6852372217
 31
0.0
  0
SPLINE
  5
9E
330
1F
100
AcDbEntity
  8
0
  6
Continuous
 62
     7
370
    15
100
AcDbSpline
210
0.0
220
0.0
230
1.0
 70
     8
 71
     3
 72
    11
 73
     7
 74
     0
 42
0.00000001
 43
0.00000001
 12
1.0
 22
0.0
 32
0.0
 13
1.0
 23
0.0
 33
0.0
 40
0.0
 40
0.0
 40
0.0
 40
0.0
 40
0.3372282190066011
 40
0.67363515744383
 40
0.9918790405850613
 40
1.0
 40
1.0
 40
1.0
 40
1.0
 10
238.6732606119737
 20
145.0635701942336
 30
0.0
 10
238.6160362139708
 20
145.0118751611218
 30
0.0
 10
238.5017267814093
 20
144.90861099221
 30
0.0
 10
238.3339215900065
 20
144.732717519701
 30
0.0
 10
238.2352696523535
 20
144.6185164626753
 30
0.0
 10
238.1915944655332
 20
144.5649668522706
 30
0.0
 10
238.1905076927766
 20
144.5636343735349
 30
0.0
  0
ARC
  5
9F
330
1F
100
AcDbEntity
  8
0
  6
Continuous
 62
     7
370
    15
100
AcDbCircle
 10
238.8138970745
 20
146.2234014884
 30
0.0
 40
0.3915002720981478
100
AcDbArc
 50
37.1613669304
 51
85.9774276255
  0
SPLINE
  5
A0
330
1F
100
AcDbEntity
  8
0
  6
Continuous
 62
     7
370
    15
100
AcDbSpline
210
0.0
220
0.0
230
1.0
 70
     8
 71
     3
 72
    11
 73
     7
 74
     0
 42
0.00000001
 43
0.00000001
 12
1.0
 22
0.0
 32
0.0
 13
1.0
 23
0.0
 33
0.0
 40
0.0
 40
0.0
 40
0.0
 40
0.0
 40
0.0081123934184739
 40
0.3263735830937631
 40
0.6627633846909862
 40
1.0
 40
1.0
 40
1.0
 40
1.0
 10
229.3832806772813
 20
135.6652476417911
 30
0.0
 10
229.3819948264981
 20
135.6641833067428
 30
0.0
 10
229.3302631480904
 20
135.62136353391
 30
0.0
 10
229.2191368248914
 20
135.5235833250772
 30
0.0
 10
229.0459021005784
 20
135.3549231582342
 30
0.0
 10
228.9420655737779
 20
135.2377872608815
 30
0.0
 10
228.8900820440873
 20
135.1791456866157
 30
0.0
  0
SPLINE
  5
A1
330
1F
100
AcDbEntity
  8
0
  6
Continuous
 62
     7
370
    15
100
AcDbSpline
210
0.0
220
0.0
230
1.0
 70
     8
 71
     3
 72
    11
 73
     7
 74
     0
 42
0.00000001
 43
0.00000001
 12
1.0
 22
0.0
 32
0.0
 13
1.0
 23
0.0
 33
0.0
 40
0.0
 40
0.0
 40
0.0
 40
0.0
 40
0.0076227219827443
 40
0.3209916619984577
 40
0.6632102647532813
 40
0.9999999999999999
 40
0.9999999999999999
 40
0.9999999999999999
 40
0.9999999999999999
 10
238.8859448856935
 20
135.1153091120612
 30
0.0
 10
238.8869573355755
 20
135.11434634759
 30
0.0
 10
238.9295914459456
 20
135.0738044823021
 30
0.0
 10
239.0267916237393
 20
134.9807636757754
 30
0.0
 10
239.1914544084073
 20
134.8204508061015
 30
0.0
 10
239.3070039958954
 20
134.7056329176998
 30
0.0
 10
239.3643168634996
 20
134.6486829745662
 30
0.0
  0
LINE
  5
A2
330
1F
100
AcDbEntity
  8
0
  6
Continuous
 62
     7
370
    15
100
AcDbLine
 10
231.309389872
 20
140.4136013764
 30
0.0
 11
231.6221652455
 21
139.5625234175
 31
0.0
  0
LINE
  5
A3
330
1F
100
AcDbEntity
  8
0
  6
Continuous
 62
     7
370
    15
100
AcDbLine
 10
231.6221652455
 20
139.5625234175
 30
0.0
 11
231.2938181586
 21
139.9029963243
 31
0.0
  0
ELLIPSE
  5
A4
330
1F
100
AcDbEntity
  8
0
  6
Continuous
 62
     7
370
    15
100
AcDbEllipse
 10
233.5174922001
 20
140.7749098922
 30
0.0
 11
1.759005141004963
 21
1.403439041303386
 31
0.0
210
0.0
220
0.0
230
1.0
 40
0.9859532801
 41
3.035761472810036
 42
5.754932365681483
  0
ELLIPSE
  5
A5
330
1F
100
AcDbEntity
  8
0
  6
Continuous
 62
     7
370
    15
100
AcDbEllipse
 10
233.5174922001
 20
140.7749098922
 30
0.0
 11
1.759005141004963
 21
1.403439041303386
 31
0.0
210
0.0
220
0.0
230
1.0
 40
0.9859532801
 41
6.177354126399865
 42
6.286035482494255
  0
LINE
  5
A6
330
1F
100
AcDbEntity
  8
0
  6
Continuous
 62
     7
370
    15
100
AcDbLine
 10
235.7341555781
 20
141.1129147339
 30
0.0
 11
235.4128269381
 21
141.9872962463
 31
0.0
  0
LWPOLYLINE
  5
A7
330
1F
100
AcDbEntity
  8
0
  6
Continuous
 62
     7
370
    15
100
AcDbPolyline
 90
        3
 70
   128
 43
0.0
 10
235.4122010893
 20
142.0850143361
 10
235.4219017453
 20
141.9699829596
 10
235.4224530882
 20
141.9610962796
  0
LINE
  5
A8
330
1F
100
AcDbEntity
  8
0
  6
Continuous
 62
     7
370
    15
100
AcDbLine
 10
122.7494386859
 20
190.7587204653
 30
0.0
 11
122.7494386859
 21
129.7587197798
 31
0.0
  0
LINE
  5
A9
330
1F
100
AcDbEntity
  8
0
  6
Continuous
 62
     7
370
    15
100
AcDbLine
 10
100.7494388051
 20
129.2587206292
 30
0.0
 11
100.7494388051
 21
191.2587196159
 31
0.0
  0
SPLINE
  5
AA
330
1F
100
AcDbEntity
  8
0
  6
Continuous
 62
     7
370
    15
100
AcDbSpline
210
0.0
220
0.0
230
1.0
 70
     8
 71
     3
 72
    12
 73
     8
 74
     0
 42
0.00000001
 43
0.00000001
 12
1.0
 22
0.0
 32
0.0
 13
1.0
 23
0.0
 33
0.0
 40
0.0
 40
0.0
 40
0.0
 40
0.0
 40
0.2499999999999991
 40
0.2499999999999991
 40
0.4999999999999982
 40
0.4999999999999982
 40
1.0
 40
1.0
 40
1.0
 40
1.0
 10
111.2771956186325
 20
169.6467865539009
 30
0.0
 10
111.2141155801391
 20
169.6467865539009
 30
0.0
 10
111.1549669579577
 20
169.6721508731158
 30
0.0
 10
111.0564944078886
 20
169.7463157334887
 30
0.0
 10
111.0174577959039
 20
169.7928360740428
 30
0.0
 10
110.9175613291248
 20
169.9429784168881
 30
0.0
 10
110.8751404480582
 20
170.0546716238602
 30
0.0
 10
110.8441829167402
 20
170.16808944325
 30
0.0
  0
LINE
  5
AB
330
1F
100
AcDbEntity
  8
0
  6
Continuous
 62
     7
370
    15
100
AcDbLine
 10
114.2216820172
 20
169.6467869508
 30
0.0
 11
111.2771958015
 21
169.6467869508
 31
0.0
  0
SPLINE
  5
AC
330
1F
100
AcDbEntity
  8
0
  6
Continuous
 62
     7
370
    15
100
AcDbSpline
210
0.0
220
0.0
230
1.0
 70
     8
 71
     3
 72
    12
 73
     8
 74
     0
 42
0.00000001
 43
0.00000001
 12
1.0
 22
0.0
 32
0.0
 13
1.0
 23
0.0
 33
0.0
 40
0.0
 40
0.0
 40
0.0
 40
0.0
 40
0.4999999999999963
 40
0.4999999999999963
 40
0.7499999999999981
 40
0.7499999999999981
 40
1.0
 40
1.0
 40
1.0
 40
1.0
 10
114.6546946933918
 20
170.16808944325
 30
0.0
 10
114.6239724514727
 20
170.0555336438408
 30
0.0
 10
114.5811352369376
 20
169.9427757841012
 30
0.0
 10
114.4817082127378
 20
169.7932348983049
 30
0.0
 10
114.4419560179211
 20
169.745942166598
 30
0.0
 10
114.3439145610629
 20
169.6722058732766
 30
0.0
 10
114.2843585054754
 20
169.6467865539009
 30
0.0
 10
114.2216819914996
 20
169.6467865539009
 30
0.0
  0
ELLIPSE
  5
AD
330
1F
100
AcDbEntity
  8
0
  6
Continuous
 62
     7
370
    15
100
AcDbEllipse
 10
98.4022846157
 20
160.2587201226
 30
0.0
 11
14.75368316065604
 21
31.09325491558116
 31
0.0
210
0.0
220
0.0
230
1.0
 40
0.3419987131
 41
5.193281737408618
 42
6.124043104552324
  0
SPLINE
  5
AE
330
1F
100
AcDbEntity
  8
0
  6
Continuous
 62
     7
370
    15
100
AcDbSpline
210
0.0
220
0.0
230
1.0
 70
     8
 71
     3
 72
    12
 73
     8
 74
     0
 42
0.00000001
 43
0.00000001
 12
1.0
 22
0.0
 32
0.0
 13
1.0
 23
0.0
 33
0.0
 40
0.0
 40
0.0
 40
0.0
 40
0.0
 40
0.2500000000000004
 40
0.2500000000000004
 40
0.5000000000000009
 40
0.5000000000000009
 40
1.0
 40
1.0
 40
1.0
 40
1.0
 10
114.2216819914996
 20
190.327212081438
 30
0.0
 10
114.2847620299929
 20
190.327212081438
 30
0.0
 10
114.3439106521743
 20
190.3193061552256
 30
0.0
 10
114.4423832022434
 20
190.2959809937893
 30
0.0
 10
114.4814198142282
 20
190.2812682039576
 30
0.0
 10
114.5813162810072
 20
190.2333124032267
 30
0.0
 10
114.6237371620738
 20
190.1970502466467
 30
0.0
 10
114.6546946933918
 20
190.1594625826822
 30
0.0
  0
LINE
  5
AF
330
1F
100
AcDbEntity
  8
0
  6
Continuous
 62
     7
370
    15
100
AcDbLine
 10
111.2771958015
 20
190.3272126394
 30
0.0
 11
114.2216820172
 21
190.3272126394
 31
0.0
  0
SPLINE
  5
B0
330
1F
100
AcDbEntity
  8
0
  6
Continuous
 62
     7
370
    15
100
AcDbSpline
210
0.0
220
0.0
230
1.0
 70
     8
 71
     3
 72
    12
 73
     8
 74
     0
 42
0.00000001
 43
0.00000001
 12
1.0
 22
0.0
 32
0.0
 13
1.0
 23
0.0
 33
0.0
 40
0.0
 40
0.0
 40
0.0
 40
0.0
 40
0.5
 40
0.5
 40
0.75
 40
0.75
 40
1.0
 40
1.0
 40
1.0
 40
1.0
 10
110.8441829167402
 20
190.1594625826822
 30
0.0
 10
110.8749051586593
 20
190.1967645656352
 30
0.0
 10
110.9177423731945
 20
190.2333763976816
 30
0.0
 10
111.0171693973943
 20
190.2811411809668
 30
0.0
 10
111.0569215922109
 20
190.2960986964492
 30
0.0
 10
111.1549630490691
 20
190.3192886422183
 30
0.0
 10
111.2145191046566
 20
190.327212081438
 30
0.0
 10
111.2771956186325
 20
190.327212081438
 30
0.0
  0
ELLIPSE
  5
B1
330
1F
100
AcDbEntity
  8
0
  6
Continuous
 62
     7
370
    15
100
AcDbEllipse
 10
127.0965929944
 20
160.2587201226
 30
0.0
 11
-14.75368316065607
 21
31.09325491558116
 31
0.0
210
0.0
220
0.0
230
1.0
 40
0.3419987131
 41
0.1591422026273001
 42
1.089903569770979
  0
SPLINE
  5
B2
330
1F
100
AcDbEntity
  8
0
  6
Continuous
 62
     7
370
    15
100
AcDbSpline
210
0.0
220
0.0
230
1.0
 70
     8
 71
     3
 72
    12
 73
     8
 74
     0
 42
0.00000001
 43
0.00000001
 12
1.0
 22
0.0
 32
0.0
 13
1.0
 23
0.0
 33
0.0
 40
0.0
 40
0.0
 40
0.0
 40
0.0
 40
0.25
 40
0.25
 40
0.5
 40
0.5
 40
1.0
 40
1.0
 40
1.0
 40
1.0
 10
111.2771956186325
 20
130.1902281636919
 30
0.0
 10
111.2141386637347
 20
130.1902281636919
 30
0.0
 10
111.1550085139891
 20
130.1981284947714
 30
0.0
 10
111.0565609634558
 20
130.2214392427764
 30
0.0
 10
111.0175287252677
 20
130.2361443690601
 30
0.0
 10
110.9176388408107
 20
130.2840778972467
 30
0.0
 10
110.8753398672014
 20
130.3201478700115
 30
0.0
 10
110.8441829167402
 20
130.3579776624477
 30
0.0
  0
LINE
  5
B3
330
1F
100
AcDbEntity
  8
0
  6
Continuous
 62
     7
370
    15
100
AcDbLine
 10
114.2216820172
 20
130.1902276057
 30
0.0
 11
111.2771958015
 21
130.1902276057
 31
0.0
  0
SPLINE
  5
B4
330
1F
100
AcDbEntity
  8
0
  6
Continuous
 62
     7
370
    15
100
AcDbSpline
210
0.0
220
0.0
230
1.0
 70
     8
 71
     3
 72
    12
 73
     8
 74
     0
 42
0.00000001
 43
0.00000001
 12
1.0
 22
0.0
 32
0.0
 13
1.0
 23
0.0
 33
0.0
 40
0.0
 40
0.0
 40
0.0
 40
0.0
 40
0.4999999999999972
 40
0.4999999999999972
 40
0.7499999999999986
 40
0.7499999999999986
 40
1.0
 40
1.0
 40
1.0
 40
1.0
 10
114.6546946933918
 20
130.3579776624477
 30
0.0
 10
114.6235494954297
 20
130.3201621395275
 30
0.0
 10
114.5812752290953
 20
130.2840952814439
 30
0.0
 10
114.48132969527
 20
130.2361352164326
 30
0.0
 10
114.4415993905659
 20
130.221274242535
 30
0.0
 10
114.3447113405597
 20
130.1983230964038
 30
0.0
 10
114.2846460988131
 20
130.1902281636918
 30
0.0
 10
114.2216819914996
 20
130.1902281636918
 30
0.0
  0
ELLIPSE
  5
B5
330
1F
100
AcDbEntity
  8
0
  6
Continuous
 62
     7
370
    15
100
AcDbEllipse
 10
98.4022846157
 20
160.2587201226
 30
0.0
 11
-14.75368316065618
 21
31.09325491558119
 31
0.0
210
0.0
220
0.0
230
1.0
 40
0.3419987131
 41
3.300734856217125
 42
4.231496223360774
  0
SPLINE
  5
B6
330
1F
100
AcDbEntity
  8
0
  6
Continuous
 62
     7
370
    15
100
AcDbSpline
210
0.0
220
0.0
230
1.0
 70
     8
 71
     3
 72
    12
 73
     8
 74
     0
 42
0.00000001
 43
0.00000001
 12
1.0
 22
0.0
 32
0.0
 13
1.0
 23
0.0
 33
0.0
 40
0.0
 40
0.0
 40
0.0
 40
0.0
 40
0.2500000000000014
 40
0.2500000000000014
 40
0.5000000000000029
 40
0.5000000000000029
 40
1.0
 40
1.0
 40
1.0
 40
1.0
 10
114.2216819914996
 20
150.8706536912287
 30
0.0
 10
114.2847389463974
 20
150.8706536912287
 30
0.0
 10
114.343869096143
 20
150.8453073378481
 30
0.0
 10
114.4423166466763
 20
150.7711879557086
 30
0.0
 10
114.4813488848643
 20
150.7246914410105
 30
0.0
 10
114.5812387693213
 20
150.574616934002
 30
0.0
 10
114.6235377429306
 20
150.4634992248871
 30
0.0
 10
114.6546946933918
 20
150.3493508018796
 30
0.0
  0
LINE
  5
B7
330
1F
100
AcDbEntity
  8
0
  6
Continuous
 62
     7
370
    15
100
AcDbLine
 10
111.2771958015
 20
150.8706532943
 30
0.0
 11
114.2216820172
 21
150.8706532943
 31
0.0
  0
SPLINE
  5
B8
330
1F
100
AcDbEntity
  8
0
  6
Continuous
 62
     7
370
    15
100
AcDbSpline
210
0.0
220
0.0
230
1.0
 70
     8
 71
     3
 72
    12
 73
     8
 74
     0
 42
0.00000001
 43
0.00000001
 12
1.0
 22
0.0
 32
0.0
 13
1.0
 23
0.0
 33
0.0
 40
0.0
 40
0.0
 40
0.0
 40
0.0
 40
0.4999999999999991
 40
0.4999999999999991
 40
0.7499999999999996
 40
0.7499999999999996
 40
1.0
 40
1.0
 40
1.0
 40
1.0
 10
110.8441829167402
 20
150.3493508018796
 30
0.0
 10
110.8753281147023
 20
150.4634561677449
 30
0.0
 10
110.9176023810368
 20
150.5745624949637
 30
0.0
 10
111.0175479148621
 20
150.724720102394
 30
0.0
 10
111.0572782195661
 20
150.7717127940113
 30
0.0
 10
111.1541662695723
 20
150.8446883785498
 30
0.0
 10
111.2142315113189
 20
150.8706536912288
 30
0.0
 10
111.2771956186324
 20
150.8706536912288
 30
0.0
  0
ELLIPSE
  5
B9
330
1F
100
AcDbEntity
  8
0
  6
Continuous
 62
     7
370
    15
100
AcDbEllipse
 10
127.0965929944
 20
160.2587201226
 30
0.0
 11
14.75368316065621
 21
31.09325491558116
 31
0.0
210
0.0
220
0.0
230
1.0
 40
0.3419987131
 41
2.051689083818826
 42
2.982450450962504
  0
SPLINE
  5
BA
330
1F
100
AcDbEntity
  8
0
  6
Continuous
 62
     7
370
    15
100
AcDbSpline
210
0.0
220
0.0
230
1.0
 70
     8
 71
     3
 72
    12
 73
     8
 74
     0
 42
0.00000001
 43
0.00000001
 12
1.0
 22
0.0
 32
0.0
 13
1.0
 23
0.0
 33
0.0
 40
0.0
 40
0.0
 40
0.0
 40
0.0
 40
0.5000000000000006
 40
0.5000000000000006
 40
0.7500000000000004
 40
0.7500000000000004
 40
1.0
 40
1.0
 40
1.0
 40
1.0
 10
99.93292651860955
 20
138.4039264200891
 30
0.0
 10
99.98936301951672
 20
138.4025085387474
 30
0.0
 10
100.0584476502055
 20
138.4009442024991
 30
0.0
 10
100.1772499219234
 20
138.3980000105247
 30
0.0
 10
100.2174351973935
 20
138.3969618074273
 30
0.0
 10
100.2908162447973
 20
138.3950279122126
 30
0.0
 10
100.3242258085399
 20
138.3941330249238
 30
0.0
 10
100.3544619161964
 20
138.3933492346515
 30
0.0
  0
SPLINE
  5
BB
330
1F
100
AcDbEntity
  8
0
  6
Continuous
 62
     7
370
    15
100
AcDbSpline
210
0.0
220
0.0
230
1.0
 70
     8
 71
     3
 72
    16
 73
    12
 74
     0
 42
0.00000001
 43
0.00000001
 12
1.0
 22
0.0
 32
0.0
 13
1.0
 23
0.0
 33
0.0
 40
0.0
 40
0.0
 40
0.0
 40
0.0
 40
0.0625000000000016
 40
0.0625000000000016
 40
0.1250000000000031
 40
0.1250000000000031
 40
0.2500000000000044
 40
0.2500000000000044
 40
0.5000000000000041
 40
0.5000000000000041
 40
1.0
 40
1.0
 40
1.0
 40
1.0
 10
100.3544619161592
 20
138.3933492346757
 30
0.0
 10
100.3660423237471
 20
138.3930490435644
 30
0.0
 10
100.3793518505084
 20
138.3917212953054
 30
0.0
 10
100.4086532805945
 20
138.3850226205304
 30
0.0
 10
100.4234673804788
 20
138.3796644374247
 30
0.0
 10
100.4592957821817
 20
138.3626187882573
 30
0.0
 10
100.4734154065447
 20
138.3511562504816
 30
0.0
 10
100.5079195506332
 20
138.3195929251094
 30
0.0
 10
100.5190241013378
 20
138.3016956260641
 30
0.0
 10
100.545200278554
 20
138.2515342084498
 30
0.0
 10
100.549438805066
 20
138.2237897962533
 30
0.0
 10
100.549438805066
 20
138.1991256343237
 30
0.0
  0
LINE
  5
BC
330
1F
100
AcDbEntity
  8
0
  6
Continuous
 62
     7
370
    15
100
AcDbLine
 10
100.5494388101
 20
153.2368328947
 30
0.0
 11
100.5494388101
 21
137.7188996005
 31
0.0
  0
SPLINE
  5
BD
330
1F
100
AcDbEntity
  8
0
  6
Continuous
 62
     7
370
    15
100
AcDbSpline
210
0.0
220
0.0
230
1.0
 70
     8
 71
     3
 72
    16
 73
    12
 74
     0
 42
0.00000001
 43
0.00000001
 12
1.0
 22
0.0
 32
0.0
 13
1.0
 23
0.0
 33
0.0
 40
0.0
 40
0.0
 40
0.0
 40
0.0
 40
0.4999999999999973
 40
0.4999999999999973
 40
0.749999999999996
 40
0.749999999999996
 40
0.8749999999999963
 40
0.8749999999999963
 40
0.9374999999999982
 40
0.9374999999999982
 40
1.0
 40
1.0
 40
1.0
 40
1.0
 10
100.549438805066
 20
153.2368327968149
 30
0.0
 10
100.549438805066
 20
153.3505253409428
 30
0.0
 10
100.5452925299881
 20
153.4648455022923
 30
0.0
 10
100.5193269345946
 20
153.6378937927894
 30
0.0
 10
100.5078660292172
 20
153.6970692999511
 30
0.0
 10
100.4735542914428
 20
153.7801924194192
 30
0.0
 10
100.4595295555132
 20
153.8083137355199
 30
0.0
 10
100.4235065924794
 20
153.8369295494973
 30
0.0
 10
100.4087520833897
 20
153.8427225973991
 30
0.0
 10
100.3793999222428
 20
153.8411291714621
 30
0.0
 10
100.3660600477387
 20
153.8346327681383
 30
0.0
 10
100.3544619161904
 20
153.8261170219352
 30
0.0
  0
SPLINE
  5
BE
330
1F
100
AcDbEntity
  8
0
  6
Continuous
 62
     7
370
    15
100
AcDbSpline
210
0.0
220
0.0
230
1.0
 70
     8
 71
     3
 72
    12
 73
     8
 74
     0
 42
0.00000001
 43
0.00000001
 12
1.0
 22
0.0
 32
0.0
 13
1.0
 23
0.0
 33
0.0
 40
0.0
 40
0.0
 40
0.0
 40
0.0
 40
0.2500000000000002
 40
0.2500000000000002
 40
0.5000000000000003
 40
0.5000000000000003
 40
1.0
 40
1.0
 40
1.0
 40
1.0
 10
100.3544619161975
 20
153.8261170219261
 30
0.0
 10
100.3242634747568
 20
153.803944289881
 30
0.0
 10
100.2908961194209
 20
153.7848646340038
 30
0.0
 10
100.2177408435909
 20
153.759691589561
 30
0.0
 10
100.177488144567
 20
153.7541350531442
 30
0.0
 10
100.0597594012921
 20
153.765046864131
 30
0.0
 10
99.98930095323318
 20
153.8069826195418
 30
0.0
 10
99.93292651861493
 20
153.8561944019234
 30
0.0
  0
SPLINE
  5
BF
330
1F
100
AcDbEntity
  8
0
  6
Continuous
 62
     7
370
    15
100
AcDbSpline
210
0.0
220
0.0
230
1.0
 70
     8
 71
     3
 72
    12
 73
     8
 74
     0
 42
0.00000001
 43
0.00000001
 12
1.0
 22
0.0
 32
0.0
 13
1.0
 23
0.0
 33
0.0
 40
0.0
 40
0.0
 40
0.0
 40
0.0
 40
0.5000000000000009
 40
0.5000000000000009
 40
0.7500000000000006
 40
0.7500000000000006
 40
1.0
 40
1.0
 40
1.0
 40
1.0
 10
99.42811846150637
 20
155.072545793804
 30
0.0
 10
99.47186881339084
 20
154.8520988088295
 30
0.0
 10
99.52475896451531
 20
154.6365538190239
 30
0.0
 10
99.636370507657
 20
154.3241397424519
 30
0.0
 10
99.67892985156054
 20
154.2220602668361
 30
0.0
 10
99.78390708689797
 20
154.0276202541943
 30
0.0
 10
99.84547432999256
 20
153.9325353551306
 30
0.0
 10
99.93292651861493
 20
153.8561944019234
 30
0.0
  0
SPLINE
  5
C0
330
1F
100
AcDbEntity
  8
0
  6
Continuous
 62
     7
370
    15
100
AcDbSpline
210
0.0
220
0.0
230
1.0
 70
     8
 71
     3
 72
    12
 73
     8
 74
     0
 42
0.00000001
 43
0.00000001
 12
1.0
 22
0.0
 32
0.0
 13
1.0
 23
0.0
 33
0.0
 40
0.0
 40
0.0
 40
0.0
 40
0.0
 40
0.2500000000000003
 40
0.2500000000000003
 40
0.5000000000000007
 40
0.5000000000000007
 40
1.0
 40
1.0
 40
1.0
 40
1.0
 10
99.93292651861482
 20
166.6612458432066
 30
0.0
 10
99.84443311104694
 20
166.5839959630983
 30
0.0
 10
99.78437507028107
 20
166.490676639209
 30
0.0
 10
99.67852679729849
 20
166.2946435862395
 30
0.0
 10
99.63599327602098
 20
166.1923172280278
 30
0.0
 10
99.52484196919737
 20
165.8809728222519
 30
0.0
 10
99.47191111214958
 20
165.6655545690739
 30
0.0
 10
99.42811846150637
 20
165.444894451326
 30
0.0
  0
SPLINE
  5
C1
330
1F
100
AcDbEntity
  8
0
  6
Continuous
 62
     7
370
    15
100
AcDbSpline
210
0.0
220
0.0
230
1.0
 70
     8
 71
     3
 72
    12
 73
     8
 74
     0
 42
0.00000001
 43
0.00000001
 12
1.0
 22
0.0
 32
0.0
 13
1.0
 23
0.0
 33
0.0
 40
0.0
 40
0.0
 40
0.0
 40
0.0
 40
0.4999999999999998
 40
0.4999999999999998
 40
0.7499999999999997
 40
0.7499999999999997
 40
1.0
 40
1.0
 40
1.0
 40
1.0
 10
99.9329265186148
 20
166.6612458432066
 30
0.0
 10
99.98923506691044
 20
166.7104001104504
 30
0.0
 10
100.0595097276286
 20
166.7523574290541
 30
0.0
 10
100.1775476419521
 20
166.7633171065866
 30
0.0
 10
100.2177238828061
 20
166.7578083483392
 30
0.0
 10
100.291680977484
 20
166.7322511195503
 30
0.0
 10
100.3242973651954
 20
166.713471071711
 30
0.0
 10
100.3544619161912
 20
166.6913232231943
 30
0.0
  0
SPLINE
  5
C2
330
1F
100
AcDbEntity
  8
0
  6
Continuous
 62
     7
370
    15
100
AcDbSpline
210
0.0
220
0.0
230
1.0
 70
     8
 71
     3
 72
    16
 73
    12
 74
     0
 42
0.00000001
 43
0.00000001
 12
1.0
 22
0.0
 32
0.0
 13
1.0
 23
0.0
 33
0.0
 40
0.0
 40
0.0
 40
0.0
 40
0.0
 40
0.0624999999999979
 40
0.0624999999999979
 40
0.1249999999999957
 40
0.1249999999999957
 40
0.2499999999999944
 40
0.2499999999999944
 40
0.4999999999999951
 40
0.4999999999999951
 40
1.0
 40
1.0
 40
1.0
 40
1.0
 10
100.3544619161594
 20
166.6913232231397
 30
0.0
 10
100.3660748159988
 20
166.6827966335445
 30
0.0
 10
100.3794260004313
 20
166.6762963720117
 30
0.0
 10
100.4088258400504
 20
166.6747269748942
 30
0.0
 10
100.4236665646057
 20
166.6806103655248
 30
0.0
 10
100.4594997725743
 20
166.7091580015753
 30
0.0
 10
100.4736129803959
 20
166.7373250208811
 30
0.0
 10
100.5081043516147
 20
166.821079279303
 30
0.0
 10
100.5191884227252
 20
166.8787926929245
 30
0.0
 10
100.5453112405212
 20
167.0523832295703
 30
0.0
 10
100.549438805066
 20
167.1674112822123
 30
0.0
 10
100.549438805066
 20
167.2806074483151
 30
0.0
  0
LINE
  5
C3
330
1F
100
AcDbEntity
  8
0
  6
Continuous
 62
     7
370
    15
100
AcDbLine
 10
100.5494388101
 20
182.7985406446
 30
0.0
 11
100.5494388101
 21
167.2806073505
 31
0.0
  0
SPLINE
  5
C4
330
1F
100
AcDbEntity
  8
0
  6
Continuous
 62
     7
370
    15
100
AcDbSpline
210
0.0
220
0.0
230
1.0
 70
     8
 71
     3
 72
    16
 73
    12
 74
     0
 42
0.00000001
 43
0.00000001
 12
1.0
 22
0.0
 32
0.0
 13
1.0
 23
0.0
 33
0.0
 40
0.0
 40
0.0
 40
0.0
 40
0.0
 40
0.4999999999999987
 40
0.4999999999999987
 40
0.749999999999998
 40
0.749999999999998
 40
0.8749999999999962
 40
0.8749999999999962
 40
0.937499999999998
 40
0.937499999999998
 40
1.0
 40
1.0
 40
1.0
 40
1.0
 10
100.549438805066
 20
182.3183146108063
 30
0.0
 10
100.549438805066
 20
182.2936434547634
 30
0.0
 10
100.545273106606
 20
182.2660616233721
 30
0.0
 10
100.5190147782811
 20
182.2157187525488
 30
0.0
 10
100.5075109965435
 20
182.1974292544869
 30
0.0
 10
100.473380237197
 20
182.1662742234498
 30
0.0
 10
100.4589583505263
 20
182.1546348482381
 30
0.0
 10
100.4233913820884
 20
182.137752822307
 30
0.0
 10
100.4084396137938
 20
182.1323637184994
 30
0.0
 10
100.379435795434
 20
182.1257432225549
 30
0.0
 10
100.3660204414248
 20
182.1243906343485
 30
0.0
 10
100.3544619161882
 20
182.1240910104768
 30
0.0
  0
SPLINE
  5
C5
330
1F
100
AcDbEntity
  8
0
  6
Continuous
 62
     7
370
    15
100
AcDbSpline
210
0.0
220
0.0
230
1.0
 70
     8
 71
     3
 72
    12
 73
     8
 74
     0
 42
0.00000001
 43
0.00000001
 12
1.0
 22
0.0
 32
0.0
 13
1.0
 23
0.0
 33
0.0
 40
0.0
 40
0.0
 40
0.0
 40
0.0
 40
0.2499999999999997
 40
0.2499999999999997
 40
0.4999999999999994
 40
0.4999999999999994
 40
1.0
 40
1.0
 40
1.0
 40
1.0
 10
100.3544619161975
 20
182.1240910104786
 30
0.0
 10
100.3242741396478
 20
182.123308473061
 30
0.0
 10
100.2909203355561
 20
182.1224151412425
 30
0.0
 10
100.2177941323602
 20
182.1204878324389
 30
0.0
 10
100.177558929336
 20
182.1194483012262
 30
0.0
 10
100.0598672992029
 20
182.1165304178789
 30
0.0
 10
99.98948662604285
 20
182.1149348118087
 30
0.0
 10
99.93292651861225
 20
182.1135138250409
 30
0.0
  0
SPLINE
  5
C6
330
1F
100
AcDbEntity
  8
0
  6
Continuous
 62
     7
370
    15
100
AcDbSpline
210
0.0
220
0.0
230
1.0
 70
     8
 71
     3
 72
    16
 73
    12
 74
     0
 42
0.00000001
 43
0.00000001
 12
1.0
 22
0.0
 32
0.0
 13
1.0
 23
0.0
 33
0.0
 40
0.0
 40
0.0
 40
0.0
 40
0.0
 40
0.25
 40
0.25
 40
0.375
 40
0.375
 40
0.5
 40
0.5
 40
0.75
 40
0.75
 40
1.0
 40
1.0
 40
1.0
 40
1.0
 10
99.42811846150637
 20
165.444894451326
 30
0.0
 10
99.26688598402191
 20
164.6324846760792
 30
0.0
 10
99.14640614438228
 20
163.7924063816945
 30
0.0
 10
99.02402562706895
 20
162.4911113323317
 30
0.0
 10
98.99304796667151
 20
162.050430296747
 30
0.0
 10
98.95143422904356
 20
161.1545906558158
 30
0.0
 10
98.94119831611074
 20
160.7079325246133
 30
0.0
 10
98.94100991905464
 20
159.3726225674735
 30
0.0
 10
98.98115462169224
 20
158.488127194166
 30
0.0
 10
99.14530837663182
 20
156.73087730614
 30
0.0
 10
99.26686002704136
 20
155.8850863597269
 30
0.0
 10
99.42811846150637
 20
155.072545793804
 30
0.0
  0
LINE
  5
C7
330
1F
100
AcDbEntity
  8
0
  6
Continuous
 62
     7
370
    15
100
AcDbLine
 10
98.549438817
 20
166.7438982579
 30
0.0
 11
98.549438817
 21
153.7735419872
 31
0.0
  0
LINE
  5
C8
330
1F
100
AcDbEntity
  8
0
  6
Continuous
 62
     7
370
    15
100
AcDbLine
 10
64.2494393415
 20
166.3130307163
 30
0.0
 11
64.2494393415
 21
154.2044095288
 31
0.0
  0
LINE
  5
C9
330
1F
100
AcDbEntity
  8
0
  6
Continuous
 62
     7
370
    15
100
AcDbLine
 10
62.749440027
 20
165.8800178732
 30
0.0
 11
62.749440027
 21
154.6374223719
 31
0.0
  0
LINE
  5
CA
330
1F
100
AcDbEntity
  8
0
  6
Continuous
 62
     7
370
    15
100
AcDbLine
 10
98.549438817
 20
166.7438982579
 30
0.0
 11
98.549438817
 21
182.2788198072
 31
0.0
  0
ARC
  5
CB
330
1F
100
AcDbEntity
  8
0
  6
Continuous
 62
     7
370
    15
100
AcDbCircle
 10
98.749375716
 20
182.2838420183
 30
0.0
 40
0.199999999999991
100
AcDbArc
 50
181.4391666667
 51
271.4391666667
  0
LINE
  5
CC
330
1F
100
AcDbEntity
  8
0
  6
Continuous
 62
     7
370
    15
100
AcDbLine
 10
64.2494393415
 20
166.3130307163
 30
0.0
 11
64.2494393415
 21
181.4170837927
 31
0.0
  0
LINE
  5
CD
330
1F
100
AcDbEntity
  8
0
  6
Continuous
 62
     7
370
    15
100
AcDbLine
 10
64.2494393415
 20
181.4170837927
 30
0.0
 11
98.549438817
 21
182.2788198072
 31
0.0
  0
LINE
  5
CE
330
1F
100
AcDbEntity
  8
0
  6
Continuous
 62
     7
370
    15
100
AcDbLine
 10
64.2494393415
 20
139.1003564525
 30
0.0
 11
64.2494393415
 21
154.2044095288
 31
0.0
  0
LINE
  5
CF
330
1F
100
AcDbEntity
  8
0
  6
Continuous
 62
     7
370
    15
100
AcDbLine
 10
98.549438817
 20
138.238620438
 30
0.0
 11
98.549438817
 21
153.7735419872
 31
0.0
  0
LINE
  5
D0
330
1F
100
AcDbEntity
  8
0
  6
Continuous
 62
     7
370
    15
100
AcDbLine
 10
64.2494393415
 20
139.1003564525
 30
0.0
 11
98.549438817
 21
138.238620438
 31
0.0
  0
ARC
  5
D1
330
1F
100
AcDbEntity
  8
0
  6
Continuous
 62
     7
370
    15
100
AcDbCircle
 10
98.749375716
 20
138.2335982269
 30
0.0
 40
0.1999999999999778
100
AcDbArc
 50
88.5608333333
 51
178.5608333333
  0
LINE
  5
D2
330
1F
100
AcDbEntity
  8
0
  6
Continuous
 62
     7
370
    15
100
AcDbLine
 10
98.7543989341
 20
182.0839051682
 30
0.0
 11
99.9329265342
 21
182.1135137755
 31
0.0
  0
LINE
  5
D3
330
1F
100
AcDbEntity
  8
0
  6
Continuous
 62
     7
370
    15
100
AcDbLine
 10
98.7543989341
 20
138.433535077
 30
0.0
 11
99.9329265342
 21
138.4039264697
 31
0.0
  0
LINE
  5
D4
330
1F
100
AcDbEntity
  8
0
  6
Continuous
 62
     7
370
    15
100
AcDbLine
 10
62.749440027
 20
139.9663821387
 30
0.0
 11
64.2494393415
 21
139.1003564525
 31
0.0
  0
LINE
  5
D5
330
1F
100
AcDbEntity
  8
0
  6
Continuous
 62
     7
370
    15
100
AcDbLine
 10
62.749440027
 20
139.9663821387
 30
0.0
 11
62.749440027
 21
154.6374223719
 31
0.0
  0
LINE
  5
D6
330
1F
100
AcDbEntity
  8
0
  6
Continuous
 62
     7
370
    15
100
AcDbLine
 10
62.749440027
 20
180.5510581064
 30
0.0
 11
64.2494393415
 21
181.4170837927
 31
0.0
  0
LINE
  5
D7
330
1F
100
AcDbEntity
  8
0
  6
Continuous
 62
     7
370
    15
100
AcDbLine
 10
62.749440027
 20
165.8800178732
 30
0.0
 11
62.749440027
 21
180.5510581064
 31
0.0
  0
ELLIPSE
  5
D8
330
1F
100
AcDbEntity
  8
0
  6
Continuous
 62
     7
370
    15
100
AcDbEllipse
 10
209.6048425396
 20
160.2587201226
 30
0.0
 11
0.8021781934011187
 21
19.9988707082226
 31
0.0
210
0.0
220
0.0
230
1.0
 40
0.2649452246
 41
0.6123236860737642
 42
2.829775376026385
  0
ELLIPSE
  5
D9
330
1F
100
AcDbEntity
  8
0
  6
Continuous
 62
     7
370
    15
100
AcDbEllipse
 10
206.0781423752
 20
154.2020935744
 30
0.0
 11
-0.1164374532819181
 21
2.987911037318241
 31
0.0
210
0.0
220
0.0
230
1.0
 40
0.240361677
 41
0.0
 42
6.283185307179586
  0
SPLINE
  5
DA
330
1F
100
AcDbEntity
  8
0
  6
Continuous
 62
     7
370
    15
100
AcDbSpline
210
0.0
220
0.0
230
1.0
 70
     8
 71
     3
 72
    14
 73
    10
 74
     0
 42
0.00000001
 43
0.00000001
 12
1.0
 22
0.0
 32
0.0
 13
1.0
 23
0.0
 33
0.0
 40
0.0
 40
0.0
 40
0.0
 40
0.0
 40
0.25
 40
0.25
 40
0.5
 40
0.5
 40
0.75
 40
0.75
 40
1.0
 40
1.0
 40
1.0
 40
1.0
 10
209.799986689863
 20
140.6671955671613
 30
0.0
 10
209.4857890927404
 20
140.6742441048812
 30
0.0
 10
209.186166963314
 20
140.6913264851291
 30
0.0
 10
208.6153750782225
 20
140.7487800482
 30
0.0
 10
208.3578675631914
 20
140.787963525751
 30
0.0
 10
207.9011705791783
 20
140.8917848648679
 30
0.0
 10
207.7100230274053
 20
140.9548062176625
 30
0.0
 10
207.402748419797
 20
141.1055840057049
 30
0.0
 10
207.2894073968268
 20
141.1921892909643
 30
0.0
 10
207.2157946007987
 20
141.2894453559805
 30
0.0
  0
ELLIPSE
  5
DB
330
1F
100
AcDbEntity
  8
0
  6
Continuous
 62
     7
370
    15
100
AcDbEllipse
 10
273.6312844635
 20
160.2587201226
 30
0.0
 11
190.2870637919093
 21
2.813935298683731
 31
0.0
210
0.0
220
0.0
230
1.0
 40
0.1040588589
 41
4.368770506792851
 42
4.393959727202542
  0
ELLIPSE
  5
DC
330
1F
100
AcDbEntity
  8
0
  6
Continuous
 62
     7
370
    15
100
AcDbEllipse
 10
273.6312844635
 20
160.2587201226
 30
0.0
 11
190.2870637919093
 21
2.813935298683731
 31
0.0
210
0.0
220
0.0
230
1.0
 40
0.1040588589
 41
1.886147970188342
 42
1.911337190598037
  0
SPLINE
  5
DD
330
1F
100
AcDbEntity
  8
0
  6
Continuous
 62
     7
370
    15
100
AcDbSpline
210
0.0
220
0.0
230
1.0
 70
     8
 71
     3
 72
    18
 73
    14
 74
     0
 42
0.00000001
 43
0.00000001
 12
1.0
 22
0.0
 32
0.0
 13
1.0
 23
0.0
 33
0.0
 40
0.0
 40
0.0
 40
0.0
 40
0.0
 40
0.2499999999999963
 40
0.2499999999999963
 40
0.3749999999999952
 40
0.3749999999999952
 40
0.499999999999994
 40
0.499999999999994
 40
0.6249999999999928
 40
0.6249999999999928
 40
0.7499999999999917
 40
0.7499999999999917
 40
1.0
 40
1.0
 40
1.0
 40
1.0
 10
207.2157946007987
 20
176.7462467116839
 30
0.0
 10
207.2894604697534
 20
176.9200971601665
 30
0.0
 10
207.4012390948334
 20
177.0789948603171
 30
0.0
 10
207.6308270130256
 20
177.2965588067061
 30
0.0
 10
207.7181853703928
 20
177.3656074586707
 30
0.0
 10
207.9089077594645
 20
177.4923402008592
 30
0.0
 10
208.0128653241933
 20
177.550681282443
 30
0.0
 10
208.2385312744153
 20
177.6577729972598
 30
0.0
 10
208.3614795610243
 20
177.7069150545839
 30
0.0
 10
208.6203493919045
 20
177.7933830857022
 30
0.0
 10
208.7554810221733
 20
177.830626701378
 30
0.0
 10
209.1778415648199
 20
177.9255440649154
 30
0.0
 10
209.4853835967049
 20
177.9665753202223
 30
0.0
 10
209.799986689863
 20
177.9828367828429
 30
0.0
  0
SPLINE
  5
DE
330
1F
100
AcDbEntity
  8
0
  6
Continuous
 62
     7
370
    15
100
AcDbSpline
210
0.0
220
0.0
230
1.0
 70
     8
 71
     3
 72
     8
 73
     4
 74
     0
 42
0.00000001
 43
0.00000001
 12
1.0
 22
0.0
 32
0.0
 13
1.0
 23
0.0
 33
0.0
 40
0.0
 40
0.0
 40
0.0
 40
0.0
 40
1.0
 40
1.0
 40
1.0
 40
1.0
 10
219.4640802677282
 20
135.6504643837392
 30
0.0
 10
217.9801928235626
 20
137.175377118464
 30
0.0
 10
216.5040312545977
 20
138.7076933085575
 30
0.0
 10
215.0423320238794
 20
140.2538682878439
 30
0.0
  0
SPLINE
  5
DF
330
1F
100
AcDbEntity
  8
0
  6
Continuous
 62
     7
370
    15
100
AcDbSpline
210
0.0
220
0.0
230
1.0
 70
     8
 71
     3
 72
    10
 73
     6
 74
     0
 42
0.00000001
 43
0.00000001
 12
1.0
 22
0.0
 32
0.0
 13
1.0
 23
0.0
 33
0.0
 40
0.0
 40
0.0
 40
0.0
 40
0.0
 40
0.5
 40
0.5
 40
1.0
 40
1.0
 40
1.0
 40
1.0
 10
215.0423320238794
 20
140.2538682878439
 30
0.0
 10
214.9507659220797
 20
140.3507262546391
 30
0.0
 10
214.8424854164002
 20
140.4287468763121
 30
0.0
 10
214.6007460884977
 20
140.5387910630246
 30
0.0
 10
214.469870200803
 20
140.5694975650859
 30
0.0
 10
214.3352252426929
 20
140.5721238096098
 30
0.0
  0
SPLINE
  5
E0
330
1F
100
AcDbEntity
  8
0
  6
Continuous
 62
     7
370
    15
100
AcDbSpline
210
0.0
220
0.0
230
1.0
 70
     8
 71
     3
 72
     8
 73
     4
 74
     0
 42
0.00000001
 43
0.00000001
 12
1.0
 22
0.0
 32
0.0
 13
1.0
 23
0.0
 33
0.0
 40
0.0
 40
0.0
 40
0.0
 40
0.0
 40
1.0
 40
1.0
 40
1.0
 40
1.0
 10
214.3352252426929
 20
178.2105885982225
 30
0.0
 10
214.6043170083267
 20
178.2237096000902
 30
0.0
 10
214.8593070216812
 20
178.3505737868441
 30
0.0
 10
215.0423320238798
 20
178.5495307867475
 30
0.0
  0
SPLINE
  5
E1
330
1F
100
AcDbEntity
  8
0
  6
Continuous
 62
     7
370
    15
100
AcDbSpline
210
0.0
220
0.0
230
1.0
 70
     8
 71
     3
 72
     8
 73
     4
 74
     0
 42
0.00000001
 43
0.00000001
 12
1.0
 22
0.0
 32
0.0
 13
1.0
 23
0.0
 33
0.0
 40
0.0
 40
0.0
 40
0.0
 40
0.0
 40
1.0
 40
1.0
 40
1.0
 40
1.0
 10
215.0423320238794
 20
178.5495307867479
 30
0.0
 10
215.1113346130163
 20
178.6245399273316
 30
0.0
 10
215.1803705538094
 20
178.6995180838209
 30
0.0
 10
215.249438805066
 20
178.7744662234964
 30
0.0
  0
ELLIPSE
  5
E2
330
1F
100
AcDbEntity
  8
0
  6
Continuous
 62
     7
370
    15
100
AcDbEllipse
 10
273.6312844635
 20
160.2587201226
 30
0.0
 11
195.0442403867071
 21
2.884283681150833
 31
0.0
210
0.0
220
0.0
230
1.0
 40
0.1040588589
 41
1.843073158187153
 42
1.873243518195786
  0
LINE
  5
E3
330
1F
100
AcDbEntity
  8
0
  6
Continuous
 62
     7
370
    15
100
AcDbLine
 10
237.8295121617
 20
155.190474313
 30
0.0
 11
220.88991682
 21
179.0314600396
 31
0.0
  0
LINE
  5
E4
330
1F
100
AcDbEntity
  8
0
  6
Continuous
 62
     7
370
    15
100
AcDbLine
 10
238.634070558
 20
146.0454449582
 30
0.0
 11
237.8295121617
 21
155.190474313
 31
0.0
  0
LINE
  5
E5
330
1F
100
AcDbEntity
  8
0
  6
Continuous
 62
     7
370
    15
100
AcDbLine
 10
226.388028068
 20
146.933120169
 30
0.0
 11
238.634070558
 21
146.0454449582
 31
0.0
  0
ARC
  5
E6
330
1F
100
AcDbEntity
  8
0
  6
Continuous
 62
     7
370
    15
100
AcDbCircle
 10
226.1813296346
 20
144.6121295739
 30
0.0
 40
2.330176299100388
100
AcDbArc
 50
84.9108853526
 51
265.0593300129
  0
LINE
  5
E7
330
1F
100
AcDbEntity
  8
0
  6
Continuous
 62
     7
370
    15
100
AcDbLine
 10
227.2772995658
 20
142.1966221708
 30
0.0
 11
225.9806452221
 21
142.290611245
 31
0.0
  0
LINE
  5
E8
330
1F
100
AcDbEntity
  8
0
  6
Continuous
 62
     7
370
    15
100
AcDbLine
 10
227.9307303853
 20
134.7693060118
 30
0.0
 11
227.2772995658
 21
142.1966221708
 31
0.0
  0
ELLIPSE
  5
E9
330
1F
100
AcDbEntity
  8
0
  6
Continuous
 62
     7
370
    15
100
AcDbEllipse
 10
252.2545356776
 20
158.3456299184
 30
0.0
 11
217.1628490301421
 21
-19.44089462863656
 31
0.0
210
0.0
220
0.0
230
1.0
 40
0.1182598878
 41
4.571409520900422
 42
4.610739044024404
  0
CIRCLE
  5
EA
330
1F
100
AcDbEntity
  8
0
  6
Continuous
 62
     7
370
    15
100
AcDbCircle
 10
229.4677406707
 20
151.9572842912
 30
0.0
 40
3.977268647991334
  0
LINE
  5
EB
330
1F
100
AcDbEntity
  8
0
  6
Continuous
 62
     7
370
    15
100
AcDbLine
 10
215.2494398779
 20
180.7587206888
 30
0.0
 11
215.2494398779
 21
178.7744653004
 31
0.0
  0
SPLINE
  5
EC
330
1F
100
AcDbEntity
  8
0
  6
Continuous
 62
     7
370
    15
100
AcDbSpline
210
0.0
220
0.0
230
1.0
 70
     8
 71
     3
 72
     9
 73
     5
 74
     0
 42
0.00000001
 43
0.00000001
 12
1.0
 22
0.0
 32
0.0
 13
1.0
 23
0.0
 33
0.0
 40
0.0
 40
0.0
 40
0.0
 40
0.0
 40
0.5186779828369433
 40
1.0
 40
1.0
 40
1.0
 40
1.0
 10
219.2645801133737
 20
135.8228814381253
 30
0.0
 10
219.2972673457882
 20
135.7616260319994
 30
0.0
 10
219.36028762715
 20
135.6435269259011
 30
0.0
 10
219.4303529006586
 20
135.6482098383672
 30
0.0
 10
219.4640768594369
 20
135.6504638272416
 30
0.0
  0
ELLIPSE
  5
ED
330
1F
100
AcDbEntity
  8
0
  6
Continuous
 62
     7
370
    15
100
AcDbEllipse
 10
234.2029125795
 20
160.2587201226
 30
0.0
 11
-14.59302442226752
 21
20.49991501977667
 31
0.0
210
0.0
220
0.0
230
1.0
 40
0.0040448756
 41
5.866863962441072
 42
6.280305938888057
  0
ARC
  5
EE
330
1F
100
AcDbEntity
  8
0
  6
Continuous
 62
     7
370
    15
100
AcDbCircle
 10
225.6510088527
 20
145.2376292977
 30
0.0
 40
2.302169444476109
100
AcDbArc
 50
227.3993127731
 51
265.9736479118
  0
LINE
  5
EF
330
1F
100
AcDbEntity
  8
0
  6
Continuous
 62
     7
370
    15
100
AcDbLine
 10
225.1820472903
 20
143.3480702865
 30
0.0
 11
226.7742661662
 21
143.2326552051
 31
0.0
  0
LINE
  5
F0
330
1F
100
AcDbEntity
  8
0
  6
Continuous
 62
     7
370
    15
100
AcDbLine
 10
226.8083153195
 20
142.8455360758
 30
0.0
 11
226.7860082812
 21
142.8471528518
 31
0.0
  0
LINE
  5
F1
330
1F
100
AcDbEntity
  8
0
  6
Continuous
 62
     7
370
    15
100
AcDbLine
 10
226.7860082812
 20
142.8471528518
 30
0.0
 11
227.2772995658
 21
142.1966221708
 31
0.0
  0
ARC
  5
F2
330
1F
100
AcDbEntity
  8
0
  6
Continuous
 62
     7
370
    15
100
AcDbCircle
 10
225.6327656045
 20
144.9899356298
 30
0.0
 40
2.053806322426588
100
AcDbArc
 50
217.1414600335
 51
265.9961427243
  0
ARC
  5
F3
330
1F
100
AcDbEntity
  8
0
  6
Continuous
 62
     7
370
    15
100
AcDbCircle
 10
225.3266545054
 20
145.4007231238
 30
0.0
 40
2.057740245312004
100
AcDbArc
 50
228.4298866447
 51
265.97023096
  0
LWPOLYLINE
  5
F4
330
1F
100
AcDbEntity
  8
0
  6
Continuous
 62
     7
370
    15
100
AcDbPolyline
 90
        3
 70
   128
 43
0.0
 10
235.5434207148
 20
141.6319221783
 10
235.5522273011
 20
141.715562396
 10
235.5655042357
 20
142.0121010917
  0
LINE
  5
F5
330
1F
100
AcDbEntity
  8
0
  6
HIDDEN
 62
     7
370
     0
100
AcDbLine
 10
122.7494386859
 20
129.7587197798
 30
0.0
 11
122.7494386859
 21
190.7587204653
 31
0.0
  0
LINE
  5
F6
330
1F
100
AcDbEntity
  8
0
  6
HIDDEN
 62
     7
370
     0
100
AcDbLine
 10
100.7494388051
 20
191.2587196159
 30
0.0
 11
100.7494388051
 21
129.2587206292
 31
0.0
  0
SPLINE
  5
F7
330
1F
100
AcDbEntity
  8
0
  6
HIDDEN
 62
     7
370
     0
100
AcDbSpline
210
0.0
220
0.0
230
1.0
 70
     8
 71
     3
 72
    60
 73
    56
 74
     0
 42
0.00000001
 43
0.00000001
 12
1.0
 22
0.0
 32
0.0
 13
1.0
 23
0.0
 33
0.0
 40
-0.0625000000000001
 40
-0.0625000000000001
 40
0.0
 40
0.0
 40
0.0312499999999998
 40
0.0312499999999998
 40
0.0624999999999996
 40
0.0624999999999996
 40
0.0937499999999994
 40
0.0937499999999994
 40
0.1249999999999992
 40
0.1249999999999992
 40
0.1874999999999988
 40
0.1874999999999988
 40
0.2499999999999984
 40
0.2499999999999984
 40
0.2812499999999984
 40
0.2812499999999984
 40
0.3124999999999984
 40
0.3124999999999984
 40
0.3437499999999984
 40
0.3437499999999984
 40
0.3749999999999984
 40
0.3749999999999984
 40
0.4062499999999984
 40
0.4062499999999984
 40
0.4374999999999984
 40
0.4374999999999984
 40
0.4687499999999985
 40
0.4687499999999985
 40
0.4999999999999986
 40
0.4999999999999986
 40
0.5624999999999987
 40
0.5624999999999987
 40
0.6249999999999988
 40
0.6249999999999988
 40
0.6562499999999989
 40
0.6562499999999989
 40
0.687499999999999
 40
0.687499999999999
 40
0.7187499999999991
 40
0.7187499999999991
 40
0.7499999999999992
 40
0.7499999999999992
 40
0.7812499999999993
 40
0.7812499999999993
 40
0.8124999999999994
 40
0.8124999999999994
 40
0.8437499999999996
 40
0.8437499999999996
 40
0.8749999999999997
 40
0.8749999999999997
 40
0.9062499999999998
 40
0.9062499999999998
 40
0.9374999999999999
 40
0.9374999999999999
 40
1.0
 40
1.0
 40
1.03125
 40
1.03125
 10
110.749438805066
 20
159.9943895974783
 30
0.0
 10
110.749438805066
 20
160.3908853851084
 30
0.0
 10
110.7624106635548
 20
160.5208354461125
 30
0.0
 10
110.8132308332472
 20
160.7764883794726
 30
0.0
 10
110.8516981567141
 20
160.9035178860219
 30
0.0
 10
110.9520963927862
 20
161.1457060171464
 30
0.0
 10
111.0135294237594
 20
161.2605675096993
 30
0.0
 10
111.1586642553043
 20
161.4779477055234
 30
0.0
 10
111.2431193727122
 20
161.5808452727221
 30
0.0
 10
111.5198388230705
 20
161.8575123117298
 30
0.0
 10
111.7429157149886
 20
162.0065104022098
 30
0.0
 10
112.2241990772089
 20
162.2060215426745
 30
0.0
 10
112.4874294961999
 20
162.2585796456712
 30
0.0
 10
112.8788316978878
 20
162.2587899280493
 30
0.0
 10
113.0113547259967
 20
162.2458041573222
 30
0.0
 10
113.2678851792378
 20
162.1947770091084
 30
0.0
 10
113.3925720135344
 20
162.157021809958
 30
0.0
 10
113.6347512757699
 20
162.0568834770492
 30
0.0
 10
113.75184480792
 20
161.9942778096377
 30
0.0
 10
113.9685598112754
 20
161.8495445163727
 30
0.0
 10
114.0695786381381
 20
161.7669171690931
 30
0.0
 10
114.2563635255903
 20
161.5803121158416
 30
0.0
 10
114.3392204067865
 20
161.4791970519654
 30
0.0
 10
114.4841046718603
 20
161.2626642479756
 30
0.0
 10
114.5467421796812
 20
161.1457940403744
 30
0.0
 10
114.647191003081
 20
160.9034961697243
 30
0.0
 10
114.6850421040983
 20
160.7788321712633
 30
0.0
 10
114.7362636693546
 20
160.5225451271995
 30
0.0
 10
114.7493917959718
 20
160.3899731314538
 30
0.0
 10
114.749532436312
 20
159.9983689386798
 30
0.0
 10
114.6972076869402
 20
159.7352036073559
 30
0.0
 10
114.4980966248829
 20
159.2536982381828
 30
0.0
 10
114.3492342884257
 20
159.0304466986987
 30
0.0
 10
114.0729133291002
 20
158.7535903998098
 30
0.0
 10
113.9701496807266
 20
158.6690769529661
 30
0.0
 10
113.7527661233471
 20
158.5236596795258
 30
0.0
 10
113.6379673553907
 20
158.4621484804675
 30
0.0
 10
113.3960906319667
 20
158.3616186322126
 30
0.0
 10
113.2689370239665
 20
158.3229736089946
 30
0.0
 10
113.0132710145339
 20
158.2719172814436
 30
0.0
 10
112.8834049767778
 20
158.258852422898
 30
0.0
 10
112.6194524500462
 20
158.2585898021001
 30
0.0
 10
112.4890481266221
 20
158.2714668023441
 30
0.0
 10
112.2333973632428
 20
158.3220528061499
 30
0.0
 10
112.1065318141284
 20
158.3603291707718
 30
0.0
 10
111.8640113561825
 20
158.4606000382518
 30
0.0
 10
111.7490847175222
 20
158.5219560623927
 30
0.0
 10
111.5317132486902
 20
158.6668023575655
 30
0.0
 10
111.428699436028
 20
158.7511798720601
 30
0.0
 10
111.243998890446
 20
158.9355871922484
 30
0.0
 10
111.1611691561894
 20
159.0361602555178
 30
0.0
 10
111.0149167175919
 20
159.2543863960968
 30
0.0
 10
110.9525482367995
 20
159.3709415060181
 30
0.0
 10
110.8025920852328
 20
159.7317911000519
 30
0.0
 10
110.749438805066
 20
159.9943895974783
 30
0.0
 10
110.749438805066
 20
160.3908853851084
 30
0.0
  0
SPLINE
  5
F8
330
1F
100
AcDbEntity
  8
0
  6
HIDDEN
 62
     7
370
     0
100
AcDbSpline
210
0.0
220
0.0
230
1.0
 70
     8
 71
     3
 72
    12
 73
     8
 74
     0
 42
0.00000001
 43
0.00000001
 12
1.0
 22
0.0
 32
0.0
 13
1.0
 23
0.0
 33
0.0
 40
0.0
 40
0.0
 40
0.0
 40
0.0
 40
0.25
 40
0.25
 40
0.5
 40
0.5
 40
1.0
 40
1.0
 40
1.0
 40
1.0
 10
111.2771956186325
 20
150.870653691229
 30
0.0
 10
111.2141155801391
 20
150.870653691229
 30
0.0
 10
111.1549669579577
 20
150.845289372014
 30
0.0
 10
111.0564944078886
 20
150.7711245116411
 30
0.0
 10
111.0174577959039
 20
150.724604171087
 30
0.0
 10
110.9175613291249
 20
150.5744618282417
 30
0.0
 10
110.8751404480582
 20
150.4627686212696
 30
0.0
 10
110.8441829167402
 20
150.3493508018798
 30
0.0
  0
LINE
  5
F9
330
1F
100
AcDbEntity
  8
0
  6
HIDDEN
 62
     7
370
     0
100
AcDbLine
 10
114.2216820172
 20
150.8706532943
 30
0.0
 11
111.2771958015
 21
150.8706532943
 31
0.0
  0
SPLINE
  5
FA
330
1F
100
AcDbEntity
  8
0
  6
HIDDEN
 62
     7
370
     0
100
AcDbSpline
210
0.0
220
0.0
230
1.0
 70
     8
 71
     3
 72
    12
 73
     8
 74
     0
 42
0.00000001
 43
0.00000001
 12
1.0
 22
0.0
 32
0.0
 13
1.0
 23
0.0
 33
0.0
 40
0.0
 40
0.0
 40
0.0
 40
0.0
 40
0.4999999999999953
 40
0.4999999999999953
 40
0.7499999999999977
 40
0.7499999999999977
 40
1.0
 40
1.0
 40
1.0
 40
1.0
 10
114.6546946933918
 20
150.3493508018798
 30
0.0
 10
114.6239724514727
 20
150.461906601289
 30
0.0
 10
114.5811352369376
 20
150.5746644610286
 30
0.0
 10
114.4817082127377
 20
150.7242053468249
 30
0.0
 10
114.4419560179211
 20
150.7714980785318
 30
0.0
 10
114.3439145610629
 20
150.8452343718532
 30
0.0
 10
114.2843585054754
 20
150.870653691229
 30
0.0
 10
114.2216819914996
 20
150.870653691229
 30
0.0
  0
ELLIPSE
  5
FB
330
1F
100
AcDbEntity
  8
0
  6
HIDDEN
 62
     7
370
     0
100
AcDbEllipse
 10
98.4022846157
 20
160.2587201226
 30
0.0
 11
-14.75368316065611
 21
31.09325491558116
 31
0.0
210
0.0
220
0.0
230
1.0
 40
0.3419987131
 41
3.30073485621713
 42
4.23149622336078
  0
SPLINE
  5
FC
330
1F
100
AcDbEntity
  8
0
  6
HIDDEN
 62
     7
370
     0
100
AcDbSpline
210
0.0
220
0.0
230
1.0
 70
     8
 71
     3
 72
    12
 73
     8
 74
     0
 42
0.00000001
 43
0.00000001
 12
1.0
 22
0.0
 32
0.0
 13
1.0
 23
0.0
 33
0.0
 40
0.0
 40
0.0
 40
0.0
 40
0.0
 40
0.2499999999999977
 40
0.2499999999999977
 40
0.4999999999999953
 40
0.4999999999999953
 40
1.0
 40
1.0
 40
1.0
 40
1.0
 10
114.2216819914996
 20
130.1902281636919
 30
0.0
 10
114.2847620299929
 20
130.1902281636919
 30
0.0
 10
114.3439106521743
 20
130.1981340899044
 30
0.0
 10
114.4423832022434
 20
130.2214592513406
 30
0.0
 10
114.4814198142281
 20
130.2361720411723
 30
0.0
 10
114.5813162810072
 20
130.2841278419032
 30
0.0
 10
114.6237371620738
 20
130.3203899984833
 30
0.0
 10
114.6546946933918
 20
130.3579776624478
 30
0.0
  0
LINE
  5
FD
330
1F
100
AcDbEntity
  8
0
  6
HIDDEN
 62
     7
370
     0
100
AcDbLine
 10
111.2771958015
 20
130.1902276057
 30
0.0
 11
114.2216820172
 21
130.1902276057
 31
0.0
  0
SPLINE
  5
FE
330
1F
100
AcDbEntity
  8
0
  6
HIDDEN
 62
     7
370
     0
100
AcDbSpline
210
0.0
220
0.0
230
1.0
 70
     8
 71
     3
 72
    12
 73
     8
 74
     0
 42
0.00000001
 43
0.00000001
 12
1.0
 22
0.0
 32
0.0
 13
1.0
 23
0.0
 33
0.0
 40
0.0
 40
0.0
 40
0.0
 40
0.0
 40
0.5
 40
0.5
 40
0.75
 40
0.75
 40
1.0
 40
1.0
 40
1.0
 40
1.0
 10
110.8441829167402
 20
130.3579776624478
 30
0.0
 10
110.8749051586593
 20
130.3206756794947
 30
0.0
 10
110.9177423731945
 20
130.2840638474484
 30
0.0
 10
111.0171693973943
 20
130.2362990641631
 30
0.0
 10
111.056921592211
 20
130.2213415486808
 30
0.0
 10
111.1549630490692
 20
130.1981516029116
 30
0.0
 10
111.2145191046566
 20
130.1902281636919
 30
0.0
 10
111.2771956186325
 20
130.1902281636919
 30
0.0
  0
ELLIPSE
  5
FF
330
1F
100
AcDbEntity
  8
0
  6
HIDDEN
 62
     7
370
     0
100
AcDbEllipse
 10
127.0965929944
 20
160.2587201226
 30
0.0
 11
14.75368316065612
 21
31.09325491558116
 31
0.0
210
0.0
220
0.0
230
1.0
 40
0.3419987131
 41
2.05168908381882
 42
2.982450450962498
  0
SPLINE
  5
100
330
1F
100
AcDbEntity
  8
0
  6
HIDDEN
 62
     7
370
     0
100
AcDbSpline
210
0.0
220
0.0
230
1.0
 70
     8
 71
     3
 72
    12
 73
     8
 74
     0
 42
0.00000001
 43
0.00000001
 12
1.0
 22
0.0
 32
0.0
 13
1.0
 23
0.0
 33
0.0
 40
0.0
 40
0.0
 40
0.0
 40
0.0
 40
0.2500000000000014
 40
0.2500000000000014
 40
0.5000000000000028
 40
0.5000000000000028
 40
1.0
 40
1.0
 40
1.0
 40
1.0
 10
111.2771956186325
 20
190.3272120814382
 30
0.0
 10
111.2141155801391
 20
190.3272120814382
 30
0.0
 10
111.1549669579577
 20
190.3193061552258
 30
0.0
 10
111.0564944078886
 20
190.2959809937896
 30
0.0
 10
111.0174577959039
 20
190.2812682039579
 30
0.0
 10
110.9175613291249
 20
190.2333124032269
 30
0.0
 10
110.8751404480582
 20
190.1970502466469
 30
0.0
 10
110.8441829167402
 20
190.1594625826824
 30
0.0
  0
LINE
  5
101
330
1F
100
AcDbEntity
  8
0
  6
HIDDEN
 62
     7
370
     0
100
AcDbLine
 10
114.2216820172
 20
190.3272126394
 30
0.0
 11
111.2771958015
 21
190.3272126394
 31
0.0
  0
SPLINE
  5
102
330
1F
100
AcDbEntity
  8
0
  6
HIDDEN
 62
     7
370
     0
100
AcDbSpline
210
0.0
220
0.0
230
1.0
 70
     8
 71
     3
 72
    12
 73
     8
 74
     0
 42
0.00000001
 43
0.00000001
 12
1.0
 22
0.0
 32
0.0
 13
1.0
 23
0.0
 33
0.0
 40
0.0
 40
0.0
 40
0.0
 40
0.0
 40
0.4999999999999981
 40
0.4999999999999981
 40
0.749999999999999
 40
0.749999999999999
 40
1.0
 40
1.0
 40
1.0
 40
1.0
 10
114.6546946933918
 20
190.1594625826824
 30
0.0
 10
114.6239724514727
 20
190.1967645656354
 30
0.0
 10
114.5811352369375
 20
190.2333763976818
 30
0.0
 10
114.4817082127377
 20
190.281141180967
 30
0.0
 10
114.4419560179211
 20
190.2960986964494
 30
0.0
 10
114.3439145610629
 20
190.3192886422185
 30
0.0
 10
114.2843585054754
 20
190.3272120814382
 30
0.0
 10
114.2216819914996
 20
190.3272120814382
 30
0.0
  0
ELLIPSE
  5
103
330
1F
100
AcDbEntity
  8
0
  6
HIDDEN
 62
     7
370
     0
100
AcDbEllipse
 10
98.4022846157
 20
160.2587201226
 30
0.0
 11
14.75368316065625
 21
31.09325491558116
 31
0.0
210
0.0
220
0.0
230
1.0
 40
0.3419987131
 41
5.19328173740864
 42
6.124043104552343
  0
SPLINE
  5
104
330
1F
100
AcDbEntity
  8
0
  6
HIDDEN
 62
     7
370
     0
100
AcDbSpline
210
0.0
220
0.0
230
1.0
 70
     8
 71
     3
 72
    12
 73
     8
 74
     0
 42
0.00000001
 43
0.00000001
 12
1.0
 22
0.0
 32
0.0
 13
1.0
 23
0.0
 33
0.0
 40
0.0
 40
0.0
 40
0.0
 40
0.0
 40
0.2499999999999968
 40
0.2499999999999968
 40
0.4999999999999936
 40
0.4999999999999936
 40
1.0
 40
1.0
 40
1.0
 40
1.0
 10
114.2216819914996
 20
169.6467865539015
 30
0.0
 10
114.2847620299929
 20
169.6467865539015
 30
0.0
 10
114.3439106521743
 20
169.6721508731164
 30
0.0
 10
114.4423832022434
 20
169.7463157334894
 30
0.0
 10
114.4814198142281
 20
169.7928360740435
 30
0.0
 10
114.5813162810072
 20
169.9429784168887
 30
0.0
 10
114.6237371620738
 20
170.0546716238609
 30
0.0
 10
114.6546946933918
 20
170.1680894432506
 30
0.0
  0
LINE
  5
105
330
1F
100
AcDbEntity
  8
0
  6
HIDDEN
 62
     7
370
     0
100
AcDbLine
 10
111.2771958015
 20
169.6467869508
 30
0.0
 11
114.2216820172
 21
169.6467869508
 31
0.0
  0
SPLINE
  5
106
330
1F
100
AcDbEntity
  8
0
  6
HIDDEN
 62
     7
370
     0
100
AcDbSpline
210
0.0
220
0.0
230
1.0
 70
     8
 71
     3
 72
    12
 73
     8
 74
     0
 42
0.00000001
 43
0.00000001
 12
1.0
 22
0.0
 32
0.0
 13
1.0
 23
0.0
 33
0.0
 40
0.0
 40
0.0
 40
0.0
 40
0.0
 40
0.4999999999999971
 40
0.4999999999999971
 40
0.7499999999999986
 40
0.7499999999999986
 40
1.0
 40
1.0
 40
1.0
 40
1.0
 10
110.8441829167402
 20
170.1680894432506
 30
0.0
 10
110.8749051586593
 20
170.0555336438415
 30
0.0
 10
110.9177423731945
 20
169.9427757841019
 30
0.0
 10
111.0171693973943
 20
169.7932348983055
 30
0.0
 10
111.056921592211
 20
169.7459421665986
 30
0.0
 10
111.1549630490692
 20
169.6722058732772
 30
0.0
 10
111.2145191046566
 20
169.6467865539015
 30
0.0
 10
111.2771956186324
 20
169.6467865539015
 30
0.0
  0
ELLIPSE
  5
107
330
1F
100
AcDbEntity
  8
0
  6
HIDDEN
 62
     7
370
     0
100
AcDbEllipse
 10
127.0965929944
 20
160.2587201226
 30
0.0
 11
-14.75368316065624
 21
31.09325491558116
 31
0.0
210
0.0
220
0.0
230
1.0
 40
0.3419987131
 41
0.1591422026272848
 42
1.08990356977096
  0
LINE
  5
108
330
1F
100
AcDbEntity
  8
0
  6
HIDDEN
 62
     7
370
     0
100
AcDbLine
 10
100.7494388051
 20
136.0087194073
 30
0.0
 11
100.7494388051
 21
184.4835900295
 31
0.0
  0
SPLINE
  5
109
330
1F
100
AcDbEntity
  8
0
  6
HIDDEN
 62
     7
370
     0
100
AcDbSpline
210
0.0
220
0.0
230
1.0
 70
     8
 71
     3
 72
    12
 73
     8
 74
     0
 42
0.00000001
 43
0.00000001
 12
1.0
 22
0.0
 32
0.0
 13
1.0
 23
0.0
 33
0.0
 40
0.0
 40
0.0
 40
0.0
 40
0.0
 40
0.5
 40
0.5
 40
0.75
 40
0.75
 40
1.0
 40
1.0
 40
1.0
 40
1.0
 10
99.93292651861901
 20
175.7109881043959
 30
0.0
 10
99.98933269729926
 20
175.663165730736
 30
0.0
 10
100.0594955987711
 20
175.6228948837975
 30
0.0
 10
100.1775063121602
 20
175.6148490153206
 30
0.0
 10
100.2177120957557
 20
175.6214116136594
 30
0.0
 10
100.2914327924887
 20
175.6487937081131
 30
0.0
 10
100.3242935142752
 20
175.6685551986434
 30
0.0
 10
100.3544619162045
 20
175.6914879098314
 30
0.0
  0
SPLINE
  5
10A
330
1F
100
AcDbEntity
  8
0
  6
HIDDEN
 62
     7
370
     0
100
AcDbSpline
210
0.0
220
0.0
230
1.0
 70
     8
 71
     3
 72
    16
 73
    12
 74
     0
 42
0.00000001
 43
0.00000001
 12
1.0
 22
0.0
 32
0.0
 13
1.0
 23
0.0
 33
0.0
 40
0.0
 40
0.0
 40
0.0
 40
0.0
 40
0.0625000000000016
 40
0.0625000000000016
 40
0.1250000000000032
 40
0.1250000000000032
 40
0.2500000000000065
 40
0.2500000000000065
 40
0.5000000000000024
 40
0.5000000000000024
 40
1.0
 40
1.0
 40
1.0
 40
1.0
 10
100.3544619161594
 20
175.6914879098795
 30
0.0
 10
100.3660748159987
 20
175.7003155328609
 30
0.0
 10
100.3794260004312
 20
175.7081499147428
 30
0.0
 10
100.4088258400503
 20
175.7164600408152
 30
0.0
 10
100.4236665646056
 20
175.7159642215802
 30
0.0
 10
100.4594997725743
 20
175.7045132506108
 30
0.0
 10
100.4736129803959
 20
175.6878327497522
 30
0.0
 10
100.5081043516148
 20
175.6357120639952
 30
0.0
 10
100.5191884227252
 20
175.5959225699701
 30
0.0
 10
100.5453112405212
 20
175.472585937873
 30
0.0
 10
100.549438805066
 20
175.3851645273744
 30
0.0
 10
100.549438805066
 20
175.2964272850562
 30
0.0
  0
LINE
  5
10B
330
1F
100
AcDbEntity
  8
0
  6
HIDDEN
 62
     7
370
     0
100
AcDbLine
 10
100.5494388101
 20
145.2210130694
 30
0.0
 11
100.5494388101
 21
175.2964271757
 31
0.0
  0
SPLINE
  5
10C
330
1F
100
AcDbEntity
  8
0
  6
HIDDEN
 62
     7
370
     0
100
AcDbSpline
210
0.0
220
0.0
230
1.0
 70
     8
 71
     3
 72
    16
 73
    12
 74
     0
 42
0.00000001
 43
0.00000001
 12
1.0
 22
0.0
 32
0.0
 13
1.0
 23
0.0
 33
0.0
 40
0.0
 40
0.0
 40
0.0
 40
0.0
 40
0.4999999999999948
 40
0.4999999999999948
 40
0.7499999999999973
 40
0.7499999999999973
 40
0.8749999999999987
 40
0.8749999999999987
 40
0.9374999999999993
 40
0.9374999999999993
 40
1.0
 40
1.0
 40
1.0
 40
1.0
 10
100.549438805066
 20
145.2210129600738
 30
0.0
 10
100.549438805066
 20
145.1318865948851
 30
0.0
 10
100.5452925299881
 20
145.0450252272717
 30
0.0
 10
100.5193269345945
 20
144.9220429807777
 30
0.0
 10
100.5078660292171
 20
144.8812716855464
 30
0.0
 10
100.4735542914428
 20
144.8295673655466
 30
0.0
 10
100.4595295555131
 20
144.8128969989562
 30
0.0
 10
100.4235065924794
 20
144.8014447784994
 30
0.0
 10
100.4087520833896
 20
144.8009917322244
 30
0.0
 10
100.3793999222428
 20
144.8093070534406
 30
0.0
 10
100.3660600477387
 20
144.8171359385189
 30
0.0
 10
100.3544619161904
 20
144.8259523352815
 30
0.0
  0
SPLINE
  5
10D
330
1F
100
AcDbEntity
  8
0
  6
HIDDEN
 62
     7
370
     0
100
AcDbSpline
210
0.0
220
0.0
230
1.0
 70
     8
 71
     3
 72
    12
 73
     8
 74
     0
 42
0.00000001
 43
0.00000001
 12
1.0
 22
0.0
 32
0.0
 13
1.0
 23
0.0
 33
0.0
 40
0.0
 40
0.0
 40
0.0
 40
0.0
 40
0.2499999999999994
 40
0.2499999999999994
 40
0.4999999999999989
 40
0.4999999999999989
 40
1.0
 40
1.0
 40
1.0
 40
1.0
 10
100.3544619161974
 20
144.8259523352904
 30
0.0
 10
100.3242700744802
 20
144.8489028643882
 30
0.0
 10
100.2909111050656
 20
144.8688723384124
 30
0.0
 10
100.217773820485
 20
144.8959734720379
 30
0.0
 10
100.1775319478311
 20
144.9025742126833
 30
0.0
 10
100.0598261708626
 20
144.8946053381766
 30
0.0
 10
99.98941569308317
 20
144.8543448800088
 30
0.0
 10
99.93292651861488
 20
144.8064521407306
 30
0.0
  0
SPLINE
  5
10E
330
1F
100
AcDbEntity
  8
0
  6
HIDDEN
 62
     7
370
     0
100
AcDbSpline
210
0.0
220
0.0
230
1.0
 70
     8
 71
     3
 72
    12
 73
     8
 74
     0
 42
0.00000001
 43
0.00000001
 12
1.0
 22
0.0
 32
0.0
 13
1.0
 23
0.0
 33
0.0
 40
0.0
 40
0.0
 40
0.0
 40
0.0
 40
0.2500000000000001
 40
0.2500000000000001
 40
0.5
 40
0.5
 40
1.0
 40
1.0
 40
1.0
 40
1.0
 10
99.93292651861452
 20
144.8064521407308
 30
0.0
 10
99.84477258087676
 20
144.7317133328768
 30
0.0
 10
99.78441915624805
 20
144.6407328323943
 30
0.0
 10
99.67815719818121
 20
144.4518190096418
 30
0.0
 10
99.63592503161912
 20
144.3553145501012
 30
0.0
 10
99.52485433630196
 20
144.064546795934
 30
0.0
 10
99.47191755987517
 20
143.8688799813903
 30
0.0
 10
99.42811846150639
 20
143.6748134963239
 30
0.0
  0
SPLINE
  5
10F
330
1F
100
AcDbEntity
  8
0
  6
HIDDEN
 62
     7
370
     0
100
AcDbSpline
210
0.0
220
0.0
230
1.0
 70
     8
 71
     3
 72
    12
 73
     8
 74
     0
 42
0.00000001
 43
0.00000001
 12
1.0
 22
0.0
 32
0.0
 13
1.0
 23
0.0
 33
0.0
 40
0.0
 40
0.0
 40
0.0
 40
0.0
 40
0.4999999999999998
 40
0.4999999999999998
 40
0.7499999999999999
 40
0.7499999999999999
 40
1.0
 40
1.0
 40
1.0
 40
1.0
 10
99.42811846150637
 20
138.4886391675629
 30
0.0
 10
99.47186500234297
 20
138.4620449969217
 30
0.0
 10
99.52474935757446
 20
138.442284771596
 30
0.0
 10
99.63631644491063
 20
138.4218337813669
 30
0.0
 10
99.6789000414536
 20
138.4165735567105
 30
0.0
 10
99.78381676853543
 20
138.4086907627878
 30
0.0
 10
99.84535037638022
 20
138.4061266376087
 30
0.0
 10
99.93292651860635
 20
138.403926420089
 30
0.0
  0
LINE
  5
110
330
1F
100
AcDbEntity
  8
0
  6
HIDDEN
 62
     7
370
     0
100
AcDbLine
 10
100.5494388101
 20
137.7188996005
 30
0.0
 11
100.5494388101
 21
138.1991249102
 31
0.0
  0
LINE
  5
111
330
1F
100
AcDbEntity
  8
0
  6
HIDDEN
 62
     7
370
     0
100
AcDbLine
 10
100.5494388101
 20
182.3183153349
 30
0.0
 11
100.5494388101
 21
182.7985406446
 31
0.0
  0
SPLINE
  5
112
330
1F
100
AcDbEntity
  8
0
  6
HIDDEN
 62
     7
370
     0
100
AcDbSpline
210
0.0
220
0.0
230
1.0
 70
     8
 71
     3
 72
    12
 73
     8
 74
     0
 42
0.00000001
 43
0.00000001
 12
1.0
 22
0.0
 32
0.0
 13
1.0
 23
0.0
 33
0.0
 40
0.0
 40
0.0
 40
0.0
 40
0.0
 40
0.2500000000000006
 40
0.2500000000000006
 40
0.500000000000001
 40
0.500000000000001
 40
1.0
 40
1.0
 40
1.0
 40
1.0
 10
99.93292651861435
 20
182.1135138250409
 30
0.0
 10
99.84424185875797
 20
182.1112857576999
 30
0.0
 10
99.78432344303457
 20
182.1087839736696
 30
0.0
 10
99.67866421571382
 20
182.1008525378336
 30
0.0
 10
99.63602297759888
 20
182.0955603829367
 30
0.0
 10
99.52483363549634
 20
182.0751554424496
 30
0.0
 10
99.47190695337537
 20
182.0554207508627
 30
0.0
 10
99.42811846150637
 20
182.0288010775671
 30
0.0
  0
SPLINE
  5
113
330
1F
100
AcDbEntity
  8
0
  6
HIDDEN
 62
     7
370
     0
100
AcDbSpline
210
0.0
220
0.0
230
1.0
 70
     8
 71
     3
 72
    12
 73
     8
 74
     0
 42
0.00000001
 43
0.00000001
 12
1.0
 22
0.0
 32
0.0
 13
1.0
 23
0.0
 33
0.0
 40
0.0
 40
0.0
 40
0.0
 40
0.0
 40
0.499999999999999
 40
0.499999999999999
 40
0.7499999999999994
 40
0.7499999999999994
 40
1.0
 40
1.0
 40
1.0
 40
1.0
 10
99.42811846150481
 20
176.8426267488063
 30
0.0
 10
99.47187993780354
 20
176.6487269608442
 30
0.0
 10
99.52478625345657
 20
176.4528705969073
 30
0.0
 10
99.63649745110395
 20
176.1607284504084
 30
0.0
 10
99.67901689469035
 20
176.0640105137105
 30
0.0
 10
99.78414023725776
 20
175.877286077286
 30
0.0
 10
99.84570620097544
 20
175.7849353690162
 30
0.0
 10
99.93292651861819
 20
175.7109881043966
 30
0.0
  0
LINE
  5
114
330
1F
100
AcDbEntity
  8
0
  6
HIDDEN
 62
     7
370
     0
100
AcDbLine
 10
122.7494386859
 20
136.2587199139
 30
0.0
 11
122.7494386859
 21
184.2587203312
 31
0.0
  0
LINE
  5
115
330
1F
100
AcDbEntity
  8
0
  6
HIDDEN
 62
     7
370
     0
100
AcDbLine
 10
100.5494388101
 20
138.1991249102
 30
0.0
 11
100.5494388101
 21
153.2368328947
 31
0.0
  0
LINE
  5
116
330
1F
100
AcDbEntity
  8
0
  6
HIDDEN
 62
     7
370
     0
100
AcDbLine
 10
100.5494388101
 20
167.2806073505
 30
0.0
 11
100.5494388101
 21
182.3183153349
 31
0.0
  0
SPLINE
  5
117
330
1F
100
AcDbEntity
  8
0
  6
HIDDEN
 62
     7
370
     0
100
AcDbSpline
210
0.0
220
0.0
230
1.0
 70
     8
 71
     3
 72
    70
 73
    66
 74
     0
 42
0.00000001
 43
0.00000001
 12
1.0
 22
0.0
 32
0.0
 13
1.0
 23
0.0
 33
0.0
 40
-0.03125
 40
-0.03125
 40
0.0
 40
0.0
 40
0.03125
 40
0.03125
 40
0.0625
 40
0.0625
 40
0.09375
 40
0.09375
 40
0.125
 40
0.125
 40
0.15625
 40
0.15625
 40
0.1875
 40
0.1875
 40
0.21875
 40
0.21875
 40
0.25
 40
0.25
 40
0.28125
 40
0.28125
 40
0.3125
 40
0.3125
 40
0.34375
 40
0.34375
 40
0.375
 40
0.375
 40
0.40625
 40
0.40625
 40
0.4375
 40
0.4375
 40
0.46875
 40
0.46875
 40
0.5
 40
0.5
 40
0.53125
 40
0.53125
 40
0.5625
 40
0.5625
 40
0.59375
 40
0.59375
 40
0.625
 40
0.625
 40
0.65625
 40
0.65625
 40
0.6875
 40
0.6875
 40
0.71875
 40
0.71875
 40
0.75
 40
0.75
 40
0.78125
 40
0.78125
 40
0.8125
 40
0.8125
 40
0.84375
 40
0.84375
 40
0.875
 40
0.875
 40
0.90625
 40
0.90625
 40
0.9375
 40
0.9375
 40
0.96875
 40
0.96875
 40
1.0
 40
1.0
 40
1.03125
 40
1.03125
 10
196.9479334772345
 20
163.258720122565
 30
0.0
 10
196.5509441328975
 20
163.258720122565
 30
0.0
 10
196.3558232697339
 20
163.2392147550759
 30
0.0
 10
195.9720355368202
 20
163.1628422967516
 30
0.0
 10
195.7813588278287
 20
163.1050279334705
 30
0.0
 10
195.4181983098833
 20
162.9543546936327
 30
0.0
 10
195.2460003201764
 20
162.8621930589809
 30
0.0
 10
194.9201094964275
 20
162.6445015226629
 30
0.0
 10
194.7660281833271
 20
162.5179806495756
 30
0.0
 10
194.489740655192
 20
162.2416321465314
 30
0.0
 10
194.3656585599482
 20
162.0907913708159
 30
0.0
 10
194.1463360162112
 20
161.762963848275
 30
0.0
 10
194.0533107872823
 20
161.588777080951
 30
0.0
 10
193.9035983020099
 20
161.2279206343247
 30
0.0
 10
193.8458498749328
 20
161.03857552491
 30
0.0
 10
193.7686739373256
 20
160.6512044241663
 30
0.0
 10
193.7495501674119
 20
160.4563719222427
 30
0.0
 10
193.749328403302
 20
160.0644634638138
 30
0.0
 10
193.7688677590298
 20
159.8653823170959
 30
0.0
 10
193.8455169229619
 20
159.4804167804691
 30
0.0
 10
193.9022260856459
 20
159.2932758166434
 30
0.0
 10
194.0526886644133
 20
158.9297198756299
 30
0.0
 10
194.1464998335474
 20
158.7544446840843
 30
0.0
 10
194.3634801201932
 20
158.4296938684214
 30
0.0
 10
194.4876823010365
 20
158.277928035002
 30
0.0
 10
194.7671607243027
 20
157.9982658787907
 30
0.0
 10
194.9183560953207
 20
157.8743390580193
 30
0.0
 10
195.2429244589777
 20
157.6570761277181
 30
0.0
 10
195.4184219822578
 20
157.5629825874601
 30
0.0
 10
195.7814000382229
 20
157.4124053847575
 30
0.0
 10
195.9683839710496
 20
157.3555346897971
 30
0.0
 10
196.3533471689995
 20
157.2785114509089
 30
0.0
 10
196.5523666888398
 20
157.2587957548142
 30
0.0
 10
196.9442014781691
 20
157.2586449347764
 30
0.0
 10
197.1391166228545
 20
157.2775757414541
 30
0.0
 10
197.5268910001909
 20
157.3544751764558
 30
0.0
 10
197.7159776142169
 20
157.4119682648569
 30
0.0
 10
198.0771378840631
 20
157.561423593707
 30
0.0
 10
198.2519521404315
 20
157.6546413462234
 30
0.0
 10
198.5794373640164
 20
157.8733736339845
 30
0.0
 10
198.7303533099731
 20
157.9972570822621
 30
0.0
 10
199.0071550594486
 20
158.2735363343216
 30
0.0
 10
199.133854611827
 20
158.4276356679968
 30
0.0
 10
199.3515574624991
 20
158.7529686450856
 30
0.0
 10
199.4438844928376
 20
158.9250484052634
 30
0.0
 10
199.5950011501842
 20
159.2884146274106
 30
0.0
 10
199.6528694687582
 20
159.4787571072299
 30
0.0
 10
199.7295604068987
 20
159.862327435386
 30
0.0
 10
199.7492699209682
 20
160.0578883650753
 30
0.0
 10
199.7496055406343
 20
160.454474247784
 30
0.0
 10
199.7303038371109
 20
160.6495500772305
 30
0.0
 10
199.654259889476
 20
161.0335225879061
 30
0.0
 10
199.5965367442828
 20
161.2244475275294
 30
0.0
 10
199.4462779947686
 20
161.5874994424958
 30
0.0
 10
199.3542833875298
 20
161.7598004060195
 30
0.0
 10
199.1367053184604
 20
162.0861270039663
 30
0.0
 10
199.0103842404153
 20
162.2402031100027
 30
0.0
 10
198.7343740912358
 20
162.5166353115945
 30
0.0
 10
198.5835988808386
 20
162.6409123301566
 30
0.0
 10
198.2555692335337
 20
162.8607489521348
 30
0.0
 10
198.081893111504
 20
162.9536646411937
 30
0.0
 10
197.7211571501965
 20
163.1037023536113
 30
0.0
 10
197.5317229794248
 20
163.1616673175958
 30
0.0
 10
197.1440754818831
 20
163.2392121691741
 30
0.0
 10
196.9479334772345
 20
163.258720122565
 30
0.0
 10
196.5509441328975
 20
163.258720122565
 30
0.0
  0
LWPOLYLINE
  5
118
330
1F
100
AcDbEntity
  8
0
  6
HIDDEN
 62
     7
370
     0
100
AcDbPolyline
 90
       23
 70
   128
 43
0.0
 10
196.2746811933
 20
163.3257122769
 10
196.3706297702
 20
163.1456766802
 10
196.3509229846
 20
162.8088124155
 10
196.2171627111
 20
162.3424102611
 10
195.9801820941
 20
161.784255138
 10
195.6591887302
 20
161.1795657257
 10
195.2801776952
 20
160.5773303193
 10
194.8738528318
 20
160.0263383618
 10
194.4731382556
 20
159.5712279843
 10
194.1105035967
 20
159.2488694762
 10
193.8153115935
 20
159.0853785922
 10
193.6114860601
 20
159.0940000781
 10
193.5155449338
 20
159.2740357912
 10
193.5352517194
 20
159.6109000559
 10
193.6690119929
 20
160.0773022685
 10
193.9059851594
 20
160.6354572753
 10
194.2269859738
 20
161.2401466875
 10
194.6059970088
 20
161.842382123
 10
195.0123218722
 20
162.393374095
 10
195.4130289979
 20
162.8484844289
 10
195.7756711073
 20
163.1708428788
 10
196.0708631105
 20
163.3343337628
 10
196.2746811933
 20
163.3257122769
  0
SPLINE
  5
119
330
1F
100
AcDbEntity
  8
0
  6
HIDDEN
 62
     7
370
     0
100
AcDbSpline
210
0.0
220
0.0
230
1.0
 70
     8
 71
     3
 72
    82
 73
    78
 74
     0
 42
0.00000001
 43
0.00000001
 12
1.0
 22
0.0
 32
0.0
 13
1.0
 23
0.0
 33
0.0
 40
0.0
 40
0.0
 40
0.0
 40
0.0
 40
0.0156249999999991
 40
0.0156249999999991
 40
0.0312499999999982
 40
0.0312499999999982
 40
0.0468749999999976
 40
0.0468749999999976
 40
0.062499999999997
 40
0.062499999999997
 40
0.0937499999999956
 40
0.0937499999999956
 40
0.1249999999999943
 40
0.1249999999999943
 40
0.1874999999999913
 40
0.1874999999999913
 40
0.2187499999999901
 40
0.2187499999999901
 40
0.2499999999999888
 40
0.2499999999999888
 40
0.2812499999999875
 40
0.2812499999999875
 40
0.2968749999999868
 40
0.2968749999999868
 40
0.3124999999999862
 40
0.3124999999999862
 40
0.3437499999999848
 40
0.3437499999999848
 40
0.3749999999999834
 40
0.3749999999999834
 40
0.406249999999982
 40
0.406249999999982
 40
0.4374999999999805
 40
0.4374999999999805
 40
0.4687499999999791
 40
0.4687499999999791
 40
0.4999999999999777
 40
0.4999999999999777
 40
0.5312499999999762
 40
0.5312499999999762
 40
0.5468749999999765
 40
0.5468749999999765
 40
0.5624999999999767
 40
0.5624999999999767
 40
0.5781249999999769
 40
0.5781249999999769
 40
0.5937499999999771
 40
0.5937499999999771
 40
0.6249999999999789
 40
0.6249999999999789
 40
0.6562499999999808
 40
0.6562499999999808
 40
0.6874999999999826
 40
0.6874999999999826
 40
0.7187499999999843
 40
0.7187499999999843
 40
0.7499999999999861
 40
0.7499999999999861
 40
0.7812499999999879
 40
0.7812499999999879
 40
0.8124999999999897
 40
0.8124999999999897
 40
0.8437499999999915
 40
0.8437499999999915
 40
0.8749999999999932
 40
0.8749999999999932
 40
0.9062499999999951
 40
0.9062499999999951
 40
0.9374999999999969
 40
0.9374999999999969
 40
0.9531249999999977
 40
0.9531249999999977
 40
0.9687499999999984
 40
0.9687499999999984
 40
0.9843749999999992
 40
0.9843749999999992
 40
1.0
 40
1.0
 40
1.0
 40
1.0
 10
198.9776112523003
 20
161.3924077097714
 30
0.0
 10
198.9464615144927
 20
161.4536300326624
 30
0.0
 10
198.9144058188956
 20
161.5103076827504
 30
0.0
 10
198.8522915241359
 20
161.6120730084309
 30
0.0
 10
198.821973008309
 20
161.6574657910843
 30
0.0
 10
198.77212145864
 20
161.7286324844916
 30
0.0
 10
198.7524180203017
 20
161.7548241931228
 30
0.0
 10
198.7332141993085
 20
161.780195824574
 30
0.0
 10
198.7336261807042
 20
161.7796441419663
 30
0.0
 10
198.7598372935063
 20
161.7450362314105
 30
0.0
 10
198.8058996305084
 20
161.6831910737419
 30
0.0
 10
198.9032795720926
 20
161.5311660222481
 30
0.0
 10
198.9553669861782
 20
161.4403962076564
 30
0.0
 10
199.1002617617463
 20
161.1382321847635
 30
0.0
 10
199.1836249838265
 20
160.8935609072104
 30
0.0
 10
199.2437128998626
 20
160.4781922932523
 30
0.0
 10
199.2533826821315
 20
160.3310988994217
 30
0.0
 10
199.2425659255361
 20
160.0152231246167
 30
0.0
 10
199.2223087163186
 20
159.8514047680935
 30
0.0
 10
199.1408244526587
 20
159.5088760851448
 30
0.0
 10
199.0796797184243
 20
159.3329624506118
 30
0.0
 10
198.9527954294039
 20
159.073611654384
 30
0.0
 10
198.9044360457399
 20
158.9877162587401
 30
0.0
 10
198.7991517744506
 20
158.824097986842
 30
0.0
 10
198.7417882195109
 20
158.7454090063567
 30
0.0
 10
198.5553050617011
 20
158.5188597954521
 30
0.0
 10
198.4162903843054
 20
158.3863516065858
 30
0.0
 10
198.1228351981816
 20
158.1615934229543
 30
0.0
 10
197.9738830905897
 20
158.0727016927173
 30
0.0
 10
197.6719641620534
 20
157.9291520618076
 30
0.0
 10
197.5198116111562
 20
157.8754399867201
 30
0.0
 10
197.2228648294854
 20
157.7991741755092
 30
0.0
 10
197.0763768984904
 20
157.7758827942964
 30
0.0
 10
196.7847776584574
 20
157.7546991799575
 30
0.0
 10
196.6406017571583
 20
157.7570024923858
 30
0.0
 10
196.3561339493108
 20
157.7857163023928
 30
0.0
 10
196.2153348670451
 20
157.8118506637807
 30
0.0
 10
195.9269907653455
 20
157.8931300509547
 30
0.0
 10
195.7803022604121
 20
157.947544580601
 30
0.0
 10
195.5454123956235
 20
158.0660026504875
 30
0.0
 10
195.465478240832
 20
158.111479122105
 30
0.0
 10
195.3047414740862
 20
158.2161608782774
 30
0.0
 10
195.2246463168472
 20
158.2751590674801
 30
0.0
 10
195.0747922980148
 20
158.3999394287231
 30
0.0
 10
195.0038518862892
 20
158.4666019721938
 30
0.0
 10
194.874731452913
 20
158.6021473050656
 30
0.0
 10
194.8154104442402
 20
158.6719623334706
 30
0.0
 10
194.6501857959288
 20
158.8889753541699
 30
0.0
 10
194.559692766574
 20
159.0398208568634
 30
0.0
 10
194.4110736770313
 20
159.357192718095
 30
0.0
 10
194.3525409909335
 20
159.5260446692794
 30
0.0
 10
194.2727000854884
 20
159.8744054517737
 30
0.0
 10
194.2511430011998
 20
160.0528899041181
 30
0.0
 10
194.2479257386748
 20
160.4208323710706
 30
0.0
 10
194.2672012578029
 20
160.6122658456081
 30
0.0
 10
194.349744276023
 20
160.9853314262248
 30
0.0
 10
194.4142728127374
 20
161.1724574301819
 30
0.0
 10
194.583915292068
 20
161.5230080619649
 30
0.0
 10
194.6892632591304
 20
161.6881446386656
 30
0.0
 10
194.9342385825022
 20
161.9886408951164
 30
0.0
 10
195.0699225328223
 20
162.1198838818117
 30
0.0
 10
195.3643189489595
 20
162.3482531880331
 30
0.0
 10
195.5179247243429
 20
162.4413094564902
 30
0.0
 10
195.8324016760377
 20
162.5909649715392
 30
0.0
 10
195.9925848019969
 20
162.6468393520822
 30
0.0
 10
196.3052807446263
 20
162.7242150127844
 30
0.0
 10
196.4608206657781
 20
162.7463047398366
 30
0.0
 10
196.7527662816447
 20
162.7629897938089
 30
0.0
 10
196.890454664036
 20
162.7575511457052
 30
0.0
 10
197.0672472462435
 20
162.7391451432801
 30
0.0
 10
197.1199742810497
 20
162.7314758089293
 30
0.0
 10
197.2040630518497
 20
162.7174055472678
 30
0.0
 10
197.2348813609919
 20
162.7111798934448
 30
0.0
 10
197.2635082784647
 20
162.7053394185339
 30
0.0
 10
197.2613686690298
 20
162.7057931402906
 30
0.0
 10
197.2310952409531
 20
162.711931409321
 30
0.0
 10
197.2034736823524
 20
162.7173961845947
 30
0.0
 10
197.1688200310027
 20
162.7232929835963
 30
0.0
  0
SPLINE
  5
11A
330
1F
100
AcDbEntity
  8
0
  6
HIDDEN
 62
     7
370
     0
100
AcDbSpline
210
0.0
220
0.0
230
1.0
 70
     8
 71
     3
 72
    10
 73
     6
 74
     0
 42
0.00000001
 43
0.00000001
 12
1.0
 22
0.0
 32
0.0
 13
1.0
 23
0.0
 33
0.0
 40
0.0
 40
0.0
 40
0.0
 40
0.0
 40
0.5
 40
0.5
 40
1.0
 40
1.0
 40
1.0
 40
1.0
 10
197.1688200310027
 20
162.7232929835963
 30
0.0
 10
197.4714130909574
 20
162.5030116996989
 30
0.0
 10
197.7670814579117
 20
162.2733187047363
 30
0.0
 10
198.3646399720352
 20
161.8223890604844
 30
0.0
 10
198.6676227109268
 20
161.6026374095341
 30
0.0
 10
198.9776112523002
 20
161.3924077097715
 30
0.0
  0
CIRCLE
  5
11B
330
1F
100
AcDbEntity
  8
0
  6
HIDDEN
 62
     7
370
     0
100
AcDbCircle
 10
85.2494388051
 20
160.2587201226
 30
0.0
 40
4.050000000000011
  0
ARC
  5
11C
330
1F
100
AcDbEntity
  8
0
  6
HIDDEN
 62
     7
370
     0
100
AcDbCircle
 10
196.7494388051
 20
160.2587201226
 30
0.0
 40
2.499999999999996
100
AcDbArc
 50
26.966858143
 51
80.3428302716
  0
LINE
  5
11D
330
1F
100
AcDbEntity
  8
0
  6
HIDDEN
 62
     7
370
     0
100
AcDbLine
 10
64.279666347
 20
175.5716711807
 30
0.0
 11
64.279666347
 21
144.9457690644
 31
0.0
  0
LINE
  5
11E
330
1F
100
AcDbEntity
  8
0
  6
HIDDEN
 62
     7
370
     0
100
AcDbLine
 10
62.749440027
 20
144.0622903931
 30
0.0
 11
62.749440027
 21
176.455149852
 31
0.0
  0
LINE
  5
11F
330
1F
100
AcDbEntity
  8
0
  6
HIDDEN
 62
     7
370
     0
100
AcDbLine
 10
70.7796664811
 20
174.6051306429
 30
0.0
 11
70.7796664811
 21
145.9123096022
 31
0.0
  0
LINE
  5
120
330
1F
100
AcDbEntity
  8
0
  6
HIDDEN
 62
     7
370
     0
100
AcDbLine
 10
76.5796678043
 20
174.2587205547
 30
0.0
 11
76.5796678043
 21
146.2587196904
 31
0.0
  0
LINE
  5
121
330
1F
100
AcDbEntity
  8
0
  6
HIDDEN
 62
     7
370
     0
100
AcDbLine
 10
69.1796673364
 20
174.2587205547
 30
0.0
 11
69.1796673364
 21
146.2587196904
 31
0.0
  0
LINE
  5
122
330
1F
100
AcDbEntity
  8
0
  6
HIDDEN
 62
     7
370
     0
100
AcDbLine
 10
70.1796675003
 20
174.2587205547
 30
0.0
 11
70.1796675003
 21
146.2587196904
 31
0.0
  0
SPLINE
  5
123
330
1F
100
AcDbEntity
  8
0
  6
HIDDEN
 62
     7
370
     0
100
AcDbSpline
210
0.0
220
0.0
230
1.0
 70
     8
 71
     3
 72
    10
 73
     6
 74
     0
 42
0.00000001
 43
0.00000001
 12
1.0
 22
0.0
 32
0.0
 13
1.0
 23
0.0
 33
0.0
 40
0.0
 40
0.0
 40
0.0
 40
0.0
 40
0.5
 40
0.5
 40
1.0
 40
1.0
 40
1.0
 40
1.0
 10
89.24943880506603
 20
160.8931489995875
 30
0.0
 10
89.28258622314247
 20
160.6841583985795
 30
0.0
 10
89.29944506850413
 20
160.4725959325579
 30
0.0
 10
89.29943253815647
 20
160.0446071665903
 30
0.0
 10
89.28251758041608
 20
159.8328490621746
 30
0.0
 10
89.24943880506603
 20
159.6242912455425
 30
0.0
  0
LINE
  5
124
330
1F
100
AcDbEntity
  8
0
  6
HIDDEN
 62
     7
370
     0
100
AcDbLine
 10
89.7494388647
 20
173.7587204727
 30
0.0
 11
89.7494388647
 21
146.7587197724
 31
0.0
  0
SPLINE
  5
125
330
1F
100
AcDbEntity
  8
0
  6
HIDDEN
 62
     7
370
     0
100
AcDbSpline
210
0.0
220
0.0
230
1.0
 70
     8
 71
     3
 72
    10
 73
     6
 74
     0
 42
0.00000001
 43
0.00000001
 12
1.0
 22
0.0
 32
0.0
 13
1.0
 23
0.0
 33
0.0
 40
0.0
 40
0.0
 40
0.0
 40
0.0
 40
0.5
 40
0.5
 40
1.0
 40
1.0
 40
1.0
 40
1.0
 10
89.24943880506603
 20
159.6242912455425
 30
0.0
 10
89.28262776753974
 20
159.833543779125
 30
0.0
 10
89.2993285437944
 20
160.0443605400239
 30
0.0
 10
89.29954798423906
 20
160.4688928212272
 30
0.0
 10
89.28266826884567
 20
160.6836411099999
 30
0.0
 10
89.24943880506605
 20
160.8931489995875
 30
0.0
  0
SPLINE
  5
126
330
1F
100
AcDbEntity
  8
0
  6
HIDDEN
 62
     7
370
     0
100
AcDbSpline
210
0.0
220
0.0
230
1.0
 70
     8
 71
     3
 72
    68
 73
    64
 74
     0
 42
0.00000001
 43
0.00000001
 12
1.0
 22
0.0
 32
0.0
 13
1.0
 23
0.0
 33
0.0
 40
0.0
 40
0.0
 40
0.0
 40
0.0
 40
0.0312500000000001
 40
0.0312500000000001
 40
0.0625000000000002
 40
0.0625000000000002
 40
0.0937500000000003
 40
0.0937500000000003
 40
0.1250000000000004
 40
0.1250000000000004
 40
0.1562500000000005
 40
0.1562500000000005
 40
0.1875000000000006
 40
0.1875000000000006
 40
0.2187500000000007
 40
0.2187500000000007
 40
0.2500000000000008
 40
0.2500000000000008
 40
0.2812500000000007
 40
0.2812500000000007
 40
0.3125000000000006
 40
0.3125000000000006
 40
0.3437500000000005
 40
0.3437500000000005
 40
0.3750000000000003
 40
0.3750000000000003
 40
0.4062500000000002
 40
0.4062500000000002
 40
0.4375000000000002
 40
0.4375000000000002
 40
0.4687500000000001
 40
0.4687500000000001
 40
0.5
 40
0.5
 40
0.5624999999999999
 40
0.5624999999999999
 40
0.5937499999999998
 40
0.5937499999999998
 40
0.6249999999999997
 40
0.6249999999999997
 40
0.6562499999999996
 40
0.6562499999999996
 40
0.6874999999999994
 40
0.6874999999999994
 40
0.7187499999999993
 40
0.7187499999999993
 40
0.7499999999999991
 40
0.7499999999999991
 40
0.7812499999999992
 40
0.7812499999999992
 40
0.8124999999999993
 40
0.8124999999999993
 40
0.8437499999999994
 40
0.8437499999999994
 40
0.8749999999999996
 40
0.8749999999999996
 40
0.9062499999999997
 40
0.9062499999999997
 40
0.9374999999999998
 40
0.9374999999999998
 40
0.9687499999999999
 40
0.9687499999999999
 40
1.0
 40
1.0
 40
1.0
 40
1.0
 10
89.24943880506603
 20
159.6242912455425
 30
0.0
 10
89.20942385271634
 20
159.3720016427269
 30
0.0
 10
89.14648205130504
 20
159.1280027923511
 30
0.0
 10
88.97709538923299
 20
158.6555844032886
 30
0.0
 10
88.8694018266475
 20
158.4251710171286
 30
0.0
 10
88.61411705810961
 20
157.9904664213315
 30
0.0
 10
88.46807782763737
 20
157.7878244546802
 30
0.0
 10
88.13985639107813
 20
157.4108351639224
 30
0.0
 10
87.95560910330315
 20
157.235177210345
 30
0.0
 10
87.56264893599484
 20
156.9249192413988
 30
0.0
 10
87.35335433903569
 20
156.7889740337489
 30
0.0
 10
86.90846891209833
 20
156.555583938343
 30
0.0
 10
86.6716713195993
 20
156.4583373319286
 30
0.0
 10
86.19093625068002
 20
156.3116658740573
 30
0.0
 10
85.94469315749724
 20
156.2607735291149
 30
0.0
 10
85.43997637751781
 20
156.2052461788794
 30
0.0
 10
85.18378167658133
 20
156.2014212918094
 30
0.0
 10
84.68140292738123
 20
156.2408450744539
 30
0.0
 10
84.43215322819763
 20
156.2838725236651
 30
0.0
 10
83.94062543071887
 20
156.4175774931164
 30
0.0
 10
83.70532982949302
 20
156.5062473390216
 30
0.0
 10
83.2544159348309
 20
156.725278702799
 30
0.0
 10
83.03680358436753
 20
156.8572802684825
 30
0.0
 10
82.63359641481924
 20
157.1566375494855
 30
0.0
 10
82.4479849223848
 20
157.3232564769233
 30
0.0
 10
82.1079968519823
 20
157.6903679023508
 30
0.0
 10
81.95292392115941
 20
157.8926716478915
 30
0.0
 10
81.68658084449606
 20
158.3167523274855
 30
0.0
 10
81.57359674377928
 20
158.5399119329517
 30
0.0
 10
81.38874148684839
 20
159.0092671745459
 30
0.0
 10
81.317600725345
 20
159.2554776778814
 30
0.0
 10
81.22364031405682
 20
159.7500035042525
 30
0.0
 10
81.19963098410044
 20
160.0009344993445
 30
0.0
 10
81.19905786342787
 20
160.7651798789008
 30
0.0
 10
81.29445697474648
 20
161.2674041809517
 30
0.0
 10
81.5723207669476
 20
161.9749686872241
 30
0.0
 10
81.68548272302816
 20
162.1986749509649
 30
0.0
 10
81.95161390507202
 20
162.6229448622855
 30
0.0
 10
82.10644167927173
 20
162.8251968243416
 30
0.0
 10
82.44662278505956
 20
163.1929075657097
 30
0.0
 10
82.6321252420093
 20
163.3595244409591
 30
0.0
 10
83.03441904306861
 20
163.6585738197545
 30
0.0
 10
83.25242709132063
 20
163.7910305277829
 30
0.0
 10
83.70302545847092
 20
164.0102369284876
 30
0.0
 10
83.93757445735169
 20
164.0987220584912
 30
0.0
 10
84.42603445090401
 20
164.2322082884299
 30
0.0
 10
84.67829984661788
 20
164.2761500009236
 30
0.0
 10
85.18048048477814
 20
164.3159589973971
 30
0.0
 10
85.43296260212985
 20
164.3126147845836
 30
0.0
 10
85.94082764519933
 20
164.2574354645931
 30
0.0
 10
86.18837311838315
 20
164.2063895361237
 30
0.0
 10
86.66934065585386
 20
164.0599791478881
 30
0.0
 10
86.90530052095913
 20
163.9633329431145
 30
0.0
 10
87.35187097048073
 20
163.7294279988014
 30
0.0
 10
87.56151583305419
 20
163.593302984975
 30
0.0
 10
87.95450253980866
 20
163.2832487206459
 30
0.0
 10
88.13889844362366
 20
163.1075914730708
 30
0.0
 10
88.46744886148406
 20
162.7304515504063
 30
0.0
 10
88.61339095800723
 20
162.5279853451365
 30
0.0
 10
88.86827631320938
 20
162.0944090470032
 30
0.0
 10
88.9765876260177
 20
161.8631172034216
 30
0.0
 10
89.14642260343467
 20
161.3897575232884
 30
0.0
 10
89.20941796457171
 20
161.1454757264676
 30
0.0
 10
89.24943880506603
 20
160.8931489995875
 30
0.0
  0
SPLINE
  5
127
330
1F
100
AcDbEntity
  8
0
  6
HIDDEN
 62
     7
370
     0
100
AcDbSpline
210
0.0
220
0.0
230
1.0
 70
     8
 71
     3
 72
    68
 73
    64
 74
     0
 42
0.00000001
 43
0.00000001
 12
1.0
 22
0.0
 32
0.0
 13
1.0
 23
0.0
 33
0.0
 40
0.0
 40
0.0
 40
0.0
 40
0.0
 40
0.0312500000000001
 40
0.0312500000000001
 40
0.0625000000000002
 40
0.0625000000000002
 40
0.0937500000000003
 40
0.0937500000000003
 40
0.1250000000000004
 40
0.1250000000000004
 40
0.1562500000000005
 40
0.1562500000000005
 40
0.1875000000000006
 40
0.1875000000000006
 40
0.2187500000000007
 40
0.2187500000000007
 40
0.2500000000000008
 40
0.2500000000000008
 40
0.2812500000000007
 40
0.2812500000000007
 40
0.3125000000000006
 40
0.3125000000000006
 40
0.3437500000000005
 40
0.3437500000000005
 40
0.3750000000000003
 40
0.3750000000000003
 40
0.4062500000000002
 40
0.4062500000000002
 40
0.4375000000000001
 40
0.4375000000000001
 40
0.46875
 40
0.46875
 40
0.4999999999999999
 40
0.4999999999999999
 40
0.5624999999999997
 40
0.5624999999999997
 40
0.5937499999999996
 40
0.5937499999999996
 40
0.6249999999999994
 40
0.6249999999999994
 40
0.6562499999999993
 40
0.6562499999999993
 40
0.6874999999999992
 40
0.6874999999999992
 40
0.7187499999999991
 40
0.7187499999999991
 40
0.7499999999999989
 40
0.7499999999999989
 40
0.781249999999999
 40
0.781249999999999
 40
0.8124999999999991
 40
0.8124999999999991
 40
0.8437499999999992
 40
0.8437499999999992
 40
0.8749999999999993
 40
0.8749999999999993
 40
0.9062499999999994
 40
0.9062499999999994
 40
0.9374999999999996
 40
0.9374999999999996
 40
0.9687499999999998
 40
0.9687499999999998
 40
1.0
 40
1.0
 40
1.0
 40
1.0
 10
89.24943880506603
 20
160.8931489995875
 30
0.0
 10
89.20942385271634
 20
161.1454386024031
 30
0.0
 10
89.14648205130504
 20
161.389437452779
 30
0.0
 10
88.97709538923299
 20
161.8618558418414
 30
0.0
 10
88.8694018266475
 20
162.0922692280014
 30
0.0
 10
88.61411705810961
 20
162.5269738237985
 30
0.0
 10
88.46807782763737
 20
162.7296157904498
 30
0.0
 10
88.13985639107813
 20
163.1066050812076
 30
0.0
 10
87.95560910330315
 20
163.282263034785
 30
0.0
 10
87.56264893599484
 20
163.5925210037312
 30
0.0
 10
87.35335433903569
 20
163.7284662113811
 30
0.0
 10
86.90846891209834
 20
163.961856306787
 30
0.0
 10
86.6716713195993
 20
164.0591029132014
 30
0.0
 10
86.19093625068002
 20
164.2057743710727
 30
0.0
 10
85.94469315749726
 20
164.2566667160152
 30
0.0
 10
85.43997637751781
 20
164.3121940662506
 30
0.0
 10
85.18378167658133
 20
164.3160189533206
 30
0.0
 10
84.68140292738123
 20
164.2765951706762
 30
0.0
 10
84.43215322819763
 20
164.2335677214649
 30
0.0
 10
83.94062543071887
 20
164.0998627520136
 30
0.0
 10
83.70532982949302
 20
164.0111929061084
 30
0.0
 10
83.2544159348309
 20
163.792161542331
 30
0.0
 10
83.03680358436753
 20
163.6601599766475
 30
0.0
 10
82.63359641481924
 20
163.3608026956446
 30
0.0
 10
82.4479849223848
 20
163.1941837682067
 30
0.0
 10
82.10799685198232
 20
162.8270723427792
 30
0.0
 10
81.95292392115941
 20
162.6247685972385
 30
0.0
 10
81.68658084449605
 20
162.2006879176445
 30
0.0
 10
81.57359674377928
 20
161.9775283121783
 30
0.0
 10
81.38874148684837
 20
161.5081730705841
 30
0.0
 10
81.31760072534499
 20
161.2619625672486
 30
0.0
 10
81.22364031405682
 20
160.7674367408775
 30
0.0
 10
81.19963098410044
 20
160.5165057457855
 30
0.0
 10
81.19905786342787
 20
159.7522603662293
 30
0.0
 10
81.29445697474647
 20
159.2500360641783
 30
0.0
 10
81.5723207669476
 20
158.5424715579059
 30
0.0
 10
81.68548272302816
 20
158.3187652941651
 30
0.0
 10
81.95161390507202
 20
157.8944953828445
 30
0.0
 10
82.10644167927174
 20
157.6922434207884
 30
0.0
 10
82.44662278505957
 20
157.3245326794203
 30
0.0
 10
82.6321252420093
 20
157.1579158041709
 30
0.0
 10
83.03441904306861
 20
156.8588664253755
 30
0.0
 10
83.25242709132063
 20
156.7264097173471
 30
0.0
 10
83.70302545847092
 20
156.5072033166424
 30
0.0
 10
83.93757445735169
 20
156.4187181866388
 30
0.0
 10
84.42603445090401
 20
156.2852319567002
 30
0.0
 10
84.67829984661789
 20
156.2412902442064
 30
0.0
 10
85.18048048477814
 20
156.2014812477329
 30
0.0
 10
85.43296260212985
 20
156.2048254605464
 30
0.0
 10
85.94082764519935
 20
156.2600047805369
 30
0.0
 10
86.18837311838315
 20
156.3110507090063
 30
0.0
 10
86.66934065585387
 20
156.4574610972419
 30
0.0
 10
86.90530052095913
 20
156.5541073020155
 30
0.0
 10
87.35187097048073
 20
156.7880122463286
 30
0.0
 10
87.5615158330542
 20
156.924137260155
 30
0.0
 10
87.95450253980866
 20
157.2341915244841
 30
0.0
 10
88.13889844362367
 20
157.4098487720593
 30
0.0
 10
88.46744886148406
 20
157.7869886947237
 30
0.0
 10
88.61339095800723
 20
157.9894548999935
 30
0.0
 10
88.86827631320938
 20
158.4230311981269
 30
0.0
 10
88.9765876260177
 20
158.6543230417084
 30
0.0
 10
89.14642260343466
 20
159.1276827218417
 30
0.0
 10
89.2094179645717
 20
159.3719645186625
 30
0.0
 10
89.24943880506603
 20
159.6242912455425
 30
0.0
  0
LINE
  5
128
330
1F
100
AcDbEntity
  8
0
  6
HIDDEN
 62
     7
370
     0
100
AcDbLine
 10
90.9994386039
 20
169.2587197351
 30
0.0
 11
90.9994386039
 21
151.25872051
 31
0.0
  0
LINE
  5
129
330
1F
100
AcDbEntity
  8
0
  6
HIDDEN
 62
     7
370
     0
100
AcDbLine
 10
89.7494388647
 20
150.0087198394
 30
0.0
 11
89.7494388647
 21
170.5087204057
 31
0.0
  0
LINE
  5
12A
330
1F
100
AcDbEntity
  8
0
  6
HIDDEN
 62
     7
370
     0
100
AcDbLine
 10
116.749439565
 20
169.2587197351
 30
0.0
 11
116.749439565
 21
151.25872051
 31
0.0
  0
LINE
  5
12B
330
1F
100
AcDbEntity
  8
0
  6
HIDDEN
 62
     7
370
     0
100
AcDbLine
 10
119.6035260237
 20
164.5087203535
 30
0.0
 11
119.6035260237
 21
156.0087198916
 31
0.0
  0
SPLINE
  5
12C
330
1F
100
AcDbEntity
  8
0
  6
HIDDEN
 62
     7
370
     0
100
AcDbSpline
210
0.0
220
0.0
230
1.0
 70
     8
 71
     3
 72
    16
 73
    12
 74
     0
 42
0.00000001
 43
0.00000001
 12
1.0
 22
0.0
 32
0.0
 13
1.0
 23
0.0
 33
0.0
 40
0.0
 40
0.0
 40
0.0
 40
0.0
 40
0.2500000000000006
 40
0.2500000000000006
 40
0.3750000000000009
 40
0.3750000000000009
 40
0.5000000000000012
 40
0.5000000000000012
 40
0.7500000000000007
 40
0.7500000000000007
 40
1.0
 40
1.0
 40
1.0
 40
1.0
 10
218.2239563391413
 20
148.8218073635373
 30
0.0
 10
217.7915409862952
 20
149.7093494823122
 30
0.0
 10
217.3892148406565
 20
150.6132534672775
 30
0.0
 10
216.8457350453482
 20
152.0017412832768
 30
0.0
 10
216.6742964658119
 20
152.4710760487652
 30
0.0
 10
216.3567175902865
 20
153.4160223155257
 30
0.0
 10
216.2105139035957
 20
153.8916344268067
 30
0.0
 10
215.8137432820377
 20
155.3289060704778
 30
0.0
 10
215.6050341396919
 20
156.3010052409115
 30
0.0
 10
215.3215840771958
 20
158.2786162312482
 30
0.0
 10
215.249438805066
 20
159.2698564370385
 30
0.0
 10
215.249438805066
 20
160.258720122565
 30
0.0
  0
LINE
  5
12D
330
1F
100
AcDbEntity
  8
0
  6
HIDDEN
 62
     7
370
     0
100
AcDbLine
 10
215.2494398779
 20
160.2587201226
 30
0.0
 11
215.2494398779
 21
180.7587206888
 31
0.0
  0
SPLINE
  5
12E
330
1F
100
AcDbEntity
  8
0
  6
HIDDEN
 62
     7
370
     0
100
AcDbSpline
210
0.0
220
0.0
230
1.0
 70
     8
 71
     3
 72
    13
 73
     9
 74
     0
 42
0.00000001
 43
0.00000001
 12
1.0
 22
0.0
 32
0.0
 13
1.0
 23
0.0
 33
0.0
 40
0.0
 40
0.0
 40
0.0
 40
0.0
 40
0.1718014753374571
 40
0.348583692681977
 40
0.5204687589903495
 40
0.6973008344580012
 40
0.8698288681061948
 40
1.0
 40
1.0
 40
1.0
 40
1.0
 10
218.2239575214013
 20
148.8218069600951
 30
0.0
 10
218.2114255136065
 20
147.6015244460808
 30
0.0
 10
218.1859981792644
 20
145.1255818849659
 30
0.0
 10
218.2625737312827
 20
141.9955373275525
 30
0.0
 10
218.4230288545952
 20
139.3651813707179
 30
0.0
 10
218.6677118667967
 20
137.4182229690882
 30
0.0
 10
218.9520155013796
 20
136.1704905885461
 30
0.0
 10
219.1705868558685
 20
135.9274131577535
 30
0.0
 10
219.2645801133737
 20
135.8228814381253
 30
0.0
  0
ELLIPSE
  5
12F
330
1F
100
AcDbEntity
  8
0
  6
HIDDEN
 62
     7
370
     0
100
AcDbEllipse
 10
234.2029125795
 20
160.2587201226
 30
0.0
 11
-14.59302442226752
 21
20.49991501977667
 31
0.0
210
0.0
220
0.0
230
1.0
 40
0.0040448756
 41
6.280305938888057
 42
7.85110226568002
  0
LINE
  5
130
330
1F
100
AcDbEntity
  8
0
  6
HIDDEN
 62
     7
370
     0
100
AcDbLine
 10
200.7494402952
 20
164.5087203535
 30
0.0
 11
200.7494402952
 21
156.0087198916
 31
0.0
  0
SPLINE
  5
131
330
1F
100
AcDbEntity
  8
0
  6
HIDDEN
 62
     7
370
     0
100
AcDbSpline
210
0.0
220
0.0
230
1.0
 70
    11
 71
     3
 72
    31
 73
    27
 74
     0
 42
0.00000001
 43
0.00000001
 12
1.0
 22
0.0
 32
0.0
 13
1.0
 23
0.0
 33
0.0
 40
0.0
 40
0.0
 40
0.0
 40
0.0
 40
0.00712091888209
 40
0.0413411173947081
 40
0.0541665452356263
 40
0.1009818766084186
 40
0.1532960390643306
 40
0.1779932000877434
 40
0.2025074048483142
 40
0.210879382835632
 40
0.2630741217201087
 40
0.3090741523910302
 40
0.3554423291716158
 40
0.4072687221350126
 40
0.4646568869091662
 40
0.5082365798497349
 40
0.5518553418308261
 40
0.5957551053517378
 40
0.6473448453184609
 40
0.7048974702041674
 40
0.7579465183039477
 40
0.8043194879909232
 40
0.8503498728176447
 40
0.9014621813640417
 40
0.9585411575247192
 40
1.0
 40
1.0
 40
1.0
 40
1.0
 10
196.6372711486444
 20
162.7411313413721
 30
0.0
 10
196.6746717188527
 20
162.7482070523157
 30
0.0
 10
196.8918040004044
 20
162.7892857110694
 30
0.0
 10
197.1748311133725
 20
162.6824317822343
 30
0.0
 10
197.6744724459956
 20
162.6352178313236
 30
0.0
 10
198.1799803490484
 20
162.3269584174137
 30
0.0
 10
198.6851601346322
 20
161.9327627609973
 30
0.0
 10
198.9011835591207
 20
161.4422734064041
 30
0.0
 10
199.0398926492975
 20
161.1790005573324
 30
0.0
 10
199.2521471658749
 20
160.7911706708726
 30
0.0
 10
199.277732525594
 20
160.1848566869125
 30
0.0
 10
199.1474706636712
 20
159.4256304866158
 30
0.0
 10
198.7913188207314
 20
158.7517958892388
 30
0.0
 10
198.2286337248723
 20
158.1855115614308
 30
0.0
 10
197.5076423248866
 20
157.8307974249199
 30
0.0
 10
196.7307982065251
 20
157.725228418339
 30
0.0
 10
196.0283016504974
 20
157.8313242822375
 30
0.0
 10
195.366906486998
 20
158.1328596297051
 30
0.0
 10
194.7747529994714
 20
158.6502192019884
 30
0.0
 10
194.3489519914284
 20
159.3918453938265
 30
0.0
 10
194.2057199512334
 20
160.23706843177
 30
0.0
 10
194.3291674813566
 20
161.0165975778101
 30
0.0
 10
194.6591710538174
 20
161.6988279833752
 30
0.0
 10
195.2006266314072
 20
162.2740218984829
 30
0.0
 10
195.8870355726788
 20
162.6670393221766
 30
0.0
 10
196.4150951458996
 20
162.7191896084185
 30
0.0
 10
196.6372711486444
 20
162.7411313413721
 30
0.0
  0
SPLINE
  5
132
330
1F
100
AcDbEntity
  8
0
  6
HIDDEN
 62
     7
370
     0
100
AcDbSpline
210
0.0
220
0.0
230
1.0
 70
     8
 71
     3
 72
    60
 73
    56
 74
     0
 42
0.00000001
 43
0.00000001
 12
1.0
 22
0.0
 32
0.0
 13
1.0
 23
0.0
 33
0.0
 40
-0.0312499999999997
 40
-0.0312499999999997
 40
0.0
 40
0.0
 40
0.0312499999999978
 40
0.0312499999999978
 40
0.0624999999999957
 40
0.0624999999999957
 40
0.1249999999999938
 40
0.1249999999999938
 40
0.1562499999999937
 40
0.1562499999999937
 40
0.1874999999999936
 40
0.1874999999999936
 40
0.2187499999999935
 40
0.2187499999999935
 40
0.2499999999999934
 40
0.2499999999999934
 40
0.3124999999999932
 40
0.3124999999999932
 40
0.374999999999993
 40
0.374999999999993
 40
0.4062499999999929
 40
0.4062499999999929
 40
0.4374999999999928
 40
0.4374999999999928
 40
0.4687499999999927
 40
0.4687499999999927
 40
0.4999999999999926
 40
0.4999999999999926
 40
0.5312499999999925
 40
0.5312499999999925
 40
0.5624999999999922
 40
0.5624999999999922
 40
0.6249999999999942
 40
0.6249999999999942
 40
0.6562499999999952
 40
0.6562499999999952
 40
0.6874999999999962
 40
0.6874999999999962
 40
0.7187499999999972
 40
0.7187499999999972
 40
0.7499999999999983
 40
0.7499999999999983
 40
0.7812499999999994
 40
0.7812499999999994
 40
0.8125000000000004
 40
0.8125000000000004
 40
0.8750000000000014
 40
0.8750000000000014
 40
0.9062500000000011
 40
0.9062500000000011
 40
0.9375000000000008
 40
0.9375000000000008
 40
0.9687500000000003
 40
0.9687500000000003
 40
1.0
 40
1.0
 40
1.031249999999998
 40
1.031249999999998
 10
196.9189664016366
 20
162.758720122565
 30
0.0
 10
196.5799112084954
 20
162.758720122565
 30
0.0
 10
196.4143133607879
 20
162.7416691579343
 30
0.0
 10
196.0901932841152
 20
162.6758962267722
 30
0.0
 10
195.9303832197896
 20
162.6263237246311
 30
0.0
 10
195.4810416172482
 20
162.4374270893438
 30
0.0
 10
195.2113588774728
 20
162.2550887616572
 30
0.0
 10
194.8731740887154
 20
161.9185168317681
 30
0.0
 10
194.7696076550914
 20
161.7936999788873
 30
0.0
 10
194.5891561927915
 20
161.5272127622084
 30
0.0
 10
194.5120342265292
 20
161.3859233894966
 30
0.0
 10
194.3846163417221
 20
161.0858725691567
 30
0.0
 10
194.334152148921
 20
160.9249726124665
 30
0.0
 10
194.2673107362385
 20
160.6001029891398
 30
0.0
 10
194.2499925346895
 20
160.4348931112698
 30
0.0
 10
194.248370142756
 20
159.930497837817
 30
0.0
 10
194.3168581132997
 20
159.5950366589724
 30
0.0
 10
194.5709084196705
 20
158.9891021005958
 30
0.0
 10
194.7554913190259
 20
158.7174576710909
 30
0.0
 10
195.092859789449
 20
158.3796046137764
 30
0.0
 10
195.2168489584158
 20
158.2770633832518
 30
0.0
 10
195.4830177036334
 20
158.0972454721547
 30
0.0
 10
195.6235543844572
 20
158.0207461347659
 30
0.0
 10
195.9212127197553
 20
157.894362947719
 30
0.0
 10
196.0806800972978
 20
157.844097900124
 30
0.0
 10
196.4062974814314
 20
157.7768070059681
 30
0.0
 10
196.5722644638185
 20
157.7592578761325
 30
0.0
 10
196.9110977098815
 20
157.7582064419322
 30
0.0
 10
197.0780883887167
 20
157.7748596310979
 30
0.0
 10
197.4037133025074
 20
157.840146499145
 30
0.0
 10
197.5638444750645
 20
157.8894877081025
 30
0.0
 10
198.0145496344228
 20
158.077993201168
 30
0.0
 10
198.2848081355736
 20
158.2600849082433
 30
0.0
 10
198.6245228644754
 20
158.5975352456183
 30
0.0
 10
198.7284815083508
 20
158.7227523683191
 30
0.0
 10
198.9087906009724
 20
158.9886780819129
 30
0.0
 10
198.986224309565
 20
159.1301465450368
 30
0.0
 10
199.1144731644096
 20
159.4319794182593
 30
0.0
 10
199.1647884553264
 20
159.5927470361319
 30
0.0
 10
199.2315367018178
 20
159.9172173907945
 30
0.0
 10
199.2490102110139
 20
160.0829633161447
 30
0.0
 10
199.2498519935443
 20
160.4220650193913
 30
0.0
 10
199.2330918960124
 20
160.5891556920776
 30
0.0
 10
199.1673397525085
 20
160.915587955636
 30
0.0
 10
199.117484891735
 20
161.0768308454003
 30
0.0
 10
198.9265201061675
 20
161.5307683535764
 30
0.0
 10
198.7412239731975
 20
161.8029536405705
 30
0.0
 10
198.4023350723777
 20
162.1411122862857
 30
0.0
 10
198.2771531499745
 20
162.2441065210399
 30
0.0
 10
198.0112180140012
 20
162.4228789658081
 30
0.0
 10
197.8703624306024
 20
162.4992489585444
 30
0.0
 10
197.5706958341182
 20
162.6255695329359
 30
0.0
 10
197.4103176519836
 20
162.6754729806285
 30
0.0
 10
197.0855805119349
 20
162.7415539833307
 30
0.0
 10
196.9189664016366
 20
162.758720122565
 30
0.0
 10
196.5799112084954
 20
162.758720122565
 30
0.0
  0
CIRCLE
  5
133
330
1F
100
AcDbEntity
  8
0
  6
HIDDEN
 62
     7
370
     0
100
AcDbCircle
 10
229.4085749924
 20
152.0265023896
 30
0.0
 40
3.482073648429576
  0
CIRCLE
  5
134
330
1F
100
AcDbEntity
  8
0
  6
HIDDEN
 62
     7
370
     0
100
AcDbCircle
 10
228.9821619061
 20
152.591131255
 30
0.0
 40
3.48207676874442
  0
ARC
  5
135
330
1F
100
AcDbEntity
  8
0
  6
HIDDEN
 62
     7
370
     0
100
AcDbCircle
 10
225.7091366759
 20
145.2443723097
 30
0.0
 40
2.346790037635393
100
AcDbArc
 50
85.4145741235
 51
226.466074695
  0
LINE
  5
136
330
1F
100
AcDbEntity
  8
0
  6
HIDDEN
 62
     7
370
     0
100
AcDbLine
 10
238.1427792735
 20
146.6959747079
 30
0.0
 11
238.634070558
 21
146.0454449582
 31
0.0
  0
LINE
  5
137
330
1F
100
AcDbEntity
  8
0
  6
HIDDEN
 62
     7
370
     0
100
AcDbLine
 10
235.3259829707
 20
158.5054957134
 30
0.0
 11
237.8295121617
 21
155.190474313
 31
0.0
  0
LINE
  5
138
330
1F
100
AcDbEntity
  8
0
  6
HIDDEN
 62
     7
370
     0
100
AcDbLine
 10
226.7742661662
 20
143.2326552051
 30
0.0
 11
226.9817052312
 21
143.2176180708
 31
0.0
  0
LINE
  5
139
330
1F
100
AcDbEntity
  8
0
  6
HIDDEN
 62
     7
370
     0
100
AcDbLine
 10
226.9817052312
 20
143.2176180708
 30
0.0
 11
227.2890267796
 21
142.810691573
 31
0.0
  0
LINE
  5
13A
330
1F
100
AcDbEntity
  8
0
  6
HIDDEN
 62
     7
370
     0
100
AcDbLine
 10
227.2890267796
 20
142.810691573
 30
0.0
 11
226.8083153195
 21
142.8455360758
 31
0.0
  0
ELLIPSE
  5
13B
330
1F
100
AcDbEntity
  8
0
  6
HIDDEN
 62
     7
370
     0
100
AcDbEllipse
 10
212.7839499864
 20
162.494155643
 30
0.0
 11
217.1628490301423
 21
-19.44089462863661
 31
0.0
210
0.0
220
0.0
230
1.0
 40
0.1182598878
 41
4.790528107604409
 42
4.792851297182361
  0
ELLIPSE
  5
13C
330
1F
100
AcDbEntity
  8
0
  6
HIDDEN
 62
     7
370
     0
100
AcDbEllipse
 10
225.8212398852
 20
161.1238812582
 30
0.0
 11
-2.733626938423214
 21
26.42588789006399
 31
0.0
210
0.0
220
0.0
230
1.0
 40
0.0894011665
 41
2.799414959973884
 42
2.912484165532407
  0
ELLIPSE
  5
13D
330
1F
100
AcDbEntity
  8
0
  6
HIDDEN
 62
     7
370
     0
100
AcDbEllipse
 10
188.0938389385
 20
165.0891908833
 30
0.0
 11
217.1628490301424
 21
-19.44089462863664
 31
0.0
210
0.0
220
0.0
230
1.0
 40
0.1182598878
 41
4.905920502740895
 42
4.956421858001954
  0
SPLINE
  5
13E
330
1F
100
AcDbEntity
  8
0
  6
HIDDEN
 62
     7
370
     0
100
AcDbSpline
210
0.0
220
0.0
230
1.0
 70
     8
 71
     3
 72
    25
 73
    21
 74
     0
 42
0.00000001
 43
0.00000001
 12
1.0
 22
0.0
 32
0.0
 13
1.0
 23
0.0
 33
0.0
 40
0.0
 40
0.0
 40
0.0
 40
0.0
 40
0.0270185505628302
 40
0.0530848754659752
 40
0.0781989783541081
 40
0.1023608636892335
 40
0.1255705368698943
 40
0.1901865470897821
 40
0.2510399464907142
 40
0.3150768624115917
 40
0.3763773896914243
 40
0.5015215427061028
 40
0.62646882858736
 40
0.6895561946294483
 40
0.7512214751779291
 40
0.8140738293456558
 40
0.875734143148332
 40
0.9176074241832078
 40
0.959029143628696
 40
1.0
 40
1.0
 40
1.0
 40
1.0
 10
236.0321359330329
 20
146.9500922518404
 30
0.0
 10
236.0528402206911
 20
146.8120401266376
 30
0.0
 10
236.0935191064586
 20
146.5408013028834
 30
0.0
 10
236.1537249725628
 20
146.1464487404627
 30
0.0
 10
236.2119083437191
 20
145.7701617017729
 30
0.0
 10
236.2680543722741
 20
145.411952060289
 30
0.0
 10
236.3550084655702
 20
144.8642081587623
 30
0.0
 10
236.4709241879202
 20
144.1512655170998
 30
0.0
 10
236.6193116583657
 20
143.2703347504179
 30
0.0
 10
236.7654520431755
 20
142.4333452299738
 30
0.0
 10
236.9622229041728
 20
141.348014132902
 30
0.0
 10
237.2065947759312
 20
140.0768628450673
 30
0.0
 10
237.4502796537231
 20
138.9136738804442
 30
0.0
 10
237.6422276630767
 20
138.0607314824344
 30
0.0
 10
237.7850765569707
 20
137.4580273906612
 30
0.0
 10
237.9252036932438
 20
136.8989156944774
 30
0.0
 10
238.0487849374175
 20
136.434864691658
 30
0.0
 10
238.1550411514747
 20
136.0576207327393
 30
0.0
 10
238.2451975932881
 20
135.7514994573546
 30
0.0
 10
238.3040572783547
 20
135.5642765224082
 30
0.0
 10
238.3333260768965
 20
135.4711773092685
 30
0.0
  0
LINE
  5
13F
330
1F
100
AcDbEntity
  8
0
  6
HIDDEN
 62
     7
370
     0
100
AcDbLine
 10
236.0321340985
 20
146.9500925916
 30
0.0
 11
218.2239575214
 21
148.8218069601
 31
0.0
  0
ELLIPSE
  5
140
330
1F
100
AcDbEntity
  8
0
  6
HIDDEN
 62
     7
370
     0
100
AcDbEllipse
 10
225.3111102198
 20
161.1774980466
 30
0.0
 11
-2.733626938423214
 21
26.42588789006402
 31
0.0
210
0.0
220
0.0
230
1.0
 40
0.0894011665
 41
2.914807355110403
 42
3.094596418690398
  0
ELLIPSE
  5
141
330
1F
100
AcDbEntity
  8
0
  6
HIDDEN
 62
     7
370
     0
100
AcDbEllipse
 10
230.9399331258
 20
146.91534735
 30
0.0
 11
2.96722217003807
 21
-0.5785035440251819
 31
0.0
210
0.0
220
0.0
230
1.0
 40
0.1845741307
 41
3.430111266356187
 42
4.018063484422757
  0
ELLIPSE
  5
142
330
1F
100
AcDbEntity
  8
0
  6
HIDDEN
 62
     7
370
     0
100
AcDbEllipse
 10
231.410785903
 20
145.8509506333
 30
0.0
 11
-0.9382876123696918
 21
2.751666891553327
 31
0.0
210
0.0
220
0.0
230
1.0
 40
0.8587453104
 41
0.7360393123552321
 42
0.9245808423814814
  0
ELLIPSE
  5
143
330
1F
100
AcDbEntity
  8
0
  6
HIDDEN
 62
     7
370
     0
100
AcDbEllipse
 10
231.410785903
 20
145.8509506333
 30
0.0
 11
-0.9382876123696918
 21
2.751666891553327
 31
0.0
210
0.0
220
0.0
230
1.0
 40
0.8587453104
 41
4.739814909466726
 42
4.848839927572559
  0
SPLINE
  5
144
330
1F
100
AcDbEntity
  8
0
  6
HIDDEN
 62
     7
370
     0
100
AcDbSpline
210
0.0
220
0.0
230
1.0
 70
     8
 71
     3
 72
    22
 73
    18
 74
     0
 42
0.00000001
 43
0.00000001
 12
1.0
 22
0.0
 32
0.0
 13
1.0
 23
0.0
 33
0.0
 40
0.0
 40
0.0
 40
0.0
 40
0.0
 40
0.1250000000000004
 40
0.1250000000000004
 40
0.2500000000000008
 40
0.2500000000000008
 40
0.5000000000000019
 40
0.5000000000000019
 40
0.6250000000000014
 40
0.6250000000000014
 40
0.7500000000000009
 40
0.7500000000000009
 40
0.8750000000000004
 40
0.8750000000000004
 40
0.9375000000000002
 40
0.9375000000000002
 40
1.0
 40
1.0
 40
1.0
 40
1.0
 10
231.7466733624777
 20
151.2540729630844
 30
0.0
 10
231.7760116527847
 20
151.2152248535998
 30
0.0
 10
231.7964495614482
 20
151.1628191452181
 30
0.0
 10
231.823261572538
 20
151.0380860098927
 30
0.0
 10
231.8295444013809
 20
150.9654590287718
 30
0.0
 10
231.8280816801818
 20
150.7268268054074
 30
0.0
 10
231.8014148699399
 20
150.5402977939829
 30
0.0
 10
231.7100893858781
 20
150.2300602849602
 30
0.0
 10
231.6708993272779
 20
150.1213971939427
 30
0.0
 10
231.5674396973271
 20
149.8928366966541
 30
0.0
 10
231.5033087236857
 20
149.7729046449126
 30
0.0
 10
231.3363344337101
 20
149.5236600493364
 30
0.0
 10
231.233746384534
 20
149.3934564323959
 30
0.0
 10
231.0260622118469
 20
149.1940289771763
 30
0.0
 10
230.9465712159974
 20
149.1258526170389
 30
0.0
 10
230.7591268588326
 20
148.9904972770495
 30
0.0
 10
230.6517812352809
 20
148.9238543406327
 30
0.0
 10
230.5279722310786
 20
148.862910108213
 30
0.0
  0
SPLINE
  5
145
330
1F
100
AcDbEntity
  8
0
  6
HIDDEN
 62
     7
370
     0
100
AcDbSpline
210
0.0
220
0.0
230
1.0
 70
     8
 71
     3
 72
     8
 73
     4
 74
     0
 42
0.00000001
 43
0.00000001
 12
1.0
 22
0.0
 32
0.0
 13
1.0
 23
0.0
 33
0.0
 40
0.0
 40
0.0
 40
0.0
 40
0.0
 40
1.0
 40
1.0
 40
1.0
 40
1.0
 10
230.5279722310786
 20
148.862910108213
 30
0.0
 10
230.3849557591057
 20
148.8171276547963
 30
0.0
 10
230.2443330341245
 20
148.7640775901209
 30
0.0
 10
230.1060781139135
 20
148.7038386768887
 30
0.0
  0
SPLINE
  5
146
330
1F
100
AcDbEntity
  8
0
  6
HIDDEN
 62
     7
370
     0
100
AcDbSpline
210
0.0
220
0.0
230
1.0
 70
     8
 71
     3
 72
    22
 73
    18
 74
     0
 42
0.00000001
 43
0.00000001
 12
1.0
 22
0.0
 32
0.0
 13
1.0
 23
0.0
 33
0.0
 40
0.0
 40
0.0
 40
0.0
 40
0.0
 40
0.0624999999999973
 40
0.0624999999999973
 40
0.1249999999999946
 40
0.1249999999999946
 40
0.1874999999999919
 40
0.1874999999999919
 40
0.2499999999999892
 40
0.2499999999999892
 40
0.3749999999999911
 40
0.3749999999999911
 40
0.499999999999993
 40
0.499999999999993
 40
0.7499999999999964
 40
0.7499999999999964
 40
1.0
 40
1.0
 40
1.0
 40
1.0
 10
230.1060781139135
 20
148.7038386768888
 30
0.0
 10
229.9689976998189
 20
148.6664888722847
 30
0.0
 10
229.8404360654124
 20
148.6438066300194
 30
0.0
 10
229.5937836656997
 20
148.6160164514457
 30
0.0
 10
229.4811642196234
 20
148.6115707033133
 30
0.0
 10
229.2691140934609
 20
148.6132351265591
 30
0.0
 10
229.169228292791
 20
148.6195874215988
 30
0.0
 10
228.9827870145054
 20
148.6388722448339
 30
0.0
 10
228.8956673626555
 20
148.651822059423
 30
0.0
 10
228.6472879861359
 20
148.6971636705131
 30
0.0
 10
228.498776138022
 20
148.7359190689668
 30
0.0
 10
228.2239217091482
 20
148.8219277907768
 30
0.0
 10
228.097867092288
 20
148.8693967879655
 30
0.0
 10
227.7522629056542
 20
149.0159212717339
 30
0.0
 10
227.5614415377541
 20
149.1198842265767
 30
0.0
 10
227.2526711062825
 20
149.3183838745723
 30
0.0
 10
227.1333896754467
 20
149.4135556188301
 30
0.0
 10
227.0739489310367
 20
149.4922637004025
 30
0.0
  0
ELLIPSE
  5
147
330
1F
100
AcDbEntity
  8
0
  6
HIDDEN
 62
     7
370
     0
100
AcDbEllipse
 10
230.4785836404
 20
147.958261189
 30
0.0
 11
-0.9382876123696917
 21
2.751666891553298
 31
0.0
210
0.0
220
0.0
230
1.0
 40
0.8587453104
 41
1.512533060448173
 42
1.598222255876948
  0
ELLIPSE
  5
148
330
1F
100
AcDbEntity
  8
0
  6
HIDDEN
 62
     7
370
     0
100
AcDbEllipse
 10
230.6599912355
 20
147.5481762158
 30
0.0
 11
2.967222170038127
 21
-0.5785035440251534
 31
0.0
210
0.0
220
0.0
230
1.0
 40
0.1845741307
 41
4.206605014448918
 42
6.376989706411174
  0
LINE
  5
149
330
1F
100
AcDbEntity
  8
0
  6
HIDDEN
 62
     7
370
     0
100
AcDbLine
 10
227.0739434189
 20
149.4922632876
 30
0.0
 11
226.7763076253
 21
149.8863794434
 31
0.0
  0
LINE
  5
14A
330
1F
100
AcDbEntity
  8
0
  6
HIDDEN
 62
     7
370
     0
100
AcDbLine
 10
231.4490286536
 20
151.6481893662
 30
0.0
 11
231.7466793484
 21
151.2540732103
 31
0.0
  0
ELLIPSE
  5
14B
330
1F
100
AcDbEntity
  8
0
  6
HIDDEN
 62
     7
370
     0
100
AcDbEllipse
 10
228.1851471874
 20
153.5991134083
 30
0.0
 11
3.671213746604337
 21
2.058398841174096
 31
0.0
210
0.0
220
0.0
230
1.0
 40
0.8772799171
 41
3.903713282588198
 42
5.178837123826587
  0
ELLIPSE
  5
14C
330
1F
100
AcDbEntity
  8
0
  6
HIDDEN
 62
     7
370
     0
100
AcDbEllipse
 10
226.8627764309
 20
155.3501221886
 30
0.0
 11
-2.57010555020483
 21
3.403188827857236
 31
0.0
210
0.0
220
0.0
230
1.0
 40
0.9848432766
 41
0.0
 42
6.283185307179586
  0
ARC
  5
14D
330
1F
100
AcDbEntity
  8
0
  6
HIDDEN
 62
     7
370
     0
100
AcDbCircle
 10
228.8457215201
 20
152.6856473966
 30
0.0
 40
4.176516676853173
100
AcDbArc
 50
293.752595806
 51
287.5640516073
  0
ARC
  5
14E
330
1F
100
AcDbEntity
  8
0
  6
HIDDEN
 62
     7
370
     0
100
AcDbCircle
 10
225.6885346242
 20
144.9948210708
 30
0.0
 40
2.101423192609754
100
AcDbArc
 50
85.5001690463
 51
216.3295267509
  0
LINE
  5
14F
330
1F
100
AcDbEntity
  8
0
  6
HIDDEN
 62
     7
370
     0
100
AcDbLine
 10
225.8534042067
 20
147.0897667634
 30
0.0
 11
228.9592532343
 21
146.8646344322
 31
0.0
  0
LINE
  5
150
330
1F
100
AcDbEntity
  8
0
  6
HIDDEN
 62
     7
370
     0
100
AcDbLine
 10
229.1289774603
 20
147.3493561673
 30
0.0
 11
225.8967516846
 21
147.58365085
 31
0.0
  0
ARC
  5
151
330
1F
100
AcDbEntity
  8
0
  6
HIDDEN
 62
     7
370
     0
100
AcDbCircle
 10
225.3781667693
 20
145.4067304708
 30
0.0
 40
2.096699575220248
100
AcDbArc
 50
85.4060932363
 51
227.4856393336
  0
LINE
  5
152
330
1F
100
AcDbEntity
  8
0
  6
HIDDEN
 62
     7
370
     0
100
AcDbLine
 10
227.946883244
 20
135.3330188024
 30
0.0
 11
227.2890267796
 21
142.810691573
 31
0.0
  0
LINE
  5
153
330
1F
100
AcDbEntity
  8
0
  6
HIDDEN
 62
     7
370
     0
100
AcDbLine
 10
226.7860082812
 20
142.8471528518
 30
0.0
 11
227.44353692
 21
135.3733152676
 31
0.0
  0
LINE
  5
154
330
1F
100
AcDbEntity
  8
0
  6
HIDDEN
 62
     7
370
     0
100
AcDbLine
 10
233.7471453375
 20
146.7318548414
 30
0.0
 11
233.8280437417
 21
146.5117106739
 31
0.0
  0
LINE
  5
155
330
1F
100
AcDbEntity
  8
0
  6
HIDDEN
 62
     7
370
     0
100
AcDbLine
 10
233.8280437417
 20
146.5117106739
 30
0.0
 11
238.1867973036
 21
146.1957594904
 31
0.0
  0
LINE
  5
156
330
1F
100
AcDbEntity
  8
0
  6
HIDDEN
 62
     7
370
     0
100
AcDbLine
 10
238.1867973036
 20
146.1957594904
 30
0.0
 11
238.1427792735
 21
146.6959747079
 31
0.0
  0
LINE
  5
157
330
1F
100
AcDbEntity
  8
0
  6
HIDDEN
 62
     7
370
     0
100
AcDbLine
 10
238.1427792735
 20
146.6959747079
 30
0.0
 11
233.6241660542
 21
147.0235143381
 31
0.0
  0
LINE
  5
158
330
1F
100
AcDbEntity
  8
0
  6
HIDDEN
 62
     7
370
     0
100
AcDbLine
 10
231.4490286536
 20
151.6481893662
 30
0.0
 11
232.4957607216
 21
148.4524081054
 31
0.0
  0
LINE
  5
159
330
1F
100
AcDbEntity
  8
0
  6
HIDDEN
 62
     7
370
     0
100
AcDbLine
 10
233.8280437417
 20
146.5117106739
 30
0.0
 11
233.5207370944
 21
146.918638103
 31
0.0
  0
LINE
  5
15A
330
1F
100
AcDbEntity
  8
0
  6
HIDDEN
 62
     7
370
     0
100
AcDbLine
 10
233.5207370944
 20
146.918638103
 30
0.0
 11
234.3769578166
 21
144.5887689072
 31
0.0
  0
SPLINE
  5
15B
330
1F
100
AcDbEntity
  8
0
  6
HIDDEN
 62
     7
370
     0
100
AcDbSpline
210
0.0
220
0.0
230
1.0
 70
     8
 71
     3
 72
     8
 73
     4
 74
     0
 42
0.00000001
 43
0.00000001
 12
1.0
 22
0.0
 32
0.0
 13
1.0
 23
0.0
 33
0.0
 40
0.0
 40
0.0
 40
0.0
 40
0.0
 40
1.0
 40
1.0
 40
1.0
 40
1.0
 10
234.5730506059816
 20
143.9821796312929
 30
0.0
 10
234.5042016198985
 20
144.1923530774762
 30
0.0
 10
234.4394644570039
 20
144.3931170585655
 30
0.0
 10
234.3769609696276
 20
144.5887695134877
 30
0.0
  0
LINE
  5
15C
330
1F
100
AcDbEntity
  8
0
  6
HIDDEN
 62
     7
370
     0
100
AcDbLine
 10
234.5730570979
 20
143.9821798879
 30
0.0
 11
234.3321202225
 21
144.301213749
 31
0.0
  0
LINE
  5
15D
330
1F
100
AcDbEntity
  8
0
  6
HIDDEN
 62
     7
370
     0
100
AcDbLine
 10
237.8794757552
 20
146.6026869196
 30
0.0
 11
238.1867973036
 21
146.1957594904
 31
0.0
  0
LINE
  5
15E
330
1F
100
AcDbEntity
  8
0
  6
HIDDEN
 62
     7
370
     0
100
AcDbLine
 10
238.3333204217
 20
135.4711786437
 30
0.0
 11
238.8139871783
 21
135.9806009161
 31
0.0
  0
LINE
  5
15F
330
1F
100
AcDbEntity
  8
0
  6
HIDDEN
 62
     7
370
     0
100
AcDbLine
 10
229.7042367882
 20
142.8269599157
 30
0.0
 11
228.1422225661
 21
147.0773568901
 31
0.0
  0
ARC
  5
160
330
1F
100
AcDbEntity
  8
0
  6
HIDDEN
 62
     7
370
     0
100
AcDbCircle
 10
232.9922528541
 20
141.1838558896
 30
0.0
 40
3.675709522020886
100
AcDbArc
 50
153.4475525254
 51
67.8694808523
  0
LINE
  5
161
330
1F
100
AcDbEntity
  8
0
  6
HIDDEN
 62
     7
370
     0
100
AcDbLine
 10
237.8794757552
 20
146.6026869196
 30
0.0
 11
233.5207370944
 21
146.918638103
 31
0.0
  0
LINE
  5
162
330
1F
100
AcDbEntity
  8
0
  6
HIDDEN
 62
     7
370
     0
100
AcDbLine
 10
226.9817052312
 20
143.2176180708
 30
0.0
 11
227.6036796994
 21
136.148000561
 31
0.0
  0
LINE
  5
163
330
1F
100
AcDbEntity
  8
0
  6
HIDDEN
 62
     7
370
     0
100
AcDbLine
 10
228.0649749465
 20
147.3141084018
 30
0.0
 11
225.5460975594
 21
147.4966941926
 31
0.0
  0
LINE
  5
164
330
1F
100
AcDbEntity
  8
0
  6
HIDDEN
 62
     7
370
     0
100
AcDbLine
 10
238.8139871783
 20
135.9806009161
 30
0.0
 11
237.8794757552
 21
146.6026869196
 31
0.0
  0
LINE
  5
165
330
1F
100
AcDbEntity
  8
0
  6
HIDDEN
 62
     7
370
     0
100
AcDbLine
 10
64.2494393415
 20
145.1546675119
 30
0.0
 11
64.2494393415
 21
139.1003564525
 31
0.0
  0
LINE
  5
166
330
1F
100
AcDbEntity
  8
0
  6
HIDDEN
 62
     7
370
     0
100
AcDbLine
 10
62.749440027
 20
145.587680355
 30
0.0
 11
62.749440027
 21
139.9663821387
 31
0.0
  0
LINE
  5
167
330
1F
100
AcDbEntity
  8
0
  6
HIDDEN
 62
     7
370
     0
100
AcDbLine
 10
98.549438817
 20
144.7237995046
 30
0.0
 11
98.549438817
 21
138.238620438
 31
0.0
  0
SPLINE
  5
168
330
1F
100
AcDbEntity
  8
0
  6
HIDDEN
 62
     7
370
     0
100
AcDbSpline
210
0.0
220
0.0
230
1.0
 70
     8
 71
     3
 72
    16
 73
    12
 74
     0
 42
0.00000001
 43
0.00000001
 12
1.0
 22
0.0
 32
0.0
 13
1.0
 23
0.0
 33
0.0
 40
0.0
 40
0.0
 40
0.0
 40
0.0
 40
0.2499999999999995
 40
0.2499999999999995
 40
0.3749999999999994
 40
0.3749999999999994
 40
0.4999999999999994
 40
0.4999999999999994
 40
0.7499999999999997
 40
0.7499999999999997
 40
1.0
 40
1.0
 40
1.0
 40
1.0
 10
99.42811846150637
 20
143.6748134963239
 30
0.0
 10
99.26688598402193
 20
142.9604193341318
 30
0.0
 10
99.14640614438228
 20
142.3070770714232
 30
0.0
 10
99.02402562706895
 20
141.4188218296193
 30
0.0
 10
98.9930479666715
 20
141.1381412932675
 30
0.0
 10
98.95143422904356
 20
140.6091073034275
 30
0.0
 10
98.94119831611073
 20
140.365786324849
 30
0.0
 10
98.94100991905462
 20
139.6977636343358
 30
0.0
 10
98.98115462169224
 20
139.3340827249163
 30
0.0
 10
99.1453083766318
 20
138.774191852368
 30
0.0
 10
99.26686002704136
 20
138.5866705602509
 30
0.0
 10
99.42811846150637
 20
138.4886391675629
 30
0.0
  0
LINE
  5
169
330
1F
100
AcDbEntity
  8
0
  6
HIDDEN
 62
     7
370
     0
100
AcDbLine
 10
64.2494393415
 20
181.4170837927
 30
0.0
 11
64.2494393415
 21
175.3627727333
 31
0.0
  0
LINE
  5
16A
330
1F
100
AcDbEntity
  8
0
  6
HIDDEN
 62
     7
370
     0
100
AcDbLine
 10
62.749440027
 20
180.5510581064
 30
0.0
 11
62.749440027
 21
174.9297598901
 31
0.0
  0
LINE
  5
16B
330
1F
100
AcDbEntity
  8
0
  6
HIDDEN
 62
     7
370
     0
100
AcDbLine
 10
98.549438817
 20
182.2788198072
 30
0.0
 11
98.549438817
 21
175.7936407405
 31
0.0
  0
SPLINE
  5
16C
330
1F
100
AcDbEntity
  8
0
  6
HIDDEN
 62
     7
370
     0
100
AcDbSpline
210
0.0
220
0.0
230
1.0
 70
     8
 71
     3
 72
    16
 73
    12
 74
     0
 42
0.00000001
 43
0.00000001
 12
1.0
 22
0.0
 32
0.0
 13
1.0
 23
0.0
 33
0.0
 40
0.0
 40
0.0
 40
0.0
 40
0.0
 40
0.2500000000000001
 40
0.2500000000000001
 40
0.3749999999999999
 40
0.3749999999999999
 40
0.4999999999999998
 40
0.4999999999999998
 40
0.7499999999999999
 40
0.7499999999999999
 40
1.0
 40
1.0
 40
1.0
 40
1.0
 10
99.42811846150637
 20
182.0288010775671
 30
0.0
 10
99.26688598402193
 20
181.9307854645124
 30
0.0
 10
99.14640614438228
 20
181.7440494328363
 30
0.0
 10
99.02402562706895
 20
181.3310096252774
 30
0.0
 10
98.9930479666715
 20
181.1710091260445
 30
0.0
 10
98.95143422904356
 20
180.8042034749533
 30
0.0
 10
98.94119831611074
 20
180.6008663223294
 30
0.0
 10
98.94100991905464
 20
179.9335790557027
 30
0.0
 10
98.98115462169224
 20
179.4127645918147
 30
0.0
 10
99.1453083766318
 20
178.215405576337
 30
0.0
 10
99.26686002704136
 20
177.557135922041
 30
0.0
 10
99.42811846150637
 20
176.8426267488061
 30
0.0
  0
ARC
  5
16D
330
1F
100
AcDbEntity
  8
0
  6
HIDDEN
 62
     7
370
     0
100
AcDbCircle
 10
232.9318584155
 20
141.2575213311
 30
0.0
 40
3.1807699328901
100
AcDbArc
 50
162.379579648
 51
58.9373330974
  0
SPLINE
  5
16E
330
1F
100
AcDbEntity
  8
0
  6
HIDDEN
 62
     7
370
     0
100
AcDbSpline
210
0.0
220
0.0
230
1.0
 70
     8
 71
     3
 72
     8
 73
     4
 74
     0
 42
0.00000001
 43
0.00000001
 12
1.0
 22
0.0
 32
0.0
 13
1.0
 23
0.0
 33
0.0
 40
0.0
 40
0.0
 40
0.0
 40
0.0
 40
1.0
 40
1.0
 40
1.0
 40
1.0
 10
229.7042365381897
 20
142.8269602508053
 30
0.0
 10
229.7667400255659
 20
142.631307795883
 30
0.0
 10
229.8314771884607
 20
142.4305438147938
 30
0.0
 10
229.9003261745437
 20
142.2203703686104
 30
0.0
  0
SPLINE
  5
16F
330
1F
100
AcDbEntity
  8
0
  6
HIDDEN
 62
     7
370
     0
100
AcDbSpline
210
0.0
220
0.0
230
1.0
 70
     8
 71
     3
 72
    10
 73
     6
 74
     0
 42
0.00000001
 43
0.00000001
 12
1.0
 22
0.0
 32
0.0
 13
1.0
 23
0.0
 33
0.0
 40
0.0
 40
0.0
 40
0.0
 40
0.0
 40
0.5
 40
0.5
 40
1.0
 40
1.0
 40
1.0
 40
1.0
 10
229.6593895951995
 20
142.5394049993013
 30
0.0
 10
229.6099935526883
 20
142.604812453093
 30
0.0
 10
229.5783292293877
 20
142.7226822216111
 30
0.0
 10
229.5387205687566
 20
143.0023917076343
 30
0.0
 10
229.5316935273068
 20
143.1656216222123
 30
0.0
 10
229.5405522322268
 20
143.3418652970818
 30
0.0
  0
ARC
  5
170
330
1F
100
AcDbEntity
  8
0
  6
HIDDEN
 62
     7
370
     0
100
AcDbCircle
 10
232.3889006027
 20
141.9494839077
 30
0.0
 40
3.17046409689673
100
AcDbArc
 50
153.9488792704
 51
354.2514698099
  0
ARC
  5
171
330
1F
100
AcDbEntity
  8
0
  6
HIDDEN
 62
     7
370
     0
100
AcDbCircle
 10
232.4514758624
 20
142.0096469876
 30
0.0
 40
3.114029340334345
100
AcDbArc
 50
0.0451536609
 51
67.5524819202
  0
SPLINE
  5
172
330
1F
100
AcDbEntity
  8
0
  6
HIDDEN
 62
     7
370
     0
100
AcDbSpline
210
0.0
220
0.0
230
1.0
 70
     8
 71
     3
 72
    10
 73
     6
 74
     0
 42
0.00000001
 43
0.00000001
 12
1.0
 22
0.0
 32
0.0
 13
1.0
 23
0.0
 33
0.0
 40
0.0
 40
0.0
 40
0.0
 40
0.0
 40
0.5000000000000002
 40
0.5000000000000002
 40
1.0
 40
1.0
 40
1.0
 40
1.0
 10
233.6405300170172
 20
144.8877255214592
 30
0.0
 10
233.8039278270034
 20
144.7766464800768
 30
0.0
 10
233.9469496384492
 20
144.6655333007679
 30
0.0
 10
234.1855223333264
 20
144.4609594918547
 30
0.0
 10
234.2828059028656
 20
144.3665052987389
 30
0.0
 10
234.3321140266374
 20
144.3012142619838
 30
0.0
  0
LINE
  5
173
330
1F
100
AcDbEntity
  8
0
  6
HIDDEN
 62
     7
370
     0
100
AcDbLine
 10
229.659384293
 20
142.5394047576
 30
0.0
 11
229.9003211684
 21
142.2203708964
 31
0.0
  0
SPLINE
  5
174
330
1F
100
AcDbEntity
  8
0
  6
HIDDEN
 62
     7
370
     0
100
AcDbSpline
210
0.0
220
0.0
230
1.0
 70
     8
 71
     3
 72
    25
 73
    21
 74
     0
 42
0.00000001
 43
0.00000001
 12
1.0
 22
0.0
 32
0.0
 13
1.0
 23
0.0
 33
0.0
 40
0.0
 40
0.0
 40
0.0
 40
0.0
 40
0.0248386206870954
 40
0.0496736036510163
 40
0.0745124208150297
 40
0.0993625406438073
 40
0.1242314214189899
 40
0.1864347327420401
 40
0.2487236138697043
 40
0.3110567105636841
 40
0.3734707153072653
 40
0.4984224523302085
 40
0.623579153080609
 40
0.6862184073108895
 40
0.7489346944276929
 40
0.811643489155099
 40
0.874421012900377
 40
0.9162554388101727
 40
0.9581039345957127
 40
1.0
 40
1.0
 40
1.0
 40
1.0
 10
238.8139842748018
 20
135.9806014254
 30
0.0
 10
238.7954888225794
 20
136.0382859409527
 30
0.0
 10
238.7585006268735
 20
136.153646523912
 30
0.0
 10
238.7024594140946
 20
136.3357557829838
 30
0.0
 10
238.6460227620986
 20
136.5244617020354
 30
0.0
 10
238.5891491398213
 20
136.7204198139487
 30
0.0
 10
238.5032009083987
 20
137.0249669782814
 30
0.0
 10
238.3872004050765
 20
137.4556177365279
 30
0.0
 10
238.2400826516314
 20
138.0364038909581
 30
0.0
 10
238.0910463310766
 20
138.6587916064935
 30
0.0
 10
237.8901252914721
 20
139.5427532070003
 30
0.0
 10
237.6355762029078
 20
140.7459214230931
 30
0.0
 10
237.3787376358428
 20
142.0694183452102
 30
0.0
 10
237.1729432936062
 20
143.1947943830783
 30
0.0
 10
237.0186493350051
 20
144.0710164314745
 30
0.0
 10
236.8647360721735
 20
144.9775508670402
 30
0.0
 10
236.7285733152628
 20
145.8084065803304
 30
0.0
 10
236.6100854329855
 20
146.5528905587903
 30
0.0
 10
236.5089851007481
 20
147.2017423261185
 30
0.0
 10
236.4421073075671
 20
147.643358026895
 30
0.0
 10
236.4086494166021
 20
147.8642913032824
 30
0.0
  0
LWPOLYLINE
  5
175
330
1F
100
AcDbEntity
  8
0
  6
HIDDEN
 62
     7
370
     0
100
AcDbPolyline
 90
       12
 70
   128
 43
0.0
 10
227.8230396933
 20
146.6905981827
 10
228.0818430609
 20
146.2250905636
 10
228.5089550442
 20
145.8686613071
 10
229.0697751469
 20
145.6501870009
 10
229.7188697285
 20
145.587365568
 10
230.4036525912
 20
145.6852866861
 10
231.0686467118
 20
145.936018281
 10
231.6599843926
 20
146.3192472759
 10
232.1297584004
 20
146.8039261702
 10
232.4398962683
 20
147.3507904041
 10
232.5652895398
 20
147.9155341688
 10
232.4957607216
 20
148.4524081054
  0
ELLIPSE
  5
176
330
1F
100
AcDbEntity
  8
0
  6
HIDDEN
 62
     7
370
     0
100
AcDbEllipse
 10
231.1095208738
 20
145.4236986844
 30
0.0
 11
-0.9382876123696634
 21
2.751666891553298
 31
0.0
210
0.0
220
0.0
230
1.0
 40
0.8587453104
 41
2.098545205328432
 42
4.239491960015252
  0
LINE
  5
177
330
1F
100
AcDbEntity
  8
0
  6
HIDDEN
 62
     7
370
     0
100
AcDbLine
 10
227.8230396933
 20
146.6905981827
 30
0.0
 11
226.7763076253
 21
149.8863794434
 31
0.0
  0
CIRCLE
  5
178
330
1F
100
AcDbEntity
  8
0
  6
HIDDEN
 62
     7
370
     0
100
AcDbCircle
 10
196.7494388051
 20
160.2587201226
 30
0.0
 40
2.500000000000028
  0
CIRCLE
  5
179
330
1F
100
AcDbEntity
  8
0
  6
HIDDEN
 62
     7
370
     0
100
AcDbCircle
 10
196.7494388051
 20
160.2587201226
 30
0.0
 40
3.0
  0
LINE
  5
17A
330
1F
100
AcDbEntity
  8
0
  6
HIDDEN
 62
     7
370
     0
100
AcDbLine
 10
62.749440027
 20
174.9297598901
 30
0.0
 11
62.749440027
 21
163.1607075281
 31
0.0
  0
LINE
  5
17B
330
1F
100
AcDbEntity
  8
0
  6
HIDDEN
 62
     7
370
     0
100
AcDbLine
 10
62.749440027
 20
157.3567327171
 30
0.0
 11
62.749440027
 21
145.587680355
 31
0.0
  0
LINE
  5
17C
330
1F
100
AcDbEntity
  8
0
  6
HIDDEN
 62
     7
370
     0
100
AcDbLine
 10
64.2494393415
 20
156.2935090217
 30
0.0
 11
64.2494393415
 21
145.1546675119
 31
0.0
  0
LINE
  5
17D
330
1F
100
AcDbEntity
  8
0
  6
HIDDEN
 62
     7
370
     0
100
AcDbLine
 10
64.2494393415
 20
175.3627727333
 30
0.0
 11
64.2494393415
 21
164.2239312234
 31
0.0
  0
LINE
  5
17E
330
1F
100
AcDbEntity
  8
0
  6
HIDDEN
 62
     7
370
     0
100
AcDbLine
 10
100.5494388101
 20
175.2964271757
 30
0.0
 11
100.5494388101
 21
145.2210130694
 31
0.0
  0
LINE
  5
17F
330
1F
100
AcDbEntity
  8
0
  6
HIDDEN
 62
     7
370
     0
100
AcDbLine
 10
98.549438817
 20
175.7936407405
 30
0.0
 11
98.549438817
 21
144.7237995046
 31
0.0
  0
SPLINE
  5
180
330
1F
100
AcDbEntity
  8
0
  6
HIDDEN
 62
     7
370
     0
100
AcDbSpline
210
0.0
220
0.0
230
1.0
 70
     8
 71
     3
 72
    24
 73
    20
 74
     0
 42
0.00000001
 43
0.00000001
 12
1.0
 22
0.0
 32
0.0
 13
1.0
 23
0.0
 33
0.0
 40
0.0
 40
0.0
 40
0.0
 40
0.0
 40
0.1249999999999999
 40
0.1249999999999999
 40
0.2499999999999999
 40
0.2499999999999999
 40
0.3749999999999998
 40
0.3749999999999998
 40
0.4374999999999998
 40
0.4374999999999998
 40
0.4999999999999998
 40
0.4999999999999998
 40
0.6249999999999998
 40
0.6249999999999998
 40
0.7499999999999999
 40
0.7499999999999999
 40
0.8749999999999999
 40
0.8749999999999999
 40
1.0
 40
1.0
 40
1.0
 40
1.0
 10
69.19943880506602
 20
156.1727590694658
 30
0.0
 10
69.43724243734111
 20
156.4717661717959
 30
0.0
 10
69.6673280985524
 20
156.7761040231146
 30
0.0
 10
70.10208149716223
 20
157.4018375605106
 30
0.0
 10
70.3070142894484
 20
157.7230622878381
 30
0.0
 10
70.67211623994709
 20
158.3949880585708
 30
0.0
 10
70.8339166257386
 20
158.7503032904497
 30
0.0
 10
71.00577683031831
 20
159.3005345118022
 30
0.0
 10
71.05136202197845
 20
159.4869382967827
 30
0.0
 10
71.1138367615533
 20
159.8670727988789
 30
0.0
 10
71.13050790730178
 20
160.0627425911648
 30
0.0
 10
71.13102895047827
 20
160.6412229698392
 30
0.0
 10
71.06658664959157
 20
161.019134808808
 30
0.0
 10
70.83673755621825
 20
161.7611028339064
 30
0.0
 10
70.67821687855513
 20
162.1098182940674
 30
0.0
 10
70.31398254865495
 20
162.7829106918005
 30
0.0
 10
70.10724630859137
 20
163.1078631790422
 30
0.0
 10
69.66930836285101
 20
163.738786989504
 30
0.0
 10
69.43803563557147
 20
164.0446767298446
 30
0.0
 10
69.19943880506612
 20
164.3446811756641
 30
0.0
  0
LINE
  5
181
330
1F
100
AcDbEntity
  8
0
  6
HIDDEN
 62
     7
370
     0
100
AcDbLine
 10
69.199437452
 20
156.1727588589
 30
0.0
 11
69.199437452
 21
164.3446813862
 31
0.0
  0
SPLINE
  5
182
330
1F
100
AcDbEntity
  8
0
  6
HIDDEN
 62
     7
370
     0
100
AcDbSpline
210
0.0
220
0.0
230
1.0
 70
     8
 71
     3
 72
     8
 73
     4
 74
     0
 42
0.00000001
 43
0.00000001
 12
1.0
 22
0.0
 32
0.0
 13
1.0
 23
0.0
 33
0.0
 40
0.0000249638557296
 40
0.0000249638557296
 40
0.0000249638557296
 40
0.0000249638557296
 40
0.0049776420541172
 40
0.0049776420541172
 40
0.0049776420541172
 40
0.0049776420541172
 10
64.249438805066
 20
156.2935092257285
 30
0.0
 10
65.89941503957556
 20
156.2522299879602
 30
0.0
 10
67.5494163593206
 20
156.2120083067208
 30
0.0
 10
69.19943880506602
 20
156.1727590694658
 30
0.0
  0
SPLINE
  5
183
330
1F
100
AcDbEntity
  8
0
  6
HIDDEN
 62
     7
370
     0
100
AcDbSpline
210
0.0
220
0.0
230
1.0
 70
     8
 71
     3
 72
     8
 73
     4
 74
     0
 42
0.00000001
 43
0.00000001
 12
1.0
 22
0.0
 32
0.0
 13
1.0
 23
0.0
 33
0.0
 40
0.0000249631533153
 40
0.0000249631533153
 40
0.0000249631533153
 40
0.0000249631533153
 40
0.0049776413517029
 40
0.0049776413517029
 40
0.0049776413517029
 40
0.0049776413517029
 10
69.19943880506604
 20
164.3446811756642
 30
0.0
 10
67.5494163593206
 20
164.3054319384092
 30
0.0
 10
65.89941503957557
 20
164.2652102571698
 30
0.0
 10
64.24943880506603
 20
164.2239310194015
 30
0.0
  0
SPLINE
  5
184
330
1F
100
AcDbEntity
  8
0
  6
HIDDEN
 62
     7
370
     0
100
AcDbSpline
210
0.0
220
0.0
230
1.0
 70
     8
 71
     3
 72
     8
 73
     4
 74
     0
 42
0.00000001
 43
0.00000001
 12
1.0
 22
0.0
 32
0.0
 13
1.0
 23
0.0
 33
0.0
 40
0.0
 40
0.0
 40
0.0
 40
0.0
 40
1.0
 40
1.0
 40
1.0
 40
1.0
 10
62.7494388050638
 20
157.3567327895847
 30
0.0
 10
63.21619941644158
 20
156.9413695439617
 30
0.0
 10
63.72194696322165
 20
156.596779114657
 30
0.0
 10
64.24943880506602
 20
156.2935092257285
 30
0.0
  0
SPLINE
  5
185
330
1F
100
AcDbEntity
  8
0
  6
HIDDEN
 62
     7
370
     0
100
AcDbSpline
210
0.0
220
0.0
230
1.0
 70
     8
 71
     3
 72
     8
 73
     4
 74
     0
 42
0.00000001
 43
0.00000001
 12
1.0
 22
0.0
 32
0.0
 13
1.0
 23
0.0
 33
0.0
 40
0.0
 40
0.0
 40
0.0
 40
0.0
 40
1.0
 40
1.0
 40
1.0
 40
1.0
 10
64.24943880506605
 20
164.2239310194016
 30
0.0
 10
63.72194696322251
 20
163.9206611304735
 30
0.0
 10
63.21619941644322
 20
163.5760707011695
 30
0.0
 10
62.74943880506603
 20
163.1607074555473
 30
0.0
  0
LINE
  5
186
330
1F
100
AcDbEntity
  8
0
  6
HIDDEN
 62
     7
370
     0
100
AcDbLine
 10
62.749440027
 20
157.3567327171
 30
0.0
 11
62.749440027
 21
163.1607075281
 31
0.0
  0
SPLINE
  5
187
330
1F
100
AcDbEntity
  8
0
  6
HIDDEN
 62
     7
370
     0
100
AcDbSpline
210
0.0
220
0.0
230
1.0
 70
     8
 71
     3
 72
    72
 73
    68
 74
     0
 42
0.00000001
 43
0.00000001
 12
1.0
 22
0.0
 32
0.0
 13
1.0
 23
0.0
 33
0.0
 40
-0.0312499999999998
 40
-0.0312499999999998
 40
0.0
 40
0.0
 40
0.03125
 40
0.03125
 40
0.0625000000000001
 40
0.0625000000000001
 40
0.0937500000000001
 40
0.0937500000000001
 40
0.1250000000000001
 40
0.1250000000000001
 40
0.1562500000000001
 40
0.1562500000000001
 40
0.1875000000000001
 40
0.1875000000000001
 40
0.2187500000000001
 40
0.2187500000000001
 40
0.2500000000000002
 40
0.2500000000000002
 40
0.2812500000000002
 40
0.2812500000000002
 40
0.3125000000000003
 40
0.3125000000000003
 40
0.3437500000000003
 40
0.3437500000000003
 40
0.3750000000000003
 40
0.3750000000000003
 40
0.3906250000000003
 40
0.3906250000000003
 40
0.4062500000000003
 40
0.4062500000000003
 40
0.4375000000000004
 40
0.4375000000000004
 40
0.4687500000000004
 40
0.4687500000000004
 40
0.5000000000000003
 40
0.5000000000000003
 40
0.5312500000000003
 40
0.5312500000000003
 40
0.5625000000000003
 40
0.5625000000000003
 40
0.5937500000000004
 40
0.5937500000000004
 40
0.6250000000000004
 40
0.6250000000000004
 40
0.6562500000000004
 40
0.6562500000000004
 40
0.6875000000000004
 40
0.6875000000000004
 40
0.7187500000000006
 40
0.7187500000000006
 40
0.7500000000000006
 40
0.7500000000000006
 40
0.7812500000000006
 40
0.7812500000000006
 40
0.8125000000000006
 40
0.8125000000000006
 40
0.8437500000000006
 40
0.8437500000000006
 40
0.8750000000000004
 40
0.8750000000000004
 40
0.9062500000000003
 40
0.9062500000000003
 40
0.9375000000000002
 40
0.9375000000000002
 40
0.9687500000000002
 40
0.9687500000000002
 40
1.0
 40
1.0
 40
1.03125
 40
1.03125
 10
81.87338512389125
 20
162.6995537723799
 30
0.0
 10
82.24781534376511
 20
163.109909572865
 30
0.0
 10
82.45266794503071
 20
163.2935586555235
 30
0.0
 10
82.8955361418777
 20
163.6205135590188
 30
0.0
 10
83.13549155919601
 20
163.7642917671986
 30
0.0
 10
83.63110254197053
 20
164.0018091226445
 30
0.0
 10
83.88836883312503
 20
164.0971286875423
 30
0.0
 10
84.42172260096208
 20
164.2412142201768
 30
0.0
 10
84.6960027408604
 20
164.2889502271464
 30
0.0
 10
85.24243127543994
 20
164.3345323676802
 30
0.0
 10
85.5170075939077
 20
164.3330986076079
 30
0.0
 10
86.06897476817842
 20
164.2801852995171
 30
0.0
 10
86.33959173075012
 20
164.2292155733129
 30
0.0
 10
86.8658769018293
 20
164.0806089463693
 30
0.0
 10
87.12350846523692
 20
163.9823235756122
 30
0.0
 10
87.61943462991043
 20
163.7380702164265
 30
0.0
 10
87.85241830770207
 20
163.5949900854043
 30
0.0
 10
88.28875158302705
 20
163.2671315349354
 30
0.0
 10
88.49403283688535
 20
163.0801378972352
 30
0.0
 10
88.86206713474554
 20
162.6707072774122
 30
0.0
 10
89.02358212473072
 20
162.4506018364277
 30
0.0
 10
89.30073980787785
 20
161.9788517549897
 30
0.0
 10
89.41713398731156
 20
161.7238352285485
 30
0.0
 10
89.59040802395818
 20
161.2025974051515
 30
0.0
 10
89.64885457842396
 20
160.9351132873706
 30
0.0
 10
89.69271930389982
 20
160.5231976280381
 30
0.0
 10
89.69989952052919
 20
160.3834903249626
 30
0.0
 10
89.69893149323374
 20
160.1073672695002
 30
0.0
 10
89.6909287038201
 20
159.9701907031694
 30
0.0
 10
89.64485597190769
 20
159.5612572619061
 30
0.0
 10
89.58392113945565
 20
159.2893310129019
 30
0.0
 10
89.40580098304714
 20
158.7661504964468
 30
0.0
 10
89.29023307170476
 20
158.5174384960834
 30
0.0
 10
89.00838628776548
 20
158.0445539710915
 30
0.0
 10
88.84151634235081
 20
157.8209447538594
 30
0.0
 10
88.47219078755202
 20
157.4162873656717
 30
0.0
 10
88.26740563125455
 20
157.2318737775022
 30
0.0
 10
87.82275268373833
 20
156.9028477426078
 30
0.0
 10
87.58790355422755
 20
156.7616796666196
 30
0.0
 10
87.09449379175052
 20
156.5232701378391
 30
0.0
 10
86.83320683804587
 20
156.4254875814342
 30
0.0
 10
86.30246855753319
 20
156.2801595532441
 30
0.0
 10
86.03282885663594
 20
156.2318701630491
 30
0.0
 10
85.48507751689073
 20
156.1834549392625
 30
0.0
 10
85.20517347503211
 20
156.1839131248984
 30
0.0
 10
84.65809556719711
 20
156.2340649805006
 30
0.0
 10
84.38849046250968
 20
156.2832385475326
 30
0.0
 10
83.8573357058536
 20
156.4309130708397
 30
0.0
 10
83.59604088941006
 20
156.5300682352052
 30
0.0
 10
83.10372691123467
 20
156.771081005682
 30
0.0
 10
82.86977003565606
 20
156.9135691303067
 30
0.0
 10
82.4276014151256
 20
157.2450565592916
 30
0.0
 10
82.22240788401392
 20
157.43249018728
 30
0.0
 10
81.85671366765594
 20
157.8393939063305
 30
0.0
 10
81.69394304526759
 20
158.0605729809994
 30
0.0
 10
81.41299061450204
 20
158.5403203102147
 30
0.0
 10
81.29978676222854
 20
158.790332277025
 30
0.0
 10
81.1271780380896
 20
159.3104074870454
 30
0.0
 10
81.06757175541321
 20
159.5841389516752
 30
0.0
 10
81.00967998534337
 20
160.1327566015737
 30
0.0
 10
81.01046952420333
 20
160.4070964654653
 30
0.0
 10
81.07165999981974
 20
160.9558384166042
 30
0.0
 10
81.13278872355377
 20
161.2289037304613
 30
0.0
 10
81.30886840918359
 20
161.7490689792297
 30
0.0
 10
81.42519900417355
 20
162.0013881127886
 30
0.0
 10
81.70840023391428
 20
162.4777924541956
 30
0.0
 10
81.87338512389125
 20
162.6995537723799
 30
0.0
 10
82.24781534376511
 20
163.109909572865
 30
0.0
  0
CIRCLE
  5
188
330
1F
100
AcDbEntity
  8
0
  6
HIDDEN
 62
     7
370
     0
100
AcDbCircle
 10
85.2494388051
 20
160.2587201226
 30
0.0
 40
4.050000000000011
  0
SPLINE
  5
189
330
1F
100
AcDbEntity
  8
0
  6
HIDDEN
 62
     7
370
     0
100
AcDbSpline
210
0.0
220
0.0
230
1.0
 70
     8
 71
     3
 72
     9
 73
     5
 74
     0
 42
0.00000001
 43
0.00000001
 12
1.0
 22
0.0
 32
0.0
 13
1.0
 23
0.0
 33
0.0
 40
0.0
 40
0.0
 40
0.0
 40
0.0
 40
0.4999996710308631
 40
1.0
 40
1.0
 40
1.0
 40
1.0
 10
236.4086478349637
 20
147.8642919304512
 30
0.0
 10
236.3473801431232
 20
147.7113144092346
 30
0.0
 10
236.2248446788213
 20
147.4053591655016
 30
0.0
 10
236.0963707279761
 20
147.1018497008342
 30
0.0
 10
236.0321337102896
 20
146.9500948686552
 30
0.0
  0
LINE
  5
18A
330
1F
100
AcDbEntity
  8
0
  6
HIDDEN
 62
     7
370
     0
100
AcDbLine
 10
235.3259829707
 20
158.5054957134
 30
0.0
 11
236.4086417384
 21
147.8642918694
 31
0.0
  0
LINE
  5
18B
330
1F
100
AcDbEntity
  8
0
  6
HIDDEN
 62
     7
370
     0
100
AcDbLine
 10
234.0779809184
 20
160.2587201226
 30
0.0
 11
235.3259829707
 21
158.5054957134
 31
0.0
  0
CIRCLE
  5
18C
330
1F
100
AcDbEntity
  8
0
  6
HIDDEN
 62
     7
370
     0
100
AcDbCircle
 10
112.7494388051
 20
160.2587201226
 30
0.0
 40
2.0
  0
LINE
  5
18D
330
1F
100
AcDbEntity
  8
0
  6
HIDDEN
 62
     7
370
     0
100
AcDbLine
 10
100.7494388051
 20
136.0087194073
 30
0.0
 11
100.8423320255
 21
136.1016132462
 31
0.0
  0
LINE
  5
18E
330
1F
100
AcDbEntity
  8
0
  6
HIDDEN
 62
     7
370
     0
100
AcDbLine
 10
100.8423320255
 20
184.4158269989
 30
0.0
 11
100.7494388051
 21
184.5087208378
 31
0.0
  0
ARC
  5
18F
330
1F
100
AcDbEntity
  8
0
  6
HIDDEN
 62
     7
370
     0
100
AcDbCircle
 10
100.1352252427
 20
136.8087201226
 30
0.0
 40
1.0
100
AcDbArc
 50
315.0
 51
0.0
  0
ARC
  5
190
330
1F
100
AcDbEntity
  8
0
  6
HIDDEN
 62
     7
370
     0
100
AcDbCircle
 10
100.1352252427
 20
136.8087201226
 30
0.0
 40
1.0
100
AcDbArc
 50
0.0
 51
52.1052014664
  0
ARC
  5
191
330
1F
100
AcDbEntity
  8
0
  6
HIDDEN
 62
     7
370
     0
100
AcDbCircle
 10
100.1352252427
 20
183.7087201226
 30
0.0
 40
0.9999999999999917
100
AcDbArc
 50
351.8087250651
 51
45.0
  0
ARC
  5
192
330
1F
100
AcDbEntity
  8
0
  6
HIDDEN
 62
     7
370
     0
100
AcDbCircle
 10
100.1352252427
 20
183.7087201226
 30
0.0
 40
0.9999999999999917
100
AcDbArc
 50
307.8947985336
 51
351.8087250651
  0
LINE
  5
193
330
1F
100
AcDbEntity
  8
0
  6
HIDDEN
 62
     7
370
     0
100
AcDbLine
 10
101.1352252409
 20
136.808719911
 30
0.0
 11
101.1352252409
 21
183.7087203342
 31
0.0
  0
LINE
  5
194
330
1F
100
AcDbEntity
  8
0
  6
HIDDEN
 62
     7
370
     0
100
AcDbLine
 10
101.1352252409
 20
136.808719911
 30
0.0
 11
101.1352252409
 21
183.7087203342
 31
0.0
  0
LINE
  5
195
330
1F
100
AcDbEntity
  8
0
  6
HIDDEN
 62
     7
370
     0
100
AcDbLine
 10
197.2565857596
 20
162.7077604237
 30
0.0
 11
196.2746811933
 21
163.3257122769
 31
0.0
  0
LINE
  5
196
330
1F
100
AcDbEntity
  8
0
  6
HIDDEN
 62
     7
370
     0
100
AcDbLine
 10
206.0799432821
 20
157.1548450331
 30
0.0
 11
198.7492052741
 21
161.7683933175
 31
0.0
  0
LINE
  5
197
330
1F
100
AcDbEntity
  8
0
  6
HIDDEN
 62
     7
370
     0
100
AcDbLine
 10
193.6114860601
 20
159.0940000781
 30
0.0
 11
206.0763372011
 21
151.2493420917
 31
0.0
  0
LINE
  5
198
330
1F
100
AcDbEntity
  8
0
  6
HIDDEN
 62
     7
370
     0
100
AcDbLine
 10
195.496006114
 20
162.9307693395
 30
0.0
 11
194.1977200932
 21
161.6789474676
 31
0.0
  0
LINE
  5
199
330
1F
100
AcDbEntity
  8
0
  6
HIDDEN
 62
     7
370
     0
100
AcDbLine
 10
194.1977200932
 20
161.6789474676
 30
0.0
 11
193.6307160086
 21
159.9668961892
 31
0.0
  0
LINE
  5
19A
330
1F
100
AcDbEntity
  8
0
  6
HIDDEN
 62
     7
370
     0
100
AcDbLine
 10
62.749440027
 20
144.0622903931
 30
0.0
 11
64.279666347
 21
144.9457690644
 31
0.0
  0
LINE
  5
19B
330
1F
100
AcDbEntity
  8
0
  6
HIDDEN
 62
     7
370
     0
100
AcDbLine
 10
64.279666347
 20
175.5716711807
 30
0.0
 11
62.749440027
 21
176.455149852
 31
0.0
  0
LINE
  5
19C
330
1F
100
AcDbEntity
  8
0
  6
HIDDEN
 62
     7
370
     0
100
AcDbLine
 10
72.7494379408
 20
144.2587193626
 30
0.0
 11
73.7512392826
 21
144.2587193626
 31
0.0
  0
LINE
  5
19D
330
1F
100
AcDbEntity
  8
0
  6
HIDDEN
 62
     7
370
     0
100
AcDbLine
 10
73.7512392826
 20
176.2587208825
 30
0.0
 11
72.7494379408
 21
176.2587208825
 31
0.0
  0
ARC
  5
19E
330
1F
100
AcDbEntity
  8
0
  6
HIDDEN
 62
     7
370
     0
100
AcDbCircle
 10
72.7494388051
 20
146.2587201226
 30
0.0
 40
2.0
100
AcDbArc
 50
189.9742217944
 51
270.0
  0
ARC
  5
19F
330
1F
100
AcDbEntity
  8
0
  6
HIDDEN
 62
     7
370
     0
100
AcDbCircle
 10
72.7494388051
 20
174.2587201226
 30
0.0
 40
2.0
100
AcDbArc
 50
90.0
 51
170.0257782056
  0
ARC
  5
1A0
330
1F
100
AcDbEntity
  8
0
  6
HIDDEN
 62
     7
370
     0
100
AcDbCircle
 10
73.75124012
 20
146.2587201226
 30
0.0
 40
2.0
100
AcDbArc
 50
270.0
 51
315.0
  0
ARC
  5
1A1
330
1F
100
AcDbEntity
  8
0
  6
HIDDEN
 62
     7
370
     0
100
AcDbCircle
 10
73.75124012
 20
174.2587201226
 30
0.0
 40
2.0
100
AcDbArc
 50
45.0
 51
90.0
  0
LINE
  5
1A2
330
1F
100
AcDbEntity
  8
0
  6
HIDDEN
 62
     7
370
     0
100
AcDbLine
 10
75.1654544748
 20
144.8445063609
 30
0.0
 11
76.5796678043
 21
146.2587196904
 31
0.0
  0
LINE
  5
1A3
330
1F
100
AcDbEntity
  8
0
  6
HIDDEN
 62
     7
370
     0
100
AcDbLine
 10
76.5796678043
 20
174.2587205547
 30
0.0
 11
75.1654544748
 21
175.6729338843
 31
0.0
  0
LINE
  5
1A4
330
1F
100
AcDbEntity
  8
0
  6
HIDDEN
 62
     7
370
     0
100
AcDbLine
 10
64.279666347
 20
144.9457690644
 30
0.0
 11
69.1796673364
 21
146.2587196904
 31
0.0
  0
LINE
  5
1A5
330
1F
100
AcDbEntity
  8
0
  6
HIDDEN
 62
     7
370
     0
100
AcDbLine
 10
69.1796673364
 20
174.2587205547
 30
0.0
 11
64.279666347
 21
175.5716711807
 31
0.0
  0
LINE
  5
1A6
330
1F
100
AcDbEntity
  8
0
  6
HIDDEN
 62
     7
370
     0
100
AcDbLine
 10
70.7796664811
 20
174.6051306429
 30
0.0
 11
70.1796675003
 21
174.2587205547
 31
0.0
  0
LINE
  5
1A7
330
1F
100
AcDbEntity
  8
0
  6
HIDDEN
 62
     7
370
     0
100
AcDbLine
 10
70.1796675003
 20
146.2587196904
 30
0.0
 11
70.7796664811
 21
145.9123096022
 31
0.0
  0
ARC
  5
1A8
330
1F
100
AcDbEntity
  8
0
  6
HIDDEN
 62
     7
370
     0
100
AcDbCircle
 10
89.2494388051
 20
146.7587201226
 30
0.0
 40
0.5
100
AcDbArc
 50
270.0
 51
0.0
  0
ARC
  5
1A9
330
1F
100
AcDbEntity
  8
0
  6
HIDDEN
 62
     7
370
     0
100
AcDbCircle
 10
89.2494388051
 20
173.7587201226
 30
0.0
 40
0.5
100
AcDbArc
 50
0.0
 51
90.0
  0
LINE
  5
1AA
330
1F
100
AcDbEntity
  8
0
  6
HIDDEN
 62
     7
370
     0
100
AcDbLine
 10
76.5796678043
 20
146.2587196904
 30
0.0
 11
89.2494387827
 21
146.2587196904
 31
0.0
  0
LINE
  5
1AB
330
1F
100
AcDbEntity
  8
0
  6
HIDDEN
 62
     7
370
     0
100
AcDbLine
 10
89.2494387827
 20
174.2587205547
 30
0.0
 11
76.5796678043
 21
174.2587205547
 31
0.0
  0
LINE
  5
1AC
330
1F
100
AcDbEntity
  8
0
  6
HIDDEN
 62
     7
370
     0
100
AcDbLine
 10
69.1796673364
 20
146.2587196904
 30
0.0
 11
70.1796675003
 21
146.2587196904
 31
0.0
  0
LINE
  5
1AD
330
1F
100
AcDbEntity
  8
0
  6
HIDDEN
 62
     7
370
     0
100
AcDbLine
 10
70.1796675003
 20
174.2587205547
 30
0.0
 11
69.1796673364
 21
174.2587205547
 31
0.0
  0
LINE
  5
1AE
330
1F
100
AcDbEntity
  8
0
  6
HIDDEN
 62
     7
370
     0
100
AcDbLine
 10
89.7494388647
 20
150.0087198394
 30
0.0
 11
90.9994386039
 21
151.25872051
 31
0.0
  0
LINE
  5
1AF
330
1F
100
AcDbEntity
  8
0
  6
HIDDEN
 62
     7
370
     0
100
AcDbLine
 10
90.9994386039
 20
169.2587197351
 30
0.0
 11
89.7494388647
 21
170.5087204057
 31
0.0
  0
LINE
  5
1B0
330
1F
100
AcDbEntity
  8
0
  6
HIDDEN
 62
     7
370
     0
100
AcDbLine
 10
116.749439565
 20
151.25872051
 30
0.0
 11
119.6035260237
 21
156.0087198916
 31
0.0
  0
LINE
  5
1B1
330
1F
100
AcDbEntity
  8
0
  6
HIDDEN
 62
     7
370
     0
100
AcDbLine
 10
119.6035260237
 20
164.5087203535
 30
0.0
 11
116.749439565
 21
169.2587197351
 31
0.0
  0
LINE
  5
1B2
330
1F
100
AcDbEntity
  8
0
  6
HIDDEN
 62
     7
370
     0
100
AcDbLine
 10
90.9994386039
 20
151.25872051
 30
0.0
 11
116.749439565
 21
151.25872051
 31
0.0
  0
LINE
  5
1B3
330
1F
100
AcDbEntity
  8
0
  6
HIDDEN
 62
     7
370
     0
100
AcDbLine
 10
116.749439565
 20
169.2587197351
 30
0.0
 11
90.9994386039
 21
169.2587197351
 31
0.0
  0
LINE
  5
1B4
330
1F
100
AcDbEntity
  8
0
  6
HIDDEN
 62
     7
370
     0
100
AcDbLine
 10
119.6035260237
 20
156.0087198916
 30
0.0
 11
200.7494402952
 21
156.0087198916
 31
0.0
  0
LINE
  5
1B5
330
1F
100
AcDbEntity
  8
0
  6
HIDDEN
 62
     7
370
     0
100
AcDbLine
 10
200.7494402952
 20
164.5087203535
 30
0.0
 11
119.6035260237
 21
164.5087203535
 31
0.0
  0
LINE
  5
1B6
330
1F
100
AcDbEntity
  8
0
  6
HIDDEN
 62
     7
370
     0
100
AcDbLine
 10
200.7494402952
 20
156.0087198916
 30
0.0
 11
203.3030969925
 21
160.2587201226
 31
0.0
  0
LINE
  5
1B7
330
1F
100
AcDbEntity
  8
0
  6
HIDDEN
 62
     7
370
     0
100
AcDbLine
 10
203.3030969925
 20
160.2587201226
 30
0.0
 11
200.7494402952
 21
164.5087203535
 31
0.0
  0
LINE
  5
1B8
330
1F
100
AcDbEntity
  8
0
  6
HIDDEN
 62
     7
370
     0
100
AcDbLine
 10
226.1414287514
 20
150.4976502213
 30
0.0
 11
226.5678403802
 21
149.9330182153
 31
0.0
  0
LINE
  5
1B9
330
1F
100
AcDbEntity
  8
0
  6
HIDDEN
 62
     7
370
     0
100
AcDbLine
 10
232.1538535781
 20
154.1516035388
 30
0.0
 11
231.7274419493
 21
154.7162355448
 31
0.0
  0
LINE
  5
1BA
330
1F
100
AcDbEntity
  8
0
  6
HIDDEN
 62
     7
370
     0
100
AcDbLine
 10
223.8177491254
 20
143.8461565006
 30
0.0
 11
224.3090329594
 21
143.1956276822
 31
0.0
  0
LINE
  5
1BB
330
1F
100
AcDbEntity
  8
0
  6
HIDDEN
 62
     7
370
     0
100
AcDbLine
 10
233.6656806893
 20
146.9332850131
 30
0.0
 11
231.7847518153
 21
151.1852847937
 31
0.0
  0
LINE
  5
1BC
330
1F
100
AcDbEntity
  8
0
  6
HIDDEN
 62
     7
370
     0
100
AcDbLine
 10
223.5111651845
 20
152.8189708072
 30
0.0
 11
225.5388704962
 21
150.1340078714
 31
0.0
  0
LINE
  5
1BD
330
1F
100
AcDbEntity
  8
0
  6
HIDDEN
 62
     7
370
     0
100
AcDbLine
 10
232.2420833535
 20
155.1963099803
 30
0.0
 11
230.2143780417
 21
157.8812733817
 31
0.0
  0
LINE
  5
1BE
330
1F
100
AcDbEntity
  8
0
  6
HIDDEN
 62
     7
370
     0
100
AcDbLine
 10
223.6882654852
 20
144.1568065959
 30
0.0
 11
223.9955795831
 21
143.7498782354
 31
0.0
  0
LINE
  5
1BF
330
1F
100
AcDbEntity
  8
0
  6
HIDDEN
 62
     7
370
     0
100
AcDbLine
 10
235.4697344727
 20
143.1809425878
 30
0.0
 11
234.936645431
 21
143.8868366706
 31
0.0
  0
LINE
  5
1C0
330
1F
100
AcDbEntity
  8
0
  6
HIDDEN
 62
     7
370
     0
100
AcDbLine
 10
229.8294363446
 20
140.0298443216
 30
0.0
 11
230.3625253863
 21
139.3239502388
 31
0.0
  0
LINE
  5
1C1
330
1F
100
AcDbEntity
  8
0
  6
HIDDEN
 62
     7
370
     0
100
AcDbLine
 10
227.8731224961
 20
146.5601264092
 30
0.0
 11
229.6132353968
 21
142.6264498907
 31
0.0
  0
LINE
  5
1C2
330
1F
100
AcDbEntity
  8
VERMASSUNG
  6
CENTERX2
100
AcDbLine
 10
58.025064448
 20
160.2587201226
 30
0.0
 11
240.7494388051
 21
160.2587201226
 31
0.0
  0
LINE
  5
1C3
330
1F
100
AcDbEntity
  8
VERMASSUNG
  6
CENTERX2
100
AcDbLine
 10
240.7494388051
 20
160.2587201226
 30
0.0
 11
240.7494388051
 21
133.2587201226
 31
0.0
  0
LINE
  5
1C4
330
1F
100
AcDbEntity
  8
VERMASSUNG
  6
CENTERX2
100
AcDbLine
 10
240.7494388051
 20
133.2587201226
 30
0.0
 11
260.5151415408
 21
133.2587201226
 31
0.0
  0
DIMENSION
  5
1C5
330
1F
100
AcDbEntity
  8
VERMASSUNG
100
AcDbDimension
  2
_D
 10
258.5038016005
 20
133.2587201226
 30
0.0
 11
258.5038016005
 21
146.7587201226
 31
0.0
 70
   160
  1
<>
 71
     2
 42
-1.0
  3
SLDDIMSTYLE0
100
AcDbAlignedDimension
 13
240.7494388051
 23
160.2587201226
 33
0.0
 14
240.7494388051
 24
133.2587201226
 34
0.0
 50
90.0
100
AcDbRotatedDimension
  0
DIMENSION
  5
1D0
330
1F
100
AcDbEntity
  8
VERMASSUNG
100
AcDbDimension
  2
_D_1
 10
240.7494388051
 20
118.7587201226
 30
0.0
 11
170.7494388051
 21
118.7587201226
 31
0.0
 70
   160
  1
<>
 71
     2
 42
-1.0
  3
SLDDIMSTYLE0
100
AcDbAlignedDimension
 13
100.7494388051
 23
129.2587201226
 33
0.0
 14
240.7494388051
 24
133.2587201226
 34
0.0
100
AcDbRotatedDimension
  0
DIMENSION
  5
1DA
330
1F
100
AcDbEntity
  8
VERMASSUNG
100
AcDbDimension
  2
_D_2
 10
62.7494388051
 20
109.8225633826
 30
0.0
 11
151.7494388051
 21
109.8225633826
 31
0.0
 70
   160
  1
<>
 71
     2
 42
-1.0
  3
SLDDIMSTYLE0
100
AcDbAlignedDimension
 13
240.7494388051
 23
133.2587201226
 33
0.0
 14
62.7494388051
 24
139.9663821301
 34
0.0
 50
0.0
100
AcDbRotatedDimension
  0
DIMENSION
  5
1E4
330
1F
100
AcDbEntity
  8
VERMASSUNG
100
AcDbDimension
  2
_D_3
 10
240.7479250226
 20
133.6951899866
 30
0.0
 11
248.0195613712
 21
141.1562582657
 31
0.0
 70
   162
  1
<>
 71
     1
 42
-1.0
  3
SLDDIMSTYLE1
100
AcDb2LineAngularDimension
 13
240.7494388051
 23
133.2587201226
 33
0.0
 14
260.5151415408
 24
133.2587201226
 34
0.0
 15
239.7005412048
 25
145.6003151656
 35
0.0
 16
248.0195613712
 26
141.1562582657
 36
0.0
  0
DIMENSION
  5
1ED
330
1F
100
AcDbEntity
  8
VERMASSUNG
100
AcDbDimension
  2
_D_4
 10
52.7494388051
 20
128.7587201226
 30
0.0
 11
52.7494388051
 21
160.2587201226
 31
0.0
 70
   160
  1
PSC%%c<>
 71
     2
 42
-1.0
  3
SLDDIMSTYLE0
100
AcDbAlignedDimension
 13
101.2494388051
 23
191.7587201226
 33
0.0
 14
101.2494388051
 24
128.7587201226
 34
0.0
 50
90.0
100
AcDbRotatedDimension
  0
DIMENSION
  5
1F9
330
1F
100
AcDbEntity
  8
VERMASSUNG
100
AcDbDimension
  2
_D_5
 10
146.916482335
 20
180.2587201226
 30
0.0
 11
146.916482335
 21
150.0281218954
 31
0.0
 70
   160
  1
%%c<>
 71
     2
 42
-1.0
  3
SLDDIMSTYLE0
100
AcDbAlignedDimension
 13
126.7494388051
 23
140.2587201226
 33
0.0
 14
126.7494388051
 24
180.2587201226
 34
0.0
 50
90.0
100
AcDbRotatedDimension
  0
LINE
  5
202
330
1F
100
AcDbEntity
  8
0
  6
Continuous
 62
     7
370
    15
100
AcDbLine
 10
167.8317402353
 20
52.6882044694
 30
0.0
 11
167.6607282231
 21
52.4586367143
 31
0.0
  0
LINE
  5
203
330
1F
100
AcDbEntity
  8
0
  6
Continuous
 62
     7
370
    15
100
AcDbLine
 10
168.6295442147
 20
45.5651546551
 30
0.0
 11
168.857208812
 21
45.3916166632
 31
0.0
  0
LINE
  5
204
330
1F
100
AcDbEntity
  8
0
  6
Continuous
 62
     7
370
    15
100
AcDbLine
 10
176.2992736282
 20
31.6584811268
 30
0.0
 11
178.9623937899
 21
32.0327591805
 31
0.0
  0
LINE
  5
205
330
1F
100
AcDbEntity
  8
0
  6
Continuous
 62
     7
370
    15
100
AcDbLine
 10
178.9725023651
 20
32.0397720395
 30
0.0
 11
179.2231706301
 21
32.3762719242
 31
0.0
  0
LINE
  5
206
330
1F
100
AcDbEntity
  8
0
  6
Continuous
 62
     7
370
    15
100
AcDbLine
 10
171.6697093531
 20
30.3029038666
 30
0.0
 11
176.3575632455
 21
30.9617400823
 31
0.0
  0
LINE
  5
207
330
1F
100
AcDbEntity
  8
0
  6
Continuous
 62
     7
370
    15
100
AcDbLine
 10
170.2532017467
 20
33.020499414
 30
0.0
 11
170.698637036
 21
32.4389201311
 31
0.0
  0
SPLINE
  5
208
330
1F
100
AcDbEntity
  8
0
  6
Continuous
 62
     7
370
    15
100
AcDbSpline
210
0.0
220
0.0
230
1.0
 70
     8
 71
     3
 72
    12
 73
     8
 74
     0
 42
0.00000001
 43
0.00000001
 12
1.0
 22
0.0
 32
0.0
 13
1.0
 23
0.0
 33
0.0
 40
0.0
 40
0.0
 40
0.0
 40
0.0
 40
0.0744898774066522
 40
0.3797435528496348
 40
0.5743262094161166
 40
0.7840610947936305
 40
1.0
 40
1.0
 40
1.0
 40
1.0
 10
169.2887762425409
 20
42.79558851402746
 30
0.0
 10
169.2879172947232
 20
42.79729160647723
 30
0.0
 10
169.283538446115
 20
42.80597383821424
 30
0.0
 10
169.3000460136852
 20
42.7720642854942
 30
0.0
 10
169.3236920314674
 20
42.66273546057754
 30
0.0
 10
169.3316336161892
 20
42.50770965536393
 30
0.0
 10
169.2920026398929
 20
42.3942993817864
 30
0.0
 10
169.2718983491825
 20
42.33676779103028
 30
0.0
  0
LINE
  5
209
330
1F
100
AcDbEntity
  8
0
  6
Continuous
 62
     7
370
    15
100
AcDbLine
 10
169.2604898805
 20
42.3424907683
 30
0.0
 11
168.9808858888
 21
41.6308075843
 31
0.0
  0
LINE
  5
20A
330
1F
100
AcDbEntity
  8
0
  6
Continuous
 62
     7
370
    15
100
AcDbLine
 10
168.6787124587
 20
43.9098079411
 30
0.0
 11
168.3814517552
 21
43.8680306731
 31
0.0
  0
LWPOLYLINE
  5
20B
330
1F
100
AcDbEntity
  8
0
  6
Continuous
 62
     7
370
    15
100
AcDbPolyline
 90
       27
 70
   128
 43
0.0
 10
167.7639862852
 20
52.4423688373
 10
167.8812421257
 20
52.215336608
 10
168.0160475759
 20
51.8024435921
 10
168.1605678847
 20
51.2276848501
 10
168.306404618
 20
50.5244631974
 10
168.445081809
 20
49.7336478626
 10
168.5685402578
 20
48.9011977522
 10
168.6696050553
 20
48.0754927455
 10
168.7424025828
 20
47.3045178412
 10
168.7827020748
 20
46.6330817623
 10
168.7881614877
 20
46.1002041308
 10
168.7584637063
 20
45.7368542163
 10
168.6953342384
 20
45.5641488267
 10
168.602442495
 20
45.5921248255
 10
168.4851866545
 20
45.8191570548
 10
168.3503812043
 20
46.2320505364
 10
168.2058606626
 20
46.8068088127
 10
168.0600241622
 20
47.5100309311
 10
167.9213467384
 20
48.3008458002
 10
167.7978882896
 20
49.133295445
 10
167.6968234921
 20
49.959001383
 10
167.6240261974
 20
50.7299758216
 10
167.5837264726
 20
51.4014123661
 10
167.5782670597
 20
51.9342899976
 10
167.6079650739
 20
52.2976399122
 10
167.671094309
 20
52.4703448361
 10
167.7639862852
 20
52.4423688373
  0
LWPOLYLINE
  5
20C
330
1F
100
AcDbEntity
  8
0
  6
Continuous
 62
     7
370
    15
100
AcDbPolyline
 90
       20
 70
   128
 43
0.0
 10
167.9436554065
 20
50.9744591733
 10
168.0380996646
 20
50.7695574967
 10
168.1482693044
 20
50.3747661321
 10
168.2622257018
 20
49.8328658475
 10
168.367620218
 20
49.2025811879
 10
168.4530313456
 20
48.552212557
 10
168.5092036011
 20
47.9522368593
 10
168.5300498599
 20
47.4676725177
 10
168.5133111993
 20
47.1510284303
 10
168.4608013699
 20
47.0366173146
 10
168.3782107526
 20
47.1368387995
 10
168.2744891247
 20
47.4408318011
 10
168.1608766181
 20
47.9156535773
 10
168.049684619
 20
48.5098504184
 10
167.9529625786
 20
49.1590306817
 10
167.8811920671
 20
49.7928473821
 10
167.8421503263
 20
50.3426154798
 10
167.8400681218
 20
50.748759201
 10
167.8751710666
 20
50.9672665691
 10
167.9436554065
 20
50.9744591733
  0
LINE
  5
20D
330
1F
100
AcDbEntity
  8
0
  6
Continuous
 62
     7
370
    15
100
AcDbLine
 10
168.5230665704
 20
47.7189489363
 30
0.0
 11
168.5181324234
 21
47.718255101
 31
0.0
  0
LINE
  5
20E
330
1F
100
AcDbEntity
  8
0
  6
Continuous
 62
     7
370
    15
100
AcDbLine
 10
168.3474826956
 20
49.3345309703
 30
0.0
 11
168.2298240581
 21
49.3179944066
 31
0.0
  0
ARC
  5
20F
330
1F
100
AcDbEntity
  8
0
  6
Continuous
 62
     7
370
    15
100
AcDbCircle
 10
176.3778545007
 20
32.4652134042
 30
0.0
 40
2.620469422261706
100
AcDbArc
 50
350.5010636678
 51
14.5564533303
  0
LINE
  5
210
330
1F
100
AcDbEntity
  8
0
  6
Continuous
 62
     7
370
    15
100
AcDbLine
 10
178.9142080912
 20
33.1238259284
 30
0.0
 11
177.4717556642
 21
42.7479699908
 31
0.0
  0
ARC
  5
211
330
1F
100
AcDbEntity
  8
0
  6
Continuous
 62
     7
370
    15
100
AcDbCircle
 10
177.1037379163
 20
32.64281724
 30
0.0
 40
2.136127672627646
100
AcDbArc
 50
352.831967553
 51
13.3241721687
  0
LINE
  5
212
330
1F
100
AcDbEntity
  8
0
  6
Continuous
 62
     7
370
    15
100
AcDbLine
 10
177.7399123045
 20
42.7592529638
 30
0.0
 11
179.1823647315
 21
33.1351098327
 31
0.0
  0
ARC
  5
213
330
1F
100
AcDbEntity
  8
0
  6
Continuous
 62
     7
370
    15
100
AcDbCircle
 10
174.0216565604
 20
42.4068914931
 30
0.0
 40
3.4669177041793
100
AcDbArc
 50
5.6459433438
 51
20.1666778424
  0
LINE
  5
214
330
1F
100
AcDbEntity
  8
0
  6
Continuous
 62
     7
370
    15
100
AcDbLine
 10
177.5854859831
 20
43.3801312653
 30
0.0
 11
177.2913780393
 21
43.6042763947
 31
0.0
  0
ARC
  5
215
330
1F
100
AcDbEntity
  8
0
  6
Continuous
 62
     7
370
    15
100
AcDbCircle
 10
175.8736483689
 20
42.6247151694
 30
0.0
 40
1.871107023979468
100
AcDbArc
 50
4.1232838788
 51
23.8113679504
  0
LINE
  5
216
330
1F
100
AcDbEntity
  8
0
  6
Continuous
 62
     7
370
    15
100
AcDbLine
 10
168.4007259415
 20
43.4316036014
 30
0.0
 11
170.1850486085
 21
31.5264773278
 31
0.0
  0
ARC
  5
217
330
1F
100
AcDbEntity
  8
0
  6
Continuous
 62
     7
370
    15
100
AcDbCircle
 10
169.2763938893
 20
43.6806694486
 30
0.0
 40
0.9103999950965844
100
AcDbArc
 50
168.1879267533
 51
195.8773187795
  0
LINE
  5
218
330
1F
100
AcDbEntity
  8
0
  6
Continuous
 62
     7
370
    15
100
AcDbLine
 10
169.7778687909
 20
42.9992436154
 30
0.0
 11
168.3852722732
 21
43.8670304326
 31
0.0
  0
ARC
  5
219
330
1F
100
AcDbEntity
  8
0
  6
Continuous
 62
     7
370
    15
100
AcDbCircle
 10
168.799696105
 20
42.5675816488
 30
0.0
 40
1.069183733905797
100
AcDbArc
 50
4.1231915582
 51
23.8115913289
  0
LINE
  5
21A
330
1F
100
AcDbEntity
  8
0
  6
Continuous
 62
     7
370
    15
100
AcDbLine
 10
171.6504351449
 20
30.7393309383
 30
0.0
 11
169.8661125362
 21
42.6444572119
 31
0.0
  0
ARC
  5
21B
330
1F
100
AcDbEntity
  8
0
  6
Continuous
 62
     7
370
    15
100
AcDbCircle
 10
170.774765747
 20
30.4902649056
 30
0.0
 40
0.9104014406169109
100
AcDbArc
 50
348.1879577043
 51
15.8773050401
  0
LINE
  5
21C
330
1F
100
AcDbEntity
  8
0
  6
Continuous
 62
     7
370
    15
100
AcDbLine
 10
170.2732923537
 20
31.1716918556
 30
0.0
 11
171.6658888787
 21
30.303904107
 31
0.0
  0
ARC
  5
21D
330
1F
100
AcDbEntity
  8
0
  6
Continuous
 62
     7
370
    15
100
AcDbCircle
 10
171.2514615272
 20
31.6033531504
 30
0.0
 40
1.069180249189638
100
AcDbArc
 50
184.1232189617
 51
203.8116343842
  0
ARC
  5
21E
330
1F
100
AcDbEntity
  8
0
  6
Continuous
 62
     7
370
    15
100
AcDbCircle
 10
170.8167277241
 20
30.5007024408
 30
0.0
 40
0.8648831468225279
100
AcDbArc
 50
348.1879579269
 51
15.8772980048
  0
LINE
  5
21F
330
1F
100
AcDbEntity
  8
0
  6
Continuous
 62
     7
370
    15
100
AcDbLine
 10
171.6486153915
 20
30.7373155562
 30
0.0
 11
169.8642928483
 21
42.6424408985
 31
0.0
  0
ARC
  5
220
330
1F
100
AcDbEntity
  8
0
  6
Continuous
 62
     7
370
    15
100
AcDbCircle
 10
168.8511925619
 20
42.5694083318
 30
0.0
 40
1.015729268146126
100
AcDbArc
 50
4.1232165712
 51
23.8115478503
  0
LINE
  5
221
330
1F
100
AcDbEntity
  8
0
  6
Continuous
 62
     7
370
    15
100
AcDbLine
 10
169.7804612437
 20
42.9794884009
 30
0.0
 11
168.3878648424
 21
43.8472752182
 31
0.0
  0
ARC
  5
222
330
1F
100
AcDbEntity
  8
0
  6
Continuous
 62
     7
370
    15
100
AcDbCircle
 10
169.2344270496
 20
43.6702315752
 30
0.0
 40
0.8648768826153929
100
AcDbArc
 50
168.1878356987
 51
195.8773799718
  0
LINE
  5
223
330
1F
100
AcDbEntity
  8
0
  6
Continuous
 62
     7
370
    15
100
AcDbLine
 10
168.4025457459
 20
43.4336189834
 30
0.0
 11
170.1868682964
 21
31.5284945725
 31
0.0
  0
ARC
  5
224
330
1F
100
AcDbEntity
  8
0
  6
Continuous
 62
     7
370
    15
100
AcDbCircle
 10
171.1999621483
 20
31.6015255387
 30
0.0
 40
1.015722735180483
100
AcDbArc
 50
184.1231526247
 51
203.8116117968
  0
LINE
  5
225
330
1F
100
AcDbEntity
  8
0
  6
Continuous
 62
     7
370
    15
100
AcDbLine
 10
170.2706999009
 20
31.1914470701
 30
0.0
 11
171.6632964405
 21
30.3236593215
 31
0.0
  0
LINE
  5
226
330
1F
100
AcDbEntity
  8
0
  6
Continuous
 62
     7
370
    15
100
AcDbLine
 10
176.3382890591
 20
31.398167154
 30
0.0
 11
174.5539665086
 21
43.303291565
 31
0.0
  0
ARC
  5
227
330
1F
100
AcDbEntity
  8
0
  6
Continuous
 62
     7
370
    15
100
AcDbCircle
 10
175.3237558589
 20
31.134722581
 30
0.0
 40
1.048179687518745
100
AcDbArc
 50
350.5009449046
 51
14.5565433761
  0
LINE
  5
228
330
1F
100
AcDbEntity
  8
0
  6
Continuous
 62
     7
370
    15
100
AcDbLine
 10
170.7704438692
 20
32.2232872902
 30
0.0
 11
170.4375114156
 21
31.5971647112
 31
0.0
  0
ARC
  5
229
330
1F
100
AcDbEntity
  8
0
  6
Continuous
 62
     7
370
    15
100
AcDbCircle
 10
173.4875452965
 20
43.2264159458
 30
0.0
 40
1.069188506538659
100
AcDbArc
 50
4.123176131
 51
23.8115362976
  0
LINE
  5
22A
330
1F
100
AcDbEntity
  8
0
  6
Continuous
 62
     7
370
    15
100
AcDbLine
 10
171.0055715618
 20
33.611999145
 30
0.0
 11
170.0069507448
 21
40.2748671083
 31
0.0
  0
LINE
  5
22B
330
1F
100
AcDbEntity
  8
0
  6
Continuous
 62
     7
370
    15
100
AcDbLine
 10
174.4657227633
 20
43.6580788998
 30
0.0
 11
174.3873794427
 21
43.7068978978
 31
0.0
  0
LINE
  5
22C
330
1F
100
AcDbEntity
  8
0
  6
Continuous
 62
     7
370
    15
100
AcDbLine
 10
169.3512279404
 20
42.6723605676
 30
0.0
 11
168.6531888651
 21
43.5022900535
 31
0.0
  0
ARC
  5
22D
330
1F
100
AcDbEntity
  8
0
  6
Continuous
 62
     7
370
    15
100
AcDbCircle
 10
168.8164100397
 20
32.9893344658
 30
0.0
 40
2.275991975447822
100
AcDbArc
 50
348.1878861431
 51
15.8773777488
  0
LINE
  5
22E
330
1F
100
AcDbEntity
  8
0
  6
Continuous
 62
     7
370
    15
100
AcDbLine
 10
169.0455895247
 20
40.5589353947
 30
0.0
 11
170.0442105163
 21
33.8960674314
 31
0.0
  0
ARC
  5
22F
330
1F
100
AcDbEntity
  8
0
  6
Continuous
 62
     7
370
    15
100
AcDbCircle
 10
171.2347649162
 20
41.1816012442
 30
0.0
 40
2.276005635932213
100
AcDbArc
 50
168.1879402551
 51
195.8773105669
  0
LINE
  5
230
330
1F
100
AcDbEntity
  8
0
  6
Continuous
 62
     7
370
    15
100
AcDbLine
 10
169.7863412652
 20
41.161834514
 30
0.0
 11
169.0069552375
 21
41.6475043355
 31
0.0
  0
ARC
  5
231
330
1F
100
AcDbEntity
  8
0
  6
Continuous
 62
     7
370
    15
100
AcDbCircle
 10
167.3408919925
 20
40.0826751831
 30
0.0
 40
2.672977180410882
100
AcDbArc
 50
4.1232288277
 51
23.8115259483
  0
LINE
  5
232
330
1F
100
AcDbEntity
  8
0
  6
Continuous
 62
     7
370
    15
100
AcDbLine
 10
170.2648199959
 20
33.0091000257
 30
0.0
 11
171.0442059072
 21
32.5234320669
 31
0.0
  0
ARC
  5
233
330
1F
100
AcDbEntity
  8
0
  6
Continuous
 62
     7
370
    15
100
AcDbCircle
 10
172.7102589505
 20
34.0882567902
 30
0.0
 40
2.672966704448084
100
AcDbArc
 50
184.1231898621
 51
203.8115649139
  0
LWPOLYLINE
  5
234
330
1F
100
AcDbEntity
  8
0
  6
Continuous
 62
     7
370
    15
100
AcDbPolyline
 90
       23
 70
   128
 43
0.0
 10
170.3600051211
 20
34.537025979
 10
170.4302282402
 20
34.5880568681
 10
170.467669154
 20
34.841410136
 10
170.4692946611
 20
35.2765650211
 10
170.4349730959
 20
35.8582672386
 10
170.3674850384
 20
36.5393881409
 10
170.2722979341
 20
37.2647505907
 10
170.1571232503
 20
37.9755881337
 10
170.0312916752
 20
38.6143133698
 10
169.9049974656
 20
39.129180154
 10
169.7884722477
 20
39.4784782736
 10
169.6911560235
 20
39.6339085607
 10
169.6209329044
 20
39.5828795342
 10
169.5834921071
 20
39.3295244036
 10
169.5818664836
 20
38.8943695186
 10
169.6161880488
 20
38.3126673011
 10
169.6836761063
 20
37.6315463988
 10
169.7788632106
 20
36.9061839489
 10
169.8940380108
 20
36.1953464059
 10
170.0198694695
 20
35.5566211699
 10
170.1461636791
 20
35.0417543856
 10
170.262688897
 20
34.6924562661
 10
170.3600051211
 20
34.537025979
  0
LINE
  5
235
330
1F
100
AcDbEntity
  8
0
  6
Continuous
 62
     7
370
    15
100
AcDbLine
 10
170.7134377308
 20
32.4498035668
 30
0.0
 11
170.7186638474
 21
32.4189935533
 31
0.0
  0
LINE
  5
236
330
1F
100
AcDbEntity
  8
0
  6
Continuous
 62
     7
370
    15
100
AcDbLine
 10
170.2120102806
 20
37.4810465334
 30
0.0
 11
170.3395689934
 21
36.7705945579
 31
0.0
  0
ELLIPSE
  5
237
330
1F
100
AcDbEntity
  8
0
  6
Continuous
 62
     7
370
    15
100
AcDbEllipse
 10
170.399777329
 20
37.8190514957
 30
0.0
 11
-0.3137265769723854
 21
2.230774236460981
 31
0.0
210
0.0
220
0.0
230
1.0
 40
0.1044186664
 41
1.365888867810644
 42
1.708201049781188
  0
SPLINE
  5
238
330
1F
100
AcDbEntity
  8
0
  6
Continuous
 62
     7
370
    15
100
AcDbSpline
210
0.0
220
0.0
230
1.0
 70
     8
 71
     3
 72
    25
 73
    21
 74
     0
 42
0.00000001
 43
0.00000001
 12
1.0
 22
0.0
 32
0.0
 13
1.0
 23
0.0
 33
0.0
 40
0.0
 40
0.0
 40
0.0
 40
0.0
 40
0.0248386206870954
 40
0.0496736036510163
 40
0.0745124208150297
 40
0.0993625406438073
 40
0.1242314214189899
 40
0.1864347327420401
 40
0.2487236138697043
 40
0.3110567105636841
 40
0.3734707153072653
 40
0.4984224523302085
 40
0.623579153080609
 40
0.6862184073108895
 40
0.7489346944276929
 40
0.811643489155099
 40
0.874421012900377
 40
0.9162554388101727
 40
0.9581039345957127
 40
1.0
 40
1.0
 40
1.0
 40
1.0
 10
179.1861743481359
 20
33.02474302893768
 30
0.0
 10
179.3236607354008
 20
33.08242754449044
 30
0.0
 10
179.5986133744559
 20
33.19778812744974
 30
0.0
 10
180.0070819171432
 20
33.3798973865215
 30
0.0
 10
180.412548234639
 20
33.5686033055731
 30
0.0
 10
180.81473832068
 20
33.76456141748639
 30
0.0
 10
181.4132140617884
 20
34.06910858181904
 30
0.0
 10
182.1992176228432
 20
34.49975934006554
 30
0.0
 10
183.1577218345918
 20
35.08054549449579
 30
0.0
 10
184.091028865381
 20
35.70293321003123
 30
0.0
 10
185.2995114264423
 20
36.58689481053802
 30
0.0
 10
186.7383042465759
 20
37.79006302663083
 30
0.0
 10
188.0687214933032
 20
39.11355994874795
 30
0.0
 10
189.0628192887364
 20
40.23893598661593
 30
0.0
 10
189.7721672049685
 20
41.11515803501214
 30
0.0
 10
190.4437885369118
 20
42.02169247057788
 30
0.0
 10
191.0059697025429
 20
42.85254818386811
 30
0.0
 10
191.4713803842291
 20
43.59703216232799
 30
0.0
 10
191.8534083096422
 20
44.24588392965617
 30
0.0
 10
192.0923814385717
 20
44.68749963043267
 30
0.0
 10
192.2119358752687
 20
44.90843290682006
 30
0.0
  0
SPLINE
  5
239
330
1F
100
AcDbEntity
  8
0
  6
Continuous
 62
     7
370
    15
100
AcDbSpline
210
0.0
220
0.0
230
1.0
 70
    24
 71
     3
 72
     9
 73
     5
 74
     0
 42
0.00000001
 43
0.00000001
 12
1.0
 22
0.0
 32
0.0
 13
1.0
 23
0.0
 33
0.0
 40
0.0
 40
0.0
 40
0.0
 40
0.0
 40
0.4999996710308631
 40
1.0
 40
1.0
 40
1.0
 40
1.0
 10
192.2119376504736
 20
44.90843353398892
 30
0.0
 10
192.2119376504736
 20
44.75545601277226
 30
0.0
 10
192.2119376504736
 20
44.44950076903925
 30
0.0
 10
192.2119376504736
 20
44.14599130437185
 30
0.0
 10
192.2119376504736
 20
43.99423647219292
 30
0.0
  0
SPLINE
  5
23A
330
1F
100
AcDbEntity
  8
0
  6
Continuous
 62
     7
370
    15
100
AcDbSpline
210
0.0
220
0.0
230
1.0
 70
     8
 71
     3
 72
    25
 73
    21
 74
     0
 42
0.00000001
 43
0.00000001
 12
1.0
 22
0.0
 32
0.0
 13
1.0
 23
0.0
 33
0.0
 40
0.0
 40
0.0
 40
0.0
 40
0.0
 40
0.0270185505628302
 40
0.0530848754659752
 40
0.0781989783541081
 40
0.1023608636892335
 40
0.1255705368698943
 40
0.1901865470897821
 40
0.2510399464907142
 40
0.3150768624115917
 40
0.3763773896914243
 40
0.5015215427061028
 40
0.62646882858736
 40
0.6895561946294483
 40
0.7512214751779291
 40
0.8140738293456558
 40
0.875734143148332
 40
0.9176074241832078
 40
0.959029143628696
 40
1.0
 40
1.0
 40
1.0
 40
1.0
 10
192.2119376424071
 20
43.99423385537812
 30
0.0
 10
192.1327469608961
 20
43.85618173017528
 30
0.0
 10
191.977156546958
 20
43.58494290642104
 30
0.0
 10
191.7391360058038
 20
43.19059034400043
 30
0.0
 10
191.5039333496305
 20
42.81430330531057
 30
0.0
 10
191.2716916417195
 20
42.45609366382669
 30
0.0
 10
190.9043605651811
 20
41.90834976230001
 30
0.0
 10
190.3956758910466
 20
41.19540712063753
 30
0.0
 10
189.7103416641322
 20
40.31447635395558
 30
0.0
 10
189.0017997991154
 20
39.47748683351147
 30
0.0
 10
188.0027888041181
 20
38.39215573643968
 30
0.0
 10
186.678398905442
 20
37.12100444860496
 30
0.0
 10
185.2442919110194
 20
35.95781548398192
 30
0.0
 10
184.0456889777377
 20
35.10487308597209
 30
0.0
 10
183.1189241606418
 20
34.50216899419892
 30
0.0
 10
182.1747573696036
 20
33.94305729801513
 30
0.0
 10
181.310584750912
 20
33.47900629519573
 30
0.0
 10
180.5438324497716
 20
33.10176233627696
 30
0.0
 10
179.8780818987713
 20
32.79564106089231
 30
0.0
 10
179.4297122600305
 20
32.6084181259459
 30
0.0
 10
179.206754209648
 20
32.51531891280612
 30
0.0
  0
LINE
  5
23B
330
1F
100
AcDbEntity
  8
0
  6
Continuous
 62
     7
370
    15
100
AcDbLine
 10
177.5941524053
 20
43.6468285231
 30
0.0
 11
174.6987133617
 21
43.239901094
 31
0.0
  0
LINE
  5
23C
330
1F
100
AcDbEntity
  8
0
  6
Continuous
 62
     7
370
    15
100
AcDbLine
 10
174.6987133617
 20
43.239901094
 30
0.0
 11
174.6237416616
 21
43.7401163114
 31
0.0
  0
LINE
  5
23D
330
1F
100
AcDbEntity
  8
0
  6
Continuous
 62
     7
370
    15
100
AcDbLine
 10
174.6237416616
 20
43.7401163114
 30
0.0
 11
169.9949783603
 21
43.0895865617
 31
0.0
  0
LINE
  5
23E
330
1F
100
AcDbEntity
  8
0
  6
Continuous
 62
     7
370
    15
100
AcDbLine
 10
169.9949783603
 20
43.0895865617
 30
0.0
 11
168.6243348619
 21
52.2346159166
 31
0.0
  0
LINE
  5
23F
330
1F
100
AcDbEntity
  8
0
  6
Continuous
 62
     7
370
    15
100
AcDbLine
 10
192.2119382167
 20
55.5496373169
 30
0.0
 11
168.6243348619
 21
52.2346159166
 31
0.0
  0
LINE
  5
240
330
1F
100
AcDbEntity
  8
0
  6
Continuous
 62
     7
370
    15
100
AcDbLine
 10
192.2119382167
 20
55.5496373169
 30
0.0
 11
192.2119382167
 21
44.9084334729
 31
0.0
  0
LINE
  5
241
330
1F
100
AcDbEntity
  8
0
  6
Continuous
 62
     7
370
    15
100
AcDbLine
 10
177.6711210938
 20
43.1332879422
 30
0.0
 11
177.5941524053
 21
43.6468285231
 31
0.0
  0
SPLINE
  5
242
330
1F
100
AcDbEntity
  8
0
  6
Continuous
 62
     7
370
    15
100
AcDbSpline
210
0.0
220
0.0
230
1.0
 70
     8
 71
     3
 72
     8
 73
     4
 74
     0
 42
0.00000001
 43
0.00000001
 12
1.0
 22
0.0
 32
0.0
 13
1.0
 23
0.0
 33
0.0
 40
0.0
 40
0.0
 40
0.0
 40
0.0
 40
1.0
 40
1.0
 40
1.0
 40
1.0
 10
169.4212495179488
 20
32.69460598727689
 30
0.0
 10
169.0494414180548
 20
34.21951872200172
 30
0.0
 10
168.6774128327754
 20
35.75183491209523
 30
0.0
 10
168.3049715131276
 20
37.29800989138162
 30
0.0
  0
SPLINE
  5
243
330
1F
100
AcDbEntity
  8
0
  6
Continuous
 62
     7
370
    15
100
AcDbSpline
210
0.0
220
0.0
230
1.0
 70
     8
 71
     3
 72
    10
 73
     6
 74
     0
 42
0.00000001
 43
0.00000001
 12
1.0
 22
0.0
 32
0.0
 13
1.0
 23
0.0
 33
0.0
 40
0.0
 40
0.0
 40
0.0
 40
0.0
 40
0.5
 40
0.5
 40
1.0
 40
1.0
 40
1.0
 40
1.0
 10
168.3049715131276
 20
37.2980098913816
 30
0.0
 10
168.2816404481092
 20
37.39486785817682
 30
0.0
 10
168.2591827800265
 20
37.47288847984984
 30
0.0
 10
168.2180595537147
 20
37.58293266656229
 30
0.0
 10
168.1998532419376
 20
37.6136391686236
 30
0.0
 10
168.1851933145835
 20
37.61626541314747
 30
0.0
  0
ARC
  5
244
330
1F
100
AcDbEntity
  8
0
  6
Continuous
 62
     7
370
    15
100
AcDbCircle
 10
171.7119376505
 20
57.3028617261
 30
0.0
 40
20.00000000000001
100
AcDbArc
 50
258.4002787264
 51
259.8435147451
  0
ARC
  5
245
330
1F
100
AcDbEntity
  8
0
  6
Continuous
 62
     7
370
    15
100
AcDbCircle
 10
171.7119376505
 20
57.3028617261
 30
0.0
 40
19.99999999999999
100
AcDbArc
 50
116.1564852549
 51
117.5997212736
  0
SPLINE
  5
246
330
1F
100
AcDbEntity
  8
0
  6
Continuous
 62
     7
370
    15
100
AcDbSpline
210
0.0
220
0.0
230
1.0
 70
     8
 71
     3
 72
     8
 73
     4
 74
     0
 42
0.00000001
 43
0.00000001
 12
1.0
 22
0.0
 32
0.0
 13
1.0
 23
0.0
 33
0.0
 40
0.0
 40
0.0
 40
0.0
 40
0.0
 40
1.0
 40
1.0
 40
1.0
 40
1.0
 10
162.8954520562758
 20
75.25473020176015
 30
0.0
 10
162.9221686540949
 20
75.26785120362784
 30
0.0
 10
162.9314029699042
 20
75.3947153903818
 30
0.0
 10
162.9228671400512
 20
75.59367239028522
 30
0.0
  0
SPLINE
  5
247
330
1F
100
AcDbEntity
  8
0
  6
Continuous
 62
     7
370
    15
100
AcDbSpline
210
0.0
220
0.0
230
1.0
 70
     8
 71
     3
 72
     8
 73
     4
 74
     0
 42
0.00000001
 43
0.00000001
 12
1.0
 22
0.0
 32
0.0
 13
1.0
 23
0.0
 33
0.0
 40
0.0
 40
0.0
 40
0.0
 40
0.0
 40
1.0
 40
1.0
 40
1.0
 40
1.0
 10
162.9228671400511
 20
75.59367239028562
 30
0.0
 10
162.9196490313052
 20
75.66868153086929
 30
0.0
 10
162.9164388169397
 20
75.74365968735856
 30
0.0
 10
162.9132362505029
 20
75.81860782703406
 30
0.0
  0
ARC
  5
248
330
1F
100
AcDbEntity
  8
0
  6
Continuous
 62
     7
370
    15
100
AcDbCircle
 10
171.7119376505
 20
57.3028617261
 30
0.0
 40
20.50000000000001
100
AcDbArc
 50
113.6884803239
 51
115.4171146188
  0
LINE
  5
249
330
1F
100
AcDbEntity
  8
0
  6
Continuous
 62
     7
370
    15
100
AcDbLine
 10
168.6243348619
 20
52.2346159166
 30
0.0
 11
163.4757827366
 21
76.0756016431
 31
0.0
  0
ARC
  5
24A
330
1F
100
AcDbEntity
  8
0
  6
Continuous
 62
     7
370
    15
100
AcDbCircle
 10
188.124888387
 20
44.3700732342
 30
0.0
 40
19.68754495486322
100
AcDbArc
 50
184.7739155382
 51
192.2740034232
  0
LWPOLYLINE
  5
24B
330
1F
100
AcDbEntity
  8
0
  6
Continuous
 62
     7
370
    15
100
AcDbPolyline
 90
        3
 70
   128
 43
0.0
 10
168.4936903281
 20
43.8838044835
 10
168.5016817743
 20
43.9158028645
 10
168.5704643702
 20
43.9772617726
  0
LWPOLYLINE
  5
24C
330
1F
100
AcDbEntity
  8
0
  6
Continuous
 62
     7
370
    15
100
AcDbPolyline
 90
       29
 70
   128
 43
0.0
 10
167.6265221419
 20
52.9783193676
 10
167.7326128216
 20
52.8919554969
 10
167.8612992497
 20
52.6112977138
 10
168.0061273606
 20
52.1504187679
 10
168.1598356323
 20
51.5324298946
 10
168.3147159735
 20
50.7883194557
 10
168.4630025508
 20
49.9553994929
 10
168.5972592192
 20
49.07543703
 10
168.7107539134
 20
48.1925562678
 10
168.7977955541
 20
47.3510299532
 10
168.8540197307
 20
46.5930535181
 10
168.8766066315
 20
45.9566370307
 10
168.8644242337
 20
45.473692259
 10
168.8180830194
 20
45.1684354527
 10
168.7399068711
 20
45.0561747609
 10
168.6338157257
 20
45.1425381659
 10
168.5051295305
 20
45.423195949
 10
168.3603011867
 20
45.8840748949
 10
168.2065931478
 20
46.5020642338
 10
168.0517125739
 20
47.2461742071
 10
167.9034262294
 20
48.0790941699
 10
167.769169561
 20
48.9590570984
 10
167.6556748668
 20
49.841937395
 10
167.5686329933
 20
50.6834641753
 10
167.5124090495
 20
51.4414401447
 10
167.4898221487
 20
52.0778570978
 10
167.5020043136
 20
52.5608018694
 10
167.548345528
 20
52.8660582101
 10
167.6265221419
 20
52.9783193676
  0
LINE
  5
24D
330
1F
100
AcDbEntity
  8
0
  6
Continuous
 62
     7
370
    15
100
AcDbLine
 10
168.5704643702
 20
43.9772617726
 30
0.0
 11
169.9949783603
 21
43.0895865617
 31
0.0
  0
ELLIPSE
  5
24E
330
1F
100
AcDbEntity
  8
0
  6
Continuous
 62
     7
370
    15
100
AcDbEllipse
 10
169.7119376505
 20
55.389771522
 30
0.0
 11
-22.79178641213881
 21
30.8559499336019
 31
0.0
210
0.0
220
0.0
230
1.0
 40
0.4054768606
 41
2.061646510078609
 42
2.087675234543895
  0
LINE
  5
24F
330
1F
100
AcDbEntity
  8
0
  6
Continuous
 62
     7
370
    15
100
AcDbLine
 10
174.5494011654
 20
43.3329439445
 30
0.0
 11
174.6987133617
 21
43.239901094
 31
0.0
  0
ARC
  5
250
330
1F
100
AcDbEntity
  8
0
  6
Continuous
 62
     7
370
    15
100
AcDbCircle
 10
171.7119376505
 20
57.3028617261
 30
0.0
 40
20.50000000000003
100
AcDbArc
 50
0.0
 51
113.6884803239
  0
LINE
  5
251
330
1F
100
AcDbEntity
  8
0
  6
Continuous
 62
     7
370
    15
100
AcDbLine
 10
192.2119382167
 20
57.3028617261
 30
0.0
 11
192.2119382167
 21
55.5496373169
 31
0.0
  0
SPLINE
  5
252
330
1F
100
AcDbEntity
  8
0
  6
Continuous
 62
     7
370
    15
100
AcDbSpline
210
0.0
220
0.0
230
1.0
 70
     8
 71
     3
 72
    14
 73
    10
 74
     0
 42
0.00000001
 43
0.00000001
 12
1.0
 22
0.0
 32
0.0
 13
1.0
 23
0.0
 33
0.0
 40
0.0
 40
0.0
 40
0.0
 40
0.0
 40
0.25
 40
0.25
 40
0.5
 40
0.5
 40
0.75
 40
0.75
 40
1.0
 40
1.0
 40
1.0
 40
1.0
 10
167.6904745342665
 20
37.711337170699
 30
0.0
 10
167.6561358879009
 20
37.71838570841893
 30
0.0
 10
167.5724687414448
 20
37.73546808866676
 30
0.0
 10
167.309627472184
 20
37.79292165173771
 30
0.0
 10
167.1362749067041
 20
37.83210512928866
 30
0.0
 10
166.7150515479829
 20
37.93592646840554
 30
0.0
 10
166.4741874517995
 20
37.99894782120023
 30
0.0
 10
165.9471743352432
 20
38.14972560924257
 30
0.0
 10
165.6653189993532
 20
38.23633089450195
 30
0.0
 10
165.3742239594158
 20
38.33358695951824
 30
0.0
  0
SPLINE
  5
253
330
1F
100
AcDbEntity
  8
0
  6
Continuous
 62
     7
370
    15
100
AcDbSpline
210
0.0
220
0.0
230
1.0
 70
     8
 71
     3
 72
    18
 73
    14
 74
     0
 42
0.00000001
 43
0.00000001
 12
1.0
 22
0.0
 32
0.0
 13
1.0
 23
0.0
 33
0.0
 40
0.0
 40
0.0
 40
0.0
 40
0.0
 40
0.2499999999999963
 40
0.2499999999999963
 40
0.3749999999999952
 40
0.3749999999999952
 40
0.499999999999994
 40
0.499999999999994
 40
0.6249999999999928
 40
0.6249999999999928
 40
0.7499999999999917
 40
0.7499999999999917
 40
1.0
 40
1.0
 40
1.0
 40
1.0
 10
160.3910955010088
 20
73.79038831522156
 30
0.0
 10
160.6442890226606
 20
73.96423876370417
 30
0.0
 10
160.8881965241918
 20
74.12313646385478
 30
0.0
 10
161.2366903250525
 20
74.34070041024377
 30
0.0
 10
161.3500036845021
 20
74.40974906220836
 30
0.0
 10
161.5621785970586
 20
74.53648180439694
 30
0.0
 10
161.6620795351436
 20
74.59482288598066
 30
0.0
 10
161.848645707285
 20
74.70191460079747
 30
0.0
 10
161.9360262683625
 20
74.75105665812163
 30
0.0
 10
162.0919821149315
 20
74.83752468923988
 30
0.0
 10
162.1603648721834
 20
74.87476830491572
 30
0.0
 10
162.3363787229206
 20
74.96968566845307
 30
0.0
 10
162.4149974927039
 20
75.01071692375999
 30
0.0
 10
162.4461031703601
 20
75.02697838638059
 30
0.0
  0
ELLIPSE
  5
254
330
1F
100
AcDbEntity
  8
0
  6
Continuous
 62
     7
370
    15
100
AcDbEllipse
 10
159.2719680226
 20
51.2462351779
 30
0.0
 11
-2.131252361053981
 21
2.544070092956126
 31
0.0
210
0.0
220
0.0
230
1.0
 40
0.7353403728
 41
0.0
 42
6.283185307179586
  0
ARC
  5
255
330
1F
100
AcDbEntity
  8
0
  6
Continuous
 62
     7
370
    15
100
AcDbCircle
 10
171.7119376505
 20
57.3028617261
 30
0.0
 40
19.99999999999999
100
AcDbArc
 50
124.4746884458
 51
251.5253115542
  0
CIRCLE
  5
256
330
1F
100
AcDbEntity
  8
0
  6
Continuous
 62
     7
370
    15
100
AcDbCircle
 10
171.7119376505
 20
57.3028617261
 30
0.0
 40
31.5
  0
LINE
  5
257
330
1F
100
AcDbEntity
  8
VERMASSUNG
100
AcDbLine
 10
171.7119376505
 20
30.3447911249
 30
0.0
 11
163.7916065687
 21
86.7008750952
 31
0.0
  0
CIRCLE
  5
258
330
1F
100
AcDbEntity
  8
VERMASSUNG
  6
CENTERX2
100
AcDbCircle
 10
171.7119376505
 20
55.3447911249
 30
0.0
 40
25.0
  0
DIMENSION
  5
259
330
1F
100
AcDbEntity
  8
VERMASSUNG
100
AcDbDimension
  2
_D_6
 10
163.7916065687
 20
86.7008750952
 30
0.0
 11
167.1141267218
 21
96.0965507274
 31
0.0
 70
   162
  1
<>
 71
     1
 42
-1.0
  3
SLDDIMSTYLE2
100
AcDb2LineAngularDimension
 13
171.7119376505
 23
91.3028617261
 33
0.0
 14
171.7119376505
 24
23.3028617261
 34
0.0
 15
171.7119376505
 25
30.3447911249
 35
0.0
 16
167.1141267218
 26
96.0965507274
 36
0.0
  0
DIMENSION
  5
266
330
1F
100
AcDbEntity
  8
VERMASSUNG
100
AcDbDimension
  2
_D_7
 10
156.1831876163
 20
35.7524987022
 30
0.0
 11
147.3309134612
 21
24.5837733719
 31
0.0
 70
   160
  1
%%c<> min. 
 71
     2
 42
-1.0
  3
SLDDIMSTYLE3
100
AcDbAlignedDimension
 13
187.2406876846
 23
74.9370835476
 33
0.0
 14
156.1831876163
 24
35.7524987022
 34
0.0
 50
51.5998376163
100
AcDbRotatedDimension
  0
INSERT
  5
280
330
1F
100
AcDbEntity
  8
VERMASSUNG
100
AcDbBlockReference
  2
SW_CENTERMARKSYMBOL_0
 10
171.7119376505
 20
57.3028617261
 30
0.0
  0
OLE2FRAME
  5
281
330
1F
100
AcDbEntity
  8
0
100
AcDbOle2Frame
 70
     2
  3
Paintbrush-Bild
 10
13.8511154363
 20
38.264191557
 30
0.0
 11
51.6290888628
 21
31.9806341108
 31
0.0
 71
     2
 72
     0
 73
     1
 90
    12928
310
80552BED0767C5B32B40DDAF6807D121434000000000000000006FFBDDFB85D0
310
4940DDAF6807D121434000000000000000006FFBDDFB85D04940416F4BD60AFB
310
3F4000000000000000002BED0767C5B32B40416F4BD60AFB3F40000000000000
310
0000000000000100000000010000010000000100000000000100000000320000
310
D0CF11E0A1B11AE1000000000000000000000000000000003E000300FEFF0900
310
0600000000000000000000000100000001000000000000000010000002000000
310
01000000FEFFFFFF0000000000000000FFFFFFFFFFFFFFFFFFFFFFFFFFFFFFFF
310
FFFFFFFFFFFFFFFFFFFFFFFFFFFFFFFFFFFFFFFFFFFFFFFFFFFFFFFFFFFFFFFF
310
FFFFFFFFFFFFFFFFFFFFFFFFFFFFFFFFFFFFFFFFFFFFFFFFFFFFFFFFFFFFFFFF
310
FFFFFFFFFFFFFFFFFFFFFFFFFFFFFFFFFFFFFFFFFFFFFFFFFFFFFFFFFFFFFFFF
310
FFFFFFFFFFFFFFFFFFFFFFFFFFFFFFFFFFFFFFFFFFFFFFFFFFFFFFFFFFFFFFFF
310
FFFFFFFFFFFFFFFFFFFFFFFFFFFFFFFFFFFFFFFFFFFFFFFFFFFFFFFFFFFFFFFF
310
FFFFFFFFFFFFFFFFFFFFFFFFFFFFFFFFFFFFFFFFFFFFFFFFFFFFFFFFFFFFFFFF
310
FFFFFFFFFFFFFFFFFFFFFFFFFFFFFFFFFFFFFFFFFFFFFFFFFFFFFFFFFFFFFFFF
310
FFFFFFFFFFFFFFFFFFFFFFFFFFFFFFFFFFFFFFFFFFFFFFFFFFFFFFFFFFFFFFFF
310
FFFFFFFFFFFFFFFFFFFFFFFFFFFFFFFFFFFFFFFFFFFFFFFFFFFFFFFFFFFFFFFF
310
FFFFFFFFFFFFFFFFFFFFFFFFFFFFFFFFFFFFFFFFFFFFFFFFFFFFFFFFFFFFFFFF
310
FFFFFFFFFFFFFFFFFFFFFFFFFFFFFFFFFFFFFFFFFFFFFFFFFFFFFFFFFFFFFFFF
310
FFFFFFFFFFFFFFFFFFFFFFFFFFFFFFFFFFFFFFFFFFFFFFFFFFFFFFFFFFFFFFFF
310
FFFFFFFFFFFFFFFFFFFFFFFFFFFFFFFFFFFFFFFFFFFFFFFFFFFFFFFFFFFFFFFF
310
FDFFFFFFFEFFFFFFFEFFFFFFFEFFFFFF05000000060000000700000008000000
310
090000000A0000000B0000000C0000000D0000000E0000000F00000010000000
310
11000000120000001300000014000000150000001600000017000000FEFFFFFF
310
FFFFFFFFFFFFFFFFFFFFFFFFFFFFFFFFFFFFFFFFFFFFFFFFFFFFFFFFFFFFFFFF
310
FFFFFFFFFFFFFFFFFFFFFFFFFFFFFFFFFFFFFFFFFFFFFFFFFFFFFFFFFFFFFFFF
310
FFFFFFFFFFFFFFFFFFFFFFFFFFFFFFFFFFFFFFFFFFFFFFFFFFFFFFFFFFFFFFFF
310
FFFFFFFFFFFFFFFFFFFFFFFFFFFFFFFFFFFFFFFFFFFFFFFFFFFFFFFFFFFFFFFF
310
FFFFFFFFFFFFFFFFFFFFFFFFFFFFFFFFFFFFFFFFFFFFFFFFFFFFFFFFFFFFFFFF
310
FFFFFFFFFFFFFFFFFFFFFFFFFFFFFFFFFFFFFFFFFFFFFFFFFFFFFFFFFFFFFFFF
310
FFFFFFFFFFFFFFFFFFFFFFFFFFFFFFFFFFFFFFFFFFFFFFFFFFFFFFFFFFFFFFFF
310
FFFFFFFFFFFFFFFFFFFFFFFFFFFFFFFFFFFFFFFFFFFFFFFFFFFFFFFFFFFFFFFF
310
FFFFFFFFFFFFFFFFFFFFFFFFFFFFFFFFFFFFFFFFFFFFFFFFFFFFFFFFFFFFFFFF
310
FFFFFFFFFFFFFFFFFFFFFFFFFFFFFFFFFFFFFFFFFFFFFFFFFFFFFFFFFFFFFFFF
310
FFFFFFFFFFFFFFFFFFFFFFFFFFFFFFFFFFFFFFFFFFFFFFFFFFFFFFFFFFFFFFFF
310
FFFFFFFFFFFFFFFFFFFFFFFFFFFFFFFFFFFFFFFFFFFFFFFFFFFFFFFFFFFFFFFF
310
FFFFFFFFFFFFFFFFFFFFFFFFFFFFFFFFFFFFFFFFFFFFFFFFFFFFFFFFFFFFFFFF
310
52006F006F007400200045006E00740072007900000000000000000000000000
310
0000000000000000000000000000000000000000000000000000000000000000
310
16000500FFFFFFFFFFFFFFFF020000000A00030000000000C000000000000046
310
00000000000000000000000010F770D3AD0ECE0103000000C000000000000000
310
01004F006C006500000000000000000000000000000000000000000000000000
310
0000000000000000000000000000000000000000000000000000000000000000
310
0A000200FFFFFFFFFFFFFFFFFFFFFFFF00000000000000000000000000000000
310
0000000000000000000000000000000000000000000000001400000000000000
310
010043006F006D0070004F0062006A0000000000000000000000000000000000
310
0000000000000000000000000000000000000000000000000000000000000000
310
120002010100000003000000FFFFFFFF00000000000000000000000000000000
310
0000000000000000000000000000000000000000010000004D00000000000000
310
01004F006C006500310030004E00610074006900760065000000000000000000
310
0000000000000000000000000000000000000000000000000000000000000000
310
1A000200FFFFFFFFFFFFFFFFFFFFFFFF00000000000000000000000000000000
310
0000000000000000000000000000000000000000040000002426000000000000
310
FEFFFFFF02000000FEFFFFFFFFFFFFFFFFFFFFFFFFFFFFFFFFFFFFFFFFFFFFFF
310
FFFFFFFFFFFFFFFFFFFFFFFFFFFFFFFFFFFFFFFFFFFFFFFFFFFFFFFFFFFFFFFF
310
FFFFFFFFFFFFFFFFFFFFFFFFFFFFFFFFFFFFFFFFFFFFFFFFFFFFFFFFFFFFFFFF
310
FFFFFFFFFFFFFFFFFFFFFFFFFFFFFFFFFFFFFFFFFFFFFFFFFFFFFFFFFFFFFFFF
310
FFFFFFFFFFFFFFFFFFFFFFFFFFFFFFFFFFFFFFFFFFFFFFFFFFFFFFFFFFFFFFFF
310
FFFFFFFFFFFFFFFFFFFFFFFFFFFFFFFFFFFFFFFFFFFFFFFFFFFFFFFFFFFFFFFF
310
FFFFFFFFFFFFFFFFFFFFFFFFFFFFFFFFFFFFFFFFFFFFFFFFFFFFFFFFFFFFFFFF
310
FFFFFFFFFFFFFFFFFFFFFFFFFFFFFFFFFFFFFFFFFFFFFFFFFFFFFFFFFFFFFFFF
310
FFFFFFFFFFFFFFFFFFFFFFFFFFFFFFFFFFFFFFFFFFFFFFFFFFFFFFFFFFFFFFFF
310
FFFFFFFFFFFFFFFFFFFFFFFFFFFFFFFFFFFFFFFFFFFFFFFFFFFFFFFFFFFFFFFF
310
FFFFFFFFFFFFFFFFFFFFFFFFFFFFFFFFFFFFFFFFFFFFFFFFFFFFFFFFFFFFFFFF
310
FFFFFFFFFFFFFFFFFFFFFFFFFFFFFFFFFFFFFFFFFFFFFFFFFFFFFFFFFFFFFFFF
310
FFFFFFFFFFFFFFFFFFFFFFFFFFFFFFFFFFFFFFFFFFFFFFFFFFFFFFFFFFFFFFFF
310
FFFFFFFFFFFFFFFFFFFFFFFFFFFFFFFFFFFFFFFFFFFFFFFFFFFFFFFFFFFFFFFF
310
FFFFFFFFFFFFFFFFFFFFFFFFFFFFFFFFFFFFFFFFFFFFFFFFFFFFFFFFFFFFFFFF
310
FFFFFFFFFFFFFFFFFFFFFFFFFFFFFFFFFFFFFFFFFFFFFFFFFFFFFFFFFFFFFFFF
310
0100000200000000000000000000000000000000000000000000000000000000
310
0000000000000000000000000000000000000000000000000000000000000000
310
0100FEFF030A0000FFFFFFFF0A00030000000000C00000000000004607000000
310
5042727573680007000000504272757368000700000050427275736800F439B2
310
7100000000000000000000000000000000000000000000000000000000000000
310
0000000000000000000000000000000000000000000000000000000000000000
310
0000000000000000000000000000000000000000000000000000000000000000
310
0000000000000000000000000000000000000000000000000000000000000000
310
0000000000000000000000000000000000000000000000000000000000000000
310
0000000000000000000000000000000000000000000000000000000000000000
310
0000000000000000000000000000000000000000000000000000000000000000
310
0000000000000000000000000000000000000000000000000000000000000000
310
0000000000000000000000000000000000000000000000000000000000000000
310
0000000000000000000000000000000000000000000000000000000000000000
310
0000000000000000000000000000000000000000000000000000000000000000
310
0000000000000000000000000000000000000000000000000000000000000000
310
20260000424D0E260000000000003E00000028000000B40200006E0000000100
310
01000000000000000000130B0000130B00000200000002000000000000FFFFFF
310
FFFFFFFFFFFFFFFFFFFFFFFFFFFFFFFFFFFFFFFFFFFFFFFFFFFFFFFFFFFFFFFF
310
FFFFFFFFFFFFFFFFFFFFFFFFFFFFFFFFFFFFFFFFFFFFFFFFFFFFFFFFFFFFFFFF
310
FFFFFFFFFFFFFFFFFFFFFFFFFFFFFFFFFFFFFFFFFFFFFFFFF000FFFFFFFFFFFF
310
FFFFFFFFFFFFFFFFFFFFFFFFFFFFFFFFFFFFFFFFFFFFFFFFFFFFFFFFFFFFFFFF
310
FFFFFFFFFFFFFFFFFFFFFFFFFFFFFFFFFFFFFFFFFFFFFFFFFFFFFFFFFFFFFFFF
310
FFFFFFFFFFFFFFFFFFFFFFFFFFFFFFFFF000FFFFFFFFFFFFFFFFFFFFFFFFFFFF
310
FFFFFFFFFFFFFFFFFFFFFFFFFFFFFFFFFFFFFFFFFFFFFFFFFFFFFFFFFFFFFFFF
310
FFFFFFFFFFFFFFFFFFFFFFFFFFFFFFFFFFFFFFFFFFFFFFFFFFFFFFFFFFFFFFFF
310
FFFFFFFFFFFFFFFFF000FFFFFFFFFFFFFFFFFFFFFFFFFFFFFFFFFFFFFFFFFFFF
310
FFFFFFFFFFFFFFFFFFFFFFFFFFFFFFFFFFFFFFFFFFFFFFFFFFFFFFFFFFFFFFFF
310
FFFFFFFFFFFFFFFFFFFFFFFFFFFFFFFFFFFFFFFFFFFFFFFFFFFFFFFFFFFFFFFF
310
F000FFFFFFFFFFFFFFFFFFFFFFFFFFFFFFFFFFFFFFFFFFFFFFFFFFFFFFFFFFFF
310
FFFFFFFFFFFFFFFFFFFFFFFFFFFFFFFFFFFFFFFFFFFFFFFFFFFFFFFFFFFFFFFF
310
FFFFFFFFFFFFFFFFFFFFFFFFFFFFFFFFFFFFFFFFFFFFFFFFF000FFFFFFFFFFFF
310
FFFFFFFFFFFFFFFFFFFFFFFFFFFFFFFFFFFFFFFFFFFFFFFFFFFFFFFFFFFFFFFF
310
FFFFFFFFFFFFFFFFFFFFFFFFFFFFFFFFFFFFFFFFFFFFFFFFFFFFFFFFFFFFFFFF
310
FFFFFFFFFFFFFFFFFFFFFFFFFFFFFFFFF000FFFFFFFFFFFFFFFFFFFFFFFFFFFF
310
FFFFFFFFFFFFFFFFFFFFFFFFFFFFFFFFFFFFFFFFFFFFFFFFFFFFFFFFFFFFFFFF
310
FFFFFFFFFFFFFFFFFFFFFFFFFFFFFFFFFFFFFFFFFFFFFFFFFFFFFFFFFFFFFFFF
310
FFFFFFFFFFFFFFFFF000FFFFFFFFFFFFFFFFFFFFFFFFFFFFFFFFFFFFFFFFFFFF
310
FFFFFFFFFFFFFFFFFFFFFFFFFFFFFFFFFFFFFFFFFFFFFFFFFFFFFFFFFFFFFFFF
310
FFFFFFFFFFFFFFFFFFFFFFFFFFFFFFFFFFFFFFFFFFFFFFFFFFFFFFFFFFFFFFFF
310
F000FFFFFFFFFFFFFFFFFFFFFFFFFFFFFFFFFFFFFFFFFFFFFFFFFFFFFFFFFFFF
310
FFFFFFFFFFFFFFFFFFFFFFFFFFFFFFFFFFFFFFFFFFFFFFFFFFFFFFFFFFFFFFFF
310
FFFFFFFFFFFFFFFFFFFFFFFFFFFFFFFFFFFFFFFFFFFFFFFFF000FFFFFFFFFFFF
310
FFFFFFFFFFFFFFFFFFFFFFFFFFFFFFFFFFFFFFFFFFFFFFFFFFFFFFFFFFFFFFFF
310
FFFFFFFFFFFFFFFFFFFFFFFFFFFFFFFFFFFFFFFFFFFFFFFFFFFFFFFFFFFFFFFF
310
FFFFFFFFFFFFFFFFFFFFFFFFFFFFFFFFF000FFFFFFFFFFFFFFFFFFFFFFFFFFFF
310
FFFFFFFFFFFFFFFFFFFFFFFFFFFFFFFFFFFFFFFFFFFFFFFFFFFFFFFFFFFFFFFF
310
FFFFFFFFFFFFFFFFFFFFFFFFFFFFFFFFFFFFFFFFFFFFFFFFFFFFFFFFFFFFFFFF
310
FFFFFFFFFFFFFFFFF000FFFFFFFFFFFFFFFFFFFFFFFFFFFFFFFFFFFFFFFFFFFF
310
FFFFFFFFFFFFFFFFFFFFFFFFFFFFFFFFFFFFFFFFFFFFFFFFFFFFFFFFFFFFFFFF
310
FFFFFFFFFFFFFFFFFFFFFFFFFFFFFFFFFFFFFFFFFFFFFFFFFFFFFFFFFFFFFFFF
310
F000FFFFFFFFFFFFFFFFFFFFFFFFFFFFFFFFFFFFFFFFFFFFFFFFFFFFFFFFFFFF
310
FFFFFFFFFFFFFFFFFFFFFFFFFFFFFFFFFFFFFFFFFFFFFFFFFFFFFFFFFFFFFFFF
310
FFFFFFFFFFFFFFFFFFFFFFFFFFFFFFFFFFFFFFFFFFFFFFFFF000FFFFFFFFFFFF
310
FFFFFFFFFFFFFFFFFFFFFFFFFFFFFFFFFFFFFFFFFFFFFFFFFFFFFFFFFFFFFFFF
310
FFFFFFFFFFFFFFFFFFFFFFFFFFFFFFFFFFFFFFFFFFFFFFFFFFFFFFFFFFFFFFFF
310
FFFFFFFFFFFFFFFFFFFFFFFFFFFFFFFFF000FFFFFFFFFFFFFFFFFFFFFFFFFFFF
310
FFFFFFFFFFFFFFFFFFFFFFFFFFFFFFFFFFFFFFFFFFFFFFFFFFFFFFFFFFFFFFFF
310
FFFFFFFFFFFFFFFFFFFFFFFFFFFFFFFFFFFFFFFFFFFFFFFFFFFFFFFFFFFFFFFF
310
FFFFFFFFFFFFFFFFF000FFFFFFFFFFFFFFFFFFFFFFFFFFFFFFFFFFFFFFFFFFFF
310
FFFFFFFFFFFFFFFFFFFFFFFFFFFFFFFFFFFFFFFFFFFFFFFFFFFFFFFFFFFFFFFF
310
FFFFFFFFFFFFFFFFFFFFFFFFFFFFFFFFFFFFFFFFFFFFFFFFFFFFFFFFFFFFFFFF
310
F000FFFFFFFFFFFFFFFFFFFFFFFFFFFFFFFFFFFFFFFFFFFFFFFFFFFFFFFFFFFF
310
FFFFFFFFFFFFFFFFFFFFFFFFFFFFFFFFFFFFFFFFFFFFFFFFFFFFFFFFFFFFFFFF
310
FFFFFFFFFFFFFFFFFFFFFFFFFFFFFFFFFFFFFFFFFFFFFFFFF000FFFFFFFFFFFF
310
FFFFFFFFFFFFFFFFFFFFFFFFFFFFFFFFFFFFFFFFFFFFFFFFFFFFFFFFFFFFFFFF
310
FFFFFFFFFFFFFFFFFFFFFFFFFFFFFFFFFFFFFFFFFFFFFFFFFFFFFFFFFFFFFFFF
310
FFFFFFFFFFFFFFFFFFFFFFFFFFFFFFFFF000FFFFFFFFFFFFFFFFFFFFFFFFFFFF
310
FFFFFFFFFFFFFFFFFFFFFFFFFFFFFFFFFFFFFFFFFFFFFFFFFFFFFFFFFFFFFFFF
310
FFFFFFFFFFFFFFFFFFFFFFFFFFFFFFFFFFFFFFFFFFFFFFFFFFFFFFFFFFFFFFFF
310
FFFFFFFFFFFFFFFFF000FFFFF80003FFFFFFFFFFFFFFFFFFFFFFFFFFFFFFFFFF
310
FFFFF00007FFFFFFFFFF00007FFFFFF800000000000000007FFFFFFFFFFFFFFF
310
FFFFFFFC001FFFFFFFFFFFFFFC001FFFFFFFFFFFFFFFFFFFFFFFFFFE0007FFFF
310
F000FFFF8000007FFFFFFFF8000FFFFFC0007FFFFF80007FFFFF0000007FFFFF
310
FFF8000007FFFFF800000000000000007FFFFFF0001FFFFFFFFFFFC00001FFFF
310
FFFFFFFFC00001FFFFFFFF000000000003FFFFE000007FFFF000FFFE0000000F
310
FFFFFFF0000FFFFF80007FFFFF80007FFFFC0000001FFFFFFFC0000001FFFFF8
310
00000000000000007FFFFFF0001FFFFFFFFFFE0000003FFFFFFFFFFE0000003F
310
FFFFFF000000000003FFFF0000000FFFF000FFF800000003FFFFFFF00007FFFF
310
80007FFFFF80007FFFF000000007FFFFFF000000003FFFF80000000000000000
310
7FFFFFF0001FFFFFFFFFF80000000FFFFFFFFFF80000000FFFFFFF0000000000
310
03FFFC00000003FFF000FFE000000000FFFFFFF00007FFFF80003FFFFF80007F
310
FFC000000001FFFFFC000000001FFFF800000000000000007FFFFFF0001FFFFF
310
FFFFE000000003FFFFFFFFE000000003FFFFFF000000000003FFF000000000FF
310
F000FF80000000007FFFFFF00007FFFF80003FFFFF80007FFF8000000000FFFF
310
F80000000007FFF800000000000000007FFFFFF0001FFFFFFFFFC000000001FF
310
FFFFFFC000000001FFFFFF000000000003FFC0000000007FF000FF0000000000
310
3FFFFFE00007FFFF00003FFFFF80007FFE00000000003FFFF00000000003FFF8
310
00000000000000007FFFFFF0001FFFFFFFFF8000000000FFFFFFFF8000000000
310
FFFFFF000000000003FF80000000003FF000FE00000000001FFFFFE00003FFFF
310
00003FFFFF80007FFC00000000001FFFE00000000001FFF8000001FFFE000000
310
7FFFFFF0001FFFFFFFFE00000000003FFFFFFE00000000003FFFFF0000000000
310
03FF00000000001FF000FC00000000000FFFFFE00003FFFF00001FFFFF80007F
310
F800000000001FFFC00000000000FFF8000001FFFE0000007FFFFFF0001FFFFF
310
FFFC00000000001FFFFFFC00000000001FFFFF000000000003FE00000000000F
310
F000F8000000000007FFFFE00003FFFF00001FFFFF80007FF800000000000FFF
310
800000000000FFF8000001FFFE0000007FFFFFF0001FFFFFFFF800000000000F
310
FFFFF800000000000FFFFF000000000003FC000000000007F000F80000000000
310
03FFFFC00003FFFE00001FFFFF80007FF0000000000007FF0000000000007FF8
310
000001FFFE0000007FFFFFF0001FFFFFFFF0000000000007FFFFF00000000000
310
07FFFF000000000003F8000000000003F000F0000000000003FFFFC00001FFFE
310
00001FFFFF80007FE0000000000007FE0000000000003FF8000001FFFE000000
310
7FFFFFF0001FFFFFFFF0000000000007FFFFF0000000000007FFFF0000000000
310
03F800001F800003F000E00001FFF00001FFFFC00001FFFE00000FFFFF80007F
310
E00001FFE00003FE00001FFF00003FF8000001FFFE0000007FFFFFF0001FFFFF
310
FFE000003E000003FFFFE000003E000003FFFF000000000003F00001FFF80001
310
F000E00007FFFC0001FFFFC00001FFFE00000FFFFF80007FC0000FFFFC0003FC
310
0000FFFFC0001FF8000001FFFE0000007FFFFFF0001FFFFFFFC00003FFE00001
310
FFFFC00003FFE00001FFFF0001FFFFFFFFF00007FFFE0001F000E0000FFFFF00
310
00FFFF800001FFFC00000FFFFF80007FC0001FFFFE0001FC0001FFFFE0001FF8
310
000001FFFE0000007FFFFFF0001FFFFFFF80000FFFF80000FFFF80000FFFF800
310
00FFFF0003FFFFFFFFE0000FFFFF8000F000C0003FFFFF8000FFFF800000FFFC
310
000007FFFF80007F80003FFFFF0001FC0003FFFFF0001FF8000001FFFE000000
310
7FFFFFF0001FFFFFFF80003FFFFE0000FFFF80003FFFFE0000FFFF0003FFFFFF
310
FFE0003FFFFF8000F000C0003FFFFF8000FFFF800000FFFC000007FFFF80007F
310
80007FFFFF8001F80007FFFFF8000FF8000001FFFE0000007FFFFFF0001FFFFF
310
FF00007FFFFF00007FFF00007FFFFF00007FFF0003FFFFFFFFE0003FFFFFC000
310
F000C0007FFFFFC000FFFF000000FFFC000007FFFF80007F8000FFFFFF8000F8
310
000FFFFFF8000FF8000001FFFE0000007FFFFFF0001FFFFFFF0000FFFFFF8000
310
7FFF0000FFFFFF80007FFF0003FFFFFFFFC0007FFFFFC00070008000FFFFFFC0
310
00FFFF000000FFF8000007FFFF80007F8000FFFFFF8000F8000FFFFFF8000FF8
310
000001FFFE0000007FFFFFF0001FFFFFFE0001FFFFFFC0003FFE0001FFFFFFC0
310
003FFF0003FFFFFFFFC0007FFFFFE00070008000FFFFFFC0007FFF0000007FF8
310
000003FFFF80007F0001FFFFFF8000F8000FFFFFF8000FF8000001FFFE000000
310
7FFFFFF0001FFFFFFE0001FFFFFFC0003FFE0001FFFFFFC0003FFF0003FFFFFF
310
FFC000FFFFFFE00070008000FFFFFFC0007FFF0000007FF8000003FFFF80007F
310
0001FFFFFF8000F8001FFFFFF8000FF8000001FFFE0000007FFFFFF0001FFFFF
310
FE0003FFFFFFE0003FFE0003FFFFFFE0003FFF0003FFFFFFFFC000FFFFFFE000
310
70008000FFFFFFC0007FFE0000007FF8000003FFFF80007F0001FFFFFF8000F0
310
001FFFFFF8000FF8000001FFFE0000007FFFFFF0001FFFFFFC0003FFFFFFE000
310
1FFC0003FFFFFFE0001FFF0003FFFFFFFFC000FFFFFFC00070008000FFFFFF80
310
007FFE0000007FF0000003FFFF80007F0001FFFFFF0000F0001FFFFFF8000FF8
310
000001FFFE0000007FFFFFF0001FFFFFFC0007FFFFFFF0001FFC0007FFFFFFF0
310
001FFF0003FFFFFFFFC000FFFFFFC00070008001FFFFFF0000FFFE0000003FF0
310
000001FFFF80007F0001FFFFFF0000F8001FFFFFF0000FF8000001FFFE000000
310
7FFFFFF0001FFFFFFC0007FFFFFFF0001FFC0007FFFFFFF0001FFF0003FFFFFF
310
FFC001FFFFFF80007000FFFFFFFFFE0000FFFE0008003FF0008001FFFF80007F
310
FFFFFFFFFC0000FFFFFFFFFFE0000FF8000001FFFE0000007FFFFFF0001FFFFF
310
F8000FFFFFFFF8000FF8000FFFFFFFF8000FFF0003FFFFFFFFFFFFFFFFFF0000
310
7000FFFFFFFFFC0000FFFC0008003FF0008001FFFF80007FFFFFFFFFF80001FF
310
FFFFFFFF80000FF8000001FFFE0000007FFFFFF0001FFFFFF8000FFFFFFFF800
310
0FF8000FFFFFFFF8000FFF0003FFFFFFFFFFFFFFFFFE0000F000FFFFFFFFE000
310
00FFFC000C003FE000C001FFFF80007FFFFFFFFFC00001FFFFFFFFFE00001FF8
310
000001FFFE0000007FFFFFF0001FFFFFF8000FFFFFFFF8000FF8000FFFFFFFF8
310
000FFF0003FFFFFFFFFFFFFFFFF00000F000FFFFFFFE000001FFFC000C001FE0
310
00C000FFFF80007FFFFFFFFE000001FFFFFFFFE000001FF80FFFFFFFFFFFFFC0
310
7FFFFFF0001FFFFFF8000FFFFFFFF8000FF8000FFFFFFFF8000FFF0003FFFFFF
310
FFFFFFFFFF800000F000FFFFFFC0000001FFFC001C001FE001C000FFFF80007F
310
FFFFFF80000003FFFFFFF80000001FF80FFFFFFFFFFFFFC07FFFFFF0001FFFFF
310
F8001FFFFFFFFC000FF8001FFFFFFFFC000FFF0003FFFFFFFFFFFFFFF0000001
310
F000FFFFF800000001FFF8001C001FE001C000FFFF80007FFFFFF800000003FF
310
FFFF800000003FF80FFFFFFFFFFFFFC07FFFFFF0001FFFFFF8001FFFFFFFFC00
310
0FF8001FFFFFFFFC000FFF0003FFFFFFFFFFFFFE00000001F000FFFFC0000000
310
03FFF8001E001FC001E000FFFF80007FFFFF8000000007FFFFFC000000003FF8
310
0FFFFFFFFFFFFFC07FFFFFF0001FFFFFF8001FFFFFFFFC000FF8001FFFFFFFFC
310
000FFF0003FFFFFFFFFFFFE000000003F000FFFE0000000007FFF8001E000FC0
310
01E0007FFF80007FFFFE0000000007FFFFE0000000007FF80FFFFFFFFFFFFFC0
310
7FFFFFF0001FFFFFF0001FFFFFFFFC0007F0001FFFFFFFFC0007FF0003FFFFFF
310
FFFFFF0000000003F000FFF80000000007FFF8001E000FC003E0007FFF80007F
310
FFF0000000000FFFFF8000000000FFF80FFFFFFFFFFFFFC07FFFFFF0001FFFFF
310
F0001FFFFFFFFC0007F0001FFFFFFFFC0007FF0003FFFFFFFFFFFC0000000007
310
F000FFE0000000000FFFF0003E000FC003E0007FFF80007FFFC0000000001FFF
310
FE0000000001FFF80FFFFFFFFFFFFFC07FFFFFF0001FFFFFF0001FFFFFFFFC00
310
07F0001FFFFFFFFC0007FF0003FFFFFFFFFFF0000000000FF000FFC000000000
310
1FFFF0003F000F8003F0003FFF80007FFF80000000003FFFF80000000003FFF8
310
0FFFFFFFFFFFFFC07FFFFFF0001FFFFFF0001FFFFFFFFC0007F0001FFFFFFFFC
310
0007FF0003FFFFFFFFFFE0000000001FF000FF00000000007FFFF0003F000780
310
03F0003FFF80007FFF00000000007FFFF00000000007FFF80FFFFFFFFFFFFFC0
310
7FFFFFF0001FFFFFF0001FFFFFFFFC0007F0001FFFFFFFFC0007FF0003FFFFFF
310
FFFF80000000007FF000FE0000000000FFFFE0003F00078007F0003FFF80007F
310
FE0000000001FFFFE0000000001FFFF80FFFFFFFFFFFFFC07FFFFFF0001FFFFF
310
F0001FFFFFFFFC0007F0001FFFFFFFFC0007FF0003FFFFFFFFFF0000000000FF
310
F000FC0000000003FFFFE0007F00078007F0003FFF80007FFC0000000007FFFF
310
C0000000007FFFF80FFFFFFFFFFFFFC07FFFFFF0001FFFFFF8001FFFFFFFFC00
310
0FF8001FFFFFFFFC000FFF0003FFFFFFFFFE0000000003FFF000FC000000000F
310
FFFFE0007F80070007F8001FFF80007FF8000000001FFFFF8000000001FFFFF8
310
0FFFFFFFFFFFFFC07FFFFFF0001FFFFFF8001FFFFFFFFC000FF8001FFFFFFFFC
310
000FFF0003FFFFFFFFFC000000000FFFF000F8000000007FFFFFE0007F800700
310
07F8001FFF80007FF000000000FFFFFF800000000FFFFFF80FFFFFFFFFFFFFC0
310
7FFFFFF0001FFFFFF8000FFFFFFFF8000FF8000FFFFFFFF8000FFF0003FFFFFF
310
FFFC000000007FFFF000F800000007FFFFFFC0007F8003000FF8001FFF80007F
310
F000000007FFFFFF000000007FFFFFF80FFFFFFFFFFFFFC07FFFFFF0001FFFFF
310
F8000FFFFFFFF8000FF8000FFFFFFFF8000FFF0003FFFFFFFFF80000000FFFFF
310
F000F0000000FFFFFFFFC000FF8003000FF8001FFF80007FE0000000FFFFFFFF
310
0000000FFFFFFFF8000001FFFE0000007FFFFFF0001FFFFFF8000FFFFFFFF800
310
0FF8000FFFFFFFF8000FFF0003FFFFFFFFF8000000FFFFFFF000F000000FFFFF
310
FFFFC000FFC002000FF8000FFF80007FE000001FFFFFFFFE000001FFFFFFFFF8
310
000001FFFE0000007FFFFFF0001FFFFFF8000FFFFFFFF8000FF8000FFFFFFFF8
310
000FFF0003FFFFFFFFF000001FFFFFFFF000E00000FFFFFFFFFFC000FFC00200
310
0FFC000FFF80007FE00001FFFFFFFFFE00001FFFFFFFFFF8000001FFFE000000
310
7FFFFFF0001FFFFFFC000FFFFFFFF8001FFC000FFFFFFFF8001FFF0003FFFFFF
310
FFF00001FFFFFFFFF000E00007FFFFFFFFFF8000FFC000001FFC000FFF80007F
310
C0000FFFFFFFFFFE0000FFFFFFFFFFF8000001FFFE0000007FFFFFF0001FFFFF
310
FC0007FFFFFFF0001FFC0007FFFFFFF0001FFF0003FFFFFFFFF00007FFFFFFFF
310
F000E0001FFFFFFFFFFF8000FFC000001FFC000FFF80007FC0003FFFFFFFFFFE
310
0001FFFFFFFFFFF8000001FFFE0000007FFFFFF0001FFFFFFC0007FFFFFFF000
310
1FFC0007FFFFFFF0001FFF0003FFFFFFFFF0001FFFFFFFFFF000E0003FFFFF00
310
03FF8001FFE000001FFC0007FF80007FC0007FFFFF0007FC0003FFFFF0003FF8
310
000001FFFE0000007FFFFFF0001FFFFFFC0003FFFFFFE0001FFC0003FFFFFFE0
310
001FFF0003FFFFFFFFF0003FFFFFFFFFF000E0003FFFFF0001FF8001FFE00000
310
1FFE0007FF80007FC0007FFFFE0003FC0007FFFFE0003FF8000001FFFE000000
310
7FFFFFF0001FFFFFFE0003FFFFFFE0003FFE0003FFFFFFE0003FFF0003FFFFFF
310
FFF0003FFFFF8001F000E0003FFFFF0001FF0001FFE000001FFE0007FF80007F
310
C0007FFFFE0003FC0007FFFFE0003FF8000001FFFE0000007FFFFFF0001FFFFF
310
FE0001FFFFFFC0003FFE0001FFFFFFC0003FFF0003FFFFFFFFF0003FFFFF0001
310
F000E0003FFFFF0003FF0001FFE000003FFE0007FF80007FC0007FFFFE0003FC
310
0007FFFFE0003FF8000001FFFE0000007FFFFFF0001FFFFFFF0001FFFFFFC000
310
7FFF0001FFFFFFC0007FFF0003FFFFFFFFF0003FFFFF0001F000E0003FFFFE00
310
03FF0003FFF000003FFE0003FF80007FC0007FFFFC0003FE0007FFFFE0003FF8
310
000001FFFE0000007FFFFFF0001FFFFFFF0000FFFFFF80007FFF0000FFFFFF80
310
007FFF0003FFFFFFFFF0003FFFFF0001F000E0003FFFFE0003FF0003FFF00000
310
3FFF0003FF80007FC0007FFFFC0007FE0007FFFFC0003FF8000001FFFE000000
310
7FFFFFF0001FFFFFFF80007FFFFF0000FFFF80007FFFFF0000FFFF0003FFFFFF
310
FFF0003FFFFF0003F000E0003FFFFC0003FE0003FFF000003FFF0003FF80007F
310
E0003FFFF80007FE0003FFFFC0007FF8000001FFFE0000007FFFFFF0001FFFFF
310
FF80003FFFFE0000FFFF80003FFFFE0000FFFF0003FFFFFFFFF0001FFFFE0003
310
F000F0001FFFF80003FE0003FFF000007FFF0001FF80007FE0003FFFF00007FE
310
0001FFFF80007FF8000001FFFE0000007FFFFFF0001FFFFFFFC0000FFFF80001
310
FFFFC0000FFFF80001FFFF0003FFFFFFFFF0001FFFFC0003F000F0000FFFF000
310
07FE0007FFF800007FFF0001FF80007FE0001FFFE00007FF0000FFFE00007FF8
310
000001FFFE0000007FFFFFF0001FFFFFFFC00003FFE00001FFFFC00003FFE000
310
01FFFF0003FFFFFFFFF8000FFFF80003F000F00003FFC00007FC0007FFF80000
310
7FFF8001FF80007FF00007FF80000FFF00007FF80000FFF8000001FFFE000000
310
7F80000000000001FFE000003E000003FFFFE000003E000003FFFF0003FFFFFF
310
FFF80003FFE00007F000F800000000000FFC0007FFF800007FFF8001FF80007F
310
F000000000000FFF000000000000FFF8000001FFFE0000007F80000000000001
310
FFF0000000000007FFFFF0000000000007FFFF0003FFFFFFFFFC00007E000007
310
F000F800000000000FFC0007FFF80000FFFF8000FF80007FF800000000001FFF
310
800000000001FFF8000001FFFE0000007F80000000000001FFF800000000000F
310
FFFFF800000000000FFFFF0003FFFFFFFFFC00000000000FF000FC0000000000
310
1FFC0007FFFC0000FFFF8000FF80007FF800000000003FFFC00000000001FFF8
310
000001FFFE0000007F80000000000001FFF800000000000FFFFFF80000000000
310
0FFFFF0003FFFFFFFFFE00000000001FF000FE00000000003FF8000FFFFC0000
310
FFFF8000FF80007FFC00000000003FFFC00000000003FFF8000001FFFE000000
310
7F80000000000001FFFC00000000001FFFFFFC00000000001FFFFF0003FFFFFF
310
FFFF00000000001FF000FF00000000003FF8000FFFFC0000FFFFC000FF80007F
310
FE00000000007FFFE00000000007FFF8000001FFFE0000007F80000000000001
310
FFFE00000000003FFFFFFE00000000003FFFFF0003FFFFFFFFFF80000000003F
310
F000FF80000000007FF8000FFFFC0001FFFFC0007F80007FFF0000000000FFFF
310
F0000000000FFFF800000000000000007F80000000000001FFFF8000000000FF
310
FFFFFF8000000000FFFFFF0003FFFFFFFFFFC0000000007FF000FFC000000000
310
FFF8000FFFFE0001FFFFC0007F80007FFF8000000001FFFFF8000000001FFFF8
310
00000000000000007F80000000000001FFFFC000000001FFFFFFFFC000000001
310
FFFFFF0003FFFFFFFFFFE000000000FFF000FFE000000003FFF0001FFFFE0001
310
FFFFC0007F80007FFFC000000007FFFFFE000000003FFFF80000000000000000
310
7F80000000000001FFFFE000000003FFFFFFFFE000000003FFFFFF0003FFFFFF
310
FFFFF000000003FFF000FFF80000000FFFF0001FFFFE0001FFFFE0007F80007F
310
FFF00000000FFFFFFF00000000FFFFF800000000000000007F80000000000001
310
FFFFF80000000FFFFFFFFFF80000000FFFFFFF0003FFFFFFFFFFFC0000000FFF
310
F000FFFE0000003FFFF0001FFFFE0003FFFFE0003F80007FFFFC0000003FFFFF
310
FFC0000003FFFFF800000000000000007F80000000000001FFFFFE0000003FFF
310
FFFFFFFE0000003FFFFFFF0003FFFFFFFFFFFF0000003FFFF000FFFF800000FF
310
FFF0001FFFFF0003FFFFE0003F80007FFFFF000001FFFFFFFFF800001FFFFFF8
310
00000000000000007F80000000000001FFFFFFC00001FFFFFFFFFFFFC00001FF
310
FFFFFF0003FFFFFFFFFFFFC00000FFFFF000FFFFF8000FFFFFFFFFFFFFFFFFFF
310
FFFFFFFFFFFFFFFFFFFFF0001FFFFFFFFFFF0000FFFFFFF80000000000000000
310
7FFFFFFFFFFFFFFFFFFFFFFC001FFFFFFFFFFFFFFC001FFFFFFFFFFFFFFFFFFF
310
FFFFFFFC001FFFFFF000FFFFFFFFFFFFFFFFFFFFFFFFFFFFFFFFFFFFFFFFFFFF
310
FFFFFFFFFFFFFFFFFFFFFFFFFFFFFFFFFFFFFFFFFFFFFFFFFFFFFFFFFFFFFFFF
310
FFFFFFFFFFFFFFFFFFFFFFFFFFFFFFFFFFFFFFFFFFFFFFFFFFFFFFFFFFFFFFFF
310
F000FFFFFFFFFFFFFFFFFFFFFFFFFFFFFFFFFFFFFFFFFFFFFFFFFFFFFFFFFFFF
310
FFFFFFFFFFFFFFFFFFFFFFFFFFFFFFFFFFFFFFFFFFFFFFFFFFFFFFFFFFFFFFFF
310
FFFFFFFFFFFFFFFFFFFFFFFFFFFFFFFFFFFFFFFFFFFFFFFFF000FFFFFFFFFFFF
310
FFFFFFFFFFFFFFFFFFFFFFFFFFFFFFFFFFFFFFFFFFFFFFFFFFFFFFFFFFFFFFFF
310
FFFFFFFFFFFFFFFFFFFFFFFFFFFFFFFFFFFFFFFFFFFFFFFFFFFFFFFFFFFFFFFF
310
FFFFFFFFFFFFFFFFFFFFFFFFFFFFFFFFF000FFFFFFFFFFFFFFFFFFFFFFFFFFFF
310
FFFFFFFFFFFFFFFFFFFFFFFFFFFFFFFFFFFFFFFFFFFFFFFFFFFFFFFFFFFFFFFF
310
FFFFFFFFFFFFFFFFFFFFFFFFFFFFFFFFFFFFFFFFFFFFFFFFFFFFFFFFFFFFFFFF
310
FFFFFFFFFFFFFFFFF000FFFFFFFFFFFFFFFFFFFFFFFFFFFFFFFFFFFFFFFFFFFF
310
FFFFFFFFFFFFFFFFFFFFFFFFFFFFFFFFFFFFFFFFFFFFFFFFFFFFFFFFFFFFFFFF
310
FFFFFFFFFFFFFFFFFFFFFFFFFFFFFFFFFFFFFFFFFFFFFFFFFFFFFFFFFFFFFFFF
310
F000FFFFFFFFFFFFFFFFFFFFFFFFFFFFFFFFFFFFFFFFFFFFFFFFFFFFFFFFFFFF
310
FFFFFFFFFFFFFFFFFFFFFFFFFFFFFFFFFFFFFFFFFFFFFFFFFFFFFFFFFFFFFFFF
310
FFFFFFFFFFFFFFFFFFFFFFFFFFFFFFFFFFFFFFFFFFFFFFFFF000FFFFFFFFFFFF
310
FFFFFFFFFFFFFFFFFFFFFFFFFFFFFFFFFFFFFFFFFFFFFFFFFFFFFFFFFFFFFFFF
310
FFFFFFFFFFFFFFFFFFFFFFFFFFFFFFFFFFFFFFFFFFFFFFFFFFFFFFFFFFFFFFFF
310
FFFFFFFFFFFFFFFFFFFFFFFFFFFFFFFFF000FFFFFFFFFFFFFFFFFFFFFFFFFFFF
310
FFFFFFFFFFFFFFFFFFFFFFFFFFFFFFFFFFFFFFFFFFFFFFFFFFFFFFFFFFFFFFFF
310
FFFFFFFFFFFFFFFFFFFFFFFFFFFFFFFFFFFFFFFFFFFFFFFFFFFFFFFFFFFFFFFF
310
FFFFFFFFFFFFFFFFF000FFFFFFFFFFFFFFFFFFFFFFFFFFFFFFFFFFFFFFFFFFFF
310
FFFFFFFFFFFFFFFFFFFFFFFFFFFFFFFFFFFFFFFFFFFFFFFFFFFFFFFFFFFFFFFF
310
FFFFFFFFFFFFFFFFFFFFFFFFFFFFFFFFFFFFFFFFFFFFFFFFFFFFFFFFFFFFFFFF
310
F000FFFFFFFFFFFFFFFFFFFFFFFFFFFFFFFFFFFFFFFFFFFFFFFFFFFFFFFFFFFF
310
FFFFFFFFFFFFFFFFFFFFFFFFFFFFFFFFFFFFFFFFFFFFFFFFFFFFFFFFFFFFFFFF
310
FFFFFFFFFFFFFFFFFFFFFFFFFFFFFFFFFFFFFFFFFFFFFFFFF000FFFFFFFFFFFF
310
FFFFFFFFFFFFFFFFFFFFFFFFFFFFFFFFFFFFFFFFFFFFFFFFFFFFFFFFFFFFFFFF
310
FFFFFFFFFFFFFFFFFFFFFFFFFFFFFFFFFFFFFFFFFFFFFFFFFFFFFFFFFFFFFFFF
310
FFFFFFFFFFFFFFFFFFFFFFFFFFFFFFFFF000FFFFFFFFFFFFFFFFFFFFFFFFFFFF
310
FFFFFFFFFFFFFFFFFFFFFFFFFFFFFFFFFFFFFFFFFFFFFFFFFFFFFFFFFFFFFFFF
310
FFFFFFFFFFFFFFFFFFFFFFFFFFFFFFFFFFFFFFFFFFFFFFFFFFFFFFFFFFFFFFFF
310
FFFFFFFFFFFFFFFFF000FFFFFFFFFFFFFFFFFFFFFFFFFFFFFFFFFFFFFFFFFFFF
310
FFFFFFFFFFFFFFFFFFFFFFFFFFFFFFFFFFFFFFFFFFFFFFFFFFFFFFFFFFFFFFFF
310
FFFFFFFFFFFFFFFFFFFFFFFFFFFFFFFFFFFFFFFFFFFFFFFFFFFFFFFFFFFFFFFF
310
F000FFFFFFFFFFFFFFFFFFFFFFFFFFFFFFFFFFFFFFFFFFFFFFFFFFFFFFFFFFFF
310
FFFFFFFFFFFFFFFFFFFFFFFFFFFFFFFFFFFFFFFFFFFFFFFFFFFFFFFFFFFFFFFF
310
FFFFFFFFFFFFFFFFFFFFFFFFFFFFFFFFFFFFFFFFFFFFFFFFF000FFFFFFFFFFFF
310
FFFFFFFFFFFFFFFFFFFFFFFFFFFFFFFFFFFFFFFFFFFFFFFFFFFFFFFFFFFFFFFF
310
FFFFFFFFFFFFFFFFFFFFFFFFFFFFFFFFFFFFFFFFFFFFFFFFFFFFFFFFFFFFFFFF
310
FFFFFFFFFFFFFFFFFFFFFFFFFFFFFFFFF000FFFFFFFFFFFFFFFFFFFFFFFFFFFF
310
FFFFFFFFFFFFFFFFFFFFFFFFFFFFFFFFFFFFFFFFFFFFFFFFFFFFFFFFFFFFFFFF
310
FFFFFFFFFFFFFFFFFFFFFFFFFFFFFFFFFFFFFFFFFFFFFFFFFFFFFFFFFFFFFFFF
310
FFFFFFFFFFFFFFFFF000FFFFFFFFFFFFFFFFFFFFFFFFFFFFFFFFFFFFFFFFFFFF
310
FFFFFFFFFFFFFFFFFFFFFFFFFFFFFFFFFFFFFFFFFFFFFFFFFFFFFFFFFFFFFFFF
310
FFFFFFFFFFFFFFFFFFFFFFFFFFFFFFFFFFFFFFFFFFFFFFFFFFFFFFFFFFFFFFFF
310
F000FFFFFFFFFFFFFFFFFFFFFFFFFFFFFFFFFFFFFFFFFFFFFFFFFFFFFFFFFFFF
310
FFFFFFFFFFFFFFFFFFFFFFFFFFFFFFFFFFFFFFFFFFFFFFFFFFFFFFFFFFFFFFFF
310
FFFFFFFFFFFFFFFFFFFFFFFFFFFFFFFFFFFFFFFFFFFFFFFFF000FFFFFFFFFFFF
310
FFFFFFFFFFFFFFFFFFFFFFFFFFFFFFFFFFFFFFFFFFFFFFFFFFFFFFFFFFFFFFFF
310
FFFFFFFFFFFFFFFFFFFFFFFFFFFFFFFFFFFFFFFFFFFFFFFFFFFFFFFFFFFFFFFF
310
FFFFFFFFFFFFFFFFFFFFFFFFFFFFFFFFF000FFFFFFFFFFFFFFFFFFFFFFFFFFFF
310
FFFFFFFFFFFFFFFFFFFFFFFFFFFFFFFFFFFFFFFFFFFFFFFFFFFFFFFFFFFFFFFF
310
FFFFFFFFFFFFFFFFFFFFFFFFFFFFFFFFFFFFFFFFFFFFFFFFFFFFFFFFFFFFFFFF
310
FFFFFFFFFFFFFFFFF000FFFFFFFFFFFFFFFFFFFFFFFFFFFFFFFFFFFFFFFFFFFF
310
FFFFFFFFFFFFFFFFFFFFFFFFFFFFFFFFFFFFFFFFFFFFFFFFFFFFFFFFFFFFFFFF
310
FFFFFFFFFFFFFFFFFFFFFFFFFFFFFFFFFFFFFFFFFFFFFFFFFFFFFFFFFFFFFFFF
310
F000FFFFFFFFFFFFFFFFFFFFFFFFFFFFFFFFFFFFFFFFFFFFFFFFFFFFFFFFFFFF
310
FFFFFFFFFFFFFFFFFFFFFFFFFFFFFFFFFFFFFFFFFFFFFFFFFFFFFFFFFFFFFFFF
310
FFFFFFFFFFFFFFFFFFFFFFFFFFFFFFFFFFFFFFFFFFFFFFFFF000FFFFFFFFFFFF
310
FFFFFFFFFFFFFFFFFFFFFFFFFFFFFFFFFFFFFFFFFFFFFFFFFFFFFFFFFFFFFFFF
310
FFFFFFFFFFFFFFFFFFFFFFFFFFFFFFFFFFFFFFFFFFFFFFFFFFFFFFFFFFFFFFFF
310
FFFFFFFFFFFFFFFFFFFFFFFFFFFFFFFFF0000000000000000000000000000000
310
0000000000000000000000000000000000000000000000000000000000000000
310
0000000000000000000000000000000000000000000000000000000000000000
310
0000000000000000000000000000000000000000000000000000000000000000
310
0000000000000000000000000000000000000000000000000000000000000000
310
0000000000000000000000000000000000000000000000000000000000000000
310
0000000000000000000000000000000000000000000000000000000000000000
310
0000000000000000000000000000000000000000000000000000000000000000
310
0000000000000000000000000000000000000000000000000000000000000000
310
0000000000000000000000000000000000000000000000000000000000000000
310
0000000000000000000000000000000000000000000000000000000000000000
310
0000000000000000000000000000000000000000000000000000000000000000
310
0000000000000000000000000000000000000000000000000000000000000000
310
0000000000000000000000000000000000000000000000000000000000000000
310
0000000000000000000000000000000000000000000000000000000000000000
310
0000000000000000000000000000000000000000000000000000000000000000
  1
OLE
  0
ENDSEC
  0
SECTION
  2
OBJECTS
  0
DICTIONARY
  5
C
330
0
100
AcDbDictionary
281
     1
  3
ACAD_GROUP
350
D
  3
ACAD_LAYOUT
350
1A
  3
ACAD_MLINESTYLE
350
17
  3
ACAD_PLOTSETTINGS
350
19
  3
ACAD_PLOTSTYLENAME
350
E
  0
DICTIONARY
  5
D
102
{ACAD_REACTORS
330
C
102
}
330
C
100
AcDbDictionary
281
     1
  0
DICTIONARY
  5
1A
102
{ACAD_REACTORS
330
C
102
}
330
C
100
AcDbDictionary
281
     1
  3
Layout1
350
1E
  3
Layout2
350
26
  3
Model
350
22
  0
DICTIONARY
  5
17
102
{ACAD_REACTORS
330
C
102
}
330
C
100
AcDbDictionary
281
     1
  3
Standard
350
18
  0
DICTIONARY
  5
19
102
{ACAD_REACTORS
330
C
102
}
330
C
100
AcDbDictionary
281
     1
  0
ACDBDICTIONARYWDFLT
  5
E
102
{ACAD_REACTORS
330
C
102
}
330
C
100
AcDbDictionary
281
     1
  3
Normal
350
F
100
AcDbDictionaryWithDefault
340
F
  0
LAYOUT
  5
1E
102
{ACAD_REACTORS
330
1A
102
}
330
1A
100
AcDbPlotSettings
  1

  2
none_device
  4

  6

 40
0.0
 41
0.0
 42
0.0
 43
0.0
 44
0.0
 45
0.0
 46
0.0
 47
0.0
 48
0.0
 49
0.0
140
0.0
141
0.0
142
1.0
143
1.0
 70
   688
 72
     0
 73
     0
 74
     5
  7

 75
    16
147
1.0
148
0.0
149
0.0
100
AcDbLayout
  1
Layout1
 70
     1
 71
     1
 10
0.0
 20
0.0
 11
420.0
 21
297.0
 12
0.0
 22
0.0
 32
0.0
 14
1.0000000000E+20
 24
1.0000000000E+20
 34
1.0000000000E+20
 15
-1.0000000000E+20
 25
-1.0000000000E+20
 35
-1.0000000000E+20
146
0.0
 13
0.0
 23
0.0
 33
0.0
 16
1.0
 26
0.0
 36
0.0
 17
0.0
 27
1.0
 37
0.0
 76
     0
330
1B
  0
LAYOUT
  5
26
102
{ACAD_REACTORS
330
1A
102
}
330
1A
100
AcDbPlotSettings
  1

  2
none_device
  4

  6

 40
0.0
 41
0.0
 42
0.0
 43
0.0
 44
0.0
 45
0.0
 46
0.0
 47
0.0
 48
0.0
 49
0.0
140
0.0
141
0.0
142
1.0
143
1.0
 70
   688
 72
     0
 73
     0
 74
     5
  7

 75
    16
147
1.0
148
0.0
149
0.0
100
AcDbLayout
  1
Layout2
 70
     1
 71
     2
 10
0.0
 20
0.0
 11
0.0
 21
0.0
 12
0.0
 22
0.0
 32
0.0
 14
0.0
 24
0.0
 34
0.0
 15
0.0
 25
0.0
 35
0.0
146
0.0
 13
0.0
 23
0.0
 33
0.0
 16
1.0
 26
0.0
 36
0.0
 17
0.0
 27
1.0
 37
0.0
 76
     0
330
23
  0
LAYOUT
  5
22
102
{ACAD_REACTORS
330
1A
102
}
330
1A
100
AcDbPlotSettings
  1

  2
none_device
  4

  6

 40
0.0
 41
0.0
 42
0.0
 43
0.0
 44
0.0
 45
0.0
 46
0.0
 47
0.0
 48
0.0
 49
0.0
140
0.0
141
0.0
142
1.0
143
1.0
 70
  1712
 72
     0
 73
     0
 74
     0
  7

 75
     0
147
1.0
148
0.0
149
0.0
100
AcDbLayout
  1
Model
 70
     1
 71
     0
 10
0.0
 20
0.0
 11
297.0
 21
210.0
 12
0.0
 22
0.0
 32
0.0
 14
0.0
 24
0.0
 34
0.0
 15
297.0
 25
210.0
 35
0.0
146
0.0
 13
0.0
 23
0.0
 33
0.0
 16
1.0
 26
0.0
 36
0.0
 17
0.0
 27
1.0
 37
0.0
 76
     0
330
1F
331
29
  0
MLINESTYLE
  5
18
102
{ACAD_REACTORS
330
17
102
}
330
17
100
AcDbMlineStyle
  2
Standard
 70
     0
  3

 62
   256
 51
90.0
 52
90.0
 71
     2
 49
0.5
 62
   256
  6
BYLAYER
 49
-0.5
 62
   256
  6
BYLAYER
  0
ACDBPLACEHOLDER
  5
F
102
{ACAD_REACTORS
330
E
102
}
330
E
  0
ENDSEC
  0
EOF
