  0
SECTION
  2
HEADER
  9
$ACADVER
  1
AC1015
  9
$ACADMAINTVER
 70
     6
  9
$DWGCODEPAGE
  3
ANSI_1252
  9
$INSBASE
 10
0.0
 20
0.0
 30
0.0
  9
$EXTMIN
 10
0.0
 20
0.0
 30
0.0
  9
$EXTMAX
 10
297.0
 20
210.0
 30
0.0
  9
$LIMMIN
 10
0.0
 20
0.0
  9
$LIMMAX
 10
297.0
 20
210.0
  9
$ORTHOMODE
 70
     0
  9
$REGENMODE
 70
     1
  9
$FILLMODE
 70
     1
  9
$QTEXTMODE
 70
     0
  9
$MIRRTEXT
 70
     1
  9
$LTSCALE
 40
1.0
  9
$ATTMODE
 70
     1
  9
$TEXTSIZE
 40
2.0
  9
$TRACEWID
 40
1.0
  9
$TEXTSTYLE
  7
Standard
  9
$CLAYER
  8
0
  9
$CELTYPE
  6
ByLayer
  9
$CECOLOR
 62
   256
  9
$CELTSCALE
 40
1.0
  9
$DISPSILH
 70
     0
  9
$DIMSCALE
 40
1.0
  9
$DIMASZ
 40
3.0
  9
$DIMEXO
 40
0.0
  9
$DIMDLI
 40
3.75
  9
$DIMRND
 40
0.0
  9
$DIMDLE
 40
0.0
  9
$DIMEXE
 40
1.0
  9
$DIMTP
 40
0.0
  9
$DIMTM
 40
0.0
  9
$DIMTXT
 40
2.0
  9
$DIMCEN
 40
2.5
  9
$DIMTSZ
 40
0.0
  9
$DIMTOL
 70
     0
  9
$DIMLIM
 70
     0
  9
$DIMTIH
 70
     1
  9
$DIMTOH
 70
     1
  9
$DIMSE1
 70
     0
  9
$DIMSE2
 70
     0
  9
$DIMTAD
 70
     1
  9
$DIMZIN
 70
     0
  9
$DIMBLK
  1

  9
$DIMASO
 70
     1
  9
$DIMSHO
 70
     1
  9
$DIMPOST
  1

  9
$DIMAPOST
  1

  9
$DIMALT
 70
     0
  9
$DIMALTD
 70
     3
  9
$DIMALTF
 40
0.0393700787
  9
$DIMLFAC
 40
1.0
  9
$DIMTOFL
 70
     1
  9
$DIMTVP
 40
0.0
  9
$DIMTIX
 70
     0
  9
$DIMSOXD
 70
     0
  9
$DIMSAH
 70
     0
  9
$DIMBLK1
  1

  9
$DIMBLK2
  1

  9
$DIMSTYLE
  2
ISO-25
  9
$DIMCLRD
 70
     0
  9
$DIMCLRE
 70
     0
  9
$DIMCLRT
 70
     0
  9
$DIMTFAC
 40
1.0
  9
$DIMGAP
 40
1.524
  9
$DIMJUST
 70
     0
  9
$DIMSD1
 70
     0
  9
$DIMSD2
 70
     0
  9
$DIMTOLJ
 70
     0
  9
$DIMTZIN
 70
     0
  9
$DIMALTZ
 70
     0
  9
$DIMALTTZ
 70
     0
  9
$DIMUPT
 70
     0
  9
$DIMDEC
 70
     2
  9
$DIMTDEC
 70
     3
  9
$DIMALTU
 70
     2
  9
$DIMALTTD
 70
     3
  9
$DIMTXSTY
  7
Standard
  9
$DIMAUNIT
 70
     0
  9
$DIMADEC
 70
     2
  9
$DIMALTRND
 40
0.0
  9
$DIMAZIN
 70
     0
  9
$DIMDSEP
 70
    44
  9
$DIMATFIT
 70
     3
  9
$DIMFRAC
 70
     0
  9
$DIMLDRBLK
  1

  9
$DIMLUNIT
 70
     2
  9
$DIMLWD
 70
    -2
  9
$DIMLWE
 70
    -2
  9
$DIMTMOVE
 70
     0
  9
$LUNITS
 70
     2
  9
$LUPREC
 70
     2
  9
$SKETCHINC
 40
1.0
  9
$FILLETRAD
 40
10.0
  9
$AUNITS
 70
     0
  9
$AUPREC
 70
     2
  9
$MENU
  1
.
  9
$ELEVATION
 40
0.0
  9
$PELEVATION
 40
0.0
  9
$THICKNESS
 40
0.0
  9
$LIMCHECK
 70
     0
  9
$CHAMFERA
 40
10.0
  9
$CHAMFERB
 40
10.0
  9
$CHAMFERC
 40
20.0
  9
$CHAMFERD
 40
0.0
  9
$SKPOLY
 70
     0
  9
$TDCREATE
 40
2456073.36073184
  9
$TDUCREATE
 40
2456073.277398507
  9
$TDUPDATE
 40
2456073.360732917
  9
$TDUUPDATE
 40
2456073.277399583
  9
$TDINDWG
 40
0.0000000116
  9
$TDUSRTIMER
 40
0.0000000116
  9
$USRTIMER
 70
     1
  9
$ANGBASE
 50
0.0
  9
$ANGDIR
 70
     0
  9
$PDMODE
 70
     0
  9
$PDSIZE
 40
-1.0
  9
$PLINEWID
 40
0.0
  9
$SPLFRAME
 70
     0
  9
$SPLINETYPE
 70
     6
  9
$SPLINESEGS
 70
     8
  9
$HANDSEED
  5
3D2
  9
$SURFTAB1
 70
     6
  9
$SURFTAB2
 70
     6
  9
$SURFTYPE
 70
     6
  9
$SURFU
 70
     6
  9
$SURFV
 70
     6
  9
$UCSBASE
  2

  9
$UCSNAME
  2

  9
$UCSORG
 10
0.0
 20
0.0
 30
0.0
  9
$UCSXDIR
 10
1.0
 20
0.0
 30
0.0
  9
$UCSYDIR
 10
0.0
 20
1.0
 30
0.0
  9
$UCSORTHOREF
  2

  9
$UCSORTHOVIEW
 70
     0
  9
$UCSORGTOP
 10
0.0
 20
0.0
 30
0.0
  9
$UCSORGBOTTOM
 10
0.0
 20
0.0
 30
0.0
  9
$UCSORGLEFT
 10
0.0
 20
0.0
 30
0.0
  9
$UCSORGRIGHT
 10
0.0
 20
0.0
 30
0.0
  9
$UCSORGFRONT
 10
0.0
 20
0.0
 30
0.0
  9
$UCSORGBACK
 10
0.0
 20
0.0
 30
0.0
  9
$PUCSBASE
  2

  9
$PUCSNAME
  2

  9
$PUCSORG
 10
0.0
 20
0.0
 30
0.0
  9
$PUCSXDIR
 10
1.0
 20
0.0
 30
0.0
  9
$PUCSYDIR
 10
0.0
 20
1.0
 30
0.0
  9
$PUCSORTHOREF
  2

  9
$PUCSORTHOVIEW
 70
     0
  9
$PUCSORGTOP
 10
0.0
 20
0.0
 30
0.0
  9
$PUCSORGBOTTOM
 10
0.0
 20
0.0
 30
0.0
  9
$PUCSORGLEFT
 10
0.0
 20
0.0
 30
0.0
  9
$PUCSORGRIGHT
 10
0.0
 20
0.0
 30
0.0
  9
$PUCSORGFRONT
 10
0.0
 20
0.0
 30
0.0
  9
$PUCSORGBACK
 10
0.0
 20
0.0
 30
0.0
  9
$USERI1
 70
     0
  9
$USERI2
 70
     0
  9
$USERI3
 70
     0
  9
$USERI4
 70
     0
  9
$USERI5
 70
     0
  9
$USERR1
 40
0.0
  9
$USERR2
 40
0.0
  9
$USERR3
 40
0.0
  9
$USERR4
 40
0.0
  9
$USERR5
 40
0.0
  9
$WORLDVIEW
 70
     1
  9
$SHADEDGE
 70
     3
  9
$SHADEDIF
 70
    70
  9
$TILEMODE
 70
     1
  9
$MAXACTVP
 70
    64
  9
$PINSBASE
 10
0.0
 20
0.0
 30
0.0
  9
$PLIMCHECK
 70
     0
  9
$PEXTMIN
 10
1.0000000000E+20
 20
1.0000000000E+20
 30
1.0000000000E+20
  9
$PEXTMAX
 10
-1.0000000000E+20
 20
-1.0000000000E+20
 30
-1.0000000000E+20
  9
$PLIMMIN
 10
0.0
 20
0.0
  9
$PLIMMAX
 10
420.0
 20
297.0
  9
$UNITMODE
 70
     0
  9
$VISRETAIN
 70
     1
  9
$PLINEGEN
 70
     0
  9
$PSLTSCALE
 70
     1
  9
$TREEDEPTH
 70
  3020
  9
$CMLSTYLE
  2
Standard
  9
$CMLJUST
 70
     0
  9
$CMLSCALE
 40
20.0
  9
$PROXYGRAPHICS
 70
     1
  9
$MEASUREMENT
 70
     1
  9
$CELWEIGHT
370
    -1
  9
$ENDCAPS
280
     0
  9
$JOINSTYLE
280
     0
  9
$LWDISPLAY
290
     1
  9
$INSUNITS
 70
     4
  9
$HYPERLINKBASE
  1

  9
$STYLESHEET
  1

  9
$XEDIT
290
     1
  9
$CEPSNTYPE
380
     0
  9
$PSTYLEMODE
290
     1
  9
$FINGERPRINTGUID
  2
{D80ADCC4-9805-4DC5-BC1C-7D755A1E9ADF}
  9
$VERSIONGUID
  2
{FAEB1C32-E019-11D5-929B-00C0DF256EC4}
  9
$EXTNAMES
290
     1
  9
$PSVPSCALE
 40
0.0
  9
$OLESTARTUP
290
     0
  0
ENDSEC
  0
SECTION
  2
CLASSES
  0
CLASS
  1
ACDBDICTIONARYWDFLT
  2
AcDbDictionaryWithDefault
  3
ObjectDBX Classes
 90
        0
280
     0
281
     0
  0
CLASS
  1
VISUALSTYLE
  2
AcDbVisualStyle
  3
ObjectDBX Classes
 90
     4095
280
     0
281
     0
  0
CLASS
  1
MATERIAL
  2
AcDbMaterial
  3
ObjectDBX Classes
 90
     1153
280
     0
281
     0
  0
CLASS
  1
ACDBPLACEHOLDER
  2
AcDbPlaceHolder
  3
ObjectDBX Classes
 90
        0
280
     0
281
     0
  0
CLASS
  1
LAYOUT
  2
AcDbLayout
  3
ObjectDBX Classes
 90
        0
280
     0
281
     0
  0
ENDSEC
  0
SECTION
  2
TABLES
  0
TABLE
  2
VPORT
  5
8
330
0
100
AcDbSymbolTable
 70
     1
  0
VPORT
  5
29
330
8
100
AcDbSymbolTableRecord
100
AcDbViewportTableRecord
  2
*Active
 70
     0
 10
0.0
 20
0.0
 11
1.0
 21
1.0
 12
148.5
 22
105.0
 13
0.0
 23
0.0
 14
10.0
 24
10.0
 15
10.0
 25
10.0
 16
0.0
 26
0.0
 36
1.0
 17
0.0
 27
0.0
 37
0.0
 40
210.0
 41
1.4142857143
 42
50.0
 43
0.0
 44
0.0
 50
0.0
 51
0.0
 71
     0
 72
  2000
 73
     1
 74
     3
 75
     0
 76
     0
 77
     0
 78
     0
281
     0
 65
     1
110
0.0
120
0.0
130
0.0
111
1.0
121
0.0
131
0.0
112
0.0
122
1.0
132
0.0
 79
     0
146
0.0
  0
ENDTAB
  0
TABLE
  2
LTYPE
  5
5
330
0
100
AcDbSymbolTable
 70
     6
  0
LTYPE
  5
14
330
5
100
AcDbSymbolTableRecord
100
AcDbLinetypeTableRecord
  2
ByBlock
 70
     0
  3

 72
    65
 73
     0
 40
0.0
  0
LTYPE
  5
15
330
5
100
AcDbSymbolTableRecord
100
AcDbLinetypeTableRecord
  2
ByLayer
 70
     0
  3

 72
    65
 73
     0
 40
0.0
  0
LTYPE
  5
16
330
5
100
AcDbSymbolTableRecord
100
AcDbLinetypeTableRecord
  2
Continuous
 70
     0
  3
Solid line
 72
    65
 73
     0
 40
0.0
  0
LTYPE
  5
3F
330
5
100
AcDbSymbolTableRecord
100
AcDbLinetypeTableRecord
  2
HIDDEN
 70
     0
  3
Hidden __ __ __ __ __ __ __ __ __ __ __ __ __ __
 72
    65
 73
     2
 40
1.905
 49
1.27
 74
     0
 49
-0.635
 74
     0
  0
LTYPE
  5
40
330
5
100
AcDbSymbolTableRecord
100
AcDbLinetypeTableRecord
  2
PHANTOM
 70
     0
  3
Phantom ______  __  __  ______  __  __  ______
 72
    65
 73
     6
 40
12.7
 49
6.35
 74
     0
 49
-1.27
 74
     0
 49
1.27
 74
     0
 49
-1.27
 74
     0
 49
1.27
 74
     0
 49
-1.27
 74
     0
  0
LTYPE
  5
41
330
5
100
AcDbSymbolTableRecord
100
AcDbLinetypeTableRecord
  2
CENTER
 70
     0
  3
Center ____ _ ____ _ ____ _ ____ _ ____ _ ____
 72
    65
 73
     4
 40
10.16
 49
6.35
 74
     0
 49
-1.27
 74
     0
 49
1.27
 74
     0
 49
-1.27
 74
     0
  0
LTYPE
  5
42
330
5
100
AcDbSymbolTableRecord
100
AcDbLinetypeTableRecord
  2
CENTERX2
 70
     0
  3
Center (2x) ________  __  ________  __  _____
 72
    65
 73
     4
 40
20.32
 49
12.7
 74
     0
 49
-2.54
 74
     0
 49
2.54
 74
     0
 49
-2.54
 74
     0
  0
LTYPE
  5
43
330
5
100
AcDbSymbolTableRecord
100
AcDbLinetypeTableRecord
  2
DOT2
 70
     0
  3
Dot (.5x) ........................................
 72
    65
 73
     2
 40
0.635
 49
0.0
 74
     0
 49
-0.635
 74
     0
  0
ENDTAB
  0
TABLE
  2
LAYER
  5
2
330
0
100
AcDbSymbolTable
 70
     5
  0
LAYER
  5
10
330
2
100
AcDbSymbolTableRecord
100
AcDbLayerTableRecord
  2
0
 70
     0
 62
     7
  6
Continuous
370
    -3
390
F
  0
LAYER
  5
44
330
2
100
AcDbSymbolTableRecord
100
AcDbLayerTableRecord
  2
FORMAT
 70
     0
 62
     7
  6
Continuous
370
    -3
390
F
  0
LAYER
  5
45
330
2
100
AcDbSymbolTableRecord
100
AcDbLayerTableRecord
  2
VERMASSUNG
 70
     0
 62
     7
  6
Continuous
370
    -3
390
F
  0
LAYER
  5
46
330
2
100
AcDbSymbolTableRecord
100
AcDbLayerTableRecord
  2
KOPF_DÜNN
 70
     0
 62
     7
  6
Continuous
370
    -3
390
F
  0
LAYER
  5
47
330
2
100
AcDbSymbolTableRecord
100
AcDbLayerTableRecord
  2
KOPF_DICK
 70
     0
 62
     7
  6
Continuous
370
    15
390
F
  0
ENDTAB
  0
TABLE
  2
STYLE
  5
3
330
0
100
AcDbSymbolTable
 70
     3
  0
STYLE
  5
11
330
3
100
AcDbSymbolTableRecord
100
AcDbTextStyleTableRecord
  2
Standard
 70
     0
 40
0.0
 41
1.0
 50
0.0
 71
     0
 42
2.0
  3
txt
  4

  0
STYLE
  5
48
330
3
100
AcDbSymbolTableRecord
100
AcDbTextStyleTableRecord
  2
SLDTEXTSTYLE0
 70
     0
 40
0.0
 41
0.7
 50
0.0
 71
     0
 42
0.2
  3
TXT
  4

  0
STYLE
  5
4C
330
3
100
AcDbSymbolTableRecord
100
AcDbTextStyleTableRecord
  2
SLDTEXTSTYLE1
 70
     0
 40
0.0
 41
0.645
 50
0.0
 71
     0
 42
0.2
  3
TXT
  4

  0
ENDTAB
  0
TABLE
  2
VIEW
  5
6
330
0
100
AcDbSymbolTable
 70
     0
  0
ENDTAB
  0
TABLE
  2
UCS
  5
7
330
0
100
AcDbSymbolTable
 70
     0
  0
ENDTAB
  0
TABLE
  2
APPID
  5
9
330
0
100
AcDbSymbolTable
 70
     1
  0
APPID
  5
12
330
9
100
AcDbSymbolTableRecord
100
AcDbRegAppTableRecord
  2
ACAD
 70
     0
  0
ENDTAB
  0
TABLE
  2
DIMSTYLE
  5
A
330
0
100
AcDbSymbolTable
 70
     3
100
AcDbDimStyleTable
  0
DIMSTYLE
105
27
330
A
100
AcDbSymbolTableRecord
100
AcDbDimStyleTableRecord
  2
ISO-25
 70
     0
 41
2.5
 42
0.625
 43
3.75
 44
1.25
 73
     0
 74
     0
 77
     1
 78
     8
140
2.5
141
2.5
143
0.0393700787
147
0.625
171
     3
172
     1
178
     0
271
     2
272
     2
274
     3
278
    44
283
     0
284
     8
340
11
  0
DIMSTYLE
105
20B
102
{ACAD_REACTORS
330
20A
102
}
330
A
100
AcDbSymbolTableRecord
100
AcDbDimStyleTableRecord
  2
SLDDIMSTYLE0
 70
     0
 41
3.0
 44
0.0
 45
0.000000001
 47
0.1
 48
0.1
 71
     1
 73
     0
 74
     0
 77
     1
 78
    12
 79
     3
140
2.0
147
0.5
173
     1
178
     0
271
     2
272
     1
276
     2
284
     8
340
48
  0
DIMSTYLE
105
218
102
{ACAD_REACTORS
330
217
330
3C4
102
}
330
A
100
AcDbSymbolTableRecord
100
AcDbDimStyleTableRecord
  2
SLDDIMSTYLE1
 70
     0
 41
3.0
 44
0.0
 45
0.000000001
 73
     0
 74
     0
 77
     1
 78
    12
 79
     3
140
2.0
147
0.5
173
     1
178
     0
271
     2
272
     3
276
     2
284
    12
340
48
  0
ENDTAB
  0
TABLE
  2
BLOCK_RECORD
  5
1
330
0
100
AcDbSymbolTable
 70
     4
  0
BLOCK_RECORD
  5
1F
330
1
100
AcDbSymbolTableRecord
100
AcDbBlockTableRecord
  2
*Model_Space
340
22
  0
BLOCK_RECORD
  5
1B
330
1
100
AcDbSymbolTableRecord
100
AcDbBlockTableRecord
  2
*Paper_Space
340
1E
  0
BLOCK_RECORD
  5
23
330
1
100
AcDbSymbolTableRecord
100
AcDbBlockTableRecord
  2
*Paper_Space0
340
26
  0
BLOCK_RECORD
  5
20C
330
1
100
AcDbSymbolTableRecord
100
AcDbBlockTableRecord
  2
_D
340
0
  0
BLOCK_RECORD
  5
219
330
1
100
AcDbSymbolTableRecord
100
AcDbBlockTableRecord
  2
_D_1
340
0
  0
BLOCK_RECORD
  5
3C5
330
1
100
AcDbSymbolTableRecord
100
AcDbBlockTableRecord
  2
_D_2
340
0
  0
ENDTAB
  0
ENDSEC
  0
SECTION
  2
BLOCKS
  0
BLOCK
  5
20
330
1F
100
AcDbEntity
  8
0
100
AcDbBlockBegin
  2
*Model_Space
 70
     0
 10
0.0
 20
0.0
 30
0.0
  3
*Model_Space
  1

  0
ENDBLK
  5
21
330
1F
100
AcDbEntity
  8
0
100
AcDbBlockEnd
  0
BLOCK
  5
1C
330
1B
100
AcDbEntity
 67
     1
  8
0
100
AcDbBlockBegin
  2
*Paper_Space
 70
     0
 10
0.0
 20
0.0
 30
0.0
  3
*Paper_Space
  1

  0
ENDBLK
  5
1D
330
1B
100
AcDbEntity
 67
     1
  8
0
100
AcDbBlockEnd
  0
BLOCK
  5
24
330
23
100
AcDbEntity
  8
0
100
AcDbBlockBegin
  2
*Paper_Space0
 70
     0
 10
0.0
 20
0.0
 30
0.0
  3
*Paper_Space0
  1

  0
ENDBLK
  5
25
330
23
100
AcDbEntity
  8
0
100
AcDbBlockEnd
  0
BLOCK
  5
20D
330
20C
100
AcDbEntity
  8
0
100
AcDbBlockBegin
  2
_D
 70
     0
 10
0.0
 20
0.0
 30
0.0
  3
_D
  1

  0
SOLID
  5
20F
330
20C
100
AcDbEntity
  8
VERMASSUNG
100
AcDbTrace
 10
234.4179179585
 20
187.2959220973
 30
0.0
 11
231.4179179585
 21
187.7459220973
 31
0.0
 12
231.4179179585
 22
186.8459220973
 32
0.0
 13
231.4179179585
 23
186.8459220973
 33
0.0
  0
SOLID
  5
210
330
20C
100
AcDbEntity
  8
VERMASSUNG
100
AcDbTrace
 10
134.4179179585
 20
187.2959220973
 30
0.0
 11
137.4179179585
 21
186.8459220973
 31
0.0
 12
137.4179179585
 22
187.7459220973
 32
0.0
 13
137.4179179585
 23
187.7459220973
 33
0.0
  0
LINE
  5
211
330
20C
100
AcDbEntity
  8
VERMASSUNG
100
AcDbLine
 10
234.4179179585
 20
154.1846470665
 30
0.0
 11
234.4179179585
 21
188.2959220973
 31
0.0
  0
LINE
  5
212
330
20C
100
AcDbEntity
  8
VERMASSUNG
100
AcDbLine
 10
134.4179179585
 20
181.2169143888
 30
0.0
 11
134.4179179585
 21
188.2959220973
 31
0.0
  0
LINE
  5
213
330
20C
100
AcDbEntity
  8
VERMASSUNG
100
AcDbLine
 10
234.4179179585
 20
187.2959220973
 30
0.0
 11
134.4179179585
 21
187.2959220973
 31
0.0
  0
MTEXT
  5
214
330
20C
100
AcDbEntity
  8
VERMASSUNG
100
AcDbMText
 10
179.3679176895
 20
189.8740574604
 30
0.1
 40
2.0
 41
0.0
 71
     1
 72
     1
  1
100
  7
SLDTEXTSTYLE0
 73
     1
 44
1.0
  0
MTEXT
  5
215
330
20C
100
AcDbEntity
  8
VERMASSUNG
100
AcDbMText
 10
186.1554179555
 20
189.8740574604
 30
0.1
 40
2.0
 41
0.0
 71
     1
 72
     1
  1

  7
SLDTEXTSTYLE0
 73
     1
 44
1.0
  0
MTEXT
  5
216
330
20C
100
AcDbEntity
  8
VERMASSUNG
100
AcDbMText
 10
186.1679182453
 20
189.3795235976
 30
0.1
 40
1.5
 41
0.0
 71
     1
 72
     1
  1
±0.1
  7
SLDTEXTSTYLE0
 73
     1
 44
1.0
  0
ENDBLK
  5
20E
330
20C
100
AcDbEntity
  8
0
100
AcDbBlockEnd
  0
BLOCK
  5
21A
330
219
100
AcDbEntity
  8
0
100
AcDbBlockBegin
  2
_D_1
 70
     0
 10
0.0
 20
0.0
 30
0.0
  3
_D_1
  1

  0
SOLID
  5
21C
330
219
100
AcDbEntity
  8
VERMASSUNG
100
AcDbTrace
 10
234.4179179585
 20
191.7169143888
 30
0.0
 11
231.4179179585
 21
192.1669143888
 31
0.0
 12
231.4179179585
 22
191.2669143888
 32
0.0
 13
231.4179179585
 23
191.2669143888
 33
0.0
  0
SOLID
  5
21D
330
219
100
AcDbEntity
  8
VERMASSUNG
100
AcDbTrace
 10
96.4179179585
 20
191.7169143888
 30
0.0
 11
99.4179179585
 21
191.2669143888
 31
0.0
 12
99.4179179585
 22
192.1669143888
 32
0.0
 13
99.4179179585
 23
192.1669143888
 33
0.0
  0
LINE
  5
21E
330
219
100
AcDbEntity
  8
VERMASSUNG
100
AcDbLine
 10
234.4179179585
 20
150.2169143888
 30
0.0
 11
234.4179179585
 21
192.7169143888
 31
0.0
  0
LINE
  5
21F
330
219
100
AcDbEntity
  8
VERMASSUNG
100
AcDbLine
 10
96.4179179585
 20
170.4030301578
 30
0.0
 11
96.4179179585
 21
192.7169143888
 31
0.0
  0
LINE
  5
220
330
219
100
AcDbEntity
  8
VERMASSUNG
100
AcDbLine
 10
234.4179179585
 20
191.7169143888
 30
0.0
 11
96.4179179585
 21
191.7169143888
 31
0.0
  0
MTEXT
  5
221
330
219
100
AcDbEntity
  8
VERMASSUNG
100
AcDbMText
 10
162.6179178255
 20
194.295049752
 30
0.1
 40
2.0
 41
0.0
 71
     1
 72
     1
  1
138
  7
SLDTEXTSTYLE0
 73
     1
 44
1.0
  0
ENDBLK
  5
21B
330
219
100
AcDbEntity
  8
0
100
AcDbBlockEnd
  0
BLOCK
  5
3C6
330
3C5
100
AcDbEntity
  8
0
100
AcDbBlockBegin
  2
_D_2
 70
     0
 10
0.0
 20
0.0
 30
0.0
  3
_D_2
  1

  0
SOLID
  5
3C8
330
3C5
100
AcDbEntity
  8
VERMASSUNG
100
AcDbTrace
 10
86.4179179585
 20
101.3165053641
 30
0.0
 11
85.9679179585
 21
98.3165053641
 31
0.0
 12
86.8679179585
 22
98.3165053641
 32
0.0
 13
86.8679179585
 23
98.3165053641
 33
0.0
  0
SOLID
  5
3C9
330
3C5
100
AcDbEntity
  8
VERMASSUNG
100
AcDbTrace
 10
86.4179179585
 20
38.3165053641
 30
0.0
 11
86.8679179585
 21
41.3165053641
 31
0.0
 12
85.9679179585
 22
41.3165053641
 32
0.0
 13
85.9679179585
 23
41.3165053641
 33
0.0
  0
LINE
  5
3CA
330
3C5
100
AcDbEntity
  8
VERMASSUNG
100
AcDbLine
 10
134.9179179585
 20
101.3165053641
 30
0.0
 11
85.4179179585
 21
101.3165053641
 31
0.0
  0
LINE
  5
3CB
330
3C5
100
AcDbEntity
  8
VERMASSUNG
100
AcDbLine
 10
134.9179179585
 20
38.3165053641
 30
0.0
 11
85.4179179585
 21
38.3165053641
 31
0.0
  0
LINE
  5
3CC
330
3C5
100
AcDbEntity
  8
VERMASSUNG
100
AcDbLine
 10
86.4179179585
 20
101.3165053641
 30
0.0
 11
86.4179179585
 21
38.3165053641
 31
0.0
  0
MTEXT
  5
3CD
330
3C5
100
AcDbEntity
  8
VERMASSUNG
100
AcDbMText
 10
83.6397824694
 20
63.4115052549
 30
0.1
 40
2.0
 41
0.0
 71
     1
 72
     1
  1
PSC
  7
SLDTEXTSTYLE0
 11
-7.044195017643634E-15
 21
1.0
 31
0.0
 73
     1
 44
1.0
  0
MTEXT
  5
3CE
330
3C5
100
AcDbEntity
  8
VERMASSUNG
100
AcDbMText
 10
83.8397824789
 20
68.0115053569
 30
0.1
 40
2.0
 41
0.0
 71
     1
 72
     1
  1
%%c
  7
SLDTEXTSTYLE0
 11
-7.044195017643634E-15
 21
1.0
 31
0.0
 73
     1
 44
1.0
  0
MTEXT
  5
3CF
330
3C5
100
AcDbEntity
  8
VERMASSUNG
100
AcDbMText
 10
83.6397824694
 20
71.6215058369
 30
0.1
 40
2.0
 41
0.0
 71
     1
 72
     1
  1
63
  7
SLDTEXTSTYLE0
 11
-7.044195017643634E-15
 21
1.0
 31
0.0
 73
     1
 44
1.0
  0
ENDBLK
  5
3C7
330
3C5
100
AcDbEntity
  8
0
100
AcDbBlockEnd
  0
ENDSEC
  0
SECTION
  2
ENTITIES
  0
MTEXT
  5
49
330
1F
100
AcDbEntity
  8
KOPF_DÜNN
100
AcDbMText
 10
13.8892156294
 20
23.8442973028
 30
0.0
 40
3.0
 41
0.0
 71
     1
 72
     1
  1
PS6.PCE.NMA.100
  7
SLDTEXTSTYLE0
 73
     1
 44
1.0
  0
MTEXT
  5
4A
330
1F
100
AcDbEntity
  8
VERMASSUNG
100
AcDbMText
 10
13.9329988022
 20
28.8834360957
 30
0.0
 40
3.0
 41
0.0
 71
     1
 72
     1
  1
Klemmhalter_Turning tool neutral
  7
SLDTEXTSTYLE0
 73
     1
 44
1.0
  0
MTEXT
  5
4B
330
1F
100
AcDbEntity
  8
VERMASSUNG
100
AcDbMText
 10
98.8601118557
 20
13.8365368179
 30
0.0
 40
2.0
 41
0.0
 71
     1
 72
     1
  1
Datum: 25.05.2012
  7
SLDTEXTSTYLE0
 73
     1
 44
1.0
  0
MTEXT
  5
4D
330
1F
100
AcDbEntity
  8
VERMASSUNG
100
AcDbMText
 10
13.933048693
 20
18.0482802738
 30
0.0
 40
2.0
 41
0.0
 71
     1
 72
     1
  1
PSC ø63 / CN.. 16 06.. / 50° / 80° / 50°
  7
SLDTEXTSTYLE1
 73
     1
 44
1.0
  0
MTEXT
  5
4E
330
1F
100
AcDbEntity
  8
VERMASSUNG
100
AcDbMText
 10
13.9808475933
 20
13.9090973692
 30
0.0
 40
2.0
 41
0.0
 71
     1
 72
     1
  1
Gewicht: 1824g
  7
SLDTEXTSTYLE0
 73
     1
 44
1.0
  0
LINE
  5
4F
330
1F
100
AcDbEntity
  8
0
  6
CENTERX2
 62
     7
100
AcDbLine
 10
234.4179179585
 20
150.2169143888
 30
0.0
 11
91.6510553101
 21
150.2169143888
 31
0.0
  0
POINT
  5
50
330
1F
100
AcDbEntity
  8
0
  6
Continuous
 62
     7
100
AcDbPoint
 10
234.4179179585
 20
150.2169143888
 30
0.0
  0
LINE
  5
51
330
1F
100
AcDbEntity
  8
0
  6
Continuous
 62
     7
370
    15
100
AcDbLine
 10
210.346158973
 20
153.172555055
 30
0.0
 11
210.2852206743
 21
152.676282126
 31
0.0
  0
LINE
  5
52
330
1F
100
AcDbEntity
  8
0
  6
Continuous
 62
     7
370
    15
100
AcDbLine
 10
233.6440499937
 20
143.9142461415
 30
0.0
 11
234.4179194486
 21
150.2169143888
 31
0.0
  0
LINE
  5
53
330
1F
100
AcDbEntity
  8
0
  6
Continuous
 62
     7
370
    15
100
AcDbLine
 10
231.7911949074
 20
139.6482546362
 30
0.0
 11
232.3347296631
 21
144.075010113
 31
0.0
  0
LINE
  5
54
330
1F
100
AcDbEntity
  8
0
  6
Continuous
 62
     7
370
    15
100
AcDbLine
 10
231.4568650043
 20
139.3870512503
 30
0.0
 11
231.7911949074
 21
139.6482546362
 31
0.0
  0
ARC
  5
55
330
1F
100
AcDbEntity
  8
0
  6
Continuous
 62
     7
370
    15
100
AcDbCircle
 10
134.9179179585
 20
119.2169143888
 30
0.0
 40
0.5
100
AcDbArc
 50
180.0
 51
270.0
  0
ARC
  5
56
330
1F
100
AcDbEntity
  8
0
  6
Continuous
 62
     7
370
    15
100
AcDbCircle
 10
134.9179179585
 20
181.2169143888
 30
0.0
 40
0.5
100
AcDbArc
 50
90.0
 51
180.0
  0
LINE
  5
57
330
1F
100
AcDbEntity
  8
0
  6
Continuous
 62
     7
370
    15
100
AcDbLine
 10
148.3932998097
 20
118.7169138822
 30
0.0
 11
223.8853614843
 21
118.7169138822
 31
0.0
  0
LINE
  5
58
330
1F
100
AcDbEntity
  8
0
  6
Continuous
 62
     7
370
    15
100
AcDbLine
 10
134.9179179822
 20
118.7169138822
 30
0.0
 11
144.417917735
 21
118.7169138822
 31
0.0
  0
LINE
  5
59
330
1F
100
AcDbEntity
  8
0
  6
Continuous
 62
     7
370
    15
100
AcDbLine
 10
168.4179198062
 20
181.7169148955
 30
0.0
 11
134.9179179822
 21
181.7169148955
 31
0.0
  0
LINE
  5
5A
330
1F
100
AcDbEntity
  8
0
  6
Continuous
 62
     7
370
    15
100
AcDbLine
 10
179.4217381692
 20
181.7169148955
 30
0.0
 11
174.3806306338
 21
181.7169148955
 31
0.0
  0
LWPOLYLINE
  5
5B
330
1F
100
AcDbEntity
  8
0
  6
Continuous
 62
     7
370
    15
100
AcDbPolyline
 90
        3
 70
   128
 43
0.0
 10
134.2179179635
 20
127.6770938668
 10
134.3433728987
 20
127.6087925318
 10
134.4179179585
 20
127.556053597
  0
ARC
  5
5C
330
1F
100
AcDbEntity
  8
0
  6
Continuous
 62
     7
370
    15
100
AcDbCircle
 10
133.8037043961
 20
173.6669143888
 30
0.0
 40
1.000000000000028
100
AcDbArc
 50
225.0
 51
307.8947985336
  0
ARC
  5
5D
330
1F
100
AcDbEntity
  8
0
  6
Continuous
 62
     7
370
    15
100
AcDbCircle
 10
132.4178548694
 20
129.5917924931
 30
0.0
 40
0.1999999999999796
100
AcDbArc
 50
88.5608333333
 51
178.5608333333
  0
LINE
  5
5E
330
1F
100
AcDbEntity
  8
0
  6
Continuous
 62
     7
370
    15
100
AcDbLine
 10
123.3382592043
 20
129.8199031982
 30
0.0
 11
132.2179179704
 21
129.5968160513
 31
0.0
  0
LINE
  5
5F
330
1F
100
AcDbEntity
  8
0
  6
Continuous
 62
     7
370
    15
100
AcDbLine
 10
104.7599244928
 20
130.2866559955
 30
0.0
 11
114.7426016694
 21
130.0358564141
 31
0.0
  0
ARC
  5
60
330
1F
100
AcDbEntity
  8
0
  6
Continuous
 62
     7
370
    15
100
AcDbCircle
 10
134.0179179585
 20
129.551593339
 30
0.0
 40
0.2000000000000343
100
AcDbArc
 50
0.0
 51
88.5608333333
  0
LINE
  5
61
330
1F
100
AcDbEntity
  8
0
  6
Continuous
 62
     7
370
    15
100
AcDbLine
 10
132.4228780875
 20
129.7917288277
 30
0.0
 11
134.0229410569
 21
129.7515310827
 31
0.0
  0
ARC
  5
62
330
1F
100
AcDbEntity
  8
0
  6
Continuous
 62
     7
370
    15
100
AcDbCircle
 10
132.4178548694
 20
173.6420362845
 30
0.0
 40
0.1999999999999796
100
AcDbArc
 50
181.4391666667
 51
271.4391666667
  0
LINE
  5
63
330
1F
100
AcDbEntity
  8
0
  6
Continuous
 62
     7
370
    15
100
AcDbLine
 10
132.2179179704
 20
173.6370135578
 30
0.0
 11
97.9179184949
 21
172.7752775434
 31
0.0
  0
LINE
  5
64
330
1F
100
AcDbEntity
  8
0
  6
Continuous
 62
     7
370
    15
100
AcDbLine
 10
132.6236571484
 20
173.4471429619
 30
0.0
 11
132.4228780875
 21
173.4420989189
 31
0.0
  0
LINE
  5
65
330
1F
100
AcDbEntity
  8
0
  6
Continuous
 62
     7
370
    15
100
AcDbLine
 10
97.9179184949
 20
172.7752775434
 30
0.0
 11
96.4179191804
 21
171.9092518571
 31
0.0
  0
LINE
  5
66
330
1F
100
AcDbEntity
  8
0
  6
Continuous
 62
     7
370
    15
100
AcDbLine
 10
133.0965976529
 20
172.9598079357
 30
0.0
 11
132.6338525694
 21
173.4225523207
 31
0.0
  0
LINE
  5
67
330
1F
100
AcDbEntity
  8
0
  6
Continuous
 62
     7
370
    15
100
AcDbLine
 10
220.9289934552
 20
145.4754584949
 30
0.0
 11
221.352968744
 21
145.4234012882
 31
0.0
  0
LINE
  5
68
330
1F
100
AcDbEntity
  8
0
  6
Continuous
 62
     7
370
    15
100
AcDbLine
 10
210.4879733241
 20
153.155141884
 30
0.0
 11
222.1268381989
 21
151.7260691864
 31
0.0
  0
LWPOLYLINE
  5
69
330
1F
100
AcDbEntity
  8
0
  6
Continuous
 62
     7
370
    15
100
AcDbPolyline
 90
        9
 70
   128
 43
0.0
 10
221.352968744
 20
145.4234012882
 10
221.4096602118
 20
145.4164405833
 10
221.4723791993
 20
145.4087394769
 10
221.5392258084
 20
145.4005317311
 10
221.6081660306
 20
145.3920664746
 10
221.6771062529
 20
145.3836016837
 10
221.743952862
 20
145.3753939378
 10
221.8066793001
 20
145.3676928315
 10
221.8633633172
 20
145.3607321265
  0
LWPOLYLINE
  5
6A
330
1F
100
AcDbEntity
  8
0
  6
Continuous
 62
     7
370
    15
100
AcDbPolyline
 90
        9
 70
   128
 43
0.0
 10
222.1268381989
 20
151.7260691864
 10
222.1835296667
 20
151.7191085979
 10
222.2462486541
 20
151.7114074915
 10
222.3130952632
 20
151.7031997456
 10
222.3820354855
 20
151.6947347219
 10
222.4509757078
 20
151.6862698146
 10
222.5178223169
 20
151.6780620688
 10
222.5805487549
 20
151.670360846
 10
222.6372327721
 20
151.6634002575
  0
LINE
  5
6B
330
1F
100
AcDbEntity
  8
0
  6
Continuous
 62
     7
370
    15
100
AcDbLine
 10
221.8633633172
 20
145.3607321265
 30
0.0
 11
233.5022281921
 21
143.9316595453
 31
0.0
  0
LINE
  5
6C
330
1F
100
AcDbEntity
  8
0
  6
Continuous
 62
     7
370
    15
100
AcDbLine
 10
222.6372327721
 20
151.6634002575
 30
0.0
 11
234.2760976469
 21
150.2343276854
 31
0.0
  0
LWPOLYLINE
  5
6D
330
1F
100
AcDbEntity
  8
0
  6
Continuous
 62
     7
370
    15
100
AcDbPolyline
 90
        5
 70
   128
 43
0.0
 10
210.346158973
 20
153.172555055
 10
210.3555690563
 20
153.1713995165
 10
210.3833522713
 20
153.1679878491
 10
210.4281973159
 20
153.1624816372
 10
210.4879733241
 20
153.155141884
  0
LWPOLYLINE
  5
6E
330
1F
100
AcDbEntity
  8
0
  6
Continuous
 62
     7
370
    15
100
AcDbPolyline
 90
        5
 70
   128
 43
0.0
 10
233.5022281921
 20
143.9316595453
 10
233.5620042002
 20
143.9243197921
 10
233.6068492448
 20
143.918813813
 10
233.6346399105
 20
143.9154019128
 10
233.6440499937
 20
143.9142461415
  0
LWPOLYLINE
  5
6F
330
1F
100
AcDbEntity
  8
0
  6
Continuous
 62
     7
370
    15
100
AcDbPolyline
 90
        5
 70
   128
 43
0.0
 10
234.2760976469
 20
150.2343276854
 10
234.3358736551
 20
150.2269879458
 10
234.3807186997
 20
150.221481672
 10
234.4085093653
 20
150.2180699048
 10
234.4179194486
 20
150.2169143888
  0
LINE
  5
70
330
1F
100
AcDbEntity
  8
0
  6
Continuous
 62
     7
370
    15
100
AcDbLine
 10
222.2879868066
 20
140.8151012394
 30
0.0
 11
231.2593650138
 21
139.7135543185
 31
0.0
  0
LINE
  5
71
330
1F
100
AcDbEntity
  8
0
  6
Continuous
 62
     7
370
    15
100
AcDbLine
 10
231.0314070499
 20
139.4392909962
 30
0.0
 11
222.0600288427
 21
140.5408388484
 31
0.0
  0
LWPOLYLINE
  5
72
330
1F
100
AcDbEntity
  8
0
  6
Continuous
 62
     7
370
    15
100
AcDbPolyline
 90
        9
 70
   128
 43
0.0
 10
220.5803137338
 20
141.0247773412
 10
220.5865796721
 20
141.0240080687
 10
220.821787051
 20
140.995128687
 10
221.0724618351
 20
140.9643494073
 10
221.3309895313
 20
140.9326052773
 10
221.589524678
 20
140.9008620787
 10
221.8401994622
 20
140.8700827989
 10
222.0753993904
 20
140.8412034172
 10
222.2879868066
 20
140.8151012394
  0
LWPOLYLINE
  5
73
330
1F
100
AcDbEntity
  8
0
  6
Continuous
 62
     7
370
    15
100
AcDbPolyline
 90
        8
 70
   128
 43
0.0
 10
222.0600288427
 20
140.5408388484
 10
221.88996189
 20
140.5617200318
 10
221.701797477
 20
140.5848233509
 10
221.5012576497
 20
140.6094465885
 10
221.2944295323
 20
140.6348418924
 10
221.0876088655
 20
140.6602362651
 10
220.8870690381
 20
140.6848604339
 10
220.7750272071
 20
140.6986169997
  0
LWPOLYLINE
  5
74
330
1F
100
AcDbEntity
  8
0
  6
Continuous
 62
     7
370
    15
100
AcDbPolyline
 90
        5
 70
   128
 43
0.0
 10
231.2593650138
 20
139.7135543185
 10
231.4835306322
 20
139.6860300112
 10
231.6517051375
 20
139.6653816584
 10
231.7559015071
 20
139.6525880802
 10
231.7911949074
 20
139.6482546362
  0
LWPOLYLINE
  5
75
330
1F
100
AcDbEntity
  8
0
  6
Continuous
 62
     7
370
    15
100
AcDbPolyline
 90
        5
 70
   128
 43
0.0
 10
231.4568650043
 20
139.3870512503
 10
231.4286347544
 20
139.390517633
 10
231.3452776587
 20
139.4007528681
 10
231.2107425249
 20
139.4172717366
 10
231.0314070499
 20
139.4392909962
  0
LINE
  5
76
330
1F
100
AcDbEntity
  8
0
  6
Continuous
 62
     7
370
    15
100
AcDbLine
 10
134.4179179585
 20
150.2169143888
 30
0.0
 11
134.4179179585
 21
181.2169138822
 31
0.0
  0
LINE
  5
77
330
1F
100
AcDbEntity
  8
0
  6
Continuous
 62
     7
370
    15
100
AcDbLine
 10
134.4179179585
 20
119.2169148955
 30
0.0
 11
134.4179179585
 21
150.2169143888
 31
0.0
  0
LWPOLYLINE
  5
78
330
1F
100
AcDbEntity
  8
0
  6
Continuous
 62
     7
370
    15
100
AcDbPolyline
 90
       19
 70
   128
 43
0.0
 10
179.4217381692
 20
181.7169148955
 10
179.4273037529
 20
181.6961426768
 10
179.4717874443
 20
181.5301325652
 10
179.5605164087
 20
181.1989896479
 10
179.6930249846
 20
180.7044592234
 10
179.8686165428
 20
180.0491508576
 10
180.0863597608
 20
179.2365160319
 10
180.3451109743
 20
178.2708444181
 10
180.6435030019
 20
177.157228488
 10
180.9799637711
 20
175.9015392992
 10
181.3527200436
 20
174.5103985551
 10
181.759801141
 20
172.991143215
 10
182.1990650213
 20
171.3517863783
 10
182.6681945538
 20
169.6009707186
 10
183.164716146
 20
167.747933093
 10
183.6860071933
 20
165.8024421442
 10
184.2293258822
 20
163.7747601154
 10
184.7918000138
 20
161.6755795214
 10
185.370464257
 20
159.5159691307
  0
SPLINE
  5
79
330
1F
100
AcDbEntity
  8
0
  6
Continuous
 62
     7
370
    15
100
AcDbSpline
210
0.0
220
0.0
230
1.0
 70
     8
 71
     3
 72
    20
 73
    16
 74
     0
 42
0.00000001
 43
0.00000001
 12
1.0
 22
0.0
 32
0.0
 13
1.0
 23
0.0
 33
0.0
 40
0.0
 40
0.0
 40
0.0
 40
0.0
 40
0.2500000000000008
 40
0.2500000000000008
 40
0.3750000000000007
 40
0.3750000000000007
 40
0.5000000000000006
 40
0.5000000000000006
 40
0.6250000000000004
 40
0.6250000000000004
 40
0.7500000000000002
 40
0.7500000000000002
 40
0.8750000000000001
 40
0.8750000000000001
 40
1.0
 40
1.0
 40
1.0
 40
1.0
 10
185.3704640570325
 20
159.5159695782633
 30
0.0
 10
185.5208434175759
 20
158.9547461643056
 30
0.0
 10
185.7492752996143
 20
158.4219496699378
 30
0.0
 10
186.2132148039691
 20
157.6693877530833
 30
0.0
 10
186.3883234151439
 20
157.4273655429948
 30
0.0
 10
186.7685990608445
 20
156.9762406243123
 30
0.0
 10
186.9750057879268
 20
156.7649622228524
 30
0.0
 10
187.4208669428721
 20
156.3718455065924
 30
0.0
 10
187.6625019534862
 20
156.1888427454046
 30
0.0
 10
188.1651249193309
 20
155.8646483047993
 30
0.0
 10
188.4269182728888
 20
155.7222521821042
 30
0.0
 10
188.9712471573337
 20
155.4767358225715
 30
0.0
 10
189.2554470823127
 20
155.3731723279078
 30
0.0
 10
189.8377022433564
 20
155.2099599379551
 30
0.0
 10
190.1337672294895
 20
155.1505694783219
 30
0.0
 10
190.434802954336
 20
155.1136069390305
 30
0.0
  0
LWPOLYLINE
  5
7A
330
1F
100
AcDbEntity
  8
0
  6
Continuous
 62
     7
370
    15
100
AcDbPolyline
 90
        3
 70
   128
 43
0.0
 10
190.4348027027
 20
155.1136068548
 10
193.9021874285
 20
154.6878653127
 10
197.3763745344
 20
154.2612888399
  0
ELLIPSE
  5
7B
330
1F
100
AcDbEntity
  8
0
  6
Continuous
 62
     7
370
    15
100
AcDbEllipse
 10
234.4867505519
 20
150.2169143888
 30
0.0
 11
38.34610350915744
 21
16.37948343726116
 31
0.0
210
0.0
220
0.0
230
1.0
 40
0.7016762904
 41
2.466012665176844
 42
4.153184879094386
  0
LINE
  5
7C
330
1F
100
AcDbEntity
  8
0
  6
Continuous
 62
     7
370
    15
100
AcDbLine
 10
223.8853614843
 20
118.7169138822
 30
0.0
 11
223.8861363447
 21
118.719324145
 31
0.0
  0
ARC
  5
7D
330
1F
100
AcDbEntity
  8
0
  6
Continuous
 62
     7
370
    15
100
AcDbCircle
 10
146.417874173
 20
87.2541791283
 30
0.0
 40
31.52623516927189
100
AcDbArc
 50
86.4075080127
 51
93.6371631425
  0
SPLINE
  5
7E
330
1F
100
AcDbEntity
  8
0
  6
Continuous
 62
     7
370
    15
100
AcDbSpline
210
0.0
220
0.0
230
1.0
 70
     8
 71
     3
 72
    12
 73
     8
 74
     0
 42
0.00000001
 43
0.00000001
 12
1.0
 22
0.0
 32
0.0
 13
1.0
 23
0.0
 33
0.0
 40
0.0
 40
0.0
 40
0.0
 40
0.0
 40
0.2500000000000023
 40
0.2500000000000023
 40
0.5000000000000047
 40
0.5000000000000047
 40
1.0
 40
1.0
 40
1.0
 40
1.0
 10
144.945674772055
 20
120.1484224299598
 30
0.0
 10
144.8825947335616
 20
120.1484224299598
 30
0.0
 10
144.8234461113803
 20
120.1563283561724
 30
0.0
 10
144.7249735613112
 20
120.1796535176086
 30
0.0
 10
144.6859369493265
 20
120.1943663074403
 30
0.0
 10
144.5860404825474
 20
120.2423221081712
 30
0.0
 10
144.5436196014808
 20
120.2785842647512
 30
0.0
 10
144.5126620701628
 20
120.3161719287157
 30
0.0
  0
LINE
  5
7F
330
1F
100
AcDbEntity
  8
0
  6
Continuous
 62
     7
370
    15
100
AcDbLine
 10
147.8901611707
 20
120.148421872
 30
0.0
 11
144.9456749549
 21
120.148421872
 31
0.0
  0
SPLINE
  5
80
330
1F
100
AcDbEntity
  8
0
  6
Continuous
 62
     7
370
    15
100
AcDbSpline
210
0.0
220
0.0
230
1.0
 70
     8
 71
     3
 72
    12
 73
     8
 74
     0
 42
0.00000001
 43
0.00000001
 12
1.0
 22
0.0
 32
0.0
 13
1.0
 23
0.0
 33
0.0
 40
0.0
 40
0.0
 40
0.0
 40
0.0
 40
0.4999999999999972
 40
0.4999999999999972
 40
0.7499999999999986
 40
0.7499999999999986
 40
1.0
 40
1.0
 40
1.0
 40
1.0
 10
148.3231738468143
 20
120.3161719287158
 30
0.0
 10
148.2924516048952
 20
120.2788699457627
 30
0.0
 10
148.2496143903601
 20
120.2422581137163
 30
0.0
 10
148.1501873661603
 20
120.1944933304311
 30
0.0
 10
148.1104351713436
 20
120.1795358149488
 30
0.0
 10
148.0123937144854
 20
120.1563458691796
 30
0.0
 10
147.9528376588979
 20
120.1484224299599
 30
0.0
 10
147.8901611449221
 20
120.1484224299599
 30
0.0
  0
ELLIPSE
  5
81
330
1F
100
AcDbEntity
  8
0
  6
Continuous
 62
     7
370
    15
100
AcDbEllipse
 10
132.0707637691
 20
150.2169143888
 30
0.0
 11
-14.75368316065621
 21
31.09325491558119
 31
0.0
210
0.0
220
0.0
230
1.0
 40
0.3419987131
 41
3.300734856217119
 42
4.231496223360772
  0
SPLINE
  5
82
330
1F
100
AcDbEntity
  8
0
  6
Continuous
 62
     7
370
    15
100
AcDbSpline
210
0.0
220
0.0
230
1.0
 70
     8
 71
     3
 72
    12
 73
     8
 74
     0
 42
0.00000001
 43
0.00000001
 12
1.0
 22
0.0
 32
0.0
 13
1.0
 23
0.0
 33
0.0
 40
0.0
 40
0.0
 40
0.0
 40
0.0
 40
0.2499999999999991
 40
0.2499999999999991
 40
0.4999999999999981
 40
0.4999999999999981
 40
1.0
 40
1.0
 40
1.0
 40
1.0
 10
147.8901611449221
 20
140.8288479574967
 30
0.0
 10
147.9532411834155
 20
140.8288479574967
 30
0.0
 10
148.0123898055969
 20
140.8034836382817
 30
0.0
 10
148.1108623556659
 20
140.7293187779088
 30
0.0
 10
148.1498989676506
 20
140.6827984373547
 30
0.0
 10
148.2497954344297
 20
140.5326560945095
 30
0.0
 10
148.2922163154963
 20
140.4209628875373
 30
0.0
 10
148.3231738468143
 20
140.3075450681476
 30
0.0
  0
LINE
  5
83
330
1F
100
AcDbEntity
  8
0
  6
Continuous
 62
     7
370
    15
100
AcDbLine
 10
144.9456749549
 20
140.8288475606
 30
0.0
 11
147.8901611707
 21
140.8288475606
 31
0.0
  0
SPLINE
  5
84
330
1F
100
AcDbEntity
  8
0
  6
Continuous
 62
     7
370
    15
100
AcDbSpline
210
0.0
220
0.0
230
1.0
 70
     8
 71
     3
 72
    12
 73
     8
 74
     0
 42
0.00000001
 43
0.00000001
 12
1.0
 22
0.0
 32
0.0
 13
1.0
 23
0.0
 33
0.0
 40
0.0
 40
0.0
 40
0.0
 40
0.0
 40
0.5000000000000029
 40
0.5000000000000029
 40
0.7500000000000014
 40
0.7500000000000014
 40
1.0
 40
1.0
 40
1.0
 40
1.0
 10
144.5126620701628
 20
140.3075450681476
 30
0.0
 10
144.5433843120819
 20
140.4201008675568
 30
0.0
 10
144.586221526617
 20
140.5328587272963
 30
0.0
 10
144.6856485508168
 20
140.6823996130927
 30
0.0
 10
144.7254007456335
 20
140.7296923447995
 30
0.0
 10
144.8234422024917
 20
140.8034286381209
 30
0.0
 10
144.8829982580792
 20
140.8288479574967
 30
0.0
 10
144.945674772055
 20
140.8288479574967
 30
0.0
  0
ELLIPSE
  5
85
330
1F
100
AcDbEntity
  8
0
  6
Continuous
 62
     7
370
    15
100
AcDbEllipse
 10
160.7650721479
 20
150.2169143888
 30
0.0
 11
14.75368316065621
 21
31.09325491558119
 31
0.0
210
0.0
220
0.0
230
1.0
 40
0.3419987131
 41
2.051689083818829
 42
2.982450450962508
  0
SPLINE
  5
86
330
1F
100
AcDbEntity
  8
0
  6
Continuous
 62
     7
370
    15
100
AcDbSpline
210
0.0
220
0.0
230
1.0
 70
     8
 71
     3
 72
    12
 73
     8
 74
     0
 42
0.00000001
 43
0.00000001
 12
1.0
 22
0.0
 32
0.0
 13
1.0
 23
0.0
 33
0.0
 40
0.0
 40
0.0
 40
0.0
 40
0.0
 40
0.2500000000000018
 40
0.2500000000000018
 40
0.5000000000000037
 40
0.5000000000000037
 40
1.0
 40
1.0
 40
1.0
 40
1.0
 10
144.945674772055
 20
159.6049808201693
 30
0.0
 10
144.8826178171572
 20
159.6049808201693
 30
0.0
 10
144.8234876674116
 20
159.6303271735499
 30
0.0
 10
144.7250401168783
 20
159.7044465556895
 30
0.0
 10
144.6860078786902
 20
159.7509430703875
 30
0.0
 10
144.5861179942333
 20
159.9010175773961
 30
0.0
 10
144.543819020624
 20
160.0121352865109
 30
0.0
 10
144.5126620701627
 20
160.1262837095184
 30
0.0
  0
LINE
  5
87
330
1F
100
AcDbEntity
  8
0
  6
Continuous
 62
     7
370
    15
100
AcDbLine
 10
147.8901611707
 20
159.6049812171
 30
0.0
 11
144.9456749549
 21
159.6049812171
 31
0.0
  0
SPLINE
  5
88
330
1F
100
AcDbEntity
  8
0
  6
Continuous
 62
     7
370
    15
100
AcDbSpline
210
0.0
220
0.0
230
1.0
 70
     8
 71
     3
 72
    12
 73
     8
 74
     0
 42
0.00000001
 43
0.00000001
 12
1.0
 22
0.0
 32
0.0
 13
1.0
 23
0.0
 33
0.0
 40
0.0
 40
0.0
 40
0.0
 40
0.0
 40
0.5
 40
0.5
 40
0.75
 40
0.75
 40
1.0
 40
1.0
 40
1.0
 40
1.0
 10
148.3231738468143
 20
160.1262837095184
 30
0.0
 10
148.2920286488522
 20
160.0121783436531
 30
0.0
 10
148.2497543825178
 20
159.9010720164343
 30
0.0
 10
148.1498088486925
 20
159.750914409004
 30
0.0
 10
148.1100785439884
 20
159.7039217173867
 30
0.0
 10
148.0131904939823
 20
159.6309461328482
 30
0.0
 10
147.9531252522357
 20
159.6049808201692
 30
0.0
 10
147.8901611449221
 20
159.6049808201692
 30
0.0
  0
ELLIPSE
  5
89
330
1F
100
AcDbEntity
  8
0
  6
Continuous
 62
     7
370
    15
100
AcDbEllipse
 10
132.0707637691
 20
150.2169143888
 30
0.0
 11
14.7536831606561
 21
31.09325491558119
 31
0.0
210
0.0
220
0.0
230
1.0
 40
0.3419987131
 41
5.193281737408626
 42
6.124043104552332
  0
SPLINE
  5
8A
330
1F
100
AcDbEntity
  8
0
  6
Continuous
 62
     7
370
    15
100
AcDbSpline
210
0.0
220
0.0
230
1.0
 70
     8
 71
     3
 72
    12
 73
     8
 74
     0
 42
0.00000001
 43
0.00000001
 12
1.0
 22
0.0
 32
0.0
 13
1.0
 23
0.0
 33
0.0
 40
0.0
 40
0.0
 40
0.0
 40
0.0
 40
0.2499999999999991
 40
0.2499999999999991
 40
0.4999999999999982
 40
0.4999999999999982
 40
1.0
 40
1.0
 40
1.0
 40
1.0
 10
147.8901611449221
 20
180.2854063477062
 30
0.0
 10
147.9532180998199
 20
180.2854063477063
 30
0.0
 10
148.0123482495654
 20
180.2775060166266
 30
0.0
 10
148.1107958000987
 20
180.2541952686216
 30
0.0
 10
148.1498280382868
 20
180.239490142338
 30
0.0
 10
148.2497179227438
 20
180.1915566141513
 30
0.0
 10
148.2920168963531
 20
180.1554866413866
 30
0.0
 10
148.3231738468144
 20
180.1176568489504
 30
0.0
  0
LINE
  5
8B
330
1F
100
AcDbEntity
  8
0
  6
Continuous
 62
     7
370
    15
100
AcDbLine
 10
144.9456749549
 20
180.2854069057
 30
0.0
 11
147.8901611707
 21
180.2854069057
 31
0.0
  0
SPLINE
  5
8C
330
1F
100
AcDbEntity
  8
0
  6
Continuous
 62
     7
370
    15
100
AcDbSpline
210
0.0
220
0.0
230
1.0
 70
     8
 71
     3
 72
    12
 73
     8
 74
     0
 42
0.00000001
 43
0.00000001
 12
1.0
 22
0.0
 32
0.0
 13
1.0
 23
0.0
 33
0.0
 40
0.0
 40
0.0
 40
0.0
 40
0.0
 40
0.5000000000000064
 40
0.5000000000000064
 40
0.7500000000000032
 40
0.7500000000000032
 40
1.0
 40
1.0
 40
1.0
 40
1.0
 10
144.5126620701628
 20
180.1176568489504
 30
0.0
 10
144.5438072681249
 20
180.1554723718706
 30
0.0
 10
144.5860815344593
 20
180.1915392299541
 30
0.0
 10
144.6860270682847
 20
180.2394992949654
 30
0.0
 10
144.7257573729887
 20
180.2543602688631
 30
0.0
 10
144.822645422995
 20
180.2773114149942
 30
0.0
 10
144.8827106647415
 20
180.2854063477063
 30
0.0
 10
144.945674772055
 20
180.2854063477063
 30
0.0
  0
ELLIPSE
  5
8D
330
1F
100
AcDbEntity
  8
0
  6
Continuous
 62
     7
370
    15
100
AcDbEllipse
 10
160.7650721479
 20
150.2169143888
 30
0.0
 11
-14.75368316065615
 21
31.09325491558118
 31
0.0
210
0.0
220
0.0
230
1.0
 40
0.3419987131
 41
0.1591422026272928
 42
1.089903569770972
  0
SPLINE
  5
8E
330
1F
100
AcDbEntity
  8
0
  6
Continuous
 62
     7
370
    15
100
AcDbSpline
210
0.0
220
0.0
230
1.0
 70
     8
 71
     3
 72
    17
 73
    13
 74
     0
 42
0.00000001
 43
0.00000001
 12
1.0
 22
0.0
 32
0.0
 13
1.0
 23
0.0
 33
0.0
 40
0.0
 40
0.0
 40
0.0
 40
0.0
 40
0.1070404500589037
 40
0.2140692297860884
 40
0.3214006354562968
 40
0.4289351308873889
 40
0.536138848329797
 40
0.6429941719011824
 40
0.7500263100617606
 40
0.8574847895962949
 40
0.9649549370020575
 40
0.9999999999999999
 40
0.9999999999999999
 40
0.9999999999999999
 40
0.9999999999999999
 10
168.4179198062326
 20
181.7169148954726
 30
0.0
 10
168.450935650487
 20
181.7136820416533
 30
0.0
 10
168.5169637393672
 20
181.7072166864842
 30
0.0
 10
169.0314881562867
 20
181.6622196828318
 30
0.0
 10
169.7904435324577
 20
181.6119870222528
 30
0.0
 10
170.7403276806826
 20
181.5756429908546
 30
0.0
 10
171.7644604664791
 20
181.5701300478737
 30
0.0
 10
172.7463115668163
 20
181.5972841299113
 30
0.0
 10
173.5855431452634
 20
181.645923590612
 30
0.0
 10
174.1594744493796
 20
181.6922960615503
 30
0.0
 10
174.4334301038188
 20
181.7183687986658
 30
0.0
 10
174.3910516627875
 20
181.7143792640312
 30
0.0
 10
174.3806306338216
 20
181.7133982214308
 30
0.0
  0
LINE
  5
8F
330
1F
100
AcDbEntity
  8
0
  6
Continuous
 62
     7
370
    15
100
AcDbLine
 10
222.1964936769
 20
151.2137612109
 30
0.0
 11
197.3763745344
 21
154.2612888399
 31
0.0
  0
LINE
  5
90
330
1F
100
AcDbEntity
  8
0
  6
Continuous
 62
     7
370
    15
100
AcDbLine
 10
222.1964936769
 20
151.2137612109
 30
0.0
 11
220.8964940226
 21
145.3283225666
 31
0.0
  0
LINE
  5
91
330
1F
100
AcDbEntity
  8
0
  6
Continuous
 62
     7
370
    15
100
AcDbLine
 10
220.8964940226
 20
145.3283225666
 30
0.0
 11
221.5141471541
 21
145.2524845037
 31
0.0
  0
LINE
  5
92
330
1F
100
AcDbEntity
  8
0
  6
Continuous
 62
     7
370
    15
100
AcDbLine
 10
221.5141471541
 20
145.2524845037
 30
0.0
 11
220.5153148687
 21
140.7305054846
 31
0.0
  0
LINE
  5
93
330
1F
100
AcDbEntity
  8
0
  6
Continuous
 62
     7
370
    15
100
AcDbLine
 10
220.5153148687
 20
140.7305054846
 30
0.0
 11
220.7750272071
 21
140.6986169997
 31
0.0
  0
LINE
  5
94
330
1F
100
AcDbEntity
  8
0
  6
Continuous
 62
     7
370
    15
100
AcDbLine
 10
223.8861363447
 20
118.719324145
 30
0.0
 11
230.5627804315
 21
139.4968318301
 31
0.0
  0
LINE
  5
95
330
1F
100
AcDbEntity
  8
0
  6
Continuous
 62
     7
370
    15
100
AcDbLine
 10
134.2179179635
 20
133.4267125013
 30
0.0
 11
134.2179179635
 21
127.6770938668
 31
0.0
  0
SPLINE
  5
96
330
1F
100
AcDbEntity
  8
0
  6
Continuous
 62
     7
370
    15
100
AcDbSpline
210
0.0
220
0.0
230
1.0
 70
     8
 71
     3
 72
    16
 73
    12
 74
     0
 42
0.00000001
 43
0.00000001
 12
1.0
 22
0.0
 32
0.0
 13
1.0
 23
0.0
 33
0.0
 40
0.0
 40
0.0
 40
0.0
 40
0.0
 40
0.4999999999999999
 40
0.4999999999999999
 40
0.7499999999999948
 40
0.7499999999999948
 40
0.8749999999999941
 40
0.8749999999999941
 40
0.9374999999999971
 40
0.9374999999999971
 40
1.0
 40
1.0
 40
1.0
 40
1.0
 10
134.2179179584886
 20
133.4267130350919
 30
0.0
 10
134.2179179584886
 20
133.5065367460724
 30
0.0
 10
134.2137716834106
 20
133.5883928639565
 30
0.0
 10
134.1878060880171
 20
133.7172079850404
 30
0.0
 10
134.1763451826397
 20
133.761998656742
 30
0.0
 10
134.1420334448653
 20
133.8281294644733
 30
0.0
 10
134.1280087089357
 20
133.8509765226763
 30
0.0
 10
134.0919857459019
 20
133.8774072759186
 30
0.0
 10
134.0772312368122
 20
133.8838349450609
 30
0.0
 10
134.0478790756654
 20
133.886795868216
 30
0.0
 10
134.0345392011613
 20
133.8838144767079
 30
0.0
 10
134.0229410696129
 20
133.8790714890266
 30
0.0
  0
SPLINE
  5
97
330
1F
100
AcDbEntity
  8
0
  6
Continuous
 62
     7
370
    15
100
AcDbSpline
210
0.0
220
0.0
230
1.0
 70
     8
 71
     3
 72
    12
 73
     8
 74
     0
 42
0.00000001
 43
0.00000001
 12
1.0
 22
0.0
 32
0.0
 13
1.0
 23
0.0
 33
0.0
 40
0.0
 40
0.0
 40
0.0
 40
0.0
 40
0.2499999999999998
 40
0.2499999999999998
 40
0.4999999999999999
 40
0.4999999999999999
 40
1.0
 40
1.0
 40
1.0
 40
1.0
 10
134.02294106962
 20
133.8790714890212
 30
0.0
 10
133.9927492279028
 20
133.8667247129267
 30
0.0
 10
133.9593902584882
 20
133.8562270264569
 30
0.0
 10
133.8862529739075
 20
133.8428059718777
 30
0.0
 10
133.8460111012536
 20
133.8401955606307
 30
0.0
 10
133.7283053242851
 20
133.8481660133729
 30
0.0
 10
133.6578948465057
 20
133.8732537709907
 30
0.0
 10
133.6014056720374
 20
133.902543413319
 30
0.0
  0
SPLINE
  5
98
330
1F
100
AcDbEntity
  8
0
  6
Continuous
 62
     7
370
    15
100
AcDbSpline
210
0.0
220
0.0
230
1.0
 70
     8
 71
     3
 72
    12
 73
     8
 74
     0
 42
0.00000001
 43
0.00000001
 12
1.0
 22
0.0
 32
0.0
 13
1.0
 23
0.0
 33
0.0
 40
0.0
 40
0.0
 40
0.0
 40
0.0
 40
0.2499999999999987
 40
0.2499999999999987
 40
0.4999999999999973
 40
0.4999999999999973
 40
1.0
 40
1.0
 40
1.0
 40
1.0
 10
133.601405672037
 20
133.9025434133189
 30
0.0
 10
133.5132517342992
 20
133.9482512384105
 30
0.0
 10
133.4528983096706
 20
134.0036684767298
 30
0.0
 10
133.3466363516037
 20
134.1219612037851
 30
0.0
 10
133.3044041850416
 20
134.183756319194
 30
0.0
 10
133.1933334897245
 20
134.3751769457089
 30
0.0
 10
133.1403967132977
 20
134.5109236105944
 30
0.0
 10
133.0965976149289
 20
134.6537131444081
 30
0.0
  0
SPLINE
  5
99
330
1F
100
AcDbEntity
  8
0
  6
Continuous
 62
     7
370
    15
100
AcDbSpline
210
0.0
220
0.0
230
1.0
 70
     8
 71
     3
 72
    12
 73
     8
 74
     0
 42
0.00000001
 43
0.00000001
 12
1.0
 22
0.0
 32
0.0
 13
1.0
 23
0.0
 33
0.0
 40
0.0
 40
0.0
 40
0.0
 40
0.0
 40
0.5
 40
0.5
 40
0.75
 40
0.75
 40
1.0
 40
1.0
 40
1.0
 40
1.0
 10
133.0965976149289
 20
143.6364305787317
 30
0.0
 10
133.1403441557655
 20
143.8756045057783
 30
0.0
 10
133.193228510997
 20
144.1130473606942
 30
0.0
 10
133.3047955983332
 20
144.4618853971098
 30
0.0
 10
133.3473791948762
 20
144.5767943047203
 30
0.0
 10
133.4522959219579
 20
144.7966767496304
 30
0.0
 10
133.5138295298027
 20
144.9050376706448
 30
0.0
 10
133.6014056720288
 20
144.9920432582439
 30
0.0
  0
SPLINE
  5
9A
330
1F
100
AcDbEntity
  8
0
  6
Continuous
 62
     7
370
    15
100
AcDbSpline
210
0.0
220
0.0
230
1.0
 70
     8
 71
     3
 72
    12
 73
     8
 74
     0
 42
0.00000001
 43
0.00000001
 12
1.0
 22
0.0
 32
0.0
 13
1.0
 23
0.0
 33
0.0
 40
0.0
 40
0.0
 40
0.0
 40
0.0
 40
0.5000000000000006
 40
0.5000000000000006
 40
0.7500000000000002
 40
0.7500000000000002
 40
1.0
 40
1.0
 40
1.0
 40
1.0
 10
133.6014056720321
 20
144.992043258244
 30
0.0
 10
133.6578421729392
 20
145.0481120778859
 30
0.0
 10
133.7269268036279
 20
145.0952247566403
 30
0.0
 10
133.8457290753459
 20
145.1065452031361
 30
0.0
 10
133.885914350816
 20
145.0995443126446
 30
0.0
 10
133.9592953982198
 20
145.0693330159858
 30
0.0
 10
133.9927049619625
 20
145.0467542056043
 30
0.0
 10
134.022941069619
 20
145.0206668842501
 30
0.0
  0
SPLINE
  5
9B
330
1F
100
AcDbEntity
  8
0
  6
Continuous
 62
     7
370
    15
100
AcDbSpline
210
0.0
220
0.0
230
1.0
 70
     8
 71
     3
 72
    16
 73
    12
 74
     0
 42
0.00000001
 43
0.00000001
 12
1.0
 22
0.0
 32
0.0
 13
1.0
 23
0.0
 33
0.0
 40
0.0
 40
0.0
 40
0.0
 40
0.0
 40
0.0625000000000014
 40
0.0625000000000014
 40
0.1250000000000027
 40
0.1250000000000027
 40
0.2500000000000002
 40
0.2500000000000002
 40
0.5000000000000001
 40
0.5000000000000001
 40
1.0
 40
1.0
 40
1.0
 40
1.0
 10
134.0229410695817
 20
145.0206668841932
 30
0.0
 10
134.0345214771697
 20
145.0106754587833
 30
0.0
 10
134.047831003931
 20
145.0024180524017
 30
0.0
 10
134.0771324340171
 20
144.9966687675895
 30
0.0
 10
134.0919465339014
 20
145.0002790662976
 30
0.0
 10
134.1277749356042
 20
145.0231995255803
 30
0.0
 10
134.1418945599673
 20
145.0489950338258
 30
0.0
 10
134.1763987040558
 20
145.1271500582448
 30
0.0
 10
134.1875032547604
 20
145.1832929009808
 30
0.0
 10
134.2136794319766
 20
145.3541989565146
 30
0.0
 10
134.2179179584886
 20
145.4714140490934
 30
0.0
 10
134.2179179584886
 20
145.5889786483152
 30
0.0
  0
LINE
  5
9C
330
1F
100
AcDbEntity
  8
0
  6
Continuous
 62
     7
370
    15
100
AcDbLine
 10
134.2179179635
 20
171.6350518647
 30
0.0
 11
134.2179179635
 21
145.5889788005
 31
0.0
  0
SPLINE
  5
9D
330
1F
100
AcDbEntity
  8
0
  6
Continuous
 62
     7
370
    15
100
AcDbSpline
210
0.0
220
0.0
230
1.0
 70
     8
 71
     3
 72
    16
 73
    12
 74
     0
 42
0.00000001
 43
0.00000001
 12
1.0
 22
0.0
 32
0.0
 13
1.0
 23
0.0
 33
0.0
 40
0.0
 40
0.0
 40
0.0
 40
0.0
 40
0.4999999999999998
 40
0.4999999999999998
 40
0.7500000000000013
 40
0.7500000000000013
 40
0.8750000000000011
 40
0.8750000000000011
 40
0.9375000000000006
 40
0.9375000000000006
 40
1.0
 40
1.0
 40
1.0
 40
1.0
 10
134.2179179584886
 20
171.6350514830922
 30
0.0
 10
134.2179179584886
 20
171.6723253240024
 30
0.0
 10
134.2137716834106
 20
171.706621416021
 30
0.0
 10
134.1878060880171
 20
171.7487196051573
 30
0.0
 10
134.1763451826397
 20
171.761633246722
 30
0.0
 10
134.1420334448653
 20
171.7733450974616
 30
0.0
 10
134.1280087089358
 20
171.7763585293177
 30
0.0
 10
134.0919857459019
 20
171.7730610665419
 30
0.0
 10
134.0772312368123
 20
171.7702395815541
 30
0.0
 10
134.0478790756654
 20
171.7615578405626
 30
0.0
 10
134.0345392011613
 20
171.7562685229556
 30
0.0
 10
134.0229410696129
 20
171.75100479323
 30
0.0
  0
SPLINE
  5
9E
330
1F
100
AcDbEntity
  8
0
  6
Continuous
 62
     7
370
    15
100
AcDbSpline
210
0.0
220
0.0
230
1.0
 70
     8
 71
     3
 72
    12
 73
     8
 74
     0
 42
0.00000001
 43
0.00000001
 12
1.0
 22
0.0
 32
0.0
 13
1.0
 23
0.0
 33
0.0
 40
0.0
 40
0.0
 40
0.0
 40
0.0
 40
0.2500000000000003
 40
0.2500000000000003
 40
0.5000000000000002
 40
0.5000000000000002
 40
1.0
 40
1.0
 40
1.0
 40
1.0
 10
134.02294106962
 20
171.751004793225
 30
0.0
 10
133.9927426281794
 20
171.7372994448056
 30
0.0
 10
133.9593752728434
 20
171.7252518393552
 30
0.0
 10
133.8862199970135
 20
171.7084918511255
 30
0.0
 10
133.8459672979895
 20
171.7040829615846
 30
0.0
 10
133.7282385547146
 20
171.7070127266822
 30
0.0
 10
133.6577801066557
 20
171.7293794869379
 30
0.0
 10
133.6014056720374
 20
171.7561564949436
 30
0.0
  0
SPLINE
  5
9F
330
1F
100
AcDbEntity
  8
0
  6
Continuous
 62
     7
370
    15
100
AcDbSpline
210
0.0
220
0.0
230
1.0
 70
     8
 71
     3
 72
    12
 73
     8
 74
     0
 42
0.00000001
 43
0.00000001
 12
1.0
 22
0.0
 32
0.0
 13
1.0
 23
0.0
 33
0.0
 40
0.0
 40
0.0
 40
0.0
 40
0.0
 40
0.4999999999999986
 40
0.4999999999999986
 40
0.7499999999999992
 40
0.7499999999999992
 40
1.0
 40
1.0
 40
1.0
 40
1.0
 10
133.0965976149289
 20
172.3605994433594
 30
0.0
 10
133.1403479668134
 20
172.264035295601
 30
0.0
 10
133.1932381179379
 20
172.1624110324153
 30
0.0
 10
133.3048496610795
 20
172.0056565682322
 30
0.0
 10
133.347409004983
 20
171.9527899985587
 30
0.0
 10
133.4523862403204
 20
171.8496338842443
 30
0.0
 10
133.513953483415
 20
171.7976949683794
 30
0.0
 10
133.6014056720374
 20
171.7561564949436
 30
0.0
  0
SPLINE
  5
A0
330
1F
100
AcDbEntity
  8
0
  6
Continuous
 62
     7
370
    15
100
AcDbSpline
210
0.0
220
0.0
230
1.0
 70
     8
 71
     3
 72
    16
 73
    12
 74
     0
 42
0.00000001
 43
0.00000001
 12
1.0
 22
0.0
 32
0.0
 13
1.0
 23
0.0
 33
0.0
 40
0.0
 40
0.0
 40
0.0
 40
0.0
 40
0.2499999999999991
 40
0.2499999999999991
 40
0.3749999999999989
 40
0.3749999999999989
 40
0.4999999999999988
 40
0.4999999999999988
 40
0.7499999999999993
 40
0.7499999999999993
 40
1.0
 40
1.0
 40
1.0
 40
1.0
 10
133.0965976149289
 20
134.6537131444081
 30
0.0
 10
132.9353651374444
 20
135.1793474874211
 30
0.0
 10
132.8148852978048
 20
135.7721790149801
 30
0.0
 10
132.6925047804915
 20
136.761950706105
 30
0.0
 10
132.661527120094
 20
137.1087543519292
 30
0.0
 10
132.6199133824661
 20
137.8377429511693
 30
0.0
 10
132.6096774695333
 20
138.2130179032585
 30
0.0
 10
132.6094890724772
 20
139.3692179494785
 30
0.0
 10
132.6496337751148
 20
140.1805739622782
 30
0.0
 10
132.8137875300544
 20
141.8864182080661
 30
0.0
 10
132.9353391804639
 20
142.7547880007631
 30
0.0
 10
133.0965976149289
 20
143.6364305787317
 30
0.0
  0
LINE
  5
A1
330
1F
100
AcDbEntity
  8
0
  6
Continuous
 62
     7
370
    15
100
AcDbLine
 10
97.9179184949
 20
134.5056701931
 30
0.0
 11
97.9179184949
 21
144.9920434053
 31
0.0
  0
LINE
  5
A2
330
1F
100
AcDbEntity
  8
0
  6
Continuous
 62
     7
370
    15
100
AcDbLine
 10
132.2179179704
 20
133.7593846503
 30
0.0
 11
132.2179179704
 21
144.9920434053
 31
0.0
  0
LINE
  5
A3
330
1F
100
AcDbEntity
  8
0
  6
Continuous
 62
     7
370
    15
100
AcDbLine
 10
132.2179179704
 20
144.9920434053
 30
0.0
 11
132.2179179704
 21
171.8993146452
 31
0.0
  0
LINE
  5
A4
330
1F
100
AcDbEntity
  8
0
  6
Continuous
 62
     7
370
    15
100
AcDbLine
 10
97.9179184949
 20
144.9920434053
 30
0.0
 11
97.9179184949
 21
171.153030965
 31
0.0
  0
LINE
  5
A5
330
1F
100
AcDbEntity
  8
0
  6
Continuous
 62
     7
370
    15
100
AcDbLine
 10
96.4179191804
 20
135.2556698504
 30
0.0
 11
96.4179191804
 21
144.9920434053
 31
0.0
  0
LINE
  5
A6
330
1F
100
AcDbEntity
  8
0
  6
Continuous
 62
     7
370
    15
100
AcDbLine
 10
96.4179191804
 20
144.9920434053
 30
0.0
 11
96.4179191804
 21
170.4030294451
 31
0.0
  0
LINE
  5
A7
330
1F
100
AcDbEntity
  8
0
  6
Continuous
 62
     7
370
    15
100
AcDbLine
 10
132.2179179704
 20
129.5968160513
 30
0.0
 11
132.2179179704
 21
133.7593846503
 31
0.0
  0
SPLINE
  5
A8
330
1F
100
AcDbEntity
  8
0
  6
Continuous
 62
     7
370
    15
100
AcDbSpline
210
0.0
220
0.0
230
1.0
 70
     8
 71
     3
 72
     8
 73
     4
 74
     0
 42
0.00000001
 43
0.00000001
 12
1.0
 22
0.0
 32
0.0
 13
1.0
 23
0.0
 33
0.0
 40
0.0000249638557296
 40
0.0000249638557296
 40
0.0000249638557296
 40
0.0000249638557296
 40
0.0049776420541172
 40
0.0049776420541172
 40
0.0049776420541172
 40
0.0049776420541172
 10
97.91791795848854
 20
130.7199247756309
 30
0.0
 10
99.56789419299812
 20
130.6835755626929
 30
0.0
 10
101.2178955127432
 20
130.6471509765608
 30
0.0
 10
102.8679179584886
 20
130.61065109835
 30
0.0
  0
LINE
  5
A9
330
1F
100
AcDbEntity
  8
0
  6
Continuous
 62
     7
370
    15
100
AcDbLine
 10
97.9179184949
 20
130.7199240211
 30
0.0
 11
97.9179184949
 21
134.5056701931
 31
0.0
  0
SPLINE
  5
AA
330
1F
100
AcDbEntity
  8
0
  6
Continuous
 62
     7
370
    15
100
AcDbSpline
210
0.0
220
0.0
230
1.0
 70
     8
 71
     3
 72
    11
 73
     7
 74
     0
 42
0.00000001
 43
0.00000001
 12
1.0
 22
0.0
 32
0.0
 13
1.0
 23
0.0
 33
0.0
 40
0.0
 40
0.0
 40
0.0
 40
0.0
 40
0.3219025833169185
 40
0.6486447978197779
 40
0.945700110112147
 40
1.0
 40
1.0
 40
1.0
 40
1.0
 10
102.8679166054632
 20
130.6106519433833
 30
0.0
 10
103.1696402216031
 20
130.5539454528881
 30
0.0
 10
103.7776237052146
 20
130.4396799204922
 30
0.0
 10
104.462222397359
 20
130.3331269935913
 30
0.0
 10
104.8522685780693
 20
130.2780815048441
 30
0.0
 10
104.772385447128
 20
130.2894786094519
 30
0.0
 10
104.7600399768258
 20
130.2912399652577
 30
0.0
  0
SPLINE
  5
AB
330
1F
100
AcDbEntity
  8
0
  6
Continuous
 62
     7
370
    15
100
AcDbSpline
210
0.0
220
0.0
230
1.0
 70
     8
 71
     3
 72
    17
 73
    13
 74
     0
 42
0.00000001
 43
0.00000001
 12
1.0
 22
0.0
 32
0.0
 13
1.0
 23
0.0
 33
0.0
 40
0.0
 40
0.0
 40
0.0
 40
0.0
 40
0.0814963198894112
 40
0.1776426501979228
 40
0.2779756612776855
 40
0.3853005089454375
 40
0.4989008095969844
 40
0.6154924751236023
 40
0.7315308020053202
 40
0.84389575367252
 40
0.949895873886425
 40
1.0
 40
1.0
 40
1.0
 40
1.0
 10
123.3383486112858
 20
129.8234832021571
 30
0.0
 10
123.3202686016436
 20
129.8262407174237
 30
0.0
 10
123.2808584683664
 20
129.8322514467499
 30
0.0
 10
122.7098614448119
 20
129.9132922287841
 30
0.0
 10
121.7823724512053
 20
130.0249130252132
 30
0.0
 10
120.5173482470665
 20
130.1380503474003
 30
0.0
 10
119.0331709382812
 20
130.2100873497926
 30
0.0
 10
117.5064284839507
 20
130.2147594328287
 30
0.0
 10
116.1463684381582
 20
130.1586913149157
 30
0.0
 10
115.1832844988292
 20
130.0858652657567
 30
0.0
 10
114.6992874628165
 20
130.0386230966293
 30
0.0
 10
114.7322112202013
 20
130.0418361350078
 30
0.0
 10
114.7427786207105
 20
130.0428674104786
 30
0.0
  0
SPLINE
  5
AC
330
1F
100
AcDbEntity
  8
0
  6
Continuous
 62
     7
370
    15
100
AcDbSpline
210
0.0
220
0.0
230
1.0
 70
     8
 71
     3
 72
     8
 73
     4
 74
     0
 42
0.00000001
 43
0.00000001
 12
1.0
 22
0.0
 32
0.0
 13
1.0
 23
0.0
 33
0.0
 40
0.0
 40
0.0
 40
0.0
 40
0.0
 40
1.0
 40
1.0
 40
1.0
 40
1.0
 10
96.41791795848646
 20
131.4684350751888
 30
0.0
 10
96.8846785698642
 20
131.2389055828047
 30
0.0
 10
97.3904261166443
 20
130.9869748077133
 30
0.0
 10
97.91791795848864
 20
130.7199247756309
 30
0.0
  0
LINE
  5
AD
330
1F
100
AcDbEntity
  8
0
  6
Continuous
 62
     7
370
    15
100
AcDbLine
 10
96.4179191804
 20
131.4684354249
 30
0.0
 11
96.4179191804
 21
135.2556698504
 31
0.0
  0
LINE
  5
AE
330
1F
100
AcDbEntity
  8
0
  6
Continuous
 62
     7
370
    15
100
AcDbLine
 10
132.2179179704
 20
173.6370135578
 30
0.0
 11
132.2179179704
 21
171.8993146452
 31
0.0
  0
LINE
  5
AF
330
1F
100
AcDbEntity
  8
0
  6
Continuous
 62
     7
370
    15
100
AcDbLine
 10
97.9179184949
 20
172.7752775434
 30
0.0
 11
97.9179184949
 21
171.153030965
 31
0.0
  0
SPLINE
  5
B0
330
1F
100
AcDbEntity
  8
0
  6
Continuous
 62
     7
370
    15
100
AcDbSpline
210
0.0
220
0.0
230
1.0
 70
     8
 71
     3
 72
    10
 73
     6
 74
     0
 42
0.00000001
 43
0.00000001
 12
1.0
 22
0.0
 32
0.0
 13
1.0
 23
0.0
 33
0.0
 40
0.0
 40
0.0
 40
0.0
 40
0.0
 40
0.1209913211536928
 40
0.5024127976154565
 40
1.0
 40
1.0
 40
1.0
 40
1.0
 10
132.6245089592691
 20
173.4132390949107
 30
0.0
 10
132.6204816591675
 20
173.4223224764647
 30
0.0
 10
132.6037584174378
 20
173.4600409433338
 30
0.0
 10
132.7221496079555
 20
173.1920969948692
 30
0.0
 10
132.9612488859498
 20
172.6611538087429
 30
0.0
 10
133.0965976529102
 20
172.3605987164355
 30
0.0
  0
LINE
  5
B1
330
1F
100
AcDbEntity
  8
0
  6
Continuous
 62
     7
370
    15
100
AcDbLine
 10
96.4179191804
 20
171.9092518571
 30
0.0
 11
96.4179191804
 21
170.4030294451
 31
0.0
  0
LINE
  5
B2
330
1F
100
AcDbEntity
  8
0
  6
HIDDEN
 62
     7
370
     0
100
AcDbLine
 10
209.7141038692
 20
146.8524736366
 30
0.0
 11
220.9289934552
 21
145.4754584949
 31
0.0
  0
LINE
  5
B3
330
1F
100
AcDbEntity
  8
0
  6
HIDDEN
 62
     7
370
     0
100
AcDbLine
 10
222.2717892444
 20
150.7968625184
 30
0.0
 11
222.3553028023
 21
151.4769769521
 31
0.0
  0
SPLINE
  5
B4
330
1F
100
AcDbEntity
  8
0
  6
HIDDEN
 62
     7
370
     0
100
AcDbSpline
210
0.0
220
0.0
230
1.0
 70
     8
 71
     3
 72
     9
 73
     5
 74
     0
 42
0.00000001
 43
0.00000001
 12
1.0
 22
0.0
 32
0.0
 13
1.0
 23
0.0
 33
0.0
 40
0.0
 40
0.0
 40
0.0
 40
0.0
 40
0.246745474952886
 40
1.0
 40
1.0
 40
1.0
 40
1.0
 10
222.265486053219
 20
150.7455200436688
 30
0.0
 10
222.2650803191622
 20
150.7422081677962
 30
0.0
 10
222.2634359767204
 20
150.7287859322993
 30
0.0
 10
222.2682004119831
 20
150.7676146278249
 30
0.0
 10
222.271789244404
 20
150.7968625184311
 30
0.0
  0
LINE
  5
B5
330
1F
100
AcDbEntity
  8
0
  6
HIDDEN
 62
     7
370
     0
100
AcDbLine
 10
223.8688509977
 20
150.7491973709
 30
0.0
 11
223.8846834814
 21
150.7468074807
 31
0.0
  0
LINE
  5
B6
330
1F
100
AcDbEntity
  8
0
  6
HIDDEN
 62
     7
370
     0
100
AcDbLine
 10
214.6549712932
 20
151.8802289167
 30
0.0
 11
214.6455835616
 21
151.881226596
 31
0.0
  0
LINE
  5
B7
330
1F
100
AcDbEntity
  8
0
  6
HIDDEN
 62
     7
370
     0
100
AcDbLine
 10
231.6643413222
 20
149.4945560363
 30
0.0
 11
233.9941602266
 21
150.0479043417
 31
0.0
  0
SPLINE
  5
B8
330
1F
100
AcDbEntity
  8
0
  6
HIDDEN
 62
     7
370
     0
100
AcDbSpline
210
0.0
220
0.0
230
1.0
 70
     8
 71
     3
 72
    11
 73
     7
 74
     0
 42
0.00000001
 43
0.00000001
 12
1.0
 22
0.0
 32
0.0
 13
1.0
 23
0.0
 33
0.0
 40
0.0
 40
0.0
 40
0.0
 40
0.0
 40
0.3517323951348737
 40
0.7021699768939228
 40
0.9922902775982151
 40
1.0
 40
1.0
 40
1.0
 40
1.0
 10
212.8431912577058
 20
151.8055028529069
 30
0.0
 10
212.9222916509329
 20
151.7747065671496
 30
0.0
 10
213.0802012494026
 20
151.7132273643302
 30
0.0
 10
213.3231599804306
 20
151.7239361490655
 30
0.0
 10
213.4729297919924
 20
151.7668257443658
 30
0.0
 10
213.5385248601402
 20
151.7945087480404
 30
0.0
 10
213.5402228748704
 20
151.7952253590501
 30
0.0
  0
SPLINE
  5
B9
330
1F
100
AcDbEntity
  8
0
  6
HIDDEN
 62
     7
370
     0
100
AcDbSpline
210
0.0
220
0.0
230
1.0
 70
     8
 71
     3
 72
    11
 73
     7
 74
     0
 42
0.00000001
 43
0.00000001
 12
1.0
 22
0.0
 32
0.0
 13
1.0
 23
0.0
 33
0.0
 40
0.0
 40
0.0
 40
0.0
 40
0.0
 40
0.0077087981753517
 40
0.2978260775923753
 40
0.6482631681648899
 40
1.0
 40
1.0
 40
1.0
 40
1.0
 10
230.9855189239885
 20
149.6532119591883
 30
0.0
 10
230.9869930121576
 20
149.6521060111453
 30
0.0
 10
231.0439437699103
 20
149.6093781876677
 30
0.0
 10
231.1788882289821
 20
149.531527914285
 30
0.0
 10
231.4120429066188
 20
149.4623592869444
 30
0.0
 10
231.5801381341839
 20
149.4838105509274
 30
0.0
 10
231.6643413221742
 20
149.4945560363284
 30
0.0
  0
LINE
  5
BA
330
1F
100
AcDbEntity
  8
0
  6
HIDDEN
 62
     7
370
     0
100
AcDbLine
 10
212.8431912577
 20
151.8055028529
 30
0.0
 11
210.7164379275
 21
152.9060496497
 31
0.0
  0
LINE
  5
BB
330
1F
100
AcDbEntity
  8
0
  6
HIDDEN
 62
     7
370
     0
100
AcDbLine
 10
214.6455835616
 20
151.881226596
 30
0.0
 11
214.6616619146
 21
151.8797063283
 31
0.0
  0
LWPOLYLINE
  5
BC
330
1F
100
AcDbEntity
  8
0
  6
HIDDEN
 62
     7
370
     0
100
AcDbPolyline
 90
        5
 70
   128
 43
0.0
 10
209.5722820675
 20
146.8698870405
 10
209.5816996014
 20
146.868731502
 10
209.6094828164
 20
146.8653198346
 10
209.6543278611
 20
146.8598133899
 10
209.7141038692
 20
146.8524736366
  0
LINE
  5
BD
330
1F
100
AcDbEntity
  8
0
  6
HIDDEN
 62
     7
370
     0
100
AcDbLine
 10
223.8846834814
 20
150.7468074807
 30
0.0
 11
223.8707508957
 21
150.748863841
 31
0.0
  0
LINE
  5
BE
330
1F
100
AcDbEntity
  8
0
  6
HIDDEN
 62
     7
370
     0
100
AcDbLine
 10
220.3739997065
 20
141.0501102465
 30
0.0
 11
220.5803137338
 21
141.0247773412
 31
0.0
  0
LINE
  5
BF
330
1F
100
AcDbEntity
  8
0
  6
HIDDEN
 62
     7
370
     0
100
AcDbLine
 10
211.4026140487
 20
142.1516571674
 30
0.0
 11
220.3739997065
 21
141.0501102465
 31
0.0
  0
LINE
  5
C0
330
1F
100
AcDbEntity
  8
0
  6
HIDDEN
 62
     7
370
     0
100
AcDbLine
 10
216.9751938498
 20
141.1651770133
 30
0.0
 11
211.5574520147
 21
141.8303927886
 31
0.0
  0
LWPOLYLINE
  5
C1
330
1F
100
AcDbEntity
  8
0
  6
HIDDEN
 62
     7
370
     0
100
AcDbPolyline
 90
       13
 70
   128
 43
0.0
 10
218.9639624274
 20
142.8841777626
 10
219.6325700796
 20
142.8020826089
 10
220.3789394414
 20
142.7104404676
 10
221.1725082314
 20
142.6130022402
 10
221.980791918
 20
142.513757247
 10
222.7707024729
 20
142.4167693141
 10
223.5098894751
 20
142.3260082039
 10
224.1680961168
 20
142.2451898935
 10
224.7183810985
 20
142.1776243034
 10
225.1382138646
 20
142.1260755989
 10
225.4103984749
 20
142.0926550883
 10
225.5237963116
 20
142.0787318158
 10
225.5268957531
 20
142.0783509049
  0
LWPOLYLINE
  5
C2
330
1F
100
AcDbEntity
  8
0
  6
HIDDEN
 62
     7
370
     0
100
AcDbPolyline
 90
        6
 70
   128
 43
0.0
 10
217.5369005716
 20
143.0593986544
 10
217.5445597684
 20
143.0584584843
 10
217.6759507573
 20
143.0423251833
 10
217.9652120984
 20
143.0068091969
 10
218.400489918
 20
142.953363854
 10
218.9639624274
 20
142.8841777626
  0
LWPOLYLINE
  5
C3
330
1F
100
AcDbEntity
  8
0
  6
HIDDEN
 62
     7
370
     0
100
AcDbPolyline
 90
       13
 70
   128
 43
0.0
 10
219.1218923843
 20
144.1704166602
 10
219.790507487
 20
144.0883215065
 10
220.5368693983
 20
143.9966793652
 10
221.3304381883
 20
143.8992411378
 10
222.1387218749
 20
143.7999966103
 10
222.9286324298
 20
143.7030082117
 10
223.667819432
 20
143.6122471015
 10
224.3260260737
 20
143.5314292568
 10
224.8763110554
 20
143.4638627353
 10
225.2961438215
 20
143.4123144965
 10
225.5683284318
 20
143.3788944516
 10
225.6817262685
 20
143.3649707134
 10
225.68482571
 20
143.3645898025
  0
LWPOLYLINE
  5
C4
330
1F
100
AcDbEntity
  8
0
  6
HIDDEN
 62
     7
370
     0
100
AcDbPolyline
 90
        6
 70
   128
 43
0.0
 10
217.6948305285
 20
144.3456380177
 10
217.7024897253
 20
144.3446973819
 10
217.8338807142
 20
144.3285645466
 10
218.1231420553
 20
144.2930480945
 10
218.5584198749
 20
144.2396027516
 10
219.1218923843
 20
144.1704166602
  0
LWPOLYLINE
  5
C5
330
1F
100
AcDbEntity
  8
0
  6
HIDDEN
 62
     7
370
     0
100
AcDbPolyline
 90
        5
 70
   128
 43
0.0
 10
210.8707916057
 20
142.2169568497
 10
210.9060775554
 20
142.2126234058
 10
211.0102813756
 20
142.1998298275
 10
211.1784484303
 20
142.1791814747
 10
211.4026140487
 20
142.1516571674
  0
LINE
  5
C6
330
1F
100
AcDbEntity
  8
0
  6
HIDDEN
 62
     7
370
     0
100
AcDbLine
 10
211.5574520147
 20
141.8303927886
 30
0.0
 11
211.4168670094
 21
141.8476539212
 31
0.0
  0
LINE
  5
C7
330
1F
100
AcDbEntity
  8
0
  6
HIDDEN
 62
     7
370
     0
100
AcDbLine
 10
211.4795636451
 20
134.6214028555
 30
0.0
 11
220.0412940299
 21
133.4052920821
 31
0.0
  0
LINE
  5
C8
330
1F
100
AcDbEntity
  8
0
  6
HIDDEN
 62
     7
370
     0
100
AcDbLine
 10
220.3558947956
 20
133.3666626844
 30
0.0
 11
220.0412940299
 21
133.4052920821
 31
0.0
  0
LINE
  5
C9
330
1F
100
AcDbEntity
  8
0
  6
HIDDEN
 62
     7
370
     0
100
AcDbLine
 10
222.1505608475
 20
133.1117485198
 30
0.0
 11
220.3558947956
 21
133.3666626844
 31
0.0
  0
LWPOLYLINE
  5
CA
330
1F
100
AcDbEntity
  8
0
  6
HIDDEN
 62
     7
370
     0
100
AcDbPolyline
 90
       15
 70
   128
 43
0.0
 10
219.0045457399
 20
133.4980313215
 10
219.792765013
 20
133.3868314061
 10
220.6203382528
 20
133.2715224954
 10
221.4457657254
 20
133.1578881028
 10
222.2276520049
 20
133.0516241971
 10
222.926799587
 20
132.9580598059
 10
223.5081460392
 20
132.8818869325
 10
223.9425372398
 20
132.8269258621
 10
224.2081951415
 20
132.7959314468
 10
224.291805557
 20
132.7904589954
 10
224.1891589081
 20
132.8107823166
 10
223.9054109967
 20
132.855880681
 10
223.4547924316
 20
132.9234946999
 10
222.8599008238
 20
133.0102343592
 10
222.1505608475
 20
133.1117485198
  0
LINE
  5
CB
330
1F
100
AcDbEntity
  8
0
  6
HIDDEN
 62
     7
370
     0
100
AcDbLine
 10
217.2098871386
 20
133.752945486
 30
0.0
 11
219.0045457399
 21
133.4980313215
 31
0.0
  0
LINE
  5
CC
330
1F
100
AcDbEntity
  8
0
  6
HIDDEN
 62
     7
370
     0
100
AcDbLine
 10
217.5244879043
 20
133.7143160883
 30
0.0
 11
217.2098871386
 21
133.752945486
 31
0.0
  0
LINE
  5
CD
330
1F
100
AcDbEntity
  8
0
  6
HIDDEN
 62
     7
370
     0
100
AcDbLine
 10
217.5244879043
 20
133.7143160883
 30
0.0
 11
208.9627575195
 21
134.9304287243
 31
0.0
  0
LWPOLYLINE
  5
CE
330
1F
100
AcDbEntity
  8
0
  6
HIDDEN
 62
     7
370
     0
100
AcDbPolyline
 90
        9
 70
   128
 43
0.0
 10
208.9627575195
 20
134.9304287243
 10
209.6694748914
 20
134.8353947061
 10
210.2949883854
 20
134.7524967524
 10
210.8193900502
 20
134.6843714374
 10
211.2259905851
 20
134.6331887427
 10
211.5018557823
 20
134.6005756888
 10
211.6382014072
 20
134.5875707003
 10
211.6306912219
 20
134.5945872846
 10
211.4795636451
 20
134.6214028555
  0
LINE
  5
CF
330
1F
100
AcDbEntity
  8
0
  6
HIDDEN
 62
     7
370
     0
100
AcDbLine
 10
211.2523581898
 20
139.3110599849
 30
0.0
 11
210.6727030194
 21
135.1286504897
 31
0.0
  0
SPLINE
  5
D0
330
1F
100
AcDbEntity
  8
0
  6
HIDDEN
 62
     7
370
     0
100
AcDbSpline
210
0.0
220
0.0
230
1.0
 70
     8
 71
     3
 72
    13
 73
     9
 74
     0
 42
0.00000001
 43
0.00000001
 12
1.0
 22
0.0
 32
0.0
 13
1.0
 23
0.0
 33
0.0
 40
0.0
 40
0.0
 40
0.0
 40
0.0
 40
0.1460380976366041
 40
0.3165513829085395
 40
0.4862277675251548
 40
0.6803804478661727
 40
0.8759059132543252
 40
1.0
 40
1.0
 40
1.0
 40
1.0
 10
210.6727030193712
 20
135.1286504897452
 30
0.0
 10
210.5718412479677
 20
135.262104518311
 30
0.0
 10
210.3532138230898
 20
135.5513787418246
 30
0.0
 10
209.9912832815182
 20
135.9125291080147
 30
0.0
 10
209.5486901892916
 20
136.1389300668946
 30
0.0
 10
209.0363143766909
 20
136.0423274009632
 30
0.0
 10
208.5624709680351
 20
135.7567166282757
 30
0.0
 10
208.2695987335509
 20
135.5269021784454
 30
0.0
 10
208.1558894431497
 20
135.4376754271961
 30
0.0
  0
LINE
  5
D1
330
1F
100
AcDbEntity
  8
0
  6
HIDDEN
 62
     7
370
     0
100
AcDbLine
 10
208.7355520642
 20
139.6200858536
 30
0.0
 11
208.1558894431
 21
135.4376754272
 31
0.0
  0
SPLINE
  5
D2
330
1F
100
AcDbEntity
  8
0
  6
HIDDEN
 62
     7
370
     0
100
AcDbSpline
210
0.0
220
0.0
230
1.0
 70
     8
 71
     3
 72
    13
 73
     9
 74
     0
 42
0.00000001
 43
0.00000001
 12
1.0
 22
0.0
 32
0.0
 13
1.0
 23
0.0
 33
0.0
 40
0.0
 40
0.0
 40
0.0
 40
0.0
 40
0.1240774797408696
 40
0.3196119639341026
 40
0.5137741781904721
 40
0.683454265349139
 40
0.8539712898106422
 40
1.0
 40
1.0
 40
1.0
 40
1.0
 10
208.735552064171
 20
139.6200858536339
 30
0.0
 10
208.8211254533515
 20
139.506403620798
 30
0.0
 10
209.0415544871586
 20
139.213568839039
 30
0.0
 10
209.4216886726455
 20
138.8230939219241
 30
0.0
 10
209.8906176268269
 20
138.6059877870782
 30
0.0
 10
210.3801151140206
 20
138.7179523637595
 30
0.0
 10
210.8283617433396
 20
138.9796328754128
 30
0.0
 10
211.1185080498099
 20
139.2064327754366
 30
0.0
 10
211.2523581898119
 20
139.3110599848605
 30
0.0
  0
SPLINE
  5
D3
330
1F
100
AcDbEntity
  8
0
  6
HIDDEN
 62
     7
370
     0
100
AcDbSpline
210
0.0
220
0.0
230
1.0
 70
     8
 71
     3
 72
     9
 73
     5
 74
     0
 42
0.00000001
 43
0.00000001
 12
1.0
 22
0.0
 32
0.0
 13
1.0
 23
0.0
 33
0.0
 40
0.0
 40
0.0
 40
0.0
 40
0.0
 40
0.6882612948776543
 40
1.0
 40
1.0
 40
1.0
 40
1.0
 10
211.479563645115
 20
134.6214028555131
 30
0.0
 10
211.2965603940767
 20
134.7417726579807
 30
0.0
 10
211.0306682795552
 20
134.9166623450276
 30
0.0
 10
210.7577745555336
 20
135.07827086042
 30
0.0
 10
210.6727030193712
 20
135.1286504897452
 30
0.0
  0
SPLINE
  5
D4
330
1F
100
AcDbEntity
  8
0
  6
HIDDEN
 62
     7
370
     0
100
AcDbSpline
210
0.0
220
0.0
230
1.0
 70
     8
 71
     3
 72
     9
 73
     5
 74
     0
 42
0.00000001
 43
0.00000001
 12
1.0
 22
0.0
 32
0.0
 13
1.0
 23
0.0
 33
0.0
 40
0.0
 40
0.0
 40
0.0
 40
0.0
 40
0.3117369820769518
 40
1.0
 40
1.0
 40
1.0
 40
1.0
 10
208.1558894431497
 20
135.4376754271961
 30
0.0
 10
208.2409609071077
 20
135.3872957065214
 30
0.0
 10
208.5138559078587
 20
135.2256860048457
 30
0.0
 10
208.7797514507035
 20
135.0507978047107
 30
0.0
 10
208.9627575194742
 20
134.9304287242866
 30
0.0
  0
LINE
  5
D5
330
1F
100
AcDbEntity
  8
0
  6
HIDDEN
 62
     7
370
     0
100
AcDbLine
 10
221.9532843745
 20
134.4467193368
 30
0.0
 11
220.219757787
 21
134.6929489183
 31
0.0
  0
LINE
  5
D6
330
1F
100
AcDbEntity
  8
0
  6
HIDDEN
 62
     7
370
     0
100
AcDbLine
 10
220.0412940299
 20
133.4052920821
 30
0.0
 11
220.219757787
 21
134.6929489183
 31
0.0
  0
SPLINE
  5
D7
330
1F
100
AcDbEntity
  8
0
  6
HIDDEN
 62
     7
370
     0
100
AcDbSpline
210
0.0
220
0.0
230
1.0
 70
     8
 71
     3
 72
     9
 73
     5
 74
     0
 42
0.00000001
 43
0.00000001
 12
1.0
 22
0.0
 32
0.0
 13
1.0
 23
0.0
 33
0.0
 40
0.0
 40
0.0
 40
0.0
 40
0.0
 40
0.24201923061799
 40
1.0
 40
1.0
 40
1.0
 40
1.0
 10
211.2523581898118
 20
139.3110599848605
 30
0.0
 10
211.3367667362612
 20
139.3328658502278
 30
0.0
 10
211.6855346677755
 20
139.4229655721036
 30
0.0
 10
212.0303123073483
 20
139.5318336521287
 30
0.0
 10
212.2916471278574
 20
139.6143535631872
 30
0.0
  0
LINE
  5
D8
330
1F
100
AcDbEntity
  8
0
  6
HIDDEN
 62
     7
370
     0
100
AcDbLine
 10
212.2916471279
 20
139.6143535632
 30
0.0
 11
217.1363946116
 21
139.2097153249
 31
0.0
  0
SPLINE
  5
D9
330
1F
100
AcDbEntity
  8
0
  6
HIDDEN
 62
     7
370
     0
100
AcDbSpline
210
0.0
220
0.0
230
1.0
 70
     8
 71
     3
 72
    13
 73
     9
 74
     0
 42
0.00000001
 43
0.00000001
 12
1.0
 22
0.0
 32
0.0
 13
1.0
 23
0.0
 33
0.0
 40
0.0
 40
0.0
 40
0.0
 40
0.0
 40
0.1634974957189322
 40
0.3052006969870516
 40
0.44713226366929
 40
0.7219560938638991
 40
0.9982965779844204
 40
1.0
 40
1.0
 40
1.0
 40
1.0
 10
217.1363946115877
 20
139.209715324936
 30
0.0
 10
217.4816381423051
 20
139.208844675175
 30
0.0
 10
218.1261040758162
 20
139.2072194336831
 30
0.0
 10
219.0454599914989
 20
139.4891470974831
 30
0.0
 10
220.1318628108904
 20
140.0143934604244
 30
0.0
 10
221.3484011304888
 20
140.9523875616366
 30
0.0
 10
222.2199521121182
 20
141.8199189615952
 30
0.0
 10
222.6577591279847
 20
142.2573746826675
 30
0.0
 10
222.6604413306619
 20
142.2600547331548
 30
0.0
  0
SPLINE
  5
DA
330
1F
100
AcDbEntity
  8
0
  6
HIDDEN
 62
     7
370
     0
100
AcDbSpline
210
0.0
220
0.0
230
1.0
 70
     8
 71
     3
 72
     9
 73
     5
 74
     0
 42
0.00000001
 43
0.00000001
 12
1.0
 22
0.0
 32
0.0
 13
1.0
 23
0.0
 33
0.0
 40
0.0
 40
0.0
 40
0.0
 40
0.0
 40
0.757979492687301
 40
1.0
 40
1.0
 40
1.0
 40
1.0
 10
209.7748335516359
 20
139.9233794319606
 30
0.0
 10
209.5135014579747
 20
139.8408585472265
 30
0.0
 10
209.1687268352013
 20
139.7319889992634
 30
0.0
 10
208.8199606365114
 20
139.6418913358427
 30
0.0
 10
208.735552064171
 20
139.6200858536339
 30
0.0
  0
ELLIPSE
  5
DB
330
1F
100
AcDbEntity
  8
0
  6
HIDDEN
 62
     7
370
     0
100
AcDbEllipse
 10
208.1464289974
 20
140.0099762314
 30
0.0
 11
4.372568604137996
 21
-0.3954696638791973
 31
0.0
210
0.0
220
0.0
230
1.0
 40
0.0148241663
 41
5.960634695218856
 42
7.473713390892081
  0
LINE
  5
DC
330
1F
100
AcDbEntity
  8
0
  6
HIDDEN
 62
     7
370
     0
100
AcDbLine
 10
214.6195884859
 20
139.5187402624
 30
0.0
 11
209.7748335516
 21
139.923379432
 31
0.0
  0
SPLINE
  5
DD
330
1F
100
AcDbEntity
  8
0
  6
HIDDEN
 62
     7
370
     0
100
AcDbSpline
210
0.0
220
0.0
230
1.0
 70
     8
 71
     3
 72
    14
 73
    10
 74
     0
 42
0.00000001
 43
0.00000001
 12
1.0
 22
0.0
 32
0.0
 13
1.0
 23
0.0
 33
0.0
 40
0.0
 40
0.0
 40
0.0
 40
0.0
 40
0.0017038767031687
 40
0.2287580028351603
 40
0.4570249407664627
 40
0.6039497427764271
 40
0.7539546030844284
 40
0.9876534665398139
 40
1.0
 40
1.0
 40
1.0
 40
1.0
 10
220.143635205021
 20
142.5690796706057
 30
0.0
 10
220.1409529955513
 20
142.5663997901507
 30
0.0
 10
219.7808466097169
 20
142.2066060917008
 30
0.0
 10
219.0614560029409
 20
141.4877636725151
 30
0.0
 10
218.0389889102981
 20
140.6328147502363
 30
0.0
 10
217.0615706883424
 20
140.0346662115769
 30
0.0
 10
216.0072825249582
 20
139.5966758112059
 30
0.0
 10
215.1602505844733
 20
139.4773412208128
 30
0.0
 10
214.6454225074675
 20
139.5167621253325
 30
0.0
 10
214.6195884859468
 20
139.5187402623868
 30
0.0
  0
ELLIPSE
  5
DE
330
1F
100
AcDbEntity
  8
0
  6
HIDDEN
 62
     7
370
     0
100
AcDbEllipse
 10
220.6948792525
 20
134.6012313902
 30
0.0
 11
2.974943011508856
 21
-0.4123339970385304
 31
0.0
210
0.0
220
0.0
230
1.0
 40
0.0072415107
 41
4.276638053245439
 42
7.418230706835022
  0
ELLIPSE
  5
DF
330
1F
100
AcDbEntity
  8
0
  6
HIDDEN
 62
     7
370
     0
100
AcDbEllipse
 10
222.1569562964
 20
150.7556394127
 30
0.0
 11
2.974943011508941
 21
-0.4123339970385017
 31
0.0
210
0.0
220
0.0
230
1.0
 40
0.0072415107
 41
0.0
 42
6.283185307179586
  0
LINE
  5
E0
330
1F
100
AcDbEntity
  8
0
  6
HIDDEN
 62
     7
370
     0
100
AcDbLine
 10
220.5343585527
 20
134.6543213832
 30
0.0
 11
220.3558947956
 21
133.3666626844
 31
0.0
  0
LINE
  5
E1
330
1F
100
AcDbEntity
  8
0
  6
HIDDEN
 62
     7
370
     0
100
AcDbLine
 10
222.329017154
 20
134.3994062874
 30
0.0
 11
220.5343585527
 21
134.6543213832
 31
0.0
  0
LINE
  5
E2
330
1F
100
AcDbEntity
  8
0
  6
HIDDEN
 62
     7
370
     0
100
AcDbLine
 10
220.5343585527
 20
134.6543213832
 30
0.0
 11
220.219757787
 21
134.6929489183
 31
0.0
  0
LWPOLYLINE
  5
E3
330
1F
100
AcDbEntity
  8
0
  6
HIDDEN
 62
     7
370
     0
100
AcDbPolyline
 90
       15
 70
   128
 43
0.0
 10
219.1830094969
 20
134.7856881577
 10
219.97122877
 20
134.6744891736
 10
220.7988020098
 20
134.559180263
 10
221.6242220318
 20
134.4455458704
 10
222.406115762
 20
134.3392819646
 10
223.105263344
 20
134.2457175735
 10
223.6866097963
 20
134.1695447001
 10
224.1210009968
 20
134.1145836297
 10
224.3866588986
 20
134.0835892144
 10
224.4702618635
 20
134.0781167629
 10
224.3676226652
 20
134.0984382215
 10
224.0838747537
 20
134.1435384485
 10
223.6332561886
 20
134.2111524674
 10
223.0383645809
 20
134.2978921267
 10
222.329017154
 20
134.3994062874
  0
LINE
  5
E4
330
1F
100
AcDbEntity
  8
0
  6
HIDDEN
 62
     7
370
     0
100
AcDbLine
 10
217.7029516613
 20
135.0019747871
 30
0.0
 11
219.4364782488
 21
134.7557442743
 31
0.0
  0
LINE
  5
E5
330
1F
100
AcDbEntity
  8
0
  6
HIDDEN
 62
     7
370
     0
100
AcDbLine
 10
217.3883508956
 20
135.0406023222
 30
0.0
 11
217.2098871386
 21
133.752945486
 31
0.0
  0
LINE
  5
E6
330
1F
100
AcDbEntity
  8
0
  6
HIDDEN
 62
     7
370
     0
100
AcDbLine
 10
217.7029516613
 20
135.0019747871
 30
0.0
 11
217.5244879043
 21
133.7143160883
 31
0.0
  0
LINE
  5
E7
330
1F
100
AcDbEntity
  8
0
  6
HIDDEN
 62
     7
370
     0
100
AcDbLine
 10
217.7029516613
 20
135.0019747871
 30
0.0
 11
217.3883508956
 21
135.0406023222
 31
0.0
  0
LINE
  5
E8
330
1F
100
AcDbEntity
  8
0
  6
HIDDEN
 62
     7
370
     0
100
AcDbLine
 10
217.3883508956
 20
135.0406023222
 30
0.0
 11
219.1830094969
 21
134.7856881577
 31
0.0
  0
LWPOLYLINE
  5
E9
330
1F
100
AcDbEntity
  8
0
  6
HIDDEN
 62
     7
370
     0
100
AcDbPolyline
 90
       17
 70
   128
 43
0.0
 10
211.9009237802
 20
142.8596080761
 10
211.8858214533
 20
142.861462805
 10
211.7274519122
 20
142.8809083547
 10
211.4031430399
 20
142.9207279827
 10
210.9270807421
 20
142.9791815127
 10
210.3200595891
 20
143.0537143271
 10
209.6086110985
 20
143.1410686593
 10
208.8238414442
 20
143.2374265525
 10
208.0000307476
 20
143.3385774973
 10
207.1731951153
 20
143.4401005055
 10
206.3794698632
 20
143.537557825
 10
205.6535374439
 20
143.6266909833
 10
205.0271298802
 20
143.7036037925
 10
204.5276280558
 20
143.7649351093
 10
204.1768621719
 20
143.8080041218
 10
203.9901506221
 20
143.8309290926
 10
203.960556916
 20
143.8345626476
  0
LWPOLYLINE
  5
EA
330
1F
100
AcDbEntity
  8
0
  6
HIDDEN
 62
     7
370
     0
100
AcDbPolyline
 90
       17
 70
   128
 43
0.0
 10
212.8815617478
 20
150.8462269805
 10
212.8664519703
 20
150.8480819422
 10
212.7080824292
 20
150.8675273755
 10
212.3837810075
 20
150.9073470035
 10
211.9077112591
 20
150.9658004753
 10
211.3006901061
 20
151.040333115
 10
210.5892490661
 20
151.1276875055
 10
209.8044719613
 20
151.2240458061
 10
208.9806687152
 20
151.3251966345
 10
208.1538256323
 20
151.4267194099
 10
207.3601003802
 20
151.5241769622
 10
206.6341679609
 20
151.6133098877
 10
206.0077678478
 20
151.6902226969
 10
205.5082660234
 20
151.7515540137
 10
205.1574926889
 20
151.794623259
 10
204.9707811391
 20
151.8175481134
 10
204.941187433
 20
151.8211816685
  0
LWPOLYLINE
  5
EB
330
1F
100
AcDbEntity
  8
0
  6
HIDDEN
 62
     7
370
     0
100
AcDbPolyline
 90
       16
 70
   128
 43
0.0
 10
212.4462243235
 20
151.4034347157
 10
212.445948652
 20
151.4034678941
 10
212.3492252147
 20
151.4153445852
 10
212.0831649816
 20
151.4480127036
 10
211.6611119425
 20
151.4998341692
 10
211.104233197
 20
151.5682103592
 10
210.4404460704
 20
151.6497126096
 10
209.7030472076
 20
151.7402541605
 10
208.9290063894
 20
151.8352948143
 10
208.1571336901
 20
151.9300687607
 10
207.426134876
 20
152.0198238096
 10
206.7726742542
 20
152.1000591121
 10
206.2295045769
 20
152.1667513545
 10
205.8238800681
 20
152.2165563903
 10
205.5761259115
 20
152.2469766452
 10
205.4984014547
 20
152.2565201405
  0
LWPOLYLINE
  5
EC
330
1F
100
AcDbEntity
  8
0
  6
HIDDEN
 62
     7
370
     0
100
AcDbPolyline
 90
       17
 70
   128
 43
0.0
 10
210.4920413411
 20
131.7954339567
 10
210.4771252787
 20
131.7972667995
 10
210.3207301414
 20
131.8164688084
 10
210.0004818356
 20
131.8557911101
 10
209.5303651011
 20
131.9135126206
 10
208.9309360897
 20
131.9871150437
 10
208.2283835924
 20
132.0733760032
 10
207.4534189021
 20
132.1685310933
 10
206.6399049079
 20
132.2684173021
 10
205.8234032309
 20
132.3686704519
 10
205.0396021521
 20
132.4649096015
 10
204.32274454
 20
132.552928898
 10
203.7041675365
 20
132.6288801166
 10
203.2109092986
 20
132.6894440237
 10
202.8645243561
 20
132.731975663
 10
202.6801522887
 20
132.7546142521
 10
202.650923661
 20
132.7582017067
  0
LWPOLYLINE
  5
ED
330
1F
100
AcDbEntity
  8
0
  6
HIDDEN
 62
     7
370
     0
100
AcDbPolyline
 90
       17
 70
   128
 43
0.0
 10
210.7848864114
 20
134.180484015
 10
210.7699703491
 20
134.1823149952
 10
210.6135826623
 20
134.2015170041
 10
210.293326906
 20
134.2408393058
 10
209.8232101715
 20
134.298562679
 10
209.2237811601
 20
134.3721632394
 10
208.5212286627
 20
134.4584260616
 10
207.7462639725
 20
134.553579289
 10
206.9327574289
 20
134.6534654978
 10
206.1162557518
 20
134.753719579
 10
205.3324472225
 20
134.8499587285
 10
204.6155896103
 20
134.9379770938
 10
203.9970200574
 20
135.0139292437
 10
203.503754369
 20
135.0744931507
 10
203.1573694265
 20
135.11702479
 10
202.972997359
 20
135.1396624479
 10
202.9437761819
 20
135.1432508337
  0
LWPOLYLINE
  5
EE
330
1F
100
AcDbEntity
  8
0
  6
HIDDEN
 62
     7
370
     0
100
AcDbPolyline
 90
       12
 70
   128
 43
0.0
 10
208.7791379607
 20
135.6919255587
 10
208.746765188
 20
135.6959004435
 10
208.5582431471
 20
135.7190475348
 10
208.2188915527
 20
135.7607149067
 10
207.7619250929
 20
135.8168233666
 10
207.2320696032
 20
135.881880905
 10
206.6812034762
 20
135.9495191383
 10
206.1632465637
 20
136.0131172943
 10
205.728892616
 20
136.0664485502
 10
205.4206620967
 20
136.1042947057
 10
205.2687298572
 20
136.1229490969
 10
205.2555944836
 20
136.1245621476
  0
LWPOLYLINE
  5
EF
330
1F
100
AcDbEntity
  8
0
  6
HIDDEN
 62
     7
370
     0
100
AcDbPolyline
 90
       16
 70
   128
 43
0.0
 10
209.8233889854
 20
131.2730290475
 10
209.8231356656
 20
131.2730607125
 10
209.7305547511
 20
131.2844284359
 10
209.4758939063
 20
131.31569666
 10
209.071930877
 20
131.3652970377
 10
208.5389163411
 20
131.4307429376
 10
207.9035829818
 20
131.5087505165
 10
207.1977820313
 20
131.5954119447
 10
206.4569111979
 20
131.6863798085
 10
205.7181190765
 20
131.7770924899
 10
205.0184499538
 20
131.8630014095
 10
204.3929960644
 20
131.9397964063
 10
203.8731094515
 20
132.0036311182
 10
203.4848596966
 20
132.0513017955
 10
203.247730068
 20
132.0804186645
 10
203.1733360207
 20
132.0895530763
  0
LWPOLYLINE
  5
F0
330
1F
100
AcDbEntity
  8
0
  6
HIDDEN
 62
     7
370
     0
100
AcDbPolyline
 90
       12
 70
   128
 43
0.0
 10
209.0816911375
 20
138.1560272086
 10
209.0493183648
 20
138.160001162
 10
208.860796324
 20
138.1831491846
 10
208.5214447296
 20
138.2248165566
 10
208.0644782698
 20
138.2809250164
 10
207.5346302307
 20
138.3459825549
 10
206.9837566531
 20
138.4136207882
 10
206.4657997405
 20
138.4772180128
 10
206.0314457929
 20
138.5305502
 10
205.7232152736
 20
138.5683954242
 10
205.5712830341
 20
138.5870507467
 10
205.5581551111
 20
138.5886628661
  0
LWPOLYLINE
  5
F1
330
1F
100
AcDbEntity
  8
0
  6
HIDDEN
 62
     7
370
     0
100
AcDbPolyline
 90
       17
 70
   128
 43
0.0
 10
211.3935168898
 20
139.137337591
 10
211.3785933769
 20
139.1391695026
 10
211.2222056901
 20
139.1583724427
 10
210.9019499338
 20
139.1976938131
 10
210.4318406498
 20
139.255416255
 10
209.8324041879
 20
139.3290177467
 10
209.1298591411
 20
139.4152796376
 10
208.3548870003
 20
139.5104337963
 10
207.5413804567
 20
139.6103200051
 10
206.7248787796
 20
139.7105740863
 10
205.9410702503
 20
139.8068132359
 10
205.2242200887
 20
139.8948325324
 10
204.6056430852
 20
139.970783751
 10
204.1123848474
 20
140.0313485894
 10
203.7659999049
 20
140.0738792974
 10
203.5816203868
 20
140.0965178865
 10
203.5523992097
 20
140.1001053411
  0
LWPOLYLINE
  5
F2
330
1F
100
AcDbEntity
  8
0
  6
HIDDEN
 62
     7
370
     0
100
AcDbPolyline
 90
       17
 70
   128
 43
0.0
 10
211.5523036635
 20
140.430586088
 10
211.5373876011
 20
140.4324179995
 10
211.3809924638
 20
140.4516200083
 10
211.060744158
 20
140.4909423101
 10
210.5906274235
 20
140.5486647519
 10
209.9911984122
 20
140.6222653124
 10
209.2886459148
 20
140.7085281345
 10
208.5136812246
 20
140.8036822933
 10
207.7001672304
 20
140.9035685021
 10
206.8836730039
 20
141.0038216519
 10
206.0998644745
 20
141.1000617328
 10
205.3830068624
 20
141.188080098
 10
204.7644298589
 20
141.2640313166
 10
204.2711716211
 20
141.324596155
 10
203.9247866785
 20
141.367126863
 10
203.7404146111
 20
141.3897654521
 10
203.711193434
 20
141.393353838
  0
SPLINE
  5
F3
330
1F
100
AcDbEntity
  8
0
  6
HIDDEN
 62
     7
370
     0
100
AcDbSpline
210
0.0
220
0.0
230
1.0
 70
     8
 71
     3
 72
    11
 73
     7
 74
     0
 42
0.00000001
 43
0.00000001
 12
1.0
 22
0.0
 32
0.0
 13
1.0
 23
0.0
 33
0.0
 40
0.0
 40
0.0
 40
0.0
 40
0.0
 40
0.1081098793995859
 40
0.4711575986990515
 40
0.8135809504470257
 40
1.0
 40
1.0
 40
1.0
 40
1.0
 10
208.789822093239
 20
151.582422690948
 30
0.0
 10
208.8390837255212
 20
151.5481941855158
 30
0.0
 10
209.0537726374227
 20
151.3990216906795
 30
0.0
 10
209.4752312315765
 20
151.2187661824543
 30
0.0
 10
209.9751696897361
 20
151.2545885955394
 30
0.0
 10
210.2507513330501
 20
151.355532513756
 30
0.0
 10
210.3478949582483
 20
151.39111564636
 30
0.0
  0
SPLINE
  5
F4
330
1F
100
AcDbEntity
  8
0
  6
HIDDEN
 62
     7
370
     0
100
AcDbSpline
210
0.0
220
0.0
230
1.0
 70
     8
 71
     3
 72
    10
 73
     6
 74
     0
 42
0.00000001
 43
0.00000001
 12
1.0
 22
0.0
 32
0.0
 13
1.0
 23
0.0
 33
0.0
 40
0.0
 40
0.0
 40
0.0
 40
0.0
 40
0.439116545447767
 40
0.7513666750560608
 40
1.0
 40
1.0
 40
1.0
 40
1.0
 10
210.3478949582483
 20
151.39111564636
 30
0.0
 10
210.356826578922
 20
151.2865131455848
 30
0.0
 10
210.3721093602201
 20
151.1075291514158
 30
0.0
 10
210.434971724535
 20
151.1785323063737
 30
0.0
 10
210.4784518732978
 20
151.3130765732799
 30
0.0
 10
210.4977261340524
 20
151.3727185330517
 30
0.0
  0
SPLINE
  5
F5
330
1F
100
AcDbEntity
  8
0
  6
HIDDEN
 62
     7
370
     0
100
AcDbSpline
210
0.0
220
0.0
230
1.0
 70
     8
 71
     3
 72
    11
 73
     7
 74
     0
 42
0.00000001
 43
0.00000001
 12
1.0
 22
0.0
 32
0.0
 13
1.0
 23
0.0
 33
0.0
 40
0.0
 40
0.0
 40
0.0
 40
0.0
 40
0.1864191513441876
 40
0.5288423978357121
 40
0.8918901198052953
 40
1.0
 40
1.0
 40
1.0
 40
1.0
 10
209.0894918954278
 20
151.5456282315007
 30
0.0
 10
208.992348289146
 20
151.5100450989621
 30
0.0
 10
208.7167668517773
 20
151.409101236711
 30
0.0
 10
208.2168280067655
 20
151.3732787665931
 30
0.0
 10
207.7953695812546
 20
151.5535342773793
 30
0.0
 10
207.5806806639423
 20
151.7027067709475
 30
0.0
 10
207.5314190304185
 20
151.7369352760888
 30
0.0
  0
SPLINE
  5
F6
330
1F
100
AcDbEntity
  8
0
  6
HIDDEN
 62
     7
370
     0
100
AcDbSpline
210
0.0
220
0.0
230
1.0
 70
     8
 71
     3
 72
    10
 73
     6
 74
     0
 42
0.00000001
 43
0.00000001
 12
1.0
 22
0.0
 32
0.0
 13
1.0
 23
0.0
 33
0.0
 40
0.0
 40
0.0
 40
0.0
 40
0.0
 40
0.4391166524513254
 40
0.7513669245675534
 40
1.0
 40
1.0
 40
1.0
 40
1.0
 10
207.5314190304185
 20
151.7369352760888
 30
0.0
 10
207.4974499712688
 20
151.6376002270862
 30
0.0
 10
207.4393259457706
 20
151.467629286895
 30
0.0
 10
207.3954933500278
 20
151.5517341038652
 30
0.0
 10
207.385858757578
 20
151.6927996643683
 30
0.0
 10
207.3815878546144
 20
151.7553323893971
 30
0.0
  0
SPLINE
  5
F7
330
1F
100
AcDbEntity
  8
0
  6
HIDDEN
 62
     7
370
     0
100
AcDbSpline
210
0.0
220
0.0
230
1.0
 70
     8
 71
     3
 72
    10
 73
     6
 74
     0
 42
0.00000001
 43
0.00000001
 12
1.0
 22
0.0
 32
0.0
 13
1.0
 23
0.0
 33
0.0
 40
0.0
 40
0.0
 40
0.0
 40
0.0
 40
0.4391158523260089
 40
0.7513679217478085
 40
1.0
 40
1.0
 40
1.0
 40
1.0
 10
207.3815878546144
 20
151.7553323893971
 30
0.0
 10
207.5706664035136
 20
151.6286103611998
 30
0.0
 10
207.8941973249799
 20
151.4117772260219
 30
0.0
 10
208.4051752332293
 20
151.4277604168284
 30
0.0
 10
208.6716829563885
 20
151.5349202426832
 30
0.0
 10
208.789822093239
 20
151.582422690948
 30
0.0
  0
LINE
  5
F8
330
1F
100
AcDbEntity
  8
0
  6
HIDDEN
 62
     7
370
     0
100
AcDbLine
 10
207.6308842814
 20
147.9646448526
 30
0.0
 11
208.3350014007
 21
147.8781899451
 31
0.0
  0
LINE
  5
F9
330
1F
100
AcDbEntity
  8
0
  6
HIDDEN
 62
     7
370
     0
100
AcDbLine
 10
208.3350014007
 20
147.8781899451
 30
0.0
 11
209.1140341079
 21
147.7825363646
 31
0.0
  0
LINE
  5
FA
330
1F
100
AcDbEntity
  8
0
  6
HIDDEN
 62
     7
370
     0
100
AcDbLine
 10
208.3350014007
 20
147.8781899451
 30
0.0
 11
208.7898220932
 21
151.5824226909
 31
0.0
  0
LINE
  5
FB
330
1F
100
AcDbEntity
  8
0
  6
HIDDEN
 62
     7
370
     0
100
AcDbLine
 10
206.9267597115
 20
148.05109976
 30
0.0
 11
207.6308842814
 21
147.9646448526
 31
0.0
  0
LINE
  5
FC
330
1F
100
AcDbEntity
  8
0
  6
HIDDEN
 62
     7
370
     0
100
AcDbLine
 10
209.1140341079
 20
147.7825363646
 30
0.0
 11
209.8930668151
 21
147.686883017
 31
0.0
  0
LINE
  5
FD
330
1F
100
AcDbEntity
  8
0
  6
HIDDEN
 62
     7
370
     0
100
AcDbLine
 10
209.8930668151
 20
147.686883017
 30
0.0
 11
209.9679898536
 21
147.6776843439
 31
0.0
  0
LINE
  5
FE
330
1F
100
AcDbEntity
  8
0
  6
HIDDEN
 62
     7
370
     0
100
AcDbLine
 10
209.8930668151
 20
147.686883017
 30
0.0
 11
210.3478949582
 21
151.3911156464
 31
0.0
  0
LINE
  5
FF
330
1F
100
AcDbEntity
  8
0
  6
HIDDEN
 62
     7
370
     0
100
AcDbLine
 10
207.0765983379
 20
148.0327026467
 30
0.0
 11
207.5314190304
 21
151.7369352761
 31
0.0
  0
LINE
  5
100
330
1F
100
AcDbEntity
  8
0
  6
HIDDEN
 62
     7
370
     0
100
AcDbLine
 10
206.9267597115
 20
148.05109976
 30
0.0
 11
207.3815878546
 21
151.7553323894
 31
0.0
  0
LINE
  5
101
330
1F
100
AcDbEntity
  8
0
  6
HIDDEN
 62
     7
370
     0
100
AcDbLine
 10
209.9679898536
 20
147.6776843439
 30
0.0
 11
210.0429054415
 21
147.6684859037
 31
0.0
  0
LINE
  5
102
330
1F
100
AcDbEntity
  8
0
  6
HIDDEN
 62
     7
370
     0
100
AcDbLine
 10
208.6346637523
 20
147.8413957185
 30
0.0
 11
209.0894918954
 21
151.5456282315
 31
0.0
  0
LINE
  5
103
330
1F
100
AcDbEntity
  8
0
  6
HIDDEN
 62
     7
370
     0
100
AcDbLine
 10
210.0429054415
 20
147.6684859037
 30
0.0
 11
210.4977261341
 21
151.3727185331
 31
0.0
  0
LINE
  5
104
330
1F
100
AcDbEntity
  8
0
  6
HIDDEN
 62
     7
370
     0
100
AcDbLine
 10
170.886386565
 20
179.026651803
 30
0.0
 11
168.6179194665
 21
179.026651803
 31
0.0
  0
LINE
  5
105
330
1F
100
AcDbEntity
  8
0
  6
HIDDEN
 62
     7
370
     0
100
AcDbLine
 10
174.2179174042
 20
179.026651803
 30
0.0
 11
170.886386565
 21
179.026651803
 31
0.0
  0
LINE
  5
106
330
1F
100
AcDbEntity
  8
0
  6
HIDDEN
 62
     7
370
     0
100
AcDbLine
 10
170.8484184062
 20
179.5369141284
 30
0.0
 11
168.4179198062
 21
179.5369141284
 31
0.0
  0
LINE
  5
107
330
1F
100
AcDbEntity
  8
0
  6
HIDDEN
 62
     7
370
     0
100
AcDbLine
 10
174.4179170644
 20
179.5369141284
 30
0.0
 11
170.8484184062
 21
179.5369141284
 31
0.0
  0
LINE
  5
108
330
1F
100
AcDbEntity
  8
0
  6
HIDDEN
 62
     7
370
     0
100
AcDbLine
 10
170.886386565
 20
179.7166519347
 30
0.0
 11
168.6179194665
 21
179.7166519347
 31
0.0
  0
LINE
  5
109
330
1F
100
AcDbEntity
  8
0
  6
HIDDEN
 62
     7
370
     0
100
AcDbLine
 10
174.2179174042
 20
179.7166519347
 30
0.0
 11
170.886386565
 21
179.7166519347
 31
0.0
  0
LINE
  5
10A
330
1F
100
AcDbEntity
  8
0
  6
HIDDEN
 62
     7
370
     0
100
AcDbLine
 10
170.8484184062
 20
180.2269142601
 30
0.0
 11
168.4179198062
 21
180.2269142601
 31
0.0
  0
LINE
  5
10B
330
1F
100
AcDbEntity
  8
0
  6
HIDDEN
 62
     7
370
     0
100
AcDbLine
 10
174.4179170644
 20
180.2269142601
 30
0.0
 11
170.8484184062
 21
180.2269142601
 31
0.0
  0
LINE
  5
10C
330
1F
100
AcDbEntity
  8
0
  6
HIDDEN
 62
     7
370
     0
100
AcDbLine
 10
170.8484184062
 20
180.7769142571
 30
0.0
 11
168.4179198062
 21
180.7769142571
 31
0.0
  0
LINE
  5
10D
330
1F
100
AcDbEntity
  8
0
  6
HIDDEN
 62
     7
370
     0
100
AcDbLine
 10
174.4179170644
 20
180.7769142571
 30
0.0
 11
170.8484184062
 21
180.7769142571
 31
0.0
  0
LINE
  5
10E
330
1F
100
AcDbEntity
  8
0
  6
HIDDEN
 62
     7
370
     0
100
AcDbLine
 10
170.8749946272
 20
180.9169143918
 30
0.0
 11
168.5579162156
 21
180.9169143918
 31
0.0
  0
LINE
  5
10F
330
1F
100
AcDbEntity
  8
0
  6
HIDDEN
 62
     7
370
     0
100
AcDbLine
 10
174.2779169297
 20
180.9169143918
 30
0.0
 11
170.8749946272
 21
180.9169143918
 31
0.0
  0
LINE
  5
110
330
1F
100
AcDbEntity
  8
0
  6
HIDDEN
 62
     7
370
     0
100
AcDbLine
 10
170.8484184062
 20
178.8469139966
 30
0.0
 11
168.4179198062
 21
178.8469139966
 31
0.0
  0
LINE
  5
111
330
1F
100
AcDbEntity
  8
0
  6
HIDDEN
 62
     7
370
     0
100
AcDbLine
 10
174.4179170644
 20
178.8469139966
 30
0.0
 11
170.8484184062
 21
178.8469139966
 31
0.0
  0
LINE
  5
112
330
1F
100
AcDbEntity
  8
0
  6
HIDDEN
 62
     7
370
     0
100
AcDbLine
 10
170.886386565
 20
178.3366516712
 30
0.0
 11
168.6179194665
 21
178.3366516712
 31
0.0
  0
LINE
  5
113
330
1F
100
AcDbEntity
  8
0
  6
HIDDEN
 62
     7
370
     0
100
AcDbLine
 10
174.2179174042
 20
178.3366516712
 30
0.0
 11
170.886386565
 21
178.3366516712
 31
0.0
  0
LINE
  5
114
330
1F
100
AcDbEntity
  8
0
  6
HIDDEN
 62
     7
370
     0
100
AcDbLine
 10
170.886386565
 20
177.6466515395
 30
0.0
 11
168.6179194665
 21
177.6466515395
 31
0.0
  0
LINE
  5
115
330
1F
100
AcDbEntity
  8
0
  6
HIDDEN
 62
     7
370
     0
100
AcDbLine
 10
174.2179174042
 20
177.6466515395
 30
0.0
 11
170.886386565
 21
177.6466515395
 31
0.0
  0
LINE
  5
116
330
1F
100
AcDbEntity
  8
0
  6
HIDDEN
 62
     7
370
     0
100
AcDbLine
 10
170.8484184062
 20
178.1569138649
 30
0.0
 11
168.4179198062
 21
178.1569138649
 31
0.0
  0
LINE
  5
117
330
1F
100
AcDbEntity
  8
0
  6
HIDDEN
 62
     7
370
     0
100
AcDbLine
 10
174.4179170644
 20
178.1569138649
 30
0.0
 11
170.8484184062
 21
178.1569138649
 31
0.0
  0
LINE
  5
118
330
1F
100
AcDbEntity
  8
0
  6
HIDDEN
 62
     7
370
     0
100
AcDbLine
 10
170.8484184062
 20
177.4669137332
 30
0.0
 11
168.4179198062
 21
177.4669137332
 31
0.0
  0
LINE
  5
119
330
1F
100
AcDbEntity
  8
0
  6
HIDDEN
 62
     7
370
     0
100
AcDbLine
 10
174.4179170644
 20
177.4669137332
 30
0.0
 11
170.8484184062
 21
177.4669137332
 31
0.0
  0
LINE
  5
11A
330
1F
100
AcDbEntity
  8
0
  6
HIDDEN
 62
     7
370
     0
100
AcDbLine
 10
170.8484184062
 20
174.7169137481
 30
0.0
 11
168.4179198062
 21
174.7169137481
 31
0.0
  0
LINE
  5
11B
330
1F
100
AcDbEntity
  8
0
  6
HIDDEN
 62
     7
370
     0
100
AcDbLine
 10
174.4179170644
 20
174.7169137481
 30
0.0
 11
170.8484184062
 21
174.7169137481
 31
0.0
  0
LINE
  5
11C
330
1F
100
AcDbEntity
  8
0
  6
HIDDEN
 62
     7
370
     0
100
AcDbLine
 10
170.9470603681
 20
174.4169142577
 30
0.0
 11
168.9375344729
 21
174.4169142577
 31
0.0
  0
LINE
  5
11D
330
1F
100
AcDbEntity
  8
0
  6
HIDDEN
 62
     7
370
     0
100
AcDbLine
 10
173.8983023977
 20
174.4169142577
 30
0.0
 11
170.9470603681
 21
174.4169142577
 31
0.0
  0
LINE
  5
11E
330
1F
100
AcDbEntity
  8
0
  6
HIDDEN
 62
     7
370
     0
100
AcDbLine
 10
170.9433350778
 20
176.0602906826
 30
0.0
 11
168.9179170942
 21
176.0602906826
 31
0.0
  0
LINE
  5
11F
330
1F
100
AcDbEntity
  8
0
  6
HIDDEN
 62
     7
370
     0
100
AcDbLine
 10
173.9179197764
 20
176.0602906826
 30
0.0
 11
170.9433350778
 21
176.0602906826
 31
0.0
  0
LINE
  5
120
330
1F
100
AcDbEntity
  8
0
  6
HIDDEN
 62
     7
370
     0
100
AcDbLine
 10
97.9481455004
 20
150.2169143888
 30
0.0
 11
97.9481455004
 21
165.529865447
 31
0.0
  0
LINE
  5
121
330
1F
100
AcDbEntity
  8
0
  6
HIDDEN
 62
     7
370
     0
100
AcDbLine
 10
97.9481455004
 20
134.9039633307
 30
0.0
 11
97.9481455004
 21
150.2169143888
 31
0.0
  0
LINE
  5
122
330
1F
100
AcDbEntity
  8
0
  6
HIDDEN
 62
     7
370
     0
100
AcDbLine
 10
104.4481456345
 20
150.2169143888
 30
0.0
 11
104.4481456345
 21
164.5633249092
 31
0.0
  0
LINE
  5
123
330
1F
100
AcDbEntity
  8
0
  6
HIDDEN
 62
     7
370
     0
100
AcDbLine
 10
104.4481456345
 20
135.8705038685
 30
0.0
 11
104.4481456345
 21
150.2169143888
 31
0.0
  0
SPLINE
  5
124
330
1F
100
AcDbEntity
  8
0
  6
HIDDEN
 62
     7
370
     0
100
AcDbSpline
210
0.0
220
0.0
230
1.0
 70
     8
 71
     3
 72
     9
 73
     5
 74
     0
 42
0.00000001
 43
0.00000001
 12
1.0
 22
0.0
 32
0.0
 13
1.0
 23
0.0
 33
0.0
 40
0.0
 40
0.0
 40
0.0
 40
0.0
 40
0.7129655948950856
 40
1.0
 40
1.0
 40
1.0
 40
1.0
 10
115.2873676335717
 20
130.0911192330695
 30
0.0
 10
115.4172575707845
 20
130.1027346110377
 30
0.0
 10
115.5994401868079
 20
130.1190262498649
 30
0.0
 10
115.8840023876094
 20
130.1343619575962
 30
0.0
 10
115.9656815296317
 20
130.1387638333416
 30
0.0
  0
LINE
  5
125
330
1F
100
AcDbEntity
  8
0
  6
HIDDEN
 62
     7
370
     0
100
AcDbLine
 10
110.2481469577
 20
150.2169143888
 30
0.0
 11
110.2481469577
 21
164.216914821
 31
0.0
  0
LINE
  5
126
330
1F
100
AcDbEntity
  8
0
  6
HIDDEN
 62
     7
370
     0
100
AcDbLine
 10
110.2481469577
 20
136.2169139567
 30
0.0
 11
110.2481469577
 21
150.2169143888
 31
0.0
  0
LINE
  5
127
330
1F
100
AcDbEntity
  8
0
  6
HIDDEN
 62
     7
370
     0
100
AcDbLine
 10
102.8481464898
 20
150.2169143888
 30
0.0
 11
102.8481464898
 21
164.216914821
 31
0.0
  0
LINE
  5
128
330
1F
100
AcDbEntity
  8
0
  6
HIDDEN
 62
     7
370
     0
100
AcDbLine
 10
102.8481464898
 20
136.2169139567
 30
0.0
 11
102.8481464898
 21
150.2169143888
 31
0.0
  0
LINE
  5
129
330
1F
100
AcDbEntity
  8
0
  6
HIDDEN
 62
     7
370
     0
100
AcDbLine
 10
103.8481466538
 20
150.2169143888
 30
0.0
 11
103.8481466538
 21
164.216914821
 31
0.0
  0
LINE
  5
12A
330
1F
100
AcDbEntity
  8
0
  6
HIDDEN
 62
     7
370
     0
100
AcDbLine
 10
103.8481466538
 20
136.2169139567
 30
0.0
 11
103.8481466538
 21
150.2169143888
 31
0.0
  0
LINE
  5
12B
330
1F
100
AcDbEntity
  8
0
  6
HIDDEN
 62
     7
370
     0
100
AcDbLine
 10
122.9179179361
 20
164.2025324064
 30
0.0
 11
122.9457793823
 21
164.2094148803
 31
0.0
  0
SPLINE
  5
12C
330
1F
100
AcDbEntity
  8
0
  6
HIDDEN
 62
     7
370
     0
100
AcDbSpline
210
0.0
220
0.0
230
1.0
 70
    11
 71
     3
 72
    10
 73
     6
 74
     0
 42
0.00000001
 43
0.00000001
 12
1.0
 22
0.0
 32
0.0
 13
1.0
 23
0.0
 33
0.0
 40
0.0
 40
0.0
 40
0.0
 40
0.0
 40
0.5
 40
0.5
 40
1.0
 40
1.0
 40
1.0
 40
1.0
 10
122.9179179584886
 20
136.2312967764429
 30
0.0
 10
122.9510653765651
 20
136.2218163461908
 30
0.0
 10
122.9679242219267
 20
136.2194194875314
 30
0.0
 10
122.967911691579
 20
136.2194218536837
 30
0.0
 10
122.9509967338387
 20
136.221835978567
 30
0.0
 10
122.9179179584886
 20
136.2312967764429
 30
0.0
  0
LINE
  5
12D
330
1F
100
AcDbEntity
  8
0
  6
HIDDEN
 62
     7
370
     0
100
AcDbLine
 10
123.4179180181
 20
150.2169143888
 30
0.0
 11
123.4179180181
 21
163.716914739
 31
0.0
  0
LINE
  5
12E
330
1F
100
AcDbEntity
  8
0
  6
HIDDEN
 62
     7
370
     0
100
AcDbLine
 10
123.4179180181
 20
136.7169140387
 30
0.0
 11
123.4179180181
 21
150.2169143888
 31
0.0
  0
SPLINE
  5
12F
330
1F
100
AcDbEntity
  8
0
  6
HIDDEN
 62
     7
370
     0
100
AcDbSpline
210
0.0
220
0.0
230
1.0
 70
     8
 71
     3
 72
    16
 73
    12
 74
     0
 42
0.00000001
 43
0.00000001
 12
1.0
 22
0.0
 32
0.0
 13
1.0
 23
0.0
 33
0.0
 40
0.0
 40
0.0
 40
0.0
 40
0.0
 40
0.1115950502839062
 40
0.2230707121913973
 40
0.3372302739780454
 40
0.451012868573656
 40
0.5604247537013775
 40
0.6684585728451424
 40
0.7800745255247917
 40
0.8947791219986609
 40
1.0
 40
1.0
 40
1.0
 40
1.0
 10
122.9179179361368
 20
136.2312963712192
 30
0.0
 10
122.8036923420778
 20
136.2639649428688
 30
0.0
 10
122.5753633565859
 20
136.3292671361614
 30
0.0
 10
121.7132089843886
 20
136.5391822480395
 30
0.0
 10
120.565379956282
 20
136.7344966121786
 30
0.0
 10
119.2178007769039
 20
136.8359899111992
 30
0.0
 10
117.8636920536274
 20
136.7948711461443
 30
0.0
 10
116.6379020381108
 20
136.6376540130004
 30
0.0
 10
115.6514726415182
 20
136.431460443457
 30
0.0
 10
114.9864256850581
 20
136.2520093718507
 30
0.0
 10
114.9157329225613
 20
136.2309509627237
 30
0.0
 10
114.8819107627775
 20
136.2208758029318
 30
0.0
  0
SPLINE
  5
130
330
1F
100
AcDbEntity
  8
0
  6
HIDDEN
 62
     7
370
     0
100
AcDbSpline
210
0.0
220
0.0
230
1.0
 70
     8
 71
     3
 72
    17
 73
    13
 74
     0
 42
0.00000001
 43
0.00000001
 12
1.0
 22
0.0
 32
0.0
 13
1.0
 23
0.0
 33
0.0
 40
0.0
 40
0.0
 40
0.0
 40
0.0
 40
0.0073596207503444
 40
0.1160642001897806
 40
0.22491358199131
 40
0.3375344193582969
 40
0.4522014860987212
 40
0.5636297188511957
 40
0.6715324960471063
 40
0.7811142669040608
 40
0.8948856908422181
 40
1.0
 40
1.0
 40
1.0
 40
1.0
 10
114.8819107627775
 20
164.2129529747343
 30
0.0
 10
114.8772823890709
 20
164.2142625927527
 30
0.0
 10
114.8042910610325
 20
164.2349157993526
 30
0.0
 10
115.0735611854966
 20
164.1566322155237
 30
0.0
 10
115.6918899309551
 20
163.9937309913179
 30
0.0
 10
116.7174686069519
 20
163.7810853720507
 30
0.0
 10
117.9936210876152
 20
163.6272517460574
 30
0.0
 10
119.3668152813278
 20
163.603019873042
 30
0.0
 10
120.6644821094045
 20
163.7141671210662
 30
0.0
 10
121.7693121933546
 20
163.9067060426013
 30
0.0
 10
122.5933753488545
 20
164.1098001397862
 30
0.0
 10
122.812627610811
 20
164.1724475704115
 30
0.0
 10
122.9179179361368
 20
164.202532406447
 30
0.0
  0
ELLIPSE
  5
131
330
1F
100
AcDbEntity
  8
0
  6
HIDDEN
 62
     7
370
     0
100
AcDbEllipse
 10
207.1071341872
 20
136.6393361899
 30
0.0
 11
3.836318985757231
 21
-2.981814344700695
 31
0.0
210
0.0
220
0.0
230
1.0
 40
0.1973179358
 41
4.979089409690493
 42
6.949310976366101
  0
LINE
  5
132
330
1F
100
AcDbEntity
  8
0
  6
HIDDEN
 62
     7
370
     0
100
AcDbLine
 10
210.486907891
 20
134.7627375755
 30
0.0
 11
210.7449512994
 21
136.8643489215
 31
0.0
  0
SPLINE
  5
133
330
1F
100
AcDbEntity
  8
0
  6
HIDDEN
 62
     7
370
     0
100
AcDbSpline
210
0.0
220
0.0
230
1.0
 70
     8
 71
     3
 72
    20
 73
    16
 74
     0
 42
0.00000001
 43
0.00000001
 12
1.0
 22
0.0
 32
0.0
 13
1.0
 23
0.0
 33
0.0
 40
0.0
 40
0.0
 40
0.0
 40
0.0
 40
0.0625
 40
0.0625
 40
0.125
 40
0.125
 40
0.2500000000000002
 40
0.2500000000000002
 40
0.5000000000000001
 40
0.5000000000000001
 40
0.75
 40
0.75
 40
0.875
 40
0.875
 40
1.0
 40
1.0
 40
1.0
 40
1.0
 10
212.3918203650019
 20
145.8688103320421
 30
0.0
 10
212.4038659325922
 20
145.7236296694722
 30
0.0
 10
212.4028835935406
 20
145.5671329418661
 30
0.0
 10
212.3871646298647
 20
145.2418936619028
 30
0.0
 10
212.3721283490044
 20
145.0728956209414
 30
0.0
 10
212.313091219674
 20
144.5530705260068
 30
0.0
 10
212.2550907945214
 20
144.1883845794518
 30
0.0
 10
212.0570618282235
 20
143.0899233178058
 30
0.0
 10
211.8918929112662
 20
142.341204219052
 30
0.0
 10
211.5445404131668
 20
140.8206895637124
 30
0.0
 10
211.3596919400939
 20
140.0468111097546
 30
0.0
 10
211.0987012552229
 20
138.8672360150441
 30
0.0
 10
211.0146624066863
 20
138.471600415054
 30
0.0
 10
210.8625909878234
 20
137.6718455307053
 30
0.0
 10
210.794542936477
 20
137.2682181833275
 30
0.0
 10
210.7449540676012
 20
136.8643492562315
 30
0.0
  0
LWPOLYLINE
  5
134
330
1F
100
AcDbEntity
  8
0
  6
HIDDEN
 62
     7
370
     0
100
AcDbPolyline
 90
       18
 70
   128
 43
0.0
 10
204.13333588
 20
146.8828247409
 10
204.1720118439
 20
146.8780763927
 10
204.3668966806
 20
146.8541472233
 10
204.7186758435
 20
146.8109538793
 10
205.2133273399
 20
146.7502181432
 10
205.831129483
 20
146.6743619195
 10
206.5474432027
 20
146.5864094454
 10
207.3337178743
 20
146.4898673832
 10
208.1585940039
 20
146.388584889
 10
208.9891921794
 20
146.2866004105
 10
209.7923945701
 20
146.1879798691
 10
210.5361711299
 20
146.0966553088
 10
211.1908759987
 20
146.0162682007
 10
211.7303948915
 20
145.9500227603
 10
212.1332328832
 20
145.9005611497
 10
212.3833116209
 20
145.8698554444
 10
212.4706696784
 20
145.8591289367
 10
212.4707218325
 20
145.8591224174
  0
SPLINE
  5
135
330
1F
100
AcDbEntity
  8
0
  6
HIDDEN
 62
     7
370
     0
100
AcDbSpline
210
0.0
220
0.0
230
1.0
 70
     8
 71
     3
 72
    22
 73
    18
 74
     0
 42
0.00000001
 43
0.00000001
 12
1.0
 22
0.0
 32
0.0
 13
1.0
 23
0.0
 33
0.0
 40
0.0
 40
0.0
 40
0.0
 40
0.0
 40
0.1250000000000007
 40
0.1250000000000007
 40
0.2500000000000015
 40
0.2500000000000015
 40
0.5000000000000017
 40
0.5000000000000017
 40
0.6250000000000018
 40
0.6250000000000018
 40
0.7500000000000018
 40
0.7500000000000018
 40
0.8750000000000019
 40
0.8750000000000019
 40
0.937500000000001
 40
0.937500000000001
 40
1.0
 40
1.0
 40
1.0
 40
1.0
 10
207.8086771624726
 20
137.2248787267167
 30
0.0
 10
207.8585772104402
 20
137.6312820041375
 30
0.0
 10
207.9435794814272
 20
138.0359853130563
 30
0.0
 10
208.1470566327064
 20
138.83041553485
 30
0.0
 10
208.2658863582387
 20
139.2204855565174
 30
0.0
 10
208.6528846612677
 20
140.3771742093831
 30
0.0
 10
208.9506145891287
 20
141.1306982293037
 30
0.0
 10
209.4336195813773
 20
142.2416019575721
 30
0.0
 10
209.601138275874
 20
142.6084867398399
 30
0.0
 10
209.9496160507276
 20
143.3345728911382
 30
0.0
 10
210.1307895965727
 20
143.6943599944976
 30
0.0
 10
210.5090247044588
 20
144.4012395256558
 30
0.0
 10
210.7038994337311
 20
144.7448738978836
 30
0.0
 10
211.0093347764352
 20
145.2349736925761
 30
0.0
 10
211.1133615680571
 20
145.3940605714739
 30
0.0
 10
211.3279909232425
 20
145.6989771117639
 30
0.0
 10
211.437522970744
 20
145.8434745097102
 30
0.0
 10
211.549267760668
 20
145.9722627836028
 30
0.0
  0
LINE
  5
136
330
1F
100
AcDbEntity
  8
0
  6
HIDDEN
 62
     7
370
     0
100
AcDbLine
 10
207.8086774862
 20
137.2248787913
 30
0.0
 11
207.5506340778
 21
135.1232665139
 31
0.0
  0
LWPOLYLINE
  5
137
330
1F
100
AcDbEntity
  8
0
  6
HIDDEN
 62
     7
370
     0
100
AcDbPolyline
 90
       17
 70
   128
 43
0.0
 10
201.7568837917
 20
127.5281753871
 10
201.8422152913
 20
127.5176980081
 10
202.0947229183
 20
127.486692417
 10
202.5040652668
 20
127.4364326629
 10
203.0534859812
 20
127.3689713809
 10
203.720484308
 20
127.287074599
 10
204.4777687704
 20
127.1940913531
 10
205.2943226015
 20
127.0938326153
 10
206.1367150462
 20
126.9903980675
 10
206.9704722679
 20
126.8880270901
 10
207.7614482558
 20
126.7909069094
 10
208.4772627866
 20
126.7030161354
 10
209.0886052763
 20
126.6279515359
 10
209.5704566753
 20
126.568788338
 10
209.903087846
 20
126.5279461178
 10
210.0728791273
 20
126.5070993933
 10
210.0942697441
 20
126.5044730636
  0
LWPOLYLINE
  5
138
330
1F
100
AcDbEntity
  8
0
  6
HIDDEN
 62
     7
370
     0
100
AcDbPolyline
 90
       15
 70
   128
 43
0.0
 10
204.8793774164
 20
147.2149834982
 10
204.9664747035
 20
147.2042893539
 10
205.2234005248
 20
147.1727426644
 10
205.6372728264
 20
147.1219255137
 10
206.1873417413
 20
147.0543860006
 10
206.846010319
 20
146.9735108796
 10
207.5802724874
 20
146.8833555947
 10
208.3532851255
 20
146.7884407859
 10
209.1263052142
 20
146.6935262098
 10
209.860559932
 20
146.603370925
 10
210.5192359602
 20
146.5224958039
 10
211.0692974245
 20
146.4549562908
 10
211.4831771767
 20
146.4041391402
 10
211.740102998
 20
146.3725924506
 10
211.8272002852
 20
146.3618983063
  0
LWPOLYLINE
  5
139
330
1F
100
AcDbEntity
  8
0
  6
HIDDEN
 62
     7
370
     0
100
AcDbPolyline
 90
       15
 70
   128
 43
0.0
 10
205.5593323028
 20
152.7527930695
 10
205.64642959
 20
152.7420989252
 10
205.9033554113
 20
152.7105522356
 10
206.3172351634
 20
152.659735085
 10
206.8672966278
 20
152.5921955719
 10
207.525972656
 20
152.5113204508
 10
208.2602273738
 20
152.421165166
 10
209.0332474625
 20
152.3262505899
 10
209.8062601006
 20
152.2313357811
 10
210.540522269
 20
152.1411804962
 10
211.1991908467
 20
152.0603054916
 10
211.7492597616
 20
151.9927659785
 10
212.1631320631
 20
151.9419488278
 10
212.4200578844
 20
151.9104021383
 10
212.5071551716
 20
151.8997077611
  0
LINE
  5
13A
330
1F
100
AcDbEntity
  8
0
  6
HIDDEN
 62
     7
370
     0
100
AcDbLine
 10
124.6679177573
 20
150.2169143888
 30
0.0
 11
124.6679177573
 21
159.2169140014
 31
0.0
  0
LINE
  5
13B
330
1F
100
AcDbEntity
  8
0
  6
HIDDEN
 62
     7
370
     0
100
AcDbLine
 10
124.6679177573
 20
141.2169147763
 30
0.0
 11
124.6679177573
 21
150.2169143888
 31
0.0
  0
LINE
  5
13C
330
1F
100
AcDbEntity
  8
0
  6
HIDDEN
 62
     7
370
     0
100
AcDbLine
 10
216.7024876988
 20
145.8432815517
 30
0.0
 11
220.8964940226
 21
145.3283225666
 31
0.0
  0
LWPOLYLINE
  5
13D
330
1F
100
AcDbEntity
  8
0
  6
HIDDEN
 62
     7
370
     0
100
AcDbPolyline
 90
        4
 70
   128
 43
0.0
 10
212.3546641385
 20
146.3771277587
 10
212.225560478
 20
146.3929795674
 10
212.1159624374
 20
146.4064362473
 10
212.0264586127
 20
146.4174258537
  0
ELLIPSE
  5
13E
330
1F
100
AcDbEntity
  8
0
  6
HIDDEN
 62
     7
370
     0
100
AcDbEllipse
 10
214.3257705721
 20
143.8619315842
 30
0.0
 11
2.125136462389463
 21
6.878565028734613
 31
0.0
210
0.0
220
0.0
230
1.0
 40
0.3769781733
 41
1.315039236085568
 42
1.976098166294278
  0
LWPOLYLINE
  5
13F
330
1F
100
AcDbEntity
  8
0
  6
HIDDEN
 62
     7
370
     0
100
AcDbPolyline
 90
        3
 70
   128
 43
0.0
 10
211.2477164781
 20
141.8684224147
 10
211.1759971893
 20
141.8772299322
 10
211.1048515952
 20
141.8859648067
  0
ELLIPSE
  5
140
330
1F
100
AcDbEntity
  8
0
  6
HIDDEN
 62
     7
370
     0
100
AcDbEllipse
 10
213.3595786976
 20
142.5573374811
 30
0.0
 11
2.125136462389435
 21
6.878565028734585
 31
0.0
210
0.0
220
0.0
230
1.0
 40
0.3769781733
 41
5.322730577418001
 42
7.378665638921894
  0
LINE
  5
141
330
1F
100
AcDbEntity
  8
0
  6
HIDDEN
 62
     7
370
     0
100
AcDbLine
 10
150.4179187184
 20
150.2169143888
 30
0.0
 11
150.4179187184
 21
159.2169140014
 31
0.0
  0
LINE
  5
142
330
1F
100
AcDbEntity
  8
0
  6
HIDDEN
 62
     7
370
     0
100
AcDbLine
 10
150.4179187184
 20
141.2169147763
 30
0.0
 11
150.4179187184
 21
150.2169143888
 31
0.0
  0
LINE
  5
143
330
1F
100
AcDbEntity
  8
0
  6
HIDDEN
 62
     7
370
     0
100
AcDbLine
 10
153.2720051771
 20
150.2169143888
 30
0.0
 11
153.2720051771
 21
154.4669146198
 31
0.0
  0
LINE
  5
144
330
1F
100
AcDbEntity
  8
0
  6
HIDDEN
 62
     7
370
     0
100
AcDbLine
 10
153.2720051771
 20
145.9669141579
 30
0.0
 11
153.2720051771
 21
150.2169143888
 31
0.0
  0
LINE
  5
145
330
1F
100
AcDbEntity
  8
0
  6
HIDDEN
 62
     7
370
     0
100
AcDbLine
 10
216.9751938498
 20
141.1651770133
 30
0.0
 11
220.5153148687
 21
140.7305054846
 31
0.0
  0
LINE
  5
146
330
1F
100
AcDbEntity
  8
0
  6
HIDDEN
 62
     7
370
     0
100
AcDbLine
 10
215.0801759279
 20
130.6867931518
 30
0.0
 11
210.486907891
 21
134.7627375755
 31
0.0
  0
LINE
  5
147
330
1F
100
AcDbEntity
  8
0
  6
HIDDEN
 62
     7
370
     0
100
AcDbLine
 10
216.9751938498
 20
141.1651770133
 30
0.0
 11
217.5370123303
 21
145.7408151138
 31
0.0
  0
SPLINE
  5
148
330
1F
100
AcDbEntity
  8
0
  6
HIDDEN
 62
     7
370
     0
100
AcDbSpline
210
0.0
220
0.0
230
1.0
 70
     8
 71
     3
 72
    12
 73
     8
 74
     0
 42
0.00000001
 43
0.00000001
 12
1.0
 22
0.0
 32
0.0
 13
1.0
 23
0.0
 33
0.0
 40
0.0
 40
0.0
 40
0.0
 40
0.0
 40
0.2500000000000002
 40
0.2500000000000002
 40
0.5000000000000004
 40
0.5000000000000004
 40
1.0
 40
1.0
 40
1.0
 40
1.0
 10
217.7957331592527
 20
138.678670797149
 30
0.0
 10
217.7475398514261
 20
138.2861678026988
 30
0.0
 10
217.6771471420671
 20
137.8944654844287
 30
0.0
 10
217.5209631162654
 20
137.1263662564836
 30
0.0
 10
217.4343324096592
 20
136.7470767157396
 30
0.0
 10
217.1654977145838
 20
135.6169400489694
 30
0.0
 10
216.9746293211787
 20
134.8736057614579
 30
0.0
 10
216.7914615169771
 20
134.1351681642185
 30
0.0
  0
LWPOLYLINE
  5
149
330
1F
100
AcDbEntity
  8
0
  6
HIDDEN
 62
     7
370
     0
100
AcDbPolyline
 90
        6
 70
   128
 43
0.0
 10
219.2920189416
 20
133.828138608
 10
219.2630063808
 20
133.8316999856
 10
218.761060766
 20
133.8933311883
 10
218.1678827917
 20
133.9661643389
 10
217.5037752902
 20
134.0477072182
 10
216.7914625323
 20
134.1351677212
  0
SPLINE
  5
14A
330
1F
100
AcDbEntity
  8
0
  6
HIDDEN
 62
     7
370
     0
100
AcDbSpline
210
0.0
220
0.0
230
1.0
 70
     8
 71
     3
 72
    12
 73
     8
 74
     0
 42
0.00000001
 43
0.00000001
 12
1.0
 22
0.0
 32
0.0
 13
1.0
 23
0.0
 33
0.0
 40
0.0
 40
0.0
 40
0.0
 40
0.0
 40
0.5000000000000014
 40
0.5000000000000014
 40
0.7500000000000007
 40
0.7500000000000007
 40
1.0
 40
1.0
 40
1.0
 40
1.0
 10
219.292020154544
 20
133.8281381698929
 30
0.0
 10
219.6053498279635
 20
134.5496921262488
 30
0.0
 10
219.897471184124
 20
135.2812347950311
 30
0.0
 10
220.2802486667037
 20
136.4015723121398
 30
0.0
 10
220.3979565834072
 20
136.77774073544
 30
0.0
 10
220.5992030244197
 20
137.5393546396006
 30
0.0
 10
220.683959812177
 20
137.926803426756
 30
0.0
 10
220.7320100643819
 20
138.3181413266643
 30
0.0
  0
LWPOLYLINE
  5
14B
330
1F
100
AcDbEntity
  8
0
  6
HIDDEN
 62
     7
370
     0
100
AcDbPolyline
 90
       15
 70
   128
 43
0.0
 10
215.0801759279
 20
130.6867931518
 10
215.5872102892
 20
130.2087247851
 10
215.9951966321
 20
129.7636680785
 10
216.2836831129
 20
129.373941246
 10
216.4382007038
 20
129.0590834352
 10
216.4510008013
 20
128.8348861518
 10
216.3214426553
 20
128.7125904593
 10
216.0560306227
 20
128.6983281854
 10
215.6680639899
 20
128.7928164485
 10
215.1769962227
 20
128.9913148168
 10
214.6074589407
 20
129.2838693145
 10
213.9880027687
 20
129.6558134738
 10
213.3497040784
 20
130.0884947661
 10
212.7245482123
 20
130.560215238
 10
212.1439021146
 20
131.0473230216
  0
LINE
  5
14C
330
1F
100
AcDbEntity
  8
0
  6
HIDDEN
 62
     7
370
     0
100
AcDbLine
 10
122.9679178512
 20
130.2191593233
 30
0.0
 11
114.8679185724
 21
130.2191593233
 31
0.0
  0
ARC
  5
14D
330
1F
100
AcDbEntity
  8
0
  6
HIDDEN
 62
     7
370
     0
100
AcDbCircle
 10
171.41758821
 20
158.2673536333
 30
0.0
 40
4.548812194718933
100
AcDbArc
 50
236.6657926304
 51
303.2581561043
  0
LINE
  5
14E
330
1F
100
AcDbEntity
  8
0
  6
HIDDEN
 62
     7
370
     0
100
AcDbLine
 10
175.417919091
 20
154.4669146198
 30
0.0
 11
175.417919091
 21
145.9669141579
 31
0.0
  0
LWPOLYLINE
  5
14F
330
1F
100
AcDbEntity
  8
0
  6
HIDDEN
 62
     7
370
     0
100
AcDbPolyline
 90
       10
 70
   128
 43
0.0
 10
219.2920189416
 20
133.828138608
 10
220.1061587846
 20
133.7281741682
 10
220.9349017656
 20
133.6264178637
 10
221.7421349203
 20
133.52730279
 10
222.4926617062
 20
133.4351484212
 10
223.1537740743
 20
133.3539743456
 10
223.6966457283
 20
133.2873177263
 10
224.0976136243
 20
133.2380842897
 10
224.3392061508
 20
133.2084216657
 10
224.4115289366
 20
133.1995405737
  0
LINE
  5
150
330
1F
100
AcDbEntity
  8
0
  6
HIDDEN
 62
     7
370
     0
100
AcDbLine
 10
218.0843170798
 20
141.0289943698
 30
0.0
 11
217.7957337415
 21
138.6786705363
 31
0.0
  0
LINE
  5
151
330
1F
100
AcDbEntity
  8
0
  6
HIDDEN
 62
     7
370
     0
100
AcDbLine
 10
220.7320075548
 20
138.3181415978
 30
0.0
 11
221.020590893
 21
140.6684645
 31
0.0
  0
LINE
  5
152
330
1F
100
AcDbEntity
  8
0
  6
HIDDEN
 62
     7
370
     0
100
AcDbLine
 10
102.8679166055
 20
130.6106519434
 30
0.0
 11
102.8679166055
 21
132.2169151637
 31
0.0
  0
LINE
  5
153
330
1F
100
AcDbEntity
  8
0
  6
HIDDEN
 62
     7
370
     0
100
AcDbLine
 10
122.9679178512
 20
167.7169144633
 30
0.0
 11
114.8679185724
 21
167.7169144633
 31
0.0
  0
LINE
  5
154
330
1F
100
AcDbEntity
  8
0
  6
HIDDEN
 62
     7
370
     0
100
AcDbLine
 10
168.9179170942
 20
174.4164839867
 30
0.0
 11
173.9179197764
 21
174.4164839867
 31
0.0
  0
LINE
  5
155
330
1F
100
AcDbEntity
  8
0
  6
HIDDEN
 62
     7
370
     0
100
AcDbLine
 10
168.4179198062
 20
174.7169137481
 30
0.0
 11
174.4179170644
 21
174.7169137481
 31
0.0
  0
LWPOLYLINE
  5
156
330
1F
100
AcDbEntity
  8
0
  6
HIDDEN
 62
     7
370
     0
100
AcDbPolyline
 90
        9
 70
   128
 43
0.0
 10
171.7511680043
 20
170.9289752427
 10
172.1885021841
 20
171.2467164281
 10
172.6010333812
 20
171.546440247
 10
172.9754921114
 20
171.8184981975
 10
173.2998233354
 20
172.05413771
 10
173.5635887897
 20
172.2457740936
 10
173.7582985377
 20
172.38724013
 10
173.8776903665
 20
172.4739835146
 10
173.9179197764
 20
172.5032121423
  0
LWPOLYLINE
  5
157
330
1F
100
AcDbEntity
  8
0
  6
HIDDEN
 62
     7
370
     0
100
AcDbPolyline
 90
        9
 70
   128
 43
0.0
 10
171.7511680043
 20
170.9289752427
 10
171.7315990543
 20
170.8687540624
 10
171.7119779503
 20
170.8083671066
 10
171.6923158681
 20
170.7478516284
 10
171.6726239836
 20
170.6872467431
 10
171.6529171979
 20
170.6265934291
 10
171.633206687
 20
170.5659308019
 10
171.6135073519
 20
170.505297977
 10
171.5938303685
 20
170.4447359326
  0
LWPOLYLINE
  5
158
330
1F
100
AcDbEntity
  8
0
  6
HIDDEN
 62
     7
370
     0
100
AcDbPolyline
 90
       10
 70
   128
 43
0.0
 10
173.9179197764
 20
167.2458999339
 10
173.9081893182
 20
167.2592923525
 10
173.8308001375
 20
167.365809578
 10
173.6784245884
 20
167.5755341086
 10
173.4558049655
 20
167.8819466862
 10
173.1698516822
 20
168.2755273315
 10
172.8294532812
 20
168.7440421912
 10
172.4451933122
 20
169.2729346934
 10
172.02900388
 20
169.845765132
 10
171.5938303685
 20
170.4447359326
  0
SPLINE
  5
159
330
1F
100
AcDbEntity
  8
0
  6
HIDDEN
 62
     7
370
     0
100
AcDbSpline
210
0.0
220
0.0
230
1.0
 70
     8
 71
     3
 72
     8
 73
     4
 74
     0
 42
0.00000001
 43
0.00000001
 12
1.0
 22
0.0
 32
0.0
 13
1.0
 23
0.0
 33
0.0
 40
0.0
 40
0.0
 40
0.0
 40
0.0
 40
1.0
 40
1.0
 40
1.0
 40
1.0
 10
171.5938285276481
 20
170.4447351244958
 30
0.0
 10
171.6374445353676
 20
170.6080312603554
 30
0.0
 10
171.6907267278337
 20
170.7710595226341
 30
0.0
 10
171.7511677238883
 20
170.9289753785167
 30
0.0
  0
LINE
  5
15A
330
1F
100
AcDbEntity
  8
0
  6
HIDDEN
 62
     7
370
     0
100
AcDbLine
 10
209.0787556088
 20
146.7793587609
 30
0.0
 11
212.0264586127
 21
146.4174258537
 31
0.0
  0
LINE
  5
15B
330
1F
100
AcDbEntity
  8
0
  6
HIDDEN
 62
     7
370
     0
100
AcDbLine
 10
207.5506340778
 20
135.1232665139
 30
0.0
 11
212.1439021146
 21
131.0473230216
 31
0.0
  0
LINE
  5
15C
330
1F
100
AcDbEntity
  8
0
  6
HIDDEN
 62
     7
370
     0
100
AcDbLine
 10
211.2477164781
 20
141.8684224147
 30
0.0
 11
211.4168670094
 21
141.8476539212
 31
0.0
  0
LINE
  5
15D
330
1F
100
AcDbEntity
  8
0
  6
HIDDEN
 62
     7
370
     0
100
AcDbLine
 10
146.4179180628
 20
119.2169148955
 30
0.0
 11
148.4179183906
 21
119.2169148955
 31
0.0
  0
LINE
  5
15E
330
1F
100
AcDbEntity
  8
0
  6
HIDDEN
 62
     7
370
     0
100
AcDbLine
 10
144.417917735
 20
119.2169148955
 30
0.0
 11
146.4179180628
 21
119.2169148955
 31
0.0
  0
LINE
  5
15F
330
1F
100
AcDbEntity
  8
0
  6
HIDDEN
 62
     7
370
     0
100
AcDbLine
 10
209.0273317015
 20
142.1410521972
 30
0.0
 11
211.1048515952
 21
141.8859648067
 31
0.0
  0
LWPOLYLINE
  5
160
330
1F
100
AcDbEntity
  8
0
  6
HIDDEN
 62
     7
370
     0
100
AcDbPolyline
 90
        5
 70
   128
 43
0.0
 10
207.837831608
 20
146.9317249968
 10
207.9067047751
 20
146.9232678893
 10
208.1452500141
 20
146.8939784928
 10
208.5425745761
 20
146.8451934881
 10
209.0787556088
 20
146.7793587609
  0
LWPOLYLINE
  5
161
330
1F
100
AcDbEntity
  8
0
  6
HIDDEN
 62
     7
370
     0
100
AcDbPolyline
 90
        3
 70
   128
 43
0.0
 10
212.3546641385
 20
146.3771277587
 10
212.923180691
 20
146.3073223378
 10
213.5447304761
 20
146.2310060407
  0
LWPOLYLINE
  5
162
330
1F
100
AcDbEntity
  8
0
  6
HIDDEN
 62
     7
370
     0
100
AcDbPolyline
 90
        5
 70
   128
 43
0.0
 10
207.9282295024
 20
142.2760054949
 10
207.9617198622
 20
142.2718927744
 10
208.1585045969
 20
142.2477305415
 10
208.5207294738
 20
142.203255232
 10
209.0273317015
 20
142.1410521972
  0
LINE
  5
163
330
1F
100
AcDbEntity
  8
0
  6
HIDDEN
 62
     7
370
     0
100
AcDbLine
 10
214.7936564004
 20
141.4330365616
 30
0.0
 11
215.3554674303
 21
146.0086746621
 31
0.0
  0
LINE
  5
164
330
1F
100
AcDbEntity
  8
0
  6
HIDDEN
 62
     7
370
     0
100
AcDbLine
 10
215.3554674303
 20
146.0086746621
 30
0.0
 11
216.7024876988
 21
145.8432815517
 31
0.0
  0
LINE
  5
165
330
1F
100
AcDbEntity
  8
0
  6
HIDDEN
 62
     7
370
     0
100
AcDbLine
 10
214.7378217494
 20
146.084512725
 30
0.0
 11
215.4690366304
 21
152.0397896194
 31
0.0
  0
LINE
  5
166
330
1F
100
AcDbEntity
  8
0
  6
HIDDEN
 62
     7
370
     0
100
AcDbLine
 10
214.7378217494
 20
146.084512725
 30
0.0
 11
215.3554674303
 21
146.0086746621
 31
0.0
  0
SPLINE
  5
167
330
1F
100
AcDbEntity
  8
0
  6
HIDDEN
 62
     7
370
     0
100
AcDbSpline
210
0.0
220
0.0
230
1.0
 70
     8
 71
     3
 72
    10
 73
     6
 74
     0
 42
0.00000001
 43
0.00000001
 12
1.0
 22
0.0
 32
0.0
 13
1.0
 23
0.0
 33
0.0
 40
0.0
 40
0.0
 40
0.0
 40
0.0
 40
0.2404354139704122
 40
0.6355294730797829
 40
1.0
 40
1.0
 40
1.0
 40
1.0
 10
220.7087766444589
 20
151.1203770307056
 30
0.0
 10
220.8187615614693
 20
151.1054422713552
 30
0.0
 10
221.1094785369766
 20
151.0659660578318
 30
0.0
 10
221.6377063268191
 20
150.9359238940186
 30
0.0
 10
222.058619472691
 20
150.7954729789242
 30
0.0
 10
222.2605910217668
 20
150.728078816568
 30
0.0
  0
SPLINE
  5
168
330
1F
100
AcDbEntity
  8
0
  6
HIDDEN
 62
     7
370
     0
100
AcDbSpline
210
0.0
220
0.0
230
1.0
 70
     8
 71
     3
 72
    11
 73
     7
 74
     0
 42
0.00000001
 43
0.00000001
 12
1.0
 22
0.0
 32
0.0
 13
1.0
 23
0.0
 33
0.0
 40
0.0
 40
0.0
 40
0.0
 40
0.0
 40
0.1144695162436931
 40
0.5298946264634172
 40
0.9138803941646356
 40
1.0
 40
1.0
 40
1.0
 40
1.0
 10
222.2672071373369
 20
150.7251799586392
 30
0.0
 10
222.335568625439
 20
150.7329206625017
 30
0.0
 10
222.6520230527054
 20
150.7687534109608
 30
0.0
 10
223.1551231261545
 20
150.7763102203669
 30
0.0
 10
223.6291061059199
 20
150.7690032103739
 30
0.0
 10
223.830938177027
 20
150.7392348643157
 30
0.0
 10
223.8679122245218
 20
150.733781537523
 30
0.0
  0
LINE
  5
169
330
1F
100
AcDbEntity
  8
0
  6
HIDDEN
 62
     7
370
     0
100
AcDbLine
 10
214.6455835616
 20
151.881226596
 30
0.0
 11
220.7416262543
 21
151.1327265427
 31
0.0
  0
LINE
  5
16A
330
1F
100
AcDbEntity
  8
0
  6
HIDDEN
 62
     7
370
     0
100
AcDbLine
 10
223.8846834814
 20
150.7468074807
 30
0.0
 11
229.9338024175
 21
150.0040689381
 31
0.0
  0
LINE
  5
16B
330
1F
100
AcDbEntity
  8
0
  6
HIDDEN
 62
     7
370
     0
100
AcDbLine
 10
219.2307006633
 20
152.081669915
 30
0.0
 11
218.4568312085
 21
145.7790016676
 31
0.0
  0
LINE
  5
16C
330
1F
100
AcDbEntity
  8
0
  6
HIDDEN
 62
     7
370
     0
100
AcDbLine
 10
224.7595008528
 20
145.0051317471
 30
0.0
 11
225.5333703077
 21
151.3077995288
 31
0.0
  0
SPLINE
  5
16D
330
1F
100
AcDbEntity
  8
0
  6
HIDDEN
 62
     7
370
     0
100
AcDbSpline
210
0.0
220
0.0
230
1.0
 70
     8
 71
     3
 72
    11
 73
     7
 74
     0
 42
0.00000001
 43
0.00000001
 12
1.0
 22
0.0
 32
0.0
 13
1.0
 23
0.0
 33
0.0
 40
0.0
 40
0.0
 40
0.0
 40
0.0
 40
0.2510656063842148
 40
0.5728101854564618
 40
0.9166424584539887
 40
1.0
 40
1.0
 40
1.0
 40
1.0
 10
213.5628428375627
 20
151.7965998747549
 30
0.0
 10
213.6159807182986
 20
151.8190930256697
 30
0.0
 10
213.7372156407455
 20
151.8704115082472
 30
0.0
 10
214.053414205957
 20
151.9102969634531
 30
0.0
 10
214.3721148893042
 20
151.9199236060411
 30
0.0
 10
214.6074424957786
 20
151.8815790320925
 30
0.0
 10
214.6533619677927
 20
151.8740968560031
 30
0.0
  0
SPLINE
  5
16E
330
1F
100
AcDbEntity
  8
0
  6
HIDDEN
 62
     7
370
     0
100
AcDbSpline
210
0.0
220
0.0
230
1.0
 70
     8
 71
     3
 72
    11
 73
     7
 74
     0
 42
0.00000001
 43
0.00000001
 12
1.0
 22
0.0
 32
0.0
 13
1.0
 23
0.0
 33
0.0
 40
0.0
 40
0.0
 40
0.0
 40
0.0
 40
0.034819023849672
 40
0.366641683611761
 40
0.7113470825473179
 40
1.0
 40
1.0
 40
1.0
 40
1.0
 10
229.9169864571001
 20
149.9956548315403
 30
0.0
 10
229.9357163113728
 20
149.9935341602932
 30
0.0
 10
230.1329402580867
 20
149.9712036527018
 30
0.0
 10
230.4456491088221
 20
149.8951816569031
 30
0.0
 10
230.7920551290082
 20
149.7690428645269
 30
0.0
 10
230.9221058244835
 20
149.6804933632426
 30
0.0
 10
230.9813764011766
 20
149.6401369469403
 30
0.0
  0
LINE
  5
16F
330
1F
100
AcDbEntity
  8
0
  6
HIDDEN
 62
     7
370
     0
100
AcDbLine
 10
215.3403725541
 20
152.5593427024
 30
0.0
 11
213.5402228749
 21
151.7952253591
 31
0.0
  0
LINE
  5
170
330
1F
100
AcDbEntity
  8
0
  6
HIDDEN
 62
     7
370
     0
100
AcDbLine
 10
230.985518924
 20
149.6532119592
 30
0.0
 11
229.4237058675
 21
150.8301268579
 31
0.0
  0
SPLINE
  5
171
330
1F
100
AcDbEntity
  8
0
  6
HIDDEN
 62
     7
370
     0
100
AcDbSpline
210
0.0
220
0.0
230
1.0
 70
     8
 71
     3
 72
    11
 73
     7
 74
     0
 42
0.00000001
 43
0.00000001
 12
1.0
 22
0.0
 32
0.0
 13
1.0
 23
0.0
 33
0.0
 40
0.0
 40
0.0
 40
0.0
 40
0.0
 40
0.2455594010691724
 40
0.5634455437461423
 40
0.8909576804252145
 40
1.0
 40
1.0
 40
1.0
 40
1.0
 10
229.9251969969179
 20
149.999683398304
 30
0.0
 10
230.0534164886722
 20
149.982518953513
 30
0.0
 10
230.3476210719046
 20
149.9431344710364
 30
0.0
 10
230.6758805491274
 20
149.832278106191
 30
0.0
 10
230.8903693327877
 20
149.7295720424088
 30
0.0
 10
230.9556584419581
 20
149.668959383775
 30
0.0
 10
230.9719663178827
 20
149.6538195889606
 30
0.0
  0
SPLINE
  5
172
330
1F
100
AcDbEntity
  8
0
  6
HIDDEN
 62
     7
370
     0
100
AcDbSpline
210
0.0
220
0.0
230
1.0
 70
     8
 71
     3
 72
    11
 73
     7
 74
     0
 42
0.00000001
 43
0.00000001
 12
1.0
 22
0.0
 32
0.0
 13
1.0
 23
0.0
 33
0.0
 40
0.0
 40
0.0
 40
0.0
 40
0.0
 40
0.1958698362937581
 40
0.5801461260895301
 40
0.9426212528377736
 40
1.0
 40
1.0
 40
1.0
 40
1.0
 10
213.5509740626718
 20
151.7829491305328
 30
0.0
 10
213.5919506478857
 20
151.8001789339619
 30
0.0
 10
213.7133190403958
 20
151.8512118234656
 30
0.0
 10
214.0557642391165
 20
151.8971676096692
 30
0.0
 10
214.407255159972
 20
151.9010838965917
 30
0.0
 10
214.6304971998383
 20
151.8719653168192
 30
0.0
 10
214.6610062634851
 20
151.8679858665145
 30
0.0
  0
LINE
  5
173
330
1F
100
AcDbEntity
  8
0
  6
HIDDEN
 62
     7
370
     0
100
AcDbLine
 10
210.2852206743
 20
152.676282126
 30
0.0
 11
209.5722820675
 21
146.8698870405
 31
0.0
  0
LINE
  5
174
330
1F
100
AcDbEntity
  8
0
  6
HIDDEN
 62
     7
370
     0
100
AcDbLine
 10
210.3660073197
 20
153.1701177838
 30
0.0
 11
210.7164379275
 21
152.9060496497
 31
0.0
  0
LINE
  5
175
330
1F
100
AcDbEntity
  8
0
  6
HIDDEN
 62
     7
370
     0
100
AcDbLine
 10
233.9941602266
 20
150.0479043417
 30
0.0
 11
234.3980636513
 21
150.219351776
 31
0.0
  0
LINE
  5
176
330
1F
100
AcDbEntity
  8
0
  6
HIDDEN
 62
     7
370
     0
100
AcDbLine
 10
229.9338024175
 20
150.0040689381
 30
0.0
 11
229.9807261741
 21
149.998307442
 31
0.0
  0
LINE
  5
177
330
1F
100
AcDbEntity
  8
0
  6
HIDDEN
 62
     7
370
     0
100
AcDbLine
 10
226.4060419118
 20
140.0072142962
 30
0.0
 11
225.5268957531
 21
142.0783509049
 31
0.0
  0
LINE
  5
178
330
1F
100
AcDbEntity
  8
0
  6
HIDDEN
 62
     7
370
     0
100
AcDbLine
 10
217.5369005716
 20
143.0593986544
 30
0.0
 11
216.1828171527
 21
141.2624685574
 31
0.0
  0
LINE
  5
179
330
1F
100
AcDbEntity
  8
0
  6
HIDDEN
 62
     7
370
     0
100
AcDbLine
 10
217.0110534942
 20
145.9565215293
 30
0.0
 11
217.6948305285
 21
144.3456380177
 31
0.0
  0
LINE
  5
17A
330
1F
100
AcDbEntity
  8
0
  6
HIDDEN
 62
     7
370
     0
100
AcDbLine
 10
225.68482571
 20
143.3645898025
 30
0.0
 11
226.7380025303
 21
144.7622018415
 31
0.0
  0
LINE
  5
17B
330
1F
100
AcDbEntity
  8
0
  6
HIDDEN
 62
     7
370
     0
100
AcDbLine
 10
217.6948305285
 20
144.3456380177
 30
0.0
 11
217.5369005716
 21
143.0593986544
 31
0.0
  0
LINE
  5
17C
330
1F
100
AcDbEntity
  8
0
  6
HIDDEN
 62
     7
370
     0
100
AcDbLine
 10
225.5268957531
 20
142.0783509049
 30
0.0
 11
225.68482571
 21
143.3645898025
 31
0.0
  0
LINE
  5
17D
330
1F
100
AcDbEntity
  8
0
  6
HIDDEN
 62
     7
370
     0
100
AcDbLine
 10
211.4143263614
 20
146.6437127921
 30
0.0
 11
210.8707916057
 21
142.2169568497
 31
0.0
  0
LINE
  5
17E
330
1F
100
AcDbEntity
  8
0
  6
HIDDEN
 62
     7
370
     0
100
AcDbLine
 10
210.8707916057
 20
142.2169568497
 30
0.0
 11
211.1319940603
 21
141.8826325345
 31
0.0
  0
LINE
  5
17F
330
1F
100
AcDbEntity
  8
0
  6
HIDDEN
 62
     7
370
     0
100
AcDbLine
 10
211.652417115
 20
134.5886659357
 30
0.0
 11
210.008930794
 21
135.8675292242
 31
0.0
  0
LINE
  5
180
330
1F
100
AcDbEntity
  8
0
  6
HIDDEN
 62
     7
370
     0
100
AcDbLine
 10
210.3748064554
 20
138.7426477405
 30
0.0
 11
212.5170197403
 21
139.6128066364
 31
0.0
  0
SPLINE
  5
181
330
1F
100
AcDbEntity
  8
0
  6
HIDDEN
 62
     7
370
     0
100
AcDbSpline
210
0.0
220
0.0
230
1.0
 70
     8
 71
     3
 72
    18
 73
    14
 74
     0
 42
0.00000001
 43
0.00000001
 12
1.0
 22
0.0
 32
0.0
 13
1.0
 23
0.0
 33
0.0
 40
0.0
 40
0.0
 40
0.0
 40
0.0
 40
0.1271006284241193
 40
0.2609522720013241
 40
0.3853983927216433
 40
0.5016266783960005
 40
0.6099668719255164
 40
0.7101638439067066
 40
0.8012759355597474
 40
0.8809885159126687
 40
0.9452353191724955
 40
0.9959841273781395
 40
1.0
 40
1.0
 40
1.0
 40
1.0
 10
218.4061449086572
 20
142.686523172555
 30
0.0
 10
218.3792208751409
 20
142.4753342098622
 30
0.0
 10
218.3239427242409
 20
142.0417388742642
 30
0.0
 10
218.0810288273022
 20
141.4389260465256
 30
0.0
 10
217.7531242295143
 20
140.9040773318351
 30
0.0
 10
217.364091504732
 20
140.4666142294166
 30
0.0
 10
216.9428446721268
 20
140.1230657457626
 30
0.0
 10
216.5117140039495
 20
139.8679529223931
 30
0.0
 10
216.0968610492993
 20
139.6934866546505
 30
0.0
 10
215.7226508163529
 20
139.5879245235684
 30
0.0
 10
215.4272850989192
 20
139.5360101055344
 30
0.0
 10
215.2528514010708
 20
139.5182728418279
 30
0.0
 10
215.2044540916295
 20
139.5157390765529
 30
0.0
 10
215.2009051358606
 20
139.5155532765365
 30
0.0
  0
LINE
  5
182
330
1F
100
AcDbEntity
  8
0
  6
HIDDEN
 62
     7
370
     0
100
AcDbLine
 10
223.6698236382
 20
134.1889050338
 30
0.0
 11
225.1319032228
 21
150.3433128484
 31
0.0
  0
LINE
  5
183
330
1F
100
AcDbEntity
  8
0
  6
HIDDEN
 62
     7
370
     0
100
AcDbLine
 10
219.1820111191
 20
151.1679659845
 30
0.0
 11
218.4142511403
 21
142.6849809024
 31
0.0
  0
LINE
  5
184
330
1F
100
AcDbEntity
  8
0
  6
HIDDEN
 62
     7
370
     0
100
AcDbLine
 10
224.2920439756
 20
132.7900808784
 30
0.0
 11
224.4705077326
 21
134.077738646
 31
0.0
  0
LINE
  5
185
330
1F
100
AcDbEntity
  8
0
  6
HIDDEN
 62
     7
370
     0
100
AcDbLine
 10
211.9009237802
 20
142.8596080761
 30
0.0
 11
212.8815617478
 21
150.8462269805
 31
0.0
  0
LINE
  5
186
330
1F
100
AcDbEntity
  8
0
  6
HIDDEN
 62
     7
370
     0
100
AcDbLine
 10
204.941187433
 20
151.8211816685
 30
0.0
 11
203.960556916
 21
143.8345626476
 31
0.0
  0
LINE
  5
187
330
1F
100
AcDbEntity
  8
0
  6
HIDDEN
 62
     7
370
     0
100
AcDbLine
 10
203.960556916
 20
143.8345626476
 30
0.0
 11
204.5194622195
 21
142.9739214028
 31
0.0
  0
LINE
  5
188
330
1F
100
AcDbEntity
  8
0
  6
HIDDEN
 62
     7
370
     0
100
AcDbLine
 10
211.1504118955
 20
142.15974291
 30
0.0
 11
211.9009237802
 21
142.8596080761
 31
0.0
  0
LINE
  5
189
330
1F
100
AcDbEntity
  8
0
  6
HIDDEN
 62
     7
370
     0
100
AcDbLine
 10
212.8815617478
 20
150.8462269805
 30
0.0
 11
212.4462243235
 21
151.4034347157
 31
0.0
  0
LINE
  5
18A
330
1F
100
AcDbEntity
  8
0
  6
HIDDEN
 62
     7
370
     0
100
AcDbLine
 10
205.4984014547
 20
152.2565201405
 30
0.0
 11
204.941187433
 21
151.8211816685
 31
0.0
  0
LINE
  5
18B
330
1F
100
AcDbEntity
  8
0
  6
HIDDEN
 62
     7
370
     0
100
AcDbLine
 10
210.4920413411
 20
131.7954339567
 30
0.0
 11
210.7848864114
 21
134.180484015
 31
0.0
  0
LINE
  5
18C
330
1F
100
AcDbEntity
  8
0
  6
HIDDEN
 62
     7
370
     0
100
AcDbLine
 10
202.9437761819
 20
135.1432508337
 30
0.0
 11
202.650923661
 21
132.7582017067
 31
0.0
  0
LINE
  5
18D
330
1F
100
AcDbEntity
  8
0
  6
HIDDEN
 62
     7
370
     0
100
AcDbLine
 10
210.7848864114
 20
134.180484015
 30
0.0
 11
208.7791379607
 21
135.6919255587
 31
0.0
  0
LINE
  5
18E
330
1F
100
AcDbEntity
  8
0
  6
HIDDEN
 62
     7
370
     0
100
AcDbLine
 10
205.2555944836
 20
136.1245621476
 30
0.0
 11
202.9437761819
 21
135.1432508337
 31
0.0
  0
LINE
  5
18F
330
1F
100
AcDbEntity
  8
0
  6
HIDDEN
 62
     7
370
     0
100
AcDbLine
 10
202.650923661
 20
132.7582017067
 30
0.0
 11
203.1733360207
 21
132.0895530763
 31
0.0
  0
LINE
  5
190
330
1F
100
AcDbEntity
  8
0
  6
HIDDEN
 62
     7
370
     0
100
AcDbLine
 10
209.8233889854
 20
131.2730290475
 30
0.0
 11
210.4920413411
 21
131.7954339567
 31
0.0
  0
LINE
  5
191
330
1F
100
AcDbEntity
  8
0
  6
HIDDEN
 62
     7
370
     0
100
AcDbLine
 10
203.5523992097
 20
140.1001053411
 30
0.0
 11
205.5581551111
 21
138.5886628661
 31
0.0
  0
LINE
  5
192
330
1F
100
AcDbEntity
  8
0
  6
HIDDEN
 62
     7
370
     0
100
AcDbLine
 10
209.0816911375
 20
138.1560272086
 30
0.0
 11
211.3935168898
 21
139.137337591
 31
0.0
  0
LINE
  5
193
330
1F
100
AcDbEntity
  8
0
  6
HIDDEN
 62
     7
370
     0
100
AcDbLine
 10
211.3935168898
 20
139.137337591
 30
0.0
 11
211.5523036635
 21
140.430586088
 31
0.0
  0
LINE
  5
194
330
1F
100
AcDbEntity
  8
0
  6
HIDDEN
 62
     7
370
     0
100
AcDbLine
 10
203.711193434
 20
141.393353838
 30
0.0
 11
203.5523992097
 21
140.1001053411
 31
0.0
  0
ARC
  5
195
330
1F
100
AcDbEntity
  8
0
  6
HIDDEN
 62
     7
370
     0
100
AcDbCircle
 10
211.4765446031
 20
141.0443939198
 30
0.0
 40
0.600000000000002
100
AcDbArc
 50
173.0
 51
263.0
  0
ARC
  5
196
330
1F
100
AcDbEntity
  8
0
  6
HIDDEN
 62
     7
370
     0
100
AcDbCircle
 10
203.9331938506
 20
141.9706009297
 30
0.0
 40
0.600000000000002
100
AcDbArc
 50
263.0
 51
353.0
  0
ARC
  5
197
330
1F
100
AcDbEntity
  8
0
  6
HIDDEN
 62
     7
370
     0
100
AcDbCircle
 10
211.559612924
 20
141.7209311031
 30
0.0
 40
0.5999999999999934
100
AcDbArc
 50
133.0
 51
173.0
  0
ARC
  5
198
330
1F
100
AcDbEntity
  8
0
  6
HIDDEN
 62
     7
370
     0
100
AcDbCircle
 10
204.0162621716
 20
142.647138113
 30
0.0
 40
0.600000000000002
100
AcDbArc
 50
353.0
 51
33.0
  0
LINE
  5
199
330
1F
100
AcDbEntity
  8
0
  6
HIDDEN
 62
     7
370
     0
100
AcDbLine
 10
210.8810138023
 20
141.1175156492
 30
0.0
 11
210.9640877759
 21
141.7940525818
 31
0.0
  0
LINE
  5
19A
330
1F
100
AcDbEntity
  8
0
  6
HIDDEN
 62
     7
370
     0
100
AcDbLine
 10
204.6117898142
 20
142.5740166116
 30
0.0
 11
204.5287232911
 21
141.897479679
 31
0.0
  0
LINE
  5
19B
330
1F
100
AcDbEntity
  8
0
  6
HIDDEN
 62
     7
370
     0
100
AcDbLine
 10
206.987221173
 20
152.073716071
 30
0.0
 11
207.4225585973
 21
151.5165083357
 31
0.0
  0
LINE
  5
19C
330
1F
100
AcDbEntity
  8
0
  6
HIDDEN
 62
     7
370
     0
100
AcDbLine
 10
210.400198034
 20
151.1509003132
 30
0.0
 11
210.9574046051
 21
151.5862386688
 31
0.0
  0
LINE
  5
19D
330
1F
100
AcDbEntity
  8
0
  6
HIDDEN
 62
     7
370
     0
100
AcDbLine
 10
208.7791379607
 20
135.6919255587
 30
0.0
 11
209.0816911375
 21
138.1560272086
 31
0.0
  0
LINE
  5
19E
330
1F
100
AcDbEntity
  8
0
  6
HIDDEN
 62
     7
370
     0
100
AcDbLine
 10
205.5581551111
 20
138.5886628661
 30
0.0
 11
205.2555944836
 21
136.1245621476
 31
0.0
  0
LINE
  5
19F
330
1F
100
AcDbEntity
  8
0
  6
HIDDEN
 62
     7
370
     0
100
AcDbLine
 10
206.9960128581
 20
148.0425967849
 30
0.0
 11
208.3749961173
 21
146.9652200132
 31
0.0
  0
LINE
  5
1A0
330
1F
100
AcDbEntity
  8
0
  6
HIDDEN
 62
     7
370
     0
100
AcDbLine
 10
208.3749961173
 20
146.9652200132
 30
0.0
 11
209.9736522949
 21
147.6769888788
 31
0.0
  0
LINE
  5
1A1
330
1F
100
AcDbEntity
  8
0
  6
HIDDEN
 62
     7
370
     0
100
AcDbLine
 10
168.4179198062
 20
179.5369141284
 30
0.0
 11
168.6179194665
 21
179.026651803
 31
0.0
  0
LINE
  5
1A2
330
1F
100
AcDbEntity
  8
0
  6
HIDDEN
 62
     7
370
     0
100
AcDbLine
 10
174.2179174042
 20
179.026651803
 30
0.0
 11
174.4179170644
 21
179.5369141284
 31
0.0
  0
LINE
  5
1A3
330
1F
100
AcDbEntity
  8
0
  6
HIDDEN
 62
     7
370
     0
100
AcDbLine
 10
174.4179170644
 20
179.5369141284
 30
0.0
 11
174.2179174042
 21
179.7166519347
 31
0.0
  0
LINE
  5
1A4
330
1F
100
AcDbEntity
  8
0
  6
HIDDEN
 62
     7
370
     0
100
AcDbLine
 10
168.6179194665
 20
179.7166519347
 30
0.0
 11
168.4179198062
 21
179.5369141284
 31
0.0
  0
LINE
  5
1A5
330
1F
100
AcDbEntity
  8
0
  6
HIDDEN
 62
     7
370
     0
100
AcDbLine
 10
168.4179198062
 20
180.2269142601
 30
0.0
 11
168.6179194665
 21
179.7166519347
 31
0.0
  0
LINE
  5
1A6
330
1F
100
AcDbEntity
  8
0
  6
HIDDEN
 62
     7
370
     0
100
AcDbLine
 10
174.2179174042
 20
179.7166519347
 30
0.0
 11
174.4179170644
 21
180.2269142601
 31
0.0
  0
LINE
  5
1A7
330
1F
100
AcDbEntity
  8
0
  6
HIDDEN
 62
     7
370
     0
100
AcDbLine
 10
174.4179170644
 20
180.7769142571
 30
0.0
 11
174.2779169297
 21
180.9169143918
 31
0.0
  0
LINE
  5
1A8
330
1F
100
AcDbEntity
  8
0
  6
HIDDEN
 62
     7
370
     0
100
AcDbLine
 10
168.5579162156
 20
180.9169143918
 30
0.0
 11
168.4179198062
 21
180.7769142571
 31
0.0
  0
LINE
  5
1A9
330
1F
100
AcDbEntity
  8
0
  6
HIDDEN
 62
     7
370
     0
100
AcDbLine
 10
174.4179170644
 20
180.2269142601
 30
0.0
 11
174.4179170644
 21
180.7769142571
 31
0.0
  0
LINE
  5
1AA
330
1F
100
AcDbEntity
  8
0
  6
HIDDEN
 62
     7
370
     0
100
AcDbLine
 10
168.4179198062
 20
180.7769142571
 30
0.0
 11
168.4179198062
 21
180.2269142601
 31
0.0
  0
LINE
  5
1AB
330
1F
100
AcDbEntity
  8
0
  6
HIDDEN
 62
     7
370
     0
100
AcDbLine
 10
174.4179170644
 20
178.8469139966
 30
0.0
 11
174.2179174042
 21
179.026651803
 31
0.0
  0
LINE
  5
1AC
330
1F
100
AcDbEntity
  8
0
  6
HIDDEN
 62
     7
370
     0
100
AcDbLine
 10
168.6179194665
 20
179.026651803
 30
0.0
 11
168.4179198062
 21
178.8469139966
 31
0.0
  0
LINE
  5
1AD
330
1F
100
AcDbEntity
  8
0
  6
HIDDEN
 62
     7
370
     0
100
AcDbLine
 10
168.4179198062
 20
178.8469139966
 30
0.0
 11
168.6179194665
 21
178.3366516712
 31
0.0
  0
LINE
  5
1AE
330
1F
100
AcDbEntity
  8
0
  6
HIDDEN
 62
     7
370
     0
100
AcDbLine
 10
174.2179174042
 20
178.3366516712
 30
0.0
 11
174.4179170644
 21
178.8469139966
 31
0.0
  0
LINE
  5
1AF
330
1F
100
AcDbEntity
  8
0
  6
HIDDEN
 62
     7
370
     0
100
AcDbLine
 10
168.4179198062
 20
178.1569138649
 30
0.0
 11
168.6179194665
 21
177.6466515395
 31
0.0
  0
LINE
  5
1B0
330
1F
100
AcDbEntity
  8
0
  6
HIDDEN
 62
     7
370
     0
100
AcDbLine
 10
174.2179174042
 20
177.6466515395
 30
0.0
 11
174.4179170644
 21
178.1569138649
 31
0.0
  0
LINE
  5
1B1
330
1F
100
AcDbEntity
  8
0
  6
HIDDEN
 62
     7
370
     0
100
AcDbLine
 10
174.4179170644
 20
178.1569138649
 30
0.0
 11
174.2179174042
 21
178.3366516712
 31
0.0
  0
LINE
  5
1B2
330
1F
100
AcDbEntity
  8
0
  6
HIDDEN
 62
     7
370
     0
100
AcDbLine
 10
168.6179194665
 20
178.3366516712
 30
0.0
 11
168.4179198062
 21
178.1569138649
 31
0.0
  0
LINE
  5
1B3
330
1F
100
AcDbEntity
  8
0
  6
HIDDEN
 62
     7
370
     0
100
AcDbLine
 10
174.4179170644
 20
177.4669137332
 30
0.0
 11
174.2179174042
 21
177.6466515395
 31
0.0
  0
LINE
  5
1B4
330
1F
100
AcDbEntity
  8
0
  6
HIDDEN
 62
     7
370
     0
100
AcDbLine
 10
168.6179194665
 20
177.6466515395
 30
0.0
 11
168.4179198062
 21
177.4669137332
 31
0.0
  0
LINE
  5
1B5
330
1F
100
AcDbEntity
  8
0
  6
HIDDEN
 62
     7
370
     0
100
AcDbLine
 10
174.4179170644
 20
174.7169137481
 30
0.0
 11
174.4179170644
 21
177.4669137332
 31
0.0
  0
LINE
  5
1B6
330
1F
100
AcDbEntity
  8
0
  6
HIDDEN
 62
     7
370
     0
100
AcDbLine
 10
168.4179198062
 20
177.4669137332
 30
0.0
 11
168.4179198062
 21
174.7169137481
 31
0.0
  0
LINE
  5
1B7
330
1F
100
AcDbEntity
  8
0
  6
HIDDEN
 62
     7
370
     0
100
AcDbLine
 10
168.4179198062
 20
174.7169137481
 30
0.0
 11
168.9375344729
 21
174.4169142577
 31
0.0
  0
LINE
  5
1B8
330
1F
100
AcDbEntity
  8
0
  6
HIDDEN
 62
     7
370
     0
100
AcDbLine
 10
173.8983023977
 20
174.4169142577
 30
0.0
 11
174.4179170644
 21
174.7169137481
 31
0.0
  0
LINE
  5
1B9
330
1F
100
AcDbEntity
  8
0
  6
HIDDEN
 62
     7
370
     0
100
AcDbLine
 10
173.9179197764
 20
176.0602906826
 30
0.0
 11
173.9179197764
 21
180.9169143918
 31
0.0
  0
LINE
  5
1BA
330
1F
100
AcDbEntity
  8
0
  6
HIDDEN
 62
     7
370
     0
100
AcDbLine
 10
168.9179170942
 20
180.9169143918
 30
0.0
 11
168.9179170942
 21
176.0602906826
 31
0.0
  0
LINE
  5
1BB
330
1F
100
AcDbEntity
  8
0
  6
HIDDEN
 62
     7
370
     0
100
AcDbLine
 10
168.9179170942
 20
176.0602906826
 30
0.0
 11
171.4179184353
 21
174.616913918
 31
0.0
  0
LINE
  5
1BC
330
1F
100
AcDbEntity
  8
0
  6
HIDDEN
 62
     7
370
     0
100
AcDbLine
 10
171.4179184353
 20
174.616913918
 30
0.0
 11
173.9179197764
 21
176.0602906826
 31
0.0
  0
CIRCLE
  5
1BD
330
1F
100
AcDbEntity
  8
0
  6
HIDDEN
 62
     7
370
     0
100
AcDbCircle
 10
171.4179179585
 20
177.5169143888
 30
0.0
 40
2.5
  0
LINE
  5
1BE
330
1F
100
AcDbEntity
  8
0
  6
HIDDEN
 62
     7
370
     0
100
AcDbLine
 10
134.4179179585
 20
125.9669136736
 30
0.0
 11
134.5108111789
 21
126.0598075125
 31
0.0
  0
LINE
  5
1BF
330
1F
100
AcDbEntity
  8
0
  6
HIDDEN
 62
     7
370
     0
100
AcDbLine
 10
134.5108111789
 20
174.3740212652
 30
0.0
 11
134.4179179585
 21
174.4669151041
 31
0.0
  0
ARC
  5
1C0
330
1F
100
AcDbEntity
  8
0
  6
HIDDEN
 62
     7
370
     0
100
AcDbCircle
 10
133.8037043961
 20
126.7669143888
 30
0.0
 40
1.000000000000008
100
AcDbArc
 50
315.0
 51
0.0
  0
ARC
  5
1C1
330
1F
100
AcDbEntity
  8
0
  6
HIDDEN
 62
     7
370
     0
100
AcDbCircle
 10
133.8037043961
 20
126.7669143888
 30
0.0
 40
1.0
100
AcDbArc
 50
0.0
 51
52.1052014664
  0
ARC
  5
1C2
330
1F
100
AcDbEntity
  8
0
  6
HIDDEN
 62
     7
370
     0
100
AcDbCircle
 10
133.8037043961
 20
173.6669143888
 30
0.0
 40
1.000000000000008
100
AcDbArc
 50
343.125
 51
45.0
  0
ARC
  5
1C3
330
1F
100
AcDbEntity
  8
0
  6
HIDDEN
 62
     7
370
     0
100
AcDbCircle
 10
133.8037043961
 20
173.6669143888
 30
0.0
 40
1.000000000000008
100
AcDbArc
 50
307.8947985336
 51
343.125
  0
LINE
  5
1C4
330
1F
100
AcDbEntity
  8
0
  6
HIDDEN
 62
     7
370
     0
100
AcDbLine
 10
134.8037043943
 20
126.7669141772
 30
0.0
 11
134.8037043943
 21
173.6669146004
 31
0.0
  0
LINE
  5
1C5
330
1F
100
AcDbEntity
  8
0
  6
HIDDEN
 62
     7
370
     0
100
AcDbLine
 10
96.4179191804
 20
134.0204846594
 30
0.0
 11
97.9481455004
 21
134.9039633307
 31
0.0
  0
LINE
  5
1C6
330
1F
100
AcDbEntity
  8
0
  6
HIDDEN
 62
     7
370
     0
100
AcDbLine
 10
97.9481455004
 20
165.529865447
 30
0.0
 11
96.4179191804
 21
166.4133441183
 31
0.0
  0
LINE
  5
1C7
330
1F
100
AcDbEntity
  8
0
  6
HIDDEN
 62
     7
370
     0
100
AcDbLine
 10
106.4179170942
 20
134.2169136289
 30
0.0
 11
107.419718436
 21
134.2169136289
 31
0.0
  0
LINE
  5
1C8
330
1F
100
AcDbEntity
  8
0
  6
HIDDEN
 62
     7
370
     0
100
AcDbLine
 10
107.419718436
 20
166.2169151488
 30
0.0
 11
106.4179170942
 21
166.2169151488
 31
0.0
  0
ARC
  5
1C9
330
1F
100
AcDbEntity
  8
0
  6
HIDDEN
 62
     7
370
     0
100
AcDbCircle
 10
106.4179179585
 20
136.2169143888
 30
0.0
 40
2.0
100
AcDbArc
 50
189.9742217944
 51
270.0
  0
ARC
  5
1CA
330
1F
100
AcDbEntity
  8
0
  6
HIDDEN
 62
     7
370
     0
100
AcDbCircle
 10
106.4179179585
 20
164.2169143888
 30
0.0
 40
2.0
100
AcDbArc
 50
90.0
 51
170.0257782056
  0
ARC
  5
1CB
330
1F
100
AcDbEntity
  8
0
  6
HIDDEN
 62
     7
370
     0
100
AcDbCircle
 10
107.4197192734
 20
136.2169143888
 30
0.0
 40
2.0
100
AcDbArc
 50
270.0
 51
315.0
  0
ARC
  5
1CC
330
1F
100
AcDbEntity
  8
0
  6
HIDDEN
 62
     7
370
     0
100
AcDbCircle
 10
107.4197192734
 20
164.2169143888
 30
0.0
 40
2.000000000000006
100
AcDbArc
 50
45.0
 51
90.0
  0
LINE
  5
1CD
330
1F
100
AcDbEntity
  8
0
  6
HIDDEN
 62
     7
370
     0
100
AcDbLine
 10
108.8339336282
 20
134.8027006271
 30
0.0
 11
110.2481469577
 21
136.2169139567
 31
0.0
  0
LINE
  5
1CE
330
1F
100
AcDbEntity
  8
0
  6
HIDDEN
 62
     7
370
     0
100
AcDbLine
 10
110.2481469577
 20
164.216914821
 30
0.0
 11
108.8339336282
 21
165.6311281505
 31
0.0
  0
LINE
  5
1CF
330
1F
100
AcDbEntity
  8
0
  6
HIDDEN
 62
     7
370
     0
100
AcDbLine
 10
97.9481455004
 20
134.9039633307
 30
0.0
 11
102.8481464898
 21
136.2169139567
 31
0.0
  0
LINE
  5
1D0
330
1F
100
AcDbEntity
  8
0
  6
HIDDEN
 62
     7
370
     0
100
AcDbLine
 10
102.8481464898
 20
164.216914821
 30
0.0
 11
97.9481455004
 21
165.529865447
 31
0.0
  0
LINE
  5
1D1
330
1F
100
AcDbEntity
  8
0
  6
HIDDEN
 62
     7
370
     0
100
AcDbLine
 10
104.4481456345
 20
164.5633249092
 30
0.0
 11
103.8481466538
 21
164.216914821
 31
0.0
  0
LINE
  5
1D2
330
1F
100
AcDbEntity
  8
0
  6
HIDDEN
 62
     7
370
     0
100
AcDbLine
 10
103.8481466538
 20
136.2169139567
 30
0.0
 11
104.4481456345
 21
135.8705038685
 31
0.0
  0
LINE
  5
1D3
330
1F
100
AcDbEntity
  8
0
  6
HIDDEN
 62
     7
370
     0
100
AcDbLine
 10
102.8481464898
 20
136.2169139567
 30
0.0
 11
103.8481466538
 21
136.2169139567
 31
0.0
  0
LINE
  5
1D4
330
1F
100
AcDbEntity
  8
0
  6
HIDDEN
 62
     7
370
     0
100
AcDbLine
 10
103.8481466538
 20
164.216914821
 30
0.0
 11
102.8481464898
 21
164.216914821
 31
0.0
  0
ARC
  5
1D5
330
1F
100
AcDbEntity
  8
0
  6
HIDDEN
 62
     7
370
     0
100
AcDbCircle
 10
122.9179179585
 20
136.7169143888
 30
0.0
 40
0.5
100
AcDbArc
 50
275.5682401931
 51
0.0
  0
ARC
  5
1D6
330
1F
100
AcDbEntity
  8
0
  6
HIDDEN
 62
     7
370
     0
100
AcDbCircle
 10
122.9179179585
 20
163.7169143888
 30
0.0
 40
0.5000000000000124
100
AcDbArc
 50
0.0
 51
86.7052363418
  0
LINE
  5
1D7
330
1F
100
AcDbEntity
  8
0
  6
HIDDEN
 62
     7
370
     0
100
AcDbLine
 10
110.2481469577
 20
136.2169139567
 30
0.0
 11
114.8819107628
 21
136.2169139567
 31
0.0
  0
LINE
  5
1D8
330
1F
100
AcDbEntity
  8
0
  6
HIDDEN
 62
     7
370
     0
100
AcDbLine
 10
114.8819107628
 20
164.216914821
 30
0.0
 11
110.2481469577
 21
164.216914821
 31
0.0
  0
LINE
  5
1D9
330
1F
100
AcDbEntity
  8
0
  6
HIDDEN
 62
     7
370
     0
100
AcDbLine
 10
204.13333588
 20
146.8828247409
 30
0.0
 11
201.7568837917
 21
127.5281753871
 31
0.0
  0
LINE
  5
1DA
330
1F
100
AcDbEntity
  8
0
  6
HIDDEN
 62
     7
370
     0
100
AcDbLine
 10
212.3372744834
 20
144.7722862023
 30
0.0
 11
212.4707218325
 21
145.8591224174
 31
0.0
  0
LINE
  5
1DB
330
1F
100
AcDbEntity
  8
0
  6
HIDDEN
 62
     7
370
     0
100
AcDbLine
 10
210.0942697441
 20
126.5044730636
 30
0.0
 11
210.98595523
 21
133.7666545543
 31
0.0
  0
LINE
  5
1DC
330
1F
100
AcDbEntity
  8
0
  6
HIDDEN
 62
     7
370
     0
100
AcDbLine
 10
212.4707218325
 20
145.8591224174
 30
0.0
 11
211.8272002852
 21
146.3618983063
 31
0.0
  0
LINE
  5
1DD
330
1F
100
AcDbEntity
  8
0
  6
HIDDEN
 62
     7
370
     0
100
AcDbLine
 10
204.8793774164
 20
147.2149834982
 30
0.0
 11
204.13333588
 21
146.8828247409
 31
0.0
  0
LINE
  5
1DE
330
1F
100
AcDbEntity
  8
0
  6
HIDDEN
 62
     7
370
     0
100
AcDbLine
 10
205.1239948785
 20
153.3100010376
 30
0.0
 11
205.5593323028
 21
152.7527930695
 31
0.0
  0
LINE
  5
1DF
330
1F
100
AcDbEntity
  8
0
  6
HIDDEN
 62
     7
370
     0
100
AcDbLine
 10
212.5071551716
 20
151.8997077611
 30
0.0
 11
213.0643617427
 21
152.3350462332
 31
0.0
  0
LINE
  5
1E0
330
1F
100
AcDbEntity
  8
0
  6
HIDDEN
 62
     7
370
     0
100
AcDbLine
 10
123.4179180181
 20
139.9669141057
 30
0.0
 11
124.6679177573
 21
141.2169147763
 31
0.0
  0
LINE
  5
1E1
330
1F
100
AcDbEntity
  8
0
  6
HIDDEN
 62
     7
370
     0
100
AcDbLine
 10
124.6679177573
 20
159.2169140014
 30
0.0
 11
123.4179180181
 21
160.466914672
 31
0.0
  0
LINE
  5
1E2
330
1F
100
AcDbEntity
  8
0
  6
HIDDEN
 62
     7
370
     0
100
AcDbLine
 10
205.5593323028
 20
152.7527930695
 30
0.0
 11
204.8793774164
 21
147.2149834982
 31
0.0
  0
LINE
  5
1E3
330
1F
100
AcDbEntity
  8
0
  6
HIDDEN
 62
     7
370
     0
100
AcDbLine
 10
211.8272002852
 20
146.3618983063
 30
0.0
 11
212.5071551716
 21
151.8997077611
 31
0.0
  0
LINE
  5
1E4
330
1F
100
AcDbEntity
  8
0
  6
HIDDEN
 62
     7
370
     0
100
AcDbLine
 10
212.9112523115
 20
147.8327753968
 30
0.0
 11
211.3142725146
 21
145.6764681745
 31
0.0
  0
LINE
  5
1E5
330
1F
100
AcDbEntity
  8
0
  6
HIDDEN
 62
     7
370
     0
100
AcDbLine
 10
124.6679177573
 20
141.2169147763
 30
0.0
 11
150.4179187184
 21
141.2169147763
 31
0.0
  0
LINE
  5
1E6
330
1F
100
AcDbEntity
  8
0
  6
HIDDEN
 62
     7
370
     0
100
AcDbLine
 10
150.4179187184
 20
159.2169140014
 30
0.0
 11
124.6679177573
 21
159.2169140014
 31
0.0
  0
LINE
  5
1E7
330
1F
100
AcDbEntity
  8
0
  6
HIDDEN
 62
     7
370
     0
100
AcDbLine
 10
150.4179187184
 20
141.2169147763
 30
0.0
 11
153.2720051771
 21
145.9669141579
 31
0.0
  0
LINE
  5
1E8
330
1F
100
AcDbEntity
  8
0
  6
HIDDEN
 62
     7
370
     0
100
AcDbLine
 10
153.2720051771
 20
154.4669146198
 30
0.0
 11
150.4179187184
 21
159.2169140014
 31
0.0
  0
LINE
  5
1E9
330
1F
100
AcDbEntity
  8
0
  6
HIDDEN
 62
     7
370
     0
100
AcDbLine
 10
216.4246704495
 20
128.7840042743
 30
0.0
 11
220.0880091703
 21
133.7304037544
 31
0.0
  0
LINE
  5
1EA
330
1F
100
AcDbEntity
  8
0
  6
HIDDEN
 62
     7
370
     0
100
AcDbLine
 10
123.3510490572
 20
129.8360281172
 30
0.0
 11
122.9679178512
 21
130.2191593233
 31
0.0
  0
LINE
  5
1EB
330
1F
100
AcDbEntity
  8
0
  6
HIDDEN
 62
     7
370
     0
100
AcDbLine
 10
114.8679185724
 20
130.2191593233
 30
0.0
 11
114.7172026402
 21
130.068443391
 31
0.0
  0
LINE
  5
1EC
330
1F
100
AcDbEntity
  8
0
  6
HIDDEN
 62
     7
370
     0
100
AcDbLine
 10
153.2720051771
 20
145.9669141579
 30
0.0
 11
175.417919091
 21
145.9669141579
 31
0.0
  0
LINE
  5
1ED
330
1F
100
AcDbEntity
  8
0
  6
HIDDEN
 62
     7
370
     0
100
AcDbLine
 10
168.9179170942
 20
154.4669146198
 30
0.0
 11
153.2720051771
 21
154.4669146198
 31
0.0
  0
LINE
  5
1EE
330
1F
100
AcDbEntity
  8
0
  6
HIDDEN
 62
     7
370
     0
100
AcDbLine
 10
175.417919091
 20
154.4669146198
 30
0.0
 11
173.9122126317
 21
154.4669146198
 31
0.0
  0
LINE
  5
1EF
330
1F
100
AcDbEntity
  8
0
  6
HIDDEN
 62
     7
370
     0
100
AcDbLine
 10
175.417919091
 20
145.9669141579
 30
0.0
 11
177.9715757883
 21
150.2169143888
 31
0.0
  0
LINE
  5
1F0
330
1F
100
AcDbEntity
  8
0
  6
HIDDEN
 62
     7
370
     0
100
AcDbLine
 10
177.9715757883
 20
150.2169143888
 30
0.0
 11
175.417919091
 21
154.4669146198
 31
0.0
  0
LINE
  5
1F1
330
1F
100
AcDbEntity
  8
0
  6
HIDDEN
 62
     7
370
     0
100
AcDbLine
 10
224.4115289366
 20
133.1995405737
 30
0.0
 11
225.2646129644
 21
140.1473643738
 31
0.0
  0
LINE
  5
1F2
330
1F
100
AcDbEntity
  8
0
  6
HIDDEN
 62
     7
370
     0
100
AcDbLine
 10
102.8679166055
 20
132.2169151637
 30
0.0
 11
96.4179191804
 21
132.2169151637
 31
0.0
  0
LINE
  5
1F3
330
1F
100
AcDbEntity
  8
0
  6
HIDDEN
 62
     7
370
     0
100
AcDbLine
 10
104.7769341683
 20
130.3078994635
 30
0.0
 11
102.8679166055
 21
132.2169151637
 31
0.0
  0
LINE
  5
1F4
330
1F
100
AcDbEntity
  8
0
  6
HIDDEN
 62
     7
370
     0
100
AcDbLine
 10
122.9679178512
 20
130.2191593233
 30
0.0
 11
122.9679178512
 21
136.2197321388
 31
0.0
  0
LINE
  5
1F5
330
1F
100
AcDbEntity
  8
0
  6
HIDDEN
 62
     7
370
     0
100
AcDbLine
 10
114.8679185724
 20
136.2207985032
 30
0.0
 11
114.8679185724
 21
130.2191593233
 31
0.0
  0
LINE
  5
1F6
330
1F
100
AcDbEntity
  8
0
  6
HIDDEN
 62
     7
370
     0
100
AcDbLine
 10
122.9679178512
 20
167.7169144633
 30
0.0
 11
118.9179182118
 21
170.1504007462
 31
0.0
  0
LINE
  5
1F7
330
1F
100
AcDbEntity
  8
0
  6
HIDDEN
 62
     7
370
     0
100
AcDbLine
 10
118.9179182118
 20
170.1504007462
 30
0.0
 11
114.8679185724
 21
167.7169144633
 31
0.0
  0
LINE
  5
1F8
330
1F
100
AcDbEntity
  8
0
  6
HIDDEN
 62
     7
370
     0
100
AcDbLine
 10
122.9679178512
 20
164.2094251248
 30
0.0
 11
122.9679178512
 21
167.7169144633
 31
0.0
  0
LINE
  5
1F9
330
1F
100
AcDbEntity
  8
0
  6
HIDDEN
 62
     7
370
     0
100
AcDbLine
 10
114.8679185724
 20
167.7169144633
 30
0.0
 11
114.8679185724
 21
164.2130302745
 31
0.0
  0
LINE
  5
1FA
330
1F
100
AcDbEntity
  8
0
  6
HIDDEN
 62
     7
370
     0
100
AcDbLine
 10
168.4179198062
 20
174.7169137481
 30
0.0
 11
168.9179170942
 21
174.4164839867
 31
0.0
  0
LINE
  5
1FB
330
1F
100
AcDbEntity
  8
0
  6
HIDDEN
 62
     7
370
     0
100
AcDbLine
 10
173.9179197764
 20
174.4164839867
 30
0.0
 11
174.4179170644
 21
174.7169137481
 31
0.0
  0
LINE
  5
1FC
330
1F
100
AcDbEntity
  8
0
  6
HIDDEN
 62
     7
370
     0
100
AcDbLine
 10
168.4179198062
 20
181.7169148955
 30
0.0
 11
168.4179198062
 21
174.7169137481
 31
0.0
  0
LINE
  5
1FD
330
1F
100
AcDbEntity
  8
0
  6
HIDDEN
 62
     7
370
     0
100
AcDbLine
 10
174.4179170644
 20
174.7169137481
 30
0.0
 11
174.4179170644
 21
181.7169148955
 31
0.0
  0
LINE
  5
1FE
330
1F
100
AcDbEntity
  8
0
  6
HIDDEN
 62
     7
370
     0
100
AcDbLine
 10
182.6508496022
 20
169.665710676
 30
0.0
 11
173.9179197764
 21
172.5032121423
 31
0.0
  0
LINE
  5
1FF
330
1F
100
AcDbEntity
  8
0
  6
HIDDEN
 62
     7
370
     0
100
AcDbLine
 10
173.9179197764
 20
167.2458999339
 30
0.0
 11
184.193879745
 21
163.9070377234
 31
0.0
  0
LINE
  5
200
330
1F
100
AcDbEntity
  8
0
  6
HIDDEN
 62
     7
370
     0
100
AcDbLine
 10
168.9179170942
 20
174.4164839867
 30
0.0
 11
168.9179170942
 21
154.4669146198
 31
0.0
  0
LINE
  5
201
330
1F
100
AcDbEntity
  8
0
  6
HIDDEN
 62
     7
370
     0
100
AcDbLine
 10
173.9179197764
 20
172.5032121423
 30
0.0
 11
173.9179197764
 21
174.4164839867
 31
0.0
  0
LINE
  5
202
330
1F
100
AcDbEntity
  8
0
  6
HIDDEN
 62
     7
370
     0
100
AcDbLine
 10
173.9179197764
 20
154.4636386926
 30
0.0
 11
173.9179197764
 21
167.2458999339
 31
0.0
  0
LINE
  5
203
330
1F
100
AcDbEntity
  8
0
  6
HIDDEN
 62
     7
370
     0
100
AcDbLine
 10
144.417917735
 20
119.2169148955
 30
0.0
 11
144.417917735
 21
118.7169138822
 31
0.0
  0
LINE
  5
204
330
1F
100
AcDbEntity
  8
0
  6
HIDDEN
 62
     7
370
     0
100
AcDbLine
 10
148.4179183906
 20
118.7169138822
 30
0.0
 11
148.4179183906
 21
119.2169148955
 31
0.0
  0
LINE
  5
205
330
1F
100
AcDbEntity
  8
0
  6
HIDDEN
 62
     7
370
     0
100
AcDbLine
 10
148.4179183906
 20
119.2169148955
 30
0.0
 11
146.4179180628
 21
120.4186358038
 31
0.0
  0
LINE
  5
206
330
1F
100
AcDbEntity
  8
0
  6
HIDDEN
 62
     7
370
     0
100
AcDbLine
 10
146.4179180628
 20
120.4186358038
 30
0.0
 11
144.417917735
 21
119.2169148955
 31
0.0
  0
LINE
  5
207
330
1F
100
AcDbEntity
  8
0
  6
HIDDEN
 62
     7
370
     0
100
AcDbLine
 10
208.569046489
 20
152.8870020076
 30
0.0
 11
207.837831608
 21
146.9317249968
 31
0.0
  0
LINE
  5
208
330
1F
100
AcDbEntity
  8
0
  6
HIDDEN
 62
     7
370
     0
100
AcDbLine
 10
208.4900479829
 20
146.8516428969
 30
0.0
 11
207.9282295024
 21
142.2760054949
 31
0.0
  0
LINE
  5
209
330
1F
100
AcDbEntity
  8
VERMASSUNG
100
AcDbLine
 10
234.4179179585
 20
150.2169143888
 30
0.0
 11
234.4179179585
 21
154.1846470665
 31
0.0
  0
DIMENSION
  5
20A
330
1F
100
AcDbEntity
  8
VERMASSUNG
100
AcDbDimension
  2
_D
 10
134.4179179585
 20
187.2959220973
 30
0.0
 11
184.4179179585
 21
187.2959220973
 31
0.0
 70
   160
  1
<>
 71
     2
 42
-1.0
  3
SLDDIMSTYLE0
100
AcDbAlignedDimension
 13
234.4179179585
 23
154.1846470665
 33
0.0
 14
134.4179179585
 24
181.2169143888
 34
0.0
100
AcDbRotatedDimension
  0
DIMENSION
  5
217
330
1F
100
AcDbEntity
  8
VERMASSUNG
100
AcDbDimension
  2
_D_1
 10
96.4179179585
 20
191.7169143888
 30
0.0
 11
165.4179179585
 21
191.7169143888
 31
0.0
 70
   160
  1
<>
 71
     2
 42
-1.0
  3
SLDDIMSTYLE1
100
AcDbAlignedDimension
 13
234.4179179585
 23
150.2169143888
 33
0.0
 14
96.4179179585
 24
170.4030301578
 34
0.0
 50
0.0
100
AcDbRotatedDimension
  0
LINE
  5
222
330
1F
100
AcDbEntity
  8
VERMASSUNG
  6
CENTERX2
370
     0
100
AcDbLine
 10
93.2213871803
 20
150.2169143888
 30
0.0
 11
238.6180686893
 21
150.2169143888
 31
0.0
  0
LINE
  5
223
330
1F
100
AcDbEntity
  8
0
  6
Continuous
 62
     7
370
    15
100
AcDbLine
 10
222.3820354855
 20
80.0560124358
 30
0.0
 11
222.1766006267
 21
80.0560124358
 31
0.0
  0
LINE
  5
224
330
1F
100
AcDbEntity
  8
0
  6
Continuous
 62
     7
370
    15
100
AcDbLine
 10
222.1766006267
 20
59.5769982924
 30
0.0
 11
222.3820354855
 21
59.5769982924
 31
0.0
  0
LINE
  5
225
330
1F
100
AcDbEntity
  8
0
  6
Continuous
 62
     7
370
    15
100
AcDbLine
 10
222.6375456965
 20
72.6018250593
 30
0.0
 11
221.3459950006
 21
72.8150145755
 31
0.0
  0
LINE
  5
226
330
1F
100
AcDbEntity
  8
0
  6
Continuous
 62
     7
370
    15
100
AcDbLine
 10
134.9179179822
 20
38.3165048574
 30
0.0
 11
195.7561973548
 21
38.3165048574
 31
0.0
  0
LINE
  5
227
330
1F
100
AcDbEntity
  8
0
  6
Continuous
 62
     7
370
    15
100
AcDbLine
 10
195.7561973548
 20
101.3165058707
 30
0.0
 11
134.9179179822
 21
101.3165058707
 31
0.0
  0
ARC
  5
228
330
1F
100
AcDbEntity
  8
0
  6
Continuous
 62
     7
370
    15
100
AcDbCircle
 10
134.9179179585
 20
38.8165053641
 30
0.0
 40
0.5000000000000213
100
AcDbArc
 50
180.0
 51
270.0
  0
ARC
  5
229
330
1F
100
AcDbEntity
  8
0
  6
Continuous
 62
     7
370
    15
100
AcDbCircle
 10
134.9179179585
 20
100.8165053641
 30
0.0
 40
0.5000000000000142
100
AcDbArc
 50
90.0
 51
180.0
  0
LWPOLYLINE
  5
22A
330
1F
100
AcDbEntity
  8
0
  6
Continuous
 62
     7
370
    15
100
AcDbPolyline
 90
        3
 70
   128
 43
0.0
 10
134.2179179635
 20
47.276684842
 10
134.3433728987
 20
47.208383507
 10
134.4179179585
 20
47.1556445723
  0
LWPOLYLINE
  5
22B
330
1F
100
AcDbEntity
  8
0
  6
Continuous
 62
     7
370
    15
100
AcDbPolyline
 90
        3
 70
   128
 43
0.0
 10
134.4179179585
 20
92.4773661559
 10
134.3433728987
 20
92.4246272211
 10
134.2179179635
 20
92.3563258861
  0
LINE
  5
22C
330
1F
100
AcDbEntity
  8
0
  6
Continuous
 62
     7
370
    15
100
AcDbLine
 10
210.4879733241
 20
69.5100875769
 30
0.0
 11
222.1268381989
 21
59.6705803787
 31
0.0
  0
ARC
  5
22D
330
1F
100
AcDbEntity
  8
0
  6
Continuous
 62
     7
370
    15
100
AcDbCircle
 10
210.7479097261
 20
69.8165053641
 30
0.0
 40
0.4018193542109994
100
AcDbArc
 50
130.3081802295
 51
229.6918197705
  0
LINE
  5
22E
330
1F
100
AcDbEntity
  8
0
  6
Continuous
 62
     7
370
    15
100
AcDbLine
 10
222.1268381989
 20
79.9624303495
 30
0.0
 11
210.4879733241
 21
70.1229231513
 31
0.0
  0
ARC
  5
22F
330
1F
100
AcDbEntity
  8
0
  6
Continuous
 62
     7
370
    15
100
AcDbCircle
 10
222.3820354855
 20
79.6611434064
 30
0.0
 40
0.3948410783524853
100
AcDbArc
 50
49.7345984029
 51
130.2654015971
  0
LINE
  5
230
330
1F
100
AcDbEntity
  8
0
  6
Continuous
 62
     7
370
    15
100
AcDbLine
 10
234.2760976469
 20
70.1229231513
 30
0.0
 11
222.6372327721
 21
79.9624303495
 31
0.0
  0
ARC
  5
231
330
1F
100
AcDbEntity
  8
0
  6
Continuous
 62
     7
370
    15
100
AcDbCircle
 10
234.0161682837
 20
69.8165053641
 30
0.0
 40
0.401814800877358
100
AcDbArc
 50
310.3074148506
 51
49.6925851494
  0
LINE
  5
232
330
1F
100
AcDbEntity
  8
0
  6
Continuous
 62
     7
370
    15
100
AcDbLine
 10
222.6372327721
 20
59.6705803787
 30
0.0
 11
234.2760976469
 21
69.5100875769
 31
0.0
  0
ARC
  5
233
330
1F
100
AcDbEntity
  8
0
  6
Continuous
 62
     7
370
    15
100
AcDbCircle
 10
222.3820354855
 20
59.9718673217
 30
0.0
 40
0.3948410783524907
100
AcDbArc
 50
229.7345984029
 51
310.2654015971
  0
ARC
  5
234
330
1F
100
AcDbEntity
  8
0
  6
Continuous
 62
     7
370
    15
100
AcDbCircle
 10
222.3820392108
 20
79.660884636
 30
0.0
 40
0.3751016892580754
100
AcDbArc
 50
49.7347940352
 51
130.2652059648
  0
LINE
  5
235
330
1F
100
AcDbEntity
  8
0
  6
Continuous
 62
     7
370
    15
100
AcDbLine
 10
222.1396010435
 20
79.9471100931
 30
0.0
 11
210.5007361686
 21
70.1076022547
 31
0.0
  0
ARC
  5
236
330
1F
100
AcDbEntity
  8
0
  6
Continuous
 62
     7
370
    15
100
AcDbCircle
 10
210.747669072
 20
69.8165053641
 30
0.0
 40
0.3817240606531726
100
AcDbArc
 50
130.3074165069
 51
229.6925834931
  0
LINE
  5
237
330
1F
100
AcDbEntity
  8
0
  6
Continuous
 62
     7
370
    15
100
AcDbLine
 10
210.5007361686
 20
69.5254084735
 30
0.0
 11
222.1396010435
 21
59.685900635
 31
0.0
  0
ARC
  5
238
330
1F
100
AcDbEntity
  8
0
  6
Continuous
 62
     7
370
    15
100
AcDbCircle
 10
222.3820392108
 20
59.9721260921
 30
0.0
 40
0.3751016892580646
100
AcDbArc
 50
229.7347940352
 51
310.2652059648
  0
LINE
  5
239
330
1F
100
AcDbEntity
  8
0
  6
Continuous
 62
     7
370
    15
100
AcDbLine
 10
222.6244773781
 20
59.685900635
 30
0.0
 11
234.2633348024
 21
69.5254084735
 31
0.0
  0
ARC
  5
23A
330
1F
100
AcDbEntity
  8
0
  6
Continuous
 62
     7
370
    15
100
AcDbCircle
 10
234.016419201
 20
69.8165053641
 30
0.0
 40
0.3817128684119661
100
AcDbArc
 50
310.3054360275
 51
49.6945639725
  0
LINE
  5
23B
330
1F
100
AcDbEntity
  8
0
  6
Continuous
 62
     7
370
    15
100
AcDbLine
 10
234.2633348024
 20
70.1076022547
 30
0.0
 11
222.6244773781
 21
79.9471100931
 31
0.0
  0
LINE
  5
23C
330
1F
100
AcDbEntity
  8
0
  6
Continuous
 62
     7
370
    15
100
AcDbLine
 10
222.2717892444
 20
61.5263067325
 30
0.0
 11
222.3553028023
 21
59.9769976129
 31
0.0
  0
LINE
  5
23D
330
1F
100
AcDbEntity
  8
0
  6
Continuous
 62
     7
370
    15
100
AcDbLine
 10
212.8431912577
 20
69.8165053641
 30
0.0
 11
210.7164379275
 21
69.8165053641
 31
0.0
  0
LINE
  5
23E
330
1F
100
AcDbEntity
  8
0
  6
Continuous
 62
     7
370
    15
100
AcDbLine
 10
214.7560980236
 20
74.3854309571
 30
0.0
 11
209.7141038692
 21
70.1229231513
 31
0.0
  0
LINE
  5
23F
330
1F
100
AcDbEntity
  8
0
  6
Continuous
 62
     7
370
    15
100
AcDbLine
 10
222.2717892444
 20
78.1067039957
 30
0.0
 11
222.3553028023
 21
79.6560131152
 31
0.0
  0
ARC
  5
240
330
1F
100
AcDbEntity
  8
0
  6
Continuous
 62
     7
370
    15
100
AcDbCircle
 10
216.344732825
 20
69.8165053641
 30
0.0
 40
1.004527966851047
100
AcDbArc
 50
130.3068111715
 51
229.6931888285
  0
LINE
  5
241
330
1F
100
AcDbEntity
  8
0
  6
Continuous
 62
     7
370
    15
100
AcDbLine
 10
215.6949233329
 20
69.0504609397
 30
0.0
 11
221.744042269
 21
63.9365276461
 31
0.0
  0
LINE
  5
242
330
1F
100
AcDbEntity
  8
0
  6
Continuous
 62
     7
370
    15
100
AcDbLine
 10
221.744042269
 20
75.6964830821
 30
0.0
 11
215.6949233329
 21
70.5825497885
 31
0.0
  0
ARC
  5
243
330
1F
100
AcDbEntity
  8
0
  6
Continuous
 62
     7
370
    15
100
AcDbCircle
 10
222.3820392108
 20
74.9432514395
 30
0.0
 40
0.9871160038896911
100
AcDbArc
 50
49.7349693095
 51
130.2650306905
  0
LINE
  5
244
330
1F
100
AcDbEntity
  8
0
  6
Continuous
 62
     7
370
    15
100
AcDbLine
 10
229.0691550887
 20
70.5825497885
 30
0.0
 11
223.0200361526
 21
75.6964830821
 31
0.0
  0
ARC
  5
245
330
1F
100
AcDbEntity
  8
0
  6
Continuous
 62
     7
370
    15
100
AcDbCircle
 10
228.4193282936
 20
69.8165053641
 30
0.0
 40
1.004539159855702
100
AcDbArc
 50
310.3075637763
 51
49.6924362237
  0
LINE
  5
246
330
1F
100
AcDbEntity
  8
0
  6
Continuous
 62
     7
370
    15
100
AcDbLine
 10
223.0200361526
 20
63.9365276461
 30
0.0
 11
229.0691550887
 21
69.0504609397
 31
0.0
  0
ARC
  5
247
330
1F
100
AcDbEntity
  8
0
  6
Continuous
 62
     7
370
    15
100
AcDbCircle
 10
222.3820392108
 20
64.6897592887
 30
0.0
 40
0.9871160038896911
100
AcDbArc
 50
229.7349693095
 51
310.2650306905
  0
CIRCLE
  5
248
330
1F
100
AcDbEntity
  8
0
  6
Continuous
 62
     7
370
    15
100
AcDbCircle
 10
222.3684126941
 20
69.7979553286
 30
0.0
 40
3.159788249499051
  0
SPLINE
  5
249
330
1F
100
AcDbEntity
  8
0
  6
Continuous
 62
     7
370
    15
100
AcDbSpline
210
0.0
220
0.0
230
1.0
 70
    24
 71
     3
 72
    11
 73
     7
 74
     0
 42
0.00000001
 43
0.00000001
 12
1.0
 22
0.0
 32
0.0
 13
1.0
 23
0.0
 33
0.0
 40
0.0
 40
0.0
 40
0.0
 40
0.0
 40
0.3517323951348737
 40
0.7021699768939228
 40
0.9922902775982151
 40
1.0
 40
1.0
 40
1.0
 40
1.0
 10
212.8431912577058
 20
69.81650536407697
 30
0.0
 10
212.9222916509329
 20
69.81650536407692
 30
0.0
 10
213.0802012494026
 20
69.81650536407683
 30
0.0
 10
213.3231599804305
 20
69.81650536407699
 30
0.0
 10
213.4729297919924
 20
69.81650536407675
 30
0.0
 10
213.5385248601401
 20
69.81650536407687
 30
0.0
 10
213.5402228748704
 20
69.81650536407687
 30
0.0
  0
ARC
  5
24A
330
1F
100
AcDbEntity
  8
0
  6
Continuous
 62
     7
370
    15
100
AcDbCircle
 10
221.6050819947
 20
69.8509119413
 30
0.0
 40
3.140879056115243
100
AcDbArc
 50
49.4763057645
 51
82.8668139743
  0
LINE
  5
24B
330
1F
100
AcDbEntity
  8
0
  6
Continuous
 62
     7
370
    15
100
AcDbLine
 10
231.6643413222
 20
69.8165053641
 30
0.0
 11
233.9941602266
 21
69.8165053641
 31
0.0
  0
SPLINE
  5
24C
330
1F
100
AcDbEntity
  8
0
  6
Continuous
 62
     7
370
    15
100
AcDbSpline
210
0.0
220
0.0
230
1.0
 70
     8
 71
     3
 72
    11
 73
     7
 74
     0
 42
0.00000001
 43
0.00000001
 12
1.0
 22
0.0
 32
0.0
 13
1.0
 23
0.0
 33
0.0
 40
0.0
 40
0.0
 40
0.0
 40
0.0
 40
0.0082248469023646
 40
0.3243953808027217
 40
0.6617846849250354
 40
1.0
 40
1.0
 40
1.0
 40
1.0
 10
222.2778167641069
 20
62.22138629754021
 30
0.0
 10
222.2776973017767
 20
62.21967433228323
 30
0.0
 10
222.2729855997168
 20
62.15215287832203
 30
0.0
 10
222.265782522412
 20
62.00295588174661
 30
0.0
 10
222.2625827286372
 20
61.76010525203294
 30
0.0
 10
222.2687179054753
 20
61.6043030682095
 30
0.0
 10
222.2717892444039
 20
61.52630673249199
 30
0.0
  0
SPLINE
  5
24D
330
1F
100
AcDbEntity
  8
0
  6
Continuous
 62
     7
370
    15
100
AcDbSpline
210
0.0
220
0.0
230
1.0
 70
     8
 71
     3
 72
    11
 73
     7
 74
     0
 42
0.00000001
 43
0.00000001
 12
1.0
 22
0.0
 32
0.0
 13
1.0
 23
0.0
 33
0.0
 40
0.0
 40
0.0
 40
0.0
 40
0.0
 40
0.3382153150749647
 40
0.6756046191972784
 40
0.9917751530976355
 40
1.0
 40
1.0
 40
1.0
 40
1.0
 10
222.2717892444039
 20
78.10670399566128
 30
0.0
 10
222.2687179054753
 20
78.02870765994376
 30
0.0
 10
222.2625827286373
 20
77.87290547612032
 30
0.0
 10
222.2657825224116
 20
77.63005484640662
 30
0.0
 10
222.2729855997175
 20
77.48085784983128
 30
0.0
 10
222.2776973017767
 20
77.41333639587003
 30
0.0
 10
222.2778167641069
 20
77.41162443061306
 30
0.0
  0
SPLINE
  5
24E
330
1F
100
AcDbEntity
  8
0
  6
Continuous
 62
     7
370
    15
100
AcDbSpline
210
0.0
220
0.0
230
1.0
 70
    24
 71
     3
 72
    11
 73
     7
 74
     0
 42
0.00000001
 43
0.00000001
 12
1.0
 22
0.0
 32
0.0
 13
1.0
 23
0.0
 33
0.0
 40
0.0
 40
0.0
 40
0.0
 40
0.0
 40
0.0077087981753517
 40
0.2978260775923753
 40
0.6482631681648899
 40
1.0
 40
1.0
 40
1.0
 40
1.0
 10
230.9855189239885
 20
69.81650536407693
 30
0.0
 10
230.9869930121576
 20
69.81650536407687
 30
0.0
 10
231.0439437699103
 20
69.81650536407486
 30
0.0
 10
231.1788882289821
 20
69.81650536407777
 30
0.0
 10
231.4120429066187
 20
69.81650536407663
 30
0.0
 10
231.5801381341839
 20
69.8165053640768
 30
0.0
 10
231.6643413221742
 20
69.81650536407686
 30
0.0
  0
ELLIPSE
  5
24F
330
1F
100
AcDbEntity
  8
0
  6
Continuous
 62
     7
370
    15
100
AcDbEllipse
 10
222.1569562964
 20
69.6405589077
 30
0.0
 11
0.008162934549773125
 21
3.000645832916731
 31
0.0
210
0.0
220
0.0
230
1.0
 40
0.991431004
 41
5.151887495528571
 42
7.575643265028782
  0
ELLIPSE
  5
250
330
1F
100
AcDbEntity
  8
0
  6
Continuous
 62
     7
370
    15
100
AcDbEllipse
 10
222.1569562964
 20
69.6405589077
 30
0.0
 11
0.008162934549773125
 21
3.000645832916731
 31
0.0
210
0.0
220
0.0
230
1.0
 40
0.991431004
 41
3.188843558605141
 42
5.151887495528589
  0
ARC
  5
251
330
1F
100
AcDbEntity
  8
0
  6
Continuous
 62
     7
370
    15
100
AcDbCircle
 10
208.9524695106
 20
63.4772315993
 30
0.0
 40
3.500226692330195
100
AcDbArc
 50
270.8234803344
 51
89.1765196656
  0
CIRCLE
  5
252
330
1F
100
AcDbEntity
  8
0
  6
Continuous
 62
     7
370
    15
100
AcDbCircle
 10
208.9820590599
 20
63.4871407082
 30
0.0
 40
1.992489989185093
  0
SPLINE
  5
253
330
1F
100
AcDbEntity
  8
0
  6
Continuous
 62
     7
370
    15
100
AcDbSpline
210
0.0
220
0.0
230
1.0
 70
     8
 71
     3
 72
    11
 73
     7
 74
     0
 42
0.00000001
 43
0.00000001
 12
1.0
 22
0.0
 32
0.0
 13
1.0
 23
0.0
 33
0.0
 40
0.0
 40
0.0
 40
0.0
 40
0.0
 40
0.1081098793995859
 40
0.4711575986990515
 40
0.8135809504470257
 40
1.0
 40
1.0
 40
1.0
 40
1.0
 10
208.7898220932389
 20
61.75177154590322
 30
0.0
 10
208.8390837255212
 20
61.77651647637315
 30
0.0
 10
209.0537726374227
 20
61.88435825813199
 30
0.0
 10
209.4752312315765
 20
62.08966669257816
 30
0.0
 10
209.9751696897361
 20
62.31901783378805
 30
0.0
 10
210.2507513330501
 20
62.44082891569686
 30
0.0
 10
210.3478949582482
 20
62.48376780648663
 30
0.0
  0
SPLINE
  5
254
330
1F
100
AcDbEntity
  8
0
  6
Continuous
 62
     7
370
    15
100
AcDbSpline
210
0.0
220
0.0
230
1.0
 70
     8
 71
     3
 72
    10
 73
     6
 74
     0
 42
0.00000001
 43
0.00000001
 12
1.0
 22
0.0
 32
0.0
 13
1.0
 23
0.0
 33
0.0
 40
0.0
 40
0.0
 40
0.0
 40
0.0
 40
0.439116545447767
 40
0.7513666750560608
 40
1.0
 40
1.0
 40
1.0
 40
1.0
 10
210.3478949582482
 20
62.48376780648663
 30
0.0
 10
210.356826578922
 20
62.73078050416281
 30
0.0
 10
210.37210936022
 20
63.15344075523656
 30
0.0
 10
210.434971724535
 20
63.76785409727599
 30
0.0
 10
210.4784518732978
 20
64.0736651461742
 30
0.0
 10
210.4977261340524
 20
64.20922774349286
 30
0.0
  0
SPLINE
  5
255
330
1F
100
AcDbEntity
  8
0
  6
Continuous
 62
     7
370
    15
100
AcDbSpline
210
0.0
220
0.0
230
1.0
 70
     8
 71
     3
 72
    10
 73
     6
 74
     0
 42
0.00000001
 43
0.00000001
 12
1.0
 22
0.0
 32
0.0
 13
1.0
 23
0.0
 33
0.0
 40
0.0
 40
0.0
 40
0.0
 40
0.0
 40
0.4391175577402521
 40
0.7513694051316615
 40
0.9999999999999999
 40
0.9999999999999999
 40
0.9999999999999999
 40
0.9999999999999999
 10
210.4977261340524
 20
64.20922774349286
 30
0.0
 10
210.2836057911551
 20
64.35144997330816
 30
0.0
 10
209.9172267388183
 20
64.5948049253687
 30
0.0
 10
209.425292745383
 20
64.94855976331702
 30
0.0
 10
209.1926284247391
 20
65.12463843984366
 30
0.0
 10
209.0894918954278
 20
65.2026914199157
 30
0.0
  0
SPLINE
  5
256
330
1F
100
AcDbEntity
  8
0
  6
Continuous
 62
     7
370
    15
100
AcDbSpline
210
0.0
220
0.0
230
1.0
 70
     8
 71
     3
 72
    11
 73
     7
 74
     0
 42
0.00000001
 43
0.00000001
 12
1.0
 22
0.0
 32
0.0
 13
1.0
 23
0.0
 33
0.0
 40
0.0
 40
0.0
 40
0.0
 40
0.0
 40
0.1864191513441876
 40
0.5288423978357121
 40
0.8918901198052953
 40
1.0
 40
1.0
 40
1.0
 40
1.0
 10
209.0894918954278
 20
65.2026914199157
 30
0.0
 10
208.992348289146
 20
65.15975233197194
 30
0.0
 10
208.7167668517773
 20
65.03794075807889
 30
0.0
 10
208.2168280067654
 20
64.80859051969044
 30
0.0
 10
207.7953695812546
 20
64.60328185646688
 30
0.0
 10
207.5806806639422
 20
64.49544008698516
 30
0.0
 10
207.5314190304185
 20
64.4706951593323
 30
0.0
  0
SPLINE
  5
257
330
1F
100
AcDbEntity
  8
0
  6
Continuous
 62
     7
370
    15
100
AcDbSpline
210
0.0
220
0.0
230
1.0
 70
     8
 71
     3
 72
    10
 73
     6
 74
     0
 42
0.00000001
 43
0.00000001
 12
1.0
 22
0.0
 32
0.0
 13
1.0
 23
0.0
 33
0.0
 40
0.0
 40
0.0
 40
0.0
 40
0.0
 40
0.4391166524513254
 40
0.7513669245675534
 40
1.0
 40
1.0
 40
1.0
 40
1.0
 10
207.5314190304185
 20
64.4706951593323
 30
0.0
 10
207.4974499712688
 20
64.2236821242453
 30
0.0
 10
207.4393259457706
 20
63.80102125847002
 30
0.0
 10
207.3954933500278
 20
63.18660942297849
 30
0.0
 10
207.385858757578
 20
62.8807979135938
 30
0.0
 10
207.3815878546144
 20
62.74523522232606
 30
0.0
  0
SPLINE
  5
258
330
1F
100
AcDbEntity
  8
0
  6
Continuous
 62
     7
370
    15
100
AcDbSpline
210
0.0
220
0.0
230
1.0
 70
     8
 71
     3
 72
    10
 73
     6
 74
     0
 42
0.00000001
 43
0.00000001
 12
1.0
 22
0.0
 32
0.0
 13
1.0
 23
0.0
 33
0.0
 40
0.0
 40
0.0
 40
0.0
 40
0.0
 40
0.4391158523260089
 40
0.7513679217478085
 40
1.0
 40
1.0
 40
1.0
 40
1.0
 10
207.3815878546144
 20
62.74523522232606
 30
0.0
 10
207.5706664035135
 20
62.6030128313615
 30
0.0
 10
207.8941973249798
 20
62.35965713887397
 30
0.0
 10
208.4051752332293
 20
62.00590238684347
 30
0.0
 10
208.6716829563885
 20
61.82982443367413
 30
0.0
 10
208.7898220932389
 20
61.75177154590322
 30
0.0
  0
LINE
  5
259
330
1F
100
AcDbEntity
  8
0
  6
Continuous
 62
     7
370
    15
100
AcDbLine
 10
210.0429054415
 20
64.2092277435
 30
0.0
 11
210.4977261341
 21
64.2092277435
 31
0.0
  0
LINE
  5
25A
330
1F
100
AcDbEntity
  8
0
  6
Continuous
 62
     7
370
    15
100
AcDbLine
 10
210.0429054415
 20
64.2092277435
 30
0.0
 11
209.3387883222
 21
64.7059593489
 31
0.0
  0
LINE
  5
25B
330
1F
100
AcDbEntity
  8
0
  6
Continuous
 62
     7
370
    15
100
AcDbLine
 10
209.3387883222
 20
64.7059593489
 30
0.0
 11
208.8103782451
 21
65.0787337822
 31
0.0
  0
LINE
  5
25C
330
1F
100
AcDbEntity
  8
0
  6
Continuous
 62
     7
370
    15
100
AcDbLine
 10
208.6016353285
 20
61.8770390888
 30
0.0
 11
209.1140341079
 21
62.1177696762
 31
0.0
  0
LINE
  5
25D
330
1F
100
AcDbEntity
  8
0
  6
Continuous
 62
     7
370
    15
100
AcDbLine
 10
209.1140341079
 20
62.1177696762
 30
0.0
 11
209.8930668151
 21
62.4837678065
 31
0.0
  0
LINE
  5
25E
330
1F
100
AcDbEntity
  8
0
  6
Continuous
 62
     7
370
    15
100
AcDbLine
 10
209.8930668151
 20
62.4837678065
 30
0.0
 11
210.3478949582
 21
62.4837678065
 31
0.0
  0
LINE
  5
25F
330
1F
100
AcDbEntity
  8
0
  6
Continuous
 62
     7
370
    15
100
AcDbLine
 10
209.8930668151
 20
62.4837678065
 30
0.0
 11
209.9679898536
 21
63.3464980078
 31
0.0
  0
LINE
  5
260
330
1F
100
AcDbEntity
  8
0
  6
Continuous
 62
     7
370
    15
100
AcDbLine
 10
209.9679898536
 20
63.3464980078
 30
0.0
 11
210.0429054415
 21
64.2092277435
 31
0.0
  0
ARC
  5
261
330
1F
100
AcDbEntity
  8
0
  6
Continuous
 62
     7
370
    15
100
AcDbCircle
 10
208.4696197876
 20
63.4783429577
 30
0.0
 40
1.504159547913031
100
AcDbArc
 50
354.9713671857
 51
54.7010047892
  0
ARC
  5
262
330
1F
100
AcDbEntity
  8
0
  6
Continuous
 62
     7
370
    15
100
AcDbCircle
 10
208.473796027
 20
63.473839858
 30
0.0
 40
1.499610328834029
100
AcDbArc
 50
295.273286392
 51
355.1287694128
  0
ARC
  5
263
330
1F
100
AcDbEntity
  8
0
  6
Continuous
 62
     7
370
    15
100
AcDbCircle
 10
208.4847315421
 20
63.4565090426
 30
0.0
 40
1.479271716304249
100
AcDbArc
 50
267.4248812318
 51
295.1768568618
  0
ARC
  5
264
330
1F
100
AcDbEntity
  8
0
  6
Continuous
 62
     7
370
    15
100
AcDbCircle
 10
208.4842375131
 20
63.4957285368
 30
0.0
 40
1.48152479011648
100
AcDbArc
 50
54.773868924
 51
87.5394290229
  0
LWPOLYLINE
  5
265
330
1F
100
AcDbEntity
  8
0
  6
Continuous
 62
     7
370
    15
100
AcDbPolyline
 90
        3
 70
   128
 43
0.0
 10
168.433841697
 20
69.5078064477
 10
168.4252996063
 20
70.0268165551
 10
168.4913042998
 20
70.4759985697
  0
LWPOLYLINE
  5
266
330
1F
100
AcDbEntity
  8
0
  6
Continuous
 62
     7
370
    15
100
AcDbPolyline
 90
        3
 70
   128
 43
0.0
 10
171.7079397356
 20
66.830557133
 10
171.5698618507
 20
66.8203556584
 10
170.8484184062
 20
66.871055928
  0
CIRCLE
  5
267
330
1F
100
AcDbEntity
  8
0
  6
Continuous
 62
     7
370
    15
100
AcDbCircle
 10
171.4179179585
 20
69.8165053641
 30
0.0
 40
2.860000000000005
  0
CIRCLE
  5
268
330
1F
100
AcDbEntity
  8
0
  6
Continuous
 62
     7
370
    15
100
AcDbCircle
 10
171.4179179585
 20
69.8165053641
 30
0.0
 40
2.500000000000002
  0
ELLIPSE
  5
269
330
1F
100
AcDbEntity
  8
0
  6
Continuous
 62
     7
370
    15
100
AcDbEllipse
 10
230.3151634344
 20
69.8165053641
 30
0.0
 11
256.5469124811992
 21
4.263256414560601E-14
 31
0.0
210
0.0
220
0.0
230
1.0
 40
0.1227845609
 41
1.699544563023993
 42
1.726879865457706
  0
SPLINE
  5
26A
330
1F
100
AcDbEntity
  8
0
  6
Continuous
 62
     7
370
    15
100
AcDbSpline
210
0.0
220
0.0
230
1.0
 70
     8
 71
     3
 72
    20
 73
    16
 74
     0
 42
0.00000001
 43
0.00000001
 12
1.0
 22
0.0
 32
0.0
 13
1.0
 23
0.0
 33
0.0
 40
0.0
 40
0.0
 40
0.0
 40
0.0
 40
0.2500000000000022
 40
0.2500000000000022
 40
0.3750000000000018
 40
0.3750000000000018
 40
0.5000000000000014
 40
0.5000000000000014
 40
0.6250000000000011
 40
0.6250000000000011
 40
0.7500000000000007
 40
0.7500000000000007
 40
0.8750000000000003
 40
0.8750000000000003
 40
1.0
 40
1.0
 40
1.0
 40
1.0
 10
190.434802954336
 20
100.9335810953988
 30
0.0
 10
189.8329004609015
 20
100.9219512494027
 30
0.0
 10
189.2575942166519
 20
100.8966779447809
 30
0.0
 10
188.4339280872087
 20
100.8325954665526
 30
0.0
 10
188.1681188177623
 20
100.8068052284616
 30
0.0
 10
187.6673440535451
 20
100.746321622175
 30
0.0
 10
187.4302366962236
 20
100.7114766625889
 30
0.0
 10
186.9827526445198
 20
100.6306645533869
 30
0.0
 10
186.7717477991189
 20
100.5843693598253
 30
0.0
 10
186.390386864615
 20
100.4816774428863
 30
0.0
 10
186.21811694121
 20
100.425014912769
 30
0.0
 10
185.9096747278663
 20
100.299453946683
 30
0.0
 10
185.7728219865511
 20
100.2300349856546
 30
0.0
 10
185.5410046929769
 20
100.0799419802693
 30
0.0
 10
185.4456482302691
 20
99.99934078662199
 30
0.0
 10
185.3704640570325
 20
99.91264419589244
 30
0.0
  0
ELLIPSE
  5
26B
330
1F
100
AcDbEntity
  8
0
  6
Continuous
 62
     7
370
    15
100
AcDbEllipse
 10
187.8621383854
 20
69.8165053641
 30
0.0
 11
0.0
 21
31.5
 31
0.0
210
0.0
220
0.0
230
1.0
 40
0.2679491924
 41
0.2996733196630455
 42
2.841919333926748
  0
SPLINE
  5
26C
330
1F
100
AcDbEntity
  8
0
  6
Continuous
 62
     7
370
    15
100
AcDbSpline
210
0.0
220
0.0
230
1.0
 70
     8
 71
     3
 72
    20
 73
    16
 74
     0
 42
0.00000001
 43
0.00000001
 12
1.0
 22
0.0
 32
0.0
 13
1.0
 23
0.0
 33
0.0
 40
0.0
 40
0.0
 40
0.0
 40
0.0
 40
0.2500000000000008
 40
0.2500000000000008
 40
0.3750000000000007
 40
0.3750000000000007
 40
0.5000000000000006
 40
0.5000000000000006
 40
0.6250000000000004
 40
0.6250000000000004
 40
0.7500000000000002
 40
0.7500000000000002
 40
0.8750000000000001
 40
0.8750000000000001
 40
1.0
 40
1.0
 40
1.0
 40
1.0
 10
185.3704640570325
 20
39.72036653226083
 30
0.0
 10
185.5208434175759
 20
39.54696065022535
 30
0.0
 10
185.7492752996143
 20
39.39948516262096
 30
0.0
 10
186.2132148039691
 20
39.20968306527983
 30
0.0
 10
186.3883234151439
 20
39.15198345971658
 30
0.0
 10
186.7685990608445
 20
39.0493960050242
 30
0.0
 10
186.9750057879268
 20
39.003953666889
 30
0.0
 10
187.420866942872
 20
38.92302554285701
 30
0.0
 10
187.6625019534862
 20
38.88733996110778
 30
0.0
 10
188.1651249193309
 20
38.82650209794786
 30
0.0
 10
188.4269182728887
 20
38.801077290378
 30
0.0
 10
188.9712471573336
 20
38.75849832405586
 30
0.0
 10
189.2554470823127
 20
38.74127662671478
 30
0.0
 10
189.8377022433564
 20
38.71463511230522
 30
0.0
 10
190.1337672294895
 20
38.70524618802292
 30
0.0
 10
190.434802954336
 20
38.69942963275444
 30
0.0
  0
ELLIPSE
  5
26D
330
1F
100
AcDbEntity
  8
0
  6
Continuous
 62
     7
370
    15
100
AcDbEllipse
 10
230.3151634344
 20
69.8165053641
 30
0.0
 11
256.5469124811992
 21
4.263256414560601E-14
 31
0.0
210
0.0
220
0.0
230
1.0
 40
0.1227845609
 41
4.556305441721884
 42
4.583640744155597
  0
ELLIPSE
  5
26E
330
1F
100
AcDbEntity
  8
0
  6
Continuous
 62
     7
370
    15
100
AcDbEllipse
 10
234.4867505519
 20
69.8165053641
 30
0.0
 11
39.84277411711716
 21
31.10509843531041
 31
0.0
210
0.0
220
0.0
230
1.0
 40
0.1247957253
 41
3.30010347180639
 42
3.428851708035483
  0
ELLIPSE
  5
26F
330
1F
100
AcDbEntity
  8
0
  6
Continuous
 62
     7
370
    15
100
AcDbEllipse
 10
234.4867505519
 20
69.8165053641
 30
0.0
 11
39.8427741171171
 21
-31.10509843531036
 31
0.0
210
0.0
220
0.0
230
1.0
 40
0.1247957253
 41
2.854333599144207
 42
2.983081835373312
  0
SPLINE
  5
270
330
1F
100
AcDbEntity
  8
0
  6
Continuous
 62
     7
370
    15
100
AcDbSpline
210
0.0
220
0.0
230
1.0
 70
     8
 71
     3
 72
    12
 73
     8
 74
     0
 42
0.00000001
 43
0.00000001
 12
1.0
 22
0.0
 32
0.0
 13
1.0
 23
0.0
 33
0.0
 40
0.0
 40
0.0
 40
0.0
 40
0.0
 40
0.2499999999999996
 40
0.2499999999999996
 40
0.4999999999999991
 40
0.4999999999999991
 40
1.0
 40
1.0
 40
1.0
 40
1.0
 10
144.945674772055
 20
79.20457179541249
 30
0.0
 10
144.8825947335616
 20
79.20457179541249
 30
0.0
 10
144.8234461113803
 20
79.22993611462746
 30
0.0
 10
144.7249735613112
 20
79.30410097500038
 30
0.0
 10
144.6859369493265
 20
79.35062131555446
 30
0.0
 10
144.5860404825474
 20
79.50076365839972
 30
0.0
 10
144.5436196014807
 20
79.61245686537185
 30
0.0
 10
144.5126620701628
 20
79.7258746847616
 30
0.0
  0
LINE
  5
271
330
1F
100
AcDbEntity
  8
0
  6
Continuous
 62
     7
370
    15
100
AcDbLine
 10
147.8901611707
 20
79.2045721923
 30
0.0
 11
144.9456749549
 21
79.2045721923
 31
0.0
  0
SPLINE
  5
272
330
1F
100
AcDbEntity
  8
0
  6
Continuous
 62
     7
370
    15
100
AcDbSpline
210
0.0
220
0.0
230
1.0
 70
     8
 71
     3
 72
    12
 73
     8
 74
     0
 42
0.00000001
 43
0.00000001
 12
1.0
 22
0.0
 32
0.0
 13
1.0
 23
0.0
 33
0.0
 40
0.0
 40
0.0
 40
0.0
 40
0.0
 40
0.4999999999999981
 40
0.4999999999999981
 40
0.749999999999999
 40
0.749999999999999
 40
1.0
 40
1.0
 40
1.0
 40
1.0
 10
148.3231738468143
 20
79.7258746847616
 30
0.0
 10
148.2924516048952
 20
79.61331888535241
 30
0.0
 10
148.24961439036
 20
79.50056102561285
 30
0.0
 10
148.1501873661602
 20
79.35102013981648
 30
0.0
 10
148.1104351713436
 20
79.30372740810968
 30
0.0
 10
148.0123937144853
 20
79.22999111478823
 30
0.0
 10
147.9528376588979
 20
79.20457179541249
 30
0.0
 10
147.8901611449221
 20
79.20457179541249
 30
0.0
  0
ELLIPSE
  5
273
330
1F
100
AcDbEntity
  8
0
  6
Continuous
 62
     7
370
    15
100
AcDbEllipse
 10
132.0707637691
 20
69.8165053641
 30
0.0
 11
14.75368316065601
 21
31.09325491558121
 31
0.0
210
0.0
220
0.0
230
1.0
 40
0.3419987131
 41
5.193281737408617
 42
6.124043104552322
  0
SPLINE
  5
274
330
1F
100
AcDbEntity
  8
0
  6
Continuous
 62
     7
370
    15
100
AcDbSpline
210
0.0
220
0.0
230
1.0
 70
     8
 71
     3
 72
    12
 73
     8
 74
     0
 42
0.00000001
 43
0.00000001
 12
1.0
 22
0.0
 32
0.0
 13
1.0
 23
0.0
 33
0.0
 40
0.0
 40
0.0
 40
0.0
 40
0.0
 40
0.2500000000000023
 40
0.2500000000000023
 40
0.5000000000000047
 40
0.5000000000000047
 40
1.0
 40
1.0
 40
1.0
 40
1.0
 10
147.8901611449221
 20
99.88499732294964
 30
0.0
 10
147.9532411834155
 20
99.88499732294964
 30
0.0
 10
148.0123898055969
 20
99.8770913967372
 30
0.0
 10
148.1108623556659
 20
99.85376623530097
 30
0.0
 10
148.1498989676506
 20
99.83905344546926
 30
0.0
 10
148.2497954344297
 20
99.79109764473833
 30
0.0
 10
148.2922163154963
 20
99.75483548815828
 30
0.0
 10
148.3231738468143
 20
99.71724782419378
 30
0.0
  0
LINE
  5
275
330
1F
100
AcDbEntity
  8
0
  6
Continuous
 62
     7
370
    15
100
AcDbLine
 10
144.9456749549
 20
99.884997881
 30
0.0
 11
147.8901611707
 21
99.884997881
 31
0.0
  0
SPLINE
  5
276
330
1F
100
AcDbEntity
  8
0
  6
Continuous
 62
     7
370
    15
100
AcDbSpline
210
0.0
220
0.0
230
1.0
 70
     8
 71
     3
 72
    12
 73
     8
 74
     0
 42
0.00000001
 43
0.00000001
 12
1.0
 22
0.0
 32
0.0
 13
1.0
 23
0.0
 33
0.0
 40
0.0
 40
0.0
 40
0.0
 40
0.0
 40
0.4999999999999981
 40
0.4999999999999981
 40
0.749999999999999
 40
0.749999999999999
 40
1.0
 40
1.0
 40
1.0
 40
1.0
 10
144.5126620701628
 20
99.71724782419378
 30
0.0
 10
144.5433843120819
 20
99.75454980714682
 30
0.0
 10
144.586221526617
 20
99.79116163919322
 30
0.0
 10
144.6856485508168
 20
99.83892642247841
 30
0.0
 10
144.7254007456335
 20
99.85388393796077
 30
0.0
 10
144.8234422024917
 20
99.87707388372992
 30
0.0
 10
144.8829982580791
 20
99.88499732294964
 30
0.0
 10
144.945674772055
 20
99.88499732294964
 30
0.0
  0
ELLIPSE
  5
277
330
1F
100
AcDbEntity
  8
0
  6
Continuous
 62
     7
370
    15
100
AcDbEllipse
 10
160.7650721479
 20
69.8165053641
 30
0.0
 11
-14.75368316065601
 21
31.09325491558118
 31
0.0
210
0.0
220
0.0
230
1.0
 40
0.3419987131
 41
0.1591422026273045
 42
1.089903569770981
  0
SPLINE
  5
278
330
1F
100
AcDbEntity
  8
0
  6
Continuous
 62
     7
370
    15
100
AcDbSpline
210
0.0
220
0.0
230
1.0
 70
     8
 71
     3
 72
    12
 73
     8
 74
     0
 42
0.00000001
 43
0.00000001
 12
1.0
 22
0.0
 32
0.0
 13
1.0
 23
0.0
 33
0.0
 40
0.0
 40
0.0
 40
0.0
 40
0.0
 40
0.2500000000000018
 40
0.2500000000000018
 40
0.5000000000000037
 40
0.5000000000000037
 40
1.0
 40
1.0
 40
1.0
 40
1.0
 10
144.945674772055
 20
39.74801340520348
 30
0.0
 10
144.8826178171572
 20
39.74801340520349
 30
0.0
 10
144.8234876674116
 20
39.75591373628303
 30
0.0
 10
144.7250401168783
 20
39.77922448428806
 30
0.0
 10
144.6860078786902
 20
39.79392961057171
 30
0.0
 10
144.5861179942333
 20
39.84186313875837
 30
0.0
 10
144.543819020624
 20
39.87793311152312
 30
0.0
 10
144.5126620701627
 20
39.91576290395933
 30
0.0
  0
LINE
  5
279
330
1F
100
AcDbEntity
  8
0
  6
Continuous
 62
     7
370
    15
100
AcDbLine
 10
147.8901611707
 20
39.7480128472
 30
0.0
 11
144.9456749549
 21
39.7480128472
 31
0.0
  0
SPLINE
  5
27A
330
1F
100
AcDbEntity
  8
0
  6
Continuous
 62
     7
370
    15
100
AcDbSpline
210
0.0
220
0.0
230
1.0
 70
     8
 71
     3
 72
    12
 73
     8
 74
     0
 42
0.00000001
 43
0.00000001
 12
1.0
 22
0.0
 32
0.0
 13
1.0
 23
0.0
 33
0.0
 40
0.0
 40
0.0
 40
0.0
 40
0.0
 40
0.5
 40
0.5
 40
0.75
 40
0.75
 40
1.0
 40
1.0
 40
1.0
 40
1.0
 10
148.3231738468143
 20
39.91576290395933
 30
0.0
 10
148.2920286488522
 20
39.87794738103914
 30
0.0
 10
148.2497543825178
 20
39.84188052295555
 30
0.0
 10
148.1498088486925
 20
39.79392045794427
 30
0.0
 10
148.1100785439884
 20
39.77905948404662
 30
0.0
 10
148.0131904939822
 20
39.75610833791547
 30
0.0
 10
147.9531252522357
 20
39.74801340520342
 30
0.0
 10
147.8901611449221
 20
39.74801340520342
 30
0.0
  0
ELLIPSE
  5
27B
330
1F
100
AcDbEntity
  8
0
  6
Continuous
 62
     7
370
    15
100
AcDbEllipse
 10
132.0707637691
 20
69.8165053641
 30
0.0
 11
-14.75368316065615
 21
31.09325491558118
 31
0.0
210
0.0
220
0.0
230
1.0
 40
0.3419987131
 41
3.300734856217124
 42
4.231496223360775
  0
SPLINE
  5
27C
330
1F
100
AcDbEntity
  8
0
  6
Continuous
 62
     7
370
    15
100
AcDbSpline
210
0.0
220
0.0
230
1.0
 70
     8
 71
     3
 72
    12
 73
     8
 74
     0
 42
0.00000001
 43
0.00000001
 12
1.0
 22
0.0
 32
0.0
 13
1.0
 23
0.0
 33
0.0
 40
0.0
 40
0.0
 40
0.0
 40
0.0
 40
0.2499999999999991
 40
0.2499999999999991
 40
0.4999999999999982
 40
0.4999999999999982
 40
1.0
 40
1.0
 40
1.0
 40
1.0
 10
147.8901611449221
 20
60.42843893274035
 30
0.0
 10
147.9532180998199
 20
60.42843893274035
 30
0.0
 10
148.0123482495654
 20
60.4030925793596
 30
0.0
 10
148.1107958000987
 20
60.32897319722014
 30
0.0
 10
148.1498280382868
 20
60.28247668252216
 30
0.0
 10
148.2497179227438
 20
60.13240217551359
 30
0.0
 10
148.2920168963531
 20
60.0212844663987
 30
0.0
 10
148.3231738468144
 20
59.90713604339123
 30
0.0
  0
LINE
  5
27D
330
1F
100
AcDbEntity
  8
0
  6
Continuous
 62
     7
370
    15
100
AcDbLine
 10
144.9456749549
 20
60.4284385358
 30
0.0
 11
147.8901611707
 21
60.4284385358
 31
0.0
  0
SPLINE
  5
27E
330
1F
100
AcDbEntity
  8
0
  6
Continuous
 62
     7
370
    15
100
AcDbSpline
210
0.0
220
0.0
230
1.0
 70
     8
 71
     3
 72
    12
 73
     8
 74
     0
 42
0.00000001
 43
0.00000001
 12
1.0
 22
0.0
 32
0.0
 13
1.0
 23
0.0
 33
0.0
 40
0.0
 40
0.0
 40
0.0
 40
0.0
 40
0.5000000000000064
 40
0.5000000000000064
 40
0.7500000000000032
 40
0.7500000000000032
 40
1.0
 40
1.0
 40
1.0
 40
1.0
 10
144.5126620701627
 20
59.90713604339121
 30
0.0
 10
144.5438072681249
 20
60.02124140925653
 30
0.0
 10
144.5860815344593
 20
60.13234773647532
 30
0.0
 10
144.6860270682846
 20
60.28250534390556
 30
0.0
 10
144.7257573729887
 20
60.32949803552291
 30
0.0
 10
144.8226454229949
 20
60.40247362006139
 30
0.0
 10
144.8827106647414
 20
60.42843893274044
 30
0.0
 10
144.945674772055
 20
60.42843893274044
 30
0.0
  0
ELLIPSE
  5
27F
330
1F
100
AcDbEntity
  8
0
  6
Continuous
 62
     7
370
    15
100
AcDbEllipse
 10
160.7650721479
 20
69.8165053641
 30
0.0
 11
14.75368316065618
 21
31.09325491558119
 31
0.0
210
0.0
220
0.0
230
1.0
 40
0.3419987131
 41
2.051689083818825
 42
2.982450450962504
  0
SPLINE
  5
280
330
1F
100
AcDbEntity
  8
0
  6
Continuous
 62
     7
370
    15
100
AcDbSpline
210
0.0
220
0.0
230
1.0
 70
     8
 71
     3
 72
    68
 73
    64
 74
     0
 42
0.00000001
 43
0.00000001
 12
1.0
 22
0.0
 32
0.0
 13
1.0
 23
0.0
 33
0.0
 40
-0.0625000000000001
 40
-0.0625000000000001
 40
0.0
 40
0.0
 40
0.0312499999999999
 40
0.0312499999999999
 40
0.0624999999999999
 40
0.0624999999999999
 40
0.0937499999999998
 40
0.0937499999999998
 40
0.1249999999999998
 40
0.1249999999999998
 40
0.1562499999999997
 40
0.1562499999999997
 40
0.1874999999999997
 40
0.1874999999999997
 40
0.2187499999999997
 40
0.2187499999999997
 40
0.2499999999999997
 40
0.2499999999999997
 40
0.2812499999999996
 40
0.2812499999999996
 40
0.3124999999999996
 40
0.3124999999999996
 40
0.3437499999999995
 40
0.3437499999999995
 40
0.3749999999999994
 40
0.3749999999999994
 40
0.4062499999999994
 40
0.4062499999999994
 40
0.4374999999999993
 40
0.4374999999999993
 40
0.4687499999999993
 40
0.4687499999999993
 40
0.4999999999999992
 40
0.4999999999999992
 40
0.5312499999999991
 40
0.5312499999999991
 40
0.5624999999999992
 40
0.5624999999999992
 40
0.5937499999999992
 40
0.5937499999999992
 40
0.6249999999999993
 40
0.6249999999999993
 40
0.6562499999999993
 40
0.6562499999999993
 40
0.6874999999999994
 40
0.6874999999999994
 40
0.7187499999999994
 40
0.7187499999999994
 40
0.7499999999999996
 40
0.7499999999999996
 40
0.7812499999999996
 40
0.7812499999999996
 40
0.8124999999999997
 40
0.8124999999999997
 40
0.8437499999999997
 40
0.8437499999999997
 40
0.8749999999999998
 40
0.8749999999999998
 40
0.9062499999999998
 40
0.9062499999999998
 40
0.9374999999999999
 40
0.9374999999999999
 40
1.0
 40
1.0
 40
1.03125
 40
1.03125
 10
168.4179179584885
 20
70.2131348170066
 30
0.0
 10
168.4179179584885
 20
69.61819063761165
 30
0.0
 10
168.4373886315888
 20
69.423212256809
 30
0.0
 10
168.5136576577091
 20
69.0396484647381
 30
0.0
 10
168.5713897647235
 20
68.84906725118506
 30
0.0
 10
168.722008675702
 20
68.48581667051984
 30
0.0
 10
168.8141621400122
 20
68.31354939968267
 30
0.0
 10
169.031862648272
 20
67.9875272204827
 30
0.0
 10
169.1585030494074
 20
67.83325160388584
 30
0.0
 10
169.4351217555964
 20
67.55668890549293
 30
0.0
 10
169.5860766726039
 20
67.43254652523457
 30
0.0
 10
169.9139647008325
 20
67.21323303088705
 30
0.0
 10
170.0884136700462
 20
67.12010307590229
 30
0.0
 10
170.4493452727945
 20
66.97044951339736
 30
0.0
 10
170.6384970108038
 20
66.91280279113187
 30
0.0
 10
171.0257916960615
 20
66.83569630609742
 30
0.0
 10
171.2205132406108
 20
66.81661254322276
 30
0.0
 10
171.6120514781256
 20
66.81639907665874
 30
0.0
 10
171.8109178747029
 20
66.83589430351408
 30
0.0
 10
172.195758085929
 20
66.91246404814538
 30
0.0
 10
172.3828173372755
 20
66.96911713957203
 30
0.0
 10
172.7461620544307
 20
67.1193924384049
 30
0.0
 10
172.9217052774509
 20
67.21327542038982
 30
0.0
 10
173.24668670369
 20
67.43033954482733
 30
0.0
 10
173.3981996022424
 20
67.55427037393804
 30
0.0
 10
173.6784037003527
 20
67.83422719237001
 30
0.0
 10
173.8025078003292
 20
67.98568587764822
 30
0.0
 10
174.0198161190887
 20
68.31041948752076
 30
0.0
 10
174.1138141199731
 20
68.48578468659149
 30
0.0
 10
174.2644607910451
 20
68.84910289487641
 30
0.0
 10
174.3212628211644
 20
69.03609496814475
 30
0.0
 10
174.3981468238072
 20
69.42066740729878
 30
0.0
 10
174.4178460461123
 20
69.61957510758074
 30
0.0
 10
174.4179894685836
 20
70.01123849211072
 30
0.0
 10
174.3990706095871
 20
70.2059464387417
 30
0.0
 10
174.3223786078493
 20
70.59306432262572
 30
0.0
 10
174.2648404401961
 20
70.78253545324549
 30
0.0
 10
174.115475951845
 20
71.14366873853747
 30
0.0
 10
174.0225635663098
 20
71.31808824932608
 30
0.0
 10
173.803463438458
 20
71.64628750045617
 30
0.0
 10
173.6794300792919
 20
71.79736585749
 30
0.0
 10
173.403126734102
 20
72.07420142070904
 30
0.0
 10
173.2489783926044
 20
72.2009646212966
 30
0.0
 10
172.9231141539758
 20
72.41896817376617
 30
0.0
 10
172.7509530839847
 20
72.51124881579848
 30
0.0
 10
172.3879996073381
 20
72.66212770566906
 30
0.0
 10
172.1973579241189
 20
72.72007395709808
 30
0.0
 10
171.8138484188124
 20
72.79668594669073
 30
0.0
 10
171.6189553669205
 20
72.81631397161037
 30
0.0
 10
171.2226338544207
 20
72.81669399816633
 30
0.0
 10
171.0272710150118
 20
72.79738164303161
 30
0.0
 10
170.6436699379032
 20
72.72146120324253
 30
0.0
 10
170.4531776458675
 20
72.66395565852469
 30
0.0
 10
170.0896116224667
 20
72.51359626499794
 30
0.0
 10
169.917252269771
 20
72.42157747231681
 30
0.0
 10
169.5911315211027
 20
72.20423430820075
 30
0.0
 10
169.436707037902
 20
72.07771549576388
 30
0.0
 10
169.159837508027
 20
71.80128259357619
 30
0.0
 10
169.0355877620557
 20
71.6504529898896
 30
0.0
 10
168.8160888940999
 20
71.32294042034802
 30
0.0
 10
168.7226911243939
 20
71.14839137324591
 30
0.0
 10
168.4977298896936
 20
70.60718466533973
 30
0.0
 10
168.4179179584885
 20
70.2131348170066
 30
0.0
 10
168.4179179584885
 20
69.61819063761165
 30
0.0
  0
ELLIPSE
  5
281
330
1F
100
AcDbEntity
  8
0
  6
Continuous
 62
     7
370
    15
100
AcDbEllipse
 10
183.4223650798
 20
69.8165053641
 30
0.0
 11
0.0
 21
2.5
 31
0.0
210
0.0
220
0.0
230
1.0
 40
0.3086063289
 41
0.0
 42
6.283185307179586
  0
LINE
  5
282
330
1F
100
AcDbEntity
  8
0
  6
Continuous
 62
     7
370
    15
100
AcDbLine
 10
134.4179179585
 20
38.8165058707
 30
0.0
 11
134.4179179585
 21
100.8165048574
 31
0.0
  0
SPLINE
  5
283
330
1F
100
AcDbEntity
  8
0
  6
Continuous
 62
     7
370
    15
100
AcDbSpline
210
0.0
220
0.0
230
1.0
 70
     8
 71
     3
 72
    12
 73
     8
 74
     0
 42
0.00000001
 43
0.00000001
 12
1.0
 22
0.0
 32
0.0
 13
1.0
 23
0.0
 33
0.0
 40
0.0
 40
0.0
 40
0.0
 40
0.0
 40
0.5000000000000006
 40
0.5000000000000006
 40
0.7500000000000002
 40
0.7500000000000002
 40
1.0
 40
1.0
 40
1.0
 40
1.0
 10
133.601405672032
 20
47.96171166160076
 30
0.0
 10
133.6578421729392
 20
47.96029378025901
 30
0.0
 10
133.7269268036279
 20
47.95872944401071
 30
0.0
 10
133.8457290753459
 20
47.95578525203625
 30
0.0
 10
133.885914350816
 20
47.95474704893888
 30
0.0
 10
133.9592953982198
 20
47.95281315372424
 30
0.0
 10
133.9927049619625
 20
47.95191826643543
 30
0.0
 10
134.0229410696189
 20
47.9511344761631
 30
0.0
  0
SPLINE
  5
284
330
1F
100
AcDbEntity
  8
0
  6
Continuous
 62
     7
370
    15
100
AcDbSpline
210
0.0
220
0.0
230
1.0
 70
     8
 71
     3
 72
    16
 73
    12
 74
     0
 42
0.00000001
 43
0.00000001
 12
1.0
 22
0.0
 32
0.0
 13
1.0
 23
0.0
 33
0.0
 40
0.0
 40
0.0
 40
0.0
 40
0.0
 40
0.0625000000000014
 40
0.0625000000000014
 40
0.1250000000000027
 40
0.1250000000000027
 40
0.2500000000000002
 40
0.2500000000000002
 40
0.5000000000000001
 40
0.5000000000000001
 40
1.0
 40
1.0
 40
1.0
 40
1.0
 10
134.0229410695817
 20
47.95113447618735
 30
0.0
 10
134.0345214771696
 20
47.95083428507598
 30
0.0
 10
134.0478310039309
 20
47.949506536817
 30
0.0
 10
134.0771324340171
 20
47.94280786204198
 30
0.0
 10
134.0919465339014
 20
47.9374496789363
 30
0.0
 10
134.1277749356042
 20
47.92040402976895
 30
0.0
 10
134.1418945599673
 20
47.9089414919932
 30
0.0
 10
134.1763987040557
 20
47.87737816662098
 30
0.0
 10
134.1875032547604
 20
47.85948086757571
 30
0.0
 10
134.2136794319765
 20
47.80931944996145
 30
0.0
 10
134.2179179584886
 20
47.78157503776488
 30
0.0
 10
134.2179179584886
 20
47.75691087583533
 30
0.0
  0
LINE
  5
285
330
1F
100
AcDbEntity
  8
0
  6
Continuous
 62
     7
370
    15
100
AcDbLine
 10
134.2179179635
 20
62.7946181362
 30
0.0
 11
134.2179179635
 21
47.276684842
 31
0.0
  0
SPLINE
  5
286
330
1F
100
AcDbEntity
  8
0
  6
Continuous
 62
     7
370
    15
100
AcDbSpline
210
0.0
220
0.0
230
1.0
 70
     8
 71
     3
 72
    16
 73
    12
 74
     0
 42
0.00000001
 43
0.00000001
 12
1.0
 22
0.0
 32
0.0
 13
1.0
 23
0.0
 33
0.0
 40
0.0
 40
0.0
 40
0.0
 40
0.0
 40
0.4999999999999998
 40
0.4999999999999998
 40
0.7500000000000013
 40
0.7500000000000013
 40
0.8750000000000011
 40
0.8750000000000011
 40
0.9375000000000006
 40
0.9375000000000006
 40
1.0
 40
1.0
 40
1.0
 40
1.0
 10
134.2179179584886
 20
62.79461803832645
 30
0.0
 10
134.2179179584886
 20
62.90831058245434
 30
0.0
 10
134.2137716834106
 20
63.02263074380384
 30
0.0
 10
134.1878060880171
 20
63.19567903430096
 30
0.0
 10
134.1763451826397
 20
63.25485454146266
 30
0.0
 10
134.1420334448653
 20
63.33797766093081
 30
0.0
 10
134.1280087089357
 20
63.36609897703149
 30
0.0
 10
134.0919857459019
 20
63.39471479100894
 30
0.0
 10
134.0772312368122
 20
63.40050783891071
 30
0.0
 10
134.0478790756653
 20
63.3989144129737
 30
0.0
 10
134.0345392011613
 20
63.3924180096499
 30
0.0
 10
134.0229410696129
 20
63.38390226344676
 30
0.0
  0
SPLINE
  5
287
330
1F
100
AcDbEntity
  8
0
  6
Continuous
 62
     7
370
    15
100
AcDbSpline
210
0.0
220
0.0
230
1.0
 70
     8
 71
     3
 72
    12
 73
     8
 74
     0
 42
0.00000001
 43
0.00000001
 12
1.0
 22
0.0
 32
0.0
 13
1.0
 23
0.0
 33
0.0
 40
0.0
 40
0.0
 40
0.0
 40
0.0
 40
0.2500000000000003
 40
0.2500000000000003
 40
0.5000000000000002
 40
0.5000000000000002
 40
1.0
 40
1.0
 40
1.0
 40
1.0
 10
134.0229410696199
 20
63.38390226343763
 30
0.0
 10
133.9927426281793
 20
63.36172953139258
 30
0.0
 10
133.9593752728433
 20
63.34264987551537
 30
0.0
 10
133.8862199970135
 20
63.31747683107265
 30
0.0
 10
133.8459672979895
 20
63.31192029465585
 30
0.0
 10
133.7282385547146
 20
63.32283210564263
 30
0.0
 10
133.6577801066557
 20
63.36476786105347
 30
0.0
 10
133.6014056720374
 20
63.41397964343502
 30
0.0
  0
SPLINE
  5
288
330
1F
100
AcDbEntity
  8
0
  6
Continuous
 62
     7
370
    15
100
AcDbSpline
210
0.0
220
0.0
230
1.0
 70
     8
 71
     3
 72
    12
 73
     8
 74
     0
 42
0.00000001
 43
0.00000001
 12
1.0
 22
0.0
 32
0.0
 13
1.0
 23
0.0
 33
0.0
 40
0.0
 40
0.0
 40
0.0
 40
0.0
 40
0.4999999999999986
 40
0.4999999999999986
 40
0.7499999999999992
 40
0.7499999999999992
 40
1.0
 40
1.0
 40
1.0
 40
1.0
 10
133.0965976149289
 20
64.63033103531555
 30
0.0
 10
133.1403479668134
 20
64.40988405034102
 30
0.0
 10
133.1932381179378
 20
64.19433906053546
 30
0.0
 10
133.3048496610795
 20
63.88192498396353
 30
0.0
 10
133.347409004983
 20
63.77984550834763
 30
0.0
 10
133.4523862403204
 20
63.58540549570588
 30
0.0
 10
133.513953483415
 20
63.4903205966422
 30
0.0
 10
133.6014056720373
 20
63.41397964343501
 30
0.0
  0
SPLINE
  5
289
330
1F
100
AcDbEntity
  8
0
  6
Continuous
 62
     7
370
    15
100
AcDbSpline
210
0.0
220
0.0
230
1.0
 70
     8
 71
     3
 72
    12
 73
     8
 74
     0
 42
0.00000001
 43
0.00000001
 12
1.0
 22
0.0
 32
0.0
 13
1.0
 23
0.0
 33
0.0
 40
0.0
 40
0.0
 40
0.0
 40
0.0
 40
0.2500000000000007
 40
0.2500000000000007
 40
0.5000000000000014
 40
0.5000000000000014
 40
1.0
 40
1.0
 40
1.0
 40
1.0
 10
133.6014056720373
 20
76.2190310847182
 30
0.0
 10
133.5129122644694
 20
76.14178120460987
 30
0.0
 10
133.4528542237035
 20
76.04846188072065
 30
0.0
 10
133.347005950721
 20
75.8524288277512
 30
0.0
 10
133.3044724294435
 20
75.75010246953946
 30
0.0
 10
133.1933211226198
 20
75.43875806376357
 30
0.0
 10
133.1403902655721
 20
75.22333981058556
 30
0.0
 10
133.0965976149289
 20
75.00267969283769
 30
0.0
  0
SPLINE
  5
28A
330
1F
100
AcDbEntity
  8
0
  6
Continuous
 62
     7
370
    15
100
AcDbSpline
210
0.0
220
0.0
230
1.0
 70
     8
 71
     3
 72
    12
 73
     8
 74
     0
 42
0.00000001
 43
0.00000001
 12
1.0
 22
0.0
 32
0.0
 13
1.0
 23
0.0
 33
0.0
 40
0.0
 40
0.0
 40
0.0
 40
0.0
 40
0.5
 40
0.5
 40
0.75
 40
0.75
 40
1.0
 40
1.0
 40
1.0
 40
1.0
 10
133.6014056720373
 20
76.21903108471817
 30
0.0
 10
133.6577142203329
 20
76.26818535196202
 30
0.0
 10
133.727988881051
 20
76.31014267056575
 30
0.0
 10
133.8460267953746
 20
76.32110234809821
 30
0.0
 10
133.8862030362286
 20
76.31559358985086
 30
0.0
 10
133.9601601309066
 20
76.2900363610619
 30
0.0
 10
133.992776518618
 20
76.27125631322261
 30
0.0
 10
134.0229410696137
 20
76.24910846470588
 30
0.0
  0
SPLINE
  5
28B
330
1F
100
AcDbEntity
  8
0
  6
Continuous
 62
     7
370
    15
100
AcDbSpline
210
0.0
220
0.0
230
1.0
 70
     8
 71
     3
 72
    16
 73
    12
 74
     0
 42
0.00000001
 43
0.00000001
 12
1.0
 22
0.0
 32
0.0
 13
1.0
 23
0.0
 33
0.0
 40
0.0
 40
0.0
 40
0.0
 40
0.0
 40
0.0625000000000013
 40
0.0625000000000013
 40
0.1250000000000026
 40
0.1250000000000026
 40
0.2500000000000029
 40
0.2500000000000029
 40
0.500000000000002
 40
0.500000000000002
 40
1.0
 40
1.0
 40
1.0
 40
1.0
 10
134.0229410695819
 20
76.24910846465139
 30
0.0
 10
134.0345539694213
 20
76.24058187505612
 30
0.0
 10
134.0479051538538
 20
76.23408161352336
 30
0.0
 10
134.077304993473
 20
76.23251221640585
 30
0.0
 10
134.0921457180283
 20
76.23839560703645
 30
0.0
 10
134.1279789259969
 20
76.266943243087
 30
0.0
 10
134.1420921338184
 20
76.29511026239281
 30
0.0
 10
134.1765835050373
 20
76.37886452081476
 30
0.0
 10
134.1876675761477
 20
76.43657793443617
 30
0.0
 10
134.2137903939437
 20
76.610168471082
 30
0.0
 10
134.2179179584886
 20
76.72519652372395
 30
0.0
 10
134.2179179584886
 20
76.83839268982678
 30
0.0
  0
LINE
  5
28C
330
1F
100
AcDbEntity
  8
0
  6
Continuous
 62
     7
370
    15
100
AcDbLine
 10
134.2179179635
 20
92.3563258861
 30
0.0
 11
134.2179179635
 21
76.838392592
 31
0.0
  0
SPLINE
  5
28D
330
1F
100
AcDbEntity
  8
0
  6
Continuous
 62
     7
370
    15
100
AcDbSpline
210
0.0
220
0.0
230
1.0
 70
     8
 71
     3
 72
    16
 73
    12
 74
     0
 42
0.00000001
 43
0.00000001
 12
1.0
 22
0.0
 32
0.0
 13
1.0
 23
0.0
 33
0.0
 40
0.0
 40
0.0
 40
0.0
 40
0.0
 40
0.499999999999999
 40
0.499999999999999
 40
0.7499999999999984
 40
0.7499999999999984
 40
0.8749999999999966
 40
0.8749999999999966
 40
0.9374999999999983
 40
0.9374999999999983
 40
1.0
 40
1.0
 40
1.0
 40
1.0
 10
134.2179179584886
 20
91.87609985231789
 30
0.0
 10
134.2179179584886
 20
91.85142869627495
 30
0.0
 10
134.2137522600286
 20
91.82384686488373
 30
0.0
 10
134.1874939317036
 20
91.77350399406039
 30
0.0
 10
134.175990149966
 20
91.7552144959985
 30
0.0
 10
134.1418593906195
 20
91.72405946496146
 30
0.0
 10
134.1274375039488
 20
91.71242008974973
 30
0.0
 10
134.091870535511
 20
91.69553806381866
 30
0.0
 10
134.0769187672163
 20
91.690148960011
 30
0.0
 10
134.0479149488565
 20
91.6835284640665
 30
0.0
 10
134.0344995948473
 20
91.68217587586005
 30
0.0
 10
134.0229410696107
 20
91.68187625198846
 30
0.0
  0
SPLINE
  5
28E
330
1F
100
AcDbEntity
  8
0
  6
Continuous
 62
     7
370
    15
100
AcDbSpline
210
0.0
220
0.0
230
1.0
 70
     8
 71
     3
 72
    12
 73
     8
 74
     0
 42
0.00000001
 43
0.00000001
 12
1.0
 22
0.0
 32
0.0
 13
1.0
 23
0.0
 33
0.0
 40
0.0
 40
0.0
 40
0.0
 40
0.0
 40
0.2499999999999999
 40
0.2499999999999999
 40
0.4999999999999998
 40
0.4999999999999998
 40
1.0
 40
1.0
 40
1.0
 40
1.0
 10
134.02294106962
 20
91.6818762519902
 30
0.0
 10
133.9927532930703
 20
91.68109371457261
 30
0.0
 10
133.9593994889786
 20
91.6802003827541
 30
0.0
 10
133.8862732857827
 20
91.67827307395049
 30
0.0
 10
133.8460380827585
 20
91.67723354273782
 30
0.0
 10
133.7283464526254
 20
91.67431565939056
 30
0.0
 10
133.6579657794653
 20
91.67272005332036
 30
0.0
 10
133.6014056720347
 20
91.67129906655249
 30
0.0
  0
SPLINE
  5
28F
330
1F
100
AcDbEntity
  8
0
  6
Continuous
 62
     7
370
    15
100
AcDbSpline
210
0.0
220
0.0
230
1.0
 70
     8
 71
     3
 72
    16
 73
    12
 74
     0
 42
0.00000001
 43
0.00000001
 12
1.0
 22
0.0
 32
0.0
 13
1.0
 23
0.0
 33
0.0
 40
0.0
 40
0.0
 40
0.0
 40
0.0
 40
0.2500000000000001
 40
0.2500000000000001
 40
0.3750000000000001
 40
0.3750000000000001
 40
0.5000000000000001
 40
0.5000000000000001
 40
0.7500000000000001
 40
0.7500000000000001
 40
1.0
 40
1.0
 40
1.0
 40
1.0
 10
133.0965976149289
 20
75.00267969283769
 30
0.0
 10
132.9353651374444
 20
74.19026991759087
 30
0.0
 10
132.8148852978048
 20
73.35019162320611
 30
0.0
 10
132.6925047804915
 20
72.04889657384335
 30
0.0
 10
132.661527120094
 20
71.60821553825858
 30
0.0
 10
132.619913382466
 20
70.71237589732743
 30
0.0
 10
132.6096774695332
 20
70.265717766125
 30
0.0
 10
132.6094890724771
 20
68.93040780898508
 30
0.0
 10
132.6496337751148
 20
68.04591243567756
 30
0.0
 10
132.8137875300543
 20
66.28866254765154
 30
0.0
 10
132.9353391804638
 20
65.44287160123842
 30
0.0
 10
133.0965976149289
 20
64.63033103531555
 30
0.0
  0
LINE
  5
290
330
1F
100
AcDbEntity
  8
0
  6
Continuous
 62
     7
370
    15
100
AcDbLine
 10
132.2179179704
 20
76.3016834994
 30
0.0
 11
132.2179179704
 21
63.3313272287
 31
0.0
  0
LINE
  5
291
330
1F
100
AcDbEntity
  8
0
  6
Continuous
 62
     7
370
    15
100
AcDbLine
 10
97.9179184949
 20
75.8708159578
 30
0.0
 11
97.9179184949
 21
63.7621947703
 31
0.0
  0
LINE
  5
292
330
1F
100
AcDbEntity
  8
0
  6
Continuous
 62
     7
370
    15
100
AcDbLine
 10
96.4179191804
 20
75.4378031147
 30
0.0
 11
96.4179191804
 21
64.1952076135
 31
0.0
  0
LINE
  5
293
330
1F
100
AcDbEntity
  8
0
  6
Continuous
 62
     7
370
    15
100
AcDbLine
 10
132.2179179704
 20
76.3016834994
 30
0.0
 11
132.2179179704
 21
91.8366050487
 31
0.0
  0
ARC
  5
294
330
1F
100
AcDbEntity
  8
0
  6
Continuous
 62
     7
370
    15
100
AcDbCircle
 10
132.4178548694
 20
91.8416272598
 30
0.0
 40
0.1999999999999782
100
AcDbArc
 50
181.4391666667
 51
271.4391666667
  0
LINE
  5
295
330
1F
100
AcDbEntity
  8
0
  6
Continuous
 62
     7
370
    15
100
AcDbLine
 10
97.9179184949
 20
75.8708159578
 30
0.0
 11
97.9179184949
 21
90.9748690342
 31
0.0
  0
LINE
  5
296
330
1F
100
AcDbEntity
  8
0
  6
Continuous
 62
     7
370
    15
100
AcDbLine
 10
97.9179184949
 20
90.9748690342
 30
0.0
 11
132.2179179704
 21
91.8366050487
 31
0.0
  0
LINE
  5
297
330
1F
100
AcDbEntity
  8
0
  6
Continuous
 62
     7
370
    15
100
AcDbLine
 10
132.2179179704
 20
47.7964056795
 30
0.0
 11
132.2179179704
 21
63.3313272287
 31
0.0
  0
ARC
  5
298
330
1F
100
AcDbEntity
  8
0
  6
Continuous
 62
     7
370
    15
100
AcDbCircle
 10
132.4178548694
 20
47.7913834684
 30
0.0
 40
0.2000000000000059
100
AcDbArc
 50
88.5608333333
 51
178.5608333333
  0
LINE
  5
299
330
1F
100
AcDbEntity
  8
0
  6
Continuous
 62
     7
370
    15
100
AcDbLine
 10
97.9179184949
 20
48.658141694
 30
0.0
 11
97.9179184949
 21
63.7621947703
 31
0.0
  0
LINE
  5
29A
330
1F
100
AcDbEntity
  8
0
  6
Continuous
 62
     7
370
    15
100
AcDbLine
 10
97.9179184949
 20
48.658141694
 30
0.0
 11
132.2179179704
 21
47.7964056795
 31
0.0
  0
LINE
  5
29B
330
1F
100
AcDbEntity
  8
0
  6
Continuous
 62
     7
370
    15
100
AcDbLine
 10
132.4228780875
 20
91.6416904097
 30
0.0
 11
133.6014056877
 21
91.671299017
 31
0.0
  0
LINE
  5
29C
330
1F
100
AcDbEntity
  8
0
  6
Continuous
 62
     7
370
    15
100
AcDbLine
 10
132.4228780875
 20
47.9913203185
 30
0.0
 11
133.6014056877
 21
47.9617117112
 31
0.0
  0
LINE
  5
29D
330
1F
100
AcDbEntity
  8
0
  6
Continuous
 62
     7
370
    15
100
AcDbLine
 10
96.4179191804
 20
90.1088433479
 30
0.0
 11
97.9179184949
 21
90.9748690342
 31
0.0
  0
LINE
  5
29E
330
1F
100
AcDbEntity
  8
0
  6
Continuous
 62
     7
370
    15
100
AcDbLine
 10
96.4179191804
 20
75.4378031147
 30
0.0
 11
96.4179191804
 21
90.1088433479
 31
0.0
  0
LINE
  5
29F
330
1F
100
AcDbEntity
  8
0
  6
Continuous
 62
     7
370
    15
100
AcDbLine
 10
96.4179191804
 20
49.5241673802
 30
0.0
 11
97.9179184949
 21
48.658141694
 31
0.0
  0
LINE
  5
2A0
330
1F
100
AcDbEntity
  8
0
  6
Continuous
 62
     7
370
    15
100
AcDbLine
 10
96.4179191804
 20
49.5241673802
 30
0.0
 11
96.4179191804
 21
64.1952076135
 31
0.0
  0
LINE
  5
2A1
330
1F
100
AcDbEntity
  8
0
  6
Continuous
 62
     7
370
    15
100
AcDbLine
 10
215.4690366304
 20
74.3854309571
 30
0.0
 11
214.2759453571
 21
75.3940719319
 31
0.0
  0
ARC
  5
2A2
330
1F
100
AcDbEntity
  8
0
  6
Continuous
 62
     7
370
    15
100
AcDbCircle
 10
212.0455674132
 20
72.7107431819
 30
0.0
 40
3.489246186938876
100
AcDbArc
 50
50.2667030011
 51
230.1551744403
  0
LINE
  5
2A3
330
1F
100
AcDbEntity
  8
0
  6
Continuous
 62
     7
370
    15
100
AcDbLine
 10
209.8099704897
 20
70.031761034
 30
0.0
 11
222.1964936769
 21
59.5601767441
 31
0.0
  0
LINE
  5
2A4
330
1F
100
AcDbEntity
  8
0
  6
Continuous
 62
     7
370
    15
100
AcDbLine
 10
222.1964936769
 20
59.5601767441
 30
0.0
 11
197.3763745344
 21
38.577219299
 31
0.0
  0
LINE
  5
2A5
330
1F
100
AcDbEntity
  8
0
  6
Continuous
 62
     7
370
    15
100
AcDbLine
 10
222.1964936769
 20
80.0728339841
 30
0.0
 11
197.3763745344
 21
101.0557914292
 31
0.0
  0
LINE
  5
2A6
330
1F
100
AcDbEntity
  8
0
  6
Continuous
 62
     7
370
    15
100
AcDbLine
 10
222.1964936769
 20
80.0728339841
 30
0.0
 11
215.4690366304
 21
74.3854309571
 31
0.0
  0
CIRCLE
  5
2A7
330
1F
100
AcDbEntity
  8
0
  6
Continuous
 62
     7
370
    15
100
AcDbCircle
 10
209.1159772564
 20
63.4811149117
 30
0.0
 40
3.991984266772437
  0
CIRCLE
  5
2A8
330
1F
100
AcDbEntity
  8
0
  6
Continuous
 62
     7
370
    15
100
AcDbCircle
 10
209.0504822379
 20
63.4810912002
 30
0.0
 40
3.491152068683852
  0
ARC
  5
2A9
330
1F
100
AcDbEntity
  8
0
  6
Continuous
 62
     7
370
    15
100
AcDbCircle
 10
211.3092876313
 20
72.7529367454
 30
0.0
 40
3.460173375149007
100
AcDbArc
 50
49.7556003644
 51
83.893888072
  0
LINE
  5
2AA
330
1F
100
AcDbEntity
  8
0
  6
Continuous
 62
     7
370
    15
100
AcDbLine
 10
214.7378217494
 20
74.3854309571
 30
0.0
 11
215.4690366304
 21
74.3854309571
 31
0.0
  0
LINE
  5
2AB
330
1F
100
AcDbEntity
  8
0
  6
Continuous
 62
     7
370
    15
100
AcDbLine
 10
214.7378217494
 20
74.3854309571
 30
0.0
 11
214.7469561613
 21
74.3777037737
 31
0.0
  0
LINE
  5
2AC
330
1F
100
AcDbEntity
  8
0
  6
Continuous
 62
     7
370
    15
100
AcDbLine
 10
214.4660543716
 20
74.1402230365
 30
0.0
 11
212.9829119956
 21
75.3940719319
 31
0.0
  0
ARC
  5
2AD
330
1F
100
AcDbEntity
  8
0
  6
Continuous
 62
     7
370
    15
100
AcDbCircle
 10
211.5944588726
 20
73.0130766433
 30
0.0
 40
3.103378914844163
100
AcDbArc
 50
196.2613601357
 51
229.7465853939
  0
ARC
  5
2AE
330
1F
100
AcDbEntity
  8
0
  6
Continuous
 62
     7
370
    15
100
AcDbCircle
 10
211.5666431881
 20
73.0586924419
 30
0.0
 40
3.060527190097341
100
AcDbArc
 50
49.7351027393
 51
98.489692365
  0
LINE
  5
2AF
330
1F
100
AcDbEntity
  8
0
  6
Continuous
 62
     7
370
    15
100
AcDbLine
 10
209.960166744
 20
70.3309411206
 30
0.0
 11
209.589150182
 21
70.6445965939
 31
0.0
  0
ARC
  5
2B0
330
1F
100
AcDbEntity
  8
0
  6
Continuous
 62
     7
370
    15
100
AcDbCircle
 10
211.0032085273
 20
73.0553310239
 30
0.0
 40
3.064136886185356
100
AcDbArc
 50
49.7526667383
 51
84.7040804626
  0
ARC
  5
2B1
330
1F
100
AcDbEntity
  8
0
  6
HIDDEN
 62
     7
370
     0
100
AcDbCircle
 10
209.9740332324
 20
69.8165053641
 30
0.0
 40
0.4018148008773872
100
AcDbArc
 50
130.3074148506
 51
229.6925851494
  0
LINE
  5
2B2
330
1F
100
AcDbEntity
  8
0
  6
HIDDEN
 62
     7
370
     0
100
AcDbLine
 10
221.352968744
 20
79.9624303495
 30
0.0
 11
214.7560980236
 21
74.3854309571
 31
0.0
  0
LINE
  5
2B3
330
1F
100
AcDbEntity
  8
0
  6
HIDDEN
 62
     7
370
     0
100
AcDbLine
 10
209.7141038692
 20
69.5100875769
 30
0.0
 11
221.352968744
 21
59.6705803787
 31
0.0
  0
ARC
  5
2B4
330
1F
100
AcDbEntity
  8
0
  6
HIDDEN
 62
     7
370
     0
100
AcDbCircle
 10
221.5708065664
 20
69.8165203291
 30
0.0
 40
3.189294445786467
100
AcDbArc
 50
310.3046621188
 51
49.4096976229
  0
ARC
  5
2B5
330
1F
100
AcDbEntity
  8
0
  6
HIDDEN
 62
     7
370
     0
100
AcDbCircle
 10
221.6095298205
 20
69.8222424988
 30
0.0
 40
3.168784319835349
100
AcDbArc
 50
83.0109848107
 51
309.7037664642
  0
ARC
  5
2B6
330
1F
100
AcDbEntity
  8
0
  6
HIDDEN
 62
     7
370
     0
100
AcDbCircle
 10
221.6081660306
 20
79.6611434064
 30
0.0
 40
0.3948410783524853
100
AcDbArc
 50
49.7345984029
 51
130.2654015971
  0
ARC
  5
2B7
330
1F
100
AcDbEntity
  8
0
  6
HIDDEN
 62
     7
370
     0
100
AcDbCircle
 10
221.6081660306
 20
59.9718673217
 30
0.0
 40
0.3948410783524907
100
AcDbArc
 50
229.7345984029
 51
310.2654015971
  0
ARC
  5
2B8
330
1F
100
AcDbEntity
  8
0
  6
HIDDEN
 62
     7
370
     0
100
AcDbCircle
 10
233.2422988288
 20
69.8165053641
 30
0.0
 40
0.401814800877358
100
AcDbArc
 50
310.3074148506
 51
49.6925851494
  0
LINE
  5
2B9
330
1F
100
AcDbEntity
  8
0
  6
HIDDEN
 62
     7
370
     0
100
AcDbLine
 10
221.8633633172
 20
59.6705803787
 30
0.0
 11
233.5022281921
 21
69.5100875769
 31
0.0
  0
LINE
  5
2BA
330
1F
100
AcDbEntity
  8
0
  6
HIDDEN
 62
     7
370
     0
100
AcDbLine
 10
233.5022281921
 20
70.1229231513
 30
0.0
 11
221.8633633172
 21
79.9624303495
 31
0.0
  0
ARC
  5
2BB
330
1F
100
AcDbEntity
  8
0
  6
HIDDEN
 62
     7
370
     0
100
AcDbCircle
 10
230.8281722533
 20
69.8165053641
 30
0.0
 40
1.506805337107798
100
AcDbArc
 50
310.3074129614
 51
49.6925870386
  0
LINE
  5
2BC
330
1F
100
AcDbEntity
  8
0
  6
HIDDEN
 62
     7
370
     0
100
AcDbLine
 10
222.8315215623
 20
61.0830223327
 30
0.0
 11
231.8029072201
 21
68.6674387566
 31
0.0
  0
ARC
  5
2BD
330
1F
100
AcDbEntity
  8
0
  6
HIDDEN
 62
     7
370
     0
100
AcDbCircle
 10
221.8745280123
 20
62.2128609017
 30
0.0
 40
1.480666014622256
100
AcDbArc
 50
229.7348018468
 51
310.2651981532
  0
LINE
  5
2BE
330
1F
100
AcDbEntity
  8
0
  6
HIDDEN
 62
     7
370
     0
100
AcDbLine
 10
211.9461488044
 20
68.6674387566
 30
0.0
 11
220.9175344622
 21
61.0830223327
 31
0.0
  0
ARC
  5
2BF
330
1F
100
AcDbEntity
  8
0
  6
HIDDEN
 62
     7
370
     0
100
AcDbCircle
 10
212.9208837712
 20
69.8165053641
 30
0.0
 40
1.506805337107798
100
AcDbArc
 50
130.3074129614
 51
229.6925870386
  0
LINE
  5
2C0
330
1F
100
AcDbEntity
  8
0
  6
HIDDEN
 62
     7
370
     0
100
AcDbLine
 10
220.9175344622
 20
78.5499883955
 30
0.0
 11
211.9461488044
 21
70.9655719715
 31
0.0
  0
ARC
  5
2C1
330
1F
100
AcDbEntity
  8
0
  6
HIDDEN
 62
     7
370
     0
100
AcDbCircle
 10
221.8745280123
 20
77.4201498265
 30
0.0
 40
1.480666014622251
100
AcDbArc
 50
49.7348018468
 51
130.2651981532
  0
LINE
  5
2C2
330
1F
100
AcDbEntity
  8
0
  6
HIDDEN
 62
     7
370
     0
100
AcDbLine
 10
231.8029072201
 20
70.9655719715
 30
0.0
 11
222.8315215623
 21
78.5499883955
 31
0.0
  0
CIRCLE
  5
2C3
330
1F
100
AcDbEntity
  8
0
  6
HIDDEN
 62
     7
370
     0
100
AcDbCircle
 10
221.9010338892
 20
69.7916046012
 30
0.0
 40
4.882903491339191
  0
ARC
  5
2C4
330
1F
100
AcDbEntity
  8
0
  6
HIDDEN
 62
     7
370
     0
100
AcDbCircle
 10
212.3773490155
 20
69.8165053641
 30
0.0
 40
1.506805337107798
100
AcDbArc
 50
130.3074129614
 51
229.6925870386
  0
LINE
  5
2C5
330
1F
100
AcDbEntity
  8
0
  6
HIDDEN
 62
     7
370
     0
100
AcDbLine
 10
220.3739997065
 20
78.5499883955
 30
0.0
 11
211.4026140487
 21
70.9655719715
 31
0.0
  0
LINE
  5
2C6
330
1F
100
AcDbEntity
  8
0
  6
HIDDEN
 62
     7
370
     0
100
AcDbLine
 10
211.4026140487
 20
68.6674387566
 30
0.0
 11
220.3739997065
 21
61.0830223327
 31
0.0
  0
CIRCLE
  5
2C7
330
1F
100
AcDbEntity
  8
0
  6
HIDDEN
 62
     7
370
     0
100
AcDbCircle
 10
221.7124491181
 20
69.7968508069
 30
0.0
 40
4.012117268013684
  0
ARC
  5
2C8
330
1F
100
AcDbEntity
  8
0
  6
HIDDEN
 62
     7
370
     0
100
AcDbCircle
 10
221.3309932566
 20
77.4201498265
 30
0.0
 40
1.480666014622251
100
AcDbArc
 50
49.7348018468
 51
130.2651981532
  0
ARC
  5
2C9
330
1F
100
AcDbEntity
  8
0
  6
HIDDEN
 62
     7
370
     0
100
AcDbCircle
 10
221.3309932566
 20
62.2128609017
 30
0.0
 40
1.480666014622256
100
AcDbArc
 50
229.7348018468
 51
310.2651981532
  0
CIRCLE
  5
2CA
330
1F
100
AcDbEntity
  8
0
  6
HIDDEN
 62
     7
370
     0
100
AcDbCircle
 10
221.5545191612
 20
69.7968508069
 30
0.0
 40
4.012117268013684
  0
LINE
  5
2CB
330
1F
100
AcDbEntity
  8
0
  6
HIDDEN
 62
     7
370
     0
100
AcDbLine
 10
220.5288376725
 20
61.3128354912
 30
0.0
 11
211.5574520147
 21
68.8972520315
 31
0.0
  0
LINE
  5
2CC
330
1F
100
AcDbEntity
  8
0
  6
HIDDEN
 62
     7
370
     0
100
AcDbLine
 10
211.5574520147
 20
70.7357586966
 30
0.0
 11
220.5288376725
 21
78.320175237
 31
0.0
  0
ARC
  5
2CD
330
1F
100
AcDbEntity
  8
0
  6
HIDDEN
 62
     7
370
     0
100
AcDbCircle
 10
212.3372470339
 20
69.8165053641
 30
0.0
 40
1.205448863015687
100
AcDbArc
 50
130.3076669105
 51
229.6923330895
  0
CIRCLE
  5
2CE
330
1F
100
AcDbEntity
  8
0
  6
HIDDEN
 62
     7
370
     0
100
AcDbCircle
 10
221.3230778555
 20
69.7910553955
 30
0.0
 40
5.133096565577595
  0
ARC
  5
2CF
330
1F
100
AcDbEntity
  8
0
  6
HIDDEN
 62
     7
370
     0
100
AcDbCircle
 10
221.2944332576
 20
77.4163001228
 30
0.0
 40
1.184536543068781
100
AcDbArc
 50
49.7349074927
 51
130.2650925073
  0
ARC
  5
2D0
330
1F
100
AcDbEntity
  8
0
  6
HIDDEN
 62
     7
370
     0
100
AcDbCircle
 10
221.2944332576
 20
62.2167106053
 30
0.0
 40
1.184536543068792
100
AcDbArc
 50
229.7349074927
 51
310.2650925073
  0
LINE
  5
2D1
330
1F
100
AcDbEntity
  8
0
  6
HIDDEN
 62
     7
370
     0
100
AcDbLine
 10
231.0314070499
 20
68.8972520315
 30
0.0
 11
222.0600288427
 21
61.3128354912
 31
0.0
  0
LINE
  5
2D2
330
1F
100
AcDbEntity
  8
0
  6
HIDDEN
 62
     7
370
     0
100
AcDbLine
 10
222.2879868066
 20
61.0830223327
 30
0.0
 11
231.2593650138
 21
68.6674387566
 31
0.0
  0
LINE
  5
2D3
330
1F
100
AcDbEntity
  8
0
  6
HIDDEN
 62
     7
370
     0
100
AcDbLine
 10
222.0600288427
 20
78.320175237
 30
0.0
 11
231.0314070499
 21
70.7357586966
 31
0.0
  0
LINE
  5
2D4
330
1F
100
AcDbEntity
  8
0
  6
HIDDEN
 62
     7
370
     0
100
AcDbLine
 10
231.2593650138
 20
70.9655719715
 30
0.0
 11
222.2879868066
 21
78.5499883955
 31
0.0
  0
ARC
  5
2D5
330
1F
100
AcDbEntity
  8
0
  6
HIDDEN
 62
     7
370
     0
100
AcDbCircle
 10
230.2516293337
 20
69.8165053641
 30
0.0
 40
1.205437669926826
100
AcDbArc
 50
310.3070397403
 51
49.6929602597
  0
ARC
  5
2D6
330
1F
100
AcDbEntity
  8
0
  6
HIDDEN
 62
     7
370
     0
100
AcDbCircle
 10
230.2846543884
 20
69.8165053641
 30
0.0
 40
1.506789591078656
100
AcDbArc
 50
310.3067071269
 51
49.6932928731
  0
ELLIPSE
  5
2D7
330
1F
100
AcDbEntity
  8
0
  6
HIDDEN
 62
     7
370
     0
100
AcDbEllipse
 10
220.6948792525
 20
69.8818955761
 30
0.0
 11
0.008162934549773125
 21
3.000645832916731
 31
0.0
210
0.0
220
0.0
230
1.0
 40
0.991431004
 41
3.581091168733687
 42
6.72268382232345
  0
LINE
  5
2D8
330
1F
100
AcDbEntity
  8
0
  6
HIDDEN
 62
     7
370
     0
100
AcDbLine
 10
220.913451544
 20
66.8052218993
 30
0.0
 11
220.8541374719
 21
66.8156312918
 31
0.0
  0
ELLIPSE
  5
2D9
330
1F
100
AcDbEntity
  8
0
  6
HIDDEN
 62
     7
370
     0
100
AcDbEllipse
 10
222.1569562964
 20
69.6405589077
 30
0.0
 11
0.008162934549773125
 21
3.000645832916731
 31
0.0
210
0.0
220
0.0
230
1.0
 40
0.991431004
 41
1.292457957849196
 42
3.188843558605141
  0
LINE
  5
2DA
330
1F
100
AcDbEntity
  8
0
  6
HIDDEN
 62
     7
370
     0
100
AcDbLine
 10
214.6195884859
 20
70.10073637
 30
0.0
 11
209.7748335516
 21
67.8354355646
 31
0.0
  0
SPLINE
  5
2DB
330
1F
100
AcDbEntity
  8
0
  6
HIDDEN
 62
     7
370
     0
100
AcDbSpline
210
0.0
220
0.0
230
1.0
 70
     8
 71
     3
 72
     9
 73
     5
 74
     0
 42
0.00000001
 43
0.00000001
 12
1.0
 22
0.0
 32
0.0
 13
1.0
 23
0.0
 33
0.0
 40
0.0
 40
0.0
 40
0.0
 40
0.0
 40
0.757979492687301
 40
1.0
 40
1.0
 40
1.0
 40
1.0
 10
209.7748335516359
 20
67.83543556456401
 30
0.0
 10
209.5135014579746
 20
67.71917096906236
 30
0.0
 10
209.1687268352012
 20
67.56578344786513
 30
0.0
 10
208.8199606365114
 20
67.40948374733371
 30
0.0
 10
208.7355520641709
 20
67.37165601451828
 30
0.0
  0
LINE
  5
2DC
330
1F
100
AcDbEntity
  8
0
  6
HIDDEN
 62
     7
370
     0
100
AcDbLine
 10
208.7355520642
 20
67.3716560145
 30
0.0
 11
208.1558894431
 21
67.3410518234
 31
0.0
  0
SPLINE
  5
2DD
330
1F
100
AcDbEntity
  8
0
  6
HIDDEN
 62
     7
370
     0
100
AcDbSpline
210
0.0
220
0.0
230
1.0
 70
     8
 71
     3
 72
     9
 73
     5
 74
     0
 42
0.00000001
 43
0.00000001
 12
1.0
 22
0.0
 32
0.0
 13
1.0
 23
0.0
 33
0.0
 40
0.0
 40
0.0
 40
0.0
 40
0.0
 40
0.3117369820769518
 40
1.0
 40
1.0
 40
1.0
 40
1.0
 10
208.1558894431497
 20
67.34105182339384
 30
0.0
 10
208.2409609071077
 20
67.3832888755157
 30
0.0
 10
208.5138559078587
 20
67.51877826095999
 30
0.0
 10
208.7797514507035
 20
67.65178007881073
 30
0.0
 10
208.9627575194741
 20
67.74332031135394
 30
0.0
  0
LINE
  5
2DE
330
1F
100
AcDbEntity
  8
0
  6
HIDDEN
 62
     7
370
     0
100
AcDbLine
 10
217.5244879043
 20
71.775073246
 30
0.0
 11
208.9627575195
 21
67.7433203114
 31
0.0
  0
LINE
  5
2DF
330
1F
100
AcDbEntity
  8
0
  6
HIDDEN
 62
     7
370
     0
100
AcDbLine
 10
217.7029516613
 20
71.7844954365
 30
0.0
 11
217.5244879043
 21
71.775073246
 31
0.0
  0
LINE
  5
2E0
330
1F
100
AcDbEntity
  8
0
  6
HIDDEN
 62
     7
370
     0
100
AcDbLine
 10
217.7029516613
 20
71.7844954365
 30
0.0
 11
219.4364782488
 21
72.6008189981
 31
0.0
  0
SPLINE
  5
2E1
330
1F
100
AcDbEntity
  8
0
  6
HIDDEN
 62
     7
370
     0
100
AcDbSpline
210
0.0
220
0.0
230
1.0
 70
     8
 71
     3
 72
    14
 73
    10
 74
     0
 42
0.00000001
 43
0.00000001
 12
1.0
 22
0.0
 32
0.0
 13
1.0
 23
0.0
 33
0.0
 40
0.0
 40
0.0
 40
0.0
 40
0.0
 40
0.0017038986548158
 40
0.2296616448875098
 40
0.4570276878063685
 40
0.6056150942193087
 40
0.7539514331944331
 40
0.9876533074750503
 40
1.0
 40
1.0
 40
1.0
 40
1.0
 10
220.143635205021
 20
72.48409261454775
 30
0.0
 10
220.1409529995877
 20
72.48300398006891
 30
0.0
 10
219.7794293197606
 20
72.33627131825084
 30
0.0
 10
219.0596071462284
 20
72.04383876409379
 30
0.0
 10
218.0347117243832
 20
71.61827608413196
 30
0.0
 10
217.0579880531384
 20
71.20003367618814
 30
0.0
 10
216.0038678009975
 20
70.73705017163019
 30
0.0
 10
215.1602488055946
 20
70.35330961454784
 30
0.0
 10
214.6454224224688
 20
70.11280487389361
 30
0.0
 10
214.6195884859468
 20
70.10073637001163
 30
0.0
  0
SPLINE
  5
2E2
330
1F
100
AcDbEntity
  8
0
  6
HIDDEN
 62
     7
370
     0
100
AcDbSpline
210
0.0
220
0.0
230
1.0
 70
     8
 71
     3
 72
    13
 73
     9
 74
     0
 42
0.00000001
 43
0.00000001
 12
1.0
 22
0.0
 32
0.0
 13
1.0
 23
0.0
 33
0.0
 40
0.0
 40
0.0
 40
0.0
 40
0.0
 40
0.1634974957189322
 40
0.3052006969870516
 40
0.44713226366929
 40
0.7219560938638991
 40
0.9982965779844204
 40
1.0
 40
1.0
 40
1.0
 40
1.0
 10
217.1363946115876
 20
64.66288987074925
 30
0.0
 10
217.4816381423051
 20
64.82272881421997
 30
0.0
 10
218.1261040758162
 20
65.12110009347674
 30
0.0
 10
219.0454599914989
 20
65.5305833318685
 30
0.0
 10
220.1318628108903
 20
66.00356509662541
 30
0.0
 10
221.3484011304887
 20
66.51326549048939
 30
0.0
 10
222.2199521121182
 20
66.86746327586704
 30
0.0
 10
222.6577591279847
 20
67.04515722033159
 30
0.0
 10
222.6604413306619
 20
67.0462458533509
 30
0.0
  0
ELLIPSE
  5
2E3
330
1F
100
AcDbEntity
  8
0
  6
HIDDEN
 62
     7
370
     0
100
AcDbEllipse
 10
208.1464289974
 20
63.7667014181
 30
0.0
 11
2.982295792206173
 21
3.215581004764913
 31
0.0
210
0.0
220
0.0
230
1.0
 40
0.9944400924
 41
5.139054400024206
 42
6.652133095698709
  0
LINE
  5
2E4
330
1F
100
AcDbEntity
  8
0
  6
HIDDEN
 62
     7
370
     0
100
AcDbLine
 10
212.2916471279
 20
62.3975888034
 30
0.0
 11
217.1363946116
 21
64.6628898707
 31
0.0
  0
SPLINE
  5
2E5
330
1F
100
AcDbEntity
  8
0
  6
HIDDEN
 62
     7
370
     0
100
AcDbSpline
210
0.0
220
0.0
230
1.0
 70
     8
 71
     3
 72
    13
 73
     9
 74
     0
 42
0.00000001
 43
0.00000001
 12
1.0
 22
0.0
 32
0.0
 13
1.0
 23
0.0
 33
0.0
 40
0.0
 40
0.0
 40
0.0
 40
0.0
 40
0.1240774797408696
 40
0.3196119639341026
 40
0.5137741781904721
 40
0.683454265349139
 40
0.8539712898106422
 40
1.0
 40
1.0
 40
1.0
 40
1.0
 10
208.7355520641709
 20
67.37165601451828
 30
0.0
 10
208.8211254533515
 20
67.15564092803088
 30
0.0
 10
209.0415544871586
 20
66.59920630205508
 30
0.0
 10
209.4216886726454
 20
65.67419319962859
 30
0.0
 10
209.8906176268269
 20
64.61290550766007
 30
0.0
 10
210.3801151140206
 20
63.60717916511675
 30
0.0
 10
210.8283617433396
 20
62.73423220061433
 30
0.0
 10
211.1185080498098
 20
62.18649264148961
 30
0.0
 10
211.2523581898118
 20
61.93380971898272
 30
0.0
  0
SPLINE
  5
2E6
330
1F
100
AcDbEntity
  8
0
  6
HIDDEN
 62
     7
370
     0
100
AcDbSpline
210
0.0
220
0.0
230
1.0
 70
     8
 71
     3
 72
     9
 73
     5
 74
     0
 42
0.00000001
 43
0.00000001
 12
1.0
 22
0.0
 32
0.0
 13
1.0
 23
0.0
 33
0.0
 40
0.0
 40
0.0
 40
0.0
 40
0.0
 40
0.24201923061799
 40
1.0
 40
1.0
 40
1.0
 40
1.0
 10
211.2523581898118
 20
61.93380971898272
 30
0.0
 10
211.3367667362612
 20
61.97163730890816
 30
0.0
 10
211.6855346677755
 20
62.1279372435409
 30
0.0
 10
212.0303123073483
 20
62.28132433657551
 30
0.0
 10
212.2916471278573
 20
62.39758880336716
 30
0.0
  0
SPLINE
  5
2E7
330
1F
100
AcDbEntity
  8
0
  6
HIDDEN
 62
     7
370
     0
100
AcDbSpline
210
0.0
220
0.0
230
1.0
 70
     8
 71
     3
 72
    10
 73
     6
 74
     0
 42
0.00000001
 43
0.00000001
 12
1.0
 22
0.0
 32
0.0
 13
1.0
 23
0.0
 33
0.0
 40
0.0
 40
0.0
 40
0.0
 40
0.0
 40
0.4463392542305646
 40
0.9674825299671502
 40
1.0
 40
1.0
 40
1.0
 40
1.0
 10
210.6727030193711
 20
61.9032045965357
 30
0.0
 10
210.5711189777785
 20
62.15812811647549
 30
0.0
 10
210.3509259639829
 20
62.71069894613431
 30
0.0
 10
210.11628150089
 20
63.29524477934008
 30
0.0
 10
209.9658924646557
 20
63.63506196943408
 30
0.0
 10
209.9570598518754
 20
63.65502003108098
 30
0.0
  0
SPLINE
  5
2E8
330
1F
100
AcDbEntity
  8
0
  6
HIDDEN
 62
     7
370
     0
100
AcDbSpline
210
0.0
220
0.0
230
1.0
 70
     8
 71
     3
 72
    11
 73
     7
 74
     0
 42
0.00000001
 43
0.00000001
 12
1.0
 22
0.0
 32
0.0
 13
1.0
 23
0.0
 33
0.0
 40
0.0
 40
0.0
 40
0.0
 40
0.0
 40
0.0601722328470225
 40
0.4153297686537061
 40
0.7729984979895042
 40
1.0
 40
1.0
 40
1.0
 40
1.0
 10
209.6437331354524
 20
64.36423800413444
 30
0.0
 10
209.6166799556242
 20
64.42583724510443
 30
0.0
 10
209.4299494590522
 20
64.85101672226229
 30
0.0
 10
209.0335571024552
 20
65.65497842080232
 30
0.0
 10
208.5628771075302
 20
66.5736955311051
 30
0.0
 10
208.2697123192181
 20
67.12644409003549
 30
0.0
 10
208.1558894431497
 20
67.34105182339384
 30
0.0
  0
LINE
  5
2E9
330
1F
100
AcDbEntity
  8
0
  6
HIDDEN
 62
     7
370
     0
100
AcDbLine
 10
211.2523581898
 20
61.933809719
 30
0.0
 11
210.6727030194
 21
61.9032045965
 31
0.0
  0
SPLINE
  5
2EA
330
1F
100
AcDbEntity
  8
0
  6
HIDDEN
 62
     7
370
     0
100
AcDbSpline
210
0.0
220
0.0
230
1.0
 70
     8
 71
     3
 72
     9
 73
     5
 74
     0
 42
0.00000001
 43
0.00000001
 12
1.0
 22
0.0
 32
0.0
 13
1.0
 23
0.0
 33
0.0
 40
0.0
 40
0.0
 40
0.0
 40
0.0
 40
0.6882612948776543
 40
1.0
 40
1.0
 40
1.0
 40
1.0
 10
211.479563645115
 20
62.30547355015709
 30
0.0
 10
211.2965603940767
 20
62.21393317734309
 30
0.0
 10
211.0306682795552
 20
62.08093082272097
 30
0.0
 10
210.7577745555336
 20
61.94544177639547
 30
0.0
 10
210.6727030193711
 20
61.9032045965357
 30
0.0
  0
LINE
  5
2EB
330
1F
100
AcDbEntity
  8
0
  6
HIDDEN
 62
     7
370
     0
100
AcDbLine
 10
217.7029516613
 20
71.7844954365
 30
0.0
 11
217.3883508956
 21
72.4642263399
 31
0.0
  0
LINE
  5
2EC
330
1F
100
AcDbEntity
  8
0
  6
HIDDEN
 62
     7
370
     0
100
AcDbLine
 10
217.3883508956
 20
72.4642263399
 30
0.0
 11
219.1830094969
 21
73.3093384792
 31
0.0
  0
ARC
  5
2ED
330
1F
100
AcDbEntity
  8
0
  6
HIDDEN
 62
     7
370
     0
100
AcDbCircle
 10
220.7385483657
 20
69.9026009801
 30
0.0
 40
3.74507163618593
100
AcDbArc
 50
295.1306089644
 51
114.5417525372
  0
LINE
  5
2EE
330
1F
100
AcDbEntity
  8
0
  6
HIDDEN
 62
     7
370
     0
100
AcDbLine
 10
222.329017154
 20
66.5120301442
 30
0.0
 11
220.5343585527
 21
65.6669180048
 31
0.0
  0
LINE
  5
2EF
330
1F
100
AcDbEntity
  8
0
  6
HIDDEN
 62
     7
370
     0
100
AcDbLine
 10
220.5343585527
 20
65.6669180048
 30
0.0
 11
220.219757787
 21
66.3466489082
 31
0.0
  0
LINE
  5
2F0
330
1F
100
AcDbEntity
  8
0
  6
HIDDEN
 62
     7
370
     0
100
AcDbLine
 10
221.9532843745
 20
67.1629722369
 30
0.0
 11
220.219757787
 21
66.3466489082
 31
0.0
  0
LINE
  5
2F1
330
1F
100
AcDbEntity
  8
0
  6
HIDDEN
 62
     7
370
     0
100
AcDbLine
 10
217.3883508956
 20
72.4642263399
 30
0.0
 11
217.2098871386
 21
72.4548041494
 31
0.0
  0
LINE
  5
2F2
330
1F
100
AcDbEntity
  8
0
  6
HIDDEN
 62
     7
370
     0
100
AcDbLine
 10
217.2098871386
 20
72.4548041494
 30
0.0
 11
219.0045457399
 21
73.2999162887
 31
0.0
  0
LINE
  5
2F3
330
1F
100
AcDbEntity
  8
0
  6
HIDDEN
 62
     7
370
     0
100
AcDbLine
 10
217.5244879043
 20
71.775073246
 30
0.0
 11
217.2098871386
 21
72.4548041494
 31
0.0
  0
ARC
  5
2F4
330
1F
100
AcDbEntity
  8
0
  6
HIDDEN
 62
     7
370
     0
100
AcDbCircle
 10
207.0591273893
 20
63.5609087416
 30
0.0
 40
4.595255619804274
100
AcDbArc
 50
344.1450782135
 51
65.52728254
  0
LINE
  5
2F5
330
1F
100
AcDbEntity
  8
0
  6
HIDDEN
 62
     7
370
     0
100
AcDbLine
 10
211.4795636451
 20
62.3054735502
 30
0.0
 11
220.0412940299
 21
66.3372264848
 31
0.0
  0
ARC
  5
2F6
330
1F
100
AcDbEntity
  8
0
  6
HIDDEN
 62
     7
370
     0
100
AcDbCircle
 10
220.5600840835
 20
69.8931768033
 30
0.0
 40
3.745073224994671
100
AcDbArc
 50
295.1307323404
 51
114.5417326065
  0
LINE
  5
2F7
330
1F
100
AcDbEntity
  8
0
  6
HIDDEN
 62
     7
370
     0
100
AcDbLine
 10
220.5343585527
 20
65.6669180048
 30
0.0
 11
220.3558947956
 21
65.6574958143
 31
0.0
  0
LINE
  5
2F8
330
1F
100
AcDbEntity
  8
0
  6
HIDDEN
 62
     7
370
     0
100
AcDbLine
 10
220.3558947956
 20
65.6574958143
 30
0.0
 11
220.0412940299
 21
66.3372264848
 31
0.0
  0
LINE
  5
2F9
330
1F
100
AcDbEntity
  8
0
  6
HIDDEN
 62
     7
370
     0
100
AcDbLine
 10
220.0412940299
 20
66.3372264848
 30
0.0
 11
220.219757787
 21
66.3466489082
 31
0.0
  0
LINE
  5
2FA
330
1F
100
AcDbEntity
  8
0
  6
HIDDEN
 62
     7
370
     0
100
AcDbLine
 10
222.1505608475
 20
66.5026079537
 30
0.0
 11
220.3558947956
 21
65.6574958143
 31
0.0
  0
CIRCLE
  5
2FB
330
1F
100
AcDbEntity
  8
0
  6
HIDDEN
 62
     7
370
     0
100
AcDbCircle
 10
208.928983784
 20
63.4988025468
 30
0.0
 40
3.982590928480924
  0
LWPOLYLINE
  5
2FC
330
1F
100
AcDbEntity
  8
0
  6
HIDDEN
 62
     7
370
     0
100
AcDbPolyline
 90
        3
 70
   128
 43
0.0
 10
207.5041722572
 20
66.6493087215
 10
208.24157112
 20
66.8989229621
 10
209.0027745879
 20
66.977096782
  0
ARC
  5
2FD
330
1F
100
AcDbEntity
  8
0
  6
HIDDEN
 62
     7
370
     0
100
AcDbCircle
 10
208.9957385872
 20
63.4800596801
 30
0.0
 40
3.502700330181729
100
AcDbArc
 50
115.2034179913
 51
270.1150921796
  0
CIRCLE
  5
2FE
330
1F
100
AcDbEntity
  8
0
  6
HIDDEN
 62
     7
370
     0
100
AcDbCircle
 10
207.9483518972
 20
63.4988048095
 30
0.0
 40
3.982588297904567
  0
LINE
  5
2FF
330
1F
100
AcDbEntity
  8
0
  6
HIDDEN
 62
     7
370
     0
100
AcDbLine
 10
206.9267597115
 20
62.7452352223
 30
0.0
 11
207.3815878546
 21
62.7452352223
 31
0.0
  0
LINE
  5
300
330
1F
100
AcDbEntity
  8
0
  6
HIDDEN
 62
     7
370
     0
100
AcDbLine
 10
207.0765983379
 20
64.4706951593
 30
0.0
 11
207.5314190304
 21
64.4706951593
 31
0.0
  0
LINE
  5
301
330
1F
100
AcDbEntity
  8
0
  6
HIDDEN
 62
     7
370
     0
100
AcDbLine
 10
208.8103782451
 20
65.0787337822
 30
0.0
 11
208.6346637523
 21
65.2026914199
 31
0.0
  0
LINE
  5
302
330
1F
100
AcDbEntity
  8
0
  6
HIDDEN
 62
     7
370
     0
100
AcDbLine
 10
208.6346637523
 20
65.2026914199
 30
0.0
 11
209.0894918954
 21
65.2026914199
 31
0.0
  0
LINE
  5
303
330
1F
100
AcDbEntity
  8
0
  6
HIDDEN
 62
     7
370
     0
100
AcDbLine
 10
208.3350014007
 20
61.7517715459
 30
0.0
 11
208.6016353285
 21
61.8770390888
 31
0.0
  0
LINE
  5
304
330
1F
100
AcDbEntity
  8
0
  6
HIDDEN
 62
     7
370
     0
100
AcDbLine
 10
208.3350014007
 20
61.7517715459
 30
0.0
 11
208.7898220932
 21
61.7517715459
 31
0.0
  0
ARC
  5
305
330
1F
100
AcDbEntity
  8
0
  6
HIDDEN
 62
     7
370
     0
100
AcDbCircle
 10
208.485436931
 20
63.4587320171
 30
0.0
 40
1.481524261895411
100
AcDbArc
 50
234.7737673607
 51
267.4014914679
  0
ARC
  5
306
330
1F
100
AcDbEntity
  8
0
  6
HIDDEN
 62
     7
370
     0
100
AcDbCircle
 10
208.5000167243
 20
63.4761028833
 30
0.0
 40
1.504125096281552
100
AcDbArc
 50
174.9705968598
 51
234.7017601533
  0
ARC
  5
307
330
1F
100
AcDbEntity
  8
0
  6
HIDDEN
 62
     7
370
     0
100
AcDbCircle
 10
208.4958453421
 20
63.4806486975
 30
0.0
 40
1.499577034334121
100
AcDbArc
 50
115.2728820685
 51
175.1296422724
  0
ARC
  5
308
330
1F
100
AcDbEntity
  8
0
  6
HIDDEN
 62
     7
370
     0
100
AcDbCircle
 10
208.4849317089
 20
63.4979631282
 30
0.0
 40
1.479262576593802
100
AcDbArc
 50
87.5625764585
 51
115.1769418649
  0
LINE
  5
309
330
1F
100
AcDbEntity
  8
0
  6
HIDDEN
 62
     7
370
     0
100
AcDbLine
 10
206.9267597115
 20
62.7452352223
 30
0.0
 11
207.6308842814
 21
62.2485031513
 31
0.0
  0
LINE
  5
30A
330
1F
100
AcDbEntity
  8
0
  6
HIDDEN
 62
     7
370
     0
100
AcDbLine
 10
207.00168275
 20
63.607964958
 30
0.0
 11
206.9267597115
 21
62.7452352223
 31
0.0
  0
LINE
  5
30B
330
1F
100
AcDbEntity
  8
0
  6
HIDDEN
 62
     7
370
     0
100
AcDbLine
 10
207.8556310451
 20
64.8366932896
 30
0.0
 11
207.0765983379
 21
64.4706951593
 31
0.0
  0
LINE
  5
30C
330
1F
100
AcDbEntity
  8
0
  6
HIDDEN
 62
     7
370
     0
100
AcDbLine
 10
207.0765983379
 20
64.4706951593
 30
0.0
 11
207.00168275
 21
63.607964958
 31
0.0
  0
LINE
  5
30D
330
1F
100
AcDbEntity
  8
0
  6
HIDDEN
 62
     7
370
     0
100
AcDbLine
 10
207.6308842814
 20
62.2485031513
 30
0.0
 11
208.3350014007
 21
61.7517715459
 31
0.0
  0
LINE
  5
30E
330
1F
100
AcDbEntity
  8
0
  6
HIDDEN
 62
     7
370
     0
100
AcDbLine
 10
208.6346637523
 20
65.2026914199
 30
0.0
 11
207.8556310451
 21
64.8366932896
 31
0.0
  0
CIRCLE
  5
30F
330
1F
100
AcDbEntity
  8
0
  6
HIDDEN
 62
     7
370
     0
100
AcDbCircle
 10
207.8028053867
 20
63.493492859
 30
0.0
 40
3.187305528638385
  0
CIRCLE
  5
310
330
1F
100
AcDbEntity
  8
0
  6
HIDDEN
 62
     7
370
     0
100
AcDbCircle
 10
207.719740659
 20
63.4934899701
 30
0.0
 40
3.187308907002271
  0
CIRCLE
  5
311
330
1F
100
AcDbEntity
  8
0
  6
HIDDEN
 62
     7
370
     0
100
AcDbCircle
 10
207.6491279804
 20
63.498529021
 30
0.0
 40
3.93280641009388
  0
CIRCLE
  5
312
330
1F
100
AcDbEntity
  8
0
  6
HIDDEN
 62
     7
370
     0
100
AcDbCircle
 10
207.4903335773
 20
63.4985293164
 30
0.0
 40
3.932806066665389
  0
CIRCLE
  5
313
330
1F
100
AcDbEntity
  8
0
  6
HIDDEN
 62
     7
370
     0
100
AcDbCircle
 10
207.0259672024
 20
63.4861446272
 30
0.0
 40
1.768203801998617
  0
CIRCLE
  5
314
330
1F
100
AcDbEntity
  8
0
  6
HIDDEN
 62
     7
370
     0
100
AcDbCircle
 10
207.3285203793
 20
63.4861446272
 30
0.0
 40
1.768203801998617
  0
CIRCLE
  5
315
330
1F
100
AcDbEntity
  8
0
  6
HIDDEN
 62
     7
370
     0
100
AcDbCircle
 10
206.8817118302
 20
63.4985272009
 30
0.0
 40
3.932808526203619
  0
ARC
  5
316
330
1F
100
AcDbEntity
  8
0
  6
HIDDEN
 62
     7
370
     0
100
AcDbCircle
 10
206.5684234203
 20
63.5007715654
 30
0.0
 40
3.922113782955055
100
AcDbArc
 50
3.8453414564
 51
114.9400156531
  0
ARC
  5
317
330
1F
100
AcDbEntity
  8
0
  6
HIDDEN
 62
     7
370
     0
100
AcDbCircle
 10
206.5615405402
 20
63.4860629794
 30
0.0
 40
3.932568177137924
100
AcDbArc
 50
114.758723321
 51
350.5946897636
  0
ARC
  5
318
330
1F
100
AcDbEntity
  8
0
  6
HIDDEN
 62
     7
370
     0
100
AcDbCircle
 10
206.4979242006
 20
63.5122881689
 30
0.0
 40
3.31358731704563
100
AcDbArc
 50
34.2438152839
 51
115.0839685424
  0
ARC
  5
319
330
1F
100
AcDbEntity
  8
0
  6
HIDDEN
 62
     7
370
     0
100
AcDbCircle
 10
206.4884216189
 20
63.4850179447
 30
0.0
 40
3.334318026816288
100
AcDbArc
 50
114.7374154917
 51
15.5266052082
  0
CIRCLE
  5
31A
330
1F
100
AcDbEntity
  8
0
  6
HIDDEN
 62
     7
370
     0
100
AcDbCircle
 10
171.4179179585
 20
69.8165053641
 30
0.0
 40
2.800000000000009
  0
CIRCLE
  5
31B
330
1F
100
AcDbEntity
  8
0
  6
HIDDEN
 62
     7
370
     0
100
AcDbCircle
 10
171.4179179585
 20
69.8165053641
 30
0.0
 40
2.480384757729341
  0
ELLIPSE
  5
31C
330
1F
100
AcDbEntity
  8
0
  6
HIDDEN
 62
     7
370
     0
100
AcDbEllipse
 10
234.4867505519
 20
69.8165053641
 30
0.0
 11
39.84277411711716
 21
31.10509843531041
 31
0.0
210
0.0
220
0.0
230
1.0
 40
0.1247957253
 41
1.741679494117853
 42
3.30010347180639
  0
ELLIPSE
  5
31D
330
1F
100
AcDbEntity
  8
0
  6
HIDDEN
 62
     7
370
     0
100
AcDbEllipse
 10
234.0075748709
 20
69.8165053641
 30
0.0
 11
0.0
 21
31.5
 31
0.0
210
0.0
220
0.0
230
1.0
 40
0.3213401947
 41
1.558423977688428
 42
1.583168675901364
  0
ELLIPSE
  5
31E
330
1F
100
AcDbEntity
  8
0
  6
HIDDEN
 62
     7
370
     0
100
AcDbEllipse
 10
234.4867505519
 20
69.8165053641
 30
0.0
 11
39.8427741171171
 21
-31.10509843531036
 31
0.0
210
0.0
220
0.0
230
1.0
 40
0.1247957253
 41
2.983081835373312
 42
4.541505813061736
  0
SPLINE
  5
31F
330
1F
100
AcDbEntity
  8
0
  6
HIDDEN
 62
     7
370
     0
100
AcDbSpline
210
0.0
220
0.0
230
1.0
 70
     8
 71
     3
 72
    12
 73
     8
 74
     0
 42
0.00000001
 43
0.00000001
 12
1.0
 22
0.0
 32
0.0
 13
1.0
 23
0.0
 33
0.0
 40
0.0
 40
0.0
 40
0.0
 40
0.0
 40
0.5000000000000006
 40
0.5000000000000006
 40
0.7500000000000004
 40
0.7500000000000004
 40
1.0
 40
1.0
 40
1.0
 40
1.0
 10
133.6014056720415
 20
85.26877334590752
 30
0.0
 10
133.6578118507218
 20
85.22095097224769
 30
0.0
 10
133.7279747521935
 20
85.18068012530917
 30
0.0
 10
133.8459854655827
 20
85.17263425683221
 30
0.0
 10
133.8861912491782
 20
85.17919685517104
 30
0.0
 10
133.9599119459112
 20
85.20657894962466
 30
0.0
 10
133.9927726676977
 20
85.22634044015498
 30
0.0
 10
134.022941069627
 20
85.24927315134303
 30
0.0
  0
SPLINE
  5
320
330
1F
100
AcDbEntity
  8
0
  6
HIDDEN
 62
     7
370
     0
100
AcDbSpline
210
0.0
220
0.0
230
1.0
 70
     8
 71
     3
 72
    15
 73
    11
 74
     0
 42
0.00000001
 43
0.00000001
 12
1.0
 22
0.0
 32
0.0
 13
1.0
 23
0.0
 33
0.0
 40
0.0
 40
0.0
 40
0.0
 40
0.0
 40
0.0595523247995303
 40
0.1082795015760455
 40
0.1573398835707347
 40
0.2001543639933419
 40
0.2729730938210174
 40
0.4170799970668755
 40
0.914129428998993
 40
0.9999999999999999
 40
0.9999999999999999
 40
0.9999999999999999
 40
0.9999999999999999
 10
134.0229410568996
 20
85.2492729340954
 30
0.0
 10
134.0298861895095
 20
85.25412515616918
 30
0.0
 10
134.042514000429
 20
85.26294758567892
 30
0.0
 10
134.064530726546
 20
85.27155248997627
 30
0.0
 10
134.0848231283283
 20
85.27398420730046
 30
0.0
 10
134.1058998821624
 20
85.27055322493882
 30
0.0
 10
134.1322192966854
 20
85.2567388406123
 30
0.0
 10
134.1779247302471
 20
85.19965503093407
 30
0.0
 10
134.1994248614331
 20
85.12845044088093
 30
0.0
 10
134.203115610329
 20
85.06622879348636
 30
0.0
 10
134.2036592985083
 20
85.05706285585596
 30
0.0
  0
SPLINE
  5
321
330
1F
100
AcDbEntity
  8
0
  6
HIDDEN
 62
     7
370
     0
100
AcDbSpline
210
0.0
220
0.0
230
1.0
 70
     8
 71
     3
 72
    15
 73
    11
 74
     0
 42
0.00000001
 43
0.00000001
 12
1.0
 22
0.0
 32
0.0
 13
1.0
 23
0.0
 33
0.0
 40
0.0
 40
0.0
 40
0.0
 40
0.0
 40
0.4306019074436232
 40
0.5870919746734342
 40
0.744495503997483
 40
0.8130618660485531
 40
0.8567143072020288
 40
0.9006883830095967
 40
0.9394124879505321
 40
1.0
 40
1.0
 40
1.0
 40
1.0
 10
134.1986276827798
 20
54.61330508341028
 30
0.0
 10
134.1971104302352
 20
54.56154610996382
 30
0.0
 10
134.1950417752267
 20
54.49097680359881
 30
0.0
 10
134.1620907534379
 20
54.41528405781816
 30
0.0
 10
134.1371617639589
 20
54.37996848704528
 30
0.0
 10
134.108084407284
 20
54.36312043939984
 30
0.0
 10
134.0862206203979
 20
54.35896212465509
 30
0.0
 10
134.0660711464214
 20
54.36119068670239
 30
0.0
 10
134.0437537559704
 20
54.36933557533609
 30
0.0
 10
134.0308272140244
 20
54.37828063737675
 30
0.0
 10
134.0229410568996
 20
54.38373779405786
 30
0.0
  0
SPLINE
  5
322
330
1F
100
AcDbEntity
  8
0
  6
HIDDEN
 62
     7
370
     0
100
AcDbSpline
210
0.0
220
0.0
230
1.0
 70
     8
 71
     3
 72
    12
 73
     8
 74
     0
 42
0.00000001
 43
0.00000001
 12
1.0
 22
0.0
 32
0.0
 13
1.0
 23
0.0
 33
0.0
 40
0.0
 40
0.0
 40
0.0
 40
0.0
 40
0.2499999999999998
 40
0.2499999999999998
 40
0.4999999999999999
 40
0.4999999999999999
 40
1.0
 40
1.0
 40
1.0
 40
1.0
 10
134.0229410696199
 20
54.38373757680205
 30
0.0
 10
133.9927492279027
 20
54.40668810589987
 30
0.0
 10
133.9593902584881
 20
54.42665757992402
 30
0.0
 10
133.8862529739075
 20
54.45375871354953
 30
0.0
 10
133.8460111012535
 20
54.46035945419495
 30
0.0
 10
133.7283053242851
 20
54.45239057968824
 30
0.0
 10
133.6578948465057
 20
54.41213012152037
 30
0.0
 10
133.6014056720374
 20
54.36423738224222
 30
0.0
  0
SPLINE
  5
323
330
1F
100
AcDbEntity
  8
0
  6
HIDDEN
 62
     7
370
     0
100
AcDbSpline
210
0.0
220
0.0
230
1.0
 70
     8
 71
     3
 72
    12
 73
     8
 74
     0
 42
0.00000001
 43
0.00000001
 12
1.0
 22
0.0
 32
0.0
 13
1.0
 23
0.0
 33
0.0
 40
0.0
 40
0.0
 40
0.0
 40
0.0
 40
0.2499999999999987
 40
0.2499999999999987
 40
0.4999999999999973
 40
0.4999999999999973
 40
1.0
 40
1.0
 40
1.0
 40
1.0
 10
133.601405672037
 20
54.36423738224245
 30
0.0
 10
133.5132517342992
 20
54.28949857438835
 30
0.0
 10
133.4528983096705
 20
54.19851807390597
 30
0.0
 10
133.3466363516037
 20
54.00960425115336
 30
0.0
 10
133.3044041850416
 20
53.91309979161278
 30
0.0
 10
133.1933334897245
 20
53.62233203744564
 30
0.0
 10
133.1403967132977
 20
53.4266652229019
 30
0.0
 10
133.0965976149289
 20
53.2325987378356
 30
0.0
  0
SPLINE
  5
324
330
1F
100
AcDbEntity
  8
0
  6
HIDDEN
 62
     7
370
     0
100
AcDbSpline
210
0.0
220
0.0
230
1.0
 70
     8
 71
     3
 72
    12
 73
     8
 74
     0
 42
0.00000001
 43
0.00000001
 12
1.0
 22
0.0
 32
0.0
 13
1.0
 23
0.0
 33
0.0
 40
0.0
 40
0.0
 40
0.0
 40
0.0
 40
0.5
 40
0.5
 40
0.75
 40
0.75
 40
1.0
 40
1.0
 40
1.0
 40
1.0
 10
133.0965976149289
 20
48.04642440907451
 30
0.0
 10
133.1403441557655
 20
48.01983023843334
 30
0.0
 10
133.193228510997
 20
48.00007001310761
 30
0.0
 10
133.3047955983331
 20
47.97961902287853
 30
0.0
 10
133.3473791948761
 20
47.97435879822208
 30
0.0
 10
133.4522959219579
 20
47.96647600429944
 30
0.0
 10
133.5138295298027
 20
47.96391187912029
 30
0.0
 10
133.6014056720288
 20
47.96171166160065
 30
0.0
  0
SPLINE
  5
325
330
1F
100
AcDbEntity
  8
0
  6
HIDDEN
 62
     7
370
     0
100
AcDbSpline
210
0.0
220
0.0
230
1.0
 70
     8
 71
     3
 72
    12
 73
     8
 74
     0
 42
0.00000001
 43
0.00000001
 12
1.0
 22
0.0
 32
0.0
 13
1.0
 23
0.0
 33
0.0
 40
0.0
 40
0.0
 40
0.0
 40
0.0
 40
0.2499999999999999
 40
0.2499999999999999
 40
0.5
 40
0.5
 40
1.0
 40
1.0
 40
1.0
 40
1.0
 10
133.6014056720368
 20
91.67129906655252
 30
0.0
 10
133.5127210121805
 20
91.66907099921154
 30
0.0
 10
133.452802596457
 20
91.66656921518121
 30
0.0
 10
133.3471433691363
 20
91.65863777934518
 30
0.0
 10
133.3045021310214
 20
91.65334562444835
 30
0.0
 10
133.1933127889189
 20
91.63294068396121
 30
0.0
 10
133.1403861067979
 20
91.61320599237435
 30
0.0
 10
133.0965976149289
 20
91.58658631907873
 30
0.0
  0
SPLINE
  5
326
330
1F
100
AcDbEntity
  8
0
  6
HIDDEN
 62
     7
370
     0
100
AcDbSpline
210
0.0
220
0.0
230
1.0
 70
     8
 71
     3
 72
    12
 73
     8
 74
     0
 42
0.00000001
 43
0.00000001
 12
1.0
 22
0.0
 32
0.0
 13
1.0
 23
0.0
 33
0.0
 40
0.0
 40
0.0
 40
0.0
 40
0.0
 40
0.5000000000000016
 40
0.5000000000000016
 40
0.7499999999999994
 40
0.7499999999999994
 40
1.0
 40
1.0
 40
1.0
 40
1.0
 10
133.0965976149273
 20
86.40041199031783
 30
0.0
 10
133.1403590912261
 20
86.20651220235577
 30
0.0
 10
133.1932654068791
 20
86.01065583841891
 30
0.0
 10
133.3049766045264
 20
85.71851369191997
 30
0.0
 10
133.3474960481128
 20
85.62179575522204
 30
0.0
 10
133.4526193906802
 20
85.43507131879757
 30
0.0
 10
133.5141853543979
 20
85.34272061052786
 30
0.0
 10
133.6014056720406
 20
85.26877334590817
 30
0.0
  0
ARC
  5
327
330
1F
100
AcDbEntity
  8
0
  6
HIDDEN
 62
     7
370
     0
100
AcDbCircle
 10
171.6484591666
 20
72.0675238573
 30
0.0
 40
0.2488550006877916
100
AcDbArc
 50
65.6238298003
 51
102.6808768581
  0
ARC
  5
328
330
1F
100
AcDbEntity
  8
0
  6
HIDDEN
 62
     7
370
     0
100
AcDbCircle
 10
171.6484591666
 20
67.5654868708
 30
0.0
 40
0.2488550006877777
100
AcDbArc
 50
257.3191231419
 51
294.3761701997
  0
CIRCLE
  5
329
330
1F
100
AcDbEntity
  8
0
  6
HIDDEN
 62
     7
370
     0
100
AcDbCircle
 10
118.9179179585
 20
69.8165053641
 30
0.0
 40
4.049999999999997
  0
LINE
  5
32A
330
1F
100
AcDbEntity
  8
0
  6
HIDDEN
 62
     7
370
     0
100
AcDbLine
 10
97.9481455004
 20
54.5035543059
 30
0.0
 11
97.9481455004
 21
85.1294564222
 31
0.0
  0
LINE
  5
32B
330
1F
100
AcDbEntity
  8
0
  6
HIDDEN
 62
     7
370
     0
100
AcDbLine
 10
104.4481456345
 20
55.4700948437
 30
0.0
 11
104.4481456345
 21
84.1629158845
 31
0.0
  0
LINE
  5
32C
330
1F
100
AcDbEntity
  8
0
  6
HIDDEN
 62
     7
370
     0
100
AcDbLine
 10
110.2481469577
 20
55.8165049319
 30
0.0
 11
110.2481469577
 21
83.8165057962
 31
0.0
  0
LINE
  5
32D
330
1F
100
AcDbEntity
  8
0
  6
HIDDEN
 62
     7
370
     0
100
AcDbLine
 10
102.8481464898
 20
55.8165049319
 30
0.0
 11
102.8481464898
 21
83.8165057962
 31
0.0
  0
LINE
  5
32E
330
1F
100
AcDbEntity
  8
0
  6
HIDDEN
 62
     7
370
     0
100
AcDbLine
 10
103.8481466538
 20
55.8165049319
 30
0.0
 11
103.8481466538
 21
83.8165057962
 31
0.0
  0
LINE
  5
32F
330
1F
100
AcDbEntity
  8
0
  6
HIDDEN
 62
     7
370
     0
100
AcDbLine
 10
123.4179180181
 20
56.3165050139
 30
0.0
 11
123.4179180181
 21
83.3165057143
 31
0.0
  0
LINE
  5
330
330
1F
100
AcDbEntity
  8
0
  6
HIDDEN
 62
     7
370
     0
100
AcDbLine
 10
122.9179179361
 20
70.4509342345
 30
0.0
 11
122.7520363471
 21
70.9447161666
 31
0.0
  0
LINE
  5
331
330
1F
100
AcDbEntity
  8
0
  6
HIDDEN
 62
     7
370
     0
100
AcDbLine
 10
119.0384956142
 20
73.8420209986
 30
0.0
 11
118.0497728354
 21
73.7472002534
 31
0.0
  0
LINE
  5
332
330
1F
100
AcDbEntity
  8
0
  6
HIDDEN
 62
     7
370
     0
100
AcDbLine
 10
122.6556034824
 20
68.3754464285
 30
0.0
 11
122.9179179361
 21
69.1820764937
 31
0.0
  0
LINE
  5
333
330
1F
100
AcDbEntity
  8
0
  6
HIDDEN
 62
     7
370
     0
100
AcDbLine
 10
124.6679177573
 20
60.8165057515
 30
0.0
 11
124.6679177573
 21
78.8165049766
 31
0.0
  0
LINE
  5
334
330
1F
100
AcDbEntity
  8
0
  6
HIDDEN
 62
     7
370
     0
100
AcDbLine
 10
150.4179187184
 20
60.8165057515
 30
0.0
 11
150.4179187184
 21
78.8165049766
 31
0.0
  0
LINE
  5
335
330
1F
100
AcDbEntity
  8
0
  6
HIDDEN
 62
     7
370
     0
100
AcDbLine
 10
153.2720051771
 20
65.5665051331
 30
0.0
 11
153.2720051771
 21
74.066505595
 31
0.0
  0
LINE
  5
336
330
1F
100
AcDbEntity
  8
0
  6
HIDDEN
 62
     7
370
     0
100
AcDbLine
 10
175.417919091
 20
69.8165053641
 30
0.0
 11
175.417919091
 21
65.5665051331
 31
0.0
  0
LINE
  5
337
330
1F
100
AcDbEntity
  8
0
  6
HIDDEN
 62
     7
370
     0
100
AcDbLine
 10
175.417919091
 20
74.066505595
 30
0.0
 11
175.417919091
 21
69.8165053641
 31
0.0
  0
ARC
  5
338
330
1F
100
AcDbEntity
  8
0
  6
HIDDEN
 62
     7
370
     0
100
AcDbCircle
 10
211.3319688408
 20
72.7103229048
 30
0.0
 40
3.500237643997365
100
AcDbArc
 50
84.3372559354
 51
229.9293657414
  0
CIRCLE
  5
339
330
1F
100
AcDbEntity
  8
0
  6
HIDDEN
 62
     7
370
     0
100
AcDbCircle
 10
208.3705273884
 20
63.4810911961
 30
0.0
 40
3.491152105650389
  0
LINE
  5
33A
330
1F
100
AcDbEntity
  8
0
  6
HIDDEN
 62
     7
370
     0
100
AcDbLine
 10
222.1964936769
 20
59.5601767441
 30
0.0
 11
220.8964940226
 21
60.0410279026
 31
0.0
  0
LINE
  5
33B
330
1F
100
AcDbEntity
  8
0
  6
HIDDEN
 62
     7
370
     0
100
AcDbLine
 10
214.7469561613
 20
74.3777037737
 30
0.0
 11
215.3554674303
 21
73.8632681919
 31
0.0
  0
LINE
  5
33C
330
1F
100
AcDbEntity
  8
0
  6
HIDDEN
 62
     7
370
     0
100
AcDbLine
 10
214.7936564004
 20
73.8632681919
 30
0.0
 11
215.3554674303
 21
73.8632681919
 31
0.0
  0
LINE
  5
33D
330
1F
100
AcDbEntity
  8
0
  6
HIDDEN
 62
     7
370
     0
100
AcDbLine
 10
214.7936564004
 20
73.8632681919
 30
0.0
 11
214.4660543716
 21
74.1402230365
 31
0.0
  0
LINE
  5
33E
330
1F
100
AcDbEntity
  8
0
  6
HIDDEN
 62
     7
370
     0
100
AcDbLine
 10
222.1964936769
 20
80.0728339841
 30
0.0
 11
220.8964940226
 21
79.5919828256
 31
0.0
  0
ELLIPSE
  5
33F
330
1F
100
AcDbEntity
  8
0
  6
HIDDEN
 62
     7
370
     0
100
AcDbEllipse
 10
215.8689691068
 20
67.0036244488
 30
0.0
 11
3.68580530981788
 21
1.800462407451036
 31
0.0
210
0.0
220
0.0
230
1.0
 40
0.8520481147
 41
4.528313489539613
 42
4.694563322874638
  0
ELLIPSE
  5
340
330
1F
100
AcDbEntity
  8
0
  6
HIDDEN
 62
     7
370
     0
100
AcDbEllipse
 10
215.8689691068
 20
67.0036244488
 30
0.0
 11
3.68580530981788
 21
1.800462407451036
 31
0.0
210
0.0
220
0.0
230
1.0
 40
0.8520481147
 41
2.252819523692439
 42
2.472378428035689
  0
ELLIPSE
  5
341
330
1F
100
AcDbEntity
  8
0
  6
HIDDEN
 62
     7
370
     0
100
AcDbEllipse
 10
214.3257705721
 20
66.407796383
 30
0.0
 11
3.340480305532195
 21
-2.451703880153736
 31
0.0
210
0.0
220
0.0
230
1.0
 40
0.1163726509
 41
2.28449355179707
 42
2.945552482005788
  0
ELLIPSE
  5
342
330
1F
100
AcDbEntity
  8
0
  6
HIDDEN
 62
     7
370
     0
100
AcDbEllipse
 10
212.7158581407
 20
65.78621012
 30
0.0
 11
3.68580530981788
 21
1.800462407451036
 31
0.0
210
0.0
220
0.0
230
1.0
 40
0.8520481147
 41
1.552970669284848
 42
1.59176059348374
  0
SPLINE
  5
343
330
1F
100
AcDbEntity
  8
0
  6
HIDDEN
 62
     7
370
     0
100
AcDbSpline
210
0.0
220
0.0
230
1.0
 70
     8
 71
     3
 72
    22
 73
    18
 74
     0
 42
0.00000001
 43
0.00000001
 12
1.0
 22
0.0
 32
0.0
 13
1.0
 23
0.0
 33
0.0
 40
0.0
 40
0.0
 40
0.0
 40
0.0
 40
0.1250000000000007
 40
0.1250000000000007
 40
0.2500000000000015
 40
0.2500000000000015
 40
0.5000000000000017
 40
0.5000000000000017
 40
0.6250000000000018
 40
0.6250000000000018
 40
0.7500000000000018
 40
0.7500000000000018
 40
0.8750000000000019
 40
0.8750000000000019
 40
0.937500000000001
 40
0.937500000000001
 40
1.0
 40
1.0
 40
1.0
 40
1.0
 10
207.8086771624726
 20
67.63047503521646
 30
0.0
 10
207.8585772104402
 20
67.63047503521646
 30
0.0
 10
207.9435794814272
 20
67.62539287156632
 30
0.0
 10
208.1470566327064
 20
67.6072917155128
 30
0.0
 10
208.2658863582386
 20
67.59411744075777
 30
0.0
 10
208.6528846612677
 20
67.5397423313354
 30
0.0
 10
208.9506145891286
 20
67.48421657948175
 30
0.0
 10
209.4336195813772
 20
67.35149668702203
 30
0.0
 10
209.6011382758739
 20
67.29892455110598
 30
0.0
 10
209.9496160507275
 20
67.17036891407399
 30
0.0
 10
210.1307895965726
 20
67.09447428434413
 30
0.0
 10
210.5090247044588
 20
66.90679864796913
 30
0.0
 10
210.7038994337311
 20
66.79664706520875
 30
0.0
 10
211.0093347764351
 20
66.58651552408591
 30
0.0
 10
211.1133615680571
 20
66.5088906754762
 30
0.0
 10
211.3279909232425
 20
66.32971565261848
 30
0.0
 10
211.437522970744
 20
66.22922808249623
 30
0.0
 10
211.549267760668
 20
66.1109493810031
 30
0.0
  0
LINE
  5
344
330
1F
100
AcDbEntity
  8
0
  6
HIDDEN
 62
     7
370
     0
100
AcDbLine
 10
211.5492712772
 20
66.1109493253
 30
0.0
 11
211.7461454189
 21
65.5501697351
 31
0.0
  0
SPLINE
  5
345
330
1F
100
AcDbEntity
  8
0
  6
HIDDEN
 62
     7
370
     0
100
AcDbSpline
210
0.0
220
0.0
230
1.0
 70
     8
 71
     3
 72
     9
 73
     5
 74
     0
 42
0.00000001
 43
0.00000001
 12
1.0
 22
0.0
 32
0.0
 13
1.0
 23
0.0
 33
0.0
 40
0.0
 40
0.0
 40
0.0
 40
0.0
 40
0.2832358379065296
 40
1.0
 40
1.0
 40
1.0
 40
1.0
 10
212.3036202108766
 20
64.43228741635515
 30
0.0
 10
212.3109838554533
 20
64.41775152386225
 30
0.0
 10
212.336982135301
 20
64.36643071431942
 30
0.0
 10
212.3689248155437
 20
64.32221344852822
 30
0.0
 10
212.391820183983
 20
64.29052009706332
 30
0.0
  0
SPLINE
  5
346
330
1F
100
AcDbEntity
  8
0
  6
HIDDEN
 62
     7
370
     0
100
AcDbSpline
210
0.0
220
0.0
230
1.0
 70
     8
 71
     3
 72
    13
 73
     9
 74
     0
 42
0.00000001
 43
0.00000001
 12
1.0
 22
0.0
 32
0.0
 13
1.0
 23
0.0
 33
0.0
 40
0.0
 40
0.0
 40
0.0
 40
0.0
 40
0.0958256553371371
 40
0.1954221022514254
 40
0.4701382046363513
 40
0.7513283268289266
 40
0.9632550815414923
 40
1.0
 40
1.0
 40
1.0
 40
1.0
 10
212.391820183983
 20
64.29052009706332
 30
0.0
 10
212.394227855401
 20
64.0948724482411
 30
0.0
 10
212.399137941415
 20
63.69587830936599
 30
0.0
 10
212.2291726485765
 20
62.97985629285581
 30
0.0
 10
211.8476911875909
 20
62.23158106810558
 30
0.0
 10
211.3258737158411
 20
61.64574158938206
 30
0.0
 10
210.9633854228234
 20
61.35225080598115
 30
0.0
 10
210.8509629059961
 20
61.32007069122725
 30
0.0
 10
210.834350816002
 20
61.31531560321285
 30
0.0
  0
ELLIPSE
  5
347
330
1F
100
AcDbEntity
  8
0
  6
HIDDEN
 62
     7
370
     0
100
AcDbEllipse
 10
213.3595786976
 20
66.0347502564
 30
0.0
 11
3.340480305532225
 21
-2.451703880153737
 31
0.0
210
0.0
220
0.0
230
1.0
 40
0.1163726509
 41
0.0089995859498621
 42
2.06493464745377
  0
ARC
  5
348
330
1F
100
AcDbEntity
  8
0
  6
HIDDEN
 62
     7
370
     0
100
AcDbCircle
 10
211.5872138994
 20
73.0227468551
 30
0.0
 40
3.099152273000839
100
AcDbArc
 50
98.7677206677
 51
196.4704934439
  0
LINE
  5
349
330
1F
100
AcDbEntity
  8
0
  6
HIDDEN
 62
     7
370
     0
100
AcDbLine
 10
212.3546641385
 20
68.3066301885
 30
0.0
 11
209.960166744
 21
70.3309411206
 31
0.0
  0
LINE
  5
34A
330
1F
100
AcDbEntity
  8
0
  6
HIDDEN
 62
     7
370
     0
100
AcDbLine
 10
209.0787556088
 20
70.031761034
 30
0.0
 11
212.0264586127
 21
67.5397662585
 31
0.0
  0
ARC
  5
34B
330
1F
100
AcDbEntity
  8
0
  6
HIDDEN
 62
     7
370
     0
100
AcDbCircle
 10
205.9295670514
 20
63.4628657986
 30
0.0
 40
4.172707988711205
100
AcDbArc
 50
179.8027432767
 51
18.8603172217
  0
ARC
  5
34C
330
1F
100
AcDbEntity
  8
0
  6
HIDDEN
 62
     7
370
     0
100
AcDbCircle
 10
205.9218878133
 20
63.5064871107
 30
0.0
 40
4.165106768321006
100
AcDbArc
 50
29.808106178
 51
180.4024477345
  0
ELLIPSE
  5
34D
330
1F
100
AcDbEntity
  8
0
  6
HIDDEN
 62
     7
370
     0
100
AcDbEllipse
 10
207.1071341872
 20
63.477231438
 30
0.0
 11
-0.8683615577165824
 21
4.123771890140375
 31
0.0
210
0.0
220
0.0
230
1.0
 40
0.9173119931
 41
3.972797940918232
 42
5.943019507593699
  0
LINE
  5
34E
330
1F
100
AcDbEntity
  8
0
  6
HIDDEN
 62
     7
370
     0
100
AcDbLine
 10
210.486907891
 20
61.2863207375
 30
0.0
 11
210.7449512994
 21
61.2863207375
 31
0.0
  0
LINE
  5
34F
330
1F
100
AcDbEntity
  8
0
  6
HIDDEN
 62
     7
370
     0
100
AcDbLine
 10
207.8086774862
 20
67.6304749818
 30
0.0
 11
207.5506340778
 21
67.6304749818
 31
0.0
  0
ARC
  5
350
330
1F
100
AcDbEntity
  8
0
  6
HIDDEN
 62
     7
370
     0
100
AcDbCircle
 10
208.2805818956
 20
63.4929094648
 30
0.0
 40
4.187894815321805
100
AcDbArc
 50
38.6928020454
 51
10.9794100893
  0
ARC
  5
351
330
1F
100
AcDbEntity
  8
0
  6
HIDDEN
 62
     7
370
     0
100
AcDbCircle
 10
211.0247905598
 20
73.016489431
 30
0.0
 40
3.100922043822095
100
AcDbArc
 50
85.1673961007
 51
229.8980265717
  0
LINE
  5
352
330
1F
100
AcDbEntity
  8
0
  6
HIDDEN
 62
     7
370
     0
100
AcDbLine
 10
215.3554674303
 20
73.8632681919
 30
0.0
 11
221.5141471541
 21
79.0698200603
 31
0.0
  0
LINE
  5
353
330
1F
100
AcDbEntity
  8
0
  6
HIDDEN
 62
     7
370
     0
100
AcDbLine
 10
220.8964940226
 20
79.5919828256
 30
0.0
 11
214.7378217494
 21
74.3854309571
 31
0.0
  0
LINE
  5
354
330
1F
100
AcDbEntity
  8
0
  6
HIDDEN
 62
     7
370
     0
100
AcDbLine
 10
220.8964940226
 20
79.5919828256
 30
0.0
 11
221.5141471541
 21
79.0698200603
 31
0.0
  0
LINE
  5
355
330
1F
100
AcDbEntity
  8
0
  6
HIDDEN
 62
     7
370
     0
100
AcDbLine
 10
221.5141471541
 20
79.0698200603
 30
0.0
 11
220.5153148687
 21
78.7003653263
 31
0.0
  0
LINE
  5
356
330
1F
100
AcDbEntity
  8
0
  6
HIDDEN
 62
     7
370
     0
100
AcDbLine
 10
217.5370123303
 20
63.9254644652
 30
0.0
 11
217.3371058023
 21
63.8315471028
 31
0.0
  0
LINE
  5
357
330
1F
100
AcDbEntity
  8
0
  6
HIDDEN
 62
     7
370
     0
100
AcDbLine
 10
221.5141471541
 20
60.5631906678
 30
0.0
 11
217.5370123303
 21
63.9254644652
 31
0.0
  0
LINE
  5
358
330
1F
100
AcDbEntity
  8
0
  6
HIDDEN
 62
     7
370
     0
100
AcDbLine
 10
216.7024876988
 20
63.5866441903
 30
0.0
 11
220.8964940226
 21
60.0410279026
 31
0.0
  0
LINE
  5
359
330
1F
100
AcDbEntity
  8
0
  6
HIDDEN
 62
     7
370
     0
100
AcDbLine
 10
220.8964940226
 20
60.0410279026
 30
0.0
 11
221.5141471541
 21
60.5631906678
 31
0.0
  0
LINE
  5
35A
330
1F
100
AcDbEntity
  8
0
  6
HIDDEN
 62
     7
370
     0
100
AcDbLine
 10
215.0801759279
 20
63.643862321
 30
0.0
 11
210.486907891
 21
61.2863207375
 31
0.0
  0
LINE
  5
35B
330
1F
100
AcDbEntity
  8
0
  6
HIDDEN
 62
     7
370
     0
100
AcDbLine
 10
220.7320075548
 20
65.826031207
 30
0.0
 11
221.020590893
 21
65.826031207
 31
0.0
  0
LINE
  5
35C
330
1F
100
AcDbEntity
  8
0
  6
HIDDEN
 62
     7
370
     0
100
AcDbLine
 10
221.020590893
 20
65.826031207
 30
0.0
 11
216.9751938498
 21
63.9254644652
 31
0.0
  0
LINE
  5
35D
330
1F
100
AcDbEntity
  8
0
  6
HIDDEN
 62
     7
370
     0
100
AcDbLine
 10
216.9751938498
 20
63.9254644652
 30
0.0
 11
217.5370123303
 21
63.9254644652
 31
0.0
  0
LINE
  5
35E
330
1F
100
AcDbEntity
  8
0
  6
HIDDEN
 62
     7
370
     0
100
AcDbLine
 10
221.5141471541
 20
60.5631906678
 30
0.0
 11
220.5153148687
 21
60.9326454019
 31
0.0
  0
SPLINE
  5
35F
330
1F
100
AcDbEntity
  8
0
  6
HIDDEN
 62
     7
370
     0
100
AcDbSpline
210
0.0
220
0.0
230
1.0
 70
     8
 71
     3
 72
    16
 73
    12
 74
     0
 42
0.00000001
 43
0.00000001
 12
1.0
 22
0.0
 32
0.0
 13
1.0
 23
0.0
 33
0.0
 40
0.0
 40
0.0
 40
0.0
 40
0.0
 40
0.2499999999999998
 40
0.2499999999999998
 40
0.3749999999999997
 40
0.3749999999999997
 40
0.4999999999999996
 40
0.4999999999999996
 40
0.7499999999999998
 40
0.7499999999999998
 40
1.0
 40
1.0
 40
1.0
 40
1.0
 10
133.0965976149289
 20
91.58658631907873
 30
0.0
 10
132.9353651374444
 20
91.48857070602403
 30
0.0
 10
132.8148852978048
 20
91.30183467434796
 30
0.0
 10
132.6925047804915
 20
90.88879486678907
 30
0.0
 10
132.661527120094
 20
90.72879436755615
 30
0.0
 10
132.6199133824661
 20
90.36198871646498
 30
0.0
 10
132.6096774695333
 20
90.15865156384098
 30
0.0
 10
132.6094890724771
 20
89.4913642972143
 30
0.0
 10
132.6496337751148
 20
88.97054983332623
 30
0.0
 10
132.8137875300543
 20
87.77319081784854
 30
0.0
 10
132.9353391804639
 20
87.11492116355255
 30
0.0
 10
133.0965976149289
 20
86.40041199031765
 30
0.0
  0
SPLINE
  5
360
330
1F
100
AcDbEntity
  8
0
  6
HIDDEN
 62
     7
370
     0
100
AcDbSpline
210
0.0
220
0.0
230
1.0
 70
     8
 71
     3
 72
    16
 73
    12
 74
     0
 42
0.00000001
 43
0.00000001
 12
1.0
 22
0.0
 32
0.0
 13
1.0
 23
0.0
 33
0.0
 40
0.0
 40
0.0
 40
0.0
 40
0.0
 40
0.2499999999999991
 40
0.2499999999999991
 40
0.3749999999999989
 40
0.3749999999999989
 40
0.4999999999999988
 40
0.4999999999999988
 40
0.7499999999999993
 40
0.7499999999999993
 40
1.0
 40
1.0
 40
1.0
 40
1.0
 10
133.0965976149289
 20
53.23259873783561
 30
0.0
 10
132.9353651374444
 20
52.51820457564347
 30
0.0
 10
132.8148852978048
 20
51.8648623129348
 30
0.0
 10
132.6925047804915
 20
50.97660707113091
 30
0.0
 10
132.661527120094
 20
50.69592653477907
 30
0.0
 10
132.6199133824661
 20
50.16689254493907
 30
0.0
 10
132.6096774695333
 20
49.92357156636061
 30
0.0
 10
132.6094890724771
 20
49.2555488758474
 30
0.0
 10
132.6496337751148
 20
48.89186796642793
 30
0.0
 10
132.8137875300543
 20
48.3319770938796
 30
0.0
 10
132.9353391804639
 20
48.14445580176246
 30
0.0
 10
133.0965976149289
 20
48.04642440907451
 30
0.0
  0
ARC
  5
361
330
1F
100
AcDbEntity
  8
0
  6
HIDDEN
 62
     7
370
     0
100
AcDbCircle
 10
221.2958477922
 20
69.8050059049
 30
0.0
 40
3.988484174013574
100
AcDbArc
 50
266.0427059907
 51
143.6296536942
  0
LINE
  5
362
330
1F
100
AcDbEntity
  8
0
  6
HIDDEN
 62
     7
370
     0
100
AcDbLine
 10
211.2477164781
 20
68.9582873624
 30
0.0
 11
218.0843170798
 21
72.170185917
 31
0.0
  0
LINE
  5
363
330
1F
100
AcDbEntity
  8
0
  6
HIDDEN
 62
     7
370
     0
100
AcDbLine
 10
230.5627804315
 20
69.4267863023
 30
0.0
 11
230.5627804315
 21
70.2062244259
 31
0.0
  0
LINE
  5
364
330
1F
100
AcDbEntity
  8
0
  6
HIDDEN
 62
     7
370
     0
100
AcDbLine
 10
216.9751938498
 20
63.9254644652
 30
0.0
 11
220.5153148687
 21
60.9326454019
 31
0.0
  0
LINE
  5
365
330
1F
100
AcDbEntity
  8
0
  6
HIDDEN
 62
     7
370
     0
100
AcDbLine
 10
220.5153148687
 20
78.7003653263
 30
0.0
 11
214.7936564004
 21
73.8632681919
 31
0.0
  0
LINE
  5
366
330
1F
100
AcDbEntity
  8
0
  6
HIDDEN
 62
     7
370
     0
100
AcDbLine
 10
209.0273317015
 20
70.6445965939
 30
0.0
 11
211.1048515952
 21
68.8882608688
 31
0.0
  0
LINE
  5
367
330
1F
100
AcDbEntity
  8
0
  6
HIDDEN
 62
     7
370
     0
100
AcDbLine
 10
220.5153148687
 20
60.9326454019
 30
0.0
 11
230.5627804315
 21
69.4267863023
 31
0.0
  0
LINE
  5
368
330
1F
100
AcDbEntity
  8
0
  6
HIDDEN
 62
     7
370
     0
100
AcDbLine
 10
220.5153148687
 20
78.7003653263
 30
0.0
 11
230.5627804315
 21
70.2062244259
 31
0.0
  0
ARC
  5
369
330
1F
100
AcDbEntity
  8
0
  6
HIDDEN
 62
     7
370
     0
100
AcDbCircle
 10
220.4500122849
 20
69.8037721278
 30
0.0
 40
3.987824482606521
100
AcDbArc
 50
253.1191593868
 51
156.5532087492
  0
SPLINE
  5
36A
330
1F
100
AcDbEntity
  8
0
  6
HIDDEN
 62
     7
370
     0
100
AcDbSpline
210
0.0
220
0.0
230
1.0
 70
     8
 71
     3
 72
    12
 73
     8
 74
     0
 42
0.00000001
 43
0.00000001
 12
1.0
 22
0.0
 32
0.0
 13
1.0
 23
0.0
 33
0.0
 40
0.0
 40
0.0
 40
0.0
 40
0.0
 40
0.2500000000000002
 40
0.2500000000000002
 40
0.5000000000000004
 40
0.5000000000000004
 40
1.0
 40
1.0
 40
1.0
 40
1.0
 10
217.7957331592527
 20
72.17018587394219
 30
0.0
 10
217.7475398514261
 20
72.1701858739422
 30
0.0
 10
217.6771471420671
 20
72.14009515392058
 30
0.0
 10
217.5209631162654
 20
72.05153088749141
 30
0.0
 10
217.4343324096592
 20
71.9922114565646
 30
0.0
 10
217.1654977145838
 20
71.78377304333489
 30
0.0
 10
216.9746293211786
 20
71.60500731342819
 30
0.0
 10
216.7914615169771
 20
71.39051656609782
 30
0.0
  0
SPLINE
  5
36B
330
1F
100
AcDbEntity
  8
0
  6
HIDDEN
 62
     7
370
     0
100
AcDbSpline
210
0.0
220
0.0
230
1.0
 70
     8
 71
     3
 72
    12
 73
     8
 74
     0
 42
0.00000001
 43
0.00000001
 12
1.0
 22
0.0
 32
0.0
 13
1.0
 23
0.0
 33
0.0
 40
0.0
 40
0.0
 40
0.0
 40
0.0
 40
0.5000000000000014
 40
0.5000000000000014
 40
0.7500000000000007
 40
0.7500000000000007
 40
1.0
 40
1.0
 40
1.0
 40
1.0
 10
219.292020154544
 20
65.98778008423838
 30
0.0
 10
219.6053498279634
 20
65.9203183623212
 30
0.0
 10
219.8974711841239
 20
65.88103007665002
 30
0.0
 10
220.2802486667037
 20
65.84587360022653
 30
0.0
 10
220.3979565834072
 20
65.83822560946776
 30
0.0
 10
220.5992030244197
 20
65.82839321758031
 30
0.0
 10
220.683959812177
 20
65.82603136468593
 30
0.0
 10
220.7320100643819
 20
65.82603136468593
 30
0.0
  0
LINE
  5
36C
330
1F
100
AcDbEntity
  8
0
  6
HIDDEN
 62
     7
370
     0
100
AcDbLine
 10
218.0843170798
 20
72.170185917
 30
0.0
 11
217.7957337415
 21
72.170185917
 31
0.0
  0
LINE
  5
36D
330
1F
100
AcDbEntity
  8
0
  6
HIDDEN
 62
     7
370
     0
100
AcDbLine
 10
223.8861363447
 20
69.4267863023
 30
0.0
 11
230.5627804315
 21
69.4267863023
 31
0.0
  0
LINE
  5
36E
330
1F
100
AcDbEntity
  8
0
  6
HIDDEN
 62
     7
370
     0
100
AcDbLine
 10
230.5627804315
 20
70.2062244259
 30
0.0
 11
223.8861363447
 21
70.2062244259
 31
0.0
  0
ELLIPSE
  5
36F
330
1F
100
AcDbEntity
  8
0
  6
HIDDEN
 62
     7
370
     0
100
AcDbEllipse
 10
216.0956954926
 20
67.7748776435
 30
0.0
 11
3.685805309817908
 21
1.80046240745105
 31
0.0
210
0.0
220
0.0
230
1.0
 40
0.8520481147
 41
5.246313177089607
 42
7.284406122249517
  0
LWPOLYLINE
  5
370
330
1F
100
AcDbEntity
  8
0
  6
HIDDEN
 62
     7
370
     0
100
AcDbPolyline
 90
       15
 70
   128
 43
0.0
 10
215.0801759279
 20
63.643862321
 10
215.5872102892
 20
64.0025239577
 10
215.9951966321
 20
64.5022614067
 10
216.2836831129
 20
65.1180169684
 10
216.4382007038
 20
65.8189131086
 10
216.4510008013
 20
66.5698042744
 10
216.3214426553
 20
67.3330377926
 10
216.0560306227
 20
68.0703418934
 10
215.6680639899
 20
68.7447450496
 10
215.1769962227
 20
69.3224297743
 10
214.6074589407
 20
69.7744286431
 10
213.9880027687
 20
70.0780765351
 10
213.3497040784
 20
70.2181472757
 10
212.7245482123
 20
70.1876171247
 10
212.1439021146
 20
69.9880169873
  0
LINE
  5
371
330
1F
100
AcDbEntity
  8
0
  6
HIDDEN
 62
     7
370
     0
100
AcDbLine
 10
207.5506340778
 20
67.6304749818
 30
0.0
 11
212.1439021146
 21
69.9880169873
 31
0.0
  0
LINE
  5
372
330
1F
100
AcDbEntity
  8
0
  6
HIDDEN
 62
     7
370
     0
100
AcDbLine
 10
134.2179179635
 20
76.838392592
 30
0.0
 11
134.2179179635
 21
62.7946181362
 31
0.0
  0
SPLINE
  5
373
330
1F
100
AcDbEntity
  8
0
  6
HIDDEN
 62
     7
370
     0
100
AcDbSpline
210
0.0
220
0.0
230
1.0
 70
     8
 71
     3
 72
     8
 73
     4
 74
     0
 42
0.00000001
 43
0.00000001
 12
1.0
 22
0.0
 32
0.0
 13
1.0
 23
0.0
 33
0.0
 40
0.0000249638557296
 40
0.0000249638557296
 40
0.0000249638557296
 40
0.0000249638557296
 40
0.0049776420541172
 40
0.0049776420541172
 40
0.0049776420541172
 40
0.0049776420541172
 10
97.91791795848852
 20
65.85129446724017
 30
0.0
 10
99.5678941929981
 20
65.81001522947186
 30
0.0
 10
101.2178955127432
 20
65.76979354823256
 30
0.0
 10
102.8679179584886
 20
65.73054431097745
 30
0.0
  0
SPLINE
  5
374
330
1F
100
AcDbEntity
  8
0
  6
HIDDEN
 62
     7
370
     0
100
AcDbSpline
210
0.0
220
0.0
230
1.0
 70
     8
 71
     3
 72
     8
 73
     4
 74
     0
 42
0.00000001
 43
0.00000001
 12
1.0
 22
0.0
 32
0.0
 13
1.0
 23
0.0
 33
0.0
 40
0.0000249631533153
 40
0.0000249631533153
 40
0.0000249631533153
 40
0.0000249631533153
 40
0.0049776413517029
 40
0.0049776413517029
 40
0.0049776413517029
 40
0.0049776413517029
 10
102.8679179584886
 20
73.90246641717579
 30
0.0
 10
101.2178955127432
 20
73.86321717992068
 30
0.0
 10
99.56789419299812
 20
73.82299549868138
 30
0.0
 10
97.91791795848857
 20
73.78171626091309
 30
0.0
  0
SPLINE
  5
375
330
1F
100
AcDbEntity
  8
0
  6
HIDDEN
 62
     7
370
     0
100
AcDbSpline
210
0.0
220
0.0
230
1.0
 70
     8
 71
     3
 72
     8
 73
     4
 74
     0
 42
0.00000001
 43
0.00000001
 12
1.0
 22
0.0
 32
0.0
 13
1.0
 23
0.0
 33
0.0
 40
0.0
 40
0.0
 40
0.0
 40
0.0
 40
1.0
 40
1.0
 40
1.0
 40
1.0
 10
96.41791795848643
 20
66.91451803109635
 30
0.0
 10
96.88467856986419
 20
66.49915478547331
 30
0.0
 10
97.39042611664428
 20
66.15456435616876
 30
0.0
 10
97.91791795848862
 20
65.85129446724017
 30
0.0
  0
SPLINE
  5
376
330
1F
100
AcDbEntity
  8
0
  6
HIDDEN
 62
     7
370
     0
100
AcDbSpline
210
0.0
220
0.0
230
1.0
 70
     8
 71
     3
 72
     8
 73
     4
 74
     0
 42
0.00000001
 43
0.00000001
 12
1.0
 22
0.0
 32
0.0
 13
1.0
 23
0.0
 33
0.0
 40
0.0
 40
0.0
 40
0.0
 40
0.0
 40
1.0
 40
1.0
 40
1.0
 40
1.0
 10
97.91791795848864
 20
73.78171626091309
 30
0.0
 10
97.39042611664514
 20
73.47844637198497
 30
0.0
 10
96.88467856986584
 20
73.13385594268105
 30
0.0
 10
96.4179179584887
 20
72.7184926970589
 30
0.0
  0
LINE
  5
377
330
1F
100
AcDbEntity
  8
0
  6
HIDDEN
 62
     7
370
     0
100
AcDbLine
 10
102.8679166055
 20
65.7305441004
 30
0.0
 11
102.8679166055
 21
73.9024666277
 31
0.0
  0
SPLINE
  5
378
330
1F
100
AcDbEntity
  8
0
  6
HIDDEN
 62
     7
370
     0
100
AcDbSpline
210
0.0
220
0.0
230
1.0
 70
     8
 71
     3
 72
    24
 73
    20
 74
     0
 42
0.00000001
 43
0.00000001
 12
1.0
 22
0.0
 32
0.0
 13
1.0
 23
0.0
 33
0.0
 40
0.0
 40
0.0
 40
0.0
 40
0.0
 40
0.1250000000000002
 40
0.1250000000000002
 40
0.2500000000000004
 40
0.2500000000000004
 40
0.3750000000000004
 40
0.3750000000000004
 40
0.4375000000000004
 40
0.4375000000000004
 40
0.5000000000000004
 40
0.5000000000000004
 40
0.6250000000000004
 40
0.6250000000000004
 40
0.7500000000000003
 40
0.7500000000000003
 40
0.8750000000000002
 40
0.8750000000000002
 40
1.0
 40
1.0
 40
1.0
 40
1.0
 10
102.8679179584886
 20
65.73054431097738
 30
0.0
 10
103.1057215907637
 20
66.02955141330752
 30
0.0
 10
103.335807251975
 20
66.33388926462627
 30
0.0
 10
103.7705606505848
 20
66.95962280202224
 30
0.0
 10
103.975493442871
 20
67.28084752934974
 30
0.0
 10
104.3405953933697
 20
67.9527733000825
 30
0.0
 10
104.5023957791611
 20
68.30808853196135
 30
0.0
 10
104.6742559837409
 20
68.85831975331381
 30
0.0
 10
104.719841175401
 20
69.04472353829428
 30
0.0
 10
104.7823159149759
 20
69.42485804039053
 30
0.0
 10
104.7989870607243
 20
69.6205278326764
 30
0.0
 10
104.7995081039008
 20
70.19900821135083
 30
0.0
 10
104.7350658030141
 20
70.57692005031963
 30
0.0
 10
104.5052167096408
 20
71.31888807541806
 30
0.0
 10
104.3466960319777
 20
71.667603535579
 30
0.0
 10
103.9824617020775
 20
72.34069593331215
 30
0.0
 10
103.7757254620139
 20
72.66564842055378
 30
0.0
 10
103.3377875162736
 20
73.29657223101557
 30
0.0
 10
103.106514788994
 20
73.6024619713562
 30
0.0
 10
102.8679179584887
 20
73.90246641717572
 30
0.0
  0
SPLINE
  5
379
330
1F
100
AcDbEntity
  8
0
  6
HIDDEN
 62
     7
370
     0
100
AcDbSpline
210
0.0
220
0.0
230
1.0
 70
     8
 71
     3
 72
     9
 73
     5
 74
     0
 42
0.00000001
 43
0.00000001
 12
1.0
 22
0.0
 32
0.0
 13
1.0
 23
0.0
 33
0.0
 40
0.0
 40
0.0
 40
0.0
 40
0.0
 40
0.5334121397644359
 40
1.0
 40
1.0
 40
1.0
 40
1.0
 10
115.7290790295506
 20
72.46251689729228
 30
0.0
 10
116.0282769519773
 20
72.7496452769892
 30
0.0
 10
116.5891901748348
 20
73.28793145064793
 30
0.0
 10
117.328035387631
 20
73.5267398598043
 30
0.0
 10
117.6727715945149
 20
73.63816496443881
 30
0.0
  0
SPLINE
  5
37A
330
1F
100
AcDbEntity
  8
0
  6
HIDDEN
 62
     7
370
     0
100
AcDbSpline
210
0.0
220
0.0
230
1.0
 70
     8
 71
     3
 72
    17
 73
    13
 74
     0
 42
0.00000001
 43
0.00000001
 12
1.0
 22
0.0
 32
0.0
 13
1.0
 23
0.0
 33
0.0
 40
0.0
 40
0.0
 40
0.0
 40
0.0
 40
0.0207454896333732
 40
0.1433563655426323
 40
0.2656473094020145
 40
0.3832837169072165
 40
0.4926771654167745
 40
0.5951587173733993
 40
0.6963638949184273
 40
0.8019760401492655
 40
0.9149479053089112
 40
1.0
 40
1.0
 40
1.0
 40
1.0
 10
119.2438522419239
 20
73.84510833297803
 30
0.0
 10
119.3302288445746
 20
73.85200351070662
 30
0.0
 10
119.9271121210241
 20
73.89965086135545
 30
0.0
 10
121.013844016553
 20
73.50012981717455
 30
0.0
 10
122.2705492574357
 20
72.6525904605603
 30
0.0
 10
123.110308467064
 20
71.41942280049177
 30
0.0
 10
123.4395754003019
 20
70.05743726837306
 30
0.0
 10
123.2854596380556
 20
68.73600537043714
 30
0.0
 10
122.717938492287
 20
67.55356591488321
 30
0.0
 10
121.7788945359184
 20
66.59351144505953
 30
0.0
 10
120.6511672276898
 20
65.94981985324594
 30
0.0
 10
119.8254334003
 20
65.85886025814689
 30
0.0
 10
119.4707773691321
 20
65.81979274277522
 30
0.0
  0
SPLINE
  5
37B
330
1F
100
AcDbEntity
  8
0
  6
HIDDEN
 62
     7
370
     0
100
AcDbSpline
210
0.0
220
0.0
230
1.0
 70
     8
 71
     3
 72
    13
 73
     9
 74
     0
 42
0.00000001
 43
0.00000001
 12
1.0
 22
0.0
 32
0.0
 13
1.0
 23
0.0
 33
0.0
 40
0.0
 40
0.0
 40
0.0
 40
0.0
 40
0.071014348096028
 40
0.2845446691340678
 40
0.4859797195079917
 40
0.6752848981794662
 40
0.8594837670013883
 40
1.0
 40
1.0
 40
1.0
 40
1.0
 10
116.625015071621
 20
66.49524747853114
 30
0.0
 10
116.4779209080684
 20
66.56916301956622
 30
0.0
 10
115.8885349428118
 20
66.86533236747395
 30
0.0
 10
115.1774155338517
 20
67.79809705802953
 30
0.0
 10
114.6645363836715
 20
69.11140254758187
 30
0.0
 10
114.6705203040999
 20
70.46775942710899
 30
0.0
 10
115.059086707456
 20
71.61809841019468
 30
0.0
 10
115.5267177735632
 20
72.20747280201982
 30
0.0
 10
115.7290790295506
 20
72.46251689729228
 30
0.0
  0
CIRCLE
  5
37C
330
1F
100
AcDbEntity
  8
0
  6
HIDDEN
 62
     7
370
     0
100
AcDbCircle
 10
146.4179179585
 20
69.8165053641
 30
0.0
 40
2.0
  0
LINE
  5
37D
330
1F
100
AcDbEntity
  8
0
  6
HIDDEN
 62
     7
370
     0
100
AcDbLine
 10
222.3820354855
 20
72.9915053257
 30
0.0
 11
221.6081660306
 21
72.9915053257
 31
0.0
  0
LINE
  5
37E
330
1F
100
AcDbEntity
  8
0
  6
HIDDEN
 62
     7
370
     0
100
AcDbLine
 10
221.6081660306
 20
66.6415054024
 30
0.0
 11
222.3820354855
 21
66.6415054024
 31
0.0
  0
LINE
  5
37F
330
1F
100
AcDbEntity
  8
0
  6
HIDDEN
 62
     7
370
     0
100
AcDbLine
 10
222.1766006267
 20
80.0560124358
 30
0.0
 11
221.6081660306
 21
80.0560124358
 31
0.0
  0
LINE
  5
380
330
1F
100
AcDbEntity
  8
0
  6
HIDDEN
 62
     7
370
     0
100
AcDbLine
 10
221.6081660306
 20
59.5769982924
 30
0.0
 11
222.1766006267
 21
59.5769982924
 31
0.0
  0
LINE
  5
381
330
1F
100
AcDbEntity
  8
0
  6
HIDDEN
 62
     7
370
     0
100
AcDbLine
 10
221.8745317376
 20
78.9009219175
 30
0.0
 11
221.3309895313
 21
78.9009219175
 31
0.0
  0
LINE
  5
382
330
1F
100
AcDbEntity
  8
0
  6
HIDDEN
 62
     7
370
     0
100
AcDbLine
 10
221.3309895313
 20
60.7320888107
 30
0.0
 11
221.8745317376
 21
60.7320888107
 31
0.0
  0
LINE
  5
383
330
1F
100
AcDbEntity
  8
0
  6
HIDDEN
 62
     7
370
     0
100
AcDbLine
 10
221.6898318446
 20
73.8415055116
 30
0.0
 11
221.5319018876
 21
73.8415055116
 31
0.0
  0
LINE
  5
384
330
1F
100
AcDbEntity
  8
0
  6
HIDDEN
 62
     7
370
     0
100
AcDbLine
 10
221.5319018876
 20
65.7915052166
 30
0.0
 11
221.6898318446
 21
65.7915052166
 31
0.0
  0
LINE
  5
385
330
1F
100
AcDbEntity
  8
0
  6
HIDDEN
 62
     7
370
     0
100
AcDbLine
 10
220.913451544
 20
66.8052218993
 30
0.0
 11
221.6763611948
 21
66.6792928846
 31
0.0
  0
LINE
  5
386
330
1F
100
AcDbEntity
  8
0
  6
HIDDEN
 62
     7
370
     0
100
AcDbLine
 10
221.3459950006
 20
72.8150145755
 30
0.0
 11
221.1754735625
 21
72.8431617049
 31
0.0
  0
SPLINE
  5
387
330
1F
100
AcDbEntity
  8
0
  6
HIDDEN
 62
     7
370
     0
100
AcDbSpline
210
0.0
220
0.0
230
1.0
 70
     8
 71
     3
 72
    11
 73
     7
 74
     0
 42
0.00000001
 43
0.00000001
 12
1.0
 22
0.0
 32
0.0
 13
1.0
 23
0.0
 33
0.0
 40
0.0
 40
0.0
 40
0.0
 40
0.0
 40
0.0121457863065343
 40
0.4054458766616928
 40
0.8001353894214414
 40
1.0
 40
1.0
 40
1.0
 40
1.0
 10
222.4997621095086
 20
66.98180531610681
 30
0.0
 10
222.4935478176018
 20
66.97904193321438
 30
0.0
 10
222.2861047615174
 20
66.8867957688985
 30
0.0
 10
221.8473022794632
 20
66.78458324575801
 30
0.0
 10
221.291358054819
 20
66.73868301036838
 30
0.0
 10
220.9671248377101
 20
66.8098545638956
 30
0.0
 10
220.8581309831048
 20
66.83377950911357
 30
0.0
  0
LINE
  5
388
330
1F
100
AcDbEntity
  8
0
  6
HIDDEN
 62
     7
370
     0
100
AcDbLine
 10
220.5583047187
 20
73.655468705
 30
0.0
 11
220.3798409617
 21
73.6460465146
 31
0.0
  0
LINE
  5
389
330
1F
100
AcDbEntity
  8
0
  6
HIDDEN
 62
     7
370
     0
100
AcDbLine
 10
207.9307403481
 20
59.4772312929
 30
0.0
 11
208.9113783157
 21
59.4772312929
 31
0.0
  0
LINE
  5
38A
330
1F
100
AcDbEntity
  8
0
  6
HIDDEN
 62
     7
370
     0
100
AcDbLine
 10
208.9113783157
 20
67.4772314401
 30
0.0
 11
207.9307403481
 21
67.4772314401
 31
0.0
  0
LINE
  5
38B
330
1F
100
AcDbEntity
  8
0
  6
HIDDEN
 62
     7
370
     0
100
AcDbLine
 10
207.7048685467
 20
60.2772317966
 30
0.0
 11
207.7879350698
 21
60.2772317966
 31
0.0
  0
LINE
  5
38C
330
1F
100
AcDbEntity
  8
0
  6
HIDDEN
 62
     7
370
     0
100
AcDbLine
 10
207.7879350698
 20
66.6772314021
 30
0.0
 11
207.7048685467
 21
66.6772314021
 31
0.0
  0
LINE
  5
38D
330
1F
100
AcDbEntity
  8
0
  6
HIDDEN
 62
     7
370
     0
100
AcDbLine
 10
207.4729543245
 20
59.527231208
 30
0.0
 11
207.6317485487
 21
59.527231208
 31
0.0
  0
LINE
  5
38E
330
1F
100
AcDbEntity
  8
0
  6
HIDDEN
 62
     7
370
     0
100
AcDbLine
 10
207.6317485487
 20
67.427231525
 30
0.0
 11
207.4729543245
 21
67.427231525
 31
0.0
  0
LINE
  5
38F
330
1F
100
AcDbEntity
  8
0
  6
HIDDEN
 62
     7
370
     0
100
AcDbLine
 10
207.0173662221
 20
61.7022317042
 30
0.0
 11
207.319919399
 21
61.7022317042
 31
0.0
  0
LINE
  5
390
330
1F
100
AcDbEntity
  8
0
  6
HIDDEN
 62
     7
370
     0
100
AcDbLine
 10
207.319919399
 20
65.2522312616
 30
0.0
 11
207.0173662221
 21
65.2522312616
 31
0.0
  0
LINE
  5
391
330
1F
100
AcDbEntity
  8
0
  6
HIDDEN
 62
     7
370
     0
100
AcDbLine
 10
206.5714862263
 20
59.527231208
 30
0.0
 11
206.8643312967
 21
59.527231208
 31
0.0
  0
LINE
  5
392
330
1F
100
AcDbEntity
  8
0
  6
HIDDEN
 62
     7
370
     0
100
AcDbLine
 10
206.8643312967
 20
67.427231525
 30
0.0
 11
206.5714862263
 21
67.427231525
 31
0.0
  0
LINE
  5
393
330
1F
100
AcDbEntity
  8
0
  6
HIDDEN
 62
     7
370
     0
100
AcDbLine
 10
134.4179179585
 20
45.5665046488
 30
0.0
 11
134.5108111789
 21
45.6593984877
 31
0.0
  0
LINE
  5
394
330
1F
100
AcDbEntity
  8
0
  6
HIDDEN
 62
     7
370
     0
100
AcDbLine
 10
134.5108111789
 20
93.9736122404
 30
0.0
 11
134.4179179585
 21
94.0665060793
 31
0.0
  0
ARC
  5
395
330
1F
100
AcDbEntity
  8
0
  6
HIDDEN
 62
     7
370
     0
100
AcDbCircle
 10
133.8037043961
 20
46.3665053641
 30
0.0
 40
1.000000000000003
100
AcDbArc
 50
315.0
 51
0.0
  0
ARC
  5
396
330
1F
100
AcDbEntity
  8
0
  6
HIDDEN
 62
     7
370
     0
100
AcDbCircle
 10
133.8037043961
 20
46.3665053641
 30
0.0
 40
1.000000000000004
100
AcDbArc
 50
0.0
 51
52.1052014664
  0
ARC
  5
397
330
1F
100
AcDbEntity
  8
0
  6
HIDDEN
 62
     7
370
     0
100
AcDbCircle
 10
133.8037043961
 20
93.2665053641
 30
0.0
 40
1.000000000000006
100
AcDbArc
 50
351.8087250651
 51
45.0
  0
ARC
  5
398
330
1F
100
AcDbEntity
  8
0
  6
HIDDEN
 62
     7
370
     0
100
AcDbCircle
 10
133.8037043961
 20
93.2665053641
 30
0.0
 40
1.00000000000001
100
AcDbArc
 50
307.8947985336
 51
351.8087250651
  0
LINE
  5
399
330
1F
100
AcDbEntity
  8
0
  6
HIDDEN
 62
     7
370
     0
100
AcDbLine
 10
134.8037043943
 20
46.3665051525
 30
0.0
 11
134.8037043943
 21
93.2665055757
 31
0.0
  0
LINE
  5
39A
330
1F
100
AcDbEntity
  8
0
  6
HIDDEN
 62
     7
370
     0
100
AcDbLine
 10
183.4223646736
 20
72.3165053082
 30
0.0
 11
171.6481860793
 21
72.3165053082
 31
0.0
  0
LINE
  5
39B
330
1F
100
AcDbEntity
  8
0
  6
HIDDEN
 62
     7
370
     0
100
AcDbLine
 10
171.6481860793
 20
67.31650542
 30
0.0
 11
183.4223646736
 21
67.31650542
 31
0.0
  0
LINE
  5
39C
330
1F
100
AcDbEntity
  8
0
  6
HIDDEN
 62
     7
370
     0
100
AcDbLine
 10
96.4179191804
 20
53.6200756346
 30
0.0
 11
97.9481455004
 21
54.5035543059
 31
0.0
  0
LINE
  5
39D
330
1F
100
AcDbEntity
  8
0
  6
HIDDEN
 62
     7
370
     0
100
AcDbLine
 10
97.9481455004
 20
85.1294564222
 30
0.0
 11
96.4179191804
 21
86.0129350935
 31
0.0
  0
ARC
  5
39E
330
1F
100
AcDbEntity
  8
0
  6
HIDDEN
 62
     7
370
     0
100
AcDbCircle
 10
107.4197192734
 20
55.8165053641
 30
0.0
 40
2.0
100
AcDbArc
 50
270.0
 51
315.0
  0
ARC
  5
39F
330
1F
100
AcDbEntity
  8
0
  6
HIDDEN
 62
     7
370
     0
100
AcDbCircle
 10
107.4197192734
 20
83.8165053641
 30
0.0
 40
2.0
100
AcDbArc
 50
45.0
 51
90.0
  0
LINE
  5
3A0
330
1F
100
AcDbEntity
  8
0
  6
HIDDEN
 62
     7
370
     0
100
AcDbLine
 10
106.4179170942
 20
53.8165046041
 30
0.0
 11
107.419718436
 21
53.8165046041
 31
0.0
  0
LINE
  5
3A1
330
1F
100
AcDbEntity
  8
0
  6
HIDDEN
 62
     7
370
     0
100
AcDbLine
 10
107.419718436
 20
85.816506124
 30
0.0
 11
106.4179170942
 21
85.816506124
 31
0.0
  0
ARC
  5
3A2
330
1F
100
AcDbEntity
  8
0
  6
HIDDEN
 62
     7
370
     0
100
AcDbCircle
 10
106.4179179585
 20
55.8165053641
 30
0.0
 40
2.0
100
AcDbArc
 50
189.9742217944
 51
270.0
  0
ARC
  5
3A3
330
1F
100
AcDbEntity
  8
0
  6
HIDDEN
 62
     7
370
     0
100
AcDbCircle
 10
106.4179179585
 20
83.8165053641
 30
0.0
 40
2.0
100
AcDbArc
 50
90.0
 51
170.0257782056
  0
LINE
  5
3A4
330
1F
100
AcDbEntity
  8
0
  6
HIDDEN
 62
     7
370
     0
100
AcDbLine
 10
108.8339336282
 20
54.4022916024
 30
0.0
 11
110.2481469577
 21
55.8165049319
 31
0.0
  0
LINE
  5
3A5
330
1F
100
AcDbEntity
  8
0
  6
HIDDEN
 62
     7
370
     0
100
AcDbLine
 10
110.2481469577
 20
83.8165057962
 30
0.0
 11
108.8339336282
 21
85.2307191258
 31
0.0
  0
LINE
  5
3A6
330
1F
100
AcDbEntity
  8
0
  6
HIDDEN
 62
     7
370
     0
100
AcDbLine
 10
97.9481455004
 20
54.5035543059
 30
0.0
 11
102.8481464898
 21
55.8165049319
 31
0.0
  0
LINE
  5
3A7
330
1F
100
AcDbEntity
  8
0
  6
HIDDEN
 62
     7
370
     0
100
AcDbLine
 10
102.8481464898
 20
83.8165057962
 30
0.0
 11
97.9481455004
 21
85.1294564222
 31
0.0
  0
LINE
  5
3A8
330
1F
100
AcDbEntity
  8
0
  6
HIDDEN
 62
     7
370
     0
100
AcDbLine
 10
104.4481456345
 20
84.1629158845
 30
0.0
 11
103.8481466538
 21
83.8165057962
 31
0.0
  0
LINE
  5
3A9
330
1F
100
AcDbEntity
  8
0
  6
HIDDEN
 62
     7
370
     0
100
AcDbLine
 10
103.8481466538
 20
55.8165049319
 30
0.0
 11
104.4481456345
 21
55.4700948437
 31
0.0
  0
ARC
  5
3AA
330
1F
100
AcDbEntity
  8
0
  6
HIDDEN
 62
     7
370
     0
100
AcDbCircle
 10
122.9179179585
 20
56.3165053641
 30
0.0
 40
0.5000000000000071
100
AcDbArc
 50
270.0
 51
360.0
  0
ARC
  5
3AB
330
1F
100
AcDbEntity
  8
0
  6
HIDDEN
 62
     7
370
     0
100
AcDbCircle
 10
122.9179179585
 20
83.3165053641
 30
0.0
 40
0.5
100
AcDbArc
 50
0.0
 51
90.0
  0
LINE
  5
3AC
330
1F
100
AcDbEntity
  8
0
  6
HIDDEN
 62
     7
370
     0
100
AcDbLine
 10
110.2481469577
 20
55.8165049319
 30
0.0
 11
122.9179179361
 21
55.8165049319
 31
0.0
  0
LINE
  5
3AD
330
1F
100
AcDbEntity
  8
0
  6
HIDDEN
 62
     7
370
     0
100
AcDbLine
 10
122.9179179361
 20
83.8165057962
 30
0.0
 11
110.2481469577
 21
83.8165057962
 31
0.0
  0
LINE
  5
3AE
330
1F
100
AcDbEntity
  8
0
  6
HIDDEN
 62
     7
370
     0
100
AcDbLine
 10
102.8481464898
 20
55.8165049319
 30
0.0
 11
103.8481466538
 21
55.8165049319
 31
0.0
  0
LINE
  5
3AF
330
1F
100
AcDbEntity
  8
0
  6
HIDDEN
 62
     7
370
     0
100
AcDbLine
 10
103.8481466538
 20
83.8165057962
 30
0.0
 11
102.8481464898
 21
83.8165057962
 31
0.0
  0
LINE
  5
3B0
330
1F
100
AcDbEntity
  8
0
  6
HIDDEN
 62
     7
370
     0
100
AcDbLine
 10
123.4179180181
 20
59.566505081
 30
0.0
 11
124.6679177573
 21
60.8165057515
 31
0.0
  0
LINE
  5
3B1
330
1F
100
AcDbEntity
  8
0
  6
HIDDEN
 62
     7
370
     0
100
AcDbLine
 10
124.6679177573
 20
78.8165049766
 30
0.0
 11
123.4179180181
 21
80.0665056472
 31
0.0
  0
LINE
  5
3B2
330
1F
100
AcDbEntity
  8
0
  6
HIDDEN
 62
     7
370
     0
100
AcDbLine
 10
124.6679177573
 20
60.8165057515
 30
0.0
 11
150.4179187184
 21
60.8165057515
 31
0.0
  0
LINE
  5
3B3
330
1F
100
AcDbEntity
  8
0
  6
HIDDEN
 62
     7
370
     0
100
AcDbLine
 10
150.4179187184
 20
78.8165049766
 30
0.0
 11
124.6679177573
 21
78.8165049766
 31
0.0
  0
LINE
  5
3B4
330
1F
100
AcDbEntity
  8
0
  6
HIDDEN
 62
     7
370
     0
100
AcDbLine
 10
150.4179187184
 20
60.8165057515
 30
0.0
 11
153.2720051771
 21
65.5665051331
 31
0.0
  0
LINE
  5
3B5
330
1F
100
AcDbEntity
  8
0
  6
HIDDEN
 62
     7
370
     0
100
AcDbLine
 10
153.2720051771
 20
74.066505595
 30
0.0
 11
150.4179187184
 21
78.8165049766
 31
0.0
  0
LINE
  5
3B6
330
1F
100
AcDbEntity
  8
0
  6
HIDDEN
 62
     7
370
     0
100
AcDbLine
 10
153.2720051771
 20
65.5665051331
 30
0.0
 11
175.417919091
 21
65.5665051331
 31
0.0
  0
LINE
  5
3B7
330
1F
100
AcDbEntity
  8
0
  6
HIDDEN
 62
     7
370
     0
100
AcDbLine
 10
175.417919091
 20
74.066505595
 30
0.0
 11
153.2720051771
 21
74.066505595
 31
0.0
  0
LINE
  5
3B8
330
1F
100
AcDbEntity
  8
0
  6
HIDDEN
 62
     7
370
     0
100
AcDbLine
 10
175.417919091
 20
65.5665051331
 30
0.0
 11
177.9715757883
 21
69.8165053641
 31
0.0
  0
LINE
  5
3B9
330
1F
100
AcDbEntity
  8
0
  6
HIDDEN
 62
     7
370
     0
100
AcDbLine
 10
177.9715757883
 20
69.8165053641
 30
0.0
 11
175.417919091
 21
74.066505595
 31
0.0
  0
LINE
  5
3BA
330
1F
100
AcDbEntity
  8
0
  6
HIDDEN
 62
     7
370
     0
100
AcDbLine
 10
212.0429541981
 20
76.2129163509
 30
0.0
 11
211.3117393172
 21
76.2129163509
 31
0.0
  0
LINE
  5
3BB
330
1F
100
AcDbEntity
  8
0
  6
HIDDEN
 62
     7
370
     0
100
AcDbLine
 10
209.0332474625
 20
66.9772313581
 30
0.0
 11
208.3532851255
 21
66.9772313581
 31
0.0
  0
LINE
  5
3BC
330
1F
100
AcDbEntity
  8
0
  6
HIDDEN
 62
     7
370
     0
100
AcDbLine
 10
208.3532851255
 20
59.9772313749
 30
0.0
 11
209.0332474625
 21
59.9772313749
 31
0.0
  0
LINE
  5
3BD
330
1F
100
AcDbEntity
  8
0
  6
HIDDEN
 62
     7
370
     0
100
AcDbLine
 10
210.8369212663
 20
61.3089341809
 30
0.0
 11
217.0245315945
 21
63.6979693686
 31
0.0
  0
LINE
  5
3BE
330
1F
100
AcDbEntity
  8
0
  6
HIDDEN
 62
     7
370
     0
100
AcDbLine
 10
208.3020325816
 20
67.6772313332
 30
0.0
 11
205.9255804932
 21
67.6772313332
 31
0.0
  0
LINE
  5
3BF
330
1F
100
AcDbEntity
  8
0
  6
HIDDEN
 62
     7
370
     0
100
AcDbLine
 10
205.9255804932
 20
59.2772316327
 30
0.0
 11
208.3020325816
 21
59.2772316327
 31
0.0
  0
LINE
  5
3C0
330
1F
100
AcDbEntity
  8
0
  6
HIDDEN
 62
     7
370
     0
100
AcDbLine
 10
211.5669366038
 20
76.1193342646
 30
0.0
 11
211.0051181233
 21
76.1193342646
 31
0.0
  0
LINE
  5
3C1
330
1F
100
AcDbEntity
  8
0
  6
HIDDEN
 62
     7
370
     0
100
AcDbLine
 10
221.2944295323
 20
73.8165055541
 30
0.0
 11
220.4413455045
 21
73.8165055541
 31
0.0
  0
LINE
  5
3C2
330
1F
100
AcDbEntity
  8
0
  6
HIDDEN
 62
     7
370
     0
100
AcDbLine
 10
220.4413455045
 20
65.8165051741
 30
0.0
 11
221.2944295323
 21
65.8165051741
 31
0.0
  0
LINE
  5
3C3
330
1F
100
AcDbEntity
  8
0
  6
HIDDEN
 62
     7
370
     0
100
AcDbLine
 10
217.6974605834
 20
72.1451365994
 30
0.0
 11
212.3513933337
 21
70.0810231233
 31
0.0
  0
DIMENSION
  5
3C4
330
1F
100
AcDbEntity
  8
VERMASSUNG
100
AcDbDimension
  2
_D_2
 10
86.4179179585
 20
38.3165053641
 30
0.0
 11
86.4179179585
 21
69.8165053641
 31
0.0
 70
   160
  1
PSC%%c<>
 71
     2
 42
-1.0
  3
SLDDIMSTYLE1
100
AcDbAlignedDimension
 13
134.9179179585
 23
101.3165053641
 33
0.0
 14
134.9179179585
 24
38.3165053641
 34
0.0
 50
90.0
100
AcDbRotatedDimension
  0
LINE
  5
3D0
330
1F
100
AcDbEntity
  8
VERMASSUNG
  6
CENTERX2
370
     0
100
AcDbLine
 10
93.4549482458
 20
69.8165053641
 30
0.0
 11
236.7643197549
 21
69.8165053641
 31
0.0
  0
OLE2FRAME
  5
3D1
330
1F
100
AcDbEntity
  8
0
100
AcDbOle2Frame
 70
     2
  3
Paintbrush-Bild
 10
13.8511154363
 20
38.264191557
 30
0.0
 11
51.6290888628
 21
31.9806341108
 31
0.0
 71
     2
 72
     0
 73
     1
 90
    12928
310
80552BED0767C5B32B40DDAF6807D121434000000000000000006FFBDDFB85D0
310
4940DDAF6807D121434000000000000000006FFBDDFB85D04940416F4BD60AFB
310
3F4000000000000000002BED0767C5B32B40416F4BD60AFB3F40000000000000
310
0000000000000100000000010000010000000100000000000100000000320000
310
D0CF11E0A1B11AE1000000000000000000000000000000003E000300FEFF0900
310
0600000000000000000000000100000001000000000000000010000002000000
310
01000000FEFFFFFF0000000000000000FFFFFFFFFFFFFFFFFFFFFFFFFFFFFFFF
310
FFFFFFFFFFFFFFFFFFFFFFFFFFFFFFFFFFFFFFFFFFFFFFFFFFFFFFFFFFFFFFFF
310
FFFFFFFFFFFFFFFFFFFFFFFFFFFFFFFFFFFFFFFFFFFFFFFFFFFFFFFFFFFFFFFF
310
FFFFFFFFFFFFFFFFFFFFFFFFFFFFFFFFFFFFFFFFFFFFFFFFFFFFFFFFFFFFFFFF
310
FFFFFFFFFFFFFFFFFFFFFFFFFFFFFFFFFFFFFFFFFFFFFFFFFFFFFFFFFFFFFFFF
310
FFFFFFFFFFFFFFFFFFFFFFFFFFFFFFFFFFFFFFFFFFFFFFFFFFFFFFFFFFFFFFFF
310
FFFFFFFFFFFFFFFFFFFFFFFFFFFFFFFFFFFFFFFFFFFFFFFFFFFFFFFFFFFFFFFF
310
FFFFFFFFFFFFFFFFFFFFFFFFFFFFFFFFFFFFFFFFFFFFFFFFFFFFFFFFFFFFFFFF
310
FFFFFFFFFFFFFFFFFFFFFFFFFFFFFFFFFFFFFFFFFFFFFFFFFFFFFFFFFFFFFFFF
310
FFFFFFFFFFFFFFFFFFFFFFFFFFFFFFFFFFFFFFFFFFFFFFFFFFFFFFFFFFFFFFFF
310
FFFFFFFFFFFFFFFFFFFFFFFFFFFFFFFFFFFFFFFFFFFFFFFFFFFFFFFFFFFFFFFF
310
FFFFFFFFFFFFFFFFFFFFFFFFFFFFFFFFFFFFFFFFFFFFFFFFFFFFFFFFFFFFFFFF
310
FFFFFFFFFFFFFFFFFFFFFFFFFFFFFFFFFFFFFFFFFFFFFFFFFFFFFFFFFFFFFFFF
310
FFFFFFFFFFFFFFFFFFFFFFFFFFFFFFFFFFFFFFFFFFFFFFFFFFFFFFFFFFFFFFFF
310
FDFFFFFFFEFFFFFFFEFFFFFFFEFFFFFF05000000060000000700000008000000
310
090000000A0000000B0000000C0000000D0000000E0000000F00000010000000
310
11000000120000001300000014000000150000001600000017000000FEFFFFFF
310
FFFFFFFFFFFFFFFFFFFFFFFFFFFFFFFFFFFFFFFFFFFFFFFFFFFFFFFFFFFFFFFF
310
FFFFFFFFFFFFFFFFFFFFFFFFFFFFFFFFFFFFFFFFFFFFFFFFFFFFFFFFFFFFFFFF
310
FFFFFFFFFFFFFFFFFFFFFFFFFFFFFFFFFFFFFFFFFFFFFFFFFFFFFFFFFFFFFFFF
310
FFFFFFFFFFFFFFFFFFFFFFFFFFFFFFFFFFFFFFFFFFFFFFFFFFFFFFFFFFFFFFFF
310
FFFFFFFFFFFFFFFFFFFFFFFFFFFFFFFFFFFFFFFFFFFFFFFFFFFFFFFFFFFFFFFF
310
FFFFFFFFFFFFFFFFFFFFFFFFFFFFFFFFFFFFFFFFFFFFFFFFFFFFFFFFFFFFFFFF
310
FFFFFFFFFFFFFFFFFFFFFFFFFFFFFFFFFFFFFFFFFFFFFFFFFFFFFFFFFFFFFFFF
310
FFFFFFFFFFFFFFFFFFFFFFFFFFFFFFFFFFFFFFFFFFFFFFFFFFFFFFFFFFFFFFFF
310
FFFFFFFFFFFFFFFFFFFFFFFFFFFFFFFFFFFFFFFFFFFFFFFFFFFFFFFFFFFFFFFF
310
FFFFFFFFFFFFFFFFFFFFFFFFFFFFFFFFFFFFFFFFFFFFFFFFFFFFFFFFFFFFFFFF
310
FFFFFFFFFFFFFFFFFFFFFFFFFFFFFFFFFFFFFFFFFFFFFFFFFFFFFFFFFFFFFFFF
310
FFFFFFFFFFFFFFFFFFFFFFFFFFFFFFFFFFFFFFFFFFFFFFFFFFFFFFFFFFFFFFFF
310
FFFFFFFFFFFFFFFFFFFFFFFFFFFFFFFFFFFFFFFFFFFFFFFFFFFFFFFFFFFFFFFF
310
52006F006F007400200045006E00740072007900000000000000000000000000
310
0000000000000000000000000000000000000000000000000000000000000000
310
16000500FFFFFFFFFFFFFFFF020000000A00030000000000C000000000000046
310
000000000000000000000000C0A98421413ACD0103000000C000000000000000
310
01004F006C006500000000000000000000000000000000000000000000000000
310
0000000000000000000000000000000000000000000000000000000000000000
310
0A000200FFFFFFFFFFFFFFFFFFFFFFFF00000000000000000000000000000000
310
0000000000000000000000000000000000000000000000001400000000000000
310
010043006F006D0070004F0062006A0000000000000000000000000000000000
310
0000000000000000000000000000000000000000000000000000000000000000
310
120002010100000003000000FFFFFFFF00000000000000000000000000000000
310
0000000000000000000000000000000000000000010000004D00000000000000
310
01004F006C006500310030004E00610074006900760065000000000000000000
310
0000000000000000000000000000000000000000000000000000000000000000
310
1A000200FFFFFFFFFFFFFFFFFFFFFFFF00000000000000000000000000000000
310
0000000000000000000000000000000000000000040000002426000000000000
310
FEFFFFFF02000000FEFFFFFFFFFFFFFFFFFFFFFFFFFFFFFFFFFFFFFFFFFFFFFF
310
FFFFFFFFFFFFFFFFFFFFFFFFFFFFFFFFFFFFFFFFFFFFFFFFFFFFFFFFFFFFFFFF
310
FFFFFFFFFFFFFFFFFFFFFFFFFFFFFFFFFFFFFFFFFFFFFFFFFFFFFFFFFFFFFFFF
310
FFFFFFFFFFFFFFFFFFFFFFFFFFFFFFFFFFFFFFFFFFFFFFFFFFFFFFFFFFFFFFFF
310
FFFFFFFFFFFFFFFFFFFFFFFFFFFFFFFFFFFFFFFFFFFFFFFFFFFFFFFFFFFFFFFF
310
FFFFFFFFFFFFFFFFFFFFFFFFFFFFFFFFFFFFFFFFFFFFFFFFFFFFFFFFFFFFFFFF
310
FFFFFFFFFFFFFFFFFFFFFFFFFFFFFFFFFFFFFFFFFFFFFFFFFFFFFFFFFFFFFFFF
310
FFFFFFFFFFFFFFFFFFFFFFFFFFFFFFFFFFFFFFFFFFFFFFFFFFFFFFFFFFFFFFFF
310
FFFFFFFFFFFFFFFFFFFFFFFFFFFFFFFFFFFFFFFFFFFFFFFFFFFFFFFFFFFFFFFF
310
FFFFFFFFFFFFFFFFFFFFFFFFFFFFFFFFFFFFFFFFFFFFFFFFFFFFFFFFFFFFFFFF
310
FFFFFFFFFFFFFFFFFFFFFFFFFFFFFFFFFFFFFFFFFFFFFFFFFFFFFFFFFFFFFFFF
310
FFFFFFFFFFFFFFFFFFFFFFFFFFFFFFFFFFFFFFFFFFFFFFFFFFFFFFFFFFFFFFFF
310
FFFFFFFFFFFFFFFFFFFFFFFFFFFFFFFFFFFFFFFFFFFFFFFFFFFFFFFFFFFFFFFF
310
FFFFFFFFFFFFFFFFFFFFFFFFFFFFFFFFFFFFFFFFFFFFFFFFFFFFFFFFFFFFFFFF
310
FFFFFFFFFFFFFFFFFFFFFFFFFFFFFFFFFFFFFFFFFFFFFFFFFFFFFFFFFFFFFFFF
310
FFFFFFFFFFFFFFFFFFFFFFFFFFFFFFFFFFFFFFFFFFFFFFFFFFFFFFFFFFFFFFFF
310
0100000200000000000000000000000000000000000000000000000000000000
310
0000000000000000000000000000000000000000000000000000000000000000
310
0100FEFF030A0000FFFFFFFF0A00030000000000C00000000000004607000000
310
5042727573680007000000504272757368000700000050427275736800F439B2
310
7100000000000000000000000000000000000000000000000000000000000000
310
0000000000000000000000000000000000000000000000000000000000000000
310
0000000000000000000000000000000000000000000000000000000000000000
310
0000000000000000000000000000000000000000000000000000000000000000
310
0000000000000000000000000000000000000000000000000000000000000000
310
0000000000000000000000000000000000000000000000000000000000000000
310
0000000000000000000000000000000000000000000000000000000000000000
310
0000000000000000000000000000000000000000000000000000000000000000
310
0000000000000000000000000000000000000000000000000000000000000000
310
0000000000000000000000000000000000000000000000000000000000000000
310
0000000000000000000000000000000000000000000000000000000000000000
310
0000000000000000000000000000000000000000000000000000000000000000
310
20260000424D0E260000000000003E00000028000000B40200006E0000000100
310
01000000000000000000130B0000130B00000200000002000000000000FFFFFF
310
FFFFFFFFFFFFFFFFFFFFFFFFFFFFFFFFFFFFFFFFFFFFFFFFFFFFFFFFFFFFFFFF
310
FFFFFFFFFFFFFFFFFFFFFFFFFFFFFFFFFFFFFFFFFFFFFFFFFFFFFFFFFFFFFFFF
310
FFFFFFFFFFFFFFFFFFFFFFFFFFFFFFFFFFFFFFFFFFFFFFFFF000FFFFFFFFFFFF
310
FFFFFFFFFFFFFFFFFFFFFFFFFFFFFFFFFFFFFFFFFFFFFFFFFFFFFFFFFFFFFFFF
310
FFFFFFFFFFFFFFFFFFFFFFFFFFFFFFFFFFFFFFFFFFFFFFFFFFFFFFFFFFFFFFFF
310
FFFFFFFFFFFFFFFFFFFFFFFFFFFFFFFFF000FFFFFFFFFFFFFFFFFFFFFFFFFFFF
310
FFFFFFFFFFFFFFFFFFFFFFFFFFFFFFFFFFFFFFFFFFFFFFFFFFFFFFFFFFFFFFFF
310
FFFFFFFFFFFFFFFFFFFFFFFFFFFFFFFFFFFFFFFFFFFFFFFFFFFFFFFFFFFFFFFF
310
FFFFFFFFFFFFFFFFF000FFFFFFFFFFFFFFFFFFFFFFFFFFFFFFFFFFFFFFFFFFFF
310
FFFFFFFFFFFFFFFFFFFFFFFFFFFFFFFFFFFFFFFFFFFFFFFFFFFFFFFFFFFFFFFF
310
FFFFFFFFFFFFFFFFFFFFFFFFFFFFFFFFFFFFFFFFFFFFFFFFFFFFFFFFFFFFFFFF
310
F000FFFFFFFFFFFFFFFFFFFFFFFFFFFFFFFFFFFFFFFFFFFFFFFFFFFFFFFFFFFF
310
FFFFFFFFFFFFFFFFFFFFFFFFFFFFFFFFFFFFFFFFFFFFFFFFFFFFFFFFFFFFFFFF
310
FFFFFFFFFFFFFFFFFFFFFFFFFFFFFFFFFFFFFFFFFFFFFFFFF000FFFFFFFFFFFF
310
FFFFFFFFFFFFFFFFFFFFFFFFFFFFFFFFFFFFFFFFFFFFFFFFFFFFFFFFFFFFFFFF
310
FFFFFFFFFFFFFFFFFFFFFFFFFFFFFFFFFFFFFFFFFFFFFFFFFFFFFFFFFFFFFFFF
310
FFFFFFFFFFFFFFFFFFFFFFFFFFFFFFFFF000FFFFFFFFFFFFFFFFFFFFFFFFFFFF
310
FFFFFFFFFFFFFFFFFFFFFFFFFFFFFFFFFFFFFFFFFFFFFFFFFFFFFFFFFFFFFFFF
310
FFFFFFFFFFFFFFFFFFFFFFFFFFFFFFFFFFFFFFFFFFFFFFFFFFFFFFFFFFFFFFFF
310
FFFFFFFFFFFFFFFFF000FFFFFFFFFFFFFFFFFFFFFFFFFFFFFFFFFFFFFFFFFFFF
310
FFFFFFFFFFFFFFFFFFFFFFFFFFFFFFFFFFFFFFFFFFFFFFFFFFFFFFFFFFFFFFFF
310
FFFFFFFFFFFFFFFFFFFFFFFFFFFFFFFFFFFFFFFFFFFFFFFFFFFFFFFFFFFFFFFF
310
F000FFFFFFFFFFFFFFFFFFFFFFFFFFFFFFFFFFFFFFFFFFFFFFFFFFFFFFFFFFFF
310
FFFFFFFFFFFFFFFFFFFFFFFFFFFFFFFFFFFFFFFFFFFFFFFFFFFFFFFFFFFFFFFF
310
FFFFFFFFFFFFFFFFFFFFFFFFFFFFFFFFFFFFFFFFFFFFFFFFF000FFFFFFFFFFFF
310
FFFFFFFFFFFFFFFFFFFFFFFFFFFFFFFFFFFFFFFFFFFFFFFFFFFFFFFFFFFFFFFF
310
FFFFFFFFFFFFFFFFFFFFFFFFFFFFFFFFFFFFFFFFFFFFFFFFFFFFFFFFFFFFFFFF
310
FFFFFFFFFFFFFFFFFFFFFFFFFFFFFFFFF000FFFFFFFFFFFFFFFFFFFFFFFFFFFF
310
FFFFFFFFFFFFFFFFFFFFFFFFFFFFFFFFFFFFFFFFFFFFFFFFFFFFFFFFFFFFFFFF
310
FFFFFFFFFFFFFFFFFFFFFFFFFFFFFFFFFFFFFFFFFFFFFFFFFFFFFFFFFFFFFFFF
310
FFFFFFFFFFFFFFFFF000FFFFFFFFFFFFFFFFFFFFFFFFFFFFFFFFFFFFFFFFFFFF
310
FFFFFFFFFFFFFFFFFFFFFFFFFFFFFFFFFFFFFFFFFFFFFFFFFFFFFFFFFFFFFFFF
310
FFFFFFFFFFFFFFFFFFFFFFFFFFFFFFFFFFFFFFFFFFFFFFFFFFFFFFFFFFFFFFFF
310
F000FFFFFFFFFFFFFFFFFFFFFFFFFFFFFFFFFFFFFFFFFFFFFFFFFFFFFFFFFFFF
310
FFFFFFFFFFFFFFFFFFFFFFFFFFFFFFFFFFFFFFFFFFFFFFFFFFFFFFFFFFFFFFFF
310
FFFFFFFFFFFFFFFFFFFFFFFFFFFFFFFFFFFFFFFFFFFFFFFFF000FFFFFFFFFFFF
310
FFFFFFFFFFFFFFFFFFFFFFFFFFFFFFFFFFFFFFFFFFFFFFFFFFFFFFFFFFFFFFFF
310
FFFFFFFFFFFFFFFFFFFFFFFFFFFFFFFFFFFFFFFFFFFFFFFFFFFFFFFFFFFFFFFF
310
FFFFFFFFFFFFFFFFFFFFFFFFFFFFFFFFF000FFFFFFFFFFFFFFFFFFFFFFFFFFFF
310
FFFFFFFFFFFFFFFFFFFFFFFFFFFFFFFFFFFFFFFFFFFFFFFFFFFFFFFFFFFFFFFF
310
FFFFFFFFFFFFFFFFFFFFFFFFFFFFFFFFFFFFFFFFFFFFFFFFFFFFFFFFFFFFFFFF
310
FFFFFFFFFFFFFFFFF000FFFFFFFFFFFFFFFFFFFFFFFFFFFFFFFFFFFFFFFFFFFF
310
FFFFFFFFFFFFFFFFFFFFFFFFFFFFFFFFFFFFFFFFFFFFFFFFFFFFFFFFFFFFFFFF
310
FFFFFFFFFFFFFFFFFFFFFFFFFFFFFFFFFFFFFFFFFFFFFFFFFFFFFFFFFFFFFFFF
310
F000FFFFFFFFFFFFFFFFFFFFFFFFFFFFFFFFFFFFFFFFFFFFFFFFFFFFFFFFFFFF
310
FFFFFFFFFFFFFFFFFFFFFFFFFFFFFFFFFFFFFFFFFFFFFFFFFFFFFFFFFFFFFFFF
310
FFFFFFFFFFFFFFFFFFFFFFFFFFFFFFFFFFFFFFFFFFFFFFFFF000FFFFFFFFFFFF
310
FFFFFFFFFFFFFFFFFFFFFFFFFFFFFFFFFFFFFFFFFFFFFFFFFFFFFFFFFFFFFFFF
310
FFFFFFFFFFFFFFFFFFFFFFFFFFFFFFFFFFFFFFFFFFFFFFFFFFFFFFFFFFFFFFFF
310
FFFFFFFFFFFFFFFFFFFFFFFFFFFFFFFFF000FFFFFFFFFFFFFFFFFFFFFFFFFFFF
310
FFFFFFFFFFFFFFFFFFFFFFFFFFFFFFFFFFFFFFFFFFFFFFFFFFFFFFFFFFFFFFFF
310
FFFFFFFFFFFFFFFFFFFFFFFFFFFFFFFFFFFFFFFFFFFFFFFFFFFFFFFFFFFFFFFF
310
FFFFFFFFFFFFFFFFF000FFFFF80003FFFFFFFFFFFFFFFFFFFFFFFFFFFFFFFFFF
310
FFFFF00007FFFFFFFFFF00007FFFFFF800000000000000007FFFFFFFFFFFFFFF
310
FFFFFFFC001FFFFFFFFFFFFFFC001FFFFFFFFFFFFFFFFFFFFFFFFFFE0007FFFF
310
F000FFFF8000007FFFFFFFF8000FFFFFC0007FFFFF80007FFFFF0000007FFFFF
310
FFF8000007FFFFF800000000000000007FFFFFF0001FFFFFFFFFFFC00001FFFF
310
FFFFFFFFC00001FFFFFFFF000000000003FFFFE000007FFFF000FFFE0000000F
310
FFFFFFF0000FFFFF80007FFFFF80007FFFFC0000001FFFFFFFC0000001FFFFF8
310
00000000000000007FFFFFF0001FFFFFFFFFFE0000003FFFFFFFFFFE0000003F
310
FFFFFF000000000003FFFF0000000FFFF000FFF800000003FFFFFFF00007FFFF
310
80007FFFFF80007FFFF000000007FFFFFF000000003FFFF80000000000000000
310
7FFFFFF0001FFFFFFFFFF80000000FFFFFFFFFF80000000FFFFFFF0000000000
310
03FFFC00000003FFF000FFE000000000FFFFFFF00007FFFF80003FFFFF80007F
310
FFC000000001FFFFFC000000001FFFF800000000000000007FFFFFF0001FFFFF
310
FFFFE000000003FFFFFFFFE000000003FFFFFF000000000003FFF000000000FF
310
F000FF80000000007FFFFFF00007FFFF80003FFFFF80007FFF8000000000FFFF
310
F80000000007FFF800000000000000007FFFFFF0001FFFFFFFFFC000000001FF
310
FFFFFFC000000001FFFFFF000000000003FFC0000000007FF000FF0000000000
310
3FFFFFE00007FFFF00003FFFFF80007FFE00000000003FFFF00000000003FFF8
310
00000000000000007FFFFFF0001FFFFFFFFF8000000000FFFFFFFF8000000000
310
FFFFFF000000000003FF80000000003FF000FE00000000001FFFFFE00003FFFF
310
00003FFFFF80007FFC00000000001FFFE00000000001FFF8000001FFFE000000
310
7FFFFFF0001FFFFFFFFE00000000003FFFFFFE00000000003FFFFF0000000000
310
03FF00000000001FF000FC00000000000FFFFFE00003FFFF00001FFFFF80007F
310
F800000000001FFFC00000000000FFF8000001FFFE0000007FFFFFF0001FFFFF
310
FFFC00000000001FFFFFFC00000000001FFFFF000000000003FE00000000000F
310
F000F8000000000007FFFFE00003FFFF00001FFFFF80007FF800000000000FFF
310
800000000000FFF8000001FFFE0000007FFFFFF0001FFFFFFFF800000000000F
310
FFFFF800000000000FFFFF000000000003FC000000000007F000F80000000000
310
03FFFFC00003FFFE00001FFFFF80007FF0000000000007FF0000000000007FF8
310
000001FFFE0000007FFFFFF0001FFFFFFFF0000000000007FFFFF00000000000
310
07FFFF000000000003F8000000000003F000F0000000000003FFFFC00001FFFE
310
00001FFFFF80007FE0000000000007FE0000000000003FF8000001FFFE000000
310
7FFFFFF0001FFFFFFFF0000000000007FFFFF0000000000007FFFF0000000000
310
03F800001F800003F000E00001FFF00001FFFFC00001FFFE00000FFFFF80007F
310
E00001FFE00003FE00001FFF00003FF8000001FFFE0000007FFFFFF0001FFFFF
310
FFE000003E000003FFFFE000003E000003FFFF000000000003F00001FFF80001
310
F000E00007FFFC0001FFFFC00001FFFE00000FFFFF80007FC0000FFFFC0003FC
310
0000FFFFC0001FF8000001FFFE0000007FFFFFF0001FFFFFFFC00003FFE00001
310
FFFFC00003FFE00001FFFF0001FFFFFFFFF00007FFFE0001F000E0000FFFFF00
310
00FFFF800001FFFC00000FFFFF80007FC0001FFFFE0001FC0001FFFFE0001FF8
310
000001FFFE0000007FFFFFF0001FFFFFFF80000FFFF80000FFFF80000FFFF800
310
00FFFF0003FFFFFFFFE0000FFFFF8000F000C0003FFFFF8000FFFF800000FFFC
310
000007FFFF80007F80003FFFFF0001FC0003FFFFF0001FF8000001FFFE000000
310
7FFFFFF0001FFFFFFF80003FFFFE0000FFFF80003FFFFE0000FFFF0003FFFFFF
310
FFE0003FFFFF8000F000C0003FFFFF8000FFFF800000FFFC000007FFFF80007F
310
80007FFFFF8001F80007FFFFF8000FF8000001FFFE0000007FFFFFF0001FFFFF
310
FF00007FFFFF00007FFF00007FFFFF00007FFF0003FFFFFFFFE0003FFFFFC000
310
F000C0007FFFFFC000FFFF000000FFFC000007FFFF80007F8000FFFFFF8000F8
310
000FFFFFF8000FF8000001FFFE0000007FFFFFF0001FFFFFFF0000FFFFFF8000
310
7FFF0000FFFFFF80007FFF0003FFFFFFFFC0007FFFFFC00070008000FFFFFFC0
310
00FFFF000000FFF8000007FFFF80007F8000FFFFFF8000F8000FFFFFF8000FF8
310
000001FFFE0000007FFFFFF0001FFFFFFE0001FFFFFFC0003FFE0001FFFFFFC0
310
003FFF0003FFFFFFFFC0007FFFFFE00070008000FFFFFFC0007FFF0000007FF8
310
000003FFFF80007F0001FFFFFF8000F8000FFFFFF8000FF8000001FFFE000000
310
7FFFFFF0001FFFFFFE0001FFFFFFC0003FFE0001FFFFFFC0003FFF0003FFFFFF
310
FFC000FFFFFFE00070008000FFFFFFC0007FFF0000007FF8000003FFFF80007F
310
0001FFFFFF8000F8001FFFFFF8000FF8000001FFFE0000007FFFFFF0001FFFFF
310
FE0003FFFFFFE0003FFE0003FFFFFFE0003FFF0003FFFFFFFFC000FFFFFFE000
310
70008000FFFFFFC0007FFE0000007FF8000003FFFF80007F0001FFFFFF8000F0
310
001FFFFFF8000FF8000001FFFE0000007FFFFFF0001FFFFFFC0003FFFFFFE000
310
1FFC0003FFFFFFE0001FFF0003FFFFFFFFC000FFFFFFC00070008000FFFFFF80
310
007FFE0000007FF0000003FFFF80007F0001FFFFFF0000F0001FFFFFF8000FF8
310
000001FFFE0000007FFFFFF0001FFFFFFC0007FFFFFFF0001FFC0007FFFFFFF0
310
001FFF0003FFFFFFFFC000FFFFFFC00070008001FFFFFF0000FFFE0000003FF0
310
000001FFFF80007F0001FFFFFF0000F8001FFFFFF0000FF8000001FFFE000000
310
7FFFFFF0001FFFFFFC0007FFFFFFF0001FFC0007FFFFFFF0001FFF0003FFFFFF
310
FFC001FFFFFF80007000FFFFFFFFFE0000FFFE0008003FF0008001FFFF80007F
310
FFFFFFFFFC0000FFFFFFFFFFE0000FF8000001FFFE0000007FFFFFF0001FFFFF
310
F8000FFFFFFFF8000FF8000FFFFFFFF8000FFF0003FFFFFFFFFFFFFFFFFF0000
310
7000FFFFFFFFFC0000FFFC0008003FF0008001FFFF80007FFFFFFFFFF80001FF
310
FFFFFFFF80000FF8000001FFFE0000007FFFFFF0001FFFFFF8000FFFFFFFF800
310
0FF8000FFFFFFFF8000FFF0003FFFFFFFFFFFFFFFFFE0000F000FFFFFFFFE000
310
00FFFC000C003FE000C001FFFF80007FFFFFFFFFC00001FFFFFFFFFE00001FF8
310
000001FFFE0000007FFFFFF0001FFFFFF8000FFFFFFFF8000FF8000FFFFFFFF8
310
000FFF0003FFFFFFFFFFFFFFFFF00000F000FFFFFFFE000001FFFC000C001FE0
310
00C000FFFF80007FFFFFFFFE000001FFFFFFFFE000001FF80FFFFFFFFFFFFFC0
310
7FFFFFF0001FFFFFF8000FFFFFFFF8000FF8000FFFFFFFF8000FFF0003FFFFFF
310
FFFFFFFFFF800000F000FFFFFFC0000001FFFC001C001FE001C000FFFF80007F
310
FFFFFF80000003FFFFFFF80000001FF80FFFFFFFFFFFFFC07FFFFFF0001FFFFF
310
F8001FFFFFFFFC000FF8001FFFFFFFFC000FFF0003FFFFFFFFFFFFFFF0000001
310
F000FFFFF800000001FFF8001C001FE001C000FFFF80007FFFFFF800000003FF
310
FFFF800000003FF80FFFFFFFFFFFFFC07FFFFFF0001FFFFFF8001FFFFFFFFC00
310
0FF8001FFFFFFFFC000FFF0003FFFFFFFFFFFFFE00000001F000FFFFC0000000
310
03FFF8001E001FC001E000FFFF80007FFFFF8000000007FFFFFC000000003FF8
310
0FFFFFFFFFFFFFC07FFFFFF0001FFFFFF8001FFFFFFFFC000FF8001FFFFFFFFC
310
000FFF0003FFFFFFFFFFFFE000000003F000FFFE0000000007FFF8001E000FC0
310
01E0007FFF80007FFFFE0000000007FFFFE0000000007FF80FFFFFFFFFFFFFC0
310
7FFFFFF0001FFFFFF0001FFFFFFFFC0007F0001FFFFFFFFC0007FF0003FFFFFF
310
FFFFFF0000000003F000FFF80000000007FFF8001E000FC003E0007FFF80007F
310
FFF0000000000FFFFF8000000000FFF80FFFFFFFFFFFFFC07FFFFFF0001FFFFF
310
F0001FFFFFFFFC0007F0001FFFFFFFFC0007FF0003FFFFFFFFFFFC0000000007
310
F000FFE0000000000FFFF0003E000FC003E0007FFF80007FFFC0000000001FFF
310
FE0000000001FFF80FFFFFFFFFFFFFC07FFFFFF0001FFFFFF0001FFFFFFFFC00
310
07F0001FFFFFFFFC0007FF0003FFFFFFFFFFF0000000000FF000FFC000000000
310
1FFFF0003F000F8003F0003FFF80007FFF80000000003FFFF80000000003FFF8
310
0FFFFFFFFFFFFFC07FFFFFF0001FFFFFF0001FFFFFFFFC0007F0001FFFFFFFFC
310
0007FF0003FFFFFFFFFFE0000000001FF000FF00000000007FFFF0003F000780
310
03F0003FFF80007FFF00000000007FFFF00000000007FFF80FFFFFFFFFFFFFC0
310
7FFFFFF0001FFFFFF0001FFFFFFFFC0007F0001FFFFFFFFC0007FF0003FFFFFF
310
FFFF80000000007FF000FE0000000000FFFFE0003F00078007F0003FFF80007F
310
FE0000000001FFFFE0000000001FFFF80FFFFFFFFFFFFFC07FFFFFF0001FFFFF
310
F0001FFFFFFFFC0007F0001FFFFFFFFC0007FF0003FFFFFFFFFF0000000000FF
310
F000FC0000000003FFFFE0007F00078007F0003FFF80007FFC0000000007FFFF
310
C0000000007FFFF80FFFFFFFFFFFFFC07FFFFFF0001FFFFFF8001FFFFFFFFC00
310
0FF8001FFFFFFFFC000FFF0003FFFFFFFFFE0000000003FFF000FC000000000F
310
FFFFE0007F80070007F8001FFF80007FF8000000001FFFFF8000000001FFFFF8
310
0FFFFFFFFFFFFFC07FFFFFF0001FFFFFF8001FFFFFFFFC000FF8001FFFFFFFFC
310
000FFF0003FFFFFFFFFC000000000FFFF000F8000000007FFFFFE0007F800700
310
07F8001FFF80007FF000000000FFFFFF800000000FFFFFF80FFFFFFFFFFFFFC0
310
7FFFFFF0001FFFFFF8000FFFFFFFF8000FF8000FFFFFFFF8000FFF0003FFFFFF
310
FFFC000000007FFFF000F800000007FFFFFFC0007F8003000FF8001FFF80007F
310
F000000007FFFFFF000000007FFFFFF80FFFFFFFFFFFFFC07FFFFFF0001FFFFF
310
F8000FFFFFFFF8000FF8000FFFFFFFF8000FFF0003FFFFFFFFF80000000FFFFF
310
F000F0000000FFFFFFFFC000FF8003000FF8001FFF80007FE0000000FFFFFFFF
310
0000000FFFFFFFF8000001FFFE0000007FFFFFF0001FFFFFF8000FFFFFFFF800
310
0FF8000FFFFFFFF8000FFF0003FFFFFFFFF8000000FFFFFFF000F000000FFFFF
310
FFFFC000FFC002000FF8000FFF80007FE000001FFFFFFFFE000001FFFFFFFFF8
310
000001FFFE0000007FFFFFF0001FFFFFF8000FFFFFFFF8000FF8000FFFFFFFF8
310
000FFF0003FFFFFFFFF000001FFFFFFFF000E00000FFFFFFFFFFC000FFC00200
310
0FFC000FFF80007FE00001FFFFFFFFFE00001FFFFFFFFFF8000001FFFE000000
310
7FFFFFF0001FFFFFFC000FFFFFFFF8001FFC000FFFFFFFF8001FFF0003FFFFFF
310
FFF00001FFFFFFFFF000E00007FFFFFFFFFF8000FFC000001FFC000FFF80007F
310
C0000FFFFFFFFFFE0000FFFFFFFFFFF8000001FFFE0000007FFFFFF0001FFFFF
310
FC0007FFFFFFF0001FFC0007FFFFFFF0001FFF0003FFFFFFFFF00007FFFFFFFF
310
F000E0001FFFFFFFFFFF8000FFC000001FFC000FFF80007FC0003FFFFFFFFFFE
310
0001FFFFFFFFFFF8000001FFFE0000007FFFFFF0001FFFFFFC0007FFFFFFF000
310
1FFC0007FFFFFFF0001FFF0003FFFFFFFFF0001FFFFFFFFFF000E0003FFFFF00
310
03FF8001FFE000001FFC0007FF80007FC0007FFFFF0007FC0003FFFFF0003FF8
310
000001FFFE0000007FFFFFF0001FFFFFFC0003FFFFFFE0001FFC0003FFFFFFE0
310
001FFF0003FFFFFFFFF0003FFFFFFFFFF000E0003FFFFF0001FF8001FFE00000
310
1FFE0007FF80007FC0007FFFFE0003FC0007FFFFE0003FF8000001FFFE000000
310
7FFFFFF0001FFFFFFE0003FFFFFFE0003FFE0003FFFFFFE0003FFF0003FFFFFF
310
FFF0003FFFFF8001F000E0003FFFFF0001FF0001FFE000001FFE0007FF80007F
310
C0007FFFFE0003FC0007FFFFE0003FF8000001FFFE0000007FFFFFF0001FFFFF
310
FE0001FFFFFFC0003FFE0001FFFFFFC0003FFF0003FFFFFFFFF0003FFFFF0001
310
F000E0003FFFFF0003FF0001FFE000003FFE0007FF80007FC0007FFFFE0003FC
310
0007FFFFE0003FF8000001FFFE0000007FFFFFF0001FFFFFFF0001FFFFFFC000
310
7FFF0001FFFFFFC0007FFF0003FFFFFFFFF0003FFFFF0001F000E0003FFFFE00
310
03FF0003FFF000003FFE0003FF80007FC0007FFFFC0003FE0007FFFFE0003FF8
310
000001FFFE0000007FFFFFF0001FFFFFFF0000FFFFFF80007FFF0000FFFFFF80
310
007FFF0003FFFFFFFFF0003FFFFF0001F000E0003FFFFE0003FF0003FFF00000
310
3FFF0003FF80007FC0007FFFFC0007FE0007FFFFC0003FF8000001FFFE000000
310
7FFFFFF0001FFFFFFF80007FFFFF0000FFFF80007FFFFF0000FFFF0003FFFFFF
310
FFF0003FFFFF0003F000E0003FFFFC0003FE0003FFF000003FFF0003FF80007F
310
E0003FFFF80007FE0003FFFFC0007FF8000001FFFE0000007FFFFFF0001FFFFF
310
FF80003FFFFE0000FFFF80003FFFFE0000FFFF0003FFFFFFFFF0001FFFFE0003
310
F000F0001FFFF80003FE0003FFF000007FFF0001FF80007FE0003FFFF00007FE
310
0001FFFF80007FF8000001FFFE0000007FFFFFF0001FFFFFFFC0000FFFF80001
310
FFFFC0000FFFF80001FFFF0003FFFFFFFFF0001FFFFC0003F000F0000FFFF000
310
07FE0007FFF800007FFF0001FF80007FE0001FFFE00007FF0000FFFE00007FF8
310
000001FFFE0000007FFFFFF0001FFFFFFFC00003FFE00001FFFFC00003FFE000
310
01FFFF0003FFFFFFFFF8000FFFF80003F000F00003FFC00007FC0007FFF80000
310
7FFF8001FF80007FF00007FF80000FFF00007FF80000FFF8000001FFFE000000
310
7F80000000000001FFE000003E000003FFFFE000003E000003FFFF0003FFFFFF
310
FFF80003FFE00007F000F800000000000FFC0007FFF800007FFF8001FF80007F
310
F000000000000FFF000000000000FFF8000001FFFE0000007F80000000000001
310
FFF0000000000007FFFFF0000000000007FFFF0003FFFFFFFFFC00007E000007
310
F000F800000000000FFC0007FFF80000FFFF8000FF80007FF800000000001FFF
310
800000000001FFF8000001FFFE0000007F80000000000001FFF800000000000F
310
FFFFF800000000000FFFFF0003FFFFFFFFFC00000000000FF000FC0000000000
310
1FFC0007FFFC0000FFFF8000FF80007FF800000000003FFFC00000000001FFF8
310
000001FFFE0000007F80000000000001FFF800000000000FFFFFF80000000000
310
0FFFFF0003FFFFFFFFFE00000000001FF000FE00000000003FF8000FFFFC0000
310
FFFF8000FF80007FFC00000000003FFFC00000000003FFF8000001FFFE000000
310
7F80000000000001FFFC00000000001FFFFFFC00000000001FFFFF0003FFFFFF
310
FFFF00000000001FF000FF00000000003FF8000FFFFC0000FFFFC000FF80007F
310
FE00000000007FFFE00000000007FFF8000001FFFE0000007F80000000000001
310
FFFE00000000003FFFFFFE00000000003FFFFF0003FFFFFFFFFF80000000003F
310
F000FF80000000007FF8000FFFFC0001FFFFC0007F80007FFF0000000000FFFF
310
F0000000000FFFF800000000000000007F80000000000001FFFF8000000000FF
310
FFFFFF8000000000FFFFFF0003FFFFFFFFFFC0000000007FF000FFC000000000
310
FFF8000FFFFE0001FFFFC0007F80007FFF8000000001FFFFF8000000001FFFF8
310
00000000000000007F80000000000001FFFFC000000001FFFFFFFFC000000001
310
FFFFFF0003FFFFFFFFFFE000000000FFF000FFE000000003FFF0001FFFFE0001
310
FFFFC0007F80007FFFC000000007FFFFFE000000003FFFF80000000000000000
310
7F80000000000001FFFFE000000003FFFFFFFFE000000003FFFFFF0003FFFFFF
310
FFFFF000000003FFF000FFF80000000FFFF0001FFFFE0001FFFFE0007F80007F
310
FFF00000000FFFFFFF00000000FFFFF800000000000000007F80000000000001
310
FFFFF80000000FFFFFFFFFF80000000FFFFFFF0003FFFFFFFFFFFC0000000FFF
310
F000FFFE0000003FFFF0001FFFFE0003FFFFE0003F80007FFFFC0000003FFFFF
310
FFC0000003FFFFF800000000000000007F80000000000001FFFFFE0000003FFF
310
FFFFFFFE0000003FFFFFFF0003FFFFFFFFFFFF0000003FFFF000FFFF800000FF
310
FFF0001FFFFF0003FFFFE0003F80007FFFFF000001FFFFFFFFF800001FFFFFF8
310
00000000000000007F80000000000001FFFFFFC00001FFFFFFFFFFFFC00001FF
310
FFFFFF0003FFFFFFFFFFFFC00000FFFFF000FFFFF8000FFFFFFFFFFFFFFFFFFF
310
FFFFFFFFFFFFFFFFFFFFF0001FFFFFFFFFFF0000FFFFFFF80000000000000000
310
7FFFFFFFFFFFFFFFFFFFFFFC001FFFFFFFFFFFFFFC001FFFFFFFFFFFFFFFFFFF
310
FFFFFFFC001FFFFFF000FFFFFFFFFFFFFFFFFFFFFFFFFFFFFFFFFFFFFFFFFFFF
310
FFFFFFFFFFFFFFFFFFFFFFFFFFFFFFFFFFFFFFFFFFFFFFFFFFFFFFFFFFFFFFFF
310
FFFFFFFFFFFFFFFFFFFFFFFFFFFFFFFFFFFFFFFFFFFFFFFFFFFFFFFFFFFFFFFF
310
F000FFFFFFFFFFFFFFFFFFFFFFFFFFFFFFFFFFFFFFFFFFFFFFFFFFFFFFFFFFFF
310
FFFFFFFFFFFFFFFFFFFFFFFFFFFFFFFFFFFFFFFFFFFFFFFFFFFFFFFFFFFFFFFF
310
FFFFFFFFFFFFFFFFFFFFFFFFFFFFFFFFFFFFFFFFFFFFFFFFF000FFFFFFFFFFFF
310
FFFFFFFFFFFFFFFFFFFFFFFFFFFFFFFFFFFFFFFFFFFFFFFFFFFFFFFFFFFFFFFF
310
FFFFFFFFFFFFFFFFFFFFFFFFFFFFFFFFFFFFFFFFFFFFFFFFFFFFFFFFFFFFFFFF
310
FFFFFFFFFFFFFFFFFFFFFFFFFFFFFFFFF000FFFFFFFFFFFFFFFFFFFFFFFFFFFF
310
FFFFFFFFFFFFFFFFFFFFFFFFFFFFFFFFFFFFFFFFFFFFFFFFFFFFFFFFFFFFFFFF
310
FFFFFFFFFFFFFFFFFFFFFFFFFFFFFFFFFFFFFFFFFFFFFFFFFFFFFFFFFFFFFFFF
310
FFFFFFFFFFFFFFFFF000FFFFFFFFFFFFFFFFFFFFFFFFFFFFFFFFFFFFFFFFFFFF
310
FFFFFFFFFFFFFFFFFFFFFFFFFFFFFFFFFFFFFFFFFFFFFFFFFFFFFFFFFFFFFFFF
310
FFFFFFFFFFFFFFFFFFFFFFFFFFFFFFFFFFFFFFFFFFFFFFFFFFFFFFFFFFFFFFFF
310
F000FFFFFFFFFFFFFFFFFFFFFFFFFFFFFFFFFFFFFFFFFFFFFFFFFFFFFFFFFFFF
310
FFFFFFFFFFFFFFFFFFFFFFFFFFFFFFFFFFFFFFFFFFFFFFFFFFFFFFFFFFFFFFFF
310
FFFFFFFFFFFFFFFFFFFFFFFFFFFFFFFFFFFFFFFFFFFFFFFFF000FFFFFFFFFFFF
310
FFFFFFFFFFFFFFFFFFFFFFFFFFFFFFFFFFFFFFFFFFFFFFFFFFFFFFFFFFFFFFFF
310
FFFFFFFFFFFFFFFFFFFFFFFFFFFFFFFFFFFFFFFFFFFFFFFFFFFFFFFFFFFFFFFF
310
FFFFFFFFFFFFFFFFFFFFFFFFFFFFFFFFF000FFFFFFFFFFFFFFFFFFFFFFFFFFFF
310
FFFFFFFFFFFFFFFFFFFFFFFFFFFFFFFFFFFFFFFFFFFFFFFFFFFFFFFFFFFFFFFF
310
FFFFFFFFFFFFFFFFFFFFFFFFFFFFFFFFFFFFFFFFFFFFFFFFFFFFFFFFFFFFFFFF
310
FFFFFFFFFFFFFFFFF000FFFFFFFFFFFFFFFFFFFFFFFFFFFFFFFFFFFFFFFFFFFF
310
FFFFFFFFFFFFFFFFFFFFFFFFFFFFFFFFFFFFFFFFFFFFFFFFFFFFFFFFFFFFFFFF
310
FFFFFFFFFFFFFFFFFFFFFFFFFFFFFFFFFFFFFFFFFFFFFFFFFFFFFFFFFFFFFFFF
310
F000FFFFFFFFFFFFFFFFFFFFFFFFFFFFFFFFFFFFFFFFFFFFFFFFFFFFFFFFFFFF
310
FFFFFFFFFFFFFFFFFFFFFFFFFFFFFFFFFFFFFFFFFFFFFFFFFFFFFFFFFFFFFFFF
310
FFFFFFFFFFFFFFFFFFFFFFFFFFFFFFFFFFFFFFFFFFFFFFFFF000FFFFFFFFFFFF
310
FFFFFFFFFFFFFFFFFFFFFFFFFFFFFFFFFFFFFFFFFFFFFFFFFFFFFFFFFFFFFFFF
310
FFFFFFFFFFFFFFFFFFFFFFFFFFFFFFFFFFFFFFFFFFFFFFFFFFFFFFFFFFFFFFFF
310
FFFFFFFFFFFFFFFFFFFFFFFFFFFFFFFFF000FFFFFFFFFFFFFFFFFFFFFFFFFFFF
310
FFFFFFFFFFFFFFFFFFFFFFFFFFFFFFFFFFFFFFFFFFFFFFFFFFFFFFFFFFFFFFFF
310
FFFFFFFFFFFFFFFFFFFFFFFFFFFFFFFFFFFFFFFFFFFFFFFFFFFFFFFFFFFFFFFF
310
FFFFFFFFFFFFFFFFF000FFFFFFFFFFFFFFFFFFFFFFFFFFFFFFFFFFFFFFFFFFFF
310
FFFFFFFFFFFFFFFFFFFFFFFFFFFFFFFFFFFFFFFFFFFFFFFFFFFFFFFFFFFFFFFF
310
FFFFFFFFFFFFFFFFFFFFFFFFFFFFFFFFFFFFFFFFFFFFFFFFFFFFFFFFFFFFFFFF
310
F000FFFFFFFFFFFFFFFFFFFFFFFFFFFFFFFFFFFFFFFFFFFFFFFFFFFFFFFFFFFF
310
FFFFFFFFFFFFFFFFFFFFFFFFFFFFFFFFFFFFFFFFFFFFFFFFFFFFFFFFFFFFFFFF
310
FFFFFFFFFFFFFFFFFFFFFFFFFFFFFFFFFFFFFFFFFFFFFFFFF000FFFFFFFFFFFF
310
FFFFFFFFFFFFFFFFFFFFFFFFFFFFFFFFFFFFFFFFFFFFFFFFFFFFFFFFFFFFFFFF
310
FFFFFFFFFFFFFFFFFFFFFFFFFFFFFFFFFFFFFFFFFFFFFFFFFFFFFFFFFFFFFFFF
310
FFFFFFFFFFFFFFFFFFFFFFFFFFFFFFFFF000FFFFFFFFFFFFFFFFFFFFFFFFFFFF
310
FFFFFFFFFFFFFFFFFFFFFFFFFFFFFFFFFFFFFFFFFFFFFFFFFFFFFFFFFFFFFFFF
310
FFFFFFFFFFFFFFFFFFFFFFFFFFFFFFFFFFFFFFFFFFFFFFFFFFFFFFFFFFFFFFFF
310
FFFFFFFFFFFFFFFFF000FFFFFFFFFFFFFFFFFFFFFFFFFFFFFFFFFFFFFFFFFFFF
310
FFFFFFFFFFFFFFFFFFFFFFFFFFFFFFFFFFFFFFFFFFFFFFFFFFFFFFFFFFFFFFFF
310
FFFFFFFFFFFFFFFFFFFFFFFFFFFFFFFFFFFFFFFFFFFFFFFFFFFFFFFFFFFFFFFF
310
F000FFFFFFFFFFFFFFFFFFFFFFFFFFFFFFFFFFFFFFFFFFFFFFFFFFFFFFFFFFFF
310
FFFFFFFFFFFFFFFFFFFFFFFFFFFFFFFFFFFFFFFFFFFFFFFFFFFFFFFFFFFFFFFF
310
FFFFFFFFFFFFFFFFFFFFFFFFFFFFFFFFFFFFFFFFFFFFFFFFF000FFFFFFFFFFFF
310
FFFFFFFFFFFFFFFFFFFFFFFFFFFFFFFFFFFFFFFFFFFFFFFFFFFFFFFFFFFFFFFF
310
FFFFFFFFFFFFFFFFFFFFFFFFFFFFFFFFFFFFFFFFFFFFFFFFFFFFFFFFFFFFFFFF
310
FFFFFFFFFFFFFFFFFFFFFFFFFFFFFFFFF000FFFFFFFFFFFFFFFFFFFFFFFFFFFF
310
FFFFFFFFFFFFFFFFFFFFFFFFFFFFFFFFFFFFFFFFFFFFFFFFFFFFFFFFFFFFFFFF
310
FFFFFFFFFFFFFFFFFFFFFFFFFFFFFFFFFFFFFFFFFFFFFFFFFFFFFFFFFFFFFFFF
310
FFFFFFFFFFFFFFFFF000FFFFFFFFFFFFFFFFFFFFFFFFFFFFFFFFFFFFFFFFFFFF
310
FFFFFFFFFFFFFFFFFFFFFFFFFFFFFFFFFFFFFFFFFFFFFFFFFFFFFFFFFFFFFFFF
310
FFFFFFFFFFFFFFFFFFFFFFFFFFFFFFFFFFFFFFFFFFFFFFFFFFFFFFFFFFFFFFFF
310
F000FFFFFFFFFFFFFFFFFFFFFFFFFFFFFFFFFFFFFFFFFFFFFFFFFFFFFFFFFFFF
310
FFFFFFFFFFFFFFFFFFFFFFFFFFFFFFFFFFFFFFFFFFFFFFFFFFFFFFFFFFFFFFFF
310
FFFFFFFFFFFFFFFFFFFFFFFFFFFFFFFFFFFFFFFFFFFFFFFFF000FFFFFFFFFFFF
310
FFFFFFFFFFFFFFFFFFFFFFFFFFFFFFFFFFFFFFFFFFFFFFFFFFFFFFFFFFFFFFFF
310
FFFFFFFFFFFFFFFFFFFFFFFFFFFFFFFFFFFFFFFFFFFFFFFFFFFFFFFFFFFFFFFF
310
FFFFFFFFFFFFFFFFFFFFFFFFFFFFFFFFF0000000000000000000000000000000
310
0000000000000000000000000000000000000000000000000000000000000000
310
0000000000000000000000000000000000000000000000000000000000000000
310
0000000000000000000000000000000000000000000000000000000000000000
310
0000000000000000000000000000000000000000000000000000000000000000
310
0000000000000000000000000000000000000000000000000000000000000000
310
0000000000000000000000000000000000000000000000000000000000000000
310
0000000000000000000000000000000000000000000000000000000000000000
310
0000000000000000000000000000000000000000000000000000000000000000
310
0000000000000000000000000000000000000000000000000000000000000000
310
0000000000000000000000000000000000000000000000000000000000000000
310
0000000000000000000000000000000000000000000000000000000000000000
310
0000000000000000000000000000000000000000000000000000000000000000
310
0000000000000000000000000000000000000000000000000000000000000000
310
0000000000000000000000000000000000000000000000000000000000000000
310
0000000000000000000000000000000000000000000000000000000000000000
  1
OLE
  0
ENDSEC
  0
SECTION
  2
OBJECTS
  0
DICTIONARY
  5
C
330
0
100
AcDbDictionary
281
     1
  3
ACAD_GROUP
350
D
  3
ACAD_LAYOUT
350
1A
  3
ACAD_MLINESTYLE
350
17
  3
ACAD_PLOTSETTINGS
350
19
  3
ACAD_PLOTSTYLENAME
350
E
  0
DICTIONARY
  5
D
102
{ACAD_REACTORS
330
C
102
}
330
C
100
AcDbDictionary
281
     1
  0
DICTIONARY
  5
1A
102
{ACAD_REACTORS
330
C
102
}
330
C
100
AcDbDictionary
281
     1
  3
Layout1
350
1E
  3
Layout2
350
26
  3
Model
350
22
  0
DICTIONARY
  5
17
102
{ACAD_REACTORS
330
C
102
}
330
C
100
AcDbDictionary
281
     1
  3
Standard
350
18
  0
DICTIONARY
  5
19
102
{ACAD_REACTORS
330
C
102
}
330
C
100
AcDbDictionary
281
     1
  0
ACDBDICTIONARYWDFLT
  5
E
102
{ACAD_REACTORS
330
C
102
}
330
C
100
AcDbDictionary
281
     1
  3
Normal
350
F
100
AcDbDictionaryWithDefault
340
F
  0
LAYOUT
  5
1E
102
{ACAD_REACTORS
330
1A
102
}
330
1A
100
AcDbPlotSettings
  1

  2
none_device
  4

  6

 40
0.0
 41
0.0
 42
0.0
 43
0.0
 44
0.0
 45
0.0
 46
0.0
 47
0.0
 48
0.0
 49
0.0
140
0.0
141
0.0
142
1.0
143
1.0
 70
   688
 72
     0
 73
     0
 74
     5
  7

 75
    16
147
1.0
148
0.0
149
0.0
100
AcDbLayout
  1
Layout1
 70
     1
 71
     1
 10
0.0
 20
0.0
 11
420.0
 21
297.0
 12
0.0
 22
0.0
 32
0.0
 14
1.0000000000E+20
 24
1.0000000000E+20
 34
1.0000000000E+20
 15
-1.0000000000E+20
 25
-1.0000000000E+20
 35
-1.0000000000E+20
146
0.0
 13
0.0
 23
0.0
 33
0.0
 16
1.0
 26
0.0
 36
0.0
 17
0.0
 27
1.0
 37
0.0
 76
     0
330
1B
  0
LAYOUT
  5
26
102
{ACAD_REACTORS
330
1A
102
}
330
1A
100
AcDbPlotSettings
  1

  2
none_device
  4

  6

 40
0.0
 41
0.0
 42
0.0
 43
0.0
 44
0.0
 45
0.0
 46
0.0
 47
0.0
 48
0.0
 49
0.0
140
0.0
141
0.0
142
1.0
143
1.0
 70
   688
 72
     0
 73
     0
 74
     5
  7

 75
    16
147
1.0
148
0.0
149
0.0
100
AcDbLayout
  1
Layout2
 70
     1
 71
     2
 10
0.0
 20
0.0
 11
0.0
 21
0.0
 12
0.0
 22
0.0
 32
0.0
 14
0.0
 24
0.0
 34
0.0
 15
0.0
 25
0.0
 35
0.0
146
0.0
 13
0.0
 23
0.0
 33
0.0
 16
1.0
 26
0.0
 36
0.0
 17
0.0
 27
1.0
 37
0.0
 76
     0
330
23
  0
LAYOUT
  5
22
102
{ACAD_REACTORS
330
1A
102
}
330
1A
100
AcDbPlotSettings
  1

  2
none_device
  4

  6

 40
0.0
 41
0.0
 42
0.0
 43
0.0
 44
0.0
 45
0.0
 46
0.0
 47
0.0
 48
0.0
 49
0.0
140
0.0
141
0.0
142
1.0
143
1.0
 70
  1712
 72
     0
 73
     0
 74
     0
  7

 75
     0
147
1.0
148
0.0
149
0.0
100
AcDbLayout
  1
Model
 70
     1
 71
     0
 10
0.0
 20
0.0
 11
297.0
 21
210.0
 12
0.0
 22
0.0
 32
0.0
 14
0.0
 24
0.0
 34
0.0
 15
297.0
 25
210.0
 35
0.0
146
0.0
 13
0.0
 23
0.0
 33
0.0
 16
1.0
 26
0.0
 36
0.0
 17
0.0
 27
1.0
 37
0.0
 76
     0
330
1F
331
29
  0
MLINESTYLE
  5
18
102
{ACAD_REACTORS
330
17
102
}
330
17
100
AcDbMlineStyle
  2
Standard
 70
     0
  3

 62
   256
 51
90.0
 52
90.0
 71
     2
 49
0.5
 62
   256
  6
BYLAYER
 49
-0.5
 62
   256
  6
BYLAYER
  0
ACDBPLACEHOLDER
  5
F
102
{ACAD_REACTORS
330
E
102
}
330
E
  0
ENDSEC
  0
EOF
