  0
SECTION
  2
HEADER
  9
$ACADVER
  1
AC1015
  9
$ACADMAINTVER
 70
     6
  9
$DWGCODEPAGE
  3
ANSI_1252
  9
$INSBASE
 10
0.0
 20
0.0
 30
0.0
  9
$EXTMIN
 10
0.0
 20
0.0
 30
0.0
  9
$EXTMAX
 10
297.0
 20
210.0
 30
0.0
  9
$LIMMIN
 10
0.0
 20
0.0
  9
$LIMMAX
 10
297.0
 20
210.0
  9
$ORTHOMODE
 70
     0
  9
$REGENMODE
 70
     1
  9
$FILLMODE
 70
     1
  9
$QTEXTMODE
 70
     0
  9
$MIRRTEXT
 70
     1
  9
$LTSCALE
 40
1.0
  9
$ATTMODE
 70
     1
  9
$TEXTSIZE
 40
2.0
  9
$TRACEWID
 40
1.0
  9
$TEXTSTYLE
  7
Standard
  9
$CLAYER
  8
0
  9
$CELTYPE
  6
ByLayer
  9
$CECOLOR
 62
   256
  9
$CELTSCALE
 40
1.0
  9
$DISPSILH
 70
     0
  9
$DIMSCALE
 40
1.0
  9
$DIMASZ
 40
3.0
  9
$DIMEXO
 40
0.0
  9
$DIMDLI
 40
3.75
  9
$DIMRND
 40
0.0
  9
$DIMDLE
 40
0.0
  9
$DIMEXE
 40
1.0
  9
$DIMTP
 40
0.0
  9
$DIMTM
 40
0.0
  9
$DIMTXT
 40
2.0
  9
$DIMCEN
 40
2.5
  9
$DIMTSZ
 40
0.0
  9
$DIMTOL
 70
     0
  9
$DIMLIM
 70
     0
  9
$DIMTIH
 70
     1
  9
$DIMTOH
 70
     1
  9
$DIMSE1
 70
     0
  9
$DIMSE2
 70
     0
  9
$DIMTAD
 70
     1
  9
$DIMZIN
 70
     0
  9
$DIMBLK
  1

  9
$DIMASO
 70
     1
  9
$DIMSHO
 70
     1
  9
$DIMPOST
  1

  9
$DIMAPOST
  1

  9
$DIMALT
 70
     0
  9
$DIMALTD
 70
     3
  9
$DIMALTF
 40
0.0393700787
  9
$DIMLFAC
 40
1.0
  9
$DIMTOFL
 70
     1
  9
$DIMTVP
 40
0.0
  9
$DIMTIX
 70
     0
  9
$DIMSOXD
 70
     0
  9
$DIMSAH
 70
     0
  9
$DIMBLK1
  1

  9
$DIMBLK2
  1

  9
$DIMSTYLE
  2
ISO-25
  9
$DIMCLRD
 70
     0
  9
$DIMCLRE
 70
     0
  9
$DIMCLRT
 70
     0
  9
$DIMTFAC
 40
1.0
  9
$DIMGAP
 40
1.524
  9
$DIMJUST
 70
     0
  9
$DIMSD1
 70
     0
  9
$DIMSD2
 70
     0
  9
$DIMTOLJ
 70
     0
  9
$DIMTZIN
 70
     0
  9
$DIMALTZ
 70
     0
  9
$DIMALTTZ
 70
     0
  9
$DIMUPT
 70
     0
  9
$DIMDEC
 70
     2
  9
$DIMTDEC
 70
     3
  9
$DIMALTU
 70
     2
  9
$DIMALTTD
 70
     3
  9
$DIMTXSTY
  7
Standard
  9
$DIMAUNIT
 70
     0
  9
$DIMADEC
 70
     2
  9
$DIMALTRND
 40
0.0
  9
$DIMAZIN
 70
     0
  9
$DIMDSEP
 70
    44
  9
$DIMATFIT
 70
     3
  9
$DIMFRAC
 70
     0
  9
$DIMLDRBLK
  1

  9
$DIMLUNIT
 70
     2
  9
$DIMLWD
 70
    -2
  9
$DIMLWE
 70
    -2
  9
$DIMTMOVE
 70
     0
  9
$LUNITS
 70
     2
  9
$LUPREC
 70
     2
  9
$SKETCHINC
 40
1.0
  9
$FILLETRAD
 40
10.0
  9
$AUNITS
 70
     0
  9
$AUPREC
 70
     2
  9
$MENU
  1
.
  9
$ELEVATION
 40
0.0
  9
$PELEVATION
 40
0.0
  9
$THICKNESS
 40
0.0
  9
$LIMCHECK
 70
     0
  9
$CHAMFERA
 40
10.0
  9
$CHAMFERB
 40
10.0
  9
$CHAMFERC
 40
20.0
  9
$CHAMFERD
 40
0.0
  9
$SKPOLY
 70
     0
  9
$TDCREATE
 40
2456070.598989768
  9
$TDUCREATE
 40
2456070.515656435
  9
$TDUPDATE
 40
2456070.598991215
  9
$TDUUPDATE
 40
2456070.515657882
  9
$TDINDWG
 40
0.0000000116
  9
$TDUSRTIMER
 40
0.0000000116
  9
$USRTIMER
 70
     1
  9
$ANGBASE
 50
0.0
  9
$ANGDIR
 70
     0
  9
$PDMODE
 70
     0
  9
$PDSIZE
 40
-1.0
  9
$PLINEWID
 40
0.0
  9
$SPLFRAME
 70
     0
  9
$SPLINETYPE
 70
     6
  9
$SPLINESEGS
 70
     8
  9
$HANDSEED
  5
252
  9
$SURFTAB1
 70
     6
  9
$SURFTAB2
 70
     6
  9
$SURFTYPE
 70
     6
  9
$SURFU
 70
     6
  9
$SURFV
 70
     6
  9
$UCSBASE
  2

  9
$UCSNAME
  2

  9
$UCSORG
 10
0.0
 20
0.0
 30
0.0
  9
$UCSXDIR
 10
1.0
 20
0.0
 30
0.0
  9
$UCSYDIR
 10
0.0
 20
1.0
 30
0.0
  9
$UCSORTHOREF
  2

  9
$UCSORTHOVIEW
 70
     0
  9
$UCSORGTOP
 10
0.0
 20
0.0
 30
0.0
  9
$UCSORGBOTTOM
 10
0.0
 20
0.0
 30
0.0
  9
$UCSORGLEFT
 10
0.0
 20
0.0
 30
0.0
  9
$UCSORGRIGHT
 10
0.0
 20
0.0
 30
0.0
  9
$UCSORGFRONT
 10
0.0
 20
0.0
 30
0.0
  9
$UCSORGBACK
 10
0.0
 20
0.0
 30
0.0
  9
$PUCSBASE
  2

  9
$PUCSNAME
  2

  9
$PUCSORG
 10
0.0
 20
0.0
 30
0.0
  9
$PUCSXDIR
 10
1.0
 20
0.0
 30
0.0
  9
$PUCSYDIR
 10
0.0
 20
1.0
 30
0.0
  9
$PUCSORTHOREF
  2

  9
$PUCSORTHOVIEW
 70
     0
  9
$PUCSORGTOP
 10
0.0
 20
0.0
 30
0.0
  9
$PUCSORGBOTTOM
 10
0.0
 20
0.0
 30
0.0
  9
$PUCSORGLEFT
 10
0.0
 20
0.0
 30
0.0
  9
$PUCSORGRIGHT
 10
0.0
 20
0.0
 30
0.0
  9
$PUCSORGFRONT
 10
0.0
 20
0.0
 30
0.0
  9
$PUCSORGBACK
 10
0.0
 20
0.0
 30
0.0
  9
$USERI1
 70
     0
  9
$USERI2
 70
     0
  9
$USERI3
 70
     0
  9
$USERI4
 70
     0
  9
$USERI5
 70
     0
  9
$USERR1
 40
0.0
  9
$USERR2
 40
0.0
  9
$USERR3
 40
0.0
  9
$USERR4
 40
0.0
  9
$USERR5
 40
0.0
  9
$WORLDVIEW
 70
     1
  9
$SHADEDGE
 70
     3
  9
$SHADEDIF
 70
    70
  9
$TILEMODE
 70
     1
  9
$MAXACTVP
 70
    64
  9
$PINSBASE
 10
0.0
 20
0.0
 30
0.0
  9
$PLIMCHECK
 70
     0
  9
$PEXTMIN
 10
1.0000000000E+20
 20
1.0000000000E+20
 30
1.0000000000E+20
  9
$PEXTMAX
 10
-1.0000000000E+20
 20
-1.0000000000E+20
 30
-1.0000000000E+20
  9
$PLIMMIN
 10
0.0
 20
0.0
  9
$PLIMMAX
 10
420.0
 20
297.0
  9
$UNITMODE
 70
     0
  9
$VISRETAIN
 70
     1
  9
$PLINEGEN
 70
     0
  9
$PSLTSCALE
 70
     1
  9
$TREEDEPTH
 70
  3020
  9
$CMLSTYLE
  2
Standard
  9
$CMLJUST
 70
     0
  9
$CMLSCALE
 40
20.0
  9
$PROXYGRAPHICS
 70
     1
  9
$MEASUREMENT
 70
     1
  9
$CELWEIGHT
370
    -1
  9
$ENDCAPS
280
     0
  9
$JOINSTYLE
280
     0
  9
$LWDISPLAY
290
     1
  9
$INSUNITS
 70
     4
  9
$HYPERLINKBASE
  1

  9
$STYLESHEET
  1

  9
$XEDIT
290
     1
  9
$CEPSNTYPE
380
     0
  9
$PSTYLEMODE
290
     1
  9
$FINGERPRINTGUID
  2
{F80E8175-D3D7-4687-8509-8A3D0929528E}
  9
$VERSIONGUID
  2
{FAEB1C32-E019-11D5-929B-00C0DF256EC4}
  9
$EXTNAMES
290
     1
  9
$PSVPSCALE
 40
0.0
  9
$OLESTARTUP
290
     0
  0
ENDSEC
  0
SECTION
  2
CLASSES
  0
CLASS
  1
ACDBDICTIONARYWDFLT
  2
AcDbDictionaryWithDefault
  3
ObjectDBX Classes
 90
        0
280
     0
281
     0
  0
CLASS
  1
VISUALSTYLE
  2
AcDbVisualStyle
  3
ObjectDBX Classes
 90
     4095
280
     0
281
     0
  0
CLASS
  1
MATERIAL
  2
AcDbMaterial
  3
ObjectDBX Classes
 90
     1153
280
     0
281
     0
  0
CLASS
  1
ACDBPLACEHOLDER
  2
AcDbPlaceHolder
  3
ObjectDBX Classes
 90
        0
280
     0
281
     0
  0
CLASS
  1
LAYOUT
  2
AcDbLayout
  3
ObjectDBX Classes
 90
        0
280
     0
281
     0
  0
ENDSEC
  0
SECTION
  2
TABLES
  0
TABLE
  2
VPORT
  5
8
330
0
100
AcDbSymbolTable
 70
     1
  0
VPORT
  5
29
330
8
100
AcDbSymbolTableRecord
100
AcDbViewportTableRecord
  2
*Active
 70
     0
 10
0.0
 20
0.0
 11
1.0
 21
1.0
 12
148.5
 22
105.0
 13
0.0
 23
0.0
 14
10.0
 24
10.0
 15
10.0
 25
10.0
 16
0.0
 26
0.0
 36
1.0
 17
0.0
 27
0.0
 37
0.0
 40
210.0
 41
1.4142857143
 42
50.0
 43
0.0
 44
0.0
 50
0.0
 51
0.0
 71
     0
 72
  2000
 73
     1
 74
     3
 75
     0
 76
     0
 77
     0
 78
     0
281
     0
 65
     1
110
0.0
120
0.0
130
0.0
111
1.0
121
0.0
131
0.0
112
0.0
122
1.0
132
0.0
 79
     0
146
0.0
  0
ENDTAB
  0
TABLE
  2
LTYPE
  5
5
330
0
100
AcDbSymbolTable
 70
     6
  0
LTYPE
  5
14
330
5
100
AcDbSymbolTableRecord
100
AcDbLinetypeTableRecord
  2
ByBlock
 70
     0
  3

 72
    65
 73
     0
 40
0.0
  0
LTYPE
  5
15
330
5
100
AcDbSymbolTableRecord
100
AcDbLinetypeTableRecord
  2
ByLayer
 70
     0
  3

 72
    65
 73
     0
 40
0.0
  0
LTYPE
  5
16
330
5
100
AcDbSymbolTableRecord
100
AcDbLinetypeTableRecord
  2
Continuous
 70
     0
  3
Solid line
 72
    65
 73
     0
 40
0.0
  0
LTYPE
  5
3F
330
5
100
AcDbSymbolTableRecord
100
AcDbLinetypeTableRecord
  2
HIDDEN
 70
     0
  3
Hidden __ __ __ __ __ __ __ __ __ __ __ __ __ __
 72
    65
 73
     2
 40
1.905
 49
1.27
 74
     0
 49
-0.635
 74
     0
  0
LTYPE
  5
40
330
5
100
AcDbSymbolTableRecord
100
AcDbLinetypeTableRecord
  2
PHANTOM
 70
     0
  3
Phantom ______  __  __  ______  __  __  ______
 72
    65
 73
     6
 40
12.7
 49
6.35
 74
     0
 49
-1.27
 74
     0
 49
1.27
 74
     0
 49
-1.27
 74
     0
 49
1.27
 74
     0
 49
-1.27
 74
     0
  0
LTYPE
  5
41
330
5
100
AcDbSymbolTableRecord
100
AcDbLinetypeTableRecord
  2
CENTER
 70
     0
  3
Center ____ _ ____ _ ____ _ ____ _ ____ _ ____
 72
    65
 73
     4
 40
10.16
 49
6.35
 74
     0
 49
-1.27
 74
     0
 49
1.27
 74
     0
 49
-1.27
 74
     0
  0
LTYPE
  5
42
330
5
100
AcDbSymbolTableRecord
100
AcDbLinetypeTableRecord
  2
CENTERX2
 70
     0
  3
Center (2x) ________  __  ________  __  _____
 72
    65
 73
     4
 40
20.32
 49
12.7
 74
     0
 49
-2.54
 74
     0
 49
2.54
 74
     0
 49
-2.54
 74
     0
  0
LTYPE
  5
43
330
5
100
AcDbSymbolTableRecord
100
AcDbLinetypeTableRecord
  2
DOT2
 70
     0
  3
Dot (.5x) ........................................
 72
    65
 73
     2
 40
0.635
 49
0.0
 74
     0
 49
-0.635
 74
     0
  0
ENDTAB
  0
TABLE
  2
LAYER
  5
2
330
0
100
AcDbSymbolTable
 70
     5
  0
LAYER
  5
10
330
2
100
AcDbSymbolTableRecord
100
AcDbLayerTableRecord
  2
0
 70
     0
 62
     7
  6
Continuous
370
    -3
390
F
  0
LAYER
  5
44
330
2
100
AcDbSymbolTableRecord
100
AcDbLayerTableRecord
  2
FORMAT
 70
     0
 62
     7
  6
Continuous
370
    -3
390
F
  0
LAYER
  5
45
330
2
100
AcDbSymbolTableRecord
100
AcDbLayerTableRecord
  2
VERMASSUNG
 70
     0
 62
     7
  6
Continuous
370
    -3
390
F
  0
LAYER
  5
46
330
2
100
AcDbSymbolTableRecord
100
AcDbLayerTableRecord
  2
KOPF_DÜNN
 70
     0
 62
     7
  6
Continuous
370
    -3
390
F
  0
LAYER
  5
47
330
2
100
AcDbSymbolTableRecord
100
AcDbLayerTableRecord
  2
KOPF_DICK
 70
     0
 62
     7
  6
Continuous
370
    15
390
F
  0
ENDTAB
  0
TABLE
  2
STYLE
  5
3
330
0
100
AcDbSymbolTable
 70
     2
  0
STYLE
  5
11
330
3
100
AcDbSymbolTableRecord
100
AcDbTextStyleTableRecord
  2
Standard
 70
     0
 40
0.0
 41
1.0
 50
0.0
 71
     0
 42
2.0
  3
txt
  4

  0
STYLE
  5
48
330
3
100
AcDbSymbolTableRecord
100
AcDbTextStyleTableRecord
  2
SLDTEXTSTYLE0
 70
     0
 40
0.0
 41
0.7
 50
0.0
 71
     0
 42
0.2
  3
TXT
  4

  0
ENDTAB
  0
TABLE
  2
VIEW
  5
6
330
0
100
AcDbSymbolTable
 70
     0
  0
ENDTAB
  0
TABLE
  2
UCS
  5
7
330
0
100
AcDbSymbolTable
 70
     0
  0
ENDTAB
  0
TABLE
  2
APPID
  5
9
330
0
100
AcDbSymbolTable
 70
     1
  0
APPID
  5
12
330
9
100
AcDbSymbolTableRecord
100
AcDbRegAppTableRecord
  2
ACAD
 70
     0
  0
ENDTAB
  0
TABLE
  2
DIMSTYLE
  5
A
330
0
100
AcDbSymbolTable
 70
     5
100
AcDbDimStyleTable
  0
DIMSTYLE
105
27
330
A
100
AcDbSymbolTableRecord
100
AcDbDimStyleTableRecord
  2
ISO-25
 70
     0
 41
2.5
 42
0.625
 43
3.75
 44
1.25
 73
     0
 74
     0
 77
     1
 78
     8
140
2.5
141
2.5
143
0.0393700787
147
0.625
171
     3
172
     1
178
     0
271
     2
272
     2
274
     3
278
    44
283
     0
284
     8
340
11
  0
DIMSTYLE
105
1AC
102
{ACAD_REACTORS
330
1AB
330
1D8
102
}
330
A
100
AcDbSymbolTableRecord
100
AcDbDimStyleTableRecord
  2
SLDDIMSTYLE0
 70
     0
 41
3.0
 44
0.0
 45
0.000000001
 73
     0
 74
     0
 77
     1
 78
    12
 79
     3
140
2.0
147
0.5
173
     1
178
     0
271
     2
272
     3
276
     2
284
    12
340
48
  0
DIMSTYLE
105
1B7
102
{ACAD_REACTORS
330
1B6
330
1C3
102
}
330
A
100
AcDbSymbolTableRecord
100
AcDbDimStyleTableRecord
  2
SLDDIMSTYLE1
 70
     0
 41
3.0
 44
0.0
 45
0.000000001
 47
0.1
 48
0.1
 71
     1
 73
     0
 74
     0
 77
     1
 78
    12
 79
     3
140
2.0
147
0.5
173
     1
178
     0
271
     2
272
     1
276
     2
284
     8
340
48
  0
DIMSTYLE
105
1D0
102
{ACAD_REACTORS
330
1CF
102
}
330
A
100
AcDbSymbolTableRecord
100
AcDbDimStyleTableRecord
  2
SLDDIMSTYLE2
 70
     0
 41
3.0
 44
0.0
 73
     0
 74
     0
 77
     1
 78
    12
 79
     3
140
2.0
147
0.5
173
     1
178
     0
179
     1
272
     3
276
     2
284
    12
340
48
  0
DIMSTYLE
105
237
102
{ACAD_REACTORS
330
236
102
}
330
A
100
AcDbSymbolTableRecord
100
AcDbDimStyleTableRecord
  2
SLDDIMSTYLE3
 70
     0
 41
3.0
 44
0.0
 45
0.000000001
 73
     0
 74
     0
 77
     1
 78
    12
 79
     3
140
2.0
147
0.5
172
     1
173
     1
178
     0
271
     2
272
     3
276
     2
284
    12
289
     0
340
48
  0
ENDTAB
  0
TABLE
  2
BLOCK_RECORD
  5
1
330
0
100
AcDbSymbolTable
 70
     8
  0
BLOCK_RECORD
  5
1F
330
1
100
AcDbSymbolTableRecord
100
AcDbBlockTableRecord
  2
*Model_Space
340
22
  0
BLOCK_RECORD
  5
1B
330
1
100
AcDbSymbolTableRecord
100
AcDbBlockTableRecord
  2
*Paper_Space
340
1E
  0
BLOCK_RECORD
  5
23
330
1
100
AcDbSymbolTableRecord
100
AcDbBlockTableRecord
  2
*Paper_Space0
340
26
  0
BLOCK_RECORD
  5
1AD
330
1
100
AcDbSymbolTableRecord
100
AcDbBlockTableRecord
  2
_D
340
0
  0
BLOCK_RECORD
  5
1B8
330
1
100
AcDbSymbolTableRecord
100
AcDbBlockTableRecord
  2
_D_1
340
0
  0
BLOCK_RECORD
  5
1C4
330
1
100
AcDbSymbolTableRecord
100
AcDbBlockTableRecord
  2
_D_2
340
0
  0
BLOCK_RECORD
  5
1D1
330
1
100
AcDbSymbolTableRecord
100
AcDbBlockTableRecord
  2
_D_3
340
0
  0
BLOCK_RECORD
  5
1D9
330
1
100
AcDbSymbolTableRecord
100
AcDbBlockTableRecord
  2
_D_4
340
0
  0
BLOCK_RECORD
  5
238
330
1
100
AcDbSymbolTableRecord
100
AcDbBlockTableRecord
  2
_D_5
340
0
  0
BLOCK_RECORD
  5
245
330
1
100
AcDbSymbolTableRecord
100
AcDbBlockTableRecord
  2
SW_CENTERMARKSYMBOL_0
340
0
102
{BLKREFS
331
250
102
}
  0
ENDTAB
  0
ENDSEC
  0
SECTION
  2
BLOCKS
  0
BLOCK
  5
20
330
1F
100
AcDbEntity
  8
0
100
AcDbBlockBegin
  2
*Model_Space
 70
     0
 10
0.0
 20
0.0
 30
0.0
  3
*Model_Space
  1

  0
ENDBLK
  5
21
330
1F
100
AcDbEntity
  8
0
100
AcDbBlockEnd
  0
BLOCK
  5
1C
330
1B
100
AcDbEntity
 67
     1
  8
0
100
AcDbBlockBegin
  2
*Paper_Space
 70
     0
 10
0.0
 20
0.0
 30
0.0
  3
*Paper_Space
  1

  0
ENDBLK
  5
1D
330
1B
100
AcDbEntity
 67
     1
  8
0
100
AcDbBlockEnd
  0
BLOCK
  5
24
330
23
100
AcDbEntity
  8
0
100
AcDbBlockBegin
  2
*Paper_Space0
 70
     0
 10
0.0
 20
0.0
 30
0.0
  3
*Paper_Space0
  1

  0
ENDBLK
  5
25
330
23
100
AcDbEntity
  8
0
100
AcDbBlockEnd
  0
BLOCK
  5
1AE
330
1AD
100
AcDbEntity
  8
0
100
AcDbBlockBegin
  2
_D
 70
     0
 10
0.0
 20
0.0
 30
0.0
  3
_D
  1

  0
SOLID
  5
1B0
330
1AD
100
AcDbEntity
  8
VERMASSUNG
100
AcDbTrace
 10
147.3889986187
 20
63.377229401
 30
0.0
 11
150.3889986187
 21
62.927229401
 31
0.0
 12
150.3889986187
 22
63.827229401
 32
0.0
 13
150.3889986187
 23
63.827229401
 33
0.0
  0
SOLID
  5
1B1
330
1AD
100
AcDbEntity
  8
VERMASSUNG
100
AcDbTrace
 10
250.3889986187
 20
63.377229401
 30
0.0
 11
247.3889986187
 21
63.827229401
 31
0.0
 12
247.3889986187
 22
62.927229401
 32
0.0
 13
247.3889986187
 23
62.927229401
 33
0.0
  0
LINE
  5
1B2
330
1AD
100
AcDbEntity
  8
VERMASSUNG
100
AcDbLine
 10
147.3889986187
 20
102.0707615372
 30
0.0
 11
147.3889986187
 21
62.377229401
 31
0.0
  0
LINE
  5
1B3
330
1AD
100
AcDbEntity
  8
VERMASSUNG
100
AcDbLine
 10
250.3889986187
 20
77.3630995297
 30
0.0
 11
250.3889986187
 21
62.377229401
 31
0.0
  0
LINE
  5
1B4
330
1AD
100
AcDbEntity
  8
VERMASSUNG
100
AcDbLine
 10
147.3889986187
 20
63.377229401
 30
0.0
 11
250.3889986187
 21
63.377229401
 31
0.0
  0
MTEXT
  5
1B5
330
1AD
100
AcDbEntity
  8
VERMASSUNG
100
AcDbMText
 10
196.0889984857
 20
65.9553647641
 30
0.1
 40
2.0
 41
0.0
 71
     1
 72
     1
  1
103
  7
SLDTEXTSTYLE0
 73
     1
 44
1.0
  0
ENDBLK
  5
1AF
330
1AD
100
AcDbEntity
  8
0
100
AcDbBlockEnd
  0
BLOCK
  5
1B9
330
1B8
100
AcDbEntity
  8
0
100
AcDbBlockBegin
  2
_D_1
 70
     0
 10
0.0
 20
0.0
 30
0.0
  3
_D_1
  1

  0
SOLID
  5
1BB
330
1B8
100
AcDbEntity
  8
VERMASSUNG
100
AcDbTrace
 10
185.3889986187
 20
72.6007055286
 30
0.0
 11
188.3889986187
 21
72.1507055286
 31
0.0
 12
188.3889986187
 22
73.0507055286
 32
0.0
 13
188.3889986187
 23
73.0507055286
 33
0.0
  0
SOLID
  5
1BC
330
1B8
100
AcDbEntity
  8
VERMASSUNG
100
AcDbTrace
 10
250.3889986187
 20
72.6007055286
 30
0.0
 11
247.3889986187
 21
73.0507055286
 31
0.0
 12
247.3889986187
 22
72.1507055286
 32
0.0
 13
247.3889986187
 23
72.1507055286
 33
0.0
  0
LINE
  5
1BD
330
1B8
100
AcDbEntity
  8
VERMASSUNG
100
AcDbLine
 10
185.3889986187
 20
91.3630995297
 30
0.0
 11
185.3889986187
 21
71.6007055286
 31
0.0
  0
LINE
  5
1BE
330
1B8
100
AcDbEntity
  8
VERMASSUNG
100
AcDbLine
 10
250.3889986187
 20
77.3630995297
 30
0.0
 11
250.3889986187
 21
71.6007055286
 31
0.0
  0
LINE
  5
1BF
330
1B8
100
AcDbEntity
  8
VERMASSUNG
100
AcDbLine
 10
185.3889986187
 20
72.6007055286
 30
0.0
 11
250.3889986187
 21
72.6007055286
 31
0.0
  0
MTEXT
  5
1C0
330
1B8
100
AcDbEntity
  8
VERMASSUNG
100
AcDbMText
 10
213.3389984317
 20
75.1788408917
 30
0.1
 40
2.0
 41
0.0
 71
     1
 72
     1
  1
65
  7
SLDTEXTSTYLE0
 73
     1
 44
1.0
  0
MTEXT
  5
1C1
330
1B8
100
AcDbEntity
  8
VERMASSUNG
100
AcDbMText
 10
219.1264985338
 20
75.1788408917
 30
0.1
 40
2.0
 41
0.0
 71
     1
 72
     1
  1

  7
SLDTEXTSTYLE0
 73
     1
 44
1.0
  0
MTEXT
  5
1C2
330
1B8
100
AcDbEntity
  8
VERMASSUNG
100
AcDbMText
 10
219.1389988236
 20
74.684307029
 30
0.1
 40
1.5
 41
0.0
 71
     1
 72
     1
  1
±0.1
  7
SLDTEXTSTYLE0
 73
     1
 44
1.0
  0
ENDBLK
  5
1BA
330
1B8
100
AcDbEntity
  8
0
100
AcDbBlockEnd
  0
BLOCK
  5
1C5
330
1C4
100
AcDbEntity
  8
0
100
AcDbBlockBegin
  2
_D_2
 70
     0
 10
0.0
 20
0.0
 30
0.0
  3
_D_2
  1

  0
SOLID
  5
1C7
330
1C4
100
AcDbEntity
  8
VERMASSUNG
100
AcDbTrace
 10
268.6632249961
 20
122.3630995297
 30
0.0
 11
268.2132249961
 21
119.3630995297
 31
0.0
 12
269.1132249961
 22
119.3630995297
 32
0.0
 13
269.1132249961
 23
119.3630995297
 33
0.0
  0
SOLID
  5
1C8
330
1C4
100
AcDbEntity
  8
VERMASSUNG
100
AcDbTrace
 10
268.6632249961
 20
77.3630995297
 30
0.0
 11
269.1132249961
 21
80.3630995297
 31
0.0
 12
268.2132249961
 22
80.3630995297
 32
0.0
 13
268.2132249961
 23
80.3630995297
 33
0.0
  0
LINE
  5
1C9
330
1C4
100
AcDbEntity
  8
VERMASSUNG
100
AcDbLine
 10
250.3889986187
 20
122.3630995297
 30
0.0
 11
269.6632249961
 21
122.3630995297
 31
0.0
  0
LINE
  5
1CA
330
1C4
100
AcDbEntity
  8
VERMASSUNG
100
AcDbLine
 10
267.9911393965
 20
77.3630995297
 30
0.0
 11
269.6632249961
 21
77.3630995297
 31
0.0
  0
LINE
  5
1CB
330
1C4
100
AcDbEntity
  8
VERMASSUNG
100
AcDbLine
 10
268.6632249961
 20
122.3630995297
 30
0.0
 11
268.6632249961
 21
77.3630995297
 31
0.0
  0
MTEXT
  5
1CC
330
1C4
100
AcDbEntity
  8
VERMASSUNG
100
AcDbMText
 10
266.085089633
 20
95.2130995126
 30
0.1
 40
2.0
 41
0.0
 71
     1
 72
     1
  1
45
  7
SLDTEXTSTYLE0
 11
-7.044195017643634E-15
 21
1.0
 31
0.0
 73
     1
 44
1.0
  0
MTEXT
  5
1CD
330
1C4
100
AcDbEntity
  8
VERMASSUNG
100
AcDbMText
 10
266.085089633
 20
101.2005997406
 30
0.1
 40
2.0
 41
0.0
 71
     1
 72
     1
  1

  7
SLDTEXTSTYLE0
 11
-7.044195017643634E-15
 21
1.0
 31
0.0
 73
     1
 44
1.0
  0
MTEXT
  5
1CE
330
1C4
100
AcDbEntity
  8
VERMASSUNG
100
AcDbMText
 10
266.5796234957
 20
101.2130995648
 30
0.1
 40
1.5
 41
0.0
 71
     1
 72
     1
  1
±0.1
  7
SLDTEXTSTYLE0
 11
-7.044195017643634E-15
 21
1.0
 31
0.0
 73
     1
 44
1.0
  0
ENDBLK
  5
1C6
330
1C4
100
AcDbEntity
  8
0
100
AcDbBlockEnd
  0
BLOCK
  5
1D2
330
1D1
100
AcDbEntity
  8
0
100
AcDbBlockBegin
  2
_D_3
 70
     0
 10
0.0
 20
0.0
 30
0.0
  3
_D_3
  1

  0
ARC
  5
1D4
330
1D1
100
AcDbEntity
  8
VERMASSUNG
100
AcDbCircle
 10
250.4117554801
 20
77.3630995297
 30
0.0
 40
11.87908857938874
100
AcDbArc
 50
0.0
 51
93.0324608485
  0
SOLID
  5
1D5
330
1D1
100
AcDbEntity
  8
VERMASSUNG
100
AcDbTrace
 10
262.2908440595
 20
77.3630995297
 30
0.0
 11
262.3672934531
 21
80.3956983311
 31
0.0
 12
261.4741688926
 22
80.2846644651
 32
0.0
 13
261.4741688926
 23
80.2846644651
 33
0.0
  0
SOLID
  5
1D6
330
1D1
100
AcDbEntity
  8
VERMASSUNG
100
AcDbTrace
 10
249.7833312615
 20
89.225554102
 30
0.0
 11
252.7440087196
 21
88.5645783163
 31
0.0
 12
252.807639282
 22
89.4623261381
 32
0.0
 13
252.807639282
 23
89.4623261381
 33
0.0
  0
MTEXT
  5
1D7
330
1D1
100
AcDbEntity
  8
VERMASSUNG
100
AcDbMText
 10
258.25632945
 20
89.8484503255
 30
0.1
 40
2.0
 41
0.0
 71
     1
 72
     1
  1
93°
  7
SLDTEXTSTYLE0
 11
0.7255693350955864
 21
-0.6881490681305531
 31
0.0
 73
     1
 44
1.0
  0
ENDBLK
  5
1D3
330
1D1
100
AcDbEntity
  8
0
100
AcDbBlockEnd
  0
BLOCK
  5
1DA
330
1D9
100
AcDbEntity
  8
0
100
AcDbBlockBegin
  2
_D_4
 70
     0
 10
0.0
 20
0.0
 30
0.0
  3
_D_4
  1

  0
SOLID
  5
1DC
330
1D9
100
AcDbEntity
  8
VERMASSUNG
100
AcDbTrace
 10
135.1139984429
 20
153.8630995297
 30
0.0
 11
134.6639984429
 21
150.8630995297
 31
0.0
 12
135.5639984429
 22
150.8630995297
 32
0.0
 13
135.5639984429
 23
150.8630995297
 33
0.0
  0
SOLID
  5
1DD
330
1D9
100
AcDbEntity
  8
VERMASSUNG
100
AcDbTrace
 10
135.1139984429
 20
90.8630995297
 30
0.0
 11
135.5639984429
 21
93.8630995297
 31
0.0
 12
134.6639984429
 22
93.8630995297
 32
0.0
 13
134.6639984429
 23
93.8630995297
 33
0.0
  0
LINE
  5
1DE
330
1D9
100
AcDbEntity
  8
VERMASSUNG
100
AcDbLine
 10
185.8889986187
 20
153.8630995297
 30
0.0
 11
134.1139984429
 21
153.8630995297
 31
0.0
  0
LINE
  5
1DF
330
1D9
100
AcDbEntity
  8
VERMASSUNG
100
AcDbLine
 10
185.8889986187
 20
90.8630995297
 30
0.0
 11
134.1139984429
 21
90.8630995297
 31
0.0
  0
LINE
  5
1E0
330
1D9
100
AcDbEntity
  8
VERMASSUNG
100
AcDbLine
 10
135.1139984429
 20
153.8630995297
 30
0.0
 11
135.1139984429
 21
90.8630995297
 31
0.0
  0
MTEXT
  5
1E1
330
1D9
100
AcDbEntity
  8
VERMASSUNG
100
AcDbMText
 10
132.3358629539
 20
115.9580994205
 30
0.4027568683
 40
2.0
 41
0.0
 71
     1
 72
     1
  1
PSC
  7
SLDTEXTSTYLE0
 11
-7.044195017643634E-15
 21
1.0
 31
0.0
 73
     1
 44
1.0
  0
MTEXT
  5
1E2
330
1D9
100
AcDbEntity
  8
VERMASSUNG
100
AcDbMText
 10
132.5358629634
 20
120.5580995226
 30
0.4027568683
 40
2.0
 41
0.0
 71
     1
 72
     1
  1
%%c
  7
SLDTEXTSTYLE0
 11
-7.044195017643634E-15
 21
1.0
 31
0.0
 73
     1
 44
1.0
  0
MTEXT
  5
1E3
330
1D9
100
AcDbEntity
  8
VERMASSUNG
100
AcDbMText
 10
132.3358629539
 20
124.1681000026
 30
0.4027568683
 40
2.0
 41
0.0
 71
     1
 72
     1
  1
63
  7
SLDTEXTSTYLE0
 11
-7.044195017643634E-15
 21
1.0
 31
0.0
 73
     1
 44
1.0
  0
ENDBLK
  5
1DB
330
1D9
100
AcDbEntity
  8
0
100
AcDbBlockEnd
  0
BLOCK
  5
239
330
238
100
AcDbEntity
  8
0
100
AcDbBlockBegin
  2
_D_5
 70
     0
 10
0.0
 20
0.0
 30
0.0
  3
_D_5
  1

  0
SOLID
  5
23B
330
238
100
AcDbEntity
  8
VERMASSUNG
100
AcDbTrace
 10
40.7469547226
 20
89.077066153
 30
0.0
 11
38.3074363275
 21
87.273943861
 31
0.0
 12
38.9438324305
 22
86.6375477579
 32
0.0
 13
38.9438324305
 23
86.6375477579
 33
0.0
  0
SOLID
  5
23C
330
238
100
AcDbEntity
  8
VERMASSUNG
100
AcDbTrace
 10
97.3154972175
 20
145.6456086479
 30
0.0
 11
99.7550156126
 21
147.4487309399
 31
0.0
 12
99.1186195095
 22
148.085127043
 32
0.0
 13
99.1186195095
 23
148.085127043
 33
0.0
  0
LINE
  5
23D
330
238
100
AcDbEntity
  8
VERMASSUNG
100
AcDbLine
 10
40.7469547226
 20
89.077066153
 30
0.0
 11
40.0398479414
 21
89.7841729342
 31
0.0
  0
LINE
  5
23E
330
238
100
AcDbEntity
  8
VERMASSUNG
100
AcDbLine
 10
97.3154972175
 20
145.6456086479
 30
0.0
 11
96.6083904363
 21
146.3527154291
 31
0.0
  0
LINE
  5
23F
330
238
100
AcDbEntity
  8
VERMASSUNG
100
AcDbLine
 10
40.7469547226
 20
89.077066153
 30
0.0
 11
36.5043140354
 21
84.8344254659
 31
0.0
  0
LINE
  5
240
330
238
100
AcDbEntity
  8
VERMASSUNG
100
AcDbLine
 10
40.7469547226
 20
89.077066153
 30
0.0
 11
97.3154972175
 21
145.6456086479
 31
0.0
  0
LINE
  5
241
330
238
100
AcDbEntity
  8
VERMASSUNG
100
AcDbLine
 10
97.3154972175
 20
145.6456086479
 30
0.0
 11
110.8355134511
 21
159.1656248816
 31
0.0
  0
MTEXT
  5
242
330
238
100
AcDbEntity
  8
VERMASSUNG
100
AcDbMText
 10
99.2473521107
 20
151.223497702
 30
0.1
 40
2.0
 41
0.0
 71
     1
 72
     1
  1
%%c
  7
SLDTEXTSTYLE0
 11
0.7071067811865466
 21
0.7071067811865485
 31
0.0
 73
     1
 44
1.0
  0
MTEXT
  5
243
330
238
100
AcDbEntity
  8
VERMASSUNG
100
AcDbMText
 10
101.658586238
 20
153.9175745551
 30
0.1
 40
2.0
 41
0.0
 71
     1
 72
     1
  1
80
  7
SLDTEXTSTYLE0
 11
0.7071067811865466
 21
0.7071067811865485
 31
0.0
 73
     1
 44
1.0
  0
MTEXT
  5
244
330
238
100
AcDbEntity
  8
VERMASSUNG
100
AcDbMText
 10
105.7509671355
 20
158.0099554527
 30
0.1
 40
2.0
 41
0.0
 71
     1
 72
     1
  1
min.
  7
SLDTEXTSTYLE0
 11
0.7071067811865466
 21
0.7071067811865485
 31
0.0
 73
     1
 44
1.0
  0
ENDBLK
  5
23A
330
238
100
AcDbEntity
  8
0
100
AcDbBlockEnd
  0
BLOCK
  5
246
330
245
100
AcDbEntity
  8
0
100
AcDbBlockBegin
  2
SW_CENTERMARKSYMBOL_0
 70
     0
 10
0.0
 20
0.0
 30
0.0
  3
SW_CENTERMARKSYMBOL_0
  1

  0
LINE
  5
248
330
245
100
AcDbEntity
  8
VERMASSUNG
 62
     0
100
AcDbLine
 10
0.0
 20
0.0
 30
0.0
 11
0.0
 21
2.5
 31
0.0
  0
LINE
  5
249
330
245
100
AcDbEntity
  8
VERMASSUNG
 62
     0
100
AcDbLine
 10
0.0
 20
0.0
 30
0.0
 11
-2.5
 21
0.0
 31
0.0
  0
LINE
  5
24A
330
245
100
AcDbEntity
  8
VERMASSUNG
 62
     0
100
AcDbLine
 10
0.0
 20
0.0
 30
0.0
 11
0.0
 21
-2.5
 31
0.0
  0
LINE
  5
24B
330
245
100
AcDbEntity
  8
VERMASSUNG
 62
     0
100
AcDbLine
 10
0.0
 20
0.0
 30
0.0
 11
2.5
 21
0.0
 31
0.0
  0
LINE
  5
24C
330
245
100
AcDbEntity
  8
VERMASSUNG
 62
     0
100
AcDbLine
 10
0.0
 20
5.0
 30
0.0
 11
0.0
 21
34.0
 31
0.0
  0
LINE
  5
24D
330
245
100
AcDbEntity
  8
VERMASSUNG
 62
     0
100
AcDbLine
 10
-5.0
 20
0.0
 30
0.0
 11
-34.0
 21
0.0
 31
0.0
  0
LINE
  5
24E
330
245
100
AcDbEntity
  8
VERMASSUNG
 62
     0
100
AcDbLine
 10
0.0
 20
-5.0
 30
0.0
 11
0.0
 21
-48.9949349612
 31
0.0
  0
LINE
  5
24F
330
245
100
AcDbEntity
  8
VERMASSUNG
 62
     0
100
AcDbLine
 10
5.0
 20
0.0
 30
0.0
 11
34.0
 21
0.0
 31
0.0
  0
ENDBLK
  5
247
330
245
100
AcDbEntity
  8
0
100
AcDbBlockEnd
  0
ENDSEC
  0
SECTION
  2
ENTITIES
  0
MTEXT
  5
49
330
1F
100
AcDbEntity
  8
KOPF_DÜNN
100
AcDbMText
 10
13.8892156294
 20
23.8442973028
 30
0.0
 40
3.0
 41
0.0
 71
     1
 72
     1
  1
PS6.PDF.LUA.065
  7
SLDTEXTSTYLE0
 73
     1
 44
1.0
  0
MTEXT
  5
4A
330
1F
100
AcDbEntity
  8
VERMASSUNG
100
AcDbMText
 10
13.9329988022
 20
28.8834360957
 30
0.0
 40
3.0
 41
0.0
 71
     1
 72
     1
  1
Klemmhalter links_Turning tool left 93° /55°
  7
SLDTEXTSTYLE0
 73
     1
 44
1.0
  0
MTEXT
  5
4B
330
1F
100
AcDbEntity
  8
VERMASSUNG
100
AcDbMText
 10
98.8601118557
 20
13.8365368179
 30
0.0
 40
2.0
 41
0.0
 71
     1
 72
     1
  1
Datum: 22.05.2012
  7
SLDTEXTSTYLE0
 73
     1
 44
1.0
  0
MTEXT
  5
4C
330
1F
100
AcDbEntity
  8
VERMASSUNG
100
AcDbMText
 10
13.933048693
 20
18.0482802738
 30
0.0
 40
2.0
 41
0.0
 71
     1
 72
     1
  1
PSC ø63 / DN..15 06..
  7
SLDTEXTSTYLE0
 73
     1
 44
1.0
  0
MTEXT
  5
4D
330
1F
100
AcDbEntity
  8
VERMASSUNG
100
AcDbMText
 10
13.9808475933
 20
13.9090973692
 30
0.0
 40
2.0
 41
0.0
 71
     1
 72
     1
  1
Gewicht: 1345g
  7
SLDTEXTSTYLE0
 73
     1
 44
1.0
  0
LINE
  5
4E
330
1F
100
AcDbEntity
  8
0
  6
Continuous
 62
     7
370
    15
100
AcDbLine
 10
240.9225920968
 20
88.5706632825
 30
0.0
 11
241.5182484701
 21
87.8253171864
 31
0.0
  0
LINE
  5
4F
330
1F
100
AcDbEntity
  8
0
  6
Continuous
 62
     7
370
    15
100
AcDbLine
 10
236.9759744181
 20
85.6027507095
 30
0.0
 11
237.397746134
 21
84.9059197049
 31
0.0
  0
LINE
  5
50
330
1F
100
AcDbEntity
  8
0
  6
Continuous
 62
     7
370
    15
100
AcDbLine
 10
249.5783031177
 20
92.2355953239
 30
0.0
 11
249.1588519161
 21
92.9285924861
 31
0.0
  0
LINE
  5
51
330
1F
100
AcDbEntity
  8
0
  6
Continuous
 62
     7
370
    15
100
AcDbLine
 10
219.1842751449
 20
153.8630995297
 30
0.0
 11
185.8889986187
 21
153.8630995297
 31
0.0
  0
LINE
  5
52
330
1F
100
AcDbEntity
  8
0
  6
Continuous
 62
     7
370
    15
100
AcDbLine
 10
185.8889986187
 20
90.8630995297
 30
0.0
 11
222.6216716307
 21
90.8630995297
 31
0.0
  0
ARC
  5
53
330
1F
100
AcDbEntity
  8
0
  6
Continuous
 62
     7
370
    15
100
AcDbCircle
 10
185.8889986187
 20
91.3630995297
 30
0.0
 40
0.5
100
AcDbArc
 50
180.0
 51
270.0
  0
ARC
  5
54
330
1F
100
AcDbEntity
  8
0
  6
Continuous
 62
     7
370
    15
100
AcDbCircle
 10
185.8889986187
 20
153.3630995297
 30
0.0
 40
0.5
100
AcDbArc
 50
90.0
 51
180.0
  0
LWPOLYLINE
  5
55
330
1F
100
AcDbEntity
  8
0
  6
Continuous
 62
     7
370
    15
100
AcDbPolyline
 90
        3
 70
   128
 43
0.0
 10
185.1889986187
 20
99.8232792509
 10
185.3144535622
 20
99.7549771359
 10
185.3889986187
 20
99.7022393778
  0
LWPOLYLINE
  5
56
330
1F
100
AcDbEntity
  8
0
  6
Continuous
 62
     7
370
    15
100
AcDbPolyline
 90
        3
 70
   128
 43
0.0
 10
185.3889986187
 20
145.0239596817
 10
185.3144535622
 20
144.9712219236
 10
185.1889986187
 20
144.9029198086
  0
ARC
  5
57
330
1F
100
AcDbEntity
  8
0
  6
Continuous
 62
     7
370
    15
100
AcDbCircle
 10
222.6216716307
 20
89.8630995297
 30
0.0
 40
1.000000000000043
100
AcDbArc
 50
15.0
 51
90.0
  0
LINE
  5
58
330
1F
100
AcDbEntity
  8
0
  6
Continuous
 62
     7
370
    15
100
AcDbLine
 10
223.587597457
 20
90.1219185748
 30
0.0
 11
223.6593073563
 21
89.8542935873
 31
0.0
  0
LINE
  5
59
330
1F
100
AcDbEntity
  8
0
  6
Continuous
 62
     7
370
    15
100
AcDbLine
 10
235.9827862022
 20
99.3224826529
 30
0.0
 11
236.1496702247
 21
96.1722951242
 31
0.0
  0
ARC
  5
5A
330
1F
100
AcDbEntity
  8
0
  6
Continuous
 62
     7
370
    15
100
AcDbCircle
 10
236.6744530095
 20
99.8695457159
 30
0.0
 40
0.993951916442858
100
AcDbArc
 50
142.6204511315
 51
182.8658889056
  0
LINE
  5
5B
330
1F
100
AcDbEntity
  8
0
  6
Continuous
 62
     7
370
    15
100
AcDbLine
 10
235.6817442279
 20
99.8198497674
 30
0.0
 11
235.8486282505
 21
96.6696622387
 31
0.0
  0
CIRCLE
  5
5C
330
1F
100
AcDbEntity
  8
0
  6
Continuous
 62
     7
370
    15
100
AcDbCircle
 10
241.2273775217
 20
103.817618053
 30
0.0
 40
3.46633754375745
  0
CIRCLE
  5
5D
330
1F
100
AcDbEntity
  8
0
  6
Continuous
 62
     7
370
    15
100
AcDbCircle
 10
241.2576586303
 20
103.811934512
 30
0.0
 40
1.983410254530779
  0
SPLINE
  5
5E
330
1F
100
AcDbEntity
  8
0
  6
Continuous
 62
     7
370
    15
100
AcDbSpline
210
0.0
220
0.0
230
1.0
 70
     8
 71
     3
 72
    14
 73
    10
 74
     0
 42
0.00000001
 43
0.00000001
 12
1.0
 22
0.0
 32
0.0
 13
1.0
 23
0.0
 33
0.0
 40
0.0
 40
0.0
 40
0.0
 40
0.0
 40
0.1077749207859759
 40
0.2867612133939433
 40
0.4711953518304289
 40
0.6394547261041738
 40
0.8140630833004766
 40
0.9068266860428398
 40
0.9999999999999999
 40
0.9999999999999999
 40
0.9999999999999999
 40
0.9999999999999999
 10
242.6114741316122
 20
104.937230762598
 30
0.0
 10
242.5542079504914
 20
104.961980546876
 30
0.0
 10
242.4018374410548
 20
105.0278333270871
 30
0.0
 10
242.1419365102577
 20
105.1354376973766
 30
0.0
 10
241.8410464587634
 20
105.2521546313839
 30
0.0
 10
241.5473535092066
 20
105.3568285104446
 30
0.0
 10
241.3183554608754
 20
105.4315362601104
 30
0.0
 10
241.138757852528
 20
105.4867566329595
 30
0.0
 10
241.0502114490852
 20
105.5126743587295
 30
0.0
 10
241.0058406915498
 20
105.5256617764145
 30
0.0
  0
SPLINE
  5
5F
330
1F
100
AcDbEntity
  8
0
  6
Continuous
 62
     7
370
    15
100
AcDbSpline
210
0.0
220
0.0
230
1.0
 70
     8
 71
     3
 72
    10
 73
     6
 74
     0
 42
0.00000001
 43
0.00000001
 12
1.0
 22
0.0
 32
0.0
 13
1.0
 23
0.0
 33
0.0
 40
0.0
 40
0.0
 40
0.0
 40
0.0
 40
0.4391165375904105
 40
0.751366942907326
 40
1.0
 40
1.0
 40
1.0
 40
1.0
 10
241.0058406915498
 20
105.5256617764145
 30
0.0
 10
240.8028313972626
 20
105.3869921845802
 30
0.0
 10
240.4554646739154
 20
105.1497163400801
 30
0.0
 10
239.9853843315048
 20
104.7471693378607
 30
0.0
 10
239.7618585436527
 20
104.5295485586587
 30
0.0
 10
239.6627721849036
 20
104.4330798209508
 30
0.0
  0
SPLINE
  5
60
330
1F
100
AcDbEntity
  8
0
  6
Continuous
 62
     7
370
    15
100
AcDbSpline
210
0.0
220
0.0
230
1.0
 70
     8
 71
     3
 72
    10
 73
     6
 74
     0
 42
0.00000001
 43
0.00000001
 12
1.0
 22
0.0
 32
0.0
 13
1.0
 23
0.0
 33
0.0
 40
0.0
 40
0.0
 40
0.0
 40
0.0
 40
0.4391165375903763
 40
0.7513669429073199
 40
0.9999999999999999
 40
0.9999999999999999
 40
0.9999999999999999
 40
0.9999999999999999
 10
239.6627721849036
 20
104.4330798209508
 30
0.0
 10
239.6896216957367
 20
104.2101717931468
 30
0.0
 10
239.7355635657103
 20
103.8287565899763
 30
0.0
 10
239.8372267299193
 20
103.2166775720122
 30
0.0
 10
239.8982750946281
 20
102.8947663284245
 30
0.0
 10
239.9253371183199
 20
102.7520668516707
 30
0.0
  0
SPLINE
  5
61
330
1F
100
AcDbEntity
  8
0
  6
Continuous
 62
     7
370
    15
100
AcDbSpline
210
0.0
220
0.0
230
1.0
 70
     8
 71
     3
 72
    14
 73
    10
 74
     0
 42
0.00000001
 43
0.00000001
 12
1.0
 22
0.0
 32
0.0
 13
1.0
 23
0.0
 33
0.0
 40
0.0
 40
0.0
 40
0.0
 40
0.0
 40
0.0927891276284352
 40
0.1859364241092271
 40
0.3545705453231296
 40
0.5287967792096625
 40
0.7072383843481048
 40
0.8922253340288139
 40
1.0
 40
1.0
 40
1.0
 40
1.0
 10
239.9253371183199
 20
102.7520668516707
 30
0.0
 10
239.969522733646
 20
102.7391341765328
 30
0.0
 10
240.0580645221161
 20
102.713218905738
 30
0.0
 10
240.2346851921664
 20
102.6589175274537
 30
0.0
 10
240.4635254359769
 20
102.584360638021
 30
0.0
 10
240.7538444319836
 20
102.4810517465286
 30
0.0
 10
241.0579903535468
 20
102.3632357453838
 30
0.0
 10
241.318151864472
 20
102.2556130832189
 30
0.0
 10
241.4737061738534
 20
102.1883846991958
 30
0.0
 10
241.5309705583823
 20
102.1636358378543
 30
0.0
  0
SPLINE
  5
62
330
1F
100
AcDbEntity
  8
0
  6
Continuous
 62
     7
370
    15
100
AcDbSpline
210
0.0
220
0.0
230
1.0
 70
     8
 71
     3
 72
    13
 73
     9
 74
     0
 42
0.00000001
 43
0.00000001
 12
1.0
 22
0.0
 32
0.0
 13
1.0
 23
0.0
 33
0.0
 40
0.0
 40
0.0
 40
0.0
 40
0.0
 40
0.2161241182544792
 40
0.4396369202065164
 40
0.5932538221761652
 40
0.7520048557756916
 40
0.8754343578245655
 40
1.0
 40
1.0
 40
1.0
 40
1.0
 10
241.5309705583823
 20
102.1636358378543
 30
0.0
 10
241.6172516210277
 20
102.2478348944386
 30
0.0
 10
241.792763456356
 20
102.4191115396367
 30
0.0
 10
242.0601371804382
 20
102.6552713299877
 30
0.0
 10
242.3124342457248
 20
102.8588893567206
 30
0.0
 10
242.5183653316326
 20
103.0124870174015
 30
0.0
 10
242.7066547108827
 20
103.1448963986457
 30
0.0
 10
242.8180741317198
 20
103.2189975019684
 30
0.0
 10
242.8740390650284
 20
103.2562177933179
 30
0.0
  0
SPLINE
  5
63
330
1F
100
AcDbEntity
  8
0
  6
Continuous
 62
     7
370
    15
100
AcDbSpline
210
0.0
220
0.0
230
1.0
 70
     8
 71
     3
 72
    10
 73
     6
 74
     0
 42
0.00000001
 43
0.00000001
 12
1.0
 22
0.0
 32
0.0
 13
1.0
 23
0.0
 33
0.0
 40
0.0
 40
0.0
 40
0.0
 40
0.0
 40
0.4391165375904302
 40
0.7513669429073768
 40
0.9999999999999999
 40
0.9999999999999999
 40
0.9999999999999999
 40
0.9999999999999999
 10
242.8740390650284
 20
103.2562177933179
 30
0.0
 10
242.8257121870847
 20
103.5146096972037
 30
0.0
 10
242.7430206566312
 20
103.9567409272413
 30
0.0
 10
242.6576924540675
 20
104.5418321048506
 30
0.0
 10
242.6256695217357
 20
104.8157889208596
 30
0.0
 10
242.6114741316122
 20
104.937230762598
 30
0.0
  0
LINE
  5
64
330
1F
100
AcDbEntity
  8
0
  6
Continuous
 62
     7
370
    15
100
AcDbLine
 10
242.4839335293
 20
103.9007314536
 30
0.0
 11
242.874039065
 21
103.2562177933
 31
0.0
  0
LINE
  5
65
330
1F
100
AcDbEntity
  8
0
  6
Continuous
 62
     7
370
    15
100
AcDbLine
 10
242.4839335293
 20
103.9007314536
 30
0.0
 11
242.3526510626
 21
104.7412379382
 31
0.0
  0
LINE
  5
66
330
1F
100
AcDbEntity
  8
0
  6
Continuous
 62
     7
370
    15
100
AcDbLine
 10
242.3526510626
 20
104.7412379382
 30
0.0
 11
242.3015883057
 21
105.0681557614
 31
0.0
  0
LINE
  5
67
330
1F
100
AcDbEntity
  8
0
  6
Continuous
 62
     7
370
    15
100
AcDbLine
 10
239.8276176461
 20
103.2894271459
 30
0.0
 11
240.3380483026
 21
103.102365005
 31
0.0
  0
LINE
  5
68
330
1F
100
AcDbEntity
  8
0
  6
Continuous
 62
     7
370
    15
100
AcDbLine
 10
240.3380483026
 20
103.102365005
 30
0.0
 11
241.1408650226
 21
102.8081494981
 31
0.0
  0
LINE
  5
69
330
1F
100
AcDbEntity
  8
0
  6
Continuous
 62
     7
370
    15
100
AcDbLine
 10
241.1408650226
 20
102.8081494981
 30
0.0
 11
241.5309705584
 21
102.1636358379
 31
0.0
  0
LINE
  5
6A
330
1F
100
AcDbEntity
  8
0
  6
Continuous
 62
     7
370
    15
100
AcDbLine
 10
241.1408650226
 20
102.8081494981
 30
0.0
 11
241.812399276
 21
103.3544404759
 31
0.0
  0
LINE
  5
6B
330
1F
100
AcDbEntity
  8
0
  6
Continuous
 62
     7
370
    15
100
AcDbLine
 10
241.812399276
 20
103.3544404759
 30
0.0
 11
242.4839335293
 21
103.9007314536
 31
0.0
  0
LWPOLYLINE
  5
6C
330
1F
100
AcDbEntity
  8
0
  6
Continuous
 62
     7
370
    15
100
AcDbPolyline
 90
        3
 70
   128
 43
0.0
 10
242.2527921903
 20
105.0884018876
 10
242.3103577085
 20
104.9291014198
 10
242.3526510626
 20
104.7412379382
  0
ARC
  5
6D
330
1F
100
AcDbEntity
  8
0
  6
Continuous
 62
     7
370
    15
100
AcDbCircle
 10
240.8745454129
 20
104.518429354
 30
0.0
 40
1.494804327292907
100
AcDbArc
 50
308.85922951
 51
8.5721867676
  0
ARC
  5
6E
330
1F
100
AcDbEntity
  8
0
  6
Continuous
 62
     7
370
    15
100
AcDbCircle
 10
240.8531728726
 20
104.5271446767
 30
0.0
 40
1.515041397302487
100
AcDbArc
 50
250.1227038883
 51
309.2818303983
  0
ARC
  5
6F
330
1F
100
AcDbEntity
  8
0
  6
Continuous
 62
     7
370
    15
100
AcDbCircle
 10
240.8374522075
 20
104.469324469
 30
0.0
 40
1.455328978766922
100
AcDbArc
 50
223.8502405222
 51
249.9307687666
  0
ELLIPSE
  5
70
330
1F
100
AcDbEntity
  8
0
  6
Continuous
 62
     7
370
    15
100
AcDbEllipse
 10
243.3600151038
 20
89.2849361123
 30
0.0
 11
1.980360473108363
 21
1.266117462755048
 31
0.0
210
0.0
220
0.0
230
1.0
 40
0.9803342941
 41
4.292337748685616
 42
6.068274465602176
  0
ELLIPSE
  5
71
330
1F
100
AcDbEntity
  8
0
  6
Continuous
 62
     7
370
    15
100
AcDbEllipse
 10
243.3600151038
 20
89.2849361123
 30
0.0
 11
1.980360473108363
 21
1.266117462755048
 31
0.0
210
0.0
220
0.0
230
1.0
 40
0.9803342941
 41
2.587145032719228
 42
4.292337748685627
  0
SPLINE
  5
72
330
1F
100
AcDbEntity
  8
0
  6
Continuous
 62
     7
370
    15
100
AcDbSpline
210
0.0
220
0.0
230
1.0
 70
     8
 71
     3
 72
    10
 73
     6
 74
     0
 42
0.00000001
 43
0.00000001
 12
1.0
 22
0.0
 32
0.0
 13
1.0
 23
0.0
 33
0.0
 40
0.0
 40
0.0
 40
0.0
 40
0.0
 40
0.4749270882417727
 40
0.7569938739199364
 40
1.0
 40
1.0
 40
1.0
 40
1.0
 10
240.9952581258172
 20
88.19785274024092
 30
0.0
 10
241.0669336219609
 20
88.12953047256616
 30
0.0
 10
241.181178340433
 20
88.0206305185257
 30
0.0
 10
241.3567686190916
 20
87.89946731854631
 30
0.0
 10
241.4552682631461
 20
87.84441786485422
 30
0.0
 10
241.5008543453567
 20
87.81894072789865
 30
0.0
  0
LWPOLYLINE
  5
73
330
1F
100
AcDbEntity
  8
0
  6
Continuous
 62
     7
370
    15
100
AcDbPolyline
 90
        3
 70
   128
 43
0.0
 10
241.3435478204
 20
87.878664702
 10
241.1181654077
 20
87.9366126372
 10
240.9817072727
 20
87.9807970233
  0
LINE
  5
74
330
1F
100
AcDbEntity
  8
0
  6
Continuous
 62
     7
370
    15
100
AcDbLine
 10
236.5865505314
 20
99.3582856003
 30
0.0
 11
237.3426813763
 21
85.0851759199
 31
0.0
  0
ARC
  5
75
330
1F
100
AcDbEntity
  8
0
  6
Continuous
 62
     7
370
    15
100
AcDbCircle
 10
236.9896871586
 20
99.3764298941
 30
0.0
 40
0.4035447379891124
100
AcDbArc
 50
59.4803828922
 51
182.5770179927
  0
LINE
  5
76
330
1F
100
AcDbEntity
  8
0
  6
Continuous
 62
     7
370
    15
100
AcDbLine
 10
249.4469108247
 20
92.3663854455
 30
0.0
 11
237.1946206309
 21
99.7240656625
 31
0.0
  0
ARC
  5
77
330
1F
100
AcDbEntity
  8
0
  6
Continuous
 62
     7
370
    15
100
AcDbCircle
 10
249.2491290069
 20
92.0363531773
 30
0.0
 40
0.3847582949293875
100
AcDbArc
 50
2.9775189463
 51
59.066575925
  0
LINE
  5
78
330
1F
100
AcDbEntity
  8
0
  6
Continuous
 62
     7
370
    15
100
AcDbLine
 10
250.3894987202
 20
77.7832294285
 30
0.0
 11
249.6333678753
 21
92.056339109
 31
0.0
  0
ARC
  5
79
330
1F
100
AcDbEntity
  8
0
  6
Continuous
 62
     7
370
    15
100
AcDbCircle
 10
249.9863620931
 20
77.7650851347
 30
0.0
 40
0.4035447379891401
100
AcDbArc
 50
239.4803828922
 51
2.5770179927
  0
LINE
  5
7A
330
1F
100
AcDbEntity
  8
0
  6
Continuous
 62
     7
370
    15
100
AcDbLine
 10
237.529138427
 20
84.7751295833
 30
0.0
 11
249.7814286207
 21
77.4174493663
 31
0.0
  0
ARC
  5
7B
330
1F
100
AcDbEntity
  8
0
  6
Continuous
 62
     7
370
    15
100
AcDbCircle
 10
237.7269202448
 20
85.1051618515
 30
0.0
 40
0.384758294929539
100
AcDbArc
 50
182.9775189463
 51
239.066575925
  0
ARC
  5
7C
330
1F
100
AcDbEntity
  8
0
  6
Continuous
 62
     7
370
    15
100
AcDbCircle
 10
249.9866557457
 20
77.7645990062
 30
0.0
 40
0.3833675010896948
100
AcDbArc
 50
239.4803828922
 51
2.5770179927
  0
LINE
  5
7D
330
1F
100
AcDbEntity
  8
0
  6
Continuous
 62
     7
370
    15
100
AcDbLine
 10
250.3696355415
 20
77.7818360854
 30
0.0
 11
249.6135046963
 21
92.0549457658
 31
0.0
  0
ARC
  5
7E
330
1F
100
AcDbEntity
  8
0
  6
Continuous
 62
     7
370
    15
100
AcDbCircle
 10
249.2484777701
 20
92.0359591303
 30
0.0
 40
0.3655203813244535
100
AcDbArc
 50
2.9775190128
 51
59.0665757711
  0
LINE
  5
7F
330
1F
100
AcDbEntity
  8
0
  6
Continuous
 62
     7
370
    15
100
AcDbLine
 10
249.4363704985
 20
92.3494897855
 30
0.0
 11
237.1840803047
 21
99.7071700025
 31
0.0
  0
ARC
  5
80
330
1F
100
AcDbEntity
  8
0
  6
Continuous
 62
     7
370
    15
100
AcDbCircle
 10
236.989393506
 20
99.3769160225
 30
0.0
 40
0.3833675010897202
100
AcDbArc
 50
59.4803828922
 51
182.5770179927
  0
LINE
  5
81
330
1F
100
AcDbEntity
  8
0
  6
Continuous
 62
     7
370
    15
100
AcDbLine
 10
236.6064137102
 20
99.3596789434
 30
0.0
 11
237.3625445551
 21
85.086569263
 31
0.0
  0
ARC
  5
82
330
1F
100
AcDbEntity
  8
0
  6
Continuous
 62
     7
370
    15
100
AcDbCircle
 10
237.7275714802
 20
85.105555898
 30
0.0
 40
0.3655203801828604
100
AcDbArc
 50
182.9775189463
 51
239.066575925
  0
LINE
  5
83
330
1F
100
AcDbEntity
  8
0
  6
Continuous
 62
     7
370
    15
100
AcDbLine
 10
237.5396787532
 20
84.7920252432
 30
0.0
 11
249.791968947
 21
77.4343450262
 31
0.0
  0
LINE
  5
84
330
1F
100
AcDbEntity
  8
0
  6
Continuous
 62
     7
370
    15
100
AcDbLine
 10
236.9608812827
 20
99.424040975
 30
0.0
 11
236.6064137102
 21
99.3596789434
 31
0.0
  0
LINE
  5
85
330
1F
100
AcDbEntity
  8
0
  6
Continuous
 62
     7
370
    15
100
AcDbLine
 10
236.9608812827
 20
99.424040975
 30
0.0
 11
237.1840803047
 21
99.7071700025
 31
0.0
  0
LINE
  5
86
330
1F
100
AcDbEntity
  8
0
  6
Continuous
 62
     7
370
    15
100
AcDbLine
 10
237.7170121276
 20
85.1509312945
 30
0.0
 11
237.3625445551
 21
85.086569263
 31
0.0
  0
LINE
  5
87
330
1F
100
AcDbEntity
  8
0
  6
Continuous
 62
     7
370
    15
100
AcDbLine
 10
237.9995020029
 20
97.69634348
 30
0.0
 11
236.9608812827
 21
99.424040975
 31
0.0
  0
LINE
  5
88
330
1F
100
AcDbEntity
  8
0
  6
Continuous
 62
     7
370
    15
100
AcDbLine
 10
237.9995020029
 20
97.69634348
 30
0.0
 11
238.0346471051
 21
97.0329266905
 31
0.0
  0
LINE
  5
89
330
1F
100
AcDbEntity
  8
0
  6
Continuous
 62
     7
370
    15
100
AcDbLine
 10
238.1084111025
 20
85.4451501029
 30
0.0
 11
237.7170121276
 21
85.1509312945
 31
0.0
  0
LINE
  5
8A
330
1F
100
AcDbEntity
  8
0
  6
Continuous
 62
     7
370
    15
100
AcDbLine
 10
235.9227947897
 20
100.4549110092
 30
0.0
 11
236.1496702247
 21
96.1722951242
 31
0.0
  0
LINE
  5
8B
330
1F
100
AcDbEntity
  8
0
  6
Continuous
 62
     7
370
    15
100
AcDbLine
 10
249.2131714765
 20
92.066360758
 30
0.0
 11
249.4363704985
 21
92.3494897855
 31
0.0
  0
LINE
  5
8C
330
1F
100
AcDbEntity
  8
0
  6
Continuous
 62
     7
370
    15
100
AcDbLine
 10
248.7696131234
 20
91.8583171732
 30
0.0
 11
249.2131714765
 21
92.066360758
 31
0.0
  0
LINE
  5
8D
330
1F
100
AcDbEntity
  8
0
  6
Continuous
 62
     7
370
    15
100
AcDbLine
 10
238.5689907273
 20
97.3543571367
 30
0.0
 11
237.9995020029
 21
97.69634348
 31
0.0
  0
ARC
  5
8E
330
1F
100
AcDbEntity
  8
0
  6
Continuous
 62
     7
370
    15
100
AcDbCircle
 10
239.8625356545
 20
94.5994368362
 30
0.0
 40
1.008861844972832
100
AcDbArc
 50
59.4803828922
 51
182.5770179927
  0
LINE
  5
8F
330
1F
100
AcDbEntity
  8
0
  6
Continuous
 62
     7
370
    15
100
AcDbLine
 10
238.561054304
 20
96.7648309671
 30
0.0
 11
238.5590640161
 21
96.7636337242
 31
0.0
  0
SPLINE
  5
90
330
1F
100
AcDbEntity
  8
0
  6
Continuous
 62
     7
370
    15
100
AcDbSpline
210
0.0
220
0.0
230
1.0
 70
     8
 71
     3
 72
    14
 73
    10
 74
     0
 42
0.00000001
 43
0.00000001
 12
1.0
 22
0.0
 32
0.0
 13
1.0
 23
0.0
 33
0.0
 40
0.0
 40
0.0
 40
0.0
 40
0.0
 40
0.2210591904779618
 40
0.3460797326519225
 40
0.4396016244131517
 40
0.5338897453199797
 40
0.6146561933587603
 40
0.7517253237593926
 40
1.0
 40
1.0
 40
1.0
 40
1.0
 10
238.5610543039548
 20
96.76483096707854
 30
0.0
 10
238.610745311864
 20
96.79687710658986
 30
0.0
 10
238.6885391855103
 20
96.84704701524932
 30
0.0
 10
238.7675248293764
 20
96.93510702579496
 30
0.0
 10
238.8035681532215
 20
97.01119276893212
 30
0.0
 10
238.8074277444241
 20
97.08368279096754
 30
0.0
 10
238.7817943832905
 20
97.16213828003131
 30
0.0
 10
238.7080703430466
 20
97.26183961311793
 30
0.0
 10
238.6234871592972
 20
97.31810541924408
 30
0.0
 10
238.5689907272828
 20
97.35435713669386
 30
0.0
  0
SPLINE
  5
91
330
1F
100
AcDbEntity
  8
0
  6
Continuous
 62
     7
370
    15
100
AcDbSpline
210
0.0
220
0.0
230
1.0
 70
     8
 71
     3
 72
    14
 73
    10
 74
     0
 42
0.00000001
 43
0.00000001
 12
1.0
 22
0.0
 32
0.0
 13
1.0
 23
0.0
 33
0.0
 40
0.0
 40
0.0
 40
0.0
 40
0.0
 40
0.2234968253973695
 40
0.3567622963774661
 40
0.4531212562341379
 40
0.5344619041500377
 40
0.6157317558035382
 40
0.7396161778922066
 40
1.0
 40
1.0
 40
1.0
 40
1.0
 10
238.0346471050735
 20
97.0329266905337
 30
0.0
 10
238.0403140963052
 20
96.97438250435381
 30
0.0
 10
238.0493601702338
 20
96.88092990938311
 30
0.0
 10
238.0952530898739
 20
96.77019769433986
 30
0.0
 10
238.1477365153071
 20
96.7065811948093
 30
0.0
 10
238.2077900804961
 20
96.67197515404477
 30
0.0
 10
238.2835352160599
 20
96.65895777586242
 30
0.0
 10
238.4078660070459
 20
96.67931181880788
 30
0.0
 10
238.4979930639807
 20
96.7295749486799
 30
0.0
 10
238.5590640161461
 20
96.76363372419632
 30
0.0
  0
LINE
  5
92
330
1F
100
AcDbEntity
  8
0
  6
Continuous
 62
     7
370
    15
100
AcDbLine
 10
238.8546940866
 20
94.5540761017
 30
0.0
 11
239.2778731981
 21
86.5659323646
 31
0.0
  0
LINE
  5
93
330
1F
100
AcDbEntity
  8
0
  6
Continuous
 62
     7
370
    15
100
AcDbLine
 10
247.232033427
 20
91.3506985056
 30
0.0
 11
240.3748693353
 21
95.4685262573
 31
0.0
  0
ARC
  5
94
330
1F
100
AcDbEntity
  8
0
  6
Continuous
 62
     7
370
    15
100
AcDbCircle
 10
246.7375788824
 20
90.5256178351
 30
0.0
 40
0.9618957373233494
100
AcDbArc
 50
2.9775189463
 51
59.066575925
  0
LINE
  5
95
330
1F
100
AcDbEntity
  8
0
  6
Continuous
 62
     7
370
    15
100
AcDbLine
 10
248.1213551651
 20
82.587438927
 30
0.0
 11
247.6981760536
 21
90.5755826642
 31
0.0
  0
ARC
  5
96
330
1F
100
AcDbEntity
  8
0
  6
Continuous
 62
     7
370
    15
100
AcDbCircle
 10
247.1135135972
 20
82.5420781922
 30
0.0
 40
1.00886184495401
100
AcDbArc
 50
239.4803828778
 51
2.5770180135
  0
LINE
  5
97
330
1F
100
AcDbEntity
  8
0
  6
Continuous
 62
     7
370
    15
100
AcDbLine
 10
239.7440158247
 20
85.7908165232
 30
0.0
 11
246.6011799162
 21
81.6729887713
 31
0.0
  0
ARC
  5
98
330
1F
100
AcDbEntity
  8
0
  6
Continuous
 62
     7
370
    15
100
AcDbCircle
 10
240.2384703693
 20
86.6158971937
 30
0.0
 40
0.9618957373232839
100
AcDbArc
 50
182.9775189463
 51
239.066575925
  0
LWPOLYLINE
  5
99
330
1F
100
AcDbEntity
  8
0
  6
Continuous
 62
     7
370
    15
100
AcDbPolyline
 90
       27
 70
   128
 43
0.0
 10
242.1283225433
 20
86.3912173784
 10
242.6885786811
 20
86.1418354324
 10
243.2952957114
 20
86.0336136091
 10
243.9132134456
 20
86.0728413674
 10
244.5064207512
 20
86.2572389326
 10
245.0404425756
 20
86.5760897885
 10
245.4842435116
 20
87.0108634823
 10
245.8120314619
 20
87.5362925472
 10
246.0047565824
 20
88.121840956
 10
246.0512183894
 20
88.7334787633
 10
245.9487166918
 20
89.3356598032
 10
245.7032085155
 20
89.8933875023
 10
245.3289619035
 20
90.3742487541
 10
244.8477267084
 20
90.7502976505
 10
244.2874705705
 20
90.9996795964
 10
243.6807535403
 20
91.1079014198
 10
243.0628358061
 20
91.0686736615
 10
242.4696285005
 20
90.8842760962
 10
241.9356066761
 20
90.5654252404
 10
241.4918057401
 20
90.1306515466
 10
241.1640177898
 20
89.6052224816
 10
240.9712926693
 20
89.0196740729
 10
240.9248308622
 20
88.4080362655
 10
241.0273325599
 20
87.8058552257
 10
241.2728407361
 20
87.2481275265
 10
241.6470873482
 20
86.7672662747
 10
242.1283225433
 20
86.3912173784
  0
ARC
  5
9A
330
1F
100
AcDbEntity
  8
0
  6
Continuous
 62
     7
370
    15
100
AcDbCircle
 10
242.7647373536
 20
89.6500686649
 30
0.0
 40
2.522770525809797
100
AcDbArc
 50
226.2794133384
 51
261.7749900747
  0
SPLINE
  5
9B
330
1F
100
AcDbEntity
  8
0
  6
Continuous
 62
     7
370
    15
100
AcDbSpline
210
0.0
220
0.0
230
1.0
 70
     8
 71
     3
 72
    11
 73
     7
 74
     0
 42
0.00000001
 43
0.00000001
 12
1.0
 22
0.0
 32
0.0
 13
1.0
 23
0.0
 33
0.0
 40
0.0
 40
0.0
 40
0.0
 40
0.0
 40
0.3280455501580043
 40
0.6557028173711965
 40
0.9906967996087749
 40
1.0
 40
1.0
 40
1.0
 40
1.0
 10
238.1084111024578
 20
85.44515010287473
 30
0.0
 10
238.169150089441
 20
85.48853703829035
 30
0.0
 10
238.2905561712181
 20
85.57525955525614
 30
0.0
 10
238.5018804029612
 20
85.69942007594942
 30
0.0
 10
238.6402223688106
 20
85.76928882244252
 30
0.0
 10
238.7062742134944
 20
85.79928789747125
 30
0.0
 10
238.708058990072
 20
85.80009849779164
 30
0.0
  0
LINE
  5
9C
330
1F
100
AcDbEntity
  8
0
  6
Continuous
 62
     7
370
    15
100
AcDbLine
 10
248.8093017076
 20
79.7214866124
 30
0.0
 11
249.9693023214
 21
77.7932510776
 31
0.0
  0
LINE
  5
9D
330
1F
100
AcDbEntity
  8
0
  6
Continuous
 62
     7
370
    15
100
AcDbLine
 10
249.9693023214
 20
77.7932510776
 30
0.0
 11
249.791968947
 21
77.4343450262
 31
0.0
  0
LINE
  5
9E
330
1F
100
AcDbEntity
  8
0
  6
Continuous
 62
     7
370
    15
100
AcDbLine
 10
237.7170121276
 20
85.1509312945
 30
0.0
 11
237.5396787532
 21
84.7920252432
 31
0.0
  0
LINE
  5
9F
330
1F
100
AcDbEntity
  8
0
  6
Continuous
 62
     7
370
    15
100
AcDbLine
 10
248.2398129832
 20
80.0634729557
 30
0.0
 11
248.8093017076
 21
79.7214866124
 31
0.0
  0
SPLINE
  5
A0
330
1F
100
AcDbEntity
  8
0
  6
Continuous
 62
     7
370
    15
100
AcDbSpline
210
0.0
220
0.0
230
1.0
 70
     8
 71
     3
 72
    11
 73
     7
 74
     0
 42
0.00000001
 43
0.00000001
 12
1.0
 22
0.0
 32
0.0
 13
1.0
 23
0.0
 33
0.0
 40
0.0
 40
0.0
 40
0.0
 40
0.0
 40
0.3280455501579903
 40
0.6557028173711924
 40
0.9906967996087792
 40
0.9999999999999999
 40
0.9999999999999999
 40
0.9999999999999999
 40
0.9999999999999999
 10
248.7696131234122
 20
91.85831717321308
 30
0.0
 10
248.7027953644535
 20
91.82497329337299
 30
0.0
 10
248.5692389337124
 20
91.7583250003457
 30
0.0
 10
248.3605415040501
 20
91.62982460321221
 30
0.0
 10
248.2340466071381
 20
91.54038269749726
 30
0.0
 10
248.1766329537103
 20
91.4961120170846
 30
0.0
 10
248.1750815883493
 20
91.49491578594443
 30
0.0
  0
LINE
  5
A1
330
1F
100
AcDbEntity
  8
0
  6
Continuous
 62
     7
370
    15
100
AcDbLine
 10
249.2131714765
 20
92.066360758
 30
0.0
 11
249.6135046963
 21
92.0549457658
 31
0.0
  0
LINE
  5
A2
330
1F
100
AcDbEntity
  8
0
  6
Continuous
 62
     7
370
    15
100
AcDbLine
 10
249.9693023214
 20
77.7932510776
 30
0.0
 11
250.3696355415
 21
77.7818360854
 31
0.0
  0
LINE
  5
A3
330
1F
100
AcDbEntity
  8
0
  6
Continuous
 62
     7
370
    15
100
AcDbLine
 10
248.8093017076
 20
79.7214866124
 30
0.0
 11
248.7741566054
 21
80.3849034019
 31
0.0
  0
LINE
  5
A4
330
1F
100
AcDbEntity
  8
0
  6
Continuous
 62
     7
370
    15
100
AcDbLine
 10
248.2477494065
 20
80.6529991253
 30
0.0
 11
248.2497396943
 21
80.6541963682
 31
0.0
  0
SPLINE
  5
A5
330
1F
100
AcDbEntity
  8
0
  6
Continuous
 62
     7
370
    15
100
AcDbSpline
210
0.0
220
0.0
230
1.0
 70
     8
 71
     3
 72
    14
 73
    10
 74
     0
 42
0.00000001
 43
0.00000001
 12
1.0
 22
0.0
 32
0.0
 13
1.0
 23
0.0
 33
0.0
 40
0.0
 40
0.0
 40
0.0
 40
0.0
 40
0.2234968253973772
 40
0.3567622963774698
 40
0.4531212562341416
 40
0.5344619041500435
 40
0.6157317558035357
 40
0.7396161778922028
 40
1.0
 40
1.0
 40
1.0
 40
1.0
 10
248.7741566054194
 20
80.38490340187643
 30
0.0
 10
248.7684896141878
 20
80.44344758805636
 30
0.0
 10
248.7594435402591
 20
80.53690018302704
 30
0.0
 10
248.713550620619
 20
80.64763239807029
 30
0.0
 10
248.6610671951858
 20
80.71124889760085
 30
0.0
 10
248.6010136299969
 20
80.7458549383654
 30
0.0
 10
248.5252684944331
 20
80.75887231654771
 30
0.0
 10
248.400937703447
 20
80.7385182736023
 30
0.0
 10
248.3108106465123
 20
80.68825514373026
 30
0.0
 10
248.2497396943469
 20
80.65419636821383
 30
0.0
  0
SPLINE
  5
A6
330
1F
100
AcDbEntity
  8
0
  6
Continuous
 62
     7
370
    15
100
AcDbSpline
210
0.0
220
0.0
230
1.0
 70
     8
 71
     3
 72
    14
 73
    10
 74
     0
 42
0.00000001
 43
0.00000001
 12
1.0
 22
0.0
 32
0.0
 13
1.0
 23
0.0
 33
0.0
 40
0.0
 40
0.0
 40
0.0
 40
0.0
 40
0.2210591904779642
 40
0.3460797326519304
 40
0.4396016244131591
 40
0.5338897453199902
 40
0.6146561933587642
 40
0.7517253237593841
 40
1.0
 40
1.0
 40
1.0
 40
1.0
 10
248.2477494065382
 20
80.6529991253316
 30
0.0
 10
248.198058398629
 20
80.62095298582028
 30
0.0
 10
248.1202645249826
 20
80.57078307716084
 30
0.0
 10
248.0412788811166
 20
80.48272306661518
 30
0.0
 10
248.0052355572714
 20
80.40663732347804
 30
0.0
 10
248.0013759660689
 20
80.33414730144261
 30
0.0
 10
248.0270093272025
 20
80.25569181237884
 30
0.0
 10
248.1007333674464
 20
80.15599047929221
 30
0.0
 10
248.1853165511958
 20
80.09972467316607
 30
0.0
 10
248.2398129832101
 20
80.06347295571628
 30
0.0
  0
ELLIPSE
  5
A7
330
1F
100
AcDbEntity
  8
0
  6
Continuous
 62
     7
370
    15
100
AcDbEllipse
 10
220.3313367167
 20
122.3630995297
 30
0.0
 11
1.574944762879767
 21
31.49727103316098
 31
0.0
210
0.0
220
0.0
230
1.0
 40
0.263265937
 41
0.6827189707279301
 42
2.834265963909571
  0
ELLIPSE
  5
A8
330
1F
100
AcDbEntity
  8
0
  6
Continuous
 62
     7
370
    15
100
AcDbEllipse
 10
215.3458974965
 20
104.6887557726
 30
0.0
 11
-0.1867965446606092
 21
3.254630236281614
 31
0.0
210
0.0
220
0.0
230
1.0
 40
0.2276044336
 41
0.0
 42
6.283185307179586
  0
SPLINE
  5
A9
330
1F
100
AcDbEntity
  8
0
  6
Continuous
 62
     7
370
    15
100
AcDbSpline
210
0.0
220
0.0
230
1.0
 70
     8
 71
     3
 72
    68
 73
    64
 74
     0
 42
0.00000001
 43
0.00000001
 12
1.0
 22
0.0
 32
0.0
 13
1.0
 23
0.0
 33
0.0
 40
-0.0625000000000003
 40
-0.0625000000000003
 40
0.0
 40
0.0
 40
0.0312499999999999
 40
0.0312499999999999
 40
0.0624999999999999
 40
0.0624999999999999
 40
0.0937499999999998
 40
0.0937499999999998
 40
0.1249999999999998
 40
0.1249999999999998
 40
0.1562499999999997
 40
0.1562499999999997
 40
0.1874999999999997
 40
0.1874999999999997
 40
0.2187499999999996
 40
0.2187499999999996
 40
0.2499999999999996
 40
0.2499999999999996
 40
0.2812499999999995
 40
0.2812499999999995
 40
0.3124999999999994
 40
0.3124999999999994
 40
0.3437499999999994
 40
0.3437499999999994
 40
0.3749999999999993
 40
0.3749999999999993
 40
0.4062499999999993
 40
0.4062499999999993
 40
0.4374999999999992
 40
0.4374999999999992
 40
0.4687499999999992
 40
0.4687499999999992
 40
0.4999999999999991
 40
0.4999999999999991
 40
0.5312499999999991
 40
0.5312499999999991
 40
0.562499999999999
 40
0.562499999999999
 40
0.5937499999999989
 40
0.5937499999999989
 40
0.6249999999999989
 40
0.6249999999999989
 40
0.6562499999999989
 40
0.6562499999999989
 40
0.6874999999999988
 40
0.6874999999999988
 40
0.7187499999999987
 40
0.7187499999999987
 40
0.7499999999999987
 40
0.7499999999999987
 40
0.7812499999999988
 40
0.7812499999999988
 40
0.812499999999999
 40
0.812499999999999
 40
0.8437499999999991
 40
0.8437499999999991
 40
0.8749999999999993
 40
0.8749999999999993
 40
0.9062499999999994
 40
0.9062499999999994
 40
0.9374999999999997
 40
0.9374999999999997
 40
1.0
 40
1.0
 40
1.03125
 40
1.03125
 10
206.7856282390657
 20
104.0866145981166
 30
0.0
 10
206.1906838085109
 20
104.0866145981166
 30
0.0
 10
205.9957055622613
 20
104.1025366517137
 30
0.0
 10
205.6121423371157
 20
104.1650096731619
 30
0.0
 10
205.4215615616534
 20
104.2123271462922
 30
0.0
 10
205.0583122748666
 20
104.3361151388678
 30
0.0
 10
204.8860455358707
 20
104.4119826794874
 30
0.0
 10
204.5600238191628
 20
104.591867627378
 30
0.0
 10
204.4057484523861
 20
104.6968010763906
 30
0.0
 10
204.1291855311351
 20
104.9270248376391
 30
0.0
 10
204.0050426408197
 20
105.0531156174353
 30
0.0
 10
203.7857278684487
 20
105.328382887153
 30
0.0
 10
203.6925974130454
 20
105.4754887262202
 30
0.0
 10
203.5429430825193
 20
105.7814783886946
 30
0.0
 10
203.4852961125274
 20
105.9426252821784
 30
0.0
 10
203.408189550705
 20
106.274430877607
 30
0.0
 10
203.3891057693616
 20
106.4421473034391
 30
0.0
 10
203.3888923592842
 20
106.7812196107749
 30
0.0
 10
203.4083876497837
 20
106.9543799351175
 30
0.0
 10
203.4849575242607
 20
107.2912381394646
 30
0.0
 10
203.5416107654699
 20
107.4558564252499
 30
0.0
 10
203.6918867162792
 20
107.7771401268455
 30
0.0
 10
203.7857703786917
 20
107.9331675325085
 30
0.0
 10
204.0028355787881
 20
108.2232177517801
 30
0.0
 10
204.1267668350629
 20
108.3590741519693
 30
0.0
 10
204.4067236802151
 20
108.611189527843
 30
0.0
 10
204.558182831117
 20
108.7233168383857
 30
0.0
 10
204.8829158400646
 20
108.9201375345068
 30
0.0
 10
205.0582802788811
 20
109.0055569578492
 30
0.0
 10
205.4215972977808
 20
109.1426724918175
 30
0.0
 10
205.6085887507714
 20
109.1945009348575
 30
0.0
 10
205.9931602491281
 20
109.264690115282
 30
0.0
 10
206.1920681022475
 20
109.2827012877015
 30
0.0
 10
206.5837315019441
 20
109.2828323861467
 30
0.0
 10
206.7784392383309
 20
109.2655342073975
 30
0.0
 10
207.1655563019859
 20
109.1955191289032
 30
0.0
 10
207.3550273047128
 20
109.1430193670752
 30
0.0
 10
207.7161598027304
 20
109.0070682603971
 30
0.0
 10
207.8905790520907
 20
108.9226288757955
 30
0.0
 10
208.2187770898946
 20
108.7241791091876
 30
0.0
 10
208.3698553273452
 20
108.6121201230602
 30
0.0
 10
208.6466914203728
 20
108.3635009449803
 30
0.0
 10
208.7734552368853
 20
108.2252677669999
 30
0.0
 10
208.9914597750422
 20
107.9344201047242
 30
0.0
 10
209.0837409545723
 20
107.781391304278
 30
0.0
 10
209.2346206417377
 20
107.4604244740213
 30
0.0
 10
209.2925670762077
 20
107.2926452425849
 30
0.0
 10
209.3691792586224
 20
106.9569374099657
 30
0.0
 10
209.3888072786378
 20
106.7872116535379
 30
0.0
 10
209.3891872018829
 20
106.4439686849635
 30
0.0
 10
209.3698748613783
 20
106.2757081232546
 30
0.0
 10
209.2939542447016
 20
105.9470465275299
 30
0.0
 10
209.2364484757355
 20
105.7847343977817
 30
0.0
 10
209.0860883291463
 20
105.4764969189612
 30
0.0
 10
208.994069041255
 20
105.3311537104412
 30
0.0
 10
208.7767250262649
 20
105.0573489034123
 30
0.0
 10
208.6502056061333
 20
104.9283476661874
 30
0.0
 10
208.3737719866736
 20
104.6979082830426
 30
0.0
 10
208.2229423965973
 20
104.5949504108479
 30
0.0
 10
207.8954308043571
 20
104.4135698705603
 30
0.0
 10
207.7208822712689
 20
104.336677232479
 30
0.0
 10
207.1796774028973
 20
104.1517864397435
 30
0.0
 10
206.7856282390657
 20
104.0866145981166
 30
0.0
 10
206.1906838085109
 20
104.0866145981166
 30
0.0
  0
ELLIPSE
  5
AA
330
1F
100
AcDbEntity
  8
0
  6
Continuous
 62
     7
370
    15
100
AcDbEllipse
 10
321.8658091597
 20
122.3630995297
 30
0.0
 11
299.7019342435705
 21
5.529125611777218
 31
0.0
210
0.0
220
0.0
230
1.0
 40
0.1034726254
 41
1.909306965973018
 42
1.910405447921338
  0
SPLINE
  5
AB
330
1F
100
AcDbEntity
  8
0
  6
Continuous
 62
     7
370
    15
100
AcDbSpline
210
0.0
220
0.0
230
1.0
 70
     8
 71
     3
 72
    20
 73
    16
 74
     0
 42
0.00000001
 43
0.00000001
 12
1.0
 22
0.0
 32
0.0
 13
1.0
 23
0.0
 33
0.0
 40
0.0
 40
0.0
 40
0.0
 40
0.0
 40
0.25
 40
0.25
 40
0.375
 40
0.375
 40
0.5
 40
0.5
 40
0.625
 40
0.625
 40
0.75
 40
0.75
 40
0.875
 40
0.875
 40
1.0
 40
1.0
 40
1.0
 40
1.0
 10
216.3217102101609
 20
147.0621694629231
 30
0.0
 10
216.467260310439
 20
147.4452908040448
 30
0.0
 10
216.6880267599687
 20
147.7946122912324
 30
0.0
 10
217.1441263903642
 20
148.2714962714644
 30
0.0
 10
217.3179639629704
 20
148.4225515812562
 30
0.0
 10
217.69815700641
 20
148.6992547546253
 30
0.0
 10
217.9057061636921
 20
148.8263610774409
 30
0.0
 10
218.3569616010607
 20
149.0592590158641
 30
0.0
 10
218.6032179140336
 20
149.1659155622249
 30
0.0
 10
219.1219156042232
 20
149.3531150296303
 30
0.0
 10
219.3929088261117
 20
149.4335518957375
 30
0.0
 10
219.9580141685546
 20
149.5700217907784
 30
0.0
 10
220.2531625265174
 20
149.6262062268364
 30
0.0
 10
220.8636312941154
 20
149.7132877562975
 30
0.0
 10
221.1741815949558
 20
149.7436106655746
 30
0.0
 10
221.4900943882894
 20
149.7609992809702
 30
0.0
  0
SPLINE
  5
AC
330
1F
100
AcDbEntity
  8
0
  6
Continuous
 62
     7
370
    15
100
AcDbSpline
210
0.0
220
0.0
230
1.0
 70
     8
 71
     3
 72
    18
 73
    14
 74
     0
 42
0.00000001
 43
0.00000001
 12
1.0
 22
0.0
 32
0.0
 13
1.0
 23
0.0
 33
0.0
 40
0.0
 40
0.0
 40
0.0
 40
0.0
 40
0.2499999999999999
 40
0.2499999999999999
 40
0.4999999999999998
 40
0.4999999999999998
 40
0.6249999999999998
 40
0.6249999999999998
 40
0.7499999999999997
 40
0.7499999999999997
 40
0.8749999999999996
 40
0.8749999999999996
 40
1.0
 40
1.0
 40
1.0
 40
1.0
 10
221.4900943882894
 20
91.30125353472472
 30
0.0
 10
220.8590789434575
 20
91.31295264699335
 30
0.0
 10
220.257411103425
 20
91.34128443033595
 30
0.0
 10
219.1115954843628
 20
91.44018066404317
 30
0.0
 10
218.5958848963401
 20
91.50866052693998
 30
0.0
 10
217.9104309778024
 20
91.65020502587994
 30
0.0
 10
217.7002660082163
 20
91.70333812455678
 30
0.0
 10
217.3199318324306
 20
91.82147497800887
 30
0.0
 10
217.1487321961832
 20
91.88668952903149
 30
0.0
 10
216.8432985287115
 20
92.03123127293692
 30
0.0
 10
216.710379316035
 20
92.11014350604428
 30
0.0
 10
216.48639420593
 20
92.27926005024409
 30
0.0
 10
216.3944375954121
 20
92.36987061057833
 30
0.0
 10
216.3217102101609
 20
92.46704184173569
 30
0.0
  0
ELLIPSE
  5
AD
330
1F
100
AcDbEntity
  8
0
  6
Continuous
 62
     7
370
    15
100
AcDbEllipse
 10
321.8658091597
 20
122.3630995297
 30
0.0
 11
299.7019342435705
 21
5.529125611777218
 31
0.0
210
0.0
220
0.0
230
1.0
 40
0.1034726254
 41
4.368961983009567
 42
4.372966232781165
  0
ELLIPSE
  5
AE
330
1F
100
AcDbEntity
  8
0
  6
Continuous
 62
     7
370
    15
100
AcDbEllipse
 10
241.6002835539
 20
122.3630995297
 30
0.0
 11
-22.4203618533376
 21
31.49876376612263
 31
0.0
210
0.0
220
0.0
230
1.0
 40
0.0124472587
 41
5.738989147116204
 42
6.78927826379894
  0
SPLINE
  5
AF
330
1F
100
AcDbEntity
  8
0
  6
Continuous
 62
     7
370
    15
100
AcDbSpline
210
0.0
220
0.0
230
1.0
 70
     8
 71
     3
 72
    12
 73
     8
 74
     0
 42
0.00000001
 43
0.00000001
 12
1.0
 22
0.0
 32
0.0
 13
1.0
 23
0.0
 33
0.0
 40
0.0
 40
0.0
 40
0.0
 40
0.0
 40
0.4999999999999953
 40
0.4999999999999953
 40
0.7499999999999977
 40
0.7499999999999977
 40
1.0
 40
1.0
 40
1.0
 40
1.0
 10
195.4837427303696
 20
132.27246885043
 30
0.0
 10
195.5144649722887
 20
132.1599130510208
 30
0.0
 10
195.5573021868238
 20
132.0471551912812
 30
0.0
 10
195.6567292110236
 20
131.8976143054848
 30
0.0
 10
195.6964814058403
 20
131.850321573778
 30
0.0
 10
195.7945228626986
 20
131.7765852804565
 30
0.0
 10
195.854078918286
 20
131.7511659610808
 30
0.0
 10
195.9167554322618
 20
131.7511659610808
 30
0.0
  0
LINE
  5
B0
330
1F
100
AcDbEntity
  8
0
  6
Continuous
 62
     7
370
    15
100
AcDbLine
 10
195.9167554323
 20
131.7511659611
 30
0.0
 11
198.8612418051
 21
131.7511659611
 31
0.0
  0
SPLINE
  5
B1
330
1F
100
AcDbEntity
  8
0
  6
Continuous
 62
     7
370
    15
100
AcDbSpline
210
0.0
220
0.0
230
1.0
 70
     8
 71
     3
 72
    12
 73
     8
 74
     0
 42
0.00000001
 43
0.00000001
 12
1.0
 22
0.0
 32
0.0
 13
1.0
 23
0.0
 33
0.0
 40
0.0
 40
0.0
 40
0.0
 40
0.0
 40
0.2499999999999977
 40
0.2499999999999977
 40
0.4999999999999954
 40
0.4999999999999954
 40
1.0
 40
1.0
 40
1.0
 40
1.0
 10
198.8612418051289
 20
131.7511659610807
 30
0.0
 10
198.9243218436223
 20
131.7511659610808
 30
0.0
 10
198.9834704658037
 20
131.7765302802957
 30
0.0
 10
199.0819430158728
 20
131.8506951406686
 30
0.0
 10
199.1209796278575
 20
131.8972154812228
 30
0.0
 10
199.2208760946365
 20
132.047357824068
 30
0.0
 10
199.2632969757032
 20
132.1590510310401
 30
0.0
 10
199.2942545070211
 20
132.2724688504299
 30
0.0
  0
ELLIPSE
  5
B2
330
1F
100
AcDbEntity
  8
0
  6
Continuous
 62
     7
370
    15
100
AcDbEllipse
 10
183.0418444293
 20
122.3630995297
 30
0.0
 11
14.75368316065604
 21
31.09325491558116
 31
0.0
210
0.0
220
0.0
230
1.0
 40
0.3419987131
 41
5.193281737408619
 42
6.124043104552324
  0
SPLINE
  5
B3
330
1F
100
AcDbEntity
  8
0
  6
Continuous
 62
     7
370
    15
100
AcDbSpline
210
0.0
220
0.0
230
1.0
 70
     8
 71
     3
 72
    12
 73
     8
 74
     0
 42
0.00000001
 43
0.00000001
 12
1.0
 22
0.0
 32
0.0
 13
1.0
 23
0.0
 33
0.0
 40
0.0
 40
0.0
 40
0.0
 40
0.0
 40
0.4999999999999981
 40
0.4999999999999981
 40
0.749999999999999
 40
0.749999999999999
 40
1.0
 40
1.0
 40
1.0
 40
1.0
 10
199.2942545070211
 20
152.2638419898621
 30
0.0
 10
199.263532265102
 20
152.3011439728151
 30
0.0
 10
199.2206950505669
 20
152.3377558048615
 30
0.0
 10
199.1212680263671
 20
152.3855205881467
 30
0.0
 10
199.0815158315504
 20
152.4004781036291
 30
0.0
 10
198.9834743746922
 20
152.4236680493982
 30
0.0
 10
198.9239183191048
 20
152.431591488618
 30
0.0
 10
198.8612418051289
 20
152.431591488618
 30
0.0
  0
LINE
  5
B4
330
1F
100
AcDbEntity
  8
0
  6
Continuous
 62
     7
370
    15
100
AcDbLine
 10
198.8612418051
 20
152.4315914886
 30
0.0
 11
195.9167554323
 21
152.4315914886
 31
0.0
  0
SPLINE
  5
B5
330
1F
100
AcDbEntity
  8
0
  6
Continuous
 62
     7
370
    15
100
AcDbSpline
210
0.0
220
0.0
230
1.0
 70
     8
 71
     3
 72
    12
 73
     8
 74
     0
 42
0.00000001
 43
0.00000001
 12
1.0
 22
0.0
 32
0.0
 13
1.0
 23
0.0
 33
0.0
 40
0.0
 40
0.0
 40
0.0
 40
0.0
 40
0.2500000000000014
 40
0.2500000000000014
 40
0.5000000000000028
 40
0.5000000000000028
 40
1.0
 40
1.0
 40
1.0
 40
1.0
 10
195.9167554322618
 20
152.431591488618
 30
0.0
 10
195.8536753937684
 20
152.431591488618
 30
0.0
 10
195.7945267715871
 20
152.4236855624055
 30
0.0
 10
195.696054221518
 20
152.4003604009692
 30
0.0
 10
195.6570176095333
 20
152.3856476111375
 30
0.0
 10
195.5571211427542
 20
152.3376918104066
 30
0.0
 10
195.5147002616876
 20
152.3014296538265
 30
0.0
 10
195.4837427303696
 20
152.263841989862
 30
0.0
  0
ELLIPSE
  5
B6
330
1F
100
AcDbEntity
  8
0
  6
Continuous
 62
     7
370
    15
100
AcDbEllipse
 10
211.7361528081
 20
122.3630995297
 30
0.0
 11
-14.75368316065601
 21
31.09325491558118
 31
0.0
210
0.0
220
0.0
230
1.0
 40
0.3419987131
 41
0.1591422026273036
 42
1.089903569770978
  0
SPLINE
  5
B7
330
1F
100
AcDbEntity
  8
0
  6
Continuous
 62
     7
370
    15
100
AcDbSpline
210
0.0
220
0.0
230
1.0
 70
     8
 71
     3
 72
    12
 73
     8
 74
     0
 42
0.00000001
 43
0.00000001
 12
1.0
 22
0.0
 32
0.0
 13
1.0
 23
0.0
 33
0.0
 40
0.0
 40
0.0
 40
0.0
 40
0.0
 40
0.5000000000000029
 40
0.5000000000000029
 40
0.7500000000000014
 40
0.7500000000000014
 40
1.0
 40
1.0
 40
1.0
 40
1.0
 10
195.4837427303696
 20
92.4623570696276
 30
0.0
 10
195.5148879283317
 20
92.4245415467074
 30
0.0
 10
195.5571621946662
 20
92.3884746886238
 30
0.0
 10
195.6571077284915
 20
92.34051462361256
 30
0.0
 10
195.6968380331955
 20
92.32565364971491
 30
0.0
 10
195.7937260832017
 20
92.30270250358379
 30
0.0
 10
195.8537913249483
 20
92.2946075708717
 30
0.0
 10
195.9167554322618
 20
92.2946075708717
 30
0.0
  0
LINE
  5
B8
330
1F
100
AcDbEntity
  8
0
  6
Continuous
 62
     7
370
    15
100
AcDbLine
 10
195.9167554323
 20
92.2946075709
 30
0.0
 11
198.8612418051
 21
92.2946075709
 31
0.0
  0
SPLINE
  5
B9
330
1F
100
AcDbEntity
  8
0
  6
Continuous
 62
     7
370
    15
100
AcDbSpline
210
0.0
220
0.0
230
1.0
 70
     8
 71
     3
 72
    12
 73
     8
 74
     0
 42
0.00000001
 43
0.00000001
 12
1.0
 22
0.0
 32
0.0
 13
1.0
 23
0.0
 33
0.0
 40
0.0
 40
0.0
 40
0.0
 40
0.0
 40
0.2499999999999977
 40
0.2499999999999977
 40
0.4999999999999954
 40
0.4999999999999954
 40
1.0
 40
1.0
 40
1.0
 40
1.0
 10
198.8612418051289
 20
92.29460757087173
 30
0.0
 10
198.9242987600267
 20
92.29460757087173
 30
0.0
 10
198.9834289097723
 20
92.30250790195134
 30
0.0
 10
199.0818764603056
 20
92.32581864995639
 30
0.0
 10
199.1209086984937
 20
92.34052377624002
 30
0.0
 10
199.2207985829506
 20
92.38845730442665
 30
0.0
 10
199.26309755656
 20
92.42452727719139
 30
0.0
 10
199.2942545070212
 20
92.4623570696276
 30
0.0
  0
ELLIPSE
  5
BA
330
1F
100
AcDbEntity
  8
0
  6
Continuous
 62
     7
370
    15
100
AcDbEllipse
 10
183.0418444293
 20
122.3630995297
 30
0.0
 11
-14.75368316065621
 21
31.09325491558116
 31
0.0
210
0.0
220
0.0
230
1.0
 40
0.3419987131
 41
3.30073485621712
 42
4.231496223360772
  0
SPLINE
  5
BB
330
1F
100
AcDbEntity
  8
0
  6
Continuous
 62
     7
370
    15
100
AcDbSpline
210
0.0
220
0.0
230
1.0
 70
     8
 71
     3
 72
    12
 73
     8
 74
     0
 42
0.00000001
 43
0.00000001
 12
1.0
 22
0.0
 32
0.0
 13
1.0
 23
0.0
 33
0.0
 40
0.0
 40
0.0
 40
0.0
 40
0.0
 40
0.4999999999999971
 40
0.4999999999999971
 40
0.7499999999999986
 40
0.7499999999999986
 40
1.0
 40
1.0
 40
1.0
 40
1.0
 10
199.2942545070212
 20
112.4537302090595
 30
0.0
 10
199.263109309059
 20
112.5678355749248
 30
0.0
 10
199.2208350427246
 20
112.6789419021436
 30
0.0
 10
199.1208895088993
 20
112.8290995095738
 30
0.0
 10
199.0811592041952
 20
112.8760922011912
 30
0.0
 10
198.984271154189
 20
112.9490677857297
 30
0.0
 10
198.9242059124425
 20
112.9750330984087
 30
0.0
 10
198.861241805129
 20
112.9750330984087
 30
0.0
  0
LINE
  5
BC
330
1F
100
AcDbEntity
  8
0
  6
Continuous
 62
     7
370
    15
100
AcDbLine
 10
198.8612418051
 20
112.9750330984
 30
0.0
 11
195.9167554323
 21
112.9750330984
 31
0.0
  0
SPLINE
  5
BD
330
1F
100
AcDbEntity
  8
0
  6
Continuous
 62
     7
370
    15
100
AcDbSpline
210
0.0
220
0.0
230
1.0
 70
     8
 71
     3
 72
    12
 73
     8
 74
     0
 42
0.00000001
 43
0.00000001
 12
1.0
 22
0.0
 32
0.0
 13
1.0
 23
0.0
 33
0.0
 40
0.0
 40
0.0
 40
0.0
 40
0.0
 40
0.2499999999999982
 40
0.2499999999999982
 40
0.4999999999999963
 40
0.4999999999999963
 40
1.0
 40
1.0
 40
1.0
 40
1.0
 10
195.9167554322618
 20
112.9750330984086
 30
0.0
 10
195.853698477364
 20
112.9750330984086
 30
0.0
 10
195.7945683276185
 20
112.9496867450279
 30
0.0
 10
195.6961207770852
 20
112.8755673628884
 30
0.0
 10
195.6570885388971
 20
112.8290708481904
 30
0.0
 10
195.5571986544401
 20
112.6789963411818
 30
0.0
 10
195.5148996808308
 20
112.567878632067
 30
0.0
 10
195.4837427303696
 20
112.4537302090595
 30
0.0
  0
ELLIPSE
  5
BE
330
1F
100
AcDbEntity
  8
0
  6
Continuous
 62
     7
370
    15
100
AcDbEllipse
 10
211.7361528081
 20
122.3630995297
 30
0.0
 11
14.75368316065621
 21
31.09325491558117
 31
0.0
210
0.0
220
0.0
230
1.0
 40
0.3419987131
 41
2.051689083818827
 42
2.982450450962507
  0
LINE
  5
BF
330
1F
100
AcDbEntity
  8
0
  6
Continuous
 62
     7
370
    15
100
AcDbLine
 10
185.3889986187
 20
91.3630995297
 30
0.0
 11
185.3889986187
 21
153.3630995297
 31
0.0
  0
ARC
  5
C0
330
1F
100
AcDbEntity
  8
0
  6
Continuous
 62
     7
370
    15
100
AcDbCircle
 10
206.3945837162
 20
110.8196709381
 30
0.0
 40
3.312312025692912
100
AcDbArc
 50
227.3621084748
 51
295.1754207625
  0
SPLINE
  5
C1
330
1F
100
AcDbEntity
  8
0
  6
Continuous
 62
     7
370
    15
100
AcDbSpline
210
0.0
220
0.0
230
1.0
 70
     8
 71
     3
 72
    12
 73
     8
 74
     0
 42
0.00000001
 43
0.00000001
 12
1.0
 22
0.0
 32
0.0
 13
1.0
 23
0.0
 33
0.0
 40
0.0
 40
0.0
 40
0.0
 40
0.0
 40
0.1757670014106012
 40
0.4191140862250608
 40
0.6687983199233754
 40
0.8336687240651447
 40
1.0
 40
1.0
 40
1.0
 40
1.0
 10
208.7336711206887
 20
108.261349842881
 30
0.0
 10
208.6856878553361
 20
108.2130963762782
 30
0.0
 10
208.5712723948062
 20
108.098036624447
 30
0.0
 10
208.3628563898611
 20
107.9715554982371
 30
0.0
 10
208.151955017585
 20
107.8840885643159
 30
0.0
 10
207.9632448582285
 20
107.8374598127378
 30
0.0
 10
207.8569790229852
 20
107.827166190862
 30
0.0
 10
207.8036117454997
 20
107.821996678255
 30
0.0
  0
SPLINE
  5
C2
330
1F
100
AcDbEntity
  8
0
  6
Continuous
 62
     7
370
    15
100
AcDbSpline
210
0.0
220
0.0
230
1.0
 70
     8
 71
     3
 72
    12
 73
     8
 74
     0
 42
0.00000001
 43
0.00000001
 12
1.0
 22
0.0
 32
0.0
 13
1.0
 23
0.0
 33
0.0
 40
0.0
 40
0.0
 40
0.0
 40
0.0
 40
0.5000000000000001
 40
0.5000000000000001
 40
0.7499999999999999
 40
0.7499999999999999
 40
1.0
 40
1.0
 40
1.0
 40
1.0
 10
184.5724863322389
 20
100.5083058272691
 30
0.0
 10
184.6289228331461
 20
100.5068879459273
 30
0.0
 10
184.6980074638349
 20
100.505323609679
 30
0.0
 10
184.8168097355528
 20
100.5023794177045
 30
0.0
 10
184.8569950110228
 20
100.5013412146072
 30
0.0
 10
184.9303760584266
 20
100.4994073193925
 30
0.0
 10
184.9637856221693
 20
100.4985124321037
 30
0.0
 10
184.9940217298258
 20
100.4977286418314
 30
0.0
  0
SPLINE
  5
C3
330
1F
100
AcDbEntity
  8
0
  6
Continuous
 62
     7
370
    15
100
AcDbSpline
210
0.0
220
0.0
230
1.0
 70
     8
 71
     3
 72
    16
 73
    12
 74
     0
 42
0.00000001
 43
0.00000001
 12
1.0
 22
0.0
 32
0.0
 13
1.0
 23
0.0
 33
0.0
 40
0.0
 40
0.0
 40
0.0
 40
0.0
 40
0.0624999999999983
 40
0.0624999999999983
 40
0.1249999999999967
 40
0.1249999999999967
 40
0.2499999999999988
 40
0.2499999999999988
 40
0.499999999999998
 40
0.499999999999998
 40
1.0
 40
1.0
 40
1.0
 40
1.0
 10
184.9940217297885
 20
100.4977286418556
 30
0.0
 10
185.0056021373764
 20
100.4974284507443
 30
0.0
 10
185.0189116641377
 20
100.4961007024853
 30
0.0
 10
185.0482130942239
 20
100.4894020277103
 30
0.0
 10
185.0630271941083
 20
100.4840438446046
 30
0.0
 10
185.0988555958111
 20
100.4669981954372
 30
0.0
 10
185.1129752201741
 20
100.4555356576615
 30
0.0
 10
185.1474793642626
 20
100.4239723322893
 30
0.0
 10
185.1585839149672
 20
100.406075033244
 30
0.0
 10
185.1847600921834
 20
100.3559136156297
 30
0.0
 10
185.1889986186954
 20
100.3281692034331
 30
0.0
 10
185.1889986186954
 20
100.3035050415036
 30
0.0
  0
LINE
  5
C4
330
1F
100
AcDbEntity
  8
0
  6
Continuous
 62
     7
370
    15
100
AcDbLine
 10
185.1889986187
 20
115.341212204
 30
0.0
 11
185.1889986187
 21
99.8232792509
 31
0.0
  0
SPLINE
  5
C5
330
1F
100
AcDbEntity
  8
0
  6
Continuous
 62
     7
370
    15
100
AcDbSpline
210
0.0
220
0.0
230
1.0
 70
     8
 71
     3
 72
    16
 73
    12
 74
     0
 42
0.00000001
 43
0.00000001
 12
1.0
 22
0.0
 32
0.0
 13
1.0
 23
0.0
 33
0.0
 40
0.0
 40
0.0
 40
0.0
 40
0.0
 40
0.5000000000000004
 40
0.5000000000000004
 40
0.7500000000000007
 40
0.7500000000000007
 40
0.8749999999999999
 40
0.8749999999999999
 40
0.9374999999999999
 40
0.9374999999999999
 40
1.0
 40
1.0
 40
1.0
 40
1.0
 10
185.1889986186954
 20
115.3412122039948
 30
0.0
 10
185.1889986186954
 20
115.4549047481227
 30
0.0
 10
185.1848523436174
 20
115.5692249094722
 30
0.0
 10
185.1588867482239
 20
115.7422731999693
 30
0.0
 10
185.1474258428465
 20
115.801448707131
 30
0.0
 10
185.1131141050721
 20
115.8845718265992
 30
0.0
 10
185.0990893691426
 20
115.9126931426998
 30
0.0
 10
185.0630664061087
 20
115.9413089566773
 30
0.0
 10
185.048311897019
 20
115.9471020045791
 30
0.0
 10
185.0189597358722
 20
115.945508578642
 30
0.0
 10
185.0056198613681
 20
115.9390121753182
 30
0.0
 10
184.9940217298197
 20
115.9304964291151
 30
0.0
  0
SPLINE
  5
C6
330
1F
100
AcDbEntity
  8
0
  6
Continuous
 62
     7
370
    15
100
AcDbSpline
210
0.0
220
0.0
230
1.0
 70
     8
 71
     3
 72
    12
 73
     8
 74
     0
 42
0.00000001
 43
0.00000001
 12
1.0
 22
0.0
 32
0.0
 13
1.0
 23
0.0
 33
0.0
 40
0.0
 40
0.0
 40
0.0
 40
0.0
 40
0.2500000000000001
 40
0.2500000000000001
 40
0.5000000000000002
 40
0.5000000000000002
 40
1.0
 40
1.0
 40
1.0
 40
1.0
 10
184.9940217298268
 20
115.9304964291059
 30
0.0
 10
184.9638232883862
 20
115.9083236970609
 30
0.0
 10
184.9304559330502
 20
115.8892440411836
 30
0.0
 10
184.8573006572203
 20
115.8640709967409
 30
0.0
 10
184.8170479581963
 20
115.8585144603241
 30
0.0
 10
184.6993192149215
 20
115.8694262713109
 30
0.0
 10
184.6288607668625
 20
115.9113620267217
 30
0.0
 10
184.5724863322443
 20
115.9605738091033
 30
0.0
  0
SPLINE
  5
C7
330
1F
100
AcDbEntity
  8
0
  6
Continuous
 62
     7
370
    15
100
AcDbSpline
210
0.0
220
0.0
230
1.0
 70
     8
 71
     3
 72
    12
 73
     8
 74
     0
 42
0.00000001
 43
0.00000001
 12
1.0
 22
0.0
 32
0.0
 13
1.0
 23
0.0
 33
0.0
 40
0.0
 40
0.0
 40
0.0
 40
0.0
 40
0.5000000000000017
 40
0.5000000000000017
 40
0.7500000000000009
 40
0.7500000000000009
 40
1.0
 40
1.0
 40
1.0
 40
1.0
 10
184.0676782751357
 20
117.1769252009838
 30
0.0
 10
184.1114286270202
 20
116.9564782160093
 30
0.0
 10
184.1643187781447
 20
116.7409332262037
 30
0.0
 10
184.2759303212863
 20
116.4285191496318
 30
0.0
 10
184.3184896651899
 20
116.3264396740159
 30
0.0
 10
184.4234669005273
 20
116.1319996613741
 30
0.0
 10
184.4850341436219
 20
116.0369147623105
 30
0.0
 10
184.5724863322443
 20
115.9605738091033
 30
0.0
  0
SPLINE
  5
C8
330
1F
100
AcDbEntity
  8
0
  6
Continuous
 62
     7
370
    15
100
AcDbSpline
210
0.0
220
0.0
230
1.0
 70
     8
 71
     3
 72
    12
 73
     8
 74
     0
 42
0.00000001
 43
0.00000001
 12
1.0
 22
0.0
 32
0.0
 13
1.0
 23
0.0
 33
0.0
 40
0.0
 40
0.0
 40
0.0
 40
0.0
 40
0.2500000000000001
 40
0.2500000000000001
 40
0.5000000000000001
 40
0.5000000000000001
 40
1.0
 40
1.0
 40
1.0
 40
1.0
 10
184.5724863322442
 20
128.7656252503865
 30
0.0
 10
184.4839929246763
 20
128.6883753702782
 30
0.0
 10
184.4239348839104
 20
128.5950560463889
 30
0.0
 10
184.3180866109278
 20
128.3990229934195
 30
0.0
 10
184.2755530896503
 20
128.2966966352078
 30
0.0
 10
184.1644017828267
 20
127.9853522294319
 30
0.0
 10
184.1114709257789
 20
127.7699339762539
 30
0.0
 10
184.0676782751357
 20
127.549273858506
 30
0.0
  0
SPLINE
  5
C9
330
1F
100
AcDbEntity
  8
0
  6
Continuous
 62
     7
370
    15
100
AcDbSpline
210
0.0
220
0.0
230
1.0
 70
     8
 71
     3
 72
    12
 73
     8
 74
     0
 42
0.00000001
 43
0.00000001
 12
1.0
 22
0.0
 32
0.0
 13
1.0
 23
0.0
 33
0.0
 40
0.0
 40
0.0
 40
0.0
 40
0.0
 40
0.5000000000000002
 40
0.5000000000000002
 40
0.7500000000000001
 40
0.7500000000000001
 40
1.0
 40
1.0
 40
1.0
 40
1.0
 10
184.5724863322442
 20
128.7656252503865
 30
0.0
 10
184.6287948805398
 20
128.8147795176303
 30
0.0
 10
184.6990695412579
 20
128.8567368362341
 30
0.0
 10
184.8171074555815
 20
128.8676965137665
 30
0.0
 10
184.8572836964354
 20
128.8621877555192
 30
0.0
 10
184.9312407911134
 20
128.8366305267302
 30
0.0
 10
184.9638571788248
 20
128.8178504788909
 30
0.0
 10
184.9940217298206
 20
128.7957026303742
 30
0.0
  0
SPLINE
  5
CA
330
1F
100
AcDbEntity
  8
0
  6
Continuous
 62
     7
370
    15
100
AcDbSpline
210
0.0
220
0.0
230
1.0
 70
     8
 71
     3
 72
    16
 73
    12
 74
     0
 42
0.00000001
 43
0.00000001
 12
1.0
 22
0.0
 32
0.0
 13
1.0
 23
0.0
 33
0.0
 40
0.0
 40
0.0
 40
0.0
 40
0.0
 40
0.0625000000000002
 40
0.0625000000000002
 40
0.1250000000000004
 40
0.1250000000000004
 40
0.2500000000000017
 40
0.2500000000000017
 40
0.5000000000000011
 40
0.5000000000000011
 40
1.0
 40
1.0
 40
1.0
 40
1.0
 10
184.9940217297888
 20
128.7957026303197
 30
0.0
 10
185.0056346296282
 20
128.7871760407244
 30
0.0
 10
185.0189858140606
 20
128.7806757791916
 30
0.0
 10
185.0483856536798
 20
128.7791063820741
 30
0.0
 10
185.063226378235
 20
128.7849897727047
 30
0.0
 10
185.0990595862037
 20
128.8135374087552
 30
0.0
 10
185.1131727940252
 20
128.841704428061
 30
0.0
 10
185.1476641652441
 20
128.925458686483
 30
0.0
 10
185.1587482363545
 20
128.9831721001044
 30
0.0
 10
185.1848710541505
 20
129.1567626367502
 30
0.0
 10
185.1889986186954
 20
129.2717906893922
 30
0.0
 10
185.1889986186954
 20
129.384986855495
 30
0.0
  0
LINE
  5
CB
330
1F
100
AcDbEntity
  8
0
  6
Continuous
 62
     7
370
    15
100
AcDbLine
 10
185.1889986187
 20
144.9029198086
 30
0.0
 11
185.1889986187
 21
129.3849868555
 31
0.0
  0
SPLINE
  5
CC
330
1F
100
AcDbEntity
  8
0
  6
Continuous
 62
     7
370
    15
100
AcDbSpline
210
0.0
220
0.0
230
1.0
 70
     8
 71
     3
 72
    16
 73
    12
 74
     0
 42
0.00000001
 43
0.00000001
 12
1.0
 22
0.0
 32
0.0
 13
1.0
 23
0.0
 33
0.0
 40
0.0
 40
0.0
 40
0.0
 40
0.0
 40
0.5000000000000019
 40
0.5000000000000019
 40
0.7500000000000024
 40
0.7500000000000024
 40
0.8750000000000013
 40
0.8750000000000013
 40
0.9375000000000007
 40
0.9375000000000007
 40
1.0
 40
1.0
 40
1.0
 40
1.0
 10
185.1889986186954
 20
144.4226940179862
 30
0.0
 10
185.1889986186954
 20
144.3980228619432
 30
0.0
 10
185.1848329202354
 20
144.370441030552
 30
0.0
 10
185.1585745919105
 20
144.3200981597287
 30
0.0
 10
185.1470708101729
 20
144.3018086616668
 30
0.0
 10
185.1129400508264
 20
144.2706536306297
 30
0.0
 10
185.0985181641556
 20
144.259014255418
 30
0.0
 10
185.0629511957178
 20
144.2421322294869
 30
0.0
 10
185.0479994274231
 20
144.2367431256793
 30
0.0
 10
185.0189956090634
 20
144.2301226297348
 30
0.0
 10
185.0055802550541
 20
144.2287700415283
 30
0.0
 10
184.9940217298175
 20
144.2284704176568
 30
0.0
  0
SPLINE
  5
CD
330
1F
100
AcDbEntity
  8
0
  6
Continuous
 62
     7
370
    15
100
AcDbSpline
210
0.0
220
0.0
230
1.0
 70
     8
 71
     3
 72
    12
 73
     8
 74
     0
 42
0.00000001
 43
0.00000001
 12
1.0
 22
0.0
 32
0.0
 13
1.0
 23
0.0
 33
0.0
 40
0.0
 40
0.0
 40
0.0
 40
0.0
 40
0.25
 40
0.25
 40
0.5
 40
0.5
 40
1.0
 40
1.0
 40
1.0
 40
1.0
 10
184.9940217298268
 20
144.2284704176585
 30
0.0
 10
184.9638339532771
 20
144.2276878802409
 30
0.0
 10
184.9304801491855
 20
144.2267945484224
 30
0.0
 10
184.8573539459895
 20
144.2248672396188
 30
0.0
 10
184.8171187429653
 20
144.2238277084061
 30
0.0
 10
184.6994271128322
 20
144.2209098250589
 30
0.0
 10
184.6290464396722
 20
144.2193142189887
 30
0.0
 10
184.5724863322416
 20
144.2178932322208
 30
0.0
  0
SPLINE
  5
CE
330
1F
100
AcDbEntity
  8
0
  6
Continuous
 62
     7
370
    15
100
AcDbSpline
210
0.0
220
0.0
230
1.0
 70
     8
 71
     3
 72
    16
 73
    12
 74
     0
 42
0.00000001
 43
0.00000001
 12
1.0
 22
0.0
 32
0.0
 13
1.0
 23
0.0
 33
0.0
 40
0.0
 40
0.0
 40
0.0
 40
0.0
 40
0.2499999999999999
 40
0.2499999999999999
 40
0.3749999999999999
 40
0.3749999999999999
 40
0.5
 40
0.5
 40
0.75
 40
0.75
 40
1.0
 40
1.0
 40
1.0
 40
1.0
 10
184.0676782751357
 20
127.549273858506
 30
0.0
 10
183.9064457976513
 20
126.7368640832591
 30
0.0
 10
183.7859659580116
 20
125.8967857888744
 30
0.0
 10
183.6635854406983
 20
124.5954907395116
 30
0.0
 10
183.6326077803009
 20
124.1548097039269
 30
0.0
 10
183.5909940426729
 20
123.2589700629957
 30
0.0
 10
183.5807581297401
 20
122.8123119317933
 30
0.0
 10
183.580569732684
 20
121.4770019746534
 30
0.0
 10
183.6207144353216
 20
120.5925066013458
 30
0.0
 10
183.7848681902612
 20
118.8352567133198
 30
0.0
 10
183.9064198406707
 20
117.9894657669067
 30
0.0
 10
184.0676782751357
 20
117.1769252009838
 30
0.0
  0
LINE
  5
CF
330
1F
100
AcDbEntity
  8
0
  6
Continuous
 62
     7
370
    15
100
AcDbLine
 10
183.1889986187
 20
128.8482777914
 30
0.0
 11
183.1889986187
 21
115.8779212681
 31
0.0
  0
LINE
  5
D0
330
1F
100
AcDbEntity
  8
0
  6
Continuous
 62
     7
370
    15
100
AcDbLine
 10
148.8889986187
 20
128.4174100973
 30
0.0
 11
148.8889986187
 21
116.3087889622
 31
0.0
  0
ARC
  5
D1
330
1F
100
AcDbEntity
  8
0
  6
Continuous
 62
     7
370
    15
100
AcDbCircle
 10
206.3834080784
 20
110.8407043991
 30
0.0
 40
2.747446661039244
100
AcDbArc
 50
229.7284329511
 51
283.9566973985
  0
SPLINE
  5
D2
330
1F
100
AcDbEntity
  8
0
  6
Continuous
 62
     7
370
    15
100
AcDbSpline
210
0.0
220
0.0
230
1.0
 70
     8
 71
     3
 72
     8
 73
     4
 74
     0
 42
0.00000001
 43
0.00000001
 12
1.0
 22
0.0
 32
0.0
 13
1.0
 23
0.0
 33
0.0
 40
0.0
 40
0.0
 40
0.0
 40
0.0
 40
1.0
 40
1.0
 40
1.0
 40
1.0
 10
207.8036117454998
 20
107.8219966782552
 30
0.0
 10
207.5442849693299
 20
107.9176814295909
 30
0.0
 10
207.2905319158115
 20
108.0397094102919
 30
0.0
 10
207.0460606264237
 20
108.1743670694335
 30
0.0
  0
LINE
  5
D3
330
1F
100
AcDbEntity
  8
0
  6
Continuous
 62
     7
370
    15
100
AcDbLine
 10
147.3889986187
 20
127.9843973954
 30
0.0
 11
147.3889986187
 21
116.7418016641
 31
0.0
  0
SPLINE
  5
D4
330
1F
100
AcDbEntity
  8
0
  6
Continuous
 62
     7
370
    15
100
AcDbSpline
210
0.0
220
0.0
230
1.0
 70
     8
 71
     3
 72
    18
 73
    14
 74
     0
 42
0.00000001
 43
0.00000001
 12
1.0
 22
0.0
 32
0.0
 13
1.0
 23
0.0
 33
0.0
 40
0.0
 40
0.0
 40
0.0
 40
0.0
 40
0.0885060884445971
 40
0.1775668540833718
 40
0.2683197083440623
 40
0.3596850817729826
 40
0.4794745962340582
 40
0.6017872856861091
 40
0.6978304948186265
 40
0.7966201910378123
 40
0.8926936186623261
 40
0.9911494098523657
 40
1.0
 40
1.0
 40
1.0
 40
1.0
 10
207.0460606264237
 20
108.1743670694334
 30
0.0
 10
206.9908766339318
 20
108.1891541201361
 30
0.0
 10
206.8801628049203
 20
108.2188208935816
 30
0.0
 10
206.7230980069578
 20
108.284750974188
 30
0.0
 10
206.5747394030335
 20
108.3649709405023
 30
0.0
 10
206.4250673959257
 20
108.4694539444946
 30
0.0
 10
206.2844336634598
 20
108.6009881422577
 30
0.0
 10
206.1817301970028
 20
108.7480868134156
 30
0.0
 10
206.131914106674
 20
108.8905996050699
 30
0.0
 10
206.1298691426852
 20
109.0198199181243
 30
0.0
 10
206.1750057924156
 20
109.1439187891617
 30
0.0
 10
206.2271290830022
 20
109.2261977559253
 30
0.0
 10
206.2671878324875
 20
109.2679268438805
 30
0.0
 10
206.2704918631435
 20
109.2713686434279
 30
0.0
  0
LINE
  5
D5
330
1F
100
AcDbEntity
  8
0
  6
Continuous
 62
     7
370
    15
100
AcDbLine
 10
183.1889986187
 20
128.8482777914
 30
0.0
 11
183.1889986187
 21
144.3831983143
 31
0.0
  0
ARC
  5
D6
330
1F
100
AcDbEntity
  8
0
  6
Continuous
 62
     7
370
    15
100
AcDbCircle
 10
183.3889355296
 20
144.3882214254
 30
0.0
 40
0.2000000000000066
100
AcDbArc
 50
181.4391666667
 51
271.4391666667
  0
LINE
  5
D7
330
1F
100
AcDbEntity
  8
0
  6
Continuous
 62
     7
370
    15
100
AcDbLine
 10
148.8889986187
 20
128.4174100973
 30
0.0
 11
148.8889986187
 21
143.521462926
 31
0.0
  0
LINE
  5
D8
330
1F
100
AcDbEntity
  8
0
  6
Continuous
 62
     7
370
    15
100
AcDbLine
 10
148.8889986187
 20
143.521462926
 30
0.0
 11
183.1889986187
 21
144.3831983143
 31
0.0
  0
LINE
  5
D9
330
1F
100
AcDbEntity
  8
0
  6
Continuous
 62
     7
370
    15
100
AcDbLine
 10
148.8889986187
 20
101.2047361335
 30
0.0
 11
148.8889986187
 21
116.3087889622
 31
0.0
  0
LINE
  5
DA
330
1F
100
AcDbEntity
  8
0
  6
Continuous
 62
     7
370
    15
100
AcDbLine
 10
183.1889986187
 20
100.3430007452
 30
0.0
 11
183.1889986187
 21
115.8779212681
 31
0.0
  0
LINE
  5
DB
330
1F
100
AcDbEntity
  8
0
  6
Continuous
 62
     7
370
    15
100
AcDbLine
 10
148.8889986187
 20
101.2047361335
 30
0.0
 11
183.1889986187
 21
100.3430007452
 31
0.0
  0
ARC
  5
DC
330
1F
100
AcDbEntity
  8
0
  6
Continuous
 62
     7
370
    15
100
AcDbCircle
 10
183.3889355296
 20
100.3379776341
 30
0.0
 40
0.2000000000000055
100
AcDbArc
 50
88.5608333333
 51
178.5608333333
  0
LINE
  5
DD
330
1F
100
AcDbEntity
  8
0
  6
Continuous
 62
     7
370
    15
100
AcDbLine
 10
183.3939586408
 20
144.1882845145
 30
0.0
 11
184.5724863322
 21
144.2178932322
 31
0.0
  0
LINE
  5
DE
330
1F
100
AcDbEntity
  8
0
  6
Continuous
 62
     7
370
    15
100
AcDbLine
 10
183.3939586408
 20
100.537914545
 30
0.0
 11
184.5724863322
 21
100.5083058273
 31
0.0
  0
LINE
  5
DF
330
1F
100
AcDbEntity
  8
0
  6
Continuous
 62
     7
370
    15
100
AcDbLine
 10
147.3889986187
 20
102.0707615372
 30
0.0
 11
148.8889986187
 21
101.2047361335
 31
0.0
  0
LINE
  5
E0
330
1F
100
AcDbEntity
  8
0
  6
Continuous
 62
     7
370
    15
100
AcDbLine
 10
147.3889986187
 20
102.0707615372
 30
0.0
 11
147.3889986187
 21
116.7418016641
 31
0.0
  0
LINE
  5
E1
330
1F
100
AcDbEntity
  8
0
  6
Continuous
 62
     7
370
    15
100
AcDbLine
 10
147.3889986187
 20
142.6554375222
 30
0.0
 11
148.8889986187
 21
143.521462926
 31
0.0
  0
LINE
  5
E2
330
1F
100
AcDbEntity
  8
0
  6
Continuous
 62
     7
370
    15
100
AcDbLine
 10
147.3889986187
 20
127.9843973954
 30
0.0
 11
147.3889986187
 21
142.6554375222
 31
0.0
  0
LWPOLYLINE
  5
E3
330
1F
100
AcDbEntity
  8
0
  6
Continuous
 62
     7
370
    15
100
AcDbPolyline
 90
       31
 70
   128
 43
0.0
 10
241.2964139423
 20
107.2452019438
 10
242.0201184932
 20
107.1830889478
 10
242.7121936824
 20
106.9730477023
 10
243.3423925034
 20
106.6242580175
 10
243.8831722436
 20
106.1519636763
 10
244.3108982333
 20
105.5768062079
 10
244.6068767944
 20
104.9239227534
 10
244.7581722436
 20
104.2218474528
 10
244.7581722436
 20
103.5012643656
 10
244.6068767944
 20
102.7936664303
 10
244.3108982333
 20
102.1299790724
 10
243.8831722436
 20
101.5392086139
 10
243.3423925034
 20
101.0471745588
 10
242.7121936824
 20
100.6753811564
 10
242.0201184932
 20
100.4400775623
 10
241.2964139423
 20
100.3515476727
 10
240.5727093914
 20
100.4136606687
 10
239.8806342021
 20
100.6237019143
 10
239.2504353812
 20
100.9724915991
 10
238.709655641
 20
101.4447859402
 10
238.2819296513
 20
102.0199434087
 10
237.9859510901
 20
102.6728268631
 10
237.834655641
 20
103.3749021638
 10
237.834655641
 20
104.095485251
 10
237.9859510901
 20
104.8030831862
 10
238.2819296513
 20
105.4667705442
 10
238.709655641
 20
106.0575410027
 10
239.2504353812
 20
106.5495750577
 10
239.8806342021
 20
106.9213684602
 10
240.5727093914
 20
107.1566720543
 10
241.2964139423
 20
107.2452019438
  0
SPLINE
  5
E4
330
1F
100
AcDbEntity
  8
0
  6
Continuous
 62
     7
370
    15
100
AcDbSpline
210
0.0
220
0.0
230
1.0
 70
     8
 71
     3
 72
     8
 73
     4
 74
     0
 42
0.00000001
 43
0.00000001
 12
1.0
 22
0.0
 32
0.0
 13
1.0
 23
0.0
 33
0.0
 40
0.0
 40
0.0
 40
0.0
 40
0.0
 40
1.0
 40
1.0
 40
1.0
 40
1.0
 10
223.9560948619286
 20
89.05973965918801
 30
0.0
 10
223.83296036371
 20
89.53697550662068
 30
0.0
 10
223.7101150342633
 20
90.01429041944267
 30
0.0
 10
223.5875974570055
 20
90.49169494724701
 30
0.0
  0
SPLINE
  5
E5
330
1F
100
AcDbEntity
  8
0
  6
Continuous
 62
     7
370
    15
100
AcDbSpline
210
0.0
220
0.0
230
1.0
 70
     8
 71
     3
 72
    12
 73
     8
 74
     0
 42
0.00000001
 43
0.00000001
 12
1.0
 22
0.0
 32
0.0
 13
1.0
 23
0.0
 33
0.0
 40
0.0
 40
0.0
 40
0.0
 40
0.0
 40
0.2499999999999987
 40
0.2499999999999987
 40
0.4999999999999973
 40
0.4999999999999973
 40
1.0
 40
1.0
 40
1.0
 40
1.0
 10
223.5875974570055
 20
90.49169494724701
 30
0.0
 10
223.5596916338203
 20
90.60043335555456
 30
0.0
 10
223.5161131782318
 20
90.70205450479313
 30
0.0
 10
223.39781365001
 20
90.8911543115756
 30
0.0
 10
223.3246172854795
 20
90.97555213404779
 30
0.0
 10
223.0684558309839
 20
91.18963545922568
 30
0.0
 10
222.8494919924474
 20
91.27642026408208
 30
0.0
 10
222.6216716307172
 20
91.28053788078097
 30
0.0
  0
LINE
  5
E6
330
1F
100
AcDbEntity
  8
0
  6
Continuous
 62
     7
370
    15
100
AcDbLine
 10
221.8003594441
 20
149.7780571677
 30
0.0
 11
248.091468874
 21
113.0770566494
 31
0.0
  0
LINE
  5
E7
330
1F
100
AcDbEntity
  8
0
  6
Continuous
 62
     7
370
    15
100
AcDbLine
 10
248.091468874
 20
113.0770566494
 30
0.0
 11
249.1782843138
 21
92.5617766823
 31
0.0
  0
LINE
  5
E8
330
1F
100
AcDbEntity
  8
0
  6
Continuous
 62
     7
370
    15
100
AcDbLine
 10
249.1782843138
 20
92.5617766823
 30
0.0
 11
236.343984618
 21
100.2689621535
 31
0.0
  0
ARC
  5
E9
330
1F
100
AcDbEntity
  8
0
  6
Continuous
 62
     7
370
    15
100
AcDbCircle
 10
235.2502111866
 20
98.486832272
 30
0.0
 40
2.091011055394572
100
AcDbArc
 50
58.4606835973
 51
237.6235148984
  0
LINE
  5
EA
330
1F
100
AcDbEntity
  8
0
  6
Continuous
 62
     7
370
    15
100
AcDbLine
 10
234.1305161116
 20
96.72087356
 30
0.0
 11
236.7810221428
 21
95.1292057589
 31
0.0
  0
LINE
  5
EB
330
1F
100
AcDbEntity
  8
0
  6
Continuous
 62
     7
370
    15
100
AcDbLine
 10
236.7810221428
 20
95.1292057589
 30
0.0
 11
237.2956994406
 21
85.4138958083
 31
0.0
  0
LINE
  5
EC
330
1F
100
AcDbEntity
  8
0
  6
Continuous
 62
     7
370
    15
100
AcDbLine
 10
237.2956994406
 20
85.4138958083
 30
0.0
 11
237.2938823154
 21
85.4149870187
 31
0.0
  0
ARC
  5
ED
330
1F
100
AcDbEntity
  8
0
  6
Continuous
 62
     7
370
    15
100
AcDbCircle
 10
224.104886195
 20
63.3773792796
 30
0.0
 40
25.68279138898249
100
AcDbArc
 50
59.1004594721
 51
90.3319406747
  0
LINE
  5
EE
330
1F
100
AcDbEntity
  8
0
  6
Continuous
 62
     7
370
    15
100
AcDbLine
 10
244.0106824676
 20
119.8191362728
 30
0.0
 11
242.2003490784
 21
122.3630995297
 31
0.0
  0
LINE
  5
EF
330
1F
100
AcDbEntity
  8
0
  6
Continuous
 62
     7
370
    15
100
AcDbLine
 10
244.0106824676
 20
119.8191362728
 30
0.0
 11
248.091468874
 21
113.0770566494
 31
0.0
  0
SPLINE
  5
F0
330
1F
100
AcDbEntity
  8
0
  6
Continuous
 62
     7
370
    15
100
AcDbSpline
210
0.0
220
0.0
230
1.0
 70
     8
 71
     3
 72
    12
 73
     8
 74
     0
 42
0.00000001
 43
0.00000001
 12
1.0
 22
0.0
 32
0.0
 13
1.0
 23
0.0
 33
0.0
 40
0.0
 40
0.0
 40
0.0
 40
0.0
 40
0.2499999999999996
 40
0.2499999999999996
 40
0.4999999999999991
 40
0.4999999999999991
 40
1.0
 40
1.0
 40
1.0
 40
1.0
 10
223.5405734687571
 20
148.2421309526088
 30
0.0
 10
223.4934422307698
 20
148.3013484159533
 30
0.0
 10
223.4337862777384
 20
148.3783816399447
 30
0.0
 10
223.3011395757222
 20
148.5514161468528
 30
0.0
 10
223.2276141647467
 20
148.6481602920506
 30
0.0
 10
222.9925765208535
 20
148.9591061191034
 30
0.0
 10
222.8184515732398
 20
149.1913927057701
 30
0.0
 10
222.6216716307169
 20
149.4561537954343
 30
0.0
  0
LINE
  5
F1
330
1F
100
AcDbEntity
  8
0
  6
Continuous
 62
     7
370
    15
100
AcDbLine
 10
223.5405734688
 20
148.2375832323
 30
0.0
 11
223.5405734688
 21
148.2421309526
 31
0.0
  0
ELLIPSE
  5
F2
330
1F
100
AcDbEntity
  8
0
  6
Continuous
 62
     7
370
    15
100
AcDbEllipse
 10
241.6002835539
 20
122.3630995297
 30
0.0
 11
-22.77624061291823
 21
31.99874414336809
 31
0.0
210
0.0
220
0.0
230
1.0
 40
0.0124472587
 41
4.703529434502219
 42
5.645260099019083
  0
LINE
  5
F3
330
1F
100
AcDbEntity
  8
0
  6
Continuous
 62
     7
370
    15
100
AcDbLine
 10
223.9560948619
 20
89.0597396592
 30
0.0
 11
223.6895818677
 21
89.8624056182
 31
0.0
  0
LINE
  5
F4
330
1F
100
AcDbEntity
  8
0
  6
Continuous
 62
     7
370
    15
100
AcDbLine
 10
233.1667636803
 20
98.3131391143
 30
0.0
 11
235.8172697115
 21
96.7214713132
 31
0.0
  0
LINE
  5
F5
330
1F
100
AcDbEntity
  8
0
  6
Continuous
 62
     7
370
    15
100
AcDbLine
 10
235.8172697115
 20
96.7214713132
 30
0.0
 11
236.7810221428
 21
95.1292057589
 31
0.0
  0
SPLINE
  5
F6
330
1F
100
AcDbEntity
  8
0
  6
HIDDEN
 62
     7
370
     0
100
AcDbSpline
210
0.0
220
0.0
230
1.0
 70
     8
 71
     3
 72
    60
 73
    56
 74
     0
 42
0.00000001
 43
0.00000001
 12
1.0
 22
0.0
 32
0.0
 13
1.0
 23
0.0
 33
0.0
 40
-0.0625
 40
-0.0625
 40
0.0
 40
0.0
 40
0.03125
 40
0.03125
 40
0.0624999999999999
 40
0.0624999999999999
 40
0.0937499999999999
 40
0.0937499999999999
 40
0.1249999999999999
 40
0.1249999999999999
 40
0.1874999999999998
 40
0.1874999999999998
 40
0.2499999999999997
 40
0.2499999999999997
 40
0.2812499999999997
 40
0.2812499999999997
 40
0.3124999999999996
 40
0.3124999999999996
 40
0.3437499999999996
 40
0.3437499999999996
 40
0.3749999999999996
 40
0.3749999999999996
 40
0.4062499999999995
 40
0.4062499999999995
 40
0.4374999999999994
 40
0.4374999999999994
 40
0.4687499999999994
 40
0.4687499999999994
 40
0.4999999999999994
 40
0.4999999999999994
 40
0.5624999999999993
 40
0.5624999999999993
 40
0.6249999999999992
 40
0.6249999999999992
 40
0.6562499999999993
 40
0.6562499999999993
 40
0.6874999999999994
 40
0.6874999999999994
 40
0.7187499999999994
 40
0.7187499999999994
 40
0.7499999999999996
 40
0.7499999999999996
 40
0.7812499999999997
 40
0.7812499999999997
 40
0.8124999999999997
 40
0.8124999999999997
 40
0.8437499999999998
 40
0.8437499999999998
 40
0.8749999999999998
 40
0.8749999999999998
 40
0.9062499999999999
 40
0.9062499999999999
 40
0.9375
 40
0.9375
 40
1.0
 40
1.0
 40
1.03125
 40
1.03125
 10
199.3889986186954
 20
122.0987690046582
 30
0.0
 10
199.3889986186954
 20
122.4952647922883
 30
0.0
 10
199.3760267602066
 20
122.6252148532924
 30
0.0
 10
199.3252065905142
 20
122.8808677866525
 30
0.0
 10
199.2867392670473
 20
123.0078972932018
 30
0.0
 10
199.1863410309751
 20
123.2500854243263
 30
0.0
 10
199.124908000002
 20
123.3649469168792
 30
0.0
 10
198.9797731684571
 20
123.5823271127033
 30
0.0
 10
198.8953180510492
 20
123.6852246799019
 30
0.0
 10
198.6185986006909
 20
123.9618917189097
 30
0.0
 10
198.3955217087728
 20
124.1108898093897
 30
0.0
 10
197.9142383465525
 20
124.3104009498544
 30
0.0
 10
197.6510079275615
 20
124.3629590528511
 30
0.0
 10
197.2596057258736
 20
124.3631693352292
 30
0.0
 10
197.1270826977647
 20
124.3501835645021
 30
0.0
 10
196.8705522445237
 20
124.2991564162882
 30
0.0
 10
196.745865410227
 20
124.2614012171379
 30
0.0
 10
196.5036861479915
 20
124.1612628842291
 30
0.0
 10
196.3865926158414
 20
124.0986572168176
 30
0.0
 10
196.169877612486
 20
123.9539239235526
 30
0.0
 10
196.0688587856233
 20
123.8712965762731
 30
0.0
 10
195.8820738981711
 20
123.6846915230215
 30
0.0
 10
195.7992170169749
 20
123.5835764591453
 30
0.0
 10
195.6543327519011
 20
123.3670436551555
 30
0.0
 10
195.5916952440802
 20
123.2501734475543
 30
0.0
 10
195.4912464206804
 20
123.0078755769042
 30
0.0
 10
195.4533953196632
 20
122.8832115784432
 30
0.0
 10
195.4021737544068
 20
122.6269245343794
 30
0.0
 10
195.3890456277896
 20
122.4943525386338
 30
0.0
 10
195.3889049874494
 20
122.1027483458598
 30
0.0
 10
195.4412297368212
 20
121.8395830145358
 30
0.0
 10
195.6403407988785
 20
121.3580776453627
 30
0.0
 10
195.7892031353357
 20
121.1348261058786
 30
0.0
 10
196.0655240946612
 20
120.8579698069897
 30
0.0
 10
196.1682877430348
 20
120.773456360146
 30
0.0
 10
196.3856713004142
 20
120.6280390867058
 30
0.0
 10
196.5004700683707
 20
120.5665278876474
 30
0.0
 10
196.7423467917947
 20
120.4659980393925
 30
0.0
 10
196.8695003997949
 20
120.4273530161745
 30
0.0
 10
197.1251664092275
 20
120.3762966886236
 30
0.0
 10
197.2550324469836
 20
120.3632318300779
 30
0.0
 10
197.5189849737152
 20
120.36296920928
 30
0.0
 10
197.6493892971392
 20
120.375846209524
 30
0.0
 10
197.9050400605186
 20
120.4264322133298
 30
0.0
 10
198.0319056096329
 20
120.4647085779517
 30
0.0
 10
198.2744260675789
 20
120.5649794454317
 30
0.0
 10
198.3893527062392
 20
120.6263354695726
 30
0.0
 10
198.6067241750712
 20
120.7711817647454
 30
0.0
 10
198.7097379877334
 20
120.85555927924
 30
0.0
 10
198.8944385333154
 20
121.0399665994283
 30
0.0
 10
198.977268267572
 20
121.1405396626977
 30
0.0
 10
199.1235207061694
 20
121.3587658032767
 30
0.0
 10
199.1858891869619
 20
121.475320913198
 30
0.0
 10
199.3358453385286
 20
121.8361705072317
 30
0.0
 10
199.3889986186954
 20
122.0987690046582
 30
0.0
 10
199.3889986186954
 20
122.4952647922883
 30
0.0
  0
SPLINE
  5
F7
330
1F
100
AcDbEntity
  8
0
  6
HIDDEN
 62
     7
370
     0
100
AcDbSpline
210
0.0
220
0.0
230
1.0
 70
     8
 71
     3
 72
    12
 73
     8
 74
     0
 42
0.00000001
 43
0.00000001
 12
1.0
 22
0.0
 32
0.0
 13
1.0
 23
0.0
 33
0.0
 40
0.0
 40
0.0
 40
0.0
 40
0.0
 40
0.5000000000000028
 40
0.5000000000000028
 40
0.7500000000000013
 40
0.7500000000000013
 40
1.0
 40
1.0
 40
1.0
 40
1.0
 10
195.4837427303696
 20
112.4537302090597
 30
0.0
 10
195.5144649722887
 20
112.5662860084689
 30
0.0
 10
195.5573021868238
 20
112.6790438682085
 30
0.0
 10
195.6567292110236
 20
112.8285847540048
 30
0.0
 10
195.6964814058403
 20
112.8758774857117
 30
0.0
 10
195.7945228626985
 20
112.9496137790331
 30
0.0
 10
195.854078918286
 20
112.9750330984088
 30
0.0
 10
195.9167554322618
 20
112.9750330984088
 30
0.0
  0
LINE
  5
F8
330
1F
100
AcDbEntity
  8
0
  6
HIDDEN
 62
     7
370
     0
100
AcDbLine
 10
195.9167554323
 20
112.9750330984
 30
0.0
 11
198.8612418051
 21
112.9750330984
 31
0.0
  0
SPLINE
  5
F9
330
1F
100
AcDbEntity
  8
0
  6
HIDDEN
 62
     7
370
     0
100
AcDbSpline
210
0.0
220
0.0
230
1.0
 70
     8
 71
     3
 72
    12
 73
     8
 74
     0
 42
0.00000001
 43
0.00000001
 12
1.0
 22
0.0
 32
0.0
 13
1.0
 23
0.0
 33
0.0
 40
0.0
 40
0.0
 40
0.0
 40
0.0
 40
0.2499999999999977
 40
0.2499999999999977
 40
0.4999999999999954
 40
0.4999999999999954
 40
1.0
 40
1.0
 40
1.0
 40
1.0
 10
198.8612418051289
 20
112.9750330984088
 30
0.0
 10
198.9243218436223
 20
112.9750330984088
 30
0.0
 10
198.9834704658037
 20
112.9496687791939
 30
0.0
 10
199.0819430158728
 20
112.875503918821
 30
0.0
 10
199.1209796278575
 20
112.8289835782669
 30
0.0
 10
199.2208760946365
 20
112.6788412354216
 30
0.0
 10
199.2632969757032
 20
112.5671480284495
 30
0.0
 10
199.2942545070212
 20
112.4537302090597
 30
0.0
  0
ELLIPSE
  5
FA
330
1F
100
AcDbEntity
  8
0
  6
HIDDEN
 62
     7
370
     0
100
AcDbEllipse
 10
183.0418444293
 20
122.3630995297
 30
0.0
 11
-14.75368316065612
 21
31.09325491558116
 31
0.0
210
0.0
220
0.0
230
1.0
 40
0.3419987131
 41
3.300734856217125
 42
4.231496223360779
  0
SPLINE
  5
FB
330
1F
100
AcDbEntity
  8
0
  6
HIDDEN
 62
     7
370
     0
100
AcDbSpline
210
0.0
220
0.0
230
1.0
 70
     8
 71
     3
 72
    12
 73
     8
 74
     0
 42
0.00000001
 43
0.00000001
 12
1.0
 22
0.0
 32
0.0
 13
1.0
 23
0.0
 33
0.0
 40
0.0
 40
0.0
 40
0.0
 40
0.0
 40
0.4999999999999963
 40
0.4999999999999963
 40
0.7499999999999981
 40
0.7499999999999981
 40
1.0
 40
1.0
 40
1.0
 40
1.0
 10
199.2942545070212
 20
92.46235706962771
 30
0.0
 10
199.263532265102
 20
92.42505508667467
 30
0.0
 10
199.2206950505669
 20
92.38844325462827
 30
0.0
 10
199.1212680263671
 20
92.34067847134307
 30
0.0
 10
199.0815158315505
 20
92.3257209558607
 30
0.0
 10
198.9834743746922
 20
92.30253101009157
 30
0.0
 10
198.9239183191048
 20
92.29460757087182
 30
0.0
 10
198.861241805129
 20
92.29460757087182
 30
0.0
  0
LINE
  5
FC
330
1F
100
AcDbEntity
  8
0
  6
HIDDEN
 62
     7
370
     0
100
AcDbLine
 10
198.8612418051
 20
92.2946075709
 30
0.0
 11
195.9167554323
 21
92.2946075709
 31
0.0
  0
SPLINE
  5
FD
330
1F
100
AcDbEntity
  8
0
  6
HIDDEN
 62
     7
370
     0
100
AcDbSpline
210
0.0
220
0.0
230
1.0
 70
     8
 71
     3
 72
    12
 73
     8
 74
     0
 42
0.00000001
 43
0.00000001
 12
1.0
 22
0.0
 32
0.0
 13
1.0
 23
0.0
 33
0.0
 40
0.0
 40
0.0
 40
0.0
 40
0.0
 40
0.25
 40
0.25
 40
0.5
 40
0.5
 40
1.0
 40
1.0
 40
1.0
 40
1.0
 10
195.9167554322618
 20
92.29460757087182
 30
0.0
 10
195.8536753937685
 20
92.29460757087182
 30
0.0
 10
195.7945267715871
 20
92.30251349708428
 30
0.0
 10
195.696054221518
 20
92.32583865852051
 30
0.0
 10
195.6570176095333
 20
92.34055144835223
 30
0.0
 10
195.5571211427542
 20
92.38850724908315
 30
0.0
 10
195.5147002616876
 20
92.4247694056632
 30
0.0
 10
195.4837427303696
 20
92.4623570696277
 30
0.0
  0
ELLIPSE
  5
FE
330
1F
100
AcDbEntity
  8
0
  6
HIDDEN
 62
     7
370
     0
100
AcDbEllipse
 10
211.7361528081
 20
122.3630995297
 30
0.0
 11
14.75368316065615
 21
31.09325491558117
 31
0.0
210
0.0
220
0.0
230
1.0
 40
0.3419987131
 41
2.051689083818821
 42
2.982450450962502
  0
SPLINE
  5
FF
330
1F
100
AcDbEntity
  8
0
  6
HIDDEN
 62
     7
370
     0
100
AcDbSpline
210
0.0
220
0.0
230
1.0
 70
     8
 71
     3
 72
    12
 73
     8
 74
     0
 42
0.00000001
 43
0.00000001
 12
1.0
 22
0.0
 32
0.0
 13
1.0
 23
0.0
 33
0.0
 40
0.0
 40
0.0
 40
0.0
 40
0.0
 40
0.4999999999999981
 40
0.4999999999999981
 40
0.749999999999999
 40
0.749999999999999
 40
1.0
 40
1.0
 40
1.0
 40
1.0
 10
195.4837427303696
 20
152.2638419898623
 30
0.0
 10
195.5144649722887
 20
152.3011439728153
 30
0.0
 10
195.5573021868238
 20
152.3377558048617
 30
0.0
 10
195.6567292110236
 20
152.3855205881469
 30
0.0
 10
195.6964814058403
 20
152.4004781036292
 30
0.0
 10
195.7945228626985
 20
152.4236680493984
 30
0.0
 10
195.854078918286
 20
152.4315914886181
 30
0.0
 10
195.9167554322618
 20
152.4315914886181
 30
0.0
  0
LINE
  5
100
330
1F
100
AcDbEntity
  8
0
  6
HIDDEN
 62
     7
370
     0
100
AcDbLine
 10
195.9167554323
 20
152.4315914886
 30
0.0
 11
198.8612418051
 21
152.4315914886
 31
0.0
  0
SPLINE
  5
101
330
1F
100
AcDbEntity
  8
0
  6
HIDDEN
 62
     7
370
     0
100
AcDbSpline
210
0.0
220
0.0
230
1.0
 70
     8
 71
     3
 72
    12
 73
     8
 74
     0
 42
0.00000001
 43
0.00000001
 12
1.0
 22
0.0
 32
0.0
 13
1.0
 23
0.0
 33
0.0
 40
0.0
 40
0.0
 40
0.0
 40
0.0
 40
0.25
 40
0.25
 40
0.5
 40
0.5
 40
1.0
 40
1.0
 40
1.0
 40
1.0
 10
198.8612418051289
 20
152.4315914886181
 30
0.0
 10
198.9243218436223
 20
152.4315914886182
 30
0.0
 10
198.9834704658037
 20
152.4236855624057
 30
0.0
 10
199.0819430158728
 20
152.4003604009694
 30
0.0
 10
199.1209796278575
 20
152.3856476111378
 30
0.0
 10
199.2208760946365
 20
152.3376918104068
 30
0.0
 10
199.2632969757032
 20
152.3014296538267
 30
0.0
 10
199.2942545070212
 20
152.2638419898623
 30
0.0
  0
ELLIPSE
  5
102
330
1F
100
AcDbEntity
  8
0
  6
HIDDEN
 62
     7
370
     0
100
AcDbEllipse
 10
183.0418444293
 20
122.3630995297
 30
0.0
 11
14.75368316065621
 21
31.09325491558119
 31
0.0
210
0.0
220
0.0
230
1.0
 40
0.3419987131
 41
5.193281737408636
 42
6.12404310455234
  0
SPLINE
  5
103
330
1F
100
AcDbEntity
  8
0
  6
HIDDEN
 62
     7
370
     0
100
AcDbSpline
210
0.0
220
0.0
230
1.0
 70
     8
 71
     3
 72
    12
 73
     8
 74
     0
 42
0.00000001
 43
0.00000001
 12
1.0
 22
0.0
 32
0.0
 13
1.0
 23
0.0
 33
0.0
 40
0.0
 40
0.0
 40
0.0
 40
0.0
 40
0.5
 40
0.5
 40
0.75
 40
0.75
 40
1.0
 40
1.0
 40
1.0
 40
1.0
 10
199.2942545070212
 20
132.2724688504305
 30
0.0
 10
199.263532265102
 20
132.1599130510214
 30
0.0
 10
199.2206950505669
 20
132.0471551912818
 30
0.0
 10
199.1212680263671
 20
131.8976143054854
 30
0.0
 10
199.0815158315505
 20
131.8503215737786
 30
0.0
 10
198.9834743746922
 20
131.7765852804571
 30
0.0
 10
198.9239183191048
 20
131.7511659610814
 30
0.0
 10
198.8612418051289
 20
131.7511659610814
 30
0.0
  0
LINE
  5
104
330
1F
100
AcDbEntity
  8
0
  6
HIDDEN
 62
     7
370
     0
100
AcDbLine
 10
198.8612418051
 20
131.7511659611
 30
0.0
 11
195.9167554323
 21
131.7511659611
 31
0.0
  0
SPLINE
  5
105
330
1F
100
AcDbEntity
  8
0
  6
HIDDEN
 62
     7
370
     0
100
AcDbSpline
210
0.0
220
0.0
230
1.0
 70
     8
 71
     3
 72
    12
 73
     8
 74
     0
 42
0.00000001
 43
0.00000001
 12
1.0
 22
0.0
 32
0.0
 13
1.0
 23
0.0
 33
0.0
 40
0.0
 40
0.0
 40
0.0
 40
0.0
 40
0.2500000000000014
 40
0.2500000000000014
 40
0.5000000000000028
 40
0.5000000000000028
 40
1.0
 40
1.0
 40
1.0
 40
1.0
 10
195.9167554322618
 20
131.7511659610814
 30
0.0
 10
195.8536753937685
 20
131.7511659610814
 30
0.0
 10
195.7945267715871
 20
131.7765302802964
 30
0.0
 10
195.696054221518
 20
131.8506951406693
 30
0.0
 10
195.6570176095333
 20
131.8972154812234
 30
0.0
 10
195.5571211427542
 20
132.0473578240686
 30
0.0
 10
195.5147002616876
 20
132.1590510310407
 30
0.0
 10
195.4837427303696
 20
132.2724688504305
 30
0.0
  0
ELLIPSE
  5
106
330
1F
100
AcDbEntity
  8
0
  6
HIDDEN
 62
     7
370
     0
100
AcDbEllipse
 10
211.7361528081
 20
122.3630995297
 30
0.0
 11
-14.75368316065624
 21
31.09325491558117
 31
0.0
210
0.0
220
0.0
230
1.0
 40
0.3419987131
 41
0.159142202627282
 42
1.089903569770959
  0
LINE
  5
107
330
1F
100
AcDbEntity
  8
0
  6
HIDDEN
 62
     7
370
     0
100
AcDbLine
 10
185.3889986187
 20
153.3630995235
 30
0.0
 11
185.3889986187
 21
91.3630995297
 31
0.0
  0
LWPOLYLINE
  5
108
330
1F
100
AcDbEntity
  8
0
  6
HIDDEN
 62
     7
370
     0
100
AcDbPolyline
 90
       19
 70
   128
 43
0.0
 10
209.3887833966
 20
110.0819793634
 10
209.3200697374
 20
110.6668292227
 10
209.1012893478
 20
111.2233288983
 10
208.7436434768
 20
111.7229863873
 10
208.2654430915
 20
112.1402199271
 10
207.6911713809
 20
112.4536677456
 10
207.0502302511
 20
112.6472817541
 10
206.3754349892
 20
112.7111491869
 10
205.7013341661
 20
112.642000121
 10
205.0624407985
 20
112.4433748916
 10
204.4914653308
 20
112.125442832
 10
204.0176409061
 20
111.7044816175
 10
203.6652266705
 20
111.2020438721
 10
203.4522657386
 20
110.6438537036
 10
203.3896614113
 20
110.0584896658
 10
203.4806189425
 20
109.4759215764
 10
203.7204814341
 20
108.9259761046
 10
204.0969682629
 20
108.4368096872
 10
204.150947344
 20
108.3829709597
  0
SPLINE
  5
109
330
1F
100
AcDbEntity
  8
0
  6
HIDDEN
 62
     7
370
     0
100
AcDbSpline
210
0.0
220
0.0
230
1.0
 70
     8
 71
     3
 72
    14
 73
    10
 74
     0
 42
0.00000001
 43
0.00000001
 12
1.0
 22
0.0
 32
0.0
 13
1.0
 23
0.0
 33
0.0
 40
0.0
 40
0.0
 40
0.0
 40
0.0
 40
0.2065960260364667
 40
0.3120625414569575
 40
0.4182764317060422
 40
0.5891269036919827
 40
0.7646141691930725
 40
0.9356585186672884
 40
1.0
 40
1.0
 40
1.0
 40
1.0
 10
209.3887833965861
 20
110.0819793634099
 30
0.0
 10
209.3830082503244
 20
109.9393028268327
 30
0.0
 10
209.3742849130255
 20
109.7237904403421
 30
0.0
 10
209.3275824761328
 20
109.4403931293125
 30
0.0
 10
209.2686336486811
 20
109.186646867313
 30
0.0
 10
209.1705156194043
 20
108.8972881699176
 30
0.0
 10
209.0149723912274
 20
108.5976336719883
 30
0.0
 10
208.8659184899064
 20
108.3804917873719
 30
0.0
 10
208.7620602307003
 20
108.28692565425
 30
0.0
 10
208.7336711206887
 20
108.261349842881
 30
0.0
  0
LINE
  5
10A
330
1F
100
AcDbEntity
  8
0
  6
HIDDEN
 62
     7
370
     0
100
AcDbLine
 10
185.3889986187
 20
98.1130995297
 30
0.0
 11
185.3889986187
 21
146.6130995297
 31
0.0
  0
SPLINE
  5
10B
330
1F
100
AcDbEntity
  8
0
  6
HIDDEN
 62
     7
370
     0
100
AcDbSpline
210
0.0
220
0.0
230
1.0
 70
     8
 71
     3
 72
    12
 73
     8
 74
     0
 42
0.00000001
 43
0.00000001
 12
1.0
 22
0.0
 32
0.0
 13
1.0
 23
0.0
 33
0.0
 40
0.0
 40
0.0
 40
0.0
 40
0.0
 40
0.5000000000000004
 40
0.5000000000000004
 40
0.7500000000000002
 40
0.7500000000000002
 40
1.0
 40
1.0
 40
1.0
 40
1.0
 10
184.5724863322484
 20
137.8153675115758
 30
0.0
 10
184.6288925109286
 20
137.767545137916
 30
0.0
 10
184.6990554124004
 20
137.7272742909774
 30
0.0
 10
184.8170661257896
 20
137.7192284225005
 30
0.0
 10
184.857271909385
 20
137.7257910208394
 30
0.0
 10
184.9309926061181
 20
137.753173115293
 30
0.0
 10
184.9638533279046
 20
137.7729346058233
 30
0.0
 10
184.9940217298339
 20
137.7958673170114
 30
0.0
  0
SPLINE
  5
10C
330
1F
100
AcDbEntity
  8
0
  6
HIDDEN
 62
     7
370
     0
100
AcDbSpline
210
0.0
220
0.0
230
1.0
 70
     8
 71
     3
 72
    16
 73
    12
 74
     0
 42
0.00000001
 43
0.00000001
 12
1.0
 22
0.0
 32
0.0
 13
1.0
 23
0.0
 33
0.0
 40
0.0
 40
0.0
 40
0.0
 40
0.0
 40
0.0625000000000006
 40
0.0625000000000006
 40
0.1250000000000013
 40
0.1250000000000013
 40
0.2500000000000008
 40
0.2500000000000008
 40
0.5000000000000039
 40
0.5000000000000039
 40
1.0
 40
1.0
 40
1.0
 40
1.0
 10
184.9940217297887
 20
137.7958673170594
 30
0.0
 10
185.005634629628
 20
137.8046949400409
 30
0.0
 10
185.0189858140605
 20
137.8125293219228
 30
0.0
 10
185.0483856536797
 20
137.8208394479952
 30
0.0
 10
185.063226378235
 20
137.8203436287602
 30
0.0
 10
185.0990595862037
 20
137.8088926577908
 30
0.0
 10
185.1131727940252
 20
137.7922121569322
 30
0.0
 10
185.1476641652442
 20
137.7400914711751
 30
0.0
 10
185.1587482363545
 20
137.7003019771501
 30
0.0
 10
185.1848710541505
 20
137.576965345053
 30
0.0
 10
185.1889986186954
 20
137.4895439345543
 30
0.0
 10
185.1889986186954
 20
137.4008066922361
 30
0.0
  0
LINE
  5
10D
330
1F
100
AcDbEntity
  8
0
  6
HIDDEN
 62
     7
370
     0
100
AcDbLine
 10
185.1889986187
 20
107.3253923673
 30
0.0
 11
185.1889986187
 21
137.4008066922
 31
0.0
  0
SPLINE
  5
10E
330
1F
100
AcDbEntity
  8
0
  6
HIDDEN
 62
     7
370
     0
100
AcDbSpline
210
0.0
220
0.0
230
1.0
 70
     8
 71
     3
 72
    16
 73
    12
 74
     0
 42
0.00000001
 43
0.00000001
 12
1.0
 22
0.0
 32
0.0
 13
1.0
 23
0.0
 33
0.0
 40
0.0
 40
0.0
 40
0.0
 40
0.0
 40
0.4999999999999951
 40
0.4999999999999951
 40
0.7499999999999902
 40
0.7499999999999902
 40
0.874999999999991
 40
0.874999999999991
 40
0.9374999999999954
 40
0.9374999999999954
 40
1.0
 40
1.0
 40
1.0
 40
1.0
 10
185.1889986186954
 20
107.3253923672537
 30
0.0
 10
185.1889986186954
 20
107.236266002065
 30
0.0
 10
185.1848523436175
 20
107.1494046344515
 30
0.0
 10
185.1588867482239
 20
107.0264223879575
 30
0.0
 10
185.1474258428465
 20
106.9856510927262
 30
0.0
 10
185.1131141050721
 20
106.9339467727264
 30
0.0
 10
185.0990893691424
 20
106.917276406136
 30
0.0
 10
185.0630664061087
 20
106.9058241856793
 30
0.0
 10
185.0483118970189
 20
106.9053711394043
 30
0.0
 10
185.0189597358721
 20
106.9136864606205
 30
0.0
 10
185.005619861368
 20
106.9215153456988
 30
0.0
 10
184.9940217298197
 20
106.9303317424614
 30
0.0
  0
SPLINE
  5
10F
330
1F
100
AcDbEntity
  8
0
  6
HIDDEN
 62
     7
370
     0
100
AcDbSpline
210
0.0
220
0.0
230
1.0
 70
     8
 71
     3
 72
    12
 73
     8
 74
     0
 42
0.00000001
 43
0.00000001
 12
1.0
 22
0.0
 32
0.0
 13
1.0
 23
0.0
 33
0.0
 40
0.0
 40
0.0
 40
0.0
 40
0.0
 40
0.2500000000000004
 40
0.2500000000000004
 40
0.5000000000000006
 40
0.5000000000000006
 40
1.0
 40
1.0
 40
1.0
 40
1.0
 10
184.9940217298268
 20
106.9303317424703
 30
0.0
 10
184.9638298881096
 20
106.9532822715681
 30
0.0
 10
184.930470918695
 20
106.9732517455923
 30
0.0
 10
184.8573336341144
 20
107.0003528792178
 30
0.0
 10
184.8170917614604
 20
107.0069536198632
 30
0.0
 10
184.6993859844919
 20
106.9989847453565
 30
0.0
 10
184.6289755067125
 20
106.9587242871887
 30
0.0
 10
184.5724863322442
 20
106.9108315479105
 30
0.0
  0
SPLINE
  5
110
330
1F
100
AcDbEntity
  8
0
  6
HIDDEN
 62
     7
370
     0
100
AcDbSpline
210
0.0
220
0.0
230
1.0
 70
     8
 71
     3
 72
    12
 73
     8
 74
     0
 42
0.00000001
 43
0.00000001
 12
1.0
 22
0.0
 32
0.0
 13
1.0
 23
0.0
 33
0.0
 40
0.0
 40
0.0
 40
0.0
 40
0.0
 40
0.2500000000000005
 40
0.2500000000000005
 40
0.500000000000001
 40
0.500000000000001
 40
1.0
 40
1.0
 40
1.0
 40
1.0
 10
184.5724863322439
 20
106.9108315479107
 30
0.0
 10
184.4843323945061
 20
106.8360927400566
 30
0.0
 10
184.4239789698774
 20
106.7451122395743
 30
0.0
 10
184.3177170118105
 20
106.5561984168217
 30
0.0
 10
184.2754848452485
 20
106.4596939572811
 30
0.0
 10
184.1644141499313
 20
106.1689262031139
 30
0.0
 10
184.1114773735045
 20
105.9732593885702
 30
0.0
 10
184.0676782751357
 20
105.7791929035039
 30
0.0
  0
SPLINE
  5
111
330
1F
100
AcDbEntity
  8
0
  6
HIDDEN
 62
     7
370
     0
100
AcDbSpline
210
0.0
220
0.0
230
1.0
 70
     8
 71
     3
 72
    12
 73
     8
 74
     0
 42
0.00000001
 43
0.00000001
 12
1.0
 22
0.0
 32
0.0
 13
1.0
 23
0.0
 33
0.0
 40
0.0
 40
0.0
 40
0.0
 40
0.0
 40
0.4999999999999998
 40
0.4999999999999998
 40
0.7499999999999999
 40
0.7499999999999999
 40
1.0
 40
1.0
 40
1.0
 40
1.0
 10
184.0676782751357
 20
100.5930185747428
 30
0.0
 10
184.1114248159723
 20
100.5664244041016
 30
0.0
 10
184.1643091712038
 20
100.5466641787759
 30
0.0
 10
184.27587625854
 20
100.5262131885468
 30
0.0
 10
184.318459855083
 20
100.5209529638904
 30
0.0
 10
184.4233765821648
 20
100.5130701699677
 30
0.0
 10
184.4849101900096
 20
100.5105060447886
 30
0.0
 10
184.5724863322357
 20
100.5083058272689
 30
0.0
  0
LINE
  5
112
330
1F
100
AcDbEntity
  8
0
  6
HIDDEN
 62
     7
370
     0
100
AcDbLine
 10
185.1889986187
 20
99.8232792509
 30
0.0
 11
185.1889986187
 21
100.3035050415
 31
0.0
  0
LINE
  5
113
330
1F
100
AcDbEntity
  8
0
  6
HIDDEN
 62
     7
370
     0
100
AcDbLine
 10
185.1889986187
 20
144.422694018
 30
0.0
 11
185.1889986187
 21
144.9029198086
 31
0.0
  0
SPLINE
  5
114
330
1F
100
AcDbEntity
  8
0
  6
HIDDEN
 62
     7
370
     0
100
AcDbSpline
210
0.0
220
0.0
230
1.0
 70
     8
 71
     3
 72
    12
 73
     8
 74
     0
 42
0.00000001
 43
0.00000001
 12
1.0
 22
0.0
 32
0.0
 13
1.0
 23
0.0
 33
0.0
 40
0.0
 40
0.0
 40
0.0
 40
0.0
 40
0.25
 40
0.25
 40
0.5
 40
0.5
 40
1.0
 40
1.0
 40
1.0
 40
1.0
 10
184.5724863322437
 20
144.2178932322208
 30
0.0
 10
184.4838016723873
 20
144.2156651648798
 30
0.0
 10
184.4238832566639
 20
144.2131633808495
 30
0.0
 10
184.3182240293432
 20
144.2052319450135
 30
0.0
 10
184.2755827912282
 20
144.1999397901167
 30
0.0
 10
184.1643934491257
 20
144.1795348496295
 30
0.0
 10
184.1114667670047
 20
144.1598001580426
 30
0.0
 10
184.0676782751357
 20
144.133180484747
 30
0.0
  0
SPLINE
  5
115
330
1F
100
AcDbEntity
  8
0
  6
HIDDEN
 62
     7
370
     0
100
AcDbSpline
210
0.0
220
0.0
230
1.0
 70
     8
 71
     3
 72
    12
 73
     8
 74
     0
 42
0.00000001
 43
0.00000001
 12
1.0
 22
0.0
 32
0.0
 13
1.0
 23
0.0
 33
0.0
 40
0.0
 40
0.0
 40
0.0
 40
0.0
 40
0.4999999999999988
 40
0.4999999999999988
 40
0.7499999999999981
 40
0.7499999999999981
 40
1.0
 40
1.0
 40
1.0
 40
1.0
 10
184.0676782751341
 20
138.9470061559862
 30
0.0
 10
184.1114397514329
 20
138.7531063680241
 30
0.0
 10
184.1643460670859
 20
138.5572500040872
 30
0.0
 10
184.2760572647333
 20
138.2651078575883
 30
0.0
 10
184.3185767083197
 20
138.1683899208903
 30
0.0
 10
184.4237000508871
 20
137.9816654844659
 30
0.0
 10
184.4852660146048
 20
137.8893147761962
 30
0.0
 10
184.5724863322475
 20
137.8153675115765
 30
0.0
  0
LWPOLYLINE
  5
116
330
1F
100
AcDbEntity
  8
0
  6
HIDDEN
 62
     7
370
     0
100
AcDbPolyline
 90
       15
 70
   128
 43
0.0
 10
208.640605009
 20
111.2041661591
 10
208.2992511301
 20
111.6599898461
 10
207.8376106019
 20
112.0278663249
 10
207.2847524569
 20
112.2846307894
 10
206.6754896077
 20
112.4141150436
 10
206.0481867136
 20
112.4081655963
 10
205.4423443971
 20
112.2671570781
 10
204.8961119298
 20
111.9999686513
 10
204.4438850123
 20
111.6234248983
 10
204.1141399116
 20
111.1612363945
 10
203.92764034
 20
110.6425066778
 10
203.8961299848
 20
110.0998996287
 10
204.0215930209
 20
109.5675826587
 10
204.2961291692
 20
109.0790752237
 10
204.6074277117
 20
108.7444322574
  0
SPLINE
  5
117
330
1F
100
AcDbEntity
  8
0
  6
HIDDEN
 62
     7
370
     0
100
AcDbSpline
210
0.0
220
0.0
230
1.0
 70
     8
 71
     3
 72
     8
 73
     4
 74
     0
 42
0.00000001
 43
0.00000001
 12
1.0
 22
0.0
 32
0.0
 13
1.0
 23
0.0
 33
0.0
 40
0.0
 40
0.0
 40
0.0
 40
0.0
 40
1.0
 40
1.0
 40
1.0
 40
1.0
 10
208.6406050090448
 20
111.2041661590739
 30
0.0
 10
208.9334076782833
 20
110.8690248976675
 30
0.0
 10
209.1910162751831
 20
110.486088729837
 30
0.0
 10
209.388783396586
 20
110.0819793634099
 30
0.0
  0
SPLINE
  5
118
330
1F
100
AcDbEntity
  8
0
  6
HIDDEN
 62
     7
370
     0
100
AcDbSpline
210
0.0
220
0.0
230
1.0
 70
     8
 71
     3
 72
    14
 73
    10
 74
     0
 42
0.00000001
 43
0.00000001
 12
1.0
 22
0.0
 32
0.0
 13
1.0
 23
0.0
 33
0.0
 40
0.0
 40
0.0
 40
0.0
 40
0.0
 40
0.2499999999999988
 40
0.2499999999999988
 40
0.3749999999999997
 40
0.3749999999999997
 40
0.5000000000000006
 40
0.5000000000000006
 40
1.0
 40
1.0
 40
1.0
 40
1.0
 10
207.8254520508693
 20
113.6342934973786
 30
0.0
 10
207.7492569843984
 20
113.5598100007581
 30
0.0
 10
207.6764615937442
 20
113.4758471307173
 30
0.0
 10
207.5935252013038
 20
113.3293363071194
 30
0.0
 10
207.5704268403937
 20
113.2769693927366
 30
0.0
 10
207.5384345052635
 20
113.1633557919474
 30
0.0
 10
207.5297979828769
 20
113.1016042316402
 30
0.0
 10
207.5308508279763
 20
112.7791247909905
 30
0.0
 10
207.6737366480127
 20
112.4686751879216
 30
0.0
 10
207.8254520508693
 20
112.1358870253232
 30
0.0
  0
SPLINE
  5
119
330
1F
100
AcDbEntity
  8
0
  6
HIDDEN
 62
     7
370
     0
100
AcDbSpline
210
0.0
220
0.0
230
1.0
 70
     8
 71
     3
 72
    31
 73
    27
 74
     0
 42
0.00000001
 43
0.00000001
 12
1.0
 22
0.0
 32
0.0
 13
1.0
 23
0.0
 33
0.0
 40
0.0
 40
0.0
 40
0.0
 40
0.0
 40
0.0243597327692682
 40
0.0521162523697585
 40
0.1088448680066358
 40
0.1673984009245459
 40
0.1972581790390352
 40
0.2273044808928156
 40
0.2768480951376446
 40
0.327655664398787
 40
0.3696670308656754
 40
0.4128515730483977
 40
0.4548924819974207
 40
0.498264723103173
 40
0.5387885791098156
 40
0.5802624786389812
 40
0.6082178681226132
 40
0.6363897307242297
 40
0.6940767792451009
 40
0.7514397333746409
 40
0.8099759966253093
 40
0.853988501723991
 40
0.8988970929094863
 40
0.9337203202292762
 40
0.9695244999331513
 40
0.9999999999999999
 40
0.9999999999999999
 40
0.9999999999999999
 40
0.9999999999999999
 10
206.2704918631435
 20
109.2713686434279
 30
0.0
 10
206.2946683734356
 20
109.2978669448807
 30
0.0
 10
206.3463926318145
 20
109.354558542402
 30
0.0
 10
206.4811282343324
 20
109.4704667952358
 30
0.0
 10
206.6880056432281
 20
109.6243475709011
 30
0.0
 10
206.9291598584547
 20
109.7913445142973
 30
0.0
 10
207.1379840332424
 20
109.9387251818195
 30
0.0
 10
207.3368691762457
 20
110.08284802907
 30
0.0
 10
207.5802398186887
 20
110.2685912000711
 30
0.0
 10
207.8462564010129
 20
110.4919052418146
 30
0.0
 10
208.0905994803123
 20
110.7218144457804
 30
0.0
 10
208.3026506138383
 20
110.948238881205
 30
0.0
 10
208.4912812399567
 20
111.1832862920244
 30
0.0
 10
208.6438757153962
 20
111.4137636876983
 30
0.0
 10
208.7600722717542
 20
111.6378783187547
 30
0.0
 10
208.8304451923512
 20
111.8268736791359
 30
0.0
 10
208.8696465136827
 20
111.9875033276266
 30
0.0
 10
208.8941786766761
 20
112.16796608813
 30
0.0
 10
208.8857228137536
 20
112.3821570745476
 30
0.0
 10
208.8160161774946
 20
112.6232269023562
 30
0.0
 10
208.6983214199136
 20
112.8342475529264
 30
0.0
 10
208.544609004676
 20
113.0268426572164
 30
0.0
 10
208.3803053883823
 20
113.1923164501068
 30
0.0
 10
208.1965565499644
 20
113.3526738214902
 30
0.0
 10
208.0151846954166
 20
113.4973146864831
 30
0.0
 10
207.8852131637244
 20
113.5911485436137
 30
0.0
 10
207.8254520508693
 20
113.6342934973786
 30
0.0
  0
SPLINE
  5
11A
330
1F
100
AcDbEntity
  8
0
  6
HIDDEN
 62
     7
370
     0
100
AcDbSpline
210
0.0
220
0.0
230
1.0
 70
     8
 71
     3
 72
    12
 73
     8
 74
     0
 42
0.00000001
 43
0.00000001
 12
1.0
 22
0.0
 32
0.0
 13
1.0
 23
0.0
 33
0.0
 40
0.0
 40
0.0
 40
0.0
 40
0.0
 40
0.25
 40
0.25
 40
0.5
 40
0.5
 40
1.0
 40
1.0
 40
1.0
 40
1.0
 10
207.8254520508693
 20
112.1358870253232
 30
0.0
 10
207.9143306441181
 20
112.0905995356676
 30
0.0
 10
207.9985200240527
 20
112.036146782887
 30
0.0
 10
208.1576912707542
 20
111.9085144915202
 30
0.0
 10
208.2333609022413
 20
111.8344892321231
 30
0.0
 10
208.4410846006185
 20
111.5909442499255
 30
0.0
 10
208.5523778999084
 20
111.4039743841847
 30
0.0
 10
208.640605009045
 20
111.2041661590739
 30
0.0
  0
SPLINE
  5
11B
330
1F
100
AcDbEntity
  8
0
  6
HIDDEN
 62
     7
370
     0
100
AcDbSpline
210
0.0
220
0.0
230
1.0
 70
     8
 71
     3
 72
    62
 73
    58
 74
     0
 42
0.00000001
 43
0.00000001
 12
1.0
 22
0.0
 32
0.0
 13
1.0
 23
0.0
 33
0.0
 40
-0.0312500000000001
 40
-0.0312500000000001
 40
0.0
 40
0.0
 40
0.0312499999999999
 40
0.0312499999999999
 40
0.0624999999999998
 40
0.0624999999999998
 40
0.0937499999999996
 40
0.0937499999999996
 40
0.1249999999999995
 40
0.1249999999999995
 40
0.1874999999999993
 40
0.1874999999999993
 40
0.2187499999999992
 40
0.2187499999999992
 40
0.2499999999999991
 40
0.2499999999999991
 40
0.2812499999999992
 40
0.2812499999999992
 40
0.3124999999999992
 40
0.3124999999999992
 40
0.3749999999999989
 40
0.3749999999999989
 40
0.4062499999999988
 40
0.4062499999999988
 40
0.4374999999999986
 40
0.4374999999999986
 40
0.4687499999999984
 40
0.4687499999999984
 40
0.4999999999999982
 40
0.4999999999999982
 40
0.5624999999999986
 40
0.5624999999999986
 40
0.5937499999999988
 40
0.5937499999999988
 40
0.6249999999999988
 40
0.6249999999999988
 40
0.6562499999999989
 40
0.6562499999999989
 40
0.687499999999999
 40
0.687499999999999
 40
0.7187499999999991
 40
0.7187499999999991
 40
0.7499999999999992
 40
0.7499999999999992
 40
0.7812499999999993
 40
0.7812499999999993
 40
0.8124999999999994
 40
0.8124999999999994
 40
0.8749999999999996
 40
0.8749999999999996
 40
0.9062499999999997
 40
0.9062499999999997
 40
0.9374999999999998
 40
0.9374999999999998
 40
0.9687499999999999
 40
0.9687499999999999
 40
1.0
 40
1.0
 40
1.03125
 40
1.03125
 10
206.2229547997593
 20
115.8751319038362
 30
0.0
 10
206.5550424376317
 20
115.8751319038362
 30
0.0
 10
206.7181391682088
 20
115.8869230445082
 30
0.0
 10
207.0387354731172
 20
115.9332916882439
 30
0.0
 10
207.1979376764237
 20
115.9684763509445
 30
0.0
 10
207.5002481781378
 20
116.0606882013823
 30
0.0
 10
207.6434997523822
 20
116.1173756535058
 30
0.0
 10
207.9146105934494
 20
116.2529234428327
 30
0.0
 10
208.0422925885782
 20
116.3321363966576
 30
0.0
 10
208.3862926767934
 20
116.5956557082575
 30
0.0
 10
208.5722943053777
 20
116.8131767879266
 30
0.0
 10
208.7597808185594
 20
117.1793592912186
 30
0.0
 10
208.8082527633115
 20
117.3100264898346
 30
0.0
 10
208.8728147427252
 20
117.5810296304045
 30
0.0
 10
208.8888932429451
 20
117.719732625351
 30
0.0
 10
208.8891029718588
 20
118.0036972075689
 30
0.0
 10
208.8726714244479
 20
118.1502668165207
 30
0.0
 10
208.8085027342956
 20
118.4372819959419
 30
0.0
 10
208.7610337715041
 20
118.5790298593124
 30
0.0
 10
208.5719102875499
 20
118.9980208618431
 30
0.0
 10
208.3877703951837
 20
119.2585327686592
 30
0.0
 10
208.0410348113798
 20
119.5934891802484
 30
0.0
 10
207.915717855228
 20
119.6940413763745
 30
0.0
 10
207.6456583524281
 20
119.8722234360631
 30
0.0
 10
207.499284976547
 20
119.9503138811374
 30
0.0
 10
207.1978670734934
 20
120.0754432421213
 30
0.0
 10
207.0420149120544
 20
120.1233710075583
 30
0.0
 10
206.719671850738
 20
120.1885405513254
 30
0.0
 10
206.5537203836685
 20
120.2051871575166
 30
0.0
 10
206.0627990161173
 20
120.2054017442653
 30
0.0
 10
205.7323160290146
 20
120.1383777691532
 30
0.0
 10
205.280406531416
 20
119.9511378903956
 30
0.0
 10
205.1341093140367
 20
119.8732695977498
 30
0.0
 10
204.8632257514804
 20
119.6947865088839
 30
0.0
 10
204.7378692293225
 20
119.5942338537331
 30
0.0
 10
204.5070915878333
 20
119.371557510479
 30
0.0
 10
204.4023037077633
 20
119.2495079930032
 30
0.0
 10
204.2216400835812
 20
118.9948491983806
 30
0.0
 10
204.1444515863859
 20
118.8610706618209
 30
0.0
 10
204.0175881820946
 20
118.5808084910595
 30
0.0
 10
203.9699268281623
 20
118.4386203397398
 30
0.0
 10
203.9056964610998
 20
118.1525126178882
 30
0.0
 10
203.8890632472206
 20
118.0067079756366
 30
0.0
 10
203.8889343722092
 20
117.7211838539832
 30
0.0
 10
203.9050153513381
 20
117.5824242723302
 30
0.0
 10
203.9689827638064
 20
117.3125407391214
 30
0.0
 10
204.0175468140501
 20
117.1808918257845
 30
0.0
 10
204.2052776560926
 20
116.8135611108789
 30
0.0
 10
204.3912234935883
 20
116.5961583573691
 30
0.0
 10
204.7349987156927
 20
116.3326103840066
 30
0.0
 10
204.8621740200603
 20
116.2536004275654
 30
0.0
 10
205.1338164293348
 20
116.1176459463665
 30
0.0
 10
205.276975600282
 20
116.0610033065842
 30
0.0
 10
205.5781025428198
 20
115.968994820462
 30
0.0
 10
205.7376187715113
 20
115.933579744242
 30
0.0
 10
206.0594846637431
 20
115.8869269401163
 30
0.0
 10
206.2229547997593
 20
115.8751319038362
 30
0.0
 10
206.5550424376317
 20
115.8751319038362
 30
0.0
  0
LWPOLYLINE
  5
11C
330
1F
100
AcDbEntity
  8
0
  6
HIDDEN
 62
     7
370
     0
100
AcDbPolyline
 90
        9
 70
   128
 43
0.0
 10
207.8254520509
 20
113.6342934974
 10
207.9686104477
 20
113.6022544746
 10
208.0735849219
 20
113.5185614791
 10
208.1376711914
 20
113.3853705536
 10
208.1592183086
 20
113.2061128734
 10
208.1376711914
 20
112.9854063546
 10
208.0735849219
 20
112.7289366905
 10
207.9686104477
 20
112.4433108806
 10
207.8254520509
 20
112.1358870253
  0
LINE
  5
11D
330
1F
100
AcDbEntity
  8
0
  6
HIDDEN
 62
     7
370
     0
100
AcDbLine
 10
185.1889986187
 20
100.3035050415
 30
0.0
 11
185.1889986187
 21
115.341212204
 31
0.0
  0
LINE
  5
11E
330
1F
100
AcDbEntity
  8
0
  6
HIDDEN
 62
     7
370
     0
100
AcDbLine
 10
185.1889986187
 20
129.3849868555
 30
0.0
 11
185.1889986187
 21
144.422694018
 31
0.0
  0
CIRCLE
  5
11F
330
1F
100
AcDbEntity
  8
0
  6
HIDDEN
 62
     7
370
     0
100
AcDbCircle
 10
169.8889986187
 20
122.3630995297
 30
0.0
 40
4.049999999999997
  0
LINE
  5
120
330
1F
100
AcDbEntity
  8
0
  6
HIDDEN
 62
     7
370
     0
100
AcDbLine
 10
148.9192270583
 20
137.6760505727
 30
0.0
 11
148.9192270583
 21
107.0501484868
 31
0.0
  0
LINE
  5
121
330
1F
100
AcDbEntity
  8
0
  6
HIDDEN
 62
     7
370
     0
100
AcDbLine
 10
147.3889986187
 20
106.1666706853
 30
0.0
 11
147.3889986187
 21
138.5406146192
 31
0.0
  0
LINE
  5
122
330
1F
100
AcDbEntity
  8
0
  6
HIDDEN
 62
     7
370
     0
100
AcDbLine
 10
155.4192270583
 20
136.7095096913
 30
0.0
 11
155.4192270583
 21
108.0166893682
 31
0.0
  0
LINE
  5
123
330
1F
100
AcDbEntity
  8
0
  6
HIDDEN
 62
     7
370
     0
100
AcDbLine
 10
161.2192270583
 20
136.3630995297
 30
0.0
 11
161.2192270583
 21
108.3630995297
 31
0.0
  0
LINE
  5
124
330
1F
100
AcDbEntity
  8
0
  6
HIDDEN
 62
     7
370
     0
100
AcDbLine
 10
153.8192270583
 20
136.3630995297
 30
0.0
 11
153.8192270583
 21
108.3630995297
 31
0.0
  0
LINE
  5
125
330
1F
100
AcDbEntity
  8
0
  6
HIDDEN
 62
     7
370
     0
100
AcDbLine
 10
154.8192270583
 20
136.3630995297
 30
0.0
 11
154.8192270583
 21
108.3630995297
 31
0.0
  0
SPLINE
  5
126
330
1F
100
AcDbEntity
  8
0
  6
HIDDEN
 62
     7
370
     0
100
AcDbSpline
210
0.0
220
0.0
230
1.0
 70
     8
 71
     3
 72
    10
 73
     6
 74
     0
 42
0.00000001
 43
0.00000001
 12
1.0
 22
0.0
 32
0.0
 13
1.0
 23
0.0
 33
0.0
 40
0.0
 40
0.0
 40
0.0
 40
0.0
 40
0.5
 40
0.5
 40
1.0
 40
1.0
 40
1.0
 40
1.0
 10
173.8889986186954
 20
122.9975284067674
 30
0.0
 10
173.9221460367719
 20
122.7885378057594
 30
0.0
 10
173.9390048821335
 20
122.5769753397378
 30
0.0
 10
173.9389923517858
 20
122.1489865737702
 30
0.0
 10
173.9220773940454
 20
121.9372284693545
 30
0.0
 10
173.8889986186954
 20
121.7286706527224
 30
0.0
  0
LINE
  5
127
330
1F
100
AcDbEntity
  8
0
  6
HIDDEN
 62
     7
370
     0
100
AcDbLine
 10
174.3889986187
 20
135.863097023
 30
0.0
 11
174.3889986187
 21
108.8630995297
 31
0.0
  0
SPLINE
  5
128
330
1F
100
AcDbEntity
  8
0
  6
HIDDEN
 62
     7
370
     0
100
AcDbSpline
210
0.0
220
0.0
230
1.0
 70
     8
 71
     3
 72
    10
 73
     6
 74
     0
 42
0.00000001
 43
0.00000001
 12
1.0
 22
0.0
 32
0.0
 13
1.0
 23
0.0
 33
0.0
 40
0.0
 40
0.0
 40
0.0
 40
0.0
 40
0.5
 40
0.5
 40
1.0
 40
1.0
 40
1.0
 40
1.0
 10
173.8889986186954
 20
121.7286706527224
 30
0.0
 10
173.9221875811691
 20
121.9379231863049
 30
0.0
 10
173.9388883574238
 20
122.1487399472038
 30
0.0
 10
173.9391077978684
 20
122.5732722284071
 30
0.0
 10
173.922228082475
 20
122.7880205171798
 30
0.0
 10
173.8889986186954
 20
122.9975284067674
 30
0.0
  0
SPLINE
  5
129
330
1F
100
AcDbEntity
  8
0
  6
HIDDEN
 62
     7
370
     0
100
AcDbSpline
210
0.0
220
0.0
230
1.0
 70
     8
 71
     3
 72
    68
 73
    64
 74
     0
 42
0.00000001
 43
0.00000001
 12
1.0
 22
0.0
 32
0.0
 13
1.0
 23
0.0
 33
0.0
 40
0.0
 40
0.0
 40
0.0
 40
0.0
 40
0.0312500000000001
 40
0.0312500000000001
 40
0.0625000000000002
 40
0.0625000000000002
 40
0.0937500000000002
 40
0.0937500000000002
 40
0.1250000000000003
 40
0.1250000000000003
 40
0.1562500000000004
 40
0.1562500000000004
 40
0.1875000000000005
 40
0.1875000000000005
 40
0.2187500000000006
 40
0.2187500000000006
 40
0.2500000000000007
 40
0.2500000000000007
 40
0.2812500000000008
 40
0.2812500000000008
 40
0.3125000000000008
 40
0.3125000000000008
 40
0.3437500000000009
 40
0.3437500000000009
 40
0.375000000000001
 40
0.375000000000001
 40
0.4062500000000011
 40
0.4062500000000011
 40
0.4375000000000012
 40
0.4375000000000012
 40
0.4687500000000012
 40
0.4687500000000012
 40
0.5000000000000013
 40
0.5000000000000013
 40
0.5625000000000016
 40
0.5625000000000016
 40
0.5937500000000016
 40
0.5937500000000016
 40
0.6250000000000017
 40
0.6250000000000017
 40
0.6562500000000018
 40
0.6562500000000018
 40
0.6875000000000018
 40
0.6875000000000018
 40
0.7187500000000019
 40
0.7187500000000019
 40
0.750000000000002
 40
0.750000000000002
 40
0.7812500000000018
 40
0.7812500000000018
 40
0.8125000000000014
 40
0.8125000000000014
 40
0.8437500000000012
 40
0.8437500000000012
 40
0.875000000000001
 40
0.875000000000001
 40
0.9062500000000008
 40
0.9062500000000008
 40
0.9375000000000004
 40
0.9375000000000004
 40
0.9687500000000002
 40
0.9687500000000002
 40
1.0
 40
1.0
 40
1.0
 40
1.0
 10
173.8889986186954
 20
121.7286706527224
 30
0.0
 10
173.8489836663457
 20
121.4763810499068
 30
0.0
 10
173.7860418649344
 20
121.232382199531
 30
0.0
 10
173.6166552028623
 20
120.7599638104685
 30
0.0
 10
173.5089616402769
 20
120.5295504243085
 30
0.0
 10
173.253676871739
 20
120.0948458285115
 30
0.0
 10
173.1076376412667
 20
119.8922038618601
 30
0.0
 10
172.7794162047075
 20
119.5152145711023
 30
0.0
 10
172.5951689169325
 20
119.3395566175249
 30
0.0
 10
172.2022087496242
 20
119.0292986485787
 30
0.0
 10
171.992914152665
 20
118.8933534409288
 30
0.0
 10
171.5480287257277
 20
118.6599633455229
 30
0.0
 10
171.3112311332287
 20
118.5627167391085
 30
0.0
 10
170.8304960643094
 20
118.4160452812372
 30
0.0
 10
170.5842529711266
 20
118.3651529362947
 30
0.0
 10
170.0795361911472
 20
118.3096255860593
 30
0.0
 10
169.8233414902107
 20
118.3058006989893
 30
0.0
 10
169.3209627410106
 20
118.3452244816337
 30
0.0
 10
169.071713041827
 20
118.388251930845
 30
0.0
 10
168.5801852443483
 20
118.5219569002963
 30
0.0
 10
168.3448896431224
 20
118.6106267462015
 30
0.0
 10
167.8939757484603
 20
118.8296581099789
 30
0.0
 10
167.6763633979969
 20
118.9616596756624
 30
0.0
 10
167.2731562284486
 20
119.2610169566653
 30
0.0
 10
167.0875447360142
 20
119.4276358841032
 30
0.0
 10
166.7475566656117
 20
119.7947473095307
 30
0.0
 10
166.5924837347888
 20
119.9970510550714
 30
0.0
 10
166.3261406581254
 20
120.4211317346654
 30
0.0
 10
166.2131565574086
 20
120.6442913401316
 30
0.0
 10
166.0283013004778
 20
121.1136465817258
 30
0.0
 10
165.9571605389744
 20
121.3598570850613
 30
0.0
 10
165.8632001276862
 20
121.8543829114324
 30
0.0
 10
165.8391907977298
 20
122.1053139065244
 30
0.0
 10
165.8386176770572
 20
122.8695592860807
 30
0.0
 10
165.9340167883758
 20
123.3717835881316
 30
0.0
 10
166.2118805805769
 20
124.079348094404
 30
0.0
 10
166.3250425366575
 20
124.3030543581448
 30
0.0
 10
166.5911737187014
 20
124.7273242694654
 30
0.0
 10
166.7460014929011
 20
124.9295762315215
 30
0.0
 10
167.0861825986889
 20
125.2972869728896
 30
0.0
 10
167.2716850556387
 20
125.463903848139
 30
0.0
 10
167.673978856698
 20
125.7629532269344
 30
0.0
 10
167.89198690495
 20
125.8954099349628
 30
0.0
 10
168.3425852721003
 20
126.1146163356675
 30
0.0
 10
168.577134270981
 20
126.2031014656711
 30
0.0
 10
169.0655942645334
 20
126.3365876956098
 30
0.0
 10
169.3178596602472
 20
126.3805294081035
 30
0.0
 10
169.8200402984075
 20
126.420338404577
 30
0.0
 10
170.0725224157592
 20
126.4169941917635
 30
0.0
 10
170.5803874588287
 20
126.361814871773
 30
0.0
 10
170.8279329320125
 20
126.3107689433036
 30
0.0
 10
171.3089004694832
 20
126.164358555068
 30
0.0
 10
171.5448603345885
 20
126.0677123502944
 30
0.0
 10
171.9914307841101
 20
125.8338074059813
 30
0.0
 10
172.2010756466836
 20
125.6976823921549
 30
0.0
 10
172.5940623534381
 20
125.3876281278258
 30
0.0
 10
172.778458257253
 20
125.2119708802507
 30
0.0
 10
173.1070086751134
 20
124.8348309575862
 30
0.0
 10
173.2529507716366
 20
124.6323647523164
 30
0.0
 10
173.5078361268388
 20
124.198788454183
 30
0.0
 10
173.6161474396471
 20
123.9674966106015
 30
0.0
 10
173.785982417064
 20
123.4941369304683
 30
0.0
 10
173.8489777782011
 20
123.2498551336475
 30
0.0
 10
173.8889986186954
 20
122.9975284067674
 30
0.0
  0
SPLINE
  5
12A
330
1F
100
AcDbEntity
  8
0
  6
HIDDEN
 62
     7
370
     0
100
AcDbSpline
210
0.0
220
0.0
230
1.0
 70
     8
 71
     3
 72
    68
 73
    64
 74
     0
 42
0.00000001
 43
0.00000001
 12
1.0
 22
0.0
 32
0.0
 13
1.0
 23
0.0
 33
0.0
 40
0.0
 40
0.0
 40
0.0
 40
0.0
 40
0.0312499999999999
 40
0.0312499999999999
 40
0.0624999999999998
 40
0.0624999999999998
 40
0.0937499999999998
 40
0.0937499999999998
 40
0.1249999999999997
 40
0.1249999999999997
 40
0.1562499999999996
 40
0.1562499999999996
 40
0.1874999999999996
 40
0.1874999999999996
 40
0.2187499999999995
 40
0.2187499999999995
 40
0.2499999999999994
 40
0.2499999999999994
 40
0.2812499999999993
 40
0.2812499999999993
 40
0.3124999999999992
 40
0.3124999999999992
 40
0.3437499999999992
 40
0.3437499999999992
 40
0.3749999999999991
 40
0.3749999999999991
 40
0.406249999999999
 40
0.406249999999999
 40
0.4374999999999989
 40
0.4374999999999989
 40
0.4687499999999988
 40
0.4687499999999988
 40
0.4999999999999988
 40
0.4999999999999988
 40
0.5624999999999986
 40
0.5624999999999986
 40
0.5937499999999984
 40
0.5937499999999984
 40
0.6249999999999983
 40
0.6249999999999983
 40
0.6562499999999983
 40
0.6562499999999983
 40
0.6874999999999982
 40
0.6874999999999982
 40
0.7187499999999981
 40
0.7187499999999981
 40
0.749999999999998
 40
0.749999999999998
 40
0.7812499999999982
 40
0.7812499999999982
 40
0.8124999999999984
 40
0.8124999999999984
 40
0.8437499999999987
 40
0.8437499999999987
 40
0.874999999999999
 40
0.874999999999999
 40
0.9062499999999992
 40
0.9062499999999992
 40
0.9374999999999994
 40
0.9374999999999994
 40
0.9687499999999998
 40
0.9687499999999998
 40
1.0
 40
1.0
 40
1.0
 40
1.0
 10
173.8889986186954
 20
122.9975284067674
 30
0.0
 10
173.8489836663457
 20
123.249818009583
 30
0.0
 10
173.7860418649344
 20
123.4938168599588
 30
0.0
 10
173.6166552028623
 20
123.9662352490214
 30
0.0
 10
173.5089616402769
 20
124.1966486351813
 30
0.0
 10
173.253676871739
 20
124.6313532309784
 30
0.0
 10
173.1076376412667
 20
124.8339951976297
 30
0.0
 10
172.7794162047075
 20
125.2109844883875
 30
0.0
 10
172.5951689169325
 20
125.3866424419649
 30
0.0
 10
172.2022087496242
 20
125.6969004109111
 30
0.0
 10
171.9929141526651
 20
125.8328456185611
 30
0.0
 10
171.5480287257277
 20
126.0662357139669
 30
0.0
 10
171.3112311332287
 20
126.1634823203813
 30
0.0
 10
170.8304960643094
 20
126.3101537782527
 30
0.0
 10
170.5842529711266
 20
126.3610461231951
 30
0.0
 10
170.0795361911472
 20
126.4165734734305
 30
0.0
 10
169.8233414902107
 20
126.4203983605005
 30
0.0
 10
169.3209627410106
 20
126.3809745778561
 30
0.0
 10
169.071713041827
 20
126.3379471286448
 30
0.0
 10
168.5801852443483
 20
126.2042421591935
 30
0.0
 10
168.3448896431224
 20
126.1155723132884
 30
0.0
 10
167.8939757484603
 20
125.8965409495109
 30
0.0
 10
167.6763633979969
 20
125.7645393838274
 30
0.0
 10
167.2731562284486
 20
125.4651821028245
 30
0.0
 10
167.0875447360142
 20
125.2985631753866
 30
0.0
 10
166.7475566656117
 20
124.9314517499591
 30
0.0
 10
166.5924837347888
 20
124.7291480044184
 30
0.0
 10
166.3261406581254
 20
124.3050673248244
 30
0.0
 10
166.2131565574086
 20
124.0819077193582
 30
0.0
 10
166.0283013004778
 20
123.6125524777641
 30
0.0
 10
165.9571605389744
 20
123.3663419744286
 30
0.0
 10
165.8632001276862
 20
122.8718161480574
 30
0.0
 10
165.8391907977298
 20
122.6208851529654
 30
0.0
 10
165.8386176770572
 20
121.8566397734092
 30
0.0
 10
165.9340167883758
 20
121.3544154713582
 30
0.0
 10
166.2118805805769
 20
120.6468509650858
 30
0.0
 10
166.3250425366575
 20
120.423144701345
 30
0.0
 10
166.5911737187014
 20
119.9988747900244
 30
0.0
 10
166.7460014929011
 20
119.7966228279684
 30
0.0
 10
167.0861825986889
 20
119.4289120866002
 30
0.0
 10
167.2716850556387
 20
119.2622952113508
 30
0.0
 10
167.673978856698
 20
118.9632458325554
 30
0.0
 10
167.89198690495
 20
118.830789124527
 30
0.0
 10
168.3425852721003
 20
118.6115827238223
 30
0.0
 10
168.577134270981
 20
118.5230975938187
 30
0.0
 10
169.0655942645334
 20
118.3896113638801
 30
0.0
 10
169.3178596602472
 20
118.3456696513863
 30
0.0
 10
169.8200402984075
 20
118.3058606549128
 30
0.0
 10
170.0725224157592
 20
118.3092048677263
 30
0.0
 10
170.5803874588287
 20
118.3643841877168
 30
0.0
 10
170.8279329320125
 20
118.4154301161862
 30
0.0
 10
171.3089004694832
 20
118.5618405044218
 30
0.0
 10
171.5448603345885
 20
118.6584867091954
 30
0.0
 10
171.9914307841101
 20
118.8923916535085
 30
0.0
 10
172.2010756466836
 20
119.028516667335
 30
0.0
 10
172.594062353438
 20
119.3385709316641
 30
0.0
 10
172.778458257253
 20
119.5142281792392
 30
0.0
 10
173.1070086751134
 20
119.8913681019036
 30
0.0
 10
173.2529507716366
 20
120.0938343071735
 30
0.0
 10
173.5078361268388
 20
120.5274106053068
 30
0.0
 10
173.6161474396471
 20
120.7587024488883
 30
0.0
 10
173.785982417064
 20
121.2320621290216
 30
0.0
 10
173.8489777782011
 20
121.4763439258423
 30
0.0
 10
173.8889986186954
 20
121.7286706527224
 30
0.0
  0
LINE
  5
12B
330
1F
100
AcDbEntity
  8
0
  6
HIDDEN
 62
     7
370
     0
100
AcDbLine
 10
175.6389986187
 20
131.3630995297
 30
0.0
 11
175.6389986187
 21
113.3630995297
 31
0.0
  0
LINE
  5
12C
330
1F
100
AcDbEntity
  8
0
  6
HIDDEN
 62
     7
370
     0
100
AcDbLine
 10
174.3889986187
 20
112.1130995297
 30
0.0
 11
174.3889986187
 21
132.6130995297
 31
0.0
  0
LINE
  5
12D
330
1F
100
AcDbEntity
  8
0
  6
HIDDEN
 62
     7
370
     0
100
AcDbLine
 10
212.3889986187
 20
113.3630995297
 30
0.0
 11
212.3889986187
 21
131.3630995297
 31
0.0
  0
LWPOLYLINE
  5
12E
330
1F
100
AcDbEntity
  8
0
  6
HIDDEN
 62
     7
370
     0
100
AcDbPolyline
 90
       31
 70
   128
 43
0.0
 10
240.8177365519
 20
108.0360497751
 10
241.5414411028
 20
107.9739367791
 10
242.2335162921
 20
107.7638955336
 10
242.8637151131
 20
107.4151058488
 10
243.4044948532
 20
106.9428115077
 10
243.832220843
 20
106.3676540392
 10
244.1281994041
 20
105.7147705848
 10
244.2794948532
 20
105.0126952841
 10
244.2794948532
 20
104.2921121969
 10
244.1281994041
 20
103.5845142617
 10
243.832220843
 20
102.9208269037
 10
243.4044948532
 20
102.3300564452
 10
242.8637151131
 20
101.8380223901
 10
242.2335162921
 20
101.4662289877
 10
241.5414411028
 20
101.2309253936
 10
240.8177365519
 20
101.1423955041
 10
240.0940320011
 20
101.2045085001
 10
239.4019568118
 20
101.4145497456
 10
238.7717579908
 20
101.7633394304
 10
238.2309782507
 20
102.2356337715
 10
237.8032522609
 20
102.81079124
 10
237.5072736998
 20
103.4636746944
 10
237.3559782507
 20
104.1657499951
 10
237.3559782507
 20
104.8863330823
 10
237.5072736998
 20
105.5939310175
 10
237.8032522609
 20
106.2576183755
 10
238.2309782507
 20
106.848388834
 10
238.7717579908
 20
107.3404228891
 10
239.4019568118
 20
107.7122162915
 10
240.0940320011
 20
107.9475198856
 10
240.8177365519
 20
108.0360497751
  0
ARC
  5
12F
330
1F
100
AcDbEntity
  8
0
  6
HIDDEN
 62
     7
370
     0
100
AcDbCircle
 10
234.2864587553
 20
100.0790978263
 30
0.0
 40
2.091011055394602
100
AcDbArc
 50
58.4606835973
 51
237.6235148984
  0
LINE
  5
130
330
1F
100
AcDbEntity
  8
0
  6
HIDDEN
 62
     7
370
     0
100
AcDbLine
 10
248.2145318825
 20
94.1540422366
 30
0.0
 11
249.1782843138
 21
92.5617766823
 31
0.0
  0
SPLINE
  5
131
330
1F
100
AcDbEntity
  8
0
  6
HIDDEN
 62
     7
370
     0
100
AcDbSpline
210
0.0
220
0.0
230
1.0
 70
     8
 71
     3
 72
     9
 73
     5
 74
     0
 42
0.00000001
 43
0.00000001
 12
1.0
 22
0.0
 32
0.0
 13
1.0
 23
0.0
 33
0.0
 40
0.0
 40
0.0
 40
0.0
 40
0.0
 40
0.5
 40
1.0
 40
1.0
 40
1.0
 40
1.0
 10
223.5875974570055
 20
118.4268895040419
 30
0.0
 10
223.5803162479523
 20
118.6494682677592
 30
0.0
 10
223.5645204145856
 20
119.0946132138474
 30
0.0
 10
223.5483138067096
 20
119.5397539698655
 30
0.0
 10
223.5405734687583
 20
119.7623280502779
 30
0.0
  0
LINE
  5
132
330
1F
100
AcDbEntity
  8
0
  6
HIDDEN
 62
     7
370
     0
100
AcDbLine
 10
223.5405734688
 20
119.7623280503
 30
0.0
 11
223.5405734688
 21
148.2421309526
 31
0.0
  0
SPLINE
  5
133
330
1F
100
AcDbEntity
  8
0
  6
HIDDEN
 62
     7
370
     0
100
AcDbSpline
210
0.0
220
0.0
230
1.0
 70
     8
 71
     3
 72
    14
 73
    10
 74
     0
 42
0.00000001
 43
0.00000001
 12
1.0
 22
0.0
 32
0.0
 13
1.0
 23
0.0
 33
0.0
 40
0.0
 40
0.0
 40
0.0
 40
0.0
 40
0.2500000000000001
 40
0.2500000000000001
 40
0.5000000000000002
 40
0.5000000000000002
 40
0.7500000000000003
 40
0.7500000000000003
 40
1.0
 40
1.0
 40
1.0
 40
1.0
 10
223.5875974570055
 20
90.16955542524548
 30
0.0
 10
223.5679486833541
 20
90.27631024615683
 30
0.0
 10
223.5443609784029
 20
90.38304275757694
 30
0.0
 10
223.5093365699228
 20
90.59598269256958
 30
0.0
 10
223.4982310559101
 20
90.70214467037488
 30
0.0
 10
223.4979908935615
 20
90.9131742055677
 30
0.0
 10
223.5088900326271
 20
91.01802381629135
 30
0.0
 10
223.543963006401
 20
91.22631569939102
 30
0.0
 10
223.5677942490751
 20
91.32974517938224
 30
0.0
 10
223.5875974570114
 20
91.43296911221495
 30
0.0
  0
LINE
  5
134
330
1F
100
AcDbEntity
  8
0
  6
HIDDEN
 62
     7
370
     0
100
AcDbLine
 10
223.6895818677
 20
89.8624056182
 30
0.0
 11
223.587597457
 21
90.1695554252
 31
0.0
  0
SPLINE
  5
135
330
1F
100
AcDbEntity
  8
0
  6
HIDDEN
 62
     7
370
     0
100
AcDbSpline
210
0.0
220
0.0
230
1.0
 70
     8
 71
     3
 72
    36
 73
    32
 74
     0
 42
0.00000001
 43
0.00000001
 12
1.0
 22
0.0
 32
0.0
 13
1.0
 23
0.0
 33
0.0
 40
0.0
 40
0.0
 40
0.0
 40
0.0
 40
0.1250000000000009
 40
0.1250000000000009
 40
0.2500000000000017
 40
0.2500000000000017
 40
0.3125000000000025
 40
0.3125000000000025
 40
0.3750000000000033
 40
0.3750000000000033
 40
0.4375000000000041
 40
0.4375000000000041
 40
0.4687500000000038
 40
0.4687500000000038
 40
0.5000000000000037
 40
0.5000000000000037
 40
0.5312500000000034
 40
0.5312500000000034
 40
0.5625000000000032
 40
0.5625000000000032
 40
0.593750000000003
 40
0.593750000000003
 40
0.6250000000000028
 40
0.6250000000000028
 40
0.6875000000000023
 40
0.6875000000000023
 40
0.7500000000000018
 40
0.7500000000000018
 40
0.8750000000000009
 40
0.8750000000000009
 40
1.0
 40
1.0
 40
1.0
 40
1.0
 10
238.1112057385619
 20
102.0944574142863
 30
0.0
 10
238.1695499228179
 20
101.9980639507127
 30
0.0
 10
238.286345327529
 20
101.8714196745111
 30
0.0
 10
238.5942809362126
 20
101.5929702574952
 30
0.0
 10
238.7877593476882
 20
101.4397804377183
 30
0.0
 10
239.1382028550794
 20
101.2133390670171
 30
0.0
 10
239.2654773127211
 20
101.1381689372342
 30
0.0
 10
239.5486917381512
 20
100.992380472141
 30
0.0
 10
239.7058094522975
 20
100.9210402712043
 30
0.0
 10
240.0584095387827
 20
100.7941669607905
 30
0.0
 10
240.2529520549769
 20
100.7372752101295
 30
0.0
 10
240.6047792616937
 20
100.6824296072385
 30
0.0
 10
240.7307566513672
 20
100.6699789623265
 30
0.0
 10
240.9985198657758
 20
100.6654504219184
 30
0.0
 10
241.1393617820104
 20
100.6738316942471
 30
0.0
 10
241.4181109022172
 20
100.7172128895391
 30
0.0
 10
241.5515301268954
 20
100.7517291926707
 30
0.0
 10
241.788110153416
 20
100.8347512717775
 30
0.0
 10
241.8937487592768
 20
100.8835874162809
 30
0.0
 10
242.0784683675392
 20
100.9849447497272
 30
0.0
 10
242.1601828305006
 20
101.0387794701132
 30
0.0
 10
242.3051676079765
 20
101.1469805861832
 30
0.0
 10
242.3688355895528
 20
101.201546175833
 30
0.0
 10
242.5418504917005
 20
101.3656663144807
 30
0.0
 10
242.6338971591259
 20
101.4762403991098
 30
0.0
 10
242.7867203234501
 20
101.6913318828215
 30
0.0
 10
242.8476144758273
 20
101.7962357218762
 30
0.0
 10
242.9978275087546
 20
102.1013536849994
 30
0.0
 10
243.0557743198707
 20
102.2932034329528
 30
0.0
 10
243.1033261816612
 20
102.6297152420292
 30
0.0
 10
243.0936300774702
 20
102.7734554209921
 30
0.0
 10
243.0354221217997
 20
102.8696238142292
 30
0.0
  0
ELLIPSE
  5
136
330
1F
100
AcDbEntity
  8
0
  6
HIDDEN
 62
     7
370
     0
100
AcDbEllipse
 10
241.7279881458
 20
97.646053961
 30
0.0
 11
3.105839292631288
 21
-2.305055007060062
 31
0.0
210
0.0
220
0.0
230
1.0
 40
0.0904236958
 41
3.359298271118769
 42
6.500890924708411
  0
LINE
  5
137
330
1F
100
AcDbEntity
  8
0
  6
HIDDEN
 62
     7
370
     0
100
AcDbLine
 10
237.2956994406
 20
85.4138958083
 30
0.0
 11
236.3319470093
 21
87.0061613626
 31
0.0
  0
LINE
  5
138
330
1F
100
AcDbEntity
  8
0
  6
HIDDEN
 62
     7
370
     0
100
AcDbLine
 10
243.0354221218
 20
102.8696238142
 30
0.0
 11
242.5972560802
 21
103.5935407377
 31
0.0
  0
ELLIPSE
  5
139
330
1F
100
AcDbEntity
  8
0
  6
HIDDEN
 62
     7
370
     0
100
AcDbEllipse
 10
239.9059735949
 20
106.0955936774
 30
0.0
 11
3.953222233227677
 21
1.478682026362605
 31
0.0
210
0.0
220
0.0
230
1.0
 40
0.8454008504
 41
3.837400258827498
 42
5.112524100065905
  0
LINE
  5
13A
330
1F
100
AcDbEntity
  8
0
  6
HIDDEN
 62
     7
370
     0
100
AcDbLine
 10
237.673039697
 20
102.8183743377
 30
0.0
 11
238.1112057386
 21
102.0944574143
 31
0.0
  0
ELLIPSE
  5
13B
330
1F
100
AcDbEntity
  8
0
  6
HIDDEN
 62
     7
370
     0
100
AcDbEllipse
 10
237.3128412919
 20
110.3798425254
 30
0.0
 11
-2.220506159017986
 21
3.668613800738085
 31
0.0
210
0.0
220
0.0
230
1.0
 40
0.9794128731
 41
0.0
 42
6.283185307179586
  0
LWPOLYLINE
  5
13C
330
1F
100
AcDbEntity
  8
0
  6
HIDDEN
 62
     7
370
     0
100
AcDbPolyline
 90
       34
 70
   128
 43
0.0
 10
240.7737716259
 20
108.7980519448
 10
241.5642725522
 20
108.7377331149
 10
242.3262027153
 20
108.5301015887
 10
243.032023974
 20
108.1826617105
 10
243.656226109
 20
107.7079708628
 10
244.1762488289
 20
107.1231856096
 10
244.5732971576
 20
106.4494416137
 10
244.833020734
 20
105.7110897384
 10
244.9460324714
 20
104.9348159443
 10
244.9082478311
 20
104.1486767888
 10
244.7210324484
 20
103.3810853894
 10
244.3911527752
 20
102.6597844991
 10
243.9305315222
 20
102.0108438114
 10
243.3558167417
 20
101.4577177336
 10
242.6877801233
 20
101.0203976833
 10
241.9505662509
 20
100.7146895465
 10
241.1708199546
 20
100.5516424119
 10
240.3767232973
 20
100.5371492276
 10
239.596977001
 20
100.6717338151
 10
238.8597631286
 20
100.9505319368
 10
238.1917265102
 20
101.3634671021
 10
237.6170117297
 20
101.8956147583
 10
237.1563904767
 20
102.5277417026
 10
236.8265108035
 20
103.2370012203
 10
236.6392954208
 20
103.9977588243
 10
236.6015107805
 20
104.7825187528
 10
236.7145225179
 20
105.5629177373
 10
236.9742460943
 20
106.3107501251
 10
237.371294423
 20
106.9989873053
 10
237.8913171428
 20
107.6027545931
 10
238.5155192779
 20
108.1002302655
 10
239.2213405366
 20
108.4734342556
 10
239.9832706997
 20
108.7088779988
 10
240.7737716259
 20
108.7980519448
  0
LINE
  5
13D
330
1F
100
AcDbEntity
  8
0
  6
HIDDEN
 62
     7
370
     0
100
AcDbLine
 10
244.6775014135
 20
92.5471040788
 30
0.0
 11
244.0969946666
 21
96.6266838111
 31
0.0
  0
LINE
  5
13E
330
1F
100
AcDbEntity
  8
0
  6
HIDDEN
 62
     7
370
     0
100
AcDbLine
 10
244.3536525699
 20
93.0821516094
 30
0.0
 11
244.6775014135
 21
92.5471040788
 31
0.0
  0
LINE
  5
13F
330
1F
100
AcDbEntity
  8
0
  6
HIDDEN
 62
     7
370
     0
100
AcDbLine
 10
242.9719603833
 20
98.8689310168
 30
0.0
 11
242.5972560802
 21
103.5935407377
 31
0.0
  0
LINE
  5
140
330
1F
100
AcDbEntity
  8
0
  6
HIDDEN
 62
     7
370
     0
100
AcDbLine
 10
244.0969946666
 20
96.6266838111
 30
0.0
 11
244.8055350441
 21
95.4560673745
 31
0.0
  0
LINE
  5
141
330
1F
100
AcDbEntity
  8
0
  6
HIDDEN
 62
     7
370
     0
100
AcDbLine
 10
238.5920764629
 20
99.932468046
 30
0.0
 11
239.7532850303
 21
91.7719376789
 31
0.0
  0
ARC
  5
142
330
1F
100
AcDbEntity
  8
0
  6
HIDDEN
 62
     7
370
     0
100
AcDbCircle
 10
242.5206228479
 20
90.2205607724
 30
0.0
 40
3.172527210755408
100
AcDbArc
 50
150.7248945276
 51
47.167192253
  0
LINE
  5
143
330
1F
100
AcDbEntity
  8
0
  6
HIDDEN
 62
     7
370
     0
100
AcDbLine
 10
248.5743776903
 20
79.6544019279
 30
0.0
 11
248.970054263
 21
79.8924182381
 31
0.0
  0
LINE
  5
144
330
1F
100
AcDbEntity
  8
0
  6
HIDDEN
 62
     7
370
     0
100
AcDbLine
 10
236.3319470093
 20
87.0061613626
 30
0.0
 11
248.5743776903
 21
79.6544019279
 31
0.0
  0
LINE
  5
145
330
1F
100
AcDbEntity
  8
0
  6
HIDDEN
 62
     7
370
     0
100
AcDbLine
 10
235.8172697115
 20
96.7214713132
 30
0.0
 11
236.3319470093
 21
87.0061613626
 31
0.0
  0
LINE
  5
146
330
1F
100
AcDbEntity
  8
0
  6
HIDDEN
 62
     7
370
     0
100
AcDbLine
 10
238.5920764629
 20
99.932468046
 30
0.0
 11
235.3802321867
 21
101.8612277078
 31
0.0
  0
LINE
  5
147
330
1F
100
AcDbEntity
  8
0
  6
HIDDEN
 62
     7
370
     0
100
AcDbLine
 10
248.2145318825
 20
94.1540422366
 30
0.0
 11
244.0969946666
 21
96.6266838111
 31
0.0
  0
LINE
  5
148
330
1F
100
AcDbEntity
  8
0
  6
HIDDEN
 62
     7
370
     0
100
AcDbLine
 10
248.970054263
 20
79.8924182381
 30
0.0
 11
248.2145318825
 21
94.1540422366
 31
0.0
  0
LINE
  5
149
330
1F
100
AcDbEntity
  8
0
  6
HIDDEN
 62
     7
370
     0
100
AcDbLine
 10
238.6504412475
 20
99.8360405475
 30
0.0
 11
238.5920764629
 21
99.932468046
 31
0.0
  0
LINE
  5
14A
330
1F
100
AcDbEntity
  8
0
  6
HIDDEN
 62
     7
370
     0
100
AcDbLine
 10
148.8889986187
 20
143.521462926
 30
0.0
 11
148.8889986187
 21
137.4671523585
 31
0.0
  0
LINE
  5
14B
330
1F
100
AcDbEntity
  8
0
  6
HIDDEN
 62
     7
370
     0
100
AcDbLine
 10
183.1889986187
 20
144.3831983143
 30
0.0
 11
183.1889986187
 21
137.8980200526
 31
0.0
  0
SPLINE
  5
14C
330
1F
100
AcDbEntity
  8
0
  6
HIDDEN
 62
     7
370
     0
100
AcDbSpline
210
0.0
220
0.0
230
1.0
 70
     8
 71
     3
 72
    16
 73
    12
 74
     0
 42
0.00000001
 43
0.00000001
 12
1.0
 22
0.0
 32
0.0
 13
1.0
 23
0.0
 33
0.0
 40
0.0
 40
0.0
 40
0.0
 40
0.0
 40
0.25
 40
0.25
 40
0.375
 40
0.375
 40
0.5
 40
0.5
 40
0.75
 40
0.75
 40
1.0
 40
1.0
 40
1.0
 40
1.0
 10
184.0676782751357
 20
144.133180484747
 30
0.0
 10
183.9064457976513
 20
144.0351648716923
 30
0.0
 10
183.7859659580117
 20
143.8484288400163
 30
0.0
 10
183.6635854406983
 20
143.4353890324574
 30
0.0
 10
183.6326077803009
 20
143.2753885332244
 30
0.0
 10
183.5909940426729
 20
142.9085828821333
 30
0.0
 10
183.5807581297401
 20
142.7052457295093
 30
0.0
 10
183.580569732684
 20
142.0379584628826
 30
0.0
 10
183.6207144353216
 20
141.5171439989946
 30
0.0
 10
183.7848681902612
 20
140.3197849835169
 30
0.0
 10
183.9064198406707
 20
139.6615153292209
 30
0.0
 10
184.0676782751357
 20
138.947006155986
 30
0.0
  0
SPLINE
  5
14D
330
1F
100
AcDbEntity
  8
0
  6
HIDDEN
 62
     7
370
     0
100
AcDbSpline
210
0.0
220
0.0
230
1.0
 70
     8
 71
     3
 72
    16
 73
    12
 74
     0
 42
0.00000001
 43
0.00000001
 12
1.0
 22
0.0
 32
0.0
 13
1.0
 23
0.0
 33
0.0
 40
0.0
 40
0.0
 40
0.0
 40
0.0
 40
0.25
 40
0.25
 40
0.375
 40
0.375
 40
0.5
 40
0.5
 40
0.75
 40
0.75
 40
1.0
 40
1.0
 40
1.0
 40
1.0
 10
184.0676782751357
 20
105.7791929035039
 30
0.0
 10
183.9064457976513
 20
105.0647987413117
 30
0.0
 10
183.7859659580116
 20
104.4114564786031
 30
0.0
 10
183.6635854406983
 20
103.5232012367992
 30
0.0
 10
183.6326077803009
 20
103.2425207004474
 30
0.0
 10
183.5909940426729
 20
102.7134867106074
 30
0.0
 10
183.5807581297401
 20
102.4701657320289
 30
0.0
 10
183.580569732684
 20
101.8021430415157
 30
0.0
 10
183.6207144353216
 20
101.4384621320962
 30
0.0
 10
183.7848681902612
 20
100.8785712595479
 30
0.0
 10
183.9064198406707
 20
100.6910499674308
 30
0.0
 10
184.0676782751357
 20
100.5930185747428
 30
0.0
  0
LINE
  5
14E
330
1F
100
AcDbEntity
  8
0
  6
HIDDEN
 62
     7
370
     0
100
AcDbLine
 10
183.1889986187
 20
106.8281790069
 30
0.0
 11
183.1889986187
 21
100.3430007452
 31
0.0
  0
LINE
  5
14F
330
1F
100
AcDbEntity
  8
0
  6
HIDDEN
 62
     7
370
     0
100
AcDbLine
 10
147.3889986187
 20
142.6554375222
 30
0.0
 11
147.3889986187
 21
137.0341396566
 31
0.0
  0
LINE
  5
150
330
1F
100
AcDbEntity
  8
0
  6
HIDDEN
 62
     7
370
     0
100
AcDbLine
 10
148.8889986187
 20
107.259046701
 30
0.0
 11
148.8889986187
 21
101.2047361335
 31
0.0
  0
LINE
  5
151
330
1F
100
AcDbEntity
  8
0
  6
HIDDEN
 62
     7
370
     0
100
AcDbLine
 10
147.3889986187
 20
107.6920594029
 30
0.0
 11
147.3889986187
 21
102.0707615372
 31
0.0
  0
SPLINE
  5
152
330
1F
100
AcDbEntity
  8
0
  6
HIDDEN
 62
     7
370
     0
100
AcDbSpline
210
0.0
220
0.0
230
1.0
 70
     8
 71
     3
 72
    10
 73
     6
 74
     0
 42
0.00000001
 43
0.00000001
 12
1.0
 22
0.0
 32
0.0
 13
1.0
 23
0.0
 33
0.0
 40
0.0
 40
0.0
 40
0.0
 40
0.0
 40
0.5
 40
0.5
 40
1.0
 40
1.0
 40
1.0
 40
1.0
 10
239.3995167052707
 20
93.07914198484329
 30
0.0
 10
239.3711773631077
 20
92.91715318661792
 30
0.0
 10
239.35908565592
 20
92.76502923795707
 30
0.0
 10
239.3663646481925
 20
92.4976599402565
 30
0.0
 10
239.3847312256431
 20
92.38084460236662
 30
0.0
 10
239.4294361866329
 20
92.3069852094607
 30
0.0
  0
ARC
  5
153
330
1F
100
AcDbEntity
  8
0
  6
HIDDEN
 62
     7
370
     0
100
AcDbCircle
 10
241.9411284451
 20
91.1789388489
 30
0.0
 40
3.173414910414264
100
AcDbArc
 50
143.2168479266
 51
54.675238854
  0
SPLINE
  5
154
330
1F
100
AcDbEntity
  8
0
  6
HIDDEN
 62
     7
370
     0
100
AcDbSpline
210
0.0
220
0.0
230
1.0
 70
     8
 71
     3
 72
    10
 73
     6
 74
     0
 42
0.00000001
 43
0.00000001
 12
1.0
 22
0.0
 32
0.0
 13
1.0
 23
0.0
 33
0.0
 40
0.0
 40
0.0
 40
0.0
 40
0.0
 40
0.5
 40
0.5
 40
1.0
 40
1.0
 40
1.0
 40
1.0
 10
244.3536525698712
 20
93.08215160940439
 30
0.0
 10
244.3090000619963
 20
93.15592434178888
 30
0.0
 10
244.2281745429264
 20
93.26302620106058
 30
0.0
 10
244.030531625929
 20
93.5004350680918
 30
0.0
 10
243.9121857989921
 20
93.63201643049334
 30
0.0
 10
243.7760295541059
 20
93.76808931073343
 30
0.0
  0
LINE
  5
155
330
1F
100
AcDbEntity
  8
0
  6
HIDDEN
 62
     7
370
     0
100
AcDbLine
 10
239.7532850303
 20
91.7719376789
 30
0.0
 11
239.4294361866
 21
92.3069852095
 31
0.0
  0
LWPOLYLINE
  5
156
330
1F
100
AcDbEntity
  8
0
  6
HIDDEN
 62
     7
370
     0
100
AcDbPolyline
 90
       13
 70
   128
 43
0.0
 10
242.9719603833
 20
98.8689310168
 10
242.9244923334
 20
98.3964294042
 10
242.7124705483
 20
97.9297148412
 10
242.3503439622
 20
97.5005931538
 10
241.8627909035
 20
97.1383082759
 10
241.2830373073
 20
96.8675493232
 10
240.6505924234
 20
96.706768071
 10
240.0085563252
 20
96.6669214958
 10
239.4006827118
 20
96.7507250759
 10
238.8683971656
 20
96.9524677358
 10
238.4479740667
 20
97.2584010466
 10
238.1680645546
 20
97.6476761589
 10
238.047744
 20
98.0937646168
  0
ELLIPSE
  5
157
330
1F
100
AcDbEntity
  8
0
  6
HIDDEN
 62
     7
370
     0
100
AcDbEllipse
 10
241.396466689
 20
94.7680442568
 30
0.0
 11
-0.3124824774540968
 21
2.947022789647619
 31
0.0
210
0.0
220
0.0
230
1.0
 40
0.8407155321
 41
2.089396643204775
 42
4.278721013747935
  0
SPLINE
  5
158
330
1F
100
AcDbEntity
  8
0
  6
HIDDEN
 62
     7
370
     0
100
AcDbSpline
210
0.0
220
0.0
230
1.0
 70
     8
 71
     3
 72
    10
 73
     6
 74
     0
 42
0.00000001
 43
0.00000001
 12
1.0
 22
0.0
 32
0.0
 13
1.0
 23
0.0
 33
0.0
 40
0.0
 40
0.0
 40
0.0
 40
0.0
 40
0.5
 40
0.5
 40
1.0
 40
1.0
 40
1.0
 40
1.0
 10
223.5875974570114
 20
91.43296911221495
 30
0.0
 10
223.6977046786853
 20
92.00690140086216
 30
0.0
 10
223.961967575527
 20
92.55710806135679
 30
0.0
 10
224.7346494517622
 20
93.55866927222104
 30
0.0
 10
225.240917724053
 20
94.0096409618275
 30
0.0
 10
225.8272859206327
 20
94.3864173397951
 30
0.0
  0
LINE
  5
159
330
1F
100
AcDbEntity
  8
0
  6
HIDDEN
 62
     7
370
     0
100
AcDbLine
 10
248.0962569307
 20
80.4443301205
 30
0.0
 11
248.5743776903
 21
79.6544019279
 31
0.0
  0
LINE
  5
15A
330
1F
100
AcDbEntity
  8
0
  6
HIDDEN
 62
     7
370
     0
100
AcDbLine
 10
248.970054263
 20
79.8924182381
 30
0.0
 11
248.4141608909
 21
80.8108386119
 31
0.0
  0
LINE
  5
15B
330
1F
100
AcDbEntity
  8
0
  6
HIDDEN
 62
     7
370
     0
100
AcDbLine
 10
237.673039697
 20
102.8183743377
 30
0.0
 11
238.047744
 21
98.0937646168
 31
0.0
  0
ELLIPSE
  5
15C
330
1F
100
AcDbEntity
  8
0
  6
HIDDEN
 62
     7
370
     0
100
AcDbEllipse
 10
314.8627101104
 20
116.3630995297
 30
0.0
 11
68.2896048186027
 21
39.37702396370483
 31
0.0
210
0.0
220
0.0
230
1.0
 40
0.102974212
 41
2.842250743922657
 42
2.86264922504232
  0
SPLINE
  5
15D
330
1F
100
AcDbEntity
  8
0
  6
HIDDEN
 62
     7
370
     0
100
AcDbSpline
210
0.0
220
0.0
230
1.0
 70
     8
 71
     3
 72
     8
 73
     4
 74
     0
 42
0.00000001
 43
0.00000001
 12
1.0
 22
0.0
 32
0.0
 13
1.0
 23
0.0
 33
0.0
 40
0.0
 40
0.0
 40
0.0
 40
0.0
 40
1.0
 40
1.0
 40
1.0
 40
1.0
 10
225.5765164148049
 20
98.92750375558221
 30
0.0
 10
225.6611338820349
 20
97.34941609506973
 30
0.0
 10
225.7446996416055
 20
95.836384136106
 30
0.0
 10
225.8272859206327
 20
94.38641733979509
 30
0.0
  0
ELLIPSE
  5
15E
330
1F
100
AcDbEntity
  8
0
  6
HIDDEN
 62
     7
370
     0
100
AcDbEllipse
 10
187.4235411567
 20
116.3630995297
 30
0.0
 11
64.47356684623176
 21
-39.87516059835107
 31
0.0
210
0.0
220
0.0
230
1.0
 40
0.0489778835
 41
0.3766368252252966
 42
0.7899459182479196
  0
SPLINE
  5
15F
330
1F
100
AcDbEntity
  8
0
  6
HIDDEN
 62
     7
370
     0
100
AcDbSpline
210
0.0
220
0.0
230
1.0
 70
     8
 71
     3
 72
    12
 73
     8
 74
     0
 42
0.00000001
 43
0.00000001
 12
1.0
 22
0.0
 32
0.0
 13
1.0
 23
0.0
 33
0.0
 40
0.0
 40
0.0
 40
0.0
 40
0.0
 40
0.5000000000000008
 40
0.5000000000000008
 40
0.7500000000000003
 40
0.7500000000000003
 40
1.0
 40
1.0
 40
1.0
 40
1.0
 10
234.192682277233
 20
90.53864101658992
 30
0.0
 10
232.9786308636727
 20
91.37348193099918
 30
0.0
 10
231.676143768579
 20
92.13146183713619
 30
0.0
 10
229.5787270083323
 20
93.11211659809427
 30
0.0
 10
228.8550761474427
 20
93.4130800906845
 30
0.0
 10
227.3579944332789
 20
93.95372599534687
 30
0.0
 10
226.5982137660504
 20
94.18849099472132
 30
0.0
 10
225.8272859206328
 20
94.3864173397951
 30
0.0
  0
ELLIPSE
  5
160
330
1F
100
AcDbEntity
  8
0
  6
HIDDEN
 62
     7
370
     0
100
AcDbEllipse
 10
247.6499588057
 20
116.3630995297
 30
0.0
 11
-2.830899125705429
 21
39.99911690243091
 31
0.0
210
0.0
220
0.0
230
1.0
 40
0.0938906935
 41
2.015178212637743
 42
2.658885719243378
  0
LINE
  5
161
330
1F
100
AcDbEntity
  8
0
  6
HIDDEN
 62
     7
370
     0
100
AcDbLine
 10
147.3889986187
 20
137.0341396566
 30
0.0
 11
147.3889986187
 21
125.2650868627
 31
0.0
  0
LINE
  5
162
330
1F
100
AcDbEntity
  8
0
  6
HIDDEN
 62
     7
370
     0
100
AcDbLine
 10
147.3889986187
 20
119.4611121968
 30
0.0
 11
147.3889986187
 21
107.6920594029
 31
0.0
  0
LINE
  5
163
330
1F
100
AcDbEntity
  8
0
  6
HIDDEN
 62
     7
370
     0
100
AcDbLine
 10
148.8889986187
 20
118.3978886329
 30
0.0
 11
148.8889986187
 21
107.259046701
 31
0.0
  0
LINE
  5
164
330
1F
100
AcDbEntity
  8
0
  6
HIDDEN
 62
     7
370
     0
100
AcDbLine
 10
148.8889986187
 20
137.4671523585
 30
0.0
 11
148.8889986187
 21
126.3283104266
 31
0.0
  0
LINE
  5
165
330
1F
100
AcDbEntity
  8
0
  6
HIDDEN
 62
     7
370
     0
100
AcDbLine
 10
185.1889986187
 20
137.4008066922
 30
0.0
 11
185.1889986187
 21
107.3253923673
 31
0.0
  0
LINE
  5
166
330
1F
100
AcDbEntity
  8
0
  6
HIDDEN
 62
     7
370
     0
100
AcDbLine
 10
183.1889986187
 20
137.8980200526
 30
0.0
 11
183.1889986187
 21
106.8281790069
 31
0.0
  0
SPLINE
  5
167
330
1F
100
AcDbEntity
  8
0
  6
HIDDEN
 62
     7
370
     0
100
AcDbSpline
210
0.0
220
0.0
230
1.0
 70
     8
 71
     3
 72
     8
 73
     4
 74
     0
 42
0.00000001
 43
0.00000001
 12
1.0
 22
0.0
 32
0.0
 13
1.0
 23
0.0
 33
0.0
 40
0.0000249638557296
 40
0.0000249638557296
 40
0.0000249638557296
 40
0.0000249638557296
 40
0.0049776420541172
 40
0.0049776420541172
 40
0.0049776420541172
 40
0.0049776420541172
 10
148.8889986186954
 20
118.3978886329084
 30
0.0
 10
150.5389748532049
 20
118.3566093951402
 30
0.0
 10
152.18897617295
 20
118.3163877139007
 30
0.0
 10
153.8389986186954
 20
118.2771384766457
 30
0.0
  0
SPLINE
  5
168
330
1F
100
AcDbEntity
  8
0
  6
HIDDEN
 62
     7
370
     0
100
AcDbSpline
210
0.0
220
0.0
230
1.0
 70
     8
 71
     3
 72
     8
 73
     4
 74
     0
 42
0.00000001
 43
0.00000001
 12
1.0
 22
0.0
 32
0.0
 13
1.0
 23
0.0
 33
0.0
 40
0.0000249631533153
 40
0.0000249631533153
 40
0.0000249631533153
 40
0.0000249631533153
 40
0.0049776413517028
 40
0.0049776413517028
 40
0.0049776413517028
 40
0.0049776413517028
 10
153.8389986186954
 20
126.4490605828442
 30
0.0
 10
152.18897617295
 20
126.4098113455891
 30
0.0
 10
150.5389748532049
 20
126.3695896643497
 30
0.0
 10
148.8889986186954
 20
126.3283104265815
 30
0.0
  0
SPLINE
  5
169
330
1F
100
AcDbEntity
  8
0
  6
HIDDEN
 62
     7
370
     0
100
AcDbSpline
210
0.0
220
0.0
230
1.0
 70
     8
 71
     3
 72
     8
 73
     4
 74
     0
 42
0.00000001
 43
0.00000001
 12
1.0
 22
0.0
 32
0.0
 13
1.0
 23
0.0
 33
0.0
 40
0.0
 40
0.0
 40
0.0
 40
0.0
 40
1.0
 40
1.0
 40
1.0
 40
1.0
 10
147.3889986186931
 20
119.4611121967646
 30
0.0
 10
147.8557592300709
 20
119.0457489511415
 30
0.0
 10
148.361506776851
 20
118.7011585218369
 30
0.0
 10
148.8889986186954
 20
118.3978886329084
 30
0.0
  0
SPLINE
  5
16A
330
1F
100
AcDbEntity
  8
0
  6
HIDDEN
 62
     7
370
     0
100
AcDbSpline
210
0.0
220
0.0
230
1.0
 70
     8
 71
     3
 72
     8
 73
     4
 74
     0
 42
0.00000001
 43
0.00000001
 12
1.0
 22
0.0
 32
0.0
 13
1.0
 23
0.0
 33
0.0
 40
0.0
 40
0.0
 40
0.0
 40
0.0
 40
1.0
 40
1.0
 40
1.0
 40
1.0
 10
148.8889986186954
 20
126.3283104265815
 30
0.0
 10
148.3615067768519
 20
126.0250405376534
 30
0.0
 10
147.8557592300726
 20
125.6804501083494
 30
0.0
 10
147.3889986186954
 20
125.2650868627273
 30
0.0
  0
LINE
  5
16B
330
1F
100
AcDbEntity
  8
0
  6
HIDDEN
 62
     7
370
     0
100
AcDbLine
 10
147.3889986187
 20
119.4611121968
 30
0.0
 11
147.3889986187
 21
125.2650868627
 31
0.0
  0
LINE
  5
16C
330
1F
100
AcDbEntity
  8
0
  6
HIDDEN
 62
     7
370
     0
100
AcDbLine
 10
153.8389986187
 20
118.2771384766
 30
0.0
 11
153.8389986187
 21
126.4490605828
 31
0.0
  0
SPLINE
  5
16D
330
1F
100
AcDbEntity
  8
0
  6
HIDDEN
 62
     7
370
     0
100
AcDbSpline
210
0.0
220
0.0
230
1.0
 70
     8
 71
     3
 72
    24
 73
    20
 74
     0
 42
0.00000001
 43
0.00000001
 12
1.0
 22
0.0
 32
0.0
 13
1.0
 23
0.0
 33
0.0
 40
0.0
 40
0.0
 40
0.0
 40
0.0
 40
0.1249999999999999
 40
0.1249999999999999
 40
0.2499999999999999
 40
0.2499999999999999
 40
0.3749999999999998
 40
0.3749999999999998
 40
0.4374999999999998
 40
0.4374999999999998
 40
0.4999999999999998
 40
0.4999999999999998
 40
0.6249999999999998
 40
0.6249999999999998
 40
0.7499999999999999
 40
0.7499999999999999
 40
0.8749999999999999
 40
0.8749999999999999
 40
1.0
 40
1.0
 40
1.0
 40
1.0
 10
153.8389986186954
 20
118.2771384766457
 30
0.0
 10
154.0768022509705
 20
118.5761455789758
 30
0.0
 10
154.3068879121818
 20
118.8804834302945
 30
0.0
 10
154.7416413107916
 20
119.5062169676905
 30
0.0
 10
154.9465741030778
 20
119.8274416950181
 30
0.0
 10
155.3116760535764
 20
120.4993674657508
 30
0.0
 10
155.473476439368
 20
120.8546826976297
 30
0.0
 10
155.6453366439477
 20
121.4049139189821
 30
0.0
 10
155.6909218356078
 20
121.5913177039626
 30
0.0
 10
155.7533965751827
 20
121.9714522060588
 30
0.0
 10
155.7700677209311
 20
122.1671219983447
 30
0.0
 10
155.7705887641076
 20
122.7456023770192
 30
0.0
 10
155.7061464632209
 20
123.123514215988
 30
0.0
 10
155.4762973698476
 20
123.8654822410864
 30
0.0
 10
155.3177766921845
 20
124.2141977012473
 30
0.0
 10
154.9535423622843
 20
124.8872900989805
 30
0.0
 10
154.7468061222207
 20
125.2122425862221
 30
0.0
 10
154.3088681764804
 20
125.8431663966839
 30
0.0
 10
154.0775954492008
 20
126.1490561370246
 30
0.0
 10
153.8389986186955
 20
126.4490605828441
 30
0.0
  0
LINE
  5
16E
330
1F
100
AcDbEntity
  8
0
  6
HIDDEN
 62
     7
370
     0
100
AcDbLine
 10
223.5405734688
 20
122.3630995297
 30
0.0
 11
223.5405734688
 21
148.2375832323
 31
0.0
  0
SPLINE
  5
16F
330
1F
100
AcDbEntity
  8
0
  6
HIDDEN
 62
     7
370
     0
100
AcDbSpline
210
0.0
220
0.0
230
1.0
 70
     8
 71
     3
 72
    70
 73
    66
 74
     0
 42
0.00000001
 43
0.00000001
 12
1.0
 22
0.0
 32
0.0
 13
1.0
 23
0.0
 33
0.0
 40
-0.0312499999999999
 40
-0.0312499999999999
 40
0.0
 40
0.0
 40
0.03125
 40
0.03125
 40
0.0625
 40
0.0625
 40
0.09375
 40
0.09375
 40
0.1250000000000001
 40
0.1250000000000001
 40
0.1562500000000001
 40
0.1562500000000001
 40
0.1875000000000001
 40
0.1875000000000001
 40
0.2187500000000001
 40
0.2187500000000001
 40
0.2500000000000001
 40
0.2500000000000001
 40
0.2812500000000001
 40
0.2812500000000001
 40
0.3125000000000001
 40
0.3125000000000001
 40
0.3437500000000001
 40
0.3437500000000001
 40
0.3750000000000001
 40
0.3750000000000001
 40
0.40625
 40
0.40625
 40
0.4374999999999999
 40
0.4374999999999999
 40
0.4687499999999999
 40
0.4687499999999999
 40
0.4999999999999999
 40
0.4999999999999999
 40
0.5312499999999999
 40
0.5312499999999999
 40
0.5624999999999999
 40
0.5624999999999999
 40
0.5937499999999999
 40
0.5937499999999999
 40
0.6249999999999999
 40
0.6249999999999999
 40
0.65625
 40
0.65625
 40
0.6875
 40
0.6875
 40
0.71875
 40
0.71875
 40
0.75
 40
0.75
 40
0.78125
 40
0.78125
 40
0.8125
 40
0.8125
 40
0.84375
 40
0.84375
 40
0.875
 40
0.875
 40
0.9062500000000001
 40
0.9062500000000001
 40
0.9375000000000001
 40
0.9375000000000001
 40
0.9687500000000001
 40
0.9687500000000001
 40
1.0
 40
1.0
 40
1.03125
 40
1.03125
 10
166.9460761750743
 20
125.2693092170623
 30
0.0
 10
167.377754597026
 20
125.6188288116818
 30
0.0
 10
167.6075367695752
 20
125.7704282474351
 30
0.0
 10
168.0934891849914
 20
126.029921715903
 30
0.0
 10
168.3514966027627
 20
126.1379668219021
 30
0.0
 10
168.8756222563739
 20
126.3032037969287
 30
0.0
 10
169.1435892678033
 20
126.3617085987905
 30
0.0
 10
169.6913224756023
 20
126.4305480254494
 30
0.0
 10
169.9697832825316
 20
126.4401502796452
 30
0.0
 10
170.5169864767489
 20
126.4103242021129
 30
0.0
 10
170.7883741948168
 20
126.3713173820704
 30
0.0
 10
171.3265811910233
 20
126.2433470248622
 30
0.0
 10
171.5882437826818
 20
126.1553174206046
 30
0.0
 10
172.0880982211146
 20
125.9350481652925
 30
0.0
 10
172.3281432147792
 20
125.8022444966703
 30
0.0
 10
172.7848130154136
 20
125.4892491724218
 30
0.0
 10
172.994616187244
 20
125.3138180256859
 30
0.0
 10
173.3775386766197
 20
124.9252509965897
 30
0.0
 10
173.5521569391598
 20
124.709785306723
 30
0.0
 10
173.8534600026926
 20
124.2477947165396
 30
0.0
 10
173.9785734429337
 20
124.0047618883054
 30
0.0
 10
174.1770175194943
 20
123.4941848308635
 30
0.0
 10
174.2504773030734
 20
123.2232134247341
 30
0.0
 10
174.3356749537183
 20
122.6801029518363
 30
0.0
 10
174.3488422584754
 20
122.4062132962551
 30
0.0
 10
174.3148028218051
 20
121.8536431333753
 30
0.0
 10
174.2672551418043
 20
121.5794783407988
 30
0.0
 10
174.1164634826627
 20
121.0518522009739
 30
0.0
 10
174.0114286963069
 20
120.792982711026
 30
0.0
 10
173.7520539229295
 20
120.3068597582992
 30
0.0
 10
173.5987366105205
 20
120.0797478576443
 30
0.0
 10
173.2465939072044
 20
119.6560848428158
 30
0.0
 10
173.0482628039959
 20
119.4611300784786
 30
0.0
 10
172.6229950699751
 20
119.1163068348284
 30
0.0
 10
172.393132332018
 20
118.9636229680398
 30
0.0
 10
171.9059547123808
 20
118.7021288166809
 30
0.0
 10
171.6534482207262
 20
118.5956014678709
 30
0.0
 10
171.1313820099908
 20
118.4285938781554
 30
0.0
 10
170.8590205229593
 20
118.3679142690144
 30
0.0
 10
170.3127115678482
 20
118.2970225674369
 30
0.0
 10
170.0389018285323
 20
118.2861798284607
 30
0.0
 10
169.4899774234287
 20
118.3133062201024
 30
0.0
 10
169.2126218506683
 20
118.3521424810372
 30
0.0
 10
168.6773393044678
 20
118.4773751040278
 30
0.0
 10
168.4173230503006
 20
118.5634741920344
 30
0.0
 10
167.9129017485753
 20
118.7838056793071
 30
0.0
 10
167.6679594511196
 20
118.9191305050458
 30
0.0
 10
167.2154401449542
 20
119.2284795243147
 30
0.0
 10
167.0049926249175
 20
119.4034733055605
 30
0.0
 10
166.6174830149973
 20
119.7965032156353
 30
0.0
 10
166.4425910556856
 20
120.013317242835
 30
0.0
 10
166.1439604781853
 20
120.4718945799568
 30
0.0
 10
166.0179087993944
 20
120.715993664926
 30
0.0
 10
165.8170814255883
 20
121.2347372963083
 30
0.0
 10
165.7459087360911
 20
121.4999649208623
 30
0.0
 10
165.6608138042996
 20
122.0419047255867
 30
0.0
 10
165.6473882044876
 20
122.3222076068491
 30
0.0
 10
165.6812490033773
 20
122.8723867418285
 30
0.0
 10
165.72752663492
 20
123.1429763162108
 30
0.0
 10
165.878620445988
 20
123.67518946901
 30
0.0
 10
165.9831592152941
 20
123.9334729513932
 30
0.0
 10
166.2406229499265
 20
124.4184468914801
 30
0.0
 10
166.3959699873209
 20
124.6497359201492
 30
0.0
 10
166.7492994564314
 20
125.0754643212779
 30
0.0
 10
166.9460761750743
 20
125.2693092170623
 30
0.0
 10
167.377754597026
 20
125.6188288116818
 30
0.0
  0
SPLINE
  5
170
330
1F
100
AcDbEntity
  8
0
  6
HIDDEN
 62
     7
370
     0
100
AcDbSpline
210
0.0
220
0.0
230
1.0
 70
     8
 71
     3
 72
    70
 73
    66
 74
     0
 42
0.00000001
 43
0.00000001
 12
1.0
 22
0.0
 32
0.0
 13
1.0
 23
0.0
 33
0.0
 40
-0.0312499999999999
 40
-0.0312499999999999
 40
0.0
 40
0.0
 40
0.03125
 40
0.03125
 40
0.0625
 40
0.0625
 40
0.09375
 40
0.09375
 40
0.1250000000000001
 40
0.1250000000000001
 40
0.1562500000000001
 40
0.1562500000000001
 40
0.1875000000000001
 40
0.1875000000000001
 40
0.2187500000000001
 40
0.2187500000000001
 40
0.2500000000000001
 40
0.2500000000000001
 40
0.2812500000000001
 40
0.2812500000000001
 40
0.3125000000000001
 40
0.3125000000000001
 40
0.3437500000000001
 40
0.3437500000000001
 40
0.3750000000000001
 40
0.3750000000000001
 40
0.40625
 40
0.40625
 40
0.4374999999999999
 40
0.4374999999999999
 40
0.4687499999999999
 40
0.4687499999999999
 40
0.4999999999999999
 40
0.4999999999999999
 40
0.5312499999999999
 40
0.5312499999999999
 40
0.5624999999999999
 40
0.5624999999999999
 40
0.5937499999999999
 40
0.5937499999999999
 40
0.6249999999999999
 40
0.6249999999999999
 40
0.65625
 40
0.65625
 40
0.6875
 40
0.6875
 40
0.71875
 40
0.71875
 40
0.75
 40
0.75
 40
0.78125
 40
0.78125
 40
0.8125
 40
0.8125
 40
0.84375
 40
0.84375
 40
0.875
 40
0.875
 40
0.9062500000000001
 40
0.9062500000000001
 40
0.9375000000000001
 40
0.9375000000000001
 40
0.9687500000000001
 40
0.9687500000000001
 40
1.0
 40
1.0
 40
1.03125
 40
1.03125
 10
166.9460761750743
 20
125.2693092170623
 30
0.0
 10
167.377754597026
 20
125.6188288116818
 30
0.0
 10
167.6075367695752
 20
125.7704282474351
 30
0.0
 10
168.0934891849914
 20
126.029921715903
 30
0.0
 10
168.3514966027627
 20
126.1379668219021
 30
0.0
 10
168.8756222563739
 20
126.3032037969287
 30
0.0
 10
169.1435892678033
 20
126.3617085987905
 30
0.0
 10
169.6913224756023
 20
126.4305480254494
 30
0.0
 10
169.9697832825316
 20
126.4401502796452
 30
0.0
 10
170.5169864767489
 20
126.4103242021129
 30
0.0
 10
170.7883741948168
 20
126.3713173820704
 30
0.0
 10
171.3265811910233
 20
126.2433470248622
 30
0.0
 10
171.5882437826818
 20
126.1553174206046
 30
0.0
 10
172.0880982211146
 20
125.9350481652925
 30
0.0
 10
172.3281432147792
 20
125.8022444966703
 30
0.0
 10
172.7848130154136
 20
125.4892491724218
 30
0.0
 10
172.994616187244
 20
125.3138180256859
 30
0.0
 10
173.3775386766197
 20
124.9252509965897
 30
0.0
 10
173.5521569391598
 20
124.709785306723
 30
0.0
 10
173.8534600026926
 20
124.2477947165396
 30
0.0
 10
173.9785734429337
 20
124.0047618883054
 30
0.0
 10
174.1770175194943
 20
123.4941848308635
 30
0.0
 10
174.2504773030734
 20
123.2232134247341
 30
0.0
 10
174.3356749537183
 20
122.6801029518363
 30
0.0
 10
174.3488422584754
 20
122.4062132962551
 30
0.0
 10
174.3148028218051
 20
121.8536431333753
 30
0.0
 10
174.2672551418043
 20
121.5794783407988
 30
0.0
 10
174.1164634826627
 20
121.0518522009739
 30
0.0
 10
174.0114286963069
 20
120.792982711026
 30
0.0
 10
173.7520539229295
 20
120.3068597582992
 30
0.0
 10
173.5987366105205
 20
120.0797478576443
 30
0.0
 10
173.2465939072044
 20
119.6560848428158
 30
0.0
 10
173.0482628039959
 20
119.4611300784786
 30
0.0
 10
172.6229950699751
 20
119.1163068348284
 30
0.0
 10
172.393132332018
 20
118.9636229680398
 30
0.0
 10
171.9059547123808
 20
118.7021288166809
 30
0.0
 10
171.6534482207262
 20
118.5956014678709
 30
0.0
 10
171.1313820099908
 20
118.4285938781554
 30
0.0
 10
170.8590205229593
 20
118.3679142690144
 30
0.0
 10
170.3127115678482
 20
118.2970225674369
 30
0.0
 10
170.0389018285323
 20
118.2861798284607
 30
0.0
 10
169.4899774234287
 20
118.3133062201024
 30
0.0
 10
169.2126218506683
 20
118.3521424810372
 30
0.0
 10
168.6773393044678
 20
118.4773751040278
 30
0.0
 10
168.4173230503006
 20
118.5634741920344
 30
0.0
 10
167.9129017485753
 20
118.7838056793071
 30
0.0
 10
167.6679594511196
 20
118.9191305050458
 30
0.0
 10
167.2154401449542
 20
119.2284795243147
 30
0.0
 10
167.0049926249175
 20
119.4034733055605
 30
0.0
 10
166.6174830149973
 20
119.7965032156353
 30
0.0
 10
166.4425910556856
 20
120.013317242835
 30
0.0
 10
166.1439604781853
 20
120.4718945799568
 30
0.0
 10
166.0179087993944
 20
120.715993664926
 30
0.0
 10
165.8170814255883
 20
121.2347372963083
 30
0.0
 10
165.7459087360911
 20
121.4999649208623
 30
0.0
 10
165.6608138042996
 20
122.0419047255867
 30
0.0
 10
165.6473882044876
 20
122.3222076068491
 30
0.0
 10
165.6812490033773
 20
122.8723867418285
 30
0.0
 10
165.72752663492
 20
123.1429763162108
 30
0.0
 10
165.878620445988
 20
123.67518946901
 30
0.0
 10
165.9831592152941
 20
123.9334729513932
 30
0.0
 10
166.2406229499265
 20
124.4184468914801
 30
0.0
 10
166.3959699873209
 20
124.6497359201492
 30
0.0
 10
166.7492994564314
 20
125.0754643212779
 30
0.0
 10
166.9460761750743
 20
125.2693092170623
 30
0.0
 10
167.377754597026
 20
125.6188288116818
 30
0.0
  0
CIRCLE
  5
171
330
1F
100
AcDbEntity
  8
0
  6
HIDDEN
 62
     7
370
     0
100
AcDbCircle
 10
169.8889986187
 20
122.3630995297
 30
0.0
 40
4.049999999999997
  0
CIRCLE
  5
172
330
1F
100
AcDbEntity
  8
0
  6
HIDDEN
 62
     7
370
     0
100
AcDbCircle
 10
197.3889986187
 20
122.3630995297
 30
0.0
 40
1.999999999999986
  0
LINE
  5
173
330
1F
100
AcDbEntity
  8
0
  6
HIDDEN
 62
     7
370
     0
100
AcDbLine
 10
223.5405734688
 20
122.3630995297
 30
0.0
 11
223.5405734688
 21
119.7623280503
 31
0.0
  0
LINE
  5
174
330
1F
100
AcDbEntity
  8
0
  6
HIDDEN
 62
     7
370
     0
100
AcDbLine
 10
225.5765164148
 20
98.9275037556
 30
0.0
 11
245.4761685936
 21
98.9275037556
 31
0.0
  0
SPLINE
  5
175
330
1F
100
AcDbEntity
  8
0
  6
HIDDEN
 62
     7
370
     0
100
AcDbSpline
210
0.0
220
0.0
230
1.0
 70
     8
 71
     3
 72
    10
 73
     6
 74
     0
 42
0.00000001
 43
0.00000001
 12
1.0
 22
0.0
 32
0.0
 13
1.0
 23
0.0
 33
0.0
 40
0.0
 40
0.0
 40
0.0
 40
0.0
 40
0.5
 40
0.5
 40
1.0
 40
1.0
 40
1.0
 40
1.0
 10
225.5765164148049
 20
98.92750375558221
 30
0.0
 10
225.065987783283
 20
102.1521892831301
 30
0.0
 10
224.6219100684956
 20
105.3862321998655
 30
0.0
 10
223.9355962179047
 20
111.8827406691945
 30
0.0
 10
223.6949437190608
 20
115.1454292240894
 30
0.0
 10
223.5875974570055
 20
118.4268895040419
 30
0.0
  0
LINE
  5
176
330
1F
100
AcDbEntity
  8
0
  6
HIDDEN
 62
     7
370
     0
100
AcDbLine
 10
245.4761685936
 20
98.9275037556
 30
0.0
 11
244.0106824676
 21
119.8191362728
 31
0.0
  0
LINE
  5
177
330
1F
100
AcDbEntity
  8
0
  6
HIDDEN
 62
     7
370
     0
100
AcDbLine
 10
209.3889986187
 20
106.6131207853
 30
0.0
 11
209.3889986187
 21
110.1130995297
 31
0.0
  0
LINE
  5
178
330
1F
100
AcDbEntity
  8
0
  6
HIDDEN
 62
     7
370
     0
100
AcDbLine
 10
203.3889986187
 20
110.1130995297
 30
0.0
 11
203.3889986187
 21
106.613212666
 31
0.0
  0
LINE
  5
179
330
1F
100
AcDbEntity
  8
0
  6
HIDDEN
 62
     7
370
     0
100
AcDbLine
 10
185.3889986187
 20
98.1130995297
 30
0.0
 11
185.4818918375
 21
98.2059927486
 31
0.0
  0
LINE
  5
17A
330
1F
100
AcDbEntity
  8
0
  6
HIDDEN
 62
     7
370
     0
100
AcDbLine
 10
185.4818918375
 20
146.5202063109
 30
0.0
 11
185.3889986187
 21
146.6130995297
 31
0.0
  0
ARC
  5
17B
330
1F
100
AcDbEntity
  8
0
  6
HIDDEN
 62
     7
370
     0
100
AcDbCircle
 10
184.7747850563
 20
98.9130995297
 30
0.0
 40
1.000000000000008
100
AcDbArc
 50
315.0
 51
0.0
  0
ARC
  5
17C
330
1F
100
AcDbEntity
  8
0
  6
HIDDEN
 62
     7
370
     0
100
AcDbCircle
 10
184.7747850563
 20
98.9130995297
 30
0.0
 40
1.0
100
AcDbArc
 50
0.0
 51
52.1052014664
  0
ARC
  5
17D
330
1F
100
AcDbEntity
  8
0
  6
HIDDEN
 62
     7
370
     0
100
AcDbCircle
 10
184.7747850563
 20
145.8130995297
 30
0.0
 40
1.000000000000006
100
AcDbArc
 50
351.8087250651
 51
45.0
  0
ARC
  5
17E
330
1F
100
AcDbEntity
  8
0
  6
HIDDEN
 62
     7
370
     0
100
AcDbCircle
 10
184.7747850563
 20
145.8130995297
 30
0.0
 40
1.000000000000016
100
AcDbArc
 50
307.8947985336
 51
351.8087250651
  0
LINE
  5
17F
330
1F
100
AcDbEntity
  8
0
  6
HIDDEN
 62
     7
370
     0
100
AcDbLine
 10
185.7747850563
 20
98.9130995297
 30
0.0
 11
185.7747850563
 21
145.8130995297
 31
0.0
  0
LINE
  5
180
330
1F
100
AcDbEntity
  8
0
  6
HIDDEN
 62
     7
370
     0
100
AcDbLine
 10
185.7747850563
 20
98.9130995297
 30
0.0
 11
185.7747850563
 21
145.8130995297
 31
0.0
  0
LINE
  5
181
330
1F
100
AcDbEntity
  8
0
  6
HIDDEN
 62
     7
370
     0
100
AcDbLine
 10
208.8889986187
 20
112.2103103838
 30
0.0
 11
208.8889986187
 21
117.8643243227
 31
0.0
  0
LINE
  5
182
330
1F
100
AcDbEntity
  8
0
  6
HIDDEN
 62
     7
370
     0
100
AcDbLine
 10
203.8889986187
 20
117.8640596948
 30
0.0
 11
203.8889986187
 21
110.2633146845
 31
0.0
  0
LINE
  5
183
330
1F
100
AcDbEntity
  8
0
  6
HIDDEN
 62
     7
370
     0
100
AcDbLine
 10
215.3076161766
 20
107.8888249329
 30
0.0
 11
208.0236927576
 21
113.5686301177
 31
0.0
  0
LINE
  5
184
330
1F
100
AcDbEntity
  8
0
  6
HIDDEN
 62
     7
370
     0
100
AcDbLine
 10
206.4495438742
 20
108.455671704
 30
0.0
 11
215.3841788165
 21
101.4886866122
 31
0.0
  0
LINE
  5
185
330
1F
100
AcDbEntity
  8
0
  6
HIDDEN
 62
     7
370
     0
100
AcDbLine
 10
147.3889986187
 20
106.1666706853
 30
0.0
 11
148.9192270583
 21
107.0501484868
 31
0.0
  0
LINE
  5
186
330
1F
100
AcDbEntity
  8
0
  6
HIDDEN
 62
     7
370
     0
100
AcDbLine
 10
148.9192270583
 20
137.6760505727
 30
0.0
 11
147.3889986187
 21
138.5595283742
 31
0.0
  0
ARC
  5
187
330
1F
100
AcDbEntity
  8
0
  6
HIDDEN
 62
     7
370
     0
100
AcDbCircle
 10
158.3907999336
 20
108.3630995297
 30
0.0
 40
2.000000000000016
100
AcDbArc
 50
270.0
 51
315.0
  0
ARC
  5
188
330
1F
100
AcDbEntity
  8
0
  6
HIDDEN
 62
     7
370
     0
100
AcDbCircle
 10
158.3907999336
 20
136.3630995297
 30
0.0
 40
2.0
100
AcDbArc
 50
45.0
 51
90.0
  0
LINE
  5
189
330
1F
100
AcDbEntity
  8
0
  6
HIDDEN
 62
     7
370
     0
100
AcDbLine
 10
157.3889986187
 20
106.3630995297
 30
0.0
 11
158.3907999336
 21
106.3630995297
 31
0.0
  0
LINE
  5
18A
330
1F
100
AcDbEntity
  8
0
  6
HIDDEN
 62
     7
370
     0
100
AcDbLine
 10
158.3907999336
 20
138.3630995297
 30
0.0
 11
157.3889986187
 21
138.3630995297
 31
0.0
  0
ARC
  5
18B
330
1F
100
AcDbEntity
  8
0
  6
HIDDEN
 62
     7
370
     0
100
AcDbCircle
 10
157.3889986187
 20
108.3630995297
 30
0.0
 40
2.000000000000001
100
AcDbArc
 50
189.9742217944
 51
270.0
  0
ARC
  5
18C
330
1F
100
AcDbEntity
  8
0
  6
HIDDEN
 62
     7
370
     0
100
AcDbCircle
 10
157.3889986187
 20
136.3630995297
 30
0.0
 40
2.000000000000027
100
AcDbArc
 50
90.0
 51
170.0257782056
  0
LINE
  5
18D
330
1F
100
AcDbEntity
  8
0
  6
HIDDEN
 62
     7
370
     0
100
AcDbLine
 10
159.805013496
 20
106.9488859674
 30
0.0
 11
161.2192270583
 21
108.3630995297
 31
0.0
  0
LINE
  5
18E
330
1F
100
AcDbEntity
  8
0
  6
HIDDEN
 62
     7
370
     0
100
AcDbLine
 10
161.2192270583
 20
136.3630995297
 30
0.0
 11
159.805013496
 21
137.7773130921
 31
0.0
  0
LINE
  5
18F
330
1F
100
AcDbEntity
  8
0
  6
HIDDEN
 62
     7
370
     0
100
AcDbLine
 10
148.9192270583
 20
107.0501484868
 30
0.0
 11
153.8192270583
 21
108.3630995297
 31
0.0
  0
LINE
  5
190
330
1F
100
AcDbEntity
  8
0
  6
HIDDEN
 62
     7
370
     0
100
AcDbLine
 10
153.8192270583
 20
136.3630995297
 30
0.0
 11
148.9192270583
 21
137.6760505727
 31
0.0
  0
LINE
  5
191
330
1F
100
AcDbEntity
  8
0
  6
HIDDEN
 62
     7
370
     0
100
AcDbLine
 10
155.4192270583
 20
136.7095096913
 30
0.0
 11
154.8192270583
 21
136.3630995297
 31
0.0
  0
LINE
  5
192
330
1F
100
AcDbEntity
  8
0
  6
HIDDEN
 62
     7
370
     0
100
AcDbLine
 10
154.8192270583
 20
108.3630995297
 30
0.0
 11
155.4192270583
 21
108.0166893682
 31
0.0
  0
ARC
  5
193
330
1F
100
AcDbEntity
  8
0
  6
HIDDEN
 62
     7
370
     0
100
AcDbCircle
 10
173.8889986187
 20
108.8630995297
 30
0.0
 40
0.5
100
AcDbArc
 50
270.0
 51
0.0
  0
ARC
  5
194
330
1F
100
AcDbEntity
  8
0
  6
HIDDEN
 62
     7
370
     0
100
AcDbCircle
 10
173.8889986187
 20
135.8630995297
 30
0.0
 40
0.5
100
AcDbArc
 50
0.0
 51
90.0
  0
LINE
  5
195
330
1F
100
AcDbEntity
  8
0
  6
HIDDEN
 62
     7
370
     0
100
AcDbLine
 10
153.8192270583
 20
108.3630995297
 30
0.0
 11
154.8192270583
 21
108.3630995297
 31
0.0
  0
LINE
  5
196
330
1F
100
AcDbEntity
  8
0
  6
HIDDEN
 62
     7
370
     0
100
AcDbLine
 10
154.8192270583
 20
136.3630995297
 30
0.0
 11
153.8192270583
 21
136.3630995297
 31
0.0
  0
LINE
  5
197
330
1F
100
AcDbEntity
  8
0
  6
HIDDEN
 62
     7
370
     0
100
AcDbLine
 10
161.2192270583
 20
108.3630995297
 30
0.0
 11
173.8889986187
 21
108.3630995297
 31
0.0
  0
LINE
  5
198
330
1F
100
AcDbEntity
  8
0
  6
HIDDEN
 62
     7
370
     0
100
AcDbLine
 10
173.8889986187
 20
136.3630995297
 30
0.0
 11
161.2192270583
 21
136.3630995297
 31
0.0
  0
LINE
  5
199
330
1F
100
AcDbEntity
  8
0
  6
HIDDEN
 62
     7
370
     0
100
AcDbLine
 10
174.3889986187
 20
112.1130995297
 30
0.0
 11
175.6389986187
 21
113.3630995297
 31
0.0
  0
LINE
  5
19A
330
1F
100
AcDbEntity
  8
0
  6
HIDDEN
 62
     7
370
     0
100
AcDbLine
 10
175.6389986187
 20
131.3630995297
 30
0.0
 11
174.3889986187
 21
132.6130995297
 31
0.0
  0
LINE
  5
19B
330
1F
100
AcDbEntity
  8
0
  6
HIDDEN
 62
     7
370
     0
100
AcDbLine
 10
212.3889986187
 20
131.3630995297
 30
0.0
 11
175.6389986187
 21
131.3630995297
 31
0.0
  0
LINE
  5
19C
330
1F
100
AcDbEntity
  8
0
  6
HIDDEN
 62
     7
370
     0
100
AcDbLine
 10
175.6389986187
 20
113.3630995297
 30
0.0
 11
212.3889986187
 21
113.3630995297
 31
0.0
  0
LINE
  5
19D
330
1F
100
AcDbEntity
  8
0
  6
HIDDEN
 62
     7
370
     0
100
AcDbLine
 10
212.3889986187
 20
113.3630995297
 30
0.0
 11
217.7967441899
 21
122.3630995297
 31
0.0
  0
LINE
  5
19E
330
1F
100
AcDbEntity
  8
0
  6
HIDDEN
 62
     7
370
     0
100
AcDbLine
 10
217.7967441899
 20
122.3630995297
 30
0.0
 11
212.3889986187
 21
131.3630995297
 31
0.0
  0
LINE
  5
19F
330
1F
100
AcDbEntity
  8
0
  6
HIDDEN
 62
     7
370
     0
100
AcDbLine
 10
237.8234968996
 20
102.7768957088
 30
0.0
 11
238.3021742899
 21
101.9860478775
 31
0.0
  0
LINE
  5
1A0
330
1F
100
AcDbEntity
  8
0
  6
HIDDEN
 62
     7
370
     0
100
AcDbLine
 10
244.2906535947
 20
105.6107017391
 30
0.0
 11
243.8119762043
 21
106.4015495704
 31
0.0
  0
LINE
  5
1A1
330
1F
100
AcDbEntity
  8
0
  6
HIDDEN
 62
     7
370
     0
100
AcDbLine
 10
232.476954142
 20
98.9997872526
 30
0.0
 11
233.4407065734
 21
97.4075216983
 31
0.0
  0
LINE
  5
1A2
330
1F
100
AcDbEntity
  8
0
  6
HIDDEN
 62
     7
370
     0
100
AcDbLine
 10
244.8382761031
 20
95.3843785898
 30
0.0
 11
243.0753527558
 21
102.7678237754
 31
0.0
  0
LINE
  5
1A3
330
1F
100
AcDbEntity
  8
0
  6
HIDDEN
 62
     7
370
     0
100
AcDbLine
 10
233.7197537091
 20
108.2050502085
 30
0.0
 11
237.1806840431
 21
102.4870670652
 31
0.0
  0
LINE
  5
1A4
330
1F
100
AcDbEntity
  8
0
  6
HIDDEN
 62
     7
370
     0
100
AcDbLine
 10
244.3668592088
 20
106.8366516991
 30
0.0
 11
240.9059288748
 21
112.5546348424
 31
0.0
  0
LINE
  5
1A5
330
1F
100
AcDbEntity
  8
0
  6
HIDDEN
 62
     7
370
     0
100
AcDbLine
 10
245.2294589102
 20
91.8735437347
 30
0.0
 11
244.6440995159
 21
92.8406464575
 31
0.0
  0
LINE
  5
1A6
330
1F
100
AcDbEntity
  8
0
  6
HIDDEN
 62
     7
370
     0
100
AcDbLine
 10
239.1689184373
 20
89.5266772126
 30
0.0
 11
239.7542778316
 21
88.5595744898
 31
0.0
  0
LINE
  5
1A7
330
1F
100
AcDbEntity
  8
0
  6
HIDDEN
 62
     7
370
     0
100
AcDbLine
 10
238.0782052284
 20
97.9007506706
 30
0.0
 11
239.3861434202
 21
92.4228664732
 31
0.0
  0
LINE
  5
1A8
330
1F
100
AcDbEntity
  8
VERMASSUNG
  6
CENTERX2
100
AcDbLine
 10
250.3889986187
 20
77.3630995297
 30
0.0
 11
267.9911393965
 21
77.3630995297
 31
0.0
  0
LINE
  5
1A9
330
1F
100
AcDbEntity
  8
VERMASSUNG
  6
CENTERX2
100
AcDbLine
 10
250.3889986187
 20
77.3630995297
 30
0.0
 11
250.3889986187
 21
122.3630995297
 31
0.0
  0
LINE
  5
1AA
330
1F
100
AcDbEntity
  8
VERMASSUNG
  6
CENTERX2
100
AcDbLine
 10
143.1323178943
 20
122.3630995297
 30
0.0
 11
250.3889986187
 21
122.3630995297
 31
0.0
  0
DIMENSION
  5
1AB
330
1F
100
AcDbEntity
  8
VERMASSUNG
100
AcDbDimension
  2
_D
 10
250.3889986187
 20
63.377229401
 30
0.0
 11
198.8889986187
 21
63.377229401
 31
0.0
 70
   160
  1
<>
 71
     2
 42
-1.0
  3
SLDDIMSTYLE0
100
AcDbAlignedDimension
 13
147.3889986187
 23
102.0707615372
 33
0.0
 14
250.3889986187
 24
77.3630995297
 34
0.0
100
AcDbRotatedDimension
  0
DIMENSION
  5
1B6
330
1F
100
AcDbEntity
  8
VERMASSUNG
100
AcDbDimension
  2
_D_1
 10
250.3889986187
 20
72.6007055286
 30
0.0
 11
217.8889986187
 21
72.6007055286
 31
0.0
 70
   160
  1
<>
 71
     2
 42
-1.0
  3
SLDDIMSTYLE1
100
AcDbAlignedDimension
 13
185.3889986187
 23
91.3630995297
 33
0.0
 14
250.3889986187
 24
77.3630995297
 34
0.0
100
AcDbRotatedDimension
  0
DIMENSION
  5
1C3
330
1F
100
AcDbEntity
  8
VERMASSUNG
100
AcDbDimension
  2
_D_2
 10
268.6632249961
 20
77.3630995297
 30
0.0
 11
268.6632249961
 21
99.8630995297
 31
0.0
 70
   160
  1
<>
 71
     2
 42
-1.0
  3
SLDDIMSTYLE1
100
AcDbAlignedDimension
 13
250.3889986187
 23
122.3630995297
 33
0.0
 14
267.9911393965
 24
77.3630995297
 34
0.0
 50
90.0
100
AcDbRotatedDimension
  0
DIMENSION
  5
1CF
330
1F
100
AcDbEntity
  8
VERMASSUNG
100
AcDbDimension
  2
_D_3
 10
250.3894987202
 20
77.7832294285
 30
0.0
 11
258.5863392163
 21
85.9822019318
 31
0.0
 70
   162
  1
<>
 71
     1
 42
-1.0
  3
SLDDIMSTYLE2
100
AcDb2LineAngularDimension
 13
250.3889986187
 23
77.3630995297
 33
0.0
 14
267.9911393965
 24
77.3630995297
 34
0.0
 15
249.6333678753
 25
92.056339109
 35
0.0
 16
258.5863392163
 26
85.9822019318
 36
0.0
  0
DIMENSION
  5
1D8
330
1F
100
AcDbEntity
  8
VERMASSUNG
100
AcDbDimension
  2
_D_4
 10
135.1139984429
 20
90.8630995297
 30
0.0
 11
135.1139984429
 21
122.3630995297
 31
0.0
 70
   160
  1
PSC%%c<>
 71
     2
 42
-1.0
  3
SLDDIMSTYLE0
100
AcDbAlignedDimension
 13
185.8889986187
 23
153.8630995297
 33
0.0
 14
185.8889986187
 24
90.8630995297
 34
0.0
 50
90.0
100
AcDbRotatedDimension
  0
LINE
  5
1E4
330
1F
100
AcDbEntity
  8
0
  6
Continuous
 62
     7
370
    15
100
AcDbLine
 10
75.1485936213
 20
78.9769344771
 30
0.0
 11
77.8608261477
 21
79.4551760697
 31
0.0
  0
LINE
  5
1E5
330
1F
100
AcDbEntity
  8
0
  6
Continuous
 62
     7
370
    15
100
AcDbLine
 10
77.8706841972
 20
79.4625372434
 30
0.0
 11
78.1094557475
 21
79.8075810814
 31
0.0
  0
LINE
  5
1E6
330
1F
100
AcDbEntity
  8
0
  6
Continuous
 62
     7
370
    15
100
AcDbLine
 10
68.9789636505
 20
77.3614399874
 30
0.0
 11
75.1982354429
 21
78.4580648685
 31
0.0
  0
LINE
  5
1E7
330
1F
100
AcDbEntity
  8
0
  6
Continuous
 62
     7
370
    15
100
AcDbLine
 10
67.9161033928
 20
81.546114459
 30
0.0
 11
68.3577676406
 21
81.0093560064
 31
0.0
  0
LINE
  5
1E8
330
1F
100
AcDbEntity
  8
0
  6
Continuous
 62
     7
370
    15
100
AcDbLine
 10
64.8961732965
 20
96.2491237366
 30
0.0
 11
64.6630017888
 21
95.5887899542
 31
0.0
  0
LINE
  5
1E9
330
1F
100
AcDbEntity
  8
0
  6
Continuous
 62
     7
370
    15
100
AcDbLine
 10
63.9530462083
 20
99.8356935376
 30
0.0
 11
63.6376212221
 21
99.7800749534
 31
0.0
  0
LINE
  5
1EA
330
1F
100
AcDbEntity
  8
0
  6
Continuous
 62
     7
370
    15
100
AcDbLine
 10
74.9601805452
 20
80.012282058
 30
0.0
 11
72.6246735882
 21
92.8460878128
 31
0.0
  0
ARC
  5
1EB
330
1F
100
AcDbEntity
  8
0
  6
Continuous
 62
     7
370
    15
100
AcDbCircle
 10
75.2591686233
 20
79.7882189474
 30
0.0
 40
2.622887613481128
100
AcDbArc
 50
352.7051381754
 51
15.9651098594
  0
LINE
  5
1EC
330
1F
100
AcDbEntity
  8
0
  6
Continuous
 62
     7
370
    15
100
AcDbLine
 10
77.7808897998
 20
80.509649291
 30
0.0
 11
75.4453823771
 21
93.3434550458
 31
0.0
  0
ARC
  5
1ED
330
1F
100
AcDbEntity
  8
0
  6
Continuous
 62
     7
370
    15
100
AcDbCircle
 10
75.9857727639
 20
79.9946497805
 30
0.0
 40
2.131906215857567
100
AcDbArc
 50
354.9659844161
 51
14.8367472425
  0
LINE
  5
1EE
330
1F
100
AcDbEntity
  8
0
  6
Continuous
 62
     7
370
    15
100
AcDbLine
 10
75.7110928986
 20
93.3743637794
 30
0.0
 11
78.0465998557
 21
80.5405580246
 31
0.0
  0
ARC
  5
1EF
330
1F
100
AcDbEntity
  8
0
  6
Continuous
 62
     7
370
    15
100
AcDbCircle
 10
69.7310084554
 20
92.3832138542
 30
0.0
 40
5.794491562080368
100
AcDbArc
 50
9.538843192
 51
17.2571967542
  0
ARC
  5
1F0
330
1F
100
AcDbEntity
  8
0
  6
Continuous
 62
     7
370
    15
100
AcDbCircle
 10
71.8039447988
 20
92.7216402572
 30
0.0
 40
3.961294519484112
100
AcDbArc
 50
9.4841818723
 51
17.5624995348
  0
LINE
  5
1F1
330
1F
100
AcDbEntity
  8
0
  6
Continuous
 62
     7
370
    15
100
AcDbLine
 10
75.5002903622
 20
94.1437666112
 30
0.0
 11
75.5805969108
 21
93.9169448608
 31
0.0
  0
LWPOLYLINE
  5
1F2
330
1F
100
AcDbEntity
  8
0
  6
Continuous
 62
     7
370
    15
100
AcDbPolyline
 90
       31
 70
   128
 43
0.0
 10
64.1419002656
 20
100.5625144386
 10
64.0167859253
 20
100.8804437512
 10
63.8780826572
 20
101.3259027892
 10
63.7318529058
 20
101.8794194603
 10
63.5844874065
 20
102.5168035918
 10
63.4424267206
 20
103.2101993257
 10
63.3118795101
 20
103.9292995626
 10
63.1985519882
 20
104.6426796162
 10
63.1073964629
 20
105.3191588068
 10
63.0423966665
 20
105.9291713679
 10
63.0063940641
 20
106.4460591221
 10
63.0009616595
 20
106.8472300464
 10
63.0263374057
 20
107.1151519933
 10
63.0814111661
 20
107.2381145129
 10
63.1637773346
 20
107.2107429424
 10
63.2698354181
 20
107.0342358941
 10
63.3949497584
 20
106.7163047189
 10
63.5336530265
 20
106.2708475435
 10
63.6798827779
 20
105.7173308724
 10
63.8272482772
 20
105.0799467409
 10
63.9693089631
 20
104.386551007
 10
64.099855708
 20
103.6674489075
 10
64.2131836955
 20
102.9540707165
 10
64.3043392208
 20
102.2775915259
 10
64.3693385515
 20
101.6675771022
 10
64.4053416196
 20
101.150689348
 10
64.4107735586
 20
100.7495184237
 10
64.385398278
 20
100.4815974081
 10
64.3303240519
 20
100.3586348885
 10
64.2479583491
 20
100.386006459
 10
64.1419002656
 20
100.5625144386
  0
LWPOLYLINE
  5
1F3
330
1F
100
AcDbEntity
  8
0
  6
Continuous
 62
     7
370
    15
100
AcDbPolyline
 90
       24
 70
   128
 43
0.0
 10
63.955028994
 20
101.9493114942
 10
63.8600806575
 20
102.2011969978
 10
63.7536947485
 20
102.5715374196
 10
63.6437618975
 20
103.0328661942
 10
63.5384353679
 20
103.5509702557
 10
63.4455261622
 20
104.0874213719
 10
63.3719256017
 20
104.6024371678
 10
63.3230917025
 20
105.0578185165
 10
63.3026468437
 20
105.4197937989
 10
63.3121067528
 20
105.6615148479
 10
63.3507701438
 20
105.7650555664
 10
63.4157694746
 20
105.7227362686
 10
63.5022842195
 20
105.5376955116
 10
63.6038980316
 20
105.2236591274
 10
63.7130741831
 20
104.8039139056
 10
63.8217157554
 20
104.30959396
 10
63.9217658769
 20
103.7773580098
 10
64.0058033038
 20
103.2466810936
 10
64.067596091
 20
102.7569209033
 10
64.1025612
 20
102.3444008821
 10
64.1081053633
 20
102.0397149766
 10
64.0838174019
 20
101.8654626602
 10
64.0314984936
 20
101.8345632398
 10
63.955028994
 20
101.9493114942
  0
LINE
  5
1F4
330
1F
100
AcDbEntity
  8
0
  6
Continuous
 62
     7
370
    15
100
AcDbLine
 10
63.7643644456
 20
104.5705281937
 30
0.0
 11
63.6931820642
 21
104.4330798829
 31
0.0
  0
LINE
  5
1F5
330
1F
100
AcDbEntity
  8
0
  6
Continuous
 62
     7
370
    15
100
AcDbLine
 10
64.0671788585
 20
102.7608063811
 30
0.0
 11
64.017612474
 21
102.7520668501
 31
0.0
  0
LINE
  5
1F6
330
1F
100
AcDbEntity
  8
0
  6
Continuous
 62
     7
370
    15
100
AcDbLine
 10
63.792437302
 20
104.4505812967
 30
0.0
 11
63.6931820642
 21
104.4330798829
 31
0.0
  0
ELLIPSE
  5
1F7
330
1F
100
AcDbEntity
  8
0
  6
Continuous
 62
     7
370
    15
100
AcDbEllipse
 10
66.5056381313
 20
89.2849361123
 30
0.0
 11
-0.4087148498875592
 21
2.317396459798914
 31
0.0
210
0.0
220
0.0
230
1.0
 40
0.1043907487
 41
1.495770736006617
 42
2.73057343570358
  0
LINE
  5
1F8
330
1F
100
AcDbEntity
  8
0
  6
Continuous
 62
     7
370
    15
100
AcDbLine
 10
63.6695958544
 20
99.35828641
 30
0.0
 11
66.2670289036
 21
85.0851774955
 31
0.0
  0
LWPOLYLINE
  5
1F9
330
1F
100
AcDbEntity
  8
0
  6
Continuous
 62
     7
370
    15
100
AcDbPolyline
 90
        9
 70
   128
 43
0.0
 10
63.6699958574
 20
99.7240652138
 10
63.6520474088
 20
99.7661442304
 10
63.6381660458
 20
99.7801364207
 10
63.6293785516
 20
99.7650098795
 10
63.6263340581
 20
99.7218840563
 10
63.629257014
 20
99.6539422119
 10
63.6379322838
 20
99.5662079
 10
63.6517181862
 20
99.4651668513
 10
63.6695958544
 20
99.35828641
  0
LINE
  5
1FA
330
1F
100
AcDbEntity
  8
0
  6
Continuous
 62
     7
370
    15
100
AcDbLine
 10
66.2749868222
 20
92.3663859063
 30
0.0
 11
63.6699958574
 21
99.7240652138
 31
0.0
  0
ARC
  5
1FB
330
1F
100
AcDbEntity
  8
0
  6
Continuous
 62
     7
370
    15
100
AcDbCircle
 10
64.1168394921
 20
91.6833404955
 30
0.0
 40
2.263658748929612
100
AcDbArc
 50
9.4842780101
 51
17.5623810373
  0
LINE
  5
1FC
330
1F
100
AcDbEntity
  8
0
  6
Continuous
 62
     7
370
    15
100
AcDbLine
 10
68.9469889054
 20
77.7832285309
 30
0.0
 11
66.3495559581
 21
92.056339308
 31
0.0
  0
LWPOLYLINE
  5
1FD
330
1F
100
AcDbEntity
  8
0
  6
Continuous
 62
     7
370
    15
100
AcDbPolyline
 90
        9
 70
   128
 43
0.0
 10
68.9465891352
 20
77.4174497271
 10
68.9645376785
 20
77.3753725731
 10
68.9784187213
 20
77.3613766575
 10
68.9872063282
 20
77.3765050614
 10
68.9902510036
 20
77.4196327472
 10
68.9873277167
 20
77.4875745916
 10
68.9786525306
 20
77.5753051782
 10
68.9648666245
 20
77.6763499522
 10
68.9469889054
 20
77.7832285309
  0
LINE
  5
1FE
330
1F
100
AcDbEntity
  8
0
  6
Continuous
 62
     7
370
    15
100
AcDbLine
 10
66.3415980395
 20
84.7751290345
 30
0.0
 11
68.9465891352
 21
77.4174497271
 31
0.0
  0
ARC
  5
1FF
330
1F
100
AcDbEntity
  8
0
  6
Continuous
 62
     7
370
    15
100
AcDbCircle
 10
68.4997533866
 20
85.4581741327
 30
0.0
 40
2.263666297881838
100
AcDbArc
 50
189.4841902669
 51
197.5623122628
  0
LWPOLYLINE
  5
200
330
1F
100
AcDbEntity
  8
0
  6
Continuous
 62
     7
370
    15
100
AcDbPolyline
 90
        9
 70
   128
 43
0.0
 10
68.9447348938
 20
77.4343439186
 10
68.9617860132
 20
77.3943715537
 10
68.9749730024
 20
77.3810759926
 10
68.9833212288
 20
77.3954481626
 10
68.986213673
 20
77.4364189053
 10
68.9834365491
 20
77.500963285
 10
68.9751951228
 20
77.5843092048
 10
68.9620985083
 20
77.6802987599
 10
68.9451146842
 20
77.7818352723
  0
LINE
  5
201
330
1F
100
AcDbEntity
  8
0
  6
Continuous
 62
     7
370
    15
100
AcDbLine
 10
68.9451146842
 20
77.7818352723
 30
0.0
 11
66.3476819042
 21
92.0549460495
 31
0.0
  0
ARC
  5
202
330
1F
100
AcDbEntity
  8
0
  6
Continuous
 62
     7
370
    15
100
AcDbCircle
 10
64.2266498649
 20
91.7006068689
 30
0.0
 40
2.150426275565897
100
AcDbArc
 50
9.4842367081
 51
17.5625149059
  0
LINE
  5
203
330
1F
100
AcDbEntity
  8
0
  6
Continuous
 62
     7
370
    15
100
AcDbLine
 10
66.2768410854
 20
92.3494898522
 30
0.0
 11
63.6718501207
 21
99.7071691597
 31
0.0
  0
LWPOLYLINE
  5
204
330
1F
100
AcDbEntity
  8
0
  6
Continuous
 62
     7
370
    15
100
AcDbPolyline
 90
        9
 70
   128
 43
0.0
 10
63.6718501207
 20
99.7071691597
 10
63.6547990013
 20
99.7471433872
 10
63.6416119393
 20
99.7604370856
 10
63.6332635637
 20
99.7460686409
 10
63.6303713415
 20
99.7050960356
 10
63.6331480797
 20
99.6405516559
 10
63.6413898189
 20
99.557205736
 10
63.6544865426
 20
99.4612161809
 10
63.671470141
 20
99.3596796685
  0
LINE
  5
205
330
1F
100
AcDbEntity
  8
0
  6
Continuous
 62
     7
370
    15
100
AcDbLine
 10
63.671470141
 20
99.3596796685
 30
0.0
 11
66.2689029574
 21
85.0865707541
 31
0.0
  0
ARC
  5
206
330
1F
100
AcDbEntity
  8
0
  6
Continuous
 62
     7
370
    15
100
AcDbCircle
 10
68.389854717
 20
85.4408906265
 30
0.0
 40
2.150343911669285
100
AcDbArc
 50
189.4840817415
 51
197.5626698725
  0
LINE
  5
207
330
1F
100
AcDbEntity
  8
0
  6
Continuous
 62
     7
370
    15
100
AcDbLine
 10
66.3397437763
 20
84.7920269513
 30
0.0
 11
68.9447348938
 21
77.4343439186
 31
0.0
  0
LINE
  5
208
330
1F
100
AcDbEntity
  8
0
  6
Continuous
 62
     7
370
    15
100
AcDbLine
 10
75.1662608106
 20
78.8798534119
 30
0.0
 11
72.5688277613
 21
93.1529641891
 31
0.0
  0
LINE
  5
209
330
1F
100
AcDbEntity
  8
0
  6
Continuous
 62
     7
370
    15
100
AcDbLine
 10
67.8578080712
 20
82.5874374056
 30
0.0
 11
66.4041186553
 21
90.5755811179
 31
0.0
  0
LINE
  5
20A
330
1F
100
AcDbEntity
  8
0
  6
Continuous
 62
     7
370
    15
100
AcDbLine
 10
64.7587766741
 20
94.5540756726
 30
0.0
 11
66.2124662064
 21
86.5659319603
 31
0.0
  0
LWPOLYLINE
  5
20B
330
1F
100
AcDbEntity
  8
0
  6
Continuous
 62
     7
370
    15
100
AcDbPolyline
 90
        9
 70
   128
 43
0.0
 10
64.7597759832
 20
95.4685264075
 10
64.7149048615
 20
95.5737211549
 10
64.6802023854
 20
95.6087034935
 10
64.6582334172
 20
95.5708880717
 10
64.6506217178
 20
95.4630707198
 10
64.657929806
 20
95.2932161087
 10
64.6796175148
 20
95.0738821918
 10
64.7140825037
 20
94.8212795699
 10
64.7587766741
 20
94.5540756726
  0
LINE
  5
20C
330
1F
100
AcDbEntity
  8
0
  6
Continuous
 62
     7
370
    15
100
AcDbLine
 10
66.2176955827
 20
91.350698545
 30
0.0
 11
64.7597759832
 21
95.4685264075
 31
0.0
  0
ARC
  5
20D
330
1F
100
AcDbEntity
  8
0
  6
Continuous
 62
     7
370
    15
100
AcDbCircle
 10
60.822574678
 20
89.6431439685
 30
0.0
 40
5.658893196294893
100
AcDbArc
 50
9.4840923934
 51
17.5625678892
  0
LWPOLYLINE
  5
20E
330
1F
100
AcDbEntity
  8
0
  6
Continuous
 62
     7
370
    15
100
AcDbPolyline
 90
        9
 70
   128
 43
0.0
 10
67.8568086457
 20
81.672990396
 10
67.9016800001
 20
81.5677919233
 10
67.9363825927
 20
81.5328114474
 10
67.9583516773
 20
81.5706268692
 10
67.9659633767
 20
81.678444221
 10
67.9586550556
 20
81.8482988322
 10
67.936967114
 20
82.0676327491
 10
67.902502358
 20
82.3202372336
 10
67.8578080712
 20
82.5874374056
  0
LINE
  5
20F
330
1F
100
AcDbEntity
  8
0
  6
Continuous
 62
     7
370
    15
100
AcDbLine
 10
66.398889279
 20
85.7908182585
 30
0.0
 11
67.8568086457
 21
81.672990396
 31
0.0
  0
ARC
  5
210
330
1F
100
AcDbEntity
  8
0
  6
Continuous
 62
     7
370
    15
100
AcDbCircle
 10
71.7940745769
 20
87.4983928037
 30
0.0
 40
5.658960613585119
100
AcDbArc
 50
189.4842215835
 51
197.5625639144
  0
LWPOLYLINE
  5
211
330
1F
100
AcDbEntity
  8
0
  6
Continuous
 62
     7
370
    15
100
AcDbPolyline
 90
       27
 70
   128
 43
0.0
 10
66.5474890135
 20
86.3912158453
 10
66.6512555778
 20
86.1418337369
 10
66.7350902092
 20
86.0336140537
 10
66.7941209264
 20
86.0728413606
 10
66.8249172028
 20
86.2572395051
 10
66.8256890364
 20
86.576090827
 10
66.7963914909
 20
87.0108620071
 10
66.7387277223
 20
87.536291852
 10
66.6560483966
 20
88.1218404317
 10
66.5531586725
 20
88.7334772193
 10
66.4360383395
 20
89.3356592202
 10
66.3114939686
 20
89.893387332
 10
66.186763566
 20
90.3742478037
 10
66.0690958481
 20
90.7502972329
 10
65.9653292839
 20
90.9996793413
 10
65.8814946525
 20
91.1079027498
 10
65.8224639353
 20
91.0686754429
 10
65.7916676588
 20
90.8842772985
 10
65.7908958253
 20
90.5654259765
 10
65.8201933708
 20
90.1306510711
 10
65.8778571393
 20
89.6052212262
 10
65.9605364651
 20
89.0196726465
 10
66.0634261891
 20
88.4080358589
 10
66.1805465222
 20
87.805853858
 10
66.3050908931
 20
87.2481257463
 10
66.4298212957
 20
86.7672652745
 10
66.5474890135
 20
86.3912158453
  0
LINE
  5
212
330
1F
100
AcDbEntity
  8
0
  6
Continuous
 62
     7
370
    15
100
AcDbLine
 10
66.5937694591
 20
85.2403842652
 30
0.0
 11
66.5193898473
 21
85.1509325945
 31
0.0
  0
ARC
  5
213
330
1F
100
AcDbEntity
  8
0
  6
Continuous
 62
     7
370
    15
100
AcDbCircle
 10
74.1576020801
 20
78.5912835345
 30
0.0
 40
1.049125830722309
100
AcDbArc
 50
352.7048505194
 51
15.96543793
  0
ARC
  5
214
330
1F
100
AcDbEntity
  8
0
  6
Continuous
 62
     7
370
    15
100
AcDbCircle
 10
70.3361695774
 20
92.7799777732
 30
0.0
 40
2.26359922089391
100
AcDbArc
 50
9.4842115979
 51
17.5625287969
  0
LINE
  5
215
330
1F
100
AcDbEntity
  8
0
  6
Continuous
 62
     7
370
    15
100
AcDbLine
 10
72.4942583926
 20
93.4630107874
 30
0.0
 11
72.4440344945
 21
93.6048661166
 31
0.0
  0
LINE
  5
216
330
1F
100
AcDbEntity
  8
0
  6
Continuous
 62
     7
370
    15
100
AcDbLine
 10
78.153910568
 20
79.8924171174
 30
0.0
 11
78.1016950365
 21
80.1793427014
 31
0.0
  0
LINE
  5
217
330
1F
100
AcDbEntity
  8
0
  6
Continuous
 62
     7
370
    15
100
AcDbLine
 10
75.6372553166
 20
93.7216446543
 30
0.0
 11
75.5585674066
 21
94.1540428245
 31
0.0
  0
LINE
  5
218
330
1F
100
AcDbEntity
  8
0
  6
Continuous
 62
     7
370
    15
100
AcDbLine
 10
75.5585674066
 20
94.1540428245
 30
0.0
 11
66.5283808354
 21
92.5617773825
 31
0.0
  0
LINE
  5
219
330
1F
100
AcDbEntity
  8
0
  6
Continuous
 62
     7
370
    15
100
AcDbLine
 10
62.7949922215
 20
113.0770562956
 30
0.0
 11
66.5283808354
 21
92.5617773825
 31
0.0
  0
LINE
  5
21A
330
1F
100
AcDbEntity
  8
0
  6
Continuous
 62
     7
370
    15
100
AcDbLine
 10
101.0312274899
 20
119.8191362707
 30
0.0
 11
62.7949922215
 21
113.0770562956
 31
0.0
  0
LINE
  5
21B
330
1F
100
AcDbEntity
  8
0
  6
Continuous
 62
     7
370
    15
100
AcDbLine
 10
101.0312274899
 20
98.9275031531
 30
0.0
 11
101.0312274899
 21
119.8191362707
 31
0.0
  0
ARC
  5
21C
330
1F
100
AcDbEntity
  8
0
  6
Continuous
 62
     7
370
    15
100
AcDbCircle
 10
65.03122597
 20
116.3630995297
 30
0.0
 40
40.00000000000001
100
AcDbArc
 50
297.2763438674
 51
334.1580672368
  0
LINE
  5
21D
330
1F
100
AcDbEntity
  8
0
  6
Continuous
 62
     7
370
    15
100
AcDbLine
 10
78.153910568
 20
79.8924171174
 30
0.0
 11
83.3625313696
 21
80.8108390117
 31
0.0
  0
LWPOLYLINE
  5
21E
330
1F
100
AcDbEntity
  8
0
  6
Continuous
 62
     7
370
    15
100
AcDbPolyline
 90
       31
 70
   128
 43
0.0
 10
63.0980990697
 20
107.2452018777
 10
63.1862892639
 20
107.1830891812
 10
63.2971874308
 20
106.9730480009
 10
63.425946502
 20
106.6242583835
 10
63.5669398923
 20
106.1519642168
 10
63.71400504
 20
105.5768054718
 10
63.8607144225
 20
104.9239222699
 10
64.0006563496
 20
104.2218466097
 10
64.1277148258
 20
103.5012637073
 10
64.2363363747
 20
102.7936671668
 10
64.3217735794
 20
102.1299787605
 10
64.3802932333
 20
101.5392091864
 10
64.4093369935
 20
101.0471747065
 10
64.4076359328
 20
100.6753814214
 10
64.3752640914
 20
100.440077185
 10
64.313636614
 20
100.3515475237
 10
64.2254464198
 20
100.4136611515
 10
64.1145482529
 20
100.6237023318
 10
63.985788716
 20
100.9724919492
 10
63.8447953258
 20
101.4447861159
 10
63.6977306437
 20
102.0199429983
 10
63.5510207955
 20
102.6728262001
 10
63.4110788684
 20
103.3749018604
 10
63.2840208579
 20
104.0954847628
 10
63.175399309
 20
104.8030831659
 10
63.0899616387
 20
105.4667697096
 10
63.0314424504
 20
106.0575411463
 10
63.0023986902
 20
106.5495756263
 10
63.0040997509
 20
106.9213689113
 10
63.0364715923
 20
107.1566722164
 10
63.0980990697
 20
107.2452018777
  0
SPLINE
  5
21F
330
1F
100
AcDbEntity
  8
0
  6
Continuous
 62
     7
370
    15
100
AcDbSpline
210
0.0
220
0.0
230
1.0
 70
     8
 71
     3
 72
     8
 73
     4
 74
     0
 42
0.00000001
 43
0.00000001
 12
1.0
 22
0.0
 32
0.0
 13
1.0
 23
0.0
 33
0.0
 40
0.0
 40
0.0
 40
0.0
 40
0.0
 40
1.0
 40
1.0
 40
1.0
 40
1.0
 10
64.45403018652958
 20
89.05973965918801
 30
0.0
 10
64.35673902264398
 20
89.53697550662068
 30
0.0
 10
64.25946477911856
 20
90.01429041944267
 30
0.0
 10
64.16220971361517
 20
90.49169494724701
 30
0.0
  0
SPLINE
  5
220
330
1F
100
AcDbEntity
  8
0
  6
Continuous
 62
     7
370
    15
100
AcDbSpline
210
0.0
220
0.0
230
1.0
 70
     8
 71
     3
 72
    12
 73
     8
 74
     0
 42
0.00000001
 43
0.00000001
 12
1.0
 22
0.0
 32
0.0
 13
1.0
 23
0.0
 33
0.0
 40
0.0
 40
0.0
 40
0.0
 40
0.0
 40
0.2499999999999987
 40
0.2499999999999987
 40
0.4999999999999973
 40
0.4999999999999973
 40
1.0
 40
1.0
 40
1.0
 40
1.0
 10
64.16220971361517
 20
90.49169494724701
 30
0.0
 10
64.14005793162154
 20
90.60043335555456
 30
0.0
 10
64.11748844274578
 20
90.70205450479313
 30
0.0
 10
64.07151945219658
 20
90.8911543115756
 30
0.0
 10
64.04882591031372
 20
90.97555213404779
 30
0.0
 10
63.98373824942836
 20
91.18963545922568
 30
0.0
 10
63.94506669155709
 20
91.27642026408208
 30
0.0
 10
63.92002637129328
 20
91.28053788078097
 30
0.0
  0
ARC
  5
221
330
1F
100
AcDbEntity
  8
0
  6
Continuous
 62
     7
370
    15
100
AcDbCircle
 10
69.03122597
 20
122.3630995297
 30
0.0
 40
31.50000000000001
100
AcDbArc
 50
260.4324565774
 51
260.6618831895
  0
ARC
  5
222
330
1F
100
AcDbEntity
  8
0
  6
Continuous
 62
     7
370
    15
100
AcDbCircle
 10
69.03122597
 20
122.3630995297
 30
0.0
 40
31.50000000000005
100
AcDbArc
 50
119.5046050431
 51
119.5675434226
  0
LINE
  5
223
330
1F
100
AcDbEntity
  8
0
  6
Continuous
 62
     7
370
    15
100
AcDbLine
 10
53.5176801365
 20
149.7780565912
 30
0.0
 11
62.7949922215
 21
113.0770562956
 31
0.0
  0
LWPOLYLINE
  5
224
330
1F
100
AcDbEntity
  8
0
  6
Continuous
 62
     7
370
    15
100
AcDbPolyline
 90
       12
 70
   128
 43
0.0
 10
63.7996471357
 20
100.2689615631
 10
63.7014424298
 20
100.496751889
 10
63.6269664262
 20
100.5623635644
 10
63.5822531637
 20
100.4604843253
 10
63.5709250216
 20
100.1993656898
 10
63.5938993525
 20
99.8001635814
 10
63.649315374
 20
99.2952172452
 10
63.7326831799
 20
98.7254359567
 10
63.8372492846
 20
98.1369797879
 10
63.954542378
 20
97.5775212789
 10
64.0750592444
 20
97.0923860365
 10
64.0949150417
 20
97.0211230958
  0
ARC
  5
225
330
1F
100
AcDbEntity
  8
0
  6
Continuous
 62
     7
370
    15
100
AcDbCircle
 10
62.7484318725
 20
86.2984162581
 30
0.0
 40
3.245606926510972
100
AcDbArc
 50
11.7943823266
 51
58.2974285713
  0
LINE
  5
226
330
1F
100
AcDbEntity
  8
0
  6
Continuous
 62
     7
370
    15
100
AcDbLine
 10
66.5283808354
 20
92.5617773825
 30
0.0
 11
63.7996471357
 21
100.2689615631
 31
0.0
  0
LINE
  5
227
330
1F
100
AcDbEntity
  8
0
  6
Continuous
 62
     7
370
    15
100
AcDbLine
 10
82.6335553881
 20
80.4443300509
 30
0.0
 11
78.1536497977
 21
79.6544008696
 31
0.0
  0
LINE
  5
228
330
1F
100
AcDbEntity
  8
0
  6
Continuous
 62
     7
370
    15
100
AcDbLine
 10
78.1536497977
 20
79.6544008696
 30
0.0
 11
78.153910568
 21
79.8924171174
 31
0.0
  0
ARC
  5
229
330
1F
100
AcDbEntity
  8
0
  6
Continuous
 62
     7
370
    15
100
AcDbCircle
 10
65.03122597
 20
116.3630995297
 30
0.0
 40
40.00000000000001
100
AcDbArc
 50
296.1075969908
 51
297.2763438674
  0
LINE
  5
22A
330
1F
100
AcDbEntity
  8
0
  6
Continuous
 62
     7
370
    15
100
AcDbLine
 10
78.1028144863
 20
79.7979847336
 30
0.0
 11
78.1536497977
 21
79.6544008696
 31
0.0
  0
LINE
  5
22B
330
1F
100
AcDbEntity
  8
0
  6
Continuous
 62
     7
370
    15
100
AcDbLine
 10
101.0312274899
 20
119.8191362707
 30
0.0
 11
101.0312274899
 21
122.3630995297
 31
0.0
  0
ARC
  5
22C
330
1F
100
AcDbEntity
  8
0
  6
Continuous
 62
     7
370
    15
100
AcDbCircle
 10
69.03122597
 20
122.3630995297
 30
0.0
 40
31.50000000000004
100
AcDbArc
 50
59.3274713886
 51
119.5046050431
  0
SPLINE
  5
22D
330
1F
100
AcDbEntity
  8
0
  6
Continuous
 62
     7
370
    15
100
AcDbSpline
210
0.0
220
0.0
230
1.0
 70
     8
 71
     3
 72
    12
 73
     8
 74
     0
 42
0.00000001
 43
0.00000001
 12
1.0
 22
0.0
 32
0.0
 13
1.0
 23
0.0
 33
0.0
 40
0.0
 40
0.0
 40
0.0
 40
0.0
 40
0.2499999999999996
 40
0.2499999999999996
 40
0.4999999999999991
 40
0.4999999999999991
 40
1.0
 40
1.0
 40
1.0
 40
1.0
 10
88.03227185972894
 20
148.2421309526088
 30
0.0
 10
87.76611706923129
 20
148.3013484159533
 30
0.0
 10
87.50813868372303
 20
148.3783816399447
 30
0.0
 10
87.00088715604178
 20
148.5514161468528
 30
0.0
 10
86.75129261731772
 20
148.6481602920506
 30
0.0
 10
86.01736809661547
 20
148.9591061191034
 30
0.0
 10
85.54673543852876
 20
149.1913927057701
 30
0.0
 10
85.10033952853662
 20
149.4561537954343
 30
0.0
  0
LINE
  5
22E
330
1F
100
AcDbEntity
  8
0
  6
Continuous
 62
     7
370
    15
100
AcDbLine
 10
87.859690642
 20
148.2375838602
 30
0.0
 11
88.0322721657
 21
148.242130577
 31
0.0
  0
ARC
  5
22F
330
1F
100
AcDbEntity
  8
0
  6
Continuous
 62
     7
370
    15
100
AcDbCircle
 10
69.03122597
 20
122.3630995297
 30
0.0
 40
32.00000000000004
100
AcDbArc
 50
0.0
 51
53.9571925148
  0
ARC
  5
230
330
1F
100
AcDbEntity
  8
0
  6
Continuous
 62
     7
370
    15
100
AcDbCircle
 10
69.03122597
 20
122.3630995297
 30
0.0
 40
32.10551373655946
100
AcDbArc
 50
355.3535493072
 51
53.7129337413
  0
SPLINE
  5
231
330
1F
100
AcDbEntity
  8
0
  6
Continuous
 62
     7
370
    15
100
AcDbSpline
210
0.0
220
0.0
230
1.0
 70
     8
 71
     3
 72
    20
 73
    16
 74
     0
 42
0.00000001
 43
0.00000001
 12
1.0
 22
0.0
 32
0.0
 13
1.0
 23
0.0
 33
0.0
 40
0.0
 40
0.0
 40
0.0
 40
0.0
 40
0.25
 40
0.25
 40
0.375
 40
0.375
 40
0.5
 40
0.5
 40
0.625
 40
0.625
 40
0.75
 40
0.75
 40
0.875
 40
0.875
 40
1.0
 40
1.0
 40
1.0
 40
1.0
 10
49.48113787723133
 20
147.0621694629231
 30
0.0
 10
49.96516335846414
 20
147.4452908040448
 30
0.0
 10
50.43572125890723
 20
147.7946122912324
 30
0.0
 10
51.11248891984767
 20
148.2714962714644
 30
0.0
 10
51.33328705032342
 20
148.4225515812562
 30
0.0
 10
51.74773641491745
 20
148.6992547546253
 30
0.0
 10
51.94342702788222
 20
148.8263610774409
 30
0.0
 10
52.30961859750995
 20
149.0592590158641
 30
0.0
 10
52.48156165743322
 20
149.1659155622249
 30
0.0
 10
52.78864614271973
 20
149.3531150296303
 30
0.0
 10
52.92350504156214
 20
149.4335518957375
 30
0.0
 10
53.15509779307961
 20
149.5700217907784
 30
0.0
 10
53.25210554201097
 20
149.6262062268364
 30
0.0
 10
53.40353157094904
 20
149.7132877562975
 30
0.0
 10
53.45692496735442
 20
149.7436106655746
 30
0.0
 10
53.48757487956932
 20
149.7609992809702
 30
0.0
  0
SPLINE
  5
232
330
1F
100
AcDbEntity
  8
0
  6
Continuous
 62
     7
370
    15
100
AcDbSpline
210
0.0
220
0.0
230
1.0
 70
     8
 71
     3
 72
    18
 73
    14
 74
     0
 42
0.00000001
 43
0.00000001
 12
1.0
 22
0.0
 32
0.0
 13
1.0
 23
0.0
 33
0.0
 40
0.0
 40
0.0
 40
0.0
 40
0.0
 40
0.2499999999999999
 40
0.2499999999999999
 40
0.4999999999999998
 40
0.4999999999999998
 40
0.6249999999999998
 40
0.6249999999999998
 40
0.7499999999999997
 40
0.7499999999999997
 40
0.8749999999999996
 40
0.8749999999999996
 40
1.0
 40
1.0
 40
1.0
 40
1.0
 10
63.79560533998932
 20
91.30125353472472
 30
0.0
 10
63.72619694521727
 20
91.31295264699335
 30
0.0
 10
63.55668564083328
 20
91.34128443033595
 30
0.0
 10
63.02317364809142
 20
91.44018066404317
 30
0.0
 10
62.67155737451962
 20
91.50866052693998
 30
0.0
 10
62.03007899970061
 20
91.65020502587994
 30
0.0
 10
61.79997286896067
 20
91.70333812455678
 30
0.0
 10
61.31623014530091
 20
91.82147497800887
 30
0.0
 10
61.06160679376671
 20
91.88668952903149
 30
0.0
 10
60.52804042590011
 20
92.03123127293692
 30
0.0
 10
60.25084737210838
 20
92.11014350604428
 30
0.0
 10
59.6878326535503
 20
92.27926005024409
 30
0.0
 10
59.40047522516022
 20
92.36987061057833
 30
0.0
 10
59.10773189206863
 20
92.46704184173569
 30
0.0
  0
ELLIPSE
  5
233
330
1F
100
AcDbEntity
  8
0
  6
Continuous
 62
     7
370
    15
100
AcDbEllipse
 10
53.2547509825
 20
104.6887557726
 30
0.0
 11
-2.470484568652367
 21
2.832899650590378
 31
0.0
210
0.0
220
0.0
230
1.0
 40
0.6487969398
 41
0.0
 42
6.283185307179586
  0
ARC
  5
234
330
1F
100
AcDbEntity
  8
0
  6
Continuous
 62
     7
370
    15
100
AcDbCircle
 10
69.03122597
 20
122.3630995297
 30
0.0
 40
31.50000000000003
100
AcDbArc
 50
128.3627189333
 51
251.6372810667
  0
CIRCLE
  5
235
330
1F
100
AcDbEntity
  8
VERMASSUNG
  6
CENTERX2
100
AcDbCircle
 10
69.03122597
 20
117.3613374005
 30
0.0
 40
40.00000000000001
  0
DIMENSION
  5
236
330
1F
100
AcDbEntity
  8
VERMASSUNG
100
AcDbDimension
  2
_D_5
 10
97.3154972175
 20
145.6456086479
 30
0.0
 11
105.9529413211
 21
154.2830527516
 31
0.0
 70
   160
  1
%%c<> min. 
 71
     2
 42
-1.0
  3
SLDDIMSTYLE3
100
AcDbAlignedDimension
 13
40.7469547226
 23
89.077066153
 33
0.0
 14
97.3154972175
 24
145.6456086479
 34
0.0
 50
45.0
100
AcDbRotatedDimension
  0
INSERT
  5
250
330
1F
100
AcDbEntity
  8
VERMASSUNG
100
AcDbBlockReference
  2
SW_CENTERMARKSYMBOL_0
 10
69.03122597
 20
122.3630995297
 30
0.0
  0
OLE2FRAME
  5
251
330
1F
100
AcDbEntity
  8
0
100
AcDbOle2Frame
 70
     2
  3
Paintbrush-Bild
 10
13.8511154363
 20
38.264191557
 30
0.0
 11
51.6290888628
 21
31.9806341108
 31
0.0
 71
     2
 72
     0
 73
     1
 90
    12928
310
80552BED0767C5B32B40DDAF6807D121434000000000000000006FFBDDFB85D0
310
4940DDAF6807D121434000000000000000006FFBDDFB85D04940416F4BD60AFB
310
3F4000000000000000002BED0767C5B32B40416F4BD60AFB3F40000000000000
310
0000000000000100000000010000010000000100000000000100000000320000
310
D0CF11E0A1B11AE1000000000000000000000000000000003E000300FEFF0900
310
0600000000000000000000000100000001000000000000000010000002000000
310
01000000FEFFFFFF0000000000000000FFFFFFFFFFFFFFFFFFFFFFFFFFFFFFFF
310
FFFFFFFFFFFFFFFFFFFFFFFFFFFFFFFFFFFFFFFFFFFFFFFFFFFFFFFFFFFFFFFF
310
FFFFFFFFFFFFFFFFFFFFFFFFFFFFFFFFFFFFFFFFFFFFFFFFFFFFFFFFFFFFFFFF
310
FFFFFFFFFFFFFFFFFFFFFFFFFFFFFFFFFFFFFFFFFFFFFFFFFFFFFFFFFFFFFFFF
310
FFFFFFFFFFFFFFFFFFFFFFFFFFFFFFFFFFFFFFFFFFFFFFFFFFFFFFFFFFFFFFFF
310
FFFFFFFFFFFFFFFFFFFFFFFFFFFFFFFFFFFFFFFFFFFFFFFFFFFFFFFFFFFFFFFF
310
FFFFFFFFFFFFFFFFFFFFFFFFFFFFFFFFFFFFFFFFFFFFFFFFFFFFFFFFFFFFFFFF
310
FFFFFFFFFFFFFFFFFFFFFFFFFFFFFFFFFFFFFFFFFFFFFFFFFFFFFFFFFFFFFFFF
310
FFFFFFFFFFFFFFFFFFFFFFFFFFFFFFFFFFFFFFFFFFFFFFFFFFFFFFFFFFFFFFFF
310
FFFFFFFFFFFFFFFFFFFFFFFFFFFFFFFFFFFFFFFFFFFFFFFFFFFFFFFFFFFFFFFF
310
FFFFFFFFFFFFFFFFFFFFFFFFFFFFFFFFFFFFFFFFFFFFFFFFFFFFFFFFFFFFFFFF
310
FFFFFFFFFFFFFFFFFFFFFFFFFFFFFFFFFFFFFFFFFFFFFFFFFFFFFFFFFFFFFFFF
310
FFFFFFFFFFFFFFFFFFFFFFFFFFFFFFFFFFFFFFFFFFFFFFFFFFFFFFFFFFFFFFFF
310
FFFFFFFFFFFFFFFFFFFFFFFFFFFFFFFFFFFFFFFFFFFFFFFFFFFFFFFFFFFFFFFF
310
FDFFFFFFFEFFFFFFFEFFFFFFFEFFFFFF05000000060000000700000008000000
310
090000000A0000000B0000000C0000000D0000000E0000000F00000010000000
310
11000000120000001300000014000000150000001600000017000000FEFFFFFF
310
FFFFFFFFFFFFFFFFFFFFFFFFFFFFFFFFFFFFFFFFFFFFFFFFFFFFFFFFFFFFFFFF
310
FFFFFFFFFFFFFFFFFFFFFFFFFFFFFFFFFFFFFFFFFFFFFFFFFFFFFFFFFFFFFFFF
310
FFFFFFFFFFFFFFFFFFFFFFFFFFFFFFFFFFFFFFFFFFFFFFFFFFFFFFFFFFFFFFFF
310
FFFFFFFFFFFFFFFFFFFFFFFFFFFFFFFFFFFFFFFFFFFFFFFFFFFFFFFFFFFFFFFF
310
FFFFFFFFFFFFFFFFFFFFFFFFFFFFFFFFFFFFFFFFFFFFFFFFFFFFFFFFFFFFFFFF
310
FFFFFFFFFFFFFFFFFFFFFFFFFFFFFFFFFFFFFFFFFFFFFFFFFFFFFFFFFFFFFFFF
310
FFFFFFFFFFFFFFFFFFFFFFFFFFFFFFFFFFFFFFFFFFFFFFFFFFFFFFFFFFFFFFFF
310
FFFFFFFFFFFFFFFFFFFFFFFFFFFFFFFFFFFFFFFFFFFFFFFFFFFFFFFFFFFFFFFF
310
FFFFFFFFFFFFFFFFFFFFFFFFFFFFFFFFFFFFFFFFFFFFFFFFFFFFFFFFFFFFFFFF
310
FFFFFFFFFFFFFFFFFFFFFFFFFFFFFFFFFFFFFFFFFFFFFFFFFFFFFFFFFFFFFFFF
310
FFFFFFFFFFFFFFFFFFFFFFFFFFFFFFFFFFFFFFFFFFFFFFFFFFFFFFFFFFFFFFFF
310
FFFFFFFFFFFFFFFFFFFFFFFFFFFFFFFFFFFFFFFFFFFFFFFFFFFFFFFFFFFFFFFF
310
FFFFFFFFFFFFFFFFFFFFFFFFFFFFFFFFFFFFFFFFFFFFFFFFFFFFFFFFFFFFFFFF
310
52006F006F007400200045006E00740072007900000000000000000000000000
310
0000000000000000000000000000000000000000000000000000000000000000
310
16000500FFFFFFFFFFFFFFFF020000000A00030000000000C000000000000046
310
000000000000000000000000900734901538CD0103000000C000000000000000
310
01004F006C006500000000000000000000000000000000000000000000000000
310
0000000000000000000000000000000000000000000000000000000000000000
310
0A000200FFFFFFFFFFFFFFFFFFFFFFFF00000000000000000000000000000000
310
0000000000000000000000000000000000000000000000001400000000000000
310
010043006F006D0070004F0062006A0000000000000000000000000000000000
310
0000000000000000000000000000000000000000000000000000000000000000
310
120002010100000003000000FFFFFFFF00000000000000000000000000000000
310
0000000000000000000000000000000000000000010000004D00000000000000
310
01004F006C006500310030004E00610074006900760065000000000000000000
310
0000000000000000000000000000000000000000000000000000000000000000
310
1A000200FFFFFFFFFFFFFFFFFFFFFFFF00000000000000000000000000000000
310
0000000000000000000000000000000000000000040000002426000000000000
310
FEFFFFFF02000000FEFFFFFFFFFFFFFFFFFFFFFFFFFFFFFFFFFFFFFFFFFFFFFF
310
FFFFFFFFFFFFFFFFFFFFFFFFFFFFFFFFFFFFFFFFFFFFFFFFFFFFFFFFFFFFFFFF
310
FFFFFFFFFFFFFFFFFFFFFFFFFFFFFFFFFFFFFFFFFFFFFFFFFFFFFFFFFFFFFFFF
310
FFFFFFFFFFFFFFFFFFFFFFFFFFFFFFFFFFFFFFFFFFFFFFFFFFFFFFFFFFFFFFFF
310
FFFFFFFFFFFFFFFFFFFFFFFFFFFFFFFFFFFFFFFFFFFFFFFFFFFFFFFFFFFFFFFF
310
FFFFFFFFFFFFFFFFFFFFFFFFFFFFFFFFFFFFFFFFFFFFFFFFFFFFFFFFFFFFFFFF
310
FFFFFFFFFFFFFFFFFFFFFFFFFFFFFFFFFFFFFFFFFFFFFFFFFFFFFFFFFFFFFFFF
310
FFFFFFFFFFFFFFFFFFFFFFFFFFFFFFFFFFFFFFFFFFFFFFFFFFFFFFFFFFFFFFFF
310
FFFFFFFFFFFFFFFFFFFFFFFFFFFFFFFFFFFFFFFFFFFFFFFFFFFFFFFFFFFFFFFF
310
FFFFFFFFFFFFFFFFFFFFFFFFFFFFFFFFFFFFFFFFFFFFFFFFFFFFFFFFFFFFFFFF
310
FFFFFFFFFFFFFFFFFFFFFFFFFFFFFFFFFFFFFFFFFFFFFFFFFFFFFFFFFFFFFFFF
310
FFFFFFFFFFFFFFFFFFFFFFFFFFFFFFFFFFFFFFFFFFFFFFFFFFFFFFFFFFFFFFFF
310
FFFFFFFFFFFFFFFFFFFFFFFFFFFFFFFFFFFFFFFFFFFFFFFFFFFFFFFFFFFFFFFF
310
FFFFFFFFFFFFFFFFFFFFFFFFFFFFFFFFFFFFFFFFFFFFFFFFFFFFFFFFFFFFFFFF
310
FFFFFFFFFFFFFFFFFFFFFFFFFFFFFFFFFFFFFFFFFFFFFFFFFFFFFFFFFFFFFFFF
310
FFFFFFFFFFFFFFFFFFFFFFFFFFFFFFFFFFFFFFFFFFFFFFFFFFFFFFFFFFFFFFFF
310
0100000200000000000000000000000000000000000000000000000000000000
310
0000000000000000000000000000000000000000000000000000000000000000
310
0100FEFF030A0000FFFFFFFF0A00030000000000C00000000000004607000000
310
5042727573680007000000504272757368000700000050427275736800F439B2
310
7100000000000000000000000000000000000000000000000000000000000000
310
0000000000000000000000000000000000000000000000000000000000000000
310
0000000000000000000000000000000000000000000000000000000000000000
310
0000000000000000000000000000000000000000000000000000000000000000
310
0000000000000000000000000000000000000000000000000000000000000000
310
0000000000000000000000000000000000000000000000000000000000000000
310
0000000000000000000000000000000000000000000000000000000000000000
310
0000000000000000000000000000000000000000000000000000000000000000
310
0000000000000000000000000000000000000000000000000000000000000000
310
0000000000000000000000000000000000000000000000000000000000000000
310
0000000000000000000000000000000000000000000000000000000000000000
310
0000000000000000000000000000000000000000000000000000000000000000
310
20260000424D0E260000000000003E00000028000000B40200006E0000000100
310
01000000000000000000130B0000130B00000200000002000000000000FFFFFF
310
FFFFFFFFFFFFFFFFFFFFFFFFFFFFFFFFFFFFFFFFFFFFFFFFFFFFFFFFFFFFFFFF
310
FFFFFFFFFFFFFFFFFFFFFFFFFFFFFFFFFFFFFFFFFFFFFFFFFFFFFFFFFFFFFFFF
310
FFFFFFFFFFFFFFFFFFFFFFFFFFFFFFFFFFFFFFFFFFFFFFFFF000FFFFFFFFFFFF
310
FFFFFFFFFFFFFFFFFFFFFFFFFFFFFFFFFFFFFFFFFFFFFFFFFFFFFFFFFFFFFFFF
310
FFFFFFFFFFFFFFFFFFFFFFFFFFFFFFFFFFFFFFFFFFFFFFFFFFFFFFFFFFFFFFFF
310
FFFFFFFFFFFFFFFFFFFFFFFFFFFFFFFFF000FFFFFFFFFFFFFFFFFFFFFFFFFFFF
310
FFFFFFFFFFFFFFFFFFFFFFFFFFFFFFFFFFFFFFFFFFFFFFFFFFFFFFFFFFFFFFFF
310
FFFFFFFFFFFFFFFFFFFFFFFFFFFFFFFFFFFFFFFFFFFFFFFFFFFFFFFFFFFFFFFF
310
FFFFFFFFFFFFFFFFF000FFFFFFFFFFFFFFFFFFFFFFFFFFFFFFFFFFFFFFFFFFFF
310
FFFFFFFFFFFFFFFFFFFFFFFFFFFFFFFFFFFFFFFFFFFFFFFFFFFFFFFFFFFFFFFF
310
FFFFFFFFFFFFFFFFFFFFFFFFFFFFFFFFFFFFFFFFFFFFFFFFFFFFFFFFFFFFFFFF
310
F000FFFFFFFFFFFFFFFFFFFFFFFFFFFFFFFFFFFFFFFFFFFFFFFFFFFFFFFFFFFF
310
FFFFFFFFFFFFFFFFFFFFFFFFFFFFFFFFFFFFFFFFFFFFFFFFFFFFFFFFFFFFFFFF
310
FFFFFFFFFFFFFFFFFFFFFFFFFFFFFFFFFFFFFFFFFFFFFFFFF000FFFFFFFFFFFF
310
FFFFFFFFFFFFFFFFFFFFFFFFFFFFFFFFFFFFFFFFFFFFFFFFFFFFFFFFFFFFFFFF
310
FFFFFFFFFFFFFFFFFFFFFFFFFFFFFFFFFFFFFFFFFFFFFFFFFFFFFFFFFFFFFFFF
310
FFFFFFFFFFFFFFFFFFFFFFFFFFFFFFFFF000FFFFFFFFFFFFFFFFFFFFFFFFFFFF
310
FFFFFFFFFFFFFFFFFFFFFFFFFFFFFFFFFFFFFFFFFFFFFFFFFFFFFFFFFFFFFFFF
310
FFFFFFFFFFFFFFFFFFFFFFFFFFFFFFFFFFFFFFFFFFFFFFFFFFFFFFFFFFFFFFFF
310
FFFFFFFFFFFFFFFFF000FFFFFFFFFFFFFFFFFFFFFFFFFFFFFFFFFFFFFFFFFFFF
310
FFFFFFFFFFFFFFFFFFFFFFFFFFFFFFFFFFFFFFFFFFFFFFFFFFFFFFFFFFFFFFFF
310
FFFFFFFFFFFFFFFFFFFFFFFFFFFFFFFFFFFFFFFFFFFFFFFFFFFFFFFFFFFFFFFF
310
F000FFFFFFFFFFFFFFFFFFFFFFFFFFFFFFFFFFFFFFFFFFFFFFFFFFFFFFFFFFFF
310
FFFFFFFFFFFFFFFFFFFFFFFFFFFFFFFFFFFFFFFFFFFFFFFFFFFFFFFFFFFFFFFF
310
FFFFFFFFFFFFFFFFFFFFFFFFFFFFFFFFFFFFFFFFFFFFFFFFF000FFFFFFFFFFFF
310
FFFFFFFFFFFFFFFFFFFFFFFFFFFFFFFFFFFFFFFFFFFFFFFFFFFFFFFFFFFFFFFF
310
FFFFFFFFFFFFFFFFFFFFFFFFFFFFFFFFFFFFFFFFFFFFFFFFFFFFFFFFFFFFFFFF
310
FFFFFFFFFFFFFFFFFFFFFFFFFFFFFFFFF000FFFFFFFFFFFFFFFFFFFFFFFFFFFF
310
FFFFFFFFFFFFFFFFFFFFFFFFFFFFFFFFFFFFFFFFFFFFFFFFFFFFFFFFFFFFFFFF
310
FFFFFFFFFFFFFFFFFFFFFFFFFFFFFFFFFFFFFFFFFFFFFFFFFFFFFFFFFFFFFFFF
310
FFFFFFFFFFFFFFFFF000FFFFFFFFFFFFFFFFFFFFFFFFFFFFFFFFFFFFFFFFFFFF
310
FFFFFFFFFFFFFFFFFFFFFFFFFFFFFFFFFFFFFFFFFFFFFFFFFFFFFFFFFFFFFFFF
310
FFFFFFFFFFFFFFFFFFFFFFFFFFFFFFFFFFFFFFFFFFFFFFFFFFFFFFFFFFFFFFFF
310
F000FFFFFFFFFFFFFFFFFFFFFFFFFFFFFFFFFFFFFFFFFFFFFFFFFFFFFFFFFFFF
310
FFFFFFFFFFFFFFFFFFFFFFFFFFFFFFFFFFFFFFFFFFFFFFFFFFFFFFFFFFFFFFFF
310
FFFFFFFFFFFFFFFFFFFFFFFFFFFFFFFFFFFFFFFFFFFFFFFFF000FFFFFFFFFFFF
310
FFFFFFFFFFFFFFFFFFFFFFFFFFFFFFFFFFFFFFFFFFFFFFFFFFFFFFFFFFFFFFFF
310
FFFFFFFFFFFFFFFFFFFFFFFFFFFFFFFFFFFFFFFFFFFFFFFFFFFFFFFFFFFFFFFF
310
FFFFFFFFFFFFFFFFFFFFFFFFFFFFFFFFF000FFFFFFFFFFFFFFFFFFFFFFFFFFFF
310
FFFFFFFFFFFFFFFFFFFFFFFFFFFFFFFFFFFFFFFFFFFFFFFFFFFFFFFFFFFFFFFF
310
FFFFFFFFFFFFFFFFFFFFFFFFFFFFFFFFFFFFFFFFFFFFFFFFFFFFFFFFFFFFFFFF
310
FFFFFFFFFFFFFFFFF000FFFFFFFFFFFFFFFFFFFFFFFFFFFFFFFFFFFFFFFFFFFF
310
FFFFFFFFFFFFFFFFFFFFFFFFFFFFFFFFFFFFFFFFFFFFFFFFFFFFFFFFFFFFFFFF
310
FFFFFFFFFFFFFFFFFFFFFFFFFFFFFFFFFFFFFFFFFFFFFFFFFFFFFFFFFFFFFFFF
310
F000FFFFFFFFFFFFFFFFFFFFFFFFFFFFFFFFFFFFFFFFFFFFFFFFFFFFFFFFFFFF
310
FFFFFFFFFFFFFFFFFFFFFFFFFFFFFFFFFFFFFFFFFFFFFFFFFFFFFFFFFFFFFFFF
310
FFFFFFFFFFFFFFFFFFFFFFFFFFFFFFFFFFFFFFFFFFFFFFFFF000FFFFFFFFFFFF
310
FFFFFFFFFFFFFFFFFFFFFFFFFFFFFFFFFFFFFFFFFFFFFFFFFFFFFFFFFFFFFFFF
310
FFFFFFFFFFFFFFFFFFFFFFFFFFFFFFFFFFFFFFFFFFFFFFFFFFFFFFFFFFFFFFFF
310
FFFFFFFFFFFFFFFFFFFFFFFFFFFFFFFFF000FFFFFFFFFFFFFFFFFFFFFFFFFFFF
310
FFFFFFFFFFFFFFFFFFFFFFFFFFFFFFFFFFFFFFFFFFFFFFFFFFFFFFFFFFFFFFFF
310
FFFFFFFFFFFFFFFFFFFFFFFFFFFFFFFFFFFFFFFFFFFFFFFFFFFFFFFFFFFFFFFF
310
FFFFFFFFFFFFFFFFF000FFFFF80003FFFFFFFFFFFFFFFFFFFFFFFFFFFFFFFFFF
310
FFFFF00007FFFFFFFFFF00007FFFFFF800000000000000007FFFFFFFFFFFFFFF
310
FFFFFFFC001FFFFFFFFFFFFFFC001FFFFFFFFFFFFFFFFFFFFFFFFFFE0007FFFF
310
F000FFFF8000007FFFFFFFF8000FFFFFC0007FFFFF80007FFFFF0000007FFFFF
310
FFF8000007FFFFF800000000000000007FFFFFF0001FFFFFFFFFFFC00001FFFF
310
FFFFFFFFC00001FFFFFFFF000000000003FFFFE000007FFFF000FFFE0000000F
310
FFFFFFF0000FFFFF80007FFFFF80007FFFFC0000001FFFFFFFC0000001FFFFF8
310
00000000000000007FFFFFF0001FFFFFFFFFFE0000003FFFFFFFFFFE0000003F
310
FFFFFF000000000003FFFF0000000FFFF000FFF800000003FFFFFFF00007FFFF
310
80007FFFFF80007FFFF000000007FFFFFF000000003FFFF80000000000000000
310
7FFFFFF0001FFFFFFFFFF80000000FFFFFFFFFF80000000FFFFFFF0000000000
310
03FFFC00000003FFF000FFE000000000FFFFFFF00007FFFF80003FFFFF80007F
310
FFC000000001FFFFFC000000001FFFF800000000000000007FFFFFF0001FFFFF
310
FFFFE000000003FFFFFFFFE000000003FFFFFF000000000003FFF000000000FF
310
F000FF80000000007FFFFFF00007FFFF80003FFFFF80007FFF8000000000FFFF
310
F80000000007FFF800000000000000007FFFFFF0001FFFFFFFFFC000000001FF
310
FFFFFFC000000001FFFFFF000000000003FFC0000000007FF000FF0000000000
310
3FFFFFE00007FFFF00003FFFFF80007FFE00000000003FFFF00000000003FFF8
310
00000000000000007FFFFFF0001FFFFFFFFF8000000000FFFFFFFF8000000000
310
FFFFFF000000000003FF80000000003FF000FE00000000001FFFFFE00003FFFF
310
00003FFFFF80007FFC00000000001FFFE00000000001FFF8000001FFFE000000
310
7FFFFFF0001FFFFFFFFE00000000003FFFFFFE00000000003FFFFF0000000000
310
03FF00000000001FF000FC00000000000FFFFFE00003FFFF00001FFFFF80007F
310
F800000000001FFFC00000000000FFF8000001FFFE0000007FFFFFF0001FFFFF
310
FFFC00000000001FFFFFFC00000000001FFFFF000000000003FE00000000000F
310
F000F8000000000007FFFFE00003FFFF00001FFFFF80007FF800000000000FFF
310
800000000000FFF8000001FFFE0000007FFFFFF0001FFFFFFFF800000000000F
310
FFFFF800000000000FFFFF000000000003FC000000000007F000F80000000000
310
03FFFFC00003FFFE00001FFFFF80007FF0000000000007FF0000000000007FF8
310
000001FFFE0000007FFFFFF0001FFFFFFFF0000000000007FFFFF00000000000
310
07FFFF000000000003F8000000000003F000F0000000000003FFFFC00001FFFE
310
00001FFFFF80007FE0000000000007FE0000000000003FF8000001FFFE000000
310
7FFFFFF0001FFFFFFFF0000000000007FFFFF0000000000007FFFF0000000000
310
03F800001F800003F000E00001FFF00001FFFFC00001FFFE00000FFFFF80007F
310
E00001FFE00003FE00001FFF00003FF8000001FFFE0000007FFFFFF0001FFFFF
310
FFE000003E000003FFFFE000003E000003FFFF000000000003F00001FFF80001
310
F000E00007FFFC0001FFFFC00001FFFE00000FFFFF80007FC0000FFFFC0003FC
310
0000FFFFC0001FF8000001FFFE0000007FFFFFF0001FFFFFFFC00003FFE00001
310
FFFFC00003FFE00001FFFF0001FFFFFFFFF00007FFFE0001F000E0000FFFFF00
310
00FFFF800001FFFC00000FFFFF80007FC0001FFFFE0001FC0001FFFFE0001FF8
310
000001FFFE0000007FFFFFF0001FFFFFFF80000FFFF80000FFFF80000FFFF800
310
00FFFF0003FFFFFFFFE0000FFFFF8000F000C0003FFFFF8000FFFF800000FFFC
310
000007FFFF80007F80003FFFFF0001FC0003FFFFF0001FF8000001FFFE000000
310
7FFFFFF0001FFFFFFF80003FFFFE0000FFFF80003FFFFE0000FFFF0003FFFFFF
310
FFE0003FFFFF8000F000C0003FFFFF8000FFFF800000FFFC000007FFFF80007F
310
80007FFFFF8001F80007FFFFF8000FF8000001FFFE0000007FFFFFF0001FFFFF
310
FF00007FFFFF00007FFF00007FFFFF00007FFF0003FFFFFFFFE0003FFFFFC000
310
F000C0007FFFFFC000FFFF000000FFFC000007FFFF80007F8000FFFFFF8000F8
310
000FFFFFF8000FF8000001FFFE0000007FFFFFF0001FFFFFFF0000FFFFFF8000
310
7FFF0000FFFFFF80007FFF0003FFFFFFFFC0007FFFFFC00070008000FFFFFFC0
310
00FFFF000000FFF8000007FFFF80007F8000FFFFFF8000F8000FFFFFF8000FF8
310
000001FFFE0000007FFFFFF0001FFFFFFE0001FFFFFFC0003FFE0001FFFFFFC0
310
003FFF0003FFFFFFFFC0007FFFFFE00070008000FFFFFFC0007FFF0000007FF8
310
000003FFFF80007F0001FFFFFF8000F8000FFFFFF8000FF8000001FFFE000000
310
7FFFFFF0001FFFFFFE0001FFFFFFC0003FFE0001FFFFFFC0003FFF0003FFFFFF
310
FFC000FFFFFFE00070008000FFFFFFC0007FFF0000007FF8000003FFFF80007F
310
0001FFFFFF8000F8001FFFFFF8000FF8000001FFFE0000007FFFFFF0001FFFFF
310
FE0003FFFFFFE0003FFE0003FFFFFFE0003FFF0003FFFFFFFFC000FFFFFFE000
310
70008000FFFFFFC0007FFE0000007FF8000003FFFF80007F0001FFFFFF8000F0
310
001FFFFFF8000FF8000001FFFE0000007FFFFFF0001FFFFFFC0003FFFFFFE000
310
1FFC0003FFFFFFE0001FFF0003FFFFFFFFC000FFFFFFC00070008000FFFFFF80
310
007FFE0000007FF0000003FFFF80007F0001FFFFFF0000F0001FFFFFF8000FF8
310
000001FFFE0000007FFFFFF0001FFFFFFC0007FFFFFFF0001FFC0007FFFFFFF0
310
001FFF0003FFFFFFFFC000FFFFFFC00070008001FFFFFF0000FFFE0000003FF0
310
000001FFFF80007F0001FFFFFF0000F8001FFFFFF0000FF8000001FFFE000000
310
7FFFFFF0001FFFFFFC0007FFFFFFF0001FFC0007FFFFFFF0001FFF0003FFFFFF
310
FFC001FFFFFF80007000FFFFFFFFFE0000FFFE0008003FF0008001FFFF80007F
310
FFFFFFFFFC0000FFFFFFFFFFE0000FF8000001FFFE0000007FFFFFF0001FFFFF
310
F8000FFFFFFFF8000FF8000FFFFFFFF8000FFF0003FFFFFFFFFFFFFFFFFF0000
310
7000FFFFFFFFFC0000FFFC0008003FF0008001FFFF80007FFFFFFFFFF80001FF
310
FFFFFFFF80000FF8000001FFFE0000007FFFFFF0001FFFFFF8000FFFFFFFF800
310
0FF8000FFFFFFFF8000FFF0003FFFFFFFFFFFFFFFFFE0000F000FFFFFFFFE000
310
00FFFC000C003FE000C001FFFF80007FFFFFFFFFC00001FFFFFFFFFE00001FF8
310
000001FFFE0000007FFFFFF0001FFFFFF8000FFFFFFFF8000FF8000FFFFFFFF8
310
000FFF0003FFFFFFFFFFFFFFFFF00000F000FFFFFFFE000001FFFC000C001FE0
310
00C000FFFF80007FFFFFFFFE000001FFFFFFFFE000001FF80FFFFFFFFFFFFFC0
310
7FFFFFF0001FFFFFF8000FFFFFFFF8000FF8000FFFFFFFF8000FFF0003FFFFFF
310
FFFFFFFFFF800000F000FFFFFFC0000001FFFC001C001FE001C000FFFF80007F
310
FFFFFF80000003FFFFFFF80000001FF80FFFFFFFFFFFFFC07FFFFFF0001FFFFF
310
F8001FFFFFFFFC000FF8001FFFFFFFFC000FFF0003FFFFFFFFFFFFFFF0000001
310
F000FFFFF800000001FFF8001C001FE001C000FFFF80007FFFFFF800000003FF
310
FFFF800000003FF80FFFFFFFFFFFFFC07FFFFFF0001FFFFFF8001FFFFFFFFC00
310
0FF8001FFFFFFFFC000FFF0003FFFFFFFFFFFFFE00000001F000FFFFC0000000
310
03FFF8001E001FC001E000FFFF80007FFFFF8000000007FFFFFC000000003FF8
310
0FFFFFFFFFFFFFC07FFFFFF0001FFFFFF8001FFFFFFFFC000FF8001FFFFFFFFC
310
000FFF0003FFFFFFFFFFFFE000000003F000FFFE0000000007FFF8001E000FC0
310
01E0007FFF80007FFFFE0000000007FFFFE0000000007FF80FFFFFFFFFFFFFC0
310
7FFFFFF0001FFFFFF0001FFFFFFFFC0007F0001FFFFFFFFC0007FF0003FFFFFF
310
FFFFFF0000000003F000FFF80000000007FFF8001E000FC003E0007FFF80007F
310
FFF0000000000FFFFF8000000000FFF80FFFFFFFFFFFFFC07FFFFFF0001FFFFF
310
F0001FFFFFFFFC0007F0001FFFFFFFFC0007FF0003FFFFFFFFFFFC0000000007
310
F000FFE0000000000FFFF0003E000FC003E0007FFF80007FFFC0000000001FFF
310
FE0000000001FFF80FFFFFFFFFFFFFC07FFFFFF0001FFFFFF0001FFFFFFFFC00
310
07F0001FFFFFFFFC0007FF0003FFFFFFFFFFF0000000000FF000FFC000000000
310
1FFFF0003F000F8003F0003FFF80007FFF80000000003FFFF80000000003FFF8
310
0FFFFFFFFFFFFFC07FFFFFF0001FFFFFF0001FFFFFFFFC0007F0001FFFFFFFFC
310
0007FF0003FFFFFFFFFFE0000000001FF000FF00000000007FFFF0003F000780
310
03F0003FFF80007FFF00000000007FFFF00000000007FFF80FFFFFFFFFFFFFC0
310
7FFFFFF0001FFFFFF0001FFFFFFFFC0007F0001FFFFFFFFC0007FF0003FFFFFF
310
FFFF80000000007FF000FE0000000000FFFFE0003F00078007F0003FFF80007F
310
FE0000000001FFFFE0000000001FFFF80FFFFFFFFFFFFFC07FFFFFF0001FFFFF
310
F0001FFFFFFFFC0007F0001FFFFFFFFC0007FF0003FFFFFFFFFF0000000000FF
310
F000FC0000000003FFFFE0007F00078007F0003FFF80007FFC0000000007FFFF
310
C0000000007FFFF80FFFFFFFFFFFFFC07FFFFFF0001FFFFFF8001FFFFFFFFC00
310
0FF8001FFFFFFFFC000FFF0003FFFFFFFFFE0000000003FFF000FC000000000F
310
FFFFE0007F80070007F8001FFF80007FF8000000001FFFFF8000000001FFFFF8
310
0FFFFFFFFFFFFFC07FFFFFF0001FFFFFF8001FFFFFFFFC000FF8001FFFFFFFFC
310
000FFF0003FFFFFFFFFC000000000FFFF000F8000000007FFFFFE0007F800700
310
07F8001FFF80007FF000000000FFFFFF800000000FFFFFF80FFFFFFFFFFFFFC0
310
7FFFFFF0001FFFFFF8000FFFFFFFF8000FF8000FFFFFFFF8000FFF0003FFFFFF
310
FFFC000000007FFFF000F800000007FFFFFFC0007F8003000FF8001FFF80007F
310
F000000007FFFFFF000000007FFFFFF80FFFFFFFFFFFFFC07FFFFFF0001FFFFF
310
F8000FFFFFFFF8000FF8000FFFFFFFF8000FFF0003FFFFFFFFF80000000FFFFF
310
F000F0000000FFFFFFFFC000FF8003000FF8001FFF80007FE0000000FFFFFFFF
310
0000000FFFFFFFF8000001FFFE0000007FFFFFF0001FFFFFF8000FFFFFFFF800
310
0FF8000FFFFFFFF8000FFF0003FFFFFFFFF8000000FFFFFFF000F000000FFFFF
310
FFFFC000FFC002000FF8000FFF80007FE000001FFFFFFFFE000001FFFFFFFFF8
310
000001FFFE0000007FFFFFF0001FFFFFF8000FFFFFFFF8000FF8000FFFFFFFF8
310
000FFF0003FFFFFFFFF000001FFFFFFFF000E00000FFFFFFFFFFC000FFC00200
310
0FFC000FFF80007FE00001FFFFFFFFFE00001FFFFFFFFFF8000001FFFE000000
310
7FFFFFF0001FFFFFFC000FFFFFFFF8001FFC000FFFFFFFF8001FFF0003FFFFFF
310
FFF00001FFFFFFFFF000E00007FFFFFFFFFF8000FFC000001FFC000FFF80007F
310
C0000FFFFFFFFFFE0000FFFFFFFFFFF8000001FFFE0000007FFFFFF0001FFFFF
310
FC0007FFFFFFF0001FFC0007FFFFFFF0001FFF0003FFFFFFFFF00007FFFFFFFF
310
F000E0001FFFFFFFFFFF8000FFC000001FFC000FFF80007FC0003FFFFFFFFFFE
310
0001FFFFFFFFFFF8000001FFFE0000007FFFFFF0001FFFFFFC0007FFFFFFF000
310
1FFC0007FFFFFFF0001FFF0003FFFFFFFFF0001FFFFFFFFFF000E0003FFFFF00
310
03FF8001FFE000001FFC0007FF80007FC0007FFFFF0007FC0003FFFFF0003FF8
310
000001FFFE0000007FFFFFF0001FFFFFFC0003FFFFFFE0001FFC0003FFFFFFE0
310
001FFF0003FFFFFFFFF0003FFFFFFFFFF000E0003FFFFF0001FF8001FFE00000
310
1FFE0007FF80007FC0007FFFFE0003FC0007FFFFE0003FF8000001FFFE000000
310
7FFFFFF0001FFFFFFE0003FFFFFFE0003FFE0003FFFFFFE0003FFF0003FFFFFF
310
FFF0003FFFFF8001F000E0003FFFFF0001FF0001FFE000001FFE0007FF80007F
310
C0007FFFFE0003FC0007FFFFE0003FF8000001FFFE0000007FFFFFF0001FFFFF
310
FE0001FFFFFFC0003FFE0001FFFFFFC0003FFF0003FFFFFFFFF0003FFFFF0001
310
F000E0003FFFFF0003FF0001FFE000003FFE0007FF80007FC0007FFFFE0003FC
310
0007FFFFE0003FF8000001FFFE0000007FFFFFF0001FFFFFFF0001FFFFFFC000
310
7FFF0001FFFFFFC0007FFF0003FFFFFFFFF0003FFFFF0001F000E0003FFFFE00
310
03FF0003FFF000003FFE0003FF80007FC0007FFFFC0003FE0007FFFFE0003FF8
310
000001FFFE0000007FFFFFF0001FFFFFFF0000FFFFFF80007FFF0000FFFFFF80
310
007FFF0003FFFFFFFFF0003FFFFF0001F000E0003FFFFE0003FF0003FFF00000
310
3FFF0003FF80007FC0007FFFFC0007FE0007FFFFC0003FF8000001FFFE000000
310
7FFFFFF0001FFFFFFF80007FFFFF0000FFFF80007FFFFF0000FFFF0003FFFFFF
310
FFF0003FFFFF0003F000E0003FFFFC0003FE0003FFF000003FFF0003FF80007F
310
E0003FFFF80007FE0003FFFFC0007FF8000001FFFE0000007FFFFFF0001FFFFF
310
FF80003FFFFE0000FFFF80003FFFFE0000FFFF0003FFFFFFFFF0001FFFFE0003
310
F000F0001FFFF80003FE0003FFF000007FFF0001FF80007FE0003FFFF00007FE
310
0001FFFF80007FF8000001FFFE0000007FFFFFF0001FFFFFFFC0000FFFF80001
310
FFFFC0000FFFF80001FFFF0003FFFFFFFFF0001FFFFC0003F000F0000FFFF000
310
07FE0007FFF800007FFF0001FF80007FE0001FFFE00007FF0000FFFE00007FF8
310
000001FFFE0000007FFFFFF0001FFFFFFFC00003FFE00001FFFFC00003FFE000
310
01FFFF0003FFFFFFFFF8000FFFF80003F000F00003FFC00007FC0007FFF80000
310
7FFF8001FF80007FF00007FF80000FFF00007FF80000FFF8000001FFFE000000
310
7F80000000000001FFE000003E000003FFFFE000003E000003FFFF0003FFFFFF
310
FFF80003FFE00007F000F800000000000FFC0007FFF800007FFF8001FF80007F
310
F000000000000FFF000000000000FFF8000001FFFE0000007F80000000000001
310
FFF0000000000007FFFFF0000000000007FFFF0003FFFFFFFFFC00007E000007
310
F000F800000000000FFC0007FFF80000FFFF8000FF80007FF800000000001FFF
310
800000000001FFF8000001FFFE0000007F80000000000001FFF800000000000F
310
FFFFF800000000000FFFFF0003FFFFFFFFFC00000000000FF000FC0000000000
310
1FFC0007FFFC0000FFFF8000FF80007FF800000000003FFFC00000000001FFF8
310
000001FFFE0000007F80000000000001FFF800000000000FFFFFF80000000000
310
0FFFFF0003FFFFFFFFFE00000000001FF000FE00000000003FF8000FFFFC0000
310
FFFF8000FF80007FFC00000000003FFFC00000000003FFF8000001FFFE000000
310
7F80000000000001FFFC00000000001FFFFFFC00000000001FFFFF0003FFFFFF
310
FFFF00000000001FF000FF00000000003FF8000FFFFC0000FFFFC000FF80007F
310
FE00000000007FFFE00000000007FFF8000001FFFE0000007F80000000000001
310
FFFE00000000003FFFFFFE00000000003FFFFF0003FFFFFFFFFF80000000003F
310
F000FF80000000007FF8000FFFFC0001FFFFC0007F80007FFF0000000000FFFF
310
F0000000000FFFF800000000000000007F80000000000001FFFF8000000000FF
310
FFFFFF8000000000FFFFFF0003FFFFFFFFFFC0000000007FF000FFC000000000
310
FFF8000FFFFE0001FFFFC0007F80007FFF8000000001FFFFF8000000001FFFF8
310
00000000000000007F80000000000001FFFFC000000001FFFFFFFFC000000001
310
FFFFFF0003FFFFFFFFFFE000000000FFF000FFE000000003FFF0001FFFFE0001
310
FFFFC0007F80007FFFC000000007FFFFFE000000003FFFF80000000000000000
310
7F80000000000001FFFFE000000003FFFFFFFFE000000003FFFFFF0003FFFFFF
310
FFFFF000000003FFF000FFF80000000FFFF0001FFFFE0001FFFFE0007F80007F
310
FFF00000000FFFFFFF00000000FFFFF800000000000000007F80000000000001
310
FFFFF80000000FFFFFFFFFF80000000FFFFFFF0003FFFFFFFFFFFC0000000FFF
310
F000FFFE0000003FFFF0001FFFFE0003FFFFE0003F80007FFFFC0000003FFFFF
310
FFC0000003FFFFF800000000000000007F80000000000001FFFFFE0000003FFF
310
FFFFFFFE0000003FFFFFFF0003FFFFFFFFFFFF0000003FFFF000FFFF800000FF
310
FFF0001FFFFF0003FFFFE0003F80007FFFFF000001FFFFFFFFF800001FFFFFF8
310
00000000000000007F80000000000001FFFFFFC00001FFFFFFFFFFFFC00001FF
310
FFFFFF0003FFFFFFFFFFFFC00000FFFFF000FFFFF8000FFFFFFFFFFFFFFFFFFF
310
FFFFFFFFFFFFFFFFFFFFF0001FFFFFFFFFFF0000FFFFFFF80000000000000000
310
7FFFFFFFFFFFFFFFFFFFFFFC001FFFFFFFFFFFFFFC001FFFFFFFFFFFFFFFFFFF
310
FFFFFFFC001FFFFFF000FFFFFFFFFFFFFFFFFFFFFFFFFFFFFFFFFFFFFFFFFFFF
310
FFFFFFFFFFFFFFFFFFFFFFFFFFFFFFFFFFFFFFFFFFFFFFFFFFFFFFFFFFFFFFFF
310
FFFFFFFFFFFFFFFFFFFFFFFFFFFFFFFFFFFFFFFFFFFFFFFFFFFFFFFFFFFFFFFF
310
F000FFFFFFFFFFFFFFFFFFFFFFFFFFFFFFFFFFFFFFFFFFFFFFFFFFFFFFFFFFFF
310
FFFFFFFFFFFFFFFFFFFFFFFFFFFFFFFFFFFFFFFFFFFFFFFFFFFFFFFFFFFFFFFF
310
FFFFFFFFFFFFFFFFFFFFFFFFFFFFFFFFFFFFFFFFFFFFFFFFF000FFFFFFFFFFFF
310
FFFFFFFFFFFFFFFFFFFFFFFFFFFFFFFFFFFFFFFFFFFFFFFFFFFFFFFFFFFFFFFF
310
FFFFFFFFFFFFFFFFFFFFFFFFFFFFFFFFFFFFFFFFFFFFFFFFFFFFFFFFFFFFFFFF
310
FFFFFFFFFFFFFFFFFFFFFFFFFFFFFFFFF000FFFFFFFFFFFFFFFFFFFFFFFFFFFF
310
FFFFFFFFFFFFFFFFFFFFFFFFFFFFFFFFFFFFFFFFFFFFFFFFFFFFFFFFFFFFFFFF
310
FFFFFFFFFFFFFFFFFFFFFFFFFFFFFFFFFFFFFFFFFFFFFFFFFFFFFFFFFFFFFFFF
310
FFFFFFFFFFFFFFFFF000FFFFFFFFFFFFFFFFFFFFFFFFFFFFFFFFFFFFFFFFFFFF
310
FFFFFFFFFFFFFFFFFFFFFFFFFFFFFFFFFFFFFFFFFFFFFFFFFFFFFFFFFFFFFFFF
310
FFFFFFFFFFFFFFFFFFFFFFFFFFFFFFFFFFFFFFFFFFFFFFFFFFFFFFFFFFFFFFFF
310
F000FFFFFFFFFFFFFFFFFFFFFFFFFFFFFFFFFFFFFFFFFFFFFFFFFFFFFFFFFFFF
310
FFFFFFFFFFFFFFFFFFFFFFFFFFFFFFFFFFFFFFFFFFFFFFFFFFFFFFFFFFFFFFFF
310
FFFFFFFFFFFFFFFFFFFFFFFFFFFFFFFFFFFFFFFFFFFFFFFFF000FFFFFFFFFFFF
310
FFFFFFFFFFFFFFFFFFFFFFFFFFFFFFFFFFFFFFFFFFFFFFFFFFFFFFFFFFFFFFFF
310
FFFFFFFFFFFFFFFFFFFFFFFFFFFFFFFFFFFFFFFFFFFFFFFFFFFFFFFFFFFFFFFF
310
FFFFFFFFFFFFFFFFFFFFFFFFFFFFFFFFF000FFFFFFFFFFFFFFFFFFFFFFFFFFFF
310
FFFFFFFFFFFFFFFFFFFFFFFFFFFFFFFFFFFFFFFFFFFFFFFFFFFFFFFFFFFFFFFF
310
FFFFFFFFFFFFFFFFFFFFFFFFFFFFFFFFFFFFFFFFFFFFFFFFFFFFFFFFFFFFFFFF
310
FFFFFFFFFFFFFFFFF000FFFFFFFFFFFFFFFFFFFFFFFFFFFFFFFFFFFFFFFFFFFF
310
FFFFFFFFFFFFFFFFFFFFFFFFFFFFFFFFFFFFFFFFFFFFFFFFFFFFFFFFFFFFFFFF
310
FFFFFFFFFFFFFFFFFFFFFFFFFFFFFFFFFFFFFFFFFFFFFFFFFFFFFFFFFFFFFFFF
310
F000FFFFFFFFFFFFFFFFFFFFFFFFFFFFFFFFFFFFFFFFFFFFFFFFFFFFFFFFFFFF
310
FFFFFFFFFFFFFFFFFFFFFFFFFFFFFFFFFFFFFFFFFFFFFFFFFFFFFFFFFFFFFFFF
310
FFFFFFFFFFFFFFFFFFFFFFFFFFFFFFFFFFFFFFFFFFFFFFFFF000FFFFFFFFFFFF
310
FFFFFFFFFFFFFFFFFFFFFFFFFFFFFFFFFFFFFFFFFFFFFFFFFFFFFFFFFFFFFFFF
310
FFFFFFFFFFFFFFFFFFFFFFFFFFFFFFFFFFFFFFFFFFFFFFFFFFFFFFFFFFFFFFFF
310
FFFFFFFFFFFFFFFFFFFFFFFFFFFFFFFFF000FFFFFFFFFFFFFFFFFFFFFFFFFFFF
310
FFFFFFFFFFFFFFFFFFFFFFFFFFFFFFFFFFFFFFFFFFFFFFFFFFFFFFFFFFFFFFFF
310
FFFFFFFFFFFFFFFFFFFFFFFFFFFFFFFFFFFFFFFFFFFFFFFFFFFFFFFFFFFFFFFF
310
FFFFFFFFFFFFFFFFF000FFFFFFFFFFFFFFFFFFFFFFFFFFFFFFFFFFFFFFFFFFFF
310
FFFFFFFFFFFFFFFFFFFFFFFFFFFFFFFFFFFFFFFFFFFFFFFFFFFFFFFFFFFFFFFF
310
FFFFFFFFFFFFFFFFFFFFFFFFFFFFFFFFFFFFFFFFFFFFFFFFFFFFFFFFFFFFFFFF
310
F000FFFFFFFFFFFFFFFFFFFFFFFFFFFFFFFFFFFFFFFFFFFFFFFFFFFFFFFFFFFF
310
FFFFFFFFFFFFFFFFFFFFFFFFFFFFFFFFFFFFFFFFFFFFFFFFFFFFFFFFFFFFFFFF
310
FFFFFFFFFFFFFFFFFFFFFFFFFFFFFFFFFFFFFFFFFFFFFFFFF000FFFFFFFFFFFF
310
FFFFFFFFFFFFFFFFFFFFFFFFFFFFFFFFFFFFFFFFFFFFFFFFFFFFFFFFFFFFFFFF
310
FFFFFFFFFFFFFFFFFFFFFFFFFFFFFFFFFFFFFFFFFFFFFFFFFFFFFFFFFFFFFFFF
310
FFFFFFFFFFFFFFFFFFFFFFFFFFFFFFFFF000FFFFFFFFFFFFFFFFFFFFFFFFFFFF
310
FFFFFFFFFFFFFFFFFFFFFFFFFFFFFFFFFFFFFFFFFFFFFFFFFFFFFFFFFFFFFFFF
310
FFFFFFFFFFFFFFFFFFFFFFFFFFFFFFFFFFFFFFFFFFFFFFFFFFFFFFFFFFFFFFFF
310
FFFFFFFFFFFFFFFFF000FFFFFFFFFFFFFFFFFFFFFFFFFFFFFFFFFFFFFFFFFFFF
310
FFFFFFFFFFFFFFFFFFFFFFFFFFFFFFFFFFFFFFFFFFFFFFFFFFFFFFFFFFFFFFFF
310
FFFFFFFFFFFFFFFFFFFFFFFFFFFFFFFFFFFFFFFFFFFFFFFFFFFFFFFFFFFFFFFF
310
F000FFFFFFFFFFFFFFFFFFFFFFFFFFFFFFFFFFFFFFFFFFFFFFFFFFFFFFFFFFFF
310
FFFFFFFFFFFFFFFFFFFFFFFFFFFFFFFFFFFFFFFFFFFFFFFFFFFFFFFFFFFFFFFF
310
FFFFFFFFFFFFFFFFFFFFFFFFFFFFFFFFFFFFFFFFFFFFFFFFF000FFFFFFFFFFFF
310
FFFFFFFFFFFFFFFFFFFFFFFFFFFFFFFFFFFFFFFFFFFFFFFFFFFFFFFFFFFFFFFF
310
FFFFFFFFFFFFFFFFFFFFFFFFFFFFFFFFFFFFFFFFFFFFFFFFFFFFFFFFFFFFFFFF
310
FFFFFFFFFFFFFFFFFFFFFFFFFFFFFFFFF000FFFFFFFFFFFFFFFFFFFFFFFFFFFF
310
FFFFFFFFFFFFFFFFFFFFFFFFFFFFFFFFFFFFFFFFFFFFFFFFFFFFFFFFFFFFFFFF
310
FFFFFFFFFFFFFFFFFFFFFFFFFFFFFFFFFFFFFFFFFFFFFFFFFFFFFFFFFFFFFFFF
310
FFFFFFFFFFFFFFFFF000FFFFFFFFFFFFFFFFFFFFFFFFFFFFFFFFFFFFFFFFFFFF
310
FFFFFFFFFFFFFFFFFFFFFFFFFFFFFFFFFFFFFFFFFFFFFFFFFFFFFFFFFFFFFFFF
310
FFFFFFFFFFFFFFFFFFFFFFFFFFFFFFFFFFFFFFFFFFFFFFFFFFFFFFFFFFFFFFFF
310
F000FFFFFFFFFFFFFFFFFFFFFFFFFFFFFFFFFFFFFFFFFFFFFFFFFFFFFFFFFFFF
310
FFFFFFFFFFFFFFFFFFFFFFFFFFFFFFFFFFFFFFFFFFFFFFFFFFFFFFFFFFFFFFFF
310
FFFFFFFFFFFFFFFFFFFFFFFFFFFFFFFFFFFFFFFFFFFFFFFFF000FFFFFFFFFFFF
310
FFFFFFFFFFFFFFFFFFFFFFFFFFFFFFFFFFFFFFFFFFFFFFFFFFFFFFFFFFFFFFFF
310
FFFFFFFFFFFFFFFFFFFFFFFFFFFFFFFFFFFFFFFFFFFFFFFFFFFFFFFFFFFFFFFF
310
FFFFFFFFFFFFFFFFFFFFFFFFFFFFFFFFF0000000000000000000000000000000
310
0000000000000000000000000000000000000000000000000000000000000000
310
0000000000000000000000000000000000000000000000000000000000000000
310
0000000000000000000000000000000000000000000000000000000000000000
310
0000000000000000000000000000000000000000000000000000000000000000
310
0000000000000000000000000000000000000000000000000000000000000000
310
0000000000000000000000000000000000000000000000000000000000000000
310
0000000000000000000000000000000000000000000000000000000000000000
310
0000000000000000000000000000000000000000000000000000000000000000
310
0000000000000000000000000000000000000000000000000000000000000000
310
0000000000000000000000000000000000000000000000000000000000000000
310
0000000000000000000000000000000000000000000000000000000000000000
310
0000000000000000000000000000000000000000000000000000000000000000
310
0000000000000000000000000000000000000000000000000000000000000000
310
0000000000000000000000000000000000000000000000000000000000000000
310
0000000000000000000000000000000000000000000000000000000000000000
  1
OLE
  0
ENDSEC
  0
SECTION
  2
OBJECTS
  0
DICTIONARY
  5
C
330
0
100
AcDbDictionary
281
     1
  3
ACAD_GROUP
350
D
  3
ACAD_LAYOUT
350
1A
  3
ACAD_MLINESTYLE
350
17
  3
ACAD_PLOTSETTINGS
350
19
  3
ACAD_PLOTSTYLENAME
350
E
  0
DICTIONARY
  5
D
102
{ACAD_REACTORS
330
C
102
}
330
C
100
AcDbDictionary
281
     1
  0
DICTIONARY
  5
1A
102
{ACAD_REACTORS
330
C
102
}
330
C
100
AcDbDictionary
281
     1
  3
Layout1
350
1E
  3
Layout2
350
26
  3
Model
350
22
  0
DICTIONARY
  5
17
102
{ACAD_REACTORS
330
C
102
}
330
C
100
AcDbDictionary
281
     1
  3
Standard
350
18
  0
DICTIONARY
  5
19
102
{ACAD_REACTORS
330
C
102
}
330
C
100
AcDbDictionary
281
     1
  0
ACDBDICTIONARYWDFLT
  5
E
102
{ACAD_REACTORS
330
C
102
}
330
C
100
AcDbDictionary
281
     1
  3
Normal
350
F
100
AcDbDictionaryWithDefault
340
F
  0
LAYOUT
  5
1E
102
{ACAD_REACTORS
330
1A
102
}
330
1A
100
AcDbPlotSettings
  1

  2
none_device
  4

  6

 40
0.0
 41
0.0
 42
0.0
 43
0.0
 44
0.0
 45
0.0
 46
0.0
 47
0.0
 48
0.0
 49
0.0
140
0.0
141
0.0
142
1.0
143
1.0
 70
   688
 72
     0
 73
     0
 74
     5
  7

 75
    16
147
1.0
148
0.0
149
0.0
100
AcDbLayout
  1
Layout1
 70
     1
 71
     1
 10
0.0
 20
0.0
 11
420.0
 21
297.0
 12
0.0
 22
0.0
 32
0.0
 14
1.0000000000E+20
 24
1.0000000000E+20
 34
1.0000000000E+20
 15
-1.0000000000E+20
 25
-1.0000000000E+20
 35
-1.0000000000E+20
146
0.0
 13
0.0
 23
0.0
 33
0.0
 16
1.0
 26
0.0
 36
0.0
 17
0.0
 27
1.0
 37
0.0
 76
     0
330
1B
  0
LAYOUT
  5
26
102
{ACAD_REACTORS
330
1A
102
}
330
1A
100
AcDbPlotSettings
  1

  2
none_device
  4

  6

 40
0.0
 41
0.0
 42
0.0
 43
0.0
 44
0.0
 45
0.0
 46
0.0
 47
0.0
 48
0.0
 49
0.0
140
0.0
141
0.0
142
1.0
143
1.0
 70
   688
 72
     0
 73
     0
 74
     5
  7

 75
    16
147
1.0
148
0.0
149
0.0
100
AcDbLayout
  1
Layout2
 70
     1
 71
     2
 10
0.0
 20
0.0
 11
0.0
 21
0.0
 12
0.0
 22
0.0
 32
0.0
 14
0.0
 24
0.0
 34
0.0
 15
0.0
 25
0.0
 35
0.0
146
0.0
 13
0.0
 23
0.0
 33
0.0
 16
1.0
 26
0.0
 36
0.0
 17
0.0
 27
1.0
 37
0.0
 76
     0
330
23
  0
LAYOUT
  5
22
102
{ACAD_REACTORS
330
1A
102
}
330
1A
100
AcDbPlotSettings
  1

  2
none_device
  4

  6

 40
0.0
 41
0.0
 42
0.0
 43
0.0
 44
0.0
 45
0.0
 46
0.0
 47
0.0
 48
0.0
 49
0.0
140
0.0
141
0.0
142
1.0
143
1.0
 70
  1712
 72
     0
 73
     0
 74
     0
  7

 75
     0
147
1.0
148
0.0
149
0.0
100
AcDbLayout
  1
Model
 70
     1
 71
     0
 10
0.0
 20
0.0
 11
297.0
 21
210.0
 12
0.0
 22
0.0
 32
0.0
 14
0.0
 24
0.0
 34
0.0
 15
297.0
 25
210.0
 35
0.0
146
0.0
 13
0.0
 23
0.0
 33
0.0
 16
1.0
 26
0.0
 36
0.0
 17
0.0
 27
1.0
 37
0.0
 76
     0
330
1F
331
29
  0
MLINESTYLE
  5
18
102
{ACAD_REACTORS
330
17
102
}
330
17
100
AcDbMlineStyle
  2
Standard
 70
     0
  3

 62
   256
 51
90.0
 52
90.0
 71
     2
 49
0.5
 62
   256
  6
BYLAYER
 49
-0.5
 62
   256
  6
BYLAYER
  0
ACDBPLACEHOLDER
  5
F
102
{ACAD_REACTORS
330
E
102
}
330
E
  0
ENDSEC
  0
EOF
