  0
SECTION
  2
HEADER
  9
$ACADVER
  1
AC1015
  9
$ACADMAINTVER
 70
     6
  9
$DWGCODEPAGE
  3
ANSI_1252
  9
$INSBASE
 10
0.0
 20
0.0
 30
0.0
  9
$EXTMIN
 10
0.0
 20
0.0
 30
0.0
  9
$EXTMAX
 10
297.0
 20
210.0
 30
0.0
  9
$LIMMIN
 10
0.0
 20
0.0
  9
$LIMMAX
 10
297.0
 20
210.0
  9
$ORTHOMODE
 70
     0
  9
$REGENMODE
 70
     1
  9
$FILLMODE
 70
     1
  9
$QTEXTMODE
 70
     0
  9
$MIRRTEXT
 70
     1
  9
$LTSCALE
 40
1.0
  9
$ATTMODE
 70
     1
  9
$TEXTSIZE
 40
2.0
  9
$TRACEWID
 40
1.0
  9
$TEXTSTYLE
  7
Standard
  9
$CLAYER
  8
0
  9
$CELTYPE
  6
ByLayer
  9
$CECOLOR
 62
   256
  9
$CELTSCALE
 40
1.0
  9
$DISPSILH
 70
     0
  9
$DIMSCALE
 40
1.0
  9
$DIMASZ
 40
3.0
  9
$DIMEXO
 40
0.0
  9
$DIMDLI
 40
3.75
  9
$DIMRND
 40
0.0
  9
$DIMDLE
 40
0.0
  9
$DIMEXE
 40
1.0
  9
$DIMTP
 40
0.0
  9
$DIMTM
 40
0.0
  9
$DIMTXT
 40
2.0
  9
$DIMCEN
 40
2.5
  9
$DIMTSZ
 40
0.0
  9
$DIMTOL
 70
     0
  9
$DIMLIM
 70
     0
  9
$DIMTIH
 70
     1
  9
$DIMTOH
 70
     1
  9
$DIMSE1
 70
     0
  9
$DIMSE2
 70
     0
  9
$DIMTAD
 70
     1
  9
$DIMZIN
 70
     0
  9
$DIMBLK
  1

  9
$DIMASO
 70
     1
  9
$DIMSHO
 70
     1
  9
$DIMPOST
  1

  9
$DIMAPOST
  1

  9
$DIMALT
 70
     0
  9
$DIMALTD
 70
     3
  9
$DIMALTF
 40
0.0393700787
  9
$DIMLFAC
 40
1.0
  9
$DIMTOFL
 70
     1
  9
$DIMTVP
 40
0.0
  9
$DIMTIX
 70
     0
  9
$DIMSOXD
 70
     0
  9
$DIMSAH
 70
     0
  9
$DIMBLK1
  1

  9
$DIMBLK2
  1

  9
$DIMSTYLE
  2
ISO-25
  9
$DIMCLRD
 70
     0
  9
$DIMCLRE
 70
     0
  9
$DIMCLRT
 70
     0
  9
$DIMTFAC
 40
1.0
  9
$DIMGAP
 40
1.524
  9
$DIMJUST
 70
     0
  9
$DIMSD1
 70
     0
  9
$DIMSD2
 70
     0
  9
$DIMTOLJ
 70
     0
  9
$DIMTZIN
 70
     0
  9
$DIMALTZ
 70
     0
  9
$DIMALTTZ
 70
     0
  9
$DIMUPT
 70
     0
  9
$DIMDEC
 70
     2
  9
$DIMTDEC
 70
     3
  9
$DIMALTU
 70
     2
  9
$DIMALTTD
 70
     3
  9
$DIMTXSTY
  7
Standard
  9
$DIMAUNIT
 70
     0
  9
$DIMADEC
 70
     2
  9
$DIMALTRND
 40
0.0
  9
$DIMAZIN
 70
     0
  9
$DIMDSEP
 70
    44
  9
$DIMATFIT
 70
     3
  9
$DIMFRAC
 70
     0
  9
$DIMLDRBLK
  1

  9
$DIMLUNIT
 70
     2
  9
$DIMLWD
 70
    -2
  9
$DIMLWE
 70
    -2
  9
$DIMTMOVE
 70
     0
  9
$LUNITS
 70
     2
  9
$LUPREC
 70
     2
  9
$SKETCHINC
 40
1.0
  9
$FILLETRAD
 40
10.0
  9
$AUNITS
 70
     0
  9
$AUPREC
 70
     2
  9
$MENU
  1
.
  9
$ELEVATION
 40
0.0
  9
$PELEVATION
 40
0.0
  9
$THICKNESS
 40
0.0
  9
$LIMCHECK
 70
     0
  9
$CHAMFERA
 40
10.0
  9
$CHAMFERB
 40
10.0
  9
$CHAMFERC
 40
20.0
  9
$CHAMFERD
 40
0.0
  9
$SKPOLY
 70
     0
  9
$TDCREATE
 40
2456044.690422037
  9
$TDUCREATE
 40
2456044.607088704
  9
$TDUPDATE
 40
2456044.690423484
  9
$TDUUPDATE
 40
2456044.60709015
  9
$TDINDWG
 40
0.0000000116
  9
$TDUSRTIMER
 40
0.0000000116
  9
$USRTIMER
 70
     1
  9
$ANGBASE
 50
0.0
  9
$ANGDIR
 70
     0
  9
$PDMODE
 70
     0
  9
$PDSIZE
 40
-1.0
  9
$PLINEWID
 40
0.0
  9
$SPLFRAME
 70
     0
  9
$SPLINETYPE
 70
     6
  9
$SPLINESEGS
 70
     8
  9
$HANDSEED
  5
267
  9
$SURFTAB1
 70
     6
  9
$SURFTAB2
 70
     6
  9
$SURFTYPE
 70
     6
  9
$SURFU
 70
     6
  9
$SURFV
 70
     6
  9
$UCSBASE
  2

  9
$UCSNAME
  2

  9
$UCSORG
 10
0.0
 20
0.0
 30
0.0
  9
$UCSXDIR
 10
1.0
 20
0.0
 30
0.0
  9
$UCSYDIR
 10
0.0
 20
1.0
 30
0.0
  9
$UCSORTHOREF
  2

  9
$UCSORTHOVIEW
 70
     0
  9
$UCSORGTOP
 10
0.0
 20
0.0
 30
0.0
  9
$UCSORGBOTTOM
 10
0.0
 20
0.0
 30
0.0
  9
$UCSORGLEFT
 10
0.0
 20
0.0
 30
0.0
  9
$UCSORGRIGHT
 10
0.0
 20
0.0
 30
0.0
  9
$UCSORGFRONT
 10
0.0
 20
0.0
 30
0.0
  9
$UCSORGBACK
 10
0.0
 20
0.0
 30
0.0
  9
$PUCSBASE
  2

  9
$PUCSNAME
  2

  9
$PUCSORG
 10
0.0
 20
0.0
 30
0.0
  9
$PUCSXDIR
 10
1.0
 20
0.0
 30
0.0
  9
$PUCSYDIR
 10
0.0
 20
1.0
 30
0.0
  9
$PUCSORTHOREF
  2

  9
$PUCSORTHOVIEW
 70
     0
  9
$PUCSORGTOP
 10
0.0
 20
0.0
 30
0.0
  9
$PUCSORGBOTTOM
 10
0.0
 20
0.0
 30
0.0
  9
$PUCSORGLEFT
 10
0.0
 20
0.0
 30
0.0
  9
$PUCSORGRIGHT
 10
0.0
 20
0.0
 30
0.0
  9
$PUCSORGFRONT
 10
0.0
 20
0.0
 30
0.0
  9
$PUCSORGBACK
 10
0.0
 20
0.0
 30
0.0
  9
$USERI1
 70
     0
  9
$USERI2
 70
     0
  9
$USERI3
 70
     0
  9
$USERI4
 70
     0
  9
$USERI5
 70
     0
  9
$USERR1
 40
0.0
  9
$USERR2
 40
0.0
  9
$USERR3
 40
0.0
  9
$USERR4
 40
0.0
  9
$USERR5
 40
0.0
  9
$WORLDVIEW
 70
     1
  9
$SHADEDGE
 70
     3
  9
$SHADEDIF
 70
    70
  9
$TILEMODE
 70
     1
  9
$MAXACTVP
 70
    64
  9
$PINSBASE
 10
0.0
 20
0.0
 30
0.0
  9
$PLIMCHECK
 70
     0
  9
$PEXTMIN
 10
1.0000000000E+20
 20
1.0000000000E+20
 30
1.0000000000E+20
  9
$PEXTMAX
 10
-1.0000000000E+20
 20
-1.0000000000E+20
 30
-1.0000000000E+20
  9
$PLIMMIN
 10
0.0
 20
0.0
  9
$PLIMMAX
 10
420.0
 20
297.0
  9
$UNITMODE
 70
     0
  9
$VISRETAIN
 70
     1
  9
$PLINEGEN
 70
     0
  9
$PSLTSCALE
 70
     1
  9
$TREEDEPTH
 70
  3020
  9
$CMLSTYLE
  2
Standard
  9
$CMLJUST
 70
     0
  9
$CMLSCALE
 40
20.0
  9
$PROXYGRAPHICS
 70
     1
  9
$MEASUREMENT
 70
     1
  9
$CELWEIGHT
370
    -1
  9
$ENDCAPS
280
     0
  9
$JOINSTYLE
280
     0
  9
$LWDISPLAY
290
     1
  9
$INSUNITS
 70
     4
  9
$HYPERLINKBASE
  1

  9
$STYLESHEET
  1

  9
$XEDIT
290
     1
  9
$CEPSNTYPE
380
     0
  9
$PSTYLEMODE
290
     1
  9
$FINGERPRINTGUID
  2
{31807516-337A-49CE-AD28-B08030EBB6CD}
  9
$VERSIONGUID
  2
{FAEB1C32-E019-11D5-929B-00C0DF256EC4}
  9
$EXTNAMES
290
     1
  9
$PSVPSCALE
 40
0.0
  9
$OLESTARTUP
290
     0
  0
ENDSEC
  0
SECTION
  2
CLASSES
  0
CLASS
  1
ACDBDICTIONARYWDFLT
  2
AcDbDictionaryWithDefault
  3
ObjectDBX Classes
 90
        0
280
     0
281
     0
  0
CLASS
  1
VISUALSTYLE
  2
AcDbVisualStyle
  3
ObjectDBX Classes
 90
     4095
280
     0
281
     0
  0
CLASS
  1
MATERIAL
  2
AcDbMaterial
  3
ObjectDBX Classes
 90
     1153
280
     0
281
     0
  0
CLASS
  1
ACDBPLACEHOLDER
  2
AcDbPlaceHolder
  3
ObjectDBX Classes
 90
        0
280
     0
281
     0
  0
CLASS
  1
LAYOUT
  2
AcDbLayout
  3
ObjectDBX Classes
 90
        0
280
     0
281
     0
  0
ENDSEC
  0
SECTION
  2
TABLES
  0
TABLE
  2
VPORT
  5
8
330
0
100
AcDbSymbolTable
 70
     1
  0
VPORT
  5
29
330
8
100
AcDbSymbolTableRecord
100
AcDbViewportTableRecord
  2
*Active
 70
     0
 10
0.0
 20
0.0
 11
1.0
 21
1.0
 12
148.5
 22
105.0
 13
0.0
 23
0.0
 14
10.0
 24
10.0
 15
10.0
 25
10.0
 16
0.0
 26
0.0
 36
1.0
 17
0.0
 27
0.0
 37
0.0
 40
210.0
 41
1.4142857143
 42
50.0
 43
0.0
 44
0.0
 50
0.0
 51
0.0
 71
     0
 72
  2000
 73
     1
 74
     3
 75
     0
 76
     0
 77
     0
 78
     0
281
     0
 65
     1
110
0.0
120
0.0
130
0.0
111
1.0
121
0.0
131
0.0
112
0.0
122
1.0
132
0.0
 79
     0
146
0.0
  0
ENDTAB
  0
TABLE
  2
LTYPE
  5
5
330
0
100
AcDbSymbolTable
 70
     6
  0
LTYPE
  5
14
330
5
100
AcDbSymbolTableRecord
100
AcDbLinetypeTableRecord
  2
ByBlock
 70
     0
  3

 72
    65
 73
     0
 40
0.0
  0
LTYPE
  5
15
330
5
100
AcDbSymbolTableRecord
100
AcDbLinetypeTableRecord
  2
ByLayer
 70
     0
  3

 72
    65
 73
     0
 40
0.0
  0
LTYPE
  5
16
330
5
100
AcDbSymbolTableRecord
100
AcDbLinetypeTableRecord
  2
Continuous
 70
     0
  3
Solid line
 72
    65
 73
     0
 40
0.0
  0
LTYPE
  5
3F
330
5
100
AcDbSymbolTableRecord
100
AcDbLinetypeTableRecord
  2
HIDDEN
 70
     0
  3
Hidden __ __ __ __ __ __ __ __ __ __ __ __ __ __
 72
    65
 73
     2
 40
1.905
 49
1.27
 74
     0
 49
-0.635
 74
     0
  0
LTYPE
  5
40
330
5
100
AcDbSymbolTableRecord
100
AcDbLinetypeTableRecord
  2
PHANTOM
 70
     0
  3
Phantom ______  __  __  ______  __  __  ______
 72
    65
 73
     6
 40
12.7
 49
6.35
 74
     0
 49
-1.27
 74
     0
 49
1.27
 74
     0
 49
-1.27
 74
     0
 49
1.27
 74
     0
 49
-1.27
 74
     0
  0
LTYPE
  5
41
330
5
100
AcDbSymbolTableRecord
100
AcDbLinetypeTableRecord
  2
CENTER
 70
     0
  3
Center ____ _ ____ _ ____ _ ____ _ ____ _ ____
 72
    65
 73
     4
 40
10.16
 49
6.35
 74
     0
 49
-1.27
 74
     0
 49
1.27
 74
     0
 49
-1.27
 74
     0
  0
LTYPE
  5
42
330
5
100
AcDbSymbolTableRecord
100
AcDbLinetypeTableRecord
  2
CENTERX2
 70
     0
  3
Center (2x) ________  __  ________  __  _____
 72
    65
 73
     4
 40
20.32
 49
12.7
 74
     0
 49
-2.54
 74
     0
 49
2.54
 74
     0
 49
-2.54
 74
     0
  0
LTYPE
  5
43
330
5
100
AcDbSymbolTableRecord
100
AcDbLinetypeTableRecord
  2
DOT2
 70
     0
  3
Dot (.5x) ........................................
 72
    65
 73
     2
 40
0.635
 49
0.0
 74
     0
 49
-0.635
 74
     0
  0
ENDTAB
  0
TABLE
  2
LAYER
  5
2
330
0
100
AcDbSymbolTable
 70
     5
  0
LAYER
  5
10
330
2
100
AcDbSymbolTableRecord
100
AcDbLayerTableRecord
  2
0
 70
     0
 62
     7
  6
Continuous
370
    -3
390
F
  0
LAYER
  5
44
330
2
100
AcDbSymbolTableRecord
100
AcDbLayerTableRecord
  2
FORMAT
 70
     0
 62
     7
  6
Continuous
370
    -3
390
F
  0
LAYER
  5
45
330
2
100
AcDbSymbolTableRecord
100
AcDbLayerTableRecord
  2
VERMASSUNG
 70
     0
 62
     7
  6
Continuous
370
    -3
390
F
  0
LAYER
  5
46
330
2
100
AcDbSymbolTableRecord
100
AcDbLayerTableRecord
  2
KOPF_DÜNN
 70
     0
 62
     7
  6
Continuous
370
    -3
390
F
  0
LAYER
  5
47
330
2
100
AcDbSymbolTableRecord
100
AcDbLayerTableRecord
  2
KOPF_DICK
 70
     0
 62
     7
  6
Continuous
370
    15
390
F
  0
ENDTAB
  0
TABLE
  2
STYLE
  5
3
330
0
100
AcDbSymbolTable
 70
     2
  0
STYLE
  5
11
330
3
100
AcDbSymbolTableRecord
100
AcDbTextStyleTableRecord
  2
Standard
 70
     0
 40
0.0
 41
1.0
 50
0.0
 71
     0
 42
2.0
  3
txt
  4

  0
STYLE
  5
48
330
3
100
AcDbSymbolTableRecord
100
AcDbTextStyleTableRecord
  2
SLDTEXTSTYLE0
 70
     0
 40
0.0
 41
0.7
 50
0.0
 71
     0
 42
0.2
  3
TXT
  4

  0
ENDTAB
  0
TABLE
  2
VIEW
  5
6
330
0
100
AcDbSymbolTable
 70
     0
  0
ENDTAB
  0
TABLE
  2
UCS
  5
7
330
0
100
AcDbSymbolTable
 70
     0
  0
ENDTAB
  0
TABLE
  2
APPID
  5
9
330
0
100
AcDbSymbolTable
 70
     1
  0
APPID
  5
12
330
9
100
AcDbSymbolTableRecord
100
AcDbRegAppTableRecord
  2
ACAD
 70
     0
  0
ENDTAB
  0
TABLE
  2
DIMSTYLE
  5
A
330
0
100
AcDbSymbolTable
 70
     4
100
AcDbDimStyleTable
  0
DIMSTYLE
105
27
330
A
100
AcDbSymbolTableRecord
100
AcDbDimStyleTableRecord
  2
ISO-25
 70
     0
 41
2.5
 42
0.625
 43
3.75
 44
1.25
 73
     0
 74
     0
 77
     1
 78
     8
140
2.5
141
2.5
143
0.0393700787
147
0.625
171
     3
172
     1
178
     0
271
     2
272
     2
274
     3
278
    44
283
     0
284
     8
340
11
  0
DIMSTYLE
105
1BF
102
{ACAD_REACTORS
330
1BE
330
1ED
102
}
330
A
100
AcDbSymbolTableRecord
100
AcDbDimStyleTableRecord
  2
SLDDIMSTYLE0
 70
     0
 41
3.0
 44
0.0
 45
0.000000001
 73
     0
 74
     0
 77
     1
 78
    12
 79
     3
140
2.0
147
0.5
173
     1
178
     0
271
     2
272
     3
276
     2
284
    12
340
48
  0
DIMSTYLE
105
1CA
102
{ACAD_REACTORS
330
1C9
330
1D6
102
}
330
A
100
AcDbSymbolTableRecord
100
AcDbDimStyleTableRecord
  2
SLDDIMSTYLE1
 70
     0
 41
3.0
 44
0.0
 45
0.000000001
 47
0.1
 48
0.1
 71
     1
 73
     0
 74
     0
 77
     1
 78
    12
 79
     3
140
2.0
147
0.5
173
     1
178
     0
271
     2
272
     1
276
     2
284
     8
340
48
  0
DIMSTYLE
105
1E3
102
{ACAD_REACTORS
330
1E2
102
}
330
A
100
AcDbSymbolTableRecord
100
AcDbDimStyleTableRecord
  2
SLDDIMSTYLE2
 70
     0
 41
3.0
 44
0.0
 73
     0
 74
     0
 77
     1
 78
    12
 79
     3
140
2.0
147
0.5
173
     1
178
     0
179
     1
272
     3
276
     2
284
    12
340
48
  0
ENDTAB
  0
TABLE
  2
BLOCK_RECORD
  5
1
330
0
100
AcDbSymbolTable
 70
     7
  0
BLOCK_RECORD
  5
1F
330
1
100
AcDbSymbolTableRecord
100
AcDbBlockTableRecord
  2
*Model_Space
340
22
  0
BLOCK_RECORD
  5
1B
330
1
100
AcDbSymbolTableRecord
100
AcDbBlockTableRecord
  2
*Paper_Space
340
1E
  0
BLOCK_RECORD
  5
23
330
1
100
AcDbSymbolTableRecord
100
AcDbBlockTableRecord
  2
*Paper_Space0
340
26
  0
BLOCK_RECORD
  5
1C0
330
1
100
AcDbSymbolTableRecord
100
AcDbBlockTableRecord
  2
_D
340
0
  0
BLOCK_RECORD
  5
1CB
330
1
100
AcDbSymbolTableRecord
100
AcDbBlockTableRecord
  2
_D_1
340
0
  0
BLOCK_RECORD
  5
1D7
330
1
100
AcDbSymbolTableRecord
100
AcDbBlockTableRecord
  2
_D_2
340
0
  0
BLOCK_RECORD
  5
1E4
330
1
100
AcDbSymbolTableRecord
100
AcDbBlockTableRecord
  2
_D_3
340
0
  0
BLOCK_RECORD
  5
1EE
330
1
100
AcDbSymbolTableRecord
100
AcDbBlockTableRecord
  2
_D_4
340
0
  0
BLOCK_RECORD
  5
25A
330
1
100
AcDbSymbolTableRecord
100
AcDbBlockTableRecord
  2
SW_CENTERMARKSYMBOL_0
340
0
102
{BLKREFS
331
265
102
}
  0
ENDTAB
  0
ENDSEC
  0
SECTION
  2
BLOCKS
  0
BLOCK
  5
20
330
1F
100
AcDbEntity
  8
0
100
AcDbBlockBegin
  2
*Model_Space
 70
     0
 10
0.0
 20
0.0
 30
0.0
  3
*Model_Space
  1

  0
ENDBLK
  5
21
330
1F
100
AcDbEntity
  8
0
100
AcDbBlockEnd
  0
BLOCK
  5
1C
330
1B
100
AcDbEntity
 67
     1
  8
0
100
AcDbBlockBegin
  2
*Paper_Space
 70
     0
 10
0.0
 20
0.0
 30
0.0
  3
*Paper_Space
  1

  0
ENDBLK
  5
1D
330
1B
100
AcDbEntity
 67
     1
  8
0
100
AcDbBlockEnd
  0
BLOCK
  5
24
330
23
100
AcDbEntity
  8
0
100
AcDbBlockBegin
  2
*Paper_Space0
 70
     0
 10
0.0
 20
0.0
 30
0.0
  3
*Paper_Space0
  1

  0
ENDBLK
  5
25
330
23
100
AcDbEntity
  8
0
100
AcDbBlockEnd
  0
BLOCK
  5
1C1
330
1C0
100
AcDbEntity
  8
0
100
AcDbBlockBegin
  2
_D
 70
     0
 10
0.0
 20
0.0
 30
0.0
  3
_D
  1

  0
SOLID
  5
1C3
330
1C0
100
AcDbEntity
  8
VERMASSUNG
100
AcDbTrace
 10
141.7860932901
 20
168.6158913075
 30
0.0
 11
144.7860932901
 21
168.1658913075
 31
0.0
 12
144.7860932901
 22
169.0658913075
 32
0.0
 13
144.7860932901
 23
169.0658913075
 33
0.0
  0
SOLID
  5
1C4
330
1C0
100
AcDbEntity
  8
VERMASSUNG
100
AcDbTrace
 10
244.7860932901
 20
168.6158913075
 30
0.0
 11
241.7860932901
 21
169.0658913075
 31
0.0
 12
241.7860932901
 22
168.1658913075
 32
0.0
 13
241.7860932901
 23
168.1658913075
 33
0.0
  0
LINE
  5
1C5
330
1C0
100
AcDbEntity
  8
VERMASSUNG
100
AcDbLine
 10
141.7860932901
 20
129.0853807209
 30
0.0
 11
141.7860932901
 21
169.6158913075
 31
0.0
  0
LINE
  5
1C6
330
1C0
100
AcDbEntity
  8
VERMASSUNG
100
AcDbLine
 10
244.7860932901
 20
153.7930427284
 30
0.0
 11
244.7860932901
 21
169.6158913075
 31
0.0
  0
LINE
  5
1C7
330
1C0
100
AcDbEntity
  8
VERMASSUNG
100
AcDbLine
 10
141.7860932901
 20
168.6158913075
 30
0.0
 11
244.7860932901
 21
168.6158913075
 31
0.0
  0
MTEXT
  5
1C8
330
1C0
100
AcDbEntity
  8
VERMASSUNG
100
AcDbMText
 10
190.4860931572
 20
171.1940266706
 30
0.1
 40
2.0
 41
0.0
 71
     1
 72
     1
  1
103
  7
SLDTEXTSTYLE0
 73
     1
 44
1.0
  0
ENDBLK
  5
1C2
330
1C0
100
AcDbEntity
  8
0
100
AcDbBlockEnd
  0
BLOCK
  5
1CC
330
1CB
100
AcDbEntity
  8
0
100
AcDbBlockBegin
  2
_D_1
 70
     0
 10
0.0
 20
0.0
 30
0.0
  3
_D_1
  1

  0
SOLID
  5
1CE
330
1CB
100
AcDbEntity
  8
VERMASSUNG
100
AcDbTrace
 10
270.4196592165
 20
153.7930427284
 30
0.0
 11
269.9696592165
 21
150.7930427284
 31
0.0
 12
270.8696592165
 22
150.7930427284
 32
0.0
 13
270.8696592165
 23
150.7930427284
 33
0.0
  0
SOLID
  5
1CF
330
1CB
100
AcDbEntity
  8
VERMASSUNG
100
AcDbTrace
 10
270.4196592165
 20
108.7930427284
 30
0.0
 11
270.8696592165
 21
111.7930427284
 31
0.0
 12
269.9696592165
 22
111.7930427284
 32
0.0
 13
269.9696592165
 23
111.7930427284
 33
0.0
  0
LINE
  5
1D0
330
1CB
100
AcDbEntity
  8
VERMASSUNG
100
AcDbLine
 10
244.7860932901
 20
153.7930427284
 30
0.0
 11
271.4196592165
 21
153.7930427284
 31
0.0
  0
LINE
  5
1D1
330
1CB
100
AcDbEntity
  8
VERMASSUNG
100
AcDbLine
 10
244.7860932901
 20
108.7930427284
 30
0.0
 11
271.4196592165
 21
108.7930427284
 31
0.0
  0
LINE
  5
1D2
330
1CB
100
AcDbEntity
  8
VERMASSUNG
100
AcDbLine
 10
270.4196592165
 20
153.7930427284
 30
0.0
 11
270.4196592165
 21
108.7930427284
 31
0.0
  0
MTEXT
  5
1D3
330
1CB
100
AcDbEntity
  8
VERMASSUNG
100
AcDbMText
 10
267.8415238534
 20
126.6430427112
 30
0.1
 40
2.0
 41
0.0
 71
     1
 72
     1
  1
45
  7
SLDTEXTSTYLE0
 11
-7.044195017643634E-15
 21
1.0
 31
0.0
 73
     1
 44
1.0
  0
MTEXT
  5
1D4
330
1CB
100
AcDbEntity
  8
VERMASSUNG
100
AcDbMText
 10
267.8415238534
 20
132.6305429392
 30
0.1
 40
2.0
 41
0.0
 71
     1
 72
     1
  1

  7
SLDTEXTSTYLE0
 11
-7.044195017643634E-15
 21
1.0
 31
0.0
 73
     1
 44
1.0
  0
MTEXT
  5
1D5
330
1CB
100
AcDbEntity
  8
VERMASSUNG
100
AcDbMText
 10
268.3360577161
 20
132.6430427634
 30
0.1
 40
1.5
 41
0.0
 71
     1
 72
     1
  1
±0.1
  7
SLDTEXTSTYLE0
 11
-7.044195017643634E-15
 21
1.0
 31
0.0
 73
     1
 44
1.0
  0
ENDBLK
  5
1CD
330
1CB
100
AcDbEntity
  8
0
100
AcDbBlockEnd
  0
BLOCK
  5
1D8
330
1D7
100
AcDbEntity
  8
0
100
AcDbBlockBegin
  2
_D_2
 70
     0
 10
0.0
 20
0.0
 30
0.0
  3
_D_2
  1

  0
SOLID
  5
1DA
330
1D7
100
AcDbEntity
  8
VERMASSUNG
100
AcDbTrace
 10
179.7860932901
 20
160.6871932172
 30
0.0
 11
182.7860932901
 21
160.2371932172
 31
0.0
 12
182.7860932901
 22
161.1371932172
 32
0.0
 13
182.7860932901
 23
161.1371932172
 33
0.0
  0
SOLID
  5
1DB
330
1D7
100
AcDbEntity
  8
VERMASSUNG
100
AcDbTrace
 10
244.7860932901
 20
160.6871932172
 30
0.0
 11
241.7860932901
 21
161.1371932172
 31
0.0
 12
241.7860932901
 22
160.2371932172
 32
0.0
 13
241.7860932901
 23
160.2371932172
 33
0.0
  0
LINE
  5
1DC
330
1D7
100
AcDbEntity
  8
VERMASSUNG
100
AcDbLine
 10
179.7860932901
 20
139.7930427284
 30
0.0
 11
179.7860932901
 21
161.6871932172
 31
0.0
  0
LINE
  5
1DD
330
1D7
100
AcDbEntity
  8
VERMASSUNG
100
AcDbLine
 10
244.7860932901
 20
153.7930427284
 30
0.0
 11
244.7860932901
 21
161.6871932172
 31
0.0
  0
LINE
  5
1DE
330
1D7
100
AcDbEntity
  8
VERMASSUNG
100
AcDbLine
 10
179.7860932901
 20
160.6871932172
 30
0.0
 11
244.7860932901
 21
160.6871932172
 31
0.0
  0
MTEXT
  5
1DF
330
1D7
100
AcDbEntity
  8
VERMASSUNG
100
AcDbMText
 10
207.7360931031
 20
163.2653285803
 30
0.1
 40
2.0
 41
0.0
 71
     1
 72
     1
  1
65
  7
SLDTEXTSTYLE0
 73
     1
 44
1.0
  0
MTEXT
  5
1E0
330
1D7
100
AcDbEntity
  8
VERMASSUNG
100
AcDbMText
 10
213.5235932052
 20
163.2653285803
 30
0.1
 40
2.0
 41
0.0
 71
     1
 72
     1
  1

  7
SLDTEXTSTYLE0
 73
     1
 44
1.0
  0
MTEXT
  5
1E1
330
1D7
100
AcDbEntity
  8
VERMASSUNG
100
AcDbMText
 10
213.536093495
 20
162.7707947175
 30
0.1
 40
1.5
 41
0.0
 71
     1
 72
     1
  1
±0.1
  7
SLDTEXTSTYLE0
 73
     1
 44
1.0
  0
ENDBLK
  5
1D9
330
1D7
100
AcDbEntity
  8
0
100
AcDbBlockEnd
  0
BLOCK
  5
1E5
330
1E4
100
AcDbEntity
  8
0
100
AcDbBlockBegin
  2
_D_3
 70
     0
 10
0.0
 20
0.0
 30
0.0
  3
_D_3
  1

  0
ARC
  5
1E7
330
1E4
100
AcDbEntity
  8
VERMASSUNG
100
AcDbCircle
 10
244.8229790596
 20
153.7930427284
 30
0.0
 40
16.33593974710289
100
AcDbArc
 50
264.9722024819
 51
0.0
  0
SOLID
  5
1E8
330
1E4
100
AcDbEntity
  8
VERMASSUNG
100
AcDbTrace
 10
243.391312909
 20
137.5199588334
 30
0.0
 11
246.392675253
 21
137.079136783
 31
0.0
 12
246.3899224996
 22
137.9791325732
 32
0.0
 13
246.3899224996
 23
137.9791325732
 33
0.0
  0
SOLID
  5
1E9
330
1E4
100
AcDbEntity
  8
VERMASSUNG
100
AcDbTrace
 10
261.1589188067
 20
153.7930427284
 30
0.0
 11
260.438716552
 21
150.8462124462
 31
0.0
 12
261.3350081765
 22
150.7645955134
 32
0.0
 13
261.3350081765
 23
150.7645955134
 33
0.0
  0
LINE
  5
1EA
330
1E4
100
AcDbEntity
  8
VERMASSUNG
100
AcDbLine
 10
244.0728978187
 20
145.2672177963
 30
0.0
 11
243.3036738645
 21
136.5238065368
 31
0.0
  0
LINE
  5
1EB
330
1E4
100
AcDbEntity
  8
VERMASSUNG
100
AcDbLine
 10
256.0718416869
 20
153.7930427284
 30
0.0
 11
262.1589188067
 21
153.7930427284
 31
0.0
  0
MTEXT
  5
1EC
330
1E4
100
AcDbEntity
  8
VERMASSUNG
100
AcDbMText
 10
251.9765765273
 20
141.6887779479
 30
0.1
 40
2.0
 41
0.0
 71
     1
 72
     1
  1
95°
  7
SLDTEXTSTYLE0
 11
0.7374411991856012
 21
0.6754113396617667
 31
0.0
 73
     1
 44
1.0
  0
ENDBLK
  5
1E6
330
1E4
100
AcDbEntity
  8
0
100
AcDbBlockEnd
  0
BLOCK
  5
1EF
330
1EE
100
AcDbEntity
  8
0
100
AcDbBlockBegin
  2
_D_4
 70
     0
 10
0.0
 20
0.0
 30
0.0
  3
_D_4
  1

  0
SOLID
  5
1F1
330
1EE
100
AcDbEntity
  8
VERMASSUNG
100
AcDbTrace
 10
131.7860932901
 20
140.2930427284
 30
0.0
 11
131.3360932901
 21
137.2930427284
 31
0.0
 12
132.2360932901
 22
137.2930427284
 32
0.0
 13
132.2360932901
 23
137.2930427284
 33
0.0
  0
SOLID
  5
1F2
330
1EE
100
AcDbEntity
  8
VERMASSUNG
100
AcDbTrace
 10
131.7860932901
 20
77.2930427284
 30
0.0
 11
132.2360932901
 21
80.2930427284
 31
0.0
 12
131.3360932901
 22
80.2930427284
 32
0.0
 13
131.3360932901
 23
80.2930427284
 33
0.0
  0
LINE
  5
1F3
330
1EE
100
AcDbEntity
  8
VERMASSUNG
100
AcDbLine
 10
180.2860932901
 20
140.2930427284
 30
0.0
 11
130.7860932901
 21
140.2930427284
 31
0.0
  0
LINE
  5
1F4
330
1EE
100
AcDbEntity
  8
VERMASSUNG
100
AcDbLine
 10
180.2860932901
 20
77.2930427284
 30
0.0
 11
130.7860932901
 21
77.2930427284
 31
0.0
  0
LINE
  5
1F5
330
1EE
100
AcDbEntity
  8
VERMASSUNG
100
AcDbLine
 10
131.7860932901
 20
140.2930427284
 30
0.0
 11
131.7860932901
 21
77.2930427284
 31
0.0
  0
MTEXT
  5
1F6
330
1EE
100
AcDbEntity
  8
VERMASSUNG
100
AcDbMText
 10
129.0079578011
 20
102.3880426191
 30
0.5658126891
 40
2.0
 41
0.0
 71
     1
 72
     1
  1
PSC
  7
SLDTEXTSTYLE0
 11
-7.044195017643634E-15
 21
1.0
 31
0.0
 73
     1
 44
1.0
  0
MTEXT
  5
1F7
330
1EE
100
AcDbEntity
  8
VERMASSUNG
100
AcDbMText
 10
129.2079578106
 20
106.9880427212
 30
0.5658126891
 40
2.0
 41
0.0
 71
     1
 72
     1
  1
%%c
  7
SLDTEXTSTYLE0
 11
-7.044195017643634E-15
 21
1.0
 31
0.0
 73
     1
 44
1.0
  0
MTEXT
  5
1F8
330
1EE
100
AcDbEntity
  8
VERMASSUNG
100
AcDbMText
 10
129.0079578011
 20
110.5980432012
 30
0.5658126891
 40
2.0
 41
0.0
 71
     1
 72
     1
  1
63
  7
SLDTEXTSTYLE0
 11
-7.044195017643634E-15
 21
1.0
 31
0.0
 73
     1
 44
1.0
  0
ENDBLK
  5
1F0
330
1EE
100
AcDbEntity
  8
0
100
AcDbBlockEnd
  0
BLOCK
  5
25B
330
25A
100
AcDbEntity
  8
0
100
AcDbBlockBegin
  2
SW_CENTERMARKSYMBOL_0
 70
     0
 10
0.0
 20
0.0
 30
0.0
  3
SW_CENTERMARKSYMBOL_0
  1

  0
LINE
  5
25D
330
25A
100
AcDbEntity
  8
VERMASSUNG
 62
     0
100
AcDbLine
 10
0.0
 20
0.0
 30
0.0
 11
0.0
 21
2.5
 31
0.0
  0
LINE
  5
25E
330
25A
100
AcDbEntity
  8
VERMASSUNG
 62
     0
100
AcDbLine
 10
0.0
 20
0.0
 30
0.0
 11
-2.5
 21
0.0
 31
0.0
  0
LINE
  5
25F
330
25A
100
AcDbEntity
  8
VERMASSUNG
 62
     0
100
AcDbLine
 10
0.0
 20
0.0
 30
0.0
 11
0.0
 21
-2.5
 31
0.0
  0
LINE
  5
260
330
25A
100
AcDbEntity
  8
VERMASSUNG
 62
     0
100
AcDbLine
 10
0.0
 20
0.0
 30
0.0
 11
2.5
 21
0.0
 31
0.0
  0
LINE
  5
261
330
25A
100
AcDbEntity
  8
VERMASSUNG
 62
     0
100
AcDbLine
 10
0.0
 20
5.0
 30
0.0
 11
0.0
 21
47.4059753218
 31
0.0
  0
LINE
  5
262
330
25A
100
AcDbEntity
  8
VERMASSUNG
 62
     0
100
AcDbLine
 10
-5.0
 20
0.0
 30
0.0
 11
-34.0
 21
0.0
 31
0.0
  0
LINE
  5
263
330
25A
100
AcDbEntity
  8
VERMASSUNG
 62
     0
100
AcDbLine
 10
0.0
 20
-5.0
 30
0.0
 11
0.0
 21
-34.0
 31
0.0
  0
LINE
  5
264
330
25A
100
AcDbEntity
  8
VERMASSUNG
 62
     0
100
AcDbLine
 10
5.0
 20
0.0
 30
0.0
 11
34.0
 21
0.0
 31
0.0
  0
ENDBLK
  5
25C
330
25A
100
AcDbEntity
  8
0
100
AcDbBlockEnd
  0
ENDSEC
  0
SECTION
  2
ENTITIES
  0
MTEXT
  5
49
330
1F
100
AcDbEntity
  8
KOPF_DÜNN
100
AcDbMText
 10
13.8892156294
 20
23.8442973028
 30
0.0
 40
3.0
 41
0.0
 71
     1
 72
     1
  1
PS6.PWE.RLA.065
  7
SLDTEXTSTYLE0
 73
     1
 44
1.0
  0
MTEXT
  5
4A
330
1F
100
AcDbEntity
  8
VERMASSUNG
100
AcDbMText
 10
13.9329988022
 20
28.8834360957
 30
0.0
 40
3.0
 41
0.0
 71
     1
 72
     1
  1
Klemmhalter rechts_Turning tool right 95° /80°
  7
SLDTEXTSTYLE0
 73
     1
 44
1.0
  0
MTEXT
  5
4B
330
1F
100
AcDbEntity
  8
VERMASSUNG
100
AcDbMText
 10
98.8601118557
 20
13.8365368179
 30
0.0
 40
2.0
 41
0.0
 71
     1
 72
     1
  1
Datum: 26.04.2012
  7
SLDTEXTSTYLE0
 73
     1
 44
1.0
  0
MTEXT
  5
4C
330
1F
100
AcDbEntity
  8
VERMASSUNG
100
AcDbMText
 10
13.933048693
 20
18.0482802738
 30
0.0
 40
2.0
 41
0.0
 71
     1
 72
     1
  1
PSC ø60 / WN..08 04..
  7
SLDTEXTSTYLE0
 73
     1
 44
1.0
  0
MTEXT
  5
4D
330
1F
100
AcDbEntity
  8
VERMASSUNG
100
AcDbMText
 10
13.9808475933
 20
13.9090973692
 30
0.0
 40
2.0
 41
0.0
 71
     1
 72
     1
  1
Gewicht: 1352g
  7
SLDTEXTSTYLE0
 73
     1
 44
1.0
  0
LINE
  5
4E
330
1F
100
AcDbEntity
  8
0
  6
Continuous
 62
     7
370
    15
100
AcDbLine
 10
217.0187663022
 20
140.2930427284
 30
0.0
 11
180.2860932901
 21
140.2930427284
 31
0.0
  0
LINE
  5
4F
330
1F
100
AcDbEntity
  8
0
  6
Continuous
 62
     7
370
    15
100
AcDbLine
 10
180.2860932901
 20
77.2930427284
 30
0.0
 11
213.5644417302
 21
77.2930427284
 31
0.0
  0
ARC
  5
50
330
1F
100
AcDbEntity
  8
0
  6
Continuous
 62
     7
370
    15
100
AcDbCircle
 10
180.2860932901
 20
77.7930427284
 30
0.0
 40
0.5000000000000284
100
AcDbArc
 50
180.0
 51
270.0
  0
ARC
  5
51
330
1F
100
AcDbEntity
  8
0
  6
Continuous
 62
     7
370
    15
100
AcDbCircle
 10
180.2860932901
 20
139.7930427284
 30
0.0
 40
0.5
100
AcDbArc
 50
90.0
 51
180.0
  0
LWPOLYLINE
  5
52
330
1F
100
AcDbEntity
  8
0
  6
Continuous
 62
     7
370
    15
100
AcDbPolyline
 90
        3
 70
   128
 43
0.0
 10
179.5860932901
 20
86.2532224495
 10
179.7115482336
 20
86.1849203346
 10
179.7860932901
 20
86.1321825764
  0
LWPOLYLINE
  5
53
330
1F
100
AcDbEntity
  8
0
  6
Continuous
 62
     7
370
    15
100
AcDbPolyline
 90
        3
 70
   128
 43
0.0
 10
179.7860932901
 20
131.4539028803
 10
179.7115482336
 20
131.4011651222
 10
179.5860932901
 20
131.3328630073
  0
ARC
  5
54
330
1F
100
AcDbEntity
  8
0
  6
Continuous
 62
     7
370
    15
100
AcDbCircle
 10
217.0187663022
 20
141.2930427284
 30
0.0
 40
1.0
100
AcDbArc
 50
270.0
 51
345.0
  0
LINE
  5
55
330
1F
100
AcDbEntity
  8
0
  6
Continuous
 62
     7
370
    15
100
AcDbLine
 10
218.9514661336
 20
144.6422733898
 30
0.0
 11
217.9846921285
 21
141.0342236833
 31
0.0
  0
LINE
  5
56
330
1F
100
AcDbEntity
  8
0
  6
Continuous
 62
     7
370
    15
100
AcDbLine
 10
239.0459249158
 20
144.7180968337
 30
0.0
 11
239.4336433304
 21
145.303926616
 31
0.0
  0
LINE
  5
57
330
1F
100
AcDbEntity
  8
0
  6
Continuous
 62
     7
370
    15
100
AcDbLine
 10
235.5177037514
 20
147.9030525833
 30
0.0
 11
235.4087864353
 21
147.7384820982
 31
0.0
  0
LINE
  5
58
330
1F
100
AcDbEntity
  8
0
  6
Continuous
 62
     7
370
    15
100
AcDbLine
 10
240.0830608436
 20
137.2215548107
 30
0.0
 11
240.5806163288
 21
137.8803897244
 31
0.0
  0
LINE
  5
59
330
1F
100
AcDbEntity
  8
0
  6
Continuous
 62
     7
370
    15
100
AcDbLine
 10
228.66739928
 20
149.7540284783
 30
0.0
 11
228.1962233035
 21
149.1301238223
 31
0.0
  0
SPLINE
  5
5A
330
1F
100
AcDbEntity
  8
0
  6
Continuous
 62
     7
370
    15
100
AcDbSpline
210
0.0
220
0.0
230
1.0
 70
     8
 71
     3
 72
    12
 73
     8
 74
     0
 42
0.00000001
 43
0.00000001
 12
1.0
 22
0.0
 32
0.0
 13
1.0
 23
0.0
 33
0.0
 40
0.0
 40
0.0
 40
0.0
 40
0.0
 40
0.5
 40
0.5
 40
0.75
 40
0.75
 40
1.0
 40
1.0
 40
1.0
 40
1.0
 10
189.8808374018199
 20
118.7024120490597
 30
0.0
 10
189.911559643739
 20
118.5898562496505
 30
0.0
 10
189.9543968582742
 20
118.4770983899109
 30
0.0
 10
190.053823882474
 20
118.3275575041146
 30
0.0
 10
190.0935760772906
 20
118.2802647724077
 30
0.0
 10
190.1916175341488
 20
118.2065284790863
 30
0.0
 10
190.2511735897363
 20
118.1811091597106
 30
0.0
 10
190.3138501037121
 20
118.1811091597106
 30
0.0
  0
LINE
  5
5B
330
1F
100
AcDbEntity
  8
0
  6
Continuous
 62
     7
370
    15
100
AcDbLine
 10
190.3138501037
 20
118.1811091597
 30
0.0
 11
193.2583364766
 21
118.1811091597
 31
0.0
  0
SPLINE
  5
5C
330
1F
100
AcDbEntity
  8
0
  6
Continuous
 62
     7
370
    15
100
AcDbSpline
210
0.0
220
0.0
230
1.0
 70
     8
 71
     3
 72
    12
 73
     8
 74
     0
 42
0.00000001
 43
0.00000001
 12
1.0
 22
0.0
 32
0.0
 13
1.0
 23
0.0
 33
0.0
 40
0.0
 40
0.0
 40
0.0
 40
0.0
 40
0.2500000000000004
 40
0.2500000000000004
 40
0.5000000000000009
 40
0.5000000000000009
 40
1.0
 40
1.0
 40
1.0
 40
1.0
 10
193.2583364765792
 20
118.1811091597105
 30
0.0
 10
193.3214165150726
 20
118.1811091597105
 30
0.0
 10
193.380565137254
 20
118.2064734789255
 30
0.0
 10
193.4790376873231
 20
118.2806383392984
 30
0.0
 10
193.5180742993078
 20
118.3271586798525
 30
0.0
 10
193.6179707660868
 20
118.4773010226978
 30
0.0
 10
193.6603916471534
 20
118.5889942296699
 30
0.0
 10
193.6913491784714
 20
118.7024120490597
 30
0.0
  0
ELLIPSE
  5
5D
330
1F
100
AcDbEntity
  8
0
  6
Continuous
 62
     7
370
    15
100
AcDbEllipse
 10
177.4389391008
 20
108.7930427284
 30
0.0
 11
14.75368316065604
 21
31.09325491558116
 31
0.0
210
0.0
220
0.0
230
1.0
 40
0.3419987131
 41
5.193281737408618
 42
6.124043104552319
  0
SPLINE
  5
5E
330
1F
100
AcDbEntity
  8
0
  6
Continuous
 62
     7
370
    15
100
AcDbSpline
210
0.0
220
0.0
230
1.0
 70
     8
 71
     3
 72
    12
 73
     8
 74
     0
 42
0.00000001
 43
0.00000001
 12
1.0
 22
0.0
 32
0.0
 13
1.0
 23
0.0
 33
0.0
 40
0.0
 40
0.0
 40
0.0
 40
0.0
 40
0.5000000000000028
 40
0.5000000000000028
 40
0.7500000000000013
 40
0.7500000000000013
 40
1.0
 40
1.0
 40
1.0
 40
1.0
 10
193.6913491784714
 20
138.6937851884918
 30
0.0
 10
193.6606269365523
 20
138.7310871714449
 30
0.0
 10
193.6177897220172
 20
138.7676990034913
 30
0.0
 10
193.5183626978174
 20
138.8154637867765
 30
0.0
 10
193.4786105030007
 20
138.8304213022588
 30
0.0
 10
193.3805690461425
 20
138.853611248028
 30
0.0
 10
193.3210129905551
 20
138.8615346872477
 30
0.0
 10
193.2583364765792
 20
138.8615346872477
 30
0.0
  0
LINE
  5
5F
330
1F
100
AcDbEntity
  8
0
  6
Continuous
 62
     7
370
    15
100
AcDbLine
 10
193.2583364766
 20
138.8615346872
 30
0.0
 11
190.3138501037
 21
138.8615346872
 31
0.0
  0
SPLINE
  5
60
330
1F
100
AcDbEntity
  8
0
  6
Continuous
 62
     7
370
    15
100
AcDbSpline
210
0.0
220
0.0
230
1.0
 70
     8
 71
     3
 72
    12
 73
     8
 74
     0
 42
0.00000001
 43
0.00000001
 12
1.0
 22
0.0
 32
0.0
 13
1.0
 23
0.0
 33
0.0
 40
0.0
 40
0.0
 40
0.0
 40
0.0
 40
0.2499999999999982
 40
0.2499999999999982
 40
0.4999999999999963
 40
0.4999999999999963
 40
1.0
 40
1.0
 40
1.0
 40
1.0
 10
190.3138501037121
 20
138.8615346872477
 30
0.0
 10
190.2507700652188
 20
138.8615346872477
 30
0.0
 10
190.1916214430374
 20
138.8536287610352
 30
0.0
 10
190.0931488929683
 20
138.830303599599
 30
0.0
 10
190.0541122809836
 20
138.8155908097673
 30
0.0
 10
189.9542158142046
 20
138.7676350090364
 30
0.0
 10
189.9117949331379
 20
138.7313728524563
 30
0.0
 10
189.8808374018199
 20
138.6937851884918
 30
0.0
  0
ELLIPSE
  5
61
330
1F
100
AcDbEntity
  8
0
  6
Continuous
 62
     7
370
    15
100
AcDbEllipse
 10
206.1332474795
 20
108.7930427284
 30
0.0
 11
-14.75368316065607
 21
31.09325491558117
 31
0.0
210
0.0
220
0.0
230
1.0
 40
0.3419987131
 41
0.1591422026272991
 42
1.089903569770979
  0
SPLINE
  5
62
330
1F
100
AcDbEntity
  8
0
  6
Continuous
 62
     7
370
    15
100
AcDbSpline
210
0.0
220
0.0
230
1.0
 70
     8
 71
     3
 72
    12
 73
     8
 74
     0
 42
0.00000001
 43
0.00000001
 12
1.0
 22
0.0
 32
0.0
 13
1.0
 23
0.0
 33
0.0
 40
0.0
 40
0.0
 40
0.0
 40
0.0
 40
0.4999999999999982
 40
0.4999999999999982
 40
0.7499999999999991
 40
0.7499999999999991
 40
1.0
 40
1.0
 40
1.0
 40
1.0
 10
189.8808374018199
 20
78.89230026825739
 30
0.0
 10
189.911982599782
 20
78.85448474533719
 30
0.0
 10
189.9542568661165
 20
78.81841788725357
 30
0.0
 10
190.0542023999417
 20
78.77045782224234
 30
0.0
 10
190.0939327046458
 20
78.75559684834467
 30
0.0
 10
190.190820754652
 20
78.73264570221355
 30
0.0
 10
190.2508859963986
 20
78.72455076950149
 30
0.0
 10
190.3138501037121
 20
78.72455076950148
 30
0.0
  0
LINE
  5
63
330
1F
100
AcDbEntity
  8
0
  6
Continuous
 62
     7
370
    15
100
AcDbLine
 10
190.3138501037
 20
78.7245507695
 30
0.0
 11
193.2583364766
 21
78.7245507695
 31
0.0
  0
SPLINE
  5
64
330
1F
100
AcDbEntity
  8
0
  6
Continuous
 62
     7
370
    15
100
AcDbSpline
210
0.0
220
0.0
230
1.0
 70
     8
 71
     3
 72
    12
 73
     8
 74
     0
 42
0.00000001
 43
0.00000001
 12
1.0
 22
0.0
 32
0.0
 13
1.0
 23
0.0
 33
0.0
 40
0.0
 40
0.0
 40
0.0
 40
0.0
 40
0.2499999999999996
 40
0.2499999999999996
 40
0.4999999999999991
 40
0.4999999999999991
 40
1.0
 40
1.0
 40
1.0
 40
1.0
 10
193.2583364765792
 20
78.72455076950153
 30
0.0
 10
193.321393431477
 20
78.72455076950153
 30
0.0
 10
193.3805235812226
 20
78.73245110058109
 30
0.0
 10
193.4789711317559
 20
78.75576184858613
 30
0.0
 10
193.518003369944
 20
78.77046697486978
 30
0.0
 10
193.6178932544009
 20
78.81840050305641
 30
0.0
 10
193.6601922280103
 20
78.85447047582117
 30
0.0
 10
193.6913491784715
 20
78.89230026825739
 30
0.0
  0
ELLIPSE
  5
65
330
1F
100
AcDbEntity
  8
0
  6
Continuous
 62
     7
370
    15
100
AcDbEllipse
 10
177.4389391008
 20
108.7930427284
 30
0.0
 11
-14.75368316065618
 21
31.09325491558116
 31
0.0
210
0.0
220
0.0
230
1.0
 40
0.3419987131
 41
3.300734856217124
 42
4.231496223360775
  0
SPLINE
  5
66
330
1F
100
AcDbEntity
  8
0
  6
Continuous
 62
     7
370
    15
100
AcDbSpline
210
0.0
220
0.0
230
1.0
 70
     8
 71
     3
 72
    12
 73
     8
 74
     0
 42
0.00000001
 43
0.00000001
 12
1.0
 22
0.0
 32
0.0
 13
1.0
 23
0.0
 33
0.0
 40
0.0
 40
0.0
 40
0.0
 40
0.0
 40
0.5000000000000037
 40
0.5000000000000037
 40
0.7500000000000018
 40
0.7500000000000018
 40
1.0
 40
1.0
 40
1.0
 40
1.0
 10
193.6913491784715
 20
98.88367340768924
 30
0.0
 10
193.6602039805094
 20
98.99777877355454
 30
0.0
 10
193.6179297141749
 20
99.10888510077332
 30
0.0
 10
193.5179841803496
 20
99.2590427082036
 30
0.0
 10
193.4782538756455
 20
99.30603539982096
 30
0.0
 10
193.3813658256393
 20
99.37901098435944
 30
0.0
 10
193.3213005838928
 20
99.4049762970385
 30
0.0
 10
193.2583364765792
 20
99.40497629703852
 30
0.0
  0
LINE
  5
67
330
1F
100
AcDbEntity
  8
0
  6
Continuous
 62
     7
370
    15
100
AcDbLine
 10
193.2583364766
 20
99.404976297
 30
0.0
 11
190.3138501037
 21
99.404976297
 31
0.0
  0
SPLINE
  5
68
330
1F
100
AcDbEntity
  8
0
  6
Continuous
 62
     7
370
    15
100
AcDbSpline
210
0.0
220
0.0
230
1.0
 70
     8
 71
     3
 72
    12
 73
     8
 74
     0
 42
0.00000001
 43
0.00000001
 12
1.0
 22
0.0
 32
0.0
 13
1.0
 23
0.0
 33
0.0
 40
0.0
 40
0.0
 40
0.0
 40
0.0
 40
0.2499999999999991
 40
0.2499999999999991
 40
0.4999999999999982
 40
0.4999999999999982
 40
1.0
 40
1.0
 40
1.0
 40
1.0
 10
190.3138501037121
 20
99.4049762970384
 30
0.0
 10
190.2507931488143
 20
99.4049762970384
 30
0.0
 10
190.1916629990688
 20
99.37962994365768
 30
0.0
 10
190.0932154485354
 20
99.30551056151818
 30
0.0
 10
190.0541832103474
 20
99.25901404682018
 30
0.0
 10
189.9542933258904
 20
99.1089395398116
 30
0.0
 10
189.9119943522811
 20
98.99782183069676
 30
0.0
 10
189.8808374018198
 20
98.88367340768927
 30
0.0
  0
ELLIPSE
  5
69
330
1F
100
AcDbEntity
  8
0
  6
Continuous
 62
     7
370
    15
100
AcDbEllipse
 10
206.1332474795
 20
108.7930427284
 30
0.0
 11
14.75368316065618
 21
31.09325491558117
 31
0.0
210
0.0
220
0.0
230
1.0
 40
0.3419987131
 41
2.051689083818828
 42
2.982450450962503
  0
ELLIPSE
  5
6A
330
1F
100
AcDbEntity
  8
0
  6
Continuous
 62
     7
370
    15
100
AcDbEllipse
 10
213.9625991977
 20
108.7930427284
 30
0.0
 11
0.4658165153070116
 21
31.49996270525945
 31
0.0
210
0.0
220
0.0
230
1.0
 40
0.1040588589
 41
3.16514289452276
 42
3.400372702764895
  0
ELLIPSE
  5
6B
330
1F
100
AcDbEntity
  8
0
  6
Continuous
 62
     7
370
    15
100
AcDbEllipse
 10
235.9874096787
 20
108.7930427284
 30
0.0
 11
22.42342777079029
 21
31.49986942061814
 31
0.0
210
0.0
220
0.0
230
1.0
 40
0.0040448756
 41
3.144472021887823
 42
3.16648345792628
  0
ELLIPSE
  5
6C
330
1F
100
AcDbEntity
  8
0
  6
Continuous
 62
     7
370
    15
100
AcDbEllipse
 10
301.5025238342
 20
108.7930427284
 30
0.0
 11
299.7021254722775
 21
-4.431948095427188
 31
0.0
210
0.0
220
0.0
230
1.0
 40
0.1040588589
 41
1.858100732534107
 42
1.862038278949615
  0
SPLINE
  5
6D
330
1F
100
AcDbEntity
  8
0
  6
Continuous
 62
     7
370
    15
100
AcDbSpline
210
0.0
220
0.0
230
1.0
 70
     8
 71
     3
 72
    20
 73
    16
 74
     0
 42
0.00000001
 43
0.00000001
 12
1.0
 22
0.0
 32
0.0
 13
1.0
 23
0.0
 33
0.0
 40
0.0
 40
0.0
 40
0.0
 40
0.0
 40
0.2499999999999998
 40
0.2499999999999998
 40
0.3749999999999998
 40
0.3749999999999998
 40
0.4999999999999999
 40
0.4999999999999999
 40
0.6249999999999999
 40
0.6249999999999999
 40
0.7499999999999999
 40
0.7499999999999999
 40
0.875
 40
0.875
 40
1.0
 40
1.0
 40
1.0
 40
1.0
 10
210.7188048816112
 20
138.8840811454516
 30
0.0
 10
210.866647312303
 20
139.0644177532579
 30
0.0
 10
211.0913911977559
 20
139.2181250943225
 30
0.0
 10
211.5536925455022
 20
139.4156720305804
 30
0.0
 10
211.7292820088655
 20
139.4758086309618
 30
0.0
 10
212.1124315153988
 20
139.5824623549182
 30
0.0
 10
212.3212407776928
 20
139.6295865070047
 30
0.0
 10
212.774374327283
 20
139.7132639186374
 30
0.0
 10
213.0212900444869
 20
139.7500832174493
 30
0.0
 10
213.5379666558011
 20
139.8126306470739
 30
0.0
 10
213.807658430926
 20
139.8385435910506
 30
0.0
 10
214.3696050190582
 20
139.8815806201568
 30
0.0
 10
214.6635501080744
 20
139.8987713832082
 30
0.0
 10
215.2675952651877
 20
139.9249363435423
 30
0.0
 10
215.5747843007898
 20
139.9338472604909
 30
0.0
 10
215.8871890597397
 20
139.9389700373335
 30
0.0
  0
ELLIPSE
  5
6E
330
1F
100
AcDbEntity
  8
0
  6
Continuous
 62
     7
370
    15
100
AcDbEllipse
 10
214.3127407849
 20
108.7930427284
 30
0.0
 11
-1.263430654606907
 21
31.49822136545058
 31
0.0
210
0.0
220
0.0
230
1.0
 40
0.2649452246
 41
0.289594457043935
 42
2.551491788035467
  0
SPLINE
  5
6F
330
1F
100
AcDbEntity
  8
0
  6
Continuous
 62
     7
370
    15
100
AcDbSpline
210
0.0
220
0.0
230
1.0
 70
     8
 71
     3
 72
    18
 73
    14
 74
     0
 42
0.00000001
 43
0.00000001
 12
1.0
 22
0.0
 32
0.0
 13
1.0
 23
0.0
 33
0.0
 40
0.0
 40
0.0
 40
0.0
 40
0.0
 40
0.2500000000000002
 40
0.2500000000000002
 40
0.5000000000000004
 40
0.5000000000000004
 40
0.6250000000000003
 40
0.6250000000000003
 40
0.7500000000000002
 40
0.7500000000000002
 40
0.8750000000000001
 40
0.8750000000000001
 40
1.0
 40
1.0
 40
1.0
 40
1.0
 10
215.6870556821501
 20
80.16245020317228
 30
0.0
 10
215.0855213792096
 20
80.1988975810148
 30
0.0
 10
214.5083309219456
 20
80.27373276024358
 30
0.0
 10
213.4141242841532
 20
80.50717620442612
 30
0.0
 10
212.9219321007187
 20
80.66038807890524
 30
0.0
 10
212.2631881483106
 20
80.95330517101132
 30
0.0
 10
212.0608761569782
 20
81.06009909522311
 30
0.0
 10
211.6935991120526
 20
81.2901358100522
 30
0.0
 10
211.5277712289306
 20
81.4137650271948
 30
0.0
 10
211.2311150694932
 20
81.67964339877719
 30
0.0
 10
211.1009830502224
 20
81.8216666724522
 30
0.0
 10
210.881287851838
 20
82.11791421841235
 30
0.0
 10
210.7907095388745
 20
82.27298947616588
 30
0.0
 10
210.7188048816112
 20
82.43539271802577
 30
0.0
  0
ELLIPSE
  5
70
330
1F
100
AcDbEntity
  8
0
  6
Continuous
 62
     7
370
    15
100
AcDbEllipse
 10
235.9874096787
 20
108.7930427284
 30
0.0
 11
22.42342777079029
 21
31.49986942061814
 31
0.0
210
0.0
220
0.0
230
1.0
 40
0.0040448756
 41
3.401713266168551
 42
3.574611253639127
  0
SPLINE
  5
71
330
1F
100
AcDbEntity
  8
0
  6
Continuous
 62
     7
370
    15
100
AcDbSpline
210
0.0
220
0.0
230
1.0
 70
     8
 71
     3
 72
    68
 73
    64
 74
     0
 42
0.00000001
 43
0.00000001
 12
1.0
 22
0.0
 32
0.0
 13
1.0
 23
0.0
 33
0.0
 40
-0.0625000000000004
 40
-0.0625000000000004
 40
0.0
 40
0.0
 40
0.03125
 40
0.03125
 40
0.0625
 40
0.0625
 40
0.09375
 40
0.09375
 40
0.1249999999999999
 40
0.1249999999999999
 40
0.1562499999999999
 40
0.1562499999999999
 40
0.1874999999999999
 40
0.1874999999999999
 40
0.2187499999999999
 40
0.2187499999999999
 40
0.2499999999999999
 40
0.2499999999999999
 40
0.2812499999999999
 40
0.2812499999999999
 40
0.3124999999999999
 40
0.3124999999999999
 40
0.3437499999999998
 40
0.3437499999999998
 40
0.3749999999999998
 40
0.3749999999999998
 40
0.4062499999999998
 40
0.4062499999999998
 40
0.4374999999999998
 40
0.4374999999999998
 40
0.4687499999999998
 40
0.4687499999999998
 40
0.4999999999999998
 40
0.4999999999999998
 40
0.5312499999999998
 40
0.5312499999999998
 40
0.5624999999999998
 40
0.5624999999999998
 40
0.5937499999999998
 40
0.5937499999999998
 40
0.6249999999999998
 40
0.6249999999999998
 40
0.6562499999999997
 40
0.6562499999999997
 40
0.6874999999999997
 40
0.6874999999999997
 40
0.7187499999999997
 40
0.7187499999999997
 40
0.7499999999999997
 40
0.7499999999999997
 40
0.7812499999999997
 40
0.7812499999999997
 40
0.8124999999999997
 40
0.8124999999999997
 40
0.8437499999999997
 40
0.8437499999999997
 40
0.8749999999999996
 40
0.8749999999999996
 40
0.9062499999999996
 40
0.9062499999999996
 40
0.9374999999999996
 40
0.9374999999999996
 40
1.0
 40
1.0
 40
1.03125
 40
1.03125
 10
200.3894636697759
 20
121.8733752372968
 30
0.0
 10
200.9844081003306
 20
121.8733752372968
 30
0.0
 10
201.1793863465802
 20
121.8911774004915
 30
0.0
 10
201.5629495717258
 20
121.9608059336111
 30
0.0
 10
201.7535303471881
 20
122.01348312329
 30
0.0
 10
202.1167796339749
 20
122.1505733548108
 30
0.0
 10
202.2890463729708
 20
122.2343193871322
 30
0.0
 10
202.6150680896787
 20
122.4315012267902
 30
0.0
 10
202.7693434564554
 20
122.5459143244056
 30
0.0
 10
203.0459063777064
 20
122.7948070294428
 30
0.0
 10
203.1700492680218
 20
122.9301778721744
 30
0.0
 10
203.3893640403928
 20
123.2228309988393
 30
0.0
 10
203.4824944957961
 20
123.377880570455
 30
0.0
 10
203.6321488263222
 20
123.6970449161298
 30
0.0
 10
203.6897957963141
 20
123.8635197979886
 30
0.0
 10
203.7669023581365
 20
124.2025287732428
 30
0.0
 10
203.7859861394799
 20
124.3720802972451
 30
0.0
 10
203.7861995495573
 20
124.7111729293472
 30
0.0
 10
203.7667042590578
 20
124.8824594088415
 30
0.0
 10
203.6901343845808
 20
125.2121642019965
 30
0.0
 10
203.6334811433716
 20
125.3715426778028
 30
0.0
 10
203.4832051925623
 20
125.6795921337213
 30
0.0
 10
203.3893215301498
 20
125.8276160034746
 30
0.0
 10
203.1722563300534
 20
126.1004512759109
 30
0.0
 10
203.0483250737786
 20
126.2270228221395
 30
0.0
 10
202.7683682286264
 20
126.4602337530371
 30
0.0
 10
202.6169090777245
 20
126.5630610232156
 30
0.0
 10
202.2921760687769
 20
126.7426275696189
 30
0.0
 10
202.1168116299605
 20
126.8200163346776
 30
0.0
 10
201.7534946110607
 20
126.9438271709655
 30
0.0
 10
201.5665031580701
 20
126.9903823269285
 30
0.0
 10
201.1819316597134
 20
127.0533598060326
 30
0.0
 10
200.983023806594
 20
127.0694688085373
 30
0.0
 10
200.5913604068974
 20
127.0695861821762
 30
0.0
 10
200.3966526705106
 20
127.0541159612532
 30
0.0
 10
200.0095356068556
 20
126.9912970825105
 30
0.0
 10
199.8200646041287
 20
126.9441380423742
 30
0.0
 10
199.4589321061111
 20
126.8213833051252
 30
0.0
 10
199.2845128567508
 20
126.7448942421412
 30
0.0
 10
198.9563148189469
 20
126.5638538656861
 30
0.0
 10
198.8052365814963
 20
126.4610817796936
 30
0.0
 10
198.5284004884687
 20
126.2311301963544
 30
0.0
 10
198.4016366719562
 20
126.1023702415796
 30
0.0
 10
198.1836321337993
 20
125.828803505481
 30
0.0
 10
198.0913509542692
 20
125.6836396164565
 30
0.0
 10
197.9404712671038
 20
125.3759503669821
 30
0.0
 10
197.8825248326338
 20
125.2135276973547
 30
0.0
 10
197.8059126502191
 20
124.8849761398024
 30
0.0
 10
197.7862846302037
 20
124.7171366293133
 30
0.0
 10
197.7859047069586
 20
124.3739298438886
 30
0.0
 10
197.8052170474632
 20
124.2038130900094
 30
0.0
 10
197.88113766414
 20
123.8680573293047
 30
0.0
 10
197.9386434331061
 20
123.7004261579584
 30
0.0
 10
198.0890035796952
 20
123.3789469243075
 30
0.0
 10
198.1810228675865
 20
123.2257541721197
 30
0.0
 10
198.3983668825766
 20
122.9347006148598
 30
0.0
 10
198.5248863027082
 20
122.7962303698745
 30
0.0
 10
198.8013199221679
 20
122.5471180008934
 30
0.0
 10
198.9521495122443
 20
122.4348698858568
 30
0.0
 10
199.2796611044844
 20
122.2360694772335
 30
0.0
 10
199.4542096375726
 20
122.1511932838006
 30
0.0
 10
199.9954145059442
 20
121.946441804556
 30
0.0
 10
200.3894636697759
 20
121.8733752372968
 30
0.0
 10
200.9844081003306
 20
121.8733752372968
 30
0.0
  0
LINE
  5
72
330
1F
100
AcDbEntity
  8
0
  6
Continuous
 62
     7
370
    15
100
AcDbLine
 10
179.7860932901
 20
77.7930427284
 30
0.0
 11
179.7860932901
 21
139.7930427284
 31
0.0
  0
ELLIPSE
  5
73
330
1F
100
AcDbEntity
  8
0
  6
Continuous
 62
     7
370
    15
100
AcDbEllipse
 10
209.742992168
 20
125.9334415002
 30
0.0
 11
0.2095969963835103
 21
3.29751238069889
 31
0.0
210
0.0
220
0.0
230
1.0
 40
0.2227868975
 41
0.0
 42
6.283185307179586
  0
ARC
  5
74
330
1F
100
AcDbEntity
  8
0
  6
Continuous
 62
     7
370
    15
100
AcDbCircle
 10
200.7858458683
 20
120.3493898146
 30
0.0
 40
3.299212757250768
100
AcDbArc
 50
47.2897836215
 51
132.4640843187
  0
SPLINE
  5
75
330
1F
100
AcDbEntity
  8
0
  6
Continuous
 62
     7
370
    15
100
AcDbSpline
210
0.0
220
0.0
230
1.0
 70
     8
 71
     3
 72
    12
 73
     8
 74
     0
 42
0.00000001
 43
0.00000001
 12
1.0
 22
0.0
 32
0.0
 13
1.0
 23
0.0
 33
0.0
 40
0.0
 40
0.0
 40
0.0
 40
0.0
 40
0.5000000000000006
 40
0.5000000000000006
 40
0.7500000000000002
 40
0.7500000000000002
 40
1.0
 40
1.0
 40
1.0
 40
1.0
 10
178.9695810036892
 20
86.93824902589881
 30
0.0
 10
179.0260175045964
 20
86.93683114455705
 30
0.0
 10
179.0951021352851
 20
86.93526680830877
 30
0.0
 10
179.213904407003
 20
86.9323226163343
 30
0.0
 10
179.2540896824731
 20
86.93128441323692
 30
0.0
 10
179.3274707298769
 20
86.92935051802228
 30
0.0
 10
179.3608802936196
 20
86.92845563073348
 30
0.0
 10
179.3911164012761
 20
86.92767184046114
 30
0.0
  0
SPLINE
  5
76
330
1F
100
AcDbEntity
  8
0
  6
Continuous
 62
     7
370
    15
100
AcDbSpline
210
0.0
220
0.0
230
1.0
 70
     8
 71
     3
 72
    16
 73
    12
 74
     0
 42
0.00000001
 43
0.00000001
 12
1.0
 22
0.0
 32
0.0
 13
1.0
 23
0.0
 33
0.0
 40
0.0
 40
0.0
 40
0.0
 40
0.0
 40
0.0625000000000002
 40
0.0625000000000002
 40
0.1250000000000005
 40
0.1250000000000005
 40
0.2499999999999975
 40
0.2499999999999975
 40
0.4999999999999994
 40
0.4999999999999994
 40
1.0
 40
1.0
 40
1.0
 40
1.0
 10
179.3911164012388
 20
86.92767184048539
 30
0.0
 10
179.4026968088268
 20
86.92737164937402
 30
0.0
 10
179.416006335588
 20
86.92604390111504
 30
0.0
 10
179.4453077656742
 20
86.91934522634004
 30
0.0
 10
179.4601218655584
 20
86.91398704323436
 30
0.0
 10
179.4959502672613
 20
86.896941394067
 30
0.0
 10
179.5100698916243
 20
86.88547885629127
 30
0.0
 10
179.5445740357129
 20
86.85391553091904
 30
0.0
 10
179.5556785864175
 20
86.83601823187375
 30
0.0
 10
179.5818547636336
 20
86.78585681425952
 30
0.0
 10
179.5860932901457
 20
86.75811240206293
 30
0.0
 10
179.5860932901457
 20
86.73344824013338
 30
0.0
  0
LINE
  5
77
330
1F
100
AcDbEntity
  8
0
  6
Continuous
 62
     7
370
    15
100
AcDbLine
 10
179.5860932901
 20
101.7711554026
 30
0.0
 11
179.5860932901
 21
86.2532224495
 31
0.0
  0
SPLINE
  5
78
330
1F
100
AcDbEntity
  8
0
  6
Continuous
 62
     7
370
    15
100
AcDbSpline
210
0.0
220
0.0
230
1.0
 70
     8
 71
     3
 72
    16
 73
    12
 74
     0
 42
0.00000001
 43
0.00000001
 12
1.0
 22
0.0
 32
0.0
 13
1.0
 23
0.0
 33
0.0
 40
0.0
 40
0.0
 40
0.0
 40
0.0
 40
0.4999999999999968
 40
0.4999999999999968
 40
0.7499999999999984
 40
0.7499999999999984
 40
0.8749999999999977
 40
0.8749999999999977
 40
0.9374999999999989
 40
0.9374999999999989
 40
1.0
 40
1.0
 40
1.0
 40
1.0
 10
179.5860932901457
 20
101.7711554026246
 30
0.0
 10
179.5860932901457
 20
101.8848479467525
 30
0.0
 10
179.5819470150677
 20
101.999168108102
 30
0.0
 10
179.5559814196742
 20
102.1722163985991
 30
0.0
 10
179.5445205142968
 20
102.2313919057608
 30
0.0
 10
179.5102087765224
 20
102.3145150252289
 30
0.0
 10
179.4961840405929
 20
102.3426363413296
 30
0.0
 10
179.460161077559
 20
102.371252155307
 30
0.0
 10
179.4454065684694
 20
102.3770452032088
 30
0.0
 10
179.4160544073224
 20
102.3754517772717
 30
0.0
 10
179.4027145328184
 20
102.3689553739479
 30
0.0
 10
179.39111640127
 20
102.3604396277448
 30
0.0
  0
SPLINE
  5
79
330
1F
100
AcDbEntity
  8
0
  6
Continuous
 62
     7
370
    15
100
AcDbSpline
210
0.0
220
0.0
230
1.0
 70
     8
 71
     3
 72
    12
 73
     8
 74
     0
 42
0.00000001
 43
0.00000001
 12
1.0
 22
0.0
 32
0.0
 13
1.0
 23
0.0
 33
0.0
 40
0.0
 40
0.0
 40
0.0
 40
0.0
 40
0.2499999999999997
 40
0.2499999999999997
 40
0.4999999999999993
 40
0.4999999999999993
 40
1.0
 40
1.0
 40
1.0
 40
1.0
 10
179.3911164012771
 20
102.3604396277357
 30
0.0
 10
179.3609179598365
 20
102.3382668956906
 30
0.0
 10
179.3275506045005
 20
102.3191872398134
 30
0.0
 10
179.2543953286706
 20
102.2940141953707
 30
0.0
 10
179.2141426296466
 20
102.2884576589539
 30
0.0
 10
179.0964138863717
 20
102.2993694699407
 30
0.0
 10
179.0259554383128
 20
102.3413052253515
 30
0.0
 10
178.9695810036946
 20
102.390517007733
 30
0.0
  0
SPLINE
  5
7A
330
1F
100
AcDbEntity
  8
0
  6
Continuous
 62
     7
370
    15
100
AcDbSpline
210
0.0
220
0.0
230
1.0
 70
     8
 71
     3
 72
    12
 73
     8
 74
     0
 42
0.00000001
 43
0.00000001
 12
1.0
 22
0.0
 32
0.0
 13
1.0
 23
0.0
 33
0.0
 40
0.0
 40
0.0
 40
0.0
 40
0.0
 40
0.5000000000000008
 40
0.5000000000000008
 40
0.7500000000000003
 40
0.7500000000000003
 40
1.0
 40
1.0
 40
1.0
 40
1.0
 10
178.464772946586
 20
103.6068683996136
 30
0.0
 10
178.5085232984705
 20
103.3864214146391
 30
0.0
 10
178.561413449595
 20
103.1708764248335
 30
0.0
 10
178.6730249927367
 20
102.8584623482616
 30
0.0
 10
178.7155843366402
 20
102.7563828726457
 30
0.0
 10
178.8205615719776
 20
102.5619428600039
 30
0.0
 10
178.8821288150722
 20
102.4668579609403
 30
0.0
 10
178.9695810036946
 20
102.3905170077331
 30
0.0
  0
SPLINE
  5
7B
330
1F
100
AcDbEntity
  8
0
  6
Continuous
 62
     7
370
    15
100
AcDbSpline
210
0.0
220
0.0
230
1.0
 70
     8
 71
     3
 72
    12
 73
     8
 74
     0
 42
0.00000001
 43
0.00000001
 12
1.0
 22
0.0
 32
0.0
 13
1.0
 23
0.0
 33
0.0
 40
0.0
 40
0.0
 40
0.0
 40
0.0
 40
0.2500000000000003
 40
0.2500000000000003
 40
0.5000000000000008
 40
0.5000000000000008
 40
1.0
 40
1.0
 40
1.0
 40
1.0
 10
178.9695810036945
 20
115.1955684490162
 30
0.0
 10
178.8810875961266
 20
115.1183185689079
 30
0.0
 10
178.8210295553607
 20
115.0249992450187
 30
0.0
 10
178.7151812823781
 20
114.8289661920493
 30
0.0
 10
178.6726477611006
 20
114.7266398338375
 30
0.0
 10
178.561496454277
 20
114.4152954280616
 30
0.0
 10
178.5085655972292
 20
114.1998771748836
 30
0.0
 10
178.464772946586
 20
113.9792170571357
 30
0.0
  0
SPLINE
  5
7C
330
1F
100
AcDbEntity
  8
0
  6
Continuous
 62
     7
370
    15
100
AcDbSpline
210
0.0
220
0.0
230
1.0
 70
     8
 71
     3
 72
    12
 73
     8
 74
     0
 42
0.00000001
 43
0.00000001
 12
1.0
 22
0.0
 32
0.0
 13
1.0
 23
0.0
 33
0.0
 40
0.0
 40
0.0
 40
0.0
 40
0.0
 40
0.4999999999999996
 40
0.4999999999999996
 40
0.7499999999999997
 40
0.7499999999999997
 40
1.0
 40
1.0
 40
1.0
 40
1.0
 10
178.9695810036945
 20
115.1955684490162
 30
0.0
 10
179.0258895519901
 20
115.2447227162601
 30
0.0
 10
179.0961642127082
 20
115.2866800348638
 30
0.0
 10
179.2142021270318
 20
115.2976397123962
 30
0.0
 10
179.2543783678857
 20
115.2921309541489
 30
0.0
 10
179.3283354625636
 20
115.2665737253599
 30
0.0
 10
179.3609518502751
 20
115.2477936775206
 30
0.0
 10
179.3911164012708
 20
115.2256458290039
 30
0.0
  0
SPLINE
  5
7D
330
1F
100
AcDbEntity
  8
0
  6
Continuous
 62
     7
370
    15
100
AcDbSpline
210
0.0
220
0.0
230
1.0
 70
     8
 71
     3
 72
    16
 73
    12
 74
     0
 42
0.00000001
 43
0.00000001
 12
1.0
 22
0.0
 32
0.0
 13
1.0
 23
0.0
 33
0.0
 40
0.0
 40
0.0
 40
0.0
 40
0.0
 40
0.0625000000000006
 40
0.0625000000000006
 40
0.1250000000000011
 40
0.1250000000000011
 40
0.2500000000000012
 40
0.2500000000000012
 40
0.4999999999999997
 40
0.4999999999999997
 40
1.0
 40
1.0
 40
1.0
 40
1.0
 10
179.391116401239
 20
115.2256458289494
 30
0.0
 10
179.4027293010784
 20
115.2171192393541
 30
0.0
 10
179.4160804855109
 20
115.2106189778213
 30
0.0
 10
179.4454803251301
 20
115.2090495807038
 30
0.0
 10
179.4603210496854
 20
115.2149329713344
 30
0.0
 10
179.496154257654
 20
115.2434806073849
 30
0.0
 10
179.5102674654756
 20
115.2716476266908
 30
0.0
 10
179.5447588366944
 20
115.3554018851127
 30
0.0
 10
179.5558429078048
 20
115.4131152987341
 30
0.0
 10
179.5819657256008
 20
115.58670583538
 30
0.0
 10
179.5860932901457
 20
115.7017338880219
 30
0.0
 10
179.5860932901457
 20
115.8149300541248
 30
0.0
  0
LINE
  5
7E
330
1F
100
AcDbEntity
  8
0
  6
Continuous
 62
     7
370
    15
100
AcDbLine
 10
179.5860932901
 20
131.3328630073
 30
0.0
 11
179.5860932901
 21
115.8149300541
 31
0.0
  0
SPLINE
  5
7F
330
1F
100
AcDbEntity
  8
0
  6
Continuous
 62
     7
370
    15
100
AcDbSpline
210
0.0
220
0.0
230
1.0
 70
     8
 71
     3
 72
    16
 73
    12
 74
     0
 42
0.00000001
 43
0.00000001
 12
1.0
 22
0.0
 32
0.0
 13
1.0
 23
0.0
 33
0.0
 40
0.0
 40
0.0
 40
0.0
 40
0.0
 40
0.5000000000000024
 40
0.5000000000000024
 40
0.7500000000000037
 40
0.7500000000000037
 40
0.8750000000000001
 40
0.8750000000000001
 40
0.9375000000000001
 40
0.9375000000000001
 40
1.0
 40
1.0
 40
1.0
 40
1.0
 10
179.5860932901457
 20
130.852637216616
 30
0.0
 10
179.5860932901457
 20
130.827966060573
 30
0.0
 10
179.5819275916857
 20
130.8003842291818
 30
0.0
 10
179.5556692633608
 20
130.7500413583584
 30
0.0
 10
179.5441654816232
 20
130.7317518602965
 30
0.0
 10
179.5100347222766
 20
130.7005968292595
 30
0.0
 10
179.4956128356059
 20
130.6889574540478
 30
0.0
 10
179.4600458671681
 20
130.6720754281167
 30
0.0
 10
179.4450940988734
 20
130.6666863243091
 30
0.0
 10
179.4160902805137
 20
130.6600658283645
 30
0.0
 10
179.4026749265044
 20
130.6587132401581
 30
0.0
 10
179.3911164012679
 20
130.6584136162865
 30
0.0
  0
SPLINE
  5
80
330
1F
100
AcDbEntity
  8
0
  6
Continuous
 62
     7
370
    15
100
AcDbSpline
210
0.0
220
0.0
230
1.0
 70
     8
 71
     3
 72
    12
 73
     8
 74
     0
 42
0.00000001
 43
0.00000001
 12
1.0
 22
0.0
 32
0.0
 13
1.0
 23
0.0
 33
0.0
 40
0.0
 40
0.0
 40
0.0
 40
0.0
 40
0.2500000000000003
 40
0.2500000000000003
 40
0.5000000000000007
 40
0.5000000000000007
 40
1.0
 40
1.0
 40
1.0
 40
1.0
 10
179.3911164012771
 20
130.6584136162882
 30
0.0
 10
179.3609286247274
 20
130.6576310788707
 30
0.0
 10
179.3275748206358
 20
130.6567377470521
 30
0.0
 10
179.2544486174398
 20
130.6548104382485
 30
0.0
 10
179.2142134144156
 20
130.6537709070359
 30
0.0
 10
179.0965217842825
 20
130.6508530236886
 30
0.0
 10
179.0261411111225
 20
130.6492574176184
 30
0.0
 10
178.9695810036919
 20
130.6478364308505
 30
0.0
  0
SPLINE
  5
81
330
1F
100
AcDbEntity
  8
0
  6
Continuous
 62
     7
370
    15
100
AcDbSpline
210
0.0
220
0.0
230
1.0
 70
     8
 71
     3
 72
    16
 73
    12
 74
     0
 42
0.00000001
 43
0.00000001
 12
1.0
 22
0.0
 32
0.0
 13
1.0
 23
0.0
 33
0.0
 40
0.0
 40
0.0
 40
0.0
 40
0.0
 40
0.2499999999999999
 40
0.2499999999999999
 40
0.3749999999999999
 40
0.3749999999999999
 40
0.4999999999999999
 40
0.4999999999999999
 40
0.7499999999999999
 40
0.7499999999999999
 40
1.0
 40
1.0
 40
1.0
 40
1.0
 10
178.464772946586
 20
113.9792170571357
 30
0.0
 10
178.3035404691015
 20
113.1668072818889
 30
0.0
 10
178.1830606294619
 20
112.3267289875042
 30
0.0
 10
178.0606801121486
 20
111.0254339381414
 30
0.0
 10
178.0297024517511
 20
110.5847529025566
 30
0.0
 10
177.9880887141232
 20
109.6889132616255
 30
0.0
 10
177.9778528011904
 20
109.242255130423
 30
0.0
 10
177.9776644041343
 20
107.9069451732831
 30
0.0
 10
178.0178091067719
 20
107.0224497999756
 30
0.0
 10
178.1819628617114
 20
105.2651999119496
 30
0.0
 10
178.303514512121
 20
104.4194089655365
 30
0.0
 10
178.464772946586
 20
103.6068683996136
 30
0.0
  0
LINE
  5
82
330
1F
100
AcDbEntity
  8
0
  6
Continuous
 62
     7
370
    15
100
AcDbLine
 10
177.5860932901
 20
115.2782209901
 30
0.0
 11
177.5860932901
 21
102.3078644667
 31
0.0
  0
LINE
  5
83
330
1F
100
AcDbEntity
  8
0
  6
Continuous
 62
     7
370
    15
100
AcDbLine
 10
143.2860932901
 20
114.8473532959
 30
0.0
 11
143.2860932901
 21
102.7387321608
 31
0.0
  0
ARC
  5
84
330
1F
100
AcDbEntity
  8
0
  6
Continuous
 62
     7
370
    15
100
AcDbCircle
 10
200.7859876503
 20
120.3102815665
 30
0.0
 40
2.755134875093753
100
AcDbArc
 50
49.7896619929
 51
130.0479416191
  0
LINE
  5
85
330
1F
100
AcDbEntity
  8
0
  6
Continuous
 62
     7
370
    15
100
AcDbLine
 10
141.7860932901
 20
114.414340594
 30
0.0
 11
141.7860932901
 21
103.1717448627
 31
0.0
  0
SPLINE
  5
86
330
1F
100
AcDbEntity
  8
0
  6
Continuous
 62
     7
370
    15
100
AcDbSpline
210
0.0
220
0.0
230
1.0
 70
     8
 71
     3
 72
    16
 73
    12
 74
     0
 42
0.00000001
 43
0.00000001
 12
1.0
 22
0.0
 32
0.0
 13
1.0
 23
0.0
 33
0.0
 40
0.0
 40
0.0
 40
0.0
 40
0.0
 40
0.0220463613267123
 40
0.1020028234788075
 40
0.2653746534911595
 40
0.4354475437513697
 40
0.6088826706332919
 40
0.7622636488532226
 40
0.8406641854798219
 40
0.9196491552547044
 40
1.0
 40
1.0
 40
1.0
 40
1.0
 10
200.6600957233754
 20
121.8797597053912
 30
0.0
 10
200.6670590900391
 20
121.8885428612094
 30
0.0
 10
200.6992767902793
 20
121.9291802561622
 30
0.0
 10
200.8061517126693
 20
122.0272747944922
 30
0.0
 10
200.9973721162849
 20
122.1640749565549
 30
0.0
 10
201.2723532380731
 20
122.2898545955882
 30
0.0
 10
201.5666445515205
 20
122.3625871535882
 30
0.0
 10
201.8190725660312
 20
122.3746128988029
 30
0.0
 10
202.0142575343337
 20
122.3522093216782
 30
0.0
 10
202.16393032186
 20
122.3217671877633
 30
0.0
 10
202.2610610129567
 20
122.2800146208882
 30
0.0
 10
202.3100426753897
 20
122.2589593796117
 30
0.0
  0
LINE
  5
87
330
1F
100
AcDbEntity
  8
0
  6
Continuous
 62
     7
370
    15
100
AcDbLine
 10
143.2860932901
 20
114.8473532959
 30
0.0
 11
143.2860932901
 21
129.9514061247
 31
0.0
  0
LINE
  5
88
330
1F
100
AcDbEntity
  8
0
  6
Continuous
 62
     7
370
    15
100
AcDbLine
 10
143.2860932901
 20
129.9514061247
 30
0.0
 11
177.5860932901
 21
130.8131415129
 31
0.0
  0
LINE
  5
89
330
1F
100
AcDbEntity
  8
0
  6
Continuous
 62
     7
370
    15
100
AcDbLine
 10
177.5860932901
 20
115.2782209901
 30
0.0
 11
177.5860932901
 21
130.8131415129
 31
0.0
  0
ARC
  5
8A
330
1F
100
AcDbEntity
  8
0
  6
Continuous
 62
     7
370
    15
100
AcDbCircle
 10
177.7860302011
 20
130.8181646241
 30
0.0
 40
0.2000000000000052
100
AcDbArc
 50
181.4391666667
 51
271.4391666667
  0
LINE
  5
8B
330
1F
100
AcDbEntity
  8
0
  6
Continuous
 62
     7
370
    15
100
AcDbLine
 10
177.5860932901
 20
86.7729439438
 30
0.0
 11
177.5860932901
 21
102.3078644667
 31
0.0
  0
ARC
  5
8C
330
1F
100
AcDbEntity
  8
0
  6
Continuous
 62
     7
370
    15
100
AcDbCircle
 10
177.7860302011
 20
86.7679208327
 30
0.0
 40
0.2000000000000055
100
AcDbArc
 50
88.5608333333
 51
178.5608333333
  0
LINE
  5
8D
330
1F
100
AcDbEntity
  8
0
  6
Continuous
 62
     7
370
    15
100
AcDbLine
 10
143.2860932901
 20
87.6346793321
 30
0.0
 11
143.2860932901
 21
102.7387321608
 31
0.0
  0
LINE
  5
8E
330
1F
100
AcDbEntity
  8
0
  6
Continuous
 62
     7
370
    15
100
AcDbLine
 10
143.2860932901
 20
87.6346793321
 30
0.0
 11
177.5860932901
 21
86.7729439438
 31
0.0
  0
LINE
  5
8F
330
1F
100
AcDbEntity
  8
0
  6
Continuous
 62
     7
370
    15
100
AcDbLine
 10
177.7910533122
 20
130.6182277131
 30
0.0
 11
178.9695810037
 21
130.6478364309
 31
0.0
  0
LINE
  5
90
330
1F
100
AcDbEntity
  8
0
  6
Continuous
 62
     7
370
    15
100
AcDbLine
 10
177.7910533122
 20
86.9678577436
 30
0.0
 11
178.9695810037
 21
86.9382490259
 31
0.0
  0
LINE
  5
91
330
1F
100
AcDbEntity
  8
0
  6
Continuous
 62
     7
370
    15
100
AcDbLine
 10
141.7860932901
 20
129.0853807209
 30
0.0
 11
143.2860932901
 21
129.9514061247
 31
0.0
  0
LINE
  5
92
330
1F
100
AcDbEntity
  8
0
  6
Continuous
 62
     7
370
    15
100
AcDbLine
 10
141.7860932901
 20
114.414340594
 30
0.0
 11
141.7860932901
 21
129.0853807209
 31
0.0
  0
LINE
  5
93
330
1F
100
AcDbEntity
  8
0
  6
Continuous
 62
     7
370
    15
100
AcDbLine
 10
141.7860932901
 20
88.5007047359
 30
0.0
 11
143.2860932901
 21
87.6346793321
 31
0.0
  0
LINE
  5
94
330
1F
100
AcDbEntity
  8
0
  6
Continuous
 62
     7
370
    15
100
AcDbLine
 10
141.7860932901
 20
88.5007047359
 30
0.0
 11
141.7860932901
 21
103.1717448627
 31
0.0
  0
ELLIPSE
  5
95
330
1F
100
AcDbEntity
  8
0
  6
Continuous
 62
     7
370
    15
100
AcDbEllipse
 10
216.5143598393
 20
81.2746139357
 30
0.0
 11
5.999949865328603
 21
8.439153578365348
 31
0.0
210
0.0
220
0.0
230
1.0
 40
0.0029064296
 41
1.671428102867043
 42
1.705033063357157
  0
SPLINE
  5
96
330
1F
100
AcDbEntity
  8
0
  6
Continuous
 62
     7
370
    15
100
AcDbSpline
210
0.0
220
0.0
230
1.0
 70
     8
 71
     3
 72
    10
 73
     6
 74
     0
 42
0.00000001
 43
0.00000001
 12
1.0
 22
0.0
 32
0.0
 13
1.0
 23
0.0
 33
0.0
 40
0.0
 40
0.0
 40
0.0
 40
0.0
 40
0.5000000000000023
 40
0.5000000000000023
 40
1.0
 40
1.0
 40
1.0
 40
1.0
 10
217.0187663021667
 20
139.9572731786896
 30
0.0
 10
217.2444459402037
 20
139.9608732570954
 30
0.0
 10
217.4599936180814
 20
140.0429348601156
 30
0.0
 10
217.8060635715608
 20
140.3260122612227
 30
0.0
 10
217.9284999533422
 20
140.5193446872202
 30
0.0
 10
217.9846921284558
 20
140.7360019556585
 30
0.0
  0
SPLINE
  5
97
330
1F
100
AcDbEntity
  8
0
  6
Continuous
 62
     7
370
    15
100
AcDbSpline
210
0.0
220
0.0
230
1.0
 70
     8
 71
     3
 72
     8
 73
     4
 74
     0
 42
0.00000001
 43
0.00000001
 12
1.0
 22
0.0
 32
0.0
 13
1.0
 23
0.0
 33
0.0
 40
0.0
 40
0.0
 40
0.0
 40
0.0
 40
1.0
 40
1.0
 40
1.0
 40
1.0
 10
217.9846921284558
 20
140.7360019556585
 30
0.0
 10
218.3572098733746
 20
142.172299392016
 30
0.0
 10
218.7318838700326
 20
143.608005721622
 30
0.0
 10
219.1080480004497
 20
145.0433035515572
 30
0.0
  0
LINE
  5
98
330
1F
100
AcDbEntity
  8
0
  6
Continuous
 62
     7
370
    15
100
AcDbLine
 10
219.1080480004
 20
145.0433035516
 30
0.0
 11
228.5891424259
 21
149.3068138378
 31
0.0
  0
LINE
  5
99
330
1F
100
AcDbEntity
  8
0
  6
Continuous
 62
     7
370
    15
100
AcDbLine
 10
228.5891424259
 20
149.3068138378
 30
0.0
 11
232.63464705
 21
143.494770313
 31
0.0
  0
ARC
  5
9A
330
1F
100
AcDbEntity
  8
0
  6
Continuous
 62
     7
370
    15
100
AcDbCircle
 10
234.6303856646
 20
143.8228606163
 30
0.0
 40
2.022527098699277
100
AcDbArc
 50
189.3356604554
 51
260.0743624041
  0
LINE
  5
9B
330
1F
100
AcDbEntity
  8
0
  6
Continuous
 62
     7
370
    15
100
AcDbLine
 10
234.2817629103
 20
141.8306061044
 30
0.0
 11
236.9158600714
 21
139.9555497166
 31
0.0
  0
LINE
  5
9C
330
1F
100
AcDbEntity
  8
0
  6
Continuous
 62
     7
370
    15
100
AcDbLine
 10
236.9158600714
 20
139.9555497166
 30
0.0
 11
236.4228705742
 21
138.9100636217
 31
0.0
  0
ARC
  5
9D
330
1F
100
AcDbEntity
  8
0
  6
Continuous
 62
     7
370
    15
100
AcDbCircle
 10
238.3247836731
 20
138.0225002683
 30
0.0
 40
2.098819225720608
100
AcDbArc
 50
154.9830098639
 51
333.833664245
  0
LINE
  5
9E
330
1F
100
AcDbEntity
  8
0
  6
Continuous
 62
     7
370
    15
100
AcDbLine
 10
240.2085109144
 20
137.0969659239
 30
0.0
 11
240.5734572989
 21
137.8709101408
 31
0.0
  0
LINE
  5
9F
330
1F
100
AcDbEntity
  8
0
  6
Continuous
 62
     7
370
    15
100
AcDbLine
 10
243.2995601211
 20
141.3367830027
 30
0.0
 11
242.4185128043
 21
141.7587525292
 31
0.0
  0
LINE
  5
A0
330
1F
100
AcDbEntity
  8
0
  6
Continuous
 62
     7
370
    15
100
AcDbLine
 10
243.2995601211
 20
141.3367830027
 30
0.0
 11
241.0591883165
 21
115.8715177132
 31
0.0
  0
CIRCLE
  5
A1
330
1F
100
AcDbEntity
  8
0
  6
Continuous
 62
     7
370
    15
100
AcDbCircle
 10
226.9251887003
 20
136.2209082425
 30
0.0
 40
3.481308727042624
  0
LINE
  5
A2
330
1F
100
AcDbEntity
  8
0
  6
Continuous
 62
     7
370
    15
100
AcDbLine
 10
241.0591883165
 20
115.8715177132
 30
0.0
 11
215.8871890597
 21
80.4441497587
 31
0.0
  0
SPLINE
  5
A3
330
1F
100
AcDbEntity
  8
0
  6
Continuous
 62
     7
370
    15
100
AcDbSpline
210
0.0
220
0.0
230
1.0
 70
     8
 71
     3
 72
     9
 73
     5
 74
     0
 42
0.00000001
 43
0.00000001
 12
1.0
 22
0.0
 32
0.0
 13
1.0
 23
0.0
 33
0.0
 40
0.0
 40
0.0
 40
0.0
 40
0.0
 40
0.0755699513638513
 40
1.0
 40
1.0
 40
1.0
 40
1.0
 10
218.9577604284633
 20
144.640586838556
 30
0.0
 10
218.9577236865874
 20
144.6489775572607
 30
0.0
 10
218.9572374896898
 20
144.7600100318527
 30
0.0
 10
219.0356038147567
 20
144.9072190820883
 30
0.0
 10
219.1080480004498
 20
145.0433035515572
 30
0.0
  0
LINE
  5
A4
330
1F
100
AcDbEntity
  8
0
  6
Continuous
 62
     7
370
    15
100
AcDbLine
 10
239.4397910067
 20
136.2344260711
 30
0.0
 11
239.8346448733
 21
137.0717952836
 31
0.0
  0
LINE
  5
A5
330
1F
100
AcDbEntity
  8
0
  6
Continuous
 62
     7
370
    15
100
AcDbLine
 10
242.4825073223
 20
141.7281029421
 30
0.0
 11
242.5005006457
 21
141.9326246881
 31
0.0
  0
LINE
  5
A6
330
1F
100
AcDbEntity
  8
0
  6
Continuous
 62
     7
370
    15
100
AcDbLine
 10
235.9690142301
 20
148.5053777563
 30
0.0
 11
236.2552109267
 21
148.6061669704
 31
0.0
  0
LWPOLYLINE
  5
A7
330
1F
100
AcDbEntity
  8
0
  6
Continuous
 62
     7
370
    15
100
AcDbPolyline
 90
        3
 70
   128
 43
0.0
 10
239.8093336045
 20
146.419281374
 10
239.8490476535
 20
146.1239255189
 10
239.8391946401
 20
145.5825977848
  0
CIRCLE
  5
A8
330
1F
100
AcDbEntity
  8
0
  6
Continuous
 62
     7
370
    15
100
AcDbCircle
 10
226.8271719188
 20
136.1952014352
 30
0.0
 40
3.477078535261878
  0
CIRCLE
  5
A9
330
1F
100
AcDbEntity
  8
0
  6
Continuous
 62
     7
370
    15
100
AcDbCircle
 10
226.8481769596
 20
136.2003208519
 30
0.0
 40
1.986413923219559
  0
SPLINE
  5
AA
330
1F
100
AcDbEntity
  8
0
  6
Continuous
 62
     7
370
    15
100
AcDbSpline
210
0.0
220
0.0
230
1.0
 70
     8
 71
     3
 72
    11
 73
     7
 74
     0
 42
0.00000001
 43
0.00000001
 12
1.0
 22
0.0
 32
0.0
 13
1.0
 23
0.0
 33
0.0
 40
0.0
 40
0.0
 40
0.0
 40
0.0
 40
0.1081100880371223
 40
0.471158066604363
 40
0.8135808430836038
 40
1.0
 40
1.0
 40
1.0
 40
1.0
 10
225.7884469671864
 20
134.8327057472753
 30
0.0
 10
225.8431875698347
 20
134.8199214045007
 30
0.0
 10
226.0817543583448
 20
134.7642055473239
 30
0.0
 10
226.5468584862802
 20
134.6726006593618
 30
0.0
 10
227.0914095807831
 20
134.6033438843134
 30
0.0
 10
227.3892540474923
 20
134.5779842869311
 30
0.0
 10
227.4942455598325
 20
134.5690449149464
 30
0.0
  0
SPLINE
  5
AB
330
1F
100
AcDbEntity
  8
0
  6
Continuous
 62
     7
370
    15
100
AcDbSpline
210
0.0
220
0.0
230
1.0
 70
     8
 71
     3
 72
    11
 73
     7
 74
     0
 42
0.00000001
 43
0.00000001
 12
1.0
 22
0.0
 32
0.0
 13
1.0
 23
0.0
 33
0.0
 40
0.0
 40
0.0
 40
0.0
 40
0.0
 40
0.2164499953511917
 40
0.4402998152333238
 40
0.7518914760010329
 40
1.0
 40
1.0
 40
1.0
 40
1.0
 10
227.4942455598325
 20
134.5690449149464
 30
0.0
 10
227.5612112440853
 20
134.653045744948
 30
0.0
 10
227.6974319834559
 20
134.8239191601641
 30
0.0
 10
227.9620324721005
 20
135.1566540749126
 30
0.0
 10
228.2620045506398
 20
135.5349439578628
 30
0.0
 10
228.4648443829719
 20
135.7914276279829
 30
0.0
 10
228.5547609003822
 20
135.9051238291908
 30
0.0
  0
SPLINE
  5
AC
330
1F
100
AcDbEntity
  8
0
  6
Continuous
 62
     7
370
    15
100
AcDbSpline
210
0.0
220
0.0
230
1.0
 70
     8
 71
     3
 72
    11
 73
     7
 74
     0
 42
0.00000001
 43
0.00000001
 12
1.0
 22
0.0
 32
0.0
 13
1.0
 23
0.0
 33
0.0
 40
0.0
 40
0.0
 40
0.0
 40
0.0
 40
0.216449995351175
 40
0.4402998152332864
 40
0.7518914760010219
 40
0.9999999999999999
 40
0.9999999999999999
 40
0.9999999999999999
 40
0.9999999999999999
 10
228.5547609003823
 20
135.9051238291908
 30
0.0
 10
228.5048806902582
 20
136.0071852238444
 30
0.0
 10
228.4034150040808
 20
136.2147972089381
 30
0.0
 10
228.2269278877565
 20
136.6157098825131
 30
0.0
 10
228.0537429139684
 20
137.0671344149916
 30
0.0
 10
227.9537869528828
 20
137.3704204398928
 30
0.0
 10
227.9094776482858
 20
137.5048635757641
 30
0.0
  0
SPLINE
  5
AD
330
1F
100
AcDbEntity
  8
0
  6
Continuous
 62
     7
370
    15
100
AcDbSpline
210
0.0
220
0.0
230
1.0
 70
     8
 71
     3
 72
    11
 73
     7
 74
     0
 42
0.00000001
 43
0.00000001
 12
1.0
 22
0.0
 32
0.0
 13
1.0
 23
0.0
 33
0.0
 40
0.0
 40
0.0
 40
0.0
 40
0.0
 40
0.1864191569163714
 40
0.5288419333956542
 40
0.8918899119628743
 40
0.9999999999999999
 40
0.9999999999999999
 40
0.9999999999999999
 40
0.9999999999999999
 10
227.9094776482858
 20
137.5048635757641
 30
0.0
 10
227.8044861359456
 20
137.5138029477488
 30
0.0
 10
227.5066416692363
 20
137.5391625451311
 30
0.0
 10
226.9620905747335
 20
137.6084193201797
 30
0.0
 10
226.496986446798
 20
137.7000242081416
 30
0.0
 10
226.258419658288
 20
137.7557400653185
 30
0.0
 10
226.2036790556396
 20
137.768524408093
 30
0.0
  0
SPLINE
  5
AE
330
1F
100
AcDbEntity
  8
0
  6
Continuous
 62
     7
370
    15
100
AcDbSpline
210
0.0
220
0.0
230
1.0
 70
     8
 71
     3
 72
    11
 73
     7
 74
     0
 42
0.00000001
 43
0.00000001
 12
1.0
 22
0.0
 32
0.0
 13
1.0
 23
0.0
 33
0.0
 40
0.0
 40
0.0
 40
0.0
 40
0.0
 40
0.216449995351195
 40
0.440299815233329
 40
0.7518914760010564
 40
1.0
 40
1.0
 40
1.0
 40
1.0
 10
226.2036790556396
 20
137.768524408093
 30
0.0
 10
226.1253557661518
 20
137.669484477754
 30
0.0
 10
225.9660315313141
 20
137.4680187167675
 30
0.0
 10
225.6821731648366
 20
137.1097836062455
 30
0.0
 10
225.393810472031
 20
136.7468662171698
 30
0.0
 10
225.2201467882296
 20
136.5290159575381
 30
0.0
 10
225.1431637150899
 20
136.4324454938486
 30
0.0
  0
SPLINE
  5
AF
330
1F
100
AcDbEntity
  8
0
  6
Continuous
 62
     7
370
    15
100
AcDbSpline
210
0.0
220
0.0
230
1.0
 70
     8
 71
     3
 72
    11
 73
     7
 74
     0
 42
0.00000001
 43
0.00000001
 12
1.0
 22
0.0
 32
0.0
 13
1.0
 23
0.0
 33
0.0
 40
0.0
 40
0.0
 40
0.0
 40
0.0
 40
0.2164499953511987
 40
0.4402998152333384
 40
0.7518914760010735
 40
1.0
 40
1.0
 40
1.0
 40
1.0
 10
225.1431637150899
 20
136.4324454938486
 30
0.0
 10
225.1816863199789
 20
136.3153449988577
 30
0.0
 10
225.2600485106892
 20
136.0771406679935
 30
0.0
 10
225.4172777491806
 20
135.650727798645
 30
0.0
 10
225.6020721087023
 20
135.2146757600409
 30
0.0
 10
225.7312042183187
 20
134.9500231456281
 30
0.0
 10
225.7884469671864
 20
134.8327057472753
 30
0.0
  0
LINE
  5
B0
330
1F
100
AcDbEntity
  8
0
  6
Continuous
 62
     7
370
    15
100
AcDbLine
 10
225.8135735199
 20
137.2519686577
 30
0.0
 11
226.2036790556
 21
137.7685244081
 31
0.0
  0
LINE
  5
B1
330
1F
100
AcDbEntity
  8
0
  6
Continuous
 62
     7
370
    15
100
AcDbLine
 10
225.8135735199
 20
137.2519686577
 30
0.0
 11
225.2833158496
 21
136.5839292006
 31
0.0
  0
LINE
  5
B2
330
1F
100
AcDbEntity
  8
0
  6
Continuous
 62
     7
370
    15
100
AcDbLine
 10
228.1646553646
 20
135.3885680788
 30
0.0
 11
227.8420137386
 21
136.1884379521
 31
0.0
  0
LINE
  5
B3
330
1F
100
AcDbEntity
  8
0
  6
Continuous
 62
     7
370
    15
100
AcDbLine
 10
227.8420137386
 20
136.1884379521
 30
0.0
 11
227.5193721125
 21
136.9883078254
 31
0.0
  0
LINE
  5
B4
330
1F
100
AcDbEntity
  8
0
  6
Continuous
 62
     7
370
    15
100
AcDbLine
 10
227.5193721125
 20
136.9883078254
 30
0.0
 11
227.9094776483
 21
137.5048635758
 31
0.0
  0
LINE
  5
B5
330
1F
100
AcDbEntity
  8
0
  6
Continuous
 62
     7
370
    15
100
AcDbLine
 10
227.5193721125
 20
136.9883078254
 30
0.0
 11
226.6664728162
 21
137.1201382416
 31
0.0
  0
LINE
  5
B6
330
1F
100
AcDbEntity
  8
0
  6
Continuous
 62
     7
370
    15
100
AcDbLine
 10
226.6664728162
 20
137.1201382416
 30
0.0
 11
225.8135735199
 21
137.2519686577
 31
0.0
  0
ARC
  5
B7
330
1F
100
AcDbEntity
  8
0
  6
Continuous
 62
     7
370
    15
100
AcDbCircle
 10
226.4773767571
 20
135.6324576401
 30
0.0
 40
1.47354952361812
100
AcDbArc
 50
326.4465547576
 51
22.1669614838
  0
ARC
  5
B8
330
1F
100
AcDbEntity
  8
0
  6
Continuous
 62
     7
370
    15
100
AcDbCircle
 10
226.4356506604
 20
135.6635078374
 30
0.0
 40
1.474805411581433
100
AcDbArc
 50
80.9956039981
 51
141.384073106
  0
ARC
  5
B9
330
1F
100
AcDbEntity
  8
0
  6
Continuous
 62
     7
370
    15
100
AcDbCircle
 10
226.4333817774
 20
135.61859422
 30
0.0
 40
1.519528177128651
100
AcDbArc
 50
22.025153407
 51
81.1761616207
  0
ELLIPSE
  5
BA
330
1F
100
AcDbEntity
  8
0
  6
Continuous
 62
     7
370
    15
100
AcDbEllipse
 10
237.4756735409
 20
146.6034895997
 30
0.0
 11
1.895184197371663
 21
-1.389650252276084
 31
0.0
210
0.0
220
0.0
230
1.0
 40
0.9861321518
 41
1.410764123840553
 42
3.290169261156969
  0
ELLIPSE
  5
BB
330
1F
100
AcDbEntity
  8
0
  6
Continuous
 62
     7
370
    15
100
AcDbEllipse
 10
237.4756735409
 20
146.6034895997
 30
0.0
 11
1.895184197371663
 21
-1.389650252276084
 31
0.0
210
0.0
220
0.0
230
1.0
 40
0.9861321518
 41
5.842599444402985
 42
7.693949431020165
  0
SPLINE
  5
BC
330
1F
100
AcDbEntity
  8
0
  6
Continuous
 62
     7
370
    15
100
AcDbSpline
210
0.0
220
0.0
230
1.0
 70
     8
 71
     3
 72
    12
 73
     8
 74
     0
 42
0.00000001
 43
0.00000001
 12
1.0
 22
0.0
 32
0.0
 13
1.0
 23
0.0
 33
0.0
 40
0.0
 40
0.0
 40
0.0
 40
0.0
 40
0.2105601154042445
 40
0.6006717690802134
 40
0.7981748272717472
 40
0.9973816992261297
 40
0.9999999999999999
 40
0.9999999999999999
 40
0.9999999999999999
 40
0.9999999999999999
 10
239.1514879405894
 20
144.7422222071361
 30
0.0
 10
239.1830201308481
 20
144.7836701820692
 30
0.0
 10
239.2729730474743
 20
144.9019101838854
 30
0.0
 10
239.3759599735981
 20
145.0990409800974
 30
0.0
 10
239.4524289093823
 20
145.3071486716114
 30
0.0
 10
239.4929812379453
 20
145.4145703024751
 30
0.0
 10
239.5018242722559
 20
145.4734560873895
 30
0.0
 10
239.5019389939394
 20
145.4742200193318
 30
0.0
  0
ARC
  5
BD
330
1F
100
AcDbEntity
  8
0
  6
Continuous
 62
     7
370
    15
100
AcDbCircle
 10
240.2656231039
 20
138.1203049272
 30
0.0
 40
0.3954656593102175
100
AcDbArc
 50
234.0121140989
 51
334.2948736829
  0
LINE
  5
BE
330
1F
100
AcDbEntity
  8
0
  6
Continuous
 62
     7
370
    15
100
AcDbLine
 10
233.3443480359
 20
142.5617412243
 30
0.0
 11
240.0332418717
 21
137.8003173484
 31
0.0
  0
LINE
  5
BF
330
1F
100
AcDbEntity
  8
0
  6
Continuous
 62
     7
370
    15
100
AcDbLine
 10
228.6607341498
 20
149.2905353523
 30
0.0
 11
233.3443480359
 21
142.5617412243
 31
0.0
  0
ARC
  5
C0
330
1F
100
AcDbEntity
  8
0
  6
Continuous
 62
     7
370
    15
100
AcDbCircle
 10
228.9806311998
 20
149.5173619265
 30
0.0
 40
0.3921535635117873
100
AcDbArc
 50
114.4243987549
 51
215.3389728063
  0
LINE
  5
C1
330
1F
100
AcDbEntity
  8
0
  6
Continuous
 62
     7
370
    15
100
AcDbLine
 10
236.2190542861
 20
153.202351943
 30
0.0
 11
228.8184787614
 21
149.874420751
 31
0.0
  0
LINE
  5
C2
330
1F
100
AcDbEntity
  8
0
  6
Continuous
 62
     7
370
    15
100
AcDbLine
 10
244.3536132142
 20
153.7919998419
 30
0.0
 11
236.2190542861
 21
153.202351943
 31
0.0
  0
ARC
  5
C3
330
1F
100
AcDbEntity
  8
0
  6
Continuous
 62
     7
370
    15
100
AcDbCircle
 10
244.3824941575
 20
153.3895957756
 30
0.0
 40
0.4034391422339086
100
AcDbArc
 50
355.3048862805
 51
94.105136579
  0
LINE
  5
C4
330
1F
100
AcDbEntity
  8
0
  6
Continuous
 62
     7
370
    15
100
AcDbLine
 10
244.0728978187
 20
145.2672177963
 30
0.0
 11
244.7845795077
 21
153.3565728643
 31
0.0
  0
LINE
  5
C5
330
1F
100
AcDbEntity
  8
0
  6
Continuous
 62
     7
370
    15
100
AcDbLine
 10
240.6219527768
 20
137.9487757695
 30
0.0
 11
244.0728978187
 21
145.2672177963
 31
0.0
  0
ARC
  5
C6
330
1F
100
AcDbEntity
  8
0
  6
Continuous
 62
     7
370
    15
100
AcDbCircle
 10
240.2654127288
 20
138.1203622679
 30
0.0
 40
0.3756923763447395
100
AcDbArc
 50
234.0121140989
 51
334.2948736829
  0
LINE
  5
C7
330
1F
100
AcDbEntity
  8
0
  6
Continuous
 62
     7
370
    15
100
AcDbLine
 10
240.603925918
 20
137.9574095681
 30
0.0
 11
244.0533887444
 21
145.2727082505
 31
0.0
  0
LINE
  5
C8
330
1F
100
AcDbEntity
  8
0
  6
Continuous
 62
     7
370
    15
100
AcDbLine
 10
244.0533887444
 20
145.2727082505
 30
0.0
 11
244.7647647586
 21
153.3585888592
 31
0.0
  0
ARC
  5
C9
330
1F
100
AcDbEntity
  8
0
  6
Continuous
 62
     7
370
    15
100
AcDbCircle
 10
244.3827836758
 20
153.3899606246
 30
0.0
 40
0.3832671853187105
100
AcDbArc
 50
355.3048863191
 51
94.1051364978
  0
LINE
  5
CA
330
1F
100
AcDbEntity
  8
0
  6
Continuous
 62
     7
370
    15
100
AcDbLine
 10
244.3553467801
 20
153.7722444879
 30
0.0
 11
236.2242817269
 21
153.1828498487
 31
0.0
  0
LINE
  5
CB
330
1F
100
AcDbEntity
  8
0
  6
Continuous
 62
     7
370
    15
100
AcDbLine
 10
236.2242817269
 20
153.1828498487
 30
0.0
 11
228.8268848237
 21
149.8563480365
 31
0.0
  0
ARC
  5
CC
330
1F
100
AcDbEntity
  8
0
  6
Continuous
 62
     7
370
    15
100
AcDbCircle
 10
228.9809296401
 20
149.5171421533
 30
0.0
 40
0.3725458853361968
100
AcDbArc
 50
114.4243987549
 51
215.3389728063
  0
LINE
  5
CD
330
1F
100
AcDbEntity
  8
0
  6
Continuous
 62
     7
370
    15
100
AcDbLine
 10
228.6770274427
 20
149.3016569078
 30
0.0
 11
233.3586296695
 21
142.5757528645
 31
0.0
  0
LINE
  5
CE
330
1F
100
AcDbEntity
  8
0
  6
Continuous
 62
     7
370
    15
100
AcDbLine
 10
233.3586296695
 20
142.5757528645
 30
0.0
 11
240.0446505582
 21
137.816374068
 31
0.0
  0
LINE
  5
CF
330
1F
100
AcDbEntity
  8
0
  6
Continuous
 62
     7
370
    15
100
AcDbLine
 10
240.2384827777
 20
138.0910853887
 30
0.0
 11
240.0446505582
 21
137.816374068
 31
0.0
  0
LINE
  5
D0
330
1F
100
AcDbEntity
  8
0
  6
Continuous
 62
     7
370
    15
100
AcDbLine
 10
233.5408764413
 20
142.748782761
 30
0.0
 11
233.3586296695
 21
142.5757528645
 31
0.0
  0
LINE
  5
D1
330
1F
100
AcDbEntity
  8
0
  6
Continuous
 62
     7
370
    15
100
AcDbLine
 10
239.9635048655
 20
138.9349070446
 30
0.0
 11
240.2384827777
 21
138.0910853887
 31
0.0
  0
LINE
  5
D2
330
1F
100
AcDbEntity
  8
0
  6
Continuous
 62
     7
370
    15
100
AcDbLine
 10
236.5807660742
 20
139.2449136554
 30
0.0
 11
239.5356863865
 21
137.1414824347
 31
0.0
  0
LINE
  5
D3
330
1F
100
AcDbEntity
  8
0
  6
Continuous
 62
     7
370
    15
100
AcDbLine
 10
233.2097642698
 20
142.3835329911
 30
0.0
 11
233.3443480359
 21
142.5617412243
 31
0.0
  0
LINE
  5
D4
330
1F
100
AcDbEntity
  8
0
  6
Continuous
 62
     7
370
    15
100
AcDbLine
 10
228.9636671834
 20
149.48260011
 30
0.0
 11
228.6770274427
 21
149.3016569078
 31
0.0
  0
LINE
  5
D5
330
1F
100
AcDbEntity
  8
0
  6
Continuous
 62
     7
370
    15
100
AcDbLine
 10
229.819481436
 20
149.1839254223
 30
0.0
 11
228.9636671834
 21
149.48260011
 31
0.0
  0
ARC
  5
D6
330
1F
100
AcDbEntity
  8
0
  6
Continuous
 62
     7
370
    15
100
AcDbCircle
 10
241.1452395232
 20
146.0806970082
 30
0.0
 40
0.9762522099168103
100
AcDbArc
 50
334.7712890703
 51
354.9920824909
  0
LINE
  5
D7
330
1F
100
AcDbEntity
  8
0
  6
Continuous
 62
     7
370
    15
100
AcDbLine
 10
240.1135921386
 20
141.6039032156
 30
0.0
 11
242.0283705305
 21
145.6645864444
 31
0.0
  0
ARC
  5
D8
330
1F
100
AcDbEntity
  8
0
  6
Continuous
 62
     7
370
    15
100
AcDbCircle
 10
239.2227679565
 20
142.0327261099
 30
0.0
 40
0.9886641482755585
100
AcDbArc
 50
234.0121140989
 51
334.2948736829
  0
LINE
  5
D9
330
1F
100
AcDbEntity
  8
0
  6
Continuous
 62
     7
370
    15
100
AcDbLine
 10
234.9304403895
 20
143.8746629138
 30
0.0
 11
238.6418148758
 21
141.2327571629
 31
0.0
  0
ARC
  5
DA
330
1F
100
AcDbEntity
  8
0
  6
Continuous
 62
     7
370
    15
100
AcDbCircle
 10
235.5184912808
 20
144.7009328494
 30
0.0
 40
1.014162638508059
100
AcDbArc
 50
214.8492313998
 51
234.5607914597
  0
LINE
  5
DB
330
1F
100
AcDbEntity
  8
0
  6
Continuous
 62
     7
370
    15
100
AcDbLine
 10
232.087477678
 20
147.8549345328
 30
0.0
 11
234.6862100704
 21
144.1214211203
 31
0.0
  0
ARC
  5
DC
330
1F
100
AcDbEntity
  8
0
  6
Continuous
 62
     7
370
    15
100
AcDbCircle
 10
232.8872203029
 20
148.4220009684
 30
0.0
 40
0.9803839087795747
100
AcDbArc
 50
114.4243987549
 51
215.3389728063
  0
LINE
  5
DD
330
1F
100
AcDbEntity
  8
0
  6
Continuous
 62
     7
370
    15
100
AcDbLine
 10
236.5880947196
 20
151.1611714191
 30
0.0
 11
232.481839207
 21
149.3146480294
 31
0.0
  0
ARC
  5
DE
330
1F
100
AcDbEntity
  8
0
  6
Continuous
 62
     7
370
    15
100
AcDbCircle
 10
236.9926552345
 20
150.2604488462
 30
0.0
 40
0.9874058757792097
100
AcDbArc
 50
94.1197041612
 51
114.1872837139
  0
LINE
  5
DF
330
1F
100
AcDbEntity
  8
0
  6
Continuous
 62
     7
370
    15
100
AcDbLine
 10
241.4352303242
 20
151.5724732153
 30
0.0
 11
236.9217195398
 21
151.2453033993
 31
0.0
  0
ARC
  5
E0
330
1F
100
AcDbEntity
  8
0
  6
Continuous
 62
     7
370
    15
100
AcDbCircle
 10
241.5074326826
 20
150.5664630495
 30
0.0
 40
1.008597855584695
100
AcDbArc
 50
355.3048862805
 51
94.105136579
  0
LINE
  5
E1
330
1F
100
AcDbEntity
  8
0
  6
Continuous
 62
     7
370
    15
100
AcDbLine
 10
242.1177650317
 20
145.9954766309
 30
0.0
 11
242.512646058
 21
150.4839057714
 31
0.0
  0
CIRCLE
  5
E2
330
1F
100
AcDbEntity
  8
0
  6
Continuous
 62
     7
370
    15
100
AcDbCircle
 10
237.8848897103
 20
146.9721115077
 30
0.0
 40
2.55976132713465
  0
SPLINE
  5
E3
330
1F
100
AcDbEntity
  8
0
  6
Continuous
 62
     7
370
    15
100
AcDbSpline
210
0.0
220
0.0
230
1.0
 70
     8
 71
     3
 72
    11
 73
     7
 74
     0
 42
0.00000001
 43
0.00000001
 12
1.0
 22
0.0
 32
0.0
 13
1.0
 23
0.0
 33
0.0
 40
0.0
 40
0.0
 40
0.0
 40
0.0
 40
0.0048811438300546
 40
0.3156500457815666
 40
0.6571801970776042
 40
1.0
 40
1.0
 40
1.0
 40
1.0
 10
239.6046082722221
 20
140.3628829257391
 30
0.0
 10
239.6050296252281
 20
140.3606608952274
 30
0.0
 10
239.6322773565523
 20
140.2169683393135
 30
0.0
 10
239.6975173499833
 20
139.9041060279555
 30
0.0
 10
239.8193167502457
 20
139.4044928297417
 30
0.0
 10
239.9153818158338
 20
139.0916321674088
 30
0.0
 10
239.9635048655244
 20
138.9349070446233
 30
0.0
  0
LINE
  5
E4
330
1F
100
AcDbEntity
  8
0
  6
Continuous
 62
     7
370
    15
100
AcDbLine
 10
240.2384827777
 20
138.0910853887
 30
0.0
 11
240.603925918
 21
137.9574095681
 31
0.0
  0
LINE
  5
E5
330
1F
100
AcDbEntity
  8
0
  6
Continuous
 62
     7
370
    15
100
AcDbLine
 10
243.7646285838
 20
145.3269617749
 30
0.0
 11
244.0533887444
 21
145.2727082505
 31
0.0
  0
ARC
  5
E6
330
1F
100
AcDbEntity
  8
0
  6
Continuous
 62
     7
370
    15
100
AcDbCircle
 10
239.7682764931
 20
137.4624583918
 30
0.0
 40
0.3963883483457611
100
AcDbArc
 50
234.0716341271
 51
322.5732711489
  0
SPLINE
  5
E7
330
1F
100
AcDbEntity
  8
0
  6
Continuous
 62
     7
370
    15
100
AcDbSpline
210
0.0
220
0.0
230
1.0
 70
     8
 71
     3
 72
    11
 73
     7
 74
     0
 42
0.00000001
 43
0.00000001
 12
1.0
 22
0.0
 32
0.0
 13
1.0
 23
0.0
 33
0.0
 40
0.0
 40
0.0
 40
0.0
 40
0.0
 40
0.3219798907253714
 40
0.6440235861688475
 40
0.9911766261994257
 40
1.0
 40
1.0
 40
1.0
 40
1.0
 10
233.5408764412961
 20
142.7487827610314
 30
0.0
 10
233.642312266531
 20
142.8458360010337
 30
0.0
 10
233.8452040178964
 20
143.0399617134649
 30
0.0
 10
234.2178682437458
 20
143.4056747699299
 30
0.0
 10
234.4694655326135
 20
143.6567118593671
 30
0.0
 10
234.5920188728024
 20
143.7802504364826
 30
0.0
 10
234.5950565289194
 20
143.7833125130763
 30
0.0
  0
SPLINE
  5
E8
330
1F
100
AcDbEntity
  8
0
  6
Continuous
 62
     7
370
    15
100
AcDbSpline
210
0.0
220
0.0
230
1.0
 70
     8
 71
     3
 72
    11
 73
     7
 74
     0
 42
0.00000001
 43
0.00000001
 12
1.0
 22
0.0
 32
0.0
 13
1.0
 23
0.0
 33
0.0
 40
0.0
 40
0.0
 40
0.0
 40
0.0
 40
0.3428198029224089
 40
0.6843499542184724
 40
0.9951188561699897
 40
1.0
 40
1.0
 40
1.0
 40
1.0
 10
229.8194814359993
 20
149.1839254223051
 30
0.0
 10
229.9777273755653
 20
149.1321455492012
 30
0.0
 10
230.2936239503084
 20
149.0287805933672
 30
0.0
 10
230.7905123534424
 20
148.903302306815
 30
0.0
 10
231.0990253248402
 20
148.8385431515192
 30
0.0
 10
231.2400696098149
 20
148.8122017973324
 30
0.0
 10
231.2422506880392
 20
148.8117944603459
 30
0.0
  0
LINE
  5
E9
330
1F
100
AcDbEntity
  8
0
  6
Continuous
 62
     7
370
    15
100
AcDbLine
 10
228.9636671834
 20
149.48260011
 30
0.0
 11
228.8268848237
 21
149.8563480365
 31
0.0
  0
LINE
  5
EA
330
1F
100
AcDbEntity
  8
0
  6
Continuous
 62
     7
370
    15
100
AcDbLine
 10
236.2803225715
 20
152.8887335312
 30
0.0
 11
236.2242817269
 21
153.1828498487
 31
0.0
  0
LWPOLYLINE
  5
EB
330
1F
100
AcDbEntity
  8
0
  6
Continuous
 62
     7
370
    15
100
AcDbPolyline
 90
        3
 70
   128
 43
0.0
 10
239.8518588341
 20
147.0050110109
 10
239.614337615
 20
147.5771840429
 10
239.4137328071
 20
147.8812271325
  0
ARC
  5
EC
330
1F
100
AcDbEntity
  8
0
  6
Continuous
 62
     7
370
    15
100
AcDbCircle
 10
237.3333838728
 20
146.3808578842
 30
0.0
 40
2.52481484599939
100
AcDbArc
 50
99.8838765469
 51
133.4036907274
  0
ARC
  5
ED
330
1F
100
AcDbEntity
  8
0
  6
Continuous
 62
     7
370
    15
100
AcDbCircle
 10
237.4162040769
 20
146.3157080524
 30
0.0
 40
2.531314414532498
100
AcDbArc
 50
332.4987056433
 51
15.8017888423
  0
SPLINE
  5
EE
330
1F
100
AcDbEntity
  8
0
  6
Continuous
 62
     7
370
    15
100
AcDbSpline
210
0.0
220
0.0
230
1.0
 70
     8
 71
     3
 72
    11
 73
     7
 74
     0
 42
0.00000001
 43
0.00000001
 12
1.0
 22
0.0
 32
0.0
 13
1.0
 23
0.0
 33
0.0
 40
0.0
 40
0.0
 40
0.0
 40
0.0
 40
0.008823374192788
 40
0.3559983152955972
 40
0.678041986944261
 40
1.0
 40
1.0
 40
1.0
 40
1.0
 10
242.326515227519
 20
145.7329963752895
 30
0.0
 10
242.330100238198
 20
145.7316043725171
 30
0.0
 10
242.4747453290838
 20
145.6754409784393
 30
0.0
 10
242.7895049168972
 20
145.567218210306
 30
0.0
 10
243.2979261348741
 20
145.4236948809119
 30
0.0
 10
243.6090748961295
 20
145.3592032842502
 30
0.0
 10
243.764628583826
 20
145.3269617749293
 30
0.0
  0
LINE
  5
EF
330
1F
100
AcDbEntity
  8
0
  6
Continuous
 62
     7
370
    15
100
AcDbLine
 10
244.3653517082
 20
153.366526409
 30
0.0
 11
244.7647647586
 21
153.3585888592
 31
0.0
  0
LINE
  5
F0
330
1F
100
AcDbEntity
  8
0
  6
Continuous
 62
     7
370
    15
100
AcDbLine
 10
243.6764751373
 20
152.6783186606
 30
0.0
 11
244.3653517082
 21
153.366526409
 31
0.0
  0
LINE
  5
F1
330
1F
100
AcDbEntity
  8
0
  6
Continuous
 62
     7
370
    15
100
AcDbLine
 10
244.3653517082
 20
153.366526409
 30
0.0
 11
244.3553467801
 21
153.7722444879
 31
0.0
  0
SPLINE
  5
F2
330
1F
100
AcDbEntity
  8
0
  6
Continuous
 62
     7
370
    15
100
AcDbSpline
210
0.0
220
0.0
230
1.0
 70
     8
 71
     3
 72
    11
 73
     7
 74
     0
 42
0.00000001
 43
0.00000001
 12
1.0
 22
0.0
 32
0.0
 13
1.0
 23
0.0
 33
0.0
 40
0.0
 40
0.0
 40
0.0
 40
0.0
 40
0.3224837050121946
 40
0.6449232485211613
 40
0.9911766421304061
 40
0.9999999999999999
 40
0.9999999999999999
 40
0.9999999999999999
 40
0.9999999999999999
 10
236.2803225715022
 20
152.8887335312143
 30
0.0
 10
236.3129523438336
 20
152.7306342452088
 30
0.0
 10
236.3782074201162
 20
152.4144573236007
 30
0.0
 10
236.5148406614493
 20
151.906320082155
 30
0.0
 10
236.6146000828562
 20
151.59600851618
 30
0.0
 10
236.6654315250465
 20
151.4549048127101
 30
0.0
 10
236.6666946435233
 20
151.4513985046591
 30
0.0
  0
SPLINE
  5
F3
330
1F
100
AcDbEntity
  8
0
  6
Continuous
 62
     7
370
    15
100
AcDbSpline
210
0.0
220
0.0
230
1.0
 70
     8
 71
     3
 72
    11
 73
     7
 74
     0
 42
0.00000001
 43
0.00000001
 12
1.0
 22
0.0
 32
0.0
 13
1.0
 23
0.0
 33
0.0
 40
0.0
 40
0.0
 40
0.0
 40
0.0
 40
0.0048811438300704
 40
0.3156500457815727
 40
0.6571801970776067
 40
1.0
 40
1.0
 40
1.0
 40
1.0
 10
242.6654435835625
 20
151.6924429526393
 30
0.0
 10
242.6668174925104
 20
151.6937467700174
 30
0.0
 10
242.7556643770542
 20
151.7780610269579
 30
0.0
 10
242.9577074503522
 20
151.9715698684254
 30
0.0
 10
243.3059623036694
 20
152.3101725125663
 30
0.0
 10
243.5528157950033
 20
152.5554492039552
 30
0.0
 10
243.6764751373152
 20
152.6783186605616
 30
0.0
  0
LINE
  5
F4
330
1F
100
AcDbEntity
  8
0
  6
Continuous
 62
     7
370
    15
100
AcDbLine
 10
236.5807660742
 20
139.2449136554
 30
0.0
 11
238.953158677
 21
137.5561491064
 31
0.0
  0
LINE
  5
F5
330
1F
100
AcDbEntity
  8
0
  6
Continuous
 62
     7
370
    15
100
AcDbLine
 10
236.2823798569
 20
138.508147519
 30
0.0
 11
238.4869617308
 21
136.9388374016
 31
0.0
  0
ARC
  5
F6
330
1F
100
AcDbEntity
  8
0
  6
Continuous
 62
     7
370
    15
100
AcDbCircle
 10
239.0686936752
 20
137.7425298658
 30
0.0
 40
0.99213589401611
100
AcDbArc
 50
234.1020758658
 51
317.1115602697
  0
SPLINE
  5
F7
330
1F
100
AcDbEntity
  8
0
  6
HIDDEN
 62
     7
370
     0
100
AcDbSpline
210
0.0
220
0.0
230
1.0
 70
     8
 71
     3
 72
    60
 73
    56
 74
     0
 42
0.00000001
 43
0.00000001
 12
1.0
 22
0.0
 32
0.0
 13
1.0
 23
0.0
 33
0.0
 40
-0.0625000000000001
 40
-0.0625000000000001
 40
0.0
 40
0.0
 40
0.03125
 40
0.03125
 40
0.0624999999999999
 40
0.0624999999999999
 40
0.0937499999999999
 40
0.0937499999999999
 40
0.1249999999999998
 40
0.1249999999999998
 40
0.1874999999999997
 40
0.1874999999999997
 40
0.2499999999999996
 40
0.2499999999999996
 40
0.2812499999999995
 40
0.2812499999999995
 40
0.3124999999999995
 40
0.3124999999999995
 40
0.3437499999999994
 40
0.3437499999999994
 40
0.3749999999999994
 40
0.3749999999999994
 40
0.4062499999999994
 40
0.4062499999999994
 40
0.4374999999999993
 40
0.4374999999999993
 40
0.4687499999999993
 40
0.4687499999999993
 40
0.4999999999999993
 40
0.4999999999999993
 40
0.5624999999999991
 40
0.5624999999999991
 40
0.6249999999999991
 40
0.6249999999999991
 40
0.6562499999999991
 40
0.6562499999999991
 40
0.6874999999999992
 40
0.6874999999999992
 40
0.7187499999999993
 40
0.7187499999999993
 40
0.7499999999999993
 40
0.7499999999999993
 40
0.7812499999999994
 40
0.7812499999999994
 40
0.8124999999999996
 40
0.8124999999999996
 40
0.8437499999999997
 40
0.8437499999999997
 40
0.8749999999999997
 40
0.8749999999999997
 40
0.9062499999999998
 40
0.9062499999999998
 40
0.9374999999999999
 40
0.9374999999999999
 40
1.0
 40
1.0
 40
1.03125
 40
1.03125
 10
193.7860932901457
 20
108.528712203288
 30
0.0
 10
193.7860932901457
 20
108.925207990918
 30
0.0
 10
193.7731214316568
 20
109.0551580519222
 30
0.0
 10
193.7223012619645
 20
109.3108109852823
 30
0.0
 10
193.6838339384975
 20
109.4378404918316
 30
0.0
 10
193.5834357024254
 20
109.6800286229561
 30
0.0
 10
193.5220026714522
 20
109.7948901155089
 30
0.0
 10
193.3768678399073
 20
110.0122703113331
 30
0.0
 10
193.2924127224994
 20
110.1151678785317
 30
0.0
 10
193.0156932721411
 20
110.3918349175395
 30
0.0
 10
192.7926163802231
 20
110.5408330080195
 30
0.0
 10
192.3113330180028
 20
110.7403441484842
 30
0.0
 10
192.0481025990117
 20
110.7929022514809
 30
0.0
 10
191.6567003973238
 20
110.793112533859
 30
0.0
 10
191.524177369215
 20
110.7801267631318
 30
0.0
 10
191.2676469159739
 20
110.729099614918
 30
0.0
 10
191.1429600816773
 20
110.6913444157676
 30
0.0
 10
190.9007808194418
 20
110.5912060828589
 30
0.0
 10
190.7836872872917
 20
110.5286004154473
 30
0.0
 10
190.5669722839363
 20
110.3838671221824
 30
0.0
 10
190.4659534570735
 20
110.3012397749028
 30
0.0
 10
190.2791685696214
 20
110.1146347216512
 30
0.0
 10
190.1963116884252
 20
110.0135196577751
 30
0.0
 10
190.0514274233514
 20
109.7969868537852
 30
0.0
 10
189.9887899155304
 20
109.6801166461841
 30
0.0
 10
189.8883410921307
 20
109.4378187755339
 30
0.0
 10
189.8504899911134
 20
109.313154777073
 30
0.0
 10
189.7992684258571
 20
109.0568677330091
 30
0.0
 10
189.7861402992399
 20
108.9242957372635
 30
0.0
 10
189.7859996588996
 20
108.5326915444895
 30
0.0
 10
189.8383244082715
 20
108.2695262131656
 30
0.0
 10
190.0374354703287
 20
107.7880208439924
 30
0.0
 10
190.186297806786
 20
107.5647693045083
 30
0.0
 10
190.4626187661115
 20
107.2879130056195
 30
0.0
 10
190.5653824144851
 20
107.2033995587758
 30
0.0
 10
190.7827659718645
 20
107.0579822853355
 30
0.0
 10
190.897564739821
 20
106.9964710862771
 30
0.0
 10
191.139441463245
 20
106.8959412380223
 30
0.0
 10
191.2665950712452
 20
106.8572962148043
 30
0.0
 10
191.5222610806778
 20
106.8062398872533
 30
0.0
 10
191.6521271184338
 20
106.7931750287077
 30
0.0
 10
191.9160796451655
 20
106.7929124079098
 30
0.0
 10
192.0464839685895
 20
106.8057894081538
 30
0.0
 10
192.3021347319689
 20
106.8563754119596
 30
0.0
 10
192.4290002810832
 20
106.8946517765814
 30
0.0
 10
192.6715207390291
 20
106.9949226440615
 30
0.0
 10
192.7864473776895
 20
107.0562786682023
 30
0.0
 10
193.0038188465215
 20
107.2011249633751
 30
0.0
 10
193.1068326591837
 20
107.2855024778698
 30
0.0
 10
193.2915332047657
 20
107.4699097980581
 30
0.0
 10
193.3743629390222
 20
107.5704828613275
 30
0.0
 10
193.5206153776197
 20
107.7887090019065
 30
0.0
 10
193.5829838584121
 20
107.9052641118277
 30
0.0
 10
193.7329400099789
 20
108.2661137058615
 30
0.0
 10
193.7860932901457
 20
108.528712203288
 30
0.0
 10
193.7860932901457
 20
108.925207990918
 30
0.0
  0
SPLINE
  5
F8
330
1F
100
AcDbEntity
  8
0
  6
HIDDEN
 62
     7
370
     0
100
AcDbSpline
210
0.0
220
0.0
230
1.0
 70
     8
 71
     3
 72
    12
 73
     8
 74
     0
 42
0.00000001
 43
0.00000001
 12
1.0
 22
0.0
 32
0.0
 13
1.0
 23
0.0
 33
0.0
 40
0.0
 40
0.0
 40
0.0
 40
0.0
 40
0.4999999999999953
 40
0.4999999999999953
 40
0.7499999999999977
 40
0.7499999999999977
 40
1.0
 40
1.0
 40
1.0
 40
1.0
 10
189.8808374018199
 20
98.88367340768946
 30
0.0
 10
189.911559643739
 20
98.99622920709864
 30
0.0
 10
189.9543968582742
 20
99.10898706683822
 30
0.0
 10
190.0538238824739
 20
99.25852795263458
 30
0.0
 10
190.0935760772906
 20
99.30582068434144
 30
0.0
 10
190.1916175341488
 20
99.37955697766289
 30
0.0
 10
190.2511735897363
 20
99.40497629703859
 30
0.0
 10
190.3138501037121
 20
99.40497629703859
 30
0.0
  0
LINE
  5
F9
330
1F
100
AcDbEntity
  8
0
  6
HIDDEN
 62
     7
370
     0
100
AcDbLine
 10
190.3138501037
 20
99.404976297
 30
0.0
 11
193.2583364766
 21
99.404976297
 31
0.0
  0
SPLINE
  5
FA
330
1F
100
AcDbEntity
  8
0
  6
HIDDEN
 62
     7
370
     0
100
AcDbSpline
210
0.0
220
0.0
230
1.0
 70
     8
 71
     3
 72
    12
 73
     8
 74
     0
 42
0.00000001
 43
0.00000001
 12
1.0
 22
0.0
 32
0.0
 13
1.0
 23
0.0
 33
0.0
 40
0.0
 40
0.0
 40
0.0
 40
0.0
 40
0.2499999999999991
 40
0.2499999999999991
 40
0.4999999999999982
 40
0.4999999999999982
 40
1.0
 40
1.0
 40
1.0
 40
1.0
 10
193.2583364765792
 20
99.40497629703859
 30
0.0
 10
193.3214165150726
 20
99.40497629703859
 30
0.0
 10
193.380565137254
 20
99.37961197782366
 30
0.0
 10
193.4790376873231
 20
99.30544711745075
 30
0.0
 10
193.5180742993078
 20
99.25892677689663
 30
0.0
 10
193.6179707660868
 20
99.10878443405139
 30
0.0
 10
193.6603916471535
 20
98.99709122707924
 30
0.0
 10
193.6913491784715
 20
98.88367340768947
 30
0.0
  0
ELLIPSE
  5
FB
330
1F
100
AcDbEntity
  8
0
  6
HIDDEN
 62
     7
370
     0
100
AcDbEllipse
 10
177.4389391008
 20
108.7930427284
 30
0.0
 11
-14.75368316065612
 21
31.09325491558116
 31
0.0
210
0.0
220
0.0
230
1.0
 40
0.3419987131
 41
3.300734856217131
 42
4.23149622336078
  0
SPLINE
  5
FC
330
1F
100
AcDbEntity
  8
0
  6
HIDDEN
 62
     7
370
     0
100
AcDbSpline
210
0.0
220
0.0
230
1.0
 70
     8
 71
     3
 72
    12
 73
     8
 74
     0
 42
0.00000001
 43
0.00000001
 12
1.0
 22
0.0
 32
0.0
 13
1.0
 23
0.0
 33
0.0
 40
0.0
 40
0.0
 40
0.0
 40
0.0
 40
0.4999999999999953
 40
0.4999999999999953
 40
0.7499999999999977
 40
0.7499999999999977
 40
1.0
 40
1.0
 40
1.0
 40
1.0
 10
193.6913491784715
 20
78.89230026825747
 30
0.0
 10
193.6606269365524
 20
78.85499828530442
 30
0.0
 10
193.6177897220172
 20
78.81838645325804
 30
0.0
 10
193.5183626978174
 20
78.77062166997284
 30
0.0
 10
193.4786105030007
 20
78.75566415449046
 30
0.0
 10
193.3805690461425
 20
78.73247420872131
 30
0.0
 10
193.3210129905551
 20
78.72455076950159
 30
0.0
 10
193.2583364765792
 20
78.72455076950159
 30
0.0
  0
LINE
  5
FD
330
1F
100
AcDbEntity
  8
0
  6
HIDDEN
 62
     7
370
     0
100
AcDbLine
 10
193.2583364766
 20
78.7245507695
 30
0.0
 11
190.3138501037
 21
78.7245507695
 31
0.0
  0
SPLINE
  5
FE
330
1F
100
AcDbEntity
  8
0
  6
HIDDEN
 62
     7
370
     0
100
AcDbSpline
210
0.0
220
0.0
230
1.0
 70
     8
 71
     3
 72
    12
 73
     8
 74
     0
 42
0.00000001
 43
0.00000001
 12
1.0
 22
0.0
 32
0.0
 13
1.0
 23
0.0
 33
0.0
 40
0.0
 40
0.0
 40
0.0
 40
0.0
 40
0.2499999999999977
 40
0.2499999999999977
 40
0.4999999999999954
 40
0.4999999999999954
 40
1.0
 40
1.0
 40
1.0
 40
1.0
 10
190.3138501037121
 20
78.72455076950159
 30
0.0
 10
190.2507700652188
 20
78.7245507695016
 30
0.0
 10
190.1916214430373
 20
78.73245669571405
 30
0.0
 10
190.0931488929683
 20
78.7557818571503
 30
0.0
 10
190.0541122809836
 20
78.77049464698199
 30
0.0
 10
189.9542158142045
 20
78.81845044771292
 30
0.0
 10
189.9117949331379
 20
78.85471260429296
 30
0.0
 10
189.8808374018199
 20
78.89230026825747
 30
0.0
  0
ELLIPSE
  5
FF
330
1F
100
AcDbEntity
  8
0
  6
HIDDEN
 62
     7
370
     0
100
AcDbEllipse
 10
206.1332474795
 20
108.7930427284
 30
0.0
 11
14.75368316065612
 21
31.09325491558117
 31
0.0
210
0.0
220
0.0
230
1.0
 40
0.3419987131
 41
2.05168908381882
 42
2.982450450962495
  0
SPLINE
  5
100
330
1F
100
AcDbEntity
  8
0
  6
HIDDEN
 62
     7
370
     0
100
AcDbSpline
210
0.0
220
0.0
230
1.0
 70
     8
 71
     3
 72
    12
 73
     8
 74
     0
 42
0.00000001
 43
0.00000001
 12
1.0
 22
0.0
 32
0.0
 13
1.0
 23
0.0
 33
0.0
 40
0.0
 40
0.0
 40
0.0
 40
0.0
 40
0.4999999999999953
 40
0.4999999999999953
 40
0.7499999999999977
 40
0.7499999999999977
 40
1.0
 40
1.0
 40
1.0
 40
1.0
 10
189.8808374018199
 20
138.693785188492
 30
0.0
 10
189.911559643739
 20
138.7310871714451
 30
0.0
 10
189.9543968582742
 20
138.7676990034915
 30
0.0
 10
190.0538238824739
 20
138.8154637867767
 30
0.0
 10
190.0935760772907
 20
138.830421302259
 30
0.0
 10
190.1916175341488
 20
138.8536112480282
 30
0.0
 10
190.2511735897363
 20
138.8615346872479
 30
0.0
 10
190.3138501037121
 20
138.8615346872479
 30
0.0
  0
LINE
  5
101
330
1F
100
AcDbEntity
  8
0
  6
HIDDEN
 62
     7
370
     0
100
AcDbLine
 10
190.3138501037
 20
138.8615346872
 30
0.0
 11
193.2583364766
 21
138.8615346872
 31
0.0
  0
SPLINE
  5
102
330
1F
100
AcDbEntity
  8
0
  6
HIDDEN
 62
     7
370
     0
100
AcDbSpline
210
0.0
220
0.0
230
1.0
 70
     8
 71
     3
 72
    12
 73
     8
 74
     0
 42
0.00000001
 43
0.00000001
 12
1.0
 22
0.0
 32
0.0
 13
1.0
 23
0.0
 33
0.0
 40
0.0
 40
0.0
 40
0.0
 40
0.0
 40
0.2499999999999977
 40
0.2499999999999977
 40
0.4999999999999953
 40
0.4999999999999953
 40
1.0
 40
1.0
 40
1.0
 40
1.0
 10
193.2583364765792
 20
138.8615346872479
 30
0.0
 10
193.3214165150726
 20
138.8615346872479
 30
0.0
 10
193.380565137254
 20
138.8536287610355
 30
0.0
 10
193.4790376873231
 20
138.8303035995992
 30
0.0
 10
193.5180742993078
 20
138.8155908097675
 30
0.0
 10
193.6179707660868
 20
138.7676350090366
 30
0.0
 10
193.6603916471535
 20
138.7313728524565
 30
0.0
 10
193.6913491784715
 20
138.693785188492
 30
0.0
  0
ELLIPSE
  5
103
330
1F
100
AcDbEntity
  8
0
  6
HIDDEN
 62
     7
370
     0
100
AcDbEllipse
 10
177.4389391008
 20
108.7930427284
 30
0.0
 11
14.75368316065627
 21
31.09325491558116
 31
0.0
210
0.0
220
0.0
230
1.0
 40
0.3419987131
 41
5.193281737408638
 42
6.124043104552343
  0
SPLINE
  5
104
330
1F
100
AcDbEntity
  8
0
  6
HIDDEN
 62
     7
370
     0
100
AcDbSpline
210
0.0
220
0.0
230
1.0
 70
     8
 71
     3
 72
    12
 73
     8
 74
     0
 42
0.00000001
 43
0.00000001
 12
1.0
 22
0.0
 32
0.0
 13
1.0
 23
0.0
 33
0.0
 40
0.0
 40
0.0
 40
0.0
 40
0.0
 40
0.4999999999999973
 40
0.4999999999999973
 40
0.7499999999999987
 40
0.7499999999999987
 40
1.0
 40
1.0
 40
1.0
 40
1.0
 10
193.6913491784715
 20
118.7024120490603
 30
0.0
 10
193.6606269365523
 20
118.5898562496511
 30
0.0
 10
193.6177897220172
 20
118.4770983899115
 30
0.0
 10
193.5183626978174
 20
118.3275575041152
 30
0.0
 10
193.4786105030007
 20
118.2802647724083
 30
0.0
 10
193.3805690461425
 20
118.2065284790869
 30
0.0
 10
193.3210129905551
 20
118.1811091597112
 30
0.0
 10
193.2583364765792
 20
118.1811091597112
 30
0.0
  0
LINE
  5
105
330
1F
100
AcDbEntity
  8
0
  6
HIDDEN
 62
     7
370
     0
100
AcDbLine
 10
193.2583364766
 20
118.1811091597
 30
0.0
 11
190.3138501037
 21
118.1811091597
 31
0.0
  0
SPLINE
  5
106
330
1F
100
AcDbEntity
  8
0
  6
HIDDEN
 62
     7
370
     0
100
AcDbSpline
210
0.0
220
0.0
230
1.0
 70
     8
 71
     3
 72
    12
 73
     8
 74
     0
 42
0.00000001
 43
0.00000001
 12
1.0
 22
0.0
 32
0.0
 13
1.0
 23
0.0
 33
0.0
 40
0.0
 40
0.0
 40
0.0
 40
0.0
 40
0.2499999999999986
 40
0.2499999999999986
 40
0.4999999999999972
 40
0.4999999999999972
 40
1.0
 40
1.0
 40
1.0
 40
1.0
 10
190.3138501037121
 20
118.1811091597112
 30
0.0
 10
190.2507700652187
 20
118.1811091597112
 30
0.0
 10
190.1916214430373
 20
118.2064734789261
 30
0.0
 10
190.0931488929683
 20
118.280638339299
 30
0.0
 10
190.0541122809835
 20
118.3271586798532
 30
0.0
 10
189.9542158142045
 20
118.4773010226984
 30
0.0
 10
189.9117949331379
 20
118.5889942296706
 30
0.0
 10
189.8808374018199
 20
118.7024120490603
 30
0.0
  0
ELLIPSE
  5
107
330
1F
100
AcDbEntity
  8
0
  6
HIDDEN
 62
     7
370
     0
100
AcDbEllipse
 10
206.1332474795
 20
108.7930427284
 30
0.0
 11
-14.7536831606563
 21
31.09325491558115
 31
0.0
210
0.0
220
0.0
230
1.0
 40
0.3419987131
 41
0.1591422026272807
 42
1.08990356977096
  0
ELLIPSE
  5
108
330
1F
100
AcDbEntity
  8
0
  6
HIDDEN
 62
     7
370
     0
100
AcDbEllipse
 10
235.9874096787
 20
108.7930427284
 30
0.0
 11
22.42342777079029
 21
31.49986942061814
 31
0.0
210
0.0
220
0.0
230
1.0
 40
0.0040448756
 41
2.57339470834491
 42
3.144472021887823
  0
LINE
  5
109
330
1F
100
AcDbEntity
  8
0
  6
HIDDEN
 62
     7
370
     0
100
AcDbLine
 10
179.7860932901
 20
139.7930427261
 30
0.0
 11
179.7860932901
 21
77.7930427284
 31
0.0
  0
LWPOLYLINE
  5
10A
330
1F
100
AcDbEntity
  8
0
  6
HIDDEN
 62
     7
370
     0
100
AcDbPolyline
 90
       12
 70
   128
 43
0.0
 10
200.7860932901
 20
118.444966517
 10
201.453656092
 20
118.510105712
 10
202.0877445075
 20
118.7022569455
 10
202.6565626957
 20
119.0117849525
 10
203.1315877375
 20
119.4231687061
 10
203.4889998939
 20
119.9157797073
 10
203.7108770267
 20
120.4649163833
 10
203.7860932901
 20
121.0430427284
 10
203.7108770267
 20
121.6211690734
 10
203.4889998939
 20
122.1703057495
 10
203.1315877375
 20
122.6629167506
 10
203.0236712032
 20
122.7736304356
  0
LWPOLYLINE
  5
10B
330
1F
100
AcDbEntity
  8
0
  6
HIDDEN
 62
     7
370
     0
100
AcDbPolyline
 90
       12
 70
   128
 43
0.0
 10
198.5584552387
 20
122.7832213209
 10
198.4405988427
 20
122.6629167506
 10
198.0831866864
 20
122.1703057495
 10
197.8613095536
 20
121.6211690734
 10
197.7860932901
 20
121.0430427284
 10
197.8613095536
 20
120.4649163833
 10
198.0831866864
 20
119.9157797073
 10
198.4405988427
 20
119.4231687061
 10
198.9156238846
 20
119.0117849525
 10
199.4844420728
 20
118.7022569455
 10
200.1185304883
 20
118.510105712
 10
200.7860932901
 20
118.444966517
  0
LINE
  5
10C
330
1F
100
AcDbEntity
  8
0
  6
HIDDEN
 62
     7
370
     0
100
AcDbLine
 10
179.7860932901
 20
84.5430427284
 30
0.0
 11
179.7860932901
 21
133.0430427284
 31
0.0
  0
SPLINE
  5
10D
330
1F
100
AcDbEntity
  8
0
  6
HIDDEN
 62
     7
370
     0
100
AcDbSpline
210
0.0
220
0.0
230
1.0
 70
     8
 71
     3
 72
    12
 73
     8
 74
     0
 42
0.00000001
 43
0.00000001
 12
1.0
 22
0.0
 32
0.0
 13
1.0
 23
0.0
 33
0.0
 40
0.0
 40
0.0
 40
0.0
 40
0.0
 40
0.5000000000000001
 40
0.5000000000000001
 40
0.7500000000000002
 40
0.7500000000000002
 40
1.0
 40
1.0
 40
1.0
 40
1.0
 10
178.9695810036986
 20
124.2453107102055
 30
0.0
 10
179.0259871823789
 20
124.1974883365457
 30
0.0
 10
179.0961500838507
 20
124.1572174896071
 30
0.0
 10
179.2141607972398
 20
124.1491716211302
 30
0.0
 10
179.2543665808353
 20
124.155734219469
 30
0.0
 10
179.3280872775684
 20
124.1831163139227
 30
0.0
 10
179.3609479993549
 20
124.202877804453
 30
0.0
 10
179.3911164012842
 20
124.2258105156411
 30
0.0
  0
SPLINE
  5
10E
330
1F
100
AcDbEntity
  8
0
  6
HIDDEN
 62
     7
370
     0
100
AcDbSpline
210
0.0
220
0.0
230
1.0
 70
     8
 71
     3
 72
    16
 73
    12
 74
     0
 42
0.00000001
 43
0.00000001
 12
1.0
 22
0.0
 32
0.0
 13
1.0
 23
0.0
 33
0.0
 40
0.0
 40
0.0
 40
0.0
 40
0.0
 40
0.0625000000000023
 40
0.0625000000000023
 40
0.1250000000000045
 40
0.1250000000000045
 40
0.2500000000000108
 40
0.2500000000000108
 40
0.500000000000009
 40
0.500000000000009
 40
1.0
 40
1.0
 40
1.0
 40
1.0
 10
179.391116401239
 20
124.2258105156892
 30
0.0
 10
179.4027293010784
 20
124.2346381386706
 30
0.0
 10
179.4160804855108
 20
124.2424725205525
 30
0.0
 10
179.44548032513
 20
124.2507826466249
 30
0.0
 10
179.4603210496853
 20
124.2502868273899
 30
0.0
 10
179.4961542576539
 20
124.2388358564206
 30
0.0
 10
179.5102674654755
 20
124.2221553555619
 30
0.0
 10
179.5447588366944
 20
124.1700346698048
 30
0.0
 10
179.5558429078048
 20
124.1302451757799
 30
0.0
 10
179.5819657256008
 20
124.0069085436827
 30
0.0
 10
179.5860932901457
 20
123.9194871331841
 30
0.0
 10
179.5860932901457
 20
123.8307498908659
 30
0.0
  0
LINE
  5
10F
330
1F
100
AcDbEntity
  8
0
  6
HIDDEN
 62
     7
370
     0
100
AcDbLine
 10
179.5860932901
 20
93.7553355659
 30
0.0
 11
179.5860932901
 21
123.8307498909
 31
0.0
  0
SPLINE
  5
110
330
1F
100
AcDbEntity
  8
0
  6
HIDDEN
 62
     7
370
     0
100
AcDbSpline
210
0.0
220
0.0
230
1.0
 70
     8
 71
     3
 72
    16
 73
    12
 74
     0
 42
0.00000001
 43
0.00000001
 12
1.0
 22
0.0
 32
0.0
 13
1.0
 23
0.0
 33
0.0
 40
0.0
 40
0.0
 40
0.0
 40
0.0
 40
0.5000000000000064
 40
0.5000000000000064
 40
0.7500000000000124
 40
0.7500000000000124
 40
0.8750000000000101
 40
0.8750000000000101
 40
0.9375000000000051
 40
0.9375000000000051
 40
1.0
 40
1.0
 40
1.0
 40
1.0
 10
179.5860932901457
 20
93.7553355658835
 30
0.0
 10
179.5860932901457
 20
93.66620920069477
 30
0.0
 10
179.5819470150678
 20
93.57934783308133
 30
0.0
 10
179.5559814196742
 20
93.4563655865873
 30
0.0
 10
179.5445205142967
 20
93.41559429135602
 30
0.0
 10
179.5102087765224
 20
93.36388997135624
 30
0.0
 10
179.4961840405928
 20
93.34721960476583
 30
0.0
 10
179.460161077559
 20
93.3357673843091
 30
0.0
 10
179.4454065684693
 20
93.33531433803408
 30
0.0
 10
179.4160544073224
 20
93.34362965925025
 30
0.0
 10
179.4027145328184
 20
93.35145854432852
 30
0.0
 10
179.39111640127
 20
93.36027494109118
 30
0.0
  0
SPLINE
  5
111
330
1F
100
AcDbEntity
  8
0
  6
HIDDEN
 62
     7
370
     0
100
AcDbSpline
210
0.0
220
0.0
230
1.0
 70
     8
 71
     3
 72
    12
 73
     8
 74
     0
 42
0.00000001
 43
0.00000001
 12
1.0
 22
0.0
 32
0.0
 13
1.0
 23
0.0
 33
0.0
 40
0.0
 40
0.0
 40
0.0
 40
0.0
 40
0.2500000000000006
 40
0.2500000000000006
 40
0.5000000000000009
 40
0.5000000000000009
 40
1.0
 40
1.0
 40
1.0
 40
1.0
 10
179.3911164012771
 20
93.36027494110007
 30
0.0
 10
179.3609245595599
 20
93.3832254701979
 30
0.0
 10
179.3275655901453
 20
93.40319494422208
 30
0.0
 10
179.2544283055647
 20
93.43029607784759
 30
0.0
 10
179.2141864329107
 20
93.43689681849298
 30
0.0
 10
179.0964806559422
 20
93.42892794398627
 30
0.0
 10
179.0260701781628
 20
93.38866748581843
 30
0.0
 10
178.9695810036945
 20
93.34077474654028
 30
0.0
  0
SPLINE
  5
112
330
1F
100
AcDbEntity
  8
0
  6
HIDDEN
 62
     7
370
     0
100
AcDbSpline
210
0.0
220
0.0
230
1.0
 70
     8
 71
     3
 72
    12
 73
     8
 74
     0
 42
0.00000001
 43
0.00000001
 12
1.0
 22
0.0
 32
0.0
 13
1.0
 23
0.0
 33
0.0
 40
0.0
 40
0.0
 40
0.0
 40
0.0
 40
0.249999999999997
 40
0.249999999999997
 40
0.4999999999999968
 40
0.4999999999999968
 40
1.0
 40
1.0
 40
1.0
 40
1.0
 10
178.9695810036941
 20
93.3407747465405
 30
0.0
 10
178.8814270659564
 20
93.2660359386864
 30
0.0
 10
178.8210736413276
 20
93.17505543820403
 30
0.0
 10
178.7148116832608
 20
92.9861416154514
 30
0.0
 10
178.6725795166988
 20
92.88963715591083
 30
0.0
 10
178.5615088213816
 20
92.5988694017437
 30
0.0
 10
178.5085720449548
 20
92.40320258719996
 30
0.0
 10
178.464772946586
 20
92.20913610213363
 30
0.0
  0
SPLINE
  5
113
330
1F
100
AcDbEntity
  8
0
  6
HIDDEN
 62
     7
370
     0
100
AcDbSpline
210
0.0
220
0.0
230
1.0
 70
     8
 71
     3
 72
    12
 73
     8
 74
     0
 42
0.00000001
 43
0.00000001
 12
1.0
 22
0.0
 32
0.0
 13
1.0
 23
0.0
 33
0.0
 40
0.0
 40
0.0
 40
0.0
 40
0.0
 40
0.5000000000000003
 40
0.5000000000000003
 40
0.7500000000000002
 40
0.7500000000000002
 40
1.0
 40
1.0
 40
1.0
 40
1.0
 10
178.464772946586
 20
87.02296177337256
 30
0.0
 10
178.5085194874226
 20
86.99636760273138
 30
0.0
 10
178.5614038426541
 20
86.97660737740564
 30
0.0
 10
178.6729709299903
 20
86.95615638717658
 30
0.0
 10
178.7155545265333
 20
86.95089616252014
 30
0.0
 10
178.8204712536151
 20
86.94301336859748
 30
0.0
 10
178.8820048614598
 20
86.94044924341833
 30
0.0
 10
178.969581003686
 20
86.93824902589868
 30
0.0
  0
LINE
  5
114
330
1F
100
AcDbEntity
  8
0
  6
HIDDEN
 62
     7
370
     0
100
AcDbLine
 10
179.5860932901
 20
86.2532224495
 30
0.0
 11
179.5860932901
 21
86.7334482401
 31
0.0
  0
LINE
  5
115
330
1F
100
AcDbEntity
  8
0
  6
HIDDEN
 62
     7
370
     0
100
AcDbLine
 10
179.5860932901
 20
130.8526372166
 30
0.0
 11
179.5860932901
 21
131.3328630073
 31
0.0
  0
SPLINE
  5
116
330
1F
100
AcDbEntity
  8
0
  6
HIDDEN
 62
     7
370
     0
100
AcDbSpline
210
0.0
220
0.0
230
1.0
 70
     8
 71
     3
 72
    12
 73
     8
 74
     0
 42
0.00000001
 43
0.00000001
 12
1.0
 22
0.0
 32
0.0
 13
1.0
 23
0.0
 33
0.0
 40
0.0
 40
0.0
 40
0.0
 40
0.0
 40
0.25
 40
0.25
 40
0.5
 40
0.5
 40
1.0
 40
1.0
 40
1.0
 40
1.0
 10
178.9695810036939
 20
130.6478364308506
 30
0.0
 10
178.8808963438376
 20
130.6456083635096
 30
0.0
 10
178.8209779281142
 20
130.6431065794793
 30
0.0
 10
178.7153187007934
 20
130.6351751436433
 30
0.0
 10
178.6726774626785
 20
130.6298829887464
 30
0.0
 10
178.5614881205759
 20
130.6094780482593
 30
0.0
 10
178.508561438455
 20
130.5897433566724
 30
0.0
 10
178.464772946586
 20
130.5631236833768
 30
0.0
  0
SPLINE
  5
117
330
1F
100
AcDbEntity
  8
0
  6
HIDDEN
 62
     7
370
     0
100
AcDbSpline
210
0.0
220
0.0
230
1.0
 70
     8
 71
     3
 72
    12
 73
     8
 74
     0
 42
0.00000001
 43
0.00000001
 12
1.0
 22
0.0
 32
0.0
 13
1.0
 23
0.0
 33
0.0
 40
0.0
 40
0.0
 40
0.0
 40
0.0
 40
0.4999999999999981
 40
0.4999999999999981
 40
0.7499999999999989
 40
0.7499999999999989
 40
1.0
 40
1.0
 40
1.0
 40
1.0
 10
178.4647729465844
 20
125.3769493546159
 30
0.0
 10
178.5085344228832
 20
125.1830495666538
 30
0.0
 10
178.5614407385362
 20
124.987193202717
 30
0.0
 10
178.6731519361836
 20
124.695051056218
 30
0.0
 10
178.71567137977
 20
124.5983331195201
 30
0.0
 10
178.8207947223374
 20
124.4116086830956
 30
0.0
 10
178.8823606860551
 20
124.3192579748259
 30
0.0
 10
178.9695810036978
 20
124.2453107102062
 30
0.0
  0
LWPOLYLINE
  5
118
330
1F
100
AcDbEntity
  8
0
  6
HIDDEN
 62
     7
370
     0
100
AcDbPolyline
 90
       11
 70
   128
 43
0.0
 10
200.7860932901
 20
118.7277640642
 10
201.4078180081
 20
118.7957835156
 10
201.9904774754
 20
118.9955679576
 10
202.497461055
 20
119.3145641988
 10
202.8969131039
 20
119.7327285324
 10
203.1637345809
 20
120.2237861553
 10
203.2811601112
 20
120.756882111
 10
203.241811417
 20
121.2985200202
 10
203.0481609213
 20
121.8146667809
 10
202.7123763971
 20
122.2728909939
 10
202.5646903018
 20
122.4143217414
  0
LWPOLYLINE
  5
119
330
1F
100
AcDbEntity
  8
0
  6
HIDDEN
 62
     7
370
     0
100
AcDbPolyline
 90
       11
 70
   128
 43
0.0
 10
199.0132557252
 20
122.419354752
 10
198.8598101832
 20
122.2728909939
 10
198.524025659
 20
121.8146667809
 10
198.3303751633
 20
121.2985200202
 10
198.2910264691
 20
120.756882111
 10
198.4084519994
 20
120.2237861553
 10
198.6752734764
 20
119.7327285324
 10
199.0747255253
 20
119.3145641988
 10
199.5817091049
 20
118.9955679576
 10
200.1643685722
 20
118.7957835156
 10
200.7860932901
 20
118.7277640642
  0
SPLINE
  5
11A
330
1F
100
AcDbEntity
  8
0
  6
HIDDEN
 62
     7
370
     0
100
AcDbSpline
210
0.0
220
0.0
230
1.0
 70
     8
 71
     3
 72
    62
 73
    58
 74
     0
 42
0.00000001
 43
0.00000001
 12
1.0
 22
0.0
 32
0.0
 13
1.0
 23
0.0
 33
0.0
 40
-0.0312499999999996
 40
-0.0312499999999996
 40
0.0
 40
0.0
 40
0.0312500000000003
 40
0.0312500000000003
 40
0.0625000000000007
 40
0.0625000000000007
 40
0.093750000000001
 40
0.093750000000001
 40
0.1250000000000014
 40
0.1250000000000014
 40
0.1875000000000021
 40
0.1875000000000021
 40
0.2187500000000023
 40
0.2187500000000023
 40
0.2500000000000026
 40
0.2500000000000026
 40
0.2812500000000028
 40
0.2812500000000028
 40
0.3125000000000031
 40
0.3125000000000031
 40
0.3750000000000033
 40
0.3750000000000033
 40
0.4062500000000034
 40
0.4062500000000034
 40
0.4375000000000034
 40
0.4375000000000034
 40
0.4687500000000036
 40
0.4687500000000036
 40
0.5000000000000036
 40
0.5000000000000036
 40
0.5625000000000038
 40
0.5625000000000038
 40
0.5937500000000036
 40
0.5937500000000036
 40
0.6250000000000033
 40
0.6250000000000033
 40
0.6562500000000032
 40
0.6562500000000032
 40
0.687500000000003
 40
0.687500000000003
 40
0.7187500000000028
 40
0.7187500000000028
 40
0.7500000000000026
 40
0.7500000000000026
 40
0.7812500000000023
 40
0.7812500000000023
 40
0.8125000000000021
 40
0.8125000000000021
 40
0.8750000000000017
 40
0.8750000000000017
 40
0.9062500000000013
 40
0.9062500000000013
 40
0.9375000000000009
 40
0.9375000000000009
 40
0.9687500000000004
 40
0.9687500000000004
 40
1.0
 40
1.0
 40
1.03125
 40
1.03125
 10
200.9521371090818
 20
110.9508833353613
 30
0.0
 10
200.6200494712095
 20
110.9508833353613
 30
0.0
 10
200.4569527406324
 20
110.9674569794168
 30
0.0
 10
200.136356435724
 20
111.0319455502453
 30
0.0
 10
199.9771542324175
 20
111.0806895757038
 30
0.0
 10
199.6748437307034
 20
111.2062671192736
 30
0.0
 10
199.531592156459
 20
111.2826414475944
 30
0.0
 10
199.2604813153918
 20
111.4612252380238
 30
0.0
 10
199.132799320263
 20
111.5638271625103
 30
0.0
 10
198.7887992320478
 20
111.8962640848528
 30
0.0
 10
198.6027976034635
 20
112.1595204261493
 30
0.0
 10
198.4153110902818
 20
112.5740647524582
 30
0.0
 10
198.3668391455297
 20
112.7178216644361
 30
0.0
 10
198.302277166116
 20
113.0064371319042
 30
0.0
 10
198.2861986658961
 20
113.1496465529445
 30
0.0
 10
198.2859889369824
 20
113.4336693931829
 30
0.0
 10
198.3024204843933
 20
113.5756353975609
 30
0.0
 10
198.3665891745457
 20
113.8451451858551
 30
0.0
 10
198.4140581373371
 20
113.9740631947573
 30
0.0
 10
198.6031816212913
 20
114.3442561672997
 30
0.0
 10
198.7873215136574
 20
114.5594285024103
 30
0.0
 10
199.1340570974614
 20
114.8249323162985
 30
0.0
 10
199.2593740536132
 20
114.9025436302488
 30
0.0
 10
199.5294335564131
 20
115.0378074895816
 30
0.0
 10
199.6758069322942
 20
115.0957776603423
 30
0.0
 10
199.9772248353478
 20
115.1876575359868
 30
0.0
 10
200.1330769967868
 20
115.2222551918069
 30
0.0
 10
200.4554200581032
 20
115.2691168088208
 30
0.0
 10
200.6213715251726
 20
115.280959122753
 30
0.0
 10
201.1122928927239
 20
115.2811123112223
 30
0.0
 10
201.4427758798266
 20
115.2338600384121
 30
0.0
 10
201.8946853774252
 20
115.0963871798193
 30
0.0
 10
202.0409825948045
 20
115.0385928749552
 30
0.0
 10
202.3118661573608
 20
114.9031179874064
 30
0.0
 10
202.4372226795187
 20
114.8255091815973
 30
0.0
 10
202.6680003210079
 20
114.6490310459571
 30
0.0
 10
202.7727882010779
 20
114.5501468839163
 30
0.0
 10
202.95345182526
 20
114.3376891436188
 30
0.0
 10
203.0306403224554
 20
114.2232160217876
 30
0.0
 10
203.1575037267465
 20
113.9756739720943
 30
0.0
 10
203.2051650806789
 20
113.8463669265315
 30
0.0
 10
203.2693954477415
 20
113.5777787653986
 30
0.0
 10
203.2860286616205
 20
113.4366332218996
 30
0.0
 10
203.286157536632
 20
113.1511448988579
 30
0.0
 10
203.2700765575032
 20
113.0078789110345
 30
0.0
 10
203.2061091450348
 20
112.7205421873903
 30
0.0
 10
203.1575450947911
 20
112.5757738676597
 30
0.0
 10
202.9698142527485
 20
112.1600067879479
 30
0.0
 10
202.7838684152529
 20
111.8968788622959
 30
0.0
 10
202.4400931931485
 20
111.5644347350371
 30
0.0
 10
202.312917888781
 20
111.462109079314
 30
0.0
 10
202.0412754795063
 20
111.2830055854519
 30
0.0
 10
201.8981163085592
 20
111.2066910375694
 30
0.0
 10
201.5969893660214
 20
111.081400803675
 30
0.0
 10
201.4374731373298
 20
111.032345202361
 30
0.0
 10
201.1156072450981
 20
110.96746336163
 30
0.0
 10
200.9521371090818
 20
110.9508833353613
 30
0.0
 10
200.6200494712095
 20
110.9508833353613
 30
0.0
  0
SPLINE
  5
11B
330
1F
100
AcDbEntity
  8
0
  6
HIDDEN
 62
     7
370
     0
100
AcDbSpline
210
0.0
220
0.0
230
1.0
 70
     8
 71
     3
 72
    33
 73
    29
 74
     0
 42
0.00000001
 43
0.00000001
 12
1.0
 22
0.0
 32
0.0
 13
1.0
 23
0.0
 33
0.0
 40
0.0
 40
0.0
 40
0.0
 40
0.0
 40
0.0326193094338136
 40
0.0654334338638105
 40
0.0988754863346158
 40
0.1325553279405963
 40
0.185179077025418
 40
0.212099256313594
 40
0.2392243208936516
 40
0.2835063953125789
 40
0.3290239773380046
 40
0.3733372363416766
 40
0.4190563961716161
 40
0.4617196610814252
 40
0.5053922629961685
 40
0.5345149052108897
 40
0.5638625771033621
 40
0.5938406606625378
 40
0.6240063416498197
 40
0.6836881050303416
 40
0.7446072400950267
 40
0.7896220871005342
 40
0.835545733079185
 40
0.8711488726115498
 40
0.9077503416562847
 40
0.943374604470031
 40
0.9799359071019494
 40
0.9999999999999999
 40
0.9999999999999999
 40
0.9999999999999999
 40
0.9999999999999999
 10
203.1625702670413
 20
117.784032030891
 30
0.0
 10
203.1827381868452
 20
117.8265265001578
 30
0.0
 10
203.2231944769865
 20
117.9117692319203
 30
0.0
 10
203.2622392046299
 20
118.0450508827094
 30
0.0
 10
203.2848893888251
 20
118.1845743499173
 30
0.0
 10
203.2890273660416
 20
118.3587446633463
 30
0.0
 10
203.2644007762984
 20
118.532941880772
 30
0.0
 10
203.2147739749816
 20
118.7048535376351
 30
0.0
 10
203.1521469141301
 20
118.8679496934684
 30
0.0
 10
203.0506982138396
 20
119.0684154272505
 30
0.0
 10
202.8965765450658
 20
119.3036330625239
 30
0.0
 10
202.7068930854734
 20
119.5410111247989
 30
0.0
 10
202.4947831701406
 20
119.767150566886
 30
0.0
 10
202.2666237228062
 20
119.9808969575615
 30
0.0
 10
202.0592253158951
 20
120.1557050170865
 30
0.0
 10
201.8745612778976
 20
120.3004101458657
 30
0.0
 10
201.7154554488859
 20
120.4189641127273
 30
0.0
 10
201.5569413074524
 20
120.5322279571565
 30
0.0
 10
201.3500907804325
 20
120.6754791414481
 30
0.0
 10
201.1032164278899
 20
120.8418125803063
 30
0.0
 10
200.8630970771448
 20
121.0108580022159
 30
0.0
 10
200.6811362789016
 20
121.1634486508144
 30
0.0
 10
200.5676919760601
 20
121.2950442956693
 30
0.0
 10
200.5065902821548
 20
121.4258551336735
 30
0.0
 10
200.4938854437473
 20
121.5523080747643
 30
0.0
 10
200.5272552605381
 20
121.6832569135049
 30
0.0
 10
200.5867628144673
 20
121.7936726820804
 30
0.0
 10
200.6409098045881
 20
121.857236957249
 30
0.0
 10
200.6600957233754
 20
121.8797597053912
 30
0.0
  0
SPLINE
  5
11C
330
1F
100
AcDbEntity
  8
0
  6
HIDDEN
 62
     7
370
     0
100
AcDbSpline
210
0.0
220
0.0
230
1.0
 70
     8
 71
     3
 72
    18
 73
    14
 74
     0
 42
0.00000001
 43
0.00000001
 12
1.0
 22
0.0
 32
0.0
 13
1.0
 23
0.0
 33
0.0
 40
0.0
 40
0.0
 40
0.0
 40
0.0
 40
0.034168769926859
 40
0.130668175674326
 40
0.2246787728576524
 40
0.3218330929232238
 40
0.4099637220908733
 40
0.5002500767785745
 40
0.5595541821012927
 40
0.6193189192169366
 40
0.7417001804993328
 40
0.8695397281544918
 40
1.0
 40
1.0
 40
1.0
 40
1.0
 10
202.3100426753897
 20
122.2589593796117
 30
0.0
 10
202.3383667249291
 20
122.2486246466333
 30
0.0
 10
202.4466835267613
 20
122.2091025711458
 30
0.0
 10
202.6208112505068
 20
122.0905734862974
 30
0.0
 10
202.8231169632604
 20
121.9018898726755
 30
0.0
 10
202.9884204795626
 20
121.6730375223253
 30
0.0
 10
203.1170981740359
 20
121.4160914350477
 30
0.0
 10
203.1978572919989
 20
121.1747879693107
 30
0.0
 10
203.2467598286279
 20
120.9532928905349
 30
0.0
 10
203.2835350582652
 20
120.6919334529691
 30
0.0
 10
203.2924256900228
 20
120.3493089812444
 30
0.0
 10
203.2491597887232
 20
119.9276618075019
 30
0.0
 10
203.1705857789616
 20
119.6514956963339
 30
0.0
 10
203.1309001659662
 20
119.5120116424652
 30
0.0
  0
SPLINE
  5
11D
330
1F
100
AcDbEntity
  8
0
  6
HIDDEN
 62
     7
370
     0
100
AcDbSpline
210
0.0
220
0.0
230
1.0
 70
     8
 71
     3
 72
    16
 73
    12
 74
     0
 42
0.00000001
 43
0.00000001
 12
1.0
 22
0.0
 32
0.0
 13
1.0
 23
0.0
 33
0.0
 40
0.0
 40
0.0
 40
0.0
 40
0.0
 40
0.2500000000000015
 40
0.2500000000000015
 40
0.375000000000001
 40
0.375000000000001
 40
0.5000000000000006
 40
0.5000000000000006
 40
0.7500000000000002
 40
0.7500000000000002
 40
1.0
 40
1.0
 40
1.0
 40
1.0
 10
203.1309001659663
 20
119.5120116424652
 30
0.0
 10
203.0932791549226
 20
119.278212742786
 30
0.0
 10
203.0549311663718
 20
119.0587029741802
 30
0.0
 10
203.0126798529269
 20
118.758564015562
 30
0.0
 10
203.0012303443106
 20
118.6634628892037
 30
0.0
 10
202.9866304901801
 20
118.4851821418491
 30
0.0
 10
202.9835591268952
 20
118.401450831543
 30
0.0
 10
202.9895292122499
 20
118.1751441404546
 30
0.0
 10
203.0138866771214
 20
118.0605240102999
 30
0.0
 10
203.0813118225457
 20
117.8856316446125
 30
0.0
 10
203.1237081251594
 20
117.8245400204156
 30
0.0
 10
203.1625702670413
 20
117.7840320308909
 30
0.0
  0
LINE
  5
11E
330
1F
100
AcDbEntity
  8
0
  6
HIDDEN
 62
     7
370
     0
100
AcDbLine
 10
179.5860932901
 20
86.7334482401
 30
0.0
 11
179.5860932901
 21
101.7711554026
 31
0.0
  0
LINE
  5
11F
330
1F
100
AcDbEntity
  8
0
  6
HIDDEN
 62
     7
370
     0
100
AcDbLine
 10
179.5860932901
 20
115.8149300541
 30
0.0
 11
179.5860932901
 21
130.8526372166
 31
0.0
  0
LWPOLYLINE
  5
120
330
1F
100
AcDbEntity
  8
0
  6
HIDDEN
 62
     7
370
     0
100
AcDbPolyline
 90
        9
 70
   128
 43
0.0
 10
203.130900166
 20
119.5120116425
 10
203.353403952
 20
119.115891081
 10
203.5204970704
 20
118.7464014846
 10
203.625383074
 20
118.4185716983
 10
203.6637957654
 20
118.1457360709
 10
203.6341727233
 20
117.938992085
 10
203.5377188535
 20
117.8067489717
 10
203.3783573795
 20
117.754385668
 10
203.162570267
 20
117.7840320309
  0
CIRCLE
  5
121
330
1F
100
AcDbEntity
  8
0
  6
HIDDEN
 62
     7
370
     0
100
AcDbCircle
 10
164.2860932901
 20
108.7930427284
 30
0.0
 40
4.049999999999997
  0
LINE
  5
122
330
1F
100
AcDbEntity
  8
0
  6
HIDDEN
 62
     7
370
     0
100
AcDbLine
 10
143.3163217298
 20
124.1059937713
 30
0.0
 11
143.3163217298
 21
93.4800916855
 31
0.0
  0
LINE
  5
123
330
1F
100
AcDbEntity
  8
0
  6
HIDDEN
 62
     7
370
     0
100
AcDbLine
 10
141.7860932901
 20
92.5966138839
 30
0.0
 11
141.7860932901
 21
124.9705578178
 31
0.0
  0
LINE
  5
124
330
1F
100
AcDbEntity
  8
0
  6
HIDDEN
 62
     7
370
     0
100
AcDbLine
 10
149.8163217298
 20
123.1394528899
 30
0.0
 11
149.8163217298
 21
94.4466325669
 31
0.0
  0
LINE
  5
125
330
1F
100
AcDbEntity
  8
0
  6
HIDDEN
 62
     7
370
     0
100
AcDbLine
 10
155.6163217298
 20
122.7930427284
 30
0.0
 11
155.6163217298
 21
94.7930427284
 31
0.0
  0
LINE
  5
126
330
1F
100
AcDbEntity
  8
0
  6
HIDDEN
 62
     7
370
     0
100
AcDbLine
 10
148.2163217298
 20
122.7930427284
 30
0.0
 11
148.2163217298
 21
94.7930427284
 31
0.0
  0
LINE
  5
127
330
1F
100
AcDbEntity
  8
0
  6
HIDDEN
 62
     7
370
     0
100
AcDbLine
 10
149.2163217298
 20
122.7930427284
 30
0.0
 11
149.2163217298
 21
94.7930427284
 31
0.0
  0
SPLINE
  5
128
330
1F
100
AcDbEntity
  8
0
  6
HIDDEN
 62
     7
370
     0
100
AcDbSpline
210
0.0
220
0.0
230
1.0
 70
     8
 71
     3
 72
    10
 73
     6
 74
     0
 42
0.00000001
 43
0.00000001
 12
1.0
 22
0.0
 32
0.0
 13
1.0
 23
0.0
 33
0.0
 40
0.0
 40
0.0
 40
0.0
 40
0.0
 40
0.5
 40
0.5
 40
1.0
 40
1.0
 40
1.0
 40
1.0
 10
168.2860932901457
 20
109.4274716053972
 30
0.0
 10
168.3192407082221
 20
109.2184810043892
 30
0.0
 10
168.3360995535838
 20
109.0069185383676
 30
0.0
 10
168.3360870232361
 20
108.5789297724
 30
0.0
 10
168.3191720654957
 20
108.3671716679842
 30
0.0
 10
168.2860932901457
 20
108.1586138513522
 30
0.0
  0
LINE
  5
129
330
1F
100
AcDbEntity
  8
0
  6
HIDDEN
 62
     7
370
     0
100
AcDbLine
 10
168.7860932901
 20
122.2930427128
 30
0.0
 11
168.7860932901
 21
95.2930427284
 31
0.0
  0
SPLINE
  5
12A
330
1F
100
AcDbEntity
  8
0
  6
HIDDEN
 62
     7
370
     0
100
AcDbSpline
210
0.0
220
0.0
230
1.0
 70
     8
 71
     3
 72
    10
 73
     6
 74
     0
 42
0.00000001
 43
0.00000001
 12
1.0
 22
0.0
 32
0.0
 13
1.0
 23
0.0
 33
0.0
 40
0.0
 40
0.0
 40
0.0
 40
0.0
 40
0.5
 40
0.5
 40
1.0
 40
1.0
 40
1.0
 40
1.0
 10
168.2860932901457
 20
108.1586138513522
 30
0.0
 10
168.3192822526194
 20
108.3678663849346
 30
0.0
 10
168.3359830288741
 20
108.5786831458336
 30
0.0
 10
168.3362024693187
 20
109.0032154270369
 30
0.0
 10
168.3193227539253
 20
109.2179637158095
 30
0.0
 10
168.2860932901457
 20
109.4274716053972
 30
0.0
  0
SPLINE
  5
12B
330
1F
100
AcDbEntity
  8
0
  6
HIDDEN
 62
     7
370
     0
100
AcDbSpline
210
0.0
220
0.0
230
1.0
 70
     8
 71
     3
 72
    68
 73
    64
 74
     0
 42
0.00000001
 43
0.00000001
 12
1.0
 22
0.0
 32
0.0
 13
1.0
 23
0.0
 33
0.0
 40
0.0
 40
0.0
 40
0.0
 40
0.0
 40
0.0312499999999998
 40
0.0312499999999998
 40
0.0624999999999996
 40
0.0624999999999996
 40
0.0937499999999993
 40
0.0937499999999993
 40
0.1249999999999991
 40
0.1249999999999991
 40
0.1562499999999989
 40
0.1562499999999989
 40
0.1874999999999987
 40
0.1874999999999987
 40
0.2187499999999984
 40
0.2187499999999984
 40
0.2499999999999982
 40
0.2499999999999982
 40
0.2812499999999982
 40
0.2812499999999982
 40
0.3124999999999982
 40
0.3124999999999982
 40
0.3437499999999982
 40
0.3437499999999982
 40
0.3749999999999982
 40
0.3749999999999982
 40
0.4062499999999982
 40
0.4062499999999982
 40
0.4374999999999982
 40
0.4374999999999982
 40
0.4687499999999982
 40
0.4687499999999982
 40
0.4999999999999982
 40
0.4999999999999982
 40
0.5624999999999982
 40
0.5624999999999982
 40
0.5937499999999982
 40
0.5937499999999982
 40
0.6249999999999982
 40
0.6249999999999982
 40
0.6562499999999982
 40
0.6562499999999982
 40
0.6874999999999982
 40
0.6874999999999982
 40
0.7187499999999982
 40
0.7187499999999982
 40
0.7499999999999982
 40
0.7499999999999982
 40
0.7812499999999984
 40
0.7812499999999984
 40
0.8124999999999987
 40
0.8124999999999987
 40
0.8437499999999989
 40
0.8437499999999989
 40
0.8749999999999991
 40
0.8749999999999991
 40
0.9062499999999993
 40
0.9062499999999993
 40
0.9374999999999996
 40
0.9374999999999996
 40
0.9687499999999998
 40
0.9687499999999998
 40
1.0
 40
1.0
 40
1.0
 40
1.0
 10
168.2860932901457
 20
108.1586138513521
 30
0.0
 10
168.246078337796
 20
107.9063242485366
 30
0.0
 10
168.1831365363847
 20
107.6623253981607
 30
0.0
 10
168.0137498743126
 20
107.1899070090982
 30
0.0
 10
167.9060563117272
 20
106.9594936229383
 30
0.0
 10
167.6507715431893
 20
106.5247890271412
 30
0.0
 10
167.504732312717
 20
106.3221470604899
 30
0.0
 10
167.1765108761578
 20
105.945157769732
 30
0.0
 10
166.9922635883828
 20
105.7694998161547
 30
0.0
 10
166.5993034210745
 20
105.4592418472084
 30
0.0
 10
166.3900088241153
 20
105.3232966395585
 30
0.0
 10
165.945123397178
 20
105.0899065441527
 30
0.0
 10
165.7083258046789
 20
104.9926599377383
 30
0.0
 10
165.2275907357597
 20
104.8459884798669
 30
0.0
 10
164.9813476425769
 20
104.7950961349245
 30
0.0
 10
164.4766308625975
 20
104.739568784689
 30
0.0
 10
164.220436161661
 20
104.7357438976191
 30
0.0
 10
163.7180574124609
 20
104.7751676802635
 30
0.0
 10
163.4688077132773
 20
104.8181951294748
 30
0.0
 10
162.9772799157985
 20
104.951900098926
 30
0.0
 10
162.7419843145726
 20
105.0405699448312
 30
0.0
 10
162.2910704199105
 20
105.2596013086087
 30
0.0
 10
162.0734580694472
 20
105.3916028742922
 30
0.0
 10
161.6702508998989
 20
105.6909601552951
 30
0.0
 10
161.4846394074644
 20
105.857579082733
 30
0.0
 10
161.144651337062
 20
106.2246905081605
 30
0.0
 10
160.9895784062391
 20
106.4269942537012
 30
0.0
 10
160.7232353295757
 20
106.8510749332952
 30
0.0
 10
160.6102512288589
 20
107.0742345387614
 30
0.0
 10
160.425395971928
 20
107.5435897803555
 30
0.0
 10
160.3542552104246
 20
107.7898002836911
 30
0.0
 10
160.2602947991365
 20
108.2843261100622
 30
0.0
 10
160.2362854691801
 20
108.5352571051542
 30
0.0
 10
160.2357123485075
 20
109.2995024847104
 30
0.0
 10
160.3311114598262
 20
109.8017267867614
 30
0.0
 10
160.6089752520272
 20
110.5092912930338
 30
0.0
 10
160.7221372081078
 20
110.7329975567746
 30
0.0
 10
160.9882683901517
 20
111.1572674680952
 30
0.0
 10
161.1430961643514
 20
111.3595194301512
 30
0.0
 10
161.4832772701392
 20
111.7272301715194
 30
0.0
 10
161.6687797270889
 20
111.8938470467688
 30
0.0
 10
162.0710735281483
 20
112.1928964255642
 30
0.0
 10
162.2890815764003
 20
112.3253531335926
 30
0.0
 10
162.7396799435506
 20
112.5445595342973
 30
0.0
 10
162.9742289424314
 20
112.6330446643009
 30
0.0
 10
163.4626889359837
 20
112.7665308942396
 30
0.0
 10
163.7149543316975
 20
112.8104726067333
 30
0.0
 10
164.2171349698578
 20
112.8502816032068
 30
0.0
 10
164.4696170872095
 20
112.8469373903933
 30
0.0
 10
164.977482130279
 20
112.7917580704028
 30
0.0
 10
165.2250276034628
 20
112.7407121419333
 30
0.0
 10
165.7059951409335
 20
112.5943017536978
 30
0.0
 10
165.9419550060388
 20
112.4976555489242
 30
0.0
 10
166.3885254555604
 20
112.2637506046111
 30
0.0
 10
166.5981703181339
 20
112.1276255907846
 30
0.0
 10
166.9911570248883
 20
111.8175713264555
 30
0.0
 10
167.1755529287034
 20
111.6419140788804
 30
0.0
 10
167.5041033465637
 20
111.264774156216
 30
0.0
 10
167.6500454430869
 20
111.0623079509461
 30
0.0
 10
167.9049307982891
 20
110.6287316528128
 30
0.0
 10
168.0132421110974
 20
110.3974398092312
 30
0.0
 10
168.1830770885143
 20
109.924080129098
 30
0.0
 10
168.2460724496514
 20
109.6797983322772
 30
0.0
 10
168.2860932901457
 20
109.4274716053972
 30
0.0
  0
SPLINE
  5
12C
330
1F
100
AcDbEntity
  8
0
  6
HIDDEN
 62
     7
370
     0
100
AcDbSpline
210
0.0
220
0.0
230
1.0
 70
     8
 71
     3
 72
    68
 73
    64
 74
     0
 42
0.00000001
 43
0.00000001
 12
1.0
 22
0.0
 32
0.0
 13
1.0
 23
0.0
 33
0.0
 40
0.0
 40
0.0
 40
0.0
 40
0.0
 40
0.03125
 40
0.03125
 40
0.0625
 40
0.0625
 40
0.09375
 40
0.09375
 40
0.125
 40
0.125
 40
0.15625
 40
0.15625
 40
0.1875
 40
0.1875
 40
0.21875
 40
0.21875
 40
0.25
 40
0.25
 40
0.28125
 40
0.28125
 40
0.3125
 40
0.3125
 40
0.34375
 40
0.34375
 40
0.375
 40
0.375
 40
0.40625
 40
0.40625
 40
0.4374999999999999
 40
0.4374999999999999
 40
0.4687499999999999
 40
0.4687499999999999
 40
0.4999999999999999
 40
0.4999999999999999
 40
0.5625
 40
0.5625
 40
0.59375
 40
0.59375
 40
0.625
 40
0.625
 40
0.65625
 40
0.65625
 40
0.6875
 40
0.6875
 40
0.71875
 40
0.71875
 40
0.75
 40
0.75
 40
0.78125
 40
0.78125
 40
0.8125
 40
0.8125
 40
0.84375
 40
0.84375
 40
0.875
 40
0.875
 40
0.90625
 40
0.90625
 40
0.9375
 40
0.9375
 40
0.96875
 40
0.96875
 40
1.0
 40
1.0
 40
1.0
 40
1.0
 10
168.2860932901457
 20
109.4274716053972
 30
0.0
 10
168.246078337796
 20
109.6797612082128
 30
0.0
 10
168.1831365363847
 20
109.9237600585886
 30
0.0
 10
168.0137498743127
 20
110.3961784476511
 30
0.0
 10
167.9060563117272
 20
110.6265918338111
 30
0.0
 10
167.6507715431893
 20
111.0612964296081
 30
0.0
 10
167.504732312717
 20
111.2639383962595
 30
0.0
 10
167.1765108761578
 20
111.6409276870173
 30
0.0
 10
166.9922635883828
 20
111.8165856405947
 30
0.0
 10
166.5993034210745
 20
112.1268436095409
 30
0.0
 10
166.3900088241153
 20
112.2627888171908
 30
0.0
 10
165.945123397178
 20
112.4961789125967
 30
0.0
 10
165.708325804679
 20
112.5934255190111
 30
0.0
 10
165.2275907357597
 20
112.7400969768824
 30
0.0
 10
164.9813476425769
 20
112.7909893218248
 30
0.0
 10
164.4766308625975
 20
112.8465166720603
 30
0.0
 10
164.220436161661
 20
112.8503415591303
 30
0.0
 10
163.7180574124609
 20
112.8109177764859
 30
0.0
 10
163.4688077132773
 20
112.7678903272746
 30
0.0
 10
162.9772799157985
 20
112.6341853578233
 30
0.0
 10
162.7419843145727
 20
112.5455155119181
 30
0.0
 10
162.2910704199105
 20
112.3264841481407
 30
0.0
 10
162.0734580694472
 20
112.1944825824572
 30
0.0
 10
161.6702508998989
 20
111.8951253014543
 30
0.0
 10
161.4846394074645
 20
111.7285063740164
 30
0.0
 10
161.144651337062
 20
111.3613949485889
 30
0.0
 10
160.9895784062391
 20
111.1590912030482
 30
0.0
 10
160.7232353295757
 20
110.7350105234542
 30
0.0
 10
160.6102512288589
 20
110.511850917988
 30
0.0
 10
160.425395971928
 20
110.0424956763938
 30
0.0
 10
160.3542552104246
 20
109.7962851730583
 30
0.0
 10
160.2602947991365
 20
109.3017593466871
 30
0.0
 10
160.2362854691801
 20
109.0508283515951
 30
0.0
 10
160.2357123485075
 20
108.2865829720389
 30
0.0
 10
160.3311114598262
 20
107.784358669988
 30
0.0
 10
160.6089752520272
 20
107.0767941637156
 30
0.0
 10
160.7221372081078
 20
106.8530878999748
 30
0.0
 10
160.9882683901517
 20
106.4288179886542
 30
0.0
 10
161.1430961643514
 20
106.2265660265981
 30
0.0
 10
161.4832772701392
 20
105.85885528523
 30
0.0
 10
161.6687797270889
 20
105.6922384099806
 30
0.0
 10
162.0710735281483
 20
105.3931890311852
 30
0.0
 10
162.2890815764003
 20
105.2607323231568
 30
0.0
 10
162.7396799435506
 20
105.0415259224521
 30
0.0
 10
162.9742289424314
 20
104.9530407924485
 30
0.0
 10
163.4626889359837
 20
104.8195545625098
 30
0.0
 10
163.7149543316975
 20
104.7756128500161
 30
0.0
 10
164.2171349698578
 20
104.7358038535426
 30
0.0
 10
164.4696170872095
 20
104.7391480663561
 30
0.0
 10
164.977482130279
 20
104.7943273863466
 30
0.0
 10
165.2250276034628
 20
104.845373314816
 30
0.0
 10
165.7059951409335
 20
104.9917837030516
 30
0.0
 10
165.9419550060388
 20
105.0884299078252
 30
0.0
 10
166.3885254555604
 20
105.3223348521382
 30
0.0
 10
166.5981703181339
 20
105.4584598659648
 30
0.0
 10
166.9911570248883
 20
105.7685141302938
 30
0.0
 10
167.1755529287034
 20
105.944171377869
 30
0.0
 10
167.5041033465637
 20
106.3213113005334
 30
0.0
 10
167.6500454430869
 20
106.5237775058033
 30
0.0
 10
167.9049307982891
 20
106.9573538039366
 30
0.0
 10
168.0132421110974
 20
107.1886456475181
 30
0.0
 10
168.1830770885143
 20
107.6620053276513
 30
0.0
 10
168.2460724496514
 20
107.9062871244721
 30
0.0
 10
168.2860932901457
 20
108.1586138513522
 30
0.0
  0
LINE
  5
12D
330
1F
100
AcDbEntity
  8
0
  6
HIDDEN
 62
     7
370
     0
100
AcDbLine
 10
240.5734572989
 20
137.8709101408
 30
0.0
 11
242.4089041734
 21
141.7633544948
 31
0.0
  0
LINE
  5
12E
330
1F
100
AcDbEntity
  8
0
  6
HIDDEN
 62
     7
370
     0
100
AcDbLine
 10
242.4185128043
 20
141.7587525292
 30
0.0
 11
242.4089041734
 21
141.7633544948
 31
0.0
  0
LINE
  5
12F
330
1F
100
AcDbEntity
  8
0
  6
HIDDEN
 62
     7
370
     0
100
AcDbLine
 10
170.0360932901
 20
117.7930427284
 30
0.0
 11
170.0360932901
 21
99.7930427284
 31
0.0
  0
LINE
  5
130
330
1F
100
AcDbEntity
  8
0
  6
HIDDEN
 62
     7
370
     0
100
AcDbLine
 10
168.7860932901
 20
98.5430427284
 30
0.0
 11
168.7860932901
 21
119.0236018479
 31
0.0
  0
LINE
  5
131
330
1F
100
AcDbEntity
  8
0
  6
HIDDEN
 62
     7
370
     0
100
AcDbLine
 10
206.7860932901
 20
99.7930427284
 30
0.0
 11
206.7860932901
 21
117.7930427284
 31
0.0
  0
LINE
  5
132
330
1F
100
AcDbEntity
  8
0
  6
HIDDEN
 62
     7
370
     0
100
AcDbLine
 10
213.5740988766
 20
77.3006733475
 30
0.0
 11
214.3510995187
 21
78.3295337787
 31
0.0
  0
LINE
  5
133
330
1F
100
AcDbEntity
  8
0
  6
HIDDEN
 62
     7
370
     0
100
AcDbLine
 10
241.0591883165
 20
115.8715177132
 30
0.0
 11
237.0874862205
 21
110.6124137828
 31
0.0
  0
CIRCLE
  5
134
330
1F
100
AcDbEntity
  8
0
  6
HIDDEN
 62
     7
370
     0
100
AcDbCircle
 10
226.44651131
 20
135.5870706374
 30
0.0
 40
3.481308727042538
  0
LINE
  5
135
330
1F
100
AcDbEntity
  8
0
  6
HIDDEN
 62
     7
370
     0
100
AcDbLine
 10
217.9376681402
 20
111.3938142078
 30
0.0
 11
217.9376681402
 21
83.6070603982
 31
0.0
  0
SPLINE
  5
136
330
1F
100
AcDbEntity
  8
0
  6
HIDDEN
 62
     7
370
     0
100
AcDbSpline
210
0.0
220
0.0
230
1.0
 70
     8
 71
     3
 72
     9
 73
     5
 74
     0
 42
0.00000001
 43
0.00000001
 12
1.0
 22
0.0
 32
0.0
 13
1.0
 23
0.0
 33
0.0
 40
0.0
 40
0.0
 40
0.0
 40
0.0
 40
0.5
 40
1.0
 40
1.0
 40
1.0
 40
1.0
 10
217.9846921284558
 20
112.7292527540774
 30
0.0
 10
217.9774109194026
 20
112.5066739903599
 30
0.0
 10
217.9616150860359
 20
112.0615290442714
 30
0.0
 10
217.9454084781599
 20
111.6163882882529
 30
0.0
 10
217.9376681402086
 20
111.3938142078403
 30
0.0
  0
SPLINE
  5
137
330
1F
100
AcDbEntity
  8
0
  6
HIDDEN
 62
     7
370
     0
100
AcDbSpline
210
0.0
220
0.0
230
1.0
 70
     8
 71
     3
 72
    12
 73
     8
 74
     0
 42
0.00000001
 43
0.00000001
 12
1.0
 22
0.0
 32
0.0
 13
1.0
 23
0.0
 33
0.0
 40
0.0
 40
0.0
 40
0.0
 40
0.0
 40
0.499999999999998
 40
0.499999999999998
 40
0.749999999999999
 40
0.749999999999999
 40
1.0
 40
1.0
 40
1.0
 40
1.0
 10
217.0187663021674
 20
82.29149001350119
 30
0.0
 10
217.2155627958731
 20
82.5716854262062
 30
0.0
 10
217.3896056687425
 20
82.82013208621615
 30
0.0
 10
217.6244769951062
 20
83.15625428703731
 30
0.0
 10
217.6981057143009
 20
83.26179486401757
 30
0.0
 10
217.8308737178631
 20
83.45259524013072
 30
0.0
 10
217.8905491437123
 20
83.53861060106674
 30
0.0
 10
217.9376681402075
 20
83.60706039817349
 30
0.0
  0
SPLINE
  5
138
330
1F
100
AcDbEntity
  8
0
  6
HIDDEN
 62
     7
370
     0
100
AcDbSpline
210
0.0
220
0.0
230
1.0
 70
     8
 71
     3
 72
     8
 73
     4
 74
     0
 42
0.00000001
 43
0.00000001
 12
1.0
 22
0.0
 32
0.0
 13
1.0
 23
0.0
 33
0.0
 40
0.0
 40
0.0
 40
0.0
 40
0.0
 40
1.0
 40
1.0
 40
1.0
 40
1.0
 10
219.4639165250262
 20
128.8416739803156
 30
0.0
 10
218.7052966988823
 20
123.5090766167968
 30
0.0
 10
218.1618740439774
 20
118.1455141774209
 30
0.0
 10
217.9846921284558
 20
112.7292527540774
 30
0.0
  0
SPLINE
  5
139
330
1F
100
AcDbEntity
  8
0
  6
HIDDEN
 62
     7
370
     0
100
AcDbSpline
210
0.0
220
0.0
230
1.0
 70
     8
 71
     3
 72
    32
 73
    28
 74
     0
 42
0.00000001
 43
0.00000001
 12
1.0
 22
0.0
 32
0.0
 13
1.0
 23
0.0
 33
0.0
 40
0.0
 40
0.0
 40
0.0
 40
0.0
 40
0.1249999999999979
 40
0.1249999999999979
 40
0.1874999999999968
 40
0.1874999999999968
 40
0.2499999999999957
 40
0.2499999999999957
 40
0.3124999999999946
 40
0.3124999999999946
 40
0.3437499999999942
 40
0.3437499999999942
 40
0.3749999999999937
 40
0.3749999999999937
 40
0.4374999999999944
 40
0.4374999999999944
 40
0.499999999999995
 40
0.499999999999995
 40
0.5624999999999957
 40
0.5624999999999957
 40
0.6249999999999962
 40
0.6249999999999962
 40
0.7499999999999974
 40
0.7499999999999974
 40
0.8749999999999988
 40
0.8749999999999988
 40
1.0
 40
1.0
 40
1.0
 40
1.0
 10
219.9592657399298
 20
134.0091740468526
 30
0.0
 10
219.8799252240989
 20
133.9159020093717
 30
0.0
 10
219.7994827942598
 20
133.8052503458591
 30
0.0
 10
219.6752993002002
 20
133.5907584416762
 30
0.0
 10
219.6333091287441
 20
133.511066579527
 30
0.0
 10
219.5473788958557
 20
133.3255767194795
 30
0.0
 10
219.5033460913825
 20
133.2192697452179
 30
0.0
 10
219.41768748903
 20
132.9769347258474
 30
0.0
 10
219.3750789245477
 20
132.8375071278288
 30
0.0
 10
219.3179349048236
 20
132.6086888795853
 30
0.0
 10
219.2996901258179
 20
132.5277650984864
 30
0.0
 10
219.2669611859501
 20
132.3652052258603
 30
0.0
 10
219.2522957322533
 20
132.283015613799
 30
0.0
 10
219.2131578569345
 20
132.0338727895004
 30
0.0
 10
219.1946564265799
 20
131.8713435438785
 30
0.0
 10
219.1692440742829
 20
131.5608319920986
 30
0.0
 10
219.1623810584572
 20
131.4144588402351
 30
0.0
 10
219.1563054822033
 20
131.1381810342444
 30
0.0
 10
219.157093708049
 20
131.0065461221504
 30
0.0
 10
219.1640210935236
 20
130.7559634662498
 30
0.0
 10
219.1701205780429
 20
130.6377107219549
 30
0.0
 10
219.1941054411558
 20
130.2975689942297
 30
0.0
 10
219.2175862711382
 20
130.0900275190087
 30
0.0
 10
219.2741894276986
 20
129.6979942406578
 30
0.0
 10
219.3075349872892
 20
129.5133004377037
 30
0.0
 10
219.3810965947331
 20
129.1634204148904
 30
0.0
 10
219.4212064601332
 20
128.9987091104539
 30
0.0
 10
219.4639165250262
 20
128.8416739803156
 30
0.0
  0
SPLINE
  5
13A
330
1F
100
AcDbEntity
  8
0
  6
HIDDEN
 62
     7
370
     0
100
AcDbSpline
210
0.0
220
0.0
230
1.0
 70
     8
 71
     3
 72
    12
 73
     8
 74
     0
 42
0.00000001
 43
0.00000001
 12
1.0
 22
0.0
 32
0.0
 13
1.0
 23
0.0
 33
0.0
 40
0.0
 40
0.0
 40
0.0
 40
0.0
 40
0.4999999999999998
 40
0.4999999999999998
 40
0.7499999999999999
 40
0.7499999999999999
 40
1.0
 40
1.0
 40
1.0
 40
1.0
 10
220.4646427207232
 20
143.2306106325942
 30
0.0
 10
220.4087515209749
 20
141.9586019352315
 30
0.0
 10
220.3386932901589
 20
140.5468765377165
 30
0.0
 10
220.2114269787788
 20
138.218374991731
 30
0.0
 10
220.1651292330024
 20
137.4046118305095
 30
0.0
 10
220.0668123475714
 20
135.740162186035
 30
0.0
 10
220.014591660747
 20
134.8856094491583
 30
0.0
 10
219.9592657399298
 20
134.0091740468525
 30
0.0
  0
SPLINE
  5
13B
330
1F
100
AcDbEntity
  8
0
  6
HIDDEN
 62
     7
370
     0
100
AcDbSpline
210
0.0
220
0.0
230
1.0
 70
     8
 71
     3
 72
    11
 73
     7
 74
     0
 42
0.00000001
 43
0.00000001
 12
1.0
 22
0.0
 32
0.0
 13
1.0
 23
0.0
 33
0.0
 40
0.0
 40
0.0
 40
0.0
 40
0.0
 40
0.1436935442803141
 40
0.4314167799526106
 40
0.7207357480400444
 40
1.0
 40
1.0
 40
1.0
 40
1.0
 10
220.4646427207232
 20
143.2306106325942
 30
0.0
 10
220.3110449968514
 20
143.2598224941864
 30
0.0
 10
219.8498925089461
 20
143.3475264152473
 30
0.0
 10
219.2713068336448
 20
143.5852434336857
 30
0.0
 10
218.870423531945
 20
144.0028302985929
 30
0.0
 10
218.9289933755676
 20
144.4305224001451
 30
0.0
 10
218.9577604284633
 20
144.640586838556
 30
0.0
  0
ARC
  5
13C
330
1F
100
AcDbEntity
  8
0
  6
HIDDEN
 62
     7
370
     0
100
AcDbCircle
 10
237.3610312418
 20
136.7463536497
 30
0.0
 40
2.098819225720646
100
AcDbArc
 50
154.9830098639
 51
333.833664245
  0
LINE
  5
13D
330
1F
100
AcDbEntity
  8
0
  6
HIDDEN
 62
     7
370
     0
100
AcDbLine
 10
239.2447584831
 20
135.8208193054
 30
0.0
 11
239.4397910067
 21
136.2344260711
 31
0.0
  0
LINE
  5
13E
330
1F
100
AcDbEntity
  8
0
  6
HIDDEN
 62
     7
370
     0
100
AcDbLine
 10
239.8346448733
 20
137.0717952836
 30
0.0
 11
241.4451517421
 21
140.4872078762
 31
0.0
  0
LINE
  5
13F
330
1F
100
AcDbEntity
  8
0
  6
HIDDEN
 62
     7
370
     0
100
AcDbLine
 10
242.4089041734
 20
141.7633544948
 30
0.0
 11
241.4451517421
 21
140.4872078762
 31
0.0
  0
LINE
  5
140
330
1F
100
AcDbEntity
  8
0
  6
HIDDEN
 62
     7
370
     0
100
AcDbLine
 10
234.2651979369
 20
141.8086717009
 30
0.0
 11
234.2817629103
 21
141.8306061044
 31
0.0
  0
LINE
  5
141
330
1F
100
AcDbEntity
  8
0
  6
HIDDEN
 62
     7
370
     0
100
AcDbLine
 10
235.9521076401
 20
138.679403098
 30
0.0
 11
236.9158600714
 21
139.9555497166
 31
0.0
  0
ELLIPSE
  5
142
330
1F
100
AcDbEntity
  8
0
  6
HIDDEN
 62
     7
370
     0
100
AcDbEllipse
 10
232.8841478637
 20
141.9523701094
 30
0.0
 11
-1.334428566009308
 21
2.209358540186116
 31
0.0
210
0.0
220
0.0
230
1.0
 40
0.2605793844
 41
5.303806342098813
 42
6.387077430388302
  0
SPLINE
  5
143
330
1F
100
AcDbEntity
  8
0
  6
HIDDEN
 62
     7
370
     0
100
AcDbSpline
210
0.0
220
0.0
230
1.0
 70
     8
 71
     3
 72
    36
 73
    32
 74
     0
 42
0.00000001
 43
0.00000001
 12
1.0
 22
0.0
 32
0.0
 13
1.0
 23
0.0
 33
0.0
 40
0.0
 40
0.0
 40
0.0
 40
0.0
 40
0.1250000000000006
 40
0.1250000000000006
 40
0.2500000000000012
 40
0.2500000000000012
 40
0.3125000000000016
 40
0.3125000000000016
 40
0.375000000000002
 40
0.375000000000002
 40
0.4062500000000016
 40
0.4062500000000016
 40
0.4375000000000013
 40
0.4375000000000013
 40
0.4687500000000009
 40
0.4687500000000009
 40
0.5000000000000006
 40
0.5000000000000006
 40
0.5312500000000001
 40
0.5312500000000001
 40
0.5624999999999998
 40
0.5624999999999998
 40
0.6249999999999997
 40
0.6249999999999997
 40
0.6874999999999997
 40
0.6874999999999997
 40
0.7499999999999996
 40
0.7499999999999996
 40
0.8749999999999999
 40
0.8749999999999999
 40
1.0
 40
1.0
 40
1.0
 40
1.0
 10
226.2620238494752
 20
138.6816547980883
 30
0.0
 10
226.3171578625144
 20
138.754660148859
 30
0.0
 10
226.4407537487569
 20
138.8156155319636
 30
0.0
 10
226.7656926311087
 20
138.9112342987427
 30
0.0
 10
226.9700644775942
 20
138.945703709563
 30
0.0
 10
227.3259900898495
 20
138.9550855020089
 30
0.0
 10
227.4532837697383
 20
138.9511468396611
 30
0.0
 10
227.7291690889509
 20
138.9209581741686
 30
0.0
 10
227.8789776888807
 20
138.8946266853065
 30
0.0
 10
228.1204190568666
 20
138.8266337661437
 30
0.0
 10
228.2038168559214
 20
138.7991797573528
 30
0.0
 10
228.3785005721309
 20
138.7303918531195
 30
0.0
 10
228.470796348621
 20
138.6885783815498
 30
0.0
 10
228.6611247949219
 20
138.5859908661211
 30
0.0
 10
228.7606945274524
 20
138.5242414193261
 30
0.0
 10
228.9586562990671
 20
138.3783876892392
 30
0.0
 10
229.0585302266142
 20
138.2928203442226
 30
0.0
 10
229.2440183526789
 20
138.1049256415867
 30
0.0
 10
229.3291620352052
 20
138.0030934381044
 30
0.0
 10
229.4757865927992
 20
137.7998129728977
 30
0.0
 10
229.5377850283262
 20
137.698355337625
 30
0.0
 10
229.6958230272791
 20
137.4033406209791
 30
0.0
 10
229.7641651920539
 20
137.2220643354439
 30
0.0
 10
229.8656789957338
 20
136.8823723783811
 30
0.0
 10
229.897500203
 20
136.7253552934517
 30
0.0
 10
229.9397543442037
 20
136.4345084788514
 30
0.0
 10
229.9501569596152
 20
136.2996090040341
 30
0.0
 10
229.9611505326714
 20
135.9205129665435
 30
0.0
 10
229.9416256557722
 20
135.6997336152212
 30
0.0
 10
229.8773760638106
 20
135.3416118252962
 30
0.0
 10
229.8329716652138
 20
135.2016342556898
 30
0.0
 10
229.7781897307423
 20
135.1290951075031
 30
0.0
  0
ELLIPSE
  5
144
330
1F
100
AcDbEntity
  8
0
  6
HIDDEN
 62
     7
370
     0
100
AcDbEllipse
 10
232.8841478637
 20
141.9523701094
 30
0.0
 11
2.137853599931504
 21
-1.378829910960463
 31
0.0
210
0.0
220
0.0
230
1.0
 40
0.2825155173
 41
6.262243946044657
 42
7.345515034333976
  0
SPLINE
  5
145
330
1F
100
AcDbEntity
  8
0
  6
HIDDEN
 62
     7
370
     0
100
AcDbSpline
210
0.0
220
0.0
230
1.0
 70
     8
 71
     3
 72
    14
 73
    10
 74
     0
 42
0.00000001
 43
0.00000001
 12
1.0
 22
0.0
 32
0.0
 13
1.0
 23
0.0
 33
0.0
 40
0.0
 40
0.0
 40
0.0
 40
0.0
 40
0.25
 40
0.25
 40
0.5
 40
0.5
 40
0.75
 40
0.75
 40
1.0
 40
1.0
 40
1.0
 40
1.0
 10
232.6180820766462
 20
143.4728359093739
 30
0.0
 10
232.6499497996107
 20
143.2651687656407
 30
0.0
 10
232.7137882671755
 20
143.0686153372025
 30
0.0
 10
232.9031028240991
 20
142.6956799078485
 30
0.0
 10
233.0253875973637
 20
142.5266101281067
 30
0.0
 10
233.3191333586914
 20
142.2293666082048
 30
0.0
 10
233.4880473018125
 20
142.1042995188239
 30
0.0
 10
233.857256497874
 20
141.9110072247386
 30
0.0
 10
234.0576151378155
 20
141.8429611585861
 30
0.0
 10
234.265197936883
 20
141.8086717008604
 30
0.0
  0
LINE
  5
146
330
1F
100
AcDbEntity
  8
0
  6
HIDDEN
 62
     7
370
     0
100
AcDbLine
 10
232.6180820766
 20
143.4728359094
 30
0.0
 11
232.63464705
 21
143.494770313
 31
0.0
  0
LINE
  5
147
330
1F
100
AcDbEntity
  8
0
  6
HIDDEN
 62
     7
370
     0
100
AcDbLine
 10
227.6253899946
 20
148.0306672192
 30
0.0
 11
228.5891424259
 21
149.3068138378
 31
0.0
  0
LINE
  5
148
330
1F
100
AcDbEntity
  8
0
  6
HIDDEN
 62
     7
370
     0
100
AcDbLine
 10
243.2995601211
 20
141.3367830027
 30
0.0
 11
242.3358076898
 21
140.0606363842
 31
0.0
  0
ELLIPSE
  5
149
330
1F
100
AcDbEntity
  8
0
  6
HIDDEN
 62
     7
370
     0
100
AcDbEllipse
 10
223.0488240032
 20
131.1368558284
 30
0.0
 11
2.570105550204375
 21
3.403188827857548
 31
0.0
210
0.0
220
0.0
230
1.0
 40
0.9848432766
 41
2.782099377809172
 42
5.450828823613215
  0
SPLINE
  5
14A
330
1F
100
AcDbEntity
  8
0
  6
HIDDEN
 62
     7
370
     0
100
AcDbSpline
210
0.0
220
0.0
230
1.0
 70
     8
 71
     3
 72
    34
 73
    30
 74
     0
 42
0.00000001
 43
0.00000001
 12
1.0
 22
0.0
 32
0.0
 13
1.0
 23
0.0
 33
0.0
 40
0.0
 40
0.0
 40
0.0
 40
0.0
 40
0.1250000000000006
 40
0.1250000000000006
 40
0.1875000000000005
 40
0.1875000000000005
 40
0.2500000000000004
 40
0.2500000000000004
 40
0.3125000000000003
 40
0.3125000000000003
 40
0.3750000000000002
 40
0.3750000000000002
 40
0.4375000000000001
 40
0.4375000000000001
 40
0.5
 40
0.5
 40
0.5625
 40
0.5625
 40
0.6249999999999998
 40
0.6249999999999998
 40
0.6874999999999997
 40
0.6874999999999997
 40
0.7499999999999996
 40
0.7499999999999996
 40
0.8124999999999994
 40
0.8124999999999994
 40
0.8749999999999997
 40
0.8749999999999997
 40
1.0
 40
1.0
 40
1.0
 40
1.0
 10
219.9592657399298
 20
134.0091740468526
 30
0.0
 10
220.2212751522691
 20
134.330237645158
 30
0.0
 10
220.5319526127276
 20
134.6270174571514
 30
0.0
 10
221.0519473949925
 20
135.0002990655365
 30
0.0
 10
221.2349352903707
 20
135.1136592135723
 30
0.0
 10
221.6230500230577
 20
135.3155064996979
 30
0.0
 10
221.8266880182553
 20
135.4028656674802
 30
0.0
 10
222.2435850210893
 20
135.5437358906609
 30
0.0
 10
222.4583097052215
 20
135.598084185224
 30
0.0
 10
222.9019217422248
 20
135.6706588213905
 30
0.0
 10
223.1237510463532
 20
135.6876330283545
 30
0.0
 10
223.5652998347678
 20
135.6832636249406
 30
0.0
 10
223.7870688373732
 20
135.6616417089928
 30
0.0
 10
224.2215348339132
 20
135.5795881102673
 30
0.0
 10
224.4305224806968
 20
135.5202088450361
 30
0.0
 10
224.8334974257451
 20
135.3673918382543
 30
0.0
 10
225.0287315623433
 20
135.272955065141
 30
0.0
 10
225.3930949031567
 20
135.0576129493305
 30
0.0
 10
225.5636121879146
 20
134.9364467323645
 30
0.0
 10
225.8835015370027
 20
134.6689146455727
 30
0.0
 10
226.0324350801657
 20
134.5225376726437
 30
0.0
 10
226.302920283731
 20
134.2138768786115
 30
0.0
 10
226.425657012032
 20
134.0506432776402
 30
0.0
 10
226.6476729349458
 20
133.7069624527709
 30
0.0
 10
226.7468926070591
 20
133.5261292874375
 30
0.0
 10
226.9180493444055
 20
133.1563973717672
 30
0.0
 10
226.9907441109662
 20
132.9664345889399
 30
0.0
 10
227.1713778130724
 20
132.3813971925421
 30
0.0
 10
227.2413742375214
 20
131.9685881279518
 30
0.0
 10
227.2574316329693
 20
131.5558251804621
 30
0.0
  0
LINE
  5
14B
330
1F
100
AcDbEntity
  8
0
  6
HIDDEN
 62
     7
370
     0
100
AcDbLine
 10
225.8688609763
 20
138.1610506939
 30
0.0
 11
226.2620238495
 21
138.6816547981
 31
0.0
  0
ELLIPSE
  5
14C
330
1F
100
AcDbEntity
  8
0
  6
HIDDEN
 62
     7
370
     0
100
AcDbEllipse
 10
225.5194312518
 20
134.4082946165
 30
0.0
 11
3.167078026784169
 21
-2.762841112032562
 31
0.0
210
0.0
220
0.0
230
1.0
 40
0.8543839535
 41
0.8476007917786688
 42
2.122724633017075
  0
LINE
  5
14D
330
1F
100
AcDbEntity
  8
0
  6
HIDDEN
 62
     7
370
     0
100
AcDbLine
 10
229.7781897307
 20
135.1290951075
 30
0.0
 11
229.3850268576
 21
134.6084910033
 31
0.0
  0
CIRCLE
  5
14E
330
1F
100
AcDbEntity
  8
0
  6
HIDDEN
 62
     7
370
     0
100
AcDbCircle
 10
226.4126536085
 20
135.5324575008
 30
0.0
 40
4.178172291090257
  0
LINE
  5
14F
330
1F
100
AcDbEntity
  8
0
  6
HIDDEN
 62
     7
370
     0
100
AcDbLine
 10
235.0133757937
 20
140.5611953517
 30
0.0
 11
234.417317463
 21
139.771928525
 31
0.0
  0
LINE
  5
150
330
1F
100
AcDbEntity
  8
0
  6
HIDDEN
 62
     7
370
     0
100
AcDbLine
 10
233.5574258911
 20
145.9305458179
 30
0.0
 11
230.9011515817
 21
143.3244882156
 31
0.0
  0
LINE
  5
151
330
1F
100
AcDbEntity
  8
0
  6
HIDDEN
 62
     7
370
     0
100
AcDbLine
 10
233.3052982523
 20
145.5966926174
 30
0.0
 11
233.5574258911
 21
145.9305458179
 31
0.0
  0
LINE
  5
152
330
1F
100
AcDbEntity
  8
0
  6
HIDDEN
 62
     7
370
     0
100
AcDbLine
 10
228.6798441255
 20
140.797258521
 30
0.0
 11
225.8688609763
 21
138.1610506939
 31
0.0
  0
LINE
  5
153
330
1F
100
AcDbEntity
  8
0
  6
HIDDEN
 62
     7
370
     0
100
AcDbLine
 10
230.9011515817
 20
143.3244882156
 30
0.0
 11
231.4972099124
 21
144.1137550423
 31
0.0
  0
LINE
  5
154
330
1F
100
AcDbEntity
  8
0
  6
HIDDEN
 62
     7
370
     0
100
AcDbLine
 10
143.2860932901
 20
129.9514061247
 30
0.0
 11
143.2860932901
 21
123.8970955571
 31
0.0
  0
LINE
  5
155
330
1F
100
AcDbEntity
  8
0
  6
HIDDEN
 62
     7
370
     0
100
AcDbLine
 10
141.7860932901
 20
129.0853807209
 30
0.0
 11
141.7860932901
 21
123.4640828552
 31
0.0
  0
LINE
  5
156
330
1F
100
AcDbEntity
  8
0
  6
HIDDEN
 62
     7
370
     0
100
AcDbLine
 10
177.5860932901
 20
130.8131415129
 30
0.0
 11
177.5860932901
 21
124.3279632513
 31
0.0
  0
SPLINE
  5
157
330
1F
100
AcDbEntity
  8
0
  6
HIDDEN
 62
     7
370
     0
100
AcDbSpline
210
0.0
220
0.0
230
1.0
 70
     8
 71
     3
 72
    16
 73
    12
 74
     0
 42
0.00000001
 43
0.00000001
 12
1.0
 22
0.0
 32
0.0
 13
1.0
 23
0.0
 33
0.0
 40
0.0
 40
0.0
 40
0.0
 40
0.0
 40
0.2500000000000002
 40
0.2500000000000002
 40
0.3750000000000003
 40
0.3750000000000003
 40
0.5000000000000004
 40
0.5000000000000004
 40
0.7500000000000002
 40
0.7500000000000002
 40
1.0
 40
1.0
 40
1.0
 40
1.0
 10
178.464772946586
 20
130.5631236833768
 30
0.0
 10
178.3035404691015
 20
130.4651080703221
 30
0.0
 10
178.1830606294619
 20
130.278372038646
 30
0.0
 10
178.0606801121486
 20
129.8653322310871
 30
0.0
 10
178.0297024517511
 20
129.7053317318542
 30
0.0
 10
177.9880887141232
 20
129.338526080763
 30
0.0
 10
177.9778528011904
 20
129.135188928139
 30
0.0
 10
177.9776644041343
 20
128.4679016615124
 30
0.0
 10
178.0178091067719
 20
127.9470871976243
 30
0.0
 10
178.1819628617114
 20
126.7497281821466
 30
0.0
 10
178.303514512121
 20
126.0914585278506
 30
0.0
 10
178.464772946586
 20
125.3769493546157
 30
0.0
  0
LINE
  5
158
330
1F
100
AcDbEntity
  8
0
  6
HIDDEN
 62
     7
370
     0
100
AcDbLine
 10
143.2860932901
 20
93.6889898996
 30
0.0
 11
143.2860932901
 21
87.6346793321
 31
0.0
  0
LINE
  5
159
330
1F
100
AcDbEntity
  8
0
  6
HIDDEN
 62
     7
370
     0
100
AcDbLine
 10
141.7860932901
 20
94.1220026015
 30
0.0
 11
141.7860932901
 21
88.5007047359
 31
0.0
  0
LINE
  5
15A
330
1F
100
AcDbEntity
  8
0
  6
HIDDEN
 62
     7
370
     0
100
AcDbLine
 10
177.5860932901
 20
93.2581222055
 30
0.0
 11
177.5860932901
 21
86.7729439438
 31
0.0
  0
SPLINE
  5
15B
330
1F
100
AcDbEntity
  8
0
  6
HIDDEN
 62
     7
370
     0
100
AcDbSpline
210
0.0
220
0.0
230
1.0
 70
     8
 71
     3
 72
    16
 73
    12
 74
     0
 42
0.00000001
 43
0.00000001
 12
1.0
 22
0.0
 32
0.0
 13
1.0
 23
0.0
 33
0.0
 40
0.0
 40
0.0
 40
0.0
 40
0.0
 40
0.2500000000000006
 40
0.2500000000000006
 40
0.3750000000000007
 40
0.3750000000000007
 40
0.5000000000000008
 40
0.5000000000000008
 40
0.7500000000000004
 40
0.7500000000000004
 40
1.0
 40
1.0
 40
1.0
 40
1.0
 10
178.464772946586
 20
92.20913610213364
 30
0.0
 10
178.3035404691016
 20
91.49474193994152
 30
0.0
 10
178.1830606294619
 20
90.84139967723284
 30
0.0
 10
178.0606801121486
 20
89.95314443542895
 30
0.0
 10
178.0297024517511
 20
89.67246389907712
 30
0.0
 10
177.9880887141232
 20
89.14342990923713
 30
0.0
 10
177.9778528011904
 20
88.90010893065866
 30
0.0
 10
177.9776644041343
 20
88.23208624014545
 30
0.0
 10
178.0178091067719
 20
87.86840533072598
 30
0.0
 10
178.1819628617114
 20
87.30851445817765
 30
0.0
 10
178.303514512121
 20
87.1209931660605
 30
0.0
 10
178.464772946586
 20
87.02296177337256
 30
0.0
  0
ARC
  5
15C
330
1F
100
AcDbEntity
  8
0
  6
HIDDEN
 62
     7
370
     0
100
AcDbCircle
 10
236.8798371109
 20
145.7025686618
 30
0.0
 40
3.330223700813433
100
AcDbArc
 50
273.3353906218
 51
176.0746322378
  0
ELLIPSE
  5
15D
330
1F
100
AcDbEntity
  8
0
  6
HIDDEN
 62
     7
370
     0
100
AcDbEllipse
 10
234.2145515379
 20
121.4573923469
 30
0.0
 11
250.5725181117136
 21
22.4318014945824
 31
0.0
210
0.0
220
0.0
230
1.0
 40
0.1182598878
 41
1.525716753192611
 42
1.556544514153549
  0
LINE
  5
15E
330
1F
100
AcDbEntity
  8
0
  6
HIDDEN
 62
     7
370
     0
100
AcDbLine
 10
243.3492001377
 20
151.5793796924
 30
0.0
 11
242.8564598866
 21
152.0722163865
 31
0.0
  0
LINE
  5
15F
330
1F
100
AcDbEntity
  8
0
  6
HIDDEN
 62
     7
370
     0
100
AcDbLine
 10
234.417317463
 20
139.771928525
 30
0.0
 11
237.0735917724
 21
142.3779861274
 31
0.0
  0
LINE
  5
160
330
1F
100
AcDbEntity
  8
0
  6
HIDDEN
 62
     7
370
     0
100
AcDbLine
 10
241.4451517421
 20
140.4872078762
 30
0.0
 11
242.3358076898
 21
140.0606363842
 31
0.0
  0
LINE
  5
161
330
1F
100
AcDbEntity
  8
0
  6
HIDDEN
 62
     7
370
     0
100
AcDbLine
 10
227.6253899946
 20
148.0306672192
 30
0.0
 11
230.9011515817
 21
143.3244882156
 31
0.0
  0
LINE
  5
162
330
1F
100
AcDbEntity
  8
0
  6
HIDDEN
 62
     7
370
     0
100
AcDbLine
 10
234.417317463
 20
139.771928525
 30
0.0
 11
235.9521076401
 21
138.679403098
 31
0.0
  0
LINE
  5
163
330
1F
100
AcDbEntity
  8
0
  6
HIDDEN
 62
     7
370
     0
100
AcDbLine
 10
235.9521076401
 20
138.679403098
 30
0.0
 11
235.4591181428
 21
137.6339170032
 31
0.0
  0
LINE
  5
164
330
1F
100
AcDbEntity
  8
0
  6
HIDDEN
 62
     7
370
     0
100
AcDbLine
 10
235.1330303051
 20
151.4067438885
 30
0.0
 11
227.6253899946
 21
148.0306672192
 31
0.0
  0
LINE
  5
165
330
1F
100
AcDbEntity
  8
0
  6
HIDDEN
 62
     7
370
     0
100
AcDbLine
 10
242.3358076898
 20
140.0606363842
 30
0.0
 11
242.4825073223
 21
141.7281029421
 31
0.0
  0
LINE
  5
166
330
1F
100
AcDbEntity
  8
0
  6
HIDDEN
 62
     7
370
     0
100
AcDbLine
 10
242.5005006457
 20
141.9326246881
 30
0.0
 11
243.3491985888
 21
151.57937985
 31
0.0
  0
SPLINE
  5
167
330
1F
100
AcDbEntity
  8
0
  6
HIDDEN
 62
     7
370
     0
100
AcDbSpline
210
0.0
220
0.0
230
1.0
 70
     8
 71
     3
 72
    12
 73
     8
 74
     0
 42
0.00000001
 43
0.00000001
 12
1.0
 22
0.0
 32
0.0
 13
1.0
 23
0.0
 33
0.0
 40
0.0
 40
0.0
 40
0.0
 40
0.0
 40
0.2499999999999998
 40
0.2499999999999998
 40
0.4999999999999996
 40
0.4999999999999996
 40
1.0
 40
1.0
 40
1.0
 40
1.0
 10
236.8214641335401
 20
142.0441329268187
 30
0.0
 10
236.7927888069356
 20
142.0061626764808
 30
0.0
 10
236.7398884472746
 20
141.966818000745
 30
0.0
 10
236.6069884494593
 20
141.8901136199308
 30
0.0
 10
236.5264933477663
 20
141.8525015088603
 30
0.0
 10
236.2548918622599
 20
141.7466084705163
 30
0.0
 10
236.0340112093457
 20
141.6844756140574
 30
0.0
 10
235.7806276311705
 20
141.648131633396
 30
0.0
  0
ARC
  5
168
330
1F
100
AcDbEntity
  8
0
  6
HIDDEN
 62
     7
370
     0
100
AcDbCircle
 10
236.3001869861
 20
144.9360319147
 30
0.0
 40
3.328697971153953
100
AcDbArc
 50
261.0202800463
 51
188.3897428132
  0
SPLINE
  5
169
330
1F
100
AcDbEntity
  8
0
  6
HIDDEN
 62
     7
370
     0
100
AcDbSpline
210
0.0
220
0.0
230
1.0
 70
     8
 71
     3
 72
    12
 73
     8
 74
     0
 42
0.00000001
 43
0.00000001
 12
1.0
 22
0.0
 32
0.0
 13
1.0
 23
0.0
 33
0.0
 40
0.0
 40
0.0
 40
0.0
 40
0.0
 40
0.5000000000000008
 40
0.5000000000000008
 40
0.7500000000000003
 40
0.7500000000000003
 40
1.0
 40
1.0
 40
1.0
 40
1.0
 10
233.0071111789691
 20
144.4503551581051
 30
0.0
 10
233.0289954670631
 20
144.7210208574155
 30
0.0
 10
233.0755170370716
 20
144.9575302164633
 30
0.0
 10
233.1571547236882
 20
145.2554688181874
 30
0.0
 10
233.1865053679536
 20
145.344986741313
 30
0.0
 10
233.2461749097692
 20
145.496416280517
 30
0.0
 10
233.276565698547
 20
145.5586465901391
 30
0.0
 10
233.3052982522732
 20
145.596692617404
 30
0.0
  0
LINE
  5
16A
330
1F
100
AcDbEntity
  8
0
  6
HIDDEN
 62
     7
370
     0
100
AcDbLine
 10
237.0735917724
 20
142.3779861274
 30
0.0
 11
236.8214641335
 21
142.0441329268
 31
0.0
  0
ELLIPSE
  5
16B
330
1F
100
AcDbEntity
  8
0
  6
HIDDEN
 62
     7
370
     0
100
AcDbEllipse
 10
151.1225817292
 20
112.7240744035
 30
0.0
 11
84.12497475623809
 21
38.91521614426385
 31
0.0
210
0.0
220
0.0
230
1.0
 40
0.026675174
 41
5.668858582770326
 42
6.217222686583841
  0
SPLINE
  5
16C
330
1F
100
AcDbEntity
  8
0
  6
HIDDEN
 62
     7
370
     0
100
AcDbSpline
210
0.0
220
0.0
230
1.0
 70
     8
 71
     3
 72
    47
 73
    43
 74
     0
 42
0.00000001
 43
0.00000001
 12
1.0
 22
0.0
 32
0.0
 13
1.0
 23
0.0
 33
0.0
 40
0.0
 40
0.0
 40
0.0
 40
0.0
 40
0.0172078991014441
 40
0.0345691885625966
 40
0.0520840688662303
 40
0.0697527352635847
 40
0.0875753779483717
 40
0.1055521822238785
 40
0.1236833286634876
 40
0.1419689932648935
 40
0.1604093475983207
 40
0.1790045589489861
 40
0.197754790454079
 40
0.2166602012344916
 40
0.2357209465215329
 40
0.2549371777788433
 40
0.2743090428197202
 40
0.2938366859200539
 40
0.313520247927059
 40
0.3333598663639855
 40
0.3533556755309774
 40
0.3735078066022444
 40
0.3938163877197023
 40
0.4142815440832254
 40
0.4349033980376603
 40
0.4556820691567322
 40
0.4766176743239637
 40
0.4977103278107468
 40
0.5541865937397229
 40
0.6148214831455332
 40
0.6796161216458058
 40
0.7485713680349579
 40
0.7612930971725695
 40
0.7767751661942813
 40
0.7950175554400484
 40
0.8160202362098117
 40
0.8397831725366932
 40
0.8663063220375405
 40
0.8955896363626474
 40
0.9276330614518263
 40
0.9624365376889927
 40
1.0
 40
1.0
 40
1.0
 40
1.0
 10
242.8565928154649
 20
152.0708605330353
 30
0.0
 10
242.8372766854957
 20
152.0366142262503
 30
0.0
 10
242.7984722425322
 20
151.967816342799
 30
0.0
 10
242.7389141764996
 20
151.8519345655488
 30
0.0
 10
242.6780710355992
 20
151.7259701704349
 30
0.0
 10
242.6158817499194
 20
151.5888353554251
 30
0.0
 10
242.5523894735863
 20
151.4405725972344
 30
0.0
 10
242.4876085929934
 20
151.2809219931059
 30
0.0
 10
242.4215607916811
 20
151.1097106023744
 30
0.0
 10
242.3542652180892
 20
150.9267471539873
 30
0.0
 10
242.285741111451
 20
150.7318510352812
 30
0.0
 10
242.2160070452109
 20
150.5248448416723
 30
0.0
 10
242.1450810875359
 20
150.305556824936
 30
0.0
 10
242.0729807120422
 20
150.0738206638034
 30
0.0
 10
241.9997227754266
 20
149.8294759694982
 30
0.0
 10
241.9253234760973
 20
149.5723685999239
 30
0.0
 10
241.8497983171425
 20
149.3023510335015
 30
0.0
 10
241.7731620673541
 20
149.0192827342923
 30
0.0
 10
241.6954287219943
 20
148.7230305263503
 30
0.0
 10
241.6166114630918
 20
148.4134689729501
 30
0.0
 10
241.5367226186064
 20
148.090480758038
 30
0.0
 10
241.4557736235656
 20
147.7539570830792
 30
0.0
 10
241.3737749715187
 20
147.4037980265246
 30
0.0
 10
241.2907362005381
 20
147.0399130636767
 30
0.0
 10
241.206665746982
 20
146.6622209982038
 30
0.0
 10
241.1215712968717
 20
146.2706521298306
 30
0.0
 10
241.0354582575467
 20
145.8651419940314
 30
0.0
 10
240.899834605603
 20
145.2121325701067
 30
0.0
 10
240.7080825486027
 20
144.2524721439058
 30
0.0
 10
240.4547863384992
 20
142.9078555387917
 30
0.0
 10
240.1843375361691
 20
141.3834828626618
 30
0.0
 10
239.9818081519087
 20
140.1694666687562
 30
0.0
 10
239.847581064048
 20
139.3404570863596
 30
0.0
 10
239.7832955450606
 20
138.9402683197013
 30
0.0
 10
239.7077885174018
 20
138.4633694666703
 30
0.0
 10
239.6212731105092
 20
137.9073149044368
 30
0.0
 10
239.5240402327969
 20
137.2694508915802
 30
0.0
 10
239.4163804266099
 20
136.5469585761264
 30
0.0
 10
239.2985893805277
 20
135.7370371621677
 30
0.0
 10
239.1709927485468
 20
134.8365551534909
 30
0.0
 10
239.0337567634706
 20
133.8440318361167
 30
0.0
 10
238.9399225828527
 20
133.1426527021032
 30
0.0
 10
238.8912161323956
 20
132.7785882661217
 30
0.0
  0
SPLINE
  5
16D
330
1F
100
AcDbEntity
  8
0
  6
HIDDEN
 62
     7
370
     0
100
AcDbSpline
210
0.0
220
0.0
230
1.0
 70
     8
 71
     3
 72
    33
 73
    29
 74
     0
 42
0.00000001
 43
0.00000001
 12
1.0
 22
0.0
 32
0.0
 13
1.0
 23
0.0
 33
0.0
 40
0.0
 40
0.0
 40
0.0
 40
0.0
 40
0.0179543234134783
 40
0.0358854253461679
 40
0.0537995329282271
 40
0.0717028910227029
 40
0.0896017557440428
 40
0.1075023879178791
 40
0.1254110465161515
 40
0.1433339821019407
 40
0.1612774303182551
 40
0.1792476054544949
 40
0.1972506941233612
 40
0.2152928490796667
 40
0.23338018321082
 40
0.2515187637267527
 40
0.3773934559424578
 40
0.502369518327333
 40
0.6269901495993149
 40
0.7519432237766825
 40
0.7833141700397087
 40
0.8145123126742506
 40
0.8455716142764527
 40
0.8765264944401957
 40
0.907411721874208
 40
0.9382623007847147
 40
0.9691133533168405
 40
1.0
 40
1.0
 40
1.0
 40
1.0
 10
239.2131082389812
 20
131.5046629231039
 30
0.0
 10
239.2371130128664
 20
131.6850248797114
 30
0.0
 10
239.2850915137195
 20
132.0455155192122
 30
0.0
 10
239.3577264141421
 20
132.5813805137776
 30
0.0
 10
239.4307783429266
 20
133.1131374687085
 30
0.0
 10
239.5042994947186
 20
133.6404718040457
 30
0.0
 10
239.5782758685766
 20
134.1634674535194
 30
0.0
 10
239.6527111790263
 20
134.6821016964911
 30
0.0
 10
239.7276043968992
 20
135.1963803855104
 30
0.0
 10
239.8029557594639
 20
135.7063017100303
 30
0.0
 10
239.8787651788234
 20
136.2118659905746
 30
0.0
 10
239.9550325993827
 20
136.7130727440797
 30
0.0
 10
240.0317581621426
 20
137.2099226331153
 30
0.0
 10
240.1089411879884
 20
137.7024125992537
 30
0.0
 10
240.1865840939763
 20
138.1905534398031
 30
0.0
 10
240.4191936294756
 20
139.6314529015038
 30
0.0
 10
240.8098446129134
 20
141.9099255987889
 30
0.0
 10
241.3562094523227
 20
144.7397346828155
 30
0.0
 10
241.8931822014539
 20
147.1689570347192
 30
0.0
 10
242.2828408573116
 20
148.6582388656986
 30
0.0
 10
242.5344946351765
 20
149.5061461331016
 30
0.0
 10
242.6583839247695
 20
149.899734361582
 30
0.0
 10
242.7797952372715
 20
150.2611131676447
 30
0.0
 10
242.8987297417521
 20
150.5902533988879
 30
0.0
 10
243.0152029883392
 20
150.887357765437
 30
0.0
 10
243.1291487797792
 20
151.1516337352369
 30
0.0
 10
243.2408133609187
 20
151.3860375508704
 30
0.0
 10
243.3130515763957
 20
151.5149003092692
 30
0.0
 10
243.3491915081848
 20
151.5793688356295
 30
0.0
  0
ELLIPSE
  5
16E
330
1F
100
AcDbEntity
  8
0
  6
HIDDEN
 62
     7
370
     0
100
AcDbEllipse
 10
233.0407763363
 20
141.7217304706
 30
0.0
 11
2.219475038682561
 21
2.141201758675777
 31
0.0
210
0.0
220
0.0
230
1.0
 40
0.8103652656
 41
5.384719722770154
 42
7.20239558043517
  0
LWPOLYLINE
  5
16F
330
1F
100
AcDbEntity
  8
0
  6
HIDDEN
 62
     7
370
     0
100
AcDbPolyline
 90
       13
 70
   128
 43
0.0
 10
232.1960100068
 20
137.2446988304
 10
232.4588004896
 20
137.6078559185
 10
232.5838717882
 20
138.0673149873
 10
232.5627005004
 20
138.5917646604
 10
232.3967294144
 20
139.1454645593
 10
232.0972691855
 20
139.690680951
 10
231.6847275333
 20
140.1902582394
 10
231.1872184897
 20
140.6101510578
 10
230.6386464738
 20
140.9217444046
 10
230.076395762
 20
141.1038037082
 10
229.5387828111
 20
141.1439219278
 10
229.0624450553
 20
141.0393650731
 10
228.6798441255
 20
140.797258521
  0
LINE
  5
170
330
1F
100
AcDbEntity
  8
0
  6
HIDDEN
 62
     7
370
     0
100
AcDbLine
 10
229.3850268576
 20
134.6084910033
 30
0.0
 11
232.1960100068
 21
137.2446988304
 31
0.0
  0
LINE
  5
171
330
1F
100
AcDbEntity
  8
0
  6
HIDDEN
 62
     7
370
     0
100
AcDbLine
 10
141.7860932901
 20
123.4640828552
 30
0.0
 11
141.7860932901
 21
111.6950300614
 31
0.0
  0
LINE
  5
172
330
1F
100
AcDbEntity
  8
0
  6
HIDDEN
 62
     7
370
     0
100
AcDbLine
 10
141.7860932901
 20
105.8910553954
 30
0.0
 11
141.7860932901
 21
94.1220026015
 31
0.0
  0
LINE
  5
173
330
1F
100
AcDbEntity
  8
0
  6
HIDDEN
 62
     7
370
     0
100
AcDbLine
 10
143.2860932901
 20
104.8278318315
 30
0.0
 11
143.2860932901
 21
93.6889898996
 31
0.0
  0
LINE
  5
174
330
1F
100
AcDbEntity
  8
0
  6
HIDDEN
 62
     7
370
     0
100
AcDbLine
 10
143.2860932901
 20
123.8970955571
 30
0.0
 11
143.2860932901
 21
112.7582536252
 31
0.0
  0
LINE
  5
175
330
1F
100
AcDbEntity
  8
0
  6
HIDDEN
 62
     7
370
     0
100
AcDbLine
 10
179.5860932901
 20
123.8307498909
 30
0.0
 11
179.5860932901
 21
93.7553355659
 31
0.0
  0
LINE
  5
176
330
1F
100
AcDbEntity
  8
0
  6
HIDDEN
 62
     7
370
     0
100
AcDbLine
 10
177.5860932901
 20
124.3279632513
 30
0.0
 11
177.5860932901
 21
93.2581222055
 31
0.0
  0
SPLINE
  5
177
330
1F
100
AcDbEntity
  8
0
  6
HIDDEN
 62
     7
370
     0
100
AcDbSpline
210
0.0
220
0.0
230
1.0
 70
     8
 71
     3
 72
    24
 73
    20
 74
     0
 42
0.00000001
 43
0.00000001
 12
1.0
 22
0.0
 32
0.0
 13
1.0
 23
0.0
 33
0.0
 40
0.0
 40
0.0
 40
0.0
 40
0.0
 40
0.1249999999999999
 40
0.1249999999999999
 40
0.2499999999999999
 40
0.2499999999999999
 40
0.3749999999999998
 40
0.3749999999999998
 40
0.4374999999999998
 40
0.4374999999999998
 40
0.4999999999999999
 40
0.4999999999999999
 40
0.6249999999999999
 40
0.6249999999999999
 40
0.75
 40
0.75
 40
0.875
 40
0.875
 40
1.0
 40
1.0
 40
1.0
 40
1.0
 10
148.2360932901456
 20
104.7070816752754
 30
0.0
 10
148.4738969224207
 20
105.0060887776055
 30
0.0
 10
148.703982583632
 20
105.3104266289243
 30
0.0
 10
149.1387359822419
 20
105.9361601663202
 30
0.0
 10
149.343668774528
 20
106.2573848936478
 30
0.0
 10
149.7087707250267
 20
106.9293106643805
 30
0.0
 10
149.8705711108182
 20
107.2846258962594
 30
0.0
 10
150.0424313153979
 20
107.8348571176118
 30
0.0
 10
150.0880165070581
 20
108.0212609025923
 30
0.0
 10
150.1504912466329
 20
108.4013954046886
 30
0.0
 10
150.1671623923814
 20
108.5970651969745
 30
0.0
 10
150.1676834355579
 20
109.1755455756489
 30
0.0
 10
150.1032411346712
 20
109.5534574146177
 30
0.0
 10
149.8733920412978
 20
110.2954254397161
 30
0.0
 10
149.7148713636348
 20
110.644140899877
 30
0.0
 10
149.3506370337346
 20
111.3172332976102
 30
0.0
 10
149.143900793671
 20
111.6421857848519
 30
0.0
 10
148.7059628479306
 20
112.2731095953136
 30
0.0
 10
148.4746901206511
 20
112.5789993356543
 30
0.0
 10
148.2360932901458
 20
112.8790037814738
 30
0.0
  0
LINE
  5
178
330
1F
100
AcDbEntity
  8
0
  6
HIDDEN
 62
     7
370
     0
100
AcDbLine
 10
148.2360932901
 20
104.7070816753
 30
0.0
 11
148.2360932901
 21
112.8790037815
 31
0.0
  0
SPLINE
  5
179
330
1F
100
AcDbEntity
  8
0
  6
HIDDEN
 62
     7
370
     0
100
AcDbSpline
210
0.0
220
0.0
230
1.0
 70
     8
 71
     3
 72
     8
 73
     4
 74
     0
 42
0.00000001
 43
0.00000001
 12
1.0
 22
0.0
 32
0.0
 13
1.0
 23
0.0
 33
0.0
 40
0.0000249638557296
 40
0.0000249638557296
 40
0.0000249638557296
 40
0.0000249638557296
 40
0.0049776420541172
 40
0.0049776420541172
 40
0.0049776420541172
 40
0.0049776420541172
 10
143.2860932901457
 20
104.8278318315381
 30
0.0
 10
144.9360695246552
 20
104.7865525937699
 30
0.0
 10
146.5860708444002
 20
104.7463309125305
 30
0.0
 10
148.2360932901456
 20
104.7070816752754
 30
0.0
  0
SPLINE
  5
17A
330
1F
100
AcDbEntity
  8
0
  6
HIDDEN
 62
     7
370
     0
100
AcDbSpline
210
0.0
220
0.0
230
1.0
 70
     8
 71
     3
 72
     8
 73
     4
 74
     0
 42
0.00000001
 43
0.00000001
 12
1.0
 22
0.0
 32
0.0
 13
1.0
 23
0.0
 33
0.0
 40
0.0000249631533153
 40
0.0000249631533153
 40
0.0000249631533153
 40
0.0000249631533153
 40
0.0049776413517028
 40
0.0049776413517028
 40
0.0049776413517028
 40
0.0049776413517028
 10
148.2360932901456
 20
112.8790037814739
 30
0.0
 10
146.5860708444002
 20
112.8397545442189
 30
0.0
 10
144.9360695246552
 20
112.7995328629794
 30
0.0
 10
143.2860932901457
 20
112.7582536252112
 30
0.0
  0
SPLINE
  5
17B
330
1F
100
AcDbEntity
  8
0
  6
HIDDEN
 62
     7
370
     0
100
AcDbSpline
210
0.0
220
0.0
230
1.0
 70
     8
 71
     3
 72
     8
 73
     4
 74
     0
 42
0.00000001
 43
0.00000001
 12
1.0
 22
0.0
 32
0.0
 13
1.0
 23
0.0
 33
0.0
 40
0.0
 40
0.0
 40
0.0
 40
0.0
 40
1.0
 40
1.0
 40
1.0
 40
1.0
 10
141.7860932901457
 20
105.8910553953923
 30
0.0
 10
142.2528539015229
 20
105.4756921497702
 30
0.0
 10
142.7586014483022
 20
105.1311017204662
 30
0.0
 10
143.2860932901457
 20
104.8278318315381
 30
0.0
  0
SPLINE
  5
17C
330
1F
100
AcDbEntity
  8
0
  6
HIDDEN
 62
     7
370
     0
100
AcDbSpline
210
0.0
220
0.0
230
1.0
 70
     8
 71
     3
 72
     8
 73
     4
 74
     0
 42
0.00000001
 43
0.00000001
 12
1.0
 22
0.0
 32
0.0
 13
1.0
 23
0.0
 33
0.0
 40
0.0
 40
0.0
 40
0.0
 40
0.0
 40
1.0
 40
1.0
 40
1.0
 40
1.0
 10
143.2860932901457
 20
112.7582536252112
 30
0.0
 10
142.7586014483022
 20
112.4549837362831
 30
0.0
 10
142.2528539015229
 20
112.1103933069791
 30
0.0
 10
141.7860932901457
 20
111.695030061357
 30
0.0
  0
LINE
  5
17D
330
1F
100
AcDbEntity
  8
0
  6
HIDDEN
 62
     7
370
     0
100
AcDbLine
 10
141.7860932901
 20
105.8910553954
 30
0.0
 11
141.7860932901
 21
111.6950300614
 31
0.0
  0
SPLINE
  5
17E
330
1F
100
AcDbEntity
  8
0
  6
HIDDEN
 62
     7
370
     0
100
AcDbSpline
210
0.0
220
0.0
230
1.0
 70
     8
 71
     3
 72
    70
 73
    66
 74
     0
 42
0.00000001
 43
0.00000001
 12
1.0
 22
0.0
 32
0.0
 13
1.0
 23
0.0
 33
0.0
 40
-0.03125
 40
-0.03125
 40
0.0
 40
0.0
 40
0.03125
 40
0.03125
 40
0.0625
 40
0.0625
 40
0.09375
 40
0.09375
 40
0.125
 40
0.125
 40
0.1562500000000001
 40
0.1562500000000001
 40
0.1875000000000001
 40
0.1875000000000001
 40
0.2187500000000001
 40
0.2187500000000001
 40
0.2500000000000001
 40
0.2500000000000001
 40
0.2812500000000001
 40
0.2812500000000001
 40
0.3125000000000001
 40
0.3125000000000001
 40
0.3437500000000001
 40
0.3437500000000001
 40
0.3750000000000001
 40
0.3750000000000001
 40
0.4062500000000001
 40
0.4062500000000001
 40
0.4375000000000001
 40
0.4375000000000001
 40
0.4687500000000001
 40
0.4687500000000001
 40
0.5
 40
0.5
 40
0.53125
 40
0.53125
 40
0.5625
 40
0.5625
 40
0.59375
 40
0.59375
 40
0.625
 40
0.625
 40
0.65625
 40
0.65625
 40
0.6875
 40
0.6875
 40
0.71875
 40
0.71875
 40
0.75
 40
0.75
 40
0.78125
 40
0.78125
 40
0.8125
 40
0.8125
 40
0.84375
 40
0.84375
 40
0.875
 40
0.875
 40
0.90625
 40
0.90625
 40
0.9375
 40
0.9375
 40
0.96875
 40
0.96875
 40
1.0
 40
1.0
 40
1.03125
 40
1.03125
 10
161.3431708465246
 20
111.699252415692
 30
0.0
 10
161.7748492684763
 20
112.0487720103116
 30
0.0
 10
162.0046314410255
 20
112.2003714460649
 30
0.0
 10
162.4905838564417
 20
112.4598649145327
 30
0.0
 10
162.748591274213
 20
112.5679100205318
 30
0.0
 10
163.2727169278242
 20
112.7331469955585
 30
0.0
 10
163.5406839392536
 20
112.7916517974202
 30
0.0
 10
164.0884171470526
 20
112.8604912240791
 30
0.0
 10
164.3668779539819
 20
112.8700934782749
 30
0.0
 10
164.9140811481991
 20
112.8402674007426
 30
0.0
 10
165.1854688662671
 20
112.8012605807002
 30
0.0
 10
165.7236758624736
 20
112.6732902234919
 30
0.0
 10
165.9853384541321
 20
112.5852606192344
 30
0.0
 10
166.485192892565
 20
112.3649913639222
 30
0.0
 10
166.7252378862295
 20
112.2321876953
 30
0.0
 10
167.1819076868638
 20
111.9191923710515
 30
0.0
 10
167.3917108586943
 20
111.7437612243157
 30
0.0
 10
167.77463334807
 20
111.3551941952195
 30
0.0
 10
167.9492516106101
 20
111.1397285053528
 30
0.0
 10
168.2505546741429
 20
110.6777379151694
 30
0.0
 10
168.375668114384
 20
110.4347050869351
 30
0.0
 10
168.5741121909446
 20
109.9241280294932
 30
0.0
 10
168.6475719745237
 20
109.6531566233638
 30
0.0
 10
168.7327696251686
 20
109.110046150466
 30
0.0
 10
168.7459369299257
 20
108.8361564948849
 30
0.0
 10
168.7118974932554
 20
108.283586332005
 30
0.0
 10
168.6643498132546
 20
108.0094215394286
 30
0.0
 10
168.5135581541129
 20
107.4817953996037
 30
0.0
 10
168.4085233677571
 20
107.2229259096558
 30
0.0
 10
168.1491485943797
 20
106.7368029569289
 30
0.0
 10
167.9958312819708
 20
106.5096910562741
 30
0.0
 10
167.6436885786546
 20
106.0860280414456
 30
0.0
 10
167.4453574754461
 20
105.8910732771084
 30
0.0
 10
167.0200897414254
 20
105.5462500334581
 30
0.0
 10
166.7902270034683
 20
105.3935661666696
 30
0.0
 10
166.3030493838311
 20
105.1320720153107
 30
0.0
 10
166.0505428921765
 20
105.0255446665007
 30
0.0
 10
165.5284766814411
 20
104.8585370767851
 30
0.0
 10
165.2561151944095
 20
104.7978574676442
 30
0.0
 10
164.7098062392984
 20
104.7269657660667
 30
0.0
 10
164.4359964999826
 20
104.7161230270904
 30
0.0
 10
163.887072094879
 20
104.7432494187322
 30
0.0
 10
163.6097165221186
 20
104.7820856796669
 30
0.0
 10
163.0744339759181
 20
104.9073183026576
 30
0.0
 10
162.8144177217509
 20
104.9934173906641
 30
0.0
 10
162.3099964200256
 20
105.2137488779369
 30
0.0
 10
162.0650541225699
 20
105.3490737036755
 30
0.0
 10
161.6125348164045
 20
105.6584227229444
 30
0.0
 10
161.4020872963678
 20
105.8334165041902
 30
0.0
 10
161.0145776864476
 20
106.2264464142651
 30
0.0
 10
160.8396857271359
 20
106.4432604414648
 30
0.0
 10
160.5410551496356
 20
106.9018377785865
 30
0.0
 10
160.4150034708447
 20
107.1459368635557
 30
0.0
 10
160.2141760970386
 20
107.664680494938
 30
0.0
 10
160.1430034075414
 20
107.929908119492
 30
0.0
 10
160.0579084757499
 20
108.4718479242164
 30
0.0
 10
160.0444828759379
 20
108.7521508054788
 30
0.0
 10
160.0783436748276
 20
109.3023299404583
 30
0.0
 10
160.1246213063703
 20
109.5729195148405
 30
0.0
 10
160.2757151174384
 20
110.1051326676398
 30
0.0
 10
160.3802538867444
 20
110.3634161500229
 30
0.0
 10
160.6377176213768
 20
110.8483900901099
 30
0.0
 10
160.7930646587711
 20
111.079679118779
 30
0.0
 10
161.1463941278817
 20
111.5054075199076
 30
0.0
 10
161.3431708465246
 20
111.699252415692
 30
0.0
 10
161.7748492684763
 20
112.0487720103116
 30
0.0
  0
CIRCLE
  5
17F
330
1F
100
AcDbEntity
  8
0
  6
HIDDEN
 62
     7
370
     0
100
AcDbCircle
 10
164.2860932901
 20
108.7930427284
 30
0.0
 40
4.049999999999997
  0
LINE
  5
180
330
1F
100
AcDbEntity
  8
0
  6
HIDDEN
 62
     7
370
     0
100
AcDbLine
 10
217.9376681402
 20
83.6055837269
 30
0.0
 11
217.9376681402
 21
83.6070603982
 31
0.0
  0
LINE
  5
181
330
1F
100
AcDbEntity
  8
0
  6
HIDDEN
 62
     7
370
     0
100
AcDbLine
 10
217.9376681402
 20
108.7930427284
 30
0.0
 11
217.9376681402
 21
83.6055837269
 31
0.0
  0
ELLIPSE
  5
182
330
1F
100
AcDbEntity
  8
0
  6
HIDDEN
 62
     7
370
     0
100
AcDbEllipse
 10
235.9874096787
 20
108.7930427284
 30
0.0
 11
22.77935519573333
 21
31.99986734794347
 31
0.0
210
0.0
220
0.0
230
1.0
 40
0.0040448756
 41
1.573675695089368
 42
2.479782116157661
  0
CIRCLE
  5
183
330
1F
100
AcDbEntity
  8
0
  6
HIDDEN
 62
     7
370
     0
100
AcDbCircle
 10
191.7860932901
 20
108.7930427284
 30
0.0
 40
2.0
  0
LINE
  5
184
330
1F
100
AcDbEntity
  8
0
  6
HIDDEN
 62
     7
370
     0
100
AcDbLine
 10
217.9376681402
 20
108.7930427284
 30
0.0
 11
217.9376681402
 21
111.3938142078
 31
0.0
  0
SPLINE
  5
185
330
1F
100
AcDbEntity
  8
0
  6
HIDDEN
 62
     7
370
     0
100
AcDbSpline
210
0.0
220
0.0
230
1.0
 70
     8
 71
     3
 72
     9
 73
     5
 74
     0
 42
0.00000001
 43
0.00000001
 12
1.0
 22
0.0
 32
0.0
 13
1.0
 23
0.0
 33
0.0
 40
0.0
 40
0.0
 40
0.0
 40
0.0
 40
0.5029153004211802
 40
1.0
 40
1.0
 40
1.0
 40
1.0
 10
238.8921399662803
 20
132.7792198580562
 30
0.0
 10
238.9491932605853
 20
132.5657501023124
 30
0.0
 10
239.0626383958939
 20
132.1412854746404
 30
0.0
 10
239.1636878209735
 20
131.7137007286433
 30
0.0
 10
239.2139179440819
 20
131.5011548936349
 30
0.0
  0
LINE
  5
186
330
1F
100
AcDbEntity
  8
0
  6
HIDDEN
 62
     7
370
     0
100
AcDbLine
 10
227.257431633
 20
131.5558251805
 30
0.0
 11
238.8912279343
 21
132.7785864439
 31
0.0
  0
LINE
  5
187
330
1F
100
AcDbEntity
  8
0
  6
HIDDEN
 62
     7
370
     0
100
AcDbLine
 10
239.2131082383
 20
131.5046629232
 30
0.0
 11
237.0874862205
 21
110.6124137828
 31
0.0
  0
LINE
  5
188
330
1F
100
AcDbEntity
  8
0
  6
HIDDEN
 62
     7
370
     0
100
AcDbLine
 10
237.0874862205
 20
110.6124137828
 30
0.0
 11
235.7923846701
 21
108.7930427284
 31
0.0
  0
LINE
  5
189
330
1F
100
AcDbEntity
  8
0
  6
HIDDEN
 62
     7
370
     0
100
AcDbLine
 10
197.7860932901
 20
124.5429998199
 30
0.0
 11
197.7860932901
 21
121.0430427284
 31
0.0
  0
LINE
  5
18A
330
1F
100
AcDbEntity
  8
0
  6
HIDDEN
 62
     7
370
     0
100
AcDbLine
 10
203.7860932901
 20
121.0430427284
 30
0.0
 11
203.7860932901
 21
124.5425800327
 31
0.0
  0
LINE
  5
18B
330
1F
100
AcDbEntity
  8
0
  6
HIDDEN
 62
     7
370
     0
100
AcDbLine
 10
179.7860932901
 20
84.5430427284
 30
0.0
 11
179.878986509
 21
84.6359359472
 31
0.0
  0
LINE
  5
18C
330
1F
100
AcDbEntity
  8
0
  6
HIDDEN
 62
     7
370
     0
100
AcDbLine
 10
179.878986509
 20
132.9501495096
 30
0.0
 11
179.7860932901
 21
133.0430427284
 31
0.0
  0
ARC
  5
18D
330
1F
100
AcDbEntity
  8
0
  6
HIDDEN
 62
     7
370
     0
100
AcDbCircle
 10
179.1718797278
 20
85.3430427284
 30
0.0
 40
1.0
100
AcDbArc
 50
315.0
 51
0.0
  0
ARC
  5
18E
330
1F
100
AcDbEntity
  8
0
  6
HIDDEN
 62
     7
370
     0
100
AcDbCircle
 10
179.1718797278
 20
85.3430427284
 30
0.0
 40
1.0
100
AcDbArc
 50
0.0
 51
52.1052014664
  0
ARC
  5
18F
330
1F
100
AcDbEntity
  8
0
  6
HIDDEN
 62
     7
370
     0
100
AcDbCircle
 10
179.1718797278
 20
132.2430427284
 30
0.0
 40
1.000000000000028
100
AcDbArc
 50
351.8087250651
 51
45.0
  0
ARC
  5
190
330
1F
100
AcDbEntity
  8
0
  6
HIDDEN
 62
     7
370
     0
100
AcDbCircle
 10
179.1718797278
 20
132.2430427284
 30
0.0
 40
1.000000000000006
100
AcDbArc
 50
307.8947985336
 51
351.8087250651
  0
LINE
  5
191
330
1F
100
AcDbEntity
  8
0
  6
HIDDEN
 62
     7
370
     0
100
AcDbLine
 10
180.1718797278
 20
85.3430427284
 30
0.0
 11
180.1718797278
 21
132.2430427284
 31
0.0
  0
LINE
  5
192
330
1F
100
AcDbEntity
  8
0
  6
HIDDEN
 62
     7
370
     0
100
AcDbLine
 10
180.1718797278
 20
85.3430427284
 30
0.0
 11
180.1718797278
 21
132.2430427284
 31
0.0
  0
LINE
  5
193
330
1F
100
AcDbEntity
  8
0
  6
HIDDEN
 62
     7
370
     0
100
AcDbLine
 10
198.2860932901
 20
120.8928275736
 30
0.0
 11
198.2860932901
 21
113.2918179354
 31
0.0
  0
LINE
  5
194
330
1F
100
AcDbEntity
  8
0
  6
HIDDEN
 62
     7
370
     0
100
AcDbLine
 10
203.2860932901
 20
120.4710753547
 30
0.0
 11
203.2860932901
 21
120.8928275736
 31
0.0
  0
LINE
  5
195
330
1F
100
AcDbEntity
  8
0
  6
HIDDEN
 62
     7
370
     0
100
AcDbLine
 10
203.2860932901
 20
113.2920825634
 30
0.0
 11
203.2860932901
 21
118.2844770158
 31
0.0
  0
LINE
  5
196
330
1F
100
AcDbEntity
  8
0
  6
HIDDEN
 62
     7
370
     0
100
AcDbLine
 10
209.8033758241
 20
129.1752303416
 30
0.0
 11
200.8180937425
 21
122.0318449761
 31
0.0
  0
LINE
  5
197
330
1F
100
AcDbEntity
  8
0
  6
HIDDEN
 62
     7
370
     0
100
AcDbLine
 10
203.5468881937
 20
117.8136962042
 30
0.0
 11
209.6826085119
 21
122.6916526589
 31
0.0
  0
LINE
  5
198
330
1F
100
AcDbEntity
  8
0
  6
HIDDEN
 62
     7
370
     0
100
AcDbLine
 10
141.7860932901
 20
92.5966138839
 30
0.0
 11
143.3163217298
 21
93.4800916855
 31
0.0
  0
LINE
  5
199
330
1F
100
AcDbEntity
  8
0
  6
HIDDEN
 62
     7
370
     0
100
AcDbLine
 10
143.3163217298
 20
124.1059937713
 30
0.0
 11
141.7860932901
 21
124.9894715728
 31
0.0
  0
ARC
  5
19A
330
1F
100
AcDbEntity
  8
0
  6
HIDDEN
 62
     7
370
     0
100
AcDbCircle
 10
152.787894605
 20
94.7930427284
 30
0.0
 40
2.000000000000036
100
AcDbArc
 50
270.0
 51
315.0
  0
ARC
  5
19B
330
1F
100
AcDbEntity
  8
0
  6
HIDDEN
 62
     7
370
     0
100
AcDbCircle
 10
152.787894605
 20
122.7930427284
 30
0.0
 40
2.000000000000016
100
AcDbArc
 50
45.0
 51
90.0
  0
LINE
  5
19C
330
1F
100
AcDbEntity
  8
0
  6
HIDDEN
 62
     7
370
     0
100
AcDbLine
 10
151.7860932901
 20
92.7930427284
 30
0.0
 11
152.787894605
 21
92.7930427284
 31
0.0
  0
LINE
  5
19D
330
1F
100
AcDbEntity
  8
0
  6
HIDDEN
 62
     7
370
     0
100
AcDbLine
 10
152.787894605
 20
124.7930427284
 30
0.0
 11
151.7860932901
 21
124.7930427284
 31
0.0
  0
ARC
  5
19E
330
1F
100
AcDbEntity
  8
0
  6
HIDDEN
 62
     7
370
     0
100
AcDbCircle
 10
151.7860932901
 20
94.7930427284
 30
0.0
 40
2.0
100
AcDbArc
 50
189.9742217944
 51
270.0
  0
ARC
  5
19F
330
1F
100
AcDbEntity
  8
0
  6
HIDDEN
 62
     7
370
     0
100
AcDbCircle
 10
151.7860932901
 20
122.7930427284
 30
0.0
 40
1.999999999999986
100
AcDbArc
 50
90.0
 51
170.0257782056
  0
LINE
  5
1A0
330
1F
100
AcDbEntity
  8
0
  6
HIDDEN
 62
     7
370
     0
100
AcDbLine
 10
154.2021081674
 20
93.378829166
 30
0.0
 11
155.6163217298
 21
94.7930427284
 31
0.0
  0
LINE
  5
1A1
330
1F
100
AcDbEntity
  8
0
  6
HIDDEN
 62
     7
370
     0
100
AcDbLine
 10
155.6163217298
 20
122.7930427284
 30
0.0
 11
154.2021081674
 21
124.2072562907
 31
0.0
  0
LINE
  5
1A2
330
1F
100
AcDbEntity
  8
0
  6
HIDDEN
 62
     7
370
     0
100
AcDbLine
 10
143.3163217298
 20
93.4800916855
 30
0.0
 11
148.2163217298
 21
94.7930427284
 31
0.0
  0
LINE
  5
1A3
330
1F
100
AcDbEntity
  8
0
  6
HIDDEN
 62
     7
370
     0
100
AcDbLine
 10
148.2163217298
 20
122.7930427284
 30
0.0
 11
143.3163217298
 21
124.1059937713
 31
0.0
  0
LINE
  5
1A4
330
1F
100
AcDbEntity
  8
0
  6
HIDDEN
 62
     7
370
     0
100
AcDbLine
 10
149.8163217298
 20
123.1394528899
 30
0.0
 11
149.2163217298
 21
122.7930427284
 31
0.0
  0
LINE
  5
1A5
330
1F
100
AcDbEntity
  8
0
  6
HIDDEN
 62
     7
370
     0
100
AcDbLine
 10
149.2163217298
 20
94.7930427284
 30
0.0
 11
149.8163217298
 21
94.4466325669
 31
0.0
  0
ARC
  5
1A6
330
1F
100
AcDbEntity
  8
0
  6
HIDDEN
 62
     7
370
     0
100
AcDbCircle
 10
168.2860932901
 20
95.2930427284
 30
0.0
 40
0.5
100
AcDbArc
 50
270.0
 51
0.0
  0
ARC
  5
1A7
330
1F
100
AcDbEntity
  8
0
  6
HIDDEN
 62
     7
370
     0
100
AcDbCircle
 10
168.2860932901
 20
122.2930427284
 30
0.0
 40
0.5
100
AcDbArc
 50
0.0
 51
90.0
  0
LINE
  5
1A8
330
1F
100
AcDbEntity
  8
0
  6
HIDDEN
 62
     7
370
     0
100
AcDbLine
 10
148.2163217298
 20
94.7930427284
 30
0.0
 11
149.2163217298
 21
94.7930427284
 31
0.0
  0
LINE
  5
1A9
330
1F
100
AcDbEntity
  8
0
  6
HIDDEN
 62
     7
370
     0
100
AcDbLine
 10
149.2163217298
 20
122.7930427284
 30
0.0
 11
148.2163217298
 21
122.7930427284
 31
0.0
  0
LINE
  5
1AA
330
1F
100
AcDbEntity
  8
0
  6
HIDDEN
 62
     7
370
     0
100
AcDbLine
 10
155.6163217298
 20
94.7930427284
 30
0.0
 11
168.2860932901
 21
94.7930427284
 31
0.0
  0
LINE
  5
1AB
330
1F
100
AcDbEntity
  8
0
  6
HIDDEN
 62
     7
370
     0
100
AcDbLine
 10
168.2860932901
 20
122.7930427284
 30
0.0
 11
155.6163217298
 21
122.7930427284
 31
0.0
  0
LINE
  5
1AC
330
1F
100
AcDbEntity
  8
0
  6
HIDDEN
 62
     7
370
     0
100
AcDbLine
 10
168.7860932901
 20
98.5430427284
 30
0.0
 11
170.0360932901
 21
99.7930427284
 31
0.0
  0
LINE
  5
1AD
330
1F
100
AcDbEntity
  8
0
  6
HIDDEN
 62
     7
370
     0
100
AcDbLine
 10
170.0360932901
 20
117.7930427284
 30
0.0
 11
168.7860932901
 21
119.0430427284
 31
0.0
  0
LINE
  5
1AE
330
1F
100
AcDbEntity
  8
0
  6
HIDDEN
 62
     7
370
     0
100
AcDbLine
 10
206.7860932901
 20
117.7930427284
 30
0.0
 11
170.0360932901
 21
117.7930427284
 31
0.0
  0
LINE
  5
1AF
330
1F
100
AcDbEntity
  8
0
  6
HIDDEN
 62
     7
370
     0
100
AcDbLine
 10
170.0360932901
 20
99.7930427284
 30
0.0
 11
206.7860932901
 21
99.7930427284
 31
0.0
  0
LINE
  5
1B0
330
1F
100
AcDbEntity
  8
0
  6
HIDDEN
 62
     7
370
     0
100
AcDbLine
 10
206.7860932901
 20
99.7930427284
 30
0.0
 11
212.1938388614
 21
108.7930427284
 31
0.0
  0
LINE
  5
1B1
330
1F
100
AcDbEntity
  8
0
  6
HIDDEN
 62
     7
370
     0
100
AcDbLine
 10
212.1938388614
 20
108.7930427284
 30
0.0
 11
206.7860932901
 21
117.7930427284
 31
0.0
  0
LINE
  5
1B2
330
1F
100
AcDbEntity
  8
0
  6
HIDDEN
 62
     7
370
     0
100
AcDbLine
 10
224.0839642615
 20
138.3151643386
 30
0.0
 11
223.6052868712
 21
137.6813267334
 31
0.0
  0
LINE
  5
1B3
330
1F
100
AcDbEntity
  8
0
  6
HIDDEN
 62
     7
370
     0
100
AcDbLine
 10
229.1912995983
 20
133.4627414478
 30
0.0
 11
229.6699769886
 21
134.0965790529
 31
0.0
  0
LINE
  5
1B4
330
1F
100
AcDbEntity
  8
0
  6
HIDDEN
 62
     7
370
     0
100
AcDbLine
 10
239.0277421311
 20
135.4617925686
 30
0.0
 11
239.9914945624
 21
136.7379391871
 31
0.0
  0
LINE
  5
1B5
330
1F
100
AcDbEntity
  8
0
  6
HIDDEN
 62
     7
370
     0
100
AcDbLine
 10
231.5130331363
 20
144.1323224624
 30
0.0
 11
226.281436858
 21
138.7039470276
 31
0.0
  0
LINE
  5
1B6
330
1F
100
AcDbEntity
  8
0
  6
HIDDEN
 62
     7
370
     0
100
AcDbLine
 10
223.0027206724
 20
138.0449693864
 30
0.0
 11
219.8805376104
 21
133.9107506519
 31
0.0
  0
LINE
  5
1B7
330
1F
100
AcDbEntity
  8
0
  6
HIDDEN
 62
     7
370
     0
100
AcDbLine
 10
226.4004316395
 20
128.605704657
 30
0.0
 11
229.705935945
 21
132.9826670436
 31
0.0
  0
LINE
  5
1B8
330
1F
100
AcDbEntity
  8
0
  6
HIDDEN
 62
     7
370
     0
100
AcDbLine
 10
234.2103496524
 20
147.7116615472
 30
0.0
 11
233.6249902581
 21
146.9365616488
 31
0.0
  0
LINE
  5
1B9
330
1F
100
AcDbEntity
  8
0
  6
HIDDEN
 62
     7
370
     0
100
AcDbLine
 10
238.9716024398
 20
142.8987728754
 30
0.0
 11
239.5569618341
 21
143.6738727738
 31
0.0
  0
LINE
  5
1BA
330
1F
100
AcDbEntity
  8
0
  6
HIDDEN
 62
     7
370
     0
100
AcDbLine
 10
232.2380196749
 20
137.2861396054
 30
0.0
 11
236.8027176878
 21
142.0225323319
 31
0.0
  0
LINE
  5
1BB
330
1F
100
AcDbEntity
  8
VERMASSUNG
  6
CENTERX2
100
AcDbLine
 10
244.7860932901
 20
153.7930427284
 30
0.0
 11
256.0718416869
 21
153.7930427284
 31
0.0
  0
LINE
  5
1BC
330
1F
100
AcDbEntity
  8
VERMASSUNG
  6
CENTERX2
100
AcDbLine
 10
244.7860932901
 20
153.7930427284
 30
0.0
 11
244.7860932901
 21
108.7930427284
 31
0.0
  0
LINE
  5
1BD
330
1F
100
AcDbEntity
  8
VERMASSUNG
  6
CENTERX2
100
AcDbLine
 10
244.7860932901
 20
108.7930427284
 30
0.0
 11
136.2817693962
 21
108.7930427284
 31
0.0
  0
DIMENSION
  5
1BE
330
1F
100
AcDbEntity
  8
VERMASSUNG
100
AcDbDimension
  2
_D
 10
244.7860932901
 20
168.6158913075
 30
0.0
 11
193.2860932901
 21
168.6158913075
 31
0.0
 70
   160
  1
<>
 71
     2
 42
-1.0
  3
SLDDIMSTYLE0
100
AcDbAlignedDimension
 13
141.7860932901
 23
129.0853807209
 33
0.0
 14
244.7860932901
 24
153.7930427284
 34
0.0
 50
0.0
100
AcDbRotatedDimension
  0
DIMENSION
  5
1C9
330
1F
100
AcDbEntity
  8
VERMASSUNG
100
AcDbDimension
  2
_D_1
 10
270.4196592165
 20
108.7930427284
 30
0.0
 11
270.4196592165
 21
131.2930427284
 31
0.0
 70
   160
  1
<>
 71
     2
 42
-1.0
  3
SLDDIMSTYLE1
100
AcDbAlignedDimension
 13
244.7860932901
 23
153.7930427284
 33
0.0
 14
244.7860932901
 24
108.7930427284
 34
0.0
 50
90.0
100
AcDbRotatedDimension
  0
DIMENSION
  5
1D6
330
1F
100
AcDbEntity
  8
VERMASSUNG
100
AcDbDimension
  2
_D_2
 10
244.7860932901
 20
160.6871932172
 30
0.0
 11
212.2860932901
 21
160.6871932172
 31
0.0
 70
   160
  1
<>
 71
     2
 42
-1.0
  3
SLDDIMSTYLE1
100
AcDbAlignedDimension
 13
179.7860932901
 23
139.7930427284
 33
0.0
 14
244.7860932901
 24
153.7930427284
 34
0.0
100
AcDbRotatedDimension
  0
DIMENSION
  5
1E2
330
1F
100
AcDbEntity
  8
VERMASSUNG
100
AcDbDimension
  2
_D_3
 10
256.0718416869
 20
153.7930427284
 30
0.0
 11
255.8564580089
 21
141.7462477314
 31
0.0
 70
   162
  1
<>
 71
     1
 42
-1.0
  3
SLDDIMSTYLE2
100
AcDb2LineAngularDimension
 13
244.0728978187
 23
145.2672177963
 33
0.0
 14
244.7845795077
 24
153.3565728643
 34
0.0
 15
244.7860932901
 25
153.7930427284
 35
0.0
 16
255.8564580089
 26
141.7462477314
 36
0.0
  0
DIMENSION
  5
1ED
330
1F
100
AcDbEntity
  8
VERMASSUNG
100
AcDbDimension
  2
_D_4
 10
131.7860932901
 20
77.2930427284
 30
0.0
 11
131.7860932901
 21
108.7930427284
 31
0.0
 70
   160
  1
PSC%%c<>
 71
     2
 42
-1.0
  3
SLDDIMSTYLE0
100
AcDbAlignedDimension
 13
180.2860932901
 23
140.2930427284
 33
0.0
 14
180.2860932901
 24
77.2930427284
 34
0.0
 50
90.0
100
AcDbRotatedDimension
  0
LINE
  5
1F9
330
1F
100
AcDbEntity
  8
0
  6
Continuous
 62
     7
370
    15
100
AcDbLine
 10
73.4095502975
 20
153.1341635973
 30
0.0
 11
68.7216964051
 21
153.792999813
 31
0.0
  0
LINE
  5
1FA
330
1F
100
AcDbEntity
  8
0
  6
Continuous
 62
     7
370
    15
100
AcDbLine
 10
66.0255206147
 20
137.725344056
 30
0.0
 11
66.3473510048
 21
137.6801134438
 31
0.0
  0
LINE
  5
1FB
330
1F
100
AcDbEntity
  8
0
  6
Continuous
 62
     7
370
    15
100
AcDbLine
 10
66.3642396083
 20
141.0645210535
 30
0.0
 11
66.5060867885
 21
140.7034733684
 31
0.0
  0
SPLINE
  5
1FC
330
1F
100
AcDbEntity
  8
0
  6
Continuous
 62
     7
370
    15
100
AcDbSpline
210
0.0
220
0.0
230
1.0
 70
     8
 71
     3
 72
     9
 73
     5
 74
     0
 42
0.00000001
 43
0.00000001
 12
1.0
 22
0.0
 32
0.0
 13
1.0
 23
0.0
 33
0.0
 40
0.0
 40
0.0
 40
0.0
 40
0.0
 40
0.3095270569324604
 40
1.0
 40
1.0
 40
1.0
 40
1.0
 10
67.89228040532167
 20
151.7349035830004
 30
0.0
 10
67.8803602836974
 20
151.7021781350686
 30
0.0
 10
67.84184952556728
 20
151.5964508740787
 30
0.0
 10
67.75526347514999
 20
151.4937180772263
 30
0.0
 10
67.69547815008978
 20
151.4227838606341
 30
0.0
  0
LINE
  5
1FD
330
1F
100
AcDbEntity
  8
0
  6
Continuous
 62
     7
370
    15
100
AcDbLine
 10
67.7344882259
 20
151.4623203666
 30
0.0
 11
67.5595428892
 21
151.2339041919
 31
0.0
  0
LINE
  5
1FE
330
1F
100
AcDbEntity
  8
0
  6
Continuous
 62
     7
370
    15
100
AcDbLine
 10
77.7252744282
 20
152.4670013577
 30
0.0
 11
73.4230120996
 21
153.0716457755
 31
0.0
  0
LINE
  5
1FF
330
1F
100
AcDbEntity
  8
0
  6
Continuous
 62
     7
370
    15
100
AcDbLine
 10
77.9860512683
 20
152.123488614
 30
0.0
 11
77.7353830034
 21
152.4599866361
 31
0.0
  0
SPLINE
  5
200
330
1F
100
AcDbEntity
  8
0
  6
Continuous
 62
     7
370
    15
100
AcDbSpline
210
0.0
220
0.0
230
1.0
 70
     8
 71
     3
 72
    47
 73
    43
 74
     0
 42
0.00000001
 43
0.00000001
 12
1.0
 22
0.0
 32
0.0
 13
1.0
 23
0.0
 33
0.0
 40
0.0
 40
0.0
 40
0.0
 40
0.0
 40
0.0172078991014441
 40
0.0345691885625966
 40
0.0520840688662303
 40
0.0697527352635847
 40
0.0875753779483717
 40
0.1055521822238785
 40
0.1236833286634876
 40
0.1419689932648935
 40
0.1604093475983207
 40
0.1790045589489861
 40
0.197754790454079
 40
0.2166602012344916
 40
0.2357209465215329
 40
0.2549371777788433
 40
0.2743090428197202
 40
0.2938366859200539
 40
0.313520247927059
 40
0.3333598663639855
 40
0.3533556755309774
 40
0.3735078066022444
 40
0.3938163877197023
 40
0.4142815440832254
 40
0.4349033980376603
 40
0.4556820691567322
 40
0.4766176743239637
 40
0.4977103278107468
 40
0.5541865937397229
 40
0.6148214831455332
 40
0.6796161216458058
 40
0.7485713680349579
 40
0.7612930971725695
 40
0.7767751661942813
 40
0.7950175554400484
 40
0.8160202362098117
 40
0.8397831725366932
 40
0.8663063220375405
 40
0.8955896363626474
 40
0.9276330614518263
 40
0.9624365376889927
 40
1.0
 40
1.0
 40
1.0
 40
1.0
 10
77.98361038465903
 20
152.0708605330353
 30
0.0
 10
78.15963249711534
 20
152.0366142262503
 30
0.0
 10
78.51324577441414
 20
151.967816342799
 30
0.0
 10
79.04340640246609
 20
151.8519345655488
 30
0.0
 10
79.57608776290537
 20
151.7259701704349
 30
0.0
 10
80.11088287567094
 20
151.5888353554251
 30
0.0
 10
80.64760074685353
 20
151.4405725972344
 30
0.0
 10
81.18598079058359
 20
151.2809219931059
 30
0.0
 10
81.72577029612256
 20
151.1097106023744
 30
0.0
 10
82.26670334513244
 20
150.9267471539873
 30
0.0
 10
82.80850649262528
 20
150.7318510352812
 30
0.0
 10
83.35089719556883
 20
150.5248448416723
 30
0.0
 10
83.89358422252141
 20
150.305556824936
 30
0.0
 10
84.43626753891614
 20
150.0738206638034
 30
0.0
 10
84.97863834845244
 20
149.8294759694982
 30
0.0
 10
85.52037910651337
 20
149.5723685999239
 30
0.0
 10
86.06116355613977
 20
149.3023510335015
 30
0.0
 10
86.60065677335437
 20
149.0192827342923
 30
0.0
 10
87.13851522624321
 20
148.7230305263503
 30
0.0
 10
87.6743868462092
 20
148.4134689729501
 30
0.0
 10
88.20791111602244
 20
148.090480758038
 30
0.0
 10
88.7387191602916
 20
147.7539570830792
 30
0.0
 10
89.2664338945048
 20
147.4037980265246
 30
0.0
 10
89.79067002282562
 20
147.0399130636767
 30
0.0
 10
90.311034678845
 20
146.6622209982038
 30
0.0
 10
90.82712571319409
 20
146.2706521298306
 30
0.0
 10
91.33853893965987
 20
145.8651419940314
 30
0.0
 10
92.12669675905319
 20
145.2121325701067
 30
0.0
 10
93.19578831143698
 20
144.2524721439058
 30
0.0
 10
94.52516001015121
 20
142.9078555387917
 30
0.0
 10
95.85162258892274
 20
141.3834828626618
 30
0.0
 10
96.77152176684264
 20
140.1694666687562
 30
0.0
 10
97.34746275672495
 20
139.3404570863596
 30
0.0
 10
97.61711544509933
 20
138.9402683197013
 30
0.0
 10
97.92680764308675
 20
138.4633694666703
 30
0.0
 10
98.2724789984478
 20
137.9073149044368
 30
0.0
 10
98.64937397439223
 20
137.2694508915802
 30
0.0
 10
99.05194454116226
 20
136.5469585761264
 30
0.0
 10
99.47408343399519
 20
135.7370371621677
 30
0.0
 10
99.90793900757714
 20
134.8365551534909
 30
0.0
 10
100.348794915151
 20
133.8440318361167
 30
0.0
 10
100.6220731601975
 20
133.1426527021032
 30
0.0
 10
100.76392353088
 20
132.7785882661217
 30
0.0
  0
SPLINE
  5
201
330
1F
100
AcDbEntity
  8
0
  6
Continuous
 62
     7
370
    15
100
AcDbSpline
210
0.0
220
0.0
230
1.0
 70
    24
 71
     3
 72
     9
 73
     5
 74
     0
 42
0.00000001
 43
0.00000001
 12
1.0
 22
0.0
 32
0.0
 13
1.0
 23
0.0
 33
0.0
 40
0.0
 40
0.0
 40
0.0
 40
0.0
 40
0.5029153004211802
 40
1.0
 40
1.0
 40
1.0
 40
1.0
 10
100.7639247024707
 20
132.7792198580562
 30
0.0
 10
100.7639247024707
 20
132.5657501023124
 30
0.0
 10
100.7639247024707
 20
132.1412854746404
 30
0.0
 10
100.7639247024707
 20
131.7137007286433
 30
0.0
 10
100.7639247024707
 20
131.5011548936349
 30
0.0
  0
SPLINE
  5
202
330
1F
100
AcDbEntity
  8
0
  6
Continuous
 62
     7
370
    15
100
AcDbSpline
210
0.0
220
0.0
230
1.0
 70
     8
 71
     3
 72
    33
 73
    29
 74
     0
 42
0.00000001
 43
0.00000001
 12
1.0
 22
0.0
 32
0.0
 13
1.0
 23
0.0
 33
0.0
 40
0.0
 40
0.0
 40
0.0
 40
0.0
 40
0.0179543234134783
 40
0.0358854253461679
 40
0.0537995329282271
 40
0.0717028910227029
 40
0.0896017557440428
 40
0.1075023879178791
 40
0.1254110465161515
 40
0.1433339821019407
 40
0.1612774303182551
 40
0.1792476054544949
 40
0.1972506941233612
 40
0.2152928490796667
 40
0.23338018321082
 40
0.2515187637267527
 40
0.3773934559424578
 40
0.502369518327333
 40
0.6269901495993149
 40
0.7519432237766825
 40
0.7833141700397087
 40
0.8145123126742506
 40
0.8455716142764527
 40
0.8765264944401957
 40
0.907411721874208
 40
0.9382623007847147
 40
0.9691133533168405
 40
1.0
 40
1.0
 40
1.0
 40
1.0
 10
100.7639246947592
 20
131.5046629231039
 30
0.0
 10
100.7023559618149
 20
131.6850248797114
 30
0.0
 10
100.5792981267268
 20
132.0455155192122
 30
0.0
 10
100.3820507263156
 20
132.5813805137776
 30
0.0
 10
100.1757113706309
 20
133.1131374687085
 30
0.0
 10
99.95936322273306
 20
133.6404718040457
 30
0.0
 10
99.7332517200417
 20
134.1634674535194
 30
0.0
 10
99.49731124531029
 20
134.6821016964911
 30
0.0
 10
99.25155948854922
 20
135.1963803855104
 30
0.0
 10
98.99599186041263
 20
135.7063017100303
 30
0.0
 10
98.73060967307212
 20
136.2118659905746
 30
0.0
 10
98.45541299673233
 20
136.7130727440797
 30
0.0
 10
98.17040103009394
 20
137.2099226331153
 30
0.0
 10
97.8755777795926
 20
137.7024125992537
 30
0.0
 10
97.57092888829824
 20
138.1905534398031
 30
0.0
 10
96.63439789573314
 20
139.6314529015038
 30
0.0
 10
94.90489692652172
 20
141.9099255987889
 30
0.0
 10
92.09066561173941
 20
144.7397346828155
 30
0.0
 10
88.93491575155198
 20
147.1689570347192
 30
0.0
 10
86.3419221466363
 20
148.6582388656986
 30
0.0
 10
84.54108297227616
 20
149.5061461331016
 30
0.0
 10
83.62812131200788
 20
149.899734361582
 30
0.0
 10
82.70645871872127
 20
150.2611131676447
 30
0.0
 10
81.77605016653483
 20
150.5902533988879
 30
0.0
 10
80.83695090513275
 20
150.887357765437
 30
0.0
 10
79.88900373800134
 20
151.1516337352369
 30
0.0
 10
78.93280242204773
 20
151.3860375508704
 30
0.0
 10
78.28898074533384
 20
151.5149003092692
 30
0.0
 10
77.96688431303436
 20
151.5793688356295
 30
0.0
  0
LINE
  5
203
330
1F
100
AcDbEntity
  8
0
  6
Continuous
 62
     7
370
    15
100
AcDbLine
 10
63.3434559549
 20
115.8715175816
 30
0.0
 11
100.7639262224
 21
110.6124137413
 31
0.0
  0
LINE
  5
204
330
1F
100
AcDbEntity
  8
0
  6
Continuous
 62
     7
370
    15
100
AcDbLine
 10
67.160152188
 20
141.336783895
 30
0.0
 11
63.3434559549
 21
115.8715175816
 31
0.0
  0
LINE
  5
205
330
1F
100
AcDbEntity
  8
0
  6
Continuous
 62
     7
370
    15
100
AcDbLine
 10
67.160152188
 20
141.336783895
 30
0.0
 11
76.2404072428
 21
140.0606372745
 31
0.0
  0
LINE
  5
206
330
1F
100
AcDbEntity
  8
0
  6
Continuous
 62
     7
370
    15
100
AcDbLine
 10
76.2404072428
 20
140.0606372745
 30
0.0
 11
76.7965549002
 21
143.7712946326
 31
0.0
  0
LINE
  5
207
330
1F
100
AcDbEntity
  8
0
  6
Continuous
 62
     7
370
    15
100
AcDbLine
 10
100.7639262224
 20
131.5046624631
 30
0.0
 11
100.7639262224
 21
110.6124137413
 31
0.0
  0
LINE
  5
208
330
1F
100
AcDbEntity
  8
0
  6
Continuous
 62
     7
370
    15
100
AcDbLine
 10
76.2058263043
 20
140.4872090907
 30
0.0
 11
76.2404072428
 21
140.0606372745
 31
0.0
  0
LINE
  5
209
330
1F
100
AcDbEntity
  8
0
  6
Continuous
 62
     7
370
    15
100
AcDbLine
 10
67.160152188
 20
141.336783895
 30
0.0
 11
67.125571133
 21
141.7633557112
 31
0.0
  0
LINE
  5
20A
330
1F
100
AcDbEntity
  8
0
  6
Continuous
 62
     7
370
    15
100
AcDbLine
 10
67.125571133
 20
141.7633557112
 30
0.0
 11
76.2058263043
 21
140.4872090907
 31
0.0
  0
LINE
  5
20B
330
1F
100
AcDbEntity
  8
0
  6
Continuous
 62
     7
370
    15
100
AcDbLine
 10
63.3434559549
 20
115.8715175816
 30
0.0
 11
55.6927797715
 21
80.4441498012
 31
0.0
  0
ARC
  5
20C
330
1F
100
AcDbEntity
  8
0
  6
Continuous
 62
     7
370
    15
100
AcDbCircle
 10
68.7639247025
 20
108.7930427284
 30
0.0
 40
31.5
100
AcDbArc
 50
98.3731628584
 51
98.5987676497
  0
SPLINE
  5
20D
330
1F
100
AcDbEntity
  8
0
  6
Continuous
 62
     7
370
    15
100
AcDbSpline
210
0.0
220
0.0
230
1.0
 70
     8
 71
     3
 72
    10
 73
     6
 74
     0
 42
0.00000001
 43
0.00000001
 12
1.0
 22
0.0
 32
0.0
 13
1.0
 23
0.0
 33
0.0
 40
0.0
 40
0.0
 40
0.0
 40
0.0
 40
0.5000000000000023
 40
0.5000000000000023
 40
1.0
 40
1.0
 40
1.0
 40
1.0
 10
64.17690601494985
 20
139.9572731786896
 30
0.0
 10
64.20136496764246
 20
139.9608732570954
 30
0.0
 10
64.23577559107294
 20
140.0429348601156
 30
0.0
 10
64.31229040552007
 20
140.3260122612227
 30
0.0
 10
64.35245655524615
 20
140.5193446872202
 30
0.0
 10
64.38886982618313
 20
140.7360019556585
 30
0.0
  0
SPLINE
  5
20E
330
1F
100
AcDbEntity
  8
0
  6
Continuous
 62
     7
370
    15
100
AcDbSpline
210
0.0
220
0.0
230
1.0
 70
     8
 71
     3
 72
     8
 73
     4
 74
     0
 42
0.00000001
 43
0.00000001
 12
1.0
 22
0.0
 32
0.0
 13
1.0
 23
0.0
 33
0.0
 40
0.0
 40
0.0
 40
0.0
 40
0.0
 40
1.0
 40
1.0
 40
1.0
 40
1.0
 10
64.38886982618313
 20
140.7360019556585
 30
0.0
 10
64.63026624031292
 20
142.172299392016
 30
0.0
 10
64.871808438231
 20
143.608005721622
 30
0.0
 10
65.11345138382177
 20
145.0433035515572
 30
0.0
  0
LINE
  5
20F
330
1F
100
AcDbEntity
  8
0
  6
Continuous
 62
     7
370
    15
100
AcDbLine
 10
65.1134512717
 20
145.0433024556
 30
0.0
 11
66.3565734266
 21
148.3445094318
 31
0.0
  0
LWPOLYLINE
  5
210
330
1F
100
AcDbEntity
  8
0
  6
Continuous
 62
     7
370
    15
100
AcDbPolyline
 90
       12
 70
   128
 43
0.0
 10
66.0063784434
 20
138.4381858052
 10
65.9916963758
 20
138.3459904582
 10
65.9080214663
 20
137.7541740776
 10
65.8449802412
 20
137.182556221
 10
65.8076805393
 20
136.6774478347
 10
65.7991435709
 20
136.27976937
 10
65.8200615416
 20
136.0217390002
 10
65.8687394442
 20
135.9242593289
 10
65.9412335934
 20
135.9952298344
 10
66.0316713019
 20
136.2288986684
 10
66.1327253891
 20
136.6063376308
 10
66.2362095299
 20
137.0969658137
  0
LINE
  5
211
330
1F
100
AcDbEntity
  8
0
  6
Continuous
 62
     7
370
    15
100
AcDbLine
 10
66.2362095299
 20
137.0969658137
 30
0.0
 11
67.125571133
 21
141.7633557112
 31
0.0
  0
LWPOLYLINE
  5
212
330
1F
100
AcDbEntity
  8
0
  6
Continuous
 62
     7
370
    15
100
AcDbPolyline
 90
       31
 70
   128
 43
0.0
 10
64.2088967705
 20
132.7399333359
 10
64.2948652948
 20
132.8050868005
 10
64.3983655008
 20
133.0188700349
 10
64.5148739549
 20
133.3719400109
 10
64.6392986508
 20
133.8488684387
 10
64.7662015962
 20
134.4288067312
 10
64.8900362993
 20
135.0864136011
 10
65.0053908447
 20
135.7929447085
 10
65.1072237505
 20
136.5175229848
 10
65.1910842261
 20
137.2284815998
 10
65.2533072843
 20
137.8947460443
 10
65.2911734632
 20
138.4871994496
 10
65.3030278025
 20
138.9799473227
 10
65.2883522542
 20
139.3514537603
 10
65.2477882667
 20
139.5854839475
 10
65.1831086124
 20
139.6718100996
 10
65.0971398553
 20
139.6066566349
 10
64.9936396493
 20
139.3928734005
 10
64.877131428
 20
139.0398034245
 10
64.7527067321
 20
138.5628749967
 10
64.6258037867
 20
137.9829348416
 10
64.5019690836
 20
137.3253298343
 10
64.3866145382
 20
136.6187987269
 10
64.2847818652
 20
135.8942204506
 10
64.2009213897
 20
135.1832618356
 10
64.1386983315
 20
134.5169973911
 10
64.1008316869
 20
133.9245439858
 10
64.0889773475
 20
133.4317961127
 10
64.1036531287
 20
133.0602896751
 10
64.1442168834
 20
132.8262594879
 10
64.2088967705
 20
132.7399333359
  0
SPLINE
  5
213
330
1F
100
AcDbEntity
  8
0
  6
Continuous
 62
     7
370
    15
100
AcDbSpline
210
0.0
220
0.0
230
1.0
 70
     8
 71
     3
 72
    12
 73
     8
 74
     0
 42
0.00000001
 43
0.00000001
 12
1.0
 22
0.0
 32
0.0
 13
1.0
 23
0.0
 33
0.0
 40
0.0
 40
0.0
 40
0.0
 40
0.0
 40
0.499999999999998
 40
0.499999999999998
 40
0.749999999999999
 40
0.749999999999999
 40
1.0
 40
1.0
 40
1.0
 40
1.0
 10
85.79089459440127
 20
82.29149001350119
 30
0.0
 10
86.22700351732773
 20
82.5716854262062
 30
0.0
 10
86.68831219612068
 20
82.82013208621615
 30
0.0
 10
87.4092840819651
 20
83.15625428703731
 30
0.0
 10
87.65529343467753
 20
83.26179486401757
 30
0.0
 10
88.15596921346396
 20
83.45259524013072
 30
0.0
 10
88.41091422094085
 20
83.53861060106674
 30
0.0
 10
88.67448236294418
 20
83.60706039817349
 30
0.0
  0
ARC
  5
214
330
1F
100
AcDbEntity
  8
0
  6
Continuous
 62
     7
370
    15
100
AcDbCircle
 10
68.7639247025
 20
108.7930427284
 30
0.0
 40
31.50000000000002
100
AcDbArc
 50
268.738837614
 51
302.7203198415
  0
LINE
  5
215
330
1F
100
AcDbEntity
  8
0
  6
Continuous
 62
     7
370
    15
100
AcDbLine
 10
68.0706204711
 20
77.3006716163
 30
0.0
 11
60.7498976732
 21
78.3295334668
 31
0.0
  0
ARC
  5
216
330
1F
100
AcDbEntity
  8
0
  6
Continuous
 62
     7
370
    15
100
AcDbCircle
 10
68.7639247025
 20
108.7930427284
 30
0.0
 40
31.49999999999999
100
AcDbArc
 50
245.3548374176
 51
255.261162386
  0
ELLIPSE
  5
217
330
1F
100
AcDbEntity
  8
0
  6
Continuous
 62
     7
370
    15
100
AcDbEllipse
 10
49.783719925
 20
81.2746139357
 30
0.0
 11
2.375739217460584
 21
8.278775177185523
 31
0.0
210
0.0
220
0.0
230
1.0
 40
0.6892710456
 41
4.775496329654853
 42
4.809101290144683
  0
LINE
  5
218
330
1F
100
AcDbEntity
  8
0
  6
Continuous
 62
     7
370
    15
100
AcDbLine
 10
100.7639262224
 20
110.6124137413
 30
0.0
 11
100.7639262224
 21
108.7930427284
 31
0.0
  0
ARC
  5
219
330
1F
100
AcDbEntity
  8
0
  6
Continuous
 62
     7
370
    15
100
AcDbCircle
 10
68.7639247025
 20
108.7930427284
 30
0.0
 40
32.00000000000004
100
AcDbArc
 50
308.083926283
 51
0.0
  0
LINE
  5
21A
330
1F
100
AcDbEntity
  8
0
  6
Continuous
 62
     7
370
    15
100
AcDbLine
 10
88.5020065451
 20
83.6055838854
 30
0.0
 11
88.674481898
 21
83.607060963
 31
0.0
  0
ARC
  5
21B
330
1F
100
AcDbEntity
  8
0
  6
Continuous
 62
     7
370
    15
100
AcDbCircle
 10
68.7639247025
 20
108.7930427284
 30
0.0
 40
32.10551373655939
100
AcDbArc
 50
308.3278246076
 51
4.6464506928
  0
SPLINE
  5
21C
330
1F
100
AcDbEntity
  8
0
  6
Continuous
 62
     7
370
    15
100
AcDbSpline
210
0.0
220
0.0
230
1.0
 70
     8
 71
     3
 72
    20
 73
    16
 74
     0
 42
0.00000001
 43
0.00000001
 12
1.0
 22
0.0
 32
0.0
 13
1.0
 23
0.0
 33
0.0
 40
0.0
 40
0.0
 40
0.0
 40
0.0
 40
0.2499999999999998
 40
0.2499999999999998
 40
0.3749999999999998
 40
0.3749999999999998
 40
0.4999999999999999
 40
0.4999999999999999
 40
0.6249999999999999
 40
0.6249999999999999
 40
0.7499999999999999
 40
0.7499999999999999
 40
0.875
 40
0.875
 40
1.0
 40
1.0
 40
1.0
 40
1.0
 10
59.44837818162714
 20
138.8840811454516
 30
0.0
 10
60.03090071869576
 20
139.0644177532579
 30
0.0
 10
60.58722713098165
 20
139.2181250943225
 30
0.0
 10
61.37622684337614
 20
139.4156720305804
 30
0.0
 10
61.63109722207879
 20
139.4758086309618
 30
0.0
 10
62.10652353094615
 20
139.5824623549182
 30
0.0
 10
62.32945799346736
 20
139.6295865070047
 30
0.0
 10
62.74439684840542
 20
139.7132639186374
 30
0.0
 10
62.93794877576611
 20
139.7500832174493
 30
0.0
 10
63.2807215606168
 20
139.8126306470739
 30
0.0
 10
63.43064837207547
 20
139.8385435910506
 30
0.0
 10
63.68753110248329
 20
139.8815806201568
 30
0.0
 10
63.79494497356032
 20
139.8987713832082
 30
0.0
 10
63.96160082456111
 20
139.9249363435423
 30
0.0
 10
64.02035357570206
 20
139.9338472604909
 30
0.0
 10
64.05423128728386
 20
139.9389700373335
 30
0.0
  0
SPLINE
  5
21D
330
1F
100
AcDbEntity
  8
0
  6
Continuous
 62
     7
370
    15
100
AcDbSpline
210
0.0
220
0.0
230
1.0
 70
     8
 71
     3
 72
    18
 73
    14
 74
     0
 42
0.00000001
 43
0.00000001
 12
1.0
 22
0.0
 32
0.0
 13
1.0
 23
0.0
 33
0.0
 40
0.0
 40
0.0
 40
0.0
 40
0.0
 40
0.2500000000000002
 40
0.2500000000000002
 40
0.5000000000000004
 40
0.5000000000000004
 40
0.6250000000000003
 40
0.6250000000000003
 40
0.7500000000000002
 40
0.7500000000000002
 40
0.8750000000000001
 40
0.8750000000000001
 40
1.0
 40
1.0
 40
1.0
 40
1.0
 10
55.62850801110442
 20
80.16245020317228
 30
0.0
 10
55.54906553522868
 20
80.1988975810148
 30
0.0
 10
55.38588981705058
 20
80.27373276024358
 30
0.0
 10
54.89912706805767
 20
80.50717620442612
 30
0.0
 10
54.58709742551005
 20
80.66038807890524
 30
0.0
 10
54.02473595091778
 20
80.95330517101132
 30
0.0
 10
53.82434524645905
 20
81.06009909522311
 30
0.0
 10
53.40497591278665
 20
81.2901358100522
 30
0.0
 10
53.18524286731041
 20
81.4137650271948
 30
0.0
 10
52.72697511867326
 20
81.67964339877719
 30
0.0
 10
52.48895346649818
 20
81.8216666724522
 30
0.0
 10
52.00781136856425
 20
82.11791421841235
 30
0.0
 10
51.76319718633094
 20
82.27298947616588
 30
0.0
 10
51.5150323921815
 20
82.43539271802577
 30
0.0
  0
ARC
  5
21E
330
1F
100
AcDbEntity
  8
0
  6
Continuous
 62
     7
370
    15
100
AcDbCircle
 10
68.7639247025
 20
108.7930427284
 30
0.0
 40
31.49999999999999
100
AcDbArc
 50
255.261162386
 51
268.738837614
  0
ELLIPSE
  5
21F
330
1F
100
AcDbEntity
  8
0
  6
Continuous
 62
     7
370
    15
100
AcDbEllipse
 10
53.9507119671
 20
125.9334415002
 30
0.0
 11
2.370112844189123
 21
2.917392592722932
 31
0.0
210
0.0
220
0.0
230
1.0
 40
0.6487969398
 41
0.0
 42
6.283185307179586
  0
ARC
  5
220
330
1F
100
AcDbEntity
  8
0
  6
Continuous
 62
     7
370
    15
100
AcDbCircle
 10
68.7639247025
 20
108.7930427284
 30
0.0
 40
31.5
100
AcDbArc
 50
107.2014146211
 51
236.7985853789
  0
LWPOLYLINE
  5
221
330
1F
100
AcDbEntity
  8
0
  6
Continuous
 62
     7
370
    15
100
AcDbPolyline
 90
       31
 70
   128
 43
0.0
 10
65.2287890533
 20
139.6309939564
 10
65.2776427431
 20
139.4453739167
 10
65.3010759833
 20
139.1181723566
 10
65.2980645517
 20
138.6636888028
 10
65.2687402306
 20
138.1017883659
 10
65.2143845199
 20
137.4570262969
 10
65.1373729905
 20
136.7575825543
 10
65.0410714424
 20
136.0340268702
 10
64.9296887549
 20
135.3179813714
 10
64.8080929512
 20
134.6407403589
 10
64.6815979252
 20
134.0319049896
 10
64.5557329389
 20
133.5180812866
 10
64.4359983834
 20
133.1217253
 10
64.3276268946
 20
132.8601633549
 10
64.2353551792
 20
132.744824642
 10
64.1632163296
 20
132.780749479
 10
64.1143628726
 20
132.9663695187
 10
64.0909293996
 20
133.2935710788
 10
64.0939408312
 20
133.7480546326
 10
64.1232653851
 20
134.3099550695
 10
64.1776210958
 20
134.9547171385
 10
64.2546326252
 20
135.6541608811
 10
64.3509337077
 20
136.3777165652
 10
64.462316628
 20
137.093762064
 10
64.5839124317
 20
137.7710030765
 10
64.7104069921
 20
138.3798384459
 10
64.836272444
 20
138.8936621488
 10
64.9560072324
 20
139.2900181354
 10
65.0643784883
 20
139.5515800805
 10
65.1566499708
 20
139.6669187934
 10
65.2287890533
 20
139.6309939564
  0
LWPOLYLINE
  5
222
330
1F
100
AcDbEntity
  8
0
  6
Continuous
 62
     7
370
    15
100
AcDbPolyline
 90
       23
 70
   128
 43
0.0
 10
65.0004520411
 20
138.1630842925
 10
65.0349631304
 20
137.9980297179
 10
65.042013708
 20
137.6877856792
 10
65.0210326402
 20
137.25748671
 10
64.9737193579
 20
136.7419903517
 10
64.9039074177
 20
136.1830608339
 10
64.8172520431
 20
135.6259809226
 10
64.7207740093
 20
135.1158787847
 10
64.6222889753
 20
134.6940827907
 10
64.5297755817
 20
134.3947613031
 10
64.4507291125
 20
134.2421659619
 10
64.3915533418
 20
134.2486591429
 10
64.3570422525
 20
134.4137137175
 10
64.3499916749
 20
134.7239577562
 10
64.3709729756
 20
135.1542567254
 10
64.418286025
 20
135.6697530837
 10
64.4880979652
 20
136.2286826015
 10
64.5747533398
 20
136.7857625128
 10
64.6712313736
 20
137.2958646507
 10
64.7697164076
 20
137.7176606447
 10
64.8622298012
 20
138.0169821323
 10
64.9412760375
 20
138.1695774735
 10
65.0004520411
 20
138.1630842925
  0
LINE
  5
223
330
1F
100
AcDbEntity
  8
0
  6
Continuous
 62
     7
370
    15
100
AcDbLine
 10
64.9588908399
 20
136.6132424564
 30
0.0
 11
64.8158969688
 21
136.432444805
 31
0.0
  0
LINE
  5
224
330
1F
100
AcDbEntity
  8
0
  6
Continuous
 62
     7
370
    15
100
AcDbLine
 10
64.8158969688
 20
136.432444805
 30
0.0
 11
64.8878071787
 21
136.0961516739
 31
0.0
  0
LINE
  5
225
330
1F
100
AcDbEntity
  8
0
  6
Continuous
 62
     7
370
    15
100
AcDbLine
 10
64.9350643488
 20
136.4156977624
 30
0.0
 11
64.8158969688
 21
136.432444805
 31
0.0
  0
ELLIPSE
  5
226
330
1F
100
AcDbEntity
  8
0
  6
Continuous
 62
     7
370
    15
100
AcDbEllipse
 10
67.3025165477
 20
146.6034895997
 30
0.0
 11
0.3276187943153985
 21
2.328679888184524
 31
0.0
210
0.0
220
0.0
230
1.0
 40
0.1045283628
 41
0.3692499247549713
 42
1.139330894868398
  0
LWPOLYLINE
  5
227
330
1F
100
AcDbEntity
  8
0
  6
Continuous
 62
     7
370
    15
100
AcDbPolyline
 90
        9
 70
   128
 43
0.0
 10
66.0118394861
 20
137.8003173859
 10
66.0139133087
 20
137.7577224166
 10
66.0191764454
 20
137.7323718161
 10
66.0273795346
 20
137.7254669905
 10
66.0381337492
 20
137.7373357654
 10
66.0509289572
 20
137.7674137593
 10
66.0651588677
 20
137.8142760486
 10
66.0801489702
 20
137.8757004977
 10
66.0951881999
 20
137.9487757922
  0
LINE
  5
228
330
1F
100
AcDbEntity
  8
0
  6
Continuous
 62
     7
370
    15
100
AcDbLine
 10
65.9710738672
 20
142.5617413015
 30
0.0
 11
66.0118394861
 21
137.8003173859
 31
0.0
  0
LINE
  5
229
330
1F
100
AcDbEntity
  8
0
  6
Continuous
 62
     7
370
    15
100
AcDbLine
 10
66.419638866
 20
149.2905357272
 30
0.0
 11
65.9710738672
 21
142.5617413015
 31
0.0
  0
ARC
  5
22A
330
1F
100
AcDbEntity
  8
0
  6
Continuous
 62
     7
370
    15
100
AcDbCircle
 10
69.117540974
 20
149.1343098426
 30
0.0
 40
2.702421564276491
100
AcDbArc
 50
164.1053798222
 51
176.6859067638
  0
LINE
  5
22B
330
1F
100
AcDbEntity
  8
0
  6
Continuous
 62
     7
370
    15
100
AcDbLine
 10
67.7716273912
 20
153.2023513109
 30
0.0
 11
66.5184410153
 21
149.8744191021
 31
0.0
  0
LINE
  5
22C
330
1F
100
AcDbEntity
  8
0
  6
Continuous
 62
     7
370
    15
100
AcDbLine
 10
68.7178759307
 20
153.7920014352
 30
0.0
 11
67.7716273912
 21
153.2023513109
 31
0.0
  0
ARC
  5
22D
330
1F
100
AcDbEntity
  8
0
  6
Continuous
 62
     7
370
    15
100
AcDbCircle
 10
67.8267435406
 20
153.6056409653
 30
0.0
 40
0.9104104357135169
100
AcDbArc
 50
344.1228344748
 51
11.8119027808
  0
LINE
  5
22E
330
1F
100
AcDbEntity
  8
0
  6
Continuous
 62
     7
370
    15
100
AcDbLine
 10
67.4900016146
 20
145.2672184796
 30
0.0
 11
68.7024221969
 21
153.356574604
 31
0.0
  0
LINE
  5
22F
330
1F
100
AcDbEntity
  8
0
  6
Continuous
 62
     7
370
    15
100
AcDbLine
 10
66.0951881999
 20
137.9487757922
 30
0.0
 11
67.4900016146
 21
145.2672184796
 31
0.0
  0
LWPOLYLINE
  5
230
330
1F
100
AcDbEntity
  8
0
  6
Continuous
 62
     7
370
    15
100
AcDbPolyline
 90
        9
 70
   128
 43
0.0
 10
66.0153070329
 20
137.816373387
 10
66.0172772458
 20
137.7759092838
 10
66.0222770511
 20
137.7518271447
 10
66.0300701255
 20
137.7452669085
 10
66.0402865013
 20
137.7565414996
 10
66.0524421236
 20
137.7851144762
 10
66.0659605036
 20
137.8296335579
 10
66.0802008914
 20
137.8879883677
 10
66.094488311
 20
137.9574091525
  0
LINE
  5
231
330
1F
100
AcDbEntity
  8
0
  6
Continuous
 62
     7
370
    15
100
AcDbLine
 10
66.094488311
 20
137.9574091525
 30
0.0
 11
67.4887026524
 21
145.2727095575
 31
0.0
  0
LINE
  5
232
330
1F
100
AcDbEntity
  8
0
  6
Continuous
 62
     7
370
    15
100
AcDbLine
 10
67.4887026524
 20
145.2727095575
 30
0.0
 11
68.7006024435
 21
153.358589986
 31
0.0
  0
ARC
  5
233
330
1F
100
AcDbEntity
  8
0
  6
Continuous
 62
     7
370
    15
100
AcDbCircle
 10
67.86870557
 20
153.5952034282
 30
0.0
 40
0.8648920910784705
100
AcDbArc
 50
344.1228480226
 51
11.8118960457
  0
LINE
  5
234
330
1F
100
AcDbEntity
  8
0
  6
Continuous
 62
     7
370
    15
100
AcDbLine
 10
68.7152834925
 20
153.7722462208
 30
0.0
 11
67.7694413442
 21
153.1828494162
 31
0.0
  0
LINE
  5
235
330
1F
100
AcDbEntity
  8
0
  6
Continuous
 62
     7
370
    15
100
AcDbLine
 10
67.7694413442
 20
153.1828494162
 30
0.0
 11
66.5167932729
 21
149.8563477189
 31
0.0
  0
ARC
  5
236
330
1F
100
AcDbEntity
  8
0
  6
Continuous
 62
     7
370
    15
100
AcDbCircle
 10
68.9859495396
 20
149.1532421113
 30
0.0
 40
2.567311855835971
100
AcDbArc
 50
164.1054100517
 51
176.6859434293
  0
LINE
  5
237
330
1F
100
AcDbEntity
  8
0
  6
Continuous
 62
     7
370
    15
100
AcDbLine
 10
66.4229310913
 20
149.3016557188
 30
0.0
 11
65.9745588763
 21
142.5757521183
 31
0.0
  0
LINE
  5
238
330
1F
100
AcDbEntity
  8
0
  6
Continuous
 62
     7
370
    15
100
AcDbLine
 10
65.9745588763
 20
142.5757521183
 30
0.0
 11
66.0153070329
 21
137.816373387
 31
0.0
  0
LINE
  5
239
330
1F
100
AcDbEntity
  8
0
  6
Continuous
 62
     7
370
    15
100
AcDbLine
 10
72.1778557034
 20
144.6083822638
 30
0.0
 11
67.4900016146
 21
145.2672184796
 31
0.0
  0
LINE
  5
23A
330
1F
100
AcDbEntity
  8
0
  6
Continuous
 62
     7
370
    15
100
AcDbLine
 10
72.1778557034
 20
144.6083822638
 30
0.0
 11
73.3902761111
 21
152.6977383883
 31
0.0
  0
LINE
  5
23B
330
1F
100
AcDbEntity
  8
0
  6
Continuous
 62
     7
370
    15
100
AcDbLine
 10
71.5179722155
 20
141.1460415811
 30
0.0
 11
72.1778557034
 21
144.6083822638
 31
0.0
  0
ARC
  5
23C
330
1F
100
AcDbEntity
  8
0
  6
Continuous
 62
     7
370
    15
100
AcDbCircle
 10
58.9271536428
 20
147.2564750324
 30
0.0
 40
8.55117356341754
100
AcDbArc
 50
349.2712239948
 51
351.5199469138
  0
LINE
  5
23D
330
1F
100
AcDbEntity
  8
0
  6
Continuous
 62
     7
370
    15
100
AcDbLine
 10
66.5549269742
 20
141.6039021105
 30
0.0
 11
67.3288477682
 21
145.6645877451
 31
0.0
  0
LWPOLYLINE
  5
23E
330
1F
100
AcDbEntity
  8
0
  6
Continuous
 62
     7
370
    15
100
AcDbPolyline
 90
        9
 70
   128
 43
0.0
 10
66.3465554225
 20
141.2327588887
 10
66.3517398624
 20
141.1262714655
 10
66.3648975877
 20
141.0628968269
 10
66.3854053108
 20
141.0456338317
 10
66.4122907309
 20
141.0753020436
 10
66.4442791002
 20
141.1504970283
 10
66.4798539928
 20
141.2676536829
 10
66.5173287833
 20
141.4212138743
 10
66.5549269742
 20
141.6039021105
  0
LINE
  5
23F
330
1F
100
AcDbEntity
  8
0
  6
Continuous
 62
     7
370
    15
100
AcDbLine
 10
66.3239363911
 20
143.8746639878
 30
0.0
 11
66.3465554225
 21
141.2327588887
 31
0.0
  0
ARC
  5
240
330
1F
100
AcDbEntity
  8
0
  6
Continuous
 62
     7
370
    15
100
AcDbCircle
 10
69.7118909283
 20
143.8779542613
 30
0.0
 40
3.387956134907691
100
AcDbArc
 50
175.8790552139
 51
180.0556438176
  0
LINE
  5
241
330
1F
100
AcDbEntity
  8
0
  6
Continuous
 62
     7
370
    15
100
AcDbLine
 10
66.5815830561
 20
147.8549355061
 30
0.0
 11
66.3326940829
 21
144.1214197666
 31
0.0
  0
ARC
  5
242
330
1F
100
AcDbEntity
  8
0
  6
Continuous
 62
     7
370
    15
100
AcDbCircle
 10
73.3264663358
 20
147.4643541436
 30
0.0
 40
6.756182669123215
100
AcDbArc
 50
164.1054946626
 51
176.6858285485
  0
LINE
  5
243
330
1F
100
AcDbEntity
  8
0
  6
Continuous
 62
     7
370
    15
100
AcDbLine
 10
67.5239270184
 20
151.1611716241
 30
0.0
 11
66.828588895
 21
149.3146495313
 31
0.0
  0
ARC
  5
244
330
1F
100
AcDbEntity
  8
0
  6
Continuous
 62
     7
370
    15
100
AcDbCircle
 10
67.7111300281
 20
151.1113958999
 30
0.0
 40
0.1937074844828462
100
AcDbArc
 50
136.2678396048
 51
165.1100459186
  0
LINE
  5
245
330
1F
100
AcDbEntity
  8
0
  6
Continuous
 62
     7
370
    15
100
AcDbLine
 10
68.0961929592
 20
151.5724734754
 30
0.0
 11
67.5711610219
 21
151.2453035802
 31
0.0
  0
ARC
  5
246
330
1F
100
AcDbEntity
  8
0
  6
Continuous
 62
     7
370
    15
100
AcDbCircle
 10
65.8683917931
 20
151.1065712645
 30
0.0
 40
2.275997123392912
100
AcDbArc
 50
344.1226541899
 51
11.8120819182
  0
LINE
  5
247
330
1F
100
AcDbEntity
  8
0
  6
Continuous
 62
     7
370
    15
100
AcDbLine
 10
67.3848394634
 20
145.99547548
 30
0.0
 11
68.0575586138
 21
150.4839063973
 31
0.0
  0
LWPOLYLINE
  5
248
330
1F
100
AcDbEntity
  8
0
  6
Continuous
 62
     7
370
    15
100
AcDbPolyline
 90
       27
 70
   128
 43
0.0
 10
67.4316257336
 20
147.6638467402
 10
67.4868296463
 20
148.2360178024
 10
67.5182486283
 20
148.7369650394
 10
67.5240569379
 20
149.1375715823
 10
67.5039168544
 20
149.4145580918
 10
67.4589989338
 20
149.5518238635
 10
67.3919135569
 20
149.5413967759
 10
67.3065595892
 20
149.3838766009
 10
67.2078973711
 20
149.0884201021
 10
67.1016609393
 20
148.6722008676
 10
66.9940242641
 20
148.1594072074
 10
66.8912428063
 20
147.5798377187
 10
66.7992899524
 20
146.9671764762
 10
66.7235093987
 20
146.3570298047
 10
66.6683057187
 20
145.7848550171
 10
66.6368866204
 20
145.2839077801
 10
66.6310784271
 20
144.8833012373
 10
66.6512185106
 20
144.6063147277
 10
66.6961364312
 20
144.4690489561
 10
66.7632216918
 20
144.4794797689
 10
66.8485757759
 20
144.6369962186
 10
66.9472378776
 20
144.9324527175
 10
67.0534743093
 20
145.348671952
 10
67.1611109846
 20
145.8614693374
 10
67.2638924424
 20
146.4410388262
 10
67.3558454126
 20
147.0537000687
 10
67.4316257336
 20
147.6638467402
  0
ARC
  5
249
330
1F
100
AcDbEntity
  8
0
  6
Continuous
 62
     7
370
    15
100
AcDbCircle
 10
72.3757647136
 20
152.9611812601
 30
0.0
 40
1.048158157202732
100
AcDbArc
 50
345.4432470879
 51
9.4992430742
  0
LINE
  5
24A
330
1F
100
AcDbEntity
  8
0
  6
Continuous
 62
     7
370
    15
100
AcDbLine
 10
67.8974842284
 20
152.8887340219
 30
0.0
 11
67.7694413442
 21
153.1828494162
 31
0.0
  0
LINE
  5
24B
330
1F
100
AcDbEntity
  8
0
  6
Continuous
 62
     7
370
    15
100
AcDbLine
 10
66.1816500923
 20
142.7487844021
 30
0.0
 11
65.9745588763
 21
142.5757521183
 31
0.0
  0
LINE
  5
24C
330
1F
100
AcDbEntity
  8
0
  6
Continuous
 62
     7
370
    15
100
AcDbLine
 10
66.5359258982
 20
140.6025850565
 30
0.0
 11
66.5345806027
 21
140.6465025038
 31
0.0
  0
SPLINE
  5
24D
330
1F
100
AcDbEntity
  8
0
  6
Continuous
 62
     7
370
    15
100
AcDbSpline
210
0.0
220
0.0
230
1.0
 70
     8
 71
     3
 72
    10
 73
     6
 74
     0
 42
0.00000001
 43
0.00000001
 12
1.0
 22
0.0
 32
0.0
 13
1.0
 23
0.0
 33
0.0
 40
0.0
 40
0.0
 40
0.0
 40
0.0
 40
0.3389301145023197
 40
0.6778158536357994
 40
1.0
 40
1.0
 40
1.0
 40
1.0
 10
67.897484228415
 20
152.8887340218527
 30
0.0
 10
67.94790390764973
 20
152.7311178473763
 30
0.0
 10
68.04873666478238
 20
152.4159061347599
 30
0.0
 10
68.00163493028053
 20
151.9210001309397
 30
0.0
 10
67.84119849726186
 20
151.6482097181991
 30
0.0
 10
67.76300695299129
 20
151.5152604670031
 30
0.0
  0
LINE
  5
24E
330
1F
100
AcDbEntity
  8
0
  6
Continuous
 62
     7
370
    15
100
AcDbLine
 10
66.8499667062
 20
149.3714192302
 30
0.0
 11
66.7015537018
 21
149.4826005191
 31
0.0
  0
LINE
  5
24F
330
1F
100
AcDbEntity
  8
0
  6
Continuous
 62
     7
370
    15
100
AcDbLine
 10
67.8384384354
 20
151.7108009548
 30
0.0
 11
67.7354042981
 21
151.4774599463
 31
0.0
  0
LINE
  5
250
330
1F
100
AcDbEntity
  8
0
  6
Continuous
 62
     7
370
    15
100
AcDbLine
 10
66.1816500923
 20
142.7487844021
 30
0.0
 11
66.3320195725
 21
142.9305524916
 31
0.0
  0
LINE
  5
251
330
1F
100
AcDbEntity
  8
0
  6
Continuous
 62
     7
370
    15
100
AcDbLine
 10
72.1778557034
 20
144.6083822638
 30
0.0
 11
73.2846878799
 21
151.9932450146
 31
0.0
  0
LINE
  5
252
330
1F
100
AcDbEntity
  8
0
  6
Continuous
 62
     7
370
    15
100
AcDbLine
 10
76.5702565531
 20
143.9910718591
 30
0.0
 11
77.6770887295
 21
151.3759346098
 31
0.0
  0
LINE
  5
253
330
1F
100
AcDbEntity
  8
0
  6
Continuous
 62
     7
370
    15
100
AcDbLine
 10
76.5702565531
 20
143.9910718591
 30
0.0
 11
72.1778557034
 21
144.6083822638
 31
0.0
  0
LINE
  5
254
330
1F
100
AcDbEntity
  8
0
  6
Continuous
 62
     7
370
    15
100
AcDbLine
 10
76.8462241957
 20
144.031904766
 30
0.0
 11
76.5702565531
 21
143.9910718591
 31
0.0
  0
LINE
  5
255
330
1F
100
AcDbEntity
  8
0
  6
Continuous
 62
     7
370
    15
100
AcDbLine
 10
77.9452453697
 20
151.3646507055
 30
0.0
 11
76.8462241957
 21
144.031904766
 31
0.0
  0
LINE
  5
256
330
1F
100
AcDbEntity
  8
0
  6
Continuous
 62
     7
370
    15
100
AcDbLine
 10
75.9103730651
 20
140.5287311763
 30
0.0
 11
76.5702565531
 21
143.9910718591
 31
0.0
  0
LINE
  5
257
330
1F
100
AcDbEntity
  8
0
  6
Continuous
 62
     7
370
    15
100
AcDbLine
 10
76.8462241957
 20
144.031904766
 30
0.0
 11
76.1715624811
 21
140.4920221657
 31
0.0
  0
ARC
  5
258
330
1F
100
AcDbEntity
  8
0
  6
Continuous
 62
     7
370
    15
100
AcDbCircle
 10
75.1407552533
 20
152.0345462457
 30
0.0
 40
2.620449730342421
100
AcDbArc
 50
345.4434549335
 51
9.4990280684
  0
ARC
  5
259
330
1F
100
AcDbEntity
  8
0
  6
Continuous
 62
     7
370
    15
100
AcDbCircle
 10
75.8666440718
 20
151.8569419261
 30
0.0
 40
2.136102526042464
100
AcDbArc
 50
346.6757059099
 51
7.1681543684
  0
INSERT
  5
265
330
1F
100
AcDbEntity
  8
VERMASSUNG
100
AcDbBlockReference
  2
SW_CENTERMARKSYMBOL_0
 10
68.7639247025
 20
108.7930427284
 30
0.0
  0
OLE2FRAME
  5
266
330
1F
100
AcDbEntity
  8
0
100
AcDbOle2Frame
 70
     2
  3
Paintbrush-Bild
 10
13.8511154363
 20
38.264191557
 30
0.0
 11
51.6290888628
 21
31.9806341108
 31
0.0
 71
     2
 72
     0
 73
     1
 90
    12928
310
80552BED0767C5B32B40DDAF6807D121434000000000000000006FFBDDFB85D0
310
4940DDAF6807D121434000000000000000006FFBDDFB85D04940416F4BD60AFB
310
3F4000000000000000002BED0767C5B32B40416F4BD60AFB3F40000000000000
310
0000000000000100000000010000010000000100000000000100000000320000
310
D0CF11E0A1B11AE1000000000000000000000000000000003E000300FEFF0900
310
0600000000000000000000000100000001000000000000000010000002000000
310
01000000FEFFFFFF0000000000000000FFFFFFFFFFFFFFFFFFFFFFFFFFFFFFFF
310
FFFFFFFFFFFFFFFFFFFFFFFFFFFFFFFFFFFFFFFFFFFFFFFFFFFFFFFFFFFFFFFF
310
FFFFFFFFFFFFFFFFFFFFFFFFFFFFFFFFFFFFFFFFFFFFFFFFFFFFFFFFFFFFFFFF
310
FFFFFFFFFFFFFFFFFFFFFFFFFFFFFFFFFFFFFFFFFFFFFFFFFFFFFFFFFFFFFFFF
310
FFFFFFFFFFFFFFFFFFFFFFFFFFFFFFFFFFFFFFFFFFFFFFFFFFFFFFFFFFFFFFFF
310
FFFFFFFFFFFFFFFFFFFFFFFFFFFFFFFFFFFFFFFFFFFFFFFFFFFFFFFFFFFFFFFF
310
FFFFFFFFFFFFFFFFFFFFFFFFFFFFFFFFFFFFFFFFFFFFFFFFFFFFFFFFFFFFFFFF
310
FFFFFFFFFFFFFFFFFFFFFFFFFFFFFFFFFFFFFFFFFFFFFFFFFFFFFFFFFFFFFFFF
310
FFFFFFFFFFFFFFFFFFFFFFFFFFFFFFFFFFFFFFFFFFFFFFFFFFFFFFFFFFFFFFFF
310
FFFFFFFFFFFFFFFFFFFFFFFFFFFFFFFFFFFFFFFFFFFFFFFFFFFFFFFFFFFFFFFF
310
FFFFFFFFFFFFFFFFFFFFFFFFFFFFFFFFFFFFFFFFFFFFFFFFFFFFFFFFFFFFFFFF
310
FFFFFFFFFFFFFFFFFFFFFFFFFFFFFFFFFFFFFFFFFFFFFFFFFFFFFFFFFFFFFFFF
310
FFFFFFFFFFFFFFFFFFFFFFFFFFFFFFFFFFFFFFFFFFFFFFFFFFFFFFFFFFFFFFFF
310
FFFFFFFFFFFFFFFFFFFFFFFFFFFFFFFFFFFFFFFFFFFFFFFFFFFFFFFFFFFFFFFF
310
FDFFFFFFFEFFFFFFFEFFFFFFFEFFFFFF05000000060000000700000008000000
310
090000000A0000000B0000000C0000000D0000000E0000000F00000010000000
310
11000000120000001300000014000000150000001600000017000000FEFFFFFF
310
FFFFFFFFFFFFFFFFFFFFFFFFFFFFFFFFFFFFFFFFFFFFFFFFFFFFFFFFFFFFFFFF
310
FFFFFFFFFFFFFFFFFFFFFFFFFFFFFFFFFFFFFFFFFFFFFFFFFFFFFFFFFFFFFFFF
310
FFFFFFFFFFFFFFFFFFFFFFFFFFFFFFFFFFFFFFFFFFFFFFFFFFFFFFFFFFFFFFFF
310
FFFFFFFFFFFFFFFFFFFFFFFFFFFFFFFFFFFFFFFFFFFFFFFFFFFFFFFFFFFFFFFF
310
FFFFFFFFFFFFFFFFFFFFFFFFFFFFFFFFFFFFFFFFFFFFFFFFFFFFFFFFFFFFFFFF
310
FFFFFFFFFFFFFFFFFFFFFFFFFFFFFFFFFFFFFFFFFFFFFFFFFFFFFFFFFFFFFFFF
310
FFFFFFFFFFFFFFFFFFFFFFFFFFFFFFFFFFFFFFFFFFFFFFFFFFFFFFFFFFFFFFFF
310
FFFFFFFFFFFFFFFFFFFFFFFFFFFFFFFFFFFFFFFFFFFFFFFFFFFFFFFFFFFFFFFF
310
FFFFFFFFFFFFFFFFFFFFFFFFFFFFFFFFFFFFFFFFFFFFFFFFFFFFFFFFFFFFFFFF
310
FFFFFFFFFFFFFFFFFFFFFFFFFFFFFFFFFFFFFFFFFFFFFFFFFFFFFFFFFFFFFFFF
310
FFFFFFFFFFFFFFFFFFFFFFFFFFFFFFFFFFFFFFFFFFFFFFFFFFFFFFFFFFFFFFFF
310
FFFFFFFFFFFFFFFFFFFFFFFFFFFFFFFFFFFFFFFFFFFFFFFFFFFFFFFFFFFFFFFF
310
FFFFFFFFFFFFFFFFFFFFFFFFFFFFFFFFFFFFFFFFFFFFFFFFFFFFFFFFFFFFFFFF
310
52006F006F007400200045006E00740072007900000000000000000000000000
310
0000000000000000000000000000000000000000000000000000000000000000
310
16000500FFFFFFFFFFFFFFFF020000000A00030000000000C000000000000046
310
000000000000000000000000D06914A6B923CD0103000000C000000000000000
310
01004F006C006500000000000000000000000000000000000000000000000000
310
0000000000000000000000000000000000000000000000000000000000000000
310
0A000200FFFFFFFFFFFFFFFFFFFFFFFF00000000000000000000000000000000
310
0000000000000000000000000000000000000000000000001400000000000000
310
010043006F006D0070004F0062006A0000000000000000000000000000000000
310
0000000000000000000000000000000000000000000000000000000000000000
310
120002010100000003000000FFFFFFFF00000000000000000000000000000000
310
0000000000000000000000000000000000000000010000004D00000000000000
310
01004F006C006500310030004E00610074006900760065000000000000000000
310
0000000000000000000000000000000000000000000000000000000000000000
310
1A000200FFFFFFFFFFFFFFFFFFFFFFFF00000000000000000000000000000000
310
0000000000000000000000000000000000000000040000002426000000000000
310
FEFFFFFF02000000FEFFFFFFFFFFFFFFFFFFFFFFFFFFFFFFFFFFFFFFFFFFFFFF
310
FFFFFFFFFFFFFFFFFFFFFFFFFFFFFFFFFFFFFFFFFFFFFFFFFFFFFFFFFFFFFFFF
310
FFFFFFFFFFFFFFFFFFFFFFFFFFFFFFFFFFFFFFFFFFFFFFFFFFFFFFFFFFFFFFFF
310
FFFFFFFFFFFFFFFFFFFFFFFFFFFFFFFFFFFFFFFFFFFFFFFFFFFFFFFFFFFFFFFF
310
FFFFFFFFFFFFFFFFFFFFFFFFFFFFFFFFFFFFFFFFFFFFFFFFFFFFFFFFFFFFFFFF
310
FFFFFFFFFFFFFFFFFFFFFFFFFFFFFFFFFFFFFFFFFFFFFFFFFFFFFFFFFFFFFFFF
310
FFFFFFFFFFFFFFFFFFFFFFFFFFFFFFFFFFFFFFFFFFFFFFFFFFFFFFFFFFFFFFFF
310
FFFFFFFFFFFFFFFFFFFFFFFFFFFFFFFFFFFFFFFFFFFFFFFFFFFFFFFFFFFFFFFF
310
FFFFFFFFFFFFFFFFFFFFFFFFFFFFFFFFFFFFFFFFFFFFFFFFFFFFFFFFFFFFFFFF
310
FFFFFFFFFFFFFFFFFFFFFFFFFFFFFFFFFFFFFFFFFFFFFFFFFFFFFFFFFFFFFFFF
310
FFFFFFFFFFFFFFFFFFFFFFFFFFFFFFFFFFFFFFFFFFFFFFFFFFFFFFFFFFFFFFFF
310
FFFFFFFFFFFFFFFFFFFFFFFFFFFFFFFFFFFFFFFFFFFFFFFFFFFFFFFFFFFFFFFF
310
FFFFFFFFFFFFFFFFFFFFFFFFFFFFFFFFFFFFFFFFFFFFFFFFFFFFFFFFFFFFFFFF
310
FFFFFFFFFFFFFFFFFFFFFFFFFFFFFFFFFFFFFFFFFFFFFFFFFFFFFFFFFFFFFFFF
310
FFFFFFFFFFFFFFFFFFFFFFFFFFFFFFFFFFFFFFFFFFFFFFFFFFFFFFFFFFFFFFFF
310
FFFFFFFFFFFFFFFFFFFFFFFFFFFFFFFFFFFFFFFFFFFFFFFFFFFFFFFFFFFFFFFF
310
0100000200000000000000000000000000000000000000000000000000000000
310
0000000000000000000000000000000000000000000000000000000000000000
310
0100FEFF030A0000FFFFFFFF0A00030000000000C00000000000004607000000
310
5042727573680007000000504272757368000700000050427275736800F439B2
310
7100000000000000000000000000000000000000000000000000000000000000
310
0000000000000000000000000000000000000000000000000000000000000000
310
0000000000000000000000000000000000000000000000000000000000000000
310
0000000000000000000000000000000000000000000000000000000000000000
310
0000000000000000000000000000000000000000000000000000000000000000
310
0000000000000000000000000000000000000000000000000000000000000000
310
0000000000000000000000000000000000000000000000000000000000000000
310
0000000000000000000000000000000000000000000000000000000000000000
310
0000000000000000000000000000000000000000000000000000000000000000
310
0000000000000000000000000000000000000000000000000000000000000000
310
0000000000000000000000000000000000000000000000000000000000000000
310
0000000000000000000000000000000000000000000000000000000000000000
310
20260000424D0E260000000000003E00000028000000B40200006E0000000100
310
01000000000000000000130B0000130B00000200000002000000000000FFFFFF
310
FFFFFFFFFFFFFFFFFFFFFFFFFFFFFFFFFFFFFFFFFFFFFFFFFFFFFFFFFFFFFFFF
310
FFFFFFFFFFFFFFFFFFFFFFFFFFFFFFFFFFFFFFFFFFFFFFFFFFFFFFFFFFFFFFFF
310
FFFFFFFFFFFFFFFFFFFFFFFFFFFFFFFFFFFFFFFFFFFFFFFFF000FFFFFFFFFFFF
310
FFFFFFFFFFFFFFFFFFFFFFFFFFFFFFFFFFFFFFFFFFFFFFFFFFFFFFFFFFFFFFFF
310
FFFFFFFFFFFFFFFFFFFFFFFFFFFFFFFFFFFFFFFFFFFFFFFFFFFFFFFFFFFFFFFF
310
FFFFFFFFFFFFFFFFFFFFFFFFFFFFFFFFF000FFFFFFFFFFFFFFFFFFFFFFFFFFFF
310
FFFFFFFFFFFFFFFFFFFFFFFFFFFFFFFFFFFFFFFFFFFFFFFFFFFFFFFFFFFFFFFF
310
FFFFFFFFFFFFFFFFFFFFFFFFFFFFFFFFFFFFFFFFFFFFFFFFFFFFFFFFFFFFFFFF
310
FFFFFFFFFFFFFFFFF000FFFFFFFFFFFFFFFFFFFFFFFFFFFFFFFFFFFFFFFFFFFF
310
FFFFFFFFFFFFFFFFFFFFFFFFFFFFFFFFFFFFFFFFFFFFFFFFFFFFFFFFFFFFFFFF
310
FFFFFFFFFFFFFFFFFFFFFFFFFFFFFFFFFFFFFFFFFFFFFFFFFFFFFFFFFFFFFFFF
310
F000FFFFFFFFFFFFFFFFFFFFFFFFFFFFFFFFFFFFFFFFFFFFFFFFFFFFFFFFFFFF
310
FFFFFFFFFFFFFFFFFFFFFFFFFFFFFFFFFFFFFFFFFFFFFFFFFFFFFFFFFFFFFFFF
310
FFFFFFFFFFFFFFFFFFFFFFFFFFFFFFFFFFFFFFFFFFFFFFFFF000FFFFFFFFFFFF
310
FFFFFFFFFFFFFFFFFFFFFFFFFFFFFFFFFFFFFFFFFFFFFFFFFFFFFFFFFFFFFFFF
310
FFFFFFFFFFFFFFFFFFFFFFFFFFFFFFFFFFFFFFFFFFFFFFFFFFFFFFFFFFFFFFFF
310
FFFFFFFFFFFFFFFFFFFFFFFFFFFFFFFFF000FFFFFFFFFFFFFFFFFFFFFFFFFFFF
310
FFFFFFFFFFFFFFFFFFFFFFFFFFFFFFFFFFFFFFFFFFFFFFFFFFFFFFFFFFFFFFFF
310
FFFFFFFFFFFFFFFFFFFFFFFFFFFFFFFFFFFFFFFFFFFFFFFFFFFFFFFFFFFFFFFF
310
FFFFFFFFFFFFFFFFF000FFFFFFFFFFFFFFFFFFFFFFFFFFFFFFFFFFFFFFFFFFFF
310
FFFFFFFFFFFFFFFFFFFFFFFFFFFFFFFFFFFFFFFFFFFFFFFFFFFFFFFFFFFFFFFF
310
FFFFFFFFFFFFFFFFFFFFFFFFFFFFFFFFFFFFFFFFFFFFFFFFFFFFFFFFFFFFFFFF
310
F000FFFFFFFFFFFFFFFFFFFFFFFFFFFFFFFFFFFFFFFFFFFFFFFFFFFFFFFFFFFF
310
FFFFFFFFFFFFFFFFFFFFFFFFFFFFFFFFFFFFFFFFFFFFFFFFFFFFFFFFFFFFFFFF
310
FFFFFFFFFFFFFFFFFFFFFFFFFFFFFFFFFFFFFFFFFFFFFFFFF000FFFFFFFFFFFF
310
FFFFFFFFFFFFFFFFFFFFFFFFFFFFFFFFFFFFFFFFFFFFFFFFFFFFFFFFFFFFFFFF
310
FFFFFFFFFFFFFFFFFFFFFFFFFFFFFFFFFFFFFFFFFFFFFFFFFFFFFFFFFFFFFFFF
310
FFFFFFFFFFFFFFFFFFFFFFFFFFFFFFFFF000FFFFFFFFFFFFFFFFFFFFFFFFFFFF
310
FFFFFFFFFFFFFFFFFFFFFFFFFFFFFFFFFFFFFFFFFFFFFFFFFFFFFFFFFFFFFFFF
310
FFFFFFFFFFFFFFFFFFFFFFFFFFFFFFFFFFFFFFFFFFFFFFFFFFFFFFFFFFFFFFFF
310
FFFFFFFFFFFFFFFFF000FFFFFFFFFFFFFFFFFFFFFFFFFFFFFFFFFFFFFFFFFFFF
310
FFFFFFFFFFFFFFFFFFFFFFFFFFFFFFFFFFFFFFFFFFFFFFFFFFFFFFFFFFFFFFFF
310
FFFFFFFFFFFFFFFFFFFFFFFFFFFFFFFFFFFFFFFFFFFFFFFFFFFFFFFFFFFFFFFF
310
F000FFFFFFFFFFFFFFFFFFFFFFFFFFFFFFFFFFFFFFFFFFFFFFFFFFFFFFFFFFFF
310
FFFFFFFFFFFFFFFFFFFFFFFFFFFFFFFFFFFFFFFFFFFFFFFFFFFFFFFFFFFFFFFF
310
FFFFFFFFFFFFFFFFFFFFFFFFFFFFFFFFFFFFFFFFFFFFFFFFF000FFFFFFFFFFFF
310
FFFFFFFFFFFFFFFFFFFFFFFFFFFFFFFFFFFFFFFFFFFFFFFFFFFFFFFFFFFFFFFF
310
FFFFFFFFFFFFFFFFFFFFFFFFFFFFFFFFFFFFFFFFFFFFFFFFFFFFFFFFFFFFFFFF
310
FFFFFFFFFFFFFFFFFFFFFFFFFFFFFFFFF000FFFFFFFFFFFFFFFFFFFFFFFFFFFF
310
FFFFFFFFFFFFFFFFFFFFFFFFFFFFFFFFFFFFFFFFFFFFFFFFFFFFFFFFFFFFFFFF
310
FFFFFFFFFFFFFFFFFFFFFFFFFFFFFFFFFFFFFFFFFFFFFFFFFFFFFFFFFFFFFFFF
310
FFFFFFFFFFFFFFFFF000FFFFFFFFFFFFFFFFFFFFFFFFFFFFFFFFFFFFFFFFFFFF
310
FFFFFFFFFFFFFFFFFFFFFFFFFFFFFFFFFFFFFFFFFFFFFFFFFFFFFFFFFFFFFFFF
310
FFFFFFFFFFFFFFFFFFFFFFFFFFFFFFFFFFFFFFFFFFFFFFFFFFFFFFFFFFFFFFFF
310
F000FFFFFFFFFFFFFFFFFFFFFFFFFFFFFFFFFFFFFFFFFFFFFFFFFFFFFFFFFFFF
310
FFFFFFFFFFFFFFFFFFFFFFFFFFFFFFFFFFFFFFFFFFFFFFFFFFFFFFFFFFFFFFFF
310
FFFFFFFFFFFFFFFFFFFFFFFFFFFFFFFFFFFFFFFFFFFFFFFFF000FFFFFFFFFFFF
310
FFFFFFFFFFFFFFFFFFFFFFFFFFFFFFFFFFFFFFFFFFFFFFFFFFFFFFFFFFFFFFFF
310
FFFFFFFFFFFFFFFFFFFFFFFFFFFFFFFFFFFFFFFFFFFFFFFFFFFFFFFFFFFFFFFF
310
FFFFFFFFFFFFFFFFFFFFFFFFFFFFFFFFF000FFFFFFFFFFFFFFFFFFFFFFFFFFFF
310
FFFFFFFFFFFFFFFFFFFFFFFFFFFFFFFFFFFFFFFFFFFFFFFFFFFFFFFFFFFFFFFF
310
FFFFFFFFFFFFFFFFFFFFFFFFFFFFFFFFFFFFFFFFFFFFFFFFFFFFFFFFFFFFFFFF
310
FFFFFFFFFFFFFFFFF000FFFFF80003FFFFFFFFFFFFFFFFFFFFFFFFFFFFFFFFFF
310
FFFFF00007FFFFFFFFFF00007FFFFFF800000000000000007FFFFFFFFFFFFFFF
310
FFFFFFFC001FFFFFFFFFFFFFFC001FFFFFFFFFFFFFFFFFFFFFFFFFFE0007FFFF
310
F000FFFF8000007FFFFFFFF8000FFFFFC0007FFFFF80007FFFFF0000007FFFFF
310
FFF8000007FFFFF800000000000000007FFFFFF0001FFFFFFFFFFFC00001FFFF
310
FFFFFFFFC00001FFFFFFFF000000000003FFFFE000007FFFF000FFFE0000000F
310
FFFFFFF0000FFFFF80007FFFFF80007FFFFC0000001FFFFFFFC0000001FFFFF8
310
00000000000000007FFFFFF0001FFFFFFFFFFE0000003FFFFFFFFFFE0000003F
310
FFFFFF000000000003FFFF0000000FFFF000FFF800000003FFFFFFF00007FFFF
310
80007FFFFF80007FFFF000000007FFFFFF000000003FFFF80000000000000000
310
7FFFFFF0001FFFFFFFFFF80000000FFFFFFFFFF80000000FFFFFFF0000000000
310
03FFFC00000003FFF000FFE000000000FFFFFFF00007FFFF80003FFFFF80007F
310
FFC000000001FFFFFC000000001FFFF800000000000000007FFFFFF0001FFFFF
310
FFFFE000000003FFFFFFFFE000000003FFFFFF000000000003FFF000000000FF
310
F000FF80000000007FFFFFF00007FFFF80003FFFFF80007FFF8000000000FFFF
310
F80000000007FFF800000000000000007FFFFFF0001FFFFFFFFFC000000001FF
310
FFFFFFC000000001FFFFFF000000000003FFC0000000007FF000FF0000000000
310
3FFFFFE00007FFFF00003FFFFF80007FFE00000000003FFFF00000000003FFF8
310
00000000000000007FFFFFF0001FFFFFFFFF8000000000FFFFFFFF8000000000
310
FFFFFF000000000003FF80000000003FF000FE00000000001FFFFFE00003FFFF
310
00003FFFFF80007FFC00000000001FFFE00000000001FFF8000001FFFE000000
310
7FFFFFF0001FFFFFFFFE00000000003FFFFFFE00000000003FFFFF0000000000
310
03FF00000000001FF000FC00000000000FFFFFE00003FFFF00001FFFFF80007F
310
F800000000001FFFC00000000000FFF8000001FFFE0000007FFFFFF0001FFFFF
310
FFFC00000000001FFFFFFC00000000001FFFFF000000000003FE00000000000F
310
F000F8000000000007FFFFE00003FFFF00001FFFFF80007FF800000000000FFF
310
800000000000FFF8000001FFFE0000007FFFFFF0001FFFFFFFF800000000000F
310
FFFFF800000000000FFFFF000000000003FC000000000007F000F80000000000
310
03FFFFC00003FFFE00001FFFFF80007FF0000000000007FF0000000000007FF8
310
000001FFFE0000007FFFFFF0001FFFFFFFF0000000000007FFFFF00000000000
310
07FFFF000000000003F8000000000003F000F0000000000003FFFFC00001FFFE
310
00001FFFFF80007FE0000000000007FE0000000000003FF8000001FFFE000000
310
7FFFFFF0001FFFFFFFF0000000000007FFFFF0000000000007FFFF0000000000
310
03F800001F800003F000E00001FFF00001FFFFC00001FFFE00000FFFFF80007F
310
E00001FFE00003FE00001FFF00003FF8000001FFFE0000007FFFFFF0001FFFFF
310
FFE000003E000003FFFFE000003E000003FFFF000000000003F00001FFF80001
310
F000E00007FFFC0001FFFFC00001FFFE00000FFFFF80007FC0000FFFFC0003FC
310
0000FFFFC0001FF8000001FFFE0000007FFFFFF0001FFFFFFFC00003FFE00001
310
FFFFC00003FFE00001FFFF0001FFFFFFFFF00007FFFE0001F000E0000FFFFF00
310
00FFFF800001FFFC00000FFFFF80007FC0001FFFFE0001FC0001FFFFE0001FF8
310
000001FFFE0000007FFFFFF0001FFFFFFF80000FFFF80000FFFF80000FFFF800
310
00FFFF0003FFFFFFFFE0000FFFFF8000F000C0003FFFFF8000FFFF800000FFFC
310
000007FFFF80007F80003FFFFF0001FC0003FFFFF0001FF8000001FFFE000000
310
7FFFFFF0001FFFFFFF80003FFFFE0000FFFF80003FFFFE0000FFFF0003FFFFFF
310
FFE0003FFFFF8000F000C0003FFFFF8000FFFF800000FFFC000007FFFF80007F
310
80007FFFFF8001F80007FFFFF8000FF8000001FFFE0000007FFFFFF0001FFFFF
310
FF00007FFFFF00007FFF00007FFFFF00007FFF0003FFFFFFFFE0003FFFFFC000
310
F000C0007FFFFFC000FFFF000000FFFC000007FFFF80007F8000FFFFFF8000F8
310
000FFFFFF8000FF8000001FFFE0000007FFFFFF0001FFFFFFF0000FFFFFF8000
310
7FFF0000FFFFFF80007FFF0003FFFFFFFFC0007FFFFFC00070008000FFFFFFC0
310
00FFFF000000FFF8000007FFFF80007F8000FFFFFF8000F8000FFFFFF8000FF8
310
000001FFFE0000007FFFFFF0001FFFFFFE0001FFFFFFC0003FFE0001FFFFFFC0
310
003FFF0003FFFFFFFFC0007FFFFFE00070008000FFFFFFC0007FFF0000007FF8
310
000003FFFF80007F0001FFFFFF8000F8000FFFFFF8000FF8000001FFFE000000
310
7FFFFFF0001FFFFFFE0001FFFFFFC0003FFE0001FFFFFFC0003FFF0003FFFFFF
310
FFC000FFFFFFE00070008000FFFFFFC0007FFF0000007FF8000003FFFF80007F
310
0001FFFFFF8000F8001FFFFFF8000FF8000001FFFE0000007FFFFFF0001FFFFF
310
FE0003FFFFFFE0003FFE0003FFFFFFE0003FFF0003FFFFFFFFC000FFFFFFE000
310
70008000FFFFFFC0007FFE0000007FF8000003FFFF80007F0001FFFFFF8000F0
310
001FFFFFF8000FF8000001FFFE0000007FFFFFF0001FFFFFFC0003FFFFFFE000
310
1FFC0003FFFFFFE0001FFF0003FFFFFFFFC000FFFFFFC00070008000FFFFFF80
310
007FFE0000007FF0000003FFFF80007F0001FFFFFF0000F0001FFFFFF8000FF8
310
000001FFFE0000007FFFFFF0001FFFFFFC0007FFFFFFF0001FFC0007FFFFFFF0
310
001FFF0003FFFFFFFFC000FFFFFFC00070008001FFFFFF0000FFFE0000003FF0
310
000001FFFF80007F0001FFFFFF0000F8001FFFFFF0000FF8000001FFFE000000
310
7FFFFFF0001FFFFFFC0007FFFFFFF0001FFC0007FFFFFFF0001FFF0003FFFFFF
310
FFC001FFFFFF80007000FFFFFFFFFE0000FFFE0008003FF0008001FFFF80007F
310
FFFFFFFFFC0000FFFFFFFFFFE0000FF8000001FFFE0000007FFFFFF0001FFFFF
310
F8000FFFFFFFF8000FF8000FFFFFFFF8000FFF0003FFFFFFFFFFFFFFFFFF0000
310
7000FFFFFFFFFC0000FFFC0008003FF0008001FFFF80007FFFFFFFFFF80001FF
310
FFFFFFFF80000FF8000001FFFE0000007FFFFFF0001FFFFFF8000FFFFFFFF800
310
0FF8000FFFFFFFF8000FFF0003FFFFFFFFFFFFFFFFFE0000F000FFFFFFFFE000
310
00FFFC000C003FE000C001FFFF80007FFFFFFFFFC00001FFFFFFFFFE00001FF8
310
000001FFFE0000007FFFFFF0001FFFFFF8000FFFFFFFF8000FF8000FFFFFFFF8
310
000FFF0003FFFFFFFFFFFFFFFFF00000F000FFFFFFFE000001FFFC000C001FE0
310
00C000FFFF80007FFFFFFFFE000001FFFFFFFFE000001FF80FFFFFFFFFFFFFC0
310
7FFFFFF0001FFFFFF8000FFFFFFFF8000FF8000FFFFFFFF8000FFF0003FFFFFF
310
FFFFFFFFFF800000F000FFFFFFC0000001FFFC001C001FE001C000FFFF80007F
310
FFFFFF80000003FFFFFFF80000001FF80FFFFFFFFFFFFFC07FFFFFF0001FFFFF
310
F8001FFFFFFFFC000FF8001FFFFFFFFC000FFF0003FFFFFFFFFFFFFFF0000001
310
F000FFFFF800000001FFF8001C001FE001C000FFFF80007FFFFFF800000003FF
310
FFFF800000003FF80FFFFFFFFFFFFFC07FFFFFF0001FFFFFF8001FFFFFFFFC00
310
0FF8001FFFFFFFFC000FFF0003FFFFFFFFFFFFFE00000001F000FFFFC0000000
310
03FFF8001E001FC001E000FFFF80007FFFFF8000000007FFFFFC000000003FF8
310
0FFFFFFFFFFFFFC07FFFFFF0001FFFFFF8001FFFFFFFFC000FF8001FFFFFFFFC
310
000FFF0003FFFFFFFFFFFFE000000003F000FFFE0000000007FFF8001E000FC0
310
01E0007FFF80007FFFFE0000000007FFFFE0000000007FF80FFFFFFFFFFFFFC0
310
7FFFFFF0001FFFFFF0001FFFFFFFFC0007F0001FFFFFFFFC0007FF0003FFFFFF
310
FFFFFF0000000003F000FFF80000000007FFF8001E000FC003E0007FFF80007F
310
FFF0000000000FFFFF8000000000FFF80FFFFFFFFFFFFFC07FFFFFF0001FFFFF
310
F0001FFFFFFFFC0007F0001FFFFFFFFC0007FF0003FFFFFFFFFFFC0000000007
310
F000FFE0000000000FFFF0003E000FC003E0007FFF80007FFFC0000000001FFF
310
FE0000000001FFF80FFFFFFFFFFFFFC07FFFFFF0001FFFFFF0001FFFFFFFFC00
310
07F0001FFFFFFFFC0007FF0003FFFFFFFFFFF0000000000FF000FFC000000000
310
1FFFF0003F000F8003F0003FFF80007FFF80000000003FFFF80000000003FFF8
310
0FFFFFFFFFFFFFC07FFFFFF0001FFFFFF0001FFFFFFFFC0007F0001FFFFFFFFC
310
0007FF0003FFFFFFFFFFE0000000001FF000FF00000000007FFFF0003F000780
310
03F0003FFF80007FFF00000000007FFFF00000000007FFF80FFFFFFFFFFFFFC0
310
7FFFFFF0001FFFFFF0001FFFFFFFFC0007F0001FFFFFFFFC0007FF0003FFFFFF
310
FFFF80000000007FF000FE0000000000FFFFE0003F00078007F0003FFF80007F
310
FE0000000001FFFFE0000000001FFFF80FFFFFFFFFFFFFC07FFFFFF0001FFFFF
310
F0001FFFFFFFFC0007F0001FFFFFFFFC0007FF0003FFFFFFFFFF0000000000FF
310
F000FC0000000003FFFFE0007F00078007F0003FFF80007FFC0000000007FFFF
310
C0000000007FFFF80FFFFFFFFFFFFFC07FFFFFF0001FFFFFF8001FFFFFFFFC00
310
0FF8001FFFFFFFFC000FFF0003FFFFFFFFFE0000000003FFF000FC000000000F
310
FFFFE0007F80070007F8001FFF80007FF8000000001FFFFF8000000001FFFFF8
310
0FFFFFFFFFFFFFC07FFFFFF0001FFFFFF8001FFFFFFFFC000FF8001FFFFFFFFC
310
000FFF0003FFFFFFFFFC000000000FFFF000F8000000007FFFFFE0007F800700
310
07F8001FFF80007FF000000000FFFFFF800000000FFFFFF80FFFFFFFFFFFFFC0
310
7FFFFFF0001FFFFFF8000FFFFFFFF8000FF8000FFFFFFFF8000FFF0003FFFFFF
310
FFFC000000007FFFF000F800000007FFFFFFC0007F8003000FF8001FFF80007F
310
F000000007FFFFFF000000007FFFFFF80FFFFFFFFFFFFFC07FFFFFF0001FFFFF
310
F8000FFFFFFFF8000FF8000FFFFFFFF8000FFF0003FFFFFFFFF80000000FFFFF
310
F000F0000000FFFFFFFFC000FF8003000FF8001FFF80007FE0000000FFFFFFFF
310
0000000FFFFFFFF8000001FFFE0000007FFFFFF0001FFFFFF8000FFFFFFFF800
310
0FF8000FFFFFFFF8000FFF0003FFFFFFFFF8000000FFFFFFF000F000000FFFFF
310
FFFFC000FFC002000FF8000FFF80007FE000001FFFFFFFFE000001FFFFFFFFF8
310
000001FFFE0000007FFFFFF0001FFFFFF8000FFFFFFFF8000FF8000FFFFFFFF8
310
000FFF0003FFFFFFFFF000001FFFFFFFF000E00000FFFFFFFFFFC000FFC00200
310
0FFC000FFF80007FE00001FFFFFFFFFE00001FFFFFFFFFF8000001FFFE000000
310
7FFFFFF0001FFFFFFC000FFFFFFFF8001FFC000FFFFFFFF8001FFF0003FFFFFF
310
FFF00001FFFFFFFFF000E00007FFFFFFFFFF8000FFC000001FFC000FFF80007F
310
C0000FFFFFFFFFFE0000FFFFFFFFFFF8000001FFFE0000007FFFFFF0001FFFFF
310
FC0007FFFFFFF0001FFC0007FFFFFFF0001FFF0003FFFFFFFFF00007FFFFFFFF
310
F000E0001FFFFFFFFFFF8000FFC000001FFC000FFF80007FC0003FFFFFFFFFFE
310
0001FFFFFFFFFFF8000001FFFE0000007FFFFFF0001FFFFFFC0007FFFFFFF000
310
1FFC0007FFFFFFF0001FFF0003FFFFFFFFF0001FFFFFFFFFF000E0003FFFFF00
310
03FF8001FFE000001FFC0007FF80007FC0007FFFFF0007FC0003FFFFF0003FF8
310
000001FFFE0000007FFFFFF0001FFFFFFC0003FFFFFFE0001FFC0003FFFFFFE0
310
001FFF0003FFFFFFFFF0003FFFFFFFFFF000E0003FFFFF0001FF8001FFE00000
310
1FFE0007FF80007FC0007FFFFE0003FC0007FFFFE0003FF8000001FFFE000000
310
7FFFFFF0001FFFFFFE0003FFFFFFE0003FFE0003FFFFFFE0003FFF0003FFFFFF
310
FFF0003FFFFF8001F000E0003FFFFF0001FF0001FFE000001FFE0007FF80007F
310
C0007FFFFE0003FC0007FFFFE0003FF8000001FFFE0000007FFFFFF0001FFFFF
310
FE0001FFFFFFC0003FFE0001FFFFFFC0003FFF0003FFFFFFFFF0003FFFFF0001
310
F000E0003FFFFF0003FF0001FFE000003FFE0007FF80007FC0007FFFFE0003FC
310
0007FFFFE0003FF8000001FFFE0000007FFFFFF0001FFFFFFF0001FFFFFFC000
310
7FFF0001FFFFFFC0007FFF0003FFFFFFFFF0003FFFFF0001F000E0003FFFFE00
310
03FF0003FFF000003FFE0003FF80007FC0007FFFFC0003FE0007FFFFE0003FF8
310
000001FFFE0000007FFFFFF0001FFFFFFF0000FFFFFF80007FFF0000FFFFFF80
310
007FFF0003FFFFFFFFF0003FFFFF0001F000E0003FFFFE0003FF0003FFF00000
310
3FFF0003FF80007FC0007FFFFC0007FE0007FFFFC0003FF8000001FFFE000000
310
7FFFFFF0001FFFFFFF80007FFFFF0000FFFF80007FFFFF0000FFFF0003FFFFFF
310
FFF0003FFFFF0003F000E0003FFFFC0003FE0003FFF000003FFF0003FF80007F
310
E0003FFFF80007FE0003FFFFC0007FF8000001FFFE0000007FFFFFF0001FFFFF
310
FF80003FFFFE0000FFFF80003FFFFE0000FFFF0003FFFFFFFFF0001FFFFE0003
310
F000F0001FFFF80003FE0003FFF000007FFF0001FF80007FE0003FFFF00007FE
310
0001FFFF80007FF8000001FFFE0000007FFFFFF0001FFFFFFFC0000FFFF80001
310
FFFFC0000FFFF80001FFFF0003FFFFFFFFF0001FFFFC0003F000F0000FFFF000
310
07FE0007FFF800007FFF0001FF80007FE0001FFFE00007FF0000FFFE00007FF8
310
000001FFFE0000007FFFFFF0001FFFFFFFC00003FFE00001FFFFC00003FFE000
310
01FFFF0003FFFFFFFFF8000FFFF80003F000F00003FFC00007FC0007FFF80000
310
7FFF8001FF80007FF00007FF80000FFF00007FF80000FFF8000001FFFE000000
310
7F80000000000001FFE000003E000003FFFFE000003E000003FFFF0003FFFFFF
310
FFF80003FFE00007F000F800000000000FFC0007FFF800007FFF8001FF80007F
310
F000000000000FFF000000000000FFF8000001FFFE0000007F80000000000001
310
FFF0000000000007FFFFF0000000000007FFFF0003FFFFFFFFFC00007E000007
310
F000F800000000000FFC0007FFF80000FFFF8000FF80007FF800000000001FFF
310
800000000001FFF8000001FFFE0000007F80000000000001FFF800000000000F
310
FFFFF800000000000FFFFF0003FFFFFFFFFC00000000000FF000FC0000000000
310
1FFC0007FFFC0000FFFF8000FF80007FF800000000003FFFC00000000001FFF8
310
000001FFFE0000007F80000000000001FFF800000000000FFFFFF80000000000
310
0FFFFF0003FFFFFFFFFE00000000001FF000FE00000000003FF8000FFFFC0000
310
FFFF8000FF80007FFC00000000003FFFC00000000003FFF8000001FFFE000000
310
7F80000000000001FFFC00000000001FFFFFFC00000000001FFFFF0003FFFFFF
310
FFFF00000000001FF000FF00000000003FF8000FFFFC0000FFFFC000FF80007F
310
FE00000000007FFFE00000000007FFF8000001FFFE0000007F80000000000001
310
FFFE00000000003FFFFFFE00000000003FFFFF0003FFFFFFFFFF80000000003F
310
F000FF80000000007FF8000FFFFC0001FFFFC0007F80007FFF0000000000FFFF
310
F0000000000FFFF800000000000000007F80000000000001FFFF8000000000FF
310
FFFFFF8000000000FFFFFF0003FFFFFFFFFFC0000000007FF000FFC000000000
310
FFF8000FFFFE0001FFFFC0007F80007FFF8000000001FFFFF8000000001FFFF8
310
00000000000000007F80000000000001FFFFC000000001FFFFFFFFC000000001
310
FFFFFF0003FFFFFFFFFFE000000000FFF000FFE000000003FFF0001FFFFE0001
310
FFFFC0007F80007FFFC000000007FFFFFE000000003FFFF80000000000000000
310
7F80000000000001FFFFE000000003FFFFFFFFE000000003FFFFFF0003FFFFFF
310
FFFFF000000003FFF000FFF80000000FFFF0001FFFFE0001FFFFE0007F80007F
310
FFF00000000FFFFFFF00000000FFFFF800000000000000007F80000000000001
310
FFFFF80000000FFFFFFFFFF80000000FFFFFFF0003FFFFFFFFFFFC0000000FFF
310
F000FFFE0000003FFFF0001FFFFE0003FFFFE0003F80007FFFFC0000003FFFFF
310
FFC0000003FFFFF800000000000000007F80000000000001FFFFFE0000003FFF
310
FFFFFFFE0000003FFFFFFF0003FFFFFFFFFFFF0000003FFFF000FFFF800000FF
310
FFF0001FFFFF0003FFFFE0003F80007FFFFF000001FFFFFFFFF800001FFFFFF8
310
00000000000000007F80000000000001FFFFFFC00001FFFFFFFFFFFFC00001FF
310
FFFFFF0003FFFFFFFFFFFFC00000FFFFF000FFFFF8000FFFFFFFFFFFFFFFFFFF
310
FFFFFFFFFFFFFFFFFFFFF0001FFFFFFFFFFF0000FFFFFFF80000000000000000
310
7FFFFFFFFFFFFFFFFFFFFFFC001FFFFFFFFFFFFFFC001FFFFFFFFFFFFFFFFFFF
310
FFFFFFFC001FFFFFF000FFFFFFFFFFFFFFFFFFFFFFFFFFFFFFFFFFFFFFFFFFFF
310
FFFFFFFFFFFFFFFFFFFFFFFFFFFFFFFFFFFFFFFFFFFFFFFFFFFFFFFFFFFFFFFF
310
FFFFFFFFFFFFFFFFFFFFFFFFFFFFFFFFFFFFFFFFFFFFFFFFFFFFFFFFFFFFFFFF
310
F000FFFFFFFFFFFFFFFFFFFFFFFFFFFFFFFFFFFFFFFFFFFFFFFFFFFFFFFFFFFF
310
FFFFFFFFFFFFFFFFFFFFFFFFFFFFFFFFFFFFFFFFFFFFFFFFFFFFFFFFFFFFFFFF
310
FFFFFFFFFFFFFFFFFFFFFFFFFFFFFFFFFFFFFFFFFFFFFFFFF000FFFFFFFFFFFF
310
FFFFFFFFFFFFFFFFFFFFFFFFFFFFFFFFFFFFFFFFFFFFFFFFFFFFFFFFFFFFFFFF
310
FFFFFFFFFFFFFFFFFFFFFFFFFFFFFFFFFFFFFFFFFFFFFFFFFFFFFFFFFFFFFFFF
310
FFFFFFFFFFFFFFFFFFFFFFFFFFFFFFFFF000FFFFFFFFFFFFFFFFFFFFFFFFFFFF
310
FFFFFFFFFFFFFFFFFFFFFFFFFFFFFFFFFFFFFFFFFFFFFFFFFFFFFFFFFFFFFFFF
310
FFFFFFFFFFFFFFFFFFFFFFFFFFFFFFFFFFFFFFFFFFFFFFFFFFFFFFFFFFFFFFFF
310
FFFFFFFFFFFFFFFFF000FFFFFFFFFFFFFFFFFFFFFFFFFFFFFFFFFFFFFFFFFFFF
310
FFFFFFFFFFFFFFFFFFFFFFFFFFFFFFFFFFFFFFFFFFFFFFFFFFFFFFFFFFFFFFFF
310
FFFFFFFFFFFFFFFFFFFFFFFFFFFFFFFFFFFFFFFFFFFFFFFFFFFFFFFFFFFFFFFF
310
F000FFFFFFFFFFFFFFFFFFFFFFFFFFFFFFFFFFFFFFFFFFFFFFFFFFFFFFFFFFFF
310
FFFFFFFFFFFFFFFFFFFFFFFFFFFFFFFFFFFFFFFFFFFFFFFFFFFFFFFFFFFFFFFF
310
FFFFFFFFFFFFFFFFFFFFFFFFFFFFFFFFFFFFFFFFFFFFFFFFF000FFFFFFFFFFFF
310
FFFFFFFFFFFFFFFFFFFFFFFFFFFFFFFFFFFFFFFFFFFFFFFFFFFFFFFFFFFFFFFF
310
FFFFFFFFFFFFFFFFFFFFFFFFFFFFFFFFFFFFFFFFFFFFFFFFFFFFFFFFFFFFFFFF
310
FFFFFFFFFFFFFFFFFFFFFFFFFFFFFFFFF000FFFFFFFFFFFFFFFFFFFFFFFFFFFF
310
FFFFFFFFFFFFFFFFFFFFFFFFFFFFFFFFFFFFFFFFFFFFFFFFFFFFFFFFFFFFFFFF
310
FFFFFFFFFFFFFFFFFFFFFFFFFFFFFFFFFFFFFFFFFFFFFFFFFFFFFFFFFFFFFFFF
310
FFFFFFFFFFFFFFFFF000FFFFFFFFFFFFFFFFFFFFFFFFFFFFFFFFFFFFFFFFFFFF
310
FFFFFFFFFFFFFFFFFFFFFFFFFFFFFFFFFFFFFFFFFFFFFFFFFFFFFFFFFFFFFFFF
310
FFFFFFFFFFFFFFFFFFFFFFFFFFFFFFFFFFFFFFFFFFFFFFFFFFFFFFFFFFFFFFFF
310
F000FFFFFFFFFFFFFFFFFFFFFFFFFFFFFFFFFFFFFFFFFFFFFFFFFFFFFFFFFFFF
310
FFFFFFFFFFFFFFFFFFFFFFFFFFFFFFFFFFFFFFFFFFFFFFFFFFFFFFFFFFFFFFFF
310
FFFFFFFFFFFFFFFFFFFFFFFFFFFFFFFFFFFFFFFFFFFFFFFFF000FFFFFFFFFFFF
310
FFFFFFFFFFFFFFFFFFFFFFFFFFFFFFFFFFFFFFFFFFFFFFFFFFFFFFFFFFFFFFFF
310
FFFFFFFFFFFFFFFFFFFFFFFFFFFFFFFFFFFFFFFFFFFFFFFFFFFFFFFFFFFFFFFF
310
FFFFFFFFFFFFFFFFFFFFFFFFFFFFFFFFF000FFFFFFFFFFFFFFFFFFFFFFFFFFFF
310
FFFFFFFFFFFFFFFFFFFFFFFFFFFFFFFFFFFFFFFFFFFFFFFFFFFFFFFFFFFFFFFF
310
FFFFFFFFFFFFFFFFFFFFFFFFFFFFFFFFFFFFFFFFFFFFFFFFFFFFFFFFFFFFFFFF
310
FFFFFFFFFFFFFFFFF000FFFFFFFFFFFFFFFFFFFFFFFFFFFFFFFFFFFFFFFFFFFF
310
FFFFFFFFFFFFFFFFFFFFFFFFFFFFFFFFFFFFFFFFFFFFFFFFFFFFFFFFFFFFFFFF
310
FFFFFFFFFFFFFFFFFFFFFFFFFFFFFFFFFFFFFFFFFFFFFFFFFFFFFFFFFFFFFFFF
310
F000FFFFFFFFFFFFFFFFFFFFFFFFFFFFFFFFFFFFFFFFFFFFFFFFFFFFFFFFFFFF
310
FFFFFFFFFFFFFFFFFFFFFFFFFFFFFFFFFFFFFFFFFFFFFFFFFFFFFFFFFFFFFFFF
310
FFFFFFFFFFFFFFFFFFFFFFFFFFFFFFFFFFFFFFFFFFFFFFFFF000FFFFFFFFFFFF
310
FFFFFFFFFFFFFFFFFFFFFFFFFFFFFFFFFFFFFFFFFFFFFFFFFFFFFFFFFFFFFFFF
310
FFFFFFFFFFFFFFFFFFFFFFFFFFFFFFFFFFFFFFFFFFFFFFFFFFFFFFFFFFFFFFFF
310
FFFFFFFFFFFFFFFFFFFFFFFFFFFFFFFFF000FFFFFFFFFFFFFFFFFFFFFFFFFFFF
310
FFFFFFFFFFFFFFFFFFFFFFFFFFFFFFFFFFFFFFFFFFFFFFFFFFFFFFFFFFFFFFFF
310
FFFFFFFFFFFFFFFFFFFFFFFFFFFFFFFFFFFFFFFFFFFFFFFFFFFFFFFFFFFFFFFF
310
FFFFFFFFFFFFFFFFF000FFFFFFFFFFFFFFFFFFFFFFFFFFFFFFFFFFFFFFFFFFFF
310
FFFFFFFFFFFFFFFFFFFFFFFFFFFFFFFFFFFFFFFFFFFFFFFFFFFFFFFFFFFFFFFF
310
FFFFFFFFFFFFFFFFFFFFFFFFFFFFFFFFFFFFFFFFFFFFFFFFFFFFFFFFFFFFFFFF
310
F000FFFFFFFFFFFFFFFFFFFFFFFFFFFFFFFFFFFFFFFFFFFFFFFFFFFFFFFFFFFF
310
FFFFFFFFFFFFFFFFFFFFFFFFFFFFFFFFFFFFFFFFFFFFFFFFFFFFFFFFFFFFFFFF
310
FFFFFFFFFFFFFFFFFFFFFFFFFFFFFFFFFFFFFFFFFFFFFFFFF000FFFFFFFFFFFF
310
FFFFFFFFFFFFFFFFFFFFFFFFFFFFFFFFFFFFFFFFFFFFFFFFFFFFFFFFFFFFFFFF
310
FFFFFFFFFFFFFFFFFFFFFFFFFFFFFFFFFFFFFFFFFFFFFFFFFFFFFFFFFFFFFFFF
310
FFFFFFFFFFFFFFFFFFFFFFFFFFFFFFFFF000FFFFFFFFFFFFFFFFFFFFFFFFFFFF
310
FFFFFFFFFFFFFFFFFFFFFFFFFFFFFFFFFFFFFFFFFFFFFFFFFFFFFFFFFFFFFFFF
310
FFFFFFFFFFFFFFFFFFFFFFFFFFFFFFFFFFFFFFFFFFFFFFFFFFFFFFFFFFFFFFFF
310
FFFFFFFFFFFFFFFFF000FFFFFFFFFFFFFFFFFFFFFFFFFFFFFFFFFFFFFFFFFFFF
310
FFFFFFFFFFFFFFFFFFFFFFFFFFFFFFFFFFFFFFFFFFFFFFFFFFFFFFFFFFFFFFFF
310
FFFFFFFFFFFFFFFFFFFFFFFFFFFFFFFFFFFFFFFFFFFFFFFFFFFFFFFFFFFFFFFF
310
F000FFFFFFFFFFFFFFFFFFFFFFFFFFFFFFFFFFFFFFFFFFFFFFFFFFFFFFFFFFFF
310
FFFFFFFFFFFFFFFFFFFFFFFFFFFFFFFFFFFFFFFFFFFFFFFFFFFFFFFFFFFFFFFF
310
FFFFFFFFFFFFFFFFFFFFFFFFFFFFFFFFFFFFFFFFFFFFFFFFF000FFFFFFFFFFFF
310
FFFFFFFFFFFFFFFFFFFFFFFFFFFFFFFFFFFFFFFFFFFFFFFFFFFFFFFFFFFFFFFF
310
FFFFFFFFFFFFFFFFFFFFFFFFFFFFFFFFFFFFFFFFFFFFFFFFFFFFFFFFFFFFFFFF
310
FFFFFFFFFFFFFFFFFFFFFFFFFFFFFFFFF0000000000000000000000000000000
310
0000000000000000000000000000000000000000000000000000000000000000
310
0000000000000000000000000000000000000000000000000000000000000000
310
0000000000000000000000000000000000000000000000000000000000000000
310
0000000000000000000000000000000000000000000000000000000000000000
310
0000000000000000000000000000000000000000000000000000000000000000
310
0000000000000000000000000000000000000000000000000000000000000000
310
0000000000000000000000000000000000000000000000000000000000000000
310
0000000000000000000000000000000000000000000000000000000000000000
310
0000000000000000000000000000000000000000000000000000000000000000
310
0000000000000000000000000000000000000000000000000000000000000000
310
0000000000000000000000000000000000000000000000000000000000000000
310
0000000000000000000000000000000000000000000000000000000000000000
310
0000000000000000000000000000000000000000000000000000000000000000
310
0000000000000000000000000000000000000000000000000000000000000000
310
0000000000000000000000000000000000000000000000000000000000000000
  1
OLE
  0
ENDSEC
  0
SECTION
  2
OBJECTS
  0
DICTIONARY
  5
C
330
0
100
AcDbDictionary
281
     1
  3
ACAD_GROUP
350
D
  3
ACAD_LAYOUT
350
1A
  3
ACAD_MLINESTYLE
350
17
  3
ACAD_PLOTSETTINGS
350
19
  3
ACAD_PLOTSTYLENAME
350
E
  0
DICTIONARY
  5
D
102
{ACAD_REACTORS
330
C
102
}
330
C
100
AcDbDictionary
281
     1
  0
DICTIONARY
  5
1A
102
{ACAD_REACTORS
330
C
102
}
330
C
100
AcDbDictionary
281
     1
  3
Layout1
350
1E
  3
Layout2
350
26
  3
Model
350
22
  0
DICTIONARY
  5
17
102
{ACAD_REACTORS
330
C
102
}
330
C
100
AcDbDictionary
281
     1
  3
Standard
350
18
  0
DICTIONARY
  5
19
102
{ACAD_REACTORS
330
C
102
}
330
C
100
AcDbDictionary
281
     1
  0
ACDBDICTIONARYWDFLT
  5
E
102
{ACAD_REACTORS
330
C
102
}
330
C
100
AcDbDictionary
281
     1
  3
Normal
350
F
100
AcDbDictionaryWithDefault
340
F
  0
LAYOUT
  5
1E
102
{ACAD_REACTORS
330
1A
102
}
330
1A
100
AcDbPlotSettings
  1

  2
none_device
  4

  6

 40
0.0
 41
0.0
 42
0.0
 43
0.0
 44
0.0
 45
0.0
 46
0.0
 47
0.0
 48
0.0
 49
0.0
140
0.0
141
0.0
142
1.0
143
1.0
 70
   688
 72
     0
 73
     0
 74
     5
  7

 75
    16
147
1.0
148
0.0
149
0.0
100
AcDbLayout
  1
Layout1
 70
     1
 71
     1
 10
0.0
 20
0.0
 11
420.0
 21
297.0
 12
0.0
 22
0.0
 32
0.0
 14
1.0000000000E+20
 24
1.0000000000E+20
 34
1.0000000000E+20
 15
-1.0000000000E+20
 25
-1.0000000000E+20
 35
-1.0000000000E+20
146
0.0
 13
0.0
 23
0.0
 33
0.0
 16
1.0
 26
0.0
 36
0.0
 17
0.0
 27
1.0
 37
0.0
 76
     0
330
1B
  0
LAYOUT
  5
26
102
{ACAD_REACTORS
330
1A
102
}
330
1A
100
AcDbPlotSettings
  1

  2
none_device
  4

  6

 40
0.0
 41
0.0
 42
0.0
 43
0.0
 44
0.0
 45
0.0
 46
0.0
 47
0.0
 48
0.0
 49
0.0
140
0.0
141
0.0
142
1.0
143
1.0
 70
   688
 72
     0
 73
     0
 74
     5
  7

 75
    16
147
1.0
148
0.0
149
0.0
100
AcDbLayout
  1
Layout2
 70
     1
 71
     2
 10
0.0
 20
0.0
 11
0.0
 21
0.0
 12
0.0
 22
0.0
 32
0.0
 14
0.0
 24
0.0
 34
0.0
 15
0.0
 25
0.0
 35
0.0
146
0.0
 13
0.0
 23
0.0
 33
0.0
 16
1.0
 26
0.0
 36
0.0
 17
0.0
 27
1.0
 37
0.0
 76
     0
330
23
  0
LAYOUT
  5
22
102
{ACAD_REACTORS
330
1A
102
}
330
1A
100
AcDbPlotSettings
  1

  2
none_device
  4

  6

 40
0.0
 41
0.0
 42
0.0
 43
0.0
 44
0.0
 45
0.0
 46
0.0
 47
0.0
 48
0.0
 49
0.0
140
0.0
141
0.0
142
1.0
143
1.0
 70
  1712
 72
     0
 73
     0
 74
     0
  7

 75
     0
147
1.0
148
0.0
149
0.0
100
AcDbLayout
  1
Model
 70
     1
 71
     0
 10
0.0
 20
0.0
 11
297.0
 21
210.0
 12
0.0
 22
0.0
 32
0.0
 14
0.0
 24
0.0
 34
0.0
 15
297.0
 25
210.0
 35
0.0
146
0.0
 13
0.0
 23
0.0
 33
0.0
 16
1.0
 26
0.0
 36
0.0
 17
0.0
 27
1.0
 37
0.0
 76
     0
330
1F
331
29
  0
MLINESTYLE
  5
18
102
{ACAD_REACTORS
330
17
102
}
330
17
100
AcDbMlineStyle
  2
Standard
 70
     0
  3

 62
   256
 51
90.0
 52
90.0
 71
     2
 49
0.5
 62
   256
  6
BYLAYER
 49
-0.5
 62
   256
  6
BYLAYER
  0
ACDBPLACEHOLDER
  5
F
102
{ACAD_REACTORS
330
E
102
}
330
E
  0
ENDSEC
  0
EOF
