  0
SECTION
  2
HEADER
  9
$ACADVER
  1
AC1015
  9
$ACADMAINTVER
 70
     6
  9
$DWGCODEPAGE
  3
ANSI_1252
  9
$INSBASE
 10
0.0
 20
0.0
 30
0.0
  9
$EXTMIN
 10
0.0
 20
0.0
 30
0.0
  9
$EXTMAX
 10
297.0
 20
210.0
 30
0.0
  9
$LIMMIN
 10
0.0
 20
0.0
  9
$LIMMAX
 10
297.0
 20
210.0
  9
$ORTHOMODE
 70
     0
  9
$REGENMODE
 70
     1
  9
$FILLMODE
 70
     1
  9
$QTEXTMODE
 70
     0
  9
$MIRRTEXT
 70
     1
  9
$LTSCALE
 40
1.0
  9
$ATTMODE
 70
     1
  9
$TEXTSIZE
 40
2.0
  9
$TRACEWID
 40
1.0
  9
$TEXTSTYLE
  7
Standard
  9
$CLAYER
  8
0
  9
$CELTYPE
  6
ByLayer
  9
$CECOLOR
 62
   256
  9
$CELTSCALE
 40
1.0
  9
$DISPSILH
 70
     0
  9
$DIMSCALE
 40
1.0
  9
$DIMASZ
 40
3.0
  9
$DIMEXO
 40
0.0
  9
$DIMDLI
 40
3.75
  9
$DIMRND
 40
0.0
  9
$DIMDLE
 40
0.0
  9
$DIMEXE
 40
1.0
  9
$DIMTP
 40
0.0
  9
$DIMTM
 40
0.0
  9
$DIMTXT
 40
2.0
  9
$DIMCEN
 40
2.5
  9
$DIMTSZ
 40
0.0
  9
$DIMTOL
 70
     0
  9
$DIMLIM
 70
     0
  9
$DIMTIH
 70
     1
  9
$DIMTOH
 70
     1
  9
$DIMSE1
 70
     0
  9
$DIMSE2
 70
     0
  9
$DIMTAD
 70
     1
  9
$DIMZIN
 70
     0
  9
$DIMBLK
  1

  9
$DIMASO
 70
     1
  9
$DIMSHO
 70
     1
  9
$DIMPOST
  1

  9
$DIMAPOST
  1

  9
$DIMALT
 70
     0
  9
$DIMALTD
 70
     3
  9
$DIMALTF
 40
0.0393700787
  9
$DIMLFAC
 40
1.0
  9
$DIMTOFL
 70
     1
  9
$DIMTVP
 40
0.0
  9
$DIMTIX
 70
     0
  9
$DIMSOXD
 70
     0
  9
$DIMSAH
 70
     0
  9
$DIMBLK1
  1

  9
$DIMBLK2
  1

  9
$DIMSTYLE
  2
ISO-25
  9
$DIMCLRD
 70
     0
  9
$DIMCLRE
 70
     0
  9
$DIMCLRT
 70
     0
  9
$DIMTFAC
 40
1.0
  9
$DIMGAP
 40
1.524
  9
$DIMJUST
 70
     0
  9
$DIMSD1
 70
     0
  9
$DIMSD2
 70
     0
  9
$DIMTOLJ
 70
     0
  9
$DIMTZIN
 70
     0
  9
$DIMALTZ
 70
     0
  9
$DIMALTTZ
 70
     0
  9
$DIMUPT
 70
     0
  9
$DIMDEC
 70
     2
  9
$DIMTDEC
 70
     3
  9
$DIMALTU
 70
     2
  9
$DIMALTTD
 70
     3
  9
$DIMTXSTY
  7
Standard
  9
$DIMAUNIT
 70
     0
  9
$DIMADEC
 70
     2
  9
$DIMALTRND
 40
0.0
  9
$DIMAZIN
 70
     0
  9
$DIMDSEP
 70
    44
  9
$DIMATFIT
 70
     3
  9
$DIMFRAC
 70
     0
  9
$DIMLDRBLK
  1

  9
$DIMLUNIT
 70
     2
  9
$DIMLWD
 70
    -2
  9
$DIMLWE
 70
    -2
  9
$DIMTMOVE
 70
     0
  9
$LUNITS
 70
     2
  9
$LUPREC
 70
     2
  9
$SKETCHINC
 40
1.0
  9
$FILLETRAD
 40
10.0
  9
$AUNITS
 70
     0
  9
$AUPREC
 70
     2
  9
$MENU
  1
.
  9
$ELEVATION
 40
0.0
  9
$PELEVATION
 40
0.0
  9
$THICKNESS
 40
0.0
  9
$LIMCHECK
 70
     0
  9
$CHAMFERA
 40
0.0
  9
$CHAMFERB
 40
0.0
  9
$CHAMFERC
 40
0.0
  9
$CHAMFERD
 40
0.0
  9
$SKPOLY
 70
     0
  9
$TDCREATE
 40
2459048.561019375
  9
$TDUCREATE
 40
2459048.477686042
  9
$TDUPDATE
 40
2459048.561020567
  9
$TDUUPDATE
 40
2459048.477687234
  9
$TDINDWG
 40
0.0000000116
  9
$TDUSRTIMER
 40
0.0000000116
  9
$USRTIMER
 70
     1
  9
$ANGBASE
 50
0.0
  9
$ANGDIR
 70
     0
  9
$PDMODE
 70
     0
  9
$PDSIZE
 40
-1.0
  9
$PLINEWID
 40
0.0
  9
$SPLFRAME
 70
     0
  9
$SPLINETYPE
 70
     6
  9
$SPLINESEGS
 70
     8
  9
$HANDSEED
  5
23F
  9
$SURFTAB1
 70
     6
  9
$SURFTAB2
 70
     6
  9
$SURFTYPE
 70
     6
  9
$SURFU
 70
     6
  9
$SURFV
 70
     6
  9
$UCSBASE
  2

  9
$UCSNAME
  2

  9
$UCSORG
 10
0.0
 20
0.0
 30
0.0
  9
$UCSXDIR
 10
1.0
 20
0.0
 30
0.0
  9
$UCSYDIR
 10
0.0
 20
1.0
 30
0.0
  9
$UCSORTHOREF
  2

  9
$UCSORTHOVIEW
 70
     0
  9
$UCSORGTOP
 10
0.0
 20
0.0
 30
0.0
  9
$UCSORGBOTTOM
 10
0.0
 20
0.0
 30
0.0
  9
$UCSORGLEFT
 10
0.0
 20
0.0
 30
0.0
  9
$UCSORGRIGHT
 10
0.0
 20
0.0
 30
0.0
  9
$UCSORGFRONT
 10
0.0
 20
0.0
 30
0.0
  9
$UCSORGBACK
 10
0.0
 20
0.0
 30
0.0
  9
$PUCSBASE
  2

  9
$PUCSNAME
  2

  9
$PUCSORG
 10
0.0
 20
0.0
 30
0.0
  9
$PUCSXDIR
 10
1.0
 20
0.0
 30
0.0
  9
$PUCSYDIR
 10
0.0
 20
1.0
 30
0.0
  9
$PUCSORTHOREF
  2

  9
$PUCSORTHOVIEW
 70
     0
  9
$PUCSORGTOP
 10
0.0
 20
0.0
 30
0.0
  9
$PUCSORGBOTTOM
 10
0.0
 20
0.0
 30
0.0
  9
$PUCSORGLEFT
 10
0.0
 20
0.0
 30
0.0
  9
$PUCSORGRIGHT
 10
0.0
 20
0.0
 30
0.0
  9
$PUCSORGFRONT
 10
0.0
 20
0.0
 30
0.0
  9
$PUCSORGBACK
 10
0.0
 20
0.0
 30
0.0
  9
$USERI1
 70
     0
  9
$USERI2
 70
     0
  9
$USERI3
 70
     0
  9
$USERI4
 70
     0
  9
$USERI5
 70
     0
  9
$USERR1
 40
0.0
  9
$USERR2
 40
0.0
  9
$USERR3
 40
0.0
  9
$USERR4
 40
0.0
  9
$USERR5
 40
0.0
  9
$WORLDVIEW
 70
     1
  9
$SHADEDGE
 70
     3
  9
$SHADEDIF
 70
    70
  9
$TILEMODE
 70
     1
  9
$MAXACTVP
 70
    64
  9
$PINSBASE
 10
0.0
 20
0.0
 30
0.0
  9
$PLIMCHECK
 70
     0
  9
$PEXTMIN
 10
1.0000000000E+20
 20
1.0000000000E+20
 30
1.0000000000E+20
  9
$PEXTMAX
 10
-1.0000000000E+20
 20
-1.0000000000E+20
 30
-1.0000000000E+20
  9
$PLIMMIN
 10
0.0
 20
0.0
  9
$PLIMMAX
 10
420.0
 20
297.0
  9
$UNITMODE
 70
     0
  9
$VISRETAIN
 70
     1
  9
$PLINEGEN
 70
     0
  9
$PSLTSCALE
 70
     1
  9
$TREEDEPTH
 70
  3020
  9
$CMLSTYLE
  2
Standard
  9
$CMLJUST
 70
     0
  9
$CMLSCALE
 40
20.0
  9
$PROXYGRAPHICS
 70
     1
  9
$MEASUREMENT
 70
     1
  9
$CELWEIGHT
370
    -1
  9
$ENDCAPS
280
     0
  9
$JOINSTYLE
280
     0
  9
$LWDISPLAY
290
     1
  9
$INSUNITS
 70
     4
  9
$HYPERLINKBASE
  1

  9
$STYLESHEET
  1

  9
$XEDIT
290
     1
  9
$CEPSNTYPE
380
     0
  9
$PSTYLEMODE
290
     1
  9
$FINGERPRINTGUID
  2
{C7C58F8A-96E5-4799-AF6A-2CDE7869F82A}
  9
$VERSIONGUID
  2
{FAEB1C32-E019-11D5-929B-00C0DF256EC4}
  9
$EXTNAMES
290
     1
  9
$PSVPSCALE
 40
0.0
  9
$OLESTARTUP
290
     0
  0
ENDSEC
  0
SECTION
  2
CLASSES
  0
CLASS
  1
ACDBDICTIONARYWDFLT
  2
AcDbDictionaryWithDefault
  3
ObjectDBX Classes
 90
        0
280
     0
281
     0
  0
CLASS
  1
VISUALSTYLE
  2
AcDbVisualStyle
  3
ObjectDBX Classes
 90
     4095
280
     0
281
     0
  0
CLASS
  1
MATERIAL
  2
AcDbMaterial
  3
ObjectDBX Classes
 90
     1153
280
     0
281
     0
  0
CLASS
  1
SCALE
  2
AcDbScale
  3
ObjectDBX Classes
 90
     1153
280
     0
281
     0
  0
CLASS
  1
TABLESTYLE
  2
AcDbTableStyle
  3
ObjectDBX Classes
 90
     4095
280
     0
281
     0
  0
CLASS
  1
MLEADERSTYLE
  2
AcDbMLeaderStyle
  3
ACDB_MLEADERSTYLE_CLASS
 90
     4095
280
     0
281
     0
  0
CLASS
  1
SUN
  2
AcDbSun
  3
SCENEOE
 90
     1153
280
     0
281
     0
  0
CLASS
  1
ACDBPLACEHOLDER
  2
AcDbPlaceHolder
  3
ObjectDBX Classes
 90
        0
280
     0
281
     0
  0
CLASS
  1
LAYOUT
  2
AcDbLayout
  3
ObjectDBX Classes
 90
        0
280
     0
281
     0
  0
ENDSEC
  0
SECTION
  2
TABLES
  0
TABLE
  2
VPORT
  5
8
330
0
100
AcDbSymbolTable
 70
     1
  0
VPORT
  5
29
330
8
100
AcDbSymbolTableRecord
100
AcDbViewportTableRecord
  2
*Active
 70
     0
 10
0.0
 20
0.0
 11
1.0
 21
1.0
 12
148.5
 22
105.0
 13
0.0
 23
0.0
 14
10.0
 24
10.0
 15
10.0
 25
10.0
 16
0.0
 26
0.0
 36
1.0
 17
0.0
 27
0.0
 37
0.0
 40
210.0
 41
1.4142857143
 42
50.0
 43
0.0
 44
0.0
 50
0.0
 51
0.0
 71
     0
 72
  2000
 73
     1
 74
     3
 75
     0
 76
     0
 77
     0
 78
     0
281
     0
 65
     1
110
0.0
120
0.0
130
0.0
111
1.0
121
0.0
131
0.0
112
0.0
122
1.0
132
0.0
 79
     0
146
0.0
  0
ENDTAB
  0
TABLE
  2
LTYPE
  5
5
330
0
100
AcDbSymbolTable
 70
     6
  0
LTYPE
  5
14
330
5
100
AcDbSymbolTableRecord
100
AcDbLinetypeTableRecord
  2
ByBlock
 70
     0
  3

 72
    65
 73
     0
 40
0.0
  0
LTYPE
  5
15
330
5
100
AcDbSymbolTableRecord
100
AcDbLinetypeTableRecord
  2
ByLayer
 70
     0
  3

 72
    65
 73
     0
 40
0.0
  0
LTYPE
  5
16
330
5
100
AcDbSymbolTableRecord
100
AcDbLinetypeTableRecord
  2
Continuous
 70
     0
  3
Solid line
 72
    65
 73
     0
 40
0.0
  0
LTYPE
  5
6E
330
5
100
AcDbSymbolTableRecord
100
AcDbLinetypeTableRecord
  2
HIDDEN
 70
     0
  3
Hidden __ __ __ __ __ __ __ __ __ __ __ __ __ __
 72
    65
 73
     2
 40
1.905
 49
1.27
 74
     0
 49
-0.635
 74
     0
  0
LTYPE
  5
6F
330
5
100
AcDbSymbolTableRecord
100
AcDbLinetypeTableRecord
  2
PHANTOM
 70
     0
  3
Phantom ______  __  __  ______  __  __  ______
 72
    65
 73
     6
 40
12.7
 49
6.35
 74
     0
 49
-1.27
 74
     0
 49
1.27
 74
     0
 49
-1.27
 74
     0
 49
1.27
 74
     0
 49
-1.27
 74
     0
  0
LTYPE
  5
70
330
5
100
AcDbSymbolTableRecord
100
AcDbLinetypeTableRecord
  2
CENTER
 70
     0
  3
Center ____ _ ____ _ ____ _ ____ _ ____ _ ____
 72
    65
 73
     4
 40
10.16
 49
6.35
 74
     0
 49
-1.27
 74
     0
 49
1.27
 74
     0
 49
-1.27
 74
     0
  0
LTYPE
  5
71
330
5
100
AcDbSymbolTableRecord
100
AcDbLinetypeTableRecord
  2
CENTERX2
 70
     0
  3
Center (2x) ________  __  ________  __  _____
 72
    65
 73
     4
 40
20.32
 49
12.7
 74
     0
 49
-2.54
 74
     0
 49
2.54
 74
     0
 49
-2.54
 74
     0
  0
LTYPE
  5
72
330
5
100
AcDbSymbolTableRecord
100
AcDbLinetypeTableRecord
  2
DOT2
 70
     0
  3
Dot (.5x) ........................................
 72
    65
 73
     2
 40
0.635
 49
0.0
 74
     0
 49
-0.635
 74
     0
  0
ENDTAB
  0
TABLE
  2
LAYER
  5
2
330
0
100
AcDbSymbolTable
 70
     5
  0
LAYER
  5
10
330
2
100
AcDbSymbolTableRecord
100
AcDbLayerTableRecord
  2
0
 70
     0
 62
     7
  6
Continuous
370
    -3
390
F
  0
LAYER
  5
73
330
2
100
AcDbSymbolTableRecord
100
AcDbLayerTableRecord
  2
FORMAT
 70
     0
 62
     7
  6
Continuous
370
    -3
390
F
  0
LAYER
  5
74
330
2
100
AcDbSymbolTableRecord
100
AcDbLayerTableRecord
  2
VERMASSUNG
 70
     0
 62
     7
  6
Continuous
370
    -3
390
F
  0
LAYER
  5
75
330
2
100
AcDbSymbolTableRecord
100
AcDbLayerTableRecord
  2
KOPF_DÜNN
 70
     0
 62
     7
  6
Continuous
370
    -3
390
F
  0
LAYER
  5
76
330
2
100
AcDbSymbolTableRecord
100
AcDbLayerTableRecord
  2
KOPF_DICK
 70
     0
 62
     7
  6
Continuous
370
    25
390
F
  0
ENDTAB
  0
TABLE
  2
STYLE
  5
3
330
0
100
AcDbSymbolTable
 70
     2
  0
STYLE
  5
11
330
3
100
AcDbSymbolTableRecord
100
AcDbTextStyleTableRecord
  2
Standard
 70
     0
 40
0.0
 41
1.0
 50
0.0
 71
     0
 42
2.0
  3
txt
  4

  0
STYLE
  5
77
330
3
100
AcDbSymbolTableRecord
100
AcDbTextStyleTableRecord
  2
SLDTEXTSTYLE0
 70
     0
 40
0.0
 41
0.7
 50
0.0
 71
     0
 42
2.0
  3
TXT
  4

  0
ENDTAB
  0
TABLE
  2
VIEW
  5
6
330
0
100
AcDbSymbolTable
 70
     0
  0
ENDTAB
  0
TABLE
  2
UCS
  5
7
330
0
100
AcDbSymbolTable
 70
     0
  0
ENDTAB
  0
TABLE
  2
APPID
  5
9
330
0
100
AcDbSymbolTable
 70
     1
  0
APPID
  5
12
330
9
100
AcDbSymbolTableRecord
100
AcDbRegAppTableRecord
  2
ACAD
 70
     0
  0
ENDTAB
  0
TABLE
  2
DIMSTYLE
  5
A
330
0
100
AcDbSymbolTable
 70
     4
100
AcDbDimStyleTable
  0
DIMSTYLE
105
27
330
A
100
AcDbSymbolTableRecord
100
AcDbDimStyleTableRecord
  2
ISO-25
 70
     0
 41
2.5
 42
0.625
 43
3.75
 44
1.25
 73
     0
 74
     0
 77
     1
 78
     8
140
2.5
141
2.5
143
0.0393700787
147
0.625
171
     3
172
     1
178
     0
271
     2
272
     2
274
     3
278
    44
283
     0
284
     8
340
11
  0
DIMSTYLE
105
14E
102
{ACAD_REACTORS
330
14D
102
}
330
A
100
AcDbSymbolTableRecord
100
AcDbDimStyleTableRecord
  2
SLDDIMSTYLE0
 70
     0
 41
3.0
 44
0.0
 45
0.000000001
 73
     0
 74
     0
 76
     1
 77
     1
 78
    12
 79
     3
140
2.0
144
0.5
147
0.5
173
     1
178
     0
271
     2
272
     3
276
     2
282
     1
284
    12
340
77
  0
DIMSTYLE
105
15D
102
{ACAD_REACTORS
330
15C
102
}
330
A
100
AcDbSymbolTableRecord
100
AcDbDimStyleTableRecord
  2
SLDDIMSTYLE1
 70
     0
 41
3.0
 44
0.0
 45
0.000000001
 73
     0
 74
     0
 77
     1
 78
    12
 79
     3
140
2.0
144
0.5
147
0.5
173
     1
178
     0
271
     2
272
     3
276
     2
284
    12
340
77
  0
DIMSTYLE
105
169
102
{ACAD_REACTORS
330
168
102
}
330
A
100
AcDbSymbolTableRecord
100
AcDbDimStyleTableRecord
  2
SLDDIMSTYLE2
 70
     0
 41
3.0
 44
0.0
 73
     0
 74
     0
 77
     1
 78
    12
 79
     3
140
2.0
144
0.5
147
0.5
173
     1
178
     0
179
     2
272
     3
276
     2
284
    12
340
77
  0
ENDTAB
  0
TABLE
  2
BLOCK_RECORD
  5
1
330
0
100
AcDbSymbolTable
 70
     4
  0
BLOCK_RECORD
  5
1F
330
1
100
AcDbSymbolTableRecord
100
AcDbBlockTableRecord
  2
*Model_Space
340
22
  0
BLOCK_RECORD
  5
1B
330
1
100
AcDbSymbolTableRecord
100
AcDbBlockTableRecord
  2
*Paper_Space
340
1E
  0
BLOCK_RECORD
  5
23
330
1
100
AcDbSymbolTableRecord
100
AcDbBlockTableRecord
  2
*Paper_Space0
340
26
  0
BLOCK_RECORD
  5
14F
330
1
100
AcDbSymbolTableRecord
100
AcDbBlockTableRecord
  2
_D
340
0
  0
BLOCK_RECORD
  5
15E
330
1
100
AcDbSymbolTableRecord
100
AcDbBlockTableRecord
  2
_D_1
340
0
  0
BLOCK_RECORD
  5
16A
330
1
100
AcDbSymbolTableRecord
100
AcDbBlockTableRecord
  2
_D_2
340
0
  0
ENDTAB
  0
ENDSEC
  0
SECTION
  2
BLOCKS
  0
BLOCK
  5
20
330
1F
100
AcDbEntity
  8
0
100
AcDbBlockBegin
  2
*Model_Space
 70
     0
 10
0.0
 20
0.0
 30
0.0
  3
*Model_Space
  1

  0
ENDBLK
  5
21
330
1F
100
AcDbEntity
  8
0
100
AcDbBlockEnd
  0
BLOCK
  5
1C
330
1B
100
AcDbEntity
 67
     1
  8
0
100
AcDbBlockBegin
  2
*Paper_Space
 70
     0
 10
0.0
 20
0.0
 30
0.0
  3
*Paper_Space
  1

  0
ENDBLK
  5
1D
330
1B
100
AcDbEntity
 67
     1
  8
0
100
AcDbBlockEnd
  0
BLOCK
  5
24
330
23
100
AcDbEntity
  8
0
100
AcDbBlockBegin
  2
*Paper_Space0
 70
     0
 10
0.0
 20
0.0
 30
0.0
  3
*Paper_Space0
  1

  0
ENDBLK
  5
25
330
23
100
AcDbEntity
  8
0
100
AcDbBlockEnd
  0
BLOCK
  5
150
330
14F
100
AcDbEntity
  8
0
100
AcDbBlockBegin
  2
_D
 70
     0
 10
0.0
 20
0.0
 30
0.0
  3
_D
  1

  0
SOLID
  5
152
330
14F
100
AcDbEntity
  8
VERMASSUNG
100
AcDbTrace
 10
213.4044635137
 20
142.8775655859
 30
0.0
 11
212.9544635137
 21
139.8775655859
 31
0.0
 12
213.8544635137
 22
139.8775655859
 32
0.0
 13
213.8544635137
 23
139.8775655859
 33
0.0
  0
LINE
  5
153
330
14F
100
AcDbEntity
  8
VERMASSUNG
100
AcDbLine
 10
187.7862913779
 20
142.8775655859
 30
0.0
 11
214.4044635137
 21
142.8775655859
 31
0.0
  0
LINE
  5
154
330
14F
100
AcDbEntity
  8
VERMASSUNG
100
AcDbLine
 10
213.4044635137
 20
142.8775655859
 30
0.0
 11
213.4044635137
 21
98.4272567822
 31
0.0
  0
MTEXT
  5
155
330
14F
100
AcDbEntity
  8
VERMASSUNG
100
AcDbMText
 10
202.8302087865
 20
100.6147210254
 30
0.0
 40
2.0
 41
0.0
 71
     1
 72
     1
  1
%%c
  7
SLDTEXTSTYLE0
 11
-1.770233605404514E-14
 21
1.0
 31
0.0
 73
     1
 44
1.0
  0
MTEXT
  5
156
330
14F
100
AcDbEntity
  8
VERMASSUNG
100
AcDbMText
 10
202.8302087282
 20
104.2247186416
 30
0.0
 40
2.0
 41
0.0
 71
     1
 72
     1
  1
84.9
  7
SLDTEXTSTYLE0
 11
-1.770233605404514E-14
 21
1.0
 31
0.0
 73
     1
 44
1.0
  0
MTEXT
  5
157
330
14F
100
AcDbEntity
  8
VERMASSUNG
100
AcDbMText
 10
202.8302087282
 20
109.2235696547
 30
0.0
 40
2.0
 41
0.0
 71
     1
 72
     1
  1
-105.1
  7
SLDTEXTSTYLE0
 11
-1.770233605404514E-14
 21
1.0
 31
0.0
 73
     1
 44
1.0
  0
MTEXT
  5
158
330
14F
100
AcDbEntity
  8
VERMASSUNG
100
AcDbMText
 10
206.828268614
 20
100.4116317822
 30
0.0
 40
2.0
 41
0.0
 71
     1
 72
     1
  1
%%c
  7
SLDTEXTSTYLE0
 11
-1.770233605404514E-14
 21
1.0
 31
0.0
 73
     1
 44
1.0
  0
MTEXT
  5
159
330
14F
100
AcDbEntity
  8
VERMASSUNG
100
AcDbMText
 10
206.6282686628
 20
104.0216317965
 30
0.0
 40
2.0
 41
0.0
 71
     1
 72
     1
  1
104.9-134.1
  7
SLDTEXTSTYLE0
 11
-1.770233605404514E-14
 21
1.0
 31
0.0
 73
     1
 44
1.0
  0
MTEXT
  5
15A
330
14F
100
AcDbEntity
  8
VERMASSUNG
100
AcDbMText
 10
210.8263282088
 20
100.8111824378
 30
0.0
 40
2.0
 41
0.0
 71
     1
 72
     1
  1
%%c
  7
SLDTEXTSTYLE0
 11
-1.770233605404514E-14
 21
1.0
 31
0.0
 73
     1
 44
1.0
  0
MTEXT
  5
15B
330
14F
100
AcDbEntity
  8
VERMASSUNG
100
AcDbMText
 10
210.6263282575
 20
104.4211824521
 30
0.0
 40
2.0
 41
0.0
 71
     1
 72
     1
  1
133.9-171.1
  7
SLDTEXTSTYLE0
 11
-1.770233605404514E-14
 21
1.0
 31
0.0
 73
     1
 44
1.0
  0
ENDBLK
  5
151
330
14F
100
AcDbEntity
  8
0
100
AcDbBlockEnd
  0
BLOCK
  5
15F
330
15E
100
AcDbEntity
  8
0
100
AcDbBlockBegin
  2
_D_1
 70
     0
 10
0.0
 20
0.0
 30
0.0
  3
_D_1
  1

  0
SOLID
  5
161
330
15E
100
AcDbEntity
  8
VERMASSUNG
100
AcDbTrace
 10
104.7862913779
 20
75.6979613397
 30
0.0
 11
107.7862913779
 21
75.2479613397
 31
0.0
 12
107.7862913779
 22
76.1479613397
 32
0.0
 13
107.7862913779
 23
76.1479613397
 33
0.0
  0
SOLID
  5
162
330
15E
100
AcDbEntity
  8
VERMASSUNG
100
AcDbTrace
 10
164.7862913779
 20
75.6979613397
 30
0.0
 11
161.7862913779
 21
76.1479613397
 31
0.0
 12
161.7862913779
 22
75.2479613397
 32
0.0
 13
161.7862913779
 23
75.2479613397
 33
0.0
  0
LINE
  5
163
330
15E
100
AcDbEntity
  8
VERMASSUNG
100
AcDbLine
 10
104.7862913779
 20
98.5662893158
 30
0.0
 11
104.7862913779
 21
74.6979613397
 31
0.0
  0
LINE
  5
164
330
15E
100
AcDbEntity
  8
VERMASSUNG
100
AcDbLine
 10
164.7862913779
 20
89.4301979762
 30
0.0
 11
164.7862913779
 21
74.6979613397
 31
0.0
  0
LINE
  5
165
330
15E
100
AcDbEntity
  8
VERMASSUNG
100
AcDbLine
 10
104.7862913779
 20
75.6979613397
 30
0.0
 11
164.7862913779
 21
75.6979613397
 31
0.0
  0
MTEXT
  5
166
330
15E
100
AcDbEntity
  8
VERMASSUNG
100
AcDbMText
 10
131.5812914207
 20
78.2760966446
 30
0.0
 40
2.0
 41
0.0
 71
     1
 72
     1
  1
%%c
  7
SLDTEXTSTYLE0
 73
     1
 44
1.0
  0
MTEXT
  5
167
330
15E
100
AcDbEntity
  8
VERMASSUNG
100
AcDbMText
 10
135.191291435
 20
78.4760965959
 30
0.0
 40
2.0
 41
0.0
 71
     1
 72
     1
  1
30
  7
SLDTEXTSTYLE0
 73
     1
 44
1.0
  0
ENDBLK
  5
160
330
15E
100
AcDbEntity
  8
0
100
AcDbBlockEnd
  0
BLOCK
  5
16B
330
16A
100
AcDbEntity
  8
0
100
AcDbBlockBegin
  2
_D_2
 70
     0
 10
0.0
 20
0.0
 30
0.0
  3
_D_2
  1

  0
ARC
  5
16D
330
16A
100
AcDbEntity
  8
VERMASSUNG
100
AcDbCircle
 10
187.7862913779
 20
142.8775655859
 30
0.0
 40
14.31314995134531
100
AcDbArc
 50
270.0
 51
0.0
  0
SOLID
  5
16E
330
16A
100
AcDbEntity
  8
VERMASSUNG
100
AcDbTrace
 10
187.7862913779
 20
128.5644156345
 30
0.0
 11
190.8167021012
 21
128.4261736444
 31
0.0
 12
190.7238943893
 22
129.3213757046
 32
0.0
 13
190.7238943893
 23
129.3213757046
 33
0.0
  0
SOLID
  5
16F
330
16A
100
AcDbEntity
  8
VERMASSUNG
100
AcDbTrace
 10
202.0994413292
 20
142.8775655859
 30
0.0
 11
201.3424812592
 21
139.9399625745
 31
0.0
 12
202.2376833194
 22
139.8471548625
 32
0.0
 13
202.2376833194
 23
139.8471548625
 33
0.0
  0
LINE
  5
170
330
16A
100
AcDbEntity
  8
VERMASSUNG
100
AcDbLine
 10
187.7862913779
 20
130.6603742392
 30
0.0
 11
187.7862913779
 21
127.5644156345
 31
0.0
  0
LINE
  5
171
330
16A
100
AcDbEntity
  8
VERMASSUNG
100
AcDbLine
 10
187.7862913779
 20
142.8775655859
 30
0.0
 11
203.0994413292
 21
142.8775655859
 31
0.0
  0
MTEXT
  5
172
330
16A
100
AcDbEntity
  8
VERMASSUNG
100
AcDbMText
 10
194.669986141
 20
133.1654438929
 30
0.0
 40
2.0
 41
0.0
 71
     1
 72
     1
  1
90°
  7
SLDTEXTSTYLE0
 11
0.7071067811865455
 21
0.7071067811865496
 31
0.0
 73
     1
 44
1.0
  0
ENDBLK
  5
16C
330
16A
100
AcDbEntity
  8
0
100
AcDbBlockEnd
  0
ENDSEC
  0
SECTION
  2
ENTITIES
  0
MTEXT
  5
78
330
1F
100
AcDbEntity
  8
KOPF_DÜNN
100
AcDbMText
 10
13.8892156294
 20
23.8442973028
 30
0.0
 40
3.0
 41
0.0
 71
     1
 72
     1
  1
T14.030.085.006
  7
SLDTEXTSTYLE0
 73
     1
 44
1.0
  0
MTEXT
  5
79
330
1F
100
AcDbEntity
  8
VERMASSUNG
100
AcDbMText
 10
13.9329988022
 20
28.8834360957
 30
0.0
 40
3.0
 41
0.0
 71
     1
 72
     1
  1
Wendeplattenhalter_Insert holder 90°
  7
SLDTEXTSTYLE0
 73
     1
 44
1.0
  0
MTEXT
  5
7A
330
1F
100
AcDbEntity
  8
VERMASSUNG
100
AcDbMText
 10
98.8601118557
 20
13.8365368761
 30
0.0
 40
2.0
 41
0.0
 71
     1
 72
     1
  1
Datum: 01.02.2008
  7
SLDTEXTSTYLE0
 73
     1
 44
1.0
  0
MTEXT
  5
7B
330
1F
100
AcDbEntity
  8
VERMASSUNG
100
AcDbMText
 10
13.933048693
 20
18.0482802738
 30
0.0
 40
2.0
 41
0.0
 71
     1
 72
     1
  1
für FBK ø55 / ø72 / ø94 CC..06 02..
  7
SLDTEXTSTYLE0
 73
     1
 44
1.0
  0
MTEXT
  5
7C
330
1F
100
AcDbEntity
  8
VERMASSUNG
100
AcDbMText
 10
13.9808475933
 20
13.9090974274
 30
0.0
 40
2.0
 41
0.0
 71
     1
 72
     1
  1
Gewicht: g
  7
SLDTEXTSTYLE0
 73
     1
 44
1.0
  0
ARC
  5
7D
330
1F
100
AcDbEntity
  8
0
  6
Continuous
 62
     7
370
    25
100
AcDbCircle
 10
170.6862913779
 20
103.8242561607
 30
0.0
 40
2.799999999999997
100
AcDbArc
 50
90.0
 51
180.0
  0
LINE
  5
7E
330
1F
100
AcDbEntity
  8
0
  6
Continuous
 62
     7
370
    25
100
AcDbLine
 10
167.8862928919
 20
88.9392063959
 30
0.0
 11
167.8862928919
 21
103.8242561748
 31
0.0
  0
LINE
  5
7F
330
1F
100
AcDbEntity
  8
0
  6
Continuous
 62
     7
370
    25
100
AcDbLine
 10
112.9862911574
 20
136.6242549388
 30
0.0
 11
103.9862915448
 21
127.6242553262
 31
0.0
  0
LINE
  5
80
330
1F
100
AcDbEntity
  8
0
  6
Continuous
 62
     7
370
    25
100
AcDbLine
 10
103.9862915448
 20
127.6242553262
 30
0.0
 11
103.9862915448
 21
101.6242561868
 31
0.0
  0
LINE
  5
81
330
1F
100
AcDbEntity
  8
0
  6
Continuous
 62
     7
370
    25
100
AcDbLine
 10
180.0511538557
 20
133.9282847015
 30
0.0
 11
180.0511538557
 21
133.9881575672
 31
0.0
  0
LINE
  5
82
330
1F
100
AcDbEntity
  8
0
  6
Continuous
 62
     7
370
    25
100
AcDbLine
 10
182.4269093147
 20
133.9728876023
 30
0.0
 11
182.4269093147
 21
133.9129700331
 31
0.0
  0
LINE
  5
83
330
1F
100
AcDbEntity
  8
0
  6
Continuous
 62
     7
370
    25
100
AcDbLine
 10
182.4357568792
 20
136.1756815581
 30
0.0
 11
182.4357568792
 21
136.1158086924
 31
0.0
  0
LINE
  5
84
330
1F
100
AcDbEntity
  8
0
  6
Continuous
 62
     7
370
    25
100
AcDbLine
 10
180.0600014201
 20
136.1311270861
 30
0.0
 11
180.0600014201
 21
136.19104093
 31
0.0
  0
LINE
  5
85
330
1F
100
AcDbEntity
  8
0
  6
Continuous
 62
     7
370
    25
100
AcDbLine
 10
177.8434536925
 20
135.069162306
 30
0.0
 11
177.8434536925
 21
135.0220485596
 31
0.0
  0
LINE
  5
86
330
1F
100
AcDbEntity
  8
0
  6
Continuous
 62
     7
370
    25
100
AcDbLine
 10
184.643453317
 20
135.0220485596
 30
0.0
 11
184.643453317
 21
135.069162306
 31
0.0
  0
LINE
  5
87
330
1F
100
AcDbEntity
  8
0
  6
Continuous
 62
     7
370
    25
100
AcDbLine
 10
114.207778456
 20
127.6242553262
 30
0.0
 11
161.1312500707
 21
127.6242553262
 31
0.0
  0
SPLINE
  5
88
330
1F
100
AcDbEntity
  8
0
  6
Continuous
 62
     7
370
    25
100
AcDbSpline
210
0.0
220
0.0
230
1.0
 70
     8
 71
     3
 72
    12
 73
     8
 74
     0
 42
0.000000001
 43
0.00000001
 40
0.0
 40
0.0
 40
0.0
 40
0.0
 40
0.5000000000000002
 40
0.5000000000000002
 40
0.7500000000000003
 40
0.7500000000000003
 40
1.0
 40
1.0
 40
1.0
 40
1.0
 10
161.1312493279784
 20
127.6242561606829
 30
0.0
 10
161.8493543199862
 20
126.0647793654724
 30
0.0
 10
162.5943666480824
 20
124.6111798146543
 30
0.0
 10
163.7038133656878
 20
122.6045755769729
 30
0.0
 10
164.0712224977619
 20
121.966748386267
 30
0.0
 10
164.7756598160016
 20
120.7809840760331
 30
0.0
 10
165.1148427874424
 20
120.2290972177075
 30
0.0
 10
165.4357540631555
 20
119.7186077825938
 30
0.0
  0
ELLIPSE
  5
89
330
1F
100
AcDbEntity
  8
0
  6
Continuous
 62
     7
370
    25
100
AcDbEllipse
 10
134.7862913779
 20
3497.7321293976
 30
0.0
 11
-31.87503169220778
 21
3398.945731593634
 31
0.0
210
0.0
220
0.0
230
1.0
 40
0.0027319057
 41
3.030528538463775
 42
3.08324283309141
  0
LINE
  5
8A
330
1F
100
AcDbEntity
  8
0
  6
Continuous
 62
     7
370
    25
100
AcDbLine
 10
166.0655721596
 20
104.5658757916
 30
0.0
 11
114.207778456
 21
104.5658757916
 31
0.0
  0
LINE
  5
8B
330
1F
100
AcDbEntity
  8
0
  6
Continuous
 62
     7
370
    25
100
AcDbLine
 10
119.7862917132
 20
136.6242549388
 30
0.0
 11
154.1024189017
 21
136.6242549388
 31
0.0
  0
SPLINE
  5
8C
330
1F
100
AcDbEntity
  8
0
  6
Continuous
 62
     7
370
    25
100
AcDbSpline
210
0.0
220
0.0
230
1.0
 70
     8
 71
     3
 72
     8
 73
     4
 74
     0
 42
0.000000001
 43
0.00000001
 40
0.0
 40
0.0
 40
0.0
 40
0.0
 40
1.0
 40
1.0
 40
1.0
 40
1.0
 10
161.1312493279777
 20
127.6242561606845
 30
0.0
 10
161.0516224694982
 20
127.7877937636296
 30
0.0
 10
160.9732655019996
 20
127.9506492603431
 30
0.0
 10
160.896155177767
 20
128.1127976644189
 30
0.0
  0
SPLINE
  5
8D
330
1F
100
AcDbEntity
  8
0
  6
Continuous
 62
     7
370
    25
100
AcDbSpline
210
0.0
220
0.0
230
1.0
 70
     8
 71
     3
 72
    10
 73
     6
 74
     0
 42
0.000000001
 43
0.00000001
 40
0.0
 40
0.0
 40
0.0
 40
0.0
 40
0.5
 40
0.5
 40
1.0
 40
1.0
 40
1.0
 40
1.0
 10
169.7862913778953
 20
106.4792783976036
 30
0.0
 10
169.5620760636624
 20
106.4042219885834
 30
0.0
 10
169.3564987387377
 20
106.3026215866759
 30
0.0
 10
169.0211086212145
 20
106.0987399146681
 30
0.0
 10
168.8902206948271
 20
105.995994463783
 30
0.0
 10
168.8262530245237
 20
105.9501502228982
 30
0.0
  0
SPLINE
  5
8E
330
1F
100
AcDbEntity
  8
0
  6
Continuous
 62
     7
370
    25
100
AcDbSpline
210
0.0
220
0.0
230
1.0
 70
     8
 71
     3
 72
     8
 73
     4
 74
     0
 42
0.000000001
 43
0.00000001
 40
0.0
 40
0.0
 40
0.0
 40
0.0
 40
1.0
 40
1.0
 40
1.0
 40
1.0
 10
170.6759795736768
 20
106.6242561607405
 30
0.0
 10
170.3755739523203
 20
106.6242561607405
 30
0.0
 10
170.071280054149
 20
106.574678779706
 30
0.0
 10
169.7862913778953
 20
106.4792783976037
 30
0.0
  0
SPLINE
  5
8F
330
1F
100
AcDbEntity
  8
0
  6
Continuous
 62
     7
370
    25
100
AcDbSpline
210
0.0
220
0.0
230
1.0
 70
     8
 71
     3
 72
    16
 73
    12
 74
     0
 42
0.000000001
 43
0.00000001
 40
0.0
 40
0.0
 40
0.0
 40
0.0
 40
0.499999999999999
 40
0.499999999999999
 40
0.7499999999999996
 40
0.7499999999999996
 40
0.874999999999999
 40
0.874999999999999
 40
0.9374999999999996
 40
0.9374999999999996
 40
1.0
 40
1.0
 40
1.0
 40
1.0
 10
114.2077789812005
 20
104.5658760094507
 30
0.0
 10
113.7652372209091
 20
104.5658760094507
 30
0.0
 10
113.3406815769408
 20
104.5352431455293
 30
0.0
 10
112.7318106743162
 20
104.4147938397182
 30
0.0
 10
112.5323824263614
 20
104.362710537994
 30
0.0
 10
112.2474848050472
 20
104.2403052535444
 30
0.0
 10
112.1544912692326
 20
104.1925238059756
 30
0.0
 10
112.0261777179342
 20
104.0933452461604
 30
0.0
 10
111.9847270453752
 20
104.0554764045041
 30
0.0
 10
111.9141902238294
 20
103.9587079413105
 30
0.0
 10
111.8840868676397
 20
103.8960805689802
 30
0.0
 10
111.8840868676397
 20
103.82425616074
 30
0.0
  0
SPLINE
  5
90
330
1F
100
AcDbEntity
  8
0
  6
Continuous
 62
     7
370
    25
100
AcDbSpline
210
0.0
220
0.0
230
1.0
 70
     8
 71
     3
 72
    18
 73
    14
 74
     0
 42
0.000000001
 43
0.00000001
 40
0.0
 40
0.0
 40
0.0
 40
0.0
 40
0.1249999999999998
 40
0.1249999999999998
 40
0.2499999999999997
 40
0.2499999999999997
 40
0.3749999999999995
 40
0.3749999999999995
 40
0.4999999999999996
 40
0.4999999999999996
 40
0.7499999999999999
 40
0.7499999999999999
 40
1.0
 40
1.0
 40
1.0
 40
1.0
 10
166.0655703254359
 20
104.5658760095028
 30
0.0
 10
166.1835353375288
 20
104.4800332159626
 30
0.0
 10
166.3020182561635
 20
104.404523323975
 30
0.0
 10
166.5423541283612
 20
104.3207400707623
 30
0.0
 10
166.6605805748897
 20
104.3192599835981
 30
0.0
 10
166.8931899821361
 20
104.3935883917686
 30
0.0
 10
167.0078384319709
 20
104.4644498155533
 30
0.0
 10
167.2360150023684
 20
104.6289662602665
 30
0.0
 10
167.3495280058626
 20
104.7229288446734
 30
0.0
 10
167.6896782093993
 20
105.0127270480738
 30
0.0
 10
167.9158690245503
 20
105.2163585036589
 30
0.0
 10
168.3696715300506
 20
105.6022195704818
 30
0.0
 10
168.5972415104642
 20
105.7860226414786
 30
0.0
 10
168.8262530245237
 20
105.9501502228982
 30
0.0
  0
LWPOLYLINE
  5
91
330
1F
100
AcDbEntity
  8
0
  6
Continuous
 62
     7
370
    25
100
AcDbPolyline
 90
       40
 70
   128
 43
0.0
 10
111.8840876541
 20
97.8090840048
 10
113.3746377698
 20
97.5730040349
 10
114.9439181707
 20
97.3244544124
 10
116.5861583821
 20
97.0643489394
 10
118.295321571
 20
96.7936442007
 10
120.0651213101
 20
96.5133355471
 10
121.8890504486
 20
96.2244534871
 10
123.7604025326
 20
95.9280603105
 10
125.6722969509
 20
95.6252461305
 10
127.6177031494
 20
95.3171241103
 10
129.5894685707
 20
95.0048272038
 10
131.5803419373
 20
94.6895034989
 10
133.583003985
 20
94.3723131908
 10
135.5900903389
 20
94.0544220625
 10
137.5942212569
 20
93.7369989237
 10
139.5880271255
 20
93.4212107217
 10
141.5641776792
 20
93.1082192814
 10
143.5154055751
 20
92.7991752518
 10
145.4345363698
 20
92.4952148466
 10
147.3145143635
 20
92.1974556526
 10
149.1484263486
 20
91.9069924398
 10
150.9295276872
 20
91.6248934349
 10
152.6512711815
 20
91.3521961315
 10
154.3073266319
 20
91.0899030982
 10
155.8916031889
 20
90.8389782539
 10
157.3982744983
 20
90.6003450049
 10
158.8218029163
 20
90.3748801915
 10
160.1569525472
 20
90.1634131564
 10
161.3988153211
 20
89.9667215539
 10
162.5428240321
 20
89.7855280904
 10
163.5847709647
 20
89.6205005242
 10
164.5208283833
 20
89.4722432835
 10
165.3475503943
 20
89.3413030548
 10
166.0618990234
 20
89.2281613318
 10
166.6612498037
 20
89.1332334845
 10
167.1433955005
 20
89.0568696899
 10
167.5065666012
 20
88.9993493451
 10
167.749422001
 20
88.9608838601
 10
167.871075081
 20
88.9416166587
 10
167.8862928919
 20
88.9392063959
  0
LINE
  5
92
330
1F
100
AcDbEntity
  8
0
  6
Continuous
 62
     7
370
    25
100
AcDbLine
 10
111.8840876541
 20
103.8242561748
 30
0.0
 11
111.8840876541
 21
97.8090840048
 31
0.0
  0
LINE
  5
93
330
1F
100
AcDbEntity
  8
0
  6
Continuous
 62
     7
370
    25
100
AcDbLine
 10
109.0064741245
 20
127.6242553262
 30
0.0
 11
114.207778456
 21
127.6242553262
 31
0.0
  0
LWPOLYLINE
  5
94
330
1F
100
AcDbEntity
  8
0
  6
Continuous
 62
     7
370
    25
100
AcDbPolyline
 90
        4
 70
   128
 43
0.0
 10
109.0064741245
 20
98.2648529875
 10
109.8530221305
 20
98.1307730667
 10
110.814422699
 20
97.9785020585
 10
111.8840876541
 20
97.8090840048
  0
LINE
  5
95
330
1F
100
AcDbEntity
  8
0
  6
Continuous
 62
     7
370
    25
100
AcDbLine
 10
116.9255733064
 20
136.6242549388
 30
0.0
 11
119.7862917132
 21
136.6242549388
 31
0.0
  0
LINE
  5
96
330
1F
100
AcDbEntity
  8
0
  6
Continuous
 62
     7
370
    25
100
AcDbLine
 10
103.9862915448
 20
127.6242553262
 30
0.0
 11
109.0064741245
 21
127.6242553262
 31
0.0
  0
LINE
  5
97
330
1F
100
AcDbEntity
  8
0
  6
Continuous
 62
     7
370
    25
100
AcDbLine
 10
112.9862911574
 20
136.6242549388
 30
0.0
 11
116.9255733064
 21
136.6242549388
 31
0.0
  0
LINE
  5
98
330
1F
100
AcDbEntity
  8
0
  6
Continuous
 62
     7
370
    25
100
AcDbLine
 10
105.2000861189
 20
101.6242561868
 30
0.0
 11
105.2000861189
 21
98.8677256368
 31
0.0
  0
LINE
  5
99
330
1F
100
AcDbEntity
  8
0
  6
Continuous
 62
     7
370
    25
100
AcDbLine
 10
105.2000861189
 20
101.6242561868
 30
0.0
 11
103.9862915448
 21
101.6242561868
 31
0.0
  0
LWPOLYLINE
  5
9A
330
1F
100
AcDbEntity
  8
0
  6
Continuous
 62
     7
370
    25
100
AcDbPolyline
 90
        5
 70
   128
 43
0.0
 10
105.2000861189
 20
98.8677256368
 10
105.915101575
 20
98.7544783397
 10
106.7902877501
 20
98.6158626223
 10
107.8221261076
 20
98.4524353384
 10
109.0064741245
 20
98.2648529875
  0
SPLINE
  5
9B
330
1F
100
AcDbEntity
  8
0
  6
Continuous
 62
     7
370
    25
100
AcDbSpline
210
0.0
220
0.0
230
1.0
 70
     8
 71
     3
 72
    10
 73
     6
 74
     0
 42
0.000000001
 43
0.00000001
 40
0.0
 40
0.0
 40
0.0
 40
0.0
 40
0.4999999999999999
 40
0.4999999999999999
 40
1.0
 40
1.0
 40
1.0
 40
1.0
 10
160.896155177767
 20
128.1127976644189
 30
0.0
 10
160.2340576601196
 20
129.5050633162304
 30
0.0
 10
159.6302501515583
 20
130.9223102146129
 30
0.0
 10
158.550862907894
 20
133.7649455315563
 30
0.0
 10
158.0739210349318
 20
135.1926902493801
 30
0.0
 10
157.6572582776126
 20
136.6242561606838
 30
0.0
  0
LINE
  5
9C
330
1F
100
AcDbEntity
  8
0
  6
Continuous
 62
     7
370
    25
100
AcDbLine
 10
154.1024189017
 20
136.6242549388
 30
0.0
 11
157.6572585425
 21
136.6242549388
 31
0.0
  0
SPLINE
  5
9D
330
1F
100
AcDbEntity
  8
0
  6
Continuous
 62
     7
370
    25
100
AcDbSpline
210
0.0
220
0.0
230
1.0
 70
     8
 71
     3
 72
     8
 73
     4
 74
     0
 42
0.000000001
 43
0.00000001
 40
0.0
 40
0.0
 40
0.0
 40
0.0
 40
1.0
 40
1.0
 40
1.0
 40
1.0
 10
168.7446663256356
 20
114.8136945971278
 30
0.0
 10
168.7706808476634
 20
114.7783941521125
 30
0.0
 10
168.7985471202717
 20
114.7601377790339
 30
0.0
 10
168.8262530245239
 20
114.7666279403757
 30
0.0
  0
ELLIPSE
  5
9E
330
1F
100
AcDbEntity
  8
0
  6
Continuous
 62
     7
370
    25
100
AcDbEllipse
 10
215.419559116
 20
146.9051557708
 30
0.0
 11
-43.78043270361209
 21
46.24396316840614
 31
0.0
210
0.0
220
0.0
230
1.0
 40
0.8872016155
 41
1.339125086210401
 42
1.432407087713966
  0
SPLINE
  5
9F
330
1F
100
AcDbEntity
  8
0
  6
Continuous
 62
     7
370
    25
100
AcDbSpline
210
0.0
220
0.0
230
1.0
 70
     8
 71
     3
 72
    10
 73
     6
 74
     0
 42
0.000000001
 43
0.00000001
 40
0.0
 40
0.0
 40
0.0
 40
0.0
 40
0.5
 40
0.5
 40
1.0
 40
1.0
 40
1.0
 40
1.0
 10
168.8262530245239
 20
114.7666279403757
 30
0.0
 10
168.8883931771935
 20
114.7811843906164
 30
0.0
 10
169.02105822937
 20
114.8216778295599
 30
0.0
 10
169.367390153046
 20
114.9358140398301
 30
0.0
 10
169.5779316917931
 20
115.0084411553154
 30
0.0
 10
169.7862913778952
 20
115.0828637539574
 30
0.0
  0
SPLINE
  5
A0
330
1F
100
AcDbEntity
  8
0
  6
Continuous
 62
     7
370
    25
100
AcDbSpline
210
0.0
220
0.0
230
1.0
 70
     8
 71
     3
 72
     8
 73
     4
 74
     0
 42
0.000000001
 43
0.00000001
 40
0.0
 40
0.0
 40
0.0
 40
0.0
 40
1.0
 40
1.0
 40
1.0
 40
1.0
 10
157.786291377895
 20
136.6242561606838
 30
0.0
 10
157.8552765425649
 20
136.6242561606838
 30
0.0
 10
157.9342080640521
 20
136.6311420295089
 30
0.0
 10
158.0219694435128
 20
136.6524249770997
 30
0.0
  0
SPLINE
  5
A1
330
1F
100
AcDbEntity
  8
0
  6
Continuous
 62
     7
370
    25
100
AcDbSpline
210
0.0
220
0.0
230
1.0
 70
    24
 71
     3
 72
     8
 73
     4
 74
     0
 42
0.000000001
 43
0.00000001
 40
0.0
 40
0.0
 40
0.0
 40
0.0
 40
1.0
 40
1.0
 40
1.0
 40
1.0
 10
158.0219694435128
 20
136.6524249770997
 30
0.0
 10
158.1774357131743
 20
136.6901269878208
 30
0.0
 10
158.3582153244141
 20
136.7339677183919
 30
0.0
 10
158.5436671324865
 20
136.7789414999809
 30
0.0
  0
ARC
  5
A2
330
1F
100
AcDbEntity
  8
0
  6
Continuous
 62
     7
370
    25
100
AcDbCircle
 10
215.3686108571
 20
152.4994291942
 30
0.0
 40
59.95003494046565
100
AcDbArc
 50
195.3554705085
 51
218.9483116318
  0
SPLINE
  5
A3
330
1F
100
AcDbEntity
  8
0
  6
Continuous
 62
     7
370
    25
100
AcDbSpline
210
0.0
220
0.0
230
1.0
 70
    24
 71
     3
 72
     9
 73
     5
 74
     0
 42
0.000000001
 43
0.00000001
 40
0.0
 40
0.0
 40
0.0
 40
0.0
 40
0.2525167065670939
 40
1.0
 40
1.0
 40
1.0
 40
1.0
 10
157.6572585425307
 20
136.6242549387886
 30
0.0
 10
157.6652383930548
 20
136.6242549387886
 30
0.0
 10
157.6968396705805
 20
136.6242549387886
 30
0.0
 10
157.748028573132
 20
136.6242549387886
 30
0.0
 10
157.7862914225985
 20
136.6242549387886
 30
0.0
  0
ARC
  5
A4
330
1F
100
AcDbEntity
  8
0
  6
Continuous
 62
     7
370
    25
100
AcDbCircle
 10
176.2865642428
 20
129.1666837137
 30
0.0
 40
1.999468598562328
100
AcDbArc
 50
126.8910786762
 51
333.6342351529
  0
LINE
  5
A5
330
1F
100
AcDbEntity
  8
0
  6
Continuous
 62
     7
370
    25
100
AcDbLine
 10
187.3507037333
 20
129.9486241309
 30
0.0
 11
187.5356755725
 21
129.981220421
 31
0.0
  0
LINE
  5
A6
330
1F
100
AcDbEntity
  8
0
  6
Continuous
 62
     7
370
    25
100
AcDbLine
 10
187.5356755725
 20
129.981220421
 30
0.0
 11
187.5356755725
 21
118.7249167828
 31
0.0
  0
LINE
  5
A7
330
1F
100
AcDbEntity
  8
0
  6
Continuous
 62
     7
370
    25
100
AcDbLine
 10
187.5356755725
 20
118.7249167828
 30
0.0
 11
175.336709576
 21
106.6242565407
 31
0.0
  0
LINE
  5
A8
330
1F
100
AcDbEntity
  8
0
  6
Continuous
 62
     7
370
    25
100
AcDbLine
 10
175.336709576
 20
106.6242565407
 30
0.0
 11
170.6759802571
 21
106.6242565407
 31
0.0
  0
LINE
  5
A9
330
1F
100
AcDbEntity
  8
0
  6
Continuous
 62
     7
370
    25
100
AcDbLine
 10
158.5436671547
 20
136.7789401679
 30
0.0
 11
168.7596574
 21
139.2564146785
 31
0.0
  0
LINE
  5
AA
330
1F
100
AcDbEntity
  8
0
  6
Continuous
 62
     7
370
    25
100
AcDbLine
 10
168.7596574
 20
139.2564146785
 30
0.0
 11
175.1354060641
 21
140.3799436061
 31
0.0
  0
LINE
  5
AB
330
1F
100
AcDbEntity
  8
0
  6
Continuous
 62
     7
370
    25
100
AcDbLine
 10
175.1354060641
 20
140.3799436061
 30
0.0
 11
175.1354060641
 21
140.2445255784
 31
0.0
  0
ARC
  5
AC
330
1F
100
AcDbEntity
  8
0
  6
Continuous
 62
     7
370
    25
100
AcDbCircle
 10
176.2846646156
 20
129.0130618291
 30
0.0
 40
1.998378207443713
100
AcDbArc
 50
126.8464573638
 51
177.7932653453
  0
LINE
  5
AD
330
1F
100
AcDbEntity
  8
0
  6
Continuous
 62
     7
370
    25
100
AcDbLine
 10
187.5356755725
 20
129.981220421
 30
0.0
 11
187.465461301
 21
130.0201422541
 31
0.0
  0
LINE
  5
AE
330
1F
100
AcDbEntity
  8
0
  6
Continuous
 62
     7
370
    25
100
AcDbLine
 10
175.1752778462
 20
140.3351730673
 30
0.0
 11
175.1354060641
 21
140.3799436061
 31
0.0
  0
CIRCLE
  5
AF
330
1F
100
AcDbEntity
  8
0
  6
Continuous
 62
     7
370
    25
100
AcDbCircle
 10
181.2437143784
 20
135.0677308591
 30
0.0
 40
3.399358602063904
  0
CIRCLE
  5
B0
330
1F
100
AcDbEntity
  8
0
  6
Continuous
 62
     7
370
    25
100
AcDbCircle
 10
181.2436647127
 20
135.0838816893
 30
0.0
 40
2.199645029494879
  0
CIRCLE
  5
B1
330
1F
100
AcDbEntity
  8
0
  6
Continuous
 62
     7
370
    25
100
AcDbCircle
 10
181.2436697648
 20
135.083979986
 30
0.0
 40
2.099607658223249
  0
SPLINE
  5
B2
330
1F
100
AcDbEntity
  8
0
  6
Continuous
 62
     7
370
    25
100
AcDbSpline
210
0.0
220
0.0
230
1.0
 70
     8
 71
     3
 72
    16
 73
    12
 74
     0
 42
0.000000001
 43
0.00000001
 40
0.0
 40
0.0
 40
0.0
 40
0.0
 40
0.1242202960482075
 40
0.2490008780190396
 40
0.3727394536274028
 40
0.495294923770326
 40
0.6171969097942513
 40
0.7391054461325696
 40
0.8616667277525344
 40
0.9853927134391824
 40
1.0
 40
1.0
 40
1.0
 40
1.0
 10
181.7611999384095
 20
133.3722925750689
 30
0.0
 10
181.7961085610819
 20
133.3418627894529
 30
0.0
 10
181.866083259037
 20
133.2808659670545
 30
0.0
 10
182.0028251693181
 20
133.2397106701752
 30
0.0
 10
182.1437576408194
 20
133.2434316296237
 30
0.0
 10
182.2753080864998
 20
133.2938476753107
 30
0.0
 10
182.3822469902484
 20
133.3838276632926
 30
0.0
 10
182.453593063151
 20
133.503479972022
 30
0.0
 10
182.4815505791662
 20
133.6396094947334
 30
0.0
 10
182.4687902051065
 20
133.7371870544818
 30
0.0
 10
182.4523628796834
 20
133.7853585694165
 30
0.0
 10
182.4506282380749
 20
133.7904452352004
 30
0.0
  0
SPLINE
  5
B3
330
1F
100
AcDbEntity
  8
0
  6
Continuous
 62
     7
370
    25
100
AcDbSpline
210
0.0
220
0.0
230
1.0
 70
     8
 71
     3
 72
    12
 73
     8
 74
     0
 42
0.000000001
 43
0.00000001
 40
0.0
 40
0.0
 40
0.0
 40
0.0
 40
0.2093658995553066
 40
0.4192604861716718
 40
0.6249530121478026
 40
0.8281697068220913
 40
1.0
 40
1.0
 40
1.0
 40
1.0
 10
182.4506282380749
 20
133.7904452352004
 30
0.0
 10
182.437745792363
 20
133.8693864062729
 30
0.0
 10
182.4119483704156
 20
134.0274680892647
 30
0.0
 10
182.4753327237603
 20
134.2656037437483
 30
0.0
 10
182.6071801968712
 20
134.4674251134513
 30
0.0
 10
182.7853076833366
 20
134.6112471315694
 30
0.0
 10
182.9220534784406
 20
134.6554697726605
 30
0.0
 10
182.9847044817139
 20
134.6757306723075
 30
0.0
  0
SPLINE
  5
B4
330
1F
100
AcDbEntity
  8
0
  6
Continuous
 62
     7
370
    25
100
AcDbSpline
210
0.0
220
0.0
230
1.0
 70
     8
 71
     3
 72
    16
 73
    12
 74
     0
 42
0.000000001
 43
0.00000001
 40
0.0
 40
0.0
 40
0.0
 40
0.0
 40
0.123188015561335
 40
0.2479787690026211
 40
0.3717269080556614
 40
0.494290302031613
 40
0.6161929666620127
 40
0.7380956741467521
 40
0.860649647774861
 40
0.9843612604095275
 40
1.0
 40
1.0
 40
1.0
 40
1.0
 10
182.9847044817139
 20
134.6757306723075
 30
0.0
 10
183.0283779979398
 20
134.6906881292644
 30
0.0
 10
183.1162932447466
 20
134.7207976471968
 30
0.0
 10
183.220777554222
 20
134.8182654797294
 30
0.0
 10
183.2886576194676
 20
134.9420952598713
 30
0.0
 10
183.3112218004322
 20
135.0811596985743
 30
0.0
 10
183.2869913618599
 20
135.2187162135995
 30
0.0
 10
183.2190192553083
 20
135.3403137066326
 30
0.0
 10
183.1148189100761
 20
135.432580010992
 30
0.0
 10
183.0232041186597
 20
135.4705028357303
 30
0.0
 10
182.9726359858242
 20
135.4803399303655
 30
0.0
 10
182.9669609240223
 20
135.4814439086394
 30
0.0
  0
SPLINE
  5
B5
330
1F
100
AcDbEntity
  8
0
  6
Continuous
 62
     7
370
    25
100
AcDbSpline
210
0.0
220
0.0
230
1.0
 70
     8
 71
     3
 72
    12
 73
     8
 74
     0
 42
0.000000001
 43
0.00000001
 40
0.0
 40
0.0
 40
0.0
 40
0.0
 40
0.209365612987491
 40
0.4192640606966461
 40
0.6249542902313744
 40
0.8281712109071513
 40
1.0
 40
1.0
 40
1.0
 40
1.0
 10
182.9669609240223
 20
135.4814439086394
 30
0.0
 10
182.8917595690102
 20
135.5095597822474
 30
0.0
 10
182.7411654718117
 20
135.5658630842592
 30
0.0
 10
182.565972613571
 20
135.7394874426999
 30
0.0
 10
182.4571110874548
 20
135.9545702880475
 30
0.0
 10
182.4221817063823
 20
136.1810172332784
 30
0.0
 10
182.4528879768659
 20
136.321857437855
 30
0.0
 10
182.4669561854531
 20
136.3863839773612
 30
0.0
  0
SPLINE
  5
B6
330
1F
100
AcDbEntity
  8
0
  6
Continuous
 62
     7
370
    25
100
AcDbSpline
210
0.0
220
0.0
230
1.0
 70
     8
 71
     3
 72
    16
 73
    12
 74
     0
 42
0.000000001
 43
0.00000001
 40
0.0
 40
0.0
 40
0.0
 40
0.0
 40
0.1243680898566612
 40
0.2491439167849345
 40
0.3728821573957634
 40
0.4954368027737096
 40
0.6173376282789629
 40
0.7392471992195881
 40
0.8618120986599406
 40
0.9855394087805937
 40
1.0
 40
1.0
 40
1.0
 40
1.0
 10
182.4669561854531
 20
136.3863839773612
 30
0.0
 10
182.4760896829869
 20
136.4322351892826
 30
0.0
 10
182.4943866219537
 20
136.5240879349554
 30
0.0
 10
182.4620682590381
 20
136.6638582073107
 30
0.0
 10
182.3886285407631
 20
136.7844511083156
 30
0.0
 10
182.2792157031126
 20
136.8732073918087
 30
0.0
 10
182.1476521295543
 20
136.9205397981086
 30
0.0
 10
182.0079937463472
 20
136.9218980299034
 30
0.0
 10
181.8755980227224
 20
136.8771591522907
 30
0.0
 10
181.797052268428
 20
136.8165802736757
 30
0.0
 10
181.7633181411834
 20
136.7778789470061
 30
0.0
 10
181.7597880533863
 20
136.7738290695624
 30
0.0
  0
SPLINE
  5
B7
330
1F
100
AcDbEntity
  8
0
  6
Continuous
 62
     7
370
    25
100
AcDbSpline
210
0.0
220
0.0
230
1.0
 70
     8
 71
     3
 72
    12
 73
     8
 74
     0
 42
0.000000001
 43
0.00000001
 40
0.0
 40
0.0
 40
0.0
 40
0.0
 40
0.2092381342411271
 40
0.4191365337183282
 40
0.6248304137069803
 40
0.8280468935179405
 40
1.0
 40
1.0
 40
1.0
 40
1.0
 10
181.7597880533863
 20
136.7738290695624
 30
0.0
 10
181.6975110462146
 20
136.7226257638723
 30
0.0
 10
181.5727605125177
 20
136.6200575769607
 30
0.0
 10
181.3342434112266
 20
136.554893875993
 30
0.0
 10
181.0935260221392
 20
136.5682210930147
 30
0.0
 10
180.8804110514721
 20
136.6515670466356
 30
0.0
 10
180.7743283956963
 20
136.7489655544869
 30
0.0
 10
180.7257070711781
 20
136.7936066357569
 30
0.0
  0
SPLINE
  5
B8
330
1F
100
AcDbEntity
  8
0
  6
Continuous
 62
     7
370
    25
100
AcDbSpline
210
0.0
220
0.0
230
1.0
 70
     8
 71
     3
 72
    16
 73
    12
 74
     0
 42
0.000000001
 43
0.00000001
 40
0.0
 40
0.0
 40
0.0
 40
0.0
 40
0.1242185915502454
 40
0.2489989801875929
 40
0.3727377977845425
 40
0.49529391593196
 40
0.61719545171245
 40
0.7391042650148634
 40
0.8616686712584373
 40
0.9853949369234439
 40
1.0
 40
1.0
 40
1.0
 40
1.0
 10
180.7257070711781
 20
136.7936066357569
 30
0.0
 10
180.6907998787477
 20
136.8245255585191
 30
0.0
 10
180.6208276209085
 20
136.886503239478
 30
0.0
 10
180.4840851372268
 20
136.9287251397243
 30
0.0
 10
180.3431528203354
 20
136.9256755071023
 30
0.0
 10
180.2116033309911
 20
136.8754688937519
 30
0.0
 10
180.10466342026
 20
136.7852444878825
 30
0.0
 10
180.0333168156035
 20
136.6649037933564
 30
0.0
 10
180.0053613002096
 20
136.5276865507746
 30
0.0
 10
180.0181181964035
 20
136.4291062143625
 30
0.0
 10
180.0345478491502
 20
136.3803619871405
 30
0.0
 10
180.0362824968029
 20
136.3752155570464
 30
0.0
  0
SPLINE
  5
B9
330
1F
100
AcDbEntity
  8
0
  6
Continuous
 62
     7
370
    25
100
AcDbSpline
210
0.0
220
0.0
230
1.0
 70
     8
 71
     3
 72
    12
 73
     8
 74
     0
 42
0.000000001
 43
0.00000001
 40
0.0
 40
0.0
 40
0.0
 40
0.0
 40
0.2093654954524456
 40
0.4192630225795552
 40
0.6249523804760152
 40
0.8281696243053779
 40
1.0
 40
1.0
 40
1.0
 40
1.0
 10
180.0362824968029
 20
136.3752155570464
 30
0.0
 10
180.0491647176785
 20
136.2954594521849
 30
0.0
 10
180.074961895242
 20
136.1357445692663
 30
0.0
 10
180.0115800317461
 20
135.8963846335799
 30
0.0
 10
179.8797285919141
 20
135.6947989031186
 30
0.0
 10
179.7016034628896
 20
135.5524538872702
 30
0.0
 10
179.5648573339519
 20
135.5097387442496
 30
0.0
 10
179.5022062531639
 20
135.4901685385184
 30
0.0
  0
SPLINE
  5
BA
330
1F
100
AcDbEntity
  8
0
  6
Continuous
 62
     7
370
    25
100
AcDbSpline
210
0.0
220
0.0
230
1.0
 70
     8
 71
     3
 72
    36
 73
    32
 74
     0
 42
0.000000001
 43
0.00000001
 40
0.0
 40
0.0
 40
0.0
 40
0.0
 40
0.0302733499903964
 40
0.0607519003353942
 40
0.0918701965904632
 40
0.1232096681051383
 40
0.1538589359088648
 40
0.184719095342238
 40
0.2162661805380314
 40
0.2480465938931954
 40
0.2784370521971271
 40
0.3090418242386357
 40
0.3403247775575561
 40
0.3718447077816444
 40
0.4019470717340781
 40
0.463184106011651
 40
0.4943970452050385
 40
0.5243412417457948
 40
0.5852455988952799
 40
0.6162816459749789
 40
0.6462291727776199
 40
0.7071328881026446
 40
0.7381598000079365
 40
0.7682739034193663
 40
0.8295007765022034
 40
0.8606886512359085
 40
0.8910862247580245
 40
0.9216919136127416
 40
0.9529470144317765
 40
0.9844260722061544
 40
1.0
 40
1.0
 40
1.0
 40
1.0
 10
179.5022062531639
 20
135.4901685385184
 30
0.0
 10
179.4912965563402
 20
135.4874221063127
 30
0.0
 10
179.4694032140329
 20
135.4819106258956
 30
0.0
 10
179.4372859209128
 20
135.4701439814405
 30
0.0
 10
179.4058262976149
 20
135.4557455001041
 30
0.0
 10
179.3756444643739
 20
135.4386173108534
 30
0.0
 10
179.3470685767889
 20
135.419053613671
 30
0.0
 10
179.3201546023496
 20
135.3970818145841
 30
0.0
 10
179.2948859583757
 20
135.3725721453332
 30
0.0
 10
179.2719274362079
 20
135.3460685132494
 30
0.0
 10
179.2515059799281
 20
135.3179607589622
 30
0.0
 10
179.2335818865352
 20
135.2883746614137
 30
0.0
 10
179.2180351521195
 20
135.2569610310245
 30
0.0
 10
179.2053042207915
 20
135.2244674527774
 30
0.0
 10
179.1921640934487
 20
135.180210915892
 30
0.0
 10
179.1846451820189
 20
135.1345009160247
 30
0.0
 10
179.1829938608098
 20
135.0884438089444
 30
0.0
 10
179.1851867565552
 20
135.0425210239728
 30
0.0
 10
179.1931077738225
 20
134.9970658839357
 30
0.0
 10
179.2066105897363
 20
134.9531663399474
 30
0.0
 10
179.2237063833065
 20
134.910551139158
 30
0.0
 10
179.2460328897028
 20
134.8702178350678
 30
0.0
 10
179.2731096145432
 20
134.8331401749295
 30
0.0
 10
179.3032198121968
 20
134.7983717076468
 30
0.0
 10
179.3375569017534
 20
134.7674563830402
 30
0.0
 10
179.3753347713214
 20
134.7411736739114
 30
0.0
 10
179.405205651034
 20
134.7238834177895
 30
0.0
 10
179.4363803596996
 20
134.7091132122522
 30
0.0
 10
179.4690206763097
 20
134.6969033014948
 30
0.0
 10
179.4971202792252
 20
134.6889012592452
 30
0.0
 10
179.5142726114202
 20
134.6853817841913
 30
0.0
 10
179.5199498108555
 20
134.6842168836073
 30
0.0
  0
SPLINE
  5
BB
330
1F
100
AcDbEntity
  8
0
  6
Continuous
 62
     7
370
    25
100
AcDbSpline
210
0.0
220
0.0
230
1.0
 70
     8
 71
     3
 72
    12
 73
     8
 74
     0
 42
0.000000001
 43
0.00000001
 40
0.0
 40
0.0
 40
0.0
 40
0.0
 40
0.2093664148203324
 40
0.419262054999623
 40
0.6249512817928407
 40
0.8281716516641974
 40
1.0
 40
1.0
 40
1.0
 40
1.0
 10
179.5199498108555
 20
134.6842168836073
 30
0.0
 10
179.5951508819174
 20
134.6552843595366
 30
0.0
 10
179.7457431133345
 20
134.5973461772899
 30
0.0
 10
179.920939126102
 20
134.4225034414015
 30
0.0
 10
180.029800342211
 20
134.2076523211779
 30
0.0
 10
180.0647290565124
 20
133.9826817106135
 30
0.0
 10
180.0340226646761
 20
133.843347427528
 30
0.0
 10
180.0199545494248
 20
133.7795115081744
 30
0.0
  0
SPLINE
  5
BC
330
1F
100
AcDbEntity
  8
0
  6
Continuous
 62
     7
370
    25
100
AcDbSpline
210
0.0
220
0.0
230
1.0
 70
     8
 71
     3
 72
    16
 73
    12
 74
     0
 42
0.000000001
 43
0.00000001
 40
0.0
 40
0.0
 40
0.0
 40
0.0
 40
0.1243655011167165
 40
0.2491428001348736
 40
0.3728815093547366
 40
0.4954370812357105
 40
0.6173378750792675
 40
0.7392446217552358
 40
0.8618102260367514
 40
0.9855387818833293
 40
1.0
 40
1.0
 40
1.0
 40
1.0
 10
180.0199545494248
 20
133.7795115081744
 30
0.0
 10
180.010821178813
 20
133.7341504243871
 30
0.0
 10
179.9925241952569
 20
133.6432780576097
 30
0.0
 10
180.0248422433882
 20
133.5045784918512
 30
0.0
 10
180.0982824860513
 20
133.3846557500848
 30
0.0
 10
180.2076944248352
 20
133.2961091139591
 30
0.0
 10
180.3392576829624
 20
133.2485331318212
 30
0.0
 10
180.4789150493479
 20
133.2464862127163
 30
0.0
 10
180.6113072888237
 20
133.2901418240249
 30
0.0
 10
180.6898596770868
 20
133.3497122905213
 30
0.0
 10
180.7235926131504
 20
133.387841586183
 30
0.0
 10
180.7271226814915
 20
133.3918317226844
 30
0.0
  0
SPLINE
  5
BD
330
1F
100
AcDbEntity
  8
0
  6
Continuous
 62
     7
370
    25
100
AcDbSpline
210
0.0
220
0.0
230
1.0
 70
     8
 71
     3
 72
    12
 73
     8
 74
     0
 42
0.000000001
 43
0.00000001
 40
0.0
 40
0.0
 40
0.0
 40
0.0
 40
0.2092403790294528
 40
0.4191387867463929
 40
0.6248333400360109
 40
0.828050375705027
 40
1.0
 40
1.0
 40
1.0
 40
1.0
 10
180.7271226814915
 20
133.3918317226843
 30
0.0
 10
180.7893994351832
 20
133.4422218206466
 30
0.0
 10
180.9141487933421
 20
133.5431604856493
 30
0.0
 10
181.1526679633999
 20
133.6070965493413
 30
0.0
 10
181.3933844935698
 20
133.5939989939827
 30
0.0
 10
181.6064984290324
 20
133.5121315488838
 30
0.0
 10
181.7125798055774
 20
133.4162416581086
 30
0.0
 10
181.7611999384095
 20
133.3722925750689
 30
0.0
  0
LINE
  5
BE
330
1F
100
AcDbEntity
  8
0
  6
Continuous
 62
     7
370
    25
100
AcDbLine
 10
182.4506282381
 20
133.7296633987
 30
0.0
 11
182.4741124681
 21
133.5926397709
 31
0.0
  0
LINE
  5
BF
330
1F
100
AcDbEntity
  8
0
  6
Continuous
 62
     7
370
    25
100
AcDbLine
 10
182.4506282381
 20
133.7296633987
 30
0.0
 11
182.4506282381
 21
133.7904452352
 31
0.0
  0
LWPOLYLINE
  5
C0
330
1F
100
AcDbEntity
  8
0
  6
Continuous
 62
     7
370
    25
100
AcDbPolyline
 90
        3
 70
   128
 43
0.0
 10
180.0199545494
 20
133.7186104624
 10
180.0478830508
 20
133.8597207336
 10
180.0511538557
 20
133.9282847015
  0
LWPOLYLINE
  5
C1
330
1F
100
AcDbEntity
  8
0
  6
Continuous
 62
     7
370
    25
100
AcDbPolyline
 90
        3
 70
   128
 43
0.0
 10
182.4269093147
 20
133.9129700331
 10
182.4280902318
 20
133.8717310695
 10
182.4506282381
 20
133.7296633987
  0
ARC
  5
C2
330
1F
100
AcDbEntity
  8
0
  6
Continuous
 62
     7
370
    25
100
AcDbCircle
 10
182.8916490438
 20
135.0158124089
 30
0.0
 40
0.4117950086030898
100
AcDbArc
 50
0.0108868635
 51
79.4620456422
  0
LINE
  5
C3
330
1F
100
AcDbEntity
  8
0
  6
Continuous
 62
     7
370
    25
100
AcDbLine
 10
182.966960924
 20
135.4206620721
 30
0.0
 11
182.966960924
 21
135.4814439086
 31
0.0
  0
ARC
  5
C4
330
1F
100
AcDbEntity
  8
0
  6
Continuous
 62
     7
370
    25
100
AcDbCircle
 10
179.5952701789
 20
135.0281176115
 30
0.0
 40
0.4118034985933152
100
AcDbArc
 50
103.0611652648
 51
179.9876375541
  0
ARC
  5
C5
330
1F
100
AcDbEntity
  8
0
  6
Continuous
 62
     7
370
    25
100
AcDbCircle
 10
183.1564103054
 20
136.115967989
 30
0.0
 40
0.7206534438181164
100
AcDbArc
 50
180.012664923
 51
254.7586500231
  0
ARC
  5
C6
330
1F
100
AcDbEntity
  8
0
  6
Continuous
 62
     7
370
    25
100
AcDbCircle
 10
179.3393871258
 20
136.1312467711
 30
0.0
 40
0.7206143042516114
100
AcDbArc
 50
283.0584479285
 51
359.990483891
  0
ARC
  5
C7
330
1F
100
AcDbEntity
  8
0
  6
Continuous
 62
     7
370
    25
100
AcDbCircle
 10
180.4248226265
 20
136.4511855812
 30
0.0
 40
0.4120497111146522
100
AcDbArc
 50
43.0956672576
 51
174.1868576226
  0
ARC
  5
C8
330
1F
100
AcDbEntity
  8
0
  6
Continuous
 62
     7
370
    25
100
AcDbCircle
 10
182.0727704272
 20
136.4450678741
 30
0.0
 40
0.412032648139304
100
AcDbArc
 50
5.1744187167
 51
139.4294550819
  0
LINE
  5
C9
330
1F
100
AcDbEntity
  8
0
  6
Continuous
 62
     7
370
    25
100
AcDbLine
 10
181.7597880534
 20
136.7130472331
 30
0.0
 11
181.7597880534
 21
136.7738290696
 31
0.0
  0
ARC
  5
CA
330
1F
100
AcDbEntity
  8
0
  6
Continuous
 62
     7
370
    25
100
AcDbCircle
 10
181.2523048187
 20
137.2256130901
 30
0.0
 40
0.7212925837231433
100
AcDbArc
 50
223.1073105758
 51
314.7145133511
  0
ARC
  5
CB
330
1F
100
AcDbEntity
  8
0
  6
Continuous
 62
     7
370
    25
100
AcDbCircle
 10
181.2434535048
 20
135.0236408358
 30
0.0
 40
3.400000185090037
100
AcDbArc
 50
180.0268325604
 51
359.9731674396
  0
LINE
  5
CC
330
1F
100
AcDbEntity
  8
0
  6
Continuous
 62
     7
370
    25
100
AcDbLine
 10
176.0252102784
 20
127.9169700114
 30
0.0
 11
187.1252081863
 21
129.8730081884
 31
0.0
  0
LINE
  5
CD
330
1F
100
AcDbEntity
  8
0
  6
Continuous
 62
     7
370
    25
100
AcDbLine
 10
175.8862904779
 20
128.6882168619
 30
0.0
 11
176.0252102784
 21
127.9169700114
 31
0.0
  0
LINE
  5
CE
330
1F
100
AcDbEntity
  8
0
  6
Continuous
 62
     7
370
    25
100
AcDbLine
 10
176.0605744592
 20
128.8922808139
 30
0.0
 11
175.8862904779
 21
128.6882168619
 31
0.0
  0
SPLINE
  5
CF
330
1F
100
AcDbEntity
  8
0
  6
Continuous
 62
     7
370
    25
100
AcDbSpline
210
0.0
220
0.0
230
1.0
 70
     8
 71
     3
 72
    11
 73
     7
 74
     0
 42
0.000000001
 43
0.00000001
 40
0.0
 40
0.0
 40
0.0
 40
0.0
 40
0.0074548364151139
 40
0.3066094048235026
 40
0.6526518436959392
 40
0.9999999999999999
 40
0.9999999999999999
 40
0.9999999999999999
 40
0.9999999999999999
 10
176.9450813106229
 20
129.951105174251
 30
0.0
 10
176.9431092351541
 20
129.948693600653
 30
0.0
 10
176.8619998918939
 20
129.8495081719726
 30
0.0
 10
176.6776117859282
 20
129.6257127804119
 30
0.0
 10
176.3714028479596
 20
129.2581897785378
 30
0.0
 10
176.1643139112006
 20
129.014403492668
 30
0.0
 10
176.0605744591882
 20
128.8922808138804
 30
0.0
  0
LINE
  5
D0
330
1F
100
AcDbEntity
  8
0
  6
Continuous
 62
     7
370
    25
100
AcDbLine
 10
175.8862904779
 20
128.6882168619
 30
0.0
 11
175.0862918369
 21
128.704336193
 31
0.0
  0
LINE
  5
D1
330
1F
100
AcDbEntity
  8
0
  6
Continuous
 62
     7
370
    25
100
AcDbLine
 10
175.0862918369
 20
139.9687050847
 30
0.0
 11
175.0862918369
 21
128.704336193
 31
0.0
  0
SPLINE
  5
D2
330
1F
100
AcDbEntity
  8
0
  6
Continuous
 62
     7
370
    25
100
AcDbSpline
210
0.0
220
0.0
230
1.0
 70
     8
 71
     3
 72
    12
 73
     8
 74
     0
 42
0.000000001
 43
0.00000001
 40
0.0
 40
0.0
 40
0.0
 40
0.0
 40
0.0481921933682141
 40
0.4227678734614158
 40
0.5661192944478578
 40
0.9912387244879849
 40
0.9999999999999999
 40
0.9999999999999999
 40
0.9999999999999999
 40
0.9999999999999999
 10
187.0342701247861
 20
130.6052847771125
 30
0.0
 10
187.0191066781787
 20
130.6177891178065
 30
0.0
 10
186.8860847584757
 20
130.7274839284129
 30
0.0
 10
186.6957577316698
 20
130.8863418416863
 30
0.0
 10
186.3880205915509
 20
131.1461871670804
 30
0.0
 10
186.2053913998876
 20
131.3024033685975
 30
0.0
 10
186.0816308440685
 20
131.4094583939384
 30
0.0
 10
186.0791317692925
 20
131.4116201369243
 30
0.0
  0
SPLINE
  5
D3
330
1F
100
AcDbEntity
  8
0
  6
Continuous
 62
     7
370
    25
100
AcDbSpline
210
0.0
220
0.0
230
1.0
 70
     8
 71
     3
 72
    10
 73
     6
 74
     0
 42
0.000000001
 43
0.00000001
 40
0.0
 40
0.0
 40
0.0
 40
0.0
 40
0.3658095508683271
 40
0.9379229366880774
 40
1.0
 40
1.0
 40
1.0
 40
1.0
 10
187.0342701247861
 20
130.6052847771125
 30
0.0
 10
187.0366030929736
 20
130.5853368314139
 30
0.0
 10
187.0425847420815
 20
130.534190994007
 30
0.0
 10
187.0316051474656
 20
130.4807098827911
 30
0.0
 10
187.0230929922048
 20
130.447783788493
 30
0.0
 10
187.0222597888638
 20
130.4445608524757
 30
0.0
  0
SPLINE
  5
D4
330
1F
100
AcDbEntity
  8
0
  6
Continuous
 62
     7
370
    25
100
AcDbSpline
210
0.0
220
0.0
230
1.0
 70
     8
 71
     3
 72
    10
 73
     6
 74
     0
 42
0.000000001
 43
0.00000001
 40
0.0
 40
0.0
 40
0.0
 40
0.0
 40
0.062059894374905
 40
0.6342020577375459
 40
1.0
 40
1.0
 40
1.0
 40
1.0
 10
187.1934294274976
 20
130.648427364059
 30
0.0
 10
187.1903376751516
 20
130.6469764704526
 30
0.0
 10
187.1587424602451
 20
130.6321495082092
 30
0.0
 10
187.106965451684
 20
130.6108647511587
 30
0.0
 10
187.0546667075463
 20
130.6068503853475
 30
0.0
 10
187.0342701247861
 20
130.6052847771125
 30
0.0
  0
LINE
  5
D5
330
1F
100
AcDbEntity
  8
0
  6
Continuous
 62
     7
370
    25
100
AcDbLine
 10
186.986292111
 20
141.9086239306
 30
0.0
 11
187.786290752
 21
141.9247432618
 31
0.0
  0
LINE
  5
D6
330
1F
100
AcDbEntity
  8
0
  6
Continuous
 62
     7
370
    25
100
AcDbLine
 10
187.786290752
 20
130.66037437
 30
0.0
 11
187.786290752
 21
141.9247432618
 31
0.0
  0
LINE
  5
D7
330
1F
100
AcDbEntity
  8
0
  6
Continuous
 62
     7
370
    25
100
AcDbLine
 10
186.8120081297
 20
141.6975378065
 30
0.0
 11
186.986292111
 21
141.9086239306
 31
0.0
  0
ARC
  5
D8
330
1F
100
AcDbEntity
  8
0
  6
Continuous
 62
     7
370
    25
100
AcDbCircle
 10
178.6859139035
 20
132.0399631168
 30
0.0
 40
1.999621198841797
100
AcDbArc
 50
180.0214054205
 51
280.0128779894
  0
ARC
  5
D9
330
1F
100
AcDbEntity
  8
0
  6
Continuous
 62
     7
370
    25
100
AcDbCircle
 10
184.1871683857
 20
133.0088855158
 30
0.0
 40
1.999121412952925
100
AcDbArc
 50
279.978897784
 51
359.9866901897
  0
ARC
  5
DA
330
1F
100
AcDbEntity
  8
0
  6
Continuous
 62
     7
370
    25
100
AcDbCircle
 10
175.8861415756
 20
128.7046371944
 30
0.0
 40
0.7998497953807926
100
AcDbArc
 50
180.0215616807
 51
280.0128198872
  0
ARC
  5
DB
330
1F
100
AcDbEntity
  8
0
  6
Continuous
 62
     7
370
    25
100
AcDbCircle
 10
186.9866424005
 20
130.6605594842
 30
0.0
 40
0.7996483730099488
100
AcDbArc
 50
279.978777828
 51
359.9867363453
  0
LINE
  5
DC
330
1F
100
AcDbEntity
  8
0
  6
Continuous
 62
     7
370
    25
100
AcDbLine
 10
179.0335870854
 20
130.0707987515
 30
0.0
 11
184.5335870556
 21
131.0400075285
 31
0.0
  0
LINE
  5
DD
330
1F
100
AcDbEntity
  8
0
  6
Continuous
 62
     7
370
    25
100
AcDbLine
 10
183.8389955035
 20
140.5582807033
 30
0.0
 11
178.3389955333
 21
139.5890756516
 31
0.0
  0
ARC
  5
DE
330
1F
100
AcDbEntity
  8
0
  6
Continuous
 62
     7
370
    25
100
AcDbCircle
 10
184.1866686849
 20
138.5891163359
 30
0.0
 40
1.99962120076335
100
AcDbArc
 50
0.021512221
 51
100.0128779644
  0
LINE
  5
DF
330
1F
100
AcDbEntity
  8
0
  6
Continuous
 62
     7
370
    25
100
AcDbLine
 10
186.1862897447
 20
133.0084211199
 30
0.0
 11
186.1862897447
 21
138.5898671119
 31
0.0
  0
LINE
  5
E0
330
1F
100
AcDbEntity
  8
0
  6
Continuous
 62
     7
370
    25
100
AcDbLine
 10
176.6862928442
 20
137.6206583349
 30
0.0
 11
176.6862928442
 21
132.0392160682
 31
0.0
  0
ARC
  5
E1
330
1F
100
AcDbEntity
  8
0
  6
Continuous
 62
     7
370
    25
100
AcDbCircle
 10
178.685421801
 20
137.620191286
 30
0.0
 40
1.999129011382466
100
AcDbArc
 50
99.9790805683
 51
179.9866142034
  0
CIRCLE
  5
E2
330
1F
100
AcDbEntity
  8
0
  6
Continuous
 62
     7
370
    25
100
AcDbCircle
 10
181.4346755168
 20
135.3142747843
 30
0.0
 40
3.84838234801407
  0
CIRCLE
  5
E3
330
1F
100
AcDbEntity
  8
0
  6
Continuous
 62
     7
370
    25
100
AcDbCircle
 10
181.4346738772
 20
135.2619271527
 30
0.0
 40
3.848380708321757
  0
SPLINE
  5
E4
330
1F
100
AcDbEntity
  8
0
  6
Continuous
 62
     7
370
    25
100
AcDbSpline
210
0.0
220
0.0
230
1.0
 70
     8
 71
     3
 72
    12
 73
     8
 74
     0
 42
0.000000001
 43
0.00000001
 40
0.0
 40
0.0
 40
0.0
 40
0.0
 40
0.0087598219441461
 40
0.4338794848577168
 40
0.5772325145748751
 40
0.9518086043844628
 40
0.9999999999999999
 40
0.9999999999999999
 40
0.9999999999999999
 40
0.9999999999999999
 10
176.7934508196045
 20
139.1984826890902
 30
0.0
 10
176.7909517392067
 20
139.2005125492696
 30
0.0
 10
176.6671707168827
 20
139.301052799355
 30
0.0
 10
176.4845628398463
 20
139.4511122821418
 30
0.0
 10
176.1768251369953
 20
139.7073942113636
 30
0.0
 10
175.986500098975
 20
139.8677677523923
 30
0.0
 10
175.8534759300196
 20
139.9811565395588
 30
0.0
 10
175.8383124641109
 20
139.9940817622618
 30
0.0
  0
SPLINE
  5
E5
330
1F
100
AcDbEntity
  8
0
  6
Continuous
 62
     7
370
    25
100
AcDbSpline
210
0.0
220
0.0
230
1.0
 70
     8
 71
     3
 72
    10
 73
     6
 74
     0
 42
0.000000001
 43
0.00000001
 40
0.0
 40
0.0
 40
0.0
 40
0.0
 40
0.0620604257502878
 40
0.6342021505006064
 40
0.9999999999999999
 40
0.9999999999999999
 40
0.9999999999999999
 40
0.9999999999999999
 10
175.6791531613994
 20
139.9567618040518
 30
0.0
 10
175.6822449120062
 20
139.958088521001
 30
0.0
 10
175.7138398432357
 20
139.971646383876
 30
0.0
 10
175.7656172231165
 20
139.9909302321553
 30
0.0
 10
175.8179159008612
 20
139.99319751754
 30
0.0
 10
175.8383124641109
 20
139.9940817622618
 30
0.0
  0
SPLINE
  5
E6
330
1F
100
AcDbEntity
  8
0
  6
Continuous
 62
     7
370
    25
100
AcDbSpline
210
0.0
220
0.0
230
1.0
 70
     8
 71
     3
 72
    11
 73
     7
 74
     0
 42
0.000000001
 43
0.00000001
 40
0.0
 40
0.0
 40
0.0
 40
0.0
 40
0.3473483408617131
 40
0.693392346027257
 40
0.9925468336977767
 40
1.0
 40
1.0
 40
1.0
 40
1.0
 10
186.8120081297088
 20
141.697537806459
 30
0.0
 10
186.7082693442955
 20
141.5725479670002
 30
0.0
 10
186.5011813253536
 20
141.3230376402863
 30
0.0
 10
186.1949625127869
 20
140.9611219585145
 30
0.0
 10
186.0106006843878
 20
140.7457893403076
 30
0.0
 10
185.9294733602831
 20
140.6516996570934
 30
0.0
 10
185.9275012782741
 20
140.6494124798255
 30
0.0
  0
SPLINE
  5
E7
330
1F
100
AcDbEntity
  8
0
  6
Continuous
 62
     7
370
    25
100
AcDbSpline
210
0.0
220
0.0
230
1.0
 70
     8
 71
     3
 72
    10
 73
     6
 74
     0
 42
0.000000001
 43
0.00000001
 40
0.0
 40
0.0
 40
0.0
 40
0.0
 40
0.365810076046357
 40
0.9379227754569651
 40
1.0
 40
1.0
 40
1.0
 40
1.0
 10
175.8383124641109
 20
139.9940817622618
 30
0.0
 10
175.8359794915419
 20
140.0147110054556
 30
0.0
 10
175.8299978408157
 20
140.0676035808628
 30
0.0
 10
175.8409774719187
 20
140.1230866595476
 30
0.0
 10
175.8494895968108
 20
140.1572812069575
 30
0.0
 10
175.8503228000332
 20
140.1606283156351
 30
0.0
  0
LINE
  5
E8
330
1F
100
AcDbEntity
  8
0
  6
Continuous
 62
     7
370
    25
100
AcDbLine
 10
186.8473723105
 20
142.7121094434
 30
0.0
 11
175.7473744026
 21
140.7560712664
 31
0.0
  0
LINE
  5
E9
330
1F
100
AcDbEntity
  8
0
  6
Continuous
 62
     7
370
    25
100
AcDbLine
 10
186.986292111
 20
141.9086239306
 30
0.0
 11
186.8473723105
 21
142.7121094434
 31
0.0
  0
ARC
  5
EA
330
1F
100
AcDbEntity
  8
0
  6
Continuous
 62
     7
370
    25
100
AcDbCircle
 10
175.8859354453
 20
139.968523953
 30
0.0
 40
0.799643628971178
100
AcDbArc
 50
99.978492562
 51
179.9870216114
  0
ARC
  5
EB
330
1F
100
AcDbEntity
  8
0
  6
Continuous
 62
     7
370
    25
100
AcDbCircle
 10
186.9864433319
 20
141.9244450253
 30
0.0
 40
0.7998474757500604
100
AcDbArc
 50
0.0213636857
 51
100.0130178823
  0
LINE
  5
EC
330
1F
100
AcDbEntity
  8
0
  6
HIDDEN
 62
     7
370
    18
100
AcDbLine
 10
157.0673849008
 20
106.6242565407
 30
0.0
 11
170.6759802571
 21
106.6242565407
 31
0.0
  0
SPLINE
  5
ED
330
1F
100
AcDbEntity
  8
0
  6
HIDDEN
 62
     7
370
    18
100
AcDbSpline
210
0.0
220
0.0
230
1.0
 70
     8
 71
     3
 72
    16
 73
    12
 74
     0
 42
0.000000001
 43
0.00000001
 40
0.0
 40
0.0
 40
0.0
 40
0.0
 40
0.1249999999999999
 40
0.1249999999999999
 40
0.2499999999999999
 40
0.2499999999999999
 40
0.5000000000000003
 40
0.5000000000000003
 40
0.7500000000000001
 40
0.7500000000000001
 40
1.0
 40
1.0
 40
1.0
 40
1.0
 10
143.9374515910195
 20
104.5658760094498
 30
0.0
 10
144.4978177826082
 20
104.5658760094498
 30
0.0
 10
145.0491175245376
 20
104.6248300750216
 30
0.0
 10
146.1427234195717
 20
104.8012184983667
 30
0.0
 10
146.6854455305038
 20
104.9159481143763
 30
0.0
 10
148.3110096362794
 20
105.2770577934015
 30
0.0
 10
149.3913207810563
 20
105.5396088105715
 30
0.0
 10
151.5611664578366
 20
106.0069372346138
 30
0.0
 10
152.6500950789617
 20
106.2157595495611
 30
0.0
 10
154.845690019359
 20
106.523403687453
 30
0.0
 10
155.9566039893985
 20
106.6242561607404
 30
0.0
 10
157.0673855836164
 20
106.6242561607404
 30
0.0
  0
LINE
  5
EE
330
1F
100
AcDbEntity
  8
0
  6
HIDDEN
 62
     7
370
    18
100
AcDbLine
 10
114.207778456
 20
104.5658757916
 30
0.0
 11
143.9374511636
 21
104.5658757916
 31
0.0
  0
SPLINE
  5
EF
330
1F
100
AcDbEntity
  8
0
  6
HIDDEN
 62
     7
370
    18
100
AcDbSpline
210
0.0
220
0.0
230
1.0
 70
     8
 71
     3
 72
    16
 73
    12
 74
     0
 42
0.000000001
 43
0.00000001
 40
0.0
 40
0.0
 40
0.0
 40
0.0
 40
0.0624999999999985
 40
0.0624999999999985
 40
0.124999999999997
 40
0.124999999999997
 40
0.2499999999999982
 40
0.2499999999999982
 40
0.4999999999999988
 40
0.4999999999999988
 40
1.0
 40
1.0
 40
1.0
 40
1.0
 10
111.8840868676412
 20
103.8242561607399
 30
0.0
 10
111.8840868676412
 20
103.8967489540968
 30
0.0
 10
111.9149812778674
 20
103.9601878746649
 30
0.0
 10
111.9859919776609
 20
104.0568054088861
 30
0.0
 10
112.0279919445658
 20
104.0949457327475
 30
0.0
 10
112.156701498277
 20
104.1938219438907
 30
0.0
 10
112.249603577534
 20
104.2413537559816
 30
0.0
 10
112.5345590588782
 20
104.3633646388582
 30
0.0
 10
112.7315918135212
 20
104.4147066456312
 30
0.0
 10
113.3384056447356
 20
104.5348804139679
 30
0.0
 10
113.7657483758579
 20
104.5658760094495
 30
0.0
 10
114.2077789812011
 20
104.5658760094495
 30
0.0
  0
LWPOLYLINE
  5
F0
330
1F
100
AcDbEntity
  8
0
  6
HIDDEN
 62
     7
370
    18
100
AcDbPolyline
 90
       40
 70
   128
 43
0.0
 10
167.8862928919
 20
88.9392063959
 10
167.871075081
 20
88.9416166587
 10
167.749422001
 20
88.9608838601
 10
167.5065666012
 20
88.9993493451
 10
167.1433955005
 20
89.0568696899
 10
166.6612498037
 20
89.1332334845
 10
166.0618990234
 20
89.2281613318
 10
165.3475503943
 20
89.3413030548
 10
164.5208283833
 20
89.4722432835
 10
163.5847709647
 20
89.6205005242
 10
162.5428240321
 20
89.7855280904
 10
161.3988153211
 20
89.9667215539
 10
160.1569525472
 20
90.1634131564
 10
158.8218029163
 20
90.3748801915
 10
157.3982744983
 20
90.6003450049
 10
155.8916031889
 20
90.8389782539
 10
154.3073266319
 20
91.0899030982
 10
152.6512711815
 20
91.3521961315
 10
150.9295276872
 20
91.6248934349
 10
149.1484263486
 20
91.9069924398
 10
147.3145143635
 20
92.1974556526
 10
145.4345363698
 20
92.4952148466
 10
143.5154055751
 20
92.7991752518
 10
141.5641776792
 20
93.1082192814
 10
139.5880271255
 20
93.4212107217
 10
137.5942212569
 20
93.7369989237
 10
135.5900903389
 20
94.0544220625
 10
133.583003985
 20
94.3723131908
 10
131.5803419373
 20
94.6895034989
 10
129.5894685707
 20
95.0048272038
 10
127.6177031494
 20
95.3171241103
 10
125.6722969509
 20
95.6252461305
 10
123.7604025326
 20
95.9280603105
 10
121.8890504486
 20
96.2244534871
 10
120.0651213101
 20
96.5133355471
 10
118.295321571
 20
96.7936442007
 10
116.5861583821
 20
97.0643489394
 10
114.9439181707
 20
97.3244544124
 10
113.3746377698
 20
97.5730040349
 10
111.8840876541
 20
97.8090840048
  0
LINE
  5
F1
330
1F
100
AcDbEntity
  8
0
  6
HIDDEN
 62
     7
370
    18
100
AcDbLine
 10
111.8840876541
 20
97.8090840048
 30
0.0
 11
111.8840876541
 21
103.8242561748
 31
0.0
  0
LWPOLYLINE
  5
F2
330
1F
100
AcDbEntity
  8
0
  6
HIDDEN
 62
     7
370
    18
100
AcDbPolyline
 90
       82
 70
   128
 43
0.0
 10
109.2627927235
 20
98.2242561708
 10
110.3217511944
 20
98.0565336189
 10
111.4805958739
 20
97.872990836
 10
112.7345919183
 20
97.674377333
 10
114.0786207787
 20
97.4615040008
 10
115.507196965
 20
97.2352397634
 10
117.0144866726
 20
96.9965086091
 10
118.5943338594
 20
96.7462852836
 10
120.2402909792
 20
96.4855912147
 10
121.9456376082
 20
96.2154909043
 10
123.7034102476
 20
95.9370871546
 10
125.5064321256
 20
95.6515166449
 10
127.3473416029
 20
95.3599451581
 10
129.2186233721
 20
95.0635631574
 10
131.1126373283
 20
94.7635808965
 10
133.0216501181
 20
94.4612228317
 10
134.9378675321
 20
94.1577238968
 10
136.8534661404
 20
93.8543227507
 10
138.7606247834
 20
93.5522585182
 10
140.6515569932
 20
93.2527642703
 10
142.5185421056
 20
92.9570628336
 10
144.3539581767
 20
92.6663616678
 10
146.1503108538
 20
92.3818472779
 10
147.9002659715
 20
92.1046814887
 10
149.596678423
 20
91.8359963229
 10
151.2326228938
 20
91.5768879471
 10
152.8014208696
 20
91.3284148095
 10
154.2966648511
 20
91.091591586
 10
155.7122528127
 20
90.8673845237
 10
157.0424012414
 20
90.6567095785
 10
158.2816842518
 20
90.4604268266
 10
159.4250373117
 20
90.2793367399
 10
160.4677963576
 20
90.1141806511
 10
161.4057015202
 20
89.9656309752
 10
162.234923201
 20
89.8342949344
 10
162.9520769737
 20
89.7207089706
 10
163.5542366228
 20
89.625335951
 10
164.0389397315
 20
89.5485670312
 10
164.4042100332
 20
89.4907142041
 10
164.6485536865
 20
89.4520130946
 10
164.7709760389
 20
89.4326238899
 10
164.7709760389
 20
89.4326238899
 10
164.6485536865
 20
89.4520130946
 10
164.4042100332
 20
89.4907142041
 10
164.0389397315
 20
89.5485670312
 10
163.5542366228
 20
89.625335951
 10
162.9520769737
 20
89.7207089706
 10
162.234923201
 20
89.8342949344
 10
161.4057015202
 20
89.9656309752
 10
160.4677963576
 20
90.1141806511
 10
159.4250373117
 20
90.2793367399
 10
158.2816842518
 20
90.4604268266
 10
157.0424012414
 20
90.6567095785
 10
155.7122528127
 20
90.8673845237
 10
154.2966648511
 20
91.091591586
 10
152.8014208696
 20
91.3284148095
 10
151.2326228938
 20
91.5768879471
 10
149.596678423
 20
91.8359963229
 10
147.9002659715
 20
92.1046814887
 10
146.1503108538
 20
92.3818472779
 10
144.3539581767
 20
92.6663616678
 10
142.5185421056
 20
92.9570628336
 10
140.6515569932
 20
93.2527642703
 10
138.7606247834
 20
93.5522585182
 10
136.8534661404
 20
93.8543227507
 10
134.9378675321
 20
94.1577238968
 10
133.0216501181
 20
94.4612228317
 10
131.1126373283
 20
94.7635808965
 10
129.2186233721
 20
95.0635631574
 10
127.3473416029
 20
95.3599451581
 10
125.5064321256
 20
95.6515166449
 10
123.7034102476
 20
95.9370871546
 10
121.9456376082
 20
96.2154909043
 10
120.2402909792
 20
96.4855912147
 10
118.5943338594
 20
96.7462852836
 10
117.0144866726
 20
96.9965086091
 10
115.507196965
 20
97.2352397634
 10
114.0786207787
 20
97.4615040008
 10
112.7345919183
 20
97.674377333
 10
111.4805958739
 20
97.872990836
 10
110.3217511944
 20
98.0565336189
 10
109.2627927235
 20
98.2242561708
  0
SPLINE
  5
F3
330
1F
100
AcDbEntity
  8
0
  6
HIDDEN
 62
     7
370
    18
100
AcDbSpline
210
0.0
220
0.0
230
1.0
 70
     8
 71
     3
 72
    10
 73
     6
 74
     0
 42
0.000000001
 43
0.00000001
 40
0.0
 40
0.0
 40
0.0
 40
0.0
 40
0.5
 40
0.5
 40
1.0
 40
1.0
 40
1.0
 40
1.0
 10
106.8192669327399
 20
98.61127270022972
 30
0.0
 10
106.8367571423338
 20
98.61557426625863
 30
0.0
 10
106.8546809876392
 20
98.6188487430357
 30
0.0
 10
106.8906945194077
 20
98.6231886591972
 30
0.0
 10
106.9086794167412
 20
98.62425616068293
 30
0.0
 10
106.9266431389005
 20
98.62425616068332
 30
0.0
  0
LINE
  5
F4
330
1F
100
AcDbEntity
  8
0
  6
HIDDEN
 62
     7
370
    18
100
AcDbLine
 10
106.9266426883
 20
98.6242561607
 30
0.0
 11
164.3862913868
 21
98.6242561607
 31
0.0
  0
SPLINE
  5
F5
330
1F
100
AcDbEntity
  8
0
  6
HIDDEN
 62
     7
370
    18
100
AcDbSpline
210
0.0
220
0.0
230
1.0
 70
     8
 71
     3
 72
    10
 73
     6
 74
     0
 42
0.000000001
 43
0.00000001
 40
0.0
 40
0.0
 40
0.0
 40
0.0
 40
0.5
 40
0.5
 40
1.0
 40
1.0
 40
1.0
 40
1.0
 10
106.9266431389111
 20
98.62425616068332
 30
0.0
 10
106.9086325621561
 20
98.62425616068336
 30
0.0
 10
106.8906748475391
 20
98.62318292160099
 30
0.0
 10
106.8548659102712
 20
98.61887437915698
 30
0.0
 10
106.8369093026135
 20
98.61561168876561
 30
0.0
 10
106.8192669327398
 20
98.61127270022968
 30
0.0
  0
SPLINE
  5
F6
330
1F
100
AcDbEntity
  8
0
  6
HIDDEN
 62
     7
370
    18
100
AcDbSpline
210
0.0
220
0.0
230
1.0
 70
    24
 71
     3
 72
    12
 73
     8
 74
     0
 42
0.000000001
 43
0.00000001
 40
0.0
 40
0.0
 40
0.0
 40
0.0
 40
0.5
 40
0.5
 40
0.75
 40
0.75
 40
1.0
 40
1.0
 40
1.0
 40
1.0
 10
109.2627931955058
 20
98.22425616068334
 30
0.0
 10
108.7123444405714
 20
98.31143867866093
 30
0.0
 10
108.2322647742265
 20
98.38747582792617
 30
0.0
 10
107.6131025677821
 20
98.48554148746395
 30
0.0
 10
107.423445498819
 20
98.51558021618526
 30
0.0
 10
107.0846396636231
 20
98.56924178877144
 30
0.0
 10
106.9309109799839
 20
98.59359002029147
 30
0.0
 10
106.8192669327241
 20
98.61127270023228
 30
0.0
  0
SPLINE
  5
F7
330
1F
100
AcDbEntity
  8
0
  6
HIDDEN
 62
     7
370
    18
100
AcDbSpline
210
0.0
220
0.0
230
1.0
 70
    24
 71
     3
 72
    12
 73
     8
 74
     0
 42
0.000000001
 43
0.00000001
 40
0.0
 40
0.0
 40
0.0
 40
0.0
 40
0.2499999999999998
 40
0.2499999999999998
 40
0.4999999999999996
 40
0.4999999999999996
 40
1.0
 40
1.0
 40
1.0
 40
1.0
 10
106.81926693274
 20
98.61127270022975
 30
0.0
 10
106.9309948250959
 20
98.59357674053032
 30
0.0
 10
107.0848004211912
 20
98.569216327274
 30
0.0
 10
107.4231295878124
 20
98.51563025157323
 30
0.0
 10
107.6121560880547
 20
98.48569139512585
 30
0.0
 10
108.2322466851647
 20
98.38747869295209
 30
0.0
 10
108.7123155111354
 20
98.31144326063348
 30
0.0
 10
109.2627931955058
 20
98.22425616068334
 30
0.0
  0
LINE
  5
F8
330
1F
100
AcDbEntity
  8
0
  6
HIDDEN
 62
     7
370
    18
100
AcDbLine
 10
157.6572585425
 20
136.6242549388
 30
0.0
 11
157.5587022624
 21
136.6242549388
 31
0.0
  0
LINE
  5
F9
330
1F
100
AcDbEntity
  8
0
  6
HIDDEN
 62
     7
370
    18
100
AcDbLine
 10
109.0064741245
 20
127.6242553262
 30
0.0
 11
103.9862915448
 21
127.6242553262
 31
0.0
  0
LINE
  5
FA
330
1F
100
AcDbEntity
  8
0
  6
HIDDEN
 62
     7
370
    18
100
AcDbLine
 10
116.9255733064
 20
136.6242549388
 30
0.0
 11
112.9862911574
 21
136.6242549388
 31
0.0
  0
LINE
  5
FB
330
1F
100
AcDbEntity
  8
0
  6
HIDDEN
 62
     7
370
    18
100
AcDbLine
 10
103.9862915448
 20
101.6242561868
 30
0.0
 11
105.2000861189
 21
101.6242561868
 31
0.0
  0
LINE
  5
FC
330
1F
100
AcDbEntity
  8
0
  6
HIDDEN
 62
     7
370
    18
100
AcDbLine
 10
105.2000861189
 20
98.8677256368
 30
0.0
 11
105.2000861189
 21
101.6242561868
 31
0.0
  0
LWPOLYLINE
  5
FD
330
1F
100
AcDbEntity
  8
0
  6
HIDDEN
 62
     7
370
    18
100
AcDbPolyline
 90
        5
 70
   128
 43
0.0
 10
109.0064741245
 20
98.2648529875
 10
107.8221261076
 20
98.4524353384
 10
106.7902877501
 20
98.6158626223
 10
105.915101575
 20
98.7544783397
 10
105.2000861189
 20
98.8677256368
  0
LINE
  5
FE
330
1F
100
AcDbEntity
  8
0
  6
HIDDEN
 62
     7
370
    18
100
AcDbLine
 10
117.786290454
 20
106.6242565407
 30
0.0
 11
151.7862923018
 21
106.6242565407
 31
0.0
  0
LINE
  5
FF
330
1F
100
AcDbEntity
  8
0
  6
HIDDEN
 62
     7
370
    18
100
AcDbLine
 10
151.7862923018
 20
136.6242549388
 30
0.0
 11
117.786290454
 21
136.6242549388
 31
0.0
  0
LINE
  5
100
330
1F
100
AcDbEntity
  8
0
  6
HIDDEN
 62
     7
370
    18
100
AcDbLine
 10
130.2037158555
 20
98.6242561607
 30
0.0
 11
130.2037158555
 21
101.6242561868
 31
0.0
  0
LINE
  5
101
330
1F
100
AcDbEntity
  8
0
  6
HIDDEN
 62
     7
370
    18
100
AcDbLine
 10
130.2037158555
 20
101.6242561868
 30
0.0
 11
123.8025271839
 21
101.6242561868
 31
0.0
  0
LINE
  5
102
330
1F
100
AcDbEntity
  8
0
  6
HIDDEN
 62
     7
370
    18
100
AcDbLine
 10
123.7901899538
 20
106.6242565407
 30
0.0
 11
145.782392802
 21
106.6242565407
 31
0.0
  0
LINE
  5
103
330
1F
100
AcDbEntity
  8
0
  6
HIDDEN
 62
     7
370
    18
100
AcDbLine
 10
130.2037158555
 20
98.6242561607
 30
0.0
 11
145.770217622
 21
98.6242561607
 31
0.0
  0
LINE
  5
104
330
1F
100
AcDbEntity
  8
0
  6
HIDDEN
 62
     7
370
    18
100
AcDbLine
 10
130.2037158555
 20
101.6242561868
 30
0.0
 11
105.2000861189
 21
101.6242561868
 31
0.0
  0
LINE
  5
105
330
1F
100
AcDbEntity
  8
0
  6
HIDDEN
 62
     7
370
    18
100
AcDbLine
 10
130.2037158555
 20
98.6242561607
 30
0.0
 11
106.9266426883
 21
98.6242561607
 31
0.0
  0
LINE
  5
106
330
1F
100
AcDbEntity
  8
0
  6
HIDDEN
 62
     7
370
    18
100
AcDbLine
 10
105.2000861189
 20
98.8677256368
 30
0.0
 11
106.8192667834
 21
98.6112727
 31
0.0
  0
SPLINE
  5
107
330
1F
100
AcDbEntity
  8
0
  6
HIDDEN
 62
     7
370
    18
100
AcDbSpline
210
0.0
220
0.0
230
1.0
 70
    24
 71
     3
 72
    10
 73
     6
 74
     0
 42
0.000000001
 43
0.00000001
 40
0.0
 40
0.0
 40
0.0
 40
0.0
 40
0.3643897413811071
 40
0.7394256087874836
 40
1.0
 40
1.0
 40
1.0
 40
1.0
 10
157.5587022623945
 20
136.6242549387886
 30
0.0
 10
157.5609750786742
 20
136.6242549387886
 30
0.0
 10
157.5655871145534
 20
136.6242549387886
 30
0.0
 10
157.599886494116
 20
136.6242549387886
 30
0.0
 10
157.6405770622229
 20
136.6242549387886
 30
0.0
 10
157.6572585425307
 20
136.6242549387886
 30
0.0
  0
LINE
  5
108
330
1F
100
AcDbEntity
  8
0
  6
HIDDEN
 62
     7
370
    18
100
AcDbLine
 10
175.1354060641
 20
130.8014771907
 30
0.0
 11
175.0862918369
 21
130.7658149867
 31
0.0
  0
LINE
  5
109
330
1F
100
AcDbEntity
  8
0
  6
HIDDEN
 62
     7
370
    18
100
AcDbLine
 10
178.0780426732
 20
128.2787199138
 30
0.0
 11
178.0969745985
 21
128.3179379074
 31
0.0
  0
LINE
  5
10A
330
1F
100
AcDbEntity
  8
0
  6
HIDDEN
 62
     7
370
    18
100
AcDbLine
 10
178.0969745985
 20
128.3179379074
 30
0.0
 11
187.3507037333
 21
129.9486241309
 31
0.0
  0
LINE
  5
10B
330
1F
100
AcDbEntity
  8
0
  6
HIDDEN
 62
     7
370
    18
100
AcDbLine
 10
175.1354060641
 20
140.2445255784
 30
0.0
 11
175.1354060641
 21
130.8014771907
 31
0.0
  0
LINE
  5
10C
330
1F
100
AcDbEntity
  8
0
  6
HIDDEN
 62
     7
370
    18
100
AcDbLine
 10
175.336709576
 20
106.6242565407
 30
0.0
 11
173.2020400039
 21
106.6242565407
 31
0.0
  0
LINE
  5
10D
330
1F
100
AcDbEntity
  8
0
  6
HIDDEN
 62
     7
370
    18
100
AcDbLine
 10
186.0686972312
 20
118.3079524903
 30
0.0
 11
187.5356755725
 21
118.7249167828
 31
0.0
  0
ARC
  5
10E
330
1F
100
AcDbEntity
  8
0
  6
HIDDEN
 62
     7
370
    18
100
AcDbCircle
 10
176.2865048387
 20
129.0135452043
 30
0.0
 40
1.999095697103175
100
AcDbArc
 50
269.9938367606
 51
126.8969720295
  0
ARC
  5
10F
330
1F
100
AcDbEntity
  8
0
  6
HIDDEN
 62
     7
370
    18
100
AcDbCircle
 10
176.2856914699
 20
129.0138245225
 30
0.0
 40
1.999375093250432
100
AcDbArc
 50
177.8162385938
 51
270.0171462045
  0
ELLIPSE
  5
110
330
1F
100
AcDbEntity
  8
0
  6
HIDDEN
 62
     7
370
    18
100
AcDbEllipse
 10
176.2862913779
 20
128.8396677785
 30
0.0
 11
1.994712319066394
 21
0.2030185052775835
 31
0.0
210
0.0
220
0.0
230
1.0
 40
0.7158792083
 41
5.771839938212077
 42
5.870658121504158
  0
ELLIPSE
  5
111
330
1F
100
AcDbEntity
  8
0
  6
HIDDEN
 62
     7
370
    18
100
AcDbEllipse
 10
176.2862913779
 20
128.8396677785
 30
0.0
 11
-1.511864125711895
 21
1.738225123101728
 31
0.0
210
0.0
220
0.0
230
1.0
 40
0.7532396845
 41
5.940436236740378
 42
6.039254420032454
  0
LWPOLYLINE
  5
112
330
1F
100
AcDbEntity
  8
0
  6
HIDDEN
 62
     7
370
    18
100
AcDbPolyline
 90
        9
 70
   128
 43
0.0
 10
175.3023922018
 20
130.8595134882
 10
175.3030590287
 20
130.8598897426
 10
175.3037258557
 20
130.8602659969
 10
175.3043926827
 20
130.8606422512
 10
175.3050632349
 20
130.8610147802
 10
175.3057300619
 20
130.8613910346
 10
175.3063968888
 20
130.8617672889
 10
175.3070674411
 20
130.8621435432
 10
175.3077342681
 20
130.8625160722
  0
LINE
  5
113
330
1F
100
AcDbEntity
  8
0
  6
HIDDEN
 62
     7
370
    18
100
AcDbLine
 10
175.3077342681
 20
130.7578205137
 30
0.0
 11
175.3077342681
 21
130.8625160722
 31
0.0
  0
ARC
  5
114
330
1F
100
AcDbEntity
  8
0
  6
HIDDEN
 62
     7
370
    18
100
AcDbCircle
 10
176.2864845788
 20
129.0141969535
 30
0.0
 40
1.999543770549626
100
AcDbArc
 50
340.7274783203
 51
119.3068569621
  0
LINE
  5
115
330
1F
100
AcDbEntity
  8
0
  6
HIDDEN
 62
     7
370
    18
100
AcDbLine
 10
178.1739726237
 20
128.4589233814
 30
0.0
 11
178.1739726237
 21
128.3542240976
 31
0.0
  0
LWPOLYLINE
  5
116
330
1F
100
AcDbEntity
  8
0
  6
HIDDEN
 62
     7
370
    18
100
AcDbPolyline
 90
        9
 70
   128
 43
0.0
 10
178.1739726237
 20
128.4589233814
 10
178.173719304
 20
128.4582006751
 10
178.1734659842
 20
128.4574779688
 10
178.1732126645
 20
128.4567552624
 10
178.1729556194
 20
128.4560325561
 10
178.1727022997
 20
128.4553098498
 10
178.17244898
 20
128.4545890061
 10
178.1721919349
 20
128.4538662998
 10
178.1719386152
 20
128.4531435935
  0
LINE
  5
117
330
1F
100
AcDbEntity
  8
0
  6
HIDDEN
 62
     7
370
    18
100
AcDbLine
 10
178.1719386152
 20
128.4531435935
 30
0.0
 11
187.3686894349
 21
130.0737901597
 31
0.0
  0
LINE
  5
118
330
1F
100
AcDbEntity
  8
0
  6
HIDDEN
 62
     7
370
    18
100
AcDbLine
 10
187.465461301
 20
130.0201422541
 30
0.0
 11
187.3686894349
 21
130.0737901597
 31
0.0
  0
LINE
  5
119
330
1F
100
AcDbEntity
  8
0
  6
HIDDEN
 62
     7
370
    18
100
AcDbLine
 10
175.3023922018
 20
140.1924497454
 30
0.0
 11
175.1752778462
 21
140.3351730673
 31
0.0
  0
LINE
  5
11A
330
1F
100
AcDbEntity
  8
0
  6
HIDDEN
 62
     7
370
    18
100
AcDbLine
 10
175.3023922018
 20
140.1924497454
 30
0.0
 11
175.3023922018
 21
130.8595134882
 31
0.0
  0
LINE
  5
11B
330
1F
100
AcDbEntity
  8
0
  6
HIDDEN
 62
     7
370
    18
100
AcDbLine
 10
168.7596574
 20
139.2564146785
 30
0.0
 11
164.1274693928
 21
138.1330645649
 31
0.0
  0
LINE
  5
11C
330
1F
100
AcDbEntity
  8
0
  6
HIDDEN
 62
     7
370
    18
100
AcDbLine
 10
187.3686894349
 20
130.079210457
 30
0.0
 11
178.1739726237
 21
128.4589233814
 31
0.0
  0
LINE
  5
11D
330
1F
100
AcDbEntity
  8
0
  6
HIDDEN
 62
     7
370
    18
100
AcDbLine
 10
187.3686894349
 20
130.0737901597
 30
0.0
 11
187.3686894349
 21
130.079210457
 31
0.0
  0
LINE
  5
11E
330
1F
100
AcDbEntity
  8
0
  6
HIDDEN
 62
     7
370
    18
100
AcDbLine
 10
187.3686894349
 20
130.079210457
 30
0.0
 11
187.0003364555
 21
129.909601715
 31
0.0
  0
LINE
  5
11F
330
1F
100
AcDbEntity
  8
0
  6
HIDDEN
 62
     7
370
    18
100
AcDbLine
 10
175.3077342681
 20
130.8625160722
 30
0.0
 11
175.3077342681
 21
140.1933885185
 31
0.0
  0
LINE
  5
120
330
1F
100
AcDbEntity
  8
0
  6
HIDDEN
 62
     7
370
    18
100
AcDbLine
 10
175.3077342681
 20
140.1933885185
 30
0.0
 11
175.3023922018
 21
140.1924497454
 31
0.0
  0
LINE
  5
121
330
1F
100
AcDbEntity
  8
0
  6
HIDDEN
 62
     7
370
    18
100
AcDbLine
 10
175.3077342681
 20
139.7148824303
 30
0.0
 11
175.3077342681
 21
140.1933885185
 31
0.0
  0
LWPOLYLINE
  5
122
330
1F
100
AcDbEntity
  8
0
  6
HIDDEN
 62
     7
370
    18
100
AcDbPolyline
 90
       16
 70
   128
 43
0.0
 10
164.1274693928
 20
138.1330645649
 10
163.6943783185
 20
138.0280374555
 10
163.2613915524
 20
137.9230326979
 10
162.8293621859
 20
137.8182626335
 10
162.3991395852
 20
137.7139284281
 10
161.9715693912
 20
137.610238698
 10
161.5474897942
 20
137.507398334
 10
161.1277389846
 20
137.4056010513
 10
160.7131383887
 20
137.3050591914
 10
160.3045038453
 20
137.2059590189
 10
159.902640017
 20
137.1085054247
 10
159.5083366654
 20
137.012880948
 10
159.1223667881
 20
136.9192830293
 10
158.7454922072
 20
136.8278867571
 10
158.3784523926
 20
136.7388746707
 10
158.0219700507
 20
136.652425584
  0
SPLINE
  5
123
330
1F
100
AcDbEntity
  8
0
  6
HIDDEN
 62
     7
370
    18
100
AcDbSpline
210
0.0
220
0.0
230
1.0
 70
     8
 71
     3
 72
     8
 73
     4
 74
     0
 42
0.000000001
 43
0.00000001
 40
0.0
 40
0.0
 40
0.0
 40
0.0
 40
1.0
 40
1.0
 40
1.0
 40
1.0
 10
158.0219694435128
 20
136.6524249770997
 30
0.0
 10
157.9532477819441
 20
136.6357593374925
 30
0.0
 10
157.87748924699
 20
136.6242561606838
 30
0.0
 10
157.7862913778951
 20
136.6242561606838
 30
0.0
  0
LINE
  5
124
330
1F
100
AcDbEntity
  8
0
  6
HIDDEN
 62
     7
370
    18
100
AcDbLine
 10
157.7862914226
 20
136.6242549388
 30
0.0
 11
157.5994681141
 21
136.6242549388
 31
0.0
  0
CIRCLE
  5
125
330
1F
100
AcDbEntity
  8
0
  6
HIDDEN
 62
     7
370
    18
100
AcDbCircle
 10
181.243222966
 20
134.9200115985
 30
0.0
 40
2.999438584709755
  0
LINE
  5
126
330
1F
100
AcDbEntity
  8
0
  6
HIDDEN
 62
     7
370
    18
100
AcDbLine
 10
187.0003364555
 20
140.7654701738
 30
0.0
 11
186.0051959327
 21
141.5999836294
 31
0.0
  0
LINE
  5
127
330
1F
100
AcDbEntity
  8
0
  6
HIDDEN
 62
     7
370
    18
100
AcDbLine
 10
175.3077342681
 20
139.7148824303
 30
0.0
 11
175.3077342681
 21
130.7578205137
 31
0.0
  0
LINE
  5
128
330
1F
100
AcDbEntity
  8
0
  6
HIDDEN
 62
     7
370
    18
100
AcDbLine
 10
178.1739726237
 20
128.3542240976
 30
0.0
 11
187.0003364555
 21
129.909601715
 31
0.0
  0
LINE
  5
129
330
1F
100
AcDbEntity
  8
0
  6
HIDDEN
 62
     7
370
    18
100
AcDbLine
 10
175.3077342681
 20
139.7148824303
 30
0.0
 11
186.0051959327
 21
141.5999836294
 31
0.0
  0
LINE
  5
12A
330
1F
100
AcDbEntity
  8
0
  6
HIDDEN
 62
     7
370
    18
100
AcDbLine
 10
187.0003364555
 20
140.7654701738
 30
0.0
 11
187.0003364555
 21
129.909601715
 31
0.0
  0
CIRCLE
  5
12B
330
1F
100
AcDbEntity
  8
0
  6
HIDDEN
 62
     7
370
    18
100
AcDbCircle
 10
181.2432565353
 20
134.8864581366
 30
0.0
 40
2.049620172211173
  0
LINE
  5
12C
330
1F
100
AcDbEntity
  8
0
  6
HIDDEN
 62
     7
370
    18
100
AcDbLine
 10
182.5857631437
 20
138.6560692458
 30
0.0
 11
186.0051959327
 21
141.5999836294
 31
0.0
  0
LINE
  5
12D
330
1F
100
AcDbEntity
  8
0
  6
HIDDEN
 62
     7
370
    18
100
AcDbLine
 10
187.0003364555
 20
140.7654701738
 30
0.0
 11
186.1900113097
 21
138.8322493998
 31
0.0
  0
CIRCLE
  5
12E
330
1F
100
AcDbEntity
  8
0
  6
HIDDEN
 62
     7
370
    18
100
AcDbCircle
 10
181.2432564782
 20
134.5008193579
 30
0.0
 40
2.049619719986249
  0
LINE
  5
12F
330
1F
100
AcDbEntity
  8
0
  6
HIDDEN
 62
     7
370
    18
100
AcDbLine
 10
186.1900113097
 20
138.8322493998
 30
0.0
 11
182.5857631437
 21
138.6560692458
 31
0.0
  0
LINE
  5
130
330
1F
100
AcDbEntity
  8
0
  6
HIDDEN
 62
     7
370
    18
100
AcDbLine
 10
186.0686972312
 20
118.3079524903
 30
0.0
 11
186.1900113097
 21
138.8322493998
 31
0.0
  0
LINE
  5
131
330
1F
100
AcDbEntity
  8
0
  6
HIDDEN
 62
     7
370
    18
100
AcDbLine
 10
181.8066596559
 20
114.9201083003
 30
0.0
 11
186.0686972312
 21
118.3079524903
 31
0.0
  0
SPLINE
  5
132
330
1F
100
AcDbEntity
  8
0
  6
HIDDEN
 62
     7
370
    18
100
AcDbSpline
210
0.0
220
0.0
230
1.0
 70
     8
 71
     3
 72
     8
 73
     4
 74
     0
 42
0.000000001
 43
0.00000001
 40
0.0000003052629808
 40
0.0000003052629808
 40
0.0000003052629808
 40
0.0000003052629808
 40
0.001333347252627
 40
0.001333347252627
 40
0.001333347252627
 40
0.001333347252627
 10
181.8066604207166
 20
136.7981927598985
 30
0.0
 10
182.0664394350154
 20
137.4172887306158
 30
0.0
 10
182.3261389629343
 20
138.0365856614652
 30
0.0
 10
182.5857638364776
 20
138.6560709899817
 30
0.0
  0
SPLINE
  5
133
330
1F
100
AcDbEntity
  8
0
  6
HIDDEN
 62
     7
370
    18
100
AcDbSpline
210
0.0
220
0.0
230
1.0
 70
     8
 71
     3
 72
    18
 73
    14
 74
     0
 42
0.000000001
 43
0.00000001
 40
0.0
 40
0.0
 40
0.0
 40
0.0
 40
0.2499999999999988
 40
0.2499999999999988
 40
0.374999999999999
 40
0.374999999999999
 40
0.4999999999999992
 40
0.4999999999999992
 40
0.7499999999999996
 40
0.7499999999999996
 40
0.8749999999999998
 40
0.8749999999999998
 40
1.0
 40
1.0
 40
1.0
 40
1.0
 10
157.5994681717121
 20
136.6242561606838
 30
0.0
 10
158.0587275363781
 20
136.3029869090596
 30
0.0
 10
158.5649987925172
 20
136.0073893182503
 30
0.0
 10
159.3713548299356
 20
135.63725029208
 30
0.0
 10
159.6486945175296
 20
135.5254199058311
 30
0.0
 10
160.2223834583118
 20
135.3275727350343
 30
0.0
 10
160.521338787517
 20
135.2410049289126
 30
0.0
 10
161.4291784073054
 20
135.0305693775662
 30
0.0
 10
162.04552721182
 20
134.9549948806828
 30
0.0
 10
162.9877953761103
 20
134.9452008187793
 30
0.0
 10
163.3060839573726
 20
134.9597240728565
 30
0.0
 10
163.9286627843067
 20
135.022979601228
 30
0.0
 10
164.2353839986474
 20
135.0715373495229
 30
0.0
 10
164.5377223775334
 20
135.1362997010591
 30
0.0
  0
ELLIPSE
  5
134
330
1F
100
AcDbEntity
  8
0
  6
HIDDEN
 62
     7
370
    18
100
AcDbEllipse
 10
179.8474704034
 20
125.8328433876
 30
0.0
 11
77.16522493594289
 21
14.38999339497962
 31
0.0
210
0.0
220
0.0
230
1.0
 40
0.1545180653
 41
1.506510497227892
 42
1.74163275182507
  0
LINE
  5
135
330
1F
100
AcDbEntity
  8
0
  6
HIDDEN
 62
     7
370
    18
100
AcDbLine
 10
141.4567151613
 20
136.6242549388
 30
0.0
 11
157.5994681141
 21
136.6242549388
 31
0.0
  0
SPLINE
  5
136
330
1F
100
AcDbEntity
  8
0
  6
HIDDEN
 62
     7
370
    18
100
AcDbSpline
210
0.0
220
0.0
230
1.0
 70
     8
 71
     3
 72
    14
 73
    10
 74
     0
 42
0.000000001
 43
0.00000001
 40
0.0
 40
0.0
 40
0.0
 40
0.0
 40
0.4999999999999998
 40
0.4999999999999998
 40
0.7499999999999998
 40
0.7499999999999998
 40
0.8749999999999999
 40
0.8749999999999999
 40
1.0
 40
1.0
 40
1.0
 40
1.0
 10
181.8066604207166
 20
136.7981927598984
 30
0.0
 10
175.812317886673
 20
134.0432880920345
 30
0.0
 10
169.6925236159312
 20
131.7517298068491
 30
0.0
 10
160.2353295056969
 20
129.3393273662022
 30
0.0
 10
157.036403390432
 20
128.7070411143168
 30
0.0
 10
152.1557942725603
 20
128.0622848070303
 30
0.0
 10
150.5130721528986
 20
127.8980895520111
 30
0.0
 10
147.2291920794626
 20
127.6793672337077
 30
0.0
 10
145.5846456926101
 20
127.6242561606837
 30
0.0
 10
143.9374515910193
 20
127.6242561606837
 30
0.0
  0
LINE
  5
137
330
1F
100
AcDbEntity
  8
0
  6
HIDDEN
 62
     7
370
    18
100
AcDbLine
 10
181.8066596559
 20
136.7981924681
 30
0.0
 11
181.8066596559
 21
114.9201083003
 31
0.0
  0
LINE
  5
138
330
1F
100
AcDbEntity
  8
0
  6
HIDDEN
 62
     7
370
    18
100
AcDbLine
 10
181.8066596559
 20
114.9201083003
 30
0.0
 11
173.2020400039
 21
106.6242565407
 31
0.0
  0
LINE
  5
139
330
1F
100
AcDbEntity
  8
0
  6
HIDDEN
 62
     7
370
    18
100
AcDbLine
 10
157.0673849008
 20
106.6242565407
 30
0.0
 11
173.2020400039
 21
106.6242565407
 31
0.0
  0
LINE
  5
13A
330
1F
100
AcDbEntity
  8
0
  6
HIDDEN
 62
     7
370
    18
100
AcDbLine
 10
116.9255733064
 20
136.6242549388
 30
0.0
 11
119.7862917132
 21
136.6242549388
 31
0.0
  0
LINE
  5
13B
330
1F
100
AcDbEntity
  8
0
  6
HIDDEN
 62
     7
370
    18
100
AcDbLine
 10
119.7862917132
 20
136.6242549388
 30
0.0
 11
141.4567151613
 21
136.6242549388
 31
0.0
  0
LINE
  5
13C
330
1F
100
AcDbEntity
  8
0
  6
HIDDEN
 62
     7
370
    18
100
AcDbLine
 10
109.0064741245
 20
127.6242553262
 30
0.0
 11
114.207778456
 21
127.6242553262
 31
0.0
  0
LWPOLYLINE
  5
13D
330
1F
100
AcDbEntity
  8
0
  6
HIDDEN
 62
     7
370
    18
100
AcDbPolyline
 90
        4
 70
   128
 43
0.0
 10
111.8840876541
 20
97.8090840048
 10
110.814422699
 20
97.9785020585
 10
109.8530221305
 20
98.1307730667
 10
109.0064741245
 20
98.2648529875
  0
LINE
  5
13E
330
1F
100
AcDbEntity
  8
0
  6
HIDDEN
 62
     7
370
    18
100
AcDbLine
 10
114.207778456
 20
127.6242553262
 30
0.0
 11
143.9374511636
 21
127.6242553262
 31
0.0
  0
LINE
  5
13F
330
1F
100
AcDbEntity
  8
0
  6
HIDDEN
 62
     7
370
    18
100
AcDbLine
 10
164.7862907073
 20
89.4301977946
 30
0.0
 11
164.7862907073
 21
98.2242561708
 31
0.0
  0
ARC
  5
140
330
1F
100
AcDbEntity
  8
0
  6
HIDDEN
 62
     7
370
    18
100
AcDbCircle
 10
164.3862913779
 20
98.2242561607
 30
0.0
 40
0.4000000000000057
100
AcDbArc
 50
0.0
 51
90.0
  0
LINE
  5
141
330
1F
100
AcDbEntity
  8
0
  6
HIDDEN
 62
     7
370
    18
100
AcDbLine
 10
151.7862923018
 20
106.6242565407
 30
0.0
 11
151.7862923018
 21
136.6242549388
 31
0.0
  0
LINE
  5
142
330
1F
100
AcDbEntity
  8
0
  6
HIDDEN
 62
     7
370
    18
100
AcDbLine
 10
117.786290454
 20
136.6242549388
 30
0.0
 11
117.786290454
 21
106.6242565407
 31
0.0
  0
LINE
  5
143
330
1F
100
AcDbEntity
  8
0
  6
HIDDEN
 62
     7
370
    18
100
AcDbLine
 10
145.7862913183
 20
98.6242561607
 30
0.0
 11
145.7862913183
 21
106.6242565407
 31
0.0
  0
LINE
  5
144
330
1F
100
AcDbEntity
  8
0
  6
HIDDEN
 62
     7
370
    18
100
AcDbLine
 10
123.7862914375
 20
106.6242565407
 30
0.0
 11
123.7862914375
 21
101.6242561868
 31
0.0
  0
LINE
  5
145
330
1F
100
AcDbEntity
  8
0
  6
HIDDEN
 62
     7
370
    18
100
AcDbLine
 10
174.2862931958
 20
129.1667881427
 30
0.0
 11
174.2862931958
 21
129.013229814
 31
0.0
  0
LINE
  5
146
330
1F
100
AcDbEntity
  8
0
  6
HIDDEN
 62
     7
370
    18
100
AcDbLine
 10
178.2862901262
 20
129.013229814
 30
0.0
 11
178.2862901262
 21
129.0146267979
 31
0.0
  0
LINE
  5
147
330
1F
100
AcDbEntity
  8
0
  6
HIDDEN
 62
     7
370
    18
100
AcDbLine
 10
179.1934541932
 20
134.885591176
 30
0.0
 11
179.1934541932
 21
134.4999528496
 31
0.0
  0
LINE
  5
148
330
1F
100
AcDbEntity
  8
0
  6
HIDDEN
 62
     7
370
    18
100
AcDbLine
 10
183.2934565417
 20
134.4999528496
 30
0.0
 11
183.2934565417
 21
134.885591176
 31
0.0
  0
LINE
  5
149
330
1F
100
AcDbEntity
  8
VERMASSUNG
100
AcDbLine
 10
107.1032808446
 20
98.5662893158
 30
0.0
 11
104.7862913779
 21
98.5662893158
 31
0.0
  0
LINE
  5
14A
330
1F
100
AcDbEntity
  8
VERMASSUNG
100
AcDbLine
 10
187.7862913779
 20
142.8775655859
 30
0.0
 11
182.7761018472
 21
142.8775655859
 31
0.0
  0
POINT
  5
14B
330
1F
100
AcDbEntity
  8
VERMASSUNG
100
AcDbPoint
 10
187.7862913779
 20
142.8775655859
 30
0.0
  0
POINT
  5
14C
330
1F
100
AcDbEntity
  8
0
  6
Continuous
 62
     7
370
    18
100
AcDbPoint
 10
187.7862913779
 20
-26.9224344141
 30
0.0
  0
DIMENSION
  5
14D
330
1F
100
AcDbEntity
  8
VERMASSUNG
100
AcDbDimension
  2
_D
 10
213.4044635137
 20
-26.9224344141
 30
0.0
 11
213.4044635137
 21
108.3185172113
 31
0.0
 70
   160
  1
%%c<>-105.1\P%%c104.9-134.1\P%%c133.9-171.1
 71
     2
 42
-1.0
  3
SLDDIMSTYLE0
100
AcDbAlignedDimension
 13
187.7862913779
 23
142.8775655859
 33
0.0
 14
187.7862913779
 24
-26.9224344141
 34
0.0
 50
90.0
100
AcDbRotatedDimension
  0
DIMENSION
  5
15C
330
1F
100
AcDbEntity
  8
VERMASSUNG
100
AcDbDimension
  2
_D_1
 10
164.7862913779
 20
75.6979613397
 30
0.0
 11
134.7862913779
 21
75.6979613397
 31
0.0
 70
   160
  1
%%c<>
 71
     2
 42
-1.0
  3
SLDDIMSTYLE1
100
AcDbAlignedDimension
 13
104.7862913779
 23
98.5662893158
 33
0.0
 14
164.7862913779
 24
89.4301979762
 34
0.0
 50
0.0
100
AcDbRotatedDimension
  0
DIMENSION
  5
168
330
1F
100
AcDbEntity
  8
VERMASSUNG
100
AcDbDimension
  2
_D_2
 10
187.7862913779
 20
142.8775655859
 30
0.0
 11
197.9072167686
 21
132.7566401951
 31
0.0
 70
   162
  1
<>
 71
     1
 42
-1.0
  3
SLDDIMSTYLE2
100
AcDb2LineAngularDimension
 13
187.7862913779
 23
130.6603742392
 33
0.0
 14
187.7862913779
 24
141.9247434991
 34
0.0
 15
182.7761018472
 25
142.8775655859
 35
0.0
 16
197.9072167686
 26
132.7566401951
 36
0.0
  0
LINE
  5
173
330
1F
100
AcDbEntity
  8
0
  6
Continuous
 62
     7
100
AcDbLine
 10
252.8576188289
 20
56.7345534327
 30
0.0
 11
257.4170179919
 21
53.9119877173
 31
0.0
  0
LINE
  5
174
330
1F
100
AcDbEntity
  8
0
  6
Continuous
 62
     7
370
    25
100
AcDbLine
 10
248.5596745183
 20
63.7927554607
 30
0.0
 11
248.6497581592
 21
63.8412514341
 31
0.0
  0
LINE
  5
175
330
1F
100
AcDbEntity
  8
0
  6
Continuous
 62
     7
370
    25
100
AcDbLine
 10
247.3350400578
 20
66.9948550769
 30
0.0
 11
246.9480413974
 21
66.7865215134
 31
0.0
  0
LINE
  5
176
330
1F
100
AcDbEntity
  8
0
  6
Continuous
 62
     7
370
    25
100
AcDbLine
 10
247.4238167142
 20
65.9156341015
 30
0.0
 11
247.6203208492
 21
66.0214184279
 31
0.0
  0
LINE
  5
177
330
1F
100
AcDbEntity
  8
0
  6
Continuous
 62
     7
370
    25
100
AcDbLine
 10
248.1679348005
 20
64.7088830909
 30
0.0
 11
247.8284546539
 21
64.5261307156
 31
0.0
  0
LINE
  5
178
330
1F
100
AcDbEntity
  8
0
  6
Continuous
 62
     7
370
    25
100
AcDbLine
 10
249.9714887306
 20
61.3238059423
 30
0.0
 11
250.4290731959
 21
61.6652771639
 31
0.0
  0
LINE
  5
179
330
1F
100
AcDbEntity
  8
0
  6
Continuous
 62
     7
370
    25
100
AcDbLine
 10
246.9495468302
 20
70.0244092403
 30
0.0
 11
245.0826720655
 21
69.3501711878
 31
0.0
  0
LINE
  5
17A
330
1F
100
AcDbEntity
  8
0
  6
Continuous
 62
     7
370
    25
100
AcDbLine
 10
271.7301262211
 20
51.5164396447
 30
0.0
 11
267.010241091
 21
54.2411713328
 31
0.0
  0
LINE
  5
17B
330
1F
100
AcDbEntity
  8
0
  6
Continuous
 62
     7
370
    25
100
AcDbLine
 10
238.583371059
 20
41.6633397659
 30
0.0
 11
238.583371059
 21
37.9895034208
 31
0.0
  0
LINE
  5
17C
330
1F
100
AcDbEntity
  8
0
  6
Continuous
 62
     7
370
    25
100
AcDbLine
 10
241.6594785539
 20
30.6506239245
 30
0.0
 11
249.897459417
 21
25.8949387998
 31
0.0
  0
LWPOLYLINE
  5
17D
330
1F
100
AcDbEntity
  8
0
  6
Continuous
 62
     7
370
    25
100
AcDbPolyline
 90
       12
 70
   128
 43
0.0
 10
246.5944684498
 20
66.0125671823
 10
246.6271203316
 20
65.6600053811
 10
246.7252552656
 20
65.2859199556
 10
246.8831672107
 20
64.912050207
 10
247.0916814997
 20
64.5601247799
 10
247.3386794783
 20
64.2505965568
 10
247.6098053597
 20
64.0014538827
 10
247.8893026641
 20
63.8271750628
 10
248.1609293841
 20
63.7378895425
 10
248.4088984714
 20
63.7387848899
 10
248.61879823
 20
63.8298124438
 10
248.6688374412
 20
63.8706864865
  0
LWPOLYLINE
  5
17E
330
1F
100
AcDbEntity
  8
0
  6
Continuous
 62
     7
370
    25
100
AcDbPolyline
 90
        9
 70
   128
 43
0.0
 10
247.9568003944
 20
66.5306925743
 10
247.8979092389
 20
66.5778238517
 10
247.6184119345
 20
66.7521026716
 10
247.3467852197
 20
66.8413881949
 10
247.0988174469
 20
66.8404920856
 10
246.888916366
 20
66.7494652892
 10
246.7292833251
 20
66.5735987179
 10
246.6291960536
 20
66.3231140159
 10
246.5944684498
 20
66.0125671823
  0
LWPOLYLINE
  5
17F
330
1F
100
AcDbEntity
  8
0
  6
Continuous
 62
     7
370
    25
100
AcDbPolyline
 90
       22
 70
   128
 43
0.0
 10
246.8391070795
 20
65.6688295819
 10
246.8716089777
 20
65.3838136956
 10
246.9678817537
 20
65.0825592535
 10
247.1193696126
 20
64.7918321765
 10
247.3126129541
 20
64.5374676825
 10
247.5304405237
 20
64.3420640294
 10
247.7534986755
 20
64.2229865251
 10
247.961967206
 20
64.1908138818
 10
248.1373224208
 20
64.2484065286
 10
248.2639832495
 20
64.390645036
 10
248.3306967201
 20
64.604891036
 10
248.3315317854
 20
64.8721101932
 10
248.2664173946
 20
65.1685563278
 10
248.141138254
 20
65.4678906589
 10
247.9668266368
 20
65.7435149722
 10
247.7589682066
 20
65.970938972
 10
247.5360359191
 20
66.1299556672
 10
247.3178345896
 20
66.2064352233
 10
247.1237561775
 20
66.1935805572
 10
246.9710416869
 20
66.0925373181
 10
246.8732626756
 20
65.9122820123
 10
246.8391070795
 20
65.6688295819
  0
LWPOLYLINE
  5
180
330
1F
100
AcDbEntity
  8
0
  6
Continuous
 62
     7
370
    25
100
AcDbPolyline
 90
       21
 70
   128
 43
0.0
 10
246.8732067559
 20
65.6475675685
 10
246.9074271724
 20
65.361285521
 10
247.0083953913
 20
65.0593190096
 10
247.1662247147
 20
64.7712273904
 10
247.3654689094
 20
64.5252104538
 10
247.5866229621
 20
64.3453476757
 10
247.8080388583
 20
64.2492490026
 10
248.0080431471
 20
64.2463195061
 10
248.1670584527
 20
64.3368445762
 10
248.2695175958
 20
64.5119652442
 10
248.3053929809
 20
64.7545385623
 10
248.2711725696
 20
65.0408190918
 10
248.1702056678
 20
65.342784843
 10
248.012375022
 20
65.6308772195
 10
247.8131321445
 20
65.8768949167
 10
247.5919780917
 20
66.0567561738
 10
247.3705621955
 20
66.1528563679
 10
247.1705579067
 20
66.1557858644
 10
247.0115426063
 20
66.0652607973
 10
246.909082141
 20
65.8901408866
 10
246.8732067559
 20
65.6475675685
  0
SPLINE
  5
181
330
1F
100
AcDbEntity
  8
0
  6
Continuous
 62
     7
370
    25
100
AcDbSpline
210
0.0
220
0.0
230
1.0
 70
     8
 71
     3
 72
    16
 73
    12
 74
     0
 42
0.000000001
 43
0.00000001
 40
0.0
 40
0.0
 40
0.0
 40
0.0
 40
0.1242202960482075
 40
0.2490008780190396
 40
0.3727394536274028
 40
0.495294923770326
 40
0.6171969097942513
 40
0.7391054461325696
 40
0.8616667277525344
 40
0.9853927134391824
 40
1.0
 40
1.0
 40
1.0
 40
1.0
 10
248.1930869304535
 20
65.0619114156799
 30
0.0
 10
248.2009944390598
 20
65.0683069188719
 30
0.0
 10
248.216845122471
 20
65.08112677167249
 30
0.0
 10
248.2254635312221
 20
65.12512998925374
 30
0.0
 10
248.220794451563
 20
65.1814920550289
 30
0.0
 10
248.2025192232816
 20
65.24523017849884
 30
0.0
 10
248.1730654863271
 20
65.30861708376962
 30
0.0
 10
248.1357214963837
 20
65.36502990512392
 30
0.0
 10
248.0947818441739
 20
65.4083787966789
 30
0.0
 10
248.0665628831827
 20
65.42671020980877
 30
0.0
 10
248.0530381459375
 20
65.43185956214464
 30
0.0
 10
248.0516100028061
 20
65.43240330743417
 30
0.0
  0
SPLINE
  5
182
330
1F
100
AcDbEntity
  8
0
  6
Continuous
 62
     7
370
    25
100
AcDbSpline
210
0.0
220
0.0
230
1.0
 70
     8
 71
     3
 72
    12
 73
     8
 74
     0
 42
0.000000001
 43
0.00000001
 40
0.0
 40
0.0
 40
0.0
 40
0.0
 40
0.2093658995553066
 40
0.4192604861716718
 40
0.6249530121478026
 40
0.8281697068220913
 40
1.0
 40
1.0
 40
1.0
 40
1.0
 10
248.0516100028061
 20
65.43240330743417
 30
0.0
 10
248.0288067562136
 20
65.44620385825047
 30
0.0
 10
247.983142680674
 20
65.4738398087895
 30
0.0
 10
247.9080906651873
 20
65.5535990981696
 30
0.0
 10
247.8380476793194
 20
65.64937786616211
 30
0.0
 10
247.7814859599299
 20
65.74815839291814
 30
0.0
 10
247.7587577509426
 20
65.80891879988663
 30
0.0
 10
247.7483446695416
 20
65.83675658790031
 30
0.0
  0
SPLINE
  5
183
330
1F
100
AcDbEntity
  8
0
  6
Continuous
 62
     7
370
    25
100
AcDbSpline
210
0.0
220
0.0
230
1.0
 70
     8
 71
     3
 72
    16
 73
    12
 74
     0
 42
0.000000001
 43
0.00000001
 40
0.0
 40
0.0
 40
0.0
 40
0.0
 40
0.123188015561335
 40
0.2479787690026211
 40
0.3717269080556614
 40
0.494290302031613
 40
0.6161929666620127
 40
0.7380956741467521
 40
0.860649647774861
 40
0.9843612604095275
 40
1.0
 40
1.0
 40
1.0
 40
1.0
 10
247.7483446695416
 20
65.83675658790031
 30
0.0
 10
247.740785576816
 20
65.85632911534978
 30
0.0
 10
247.7255690437765
 20
65.89572881864945
 30
0.0
 10
247.6868866000677
 20
65.95584253522775
 30
0.0
 10
247.6412170679623
 20
66.00773931581644
 30
0.0
 10
247.59267506831
 20
66.04569557113089
 30
0.0
 10
247.5469689292251
 20
66.06556853502852
 30
0.0
 10
247.5089436743063
 20
66.0655026129251
 30
0.0
 10
247.4829546735241
 20
66.04562104454031
 30
0.0
 10
247.4751016280757
 20
66.01916422068835
 30
0.0
 10
247.4746770084608
 20
66.00228916281026
 30
0.0
 10
247.4746293550786
 20
66.00039534172178
 30
0.0
  0
SPLINE
  5
184
330
1F
100
AcDbEntity
  8
0
  6
Continuous
 62
     7
370
    25
100
AcDbSpline
210
0.0
220
0.0
230
1.0
 70
     8
 71
     3
 72
    12
 73
     8
 74
     0
 42
0.000000001
 43
0.00000001
 40
0.0
 40
0.0
 40
0.0
 40
0.0
 40
0.209365612987491
 40
0.4192640606966461
 40
0.6249542902313744
 40
0.8281712109071513
 40
1.0
 40
1.0
 40
1.0
 40
1.0
 10
247.4746293550786
 20
66.00039534172178
 30
0.0
 10
247.4691680778401
 20
65.97801713938368
 30
0.0
 10
247.4582316244322
 20
65.93320378226414
 30
0.0
 10
247.4051910558513
 20
65.9019322217486
 30
0.0
 10
247.3306232761678
 20
65.90223790918868
 30
0.0
 10
247.2458694261912
 20
65.93148648194742
 30
0.0
 10
247.1901745977893
 20
65.96936254614313
 30
0.0
 10
247.164657774976
 20
65.98671562625269
 30
0.0
  0
SPLINE
  5
185
330
1F
100
AcDbEntity
  8
0
  6
Continuous
 62
     7
370
    25
100
AcDbSpline
210
0.0
220
0.0
230
1.0
 70
     8
 71
     3
 72
    16
 73
    12
 74
     0
 42
0.000000001
 43
0.00000001
 40
0.0
 40
0.0
 40
0.0
 40
0.0
 40
0.1243680898566612
 40
0.2491439167849345
 40
0.3728821573957634
 40
0.4954368027737096
 40
0.6173376282789629
 40
0.7392471992195881
 40
0.8618120986599406
 40
0.9855394087805937
 40
1.0
 40
1.0
 40
1.0
 40
1.0
 10
247.164657774976
 20
65.98671562625269
 30
0.0
 10
247.1465348613716
 20
65.99869907834224
 30
0.0
 10
247.1102296187312
 20
66.02270526991138
 30
0.0
 10
247.0571150002361
 20
66.03590301424641
 30
0.0
 10
247.0125710681366
 20
66.02943159730923
 30
0.0
 10
246.9812166238198
 20
66.00289171315242
 30
0.0
 10
246.9663171984876
 20
65.95989822463466
 30
0.0
 10
246.9693385844502
 20
65.90517848454667
 30
0.0
 10
246.9901145233172
 20
65.84485633163376
 30
0.0
 10
247.0158580405557
 20
65.80292129685733
 30
0.0
 10
247.0319721752648
 20
65.7826531044758
 30
0.0
 10
247.0336584293624
 20
65.78053215146947
 30
0.0
  0
SPLINE
  5
186
330
1F
100
AcDbEntity
  8
0
  6
Continuous
 62
     7
370
    25
100
AcDbSpline
210
0.0
220
0.0
230
1.0
 70
     8
 71
     3
 72
    12
 73
     8
 74
     0
 42
0.000000001
 43
0.00000001
 40
0.0
 40
0.0
 40
0.0
 40
0.0
 40
0.2092381342411271
 40
0.4191365337183282
 40
0.6248304137069803
 40
0.8280468935179405
 40
1.0
 40
1.0
 40
1.0
 40
1.0
 10
247.0336584293624
 20
65.78053215146947
 30
0.0
 10
247.0552590012246
 20
65.74667464012182
 30
0.0
 10
247.09852830703
 20
65.67885277773495
 30
0.0
 10
247.1269670953774
 20
65.57129057999283
 30
0.0
 10
247.1212443075651
 20
65.47514932279205
 30
0.0
 10
247.0853190842155
 20
65.40142375352343
 30
0.0
 10
247.0444446561854
 20
65.37427550549064
 30
0.0
 10
247.0257105019995
 20
65.361832531019
 30
0.0
  0
SPLINE
  5
187
330
1F
100
AcDbEntity
  8
0
  6
Continuous
 62
     7
370
    25
100
AcDbSpline
210
0.0
220
0.0
230
1.0
 70
     8
 71
     3
 72
    16
 73
    12
 74
     0
 42
0.000000001
 43
0.00000001
 40
0.0
 40
0.0
 40
0.0
 40
0.0
 40
0.1242185915502454
 40
0.2489989801875929
 40
0.3727377977845425
 40
0.49529391593196
 40
0.61719545171245
 40
0.7391042650148634
 40
0.8616686712584373
 40
0.9853949369234439
 40
1.0
 40
1.0
 40
1.0
 40
1.0
 10
247.0257105019995
 20
65.361832531019
 30
0.0
 10
247.0126853953443
 20
65.3526829530504
 30
0.0
 10
246.9865762740485
 20
65.33434241678368
 30
0.0
 10
246.966745834745
 20
65.28430178945493
 30
0.0
 10
246.964386951073
 20
65.22415666826377
 30
0.0
 10
246.9804448309029
 20
65.15922437835233
 30
0.0
 10
247.0124780961723
 20
65.09722641958659
 30
0.0
 10
247.0570215404014
 20
65.0446885357515
 30
0.0
 10
247.1093496681419
 20
65.00747087631146
 30
0.0
 10
247.1480607619775
 20
64.99478568513526
 30
0.0
 10
247.1676046968794
 20
64.99287830834207
 30
0.0
 10
247.1696681513737
 20
64.99267692692956
 30
0.0
  0
SPLINE
  5
188
330
1F
100
AcDbEntity
  8
0
  6
Continuous
 62
     7
370
    25
100
AcDbSpline
210
0.0
220
0.0
230
1.0
 70
     8
 71
     3
 72
    12
 73
     8
 74
     0
 42
0.000000001
 43
0.00000001
 40
0.0
 40
0.0
 40
0.0
 40
0.0
 40
0.2093654954524456
 40
0.4192630225795552
 40
0.6249523804760152
 40
0.8281696243053779
 40
1.0
 40
1.0
 40
1.0
 40
1.0
 10
247.1696681513737
 20
64.99267692692956
 30
0.0
 10
247.2010135505929
 20
64.98347490478737
 30
0.0
 10
247.2637840027735
 20
64.96504747667251
 30
0.0
 10
247.3516566864148
 20
64.89219066145783
 30
0.0
 10
247.4192590858777
 20
64.79509754232278
 30
0.0
 10
247.460339574753
 20
64.68798377221346
 30
0.0
 10
247.4672751749742
 20
64.61872171679472
 30
0.0
 10
247.4704527629114
 20
64.58698887972437
 30
0.0
  0
SPLINE
  5
189
330
1F
100
AcDbEntity
  8
0
  6
Continuous
 62
     7
370
    25
100
AcDbSpline
210
0.0
220
0.0
230
1.0
 70
     8
 71
     3
 72
    16
 73
    12
 74
     0
 42
0.000000001
 43
0.00000001
 40
0.0
 40
0.0
 40
0.0
 40
0.0
 40
0.1231888767907923
 40
0.2479778485929235
 40
0.3717276531524438
 40
0.4942914805441495
 40
0.6161928612475462
 40
0.7380935721182692
 40
0.8606491617758857
 40
0.9843613807396029
 40
1.0
 40
1.0
 40
1.0
 40
1.0
 10
247.4704527629114
 20
64.58698887972437
 30
0.0
 10
247.4729360235605
 20
64.56468338612423
 30
0.0
 10
247.4779347998242
 20
64.51978267382891
 30
0.0
 10
247.5053994202069
 20
64.45363050559502
 30
0.0
 10
247.5440026469808
 20
64.39792798986366
 30
0.0
 10
247.5902874179946
 20
64.3587585274351
 30
0.0
 10
247.6385336829904
 20
64.34025378678749
 30
0.0
 10
247.683722924733
 20
64.34417245279816
 30
0.0
 10
247.721065154286
 20
64.37017086373699
 30
0.0
 10
247.7394357930812
 20
64.40228636390682
 30
0.0
 10
247.7459209936515
 20
64.42242485197565
 30
0.0
 10
247.7466487939564
 20
64.4246848896719
 30
0.0
  0
SPLINE
  5
18A
330
1F
100
AcDbEntity
  8
0
  6
Continuous
 62
     7
370
    25
100
AcDbSpline
210
0.0
220
0.0
230
1.0
 70
     8
 71
     3
 72
    12
 73
     8
 74
     0
 42
0.000000001
 43
0.00000001
 40
0.0
 40
0.0
 40
0.0
 40
0.0
 40
0.2093664148203324
 40
0.419262054999623
 40
0.6249512817928407
 40
0.8281716516641974
 40
1.0
 40
1.0
 40
1.0
 40
1.0
 10
247.7466487939564
 20
64.4246848896719
 30
0.0
 10
247.7606528371144
 20
64.45166124984286
 30
0.0
 10
247.7886963221106
 20
64.50568215960246
 30
0.0
 10
247.8545553402256
 20
64.54385759480616
 30
0.0
 10
247.9266838747441
 20
64.5422382256743
 30
0.0
 10
247.9959570981836
 20
64.50465525101615
 30
0.0
 10
248.035859645927
 20
64.45827717096628
 30
0.0
 10
248.054140974566
 20
64.43702908103268
 30
0.0
  0
SPLINE
  5
18B
330
1F
100
AcDbEntity
  8
0
  6
Continuous
 62
     7
370
    25
100
AcDbSpline
210
0.0
220
0.0
230
1.0
 70
     8
 71
     3
 72
    16
 73
    12
 74
     0
 42
0.000000001
 43
0.00000001
 40
0.0
 40
0.0
 40
0.0
 40
0.0
 40
0.1243655011167165
 40
0.2491428001348736
 40
0.3728815093547366
 40
0.4954370812357105
 40
0.6173378750792675
 40
0.7392446217552358
 40
0.8618102260367514
 40
0.9855387818833293
 40
1.0
 40
1.0
 40
1.0
 40
1.0
 10
248.054140974566
 20
64.43702908103268
 30
0.0
 10
248.0671403515499
 20
64.42228799832044
 30
0.0
 10
248.0931821489351
 20
64.39275702235877
 30
0.0
 10
248.1350834160674
 20
64.3735228863292
 30
0.0
 10
248.1726052294111
 20
64.37621429620724
 30
0.0
 10
248.2017476715517
 20
64.40156243061358
 30
0.0
 10
248.219231656966
 20
64.44594839648163
 30
0.0
 10
248.2234150699044
 20
64.50454583835197
 30
0.0
 10
248.2140299937808
 20
64.57100018018275
 30
0.0
 10
248.1987779927143
 20
64.61858290886268
 30
0.0
 10
248.1886767813209
 20
64.64208829628653
 30
0.0
 10
248.1876197145277
 20
64.64454807695414
 30
0.0
  0
SPLINE
  5
18C
330
1F
100
AcDbEntity
  8
0
  6
Continuous
 62
     7
370
    25
100
AcDbSpline
210
0.0
220
0.0
230
1.0
 70
     8
 71
     3
 72
    12
 73
     8
 74
     0
 42
0.000000001
 43
0.00000001
 40
0.0
 40
0.0
 40
0.0
 40
0.0
 40
0.2092403790294528
 40
0.4191387867463929
 40
0.6248333400360109
 40
0.828050375705027
 40
1.0
 40
1.0
 40
1.0
 40
1.0
 10
248.1876197145277
 20
64.64454807695412
 30
0.0
 10
248.1745558938979
 20
64.68300169170807
 30
0.0
 10
248.1483871689392
 20
64.76002985189753
 30
0.0
 10
248.1327763178343
 20
64.87449717828218
 30
0.0
 10
248.1360697279115
 20
64.96932938372035
 30
0.0
 10
248.1565167446242
 20
65.03472268502433
 30
0.0
 10
248.1815935242167
 20
65.05336644607145
 30
0.0
 10
248.1930869304535
 20
65.06191141567989
 30
0.0
  0
LINE
  5
18D
330
1F
100
AcDbEntity
  8
0
  6
Continuous
 62
     7
370
    25
100
AcDbLine
 10
247.5710757321
 20
66.0523150532
 30
0.0
 11
247.4746293551
 21
66.0003953417
 31
0.0
  0
LWPOLYLINE
  5
18E
330
1F
100
AcDbEntity
  8
0
  6
Continuous
 62
     7
370
    25
100
AcDbPolyline
 90
        3
 70
   128
 43
0.0
 10
248.1383096819
 20
64.8413218612
 10
248.1270961095
 20
64.8664221633
 10
248.1085724049
 20
64.930507454
  0
ARC
  5
18F
330
1F
100
AcDbEntity
  8
0
  6
Continuous
 62
     7
370
    25
100
AcDbCircle
 10
247.5822940527
 20
64.8531808649
 30
0.0
 40
0.5319288536980561
100
AcDbArc
 50
8.3587156249
 51
65.0651298859
  0
LWPOLYLINE
  5
190
330
1F
100
AcDbEntity
  8
0
  6
Continuous
 62
     7
370
    25
100
AcDbPolyline
 90
        9
 70
   128
 43
0.0
 10
247.8065487471
 20
65.335527356
 10
247.7595334848
 20
65.3550449671
 10
247.7125486802
 20
65.3939278638
 10
247.6710080219
 20
65.4476946841
 10
247.6396997047
 20
65.5101492303
 10
247.6222297537
 20
65.5740947494
 10
247.6206116687
 20
65.6321646498
 10
247.6350322294
 20
65.6776636926
 10
247.6638301337
 20
65.7053510994
  0
ARC
  5
191
330
1F
100
AcDbEntity
  8
0
  6
Continuous
 62
     7
370
    25
100
AcDbCircle
 10
247.5786307461
 20
65.8419333549
 30
0.0
 40
0.1609771666075508
100
AcDbArc
 50
301.9557265285
 51
356.5604579232
  0
LINE
  5
192
330
1F
100
AcDbEntity
  8
0
  6
Continuous
 62
     7
370
    25
100
AcDbLine
 10
247.2927326479
 20
65.9199997704
 30
0.0
 11
247.0336584294
 21
65.7805321515
 31
0.0
  0
LINE
  5
193
330
1F
100
AcDbEntity
  8
0
  6
Continuous
 62
     7
370
    25
100
AcDbLine
 10
247.6638301337
 20
65.7053510994
 30
0.0
 11
247.025710502
 21
65.361832531
 31
0.0
  0
LINE
  5
194
330
1F
100
AcDbEntity
  8
0
  6
Continuous
 62
     7
370
    25
100
AcDbLine
 10
247.8065487471
 20
65.335527356
 30
0.0
 11
247.1696681514
 21
64.9926769269
 31
0.0
  0
LINE
  5
195
330
1F
100
AcDbEntity
  8
0
  6
Continuous
 62
     7
370
    25
100
AcDbLine
 10
250.0350371438
 20
61.5565270163
 30
0.0
 11
249.3676231526
 21
66.5015004895
 31
0.0
  0
LINE
  5
196
330
1F
100
AcDbEntity
  8
0
  6
Continuous
 62
     7
370
    25
100
AcDbLine
 10
249.9352811548
 20
61.7570483588
 30
0.0
 11
250.0350371438
 21
61.5565270163
 31
0.0
  0
LINE
  5
197
330
1F
100
AcDbEntity
  8
0
  6
Continuous
 62
     7
370
    25
100
AcDbLine
 10
249.9012498165
 20
61.8918572101
 30
0.0
 11
249.9352811548
 21
61.7570483588
 31
0.0
  0
LINE
  5
198
330
1F
100
AcDbEntity
  8
0
  6
Continuous
 62
     7
370
    25
100
AcDbLine
 10
250.9295176929
 20
67.3886190042
 30
0.0
 11
250.9119739026
 21
67.5185985031
 31
0.0
  0
SPLINE
  5
199
330
1F
100
AcDbEntity
  8
0
  6
Continuous
 62
     7
370
    25
100
AcDbSpline
210
0.0
220
0.0
230
1.0
 70
     8
 71
     3
 72
    12
 73
     8
 74
     0
 42
0.000000001
 43
0.00000001
 40
0.0
 40
0.0
 40
0.0
 40
0.0
 40
0.0481921933682141
 40
0.4227678734614158
 40
0.5661192944478578
 40
0.9912387244879849
 40
0.9999999999999999
 40
0.9999999999999999
 40
0.9999999999999999
 40
0.9999999999999999
 10
249.2683719042147
 20
66.70599491771556
 30
0.0
 10
249.2662413536634
 20
66.70367851314819
 30
0.0
 10
249.2475510168486
 20
66.68335776481577
 30
0.0
 10
249.2010065834703
 20
66.64362978737634
 30
0.0
 10
249.0942908840683
 20
66.5624540740404
 30
0.0
 10
249.0095811177649
 20
66.50275815970076
 30
0.0
 10
248.9402248153304
 20
66.45589214173553
 30
0.0
 10
248.9388243159158
 20
66.45494578461413
 30
0.0
  0
SPLINE
  5
19A
330
1F
100
AcDbEntity
  8
0
  6
Continuous
 62
     7
370
    25
100
AcDbSpline
210
0.0
220
0.0
230
1.0
 70
     8
 71
     3
 72
    10
 73
     6
 74
     0
 42
0.000000001
 43
0.00000001
 40
0.0
 40
0.0
 40
0.0
 40
0.0
 40
0.3658095508683271
 40
0.9379229366880774
 40
1.0
 40
1.0
 40
1.0
 40
1.0
 10
249.2683719042147
 20
66.70599491771556
 30
0.0
 10
249.2717248881587
 20
66.70074020367288
 30
0.0
 10
249.2803218221094
 20
66.6872673000413
 30
0.0
 10
249.2884219271372
 20
66.66562954107654
 30
0.0
 10
249.2932262656693
 20
66.65148720035424
 30
0.0
 10
249.29369653328
 20
66.6501028922468
 30
0.0
  0
ARC
  5
19B
330
1F
100
AcDbEntity
  8
0
  6
Continuous
 62
     7
370
    25
100
AcDbCircle
 10
248.730179305
 20
66.4097504894
 30
0.0
 40
0.6440129822652105
100
AcDbArc
 50
8.1905724601
 51
55.0653238597
  0
SPLINE
  5
19C
330
1F
100
AcDbEntity
  8
0
  6
Continuous
 62
     7
370
    25
100
AcDbSpline
210
0.0
220
0.0
230
1.0
 70
     8
 71
     3
 72
    10
 73
     6
 74
     0
 42
0.000000001
 43
0.00000001
 40
0.0
 40
0.0
 40
0.0
 40
0.0
 40
0.062059894374905
 40
0.6342020577375459
 40
1.0
 40
1.0
 40
1.0
 40
1.0
 10
249.2241358531569
 20
66.76304900111033
 30
0.0
 10
249.2252603308667
 20
66.7618436166345
 30
0.0
 10
249.2367515859615
 20
66.74952555965686
 30
0.0
 10
249.2541591303689
 20
66.72974717667998
 30
0.0
 10
249.2643841373201
 20
66.71265923764344
 30
0.0
 10
249.2683719042147
 20
66.70599491771556
 30
0.0
  0
ARC
  5
19D
330
1F
100
AcDbEntity
  8
0
  6
Continuous
 62
     7
370
    25
100
AcDbCircle
 10
250.7402250426
 20
67.4938777924
 30
0.0
 40
0.173518830203513
100
AcDbArc
 50
8.190627318
 51
55.0649566848
  0
LINE
  5
19E
330
1F
100
AcDbEntity
  8
0
  6
Continuous
 62
     7
370
    25
100
AcDbLine
 10
245.4243852645
 20
69.0813895499
 30
0.0
 11
245.2554863783
 21
69.3170820445
 31
0.0
  0
LINE
  5
19F
330
1F
100
AcDbEntity
  8
0
  6
Continuous
 62
     7
370
    25
100
AcDbLine
 10
249.0989682742
 20
66.9377158457
 30
0.0
 11
245.2554863783
 21
69.3170820445
 31
0.0
  0
LINE
  5
1A0
330
1F
100
AcDbEntity
  8
0
  6
Continuous
 62
     7
370
    25
100
AcDbLine
 10
245.5320060692
 20
68.9861965141
 30
0.0
 11
245.4243852645
 21
69.0813895499
 31
0.0
  0
LINE
  5
1A1
330
1F
100
AcDbEntity
  8
0
  6
Continuous
 62
     7
370
    25
100
AcDbLine
 10
250.8395901476
 20
67.6361288393
 30
0.0
 11
246.9961082318
 21
70.0154950266
 31
0.0
  0
LINE
  5
1A2
330
1F
100
AcDbEntity
  8
0
  6
Continuous
 62
     7
370
    25
100
AcDbLine
 10
245.7217330274
 20
67.4168811138
 30
0.0
 11
246.0524325763
 21
64.9666692461
 31
0.0
  0
LWPOLYLINE
  5
1A3
330
1F
100
AcDbEntity
  8
0
  6
Continuous
 62
     7
370
    25
100
AcDbPolyline
 90
        9
 70
   128
 43
0.0
 10
246.3933695623
 20
67.9594249933
 10
246.2457585601
 20
68.0314505603
 10
246.1051449123
 20
68.0613523144
 10
245.9781955434
 20
68.0477102778
 10
245.8709290974
 20
67.9911711881
 10
245.7884299213
 20
67.8944186915
 10
245.7346104923
 20
67.7620361482
 10
245.7120205712
 20
67.6003021253
 10
245.7217330274
 20
67.4168811138
  0
LINE
  5
1A4
330
1F
100
AcDbEntity
  8
0
  6
Continuous
 62
     7
370
    25
100
AcDbLine
 10
248.2977982237
 20
66.7804593663
 30
0.0
 11
246.3933695623
 21
67.9594249933
 31
0.0
  0
ARC
  5
1A5
330
1F
100
AcDbEntity
  8
0
  6
Continuous
 62
     7
370
    25
100
AcDbCircle
 10
247.3758245097
 20
65.4605457427
 30
0.0
 40
1.610033385699789
100
AcDbArc
 50
8.1906444119
 51
55.0652909357
  0
LINE
  5
1A6
330
1F
100
AcDbEntity
  8
0
  6
Continuous
 62
     7
370
    25
100
AcDbLine
 10
249.3001356246
 20
63.2397102474
 30
0.0
 11
248.9694347612
 21
65.6899228768
 31
0.0
  0
LWPOLYLINE
  5
1A7
330
1F
100
AcDbEntity
  8
0
  6
Continuous
 62
     7
370
    25
100
AcDbPolyline
 90
        9
 70
   128
 43
0.0
 10
248.62849777
 20
62.6971671267
 10
248.7761100893
 20
62.6251407993
 10
248.9167237372
 20
62.5952390453
 10
249.0436731009
 20
62.6088810789
 10
249.1509395572
 20
62.6654201745
 10
249.2334387307
 20
62.7621726696
 10
249.2872581571
 20
62.8945552114
 10
249.3098480756
 20
63.0562907538
 10
249.3001356246
 20
63.2397102474
  0
LINE
  5
1A8
330
1F
100
AcDbEntity
  8
0
  6
Continuous
 62
     7
370
    25
100
AcDbLine
 10
246.7240704309
 20
63.8761319963
 30
0.0
 11
248.62849777
 21
62.6971671267
 31
0.0
  0
ARC
  5
1A9
330
1F
100
AcDbEntity
  8
0
  6
Continuous
 62
     7
370
    25
100
AcDbCircle
 10
247.6460490563
 20
65.1960504095
 30
0.0
 40
1.610040124816642
100
AcDbArc
 50
188.1907547598
 51
235.0652452521
  0
LWPOLYLINE
  5
1AA
330
1F
100
AcDbEntity
  8
0
  6
Continuous
 62
     7
370
    25
100
AcDbPolyline
 90
       29
 70
   128
 43
0.0
 10
247.5109343221
 20
63.7564553844
 10
247.80307014
 20
63.6150129455
 10
248.0805565736
 20
63.5594826723
 10
248.3294802444
 20
63.5926481818
 10
248.5373589865
 20
63.7128450203
 10
248.6937685446
 20
63.9140472825
 10
248.7908649437
 20
64.18616775
 10
248.8237812516
 20
64.515557739
 10
248.7908649437
 20
64.8857023543
 10
248.6937685446
 20
65.2780409009
 10
248.5373589865
 20
65.6728985783
 10
248.3294802444
 20
66.0504764136
 10
248.0805565736
 20
66.3918419198
 10
247.80307014
 20
66.6798761174
 10
247.5109343221
 20
66.9001374932
 10
247.2187985043
 20
67.0415784111
 10
246.9413107587
 20
67.0971094477
 10
246.6923870931
 20
67.0639439412
 10
246.4845096681
 20
66.9437463423
 10
246.32810011
 20
66.7425440801
 10
246.2310037006
 20
66.4704236067
 10
246.1980874029
 20
66.1410336236
 10
246.2310037006
 20
65.7708890023
 10
246.32810011
 20
65.3785504617
 10
246.4845096681
 20
64.9836927843
 10
246.6923870931
 20
64.6061157094
 10
246.9413107587
 20
64.2647502001
 10
247.2187985043
 20
63.9767152392
 10
247.5109343221
 20
63.7564553844
  0
SPLINE
  5
1AB
330
1F
100
AcDbEntity
  8
0
  6
Continuous
 62
     7
370
    25
100
AcDbSpline
210
0.0
220
0.0
230
1.0
 70
     8
 71
     3
 72
    11
 73
     7
 74
     0
 42
0.000000001
 43
0.00000001
 40
0.0
 40
0.0
 40
0.0
 40
0.0
 40
0.0074548364151139
 40
0.3066094048235026
 40
0.6526518436959392
 40
0.9999999999999999
 40
0.9999999999999999
 40
0.9999999999999999
 40
0.9999999999999999
 10
249.4857554414048
 20
62.44533178256985
 30
0.0
 10
249.4872025567082
 20
62.44437763027646
 30
0.0
 10
249.5467208529102
 20
62.40513437254486
 30
0.0
 10
249.6661851615369
 20
62.30746525654489
 30
0.0
 10
249.8199235526026
 20
62.12117611316938
 30
0.0
 10
249.8741070510739
 20
61.96839274609016
 30
0.0
 10
249.9012498165325
 20
61.89185721007618
 30
0.0
  0
SPLINE
  5
1AC
330
1F
100
AcDbEntity
  8
0
  6
Continuous
 62
     7
370
    25
100
AcDbSpline
210
0.0
220
0.0
230
1.0
 70
     8
 71
     3
 72
    11
 73
     7
 74
     0
 42
0.000000001
 43
0.00000001
 40
0.0
 40
0.0
 40
0.0
 40
0.0
 40
0.3473483408617131
 40
0.693392346027257
 40
0.9925468336977767
 40
1.0
 40
1.0
 40
1.0
 40
1.0
 10
245.5320060691518
 20
68.9861965140959
 30
0.0
 10
245.5891800789092
 20
68.92582753193197
 30
0.0
 10
245.7033134029929
 20
68.80531626054929
 30
0.0
 10
245.798460813164
 20
68.58748816316675
 30
0.0
 10
245.8288391397787
 20
68.44185607119216
 30
0.0
 10
245.8352616125083
 20
68.37403400992741
 30
0.0
 10
245.835417733064
 20
68.37238535864614
 30
0.0
  0
LWPOLYLINE
  5
1AD
330
1F
100
AcDbEntity
  8
0
  6
Continuous
 62
     7
370
    25
100
AcDbPolyline
 90
        9
 70
   128
 43
0.0
 10
249.7663822654
 20
61.3395093118
 10
249.8254265428
 20
61.3106985574
 10
249.881671862
 20
61.2987385354
 10
249.9324514881
 20
61.3041957362
 10
249.9753585851
 20
61.3268110632
 10
250.0083581269
 20
61.3655112271
 10
250.0298860292
 20
61.418464472
 10
250.0389216097
 20
61.4831589218
 10
250.0350371438
 20
61.5565270163
  0
LINE
  5
1AE
330
1F
100
AcDbEntity
  8
0
  6
Continuous
 62
     7
370
    25
100
AcDbLine
 10
249.9352811548
 20
61.7570483588
 30
0.0
 11
249.7663822654
 21
61.3395093118
 31
0.0
  0
LINE
  5
1AF
330
1F
100
AcDbEntity
  8
0
  6
Continuous
 62
     7
370
    25
100
AcDbLine
 10
245.9229003753
 20
63.7188755139
 30
0.0
 11
249.7663822654
 21
61.3395093118
 31
0.0
  0
LINE
  5
1B0
330
1F
100
AcDbEntity
  8
0
  6
Continuous
 62
     7
370
    25
100
AcDbLine
 10
244.9868314996
 20
69.1000643398
 30
0.0
 11
245.6542454969
 21
64.1550908701
 31
0.0
  0
LINE
  5
1B1
330
1F
100
AcDbEntity
  8
0
  6
Continuous
 62
     7
370
    25
100
AcDbLine
 10
245.4243852645
 20
69.0813895499
 30
0.0
 11
244.9868314996
 21
69.1000643398
 31
0.0
  0
LWPOLYLINE
  5
1B2
330
1F
100
AcDbEntity
  8
0
  6
Continuous
 62
     7
370
    25
100
AcDbPolyline
 90
        9
 70
   128
 43
0.0
 10
245.2554863783
 20
69.3170820445
 10
245.1964414494
 20
69.3458931831
 10
245.140196781
 20
69.3578528205
 10
245.089416507
 20
69.352396006
 10
245.0465094014
 20
69.3297806741
 10
245.013510521
 20
69.2910801316
 10
244.9919819596
 20
69.2381272666
 10
244.9829470443
 20
69.1734324405
 10
244.9868314996
 20
69.1000643398
  0
ARC
  5
1B3
330
1F
100
AcDbEntity
  8
0
  6
Continuous
 62
     7
370
    25
100
AcDbCircle
 10
246.9640193219
 20
69.973944423
 30
0.0
 40
0.0524990552442086
100
AcDbArc
 50
52.3216275752
 51
106.002033311
  0
SPLINE
  5
1B4
330
1F
100
AcDbEntity
  8
0
  6
Continuous
 62
     7
370
    25
100
AcDbSpline
210
0.0
220
0.0
230
1.0
 70
     8
 71
     3
 72
    12
 73
     8
 74
     0
 42
0.000000001
 43
0.00000001
 40
0.0
 40
0.0
 40
0.0
 40
0.0
 40
0.0087598219441461
 40
0.4338794848577168
 40
0.5772325145748751
 40
0.9518086043844628
 40
0.9999999999999999
 40
0.9999999999999999
 40
0.9999999999999999
 40
0.9999999999999999
 10
246.2818920740744
 20
64.30869159538844
 30
0.0
 10
246.2818623580326
 20
64.30848273727233
 30
0.0
 10
246.280390503812
 20
64.29813786355182
 30
0.0
 10
246.2605915330357
 20
64.27340965842613
 30
0.0
 10
246.1912016168759
 20
64.21232683858271
 30
0.0
 10
246.1288221590291
 20
64.16407699345635
 30
0.0
 10
246.0713945440831
 20
64.12290066837024
 30
0.0
 10
246.0648483526031
 20
64.11820696641674
 30
0.0
  0
SPLINE
  5
1B5
330
1F
100
AcDbEntity
  8
0
  6
Continuous
 62
     7
370
    25
100
AcDbSpline
210
0.0
220
0.0
230
1.0
 70
     8
 71
     3
 72
    10
 73
     6
 74
     0
 42
0.000000001
 43
0.00000001
 40
0.0
 40
0.0
 40
0.0
 40
0.0
 40
0.0620604257502878
 40
0.6342021505006064
 40
0.9999999999999999
 40
0.9999999999999999
 40
0.9999999999999999
 40
0.9999999999999999
 10
246.0480666320369
 20
64.02830489391086
 30
0.0
 10
246.0482433964552
 20
64.0302107793525
 30
0.0
 10
246.0500497710147
 20
64.04968722720297
 30
0.0
 10
246.0536146967902
 20
64.08075613203144
 30
0.0
 10
246.0616964547872
 20
64.1076991490982
 30
0.0
 10
246.0648483526031
 20
64.11820696641674
 30
0.0
  0
SPLINE
  5
1B6
330
1F
100
AcDbEntity
  8
0
  6
Continuous
 62
     7
370
    25
100
AcDbSpline
210
0.0
220
0.0
230
1.0
 70
     8
 71
     3
 72
    10
 73
     6
 74
     0
 42
0.000000001
 43
0.00000001
 40
0.0
 40
0.0
 40
0.0
 40
0.0
 40
0.365810076046357
 40
0.9379227754569651
 40
1.0
 40
1.0
 40
1.0
 40
1.0
 10
246.0648483526031
 20
64.11820696641674
 30
0.0
 10
246.0543561090793
 20
64.11961838024254
 30
0.0
 10
246.027454405679
 20
64.12323719027403
 30
0.0
 10
245.9983751708901
 20
64.13358118155462
 30
0.0
 10
245.980277438048
 20
64.1405671843962
 30
0.0
 10
245.9785059544862
 20
64.14125100425942
 30
0.0
  0
ARC
  5
1B7
330
1F
100
AcDbEntity
  8
0
  6
Continuous
 62
     7
370
    25
100
AcDbCircle
 10
246.291684682
 20
64.2468379988
 30
0.0
 40
0.6440079583364338
100
AcDbArc
 50
188.1903786941
 51
235.0655176258
  0
ELLIPSE
  5
1B8
330
1F
100
AcDbEntity
  8
0
  6
Continuous
 62
     7
370
    25
100
AcDbEllipse
 10
265.3491724036
 20
36.9782839062
 30
0.0
 11
6.023074869843526
 21
8.050698210827946
 31
0.0
210
0.0
220
0.0
230
1.0
 40
0.4807028563
 41
4.479349670269501
 42
4.727830022166321
  0
ELLIPSE
  5
1B9
330
1F
100
AcDbEntity
  8
0
  6
Continuous
 62
     7
370
    25
100
AcDbEllipse
 10
262.761032158
 20
42.0753856714
 30
0.0
 11
12.58822647797303
 21
16.82595926063041
 31
0.0
210
0.0
220
0.0
230
1.0
 40
0.4807028563
 41
4.225782200580755
 42
4.479349670269506
  0
LINE
  5
1BA
330
1F
100
AcDbEntity
  8
0
  6
Continuous
 62
     7
370
    25
100
AcDbLine
 10
264.114515649
 20
29.4669938018
 30
0.0
 11
264.0238458436
 21
28.8582728191
 31
0.0
  0
SPLINE
  5
1BB
330
1F
100
AcDbEntity
  8
0
  6
Continuous
 62
     7
370
    25
100
AcDbSpline
210
0.0
220
0.0
230
1.0
 70
     8
 71
     3
 72
    12
 73
     8
 74
     0
 42
0.000000001
 43
0.00000001
 40
0.0
 40
0.0
 40
0.0
 40
0.0
 40
0.5
 40
0.5
 40
0.75
 40
0.75
 40
1.0
 40
1.0
 40
1.0
 40
1.0
 10
266.2897593749881
 20
31.56237307473778
 30
0.0
 10
265.9438676938723
 20
31.17355037833227
 30
0.0
 10
265.5876787864824
 20
30.80296325138131
 30
0.0
 10
265.0425564214338
 20
30.27551600305517
 30
0.0
 10
264.8587318560446
 20
30.10422690263945
 30
0.0
 10
264.4887641085313
 20
29.77422954383711
 30
0.0
 10
264.3022508217789
 20
29.61373389004055
 30
0.0
 10
264.114515727927
 20
29.46699390840796
 30
0.0
  0
ELLIPSE
  5
1BC
330
1F
100
AcDbEntity
  8
0
  6
Continuous
 62
     7
370
    25
100
AcDbEllipse
 10
262.1450612431
 20
37.9400036461
 30
0.0
 11
9.03461230476529
 21
12.07604731624192
 31
0.0
210
0.0
220
0.0
230
1.0
 40
0.4807028563
 41
4.537527216729276
 42
9.7140678333843
  0
SPLINE
  5
1BD
330
1F
100
AcDbEntity
  8
0
  6
Continuous
 62
     7
370
    25
100
AcDbSpline
210
0.0
220
0.0
230
1.0
 70
     8
 71
     3
 72
    12
 73
     8
 74
     0
 42
0.000000001
 43
0.00000001
 40
0.0
 40
0.0
 40
0.0
 40
0.0
 40
0.2499999999999998
 40
0.2499999999999998
 40
0.4999999999999996
 40
0.4999999999999996
 40
1.0
 40
1.0
 40
1.0
 40
1.0
 10
257.0434479160612
 20
25.38495334929975
 30
0.0
 10
256.8680847655455
 20
25.32210998679916
 30
0.0
 10
256.6987695740779
 20
25.27721666095465
 30
0.0
 10
256.367198946941
 20
25.20206074497742
 30
0.0
 10
256.2050752023464
 20
25.17342146274232
 30
0.0
 10
255.7284766298037
 20
25.11136077965007
 30
0.0
 10
255.4261255587689
 20
25.10177714419988
 30
0.0
 10
255.1418662885445
 20
25.12683138029051
 30
0.0
  0
LINE
  5
1BE
330
1F
100
AcDbEntity
  8
0
  6
Continuous
 62
     7
370
    25
100
AcDbLine
 10
256.9527781898
 20
24.7762323512
 30
0.0
 11
257.0434479952
 21
25.3849533339
 31
0.0
  0
ELLIPSE
  5
1BF
330
1F
100
AcDbEntity
  8
0
  6
Continuous
 62
     7
370
    25
100
AcDbEllipse
 10
262.761032158
 20
42.0753856714
 30
0.0
 11
12.58822647797303
 21
16.82595926063041
 31
0.0
210
0.0
220
0.0
230
1.0
 40
0.4807028563
 41
3.489060072664482
 42
3.742627542353239
  0
ELLIPSE
  5
1C0
330
1F
100
AcDbEntity
  8
0
  6
Continuous
 62
     7
370
    25
100
AcDbEllipse
 10
258.0246297135
 20
32.7499154146
 30
0.0
 11
6.023074869843526
 21
8.050698210827946
 31
0.0
210
0.0
220
0.0
230
1.0
 40
0.4807028563
 41
3.240579720767667
 42
3.489060072664474
  0
ELLIPSE
  5
1C1
330
1F
100
AcDbEntity
  8
0
  6
Continuous
 62
     7
370
    25
100
AcDbEllipse
 10
262.1450612431
 20
37.9400036461
 30
0.0
 11
9.968188909591049
 21
13.32390553892026
 31
0.0
210
0.0
220
0.0
230
1.0
 40
0.4807028563
 41
4.790870688667255
 42
9.460724361446319
  0
LINE
  5
1C2
330
1F
100
AcDbEntity
  8
0
  6
Continuous
 62
     7
370
    25
100
AcDbLine
 10
250.2868088754
 20
25.6802060658
 30
0.0
 11
252.4134933912
 21
24.4524972274
 31
0.0
  0
ARC
  5
1C3
330
1F
100
AcDbEntity
  8
0
  6
Continuous
 62
     7
370
    25
100
AcDbCircle
 10
264.7064565436
 20
46.5228769683
 30
0.0
 40
6.358515588180341
100
AcDbArc
 50
23.7715879577
 51
41.1929098764
  0
ARC
  5
1C4
330
1F
100
AcDbEntity
  8
0
  6
Continuous
 62
     7
370
    25
100
AcDbCircle
 10
255.8188444196
 20
30.3311244893
 30
0.0
 40
5.248139392217232
100
AcDbArc
 50
241.9218502379
 51
262.5885422306
  0
SPLINE
  5
1C5
330
1F
100
AcDbEntity
  8
0
  6
Continuous
 62
     7
370
    25
100
AcDbSpline
210
0.0
220
0.0
230
1.0
 70
     8
 71
     3
 72
    10
 73
     6
 74
     0
 42
0.000000001
 43
0.00000001
 40
0.0
 40
0.0
 40
0.0
 40
0.0
 40
0.5
 40
0.5
 40
1.0
 40
1.0
 40
1.0
 40
1.0
 10
257.4912358740988
 20
54.56278030393462
 30
0.0
 10
257.5168456488136
 20
54.45538570424208
 30
0.0
 10
257.5256269417754
 20
54.33505020272468
 30
0.0
 10
257.5067850119193
 20
54.10401780327672
 30
0.0
 10
257.4790029701367
 20
53.99260079532203
 30
0.0
 10
257.4170179918909
 20
53.91198771725548
 30
0.0
  0
SPLINE
  5
1C6
330
1F
100
AcDbEntity
  8
0
  6
Continuous
 62
     7
370
    25
100
AcDbSpline
210
0.0
220
0.0
230
1.0
 70
     8
 71
     3
 72
     8
 73
     4
 74
     0
 42
0.000000001
 43
0.00000001
 40
0.0
 40
0.0
 40
0.0
 40
0.0
 40
1.0
 40
1.0
 40
1.0
 40
1.0
 10
257.441768441523
 20
54.95663723474391
 30
0.0
 10
257.441768441523
 20
54.8339905097652
 30
0.0
 10
257.4586845926661
 20
54.69928411460377
 30
0.0
 10
257.4912358740988
 20
54.56278030393462
 30
0.0
  0
SPLINE
  5
1C7
330
1F
100
AcDbEntity
  8
0
  6
Continuous
 62
     7
370
    25
100
AcDbSpline
210
0.0
220
0.0
230
1.0
 70
     8
 71
     3
 72
    10
 73
     6
 74
     0
 42
0.000000001
 43
0.00000001
 40
0.0
 40
0.0
 40
0.0
 40
0.0
 40
0.0066968938525989
 40
0.7211289197595488
 40
1.0
 40
1.0
 40
1.0
 40
1.0
 10
268.4051089878203
 20
53.43593125266321
 30
0.0
 10
268.403127118694
 20
53.44032510248606
 30
0.0
 10
268.1897172642687
 20
53.91345969981988
 30
0.0
 10
267.9377892948696
 20
54.55296249675955
 30
0.0
 10
267.7506554072855
 20
55.15304203165492
 30
0.0
 10
267.6981173360188
 20
55.32151510607782
 30
0.0
  0
SPLINE
  5
1C8
330
1F
100
AcDbEntity
  8
0
  6
Continuous
 62
     7
370
    25
100
AcDbSpline
210
0.0
220
0.0
230
1.0
 70
     8
 71
     3
 72
    16
 73
    12
 74
     0
 42
0.000000001
 43
0.00000001
 40
0.0
 40
0.0
 40
0.0
 40
0.0
 40
0.499999999999999
 40
0.499999999999999
 40
0.7499999999999996
 40
0.7499999999999996
 40
0.874999999999999
 40
0.874999999999999
 40
0.9374999999999996
 40
0.9374999999999996
 40
1.0
 40
1.0
 40
1.0
 40
1.0
 10
249.262544309919
 20
26.3403373440577
 30
0.0
 10
249.3861286882801
 20
26.23100438297043
 30
0.0
 10
249.5262692025096
 20
26.12606781539537
 30
0.0
 10
249.770416051159
 20
25.96925892531991
 30
0.0
 10
249.8577146964814
 20
25.91697409378817
 30
0.0
 10
250.0034478850939
 20
25.83482247173379
 30
0.0
 10
250.0545046021075
 20
25.80682579777318
 30
0.0
 10
250.1375705923926
 20
25.76190705720442
 30
0.0
 10
250.166625559918
 20
25.74629883526284
 30
0.0
 10
250.2276918746302
 20
25.71325229244212
 30
0.0
 10
250.2614148878351
 20
25.6948651167318
 30
0.0
 10
250.2868086508959
 20
25.68020560935325
 30
0.0
  0
LWPOLYLINE
  5
1C9
330
1F
100
AcDbEntity
  8
0
  6
Continuous
 62
     7
370
    25
100
AcDbPolyline
 90
       26
 70
   128
 43
0.0
 10
254.5391420575
 20
50.5584545687
 10
253.7119005078
 20
49.6996081772
 10
252.9120781173
 20
48.7852537869
 10
252.1442804169
 20
47.8206554601
 10
251.4129285452
 20
46.8113670129
 10
250.7222325772
 20
45.7631991273
 10
250.0761707804
 20
44.6821891253
 10
249.4784632726
 20
43.5745606662
 10
248.9325516074
 20
42.4466921898
 10
248.4415783593
 20
41.305076994
 10
248.0083713184
 20
40.1562890151
 10
247.6354250512
 20
39.0069436658
 10
247.3248864128
 20
37.8636582929
 10
247.0785446687
 20
36.7330168162
 10
246.8978176652
 20
35.6215294254
 10
246.7837459026
 20
34.5355958885
 10
246.7369852913
 20
33.481468551
 10
246.7578071515
 20
32.4652185192
 10
246.8460889941
 20
31.4926958792
 10
247.0013250568
 20
30.5695019868
 10
247.2226210361
 20
29.7009527516
 10
247.5087006729
 20
28.8920477664
 10
247.857918923
 20
28.1474461616
 10
248.2682632743
 20
27.4714348554
 10
248.7373728447
 20
26.8679076392
 10
249.2625443091
 20
26.3403370402
  0
SPLINE
  5
1CA
330
1F
100
AcDbEntity
  8
0
  6
Continuous
 62
     7
370
    25
100
AcDbSpline
210
0.0
220
0.0
230
1.0
 70
     8
 71
     3
 72
    18
 73
    14
 74
     0
 42
0.000000001
 43
0.00000001
 40
0.0
 40
0.0
 40
0.0
 40
0.0
 40
0.1249999999999998
 40
0.1249999999999998
 40
0.2499999999999997
 40
0.2499999999999997
 40
0.3749999999999995
 40
0.3749999999999995
 40
0.4999999999999996
 40
0.4999999999999996
 40
0.7499999999999999
 40
0.7499999999999999
 40
1.0
 40
1.0
 40
1.0
 40
1.0
 10
254.5391419525587
 20
50.55845384820611
 30
0.0
 10
254.7115874319663
 20
50.67112475135312
 30
0.0
 10
254.8811357532215
 20
50.78655253893605
 30
0.0
 10
255.2013804922042
 20
51.03534725193669
 30
0.0
 10
255.3453580840414
 20
51.16612792825381
 30
0.0
 10
255.6022776341901
 20
51.43975312235646
 30
0.0
 10
255.7172297498967
 20
51.58184705598342
 30
0.0
 10
255.9379970807365
 20
51.86960734432606
 30
0.0
 10
256.0436890078735
 20
52.01532190320407
 30
0.0
 10
256.3575938550819
 20
52.4537053779649
 30
0.0
 10
256.562605074747
 20
52.74752603792047
 30
0.0
 10
256.9816542634464
 20
53.33222217094995
 30
0.0
 10
257.1951047402486
 20
53.62338375570042
 30
0.0
 10
257.4170179918908
 20
53.91198771725549
 30
0.0
  0
SPLINE
  5
1CB
330
1F
100
AcDbEntity
  8
0
  6
Continuous
 62
     7
370
    25
100
AcDbSpline
210
0.0
220
0.0
230
1.0
 70
     8
 71
     3
 72
    10
 73
     6
 74
     0
 42
0.000000001
 43
0.00000001
 40
0.0
 40
0.0
 40
0.0
 40
0.0
 40
0.5
 40
0.5
 40
1.0
 40
1.0
 40
1.0
 40
1.0
 10
264.1145157279267
 20
29.46699390841324
 30
0.0
 10
264.1129948946723
 20
29.47501260173402
 30
0.0
 10
264.1118371923054
 20
29.48299870468363
 30
0.0
 10
264.1103028002316
 20
29.4985877496079
 30
0.0
 10
264.1099253814618
 20
29.50614833016117
 30
0.0
 10
264.1099253814617
 20
29.51348238629949
 30
0.0
  0
ARC
  5
1CC
330
1F
100
AcDbEntity
  8
0
  6
Continuous
 62
     7
370
    25
100
AcDbCircle
 10
246.6241875771
 20
46.8847750919
 30
0.0
 40
24.6514818511077
100
AcDbArc
 50
316.8303165258
 51
345.788190621
  0
SPLINE
  5
1CD
330
1F
100
AcDbEntity
  8
0
  6
Continuous
 62
     7
370
    25
100
AcDbSpline
210
0.0
220
0.0
230
1.0
 70
     8
 71
     3
 72
    10
 73
     6
 74
     0
 42
0.000000001
 43
0.00000001
 40
0.0
 40
0.0
 40
0.0
 40
0.0
 40
0.5
 40
0.5
 40
1.0
 40
1.0
 40
1.0
 40
1.0
 10
257.0388575695962
 20
25.43144182719027
 30
0.0
 10
257.0388575695962
 20
25.42408864170726
 30
0.0
 10
257.0392370169127
 20
25.41653798799754
 30
0.0
 10
257.0407603167022
 20
25.40103887639244
 30
0.0
 10
257.0419138519526
 20
25.39304180316922
 30
0.0
 10
257.0434479160612
 20
25.38495334929963
 30
0.0
  0
LINE
  5
1CE
330
1F
100
AcDbEntity
  8
0
  6
Continuous
 62
     7
370
    25
100
AcDbLine
 10
264.1099253024
 20
29.5134821567
 30
0.0
 11
264.1099253024
 21
39.0168222679
 31
0.0
  0
LWPOLYLINE
  5
1CF
330
1F
100
AcDbEntity
  8
0
  6
Continuous
 62
     7
370
    25
100
AcDbPolyline
 90
       31
 70
   128
 43
0.0
 10
264.1099253024
 20
39.0168222679
 10
264.2939677483
 20
39.6825645942
 10
264.4119492896
 20
40.333462182
 10
264.4617750963
 20
40.9579552652
 10
264.4425600847
 20
41.5449525041
 10
264.3546450514
 20
42.0840284671
 10
264.1995920641
 20
42.565609374
 10
263.9801544973
 20
42.9811421354
 10
263.7002299468
 20
43.3232468536
 10
263.3647894356
 20
43.5858473439
 10
262.9797909808
 20
43.764280174
 10
262.5520719204
 20
43.8553756633
 10
262.0892287303
 20
43.8575170203
 10
261.599481692
 20
43.7706652605
 10
261.0915288204
 20
43.5963629032
 10
260.5743914755
 20
43.3377064437
 10
260.0572541306
 20
42.9992888339
 10
259.549301259
 20
42.5871212889
 10
259.0595542208
 20
42.1085231544
 10
258.5967110306
 20
41.5719944247
 10
258.1689919703
 20
40.98706502
 10
257.7839935154
 20
40.3641224355
 10
257.4485530043
 20
39.7142305748
 10
257.1686284537
 20
39.0489318499
 10
256.949190887
 20
38.3800418668
 10
256.7941378996
 20
37.7194405913
 10
256.7062228664
 20
37.0788600914
 10
256.6870078547
 20
36.4696776723
 10
256.7368336615
 20
35.9027122411
 10
256.8548152028
 20
35.3880332414
 10
257.0388576486
 20
34.9347818
  0
LINE
  5
1D0
330
1F
100
AcDbEntity
  8
0
  6
Continuous
 62
     7
370
    25
100
AcDbLine
 10
257.0388576486
 20
34.9347818
 30
0.0
 11
257.0388576486
 21
25.4314416888
 31
0.0
  0
LWPOLYLINE
  5
1D1
330
1F
100
AcDbEntity
  8
0
  6
Continuous
 62
     7
370
    25
100
AcDbPolyline
 90
       21
 70
   128
 43
0.0
 10
241.1101760431
 20
31.0465990646
 10
240.5630631927
 20
31.5992662373
 10
240.0772140794
 20
32.2345933998
 10
239.6556784228
 20
32.9485923985
 10
239.3011042303
 20
33.736781197
 10
239.0157160652
 20
34.5942104938
 10
238.8013058272
 20
35.5154977548
 10
238.6592208983
 20
36.4948594382
 10
238.5903516308
 20
37.5261461197
 10
238.5951313468
 20
38.602883748
 10
238.6735284363
 20
39.7183115259
 10
238.8250542592
 20
40.8654287728
 10
239.0487539261
 20
42.0370314758
 10
239.343224737
 20
43.2257655199
 10
239.706617499
 20
44.4241669453
 10
240.1366516726
 20
45.6247127066
 10
240.630625908
 20
46.819865349
 10
241.1854397778
 20
48.0021220565
 10
241.7976108986
 20
49.1640602774
 10
242.4632940291
 20
50.298383351
 10
243.1783120213
 20
51.3979733562
  0
SPLINE
  5
1D2
330
1F
100
AcDbEntity
  8
0
  6
Continuous
 62
     7
370
    25
100
AcDbSpline
210
0.0
220
0.0
230
1.0
 70
     8
 71
     3
 72
    12
 73
     8
 74
     0
 42
0.000000001
 43
0.00000001
 40
0.0
 40
0.0
 40
0.0
 40
0.0
 40
0.5000000000000002
 40
0.5000000000000002
 40
0.7500000000000003
 40
0.7500000000000003
 40
1.0
 40
1.0
 40
1.0
 40
1.0
 10
243.1783116612005
 20
51.39797318568906
 30
0.0
 10
244.060734690824
 20
51.56398142124408
 30
0.0
 10
244.953800731995
 20
51.79033872620238
 30
0.0
 10
246.323918730452
 20
52.21514128415708
 30
0.0
 10
246.7848378893605
 20
52.37086288014211
 30
0.0
 10
247.6973866691305
 20
52.70123318646857
 30
0.0
 10
248.1516293228997
 20
52.87665780426106
 30
0.0
 10
248.6046157718376
 20
53.06079603386787
 30
0.0
  0
ELLIPSE
  5
1D3
330
1F
100
AcDbEntity
  8
0
  6
Continuous
 62
     7
370
    25
100
AcDbEllipse
 10
-941.1917220997
 20
732.6115421705
 30
0.0
 11
1198.45697105874
 21
-682.5745369339359
 31
0.0
210
0.0
220
0.0
230
1.0
 40
0.0105314273
 41
6.168741593944079
 42
6.221455888571682
  0
LWPOLYLINE
  5
1D4
330
1F
100
AcDbEntity
  8
0
  6
Continuous
 62
     7
370
    25
100
AcDbPolyline
 90
       13
 70
   128
 43
0.0
 10
249.3476494822
 20
61.5987324733
 10
249.3511360959
 20
61.593542826
 10
249.5537194752
 20
61.3484215004
 10
249.7778497864
 20
61.1757626774
 10
249.9989351936
 20
61.0945120668
 10
250.1927162008
 20
61.1135843961
 10
250.3379305897
 20
61.2308875139
 10
250.4186432298
 20
61.4335499328
 10
250.4259977725
 20
61.6993324058
 10
250.3591883807
 20
61.9990742695
 10
250.2255447886
 20
62.2998832767
 10
250.0397316297
 20
62.5687538668
 10
250.0397316297
 20
62.5687538668
  0
LINE
  5
1D5
330
1F
100
AcDbEntity
  8
0
  6
Continuous
 62
     7
370
    25
100
AcDbLine
 10
250.0397316297
 20
62.5687538668
 30
0.0
 11
249.4722079512
 21
66.7736303673
 31
0.0
  0
LINE
  5
1D6
330
1F
100
AcDbEntity
  8
0
  6
Continuous
 62
     7
370
    25
100
AcDbLine
 10
249.4722079512
 20
66.7736303673
 30
0.0
 11
253.312937915
 21
64.3959677812
 31
0.0
  0
LINE
  5
1D7
330
1F
100
AcDbEntity
  8
0
  6
Continuous
 62
     7
370
    25
100
AcDbLine
 10
253.312937915
 20
64.3959677812
 30
0.0
 11
257.4417683083
 21
56.859475443
 31
0.0
  0
LINE
  5
1D8
330
1F
100
AcDbEntity
  8
0
  6
Continuous
 62
     7
370
    25
100
AcDbLine
 10
257.4417683083
 20
56.859475443
 30
0.0
 11
257.4417683083
 21
54.956637592
 31
0.0
  0
LINE
  5
1D9
330
1F
100
AcDbEntity
  8
0
  6
Continuous
 62
     7
370
    25
100
AcDbLine
 10
247.152778162
 20
56.3729297767
 30
0.0
 11
246.3074463947
 21
61.067131763
 31
0.0
  0
LINE
  5
1DA
330
1F
100
AcDbEntity
  8
0
  6
Continuous
 62
     7
370
    25
100
AcDbLine
 10
246.3074463947
 20
61.067131763
 30
0.0
 11
245.9519757481
 21
63.7008762265
 31
0.0
  0
LINE
  5
1DB
330
1F
100
AcDbEntity
  8
0
  6
Continuous
 62
     7
370
    25
100
AcDbLine
 10
257.4417683083
 20
56.859475443
 30
0.0
 11
266.0623895842
 21
60.9645317633
 31
0.0
  0
LINE
  5
1DC
330
1F
100
AcDbEntity
  8
0
  6
Continuous
 62
     7
370
    25
100
AcDbLine
 10
257.6818911285
 20
66.1489804277
 30
0.0
 11
253.312937915
 21
64.3959677812
 31
0.0
  0
LINE
  5
1DD
330
1F
100
AcDbEntity
  8
0
  6
Continuous
 62
     7
370
    25
100
AcDbLine
 10
262.2570280112
 20
65.667155181
 30
0.0
 11
257.6818911285
 21
66.1489804277
 31
0.0
  0
LINE
  5
1DE
330
1F
100
AcDbEntity
  8
0
  6
Continuous
 62
     7
370
    25
100
AcDbLine
 10
262.2570280112
 20
65.667155181
 30
0.0
 11
266.0623895842
 21
60.9645317633
 31
0.0
  0
ELLIPSE
  5
1DF
330
1F
100
AcDbEntity
  8
0
  6
Continuous
 62
     7
370
    25
100
AcDbEllipse
 10
299.9857438792
 20
114.2270574579
 30
0.0
 11
76.60444794283194
 21
63.85741966061555
 31
0.0
210
0.0
220
0.0
230
1.0
 40
0.2295839768
 41
3.80410238389371
 42
3.897384385397271
  0
SPLINE
  5
1E0
330
1F
100
AcDbEntity
  8
0
  6
Continuous
 62
     7
370
    25
100
AcDbSpline
210
0.0
220
0.0
230
1.0
 70
     8
 71
     3
 72
     8
 73
     4
 74
     0
 42
0.000000001
 43
0.00000001
 40
0.0
 40
0.0
 40
0.0
 40
0.0
 40
1.0
 40
1.0
 40
1.0
 40
1.0
 10
254.2937055443438
 20
55.69376314891901
 30
0.0
 10
254.3373199793833
 20
55.71515240097483
 30
0.0
 10
254.3773660314293
 20
55.74219514363153
 30
0.0
 10
254.4087737783727
 20
55.77428726096552
 30
0.0
  0
SPLINE
  5
1E1
330
1F
100
AcDbEntity
  8
0
  6
Continuous
 62
     7
370
    25
100
AcDbSpline
210
0.0
220
0.0
230
1.0
 70
     8
 71
     3
 72
     8
 73
     4
 74
     0
 42
0.000000001
 43
0.00000001
 40
0.0
 40
0.0
 40
0.0
 40
0.0
 40
1.0
 40
1.0
 40
1.0
 40
1.0
 10
243.1783116611999
 20
51.39797318568906
 30
0.0
 10
243.1787954022579
 20
51.43249986643855
 30
0.0
 10
243.1798874923279
 20
51.46761775997321
 30
0.0
 10
243.1816013404585
 20
51.50331491626588
 30
0.0
  0
SPLINE
  5
1E2
330
1F
100
AcDbEntity
  8
0
  6
Continuous
 62
     7
370
    25
100
AcDbSpline
210
0.0
220
0.0
230
1.0
 70
     8
 71
     3
 72
    10
 73
     6
 74
     0
 42
0.000000001
 43
0.00000001
 40
0.0
 40
0.0
 40
0.0
 40
0.0
 40
0.4999999999999999
 40
0.4999999999999999
 40
1.0
 40
1.0
 40
1.0
 40
1.0
 10
243.1816013404585
 20
51.50331491626588
 30
0.0
 10
243.1963170689191
 20
51.80982378915241
 30
0.0
 10
243.201299233102
 20
52.14470912683061
 30
0.0
 10
243.2225463434652
 20
52.87666822027345
 30
0.0
 10
243.2369853505033
 20
53.27309361414753
 30
0.0
 10
243.2567325775987
 20
53.69875338392413
 30
0.0
  0
ELLIPSE
  5
1E3
330
1F
100
AcDbEntity
  8
0
  6
Continuous
 62
     7
370
    25
100
AcDbEllipse
 10
407.708987712
 20
172.2176575093
 30
0.0
 11
607.7442550233246
 21
351.2710690111695
 31
0.0
210
0.0
220
0.0
230
1.0
 40
0.0302179159
 41
4.420957396470302
 42
4.427095774263615
  0
LINE
  5
1E4
330
1F
100
AcDbEntity
  8
0
  6
Continuous
 62
     7
370
    25
100
AcDbLine
 10
257.6818911285
 20
66.1489804277
 30
0.0
 11
250.3293233564
 21
70.3320635919
 31
0.0
  0
LINE
  5
1E5
330
1F
100
AcDbEntity
  8
0
  6
Continuous
 62
     7
370
    25
100
AcDbLine
 10
249.4722079512
 20
66.7736303673
 30
0.0
 11
249.921748226
 21
67.0027562886
 31
0.0
  0
LINE
  5
1E6
330
1F
100
AcDbEntity
  8
0
  6
Continuous
 62
     7
370
    25
100
AcDbLine
 10
249.921748226
 20
67.0027562886
 30
0.0
 11
249.919898786
 21
67.003901217
 31
0.0
  0
LINE
  5
1E7
330
1F
100
AcDbEntity
  8
0
  6
Continuous
 62
     7
370
    25
100
AcDbLine
 10
249.919898786
 20
67.003901217
 30
0.0
 11
251.0390771085
 21
67.4303665134
 31
0.0
  0
LINE
  5
1E8
330
1F
100
AcDbEntity
  8
0
  6
Continuous
 62
     7
370
    25
100
AcDbLine
 10
250.9133810476
 20
67.5081805882
 30
0.0
 11
251.0390771085
 21
67.4303665134
 31
0.0
  0
LINE
  5
1E9
330
1F
100
AcDbEntity
  8
0
  6
Continuous
 62
     7
370
    25
100
AcDbLine
 10
247.4350209024
 20
69.7437790729
 30
0.0
 11
250.3293233564
 21
70.3320635919
 31
0.0
  0
LINE
  5
1EA
330
1F
100
AcDbEntity
  8
0
  6
Continuous
 62
     7
370
    25
100
AcDbLine
 10
267.698117336
 20
55.3215151061
 30
0.0
 11
266.0623895842
 21
60.9645317633
 31
0.0
  0
ARC
  5
1EB
330
1F
100
AcDbEntity
  8
0
  6
Continuous
 62
     7
370
    25
100
AcDbCircle
 10
256.6342193913
 20
40.941754554
 30
0.0
 40
18.06526531041074
100
AcDbArc
 50
144.1836585178
 51
177.7108119847
  0
SPLINE
  5
1EC
330
1F
100
AcDbEntity
  8
0
  6
Continuous
 62
     7
370
    25
100
AcDbSpline
210
0.0
220
0.0
230
1.0
 70
     8
 71
     3
 72
    10
 73
     6
 74
     0
 42
0.000000001
 43
0.00000001
 40
0.0
 40
0.0
 40
0.0
 40
0.0
 40
0.5
 40
0.5
 40
1.0
 40
1.0
 40
1.0
 40
1.0
 10
254.4087737783727
 20
55.77428726096551
 30
0.0
 10
254.4792166042882
 20
55.84626502615484
 30
0.0
 10
254.531073130961
 20
55.94689396251553
 30
0.0
 10
254.5821426569024
 20
56.16436371133236
 30
0.0
 10
254.5810255458653
 20
56.27932337945995
 30
0.0
 10
254.5556320317099
 20
56.38011071601555
 30
0.0
  0
SPLINE
  5
1ED
330
1F
100
AcDbEntity
  8
0
  6
Continuous
 62
     7
370
    25
100
AcDbSpline
210
0.0
220
0.0
230
1.0
 70
     8
 71
     3
 72
     8
 73
     4
 74
     0
 42
0.000000001
 43
0.00000001
 40
0.0000003052629808
 40
0.0000003052629808
 40
0.0000003052629808
 40
0.0000003052629808
 40
0.001333347252627
 40
0.001333347252627
 40
0.001333347252627
 40
0.001333347252627
 10
254.5219572308777
 20
70.13251699165873
 30
0.0
 10
254.0972178339867
 20
70.24609772686324
 30
0.0
 10
253.6724703741167
 20
70.35972338821364
 30
0.0
 10
253.2477154637594
 20
70.47339117400871
 30
0.0
  0
LINE
  5
1EE
330
1F
100
AcDbEntity
  8
0
  6
Continuous
 62
     7
370
    25
100
AcDbLine
 10
250.3293233564
 20
70.3320635919
 30
0.0
 11
253.2477163564
 21
70.4733906945
 31
0.0
  0
LINE
  5
1EF
330
1F
100
AcDbEntity
  8
0
  6
Continuous
 62
     7
370
    25
100
AcDbLine
 10
254.5219571739
 20
70.1325165274
 30
0.0
 11
262.2570280112
 21
65.667155181
 31
0.0
  0
LINE
  5
1F0
330
1F
100
AcDbEntity
  8
0
  6
Continuous
 62
     7
370
    25
100
AcDbLine
 10
264.1099253024
 20
39.0168222679
 30
0.0
 11
263.0492651214
 21
39.629128357
 31
0.0
  0
LWPOLYLINE
  5
1F1
330
1F
100
AcDbEntity
  8
0
  6
Continuous
 62
     7
370
    25
100
AcDbPolyline
 90
       15
 70
   128
 43
0.0
 10
257.038857484
 20
34.566034771
 10
257.3046137787
 20
34.4876338671
 10
257.7528909522
 20
34.4382381424
 10
258.2328545709
 20
34.4791922745
 10
258.7358678236
 20
34.6097594247
 10
259.2528787691
 20
34.8275900893
 10
259.7745838199
 20
35.1287640044
 10
260.2915947654
 20
35.5078614715
 10
260.7946080181
 20
35.958061061
 10
261.2745716368
 20
36.4712611275
 10
261.7228488103
 20
37.0382266599
 10
262.1313726153
 20
37.6487550468
 10
262.4927917195
 20
38.2918594298
 10
262.8006023372
 20
38.9559675049
 10
263.0492651214
 20
39.629128357
  0
LWPOLYLINE
  5
1F2
330
1F
100
AcDbEntity
  8
0
  6
Continuous
 62
     7
370
    25
100
AcDbPolyline
 90
        3
 70
   128
 43
0.0
 10
261.6350514919
 20
42.7246705992
 10
261.6003511354
 20
43.3032268461
 10
261.5185503586
 20
43.7484038422
  0
ARC
  5
1F3
330
1F
100
AcDbEntity
  8
0
  6
Continuous
 62
     7
370
    25
100
AcDbCircle
 10
253.7122942878
 20
42.8749714202
 30
0.0
 40
7.924182737114289
100
AcDbArc
 50
292.9472731066
 51
358.9131851928
  0
LINE
  5
1F4
330
1F
100
AcDbEntity
  8
0
  6
Continuous
 62
     7
370
    25
100
AcDbLine
 10
249.919898786
 20
67.003901217
 30
0.0
 11
249.9201618746
 21
67.0019481847
 31
0.0
  0
SPLINE
  5
1F5
330
1F
100
AcDbEntity
  8
0
  6
Continuous
 62
     7
370
    25
100
AcDbSpline
210
0.0
220
0.0
230
1.0
 70
     8
 71
     3
 72
     8
 73
     4
 74
     0
 42
0.000000001
 43
0.00000001
 40
0.0
 40
0.0
 40
0.0
 40
0.0
 40
1.0
 40
1.0
 40
1.0
 40
1.0
 10
246.8517885203753
 20
55.73389725049811
 30
0.0
 10
246.9335690497644
 20
55.78020370101875
 30
0.0
 10
247.0127784567597
 20
55.8591798303792
 30
0.0
 10
247.0754897000616
 20
55.9559553423934
 30
0.0
  0
SPLINE
  5
1F6
330
1F
100
AcDbEntity
  8
0
  6
Continuous
 62
     7
370
    25
100
AcDbSpline
210
0.0
220
0.0
230
1.0
 70
     8
 71
     3
 72
     8
 73
     4
 74
     0
 42
0.000000001
 43
0.00000001
 40
0.0
 40
0.0
 40
0.0
 40
0.0
 40
1.0
 40
1.0
 40
1.0
 40
1.0
 10
247.0754897000616
 20
55.95595534239341
 30
0.0
 10
247.1046484798941
 20
56.00095294887396
 30
0.0
 10
247.1271338452113
 20
56.04896971787547
 30
0.0
 10
247.1403762799899
 20
56.10113257229808
 30
0.0
  0
SPLINE
  5
1F7
330
1F
100
AcDbEntity
  8
0
  6
Continuous
 62
     7
370
    25
100
AcDbSpline
210
0.0
220
0.0
230
1.0
 70
     8
 71
     3
 72
     8
 73
     4
 74
     0
 42
0.000000001
 43
0.00000001
 40
0.0
 40
0.0
 40
0.0
 40
0.0
 40
1.0
 40
1.0
 40
1.0
 40
1.0
 10
247.1403762799899
 20
56.10113257229808
 30
0.0
 10
247.1638347984057
 20
56.19353727744078
 30
0.0
 10
247.168123062206
 20
56.2877157687391
 30
0.0
 10
247.152777691576
 20
56.37293003985592
 30
0.0
  0
ARC
  5
1F8
330
1F
100
AcDbEntity
  8
0
  6
Continuous
 62
     7
370
    25
100
AcDbCircle
 10
228.4457491133
 20
60.853916701
 30
0.0
 40
16.44875712762749
100
AcDbArc
 50
325.398966714
 51
334.2148839625
  0
ARC
  5
1F9
330
1F
100
AcDbEntity
  8
0
  6
Continuous
 62
     7
370
    25
100
AcDbCircle
 10
243.344446874
 20
33.5670244554
 30
0.0
 40
3.368161263389411
100
AcDbArc
 50
228.4441099084
 51
239.9825619534
  0
LINE
  5
1FA
330
1F
100
AcDbEntity
  8
0
  6
Continuous
 62
     7
370
    25
100
AcDbLine
 10
263.0492651214
 20
29.4208862944
 30
0.0
 11
263.0492651214
 21
39.629128357
 31
0.0
  0
ARC
  5
1FB
330
1F
100
AcDbEntity
  8
0
  6
Continuous
 62
     7
370
    25
100
AcDbCircle
 10
249.189920679
 20
45.0755765559
 30
0.0
 40
20.90815045759695
100
AcDbArc
 50
292.0490880585
 51
311.5189733791
  0
LINE
  5
1FC
330
1F
100
AcDbEntity
  8
0
  6
Continuous
 62
     7
370
    25
100
AcDbLine
 10
264.0238458436
 20
28.8582728191
 30
0.0
 11
263.0492651214
 21
29.4208862944
 31
0.0
  0
LINE
  5
1FD
330
1F
100
AcDbEntity
  8
0
  6
Continuous
 62
     7
370
    18
100
AcDbLine
 10
248.2184011755
 20
64.5254554611
 30
0.0
 11
248.0541409746
 21
64.437029081
 31
0.0
  0
LINE
  5
1FE
330
1F
100
AcDbEntity
  8
0
  6
Continuous
 62
     7
370
    18
100
AcDbLine
 10
248.1085724049
 20
64.930507454
 30
0.0
 11
247.4704527629
 21
64.5869888797
 31
0.0
  0
SPLINE
  5
1FF
330
1F
100
AcDbEntity
  8
0
  6
Continuous
 62
     7
370
    18
100
AcDbSpline
210
0.0
220
0.0
230
1.0
 70
     8
 71
     3
 72
    11
 73
     7
 74
     0
 42
0.000000001
 43
0.00000001
 40
0.0
 40
0.0
 40
0.0
 40
0.0
 40
0.2396810004510805
 40
0.4856907739799829
 40
0.7406037088793542
 40
1.0
 40
1.0
 40
1.0
 40
1.0
 10
249.8249762115185
 20
63.04557814347578
 30
0.0
 10
249.8393791435077
 20
62.93142668638286
 30
0.0
 10
249.8685653166805
 20
62.70010960475331
 30
0.0
 10
249.8934359098238
 20
62.39417677900361
 30
0.0
 10
249.9056446358455
 20
62.11853597215219
 30
0.0
 10
249.9027232451235
 20
61.96785463914407
 30
0.0
 10
249.9012498165325
 20
61.89185721007618
 30
0.0
  0
LWPOLYLINE
  5
200
330
1F
100
AcDbEntity
  8
0
  6
Continuous
 62
     7
370
    18
100
AcDbPolyline
 90
        3
 70
   128
 43
0.0
 10
249.4942753481
 20
65.495790773
 10
249.6794675612
 20
64.1236721527
 10
249.8249762115
 20
63.0455781435
  0
SPLINE
  5
201
330
1F
100
AcDbEntity
  8
0
  6
Continuous
 62
     7
370
    18
100
AcDbSpline
210
0.0
220
0.0
230
1.0
 70
     8
 71
     3
 72
    10
 73
     6
 74
     0
 42
0.000000001
 43
0.00000001
 40
0.0
 40
0.0
 40
0.0
 40
0.0
 40
0.3357684191339638
 40
0.663780739862497
 40
1.0
 40
1.0
 40
1.0
 40
1.0
 10
249.29369653328
 20
66.6501028922468
 30
0.0
 10
249.3203402295399
 20
66.51667593043884
 30
0.0
 10
249.3730121647436
 20
66.25290410920881
 30
0.0
 10
249.4417124015818
 20
65.86130739744986
 30
0.0
 10
249.4766106370968
 20
65.61862912144385
 30
0.0
 10
249.4942753481146
 20
65.49579077295127
 30
0.0
  0
LINE
  5
202
330
1F
100
AcDbEntity
  8
0
  6
Continuous
 62
     7
370
    18
100
AcDbLine
 10
249.2936965333
 20
66.6501028922
 30
0.0
 11
249.3676231526
 21
66.5015004895
 31
0.0
  0
LINE
  5
203
330
1F
100
AcDbEntity
  8
0
  6
Continuous
 62
     7
370
    18
100
AcDbLine
 10
250.9119739026
 20
67.5185985031
 30
0.0
 11
250.419560006
 21
67.1942982114
 31
0.0
  0
LINE
  5
204
330
1F
100
AcDbEntity
  8
0
  6
Continuous
 62
     7
370
    18
100
AcDbLine
 10
249.4974010627
 20
66.5869711055
 30
0.0
 11
249.3676231526
 21
66.5015004895
 31
0.0
  0
LINE
  5
205
330
1F
100
AcDbEntity
  8
0
  6
Continuous
 62
     7
370
    18
100
AcDbLine
 10
250.4105047515
 20
61.8038065987
 30
0.0
 11
250.0350371438
 21
61.5565270163
 31
0.0
  0
SPLINE
  5
206
330
1F
100
AcDbEntity
  8
0
  6
Continuous
 62
     7
370
    18
100
AcDbSpline
210
0.0
220
0.0
230
1.0
 70
     8
 71
     3
 72
     9
 73
     5
 74
     0
 42
0.000000001
 43
0.00000001
 40
0.0
 40
0.0
 40
0.0
 40
0.0
 40
0.7630835386885199
 40
1.0
 40
1.0
 40
1.0
 40
1.0
 10
249.0241296401994
 20
65.68758909844159
 30
0.0
 10
249.0020682179244
 20
65.87719670306434
 30
0.0
 10
248.9731573305097
 20
66.12567225653864
 30
0.0
 10
248.9454003916478
 20
66.39187740326807
 30
0.0
 10
248.9388243159158
 20
66.45494578461413
 30
0.0
  0
SPLINE
  5
207
330
1F
100
AcDbEntity
  8
0
  6
Continuous
 62
     7
370
    18
100
AcDbSpline
210
0.0
220
0.0
230
1.0
 70
     8
 71
     3
 72
    10
 73
     6
 74
     0
 42
0.000000001
 43
0.00000001
 40
0.0
 40
0.0
 40
0.0
 40
0.0
 40
0.2765309543635979
 40
0.5626692083833241
 40
1.0
 40
1.0
 40
1.0
 40
1.0
 10
249.0241296401994
 20
65.6875890984416
 30
0.0
 10
249.086028389724
 20
65.68208063061435
 30
0.0
 10
249.2119763888369
 20
65.67087231855076
 30
0.0
 10
249.3960065150525
 20
65.61119678156062
 30
0.0
 10
249.4572526115712
 20
65.53926993230564
 30
0.0
 10
249.4942753481146
 20
65.49579077295127
 30
0.0
  0
LINE
  5
208
330
1F
100
AcDbEntity
  8
0
  6
Continuous
 62
     7
370
    18
100
AcDbLine
 10
249.2241358532
 20
66.7630490011
 30
0.0
 11
249.0989682742
 21
66.9377158457
 31
0.0
  0
LINE
  5
209
330
1F
100
AcDbEntity
  8
0
  6
Continuous
 62
     7
370
    18
100
AcDbLine
 10
250.8395901476
 20
67.6361288393
 30
0.0
 11
249.0989682742
 21
66.9377158457
 31
0.0
  0
SPLINE
  5
20A
330
1F
100
AcDbEntity
  8
0
  6
Continuous
 62
     7
370
    18
100
AcDbSpline
210
0.0
220
0.0
230
1.0
 70
     8
 71
     3
 72
    10
 73
     6
 74
     0
 42
0.000000001
 43
0.00000001
 40
0.0
 40
0.0
 40
0.0
 40
0.0
 40
0.3277880650303089
 40
0.6642314781879589
 40
0.9999999999999999
 40
0.9999999999999999
 40
0.9999999999999999
 40
0.9999999999999999
 10
248.3189107490544
 20
67.40423153062731
 30
0.0
 10
248.4121221752795
 20
67.34465989883529
 30
0.0
 10
248.6010063050898
 20
67.2239436273639
 30
0.0
 10
248.9081609981244
 20
67.00542234410678
 30
0.0
 10
249.118881421595
 20
66.84378602190971
 30
0.0
 10
249.2241358531569
 20
66.76304900111033
 30
0.0
  0
SPLINE
  5
20B
330
1F
100
AcDbEntity
  8
0
  6
Continuous
 62
     7
370
    18
100
AcDbSpline
210
0.0
220
0.0
230
1.0
 70
     8
 71
     3
 72
     9
 73
     5
 74
     0
 42
0.000000001
 43
0.00000001
 40
0.0
 40
0.0
 40
0.0
 40
0.0
 40
0.2369159174674535
 40
1.0
 40
1.0
 40
1.0
 40
1.0
 10
248.9388243159158
 20
66.45494578461413
 30
0.0
 10
248.8867596722037
 20
66.4870918234779
 30
0.0
 10
248.6669996650724
 20
66.62277725655225
 30
0.0
 10
248.469567835549
 20
66.74181591039047
 30
0.0
 10
248.3189107490544
 20
66.83265241234052
 30
0.0
  0
SPLINE
  5
20C
330
1F
100
AcDbEntity
  8
0
  6
Continuous
 62
     7
370
    18
100
AcDbSpline
210
0.0
220
0.0
230
1.0
 70
     8
 71
     3
 72
    10
 73
     6
 74
     0
 42
0.000000001
 43
0.00000001
 40
0.0
 40
0.0
 40
0.0
 40
0.0
 40
0.2765315003203133
 40
0.5626693436415435
 40
1.0
 40
1.0
 40
1.0
 40
1.0
 10
248.3189107490544
 20
67.40423153062731
 30
0.0
 10
248.3397748768187
 20
67.36557628243389
 30
0.0
 10
248.3822279248844
 20
67.28692295323233
 30
0.0
 10
248.3985035806186
 20
67.09173390980713
 30
0.0
 10
248.3488973191586
 20
66.93026127150279
 30
0.0
 10
248.3189107490544
 20
66.83265241234052
 30
0.0
  0
LWPOLYLINE
  5
20D
330
1F
100
AcDbEntity
  8
0
  6
Continuous
 62
     7
370
    18
100
AcDbPolyline
 90
        3
 70
   128
 43
0.0
 10
246.4144820902
 20
68.5831971591
 10
247.4809615023
 20
67.9229767695
 10
248.3189107491
 20
67.4042315306
  0
SPLINE
  5
20E
330
1F
100
AcDbEntity
  8
0
  6
Continuous
 62
     7
370
    18
100
AcDbSpline
210
0.0
220
0.0
230
1.0
 70
     8
 71
     3
 72
    11
 73
     7
 74
     0
 42
0.000000001
 43
0.00000001
 40
0.0
 40
0.0
 40
0.0
 40
0.0
 40
0.2551782569797101
 40
0.5143098546924227
 40
0.7541547056467224
 40
1.0
 40
1.0
 40
1.0
 40
1.0
 10
245.5320060691518
 20
68.9861965140959
 30
0.0
 10
245.587998869335
 20
68.97236443513759
 30
0.0
 10
245.7008519363122
 20
68.94448598419378
 30
0.0
 10
245.9086480450421
 20
68.8607028555874
 30
0.0
 10
246.1443801407947
 20
68.74475135571245
 30
0.0
 10
246.3237096003803
 20
68.63749027584527
 30
0.0
 10
246.4144820902155
 20
68.58319715911774
 30
0.0
  0
LINE
  5
20F
330
1F
100
AcDbEntity
  8
0
  6
Continuous
 62
     7
370
    18
100
AcDbLine
 10
246.9961082318
 20
70.0154950266
 30
0.0
 11
245.2554863783
 21
69.3170820445
 31
0.0
  0
LWPOLYLINE
  5
210
330
1F
100
AcDbEntity
  8
0
  6
Continuous
 62
     7
370
    18
100
AcDbPolyline
 90
        3
 70
   128
 43
0.0
 10
249.3548305036
 20
63.237376469
 10
249.1696369631
 20
64.6094958437
 10
249.0241296402
 20
65.6875890984
  0
ARC
  5
211
330
1F
100
AcDbEntity
  8
0
  6
Continuous
 62
     7
370
    18
100
AcDbCircle
 10
249.4056354679
 20
62.6897905817
 30
0.0
 40
0.549937676817797
100
AcDbArc
 50
40.3127730324
 51
95.3007217668
  0
LINE
  5
212
330
1F
100
AcDbEntity
  8
0
  6
Continuous
 62
     7
370
    18
100
AcDbLine
 10
248.3189107491
 20
66.8326524123
 30
0.0
 11
248.2977982237
 21
66.7804593663
 31
0.0
  0
LINE
  5
213
330
1F
100
AcDbEntity
  8
0
  6
Continuous
 62
     7
370
    18
100
AcDbLine
 10
249.0241296402
 20
65.6875890984
 30
0.0
 11
248.9694347612
 21
65.6899228768
 31
0.0
  0
LINE
  5
214
330
1F
100
AcDbEntity
  8
0
  6
Continuous
 62
     7
370
    18
100
AcDbLine
 10
249.3548305036
 20
63.237376469
 30
0.0
 11
249.3001356246
 21
63.2397102474
 31
0.0
  0
LWPOLYLINE
  5
215
330
1F
100
AcDbEntity
  8
0
  6
Continuous
 62
     7
370
    18
100
AcDbPolyline
 90
        3
 70
   128
 43
0.0
 10
248.3189107491
 20
66.8326524123
 10
247.2524300121
 20
67.4928735579
 10
246.4144820902
 20
68.0116180408
  0
ARC
  5
216
330
1F
100
AcDbEntity
  8
0
  6
Continuous
 62
     7
370
    18
100
AcDbCircle
 10
245.8630504502
 20
68.2974076
 30
0.0
 40
0.6210897887669218
100
AcDbArc
 50
332.6037227217
 51
27.3962772783
  0
ARC
  5
217
330
1F
100
AcDbEntity
  8
0
  6
Continuous
 62
     7
370
    18
100
AcDbCircle
 10
247.8295739686
 20
66.533695382
 30
0.0
 40
1.077036052142891
100
AcDbArc
 50
148.4146979012
 51
175.7534552046
  0
LINE
  5
218
330
1F
100
AcDbEntity
  8
0
  6
Continuous
 62
     7
370
    18
100
AcDbLine
 10
246.4144820902
 20
68.0116180408
 30
0.0
 11
246.3933695623
 21
67.9594249933
 31
0.0
  0
LWPOLYLINE
  5
219
330
1F
100
AcDbEntity
  8
0
  6
Continuous
 62
     7
370
    18
100
AcDbPolyline
 90
        3
 70
   128
 43
0.0
 10
247.0469774612
 20
67.0859298412
 10
246.9529697799
 20
66.86939124
 10
246.9295816129
 20
66.7761002659
  0
SPLINE
  5
21A
330
1F
100
AcDbEntity
  8
0
  6
Continuous
 62
     7
370
    18
100
AcDbSpline
210
0.0
220
0.0
230
1.0
 70
     8
 71
     3
 72
     9
 73
     5
 74
     0
 42
0.000000001
 43
0.00000001
 40
0.0
 40
0.0
 40
0.0
 40
0.0
 40
0.4242753674057426
 40
1.0
 40
1.0
 40
1.0
 40
1.0
 10
249.4857554414048
 20
62.44533178256985
 30
0.0
 10
249.4690674266062
 20
62.53981928932832
 30
0.0
 10
249.4297344459982
 20
62.76252254767731
 30
0.0
 10
249.3821982579832
 20
63.06387845179044
 30
0.0
 10
249.3548305036033
 20
63.2373764689661
 30
0.0
  0
LINE
  5
21B
330
1F
100
AcDbEntity
  8
0
  6
Continuous
 62
     7
370
    18
100
AcDbLine
 10
248.6496102954
 20
62.6677047093
 30
0.0
 11
248.62849777
 21
62.6971671267
 31
0.0
  0
SPLINE
  5
21C
330
1F
100
AcDbEntity
  8
0
  6
Continuous
 62
     7
370
    18
100
AcDbSpline
210
0.0
220
0.0
230
1.0
 70
     8
 71
     3
 72
     9
 73
     5
 74
     0
 42
0.000000001
 43
0.00000001
 40
0.0
 40
0.0
 40
0.0
 40
0.0
 40
0.5757256640534357
 40
1.0
 40
1.0
 40
1.0
 40
1.0
 10
248.6496102953693
 20
62.66770470926974
 30
0.0
 10
248.8008890441693
 20
62.59430077505651
 30
0.0
 10
249.0636509084485
 20
62.46680266476482
 30
0.0
 10
249.3600155358963
 20
62.45172770227123
 30
0.0
 10
249.4857554414048
 20
62.44533178256985
 30
0.0
  0
SPLINE
  5
21D
330
1F
100
AcDbEntity
  8
0
  6
Continuous
 62
     7
370
    18
100
AcDbSpline
210
0.0
220
0.0
230
1.0
 70
     8
 71
     3
 72
     9
 73
     5
 74
     0
 42
0.000000001
 43
0.00000001
 40
0.0
 40
0.0
 40
0.0
 40
0.0
 40
0.5757237977607013
 40
1.0
 40
1.0
 40
1.0
 40
1.0
 10
246.4144820902155
 20
68.01161804083095
 30
0.0
 10
246.2831696567671
 20
68.09576975389729
 30
0.0
 10
246.0550873124917
 20
68.24193656755625
 30
0.0
 10
245.9008548826566
 20
68.33352609975852
 30
0.0
 10
245.835417733064
 20
68.37238535864614
 30
0.0
  0
SPLINE
  5
21E
330
1F
100
AcDbEntity
  8
0
  6
Continuous
 62
     7
370
    18
100
AcDbSpline
210
0.0
220
0.0
230
1.0
 70
     8
 71
     3
 72
    11
 73
     7
 74
     0
 42
0.000000001
 43
0.00000001
 40
0.0
 40
0.0
 40
0.0
 40
0.0
 40
0.2551780976498398
 40
0.5143100229212421
 40
0.7541541313593221
 40
0.9999999999999999
 40
0.9999999999999999
 40
0.9999999999999999
 40
0.9999999999999999
 10
249.9012498165325
 20
61.89185721007618
 30
0.0
 10
249.7915966881674
 20
61.87680229403499
 30
0.0
 10
249.5705914236786
 20
61.84645919529125
 30
0.0
 10
249.2472506653311
 20
61.86804176127105
 30
0.0
 10
248.934279987727
 20
61.94241309806385
 30
0.0
 10
248.7452787006879
 20
62.04446772409407
 30
0.0
 10
248.6496102953693
 20
62.09612559098296
 30
0.0
  0
SPLINE
  5
21F
330
1F
100
AcDbEntity
  8
0
  6
Continuous
 62
     7
370
    18
100
AcDbSpline
210
0.0
220
0.0
230
1.0
 70
     8
 71
     3
 72
    10
 73
     6
 74
     0
 42
0.000000001
 43
0.00000001
 40
0.0
 40
0.0
 40
0.0
 40
0.0
 40
0.2765291314527958
 40
0.5626669392225847
 40
0.9999999999999999
 40
0.9999999999999999
 40
0.9999999999999999
 40
0.9999999999999999
 10
248.6496102953693
 20
62.66770470926974
 30
0.0
 10
248.6704751199462
 20
62.62904958460305
 30
0.0
 10
248.7129297681073
 20
62.55039616907604
 30
0.0
 10
248.7292021386436
 20
62.35520853215736
 30
0.0
 10
248.6795965346925
 20
62.19373512933535
 30
0.0
 10
248.6496102953693
 20
62.09612559098296
 30
0.0
  0
LINE
  5
220
330
1F
100
AcDbEntity
  8
0
  6
Continuous
 62
     7
370
    18
100
AcDbLine
 10
246.048066632
 20
64.0283048939
 30
0.0
 11
245.9229003753
 21
63.7188755139
 31
0.0
  0
SPLINE
  5
221
330
1F
100
AcDbEntity
  8
0
  6
Continuous
 62
     7
370
    18
100
AcDbSpline
210
0.0
220
0.0
230
1.0
 70
     8
 71
     3
 72
    10
 73
     6
 74
     0
 42
0.000000001
 43
0.00000001
 40
0.0
 40
0.0
 40
0.0
 40
0.0
 40
0.3277889336001883
 40
0.6642309213873037
 40
1.0
 40
1.0
 40
1.0
 40
1.0
 10
246.7451829561918
 20
63.27509046061913
 30
0.0
 10
246.6567805973952
 20
63.33725127088935
 30
0.0
 10
246.4776422122419
 20
63.46321382803391
 30
0.0
 10
246.2435812168631
 20
63.72108425060599
 30
0.0
 10
246.1131946529877
 20
63.9259663777767
 30
0.0
 10
246.0480666320369
 20
64.02830489391086
 30
0.0
  0
LINE
  5
222
330
1F
100
AcDbEntity
  8
0
  6
Continuous
 62
     7
370
    18
100
AcDbLine
 10
248.6496102954
 20
62.096125591
 30
0.0
 11
246.7451829562
 21
63.2750904606
 31
0.0
  0
LINE
  5
223
330
1F
100
AcDbEntity
  8
0
  6
Continuous
 62
     7
370
    18
100
AcDbLine
 10
245.7092631978
 20
67.441947041
 30
0.0
 11
245.7217330274
 21
67.4168811138
 31
0.0
  0
SPLINE
  5
224
330
1F
100
AcDbEntity
  8
0
  6
Continuous
 62
     7
370
    18
100
AcDbSpline
210
0.0
220
0.0
230
1.0
 70
     8
 71
     3
 72
     9
 73
     5
 74
     0
 42
0.000000001
 43
0.00000001
 40
0.0
 40
0.0
 40
0.0
 40
0.0
 40
0.4242760033353542
 40
1.0
 40
1.0
 40
1.0
 40
1.0
 10
245.835417733064
 20
68.37238535864614
 30
0.0
 10
245.7918027878747
 20
68.24543461828233
 30
0.0
 10
245.6890042679339
 20
67.94621727069296
 30
0.0
 10
245.7018611704709
 20
67.62619280525244
 30
0.0
 10
245.7092631977843
 20
67.44194704097859
 30
0.0
  0
SPLINE
  5
225
330
1F
100
AcDbEntity
  8
0
  6
Continuous
 62
     7
370
    18
100
AcDbSpline
210
0.0
220
0.0
230
1.0
 70
     8
 71
     3
 72
    11
 73
     7
 74
     0
 42
0.000000001
 43
0.00000001
 40
0.0
 40
0.0
 40
0.0
 40
0.0
 40
0.2396810156680715
 40
0.4856907877039479
 40
0.7406036398765528
 40
1.0
 40
1.0
 40
1.0
 40
1.0
 10
245.2391168313246
 20
67.63374422571277
 30
0.0
 10
245.2293783414841
 20
67.75040690012746
 30
0.0
 10
245.2096442178261
 20
67.98681271672575
 30
0.0
 10
245.2610801092949
 20
68.33382243512744
 30
0.0
 10
245.3650183666093
 20
68.67199000896248
 30
0.0
 10
245.4760209453928
 20
68.88085408583362
 30
0.0
 10
245.5320060691518
 20
68.9861965140959
 30
0.0
  0
LWPOLYLINE
  5
226
330
1F
100
AcDbEntity
  8
0
  6
Continuous
 62
     7
370
    18
100
AcDbPolyline
 90
        3
 70
   128
 43
0.0
 10
245.5698176975
 20
65.1835315978
 10
245.3846254758
 20
66.5556502132
 10
245.2391168313
 20
67.6337442257
  0
SPLINE
  5
227
330
1F
100
AcDbEntity
  8
0
  6
Continuous
 62
     7
370
    18
100
AcDbSpline
210
0.0
220
0.0
230
1.0
 70
     8
 71
     3
 72
    10
 73
     6
 74
     0
 42
0.000000001
 43
0.00000001
 40
0.0
 40
0.0
 40
0.0
 40
0.0
 40
0.3357687124422002
 40
0.6637806995980543
 40
1.0
 40
1.0
 40
1.0
 40
1.0
 10
245.9785059544862
 20
64.14125100425942
 30
0.0
 10
245.9117325674674
 20
64.2530752440092
 30
0.0
 10
245.7797283517454
 20
64.47414042769839
 30
0.0
 10
245.6373932369848
 20
64.82609648039046
 30
0.0
 10
245.5925276652764
 20
65.06340913844674
 30
0.0
 10
245.5698176975069
 20
65.18353159784122
 30
0.0
  0
LINE
  5
228
330
1F
100
AcDbEntity
  8
0
  6
Continuous
 62
     7
370
    18
100
AcDbLine
 10
245.9785059545
 20
64.1412510043
 30
0.0
 11
245.6542454969
 21
64.1550908701
 31
0.0
  0
SPLINE
  5
229
330
1F
100
AcDbEntity
  8
0
  6
Continuous
 62
     7
370
    18
100
AcDbSpline
210
0.0
220
0.0
230
1.0
 70
     8
 71
     3
 72
    10
 73
     6
 74
     0
 42
0.000000001
 43
0.00000001
 40
0.0
 40
0.0
 40
0.0
 40
0.0
 40
0.2765305039019613
 40
0.5626687314325942
 40
1.0
 40
1.0
 40
1.0
 40
1.0
 10
245.2391168313246
 20
67.63374422571277
 30
0.0
 10
245.3010156082285
 20
67.62823559764625
 30
0.0
 10
245.4269637614569
 20
67.61702695077946
 30
0.0
 10
245.6109936793693
 20
67.55735425962322
 30
0.0
 10
245.6722401922366
 20
67.48542666889409
 30
0.0
 10
245.7092631977843
 20
67.44194704097859
 30
0.0
  0
LINE
  5
22A
330
1F
100
AcDbEntity
  8
0
  6
Continuous
 62
     7
370
    18
100
AcDbLine
 10
246.7451829562
 20
63.8466695789
 30
0.0
 11
248.6496102954
 21
62.6677047093
 31
0.0
  0
LINE
  5
22B
330
1F
100
AcDbEntity
  8
0
  6
Continuous
 62
     7
370
    18
100
AcDbLine
 10
246.7451829562
 20
63.8466695789
 30
0.0
 11
246.7240704309
 21
63.8761319963
 31
0.0
  0
ARC
  5
22C
330
1F
100
AcDbEntity
  8
0
  6
Continuous
 62
     7
370
    18
100
AcDbCircle
 10
246.1937518724
 20
63.5608800198
 30
0.0
 40
0.6210892949313724
100
AcDbArc
 50
332.6036991112
 51
27.3963008888
  0
LINE
  5
22D
330
1F
100
AcDbEntity
  8
0
  6
Continuous
 62
     7
370
    18
100
AcDbLine
 10
246.0399640638
 20
64.991734413
 30
0.0
 11
246.0524325763
 21
64.9666692461
 31
0.0
  0
LWPOLYLINE
  5
22E
330
1F
100
AcDbEntity
  8
0
  6
Continuous
 62
     7
370
    18
100
AcDbPolyline
 90
        3
 70
   128
 43
0.0
 10
245.7092631978
 20
67.441947041
 10
245.8944554199
 20
66.069826905
 10
246.0399640638
 20
64.991734413
  0
ARC
  5
22F
330
1F
100
AcDbEntity
  8
0
  6
Continuous
 62
     7
370
    18
100
AcDbCircle
 10
245.6206206867
 20
64.6359373138
 30
0.0
 40
0.5499458552271136
100
AcDbArc
 50
40.3133532125
 51
95.3004360545
  0
SPLINE
  5
230
330
1F
100
AcDbEntity
  8
0
  6
Continuous
 62
     7
370
    18
100
AcDbSpline
210
0.0
220
0.0
230
1.0
 70
     8
 71
     3
 72
     9
 73
     5
 74
     0
 42
0.000000001
 43
0.00000001
 40
0.0
 40
0.0
 40
0.0
 40
0.0
 40
0.2369168880200681
 40
1.0
 40
1.0
 40
1.0
 40
1.0
 10
246.2818920740744
 20
64.30869159538844
 30
0.0
 10
246.3123450214116
 20
64.26491106423856
 30
0.0
 10
246.4408835464263
 20
64.08011828093073
 30
0.0
 10
246.6134785918316
 20
63.94770892345997
 30
0.0
 10
246.7451829561918
 20
63.84666957890592
 30
0.0
  0
SPLINE
  5
231
330
1F
100
AcDbEntity
  8
0
  6
Continuous
 62
     7
370
    18
100
AcDbSpline
210
0.0
220
0.0
230
1.0
 70
     8
 71
     3
 72
     9
 73
     5
 74
     0
 42
0.000000001
 43
0.00000001
 40
0.0
 40
0.0
 40
0.0
 40
0.0
 40
0.7630844325424613
 40
1.0
 40
1.0
 40
1.0
 40
1.0
 10
246.0399640637606
 20
64.99173441298811
 30
0.0
 10
246.0809783111537
 20
64.81232901219643
 30
0.0
 10
246.1347262919066
 20
64.57722344177618
 30
0.0
 10
246.2537043256864
 20
64.3601254817758
 30
0.0
 10
246.2818920740744
 20
64.30869159538844
 30
0.0
  0
LWPOLYLINE
  5
232
330
1F
100
AcDbEntity
  8
0
  6
Continuous
 62
     7
370
    18
100
AcDbPolyline
 90
       42
 70
   128
 43
0.0
 10
250.2868088754
 20
25.6802060658
 10
249.6922834547
 20
26.1105754825
 10
249.1507333298
 20
26.6217676278
 10
248.6653320268
 20
27.2107886419
 10
248.2389218237
 20
27.8741876577
 10
247.8740012384
 20
28.6080792358
 10
247.5727072478
 20
29.4081635186
 10
247.3368060684
 20
30.2697543679
 10
247.1676773507
 20
31.1878040819
 10
247.0663141801
 20
32.1569359997
 10
247.0333079293
 20
33.1714716522
 10
247.0688548448
 20
34.225469921
 10
247.1727441922
 20
35.3127550905
 10
247.3443674764
 20
36.4269581881
 10
247.5827210756
 20
37.5615536807
 10
247.8864082169
 20
38.7098944933
 10
248.2536495131
 20
39.8652537382
 10
248.6822934992
 20
41.0208638777
 10
249.1698298035
 20
42.1699551264
 10
249.7134023185
 20
43.3057972757
 10
250.3098269816
 20
44.4217354332
 10
250.9556095556
 20
45.5112337482
 10
251.6469680193
 20
46.5679096305
 10
252.3798523241
 20
47.5855740524
 10
253.1499687597
 20
48.5582646274
 10
253.9528066256
 20
49.4802838205
 10
254.7836632553
 20
50.3462308852
 10
255.6376713465
 20
51.1510343709
 10
256.5098281012
 20
51.8899773106
 10
257.3950249426
 20
52.5587333874
 10
258.288076409
 20
53.1533828543
 10
259.1837512698
 20
53.6704449454
 10
260.0768027362
 20
54.1068907542
 10
260.9619995777
 20
54.460161196
 10
261.8341563323
 20
54.7281890113
 10
262.6881644236
 20
54.9094022798
 10
263.5190210533
 20
55.0027418608
 10
264.3218589192
 20
55.0076595373
 10
265.0919753548
 20
54.9241264725
 10
265.8248596596
 20
54.7526322576
 10
266.5162181233
 20
54.4941818669
 10
267.010241091
 20
54.2411713328
  0
LWPOLYLINE
  5
233
330
1F
100
AcDbEntity
  8
0
  6
Continuous
 62
     7
370
    18
100
AcDbPolyline
 90
       19
 70
   128
 43
0.0
 10
266.289759227
 20
31.5623728007
 10
267.0006264132
 20
32.5268612593
 10
267.6704004222
 20
33.5321387196
 10
268.2947012743
 20
34.5716325316
 10
268.8694466522
 20
35.6385456807
 10
269.3908789009
 20
36.7259012726
 10
269.8555887354
 20
37.8265900595
 10
270.2605376316
 20
38.933415686
 10
270.6030782403
 20
40.0391410753
 10
270.8809695347
 20
41.1365355761
 10
271.0923959075
 20
42.2184245816
 10
271.2359737568
 20
43.2777333501
 10
271.3107653151
 20
44.3075361965
 10
271.3162806254
 20
45.3010991727
 10
271.2524841262
 20
46.2519260279
 10
271.1197933347
 20
47.1537999387
 10
270.9190748956
 20
48.0008232916
 10
270.6516419465
 20
48.7874586526
 10
270.5255135511
 20
49.0859407655
  0
LWPOLYLINE
  5
234
330
1F
100
AcDbEntity
  8
0
  6
Continuous
 62
     7
370
    18
100
AcDbPolyline
 90
       13
 70
   128
 43
0.0
 10
257.4417683083
 20
54.956637592
 10
258.4200211931
 20
55.5048978145
 10
259.3942691805
 20
55.9638856065
 10
260.3587237468
 20
56.3308722573
 10
261.3076544434
 20
56.6036781765
 10
262.2354238
 20
56.7806839168
 10
263.1365188114
 20
56.8608361841
 10
264.0055858399
 20
56.8436596212
 10
264.837461238
 20
56.7292547133
 10
265.6272029585
 20
56.518303109
 10
266.3701182132
 20
56.2120569704
 10
267.0617927783
 20
55.8123361191
 10
267.698117336
 20
55.3215151061
  0
LINE
  5
235
330
1F
100
AcDbEntity
  8
0
  6
Continuous
 62
     7
370
    18
100
AcDbLine
 10
264.1099253024
 20
29.5134821567
 30
0.0
 11
264.6032709571
 21
30.0191853225
 31
0.0
  0
LWPOLYLINE
  5
236
330
1F
100
AcDbEntity
  8
0
  6
Continuous
 62
     7
370
    18
100
AcDbPolyline
 90
       13
 70
   128
 43
0.0
 10
270.5212051162
 20
40.8326589174
 10
270.7055903345
 20
41.6666964023
 10
270.884712465
 20
42.7274791298
 10
270.9961052685
 20
43.7627689412
 10
271.0390377606
 20
44.7657652876
 10
271.0132280843
 20
45.7298795091
 10
270.9188448269
 20
46.6487779204
 10
270.7565089958
 20
47.5164246572
 10
270.5272867748
 20
48.3271201404
 10
270.2326835964
 20
49.0755383267
 10
269.874634923
 20
49.7567637827
 10
269.4554924171
 20
50.3663205834
 10
269.1202458474
 20
50.7555653135
  0
ARC
  5
237
330
1F
100
AcDbEntity
  8
0
  6
Continuous
 62
     7
370
    18
100
AcDbCircle
 10
255.9356577639
 20
30.9068151739
 30
0.0
 40
5.585406411962803
100
AcDbArc
 50
230.4754665921
 51
281.3916630832
  0
LINE
  5
238
330
1F
100
AcDbEntity
  8
0
  6
Continuous
 62
     7
370
    18
100
AcDbLine
 10
241.1101760431
 20
31.0465990646
 30
0.0
 11
249.2625443091
 21
26.3403370402
 31
0.0
  0
LINE
  5
239
330
1F
100
AcDbEntity
  8
0
  6
Continuous
 62
     7
370
    18
100
AcDbLine
 10
254.5556318062
 20
56.3801108985
 30
0.0
 11
257.4912358463
 21
54.5627803851
 31
0.0
  0
ARC
  5
23A
330
1F
100
AcDbEntity
  8
0
  6
Continuous
 62
     7
370
    18
100
AcDbCircle
 10
250.8432010469
 20
67.7202266511
 30
0.0
 40
11.93232447709901
100
AcDbArc
 50
251.9841871491
 51
288.1269721039
  0
LINE
  5
23B
330
1F
100
AcDbEntity
  8
0
  6
Continuous
 62
     7
370
    18
100
AcDbLine
 10
257.417017942
 20
53.911988312
 30
0.0
 11
254.4087737056
 21
55.7742878935
 31
0.0
  0
ARC
  5
23C
330
1F
100
AcDbEntity
  8
0
  6
Continuous
 62
     7
370
    18
100
AcDbCircle
 10
250.6354392603
 20
67.3387108291
 30
0.0
 40
12.20605210680629
100
AcDbArc
 50
251.9418845228
 51
287.4401373758
  0
LINE
  5
23D
330
1F
100
AcDbEntity
  8
0
  6
Continuous
 62
     7
370
    18
100
AcDbLine
 10
243.1816014512
 20
51.5033145535
 30
0.0
 11
241.9851508743
 21
51.5133486779
 31
0.0
  0
OLE2FRAME
  5
23E
330
1F
100
AcDbEntity
  8
0
100
AcDbOle2Frame
 70
     2
  3
Paintbrush-Bild
 10
13.8511154363
 20
38.264191557
 30
0.0
 11
51.6290888628
 21
31.9806341108
 31
0.0
 71
     2
 72
     0
 73
     1
 90
    12928
310
80552BED0767C5B32B40DDAF6807D121434000000000000000006FFBDDFB85D0
310
4940DDAF6807D121434000000000000000006FFBDDFB85D04940416F4BD60AFB
310
3F4000000000000000002BED0767C5B32B40416F4BD60AFB3F40000000000000
310
0000000000000100000000010000010000000100000000000100000000320000
310
D0CF11E0A1B11AE1000000000000000000000000000000003E000300FEFF0900
310
0600000000000000000000000100000001000000000000000010000002000000
310
01000000FEFFFFFF0000000000000000FFFFFFFFFFFFFFFFFFFFFFFFFFFFFFFF
310
FFFFFFFFFFFFFFFFFFFFFFFFFFFFFFFFFFFFFFFFFFFFFFFFFFFFFFFFFFFFFFFF
310
FFFFFFFFFFFFFFFFFFFFFFFFFFFFFFFFFFFFFFFFFFFFFFFFFFFFFFFFFFFFFFFF
310
FFFFFFFFFFFFFFFFFFFFFFFFFFFFFFFFFFFFFFFFFFFFFFFFFFFFFFFFFFFFFFFF
310
FFFFFFFFFFFFFFFFFFFFFFFFFFFFFFFFFFFFFFFFFFFFFFFFFFFFFFFFFFFFFFFF
310
FFFFFFFFFFFFFFFFFFFFFFFFFFFFFFFFFFFFFFFFFFFFFFFFFFFFFFFFFFFFFFFF
310
FFFFFFFFFFFFFFFFFFFFFFFFFFFFFFFFFFFFFFFFFFFFFFFFFFFFFFFFFFFFFFFF
310
FFFFFFFFFFFFFFFFFFFFFFFFFFFFFFFFFFFFFFFFFFFFFFFFFFFFFFFFFFFFFFFF
310
FFFFFFFFFFFFFFFFFFFFFFFFFFFFFFFFFFFFFFFFFFFFFFFFFFFFFFFFFFFFFFFF
310
FFFFFFFFFFFFFFFFFFFFFFFFFFFFFFFFFFFFFFFFFFFFFFFFFFFFFFFFFFFFFFFF
310
FFFFFFFFFFFFFFFFFFFFFFFFFFFFFFFFFFFFFFFFFFFFFFFFFFFFFFFFFFFFFFFF
310
FFFFFFFFFFFFFFFFFFFFFFFFFFFFFFFFFFFFFFFFFFFFFFFFFFFFFFFFFFFFFFFF
310
FFFFFFFFFFFFFFFFFFFFFFFFFFFFFFFFFFFFFFFFFFFFFFFFFFFFFFFFFFFFFFFF
310
FFFFFFFFFFFFFFFFFFFFFFFFFFFFFFFFFFFFFFFFFFFFFFFFFFFFFFFFFFFFFFFF
310
FDFFFFFFFEFFFFFFFEFFFFFFFEFFFFFF05000000060000000700000008000000
310
090000000A0000000B0000000C0000000D0000000E0000000F00000010000000
310
11000000120000001300000014000000150000001600000017000000FEFFFFFF
310
FFFFFFFFFFFFFFFFFFFFFFFFFFFFFFFFFFFFFFFFFFFFFFFFFFFFFFFFFFFFFFFF
310
FFFFFFFFFFFFFFFFFFFFFFFFFFFFFFFFFFFFFFFFFFFFFFFFFFFFFFFFFFFFFFFF
310
FFFFFFFFFFFFFFFFFFFFFFFFFFFFFFFFFFFFFFFFFFFFFFFFFFFFFFFFFFFFFFFF
310
FFFFFFFFFFFFFFFFFFFFFFFFFFFFFFFFFFFFFFFFFFFFFFFFFFFFFFFFFFFFFFFF
310
FFFFFFFFFFFFFFFFFFFFFFFFFFFFFFFFFFFFFFFFFFFFFFFFFFFFFFFFFFFFFFFF
310
FFFFFFFFFFFFFFFFFFFFFFFFFFFFFFFFFFFFFFFFFFFFFFFFFFFFFFFFFFFFFFFF
310
FFFFFFFFFFFFFFFFFFFFFFFFFFFFFFFFFFFFFFFFFFFFFFFFFFFFFFFFFFFFFFFF
310
FFFFFFFFFFFFFFFFFFFFFFFFFFFFFFFFFFFFFFFFFFFFFFFFFFFFFFFFFFFFFFFF
310
FFFFFFFFFFFFFFFFFFFFFFFFFFFFFFFFFFFFFFFFFFFFFFFFFFFFFFFFFFFFFFFF
310
FFFFFFFFFFFFFFFFFFFFFFFFFFFFFFFFFFFFFFFFFFFFFFFFFFFFFFFFFFFFFFFF
310
FFFFFFFFFFFFFFFFFFFFFFFFFFFFFFFFFFFFFFFFFFFFFFFFFFFFFFFFFFFFFFFF
310
FFFFFFFFFFFFFFFFFFFFFFFFFFFFFFFFFFFFFFFFFFFFFFFFFFFFFFFFFFFFFFFF
310
FFFFFFFFFFFFFFFFFFFFFFFFFFFFFFFFFFFFFFFFFFFFFFFFFFFFFFFFFFFFFFFF
310
52006F006F007400200045006E00740072007900000000000000000000000000
310
0000000000000000000000000000000000000000000000000000000000000000
310
16000500FFFFFFFFFFFFFFFF020000000A00030000000000C000000000000046
310
000000000000000000000000F09FF14E2D5CD60103000000C000000000000000
310
01004F006C006500000000000000000000000000000000000000000000000000
310
0000000000000000000000000000000000000000000000000000000000000000
310
0A000200FFFFFFFFFFFFFFFFFFFFFFFF00000000000000000000000000000000
310
0000000000000000000000000000000000000000000000001400000000000000
310
010043006F006D0070004F0062006A0000000000000000000000000000000000
310
0000000000000000000000000000000000000000000000000000000000000000
310
120002010100000003000000FFFFFFFF00000000000000000000000000000000
310
0000000000000000000000000000000000000000010000004D00000000000000
310
01004F006C006500310030004E00610074006900760065000000000000000000
310
0000000000000000000000000000000000000000000000000000000000000000
310
1A000200FFFFFFFFFFFFFFFFFFFFFFFF00000000000000000000000000000000
310
0000000000000000000000000000000000000000040000002426000000000000
310
FEFFFFFF02000000FEFFFFFFFFFFFFFFFFFFFFFFFFFFFFFFFFFFFFFFFFFFFFFF
310
FFFFFFFFFFFFFFFFFFFFFFFFFFFFFFFFFFFFFFFFFFFFFFFFFFFFFFFFFFFFFFFF
310
FFFFFFFFFFFFFFFFFFFFFFFFFFFFFFFFFFFFFFFFFFFFFFFFFFFFFFFFFFFFFFFF
310
FFFFFFFFFFFFFFFFFFFFFFFFFFFFFFFFFFFFFFFFFFFFFFFFFFFFFFFFFFFFFFFF
310
FFFFFFFFFFFFFFFFFFFFFFFFFFFFFFFFFFFFFFFFFFFFFFFFFFFFFFFFFFFFFFFF
310
FFFFFFFFFFFFFFFFFFFFFFFFFFFFFFFFFFFFFFFFFFFFFFFFFFFFFFFFFFFFFFFF
310
FFFFFFFFFFFFFFFFFFFFFFFFFFFFFFFFFFFFFFFFFFFFFFFFFFFFFFFFFFFFFFFF
310
FFFFFFFFFFFFFFFFFFFFFFFFFFFFFFFFFFFFFFFFFFFFFFFFFFFFFFFFFFFFFFFF
310
FFFFFFFFFFFFFFFFFFFFFFFFFFFFFFFFFFFFFFFFFFFFFFFFFFFFFFFFFFFFFFFF
310
FFFFFFFFFFFFFFFFFFFFFFFFFFFFFFFFFFFFFFFFFFFFFFFFFFFFFFFFFFFFFFFF
310
FFFFFFFFFFFFFFFFFFFFFFFFFFFFFFFFFFFFFFFFFFFFFFFFFFFFFFFFFFFFFFFF
310
FFFFFFFFFFFFFFFFFFFFFFFFFFFFFFFFFFFFFFFFFFFFFFFFFFFFFFFFFFFFFFFF
310
FFFFFFFFFFFFFFFFFFFFFFFFFFFFFFFFFFFFFFFFFFFFFFFFFFFFFFFFFFFFFFFF
310
FFFFFFFFFFFFFFFFFFFFFFFFFFFFFFFFFFFFFFFFFFFFFFFFFFFFFFFFFFFFFFFF
310
FFFFFFFFFFFFFFFFFFFFFFFFFFFFFFFFFFFFFFFFFFFFFFFFFFFFFFFFFFFFFFFF
310
FFFFFFFFFFFFFFFFFFFFFFFFFFFFFFFFFFFFFFFFFFFFFFFFFFFFFFFFFFFFFFFF
310
0100000200000000000000000000000000000000000000000000000000000000
310
0000000000000000000000000000000000000000000000000000000000000000
310
0100FEFF030A0000FFFFFFFF0A00030000000000C00000000000004607000000
310
5042727573680007000000504272757368000700000050427275736800F439B2
310
7100000000000000000000000000000000000000000000000000000000000000
310
0000000000000000000000000000000000000000000000000000000000000000
310
0000000000000000000000000000000000000000000000000000000000000000
310
0000000000000000000000000000000000000000000000000000000000000000
310
0000000000000000000000000000000000000000000000000000000000000000
310
0000000000000000000000000000000000000000000000000000000000000000
310
0000000000000000000000000000000000000000000000000000000000000000
310
0000000000000000000000000000000000000000000000000000000000000000
310
0000000000000000000000000000000000000000000000000000000000000000
310
0000000000000000000000000000000000000000000000000000000000000000
310
0000000000000000000000000000000000000000000000000000000000000000
310
0000000000000000000000000000000000000000000000000000000000000000
310
20260000424D0E260000000000003E00000028000000B40200006E0000000100
310
01000000000000000000130B0000130B00000200000002000000000000FFFFFF
310
FFFFFFFFFFFFFFFFFFFFFFFFFFFFFFFFFFFFFFFFFFFFFFFFFFFFFFFFFFFFFFFF
310
FFFFFFFFFFFFFFFFFFFFFFFFFFFFFFFFFFFFFFFFFFFFFFFFFFFFFFFFFFFFFFFF
310
FFFFFFFFFFFFFFFFFFFFFFFFFFFFFFFFFFFFFFFFFFFFFFFFF000FFFFFFFFFFFF
310
FFFFFFFFFFFFFFFFFFFFFFFFFFFFFFFFFFFFFFFFFFFFFFFFFFFFFFFFFFFFFFFF
310
FFFFFFFFFFFFFFFFFFFFFFFFFFFFFFFFFFFFFFFFFFFFFFFFFFFFFFFFFFFFFFFF
310
FFFFFFFFFFFFFFFFFFFFFFFFFFFFFFFFF000FFFFFFFFFFFFFFFFFFFFFFFFFFFF
310
FFFFFFFFFFFFFFFFFFFFFFFFFFFFFFFFFFFFFFFFFFFFFFFFFFFFFFFFFFFFFFFF
310
FFFFFFFFFFFFFFFFFFFFFFFFFFFFFFFFFFFFFFFFFFFFFFFFFFFFFFFFFFFFFFFF
310
FFFFFFFFFFFFFFFFF000FFFFFFFFFFFFFFFFFFFFFFFFFFFFFFFFFFFFFFFFFFFF
310
FFFFFFFFFFFFFFFFFFFFFFFFFFFFFFFFFFFFFFFFFFFFFFFFFFFFFFFFFFFFFFFF
310
FFFFFFFFFFFFFFFFFFFFFFFFFFFFFFFFFFFFFFFFFFFFFFFFFFFFFFFFFFFFFFFF
310
F000FFFFFFFFFFFFFFFFFFFFFFFFFFFFFFFFFFFFFFFFFFFFFFFFFFFFFFFFFFFF
310
FFFFFFFFFFFFFFFFFFFFFFFFFFFFFFFFFFFFFFFFFFFFFFFFFFFFFFFFFFFFFFFF
310
FFFFFFFFFFFFFFFFFFFFFFFFFFFFFFFFFFFFFFFFFFFFFFFFF000FFFFFFFFFFFF
310
FFFFFFFFFFFFFFFFFFFFFFFFFFFFFFFFFFFFFFFFFFFFFFFFFFFFFFFFFFFFFFFF
310
FFFFFFFFFFFFFFFFFFFFFFFFFFFFFFFFFFFFFFFFFFFFFFFFFFFFFFFFFFFFFFFF
310
FFFFFFFFFFFFFFFFFFFFFFFFFFFFFFFFF000FFFFFFFFFFFFFFFFFFFFFFFFFFFF
310
FFFFFFFFFFFFFFFFFFFFFFFFFFFFFFFFFFFFFFFFFFFFFFFFFFFFFFFFFFFFFFFF
310
FFFFFFFFFFFFFFFFFFFFFFFFFFFFFFFFFFFFFFFFFFFFFFFFFFFFFFFFFFFFFFFF
310
FFFFFFFFFFFFFFFFF000FFFFFFFFFFFFFFFFFFFFFFFFFFFFFFFFFFFFFFFFFFFF
310
FFFFFFFFFFFFFFFFFFFFFFFFFFFFFFFFFFFFFFFFFFFFFFFFFFFFFFFFFFFFFFFF
310
FFFFFFFFFFFFFFFFFFFFFFFFFFFFFFFFFFFFFFFFFFFFFFFFFFFFFFFFFFFFFFFF
310
F000FFFFFFFFFFFFFFFFFFFFFFFFFFFFFFFFFFFFFFFFFFFFFFFFFFFFFFFFFFFF
310
FFFFFFFFFFFFFFFFFFFFFFFFFFFFFFFFFFFFFFFFFFFFFFFFFFFFFFFFFFFFFFFF
310
FFFFFFFFFFFFFFFFFFFFFFFFFFFFFFFFFFFFFFFFFFFFFFFFF000FFFFFFFFFFFF
310
FFFFFFFFFFFFFFFFFFFFFFFFFFFFFFFFFFFFFFFFFFFFFFFFFFFFFFFFFFFFFFFF
310
FFFFFFFFFFFFFFFFFFFFFFFFFFFFFFFFFFFFFFFFFFFFFFFFFFFFFFFFFFFFFFFF
310
FFFFFFFFFFFFFFFFFFFFFFFFFFFFFFFFF000FFFFFFFFFFFFFFFFFFFFFFFFFFFF
310
FFFFFFFFFFFFFFFFFFFFFFFFFFFFFFFFFFFFFFFFFFFFFFFFFFFFFFFFFFFFFFFF
310
FFFFFFFFFFFFFFFFFFFFFFFFFFFFFFFFFFFFFFFFFFFFFFFFFFFFFFFFFFFFFFFF
310
FFFFFFFFFFFFFFFFF000FFFFFFFFFFFFFFFFFFFFFFFFFFFFFFFFFFFFFFFFFFFF
310
FFFFFFFFFFFFFFFFFFFFFFFFFFFFFFFFFFFFFFFFFFFFFFFFFFFFFFFFFFFFFFFF
310
FFFFFFFFFFFFFFFFFFFFFFFFFFFFFFFFFFFFFFFFFFFFFFFFFFFFFFFFFFFFFFFF
310
F000FFFFFFFFFFFFFFFFFFFFFFFFFFFFFFFFFFFFFFFFFFFFFFFFFFFFFFFFFFFF
310
FFFFFFFFFFFFFFFFFFFFFFFFFFFFFFFFFFFFFFFFFFFFFFFFFFFFFFFFFFFFFFFF
310
FFFFFFFFFFFFFFFFFFFFFFFFFFFFFFFFFFFFFFFFFFFFFFFFF000FFFFFFFFFFFF
310
FFFFFFFFFFFFFFFFFFFFFFFFFFFFFFFFFFFFFFFFFFFFFFFFFFFFFFFFFFFFFFFF
310
FFFFFFFFFFFFFFFFFFFFFFFFFFFFFFFFFFFFFFFFFFFFFFFFFFFFFFFFFFFFFFFF
310
FFFFFFFFFFFFFFFFFFFFFFFFFFFFFFFFF000FFFFFFFFFFFFFFFFFFFFFFFFFFFF
310
FFFFFFFFFFFFFFFFFFFFFFFFFFFFFFFFFFFFFFFFFFFFFFFFFFFFFFFFFFFFFFFF
310
FFFFFFFFFFFFFFFFFFFFFFFFFFFFFFFFFFFFFFFFFFFFFFFFFFFFFFFFFFFFFFFF
310
FFFFFFFFFFFFFFFFF000FFFFFFFFFFFFFFFFFFFFFFFFFFFFFFFFFFFFFFFFFFFF
310
FFFFFFFFFFFFFFFFFFFFFFFFFFFFFFFFFFFFFFFFFFFFFFFFFFFFFFFFFFFFFFFF
310
FFFFFFFFFFFFFFFFFFFFFFFFFFFFFFFFFFFFFFFFFFFFFFFFFFFFFFFFFFFFFFFF
310
F000FFFFFFFFFFFFFFFFFFFFFFFFFFFFFFFFFFFFFFFFFFFFFFFFFFFFFFFFFFFF
310
FFFFFFFFFFFFFFFFFFFFFFFFFFFFFFFFFFFFFFFFFFFFFFFFFFFFFFFFFFFFFFFF
310
FFFFFFFFFFFFFFFFFFFFFFFFFFFFFFFFFFFFFFFFFFFFFFFFF000FFFFFFFFFFFF
310
FFFFFFFFFFFFFFFFFFFFFFFFFFFFFFFFFFFFFFFFFFFFFFFFFFFFFFFFFFFFFFFF
310
FFFFFFFFFFFFFFFFFFFFFFFFFFFFFFFFFFFFFFFFFFFFFFFFFFFFFFFFFFFFFFFF
310
FFFFFFFFFFFFFFFFFFFFFFFFFFFFFFFFF000FFFFFFFFFFFFFFFFFFFFFFFFFFFF
310
FFFFFFFFFFFFFFFFFFFFFFFFFFFFFFFFFFFFFFFFFFFFFFFFFFFFFFFFFFFFFFFF
310
FFFFFFFFFFFFFFFFFFFFFFFFFFFFFFFFFFFFFFFFFFFFFFFFFFFFFFFFFFFFFFFF
310
FFFFFFFFFFFFFFFFF000FFFFF80003FFFFFFFFFFFFFFFFFFFFFFFFFFFFFFFFFF
310
FFFFF00007FFFFFFFFFF00007FFFFFF800000000000000007FFFFFFFFFFFFFFF
310
FFFFFFFC001FFFFFFFFFFFFFFC001FFFFFFFFFFFFFFFFFFFFFFFFFFE0007FFFF
310
F000FFFF8000007FFFFFFFF8000FFFFFC0007FFFFF80007FFFFF0000007FFFFF
310
FFF8000007FFFFF800000000000000007FFFFFF0001FFFFFFFFFFFC00001FFFF
310
FFFFFFFFC00001FFFFFFFF000000000003FFFFE000007FFFF000FFFE0000000F
310
FFFFFFF0000FFFFF80007FFFFF80007FFFFC0000001FFFFFFFC0000001FFFFF8
310
00000000000000007FFFFFF0001FFFFFFFFFFE0000003FFFFFFFFFFE0000003F
310
FFFFFF000000000003FFFF0000000FFFF000FFF800000003FFFFFFF00007FFFF
310
80007FFFFF80007FFFF000000007FFFFFF000000003FFFF80000000000000000
310
7FFFFFF0001FFFFFFFFFF80000000FFFFFFFFFF80000000FFFFFFF0000000000
310
03FFFC00000003FFF000FFE000000000FFFFFFF00007FFFF80003FFFFF80007F
310
FFC000000001FFFFFC000000001FFFF800000000000000007FFFFFF0001FFFFF
310
FFFFE000000003FFFFFFFFE000000003FFFFFF000000000003FFF000000000FF
310
F000FF80000000007FFFFFF00007FFFF80003FFFFF80007FFF8000000000FFFF
310
F80000000007FFF800000000000000007FFFFFF0001FFFFFFFFFC000000001FF
310
FFFFFFC000000001FFFFFF000000000003FFC0000000007FF000FF0000000000
310
3FFFFFE00007FFFF00003FFFFF80007FFE00000000003FFFF00000000003FFF8
310
00000000000000007FFFFFF0001FFFFFFFFF8000000000FFFFFFFF8000000000
310
FFFFFF000000000003FF80000000003FF000FE00000000001FFFFFE00003FFFF
310
00003FFFFF80007FFC00000000001FFFE00000000001FFF8000001FFFE000000
310
7FFFFFF0001FFFFFFFFE00000000003FFFFFFE00000000003FFFFF0000000000
310
03FF00000000001FF000FC00000000000FFFFFE00003FFFF00001FFFFF80007F
310
F800000000001FFFC00000000000FFF8000001FFFE0000007FFFFFF0001FFFFF
310
FFFC00000000001FFFFFFC00000000001FFFFF000000000003FE00000000000F
310
F000F8000000000007FFFFE00003FFFF00001FFFFF80007FF800000000000FFF
310
800000000000FFF8000001FFFE0000007FFFFFF0001FFFFFFFF800000000000F
310
FFFFF800000000000FFFFF000000000003FC000000000007F000F80000000000
310
03FFFFC00003FFFE00001FFFFF80007FF0000000000007FF0000000000007FF8
310
000001FFFE0000007FFFFFF0001FFFFFFFF0000000000007FFFFF00000000000
310
07FFFF000000000003F8000000000003F000F0000000000003FFFFC00001FFFE
310
00001FFFFF80007FE0000000000007FE0000000000003FF8000001FFFE000000
310
7FFFFFF0001FFFFFFFF0000000000007FFFFF0000000000007FFFF0000000000
310
03F800001F800003F000E00001FFF00001FFFFC00001FFFE00000FFFFF80007F
310
E00001FFE00003FE00001FFF00003FF8000001FFFE0000007FFFFFF0001FFFFF
310
FFE000003E000003FFFFE000003E000003FFFF000000000003F00001FFF80001
310
F000E00007FFFC0001FFFFC00001FFFE00000FFFFF80007FC0000FFFFC0003FC
310
0000FFFFC0001FF8000001FFFE0000007FFFFFF0001FFFFFFFC00003FFE00001
310
FFFFC00003FFE00001FFFF0001FFFFFFFFF00007FFFE0001F000E0000FFFFF00
310
00FFFF800001FFFC00000FFFFF80007FC0001FFFFE0001FC0001FFFFE0001FF8
310
000001FFFE0000007FFFFFF0001FFFFFFF80000FFFF80000FFFF80000FFFF800
310
00FFFF0003FFFFFFFFE0000FFFFF8000F000C0003FFFFF8000FFFF800000FFFC
310
000007FFFF80007F80003FFFFF0001FC0003FFFFF0001FF8000001FFFE000000
310
7FFFFFF0001FFFFFFF80003FFFFE0000FFFF80003FFFFE0000FFFF0003FFFFFF
310
FFE0003FFFFF8000F000C0003FFFFF8000FFFF800000FFFC000007FFFF80007F
310
80007FFFFF8001F80007FFFFF8000FF8000001FFFE0000007FFFFFF0001FFFFF
310
FF00007FFFFF00007FFF00007FFFFF00007FFF0003FFFFFFFFE0003FFFFFC000
310
F000C0007FFFFFC000FFFF000000FFFC000007FFFF80007F8000FFFFFF8000F8
310
000FFFFFF8000FF8000001FFFE0000007FFFFFF0001FFFFFFF0000FFFFFF8000
310
7FFF0000FFFFFF80007FFF0003FFFFFFFFC0007FFFFFC00070008000FFFFFFC0
310
00FFFF000000FFF8000007FFFF80007F8000FFFFFF8000F8000FFFFFF8000FF8
310
000001FFFE0000007FFFFFF0001FFFFFFE0001FFFFFFC0003FFE0001FFFFFFC0
310
003FFF0003FFFFFFFFC0007FFFFFE00070008000FFFFFFC0007FFF0000007FF8
310
000003FFFF80007F0001FFFFFF8000F8000FFFFFF8000FF8000001FFFE000000
310
7FFFFFF0001FFFFFFE0001FFFFFFC0003FFE0001FFFFFFC0003FFF0003FFFFFF
310
FFC000FFFFFFE00070008000FFFFFFC0007FFF0000007FF8000003FFFF80007F
310
0001FFFFFF8000F8001FFFFFF8000FF8000001FFFE0000007FFFFFF0001FFFFF
310
FE0003FFFFFFE0003FFE0003FFFFFFE0003FFF0003FFFFFFFFC000FFFFFFE000
310
70008000FFFFFFC0007FFE0000007FF8000003FFFF80007F0001FFFFFF8000F0
310
001FFFFFF8000FF8000001FFFE0000007FFFFFF0001FFFFFFC0003FFFFFFE000
310
1FFC0003FFFFFFE0001FFF0003FFFFFFFFC000FFFFFFC00070008000FFFFFF80
310
007FFE0000007FF0000003FFFF80007F0001FFFFFF0000F0001FFFFFF8000FF8
310
000001FFFE0000007FFFFFF0001FFFFFFC0007FFFFFFF0001FFC0007FFFFFFF0
310
001FFF0003FFFFFFFFC000FFFFFFC00070008001FFFFFF0000FFFE0000003FF0
310
000001FFFF80007F0001FFFFFF0000F8001FFFFFF0000FF8000001FFFE000000
310
7FFFFFF0001FFFFFFC0007FFFFFFF0001FFC0007FFFFFFF0001FFF0003FFFFFF
310
FFC001FFFFFF80007000FFFFFFFFFE0000FFFE0008003FF0008001FFFF80007F
310
FFFFFFFFFC0000FFFFFFFFFFE0000FF8000001FFFE0000007FFFFFF0001FFFFF
310
F8000FFFFFFFF8000FF8000FFFFFFFF8000FFF0003FFFFFFFFFFFFFFFFFF0000
310
7000FFFFFFFFFC0000FFFC0008003FF0008001FFFF80007FFFFFFFFFF80001FF
310
FFFFFFFF80000FF8000001FFFE0000007FFFFFF0001FFFFFF8000FFFFFFFF800
310
0FF8000FFFFFFFF8000FFF0003FFFFFFFFFFFFFFFFFE0000F000FFFFFFFFE000
310
00FFFC000C003FE000C001FFFF80007FFFFFFFFFC00001FFFFFFFFFE00001FF8
310
000001FFFE0000007FFFFFF0001FFFFFF8000FFFFFFFF8000FF8000FFFFFFFF8
310
000FFF0003FFFFFFFFFFFFFFFFF00000F000FFFFFFFE000001FFFC000C001FE0
310
00C000FFFF80007FFFFFFFFE000001FFFFFFFFE000001FF80FFFFFFFFFFFFFC0
310
7FFFFFF0001FFFFFF8000FFFFFFFF8000FF8000FFFFFFFF8000FFF0003FFFFFF
310
FFFFFFFFFF800000F000FFFFFFC0000001FFFC001C001FE001C000FFFF80007F
310
FFFFFF80000003FFFFFFF80000001FF80FFFFFFFFFFFFFC07FFFFFF0001FFFFF
310
F8001FFFFFFFFC000FF8001FFFFFFFFC000FFF0003FFFFFFFFFFFFFFF0000001
310
F000FFFFF800000001FFF8001C001FE001C000FFFF80007FFFFFF800000003FF
310
FFFF800000003FF80FFFFFFFFFFFFFC07FFFFFF0001FFFFFF8001FFFFFFFFC00
310
0FF8001FFFFFFFFC000FFF0003FFFFFFFFFFFFFE00000001F000FFFFC0000000
310
03FFF8001E001FC001E000FFFF80007FFFFF8000000007FFFFFC000000003FF8
310
0FFFFFFFFFFFFFC07FFFFFF0001FFFFFF8001FFFFFFFFC000FF8001FFFFFFFFC
310
000FFF0003FFFFFFFFFFFFE000000003F000FFFE0000000007FFF8001E000FC0
310
01E0007FFF80007FFFFE0000000007FFFFE0000000007FF80FFFFFFFFFFFFFC0
310
7FFFFFF0001FFFFFF0001FFFFFFFFC0007F0001FFFFFFFFC0007FF0003FFFFFF
310
FFFFFF0000000003F000FFF80000000007FFF8001E000FC003E0007FFF80007F
310
FFF0000000000FFFFF8000000000FFF80FFFFFFFFFFFFFC07FFFFFF0001FFFFF
310
F0001FFFFFFFFC0007F0001FFFFFFFFC0007FF0003FFFFFFFFFFFC0000000007
310
F000FFE0000000000FFFF0003E000FC003E0007FFF80007FFFC0000000001FFF
310
FE0000000001FFF80FFFFFFFFFFFFFC07FFFFFF0001FFFFFF0001FFFFFFFFC00
310
07F0001FFFFFFFFC0007FF0003FFFFFFFFFFF0000000000FF000FFC000000000
310
1FFFF0003F000F8003F0003FFF80007FFF80000000003FFFF80000000003FFF8
310
0FFFFFFFFFFFFFC07FFFFFF0001FFFFFF0001FFFFFFFFC0007F0001FFFFFFFFC
310
0007FF0003FFFFFFFFFFE0000000001FF000FF00000000007FFFF0003F000780
310
03F0003FFF80007FFF00000000007FFFF00000000007FFF80FFFFFFFFFFFFFC0
310
7FFFFFF0001FFFFFF0001FFFFFFFFC0007F0001FFFFFFFFC0007FF0003FFFFFF
310
FFFF80000000007FF000FE0000000000FFFFE0003F00078007F0003FFF80007F
310
FE0000000001FFFFE0000000001FFFF80FFFFFFFFFFFFFC07FFFFFF0001FFFFF
310
F0001FFFFFFFFC0007F0001FFFFFFFFC0007FF0003FFFFFFFFFF0000000000FF
310
F000FC0000000003FFFFE0007F00078007F0003FFF80007FFC0000000007FFFF
310
C0000000007FFFF80FFFFFFFFFFFFFC07FFFFFF0001FFFFFF8001FFFFFFFFC00
310
0FF8001FFFFFFFFC000FFF0003FFFFFFFFFE0000000003FFF000FC000000000F
310
FFFFE0007F80070007F8001FFF80007FF8000000001FFFFF8000000001FFFFF8
310
0FFFFFFFFFFFFFC07FFFFFF0001FFFFFF8001FFFFFFFFC000FF8001FFFFFFFFC
310
000FFF0003FFFFFFFFFC000000000FFFF000F8000000007FFFFFE0007F800700
310
07F8001FFF80007FF000000000FFFFFF800000000FFFFFF80FFFFFFFFFFFFFC0
310
7FFFFFF0001FFFFFF8000FFFFFFFF8000FF8000FFFFFFFF8000FFF0003FFFFFF
310
FFFC000000007FFFF000F800000007FFFFFFC0007F8003000FF8001FFF80007F
310
F000000007FFFFFF000000007FFFFFF80FFFFFFFFFFFFFC07FFFFFF0001FFFFF
310
F8000FFFFFFFF8000FF8000FFFFFFFF8000FFF0003FFFFFFFFF80000000FFFFF
310
F000F0000000FFFFFFFFC000FF8003000FF8001FFF80007FE0000000FFFFFFFF
310
0000000FFFFFFFF8000001FFFE0000007FFFFFF0001FFFFFF8000FFFFFFFF800
310
0FF8000FFFFFFFF8000FFF0003FFFFFFFFF8000000FFFFFFF000F000000FFFFF
310
FFFFC000FFC002000FF8000FFF80007FE000001FFFFFFFFE000001FFFFFFFFF8
310
000001FFFE0000007FFFFFF0001FFFFFF8000FFFFFFFF8000FF8000FFFFFFFF8
310
000FFF0003FFFFFFFFF000001FFFFFFFF000E00000FFFFFFFFFFC000FFC00200
310
0FFC000FFF80007FE00001FFFFFFFFFE00001FFFFFFFFFF8000001FFFE000000
310
7FFFFFF0001FFFFFFC000FFFFFFFF8001FFC000FFFFFFFF8001FFF0003FFFFFF
310
FFF00001FFFFFFFFF000E00007FFFFFFFFFF8000FFC000001FFC000FFF80007F
310
C0000FFFFFFFFFFE0000FFFFFFFFFFF8000001FFFE0000007FFFFFF0001FFFFF
310
FC0007FFFFFFF0001FFC0007FFFFFFF0001FFF0003FFFFFFFFF00007FFFFFFFF
310
F000E0001FFFFFFFFFFF8000FFC000001FFC000FFF80007FC0003FFFFFFFFFFE
310
0001FFFFFFFFFFF8000001FFFE0000007FFFFFF0001FFFFFFC0007FFFFFFF000
310
1FFC0007FFFFFFF0001FFF0003FFFFFFFFF0001FFFFFFFFFF000E0003FFFFF00
310
03FF8001FFE000001FFC0007FF80007FC0007FFFFF0007FC0003FFFFF0003FF8
310
000001FFFE0000007FFFFFF0001FFFFFFC0003FFFFFFE0001FFC0003FFFFFFE0
310
001FFF0003FFFFFFFFF0003FFFFFFFFFF000E0003FFFFF0001FF8001FFE00000
310
1FFE0007FF80007FC0007FFFFE0003FC0007FFFFE0003FF8000001FFFE000000
310
7FFFFFF0001FFFFFFE0003FFFFFFE0003FFE0003FFFFFFE0003FFF0003FFFFFF
310
FFF0003FFFFF8001F000E0003FFFFF0001FF0001FFE000001FFE0007FF80007F
310
C0007FFFFE0003FC0007FFFFE0003FF8000001FFFE0000007FFFFFF0001FFFFF
310
FE0001FFFFFFC0003FFE0001FFFFFFC0003FFF0003FFFFFFFFF0003FFFFF0001
310
F000E0003FFFFF0003FF0001FFE000003FFE0007FF80007FC0007FFFFE0003FC
310
0007FFFFE0003FF8000001FFFE0000007FFFFFF0001FFFFFFF0001FFFFFFC000
310
7FFF0001FFFFFFC0007FFF0003FFFFFFFFF0003FFFFF0001F000E0003FFFFE00
310
03FF0003FFF000003FFE0003FF80007FC0007FFFFC0003FE0007FFFFE0003FF8
310
000001FFFE0000007FFFFFF0001FFFFFFF0000FFFFFF80007FFF0000FFFFFF80
310
007FFF0003FFFFFFFFF0003FFFFF0001F000E0003FFFFE0003FF0003FFF00000
310
3FFF0003FF80007FC0007FFFFC0007FE0007FFFFC0003FF8000001FFFE000000
310
7FFFFFF0001FFFFFFF80007FFFFF0000FFFF80007FFFFF0000FFFF0003FFFFFF
310
FFF0003FFFFF0003F000E0003FFFFC0003FE0003FFF000003FFF0003FF80007F
310
E0003FFFF80007FE0003FFFFC0007FF8000001FFFE0000007FFFFFF0001FFFFF
310
FF80003FFFFE0000FFFF80003FFFFE0000FFFF0003FFFFFFFFF0001FFFFE0003
310
F000F0001FFFF80003FE0003FFF000007FFF0001FF80007FE0003FFFF00007FE
310
0001FFFF80007FF8000001FFFE0000007FFFFFF0001FFFFFFFC0000FFFF80001
310
FFFFC0000FFFF80001FFFF0003FFFFFFFFF0001FFFFC0003F000F0000FFFF000
310
07FE0007FFF800007FFF0001FF80007FE0001FFFE00007FF0000FFFE00007FF8
310
000001FFFE0000007FFFFFF0001FFFFFFFC00003FFE00001FFFFC00003FFE000
310
01FFFF0003FFFFFFFFF8000FFFF80003F000F00003FFC00007FC0007FFF80000
310
7FFF8001FF80007FF00007FF80000FFF00007FF80000FFF8000001FFFE000000
310
7F80000000000001FFE000003E000003FFFFE000003E000003FFFF0003FFFFFF
310
FFF80003FFE00007F000F800000000000FFC0007FFF800007FFF8001FF80007F
310
F000000000000FFF000000000000FFF8000001FFFE0000007F80000000000001
310
FFF0000000000007FFFFF0000000000007FFFF0003FFFFFFFFFC00007E000007
310
F000F800000000000FFC0007FFF80000FFFF8000FF80007FF800000000001FFF
310
800000000001FFF8000001FFFE0000007F80000000000001FFF800000000000F
310
FFFFF800000000000FFFFF0003FFFFFFFFFC00000000000FF000FC0000000000
310
1FFC0007FFFC0000FFFF8000FF80007FF800000000003FFFC00000000001FFF8
310
000001FFFE0000007F80000000000001FFF800000000000FFFFFF80000000000
310
0FFFFF0003FFFFFFFFFE00000000001FF000FE00000000003FF8000FFFFC0000
310
FFFF8000FF80007FFC00000000003FFFC00000000003FFF8000001FFFE000000
310
7F80000000000001FFFC00000000001FFFFFFC00000000001FFFFF0003FFFFFF
310
FFFF00000000001FF000FF00000000003FF8000FFFFC0000FFFFC000FF80007F
310
FE00000000007FFFE00000000007FFF8000001FFFE0000007F80000000000001
310
FFFE00000000003FFFFFFE00000000003FFFFF0003FFFFFFFFFF80000000003F
310
F000FF80000000007FF8000FFFFC0001FFFFC0007F80007FFF0000000000FFFF
310
F0000000000FFFF800000000000000007F80000000000001FFFF8000000000FF
310
FFFFFF8000000000FFFFFF0003FFFFFFFFFFC0000000007FF000FFC000000000
310
FFF8000FFFFE0001FFFFC0007F80007FFF8000000001FFFFF8000000001FFFF8
310
00000000000000007F80000000000001FFFFC000000001FFFFFFFFC000000001
310
FFFFFF0003FFFFFFFFFFE000000000FFF000FFE000000003FFF0001FFFFE0001
310
FFFFC0007F80007FFFC000000007FFFFFE000000003FFFF80000000000000000
310
7F80000000000001FFFFE000000003FFFFFFFFE000000003FFFFFF0003FFFFFF
310
FFFFF000000003FFF000FFF80000000FFFF0001FFFFE0001FFFFE0007F80007F
310
FFF00000000FFFFFFF00000000FFFFF800000000000000007F80000000000001
310
FFFFF80000000FFFFFFFFFF80000000FFFFFFF0003FFFFFFFFFFFC0000000FFF
310
F000FFFE0000003FFFF0001FFFFE0003FFFFE0003F80007FFFFC0000003FFFFF
310
FFC0000003FFFFF800000000000000007F80000000000001FFFFFE0000003FFF
310
FFFFFFFE0000003FFFFFFF0003FFFFFFFFFFFF0000003FFFF000FFFF800000FF
310
FFF0001FFFFF0003FFFFE0003F80007FFFFF000001FFFFFFFFF800001FFFFFF8
310
00000000000000007F80000000000001FFFFFFC00001FFFFFFFFFFFFC00001FF
310
FFFFFF0003FFFFFFFFFFFFC00000FFFFF000FFFFF8000FFFFFFFFFFFFFFFFFFF
310
FFFFFFFFFFFFFFFFFFFFF0001FFFFFFFFFFF0000FFFFFFF80000000000000000
310
7FFFFFFFFFFFFFFFFFFFFFFC001FFFFFFFFFFFFFFC001FFFFFFFFFFFFFFFFFFF
310
FFFFFFFC001FFFFFF000FFFFFFFFFFFFFFFFFFFFFFFFFFFFFFFFFFFFFFFFFFFF
310
FFFFFFFFFFFFFFFFFFFFFFFFFFFFFFFFFFFFFFFFFFFFFFFFFFFFFFFFFFFFFFFF
310
FFFFFFFFFFFFFFFFFFFFFFFFFFFFFFFFFFFFFFFFFFFFFFFFFFFFFFFFFFFFFFFF
310
F000FFFFFFFFFFFFFFFFFFFFFFFFFFFFFFFFFFFFFFFFFFFFFFFFFFFFFFFFFFFF
310
FFFFFFFFFFFFFFFFFFFFFFFFFFFFFFFFFFFFFFFFFFFFFFFFFFFFFFFFFFFFFFFF
310
FFFFFFFFFFFFFFFFFFFFFFFFFFFFFFFFFFFFFFFFFFFFFFFFF000FFFFFFFFFFFF
310
FFFFFFFFFFFFFFFFFFFFFFFFFFFFFFFFFFFFFFFFFFFFFFFFFFFFFFFFFFFFFFFF
310
FFFFFFFFFFFFFFFFFFFFFFFFFFFFFFFFFFFFFFFFFFFFFFFFFFFFFFFFFFFFFFFF
310
FFFFFFFFFFFFFFFFFFFFFFFFFFFFFFFFF000FFFFFFFFFFFFFFFFFFFFFFFFFFFF
310
FFFFFFFFFFFFFFFFFFFFFFFFFFFFFFFFFFFFFFFFFFFFFFFFFFFFFFFFFFFFFFFF
310
FFFFFFFFFFFFFFFFFFFFFFFFFFFFFFFFFFFFFFFFFFFFFFFFFFFFFFFFFFFFFFFF
310
FFFFFFFFFFFFFFFFF000FFFFFFFFFFFFFFFFFFFFFFFFFFFFFFFFFFFFFFFFFFFF
310
FFFFFFFFFFFFFFFFFFFFFFFFFFFFFFFFFFFFFFFFFFFFFFFFFFFFFFFFFFFFFFFF
310
FFFFFFFFFFFFFFFFFFFFFFFFFFFFFFFFFFFFFFFFFFFFFFFFFFFFFFFFFFFFFFFF
310
F000FFFFFFFFFFFFFFFFFFFFFFFFFFFFFFFFFFFFFFFFFFFFFFFFFFFFFFFFFFFF
310
FFFFFFFFFFFFFFFFFFFFFFFFFFFFFFFFFFFFFFFFFFFFFFFFFFFFFFFFFFFFFFFF
310
FFFFFFFFFFFFFFFFFFFFFFFFFFFFFFFFFFFFFFFFFFFFFFFFF000FFFFFFFFFFFF
310
FFFFFFFFFFFFFFFFFFFFFFFFFFFFFFFFFFFFFFFFFFFFFFFFFFFFFFFFFFFFFFFF
310
FFFFFFFFFFFFFFFFFFFFFFFFFFFFFFFFFFFFFFFFFFFFFFFFFFFFFFFFFFFFFFFF
310
FFFFFFFFFFFFFFFFFFFFFFFFFFFFFFFFF000FFFFFFFFFFFFFFFFFFFFFFFFFFFF
310
FFFFFFFFFFFFFFFFFFFFFFFFFFFFFFFFFFFFFFFFFFFFFFFFFFFFFFFFFFFFFFFF
310
FFFFFFFFFFFFFFFFFFFFFFFFFFFFFFFFFFFFFFFFFFFFFFFFFFFFFFFFFFFFFFFF
310
FFFFFFFFFFFFFFFFF000FFFFFFFFFFFFFFFFFFFFFFFFFFFFFFFFFFFFFFFFFFFF
310
FFFFFFFFFFFFFFFFFFFFFFFFFFFFFFFFFFFFFFFFFFFFFFFFFFFFFFFFFFFFFFFF
310
FFFFFFFFFFFFFFFFFFFFFFFFFFFFFFFFFFFFFFFFFFFFFFFFFFFFFFFFFFFFFFFF
310
F000FFFFFFFFFFFFFFFFFFFFFFFFFFFFFFFFFFFFFFFFFFFFFFFFFFFFFFFFFFFF
310
FFFFFFFFFFFFFFFFFFFFFFFFFFFFFFFFFFFFFFFFFFFFFFFFFFFFFFFFFFFFFFFF
310
FFFFFFFFFFFFFFFFFFFFFFFFFFFFFFFFFFFFFFFFFFFFFFFFF000FFFFFFFFFFFF
310
FFFFFFFFFFFFFFFFFFFFFFFFFFFFFFFFFFFFFFFFFFFFFFFFFFFFFFFFFFFFFFFF
310
FFFFFFFFFFFFFFFFFFFFFFFFFFFFFFFFFFFFFFFFFFFFFFFFFFFFFFFFFFFFFFFF
310
FFFFFFFFFFFFFFFFFFFFFFFFFFFFFFFFF000FFFFFFFFFFFFFFFFFFFFFFFFFFFF
310
FFFFFFFFFFFFFFFFFFFFFFFFFFFFFFFFFFFFFFFFFFFFFFFFFFFFFFFFFFFFFFFF
310
FFFFFFFFFFFFFFFFFFFFFFFFFFFFFFFFFFFFFFFFFFFFFFFFFFFFFFFFFFFFFFFF
310
FFFFFFFFFFFFFFFFF000FFFFFFFFFFFFFFFFFFFFFFFFFFFFFFFFFFFFFFFFFFFF
310
FFFFFFFFFFFFFFFFFFFFFFFFFFFFFFFFFFFFFFFFFFFFFFFFFFFFFFFFFFFFFFFF
310
FFFFFFFFFFFFFFFFFFFFFFFFFFFFFFFFFFFFFFFFFFFFFFFFFFFFFFFFFFFFFFFF
310
F000FFFFFFFFFFFFFFFFFFFFFFFFFFFFFFFFFFFFFFFFFFFFFFFFFFFFFFFFFFFF
310
FFFFFFFFFFFFFFFFFFFFFFFFFFFFFFFFFFFFFFFFFFFFFFFFFFFFFFFFFFFFFFFF
310
FFFFFFFFFFFFFFFFFFFFFFFFFFFFFFFFFFFFFFFFFFFFFFFFF000FFFFFFFFFFFF
310
FFFFFFFFFFFFFFFFFFFFFFFFFFFFFFFFFFFFFFFFFFFFFFFFFFFFFFFFFFFFFFFF
310
FFFFFFFFFFFFFFFFFFFFFFFFFFFFFFFFFFFFFFFFFFFFFFFFFFFFFFFFFFFFFFFF
310
FFFFFFFFFFFFFFFFFFFFFFFFFFFFFFFFF000FFFFFFFFFFFFFFFFFFFFFFFFFFFF
310
FFFFFFFFFFFFFFFFFFFFFFFFFFFFFFFFFFFFFFFFFFFFFFFFFFFFFFFFFFFFFFFF
310
FFFFFFFFFFFFFFFFFFFFFFFFFFFFFFFFFFFFFFFFFFFFFFFFFFFFFFFFFFFFFFFF
310
FFFFFFFFFFFFFFFFF000FFFFFFFFFFFFFFFFFFFFFFFFFFFFFFFFFFFFFFFFFFFF
310
FFFFFFFFFFFFFFFFFFFFFFFFFFFFFFFFFFFFFFFFFFFFFFFFFFFFFFFFFFFFFFFF
310
FFFFFFFFFFFFFFFFFFFFFFFFFFFFFFFFFFFFFFFFFFFFFFFFFFFFFFFFFFFFFFFF
310
F000FFFFFFFFFFFFFFFFFFFFFFFFFFFFFFFFFFFFFFFFFFFFFFFFFFFFFFFFFFFF
310
FFFFFFFFFFFFFFFFFFFFFFFFFFFFFFFFFFFFFFFFFFFFFFFFFFFFFFFFFFFFFFFF
310
FFFFFFFFFFFFFFFFFFFFFFFFFFFFFFFFFFFFFFFFFFFFFFFFF000FFFFFFFFFFFF
310
FFFFFFFFFFFFFFFFFFFFFFFFFFFFFFFFFFFFFFFFFFFFFFFFFFFFFFFFFFFFFFFF
310
FFFFFFFFFFFFFFFFFFFFFFFFFFFFFFFFFFFFFFFFFFFFFFFFFFFFFFFFFFFFFFFF
310
FFFFFFFFFFFFFFFFFFFFFFFFFFFFFFFFF000FFFFFFFFFFFFFFFFFFFFFFFFFFFF
310
FFFFFFFFFFFFFFFFFFFFFFFFFFFFFFFFFFFFFFFFFFFFFFFFFFFFFFFFFFFFFFFF
310
FFFFFFFFFFFFFFFFFFFFFFFFFFFFFFFFFFFFFFFFFFFFFFFFFFFFFFFFFFFFFFFF
310
FFFFFFFFFFFFFFFFF000FFFFFFFFFFFFFFFFFFFFFFFFFFFFFFFFFFFFFFFFFFFF
310
FFFFFFFFFFFFFFFFFFFFFFFFFFFFFFFFFFFFFFFFFFFFFFFFFFFFFFFFFFFFFFFF
310
FFFFFFFFFFFFFFFFFFFFFFFFFFFFFFFFFFFFFFFFFFFFFFFFFFFFFFFFFFFFFFFF
310
F000FFFFFFFFFFFFFFFFFFFFFFFFFFFFFFFFFFFFFFFFFFFFFFFFFFFFFFFFFFFF
310
FFFFFFFFFFFFFFFFFFFFFFFFFFFFFFFFFFFFFFFFFFFFFFFFFFFFFFFFFFFFFFFF
310
FFFFFFFFFFFFFFFFFFFFFFFFFFFFFFFFFFFFFFFFFFFFFFFFF000FFFFFFFFFFFF
310
FFFFFFFFFFFFFFFFFFFFFFFFFFFFFFFFFFFFFFFFFFFFFFFFFFFFFFFFFFFFFFFF
310
FFFFFFFFFFFFFFFFFFFFFFFFFFFFFFFFFFFFFFFFFFFFFFFFFFFFFFFFFFFFFFFF
310
FFFFFFFFFFFFFFFFFFFFFFFFFFFFFFFFF0000000000000000000000000000000
310
0000000000000000000000000000000000000000000000000000000000000000
310
0000000000000000000000000000000000000000000000000000000000000000
310
0000000000000000000000000000000000000000000000000000000000000000
310
0000000000000000000000000000000000000000000000000000000000000000
310
0000000000000000000000000000000000000000000000000000000000000000
310
0000000000000000000000000000000000000000000000000000000000000000
310
0000000000000000000000000000000000000000000000000000000000000000
310
0000000000000000000000000000000000000000000000000000000000000000
310
0000000000000000000000000000000000000000000000000000000000000000
310
0000000000000000000000000000000000000000000000000000000000000000
310
0000000000000000000000000000000000000000000000000000000000000000
310
0000000000000000000000000000000000000000000000000000000000000000
310
0000000000000000000000000000000000000000000000000000000000000000
310
0000000000000000000000000000000000000000000000000000000000000000
310
0000000000000000000000000000000000000000000000000000000000000000
  1
OLE
  0
ENDSEC
  0
SECTION
  2
OBJECTS
  0
DICTIONARY
  5
C
330
0
100
AcDbDictionary
281
     1
  3
ACAD_GROUP
350
D
  3
ACAD_LAYOUT
350
1A
  3
ACAD_MLINESTYLE
350
17
  3
ACAD_PLOTSETTINGS
350
19
  3
ACAD_PLOTSTYLENAME
350
E
  3
ACAD_SCALELIST
350
47
  0
DICTIONARY
  5
D
102
{ACAD_REACTORS
330
C
102
}
330
C
100
AcDbDictionary
281
     1
  0
DICTIONARY
  5
1A
102
{ACAD_REACTORS
330
C
102
}
330
C
100
AcDbDictionary
281
     1
  3
Layout1
350
1E
  3
Layout2
350
26
  3
Model
350
22
  0
DICTIONARY
  5
17
102
{ACAD_REACTORS
330
C
102
}
330
C
100
AcDbDictionary
281
     1
  3
Standard
350
18
  0
DICTIONARY
  5
19
102
{ACAD_REACTORS
330
C
102
}
330
C
100
AcDbDictionary
281
     1
  0
ACDBDICTIONARYWDFLT
  5
E
102
{ACAD_REACTORS
330
C
102
}
330
C
100
AcDbDictionary
281
     1
  3
Normal
350
F
100
AcDbDictionaryWithDefault
340
F
  0
DICTIONARY
  5
47
102
{ACAD_REACTORS
330
C
102
}
330
C
100
AcDbDictionary
281
     1
  3
A0
350
48
  3
A1
350
49
  3
A2
350
4A
  3
A3
350
4B
  3
A4
350
4C
  3
A5
350
4D
  3
A6
350
4E
  3
A7
350
4F
  3
A8
350
50
  3
A9
350
51
  3
B0
350
52
  3
B1
350
53
  3
B2
350
54
  3
B3
350
55
  3
B4
350
56
  3
B5
350
57
  3
B6
350
58
  3
B7
350
59
  3
B8
350
5A
  3
B9
350
5B
  3
C0
350
5C
  3
C1
350
5D
  3
C2
350
5E
  3
C3
350
5F
  3
C4
350
60
  3
C5
350
61
  3
C6
350
62
  3
C7
350
63
  3
C8
350
64
  3
C9
350
65
  3
D0
350
66
  3
D1
350
67
  3
D2
350
68
  0
LAYOUT
  5
1E
102
{ACAD_REACTORS
330
1A
102
}
330
1A
100
AcDbPlotSettings
  1

  2
none_device
  4

  6

 40
0.0
 41
0.0
 42
0.0
 43
0.0
 44
0.0
 45
0.0
 46
0.0
 47
0.0
 48
0.0
 49
0.0
140
0.0
141
0.0
142
1.0
143
1.0
 70
   688
 72
     1
 73
     0
 74
     5
  7

 75
    16
147
1.0
148
0.0
149
0.0
100
AcDbLayout
  1
Layout1
 70
     1
 71
     1
 10
0.0
 20
0.0
 11
420.0
 21
297.0
 12
0.0
 22
0.0
 32
0.0
 14
1.0000000000E+20
 24
1.0000000000E+20
 34
1.0000000000E+20
 15
-1.0000000000E+20
 25
-1.0000000000E+20
 35
-1.0000000000E+20
146
0.0
 13
0.0
 23
0.0
 33
0.0
 16
1.0
 26
0.0
 36
0.0
 17
0.0
 27
1.0
 37
0.0
 76
     0
330
1B
  0
LAYOUT
  5
26
102
{ACAD_REACTORS
330
1A
102
}
330
1A
100
AcDbPlotSettings
  1

  2
none_device
  4

  6

 40
0.0
 41
0.0
 42
0.0
 43
0.0
 44
0.0
 45
0.0
 46
0.0
 47
0.0
 48
0.0
 49
0.0
140
0.0
141
0.0
142
1.0
143
1.0
 70
   688
 72
     1
 73
     0
 74
     5
  7

 75
    16
147
1.0
148
0.0
149
0.0
100
AcDbLayout
  1
Layout2
 70
     1
 71
     2
 10
0.0
 20
0.0
 11
0.0
 21
0.0
 12
0.0
 22
0.0
 32
0.0
 14
0.0
 24
0.0
 34
0.0
 15
0.0
 25
0.0
 35
0.0
146
0.0
 13
0.0
 23
0.0
 33
0.0
 16
1.0
 26
0.0
 36
0.0
 17
0.0
 27
1.0
 37
0.0
 76
     0
330
23
  0
LAYOUT
  5
22
102
{ACAD_REACTORS
330
1A
102
}
330
1A
100
AcDbPlotSettings
  1

  2
none_device
  4
Letter_(8.50_x_11.00_Inches)
  6

 40
6.35
 41
6.35
 42
6.35000508
 43
6.35000508
 44
215.9
 45
279.4
 46
0.0
 47
0.0
 48
0.0
 49
0.0
140
0.0
141
0.0
142
1.0
143
1.0
 70
  1712
 72
     1
 73
     0
 74
     0
  7

 75
     0
147
1.0
148
0.0
149
0.0
100
AcDbLayout
  1
Model
 70
     1
 71
     0
 10
0.0
 20
0.0
 11
297.0
 21
210.0
 12
0.0
 22
0.0
 32
0.0
 14
0.0
 24
0.0
 34
0.0
 15
297.0
 25
210.0
 35
0.0
146
0.0
 13
0.0
 23
0.0
 33
0.0
 16
1.0
 26
0.0
 36
0.0
 17
0.0
 27
1.0
 37
0.0
 76
     0
330
1F
331
29
  0
MLINESTYLE
  5
18
102
{ACAD_REACTORS
330
17
102
}
330
17
100
AcDbMlineStyle
  2
Standard
 70
     0
  3

 62
   256
 51
90.0
 52
90.0
 71
     2
 49
0.5
 62
   256
  6
BYLAYER
 49
-0.5
 62
   256
  6
BYLAYER
  0
ACDBPLACEHOLDER
  5
F
102
{ACAD_REACTORS
330
E
102
}
330
E
  0
SCALE
  5
48
102
{ACAD_REACTORS
330
47
102
}
330
47
100
AcDbScale
 70
     0
300
1:1
140
1.0
141
1.0
290
     1
  0
SCALE
  5
49
102
{ACAD_REACTORS
330
47
102
}
330
47
100
AcDbScale
 70
     0
300
1:2
140
1.0
141
2.0
290
     0
  0
SCALE
  5
4A
102
{ACAD_REACTORS
330
47
102
}
330
47
100
AcDbScale
 70
     0
300
1:4
140
1.0
141
4.0
290
     0
  0
SCALE
  5
4B
102
{ACAD_REACTORS
330
47
102
}
330
47
100
AcDbScale
 70
     0
300
1:5
140
1.0
141
5.0
290
     0
  0
SCALE
  5
4C
102
{ACAD_REACTORS
330
47
102
}
330
47
100
AcDbScale
 70
     0
300
1:8
140
1.0
141
8.0
290
     0
  0
SCALE
  5
4D
102
{ACAD_REACTORS
330
47
102
}
330
47
100
AcDbScale
 70
     0
300
1:10
140
1.0
141
10.0
290
     0
  0
SCALE
  5
4E
102
{ACAD_REACTORS
330
47
102
}
330
47
100
AcDbScale
 70
     0
300
1:16
140
1.0
141
16.0
290
     0
  0
SCALE
  5
4F
102
{ACAD_REACTORS
330
47
102
}
330
47
100
AcDbScale
 70
     0
300
1:20
140
1.0
141
20.0
290
     0
  0
SCALE
  5
50
102
{ACAD_REACTORS
330
47
102
}
330
47
100
AcDbScale
 70
     0
300
1:30
140
1.0
141
30.0
290
     0
  0
SCALE
  5
51
102
{ACAD_REACTORS
330
47
102
}
330
47
100
AcDbScale
 70
     0
300
1:40
140
1.0
141
40.0
290
     0
  0
SCALE
  5
52
102
{ACAD_REACTORS
330
47
102
}
330
47
100
AcDbScale
 70
     0
300
1:50
140
1.0
141
50.0
290
     0
  0
SCALE
  5
53
102
{ACAD_REACTORS
330
47
102
}
330
47
100
AcDbScale
 70
     0
300
1:100
140
1.0
141
100.0
290
     0
  0
SCALE
  5
54
102
{ACAD_REACTORS
330
47
102
}
330
47
100
AcDbScale
 70
     0
300
2:1
140
2.0
141
1.0
290
     0
  0
SCALE
  5
55
102
{ACAD_REACTORS
330
47
102
}
330
47
100
AcDbScale
 70
     0
300
4:1
140
4.0
141
1.0
290
     0
  0
SCALE
  5
56
102
{ACAD_REACTORS
330
47
102
}
330
47
100
AcDbScale
 70
     0
300
8:1
140
8.0
141
1.0
290
     0
  0
SCALE
  5
57
102
{ACAD_REACTORS
330
47
102
}
330
47
100
AcDbScale
 70
     0
300
10:1
140
10.0
141
1.0
290
     0
  0
SCALE
  5
58
102
{ACAD_REACTORS
330
47
102
}
330
47
100
AcDbScale
 70
     0
300
100:1
140
100.0
141
1.0
290
     0
  0
SCALE
  5
59
102
{ACAD_REACTORS
330
47
102
}
330
47
100
AcDbScale
 70
     0
300
1/128" = 1'-0"
140
0.0078125
141
12.0
290
     0
  0
SCALE
  5
5A
102
{ACAD_REACTORS
330
47
102
}
330
47
100
AcDbScale
 70
     0
300
1/64" = 1'-0"
140
0.015625
141
12.0
290
     0
  0
SCALE
  5
5B
102
{ACAD_REACTORS
330
47
102
}
330
47
100
AcDbScale
 70
     0
300
1/32" = 1'-0"
140
0.03125
141
12.0
290
     0
  0
SCALE
  5
5C
102
{ACAD_REACTORS
330
47
102
}
330
47
100
AcDbScale
 70
     0
300
1/16" = 1'-0"
140
0.0625
141
12.0
290
     0
  0
SCALE
  5
5D
102
{ACAD_REACTORS
330
47
102
}
330
47
100
AcDbScale
 70
     0
300
3/32" = 1'-0"
140
0.09375
141
12.0
290
     0
  0
SCALE
  5
5E
102
{ACAD_REACTORS
330
47
102
}
330
47
100
AcDbScale
 70
     0
300
1/8" = 1'-0"
140
0.125
141
12.0
290
     0
  0
SCALE
  5
5F
102
{ACAD_REACTORS
330
47
102
}
330
47
100
AcDbScale
 70
     0
300
3/16" = 1'-0"
140
0.1875
141
12.0
290
     0
  0
SCALE
  5
60
102
{ACAD_REACTORS
330
47
102
}
330
47
100
AcDbScale
 70
     0
300
1/4" = 1'-0"
140
0.25
141
12.0
290
     0
  0
SCALE
  5
61
102
{ACAD_REACTORS
330
47
102
}
330
47
100
AcDbScale
 70
     0
300
3/8" = 1'-0"
140
0.375
141
12.0
290
     0
  0
SCALE
  5
62
102
{ACAD_REACTORS
330
47
102
}
330
47
100
AcDbScale
 70
     0
300
1/2" = 1'-0"
140
0.5
141
12.0
290
     0
  0
SCALE
  5
63
102
{ACAD_REACTORS
330
47
102
}
330
47
100
AcDbScale
 70
     0
300
3/4" = 1'-0"
140
0.75
141
12.0
290
     0
  0
SCALE
  5
64
102
{ACAD_REACTORS
330
47
102
}
330
47
100
AcDbScale
 70
     0
300
1" = 1'-0"
140
1.0
141
12.0
290
     0
  0
SCALE
  5
65
102
{ACAD_REACTORS
330
47
102
}
330
47
100
AcDbScale
 70
     0
300
1-1/2" = 1'-0"
140
1.5
141
12.0
290
     0
  0
SCALE
  5
66
102
{ACAD_REACTORS
330
47
102
}
330
47
100
AcDbScale
 70
     0
300
3" = 1'-0"
140
3.0
141
12.0
290
     0
  0
SCALE
  5
67
102
{ACAD_REACTORS
330
47
102
}
330
47
100
AcDbScale
 70
     0
300
6" = 1'-0"
140
6.0
141
12.0
290
     0
  0
SCALE
  5
68
102
{ACAD_REACTORS
330
47
102
}
330
47
100
AcDbScale
 70
     0
300
1'-0" = 1'-0"
140
12.0
141
12.0
290
     0
  0
ENDSEC
  0
EOF
