  0
SECTION
  2
HEADER
  9
$ACADVER
  1
AC1015
  9
$ACADMAINTVER
 70
     6
  9
$DWGCODEPAGE
  3
ANSI_1252
  9
$INSBASE
 10
0.0
 20
0.0
 30
0.0
  9
$EXTMIN
 10
0.0
 20
0.0
 30
0.0
  9
$EXTMAX
 10
297.0
 20
210.0
 30
0.0
  9
$LIMMIN
 10
0.0
 20
0.0
  9
$LIMMAX
 10
297.0
 20
210.0
  9
$ORTHOMODE
 70
     0
  9
$REGENMODE
 70
     1
  9
$FILLMODE
 70
     1
  9
$QTEXTMODE
 70
     0
  9
$MIRRTEXT
 70
     1
  9
$LTSCALE
 40
1.0
  9
$ATTMODE
 70
     1
  9
$TEXTSIZE
 40
2.0
  9
$TRACEWID
 40
1.0
  9
$TEXTSTYLE
  7
Standard
  9
$CLAYER
  8
0
  9
$CELTYPE
  6
ByLayer
  9
$CECOLOR
 62
   256
  9
$CELTSCALE
 40
1.0
  9
$DISPSILH
 70
     0
  9
$DIMSCALE
 40
1.0
  9
$DIMASZ
 40
3.0
  9
$DIMEXO
 40
0.0
  9
$DIMDLI
 40
3.75
  9
$DIMRND
 40
0.0
  9
$DIMDLE
 40
0.0
  9
$DIMEXE
 40
1.0
  9
$DIMTP
 40
0.0
  9
$DIMTM
 40
0.0
  9
$DIMTXT
 40
2.0
  9
$DIMCEN
 40
2.5
  9
$DIMTSZ
 40
0.0
  9
$DIMTOL
 70
     0
  9
$DIMLIM
 70
     0
  9
$DIMTIH
 70
     1
  9
$DIMTOH
 70
     1
  9
$DIMSE1
 70
     0
  9
$DIMSE2
 70
     0
  9
$DIMTAD
 70
     1
  9
$DIMZIN
 70
     0
  9
$DIMBLK
  1

  9
$DIMASO
 70
     1
  9
$DIMSHO
 70
     1
  9
$DIMPOST
  1

  9
$DIMAPOST
  1

  9
$DIMALT
 70
     0
  9
$DIMALTD
 70
     3
  9
$DIMALTF
 40
0.0393700787
  9
$DIMLFAC
 40
1.0
  9
$DIMTOFL
 70
     1
  9
$DIMTVP
 40
0.0
  9
$DIMTIX
 70
     0
  9
$DIMSOXD
 70
     0
  9
$DIMSAH
 70
     0
  9
$DIMBLK1
  1

  9
$DIMBLK2
  1

  9
$DIMSTYLE
  2
ISO-25
  9
$DIMCLRD
 70
     0
  9
$DIMCLRE
 70
     0
  9
$DIMCLRT
 70
     0
  9
$DIMTFAC
 40
1.0
  9
$DIMGAP
 40
1.524
  9
$DIMJUST
 70
     0
  9
$DIMSD1
 70
     0
  9
$DIMSD2
 70
     0
  9
$DIMTOLJ
 70
     0
  9
$DIMTZIN
 70
     0
  9
$DIMALTZ
 70
     0
  9
$DIMALTTZ
 70
     0
  9
$DIMUPT
 70
     0
  9
$DIMDEC
 70
     2
  9
$DIMTDEC
 70
     3
  9
$DIMALTU
 70
     2
  9
$DIMALTTD
 70
     3
  9
$DIMTXSTY
  7
Standard
  9
$DIMAUNIT
 70
     0
  9
$DIMADEC
 70
     2
  9
$DIMALTRND
 40
0.0
  9
$DIMAZIN
 70
     0
  9
$DIMDSEP
 70
    44
  9
$DIMATFIT
 70
     3
  9
$DIMFRAC
 70
     0
  9
$DIMLDRBLK
  1

  9
$DIMLUNIT
 70
     2
  9
$DIMLWD
 70
    -2
  9
$DIMLWE
 70
    -2
  9
$DIMTMOVE
 70
     0
  9
$LUNITS
 70
     2
  9
$LUPREC
 70
     2
  9
$SKETCHINC
 40
1.0
  9
$FILLETRAD
 40
10.0
  9
$AUNITS
 70
     0
  9
$AUPREC
 70
     2
  9
$MENU
  1
.
  9
$ELEVATION
 40
0.0
  9
$PELEVATION
 40
0.0
  9
$THICKNESS
 40
0.0
  9
$LIMCHECK
 70
     0
  9
$CHAMFERA
 40
0.0
  9
$CHAMFERB
 40
0.0
  9
$CHAMFERC
 40
0.0
  9
$CHAMFERD
 40
0.0
  9
$SKPOLY
 70
     0
  9
$TDCREATE
 40
2459055.426225845
  9
$TDUCREATE
 40
2459055.342892512
  9
$TDUPDATE
 40
2459055.426227662
  9
$TDUUPDATE
 40
2459055.342894329
  9
$TDINDWG
 40
0.0000000116
  9
$TDUSRTIMER
 40
0.0000000116
  9
$USRTIMER
 70
     1
  9
$ANGBASE
 50
0.0
  9
$ANGDIR
 70
     0
  9
$PDMODE
 70
     0
  9
$PDSIZE
 40
-1.0
  9
$PLINEWID
 40
0.0
  9
$SPLFRAME
 70
     0
  9
$SPLINETYPE
 70
     6
  9
$SPLINESEGS
 70
     8
  9
$HANDSEED
  5
36F
  9
$SURFTAB1
 70
     6
  9
$SURFTAB2
 70
     6
  9
$SURFTYPE
 70
     6
  9
$SURFU
 70
     6
  9
$SURFV
 70
     6
  9
$UCSBASE
  2

  9
$UCSNAME
  2

  9
$UCSORG
 10
0.0
 20
0.0
 30
0.0
  9
$UCSXDIR
 10
1.0
 20
0.0
 30
0.0
  9
$UCSYDIR
 10
0.0
 20
1.0
 30
0.0
  9
$UCSORTHOREF
  2

  9
$UCSORTHOVIEW
 70
     0
  9
$UCSORGTOP
 10
0.0
 20
0.0
 30
0.0
  9
$UCSORGBOTTOM
 10
0.0
 20
0.0
 30
0.0
  9
$UCSORGLEFT
 10
0.0
 20
0.0
 30
0.0
  9
$UCSORGRIGHT
 10
0.0
 20
0.0
 30
0.0
  9
$UCSORGFRONT
 10
0.0
 20
0.0
 30
0.0
  9
$UCSORGBACK
 10
0.0
 20
0.0
 30
0.0
  9
$PUCSBASE
  2

  9
$PUCSNAME
  2

  9
$PUCSORG
 10
0.0
 20
0.0
 30
0.0
  9
$PUCSXDIR
 10
1.0
 20
0.0
 30
0.0
  9
$PUCSYDIR
 10
0.0
 20
1.0
 30
0.0
  9
$PUCSORTHOREF
  2

  9
$PUCSORTHOVIEW
 70
     0
  9
$PUCSORGTOP
 10
0.0
 20
0.0
 30
0.0
  9
$PUCSORGBOTTOM
 10
0.0
 20
0.0
 30
0.0
  9
$PUCSORGLEFT
 10
0.0
 20
0.0
 30
0.0
  9
$PUCSORGRIGHT
 10
0.0
 20
0.0
 30
0.0
  9
$PUCSORGFRONT
 10
0.0
 20
0.0
 30
0.0
  9
$PUCSORGBACK
 10
0.0
 20
0.0
 30
0.0
  9
$USERI1
 70
     0
  9
$USERI2
 70
     0
  9
$USERI3
 70
     0
  9
$USERI4
 70
     0
  9
$USERI5
 70
     0
  9
$USERR1
 40
0.0
  9
$USERR2
 40
0.0
  9
$USERR3
 40
0.0
  9
$USERR4
 40
0.0
  9
$USERR5
 40
0.0
  9
$WORLDVIEW
 70
     1
  9
$SHADEDGE
 70
     3
  9
$SHADEDIF
 70
    70
  9
$TILEMODE
 70
     1
  9
$MAXACTVP
 70
    64
  9
$PINSBASE
 10
0.0
 20
0.0
 30
0.0
  9
$PLIMCHECK
 70
     0
  9
$PEXTMIN
 10
1.0000000000E+20
 20
1.0000000000E+20
 30
1.0000000000E+20
  9
$PEXTMAX
 10
-1.0000000000E+20
 20
-1.0000000000E+20
 30
-1.0000000000E+20
  9
$PLIMMIN
 10
0.0
 20
0.0
  9
$PLIMMAX
 10
420.0
 20
297.0
  9
$UNITMODE
 70
     0
  9
$VISRETAIN
 70
     1
  9
$PLINEGEN
 70
     0
  9
$PSLTSCALE
 70
     1
  9
$TREEDEPTH
 70
  3020
  9
$CMLSTYLE
  2
Standard
  9
$CMLJUST
 70
     0
  9
$CMLSCALE
 40
20.0
  9
$PROXYGRAPHICS
 70
     1
  9
$MEASUREMENT
 70
     1
  9
$CELWEIGHT
370
    -1
  9
$ENDCAPS
280
     0
  9
$JOINSTYLE
280
     0
  9
$LWDISPLAY
290
     1
  9
$INSUNITS
 70
     4
  9
$HYPERLINKBASE
  1

  9
$STYLESHEET
  1

  9
$XEDIT
290
     1
  9
$CEPSNTYPE
380
     0
  9
$PSTYLEMODE
290
     1
  9
$FINGERPRINTGUID
  2
{23B7323B-D2D1-404A-8217-6EBF1CFBFA3D}
  9
$VERSIONGUID
  2
{FAEB1C32-E019-11D5-929B-00C0DF256EC4}
  9
$EXTNAMES
290
     1
  9
$PSVPSCALE
 40
0.0
  9
$OLESTARTUP
290
     0
  0
ENDSEC
  0
SECTION
  2
CLASSES
  0
CLASS
  1
ACDBDICTIONARYWDFLT
  2
AcDbDictionaryWithDefault
  3
ObjectDBX Classes
 90
        0
280
     0
281
     0
  0
CLASS
  1
VISUALSTYLE
  2
AcDbVisualStyle
  3
ObjectDBX Classes
 90
     4095
280
     0
281
     0
  0
CLASS
  1
MATERIAL
  2
AcDbMaterial
  3
ObjectDBX Classes
 90
     1153
280
     0
281
     0
  0
CLASS
  1
SCALE
  2
AcDbScale
  3
ObjectDBX Classes
 90
     1153
280
     0
281
     0
  0
CLASS
  1
TABLESTYLE
  2
AcDbTableStyle
  3
ObjectDBX Classes
 90
     4095
280
     0
281
     0
  0
CLASS
  1
MLEADERSTYLE
  2
AcDbMLeaderStyle
  3
ACDB_MLEADERSTYLE_CLASS
 90
     4095
280
     0
281
     0
  0
CLASS
  1
SUN
  2
AcDbSun
  3
SCENEOE
 90
     1153
280
     0
281
     0
  0
CLASS
  1
ACDBPLACEHOLDER
  2
AcDbPlaceHolder
  3
ObjectDBX Classes
 90
        0
280
     0
281
     0
  0
CLASS
  1
LAYOUT
  2
AcDbLayout
  3
ObjectDBX Classes
 90
        0
280
     0
281
     0
  0
ENDSEC
  0
SECTION
  2
TABLES
  0
TABLE
  2
VPORT
  5
8
330
0
100
AcDbSymbolTable
 70
     1
  0
VPORT
  5
29
330
8
100
AcDbSymbolTableRecord
100
AcDbViewportTableRecord
  2
*Active
 70
     0
 10
0.0
 20
0.0
 11
1.0
 21
1.0
 12
148.5
 22
105.0
 13
0.0
 23
0.0
 14
10.0
 24
10.0
 15
10.0
 25
10.0
 16
0.0
 26
0.0
 36
1.0
 17
0.0
 27
0.0
 37
0.0
 40
210.0
 41
1.4142857143
 42
50.0
 43
0.0
 44
0.0
 50
0.0
 51
0.0
 71
     0
 72
  2000
 73
     1
 74
     3
 75
     0
 76
     0
 77
     0
 78
     0
281
     0
 65
     1
110
0.0
120
0.0
130
0.0
111
1.0
121
0.0
131
0.0
112
0.0
122
1.0
132
0.0
 79
     0
146
0.0
  0
ENDTAB
  0
TABLE
  2
LTYPE
  5
5
330
0
100
AcDbSymbolTable
 70
     6
  0
LTYPE
  5
14
330
5
100
AcDbSymbolTableRecord
100
AcDbLinetypeTableRecord
  2
ByBlock
 70
     0
  3

 72
    65
 73
     0
 40
0.0
  0
LTYPE
  5
15
330
5
100
AcDbSymbolTableRecord
100
AcDbLinetypeTableRecord
  2
ByLayer
 70
     0
  3

 72
    65
 73
     0
 40
0.0
  0
LTYPE
  5
16
330
5
100
AcDbSymbolTableRecord
100
AcDbLinetypeTableRecord
  2
Continuous
 70
     0
  3
Solid line
 72
    65
 73
     0
 40
0.0
  0
LTYPE
  5
6E
330
5
100
AcDbSymbolTableRecord
100
AcDbLinetypeTableRecord
  2
HIDDEN
 70
     0
  3
Hidden __ __ __ __ __ __ __ __ __ __ __ __ __ __
 72
    65
 73
     2
 40
1.905
 49
1.27
 74
     0
 49
-0.635
 74
     0
  0
LTYPE
  5
6F
330
5
100
AcDbSymbolTableRecord
100
AcDbLinetypeTableRecord
  2
PHANTOM
 70
     0
  3
Phantom ______  __  __  ______  __  __  ______
 72
    65
 73
     6
 40
12.7
 49
6.35
 74
     0
 49
-1.27
 74
     0
 49
1.27
 74
     0
 49
-1.27
 74
     0
 49
1.27
 74
     0
 49
-1.27
 74
     0
  0
LTYPE
  5
70
330
5
100
AcDbSymbolTableRecord
100
AcDbLinetypeTableRecord
  2
CENTER
 70
     0
  3
Center ____ _ ____ _ ____ _ ____ _ ____ _ ____
 72
    65
 73
     4
 40
10.16
 49
6.35
 74
     0
 49
-1.27
 74
     0
 49
1.27
 74
     0
 49
-1.27
 74
     0
  0
LTYPE
  5
71
330
5
100
AcDbSymbolTableRecord
100
AcDbLinetypeTableRecord
  2
CENTERX2
 70
     0
  3
Center (2x) ________  __  ________  __  _____
 72
    65
 73
     4
 40
20.32
 49
12.7
 74
     0
 49
-2.54
 74
     0
 49
2.54
 74
     0
 49
-2.54
 74
     0
  0
LTYPE
  5
72
330
5
100
AcDbSymbolTableRecord
100
AcDbLinetypeTableRecord
  2
DOT2
 70
     0
  3
Dot (.5x) ........................................
 72
    65
 73
     2
 40
0.635
 49
0.0
 74
     0
 49
-0.635
 74
     0
  0
ENDTAB
  0
TABLE
  2
LAYER
  5
2
330
0
100
AcDbSymbolTable
 70
     5
  0
LAYER
  5
10
330
2
100
AcDbSymbolTableRecord
100
AcDbLayerTableRecord
  2
0
 70
     0
 62
     7
  6
Continuous
370
    -3
390
F
  0
LAYER
  5
73
330
2
100
AcDbSymbolTableRecord
100
AcDbLayerTableRecord
  2
FORMAT
 70
     0
 62
     7
  6
Continuous
370
    -3
390
F
  0
LAYER
  5
74
330
2
100
AcDbSymbolTableRecord
100
AcDbLayerTableRecord
  2
VERMASSUNG
 70
     0
 62
     7
  6
Continuous
370
    -3
390
F
  0
LAYER
  5
75
330
2
100
AcDbSymbolTableRecord
100
AcDbLayerTableRecord
  2
KOPF_DÜNN
 70
     0
 62
     7
  6
Continuous
370
    -3
390
F
  0
LAYER
  5
76
330
2
100
AcDbSymbolTableRecord
100
AcDbLayerTableRecord
  2
KOPF_DICK
 70
     0
 62
     7
  6
Continuous
370
    25
390
F
  0
ENDTAB
  0
TABLE
  2
STYLE
  5
3
330
0
100
AcDbSymbolTable
 70
     2
  0
STYLE
  5
11
330
3
100
AcDbSymbolTableRecord
100
AcDbTextStyleTableRecord
  2
Standard
 70
     0
 40
0.0
 41
1.0
 50
0.0
 71
     0
 42
2.0
  3
txt
  4

  0
STYLE
  5
77
330
3
100
AcDbSymbolTableRecord
100
AcDbTextStyleTableRecord
  2
SLDTEXTSTYLE0
 70
     0
 40
0.0
 41
0.7
 50
0.0
 71
     0
 42
2.0
  3
TXT
  4

  0
ENDTAB
  0
TABLE
  2
VIEW
  5
6
330
0
100
AcDbSymbolTable
 70
     0
  0
ENDTAB
  0
TABLE
  2
UCS
  5
7
330
0
100
AcDbSymbolTable
 70
     0
  0
ENDTAB
  0
TABLE
  2
APPID
  5
9
330
0
100
AcDbSymbolTable
 70
     1
  0
APPID
  5
12
330
9
100
AcDbSymbolTableRecord
100
AcDbRegAppTableRecord
  2
ACAD
 70
     0
  0
ENDTAB
  0
TABLE
  2
DIMSTYLE
  5
A
330
0
100
AcDbSymbolTable
 70
     3
100
AcDbDimStyleTable
  0
DIMSTYLE
105
27
330
A
100
AcDbSymbolTableRecord
100
AcDbDimStyleTableRecord
  2
ISO-25
 70
     0
 41
2.5
 42
0.625
 43
3.75
 44
1.25
 73
     0
 74
     0
 77
     1
 78
     8
140
2.5
141
2.5
143
0.0393700787
147
0.625
171
     3
172
     1
178
     0
271
     2
272
     2
274
     3
278
    44
283
     0
284
     8
340
11
  0
DIMSTYLE
105
1E4
102
{ACAD_REACTORS
330
1E3
102
}
330
A
100
AcDbSymbolTableRecord
100
AcDbDimStyleTableRecord
  2
SLDDIMSTYLE0
 70
     0
 41
3.0
 44
0.0
 45
0.000000001
 73
     0
 74
     0
 77
     1
 78
    12
 79
     3
140
2.0
147
0.5
173
     1
178
     0
271
     2
272
     3
276
     2
284
    12
340
77
  0
DIMSTYLE
105
1F2
102
{ACAD_REACTORS
330
1F1
102
}
330
A
100
AcDbSymbolTableRecord
100
AcDbDimStyleTableRecord
  2
SLDDIMSTYLE1
 70
     0
 41
3.0
 44
0.0
 73
     0
 74
     0
 77
     1
 78
    12
 79
     3
140
2.0
147
0.5
173
     1
178
     0
179
     2
272
     3
276
     2
284
    12
340
77
  0
ENDTAB
  0
TABLE
  2
BLOCK_RECORD
  5
1
330
0
100
AcDbSymbolTable
 70
     3
  0
BLOCK_RECORD
  5
1F
330
1
100
AcDbSymbolTableRecord
100
AcDbBlockTableRecord
  2
*Model_Space
340
22
  0
BLOCK_RECORD
  5
1B
330
1
100
AcDbSymbolTableRecord
100
AcDbBlockTableRecord
  2
*Paper_Space
340
1E
  0
BLOCK_RECORD
  5
23
330
1
100
AcDbSymbolTableRecord
100
AcDbBlockTableRecord
  2
*Paper_Space0
340
26
  0
BLOCK_RECORD
  5
1E5
330
1
100
AcDbSymbolTableRecord
100
AcDbBlockTableRecord
  2
_D
340
0
  0
BLOCK_RECORD
  5
1F3
330
1
100
AcDbSymbolTableRecord
100
AcDbBlockTableRecord
  2
_D_1
340
0
  0
ENDTAB
  0
ENDSEC
  0
SECTION
  2
BLOCKS
  0
BLOCK
  5
20
330
1F
100
AcDbEntity
  8
0
100
AcDbBlockBegin
  2
*Model_Space
 70
     0
 10
0.0
 20
0.0
 30
0.0
  3
*Model_Space
  1

  0
ENDBLK
  5
21
330
1F
100
AcDbEntity
  8
0
100
AcDbBlockEnd
  0
BLOCK
  5
1C
330
1B
100
AcDbEntity
 67
     1
  8
0
100
AcDbBlockBegin
  2
*Paper_Space
 70
     0
 10
0.0
 20
0.0
 30
0.0
  3
*Paper_Space
  1

  0
ENDBLK
  5
1D
330
1B
100
AcDbEntity
 67
     1
  8
0
100
AcDbBlockEnd
  0
BLOCK
  5
24
330
23
100
AcDbEntity
  8
0
100
AcDbBlockBegin
  2
*Paper_Space0
 70
     0
 10
0.0
 20
0.0
 30
0.0
  3
*Paper_Space0
  1

  0
ENDBLK
  5
25
330
23
100
AcDbEntity
  8
0
100
AcDbBlockEnd
  0
BLOCK
  5
1E6
330
1E5
100
AcDbEntity
  8
0
100
AcDbBlockBegin
  2
_D
 70
     0
 10
0.0
 20
0.0
 30
0.0
  3
_D
  1

  0
SOLID
  5
1E8
330
1E5
100
AcDbEntity
  8
VERMASSUNG
100
AcDbTrace
 10
120.7720627946
 20
74.4543155176
 30
0.0
 11
123.7720627946
 21
74.0043155176
 31
0.0
 12
123.7720627946
 22
74.9043155176
 32
0.0
 13
123.7720627946
 23
74.9043155176
 33
0.0
  0
SOLID
  5
1E9
330
1E5
100
AcDbEntity
  8
VERMASSUNG
100
AcDbTrace
 10
186.2719739026
 20
74.4543155176
 30
0.0
 11
183.2719739026
 21
74.9043155176
 31
0.0
 12
183.2719739026
 22
74.0043155176
 32
0.0
 13
183.2719739026
 23
74.0043155176
 33
0.0
  0
LINE
  5
1EA
330
1E5
100
AcDbEntity
  8
VERMASSUNG
100
AcDbLine
 10
120.7720627946
 20
88.3425185559
 30
0.0
 11
120.7720627946
 21
73.4543155176
 31
0.0
  0
LINE
  5
1EB
330
1E5
100
AcDbEntity
  8
VERMASSUNG
100
AcDbLine
 10
186.2719739026
 20
93.3173281423
 30
0.0
 11
186.2719739026
 21
73.4543155176
 31
0.0
  0
LINE
  5
1EC
330
1E5
100
AcDbEntity
  8
VERMASSUNG
100
AcDbLine
 10
120.7720627946
 20
74.4543155176
 30
0.0
 11
186.2719739026
 21
74.4543155176
 31
0.0
  0
MTEXT
  5
1ED
330
1E5
100
AcDbEntity
  8
VERMASSUNG
100
AcDbMText
 10
143.2120194713
 20
77.0324508225
 30
0.0
 40
2.0
 41
0.0
 71
     1
 72
     1
  1
%%c
  7
SLDTEXTSTYLE0
 73
     1
 44
1.0
  0
MTEXT
  5
1EE
330
1E5
100
AcDbEntity
  8
VERMASSUNG
100
AcDbMText
 10
146.8220194856
 20
77.2324507738
 30
0.0
 40
2.0
 41
0.0
 71
     1
 72
     1
  1
65.5 -
  7
SLDTEXTSTYLE0
 73
     1
 44
1.0
  0
MTEXT
  5
1EF
330
1E5
100
AcDbEntity
  8
VERMASSUNG
100
AcDbMText
 10
155.4220197776
 20
77.0324508225
 30
0.0
 40
2.0
 41
0.0
 71
     1
 72
     1
  1
%%c
  7
SLDTEXTSTYLE0
 73
     1
 44
1.0
  0
MTEXT
  5
1F0
330
1E5
100
AcDbEntity
  8
VERMASSUNG
100
AcDbMText
 10
159.032019792
 20
77.2324507738
 30
0.0
 40
2.0
 41
0.0
 71
     1
 72
     1
  1
87.5
  7
SLDTEXTSTYLE0
 73
     1
 44
1.0
  0
ENDBLK
  5
1E7
330
1E5
100
AcDbEntity
  8
0
100
AcDbBlockEnd
  0
BLOCK
  5
1F4
330
1F3
100
AcDbEntity
  8
0
100
AcDbBlockBegin
  2
_D_1
 70
     0
 10
0.0
 20
0.0
 30
0.0
  3
_D_1
  1

  0
ARC
  5
1F6
330
1F3
100
AcDbEntity
  8
VERMASSUNG
100
AcDbCircle
 10
186.2719739026
 20
94.9382794379
 30
0.0
 40
14.33988292824077
100
AcDbArc
 50
200.7491467615
 51
270.0
  0
SOLID
  5
1F7
330
1F3
100
AcDbEntity
  8
VERMASSUNG
100
AcDbTrace
 10
172.8621688173
 20
89.8579871263
 30
0.0
 11
173.8059587184
 21
86.9749747048
 31
0.0
 12
174.6102943476
 22
87.3787620195
 32
0.0
 13
174.6102943476
 23
87.3787620195
 33
0.0
  0
SOLID
  5
1F8
330
1F3
100
AcDbEntity
  8
VERMASSUNG
100
AcDbTrace
 10
186.2719739026
 20
80.5983965097
 30
0.0
 11
183.3342292678
 21
81.3548067559
 31
0.0
 12
183.2415891061
 22
80.4595873412
 32
0.0
 13
183.2415891061
 23
80.4595873412
 33
0.0
  0
LINE
  5
1F9
330
1F3
100
AcDbEntity
  8
VERMASSUNG
100
AcDbLine
 10
174.7324965579
 20
90.566559069
 30
0.0
 11
171.9270283317
 21
89.5037100143
 31
0.0
  0
LINE
  5
1FA
330
1F3
100
AcDbEntity
  8
VERMASSUNG
100
AcDbLine
 10
186.2719739026
 20
93.3173281423
 30
0.0
 11
186.2719739026
 21
79.5983965097
 31
0.0
  0
MTEXT
  5
1FB
330
1F3
100
AcDbEntity
  8
VERMASSUNG
100
AcDbMText
 10
177.9430749901
 20
86.3961402057
 30
0.0
 40
2.0
 41
0.0
 71
     1
 72
     1
  1
70°
  7
SLDTEXTSTYLE0
 11
0.8228842908003794
 21
-0.5682089791212003
 31
0.0
 73
     1
 44
1.0
  0
ENDBLK
  5
1F5
330
1F3
100
AcDbEntity
  8
0
100
AcDbBlockEnd
  0
ENDSEC
  0
SECTION
  2
ENTITIES
  0
MTEXT
  5
78
330
1F
100
AcDbEntity
  8
KOPF_DÜNN
100
AcDbMText
 10
13.8892156294
 20
23.8442973028
 30
0.0
 40
3.0
 41
0.0
 71
     1
 72
     1
  1
U24.050.067.112
  7
SLDTEXTSTYLE0
 73
     1
 44
1.0
  0
MTEXT
  5
79
330
1F
100
AcDbEntity
  8
VERMASSUNG
100
AcDbMText
 10
13.9329988022
 20
28.8834360957
 30
0.0
 40
3.0
 41
0.0
 71
     1
 72
     1
  1
Wendeplattenhalter 70°_Insert holder 70°
  7
SLDTEXTSTYLE0
 73
     1
 44
1.0
  0
MTEXT
  5
7A
330
1F
100
AcDbEntity
  8
VERMASSUNG
100
AcDbMText
 10
98.8601118557
 20
13.8365368761
 30
0.0
 40
2.0
 41
0.0
 71
     1
 72
     1
  1
Datum: 02.03.2018
  7
SLDTEXTSTYLE0
 73
     1
 44
1.0
  0
MTEXT
  5
7B
330
1F
100
AcDbEntity
  8
VERMASSUNG
100
AcDbMText
 10
13.933048693
 20
18.0482802738
 30
0.0
 40
2.0
 41
0.0
 71
     1
 72
     1
  1
CN..12 04..
  7
SLDTEXTSTYLE0
 73
     1
 44
1.0
  0
MTEXT
  5
7C
330
1F
100
AcDbEntity
  8
VERMASSUNG
100
AcDbMText
 10
13.9808475933
 20
13.9090974274
 30
0.0
 40
2.0
 41
0.0
 71
     1
 72
     1
  1
Gewicht: 499g
  7
SLDTEXTSTYLE0
 73
     1
 44
1.0
  0
LINE
  5
7D
330
1F
100
AcDbEntity
  8
0
  6
Continuous
 62
     7
370
    25
100
AcDbLine
 10
125.5865742171
 20
124.2539163393
 30
0.0
 11
125.5220181959
 21
124.142101751
 31
0.0
  0
LINE
  5
7E
330
1F
100
AcDbEntity
  8
0
  6
Continuous
 62
     7
370
    25
100
AcDbLine
 10
125.5220181959
 20
119.2511010629
 30
0.0
 11
125.5870762
 21
119.138418482
 31
0.0
  0
LINE
  5
7F
330
1F
100
AcDbEntity
  8
0
  6
Continuous
 62
     7
370
    25
100
AcDbLine
 10
181.4568632001
 20
119.1382471186
 30
0.0
 11
181.5220185274
 21
119.2511010629
 31
0.0
  0
LINE
  5
80
330
1F
100
AcDbEntity
  8
0
  6
Continuous
 62
     7
370
    25
100
AcDbLine
 10
181.5220185274
 20
124.142101751
 30
0.0
 11
181.4577796215
 21
124.2533649963
 31
0.0
  0
LINE
  5
81
330
1F
100
AcDbEntity
  8
0
  6
Continuous
 62
     7
370
    25
100
AcDbLine
 10
132.8907117898
 20
92.3573589132
 30
0.0
 11
133.1608894
 21
92.6295655261
 31
0.0
  0
LINE
  5
82
330
1F
100
AcDbEntity
  8
0
  6
Continuous
 62
     7
370
    25
100
AcDbLine
 10
124.3914996924
 20
107.0913251203
 30
0.0
 11
124.0431321969
 21
106.7403413069
 31
0.0
  0
LINE
  5
83
330
1F
100
AcDbEntity
  8
0
  6
Continuous
 62
     7
370
    25
100
AcDbLine
 10
132.7244520838
 20
90.6372282041
 30
0.0
 11
133.300226433
 21
91.2173262511
 31
0.0
  0
LINE
  5
84
330
1F
100
AcDbEntity
  8
0
  6
Continuous
 62
     7
370
    25
100
AcDbLine
 10
123.5438403858
 20
107.829895587
 30
0.0
 11
122.9680662694
 21
107.249797107
 31
0.0
  0
LINE
  5
85
330
1F
100
AcDbEntity
  8
0
  6
Continuous
 62
     7
370
    25
100
AcDbLine
 10
184.0759732479
 20
107.249797107
 30
0.0
 11
183.50019983
 21
107.829895587
 31
0.0
  0
LINE
  5
86
330
1F
100
AcDbEntity
  8
0
  6
Continuous
 62
     7
370
    25
100
AcDbLine
 10
173.7438098246
 20
91.2173262511
 30
0.0
 11
174.3195832426
 21
90.6372282041
 31
0.0
  0
LINE
  5
87
330
1F
100
AcDbEntity
  8
0
  6
Continuous
 62
     7
370
    25
100
AcDbLine
 10
176.7728694433
 20
98.0835140397
 30
0.0
 11
176.9281954223
 21
97.8630178322
 31
0.0
  0
LINE
  5
88
330
1F
100
AcDbEntity
  8
0
  6
Continuous
 62
     7
370
    25
100
AcDbLine
 10
180.5951476747
 20
100.4714479384
 30
0.0
 11
179.936683988
 21
101.4061642525
 31
0.0
  0
LINE
  5
89
330
1F
100
AcDbEntity
  8
0
  6
Continuous
 62
     7
370
    25
100
AcDbLine
 10
139.4170497263
 20
106.9273471546
 30
0.0
 11
139.198961919
 21
106.7076220823
 31
0.0
  0
LINE
  5
8A
330
1F
100
AcDbEntity
  8
0
  6
Continuous
 62
     7
370
    25
100
AcDbLine
 10
144.8059634024
 20
101.1424136993
 30
0.0
 11
145.0240512097
 21
101.3621397031
 31
0.0
  0
LINE
  5
8B
330
1F
100
AcDbEntity
  8
0
  6
Continuous
 62
     7
370
    25
100
AcDbLine
 10
181.5220185274
 20
124.9195698363
 30
0.0
 11
181.5220185274
 21
127.6966023904
 31
0.0
  0
LINE
  5
8C
330
1F
100
AcDbEntity
  8
0
  6
Continuous
 62
     7
370
    25
100
AcDbLine
 10
181.5220185274
 20
108.8608156604
 30
0.0
 11
181.5220185274
 21
118.4682592464
 31
0.0
  0
ARC
  5
8D
330
1F
100
AcDbEntity
  8
0
  6
Continuous
 62
     7
370
    25
100
AcDbCircle
 10
182.5220183486
 20
108.860815476
 30
0.0
 40
1.0
100
AcDbArc
 50
180.0
 51
225.0
  0
LINE
  5
8E
330
1F
100
AcDbEntity
  8
0
  6
Continuous
 62
     7
370
    25
100
AcDbLine
 10
182.6108799035
 20
107.357739256
 30
0.0
 11
181.8149120266
 21
108.1537089956
 31
0.0
  0
LINE
  5
8F
330
1F
100
AcDbEntity
  8
0
  6
Continuous
 62
     7
370
    25
100
AcDbLine
 10
125.5220181959
 20
118.4682592464
 30
0.0
 11
125.5220181959
 21
108.8608156604
 31
0.0
  0
LINE
  5
90
330
1F
100
AcDbEntity
  8
0
  6
Continuous
 62
     7
370
    25
100
AcDbLine
 10
125.5220181959
 20
127.6966023904
 30
0.0
 11
125.5220181959
 21
124.9195698363
 31
0.0
  0
ARC
  5
91
330
1F
100
AcDbEntity
  8
0
  6
Continuous
 62
     7
370
    25
100
AcDbCircle
 10
124.5220183486
 20
108.860815476
 30
0.0
 40
1.0
100
AcDbArc
 50
315.0
 51
0.0
  0
LINE
  5
92
330
1F
100
AcDbEntity
  8
0
  6
Continuous
 62
     7
370
    25
100
AcDbLine
 10
125.2291251624
 20
108.1537089956
 30
0.0
 11
124.7112590538
 21
107.6358433527
 31
0.0
  0
LINE
  5
93
330
1F
100
AcDbEntity
  8
0
  6
Continuous
 62
     7
370
    25
100
AcDbLine
 10
125.5220181959
 20
119.2511010629
 30
0.0
 11
125.5220181959
 21
124.142101751
 31
0.0
  0
LINE
  5
94
330
1F
100
AcDbEntity
  8
0
  6
Continuous
 62
     7
370
    25
100
AcDbLine
 10
181.5220185274
 20
123.5768522781
 30
0.0
 11
181.5220185274
 21
119.2511010629
 31
0.0
  0
LINE
  5
95
330
1F
100
AcDbEntity
  8
0
  6
Continuous
 62
     7
370
    25
100
AcDbLine
 10
181.5220185274
 20
124.142101751
 30
0.0
 11
181.5220185274
 21
123.5768522781
 31
0.0
  0
LINE
  5
96
330
1F
100
AcDbEntity
  8
0
  6
Continuous
 62
     7
370
    25
100
AcDbLine
 10
178.2924861366
 20
97.0255972532
 30
0.0
 11
178.3435598666
 21
96.9741407496
 31
0.0
  0
LWPOLYLINE
  5
97
330
1F
100
AcDbEntity
  8
0
  6
Continuous
 62
     7
370
    25
100
AcDbPolyline
 90
        3
 70
   128
 43
0.0
 10
180.4390989894
 20
101.2016989005
 10
180.5439919884
 20
100.6901280669
 10
180.5567660088
 20
100.5259293777
  0
LINE
  5
98
330
1F
100
AcDbEntity
  8
0
  6
Continuous
 62
     7
370
    25
100
AcDbLine
 10
124.4532314779
 20
106.5543003094
 30
0.0
 11
122.769420985
 21
97.0322650571
 31
0.0
  0
LWPOLYLINE
  5
99
330
1F
100
AcDbEntity
  8
0
  6
Continuous
 62
     7
370
    25
100
AcDbPolyline
 90
        3
 70
   128
 43
0.0
 10
132.3279647807
 20
92.8001068712
 10
132.4749228263
 20
92.7619557076
 10
132.4897215421
 20
92.7599477761
  0
LINE
  5
9A
330
1F
100
AcDbEntity
  8
0
  6
Continuous
 62
     7
370
    25
100
AcDbLine
 10
123.2160683906
 20
96.2521403742
 30
0.0
 11
132.3279647807
 21
92.8001068712
 31
0.0
  0
ARC
  5
9B
330
1F
100
AcDbEntity
  8
0
  6
Continuous
 62
     7
370
    25
100
AcDbCircle
 10
123.4651030102
 20
96.912643613
 30
0.0
 40
0.705891471949265
100
AcDbArc
 50
170.243487626
 51
249.3416660182
  0
ARC
  5
9C
330
1F
100
AcDbEntity
  8
0
  6
Continuous
 62
     7
370
    25
100
AcDbCircle
 10
123.4336910395
 20
96.8809041706
 30
0.0
 40
1.008416189341192
100
AcDbArc
 50
170.2434770566
 51
249.3416826532
  0
LINE
  5
9D
330
1F
100
AcDbEntity
  8
0
  6
Continuous
 62
     7
370
    25
100
AcDbLine
 10
122.4398598027
 20
97.0517920976
 30
0.0
 11
124.1236701792
 21
106.5738264185
 31
0.0
  0
LINE
  5
9E
330
1F
100
AcDbEntity
  8
0
  6
Continuous
 62
     7
370
    25
100
AcDbLine
 10
132.1898235658
 20
92.4852945789
 30
0.0
 11
123.0779276414
 21
95.9373281983
 31
0.0
  0
ARC
  5
9F
330
1F
100
AcDbEntity
  8
0
  6
Continuous
 62
     7
370
    25
100
AcDbCircle
 10
123.0853237067
 20
96.5299204503
 30
0.0
 40
1.00841633385639
100
AcDbArc
 50
170.243483837
 51
249.3416758728
  0
LINE
  5
A0
330
1F
100
AcDbEntity
  8
0
  6
Continuous
 62
     7
370
    25
100
AcDbLine
 10
122.0914923072
 20
96.7008082842
 30
0.0
 11
123.7753026838
 21
106.2228435365
 31
0.0
  0
LINE
  5
A1
330
1F
100
AcDbEntity
  8
0
  6
Continuous
 62
     7
370
    25
100
AcDbLine
 10
131.8414558375
 20
92.1343108819
 30
0.0
 11
122.7295601459
 21
95.5863443849
 31
0.0
  0
ARC
  5
A2
330
1F
100
AcDbEntity
  8
0
  6
Continuous
 62
     7
370
    25
100
AcDbCircle
 10
132.5427435327
 20
93.4068020696
 30
0.0
 40
0.9867768534284665
100
AcDbArc
 50
249.0441037388
 51
308.0473590949
  0
ARC
  5
A3
330
1F
100
AcDbEntity
  8
0
  6
Continuous
 62
     7
370
    25
100
AcDbCircle
 10
132.1945566602
 20
93.0527278597
 30
0.0
 40
0.9839562674142408
100
AcDbArc
 50
248.9699062969
 51
315.0323709562
  0
ARC
  5
A4
330
1F
100
AcDbEntity
  8
0
  6
Continuous
 62
     7
370
    25
100
AcDbCircle
 10
125.0830752592
 20
106.4049867288
 30
0.0
 40
0.9741483195038209
100
AcDbArc
 50
96.7822084425
 51
170.0190746062
  0
ARC
  5
A5
330
1F
100
AcDbEntity
  8
0
  6
Continuous
 62
     7
370
    25
100
AcDbCircle
 10
124.7353534248
 20
106.0540280704
 30
0.0
 40
0.9747800197667421
100
AcDbArc
 50
135.2455512753
 51
170.0270545234
  0
LINE
  5
A6
330
1F
100
AcDbEntity
  8
0
  6
Continuous
 62
     7
370
    25
100
AcDbLine
 10
133.55562116
 20
92.2627572616
 30
0.0
 11
133.4073583314
 21
91.424325208
 31
0.0
  0
ARC
  5
A7
330
1F
100
AcDbEntity
  8
0
  6
Continuous
 62
     7
370
    25
100
AcDbCircle
 10
133.0219670182
 20
91.4931514466
 30
0.0
 40
0.3914888446256629
100
AcDbArc
 50
248.820251664
 51
349.8744118493
  0
LINE
  5
A8
330
1F
100
AcDbEntity
  8
0
  6
Continuous
 62
     7
370
    25
100
AcDbLine
 10
132.8805240521
 20
91.1281070619
 30
0.0
 11
121.6090518467
 21
95.3982940589
 31
0.0
  0
ARC
  5
A9
330
1F
100
AcDbEntity
  8
0
  6
Continuous
 62
     7
370
    25
100
AcDbCircle
 10
121.7513573369
 20
95.775724467
 30
0.0
 40
0.4033665398477402
100
AcDbArc
 50
170.2434948059
 51
249.3416662116
  0
LINE
  5
AA
330
1F
100
AcDbEntity
  8
0
  6
Continuous
 62
     7
370
    25
100
AcDbLine
 10
121.3538247578
 20
95.8440795255
 30
0.0
 11
123.4367087202
 21
107.6228961063
 31
0.0
  0
ARC
  5
AB
330
1F
100
AcDbEntity
  8
0
  6
Continuous
 62
     7
370
    25
100
AcDbCircle
 10
123.8221005229
 20
107.5540691011
 30
0.0
 40
0.391489461211432
100
AcDbArc
 50
68.8203999953
 51
169.8743140117
  0
LINE
  5
AC
330
1F
100
AcDbEntity
  8
0
  6
Continuous
 62
     7
370
    25
100
AcDbLine
 10
123.9635427667
 20
107.919114427
 30
0.0
 11
124.7907572145
 21
107.6057243806
 31
0.0
  0
LINE
  5
AD
330
1F
100
AcDbEntity
  8
0
  6
Continuous
 62
     7
370
    25
100
AcDbLine
 10
132.3047497029
 20
90.5480089748
 30
0.0
 11
121.0332777303
 21
94.8181960446
 31
0.0
  0
ARC
  5
AE
330
1F
100
AcDbEntity
  8
0
  6
Continuous
 62
     7
370
    25
100
AcDbCircle
 10
121.1755831167
 20
95.1956264066
 30
0.0
 40
0.4033664601947758
100
AcDbArc
 50
170.2434862288
 51
249.341677694
  0
LINE
  5
AF
330
1F
100
AcDbEntity
  8
0
  6
Continuous
 62
     7
370
    25
100
AcDbLine
 10
120.7780506263
 20
95.2639815112
 30
0.0
 11
122.8609346038
 21
107.0427976263
 31
0.0
  0
ARC
  5
B0
330
1F
100
AcDbEntity
  8
0
  6
Continuous
 62
     7
370
    25
100
AcDbCircle
 10
132.4459897072
 20
90.9153772412
 30
0.0
 40
0.393583767478581
100
AcDbArc
 50
248.9700274882
 51
315.0322541365
  0
ARC
  5
B1
330
1F
100
AcDbEntity
  8
0
  6
Continuous
 62
     7
370
    25
100
AcDbCircle
 10
123.2449572796
 20
106.9752708893
 30
0.0
 40
0.3899144466785384
100
AcDbArc
 50
135.2457155774
 51
170.0270354009
  0
LINE
  5
B2
330
1F
100
AcDbEntity
  8
0
  6
Continuous
 62
     7
370
    25
100
AcDbLine
 10
174.7392856235
 20
90.5480089748
 30
0.0
 11
186.0107623691
 21
94.8181960446
 31
0.0
  0
ARC
  5
B3
330
1F
100
AcDbEntity
  8
0
  6
Continuous
 62
     7
370
    25
100
AcDbCircle
 10
174.5978437901
 20
90.9130553773
 30
0.0
 40
0.391490316882034
100
AcDbArc
 50
190.1258518102
 51
291.1794870814
  0
LINE
  5
B4
330
1F
100
AcDbEntity
  8
0
  6
Continuous
 62
     7
370
    25
100
AcDbLine
 10
172.1295670325
 20
102.623043367
 30
0.0
 11
174.2124513442
 21
90.8442271064
 31
0.0
  0
ARC
  5
B5
330
1F
100
AcDbEntity
  8
0
  6
Continuous
 62
     7
370
    25
100
AcDbCircle
 10
172.5271047468
 20
102.6913958797
 30
0.0
 40
0.4033711693433965
100
AcDbArc
 50
110.6588653895
 51
189.7560252068
  0
LINE
  5
B6
330
1F
100
AcDbEntity
  8
0
  6
Continuous
 62
     7
370
    25
100
AcDbLine
 10
183.6562671417
 20
107.339015947
 30
0.0
 11
172.3847941214
 21
103.0688292992
 31
0.0
  0
ARC
  5
B7
330
1F
100
AcDbEntity
  8
0
  6
Continuous
 62
     7
370
    25
100
AcDbCircle
 10
183.797709165
 20
106.9739650793
 30
0.0
 40
0.3914945491051067
100
AcDbArc
 50
10.1263769052
 51
111.1792768797
  0
LINE
  5
B8
330
1F
100
AcDbEntity
  8
0
  6
Continuous
 62
     7
370
    25
100
AcDbLine
 10
186.265989458
 20
95.2639815112
 30
0.0
 11
184.1831051463
 21
107.0427976263
 31
0.0
  0
ARC
  5
B9
330
1F
100
AcDbEntity
  8
0
  6
Continuous
 62
     7
370
    25
100
AcDbCircle
 10
185.8684445492
 20
95.1956335118
 30
0.0
 40
0.4033774950984786
100
AcDbArc
 50
290.6596187545
 51
9.755220228
  0
ARC
  5
BA
330
1F
100
AcDbEntity
  8
0
  6
Continuous
 62
     7
370
    25
100
AcDbCircle
 10
183.7974286706
 20
106.9736790485
 30
0.0
 40
0.3719105815506882
100
AcDbArc
 50
10.1249612289
 51
111.180510431
  0
LINE
  5
BB
330
1F
100
AcDbEntity
  8
0
  6
Continuous
 62
     7
370
    25
100
AcDbLine
 10
183.6630546207
 20
107.320465864
 30
0.0
 11
172.3915853256
 21
103.0502792162
 31
0.0
  0
ARC
  5
BC
330
1F
100
AcDbEntity
  8
0
  6
Continuous
 62
     7
370
    25
100
AcDbCircle
 10
172.5267779614
 20
102.6917202111
 30
0.0
 40
0.3831991765081397
100
AcDbArc
 50
110.6586661719
 51
189.756522655
  0
LINE
  5
BD
330
1F
100
AcDbEntity
  8
0
  6
Continuous
 62
     7
370
    25
100
AcDbLine
 10
172.1491210813
 20
102.6267826271
 30
0.0
 11
174.232005393
 21
90.8479662937
 31
0.0
  0
ARC
  5
BE
330
1F
100
AcDbEntity
  8
0
  6
Continuous
 62
     7
370
    25
100
AcDbCircle
 10
174.5981259164
 20
90.9133489759
 30
0.0
 40
0.3719128027266698
100
AcDbArc
 50
190.1252808983
 51
291.1800768451
  0
LINE
  5
BF
330
1F
100
AcDbEntity
  8
0
  6
Continuous
 62
     7
370
    25
100
AcDbLine
 10
174.7324981446
 20
90.5665590724
 30
0.0
 11
186.0039674396
 21
94.8367461276
 31
0.0
  0
ARC
  5
C0
330
1F
100
AcDbEntity
  8
0
  6
Continuous
 62
     7
370
    25
100
AcDbCircle
 10
185.8687879162
 20
95.1952975541
 30
0.0
 40
0.3831874593283823
100
AcDbArc
 50
290.6572314215
 51
9.7579030752
  0
LINE
  5
C1
330
1F
100
AcDbEntity
  8
0
  6
Continuous
 62
     7
370
    25
100
AcDbLine
 10
186.2464316839
 20
95.260242251
 30
0.0
 11
184.1635473723
 21
107.0390592975
 31
0.0
  0
LINE
  5
C2
330
1F
100
AcDbEntity
  8
0
  6
Continuous
 62
     7
370
    25
100
AcDbLine
 10
183.0804937238
 20
107.919114427
 30
0.0
 11
182.3327795321
 21
107.6358433527
 31
0.0
  0
LINE
  5
C3
330
1F
100
AcDbEntity
  8
0
  6
Continuous
 62
     7
370
    25
100
AcDbLine
 10
175.9476990158
 20
105.2168605563
 30
0.0
 11
171.9114736373
 21
103.6877406475
 31
0.0
  0
LINE
  5
C4
330
1F
100
AcDbEntity
  8
0
  6
Continuous
 62
     7
370
    25
100
AcDbLine
 10
172.4940606112
 20
102.7245649782
 30
0.0
 11
172.3915853256
 21
103.0502792162
 31
0.0
  0
LINE
  5
C5
330
1F
100
AcDbEntity
  8
0
  6
Continuous
 62
     7
370
    25
100
AcDbLine
 10
183.7655299062
 20
106.9947506947
 30
0.0
 11
183.6630546207
 21
107.320465864
 31
0.0
  0
LINE
  5
C6
330
1F
100
AcDbEntity
  8
0
  6
Continuous
 62
     7
370
    25
100
AcDbLine
 10
183.0621317679
 20
105.9268552524
 30
0.0
 11
183.7655299062
 21
106.9947506947
 31
0.0
  0
LINE
  5
C7
330
1F
100
AcDbEntity
  8
0
  6
Continuous
 62
     7
370
    25
100
AcDbLine
 10
173.1481284553
 20
102.3761348513
 30
0.0
 11
172.4940606112
 21
102.7245649782
 31
0.0
  0
LINE
  5
C8
330
1F
100
AcDbEntity
  8
0
  6
Continuous
 62
     7
370
    25
100
AcDbLine
 10
172.4940606112
 20
102.7245649782
 30
0.0
 11
172.1491210813
 21
102.6267826271
 31
0.0
  0
LINE
  5
C9
330
1F
100
AcDbEntity
  8
0
  6
Continuous
 62
     7
370
    25
100
AcDbLine
 10
173.5901863033
 20
91.6872454288
 30
0.0
 11
173.6366779262
 21
91.424325208
 31
0.0
  0
LINE
  5
CA
330
1F
100
AcDbEntity
  8
0
  6
Continuous
 62
     7
370
    25
100
AcDbLine
 10
174.5769449229
 20
90.9457481646
 30
0.0
 11
174.232005393
 21
90.8479662937
 31
0.0
  0
LINE
  5
CB
330
1F
100
AcDbEntity
  8
0
  6
Continuous
 62
     7
370
    25
100
AcDbLine
 10
175.1636632437
 20
92.1312050375
 30
0.0
 11
174.5769449229
 21
90.9457481646
 31
0.0
  0
LINE
  5
CC
330
1F
100
AcDbEntity
  8
0
  6
Continuous
 62
     7
370
    25
100
AcDbLine
 10
181.4295307452
 20
104.3620405433
 30
0.0
 11
175.1212917918
 21
101.9721718219
 31
0.0
  0
ARC
  5
CD
330
1F
100
AcDbEntity
  8
0
  6
Continuous
 62
     7
370
    25
100
AcDbCircle
 10
175.4770630573
 20
101.0285913777
 30
0.0
 40
1.008423149286104
100
AcDbArc
 50
110.6586459677
 51
189.7562239831
  0
LINE
  5
CE
330
1F
100
AcDbEntity
  8
0
  6
Continuous
 62
     7
370
    25
100
AcDbLine
 10
176.9660257453
 20
93.524984102
 30
0.0
 11
183.2742609734
 21
95.9148535219
 31
0.0
  0
ARC
  5
CF
330
1F
100
AcDbEntity
  8
0
  6
Continuous
 62
     7
370
    25
100
AcDbCircle
 10
176.6124185909
 20
94.4375931109
 30
0.0
 40
0.9787201963357864
100
AcDbArc
 50
190.1254937666
 51
291.1797754123
  0
LINE
  5
D0
330
1F
100
AcDbEntity
  8
0
  6
Continuous
 62
     7
370
    25
100
AcDbLine
 10
174.4832240695
 20
100.857707457
 30
0.0
 11
175.6489419097
 21
94.2655294382
 31
0.0
  0
ARC
  5
D1
330
1F
100
AcDbEntity
  8
0
  6
Continuous
 62
     7
370
    25
100
AcDbCircle
 10
181.7831390416
 20
103.4494334574
 30
0.0
 40
0.978718815866412
100
AcDbArc
 50
10.1254215352
 51
111.1798784265
  0
LINE
  5
D2
330
1F
100
AcDbEntity
  8
0
  6
Continuous
 62
     7
370
    25
100
AcDbLine
 10
183.9123286957
 20
97.0293174212
 30
0.0
 11
182.7466145808
 21
103.6214956728
 31
0.0
  0
ARC
  5
D3
330
1F
100
AcDbEntity
  8
0
  6
Continuous
 62
     7
370
    25
100
AcDbCircle
 10
182.9184948888
 20
96.8584309285
 30
0.0
 40
1.008418479151937
100
AcDbArc
 50
290.6584314198
 51
9.7564178854
  0
CIRCLE
  5
D4
330
1F
100
AcDbEntity
  8
0
  6
Continuous
 62
     7
370
    25
100
AcDbCircle
 10
179.1966979221
 20
98.9811601152
 30
0.0
 40
2.562115877140237
  0
SPLINE
  5
D5
330
1F
100
AcDbEntity
  8
0
  6
Continuous
 62
     7
370
    25
100
AcDbSpline
210
0.0
220
0.0
230
1.0
 70
     8
 71
     3
 72
    11
 73
     7
 74
     0
 42
0.000000001
 43
0.00000001
 40
0.0
 40
0.0
 40
0.0
 40
0.0
 40
0.3372310670701513
 40
0.673630092572255
 40
0.9918856996055945
 40
1.0
 40
1.0
 40
1.0
 40
1.0
 10
173.1481284553307
 20
102.3761348512955
 30
0.0
 10
173.2118414077902
 20
102.3416648479021
 30
0.0
 10
173.3391101153745
 20
102.2728098880711
 30
0.0
 10
173.5507259906206
 20
102.1523917714989
 30
0.0
 10
173.6861193440171
 20
102.0731271378864
 30
0.0
 10
173.7491203615171
 20
102.0355803028304
 30
0.0
 10
173.7506867105263
 20
102.0346468028613
 30
0.0
  0
ARC
  5
D6
330
1F
100
AcDbEntity
  8
0
  6
Continuous
 62
     7
370
    25
100
AcDbCircle
 10
178.6638757172
 20
99.5692265167
 30
0.0
 40
2.518433474266279
100
AcDbArc
 50
9.9865451399
 51
35.3806169878
  0
ARC
  5
D7
330
1F
100
AcDbEntity
  8
0
  6
Continuous
 62
     7
370
    25
100
AcDbCircle
 10
178.5806578463
 20
99.4919423287
 30
0.0
 40
2.529054792417765
100
AcDbArc
 50
233.1343517678
 51
269.0754378869
  0
ARC
  5
D8
330
1F
100
AcDbEntity
  8
0
  6
Continuous
 62
     7
370
    25
100
AcDbCircle
 10
178.5951243966
 20
99.5622551774
 30
0.0
 40
2.587356999465857
100
AcDbArc
 50
320.7776191862
 51
9.8745618147
  0
LINE
  5
D9
330
1F
100
AcDbEntity
  8
0
  6
Continuous
 62
     7
370
    25
100
AcDbLine
 10
183.7655299062
 20
106.9947506947
 30
0.0
 11
184.1635473723
 21
107.0390592975
 31
0.0
  0
LINE
  5
DA
330
1F
100
AcDbEntity
  8
0
  6
Continuous
 62
     7
370
    25
100
AcDbLine
 10
185.8484142179
 20
95.2159350452
 30
0.0
 11
186.2464316839
 21
95.260242251
 31
0.0
  0
LINE
  5
DB
330
1F
100
AcDbEntity
  8
0
  6
Continuous
 62
     7
370
    25
100
AcDbLine
 10
185.1075433845
 20
95.6518252094
 30
0.0
 11
185.8484142179
 21
95.2159350452
 31
0.0
  0
ARC
  5
DC
330
1F
100
AcDbEntity
  8
0
  6
Continuous
 62
     7
370
    25
100
AcDbCircle
 10
183.2217253074
 20
107.5516937066
 30
0.0
 40
0.3936297066967082
100
AcDbArc
 50
44.9719383742
 51
111.0260885524
  0
SPLINE
  5
DD
330
1F
100
AcDbEntity
  8
0
  6
Continuous
 62
     7
370
    25
100
AcDbSpline
210
0.0
220
0.0
230
1.0
 70
     8
 71
     3
 72
    11
 73
     7
 74
     0
 42
0.000000001
 43
0.00000001
 40
0.0
 40
0.0
 40
0.0
 40
0.0
 40
0.0076274349526707
 40
0.3209870914963877
 40
0.6632180744816174
 40
1.0
 40
1.0
 40
1.0
 40
1.0
 10
182.7280626351136
 20
105.3182555076666
 30
0.0
 10
182.7287350113385
 20
105.3197338605978
 30
0.0
 10
182.7570307739602
 20
105.3819477254856
 30
0.0
 10
182.8227353485421
 20
105.5169403015742
 30
0.0
 10
182.9372474592941
 20
105.7291275311306
 30
0.0
 10
183.0207269718742
 20
105.8612995708149
 30
0.0
 10
183.0621317679185
 20
105.9268552524038
 30
0.0
  0
LINE
  5
DE
330
1F
100
AcDbEntity
  8
0
  6
Continuous
 62
     7
370
    25
100
AcDbLine
 10
185.8484142179
 20
95.2159350452
 30
0.0
 11
186.0039674396
 21
94.8367461276
 31
0.0
  0
LINE
  5
DF
330
1F
100
AcDbEntity
  8
0
  6
Continuous
 62
     7
370
    25
100
AcDbLine
 10
174.5769449229
 20
90.9457481646
 30
0.0
 11
174.7324981446
 21
90.5665590724
 31
0.0
  0
SPLINE
  5
E0
330
1F
100
AcDbEntity
  8
0
  6
Continuous
 62
     7
370
    25
100
AcDbSpline
210
0.0
220
0.0
230
1.0
 70
     8
 71
     3
 72
    11
 73
     7
 74
     0
 42
0.000000001
 43
0.00000001
 40
0.0
 40
0.0
 40
0.0
 40
0.0
 40
0.3367819157488023
 40
0.679011996412029
 40
0.9923719745449336
 40
0.9999999999999999
 40
0.9999999999999999
 40
0.9999999999999999
 40
0.9999999999999999
 10
175.1636632437009
 20
92.13120503751563
 30
0.0
 10
175.200156745533
 20
92.20170791281853
 30
0.0
 10
175.2737341093294
 20
92.34385419762062
 30
0.0
 10
175.3970811971495
 20
92.54715218434562
 30
0.0
 10
175.4775119328718
 20
92.6672788536826
 30
0.0
 10
175.5150713768148
 20
92.72017996895173
 30
0.0
 10
175.5159639472264
 20
92.72143712202089
 30
0.0
  0
ARC
  5
E1
330
1F
100
AcDbEntity
  8
0
  6
Continuous
 62
     7
370
    25
100
AcDbCircle
 10
174.0207098737
 20
91.4918577497
 30
0.0
 40
0.3899245835689145
100
AcDbArc
 50
189.9735687215
 51
224.7539003436
  0
SPLINE
  5
E2
330
1F
100
AcDbEntity
  8
0
  6
Continuous
 62
     7
370
    25
100
AcDbSpline
210
0.0
220
0.0
230
1.0
 70
     8
 71
     3
 72
    11
 73
     7
 74
     0
 42
0.000000001
 43
0.00000001
 40
0.0
 40
0.0
 40
0.0
 40
0.0
 40
0.0081154780802337
 40
0.3263724131288961
 40
0.6627666008705462
 40
1.0
 40
1.0
 40
1.0
 40
1.0
 10
184.5170699710148
 20
95.98113202424722
 30
0.0
 10
184.518402376483
 20
95.98043480600809
 30
0.0
 10
184.5719864517042
 20
95.95239544752216
 30
0.0
 10
184.6931010089932
 20
95.88749423858856
 30
0.0
 10
184.8983542151431
 20
95.77349294054596
 30
0.0
 10
185.0377557721258
 20
95.69241478910044
 30
0.0
 10
185.1075433844823
 20
95.65182520942764
 30
0.0
  0
LINE
  5
E3
330
1F
100
AcDbEntity
  8
0
  6
Continuous
 62
     7
370
    25
100
AcDbLine
 10
179.5586303527
 20
101.4838495937
 30
0.0
 11
179.7793314511
 21
101.1705526796
 31
0.0
  0
LINE
  5
E4
330
1F
100
AcDbEntity
  8
0
  6
Continuous
 62
     7
370
    25
100
AcDbLine
 10
179.7793314511
 20
101.1705526796
 30
0.0
 11
178.874450987
 21
101.3987471995
 31
0.0
  0
LINE
  5
E5
330
1F
100
AcDbEntity
  8
0
  6
Continuous
 62
     7
370
    25
100
AcDbLine
 10
178.874450987
 20
101.3987471995
 30
0.0
 11
178.823608225
 21
101.4709228364
 31
0.0
  0
LINE
  5
E6
330
1F
100
AcDbEntity
  8
0
  6
Continuous
 62
     7
370
    25
100
AcDbLine
 10
172.2807244117
 20
103.8276318175
 30
0.0
 11
171.9078712816
 21
103.9235096139
 31
0.0
  0
ELLIPSE
  5
E7
330
1F
100
AcDbEntity
  8
0
  6
Continuous
 62
     7
370
    25
100
AcDbEllipse
 10
178.7616712266
 20
99.167232847
 30
0.0
 11
1.62183114379016
 21
1.560683174337981
 31
0.0
210
0.0
220
0.0
230
1.0
 40
0.9846168192
 41
3.903444703277923
 42
6.622615596149359
  0
ELLIPSE
  5
E8
330
1F
100
AcDbEntity
  8
0
  6
Continuous
 62
     7
370
    25
100
AcDbEllipse
 10
178.7616712266
 20
99.167232847
 30
0.0
 11
1.62183114379016
 21
1.560683174337981
 31
0.0
210
0.0
220
0.0
230
1.0
 40
0.9846168192
 41
0.7618520496881546
 42
0.9745615841146664
  0
ELLIPSE
  5
E9
330
1F
100
AcDbEntity
  8
0
  6
Continuous
 62
     7
370
    25
100
AcDbEllipse
 10
178.7616712266
 20
99.167232847
 30
0.0
 11
1.62183114379016
 21
1.560683174337981
 31
0.0
210
0.0
220
0.0
230
1.0
 40
0.9846168192
 41
2.82402725139395
 42
3.4810229425596
  0
LINE
  5
EA
330
1F
100
AcDbEntity
  8
0
  6
Continuous
 62
     7
370
    25
100
AcDbLine
 10
177.744011646
 20
97.1639135567
 30
0.0
 11
178.64889211
 21
96.9357185711
 31
0.0
  0
LINE
  5
EB
330
1F
100
AcDbEntity
  8
0
  6
Continuous
 62
     7
370
    25
100
AcDbLine
 10
177.0895526463
 20
97.6606107031
 30
0.0
 11
176.9417405779
 21
97.6978864235
 31
0.0
  0
CIRCLE
  5
EC
330
1F
100
AcDbEntity
  8
0
  6
Continuous
 62
     7
370
    25
100
AcDbCircle
 10
166.8934960549
 20
102.1105069889
 30
0.0
 40
3.473068776996779
  0
CIRCLE
  5
ED
330
1F
100
AcDbEntity
  8
0
  6
Continuous
 62
     7
370
    25
100
AcDbCircle
 10
166.8722132485
 20
102.1089854258
 30
0.0
 40
1.985646723885171
  0
SPLINE
  5
EE
330
1F
100
AcDbEntity
  8
0
  6
Continuous
 62
     7
370
    25
100
AcDbSpline
210
0.0
220
0.0
230
1.0
 70
     8
 71
     3
 72
    11
 73
     7
 74
     0
 42
0.000000001
 43
0.00000001
 40
0.0
 40
0.0
 40
0.0
 40
0.0
 40
0.1081099788157523
 40
0.4711576600450181
 40
0.813579968144442
 40
1.0
 40
1.0
 40
1.0
 40
1.0
 10
165.5953705961007
 20
100.9085120347329
 30
0.0
 10
165.6481286615928
 20
100.8977209616627
 30
0.0
 10
165.8780553247745
 20
100.8506920306353
 30
0.0
 10
166.3284277486463
 20
100.748422817711
 30
0.0
 10
166.8604490240151
 20
100.6050519998305
 30
0.0
 10
167.1529955449394
 20
100.518848558663
 30
0.0
 10
167.2561199123162
 20
100.4884613391943
 30
0.0
  0
SPLINE
  5
EF
330
1F
100
AcDbEntity
  8
0
  6
Continuous
 62
     7
370
    25
100
AcDbSpline
210
0.0
220
0.0
230
1.0
 70
     8
 71
     3
 72
    11
 73
     7
 74
     0
 42
0.000000001
 43
0.00000001
 40
0.0
 40
0.0
 40
0.0
 40
0.0
 40
0.2164499363806269
 40
0.4402999115896211
 40
0.7518906137097435
 40
1.0
 40
1.0
 40
1.0
 40
1.0
 10
167.2561199123162
 20
100.4884613391943
 30
0.0
 10
167.3328262364964
 20
100.5795876829861
 30
0.0
 10
167.4888613378212
 20
100.7649558183892
 30
0.0
 10
167.7920910316014
 20
101.0951834666201
 30
0.0
 10
168.1360328665472
 20
101.4306148842881
 30
0.0
 10
168.3687229616494
 20
101.6325940743672
 30
0.0
 10
168.4718721265095
 20
101.7221294057556
 30
0.0
  0
SPLINE
  5
F0
330
1F
100
AcDbEntity
  8
0
  6
Continuous
 62
     7
370
    25
100
AcDbSpline
210
0.0
220
0.0
230
1.0
 70
     8
 71
     3
 72
    11
 73
     7
 74
     0
 42
0.000000001
 43
0.00000001
 40
0.0
 40
0.0
 40
0.0
 40
0.0
 40
0.2164500760915328
 40
0.4403001340810151
 40
0.7518911674951191
 40
0.9999999999999999
 40
0.9999999999999999
 40
0.9999999999999999
 40
0.9999999999999999
 10
168.4718721265095
 20
101.7221294057556
 30
0.0
 10
168.4348174845089
 20
101.8420284678321
 30
0.0
 10
168.3594413786844
 20
102.0859256937503
 30
0.0
 10
168.2332328954179
 20
102.5247732676276
 30
0.0
 10
168.1165191497427
 20
102.9767171481138
 30
0.0
 10
168.0544081512059
 20
103.253259822969
 30
0.0
 10
168.0268750244874
 20
103.3758481678553
 30
0.0
  0
SPLINE
  5
F1
330
1F
100
AcDbEntity
  8
0
  6
Continuous
 62
     7
370
    25
100
AcDbSpline
210
0.0
220
0.0
230
1.0
 70
     8
 71
     3
 72
    11
 73
     7
 74
     0
 42
0.000000001
 43
0.00000001
 40
0.0
 40
0.0
 40
0.0
 40
0.0
 40
0.1864200236039701
 40
0.5288421827324553
 40
0.891889955471264
 40
1.0
 40
1.0
 40
1.0
 40
1.0
 10
168.0268750244874
 20
103.3758481678553
 30
0.0
 10
167.9237506685976
 20
103.4062354372807
 30
0.0
 10
167.6312042542839
 20
103.4924389983549
 30
0.0
 10
167.0991825915847
 20
103.6358080174561
 30
0.0
 10
166.6488103690505
 20
103.7380789792611
 30
0.0
 10
166.4188837728564
 20
103.7851078103068
 30
0.0
 10
166.3661257082719
 20
103.7958988633938
 30
0.0
  0
SPLINE
  5
F2
330
1F
100
AcDbEntity
  8
0
  6
Continuous
 62
     7
370
    25
100
AcDbSpline
210
0.0
220
0.0
230
1.0
 70
     8
 71
     3
 72
    11
 73
     7
 74
     0
 42
0.000000001
 43
0.00000001
 40
0.0
 40
0.0
 40
0.0
 40
0.0
 40
0.2164493920040849
 40
0.4402993669889231
 40
0.7518908293210249
 40
1.0
 40
1.0
 40
1.0
 40
1.0
 10
166.3661257082719
 20
103.7958988633938
 30
0.0
 10
166.2762767696642
 20
103.7180143684495
 30
0.0
 10
166.0935068832382
 20
103.5595824435328
 30
0.0
 10
165.7679933276644
 20
103.2518061078798
 30
0.0
 10
165.4374834006059
 20
102.9028416105598
 30
0.0
 10
165.2385558861179
 20
102.6668460012953
 30
0.0
 10
165.1503734940785
 20
102.5622317281552
 30
0.0
  0
SPLINE
  5
F3
330
1F
100
AcDbEntity
  8
0
  6
Continuous
 62
     7
370
    25
100
AcDbSpline
210
0.0
220
0.0
230
1.0
 70
     8
 71
     3
 72
    11
 73
     7
 74
     0
 42
0.000000001
 43
0.00000001
 40
0.0
 40
0.0
 40
0.0
 40
0.0
 40
0.2164500666961058
 40
0.4402999113556954
 40
0.7518911037996411
 40
1.0
 40
1.0
 40
1.0
 40
1.0
 10
165.1503734940785
 20
102.5622317281552
 30
0.0
 10
165.1742840546672
 20
102.4555740962669
 30
0.0
 10
165.2229226061279
 20
102.2386125282589
 30
0.0
 10
165.3268478159755
 20
101.8222180604032
 30
0.0
 10
165.4569972545125
 20
101.3567387175913
 30
0.0
 10
165.5528708743978
 20
101.0461795150629
 30
0.0
 10
165.5953705961007
 20
100.9085120347329
 30
0.0
  0
LINE
  5
F4
330
1F
100
AcDbEntity
  8
0
  6
Continuous
 62
     7
370
    25
100
AcDbLine
 10
168.0204377229
 20
102.1769519609
 30
0.0
 11
168.4718721265
 21
101.7221294058
 31
0.0
  0
LINE
  5
F5
330
1F
100
AcDbEntity
  8
0
  6
Continuous
 62
     7
370
    25
100
AcDbLine
 10
168.0204377229
 20
102.1769519609
 30
0.0
 11
167.7979410345
 21
103.0038108763
 31
0.0
  0
LINE
  5
F6
330
1F
100
AcDbEntity
  8
0
  6
Continuous
 62
     7
370
    25
100
AcDbLine
 10
167.7979410345
 20
103.0038108763
 30
0.0
 11
167.6701263243
 21
103.4788002905
 31
0.0
  0
LINE
  5
F7
330
1F
100
AcDbEntity
  8
0
  6
Continuous
 62
     7
370
    25
100
AcDbLine
 10
165.4831275994
 20
101.2775439483
 30
0.0
 11
165.9743108506
 21
101.1533092421
 31
0.0
  0
LINE
  5
F8
330
1F
100
AcDbEntity
  8
0
  6
Continuous
 62
     7
370
    25
100
AcDbLine
 10
165.9743108506
 20
101.1533092421
 30
0.0
 11
166.8046855087
 21
100.9432838944
 31
0.0
  0
LINE
  5
F9
330
1F
100
AcDbEntity
  8
0
  6
Continuous
 62
     7
370
    25
100
AcDbLine
 10
166.8046855087
 20
100.9432838944
 30
0.0
 11
167.2561199123
 21
100.4884613392
 31
0.0
  0
LINE
  5
FA
330
1F
100
AcDbEntity
  8
0
  6
Continuous
 62
     7
370
    25
100
AcDbLine
 10
166.8046855087
 20
100.9432838944
 30
0.0
 11
167.4125634784
 21
101.560117462
 31
0.0
  0
LINE
  5
FB
330
1F
100
AcDbEntity
  8
0
  6
Continuous
 62
     7
370
    25
100
AcDbLine
 10
167.4125634784
 20
101.560117462
 30
0.0
 11
168.0204377229
 21
102.1769519609
 31
0.0
  0
ARC
  5
FC
330
1F
100
AcDbEntity
  8
0
  6
Continuous
 62
     7
370
    25
100
AcDbCircle
 10
166.3446856554
 20
102.6184581028
 30
0.0
 40
1.503478618716327
100
AcDbArc
 50
315.256999284
 51
14.851071622
  0
ARC
  5
FD
330
1F
100
AcDbEntity
  8
0
  6
Continuous
 62
     7
370
    25
100
AcDbCircle
 10
166.3380006835
 20
102.613343449
 30
0.0
 40
1.504649520584081
100
AcDbArc
 50
256.0124729152
 51
315.574525101
  0
ARC
  5
FE
330
1F
100
AcDbEntity
  8
0
  6
Continuous
 62
     7
370
    25
100
AcDbCircle
 10
166.332167207
 20
102.571328439
 30
0.0
 40
1.462477218481599
100
AcDbArc
 50
232.6596327957
 51
255.8363721877
  0
ARC
  5
FF
330
1F
100
AcDbEntity
  8
0
  6
Continuous
 62
     7
370
    25
100
AcDbCircle
 10
166.3863240096
 20
102.6247203618
 30
0.0
 40
1.461633416134452
100
AcDbArc
 50
15.0321418235
 51
38.9167248767
  0
CIRCLE
  5
100
330
1F
100
AcDbEntity
  8
0
  6
Continuous
 62
     7
370
    25
100
AcDbCircle
 10
142.2453710593
 20
104.2181029681
 30
0.0
 40
3.324918946556112
  0
ARC
  5
101
330
1F
100
AcDbEntity
  8
0
  6
Continuous
 62
     7
370
    25
100
AcDbCircle
 10
142.1439659533
 20
104.22111317
 30
0.0
 40
3.841689721802474
100
AcDbArc
 50
104.136153546
 51
150.4421030347
  0
ARC
  5
102
330
1F
100
AcDbEntity
  8
0
  6
Continuous
 62
     7
370
    25
100
AcDbCircle
 10
142.1997399417
 20
104.1405940324
 30
0.0
 40
3.933542695955304
100
AcDbArc
 50
283.1469219914
 51
104.63752138
  0
LINE
  5
103
330
1F
100
AcDbEntity
  8
0
  6
Continuous
 62
     7
370
    25
100
AcDbLine
 10
139.198961919
 20
106.7076220823
 30
0.0
 11
138.9239162857
 21
106.3988569838
 31
0.0
  0
ARC
  5
104
330
1F
100
AcDbEntity
  8
0
  6
Continuous
 62
     7
370
    25
100
AcDbCircle
 10
142.0831060745
 20
103.8452228062
 30
0.0
 40
3.836551719518352
100
AcDbArc
 50
301.8307597997
 51
315.2117109928
  0
LINE
  5
105
330
1F
100
AcDbEntity
  8
0
  6
Continuous
 62
     7
370
    25
100
AcDbLine
 10
144.3534039611
 20
100.6955530209
 30
0.0
 11
144.4868494475
 21
100.8550438744
 31
0.0
  0
SPLINE
  5
106
330
1F
100
AcDbEntity
  8
0
  6
Continuous
 62
     7
370
    25
100
AcDbSpline
210
0.0
220
0.0
230
1.0
 70
     8
 71
     3
 72
    12
 73
     8
 74
     0
 42
0.000000001
 43
0.00000001
 40
0.0
 40
0.0
 40
0.0
 40
0.0
 40
0.2237278386177431
 40
0.4473789589865362
 40
0.673242247150496
 40
0.9054629032270312
 40
1.0
 40
1.0
 40
1.0
 40
1.0
 10
181.3931421095627
 20
109.8122100991197
 30
0.0
 10
181.3860219031365
 20
110.1371336431043
 30
0.0
 10
181.3717839318654
 20
110.7868693119249
 30
0.0
 10
181.3025647301613
 20
111.6015837889398
 30
0.0
 10
181.1854593585531
 20
112.1835827986531
 30
0.0
 10
181.0475763317033
 20
112.4229400318085
 30
0.0
 10
180.949523723123
 20
112.4412917843284
 30
0.0
 10
180.9211552793282
 20
112.4466012877412
 30
0.0
  0
LINE
  5
107
330
1F
100
AcDbEntity
  8
0
  6
Continuous
 62
     7
370
    25
100
AcDbLine
 10
180.9211552793
 20
112.4466012877
 30
0.0
 11
180.2915514166
 21
112.4466012877
 31
0.0
  0
ELLIPSE
  5
108
330
1F
100
AcDbEntity
  8
0
  6
Continuous
 62
     7
370
    25
100
AcDbEllipse
 10
154.0220183486
 20
110.2671099893
 30
0.0
 11
27.5
 21
0.0
 31
0.0
210
0.0
220
0.0
230
1.0
 40
0.2679491924
 41
0.3002728868372414
 42
0.3721685339603248
  0
ARC
  5
109
330
1F
100
AcDbEntity
  8
0
  6
Continuous
 62
     7
370
    25
100
AcDbCircle
 10
154.0220183486
 20
102.9466019136
 30
0.0
 40
27.49999999999998
100
AcDbArc
 50
21.3236862635
 51
53.1301023542
  0
LINE
  5
10A
330
1F
100
AcDbEntity
  8
0
  6
Continuous
 62
     7
370
    25
100
AcDbLine
 10
170.522018587
 20
124.9466005427
 30
0.0
 11
170.522018587
 21
133.6990546149
 31
0.0
  0
SPLINE
  5
10B
330
1F
100
AcDbEntity
  8
0
  6
Continuous
 62
     7
370
    25
100
AcDbSpline
210
0.0
220
0.0
230
1.0
 70
     8
 71
     3
 72
    14
 73
    10
 74
     0
 42
0.000000001
 43
0.00000001
 40
0.0
 40
0.0
 40
0.0
 40
0.0
 40
0.1423942467973669
 40
0.2847331663249786
 40
0.4270941552163217
 40
0.5695384033933829
 40
0.7448989598789483
 40
0.9204933070923709
 40
1.0
 40
1.0
 40
1.0
 40
1.0
 10
170.5220185870427
 20
142.7243824762292
 30
0.0
 10
170.7017611146485
 20
142.3341650028368
 30
0.0
 10
171.0611763309199
 20
141.5538816750106
 30
0.0
 10
171.3873476205605
 20
140.2606899444511
 30
0.0
 10
171.5387349975712
 20
138.9197083152983
 30
0.0
 10
171.5140713167573
 20
137.4590689616439
 30
0.0
 10
171.2758904706622
 20
135.9228901611633
 30
0.0
 10
170.906029361077
 20
134.6406489282938
 30
0.0
 10
170.6132640176489
 20
133.9227883859222
 30
0.0
 10
170.5220185870427
 20
133.6990546149202
 30
0.0
  0
LINE
  5
10C
330
1F
100
AcDbEntity
  8
0
  6
Continuous
 62
     7
370
    25
100
AcDbLine
 10
170.522018587
 20
142.7243824762
 30
0.0
 11
170.522018587
 21
155.4466027481
 31
0.0
  0
ARC
  5
10D
330
1F
100
AcDbEntity
  8
0
  6
Continuous
 62
     7
370
    25
100
AcDbCircle
 10
154.0220183486
 20
177.4466019136
 30
0.0
 40
27.49999999999984
100
AcDbArc
 50
306.8698976458
 51
310.2141710174
  0
LINE
  5
10E
330
1F
100
AcDbEntity
  8
0
  6
Continuous
 62
     7
370
    25
100
AcDbLine
 10
176.6885214204
 20
156.4466047746
 30
0.0
 11
171.7772998566
 21
156.4466047746
 31
0.0
  0
ELLIPSE
  5
10F
330
1F
100
AcDbEntity
  8
0
  6
Continuous
 62
     7
370
    25
100
AcDbEllipse
 10
154.0220183486
 20
152.2741618091
 30
0.0
 11
27.5
 21
0.0
 31
0.0
210
0.0
220
0.0
230
1.0
 40
0.2679491924
 41
0.4917321741314994
 42
0.6019438839491029
  0
ELLIPSE
  5
110
330
1F
100
AcDbEntity
  8
0
  6
Continuous
 62
     7
370
    25
100
AcDbEllipse
 10
154.0220183486
 20
107.2954966219
 30
0.0
 11
0.0
 21
102.6313972081416
 31
0.0
210
0.0
220
0.0
230
1.0
 40
0.2679491924
 41
5.195777190315758
 42
5.204121154516199
  0
ARC
  5
111
330
1F
100
AcDbEntity
  8
0
  6
Continuous
 62
     7
370
    25
100
AcDbCircle
 10
154.0220183486
 20
167.778207404
 30
0.0
 40
27.49999999999994
100
AcDbArc
 50
326.6089251886
 51
332.3038957046
  0
SPLINE
  5
112
330
1F
100
AcDbEntity
  8
0
  6
Continuous
 62
     7
370
    25
100
AcDbSpline
210
0.0
220
0.0
230
1.0
 70
     8
 71
     3
 72
    14
 73
    10
 74
     0
 42
0.000000001
 43
0.00000001
 40
0.0
 40
0.0
 40
0.0
 40
0.0
 40
0.1492303767436383
 40
0.299179116783829
 40
0.4339262635342087
 40
0.5602149803778717
 40
0.6930880206415773
 40
0.8437555150163131
 40
1.0
 40
1.0
 40
1.0
 40
1.0
 10
176.9826926941174
 20
152.6435639423318
 30
0.0
 10
176.9678468218148
 20
152.6168728559613
 30
0.0
 10
176.9380836123376
 20
152.563362198007
 30
0.0
 10
176.9159039761919
 20
152.4577255998387
 30
0.0
 10
176.9160087169577
 20
152.352246161124
 30
0.0
 10
176.9353022553464
 20
152.2573254621543
 30
0.0
 10
176.9709019746335
 20
152.1751206721558
 30
0.0
 10
177.0211272805771
 20
152.1086315779972
 30
0.0
 10
177.0617545711608
 20
152.08616708915
 30
0.0
 10
177.0824373418587
 20
152.0747307402082
 30
0.0
  0
ELLIPSE
  5
113
330
1F
100
AcDbEntity
  8
0
  6
Continuous
 62
     7
370
    25
100
AcDbEllipse
 10
154.0220183486
 20
148.0602570899
 30
0.0
 11
27.5
 21
0.0
 31
0.0
210
0.0
220
0.0
230
1.0
 40
0.2679491924
 41
0.4421890701782679
 42
0.5761603955314223
  0
ELLIPSE
  5
114
330
1F
100
AcDbEntity
  8
0
  6
Continuous
 62
     7
370
    25
100
AcDbEllipse
 10
154.0220183486
 20
107.2954966219
 30
0.0
 11
0.0
 21
102.6313972081435
 31
0.0
210
0.0
220
0.0
230
1.0
 40
0.2679491924
 41
5.146437472225773
 42
5.154578050562971
  0
ARC
  5
115
330
1F
100
AcDbEntity
  8
0
  6
Continuous
 62
     7
370
    25
100
AcDbCircle
 10
154.0220183486
 20
162.0219065084
 30
0.0
 40
27.49999999999995
100
AcDbArc
 50
329.5945265059
 51
335.1308533135
  0
SPLINE
  5
116
330
1F
100
AcDbEntity
  8
0
  6
Continuous
 62
     7
370
    25
100
AcDbSpline
210
0.0
220
0.0
230
1.0
 70
     8
 71
     3
 72
    14
 73
    10
 74
     0
 42
0.000000001
 43
0.00000001
 40
0.0
 40
0.0
 40
0.0
 40
0.0
 40
0.1508361724112909
 40
0.3022614728416246
 40
0.4411116087226774
 40
0.5731315426934223
 40
0.7111946778611895
 40
0.8649446345673691
 40
1.0
 40
1.0
 40
1.0
 40
1.0
 10
177.7398132437962
 20
148.1037128430791
 30
0.0
 10
177.7264276224013
 20
148.0765735801394
 30
0.0
 10
177.6996040987526
 20
148.0221890551488
 30
0.0
 10
177.680096489251
 20
147.9155200503025
 30
0.0
 10
177.6806469054687
 20
147.8085598383323
 30
0.0
 10
177.6991362809595
 20
147.7114032651258
 30
0.0
 10
177.7329911492122
 20
147.6279895877238
 30
0.0
 10
177.7777672514606
 20
147.565578323593
 30
0.0
 10
177.8124043203966
 20
147.5446612081625
 30
0.0
 10
177.8286018127698
 20
147.5348796409555
 30
0.0
  0
ELLIPSE
  5
117
330
1F
100
AcDbEntity
  8
0
  6
Continuous
 62
     7
370
    25
100
AcDbEllipse
 10
154.0220183486
 20
143.8463523707
 30
0.0
 11
27.5
 21
0.0
 31
0.0
210
0.0
220
0.0
230
1.0
 40
0.2679491924
 41
0.3937828514341249
 42
0.5242613443886106
  0
ELLIPSE
  5
118
330
1F
100
AcDbEntity
  8
0
  6
Continuous
 62
     7
370
    25
100
AcDbEllipse
 10
154.0220183486
 20
107.2954966219
 30
0.0
 11
0.0
 21
102.6313972081417
 31
0.0
210
0.0
220
0.0
230
1.0
 40
0.2679491924
 41
5.098202292426661
 42
5.106171831818828
  0
ARC
  5
119
330
1F
100
AcDbEntity
  8
0
  6
Continuous
 62
     7
370
    25
100
AcDbCircle
 10
154.0220183486
 20
156.2656056129
 30
0.0
 40
27.49999999999997
100
AcDbArc
 50
332.4914075197
 51
337.89452554
  0
SPLINE
  5
11A
330
1F
100
AcDbEntity
  8
0
  6
Continuous
 62
     7
370
    25
100
AcDbSpline
210
0.0
220
0.0
230
1.0
 70
     8
 71
     3
 72
    14
 73
    10
 74
     0
 42
0.000000001
 43
0.00000001
 40
0.0
 40
0.0
 40
0.0
 40
0.0
 40
0.1524108441228841
 40
0.305304149377383
 40
0.4478926676887488
 40
0.5850356305963126
 40
0.7275927203745713
 40
0.8836839028793234
 40
1.0
 40
1.0
 40
1.0
 40
1.0
 10
178.4129098707932
 20
143.5638617438264
 30
0.0
 10
178.4008891359924
 20
143.5363031661708
 30
0.0
 10
178.3768096143917
 20
143.4810987733495
 30
0.0
 10
178.3596940083306
 20
143.3734034846923
 30
0.0
 10
178.3605944354969
 20
143.2650375835303
 30
0.0
 10
178.378123703918
 20
143.1659304810439
 30
0.0
 10
178.4099305515971
 20
143.0816110750009
 30
0.0
 10
178.4496657537104
 20
143.0228626199274
 30
0.0
 10
178.4791090446823
 20
143.0033572184424
 30
0.0
 10
178.4916811341542
 20
142.9950285417028
 30
0.0
  0
ELLIPSE
  5
11B
330
1F
100
AcDbEntity
  8
0
  6
Continuous
 62
     7
370
    25
100
AcDbEllipse
 10
154.0220183486
 20
139.6324476515
 30
0.0
 11
27.5
 21
0.0
 31
0.0
210
0.0
220
0.0
230
1.0
 40
0.2679491924
 41
0.3463320670126763
 42
0.4738766410714548
  0
ELLIPSE
  5
11C
330
1F
100
AcDbEntity
  8
0
  6
Continuous
 62
     7
370
    25
100
AcDbEllipse
 10
154.0220183486
 20
107.2954966219
 30
0.0
 11
0.0
 21
102.6313972081416
 31
0.0
210
0.0
220
0.0
230
1.0
 40
0.2679491924
 41
5.05089499740351
 42
5.058721047397372
  0
ARC
  5
11D
330
1F
100
AcDbEntity
  8
0
  6
Continuous
 62
     7
370
    25
100
AcDbCircle
 10
154.0220183486
 20
150.5093047173
 30
0.0
 40
27.49999999999997
100
AcDbArc
 50
335.3138718742
 51
340.605033885
  0
SPLINE
  5
11E
330
1F
100
AcDbEntity
  8
0
  6
Continuous
 62
     7
370
    25
100
AcDbSpline
210
0.0
220
0.0
230
1.0
 70
     8
 71
     3
 72
    14
 73
    10
 74
     0
 42
0.000000001
 43
0.00000001
 40
0.0
 40
0.0
 40
0.0
 40
0.0
 40
0.1539144047790444
 40
0.3082110237231639
 40
0.4541806512559842
 40
0.5958772625654031
 40
0.7422938870187988
 40
0.9001223889522466
 40
1.0
 40
1.0
 40
1.0
 40
1.0
 10
179.0087737793225
 20
139.0240106445737
 30
0.0
 10
178.9980484247194
 20
138.9960643424926
 30
0.0
 10
178.976571081343
 20
138.9401023395465
 30
0.0
 10
178.9616121501901
 20
138.8314265142637
 30
0.0
 10
178.9627640872566
 20
138.7217548772949
 30
0.0
 10
178.9791702029448
 20
138.6209549803034
 30
0.0
 10
179.0086718195865
 20
138.5359766956246
 30
0.0
 10
179.0436973423447
 20
138.4804797527973
 30
0.0
 10
179.068615438285
 20
138.4622446945135
 30
0.0
 10
179.0782727951306
 20
138.4551774424501
 30
0.0
  0
ELLIPSE
  5
11F
330
1F
100
AcDbEntity
  8
0
  6
Continuous
 62
     7
370
    25
100
AcDbEllipse
 10
154.0220183486
 20
135.4185429323
 30
0.0
 11
27.5
 21
0.0
 31
0.0
210
0.0
220
0.0
230
1.0
 40
0.2679491924
 41
0.2996809847155392
 42
0.4247627609689185
  0
ELLIPSE
  5
120
330
1F
100
AcDbEntity
  8
0
  6
Continuous
 62
     7
370
    25
100
AcDbEllipse
 10
154.0220183486
 20
107.2954966219
 30
0.0
 11
0.0
 21
102.6313972081381
 31
0.0
210
0.0
220
0.0
230
1.0
 40
0.2679491924
 41
5.004363495387235
 42
5.012069965100234
  0
ARC
  5
121
330
1F
100
AcDbEntity
  8
0
  6
Continuous
 62
     7
370
    25
100
AcDbCircle
 10
154.0220183486
 20
144.7530038218
 30
0.0
 40
27.49999999999998
100
AcDbArc
 50
338.0737657842
 51
343.271092565
  0
SPLINE
  5
122
330
1F
100
AcDbEntity
  8
0
  6
Continuous
 62
     7
370
    25
100
AcDbSpline
210
0.0
220
0.0
230
1.0
 70
     8
 71
     3
 72
    14
 73
    10
 74
     0
 42
0.000000001
 43
0.00000001
 40
0.0
 40
0.0
 40
0.0
 40
0.0
 40
0.1553093662278315
 40
0.310917823871509
 40
0.4599168465878841
 40
0.6056262587917105
 40
0.7553329463829359
 40
0.9144040580393735
 40
1.0
 40
1.0
 40
1.0
 40
1.0
 10
179.5328178161877
 20
134.484159545321
 30
0.0
 10
179.5233316111999
 20
134.4558621399598
 30
0.0
 10
179.5043409328959
 20
134.3992128347065
 30
0.0
 10
179.4913620097088
 20
134.2896228270353
 30
0.0
 10
179.4926724986891
 20
134.1787604812421
 30
0.0
 10
179.5077863981837
 20
134.0765010090243
 30
0.0
 10
179.5347583196687
 20
133.9910556654454
 30
0.0
 10
179.5653539818668
 20
133.9384274805469
 30
0.0
 10
179.5863094360535
 20
133.9213135825741
 30
0.0
 10
179.5936406308907
 20
133.9153263431974
 30
0.0
  0
ELLIPSE
  5
123
330
1F
100
AcDbEntity
  8
0
  6
Continuous
 62
     7
370
    25
100
AcDbEllipse
 10
154.0220183486
 20
131.2046382131
 30
0.0
 11
27.5
 21
0.0
 31
0.0
210
0.0
220
0.0
230
1.0
 40
0.2679491924
 41
0.2536934538885696
 42
0.3767174715692922
  0
ELLIPSE
  5
124
330
1F
100
AcDbEntity
  8
0
  6
Continuous
 62
     7
370
    25
100
AcDbEllipse
 10
154.0220183486
 20
107.2954966219
 30
0.0
 11
0.0
 21
102.6313972081416
 31
0.0
210
0.0
220
0.0
230
1.0
 40
0.2679491924
 41
4.95847441842649
 42
4.966082434273261
  0
ARC
  5
125
330
1F
100
AcDbEntity
  8
0
  6
Continuous
 62
     7
370
    25
100
AcDbCircle
 10
154.0220183486
 20
138.9967029263
 30
0.0
 40
27.49999999999998
100
AcDbArc
 50
340.7811060873
 51
345.9003430006
  0
SPLINE
  5
126
330
1F
100
AcDbEntity
  8
0
  6
Continuous
 62
     7
370
    25
100
AcDbSpline
210
0.0
220
0.0
230
1.0
 70
     8
 71
     3
 72
    14
 73
    10
 74
     0
 42
0.000000001
 43
0.00000001
 40
0.0
 40
0.0
 40
0.0
 40
0.0
 40
0.1565688478100881
 40
0.3133722677796325
 40
0.4650645633098632
 40
0.614274102810618
 40
0.766758598441192
 40
0.9266830093785836
 40
1.0
 40
1.0
 40
1.0
 40
1.0
 10
179.9893856698769
 20
129.9443084460683
 30
0.0
 10
179.9810998682592
 20
129.9156991908951
 30
0.0
 10
179.9645158511982
 20
129.8584378180324
 30
0.0
 10
179.9533610750618
 20
129.7480156444921
 30
0.0
 10
179.954730923377
 20
129.6360827652764
 30
0.0
 10
179.9684246430618
 20
129.5325760230231
 30
0.0
 10
179.9926492129811
 20
129.4468085045584
 30
0.0
 10
180.0190645699743
 20
129.3966795666606
 30
0.0
 10
180.0365273342443
 20
129.3805465033502
 30
0.0
 10
180.0420165712136
 20
129.3754752439447
 30
0.0
  0
ELLIPSE
  5
127
330
1F
100
AcDbEntity
  8
0
  6
Continuous
 62
     7
370
    25
100
AcDbEllipse
 10
154.0220183486
 20
126.990733494
 30
0.0
 11
27.5
 21
0.0
 31
0.0
210
0.0
220
0.0
230
1.0
 40
0.2679491924
 41
0.2082483052390234
 42
0.3295693453024989
  0
ELLIPSE
  5
128
330
1F
100
AcDbEntity
  8
0
  6
Continuous
 62
     7
370
    25
100
AcDbEllipse
 10
154.0220183486
 20
107.2954966219
 30
0.0
 11
0.0
 21
102.6313972081448
 31
0.0
210
0.0
220
0.0
230
1.0
 40
0.2679491924
 41
4.912502261216347
 42
4.920637285623719
  0
LINE
  5
129
330
1F
100
AcDbEntity
  8
0
  6
Continuous
 62
     7
370
    25
100
AcDbLine
 10
180.9732311124
 20
127.6966023904
 30
0.0
 11
181.5220185274
 21
127.6966023904
 31
0.0
  0
ELLIPSE
  5
12A
330
1F
100
AcDbEntity
  8
0
  6
Continuous
 62
     7
370
    25
100
AcDbEllipse
 10
154.0220183486
 20
61.1486412376
 30
0.0
 11
3.401915436810043
 21
223.9691432210395
 31
0.0
210
0.0
220
0.0
230
1.0
 40
0.1218416504
 41
4.928914512929932
 42
4.933264261628202
  0
SPLINE
  5
12B
330
1F
100
AcDbEntity
  8
0
  6
Continuous
 62
     7
370
    25
100
AcDbSpline
210
0.0
220
0.0
230
1.0
 70
     8
 71
     3
 72
    19
 73
    15
 74
     0
 42
0.000000001
 43
0.00000001
 40
0.0
 40
0.0
 40
0.0
 40
0.0
 40
0.0137937968523463
 40
0.1122802742765868
 40
0.2111930648999634
 40
0.3142721715240359
 40
0.4229544418470162
 40
0.5361367235527809
 40
0.651296373430759
 40
0.7077950931147695
 40
0.7660437963737534
 40
0.8764530010165784
 40
0.9808031644865473
 40
1.0
 40
1.0
 40
1.0
 40
1.0
 10
181.5198727602261
 20
118.468259246368
 30
0.0
 10
181.5205677663218
 20
118.4615593723863
 30
0.0
 10
181.5262250538604
 20
118.4070229966272
 30
0.0
 10
181.5026523392349
 20
118.6289488279631
 30
0.0
 10
181.455486467731
 20
119.1263267252549
 30
0.0
 10
181.3961591621381
 20
119.9283193054039
 30
0.0
 10
181.352367167379
 20
120.9378795560015
 30
0.0
 10
181.3443643330269
 20
122.0689935767436
 30
0.0
 10
181.3737285152406
 20
122.9934624063853
 30
0.0
 10
181.4108323546421
 20
123.6499620899937
 30
0.0
 10
181.4519975172093
 20
124.2224062388855
 30
0.0
 10
181.4980207415343
 20
124.7208987261117
 30
0.0
 10
181.5256172769504
 20
124.9801617987736
 30
0.0
 10
181.5201519914236
 20
124.9277185170354
 30
0.0
 10
181.5193027908105
 20
124.9195698362775
 30
0.0
  0
ELLIPSE
  5
12C
330
1F
100
AcDbEntity
  8
0
  6
Continuous
 62
     7
370
    25
100
AcDbEllipse
 10
161.5220183486
 20
138.2117196801
 30
0.0
 11
0.0
 21
10.35276180410068
 31
0.0
210
0.0
220
0.0
230
1.0
 40
0.9659258263
 41
5.163415792180965
 42
6.283185307179586
  0
ELLIPSE
  5
12D
330
1F
100
AcDbEntity
  8
0
  6
Continuous
 62
     7
370
    25
100
AcDbEllipse
 10
161.5220183486
 20
138.2117196801
 30
0.0
 11
0.0
 21
10.35276180410068
 31
0.0
210
0.0
220
0.0
230
1.0
 40
0.9659258263
 41
3.14159265358979
 42
4.261362168588439
  0
ARC
  5
12E
330
1F
100
AcDbEntity
  8
0
  6
Continuous
 62
     7
370
    25
100
AcDbCircle
 10
161.6712327425
 20
139.2563101377
 30
0.0
 40
9.864160363853383
100
AcDbArc
 50
269.133261736
 51
355.3649304124
  0
ARC
  5
12F
330
1F
100
AcDbEntity
  8
0
  6
Continuous
 62
     7
370
    25
100
AcDbCircle
 10
154.0220183486
 20
177.4466019136
 30
0.0
 40
27.49999999999982
100
AcDbArc
 50
229.7858289826
 51
233.1301023542
  0
LINE
  5
130
330
1F
100
AcDbEntity
  8
0
  6
Continuous
 62
     7
370
    25
100
AcDbLine
 10
136.2667374963
 20
156.4466047746
 30
0.0
 11
171.7772998566
 21
156.4466047746
 31
0.0
  0
LINE
  5
131
330
1F
100
AcDbEntity
  8
0
  6
Continuous
 62
     7
370
    25
100
AcDbLine
 10
137.5220187659
 20
155.4466027481
 30
0.0
 11
170.522018587
 21
155.4466027481
 31
0.0
  0
SPLINE
  5
132
330
1F
100
AcDbEntity
  8
0
  6
Continuous
 62
     7
370
    25
100
AcDbSpline
210
0.0
220
0.0
230
1.0
 70
     8
 71
     3
 72
    14
 73
    10
 74
     0
 42
0.000000001
 43
0.00000001
 40
0.0
 40
0.0
 40
0.0
 40
0.0
 40
0.1701291974699765
 40
0.3405027268623008
 40
0.5040834185604557
 40
0.6586186808794975
 40
0.8082018666178257
 40
0.9587487207614592
 40
1.0
 40
1.0
 40
1.0
 40
1.0
 10
128.0020184533793
 20
129.3754752439447
 30
0.0
 10
128.0146660610503
 20
129.3893880966901
 30
0.0
 10
128.0399794403193
 20
129.4172337831959
 30
0.0
 10
128.0696288124842
 20
129.504161727833
 30
0.0
 10
128.0874554232413
 20
129.6111485132887
 30
0.0
 10
128.0914833673508
 20
129.7256399754268
 30
0.0
 10
128.0826325570944
 20
129.8337476126382
 30
0.0
 10
128.067752482169
 20
129.904717445606
 30
0.0
 10
128.05697061066
 20
129.937300578522
 30
0.0
 10
128.0546516830224
 20
129.9443084460683
 30
0.0
  0
ARC
  5
133
330
1F
100
AcDbEntity
  8
0
  6
Continuous
 62
     7
370
    25
100
AcDbCircle
 10
154.0220183486
 20
138.9967029263
 30
0.0
 40
27.49999999999995
100
AcDbArc
 50
194.0996569994
 51
199.2188939127
  0
ELLIPSE
  5
134
330
1F
100
AcDbEntity
  8
0
  6
Continuous
 62
     7
370
    25
100
AcDbEllipse
 10
154.0220183486
 20
107.2954966219
 30
0.0
 11
0.0
 21
102.6313972081416
 31
0.0
210
0.0
220
0.0
230
1.0
 40
0.2679491924
 41
1.317102872906332
 42
1.324710888753103
  0
ELLIPSE
  5
135
330
1F
100
AcDbEntity
  8
0
  6
Continuous
 62
     7
370
    25
100
AcDbEllipse
 10
154.0220183486
 20
131.2046382131
 30
0.0
 11
27.5
 21
0.0
 31
0.0
210
0.0
220
0.0
230
1.0
 40
0.2679491924
 41
2.764875182020502
 42
2.887899199701224
  0
SPLINE
  5
136
330
1F
100
AcDbEntity
  8
0
  6
Continuous
 62
     7
370
    25
100
AcDbSpline
210
0.0
220
0.0
230
1.0
 70
     8
 71
     3
 72
    14
 73
    10
 74
     0
 42
0.000000001
 43
0.00000001
 40
0.0
 40
0.0
 40
0.0
 40
0.0
 40
0.1732273964452408
 40
0.3467930925546338
 40
0.5110348008281844
 40
0.663377230211038
 40
0.8094932572162443
 40
0.9570274380253022
 40
1.0
 40
1.0
 40
1.0
 40
1.0
 10
128.450395790686
 20
133.9153263431974
 30
0.0
 10
128.4651411813191
 20
133.9293784194588
 30
0.0
 10
128.4946607591889
 20
133.9575100145963
 30
0.0
 10
128.5291198236377
 20
134.0458445108031
 30
0.0
 10
128.5494279854512
 20
134.1540881441253
 30
0.0
 10
128.5535917766206
 20
134.2681944373215
 30
0.0
 10
128.5432603515851
 20
134.3745805272948
 30
0.0
 10
128.5263174425409
 20
134.4445755703115
 30
0.0
 10
128.5139991111918
 20
134.4768739967322
 30
0.0
 10
128.5112204680341
 20
134.484159545321
 30
0.0
  0
ARC
  5
137
330
1F
100
AcDbEntity
  8
0
  6
Continuous
 62
     7
370
    25
100
AcDbCircle
 10
154.0220183486
 20
144.7530038218
 30
0.0
 40
27.49999999999995
100
AcDbArc
 50
196.728907435
 51
201.9262342158
  0
ELLIPSE
  5
138
330
1F
100
AcDbEntity
  8
0
  6
Continuous
 62
     7
370
    25
100
AcDbEllipse
 10
154.0220183486
 20
107.2954966219
 30
0.0
 11
0.0
 21
102.6313972081381
 31
0.0
210
0.0
220
0.0
230
1.0
 40
0.2679491924
 41
1.27111534207936
 42
1.278821811792359
  0
ELLIPSE
  5
139
330
1F
100
AcDbEntity
  8
0
  6
Continuous
 62
     7
370
    25
100
AcDbEllipse
 10
154.0220183486
 20
135.4185429323
 30
0.0
 11
27.5
 21
0.0
 31
0.0
210
0.0
220
0.0
230
1.0
 40
0.2679491924
 41
2.716829892620875
 42
2.841911668874254
  0
SPLINE
  5
13A
330
1F
100
AcDbEntity
  8
0
  6
Continuous
 62
     7
370
    25
100
AcDbSpline
210
0.0
220
0.0
230
1.0
 70
     8
 71
     3
 72
    14
 73
    10
 74
     0
 42
0.000000001
 43
0.00000001
 40
0.0
 40
0.0
 40
0.0
 40
0.0
 40
0.1770387338509731
 40
0.3545282138763662
 40
0.5194636129264281
 40
0.6691218060224
 40
0.8112404664073942
 40
0.9553885741951186
 40
1.0
 40
1.0
 40
1.0
 40
1.0
 10
128.9657636264461
 20
138.4551774424501
 30
0.0
 10
128.9827944632551
 20
138.4694079053133
 30
0.0
 10
129.0168994979183
 20
138.4979050622449
 30
0.0
 10
129.0565603404365
 20
138.5879936913251
 30
0.0
 10
129.0793535695738
 20
138.697802262293
 30
0.0
 10
129.0834247474906
 20
138.8114201583926
 30
0.0
 10
129.0714661083766
 20
138.9157697041421
 30
0.0
 10
129.0524182973142
 20
138.9845459444272
 30
0.0
 10
129.0385413811291
 20
139.0164665330568
 30
0.0
 10
129.0352617109316
 20
139.0240106445737
 30
0.0
  0
ARC
  5
13B
330
1F
100
AcDbEntity
  8
0
  6
Continuous
 62
     7
370
    25
100
AcDbCircle
 10
154.0220183486
 20
150.5093047173
 30
0.0
 40
27.49999999999997
100
AcDbArc
 50
199.394966115
 51
204.6861281258
  0
ELLIPSE
  5
13C
330
1F
100
AcDbEntity
  8
0
  6
Continuous
 62
     7
370
    25
100
AcDbEllipse
 10
154.0220183486
 20
107.2954966219
 30
0.0
 11
0.0
 21
102.6313972081416
 31
0.0
210
0.0
220
0.0
230
1.0
 40
0.2679491924
 41
1.224464259782223
 42
1.232290309776086
  0
ELLIPSE
  5
13D
330
1F
100
AcDbEntity
  8
0
  6
Continuous
 62
     7
370
    25
100
AcDbEllipse
 10
154.0220183486
 20
139.6324476515
 30
0.0
 11
27.5
 21
0.0
 31
0.0
210
0.0
220
0.0
230
1.0
 40
0.2679491924
 41
2.667716012518339
 42
2.795260586577116
  0
SPLINE
  5
13E
330
1F
100
AcDbEntity
  8
0
  6
Continuous
 62
     7
370
    25
100
AcDbSpline
210
0.0
220
0.0
230
1.0
 70
     8
 71
     3
 72
    14
 73
    10
 74
     0
 42
0.000000001
 43
0.00000001
 40
0.0
 40
0.0
 40
0.0
 40
0.0
 40
0.1817291617716954
 40
0.3640576563999118
 40
0.5296636675603661
 40
0.6760347150408633
 40
0.8135657779226558
 40
0.9539927631614747
 40
1.0
 40
1.0
 40
1.0
 40
1.0
 10
129.5523552874225
 20
142.9950285417028
 30
0.0
 10
129.5719168829303
 20
143.009486411776
 30
0.0
 10
129.61110458702
 20
143.0384498331889
 30
0.0
 10
129.6564580930072
 20
143.1307461254438
 30
0.0
 10
129.681703391956
 20
143.242501858398
 30
0.0
 10
129.6853724970824
 20
143.355483084675
 30
0.0
 10
129.6715882472449
 20
143.4574182332737
 30
0.0
 10
129.6503946793679
 20
143.5246901086202
 30
0.0
 10
129.6349388056994
 20
143.5561084854073
 30
0.0
 10
129.6311246881384
 20
143.5638617438264
 30
0.0
  0
ARC
  5
13F
330
1F
100
AcDbEntity
  8
0
  6
Continuous
 62
     7
370
    25
100
AcDbCircle
 10
154.0220183486
 20
156.2656056129
 30
0.0
 40
27.49999999999994
100
AcDbArc
 50
202.10547446
 51
207.5085924803
  0
ELLIPSE
  5
140
330
1F
100
AcDbEntity
  8
0
  6
Continuous
 62
     7
370
    25
100
AcDbEllipse
 10
154.0220183486
 20
107.2954966219
 30
0.0
 11
0.0
 21
102.6313972081417
 31
0.0
210
0.0
220
0.0
230
1.0
 40
0.2679491924
 41
1.177013475360769
 42
1.184983014752935
  0
ELLIPSE
  5
141
330
1F
100
AcDbEntity
  8
0
  6
Continuous
 62
     7
370
    25
100
AcDbEllipse
 10
154.0220183486
 20
143.8463523707
 30
0.0
 11
27.5
 21
0.0
 31
0.0
210
0.0
220
0.0
230
1.0
 40
0.2679491924
 41
2.617331309201183
 42
2.747809802155669
  0
SPLINE
  5
142
330
1F
100
AcDbEntity
  8
0
  6
Continuous
 62
     7
370
    25
100
AcDbSpline
210
0.0
220
0.0
230
1.0
 70
     8
 71
     3
 72
    14
 73
    10
 74
     0
 42
0.000000001
 43
0.00000001
 40
0.0
 40
0.0
 40
0.0
 40
0.0
 40
0.1875215741639771
 40
0.3758395989384637
 40
0.5420127830762772
 40
0.6843270918987133
 40
0.8166577637220632
 40
0.953059541790579
 40
0.9999999999999999
 40
0.9999999999999999
 40
0.9999999999999999
 40
0.9999999999999999
 10
130.2154355401295
 20
147.5348796409555
 30
0.0
 10
130.2378514641439
 20
147.5496265967996
 30
0.0
 10
130.2827785181585
 20
147.579183142465
 30
0.0
 10
130.3344551326683
 20
147.67427490319
 30
0.0
 10
130.3620482929189
 20
147.788472237824
 30
0.0
 10
130.3648741812966
 20
147.9005980875428
 30
0.0
 10
130.3490221927202
 20
147.9996804663768
 30
0.0
 10
130.3256225739916
 20
148.0650787070047
 30
0.0
 10
130.3085844551879
 20
148.0958377222243
 30
0.0
 10
130.3042222464579
 20
148.1037128430791
 30
0.0
  0
ARC
  5
143
330
1F
100
AcDbEntity
  8
0
  6
Continuous
 62
     7
370
    25
100
AcDbCircle
 10
154.0220183486
 20
162.0219065084
 30
0.0
 40
27.49999999999995
100
AcDbArc
 50
204.8691466865
 51
210.4054734941
  0
ELLIPSE
  5
144
330
1F
100
AcDbEntity
  8
0
  6
Continuous
 62
     7
370
    25
100
AcDbEllipse
 10
154.0220183486
 20
107.2954966219
 30
0.0
 11
0.0
 21
102.6313972081435
 31
0.0
210
0.0
220
0.0
230
1.0
 40
0.2679491924
 41
1.128607256616628
 42
1.136747834953825
  0
ELLIPSE
  5
145
330
1F
100
AcDbEntity
  8
0
  6
Continuous
 62
     7
370
    25
100
AcDbEllipse
 10
154.0220183486
 20
148.0602570899
 30
0.0
 11
27.5
 21
0.0
 31
0.0
210
0.0
220
0.0
230
1.0
 40
0.2679491924
 41
2.565432258058371
 42
2.699403583411526
  0
SPLINE
  5
146
330
1F
100
AcDbEntity
  8
0
  6
Continuous
 62
     7
370
    25
100
AcDbSpline
210
0.0
220
0.0
230
1.0
 70
     8
 71
     3
 72
    14
 73
    10
 74
     0
 42
0.000000001
 43
0.00000001
 40
0.0
 40
0.0
 40
0.0
 40
0.0
 40
0.2294649022416151
 40
0.3884538871253493
 40
0.5483378727018016
 40
0.6862048744939898
 40
0.8127969720272659
 40
0.9442145525935403
 40
1.0
 40
1.0
 40
1.0
 40
1.0
 10
130.9616000110406
 20
152.0747307402082
 30
0.0
 10
130.9919314957418
 20
152.093444659899
 30
0.0
 10
131.0432787084064
 20
152.1251248636087
 30
0.0
 10
131.0986571138718
 20
152.2250544720201
 30
0.0
 10
131.1265301266344
 20
152.3313772086625
 30
0.0
 10
131.1292717160407
 20
152.4407492691494
 30
0.0
 10
131.1121190754646
 20
152.5371120630204
 30
0.0
 10
131.0864678818051
 20
152.602800427741
 30
0.0
 10
131.0671124641663
 20
152.6342054289465
 30
0.0
 10
131.0613446587819
 20
152.6435639423318
 30
0.0
  0
ARC
  5
147
330
1F
100
AcDbEntity
  8
0
  6
Continuous
 62
     7
370
    25
100
AcDbCircle
 10
154.0220183486
 20
167.778207404
 30
0.0
 40
27.49999999999992
100
AcDbArc
 50
207.6961042954
 51
213.3910748114
  0
ELLIPSE
  5
148
330
1F
100
AcDbEntity
  8
0
  6
Continuous
 62
     7
370
    25
100
AcDbEllipse
 10
154.0220183486
 20
107.2954966219
 30
0.0
 11
0.0
 21
102.6313972081416
 31
0.0
210
0.0
220
0.0
230
1.0
 40
0.2679491924
 41
1.079064152663402
 42
1.087408116863841
  0
ELLIPSE
  5
149
330
1F
100
AcDbEntity
  8
0
  6
Continuous
 62
     7
370
    25
100
AcDbEllipse
 10
154.0220183486
 20
152.2741618091
 30
0.0
 11
27.5
 21
0.0
 31
0.0
210
0.0
220
0.0
230
1.0
 40
0.2679491924
 41
2.539648769640691
 42
2.649860479458293
  0
LINE
  5
14A
330
1F
100
AcDbEntity
  8
0
  6
Continuous
 62
     7
370
    25
100
AcDbLine
 10
136.2667374963
 20
156.4466047746
 30
0.0
 11
131.3555159325
 21
156.4466047746
 31
0.0
  0
LINE
  5
14B
330
1F
100
AcDbEntity
  8
0
  6
Continuous
 62
     7
370
    25
100
AcDbLine
 10
137.5220187659
 20
155.4466027481
 30
0.0
 11
137.5220187659
 21
124.9466005427
 31
0.0
  0
ARC
  5
14C
330
1F
100
AcDbEntity
  8
0
  6
Continuous
 62
     7
370
    25
100
AcDbCircle
 10
154.0220183486
 20
102.9466019136
 30
0.0
 40
27.49999999999993
100
AcDbArc
 50
126.8698976458
 51
128.5726508222
  0
ELLIPSE
  5
14D
330
1F
100
AcDbEntity
  8
0
  6
Continuous
 62
     7
370
    25
100
AcDbEllipse
 10
154.0220183486
 20
130.2075095509
 30
0.0
 11
27.5
 21
0.0
 31
0.0
210
0.0
220
0.0
230
1.0
 40
0.2679491924
 41
3.361640021177549
 42
4.039169222314738
  0
ELLIPSE
  5
14E
330
1F
100
AcDbEntity
  8
0
  6
Continuous
 62
     7
370
    25
100
AcDbEllipse
 10
154.0220183486
 20
126.990733494
 30
0.0
 11
27.5
 21
0.0
 31
0.0
210
0.0
220
0.0
230
1.0
 40
0.2679491924
 41
2.812023308287295
 42
2.921545286002089
  0
ELLIPSE
  5
14F
330
1F
100
AcDbEntity
  8
0
  6
Continuous
 62
     7
370
    25
100
AcDbEllipse
 10
149.5220183486
 20
138.2117196801
 30
0.0
 11
0.0
 21
10.35276180410065
 31
0.0
210
0.0
220
0.0
230
1.0
 40
0.9659258263
 41
0.0
 42
3.141592653589793
  0
LINE
  5
150
330
1F
100
AcDbEntity
  8
0
  6
Continuous
 62
     7
370
    25
100
AcDbLine
 10
161.5220189745
 20
127.8589579922
 30
0.0
 11
149.5220188702
 21
127.8589579922
 31
0.0
  0
LINE
  5
151
330
1F
100
AcDbEntity
  8
0
  6
Continuous
 62
     7
370
    25
100
AcDbLine
 10
137.5220187659
 20
124.9466005427
 30
0.0
 11
170.522018587
 21
124.9466005427
 31
0.0
  0
LINE
  5
152
330
1F
100
AcDbEntity
  8
0
  6
Continuous
 62
     7
370
    25
100
AcDbLine
 10
149.5220188702
 20
148.5644828242
 30
0.0
 11
161.5220189745
 21
148.5644828242
 31
0.0
  0
ARC
  5
153
330
1F
100
AcDbEntity
  8
0
  6
Continuous
 62
     7
370
    25
100
AcDbCircle
 10
149.3478492359
 20
139.2258032278
 30
0.0
 40
9.834067288077751
100
AcDbArc
 50
183.3759873209
 51
271.0148096863
  0
LINE
  5
154
330
1F
100
AcDbEntity
  8
0
  6
Continuous
 62
     7
370
    25
100
AcDbLine
 10
161.5220189745
 20
129.3932784063
 30
0.0
 11
149.5220188702
 21
129.3932784063
 31
0.0
  0
LINE
  5
155
330
1F
100
AcDbEntity
  8
0
  6
Continuous
 62
     7
370
    25
100
AcDbLine
 10
156.3720174784
 20
112.946602301
 30
0.0
 11
179.6393946463
 21
112.946602301
 31
0.0
  0
LINE
  5
156
330
1F
100
AcDbEntity
  8
0
  6
Continuous
 62
     7
370
    25
100
AcDbLine
 10
156.3720174784
 20
112.946602301
 30
0.0
 11
156.3720174784
 21
121.9971131247
 31
0.0
  0
ELLIPSE
  5
157
330
1F
100
AcDbEntity
  8
0
  6
Continuous
 62
     7
370
    25
100
AcDbEllipse
 10
153.3720183486
 20
121.9971121708
 30
0.0
 11
3.0
 21
0.0
 31
0.0
210
0.0
220
0.0
230
1.0
 40
0.8164965809
 41
0.0
 42
1.570796326794897
  0
LINE
  5
158
330
1F
100
AcDbEntity
  8
0
  6
Continuous
 62
     7
370
    25
100
AcDbLine
 10
153.3720188493
 20
124.4466032547
 30
0.0
 11
136.8755896295
 21
124.4466032547
 31
0.0
  0
LINE
  5
159
330
1F
100
AcDbEntity
  8
0
  6
Continuous
 62
     7
370
    25
100
AcDbLine
 10
161.5220189745
 20
144.3651269835
 30
0.0
 11
149.5220188702
 21
144.3651269835
 31
0.0
  0
ARC
  5
15A
330
1F
100
AcDbEntity
  8
0
  6
Continuous
 62
     7
370
    25
100
AcDbCircle
 10
149.3801889955
 20
139.0525351924
 30
0.0
 40
5.314484664834965
100
AcDbArc
 50
88.4707420082
 51
271.5292579918
  0
LINE
  5
15B
330
1F
100
AcDbEntity
  8
0
  6
Continuous
 62
     7
370
    25
100
AcDbLine
 10
149.5220188702
 20
133.7399434012
 30
0.0
 11
161.5220189745
 21
133.7399434012
 31
0.0
  0
ARC
  5
15C
330
1F
100
AcDbEntity
  8
0
  6
Continuous
 62
     7
370
    25
100
AcDbCircle
 10
161.6638476489
 20
139.0525351924
 30
0.0
 40
5.314484632805611
100
AcDbArc
 50
268.4707549427
 51
91.5292450573
  0
ELLIPSE
  5
15D
330
1F
100
AcDbEntity
  8
0
  6
Continuous
 62
     7
370
    25
100
AcDbEllipse
 10
149.5220183486
 20
141.7630500345
 30
0.0
 11
0.0
 21
7.77817459305129
 31
0.0
210
0.0
220
0.0
230
1.0
 40
0.7071067812
 41
1.779360585988421
 42
1.930657606788484
  0
SPLINE
  5
15E
330
1F
100
AcDbEntity
  8
0
  6
Continuous
 62
     7
370
    25
100
AcDbSpline
210
0.0
220
0.0
230
1.0
 70
     8
 71
     3
 72
    13
 73
     9
 74
     0
 42
0.000000001
 43
0.00000001
 40
0.0
 40
0.0
 40
0.0
 40
0.0
 40
0.155165716383757
 40
0.3100201176134813
 40
0.473301749466184
 40
0.6478777748424283
 40
0.8289166527899094
 40
1.0
 40
1.0
 40
1.0
 40
1.0
 10
144.3743177408475
 20
139.0240106445737
 30
0.0
 10
144.3828694560802
 20
138.9941334849784
 30
0.0
 10
144.3999557288991
 20
138.9344391095223
 30
0.0
 10
144.4401683711773
 20
138.8226278468544
 30
0.0
 10
144.4886306263993
 20
138.7064229470007
 30
0.0
 10
144.5431485798406
 20
138.5949127815544
 30
0.0
 10
144.5975152621653
 20
138.5014671608981
 30
0.0
 10
144.6235743101275
 20
138.4703137490794
 30
0.0
 10
144.6362354511517
 20
138.4551774424501
 30
0.0
  0
ELLIPSE
  5
15F
330
1F
100
AcDbEntity
  8
0
  6
Continuous
 62
     7
370
    25
100
AcDbEllipse
 10
149.5220183486
 20
139.762572423
 30
0.0
 11
5.5
 21
0.0
 31
0.0
210
0.0
220
0.0
230
1.0
 40
0.5176380902
 41
3.618705804060435
 42
4.007599833941542
  0
ARC
  5
160
330
1F
100
AcDbEntity
  8
0
  6
Continuous
 62
     7
370
    25
100
AcDbCircle
 10
149.4640038573
 20
141.8653773926
 30
0.0
 40
5.525652911322986
100
AcDbArc
 50
230.626993405
 51
245.4986186744
  0
ELLIPSE
  5
161
330
1F
100
AcDbEntity
  8
0
  6
Continuous
 62
     7
370
    25
100
AcDbEllipse
 10
149.5220183486
 20
143.8700023941
 30
0.0
 11
0.0
 21
7.778174593051317
 31
0.0
210
0.0
220
0.0
230
1.0
 40
0.7071067812
 41
2.700201675689348
 42
3.141592653589793
  0
ELLIPSE
  5
162
330
1F
100
AcDbEntity
  8
0
  6
Continuous
 62
     7
370
    25
100
AcDbEllipse
 10
161.5220183486
 20
143.8700023941
 30
0.0
 11
0.0
 21
7.778174593051317
 31
0.0
210
0.0
220
0.0
230
1.0
 40
0.7071067812
 41
3.141592653589793
 42
3.582983631490249
  0
ARC
  5
163
330
1F
100
AcDbEntity
  8
0
  6
Continuous
 62
     7
370
    25
100
AcDbCircle
 10
161.5800152131
 20
141.8654131528
 30
0.0
 40
5.525692464903934
100
AcDbArc
 50
294.5013871153
 51
309.3729218593
  0
ELLIPSE
  5
164
330
1F
100
AcDbEntity
  8
0
  6
Continuous
 62
     7
370
    25
100
AcDbEllipse
 10
161.5220183486
 20
139.762572423
 30
0.0
 11
5.499999999999972
 21
0.0
 31
0.0
210
0.0
220
0.0
230
1.0
 40
0.5176380902
 41
5.417178126827865
 42
5.806072156708988
  0
SPLINE
  5
165
330
1F
100
AcDbEntity
  8
0
  6
Continuous
 62
     7
370
    25
100
AcDbSpline
210
0.0
220
0.0
230
1.0
 70
     8
 71
     3
 72
    13
 73
     9
 74
     0
 42
0.000000001
 43
0.00000001
 40
0.0
 40
0.0
 40
0.0
 40
0.0
 40
0.161628583214985
 40
0.3227563867543421
 40
0.4966928576908854
 40
0.6777886474012487
 40
0.8541203927513349
 40
1.0
 40
1.0
 40
1.0
 40
1.0
 10
166.4078005308407
 20
138.4551774424501
 30
0.0
 10
166.4196588102678
 20
138.4692344195316
 30
0.0
 10
166.4433386281864
 20
138.4973048204548
 30
0.0
 10
166.4935521055996
 20
138.5816933667393
 30
0.0
 10
166.5478636905096
 20
138.6895849220269
 30
0.0
 10
166.6010409601641
 20
138.8146022435751
 30
0.0
 10
166.6441445848873
 20
138.9343417779073
 30
0.0
 10
166.6617482625494
 20
138.9960655224206
 30
0.0
 10
166.669718241145
 20
139.0240106445737
 30
0.0
  0
ELLIPSE
  5
166
330
1F
100
AcDbEntity
  8
0
  6
Continuous
 62
     7
370
    25
100
AcDbEllipse
 10
161.5220183486
 20
141.7630500345
 30
0.0
 11
0.0
 21
7.77817459305129
 31
0.0
210
0.0
220
0.0
230
1.0
 40
0.7071067812
 41
4.352527700391111
 42
4.503824721192879
  0
LINE
  5
167
330
1F
100
AcDbEntity
  8
0
  6
Continuous
 62
     7
370
    25
100
AcDbLine
 10
149.5220188702
 20
136.0918272001
 30
0.0
 11
161.5220189745
 21
136.0918272001
 31
0.0
  0
LINE
  5
168
330
1F
100
AcDbEntity
  8
0
  6
Continuous
 62
     7
370
    25
100
AcDbLine
 10
161.2381742055
 20
112.4466012877
 30
0.0
 11
180.2915514166
 21
112.4466012877
 31
0.0
  0
ELLIPSE
  5
169
330
1F
100
AcDbEntity
  8
0
  6
Continuous
 62
     7
370
    25
100
AcDbEllipse
 10
252.423518289
 20
109.4466019136
 30
0.0
 11
94.44966804337349
 21
-2.896513572665527
 31
0.0
210
0.0
220
0.0
230
1.0
 40
0.0082706361
 41
2.878170393465893
 42
3.143839319652708
  0
LINE
  5
16A
330
1F
100
AcDbEntity
  8
0
  6
Continuous
 62
     7
370
    25
100
AcDbLine
 10
156.3720174784
 20
112.3413525236
 30
0.0
 11
156.3720174784
 21
112.946602301
 31
0.0
  0
SPLINE
  5
16B
330
1F
100
AcDbEntity
  8
0
  6
Continuous
 62
     7
370
    25
100
AcDbSpline
210
0.0
220
0.0
230
1.0
 70
     8
 71
     3
 72
    18
 73
    14
 74
     0
 42
0.000000001
 43
0.00000001
 40
0.0
 40
0.0
 40
0.0
 40
0.0
 40
0.1874857268684046
 40
0.450736108091299
 40
0.6280852611375046
 40
0.7477649588766807
 40
0.8288060970371394
 40
0.8840014472955697
 40
0.9219468557495499
 40
0.9598495015735943
 40
0.9757513866658019
 40
0.9918345595891671
 40
1.0
 40
1.0
 40
1.0
 40
1.0
 10
156.3720174783963
 20
112.0879377883859
 30
0.0
 10
156.4768292409003
 20
112.1029235983016
 30
0.0
 10
156.7288081339198
 20
112.1389511175738
 30
0.0
 10
157.0785345199577
 20
112.188054071747
 30
0.0
 10
157.3883458728352
 20
112.2317235951619
 30
0.0
 10
157.5952660002023
 20
112.2617991483161
 30
0.0
 10
157.733140655355
 20
112.2830839258597
 30
0.0
 10
157.8249146000338
 20
112.2985846533038
 30
0.0
 10
157.8912007318347
 20
112.3113036556669
 30
0.0
 10
157.9350820159191
 20
112.3213893933841
 30
0.0
 10
157.962086292349
 20
112.3304137091283
 30
0.0
 10
157.9734750609642
 20
112.3364523679588
 30
0.0
 10
157.9738930984666
 20
112.3401181229417
 30
0.0
 10
157.9740338677663
 20
112.3413525235839
 30
0.0
  0
LINE
  5
16C
330
1F
100
AcDbEntity
  8
0
  6
Continuous
 62
     7
370
    25
100
AcDbLine
 10
156.3720174784
 20
109.8122100991
 30
0.0
 11
156.3720174784
 21
112.0879377884
 31
0.0
  0
LINE
  5
16D
330
1F
100
AcDbEntity
  8
0
  6
Continuous
 62
     7
370
    25
100
AcDbLine
 10
156.3720174784
 20
112.0879377884
 30
0.0
 11
156.3720174784
 21
112.3413525236
 31
0.0
  0
SPLINE
  5
16E
330
1F
100
AcDbEntity
  8
0
  6
Continuous
 62
     7
370
    25
100
AcDbSpline
210
0.0
220
0.0
230
1.0
 70
     8
 71
     3
 72
    10
 73
     6
 74
     0
 42
0.000000001
 43
0.00000001
 40
0.0
 40
0.0
 40
0.0
 40
0.0
 40
0.4382409595908108
 40
0.8768275745053605
 40
1.0
 40
1.0
 40
1.0
 40
1.0
 10
181.7097731584805
 20
108.1537089955993
 30
0.0
 10
181.6353246299549
 20
108.242137058727
 30
0.0
 10
181.4863688528554
 20
108.4190629311575
 30
0.0
 10
181.4123083596671
 20
108.6806813572703
 30
0.0
 10
181.4058618421188
 20
108.8284217930582
 30
0.0
 10
181.4044483656186
 20
108.8608156603761
 30
0.0
  0
LINE
  5
16F
330
1F
100
AcDbEntity
  8
0
  6
Continuous
 62
     7
370
    25
100
AcDbLine
 10
182.8173205907
 20
107.0714916748
 30
0.0
 11
181.7097731585
 21
108.1537089956
 31
0.0
  0
LINE
  5
170
330
1F
100
AcDbEntity
  8
0
  6
Continuous
 62
     7
370
    25
100
AcDbLine
 10
176.4871843809
 20
104.6733230066
 30
0.0
 11
182.8173205907
 21
107.0714916748
 31
0.0
  0
LINE
  5
171
330
1F
100
AcDbEntity
  8
0
  6
Continuous
 62
     7
370
    25
100
AcDbLine
 10
176.1637174243
 20
106.5025392634
 30
0.0
 11
176.4871843809
 21
104.6733230066
 31
0.0
  0
ARC
  5
172
330
1F
100
AcDbEntity
  8
0
  6
Continuous
 62
     7
370
    25
100
AcDbCircle
 10
173.8682002409
 20
106.0538391171
 30
0.0
 40
2.33895937564417
100
AcDbArc
 50
11.0600387311
 51
190.593858261
  0
LINE
  5
173
330
1F
100
AcDbEntity
  8
0
  6
Continuous
 62
     7
370
    25
100
AcDbLine
 10
174.0323931629
 20
91.6938125336
 30
0.0
 11
171.569108283
 21
105.6238308263
 31
0.0
  0
LINE
  5
174
330
1F
100
AcDbEntity
  8
0
  6
Continuous
 62
     7
370
    25
100
AcDbLine
 10
174.0323931629
 20
91.6938125336
 30
0.0
 11
169.6720190996
 21
91.6290587809
 31
0.0
  0
ELLIPSE
  5
175
330
1F
100
AcDbEntity
  8
0
  6
Continuous
 62
     7
370
    25
100
AcDbEllipse
 10
169.6720183486
 20
104.828450397
 30
0.0
 11
11.36553459929169
 21
7.024108230559904
 31
0.0
210
0.0
220
0.0
230
1.0
 40
0.9834098521
 41
2.59548294936114
 42
4.166279276156052
  0
CIRCLE
  5
176
330
1F
100
AcDbEntity
  8
0
  6
Continuous
 62
     7
370
    25
100
AcDbCircle
 10
166.9025097038
 20
102.1120967851
 30
0.0
 40
3.967606833198756
  0
LINE
  5
177
330
1F
100
AcDbEntity
  8
0
  6
Continuous
 62
     7
370
    25
100
AcDbLine
 10
156.3720174784
 20
104.6309394476
 30
0.0
 11
156.3720174784
 21
109.8122100991
 31
0.0
  0
LWPOLYLINE
  5
178
330
1F
100
AcDbEntity
  8
0
  6
Continuous
 62
     7
370
    25
100
AcDbPolyline
 90
        3
 70
   128
 43
0.0
 10
175.5952008719
 20
107.0753249985
 10
175.4474633092
 20
107.5740463746
 10
175.2245307619
 20
107.9797118616
  0
LINE
  5
179
330
1F
100
AcDbEntity
  8
0
  6
Continuous
 62
     7
370
    25
100
AcDbLine
 10
175.9186678285
 20
105.2461096731
 30
0.0
 11
176.4871843809
 21
104.6733230066
 31
0.0
  0
LINE
  5
17A
330
1F
100
AcDbEntity
  8
0
  6
Continuous
 62
     7
370
    25
100
AcDbLine
 10
175.9186678285
 20
105.2461096731
 30
0.0
 11
175.9253360981
 21
105.2083892462
 31
0.0
  0
LINE
  5
17B
330
1F
100
AcDbEntity
  8
0
  6
Continuous
 62
     7
370
    25
100
AcDbLine
 10
175.6505586857
 20
105.1094967586
 30
0.0
 11
175.6543137783
 21
105.105712795
 31
0.0
  0
LINE
  5
17C
330
1F
100
AcDbEntity
  8
0
  6
Continuous
 62
     7
370
    25
100
AcDbLine
 10
175.6505586857
 20
105.1094967586
 30
0.0
 11
175.2395772094
 21
107.4336215568
 31
0.0
  0
ELLIPSE
  5
17D
330
1F
100
AcDbEntity
  8
0
  6
Continuous
 62
     7
370
    25
100
AcDbEllipse
 10
136.9542382486
 20
89.3190986184
 30
0.0
 11
45.89409909329932
 21
17.68081372255747
 31
0.0
210
0.0
220
0.0
230
1.0
 40
0.1387298353
 41
0.0114237790225852
 42
0.0614879414459447
  0
ARC
  5
17E
330
1F
100
AcDbEntity
  8
0
  6
Continuous
 62
     7
370
    25
100
AcDbCircle
 10
173.578045277
 20
106.7204637394
 30
0.0
 40
2.048131638173919
100
AcDbArc
 50
9.977472737
 51
39.5863104862
  0
LINE
  5
17F
330
1F
100
AcDbEntity
  8
0
  6
Continuous
 62
     7
370
    25
100
AcDbLine
 10
171.9471693689
 20
103.7012643826
 30
0.0
 11
171.5336956734
 21
106.0394894046
 31
0.0
  0
LWPOLYLINE
  5
180
330
1F
100
AcDbEntity
  8
0
  6
Continuous
 62
     7
370
    25
100
AcDbPolyline
 90
        3
 70
   128
 43
0.0
 10
175.2395772094
 20
107.4336215568
 10
175.1075566465
 20
107.8792854858
 10
174.9810197109
 20
108.1286303413
  0
LINE
  5
181
330
1F
100
AcDbEntity
  8
0
  6
Continuous
 62
     7
370
    25
100
AcDbLine
 10
172.5539558286
 20
103.9311455277
 30
0.0
 11
171.876206314
 21
104.1025675547
 31
0.0
  0
LINE
  5
182
330
1F
100
AcDbEntity
  8
0
  6
Continuous
 62
     7
370
    25
100
AcDbLine
 10
177.0841509754
 20
97.4659824458
 30
0.0
 11
177.3112781996
 21
97.4465643701
 31
0.0
  0
ELLIPSE
  5
183
330
1F
100
AcDbEntity
  8
0
  6
Continuous
 62
     7
370
    25
100
AcDbEllipse
 10
153.0220183486
 20
152.2741618091
 30
0.0
 11
27.5
 21
0.0
 31
0.0
210
0.0
220
0.0
230
1.0
 40
0.2679491924
 41
2.539648769640693
 42
2.649860479458295
  0
ELLIPSE
  5
184
330
1F
100
AcDbEntity
  8
0
  6
Continuous
 62
     7
370
    25
100
AcDbEllipse
 10
153.0220183486
 20
107.2954966219
 30
0.0
 11
0.0
 21
102.6313972081416
 31
0.0
210
0.0
220
0.0
230
1.0
 40
0.2679491924
 41
1.079064152663402
 42
1.087408116863842
  0
ARC
  5
185
330
1F
100
AcDbEntity
  8
0
  6
Continuous
 62
     7
370
    25
100
AcDbCircle
 10
153.0220183486
 20
167.778207404
 30
0.0
 40
27.49999999999992
100
AcDbArc
 50
207.6961042954
 51
213.3910748114
  0
SPLINE
  5
186
330
1F
100
AcDbEntity
  8
0
  6
Continuous
 62
     7
370
    25
100
AcDbSpline
210
0.0
220
0.0
230
1.0
 70
     8
 71
     3
 72
    14
 73
    10
 74
     0
 42
0.000000001
 43
0.00000001
 40
0.0
 40
0.0
 40
0.0
 40
0.0
 40
0.25
 40
0.25
 40
0.5
 40
0.5
 40
0.75
 40
0.75
 40
1.0
 40
1.0
 40
1.0
 40
1.0
 10
130.0613442474043
 20
152.6435635423665
 30
0.0
 10
130.0882520661179
 20
152.6027418578983
 30
0.0
 10
130.1093471814741
 20
152.5496598431559
 30
0.0
 10
130.1303244361767
 20
152.4298636478252
 30
0.0
 10
130.1294250890288
 20
152.3627401677965
 30
0.0
 10
130.1053419138338
 20
152.2444073643989
 30
0.0
 10
130.0826350760436
 20
152.1923485820301
 30
0.0
 10
130.0277372742547
 20
152.1151202688144
 30
0.0
 10
129.9954347210763
 20
152.0886867644471
 30
0.0
 10
129.9615998106619
 20
152.0747324558248
 30
0.0
  0
ELLIPSE
  5
187
330
1F
100
AcDbEntity
  8
0
  6
Continuous
 62
     7
370
    25
100
AcDbEllipse
 10
153.0220183486
 20
148.0602570899
 30
0.0
 11
27.5
 21
0.0
 31
0.0
210
0.0
220
0.0
230
1.0
 40
0.2679491924
 41
2.565432258058371
 42
2.699403583411525
  0
ELLIPSE
  5
188
330
1F
100
AcDbEntity
  8
0
  6
Continuous
 62
     7
370
    25
100
AcDbEllipse
 10
153.0220183486
 20
107.2954966219
 30
0.0
 11
0.0
 21
102.6313972081435
 31
0.0
210
0.0
220
0.0
230
1.0
 40
0.2679491924
 41
1.128607256616628
 42
1.136747834953825
  0
ARC
  5
189
330
1F
100
AcDbEntity
  8
0
  6
Continuous
 62
     7
370
    25
100
AcDbCircle
 10
153.0220183486
 20
162.0219065084
 30
0.0
 40
27.49999999999995
100
AcDbArc
 50
204.8691466865
 51
210.4054734941
  0
SPLINE
  5
18A
330
1F
100
AcDbEntity
  8
0
  6
Continuous
 62
     7
370
    25
100
AcDbSpline
210
0.0
220
0.0
230
1.0
 70
     8
 71
     3
 72
    14
 73
    10
 74
     0
 42
0.000000001
 43
0.00000001
 40
0.0
 40
0.0
 40
0.0
 40
0.0
 40
0.25
 40
0.25
 40
0.5
 40
0.5
 40
0.75
 40
0.75
 40
1.0
 40
1.0
 40
1.0
 40
1.0
 10
129.3042219491657
 20
148.1037121588079
 30
0.0
 10
129.3283393272696
 20
148.0626140788999
 30
0.0
 10
129.3469732740962
 20
148.0095173507131
 30
0.0
 10
129.3655371579681
 20
147.8908668258586
 30
0.0
 10
129.3649143171479
 20
147.8248006161209
 30
0.0
 10
129.344130554823
 20
147.7071898866323
 30
0.0
 10
129.3242913712108
 20
147.6548128836817
 30
0.0
 10
129.2752322234293
 20
147.5762060566057
 30
0.0
 10
129.2461007499942
 20
147.5490912089442
 30
0.0
 10
129.2154352922672
 20
147.5348810722651
 30
0.0
  0
ELLIPSE
  5
18B
330
1F
100
AcDbEntity
  8
0
  6
Continuous
 62
     7
370
    25
100
AcDbEllipse
 10
153.0220183486
 20
143.8463523707
 30
0.0
 11
27.5
 21
0.0
 31
0.0
210
0.0
220
0.0
230
1.0
 40
0.2679491924
 41
2.617331309201181
 42
2.747809802155667
  0
ELLIPSE
  5
18C
330
1F
100
AcDbEntity
  8
0
  6
Continuous
 62
     7
370
    25
100
AcDbEllipse
 10
153.0220183486
 20
107.2954966219
 30
0.0
 11
0.0
 21
102.6313972081417
 31
0.0
210
0.0
220
0.0
230
1.0
 40
0.2679491924
 41
1.177013475360769
 42
1.184983014752936
  0
ARC
  5
18D
330
1F
100
AcDbEntity
  8
0
  6
Continuous
 62
     7
370
    25
100
AcDbCircle
 10
153.0220183486
 20
156.2656056129
 30
0.0
 40
27.49999999999994
100
AcDbArc
 50
202.10547446
 51
207.5085924803
  0
SPLINE
  5
18E
330
1F
100
AcDbEntity
  8
0
  6
Continuous
 62
     7
370
    25
100
AcDbSpline
210
0.0
220
0.0
230
1.0
 70
     8
 71
     3
 72
    14
 73
    10
 74
     0
 42
0.000000001
 43
0.00000001
 40
0.0
 40
0.0
 40
0.0
 40
0.0
 40
0.25
 40
0.25
 40
0.5
 40
0.5
 40
0.75
 40
0.75
 40
1.0
 40
1.0
 40
1.0
 40
1.0
 10
128.6311250054214
 20
143.5638607752493
 30
0.0
 10
128.6526510647285
 20
143.5225247365105
 30
0.0
 10
128.6690763773279
 20
143.4694303967824
 30
0.0
 10
128.685471409175
 20
143.3517296706191
 30
0.0
 10
128.6850484302283
 20
143.2865526208411
 30
0.0
 10
128.6670775329205
 20
143.1695229050498
 30
0.0
 10
128.6498115407078
 20
143.1170327455457
 30
0.0
 10
128.6060900868974
 20
143.0371309004699
 30
0.0
 10
128.579991671417
 20
143.0094686257646
 30
0.0
 10
128.5523556688473
 20
142.9950296887073
 30
0.0
  0
ELLIPSE
  5
18F
330
1F
100
AcDbEntity
  8
0
  6
Continuous
 62
     7
370
    25
100
AcDbEllipse
 10
153.0220183486
 20
139.6324476515
 30
0.0
 11
27.5
 21
0.0
 31
0.0
210
0.0
220
0.0
230
1.0
 40
0.2679491924
 41
2.667716012518339
 42
2.795260586577116
  0
ELLIPSE
  5
190
330
1F
100
AcDbEntity
  8
0
  6
Continuous
 62
     7
370
    25
100
AcDbEllipse
 10
153.0220183486
 20
107.2954966219
 30
0.0
 11
0.0
 21
102.6313972081416
 31
0.0
210
0.0
220
0.0
230
1.0
 40
0.2679491924
 41
1.224464259782224
 42
1.232290309776086
  0
ARC
  5
191
330
1F
100
AcDbEntity
  8
0
  6
Continuous
 62
     7
370
    25
100
AcDbCircle
 10
153.0220183486
 20
150.5093047173
 30
0.0
 40
27.49999999999997
100
AcDbArc
 50
199.394966115
 51
204.6861281258
  0
SPLINE
  5
192
330
1F
100
AcDbEntity
  8
0
  6
Continuous
 62
     7
370
    25
100
AcDbSpline
210
0.0
220
0.0
230
1.0
 70
     8
 71
     3
 72
    14
 73
    10
 74
     0
 42
0.000000001
 43
0.00000001
 40
0.0
 40
0.0
 40
0.0
 40
0.0
 40
0.25
 40
0.25
 40
0.5
 40
0.5
 40
0.75
 40
0.75
 40
1.0
 40
1.0
 40
1.0
 40
1.0
 10
128.0352620308781
 20
139.0240093916907
 30
0.0
 10
128.0543565136958
 20
138.9824685191531
 30
0.0
 10
128.0687724070931
 20
138.9293868282472
 30
0.0
 10
128.08318913358
 20
138.8124753976851
 30
0.0
 10
128.0829106971193
 20
138.7480527747646
 30
0.0
 10
128.0673879386976
 20
138.6314890423789
 30
0.0
 10
128.0524456902937
 20
138.5790421581444
 30
0.0
 10
128.0136784908663
 20
138.4979238215727
 30
0.0
 10
127.9904804794921
 20
138.4698208652952
 30
0.0
 10
127.9657638864245
 20
138.4551783051489
 30
0.0
  0
ELLIPSE
  5
193
330
1F
100
AcDbEntity
  8
0
  6
Continuous
 62
     7
370
    25
100
AcDbEllipse
 10
153.0220183486
 20
135.4185429323
 30
0.0
 11
27.5
 21
0.0
 31
0.0
210
0.0
220
0.0
230
1.0
 40
0.2679491924
 41
2.716829892620875
 42
2.841911668874254
  0
ELLIPSE
  5
194
330
1F
100
AcDbEntity
  8
0
  6
Continuous
 62
     7
370
    25
100
AcDbEllipse
 10
153.0220183486
 20
107.2954966219
 30
0.0
 11
0.0
 21
102.6313972081381
 31
0.0
210
0.0
220
0.0
230
1.0
 40
0.2679491924
 41
1.27111534207936
 42
1.27882181179236
  0
ARC
  5
195
330
1F
100
AcDbEntity
  8
0
  6
Continuous
 62
     7
370
    25
100
AcDbCircle
 10
153.0220183486
 20
144.7530038218
 30
0.0
 40
27.49999999999998
100
AcDbArc
 50
196.728907435
 51
201.9262342158
  0
SPLINE
  5
196
330
1F
100
AcDbEntity
  8
0
  6
Continuous
 62
     7
370
    25
100
AcDbSpline
210
0.0
220
0.0
230
1.0
 70
     8
 71
     3
 72
    14
 73
    10
 74
     0
 42
0.000000001
 43
0.00000001
 40
0.0
 40
0.0
 40
0.0
 40
0.0
 40
0.25
 40
0.25
 40
0.5
 40
0.5
 40
0.75
 40
0.75
 40
1.0
 40
1.0
 40
1.0
 40
1.0
 10
127.5112205238805
 20
134.4841580081321
 30
0.0
 10
127.5280127026676
 20
134.4424413550779
 30
0.0
 10
127.5405779189912
 20
134.3893779583596
 30
0.0
 10
127.5531667133328
 20
134.2731225833228
 30
0.0
 10
127.5529920487164
 20
134.2093424089997
 30
0.0
 10
127.5396396773379
 20
134.0931511104095
 30
0.0
 10
127.5267378949597
 20
134.0406925483366
 30
0.0
 10
127.4927646690983
 20
133.9587659192977
 30
0.0
 10
127.4722801803824
 20
133.930149364085
 30
0.0
 10
127.4503957005298
 20
133.9153269215903
 30
0.0
  0
ELLIPSE
  5
197
330
1F
100
AcDbEntity
  8
0
  6
Continuous
 62
     7
370
    25
100
AcDbEllipse
 10
153.0220183486
 20
131.2046382131
 30
0.0
 11
27.5
 21
0.0
 31
0.0
210
0.0
220
0.0
230
1.0
 40
0.2679491924
 41
2.764875182020503
 42
2.887899199701224
  0
ELLIPSE
  5
198
330
1F
100
AcDbEntity
  8
0
  6
Continuous
 62
     7
370
    25
100
AcDbEllipse
 10
153.0220183486
 20
107.2954966219
 30
0.0
 11
0.0
 21
102.6313972081416
 31
0.0
210
0.0
220
0.0
230
1.0
 40
0.2679491924
 41
1.317102872906332
 42
1.324710888753103
  0
ARC
  5
199
330
1F
100
AcDbEntity
  8
0
  6
Continuous
 62
     7
370
    25
100
AcDbCircle
 10
153.0220183486
 20
138.9967029263
 30
0.0
 40
27.49999999999996
100
AcDbArc
 50
194.0996569994
 51
199.2188939127
  0
SPLINE
  5
19A
330
1F
100
AcDbEntity
  8
0
  6
Continuous
 62
     7
370
    25
100
AcDbSpline
210
0.0
220
0.0
230
1.0
 70
     8
 71
     3
 72
    12
 73
     8
 74
     0
 42
0.000000001
 43
0.00000001
 40
0.0
 40
0.0
 40
0.0
 40
0.0
 40
0.2499999999999995
 40
0.2499999999999995
 40
0.499999999999999
 40
0.499999999999999
 40
1.0
 40
1.0
 40
1.0
 40
1.0
 10
127.0546518822866
 20
129.9443066245734
 30
0.0
 10
127.0692468437441
 20
129.9024400623839
 30
0.0
 10
127.0800886295379
 20
129.8493974360863
 30
0.0
 10
127.0909691093006
 20
129.7336858739763
 30
0.0
 10
127.0908676836559
 20
129.6704520007699
 30
0.0
 10
127.0737737172618
 20
129.4966094442602
 30
0.0
 10
127.0402625886174
 20
129.4054349409548
 30
0.0
 10
127.0020186712959
 20
129.3754755380317
 30
0.0
  0
ELLIPSE
  5
19B
330
1F
100
AcDbEntity
  8
0
  6
Continuous
 62
     7
370
    25
100
AcDbEllipse
 10
153.0220183486
 20
126.990733494
 30
0.0
 11
27.5
 21
0.0
 31
0.0
210
0.0
220
0.0
230
1.0
 40
0.2679491924
 41
2.812023308287295
 42
2.93334434835077
  0
ELLIPSE
  5
19C
330
1F
100
AcDbEntity
  8
0
  6
Continuous
 62
     7
370
    25
100
AcDbEllipse
 10
153.0220183486
 20
107.2954966219
 30
0.0
 11
0.0
 21
102.6313972081448
 31
0.0
210
0.0
220
0.0
230
1.0
 40
0.2679491924
 41
1.362548021555874
 42
1.370683045963245
  0
LINE
  5
19D
330
1F
100
AcDbEntity
  8
0
  6
Continuous
 62
     7
370
    25
100
AcDbLine
 10
125.5220181959
 20
127.6966023904
 30
0.0
 11
126.0776312741
 21
127.6966023904
 31
0.0
  0
ELLIPSE
  5
19E
330
1F
100
AcDbEntity
  8
0
  6
Continuous
 62
     7
370
    25
100
AcDbEllipse
 10
153.0220183486
 20
129.170322472
 30
0.0
 11
27.5
 21
0.0
 31
0.0
210
0.0
220
0.0
230
1.0
 40
0.2679491924
 41
3.342950574380174
 42
4.068887871591427
  0
ELLIPSE
  5
19F
330
1F
100
AcDbEntity
  8
0
  6
Continuous
 62
     7
370
    25
100
AcDbEllipse
 10
153.0220183486
 20
41.170322472
 30
0.0
 11
0.0
 21
102.6313972081433
 31
0.0
210
0.0
220
0.0
230
1.0
 40
0.2679491924
 41
0.6435011087932847
 42
0.850576981313127
  0
SPLINE
  5
1A0
330
1F
100
AcDbEntity
  8
0
  6
Continuous
 62
     7
370
    25
100
AcDbSpline
210
0.0
220
0.0
230
1.0
 70
     8
 71
     3
 72
    15
 73
    11
 74
     0
 42
0.000000001
 43
0.00000001
 40
0.0
 40
0.0
 40
0.0
 40
0.0
 40
0.1266257362275167
 40
0.2750498973212256
 40
0.4281627535149846
 40
0.5827254023922925
 40
0.6578970649818648
 40
0.7354369987870515
 40
0.881090867779827
 40
1.0
 40
1.0
 40
1.0
 40
1.0
 10
125.6128258722025
 20
123.9299911719747
 30
0.0
 10
125.6295577383831
 20
123.6797432865974
 30
0.0
 10
125.6659018356582
 20
123.1361677289856
 30
0.0
 10
125.6989804291278
 20
122.0927019840375
 30
0.0
 10
125.6926526383927
 20
120.9548303029264
 30
0.0
 10
125.6537008420133
 20
120.0624455386408
 30
0.0
 10
125.6131017274104
 20
119.4542336253216
 30
0.0
 10
125.5729987087372
 20
118.9540303291241
 30
0.0
 10
125.5304746617801
 20
118.5258253466274
 30
0.0
 10
125.5261201764585
 20
118.4861096569464
 30
0.0
 10
125.5241630317766
 20
118.468259246368
 30
0.0
  0
SPLINE
  5
1A1
330
1F
100
AcDbEntity
  8
0
  6
Continuous
 62
     7
370
    25
100
AcDbSpline
210
0.0
220
0.0
230
1.0
 70
     8
 71
     3
 72
    10
 73
     6
 74
     0
 42
0.000000001
 43
0.00000001
 40
0.0
 40
0.0
 40
0.0
 40
0.0
 40
0.3152961946470534
 40
0.7020167156455913
 40
1.0
 40
1.0
 40
1.0
 40
1.0
 10
125.5247320698696
 20
124.9195698362775
 30
0.0
 10
125.5259273243826
 20
124.9082004523895
 30
0.0
 10
125.5285885954723
 20
124.8828861680073
 30
0.0
 10
125.5678860521193
 20
124.5018334729937
 30
0.0
 10
125.5991986297904
 20
124.1033927041361
 30
0.0
 10
125.6128258722025
 20
123.9299911719747
 30
0.0
  0
LINE
  5
1A2
330
1F
100
AcDbEntity
  8
0
  6
Continuous
 62
     7
370
    25
100
AcDbLine
 10
150.6720178479
 20
123.2754390401
 30
0.0
 11
136.5220186019
 21
123.2754390401
 31
0.0
  0
LINE
  5
1A3
330
1F
100
AcDbEntity
  8
0
  6
Continuous
 62
     7
370
    25
100
AcDbLine
 10
128.1678609269
 20
127.6966023904
 30
0.0
 11
126.0776312741
 21
127.6966023904
 31
0.0
  0
LINE
  5
1A4
330
1F
100
AcDbEntity
  8
0
  6
Continuous
 62
     7
370
    25
100
AcDbLine
 10
150.6720178479
 20
124.4466032547
 30
0.0
 11
150.6720178479
 21
123.2754390401
 31
0.0
  0
SPLINE
  5
1A5
330
1F
100
AcDbEntity
  8
0
  6
Continuous
 62
     7
370
    25
100
AcDbSpline
210
0.0
220
0.0
230
1.0
 70
     8
 71
     3
 72
     8
 73
     4
 74
     0
 42
0.000000001
 43
0.00000001
 40
0.0
 40
0.0
 40
0.0
 40
0.0
 40
1.0
 40
1.0
 40
1.0
 40
1.0
 10
131.80153221744
 20
108.1537086947741
 30
0.0
 10
131.167536583497
 20
107.7410450267795
 30
0.0
 10
130.538983948689
 20
107.3207302068688
 30
0.0
 10
129.91509647092
 20
106.8938576373918
 30
0.0
  0
SPLINE
  5
1A6
330
1F
100
AcDbEntity
  8
0
  6
Continuous
 62
     7
370
    25
100
AcDbSpline
210
0.0
220
0.0
230
1.0
 70
     8
 71
     3
 72
    10
 73
     6
 74
     0
 42
0.000000001
 43
0.00000001
 40
0.0
 40
0.0
 40
0.0
 40
0.0
 40
0.5
 40
0.5
 40
1.0
 40
1.0
 40
1.0
 40
1.0
 10
132.3513387034067
 20
108.8608154759631
 30
0.0
 10
132.3163169481385
 20
108.7118587619913
 30
0.0
 10
132.2414670891873
 20
108.5766448985971
 30
0.0
 10
132.0489796846053
 20
108.3397572416909
 30
0.0
 10
131.931864883141
 20
108.2385413860545
 30
0.0
 10
131.80153221744
 20
108.1537086947741
 30
0.0
  0
ELLIPSE
  5
1A7
330
1F
100
AcDbEntity
  8
0
  6
Continuous
 62
     7
370
    25
100
AcDbEllipse
 10
137.3720183486
 20
107.4361208721
 30
0.0
 11
0.0
 21
13.85573468128079
 31
0.0
210
0.0
220
0.0
230
1.0
 40
0.9598913595
 41
3.141592653589793
 42
4.712388980384703
  0
LINE
  5
1A8
330
1F
100
AcDbEntity
  8
0
  6
Continuous
 62
     7
370
    25
100
AcDbLine
 10
137.3720180893
 20
93.5803861537
 30
0.0
 11
133.7857034708
 21
93.5803861537
 31
0.0
  0
LINE
  5
1A9
330
1F
100
AcDbEntity
  8
0
  6
Continuous
 62
     7
370
    25
100
AcDbLine
 10
126.3001824448
 20
96.4501088199
 30
0.0
 11
133.7857034708
 21
93.5803861537
 31
0.0
  0
LINE
  5
1AA
330
1F
100
AcDbEntity
  8
0
  6
Continuous
 62
     7
370
    25
100
AcDbLine
 10
125.8613320718
 20
97.1737781254
 30
0.0
 11
126.3001824448
 21
96.4501078886
 31
0.0
  0
ELLIPSE
  5
1AB
330
1F
100
AcDbEntity
  8
0
  6
Continuous
 62
     7
370
    25
100
AcDbEllipse
 10
153.0220183486
 20
-242.7183337349
 30
0.0
 11
0.0
 21
373.8848682785444
 31
0.0
210
0.0
220
0.0
230
1.0
 40
0.174367232
 41
0.3623121569221147
 42
0.4297207261416568
  0
ELLIPSE
  5
1AC
330
1F
100
AcDbEntity
  8
0
  6
Continuous
 62
     7
370
    25
100
AcDbEllipse
 10
142.7177096557
 20
104.6456365022
 30
0.0
 11
2.088225304438595
 21
3.909357488728091
 31
0.0
210
0.0
220
0.0
230
1.0
 40
0.9427838111
 41
0.0
 42
6.283185307179586
  0
LINE
  5
1AD
330
1F
100
AcDbEntity
  8
0
  6
Continuous
 62
     7
370
    25
100
AcDbLine
 10
150.6720178479
 20
123.2754390401
 30
0.0
 11
150.6720178479
 21
107.4361212266
 31
0.0
  0
LINE
  5
1AE
330
1F
100
AcDbEntity
  8
0
  6
Continuous
 62
     7
370
    25
100
AcDbLine
 10
138.9666416401
 20
106.4873605681
 30
0.0
 11
139.0168883557
 21
106.5108783257
 31
0.0
  0
LWPOLYLINE
  5
1AF
330
1F
100
AcDbEntity
  8
0
  6
Continuous
 62
     7
370
    25
100
AcDbPolyline
 90
        3
 70
   128
 43
0.0
 10
144.6105868274
 20
100.9588742343
 10
144.5405457819
 20
100.8114095491
 10
144.5266821141
 20
100.7839224947
  0
LINE
  5
1B0
330
1F
100
AcDbEntity
  8
0
  6
Continuous
 62
     7
370
    25
100
AcDbLine
 10
129.915096117
 20
106.8938567949
 30
0.0
 11
124.5134244857
 21
106.8938567949
 31
0.0
  0
LINE
  5
1B1
330
1F
100
AcDbEntity
  8
0
  6
Continuous
 62
     7
370
    25
100
AcDbLine
 10
124.5134244857
 20
106.8938567949
 30
0.0
 11
125.0972177552
 21
107.494829939
 31
0.0
  0
ELLIPSE
  5
1B2
330
1F
100
AcDbEntity
  8
0
  6
Continuous
 62
     7
370
    25
100
AcDbEllipse
 10
170.3253949932
 20
88.6754719376
 30
0.0
 11
46.52760216727552
 21
-17.92487232845514
 31
0.0
210
0.0
220
0.0
230
1.0
 40
0.1387298353
 41
2.952262609242826
 42
3.020169952071334
  0
LINE
  5
1B3
330
1F
100
AcDbEntity
  8
0
  6
Continuous
 62
     7
370
    25
100
AcDbLine
 10
124.4415629374
 20
107.2501994384
 30
0.0
 11
124.8195672127
 21
107.6350573164
 31
0.0
  0
ELLIPSE
  5
1B4
330
1F
100
AcDbEntity
  8
0
  6
Continuous
 62
     7
370
    25
100
AcDbEllipse
 10
170.0897984487
 20
89.3190986184
 30
0.0
 11
45.89409909329933
 21
-17.68081372255744
 31
0.0
210
0.0
220
0.0
230
1.0
 40
0.1387298353
 41
3.021568743409661
 42
3.027149533096607
  0
ELLIPSE
  5
1B5
330
1F
100
AcDbEntity
  8
0
  6
Continuous
 62
     7
370
    25
100
AcDbEllipse
 10
137.3720183486
 20
104.828450397
 30
0.0
 11
11.36553459929166
 21
-7.024108230559904
 31
0.0
210
0.0
220
0.0
230
1.0
 40
0.9834098521
 41
5.258498684613357
 42
6.829295011408238
  0
LINE
  5
1B6
330
1F
100
AcDbEntity
  8
0
  6
Continuous
 62
     7
370
    25
100
AcDbLine
 10
150.6720178479
 20
107.4361212266
 30
0.0
 11
150.6720178479
 21
104.6309394476
 31
0.0
  0
SPLINE
  5
1B7
330
1F
100
AcDbEntity
  8
0
  6
Continuous
 62
     7
370
    25
100
AcDbSpline
210
0.0
220
0.0
230
1.0
 70
     8
 71
     3
 72
    22
 73
    18
 74
     0
 42
0.000000001
 43
0.00000001
 40
0.0
 40
0.0
 40
0.0
 40
0.0
 40
0.0669581615093731
 40
0.1338541202075294
 40
0.2006925999380651
 40
0.2674783334200865
 40
0.334216061398948
 40
0.4009105317876294
 40
0.4675664987997026
 40
0.5341887220746564
 40
0.6007819657965981
 40
0.6673509978071348
 40
0.7339005887135018
 40
0.8004355109927489
 40
0.866960538093046
 40
0.9334804435330004
 40
1.0
 40
1.0
 40
1.0
 40
1.0
 10
122.7584328461301
 20
96.97116357602088
 30
0.0
 10
122.8053959985633
 20
96.98484936951793
 30
0.0
 10
122.8992786755876
 20
97.0122082426798
 30
0.0
 10
123.0521228148609
 20
97.04843330286977
 30
0.0
 10
123.2136170564205
 20
97.08110727751996
 30
0.0
 10
123.3845765334451
 20
97.10988706740238
 30
0.0
 10
123.5647125827757
 20
97.13486448551406
 30
0.0
 10
123.754029641882
 20
97.15601496524233
 30
0.0
 10
123.9524515364131
 20
97.17334504818372
 30
0.0
 10
124.1599210954206
 20
97.1868531012006
 30
0.0
 10
124.3763750970146
 20
97.19653911331122
 30
0.0
 10
124.60174504797
 20
97.20240475252422
 30
0.0
 10
124.8359791650634
 20
97.2044433555642
 30
0.0
 10
125.078953786753
 20
97.20267989503758
 30
0.0
 10
125.3308057296658
 20
97.19702116262722
 30
0.0
 10
125.5906917433419
 20
97.18781497156995
 30
0.0
 10
125.7711721163693
 20
97.17844740248671
 30
0.0
 10
125.861412066176
 20
97.17376363023104
 30
0.0
  0
SPLINE
  5
1B8
330
1F
100
AcDbEntity
  8
0
  6
Continuous
 62
     7
370
    25
100
AcDbSpline
210
0.0
220
0.0
230
1.0
 70
     8
 71
     3
 72
     8
 73
     4
 74
     0
 42
0.000000001
 43
0.00000001
 40
0.0
 40
0.0
 40
0.0
 40
0.0
 40
1.0
 40
1.0
 40
1.0
 40
1.0
 10
122.7584307646285
 20
96.97115204324095
 30
0.0
 10
123.337798729039
 20
100.2797965617249
 30
0.0
 10
123.9224280921343
 20
103.5874355311672
 30
0.0
 10
124.5134245266183
 20
106.8938576373917
 30
0.0
  0
SPLINE
  5
1B9
330
1F
100
AcDbEntity
  8
0
  6
Continuous
 62
     7
370
    25
100
AcDbSpline
210
0.0
220
0.0
230
1.0
 70
     8
 71
     3
 72
    22
 73
    18
 74
     0
 42
0.000000001
 43
0.00000001
 40
0.0
 40
0.0
 40
0.0
 40
0.0
 40
0.0669250192868723
 40
0.1337164794629519
 40
0.2003964975929424
 40
0.2669873017826905
 40
0.3335112095671661
 40
0.3999906058539546
 40
0.4664479205292623
 40
0.5329056058373466
 40
0.5993861136469469
 40
0.6659118727196162
 40
0.7325052660948272
 40
0.799188608705371
 40
0.8659841253338314
 40
0.9329139290170142
 40
1.0
 40
1.0
 40
1.0
 40
1.0
 10
126.300181228267
 20
96.45010943072168
 30
0.0
 10
126.2115228430218
 20
96.45494859686505
 30
0.0
 10
126.0343830038977
 20
96.4646172718557
 30
0.0
 10
125.7793735897164
 20
96.47431984255162
 30
0.0
 10
125.5325879490793
 20
96.48048315576244
 30
0.0
 10
125.2947666420789
 20
96.48276591510346
 30
0.0
 10
125.0657118469549
 20
96.48125933517068
 30
0.0
 10
124.8454765802852
 20
96.47593901536453
 30
0.0
 10
124.6340468457454
 20
96.46681144812221
 30
0.0
 10
124.4314262088364
 20
96.45387500915747
 30
0.0
 10
124.2376148525462
 20
96.43712971572522
 30
0.0
 10
124.0526088647228
 20
96.41657716253313
 30
0.0
 10
123.8764240443906
 20
96.39221101469772
 30
0.0
 10
123.7090012393636
 20
96.36405515903027
 30
0.0
 10
123.5505619105703
 20
96.33202031379201
 30
0.0
 10
123.4002772267854
 20
96.29644077218438
 30
0.0
 10
123.3077109100466
 20
96.26955779544163
 30
0.0
 10
123.2613737838603
 20
96.2561006338144
 30
0.0
  0
LINE
  5
1BA
330
1F
100
AcDbEntity
  8
0
  6
Continuous
 62
     7
370
    25
100
AcDbLine
 10
123.2613718787
 20
96.2560989608
 30
0.0
 11
122.7583640905
 21
96.9711758842
 31
0.0
  0
LINE
  5
1BB
330
1F
100
AcDbEntity
  8
0
  6
Continuous
 62
     7
370
    25
100
AcDbLine
 10
133.7857034708
 20
93.5803861537
 30
0.0
 11
132.8205338398
 21
92.6346199301
 31
0.0
  0
LINE
  5
1BC
330
1F
100
AcDbEntity
  8
0
  6
Continuous
 62
     7
370
    25
100
AcDbLine
 10
132.8205338398
 20
92.6346199301
 30
0.0
 11
132.3378954733
 21
92.8174669568
 31
0.0
  0
LINE
  5
1BD
330
1F
100
AcDbEntity
  8
0
  6
Continuous
 62
     7
370
    25
100
AcDbLine
 10
133.5794164518
 20
92.2624038246
 30
0.0
 11
133.5504243801
 21
92.2333693777
 31
0.0
  0
LINE
  5
1BE
330
1F
100
AcDbEntity
  8
0
  6
Continuous
 62
     7
370
    25
100
AcDbLine
 10
133.0754219273
 20
92.2698883985
 30
0.0
 11
133.5794164518
 21
92.2624038246
 31
0.0
  0
LINE
  5
1BF
330
1F
100
AcDbEntity
  8
0
  6
Continuous
 62
     7
370
    25
100
AcDbLine
 10
133.4305827225
 20
92.6255604898
 30
0.0
 11
133.0754219273
 21
92.2698883985
 31
0.0
  0
LINE
  5
1C0
330
1F
100
AcDbEntity
  8
0
  6
Continuous
 62
     7
370
    25
100
AcDbLine
 10
132.8205338398
 20
92.6346199301
 30
0.0
 11
133.4305827225
 21
92.6255604898
 31
0.0
  0
LINE
  5
1C1
330
1F
100
AcDbEntity
  8
0
  6
Continuous
 62
     7
370
    25
100
AcDbLine
 10
133.4538508857
 20
91.6872454288
 30
0.0
 11
137.3720180893
 21
91.6290587809
 31
0.0
  0
LINE
  5
1C2
330
1F
100
AcDbEntity
  8
0
  6
Continuous
 62
     7
370
    25
100
AcDbLine
 10
133.0754219273
 20
92.2698883985
 30
0.0
 11
133.134284308
 21
92.6027606654
 31
0.0
  0
LINE
  5
1C3
330
1F
100
AcDbEntity
  8
0
  6
Continuous
 62
     7
370
    25
100
AcDbLine
 10
124.539109431
 20
107.2132445586
 30
0.0
 11
124.4415629374
 21
107.2501994384
 31
0.0
  0
LINE
  5
1C4
330
1F
100
AcDbEntity
  8
0
  6
Continuous
 62
     7
370
    25
100
AcDbLine
 10
127.2580113912
 20
128.5141657752
 30
0.0
 11
126.1161675396
 21
128.5141657752
 31
0.0
  0
ELLIPSE
  5
1C5
330
1F
100
AcDbEntity
  8
0
  6
Continuous
 62
     7
370
    25
100
AcDbEllipse
 10
153.6720183486
 20
121.9971121708
 30
0.0
 11
3.0
 21
0.0
 31
0.0
210
0.0
220
0.0
230
1.0
 40
0.8164965809
 41
1.620817186715444
 42
3.141592653589822
  0
LINE
  5
1C6
330
1F
100
AcDbEntity
  8
0
  6
Continuous
 62
     7
370
    25
100
AcDbLine
 10
127.4022374021
 20
133.0540168745
 30
0.0
 11
126.4022372382
 21
133.0540168745
 31
0.0
  0
LINE
  5
1C7
330
1F
100
AcDbEntity
  8
0
  6
Continuous
 62
     7
370
    25
100
AcDbLine
 10
127.3504977765
 20
132.297451393
 30
0.0
 11
126.3504976126
 21
132.297451393
 31
0.0
  0
ELLIPSE
  5
1C8
330
1F
100
AcDbEntity
  8
0
  6
Continuous
 62
     7
370
    25
100
AcDbEllipse
 10
157.5220183486
 20
139.6560976749
 30
0.0
 11
0.0
 21
7.778174593051346
 31
0.0
210
0.0
220
0.0
230
1.0
 40
0.7071067812
 41
5.238762478428404
 42
5.36057943059522
  0
SPLINE
  5
1C9
330
1F
100
AcDbEntity
  8
0
  6
Continuous
 62
     7
370
    25
100
AcDbSpline
210
0.0
220
0.0
230
1.0
 70
     8
 71
     3
 72
    12
 73
     8
 74
     0
 42
0.000000001
 43
0.00000001
 40
0.0
 40
0.0
 40
0.0
 40
0.0
 40
0.4999999999999938
 40
0.4999999999999938
 40
0.7499999999999969
 40
0.7499999999999969
 40
1.0
 40
1.0
 40
1.0
 40
1.0
 10
162.2775092566088
 20
143.5638607752493
 30
0.0
 10
162.313854618872
 20
143.4754009401194
 30
0.0
 10
162.3766524057353
 20
143.3512500631758
 30
0.0
 10
162.4642711652858
 20
143.1825979840444
 30
0.0
 10
162.4921002185978
 20
143.1302534555403
 30
0.0
 10
162.5400649238297
 20
143.0447199744849
 30
0.0
 10
162.5602792195713
 20
143.0115157863493
 30
0.0
 10
162.5739865285134
 20
142.9950296887075
 30
0.0
  0
ELLIPSE
  5
1CA
330
1F
100
AcDbEntity
  8
0
  6
Continuous
 62
     7
370
    25
100
AcDbEllipse
 10
157.5220183486
 20
141.8695247826
 30
0.0
 11
5.500000000000028
 21
0.0
 31
0.0
210
0.0
220
0.0
230
1.0
 40
0.5176380902
 41
0.0929309829868331
 42
0.4064258053442565
  0
ARC
  5
1CB
330
1F
100
AcDbEntity
  8
0
  6
Continuous
 62
     7
370
    25
100
AcDbCircle
 10
157.8896874443
 20
141.6407178861
 30
0.0
 40
5.132330239290095
100
AcDbArc
 50
357.0563532833
 51
5.5122151105
  0
ELLIPSE
  5
1CC
330
1F
100
AcDbEntity
  8
0
  6
Continuous
 62
     7
370
    25
100
AcDbEllipse
 10
157.5220183486
 20
141.7630500345
 30
0.0
 11
0.0
 21
7.77817459305129
 31
0.0
210
0.0
220
0.0
230
1.0
 40
0.7071067812
 41
4.352527700391112
 42
4.662755743443148
  0
SPLINE
  5
1CD
330
1F
100
AcDbEntity
  8
0
  6
Continuous
 62
     7
370
    25
100
AcDbSpline
210
0.0
220
0.0
230
1.0
 70
     8
 71
     3
 72
    10
 73
     6
 74
     0
 42
0.000000001
 43
0.00000001
 40
0.0
 40
0.0
 40
0.0
 40
0.0
 40
0.5
 40
0.5
 40
1.0
 40
1.0
 40
1.0
 40
1.0
 10
162.6697196004867
 20
139.0240093916907
 30
0.0
 10
162.6460409516557
 20
138.9350069809026
 30
0.0
 10
162.5991593821523
 20
138.8040359168789
 30
0.0
 10
162.4960023269497
 20
138.5805537900246
 30
0.0
 10
162.4398633258887
 20
138.4872824256516
 30
0.0
 10
162.4078020638663
 20
138.4551783051489
 30
0.0
  0
ELLIPSE
  5
1CE
330
1F
100
AcDbEntity
  8
0
  6
Continuous
 62
     7
370
    25
100
AcDbEllipse
 10
157.5220183486
 20
139.762572423
 30
0.0
 11
5.500000000000028
 21
0.0
 31
0.0
210
0.0
220
0.0
230
1.0
 40
0.5176380902
 41
5.417178126827864
 42
5.806072156708987
  0
ARC
  5
1CF
330
1F
100
AcDbEntity
  8
0
  6
Continuous
 62
     7
370
    25
100
AcDbCircle
 10
157.5800145575
 20
141.8654131528
 30
0.0
 40
5.525692464903934
100
AcDbArc
 50
294.5013871153
 51
309.3729218593
  0
ELLIPSE
  5
1D0
330
1F
100
AcDbEntity
  8
0
  6
Continuous
 62
     7
370
    25
100
AcDbEllipse
 10
157.5220183486
 20
143.8700023941
 30
0.0
 11
0.0
 21
7.778174593051317
 31
0.0
210
0.0
220
0.0
230
1.0
 40
0.7071067812
 41
3.141592653589793
 42
3.582983631490259
  0
ARC
  5
1D1
330
1F
100
AcDbEntity
  8
0
  6
Continuous
 62
     7
370
    25
100
AcDbCircle
 10
157.5930760172
 20
138.9130983025
 30
0.0
 40
5.452491718092183
100
AcDbArc
 50
13.139086173
 51
90.7467084189
  0
LINE
  5
1D2
330
1F
100
AcDbEntity
  8
0
  6
Continuous
 62
     7
370
    25
100
AcDbLine
 10
163.8716042692
 20
136.8373024923
 30
0.0
 11
159.8716036135
 21
136.8373024923
 31
0.0
  0
LINE
  5
1D3
330
1F
100
AcDbEntity
  8
0
  6
Continuous
 62
     7
370
    25
100
AcDbLine
 10
165.0853224749
 20
137.5938679737
 30
0.0
 11
161.0853218192
 21
137.5938679737
 31
0.0
  0
LINE
  5
1D4
330
1F
100
AcDbEntity
  8
0
  6
Continuous
 62
     7
370
    25
100
AcDbLine
 10
127.7476737926
 20
137.5938679737
 30
0.0
 11
126.7476736287
 21
137.5938679737
 31
0.0
  0
LINE
  5
1D5
330
1F
100
AcDbEntity
  8
0
  6
Continuous
 62
     7
370
    25
100
AcDbLine
 10
127.6858903187
 20
136.8373024923
 30
0.0
 11
126.6858901547
 21
136.8373024923
 31
0.0
  0
LINE
  5
1D6
330
1F
100
AcDbEntity
  8
0
  6
Continuous
 62
     7
370
    25
100
AcDbLine
 10
128.1548550071
 20
142.133719073
 30
0.0
 11
127.1548553089
 21
142.133719073
 31
0.0
  0
LINE
  5
1D7
330
1F
100
AcDbEntity
  8
0
  6
Continuous
 62
     7
370
    25
100
AcDbLine
 10
128.0825927572
 20
141.3771535915
 30
0.0
 11
127.0825925933
 21
141.3771535915
 31
0.0
  0
LINE
  5
1D8
330
1F
100
AcDbEntity
  8
0
  6
Continuous
 62
     7
370
    25
100
AcDbLine
 10
166.4675392861
 20
141.3771535915
 30
0.0
 11
163.0152457113
 21
141.3771535915
 31
0.0
  0
LINE
  5
1D9
330
1F
100
AcDbEntity
  8
0
  6
Continuous
 62
     7
370
    25
100
AcDbLine
 10
166.0024963969
 20
142.133719073
 30
0.0
 11
162.9982844645
 21
142.133719073
 31
0.0
  0
LINE
  5
1DA
330
1F
100
AcDbEntity
  8
0
  6
Continuous
 62
     7
370
    25
100
AcDbLine
 10
128.6267510334
 20
146.6735701722
 30
0.0
 11
127.6267513352
 21
146.6735701722
 31
0.0
  0
LINE
  5
1DB
330
1F
100
AcDbEntity
  8
0
  6
Continuous
 62
     7
370
    25
100
AcDbLine
 10
128.5434698405
 20
145.9170046908
 30
0.0
 11
127.5434696766
 21
145.9170046908
 31
0.0
  0
LINE
  5
1DC
330
1F
100
AcDbEntity
  8
0
  6
Continuous
 62
     7
370
    25
100
AcDbLine
 10
129.1670485119
 20
151.2134212715
 30
0.0
 11
128.1670483479
 21
151.2134212715
 31
0.0
  0
LINE
  5
1DD
330
1F
100
AcDbEntity
  8
0
  6
Continuous
 62
     7
370
    25
100
AcDbLine
 10
129.0720768923
 20
150.45685579
 30
0.0
 11
128.0720767284
 21
150.45685579
 31
0.0
  0
LINE
  5
1DE
330
1F
100
AcDbEntity
  8
0
  6
Continuous
 62
     7
370
    25
100
AcDbLine
 10
129.7803188393
 20
155.753276096
 30
0.0
 11
128.7803196067
 21
155.753276096
 31
0.0
  0
LINE
  5
1DF
330
1F
100
AcDbEntity
  8
0
  6
Continuous
 62
     7
370
    25
100
AcDbLine
 10
129.6728246564
 20
154.9967068893
 30
0.0
 11
128.6728244925
 21
154.9967068893
 31
0.0
  0
LINE
  5
1E0
330
1F
100
AcDbEntity
  8
0
  6
Continuous
 62
     7
370
    25
100
AcDbLine
 10
131.3555159325
 20
156.4466047746
 30
0.0
 11
130.3555157686
 21
156.4466047746
 31
0.0
  0
LINE
  5
1E1
330
1F
100
AcDbEntity
  8
VERMASSUNG
100
AcDbLine
 10
186.2719739026
 20
95.1891977411
 30
0.0
 11
186.2719739026
 21
93.3173281423
 31
0.0
  0
LINE
  5
1E2
330
1F
100
AcDbEntity
  8
VERMASSUNG
100
AcDbLine
 10
120.7720627946
 20
95.1891977411
 30
0.0
 11
120.7720627946
 21
88.3425185559
 31
0.0
  0
DIMENSION
  5
1E3
330
1F
100
AcDbEntity
  8
VERMASSUNG
100
AcDbDimension
  2
_D
 10
186.2719739026
 20
74.4543155176
 30
0.0
 11
153.5220183486
 21
74.4543155176
 31
0.0
 70
   160
  1
%%c65.5 - %%c87.5
 71
     2
 42
-1.0
  3
SLDDIMSTYLE0
100
AcDbAlignedDimension
 13
120.7720627946
 23
88.3425185559
 33
0.0
 14
186.2719739026
 24
93.3173281423
 34
0.0
100
AcDbRotatedDimension
  0
DIMENSION
  5
1F1
330
1F
100
AcDbEntity
  8
VERMASSUNG
100
AcDbDimension
  2
_D_1
 10
186.2719739026
 20
93.3173281423
 30
0.0
 11
178.1239236632
 21
83.1382150443
 31
0.0
 70
   162
  1
<>
 71
     1
 42
-1.0
  3
SLDDIMSTYLE1
100
AcDb2LineAngularDimension
 13
174.7324965579
 23
90.566559069
 33
0.0
 14
186.0039687786
 24
94.8367459434
 34
0.0
 15
186.2719739026
 25
95.1891977411
 35
0.0
 16
178.1239236632
 26
83.1382150443
 36
0.0
  0
LINE
  5
1FC
330
1F
100
AcDbEntity
  8
0
  6
Continuous
 62
     7
370
    25
100
AcDbLine
 10
261.6436156838
 20
74.7866704114
 30
0.0
 11
259.3910615601
 21
73.484115561
 31
0.0
  0
LINE
  5
1FD
330
1F
100
AcDbEntity
  8
0
  6
Continuous
 62
     7
370
    25
100
AcDbLine
 10
265.7747174074
 20
58.4601531985
 30
0.0
 11
265.8987213382
 21
58.411396304
 31
0.0
  0
LINE
  5
1FE
330
1F
100
AcDbEntity
  8
0
  6
Continuous
 62
     7
370
    25
100
AcDbLine
 10
266.1346597255
 20
58.4095678197
 30
0.0
 11
268.3872136846
 21
59.7121226701
 31
0.0
  0
LINE
  5
1FF
330
1F
100
AcDbEntity
  8
0
  6
Continuous
 62
     7
370
    25
100
AcDbLine
 10
238.9958528663
 20
95.2769428311
 30
0.0
 11
238.8070669244
 21
95.4433014584
 31
0.0
  0
LINE
  5
200
330
1F
100
AcDbEntity
  8
0
  6
Continuous
 62
     7
370
    25
100
AcDbLine
 10
232.3922304763
 20
96.770055435
 30
0.0
 11
231.260525526
 21
96.4036132532
 31
0.0
  0
LINE
  5
201
330
1F
100
AcDbEntity
  8
0
  6
Continuous
 62
     7
370
    25
100
AcDbLine
 10
233.7184111932
 20
82.1248504762
 30
0.0
 11
234.0841658251
 21
82.2432803968
 31
0.0
  0
LINE
  5
202
330
1F
100
AcDbEntity
  8
0
  6
Continuous
 62
     7
370
    25
100
AcDbLine
 10
229.5682449353
 20
96.7223405161
 30
0.0
 11
225.8452727955
 21
95.5168548102
 31
0.0
  0
LINE
  5
203
330
1F
100
AcDbEntity
  8
0
  6
Continuous
 62
     7
370
    25
100
AcDbLine
 10
265.0120814612
 20
78.000061345
 30
0.0
 11
261.2891096506
 21
75.8472278101
 31
0.0
  0
LINE
  5
204
330
1F
100
AcDbEntity
  8
0
  6
Continuous
 62
     7
370
    25
100
AcDbLine
 10
268.79299317
 20
58.6490863732
 30
0.0
 11
272.5159650628
 21
60.8019187733
 31
0.0
  0
LINE
  5
205
330
1F
100
AcDbEntity
  8
0
  6
Continuous
 62
     7
370
    25
100
AcDbLine
 10
245.6099834864
 20
67.199797181
 30
0.0
 11
245.5655850742
 21
66.9012302824
 31
0.0
  0
LINE
  5
206
330
1F
100
AcDbEntity
  8
0
  6
Continuous
 62
     7
370
    25
100
AcDbLine
 10
235.3389827077
 20
82.7194605153
 30
0.0
 11
235.2927772494
 21
82.5149269859
 31
0.0
  0
LINE
  5
207
330
1F
100
AcDbEntity
  8
0
  6
Continuous
 62
     7
370
    25
100
AcDbLine
 10
236.8483999765
 20
77.7106068278
 30
0.0
 11
237.0057209911
 21
77.5719745908
 31
0.0
  0
LINE
  5
208
330
1F
100
AcDbEntity
  8
0
  6
Continuous
 62
     7
370
    25
100
AcDbLine
 10
256.23098075
 20
80.5372497987
 30
0.0
 11
242.8917027353
 21
70.945311142
 31
0.0
  0
LINE
  5
209
330
1F
100
AcDbEntity
  8
0
  6
Continuous
 62
     7
370
    25
100
AcDbLine
 10
277.1264866943
 20
31.9531971858
 30
0.0
 11
277.1264866943
 21
59.7601402985
 31
0.0
  0
LINE
  5
20A
330
1F
100
AcDbEntity
  8
0
  6
Continuous
 62
     7
370
    25
100
AcDbLine
 10
221.4193789736
 20
60.1683455618
 30
0.0
 11
221.4193789736
 21
32.3614024491
 31
0.0
  0
LWPOLYLINE
  5
20B
330
1F
100
AcDbEntity
  8
0
  6
Continuous
 62
     7
370
    25
100
AcDbPolyline
 90
       25
 70
   128
 43
0.0
 10
270.1776202058
 20
48.205386656
 10
270.4840538069
 20
48.7650675257
 10
270.6942529821
 20
49.3477340513
 10
270.793893071
 20
49.9136807673
 10
270.7761836568
 20
50.4243394392
 10
270.6423316867
 20
50.8449084152
 10
270.4014589078
 20
51.1467262763
 10
270.0699803651
 20
51.3092263793
 10
269.6704858227
 20
51.3213337183
 10
269.2302001897
 20
51.1822217889
 10
268.7791281739
 20
50.9013730888
 10
268.3480096245
 20
50.4979265234
 10
267.9662244552
 20
49.9993766875
 10
267.659790854
 20
49.4396958178
 10
267.4495916789
 20
48.8570292923
 10
267.3499515899
 20
48.2910825763
 10
267.3676610042
 20
47.7804254252
 10
267.5015129743
 20
47.3598549283
 10
267.7423857532
 20
47.0580370672
 10
268.0738642959
 20
46.8955369642
 10
268.4733588383
 20
46.8834296253
 10
268.9136444713
 20
47.0225430755
 10
269.3647164871
 20
47.3033917756
 10
269.7958350365
 20
47.7068368202
 10
270.1776202058
 20
48.205386656
  0
LWPOLYLINE
  5
20C
330
1F
100
AcDbEntity
  8
0
  6
Continuous
 62
     7
370
    25
100
AcDbPolyline
 90
        8
 70
   128
 43
0.0
 10
270.2019560595
 20
48.1326849838
 10
270.5528651226
 20
48.7648337938
 10
270.80455112
 20
49.4241989001
 10
270.9423871197
 20
50.0724532046
 10
270.9583624216
 20
50.6719255533
 10
270.8515486427
 20
51.1877770419
 10
270.6281535527
 20
51.5900275495
 10
270.3454270599
 20
51.8312104547
  0
LWPOLYLINE
  5
20D
330
1F
100
AcDbEntity
  8
0
  6
Continuous
 62
     7
370
    25
100
AcDbPolyline
 90
        8
 70
   128
 43
0.0
 10
267.345670886
 20
46.6349180041
 10
267.3899379186
 20
46.6108298005
 10
267.801526425
 20
46.4979496086
 10
268.2737896417
 20
46.5440272977
 10
268.7792814347
 20
46.7463836857
 10
269.288624468
 20
47.0932520381
 10
269.7722175725
 20
47.5644838609
 10
270.2019560595
 20
48.1326849838
  0
LINE
  5
20E
330
1F
100
AcDbEntity
  8
0
  6
Continuous
 62
     7
370
    25
100
AcDbLine
 10
269.4958611395
 20
50.6739773127
 30
0.0
 11
268.2888002994
 21
49.7376876784
 31
0.0
  0
LINE
  5
20F
330
1F
100
AcDbEntity
  8
0
  6
Continuous
 62
     7
370
    25
100
AcDbLine
 10
267.8648615315
 20
48.1660913008
 30
0.0
 11
268.2888002994
 21
49.7376876784
 31
0.0
  0
LINE
  5
210
330
1F
100
AcDbEntity
  8
0
  6
Continuous
 62
     7
370
    25
100
AcDbLine
 10
268.6479835215
 20
47.5307860308
 30
0.0
 11
267.8648615315
 21
48.1660913008
 31
0.0
  0
LINE
  5
211
330
1F
100
AcDbEntity
  8
0
  6
Continuous
 62
     7
370
    25
100
AcDbLine
 10
268.6479835215
 20
47.5307860308
 30
0.0
 11
269.8550443616
 21
48.467077186
 31
0.0
  0
LINE
  5
212
330
1F
100
AcDbEntity
  8
0
  6
Continuous
 62
     7
370
    25
100
AcDbLine
 10
270.2789831295
 20
50.0386720427
 30
0.0
 11
269.8550443616
 21
48.467077186
 31
0.0
  0
LINE
  5
213
330
1F
100
AcDbEntity
  8
0
  6
Continuous
 62
     7
370
    25
100
AcDbLine
 10
270.2789831295
 20
50.0386720427
 30
0.0
 11
269.4958611395
 21
50.6739773127
 31
0.0
  0
LINE
  5
214
330
1F
100
AcDbEntity
  8
0
  6
Continuous
 62
     7
370
    25
100
AcDbLine
 10
269.3604399814
 20
50.5689357151
 30
0.0
 11
270.2789831295
 21
50.0386720427
 31
0.0
  0
LINE
  5
215
330
1F
100
AcDbEntity
  8
0
  6
Continuous
 62
     7
370
    25
100
AcDbLine
 10
268.20327249
 20
49.4206247907
 30
0.0
 11
269.8550443616
 21
48.467077186
 31
0.0
  0
LWPOLYLINE
  5
216
330
1F
100
AcDbEntity
  8
0
  6
Continuous
 62
     7
370
    25
100
AcDbPolyline
 90
        3
 70
   128
 43
0.0
 10
259.7476308132
 20
72.8711794842
 10
259.6531369203
 20
72.967759804
 10
259.6437806492
 20
72.9760814138
  0
LINE
  5
217
330
1F
100
AcDbEntity
  8
0
  6
Continuous
 62
     7
370
    25
100
AcDbLine
 10
265.7015629907
 20
66.0505622342
 30
0.0
 11
259.7476308132
 21
72.8711794842
 31
0.0
  0
ARC
  5
218
330
1F
100
AcDbEntity
  8
0
  6
Continuous
 62
     7
370
    25
100
AcDbCircle
 10
264.7245653935
 20
65.1546384064
 30
0.0
 40
1.325595643530127
100
AcDbArc
 50
4.0492165003
 51
42.5213660093
  0
LINE
  5
219
330
1F
100
AcDbEntity
  8
0
  6
Continuous
 62
     7
370
    25
100
AcDbLine
 10
265.8353397221
 20
58.7256845092
 30
0.0
 11
266.046852035
 21
65.2482431495
 31
0.0
  0
ARC
  5
21A
330
1F
100
AcDbEntity
  8
0
  6
Continuous
 62
     7
370
    25
100
AcDbCircle
 10
264.579324354
 20
65.0728213186
 30
0.0
 40
1.893715634709583
100
AcDbArc
 50
4.0493049764
 51
42.5212953763
  0
LINE
  5
21B
330
1F
100
AcDbEntity
  8
0
  6
Continuous
 62
     7
370
    25
100
AcDbLine
 10
266.4683126175
 20
65.2065458318
 30
0.0
 11
266.2567999754
 21
58.6839877619
 31
0.0
  0
ARC
  5
21C
330
1F
100
AcDbEntity
  8
0
  6
Continuous
 62
     7
370
    25
100
AcDbCircle
 10
266.8318776733
 20
66.3753759178
 30
0.0
 40
1.893716461561311
100
AcDbArc
 50
4.0493137058
 51
42.5212866468
  0
LINE
  5
21D
330
1F
100
AcDbEntity
  8
0
  6
Continuous
 62
     7
370
    25
100
AcDbLine
 10
268.7208667413
 20
66.5091007772
 30
0.0
 11
268.5093540991
 21
59.9865419469
 31
0.0
  0
LINE
  5
21E
330
1F
100
AcDbEntity
  8
0
  6
Continuous
 62
     7
370
    25
100
AcDbLine
 10
260.0211098594
 20
73.1733330535
 30
0.0
 11
265.9750423662
 21
66.3527158985
 31
0.0
  0
LINE
  5
21F
330
1F
100
AcDbEntity
  8
0
  6
Continuous
 62
     7
370
    25
100
AcDbLine
 10
262.2736641477
 20
74.4758879989
 30
0.0
 11
268.2275964899
 21
67.6552708439
 31
0.0
  0
LWPOLYLINE
  5
220
330
1F
100
AcDbEntity
  8
0
  6
Continuous
 62
     7
370
    25
100
AcDbPolyline
 90
        9
 70
   128
 43
0.0
 10
259.285730988
 20
73.3309262128
 10
259.2883654953
 20
73.3402035254
 10
259.3364158661
 20
73.436490076
 10
259.4107862852
 20
73.4939956646
 10
259.5079522224
 20
73.5099928956
 10
259.6233104517
 20
73.4837218779
 10
259.7513911023
 20
73.4164287541
 10
259.8861181134
 20
73.3113054684
 10
260.0211098594
 20
73.1733330535
  0
LWPOLYLINE
  5
221
330
1F
100
AcDbEntity
  8
0
  6
Continuous
 62
     7
370
    25
100
AcDbPolyline
 90
        7
 70
   128
 43
0.0
 10
261.6436156838
 20
74.7866704114
 10
261.6633405735
 20
74.79655061
 10
261.7605065108
 20
74.812547841
 10
261.8758647401
 20
74.7862768234
 10
262.0039452261
 20
74.7189836045
 10
262.1386724018
 20
74.6138604138
 10
262.2736641477
 20
74.4758879989
  0
LWPOLYLINE
  5
222
330
1F
100
AcDbEntity
  8
0
  6
Continuous
 62
     7
370
    25
100
AcDbPolyline
 90
        7
 70
   128
 43
0.0
 10
266.2567999754
 20
58.6839877619
 10
266.2373528268
 20
58.5534821364
 10
266.1893050902
 20
58.4571934947
 10
266.1149346711
 20
58.3996877161
 10
266.0177660997
 20
58.383692386
 10
265.9024078704
 20
58.4099633086
 10
265.8987213382
 20
58.411396304
  0
ARC
  5
223
330
1F
100
AcDbEntity
  8
0
  6
Continuous
 62
     7
370
    25
100
AcDbCircle
 10
268.2055458526
 20
59.9573718204
 30
0.0
 40
0.3052054175887796
100
AcDbArc
 50
306.5291260957
 51
5.4844378579
  0
ARC
  5
224
330
1F
100
AcDbEntity
  8
0
  6
Continuous
 62
     7
370
    25
100
AcDbCircle
 10
238.1389829909
 20
94.6011235912
 30
0.0
 40
1.066405695355168
100
AcDbArc
 50
17.3267710221
 51
68.7922594066
  0
LINE
  5
225
330
1F
100
AcDbEntity
  8
0
  6
Continuous
 62
     7
370
    25
100
AcDbLine
 10
238.5247558085
 20
95.5953068944
 30
0.0
 11
232.5708208322
 21
96.7784728065
 31
0.0
  0
ARC
  5
226
330
1F
100
AcDbEntity
  8
0
  6
Continuous
 62
     7
370
    25
100
AcDbCircle
 10
238.3256058127
 20
94.5660171155
 30
0.0
 40
0.9770601240458069
100
AcDbArc
 50
22.609778736
 51
46.6870026203
  0
LWPOLYLINE
  5
227
330
1F
100
AcDbEntity
  8
0
  6
Continuous
 62
     7
370
    25
100
AcDbPolyline
 90
        3
 70
   128
 43
0.0
 10
232.5708208322
 20
96.7784728065
 10
232.4669476191
 20
96.7849243471
 10
232.3922304763
 20
96.770055435
  0
LINE
  5
228
330
1F
100
AcDbEntity
  8
0
  6
Continuous
 62
     7
370
    25
100
AcDbLine
 10
226.2819204846
 20
83.5850678291
 30
0.0
 11
233.6469752484
 21
82.1214834896
 31
0.0
  0
ARC
  5
229
330
1F
100
AcDbEntity
  8
0
  6
Continuous
 62
     7
370
    25
100
AcDbCircle
 10
226.5031934372
 20
84.0586584149
 30
0.0
 40
0.5227329743870278
100
AcDbArc
 50
177.291303813
 51
244.9568834659
  0
LINE
  5
22A
330
1F
100
AcDbEntity
  8
0
  6
Continuous
 62
     7
370
    25
100
AcDbLine
 10
225.7194008926
 20
95.2506855669
 30
0.0
 11
225.9810445051
 21
84.0833617605
 31
0.0
  0
LWPOLYLINE
  5
22B
330
1F
100
AcDbEntity
  8
0
  6
Continuous
 62
     7
370
    25
100
AcDbPolyline
 90
        9
 70
   128
 43
0.0
 10
225.9167089872
 20
95.5202216543
 10
225.8751596238
 20
95.5228022206
 10
225.836446128
 20
95.5136391542
 10
225.8017448248
 20
95.4930111879
 10
225.7721100724
 20
95.4615449302
 10
225.7484423095
 20
95.4201963332
 10
225.7314606947
 20
95.3702222863
 10
225.7216811547
 20
95.3131401516
 10
225.7194008926
 20
95.2506855669
  0
LINE
  5
22C
330
1F
100
AcDbEntity
  8
0
  6
Continuous
 62
     7
370
    25
100
AcDbLine
 10
233.2817633395
 20
94.0566378969
 30
0.0
 11
225.9167089872
 21
95.5202216543
 31
0.0
  0
ARC
  5
22D
330
1F
100
AcDbEntity
  8
0
  6
Continuous
 62
     7
370
    25
100
AcDbCircle
 10
233.0604899401
 20
93.5830469557
 30
0.0
 40
0.522733485482614
100
AcDbArc
 50
357.2913467689
 51
64.9568555942
  0
LINE
  5
22E
330
1F
100
AcDbEntity
  8
0
  6
Continuous
 62
     7
370
    25
100
AcDbLine
 10
233.8442832501
 20
82.3910199158
 30
0.0
 11
233.5826394012
 21
93.5583439774
 31
0.0
  0
LWPOLYLINE
  5
22F
330
1F
100
AcDbEntity
  8
0
  6
Continuous
 62
     7
370
    25
100
AcDbPolyline
 90
        9
 70
   128
 43
0.0
 10
233.6469752484
 20
82.1214834896
 10
233.6885241385
 20
82.1189031015
 10
233.7272379945
 20
82.1280663877
 10
233.7619388449
 20
82.1486946153
 10
233.7915741709
 20
82.1801602091
 10
233.815241602
 20
82.2215093779
 10
233.8322234892
 20
82.2714836003
 10
233.8420030398
 20
82.3285654437
 10
233.8442832501
 20
82.3910199158
  0
ARC
  5
230
330
1F
100
AcDbEntity
  8
0
  6
Continuous
 62
     7
370
    25
100
AcDbCircle
 10
233.0741423219
 20
93.5875301871
 30
0.0
 40
0.4965974864463972
100
AcDbArc
 50
357.2914030291
 51
64.9568257036
  0
LINE
  5
231
330
1F
100
AcDbEntity
  8
0
  6
Continuous
 62
     7
370
    25
100
AcDbLine
 10
233.2843525718
 20
94.0374420833
 30
0.0
 11
225.919298199
 21
95.501025912
 31
0.0
  0
LWPOLYLINE
  5
232
330
1F
100
AcDbEntity
  8
0
  6
Continuous
 62
     7
370
    25
100
AcDbPolyline
 90
        9
 70
   128
 43
0.0
 10
225.919298199
 20
95.501025912
 10
225.879826276
 20
95.5034775278
 10
225.8430484688
 20
95.4947727041
 10
225.8100822504
 20
95.4751760013
 10
225.7819292257
 20
95.4452830266
 10
225.7594448647
 20
95.4060019275
 10
225.7433123044
 20
95.3585263581
 10
225.7340217205
 20
95.3042985275
 10
225.7318554821
 20
95.2449666778
  0
LINE
  5
233
330
1F
100
AcDbEntity
  8
0
  6
Continuous
 62
     7
370
    25
100
AcDbLine
 10
225.7318554821
 20
95.2449666778
 30
0.0
 11
225.9934990635
 21
84.077642129
 31
0.0
  0
ARC
  5
234
330
1F
100
AcDbEntity
  8
0
  6
Continuous
 62
     7
370
    25
100
AcDbCircle
 10
226.4895417363
 20
84.0541753714
 30
0.0
 40
0.4965974446020825
100
AcDbArc
 50
177.2914740306
 51
244.956793618
  0
LINE
  5
235
330
1F
100
AcDbEntity
  8
0
  6
Continuous
 62
     7
370
    25
100
AcDbLine
 10
226.2793312522
 20
83.6042636308
 30
0.0
 11
233.644386016
 21
82.1406792913
 31
0.0
  0
LWPOLYLINE
  5
236
330
1F
100
AcDbEntity
  8
0
  6
Continuous
 62
     7
370
    25
100
AcDbPolyline
 90
        9
 70
   128
 43
0.0
 10
233.644386016
 20
82.1406792913
 10
233.6838578567
 20
82.1382279606
 10
233.7206352626
 20
82.1469330635
 10
233.7536020007
 20
82.1665294663
 10
233.7817544491
 20
82.1964223935
 10
233.8042394635
 20
82.2357032103
 10
233.8203714991
 20
82.2831790828
 10
233.8296624096
 20
82.3374069149
 10
233.8318281979
 20
82.396739072
  0
LINE
  5
237
330
1F
100
AcDbEntity
  8
0
  6
Continuous
 62
     7
370
    25
100
AcDbLine
 10
233.8318281979
 20
82.396739072
 30
0.0
 11
233.5701850075
 21
93.5640628128
 31
0.0
  0
ARC
  5
238
330
1F
100
AcDbEntity
  8
0
  6
Continuous
 62
     7
370
    25
100
AcDbCircle
 10
236.7834616411
 20
94.7885320539
 30
0.0
 40
0.5227343073860018
100
AcDbArc
 50
357.2914151067
 51
64.9568047556
  0
LINE
  5
239
330
1F
100
AcDbEntity
  8
0
  6
Continuous
 62
     7
370
    25
100
AcDbLine
 10
233.505142789
 20
93.7282848021
 30
0.0
 11
233.2843525718
 21
94.0374420833
 31
0.0
  0
LINE
  5
23A
330
1F
100
AcDbEntity
  8
0
  6
Continuous
 62
     7
370
    25
100
AcDbLine
 10
233.505142789
 20
93.7282848021
 30
0.0
 11
233.5701850075
 21
93.5640628128
 31
0.0
  0
LINE
  5
23B
330
1F
100
AcDbEntity
  8
0
  6
Continuous
 62
     7
370
    25
100
AcDbLine
 10
237.3235834676
 20
93.9967865285
 30
0.0
 11
237.3056119526
 21
94.7638296595
 31
0.0
  0
LINE
  5
23C
330
1F
100
AcDbEntity
  8
0
  6
Continuous
 62
     7
370
    25
100
AcDbLine
 10
233.7667867203
 20
82.5609603365
 30
0.0
 11
233.8318281979
 21
82.396739072
 31
0.0
  0
LINE
  5
23D
330
1F
100
AcDbEntity
  8
0
  6
Continuous
 62
     7
370
    25
100
AcDbLine
 10
233.6491143656
 20
83.3115217237
 30
0.0
 11
233.7667867203
 21
82.5609603365
 31
0.0
  0
LINE
  5
23E
330
1F
100
AcDbEntity
  8
0
  6
Continuous
 62
     7
370
    25
100
AcDbLine
 10
233.3837096513
 20
93.1692098625
 30
0.0
 11
233.505142789
 21
93.7282848021
 31
0.0
  0
LINE
  5
23F
330
1F
100
AcDbEntity
  8
0
  6
Continuous
 62
     7
370
    25
100
AcDbLine
 10
226.1400883957
 20
95.1918687852
 30
0.0
 11
225.919298199
 21
95.501025912
 31
0.0
  0
LINE
  5
240
330
1F
100
AcDbEntity
  8
0
  6
Continuous
 62
     7
370
    25
100
AcDbLine
 10
226.8190691758
 20
94.6230580332
 30
0.0
 11
226.1400883957
 21
95.1918687852
 31
0.0
  0
LINE
  5
241
330
1F
100
AcDbEntity
  8
0
  6
Continuous
 62
     7
370
    25
100
AcDbLine
 10
237.0047358085
 20
95.2621235434
 30
0.0
 11
229.6396814563
 21
96.7257075503
 31
0.0
  0
SPLINE
  5
242
330
1F
100
AcDbEntity
  8
0
  6
Continuous
 62
     7
370
    25
100
AcDbSpline
210
0.0
220
0.0
230
1.0
 70
     8
 71
     3
 72
    11
 73
     7
 74
     0
 42
0.000000001
 43
0.00000001
 40
0.0
 40
0.0
 40
0.0
 40
0.0
 40
0.0076280263254377
 40
0.3209886968774407
 40
0.6632168347710233
 40
1.0
 40
1.0
 40
1.0
 40
1.0
 10
233.0594644791134
 20
92.78769967561173
 30
0.0
 10
233.0607790140677
 20
92.78875635577063
 30
0.0
 10
233.116094877436
 20
92.83322164374295
 30
0.0
 10
233.2203216585803
 20
92.92581206750971
 30
0.0
 10
233.3407671933477
 20
93.06064902198743
 30
0.0
 10
233.3694722269266
 20
93.13321688891702
 30
0.0
 10
233.383709651285
 20
93.16920986253331
 30
0.0
  0
ARC
  5
243
330
1F
100
AcDbEntity
  8
0
  6
Continuous
 62
     7
370
    25
100
AcDbCircle
 10
231.0869597873
 20
91.3120796745
 30
0.0
 40
1.306833488212464
100
AcDbArc
 50
357.2913417334
 51
64.9568641295
  0
LINE
  5
244
330
1F
100
AcDbEntity
  8
0
  6
Continuous
 62
     7
370
    25
100
AcDbLine
 10
232.538765849
 20
85.0003742768
 30
0.0
 11
232.3923332093
 21
91.2503221246
 31
0.0
  0
LINE
  5
245
330
1F
100
AcDbEntity
  8
0
  6
Continuous
 62
     7
370
    25
100
AcDbLine
 10
227.923540728
 20
85.1456489986
 30
0.0
 11
232.0454955976
 21
84.326533449
 31
0.0
  0
ARC
  5
246
330
1F
100
AcDbEntity
  8
0
  6
Continuous
 62
     7
370
    25
100
AcDbCircle
 10
228.4767219502
 20
86.3296248235
 30
0.0
 40
1.306831365781967
100
AcDbArc
 50
177.2912964683
 51
244.9569176416
  0
LINE
  5
247
330
1F
100
AcDbEntity
  8
0
  6
Continuous
 62
     7
370
    25
100
AcDbLine
 10
227.024918222
 20
92.6413312472
 30
0.0
 11
227.1713506971
 21
86.3913833043
 31
0.0
  0
LWPOLYLINE
  5
248
330
1F
100
AcDbEntity
  8
0
  6
Continuous
 62
     7
370
    25
100
AcDbPolyline
 90
        9
 70
   128
 43
0.0
 10
227.5181884734
 20
93.3151716948
 10
227.4143150957
 20
93.3216231403
 10
227.3175314435
 20
93.2987156852
 10
227.2307780827
 20
93.2471453537
 10
227.1566912494
 20
93.1684795631
 10
227.0975218485
 20
93.0651082571
 10
227.055067789
 20
92.9401725111
 10
227.0306188302
 20
92.7974682352
 10
227.024918222
 20
92.6413312472
  0
LINE
  5
249
330
1F
100
AcDbEntity
  8
0
  6
Continuous
 62
     7
370
    25
100
AcDbLine
 10
231.6401430137
 20
92.4960569056
 30
0.0
 11
227.5181884734
 21
93.3151716948
 31
0.0
  0
LWPOLYLINE
  5
24A
330
1F
100
AcDbEntity
  8
0
  6
Continuous
 62
     7
370
    25
100
AcDbPolyline
 90
        9
 70
   128
 43
0.0
 10
232.0454955976
 20
84.326533449
 10
232.1493689753
 20
84.320082764
 10
232.2461526275
 20
84.3429900289
 10
232.332905659
 20
84.3945599802
 10
232.4069929039
 20
84.4732260085
 10
232.4661624694
 20
84.5765972195
 10
232.5086163643
 20
84.7015326803
 10
232.5330653231
 20
84.8442369562
 10
232.538765849
 20
85.0003742768
  0
LWPOLYLINE
  5
24B
330
1F
100
AcDbEntity
  8
0
  6
Continuous
 62
     7
370
    25
100
AcDbPolyline
 90
       25
 70
   128
 43
0.0
 10
231.3884858276
 20
88.0831091708
 10
231.3192821841
 20
88.7253672936
 10
231.145304274
 20
89.3741322799
 10
230.8784082857
 20
89.9851924301
 10
230.5367839593
 20
90.5169045532
 10
230.1437111725
 20
90.9330336793
 10
229.7259776226
 20
91.2052210214
 10
229.3120512008
 20
91.3149175056
 10
228.9301401671
 20
91.2546479543
 10
228.6062714355
 20
91.028518815
 10
228.3625153841
 20
90.6519413134
 10
228.2154846213
 20
90.1505778375
 10
228.1751982434
 20
89.558595973
 10
228.2444019692
 20
88.9163382779
 10
228.418379797
 20
88.267572864
 10
228.6852755384
 20
87.6565129513
 10
229.0269001117
 20
87.1248005906
 10
229.4199726515
 20
86.7086717021
 10
229.8377062015
 20
86.4364847403
 10
230.2516328702
 20
86.3267876382
 10
230.6335435746
 20
86.3870573796
 10
230.9574126355
 20
86.613186709
 10
231.20116844
 20
86.9897644482
 10
231.348199532
 20
87.4911273538
 10
231.3884858276
 20
88.0831091708
  0
SPLINE
  5
24C
330
1F
100
AcDbEntity
  8
0
  6
Continuous
 62
     7
370
    25
100
AcDbSpline
210
0.0
220
0.0
230
1.0
 70
     8
 71
     3
 72
    11
 73
     7
 74
     0
 42
0.000000001
 43
0.00000001
 40
0.0
 40
0.0
 40
0.0
 40
0.0
 40
0.0081174072634242
 40
0.3263687361710277
 40
0.6627689498885445
 40
0.9999999999999999
 40
0.9999999999999999
 40
0.9999999999999999
 40
0.9999999999999999
 10
233.2693539737002
 20
83.86306537269766
 30
0.0
 10
233.2709398411295
 20
83.86193909440043
 30
0.0
 10
233.3347012777365
 20
83.81665591314402
 30
0.0
 10
233.4540876559227
 20
83.71031450101732
 30
0.0
 10
233.5937045300996
 20
83.51982362704953
 30
0.0
 10
233.6306292398115
 20
83.38101275988373
 30
0.0
 10
233.6491143655767
 20
83.31152172374159
 30
0.0
  0
LINE
  5
24D
330
1F
100
AcDbEntity
  8
0
  6
Continuous
 62
     7
370
    25
100
AcDbLine
 10
233.7667867203
 20
82.5609603365
 30
0.0
 11
233.644386016
 21
82.1406792913
 31
0.0
  0
LINE
  5
24E
330
1F
100
AcDbEntity
  8
0
  6
Continuous
 62
     7
370
    25
100
AcDbLine
 10
226.4017319565
 20
84.0245454365
 30
0.0
 11
226.2793312522
 21
83.6042636308
 31
0.0
  0
LINE
  5
24F
330
1F
100
AcDbEntity
  8
0
  6
Continuous
 62
     7
370
    25
100
AcDbLine
 10
227.2776499881
 20
84.827919187
 30
0.0
 11
226.4017319565
 21
84.0245454365
 31
0.0
  0
SPLINE
  5
250
330
1F
100
AcDbEntity
  8
0
  6
Continuous
 62
     7
370
    25
100
AcDbSpline
210
0.0
220
0.0
230
1.0
 70
     8
 71
     3
 72
    11
 73
     7
 74
     0
 42
0.000000001
 43
0.00000001
 40
0.0
 40
0.0
 40
0.0
 40
0.0
 40
0.3372314900734375
 40
0.6736321839305064
 40
0.9918834977238201
 40
1.0
 40
1.0
 40
1.0
 40
1.0
 10
226.8190691757871
 20
94.62305803322371
 30
0.0
 10
226.876825562239
 20
94.56628261679955
 30
0.0
 10
226.9921960477564
 20
94.45287165464106
 30
0.0
 10
227.0906623104557
 20
94.24905744721377
 30
0.0
 10
227.1177510389832
 20
94.11282741770705
 30
0.0
 10
227.1205808931174
 20
94.04781715497391
 30
0.0
 10
227.1206512692893
 20
94.0462004025876
 30
0.0
  0
LINE
  5
251
330
1F
100
AcDbEntity
  8
0
  6
Continuous
 62
     7
370
    25
100
AcDbLine
 10
226.4017319565
 20
84.0245454365
 30
0.0
 11
225.9934990635
 21
84.077642129
 31
0.0
  0
LINE
  5
252
330
1F
100
AcDbEntity
  8
0
  6
Continuous
 62
     7
370
    25
100
AcDbLine
 10
226.1400883957
 20
95.1918687852
 30
0.0
 11
225.7318554821
 21
95.2449666778
 31
0.0
  0
LWPOLYLINE
  5
253
330
1F
100
AcDbEntity
  8
0
  6
Continuous
 62
     7
370
    25
100
AcDbPolyline
 90
        3
 70
   128
 43
0.0
 10
229.6396814563
 20
96.7257075503
 10
229.5981318254
 20
96.7282879859
 10
229.5682449353
 20
96.7223405161
  0
SPLINE
  5
254
330
1F
100
AcDbEntity
  8
0
  6
Continuous
 62
     7
370
    25
100
AcDbSpline
210
0.0
220
0.0
230
1.0
 70
     8
 71
     3
 72
    11
 73
     7
 74
     0
 42
0.000000001
 43
0.00000001
 40
0.0
 40
0.0
 40
0.0
 40
0.0
 40
0.3367824731652477
 40
0.6790113199802676
 40
0.9923710021767694
 40
1.0
 40
1.0
 40
1.0
 40
1.0
 10
227.2776499880922
 20
84.82791918698678
 30
0.0
 10
227.3236332906317
 20
84.87419141257811
 30
0.0
 10
227.4163435277796
 20
84.96748416823105
 30
0.0
 10
227.4797917904918
 20
85.08386396743936
 30
0.0
 10
227.4884938660212
 20
85.14552969679542
 30
0.0
 10
227.4841207012915
 20
85.17066365641465
 30
0.0
 10
227.4840167634698
 20
85.17126101992046
 30
0.0
  0
LINE
  5
255
330
1F
100
AcDbEntity
  8
0
  6
Continuous
 62
     7
370
    25
100
AcDbLine
 10
269.1034890029
 20
66.8273005124
 30
0.0
 11
268.8418504224
 21
58.7588528863
 31
0.0
  0
LWPOLYLINE
  5
256
330
1F
100
AcDbEntity
  8
0
  6
Continuous
 62
     7
370
    25
100
AcDbPolyline
 90
        9
 70
   128
 43
0.0
 10
268.8418504224
 20
58.7588528863
 10
268.8340662616
 20
58.7066536584
 10
268.8148482865
 20
58.6681376315
 10
268.7850990323
 20
58.6451356051
 10
268.7462358513
 20
58.6387353632
 10
268.7000924609
 20
58.6492430668
 10
268.6488593445
 20
58.6761625216
 10
268.5949673547
 20
58.7182116077
 10
268.5409716441
 20
58.7733997372
  0
LINE
  5
257
330
1F
100
AcDbEntity
  8
0
  6
Continuous
 62
     7
370
    25
100
AcDbLine
 10
268.5409716441
 20
58.7733997372
 30
0.0
 11
267.9976836203
 21
59.3957720346
 31
0.0
  0
LINE
  5
258
330
1F
100
AcDbEntity
  8
0
  6
Continuous
 62
     7
370
    25
100
AcDbLine
 10
261.2143608977
 20
74.9390120787
 30
0.0
 11
261.2402523982
 21
75.7374606316
 31
0.0
  0
LWPOLYLINE
  5
259
330
1F
100
AcDbEntity
  8
0
  6
Continuous
 62
     7
370
    25
100
AcDbPolyline
 90
        9
 70
   128
 43
0.0
 10
261.2402523982
 20
75.7374606316
 10
261.2480312906
 20
75.7896630434
 10
261.2672520645
 20
75.8281774071
 10
261.2969985199
 20
75.8511804789
 10
261.3358671339
 20
75.8575782022
 10
261.3820103597
 20
75.8470697857
 10
261.4332410065
 20
75.8201534438
 10
261.4871328317
 20
75.7781034785
 10
261.5411285423
 20
75.7229151588
  0
LINE
  5
25A
330
1F
100
AcDbEntity
  8
0
  6
Continuous
 62
     7
370
    25
100
AcDbLine
 10
261.5411285423
 20
75.7229151588
 30
0.0
 11
268.9061808365
 21
67.2857684251
 31
0.0
  0
ARC
  5
25B
330
1F
100
AcDbEntity
  8
0
  6
Continuous
 62
     7
370
    25
100
AcDbCircle
 10
268.3479026653
 20
66.773814359
 30
0.0
 40
0.7574770505850209
100
AcDbArc
 50
4.049077338
 51
42.5215472545
  0
LINE
  5
25C
330
1F
100
AcDbEntity
  8
0
  6
Continuous
 62
     7
370
    25
100
AcDbLine
 10
265.2641003528
 20
77.8757487115
 30
0.0
 11
272.6291580801
 21
69.438598972
 31
0.0
  0
ARC
  5
25D
330
1F
100
AcDbEntity
  8
0
  6
Continuous
 62
     7
370
    25
100
AcDbCircle
 10
272.0708314657
 20
68.926624199
 30
0.0
 40
0.7575267496948568
100
AcDbArc
 50
4.0503777428
 51
42.5202251771
  0
LINE
  5
25E
330
1F
100
AcDbEntity
  8
0
  6
Continuous
 62
     7
370
    25
100
AcDbLine
 10
272.8264661641
 20
68.9801310119
 30
0.0
 11
272.5648223152
 21
60.9116868073
 31
0.0
  0
LWPOLYLINE
  5
25F
330
1F
100
AcDbEntity
  8
0
  6
Continuous
 62
     7
370
    25
100
AcDbPolyline
 90
        7
 70
   128
 43
0.0
 10
265.0120814612
 20
78.000061345
 10
265.0199730469
 20
78.0040125287
 10
265.0588389444
 20
78.0104117549
 10
265.1049821703
 20
77.9999033265
 10
265.1562128171
 20
77.9729869846
 10
265.2101047246
 20
77.9309370549
 10
265.2641003528
 20
77.8757487115
  0
ARC
  5
260
330
1F
100
AcDbEntity
  8
0
  6
Continuous
 62
     7
370
    25
100
AcDbCircle
 10
272.4432811319
 20
60.9000271475
 30
0.0
 40
0.1220991683113694
100
AcDbArc
 50
306.5330262143
 51
5.4797163342
  0
ELLIPSE
  5
261
330
1F
100
AcDbEntity
  8
0
  6
Continuous
 62
     7
370
    25
100
AcDbEllipse
 10
230.815474457
 20
88.8788386882
 30
0.0
 11
-0.6798847314877605
 21
2.146855200873148
 31
0.0
210
0.0
220
0.0
230
1.0
 40
0.5651950951
 41
0.0284552639425465
 42
2.014683798994821
  0
ELLIPSE
  5
262
330
1F
100
AcDbEntity
  8
0
  6
Continuous
 62
     7
370
    25
100
AcDbEllipse
 10
230.815474457
 20
88.8788386882
 30
0.0
 11
-0.6798847314877605
 21
2.146855200873148
 31
0.0
210
0.0
220
0.0
230
1.0
 40
0.5651950951
 41
2.437105559713164
 42
2.801222017118072
  0
LINE
  5
263
330
1F
100
AcDbEntity
  8
0
  6
Continuous
 62
     7
370
    25
100
AcDbLine
 10
230.0116521722
 20
87.6098363593
 30
0.0
 11
230.5476632792
 21
86.9941874755
 31
0.0
  0
ARC
  5
264
330
1F
100
AcDbEntity
  8
0
  6
Continuous
 62
     7
370
    25
100
AcDbCircle
 10
251.289247072
 20
66.7066038863
 30
0.0
 40
5.672280885318121
100
AcDbArc
 50
175.1398405182
 51
234.5751394277
  0
LWPOLYLINE
  5
265
330
1F
100
AcDbEntity
  8
0
  6
Continuous
 62
     7
370
    25
100
AcDbPolyline
 90
       30
 70
   128
 43
0.0
 10
236.5309443159
 20
78.0292570477
 10
236.1193475776
 20
78.5767596772
 10
235.7668557028
 20
79.2159605449
 10
235.489949591
 20
79.9169720871
 10
235.301579026
 20
80.6470143859
 10
235.2105518761
 20
81.3719513997
 10
235.2211223386
 20
82.0578873842
 10
235.3327981516
 20
82.6727475577
 10
235.5403573865
 20
83.187782078
 10
235.834093591
 20
83.5789083536
 10
236.200273478
 20
83.8278376945
 10
236.6217727501
 20
83.9229314536
 10
237.0788851213
 20
83.85974198
 10
237.5502357187
 20
83.6412229786
 10
238.0137833869
 20
83.2775950169
 10
238.4478547675
 20
82.7858590422
 10
238.8321518725
 20
82.1890079033
 10
239.1487068089
 20
81.5149503227
 10
239.3827158254
 20
80.7952047257
 10
239.5232390159
 20
80.0634249959
 10
239.5637044357
 20
79.3538292534
 10
239.5022215679
 20
78.6995953437
 10
239.3416621607
 20
78.1313174223
 10
239.0895364202
 20
77.6755656539
 10
238.7576329516
 20
77.3536501625
 10
238.3614713442
 20
77.1806243111
 10
237.9195748084
 20
77.1645779804
 10
237.4526058369
 20
77.3062631466
 10
236.9824007776
 20
77.5990527158
 10
236.5309443159
 20
78.0292570477
  0
LWPOLYLINE
  5
266
330
1F
100
AcDbEntity
  8
0
  6
Continuous
 62
     7
370
    25
100
AcDbPolyline
 90
       22
 70
   128
 43
0.0
 10
236.8962748452
 20
79.1043655822
 10
236.5798091416
 20
79.5510734789
 10
236.334745797
 20
80.0854588058
 10
236.18285761
 20
80.6600415053
 10
236.1376411209
 20
81.2237667353
 10
236.2031142744
 20
81.7265439489
 10
236.3734593237
 20
82.1237007039
 10
236.6335401173
 20
82.3799467405
 10
236.9602470111
 20
82.4725141058
 10
237.3245523512
 20
82.3931775947
 10
237.6940834066
 20
82.1489869515
 10
238.0360081116
 20
81.7616382832
 10
238.3199430336
 20
81.2655510986
 10
238.5206609788
 20
80.7048037995
 10
238.6203265864
 20
80.1292209377
 10
238.610084079
 20
79.5899464359
 10
238.4908434006
 20
79.1348968598
 10
238.2732003676
 20
78.8045047084
 10
237.9764923163
 20
78.6281282419
 10
237.6270827591
 20
78.6214388781
 10
237.2560210816
 20
78.7850294223
 10
236.8962748452
 20
79.1043655822
  0
LINE
  5
267
330
1F
100
AcDbEntity
  8
0
  6
Continuous
 62
     7
370
    25
100
AcDbLine
 10
237.7150351648
 20
82.0922537567
 30
0.0
 11
237.4615857498
 21
82.2434942596
 31
0.0
  0
SPLINE
  5
268
330
1F
100
AcDbEntity
  8
0
  6
Continuous
 62
     7
370
    25
100
AcDbSpline
210
0.0
220
0.0
230
1.0
 70
     8
 71
     3
 72
    10
 73
     6
 74
     0
 42
0.000000001
 43
0.00000001
 40
0.0
 40
0.0
 40
0.0
 40
0.0
 40
0.4391159261962117
 40
0.7513668180496961
 40
1.0
 40
1.0
 40
1.0
 40
1.0
 10
237.4615857497899
 20
82.24349425956552
 30
0.0
 10
237.4185329279496
 20
82.19615390606427
 30
0.0
 10
237.3448656801355
 20
82.11515030620923
 30
0.0
 10
236.976795545993
 20
81.91289542475523
 30
0.0
 10
236.7154227919212
 20
81.78691312090912
 30
0.0
 10
236.599559385283
 20
81.73106667680835
 30
0.0
  0
SPLINE
  5
269
330
1F
100
AcDbEntity
  8
0
  6
Continuous
 62
     7
370
    25
100
AcDbSpline
210
0.0
220
0.0
230
1.0
 70
     8
 71
     3
 72
    10
 73
     6
 74
     0
 42
0.000000001
 43
0.00000001
 40
0.0
 40
0.0
 40
0.0
 40
0.0
 40
0.4391165717320872
 40
0.7513666181803187
 40
1.0
 40
1.0
 40
1.0
 40
1.0
 10
236.599559385283
 20
81.73106667680837
 30
0.0
 10
236.6987182651338
 20
81.52262209994268
 30
0.0
 10
236.8683877265301
 20
81.16595531285284
 30
0.0
 10
236.8540513765803
 20
80.56297299195327
 30
0.0
 10
236.7687434014602
 20
80.23753757057725
 30
0.0
 10
236.7309273254606
 20
80.09327566997072
 30
0.0
  0
SPLINE
  5
26A
330
1F
100
AcDbEntity
  8
0
  6
Continuous
 62
     7
370
    25
100
AcDbSpline
210
0.0
220
0.0
230
1.0
 70
     8
 71
     3
 72
    11
 73
     7
 74
     0
 42
0.000000001
 43
0.00000001
 40
0.0
 40
0.0
 40
0.0
 40
0.0
 40
0.1864192422151739
 40
0.5288417302170907
 40
0.8918898516388442
 40
0.9999999999999999
 40
0.9999999999999999
 40
0.9999999999999999
 40
0.9999999999999999
 10
236.7309273254606
 20
80.09327566997072
 30
0.0
 10
236.8260828992909
 20
80.0392042966516
 30
0.0
 10
237.0960241226661
 20
79.88581241348814
 30
0.0
 10
237.4827399183123
 20
79.55764593748617
 30
0.0
 10
237.661602389368
 20
79.20970506299875
 30
0.0
 10
237.7126152619039
 20
79.01303927082661
 30
0.0
 10
237.7243204776921
 20
78.96791310127196
 30
0.0
  0
SPLINE
  5
26B
330
1F
100
AcDbEntity
  8
0
  6
Continuous
 62
     7
370
    25
100
AcDbSpline
210
0.0
220
0.0
230
1.0
 70
     8
 71
     3
 72
    10
 73
     6
 74
     0
 42
0.000000001
 43
0.00000001
 40
0.0
 40
0.0
 40
0.0
 40
0.0
 40
0.4391167643659775
 40
0.751366944051714
 40
1.0
 40
1.0
 40
1.0
 40
1.0
 10
237.7243204776921
 20
78.96791310127196
 30
0.0
 10
237.9280787575559
 20
79.06728897704518
 30
0.0
 10
238.2767268814494
 20
79.23732973647732
 30
0.0
 10
238.522569215065
 20
79.4000089056951
 30
0.0
 10
238.5667584359388
 20
79.45566729701044
 30
0.0
 10
238.5863470068352
 20
79.48034001860866
 30
0.0
  0
LINE
  5
26C
330
1F
100
AcDbEntity
  8
0
  6
Continuous
 62
     7
370
    25
100
AcDbLine
 10
237.7150358233
 20
82.0922539191
 30
0.0
 11
236.5995593853
 21
81.7310666768
 31
0.0
  0
LINE
  5
26D
330
1F
100
AcDbEntity
  8
0
  6
Continuous
 62
     7
370
    25
100
AcDbLine
 10
238.5283299354
 20
80.6752692379
 30
0.0
 11
236.7309273255
 21
80.09327567
 31
0.0
  0
LINE
  5
26E
330
1F
100
AcDbEntity
  8
0
  6
Continuous
 62
     7
370
    25
100
AcDbLine
 10
251.9403808637
 20
55.3975239665
 30
0.0
 11
253.5129943684
 21
55.793994441
 31
0.0
  0
SPLINE
  5
26F
330
1F
100
AcDbEntity
  8
0
  6
Continuous
 62
     7
370
    25
100
AcDbSpline
210
0.0
220
0.0
230
1.0
 70
     8
 71
     3
 72
    10
 73
     6
 74
     0
 42
0.000000001
 43
0.00000001
 40
0.0
 40
0.0
 40
0.0
 40
0.0
 40
0.3891674586982113
 40
0.879416675149091
 40
1.0
 40
1.0
 40
1.0
 40
1.0
 10
251.4176335016208
 20
54.96723471689948
 30
0.0
 10
251.4679559764604
 20
55.05300910766756
 30
0.0
 10
251.5816716084321
 20
55.24683679766641
 30
0.0
 10
251.7852777793569
 20
55.355918072774
 30
0.0
 10
251.9148101227995
 20
55.39066469913369
 30
0.0
 10
251.9403808637014
 20
55.39752396652778
 30
0.0
  0
ELLIPSE
  5
270
330
1F
100
AcDbEntity
  8
0
  6
Continuous
 62
     7
370
    25
100
AcDbEllipse
 10
249.6264857214
 20
126.0809872225
 30
0.0
 11
17.897684424072
 21
95.60922126663726
 31
0.0
210
0.0
220
0.0
230
1.0
 40
0.2183760757
 41
3.708366013404707
 42
3.915441885924538
  0
LINE
  5
271
330
1F
100
AcDbEntity
  8
0
  6
Continuous
 62
     7
370
    25
100
AcDbLine
 10
235.7318369401
 20
49.0990403224
 30
0.0
 11
245.7373986778
 21
43.3229524787
 31
0.0
  0
LINE
  5
272
330
1F
100
AcDbEntity
  8
0
  6
Continuous
 62
     7
370
    25
100
AcDbLine
 10
235.7318369401
 20
49.0990403224
 30
0.0
 11
238.7328914345
 21
63.7649616325
 31
0.0
  0
ELLIPSE
  5
273
330
1F
100
AcDbEntity
  8
0
  6
Continuous
 62
     7
370
    25
100
AcDbEllipse
 10
248.1374127673
 20
58.3358479278
 30
0.0
 11
-2.364379608783765
 21
13.83637168775444
 31
0.0
210
0.0
220
0.0
230
1.0
 40
0.6846783801
 41
5.76638674567976
 42
7.337183072474641
  0
LINE
  5
274
330
1F
100
AcDbEntity
  8
0
  6
Continuous
 62
     7
370
    25
100
AcDbLine
 10
250.7626411827
 20
71.1651322965
 30
0.0
 11
253.298548569
 21
69.7011841234
 31
0.0
  0
LINE
  5
275
330
1F
100
AcDbEntity
  8
0
  6
Continuous
 62
     7
370
    25
100
AcDbLine
 10
258.0478879254
 20
63.9884343722
 30
0.0
 11
253.298548569
 21
69.7011841234
 31
0.0
  0
LINE
  5
276
330
1F
100
AcDbEntity
  8
0
  6
Continuous
 62
     7
370
    25
100
AcDbLine
 10
258.2210897408
 20
63.1392351253
 30
0.0
 11
258.0478879254
 21
63.9884351326
 31
0.0
  0
ELLIPSE
  5
277
330
1F
100
AcDbEntity
  8
0
  6
Continuous
 62
     7
370
    25
100
AcDbEllipse
 10
303.4144977974
 20
388.9388194758
 30
0.0
 11
68.51722377208705
 21
347.0709177184417
 31
0.0
210
0.0
220
0.0
230
1.0
 40
0.1425771091
 41
3.455323018008979
 42
3.522731587228515
  0
ELLIPSE
  5
278
330
1F
100
AcDbEntity
  8
0
  6
Continuous
 62
     7
370
    25
100
AcDbEllipse
 10
244.8861476146
 20
63.1017426257
 30
0.0
 11
-0.6184182652123411
 21
4.305027166522343
 31
0.0
210
0.0
220
0.0
230
1.0
 40
0.7167441738
 41
0.0
 42
6.283185307179586
  0
LINE
  5
279
330
1F
100
AcDbEntity
  8
0
  6
Continuous
 62
     7
370
    25
100
AcDbLine
 10
253.298548569
 20
69.7011841234
 30
0.0
 11
259.4276216462
 21
73.2237063411
 31
0.0
  0
LINE
  5
27A
330
1F
100
AcDbEntity
  8
0
  6
Continuous
 62
     7
370
    25
100
AcDbLine
 10
259.4276216462
 20
73.2237063411
 30
0.0
 11
259.7290019061
 21
72.8784560344
 31
0.0
  0
SPLINE
  5
27B
330
1F
100
AcDbEntity
  8
0
  6
Continuous
 62
     7
370
    25
100
AcDbSpline
210
0.0
220
0.0
230
1.0
 70
     8
 71
     3
 72
     9
 73
     5
 74
     0
 42
0.000000001
 43
0.00000001
 40
0.0
 40
0.0
 40
0.0
 40
0.0
 40
0.4996742477039754
 40
1.0
 40
1.0
 40
1.0
 40
1.0
 10
258.0478879254046
 20
63.98843399192104
 30
0.0
 10
259.3723863030482
 20
64.22109318442337
 30
0.0
 10
262.0231100170075
 20
64.68671492412965
 30
0.0
 10
264.4563773729449
 20
65.60756244139638
 30
0.0
 10
265.6738036933417
 20
66.0682861682228
 30
0.0
  0
ARC
  5
27C
330
1F
100
AcDbEntity
  8
0
  6
Continuous
 62
     7
370
    25
100
AcDbCircle
 10
250.4144433364
 20
99.3728902702
 30
0.0
 40
43.68891369884397
100
AcDbArc
 50
274.0670058951
 51
290.6584091897
  0
SPLINE
  5
27D
330
1F
100
AcDbEntity
  8
0
  6
Continuous
 62
     7
370
    25
100
AcDbSpline
210
0.0
220
0.0
230
1.0
 70
     8
 71
     3
 72
     9
 73
     5
 74
     0
 42
0.000000001
 43
0.00000001
 40
0.0
 40
0.0
 40
0.0
 40
0.0
 40
0.5008815897721292
 40
1.0
 40
1.0
 40
1.0
 40
1.0
 10
266.048323881932
 20
65.29001251374899
 30
0.0
 10
264.7977594914224
 20
64.81491559045064
 30
0.0
 10
262.3010328876786
 20
63.8663941574419
 30
0.0
 10
259.5794378699605
 20
63.38136758154248
 30
0.0
 10
258.221039691433
 20
63.13928188806128
 30
0.0
  0
LINE
  5
27E
330
1F
100
AcDbEntity
  8
0
  6
Continuous
 62
     7
370
    25
100
AcDbLine
 10
266.0483228941
 20
65.2900214493
 30
0.0
 11
265.8277048863
 21
58.493157534
 31
0.0
  0
LINE
  5
27F
330
1F
100
AcDbEntity
  8
0
  6
Continuous
 62
     7
370
    25
100
AcDbLine
 10
265.6738109373
 20
66.068291871
 30
0.0
 11
266.0126985997
 21
65.3640941843
 31
0.0
  0
LINE
  5
280
330
1F
100
AcDbEntity
  8
0
  6
Continuous
 62
     7
370
    25
100
AcDbLine
 10
261.034574625
 20
75.074868111
 30
0.0
 11
261.2222808832
 21
75.1832685963
 31
0.0
  0
LINE
  5
281
330
1F
100
AcDbEntity
  8
0
  6
Continuous
 62
     7
370
    25
100
AcDbLine
 10
261.3478495158
 20
74.8381411778
 30
0.0
 11
261.034574625
 21
75.074868111
 31
0.0
  0
LINE
  5
282
330
1F
100
AcDbEntity
  8
0
  6
Continuous
 62
     7
370
    25
100
AcDbLine
 10
259.0484244746
 20
73.510247493
 30
0.0
 11
261.3478495158
 21
74.8381411778
 31
0.0
  0
LINE
  5
283
330
1F
100
AcDbEntity
  8
0
  6
Continuous
 62
     7
370
    25
100
AcDbLine
 10
264.2397332182
 20
77.5534463249
 30
0.0
 11
262.0001846076
 21
79.245766467
 31
0.0
  0
LINE
  5
284
330
1F
100
AcDbEntity
  8
0
  6
Continuous
 62
     7
370
    25
100
AcDbLine
 10
259.4276216462
 20
73.2237063411
 30
0.0
 11
259.0484244746
 21
73.510247493
 31
0.0
  0
ELLIPSE
  5
285
330
1F
100
AcDbEntity
  8
0
  6
Continuous
 62
     7
370
    25
100
AcDbEllipse
 10
263.1547851673
 20
69.134461849
 30
0.0
 11
-6.727219146340587
 21
11.53042749137726
 31
0.0
210
0.0
220
0.0
230
1.0
 40
0.4285933866
 41
5.484730951741234
 42
6.324116552867241
  0
SPLINE
  5
286
330
1F
100
AcDbEntity
  8
0
  6
Continuous
 62
     7
370
    25
100
AcDbSpline
210
0.0
220
0.0
230
1.0
 70
     8
 71
     3
 72
    12
 73
     8
 74
     0
 42
0.000000001
 43
0.00000001
 40
0.0
 40
0.0
 40
0.0
 40
0.0
 40
0.1999660064739015
 40
0.430463128342378
 40
0.6632401328648526
 40
0.9025691054887671
 40
1.0
 40
1.0
 40
1.0
 40
1.0
 10
270.8852718837897
 20
59.85896345547054
 30
0.0
 10
270.9268423576541
 20
59.65845892496387
 30
0.0
 10
271.0163303488475
 20
59.22683652588385
 30
0.0
 10
271.3880265094712
 20
58.86219247263931
 30
0.0
 10
271.8891051213847
 20
58.77107634867886
 30
0.0
 10
272.3487949369193
 20
58.95375710722223
 30
0.0
 10
272.6132213495874
 20
59.17146162889966
 30
0.0
 10
272.689724830058
 20
59.23444759711083
 30
0.0
  0
ARC
  5
287
330
1F
100
AcDbEntity
  8
0
  6
Continuous
 62
     7
370
    25
100
AcDbCircle
 10
261.3829634915
 20
71.9885172373
 30
0.0
 40
17.04432880328671
100
AcDbArc
 50
311.5576891585
 51
317.5202982206
  0
ELLIPSE
  5
288
330
1F
100
AcDbEntity
  8
0
  6
Continuous
 62
     7
370
    25
100
AcDbEllipse
 10
249.6264857214
 20
69.6606402444
 30
0.0
 11
27.41909142745794
 21
-5.132750158008662
 31
0.0
210
0.0
220
0.0
230
1.0
 40
0.4106849769
 41
5.874787779597821
 42
5.946683426720907
  0
ELLIPSE
  5
289
330
1F
100
AcDbEntity
  8
0
  6
Continuous
 62
     7
370
    25
100
AcDbEllipse
 10
249.6264857214
 20
75.6381338519
 30
0.0
 11
27.50000001356671
 21
-15.87799260567999
 31
0.0
210
0.0
220
0.0
230
1.0
 40
0.0000703729
 41
0.0000406320308419
 42
0.4132702619428912
  0
ARC
  5
28A
330
1F
100
AcDbEntity
  8
0
  6
Continuous
 62
     7
370
    25
100
AcDbCircle
 10
267.6933835874
 20
31.9714581921
 30
0.0
 40
9.433120782160003
100
AcDbArc
 50
342.0040289686
 51
359.8890845064
  0
ELLIPSE
  5
28B
330
1F
100
AcDbEntity
  8
0
  6
Continuous
 62
     7
370
    25
100
AcDbEllipse
 10
249.6264857214
 20
35.3601680465
 30
0.0
 11
27.41909142745794
 21
-5.132750158008641
 31
0.0
210
0.0
220
0.0
230
1.0
 40
0.4106849769
 41
6.066247066892076
 42
6.176458776709683
  0
ELLIPSE
  5
28C
330
1F
100
AcDbEntity
  8
0
  6
Continuous
 62
     7
370
    25
100
AcDbEllipse
 10
249.6264857214
 20
72.087083836
 30
0.0
 11
-23.17932672962238
 21
73.29085645112781
 31
0.0
210
0.0
220
0.0
230
1.0
 40
0.2019023318
 41
4.003433257657267
 42
4.011777221857707
  0
ELLIPSE
  5
28D
330
1F
100
AcDbEntity
  8
0
  6
Continuous
 62
     7
370
    25
100
AcDbEllipse
 10
249.6264857214
 20
22.700482069
 30
0.0
 11
19.44622657415703
 21
33.68002771722107
 31
0.0
210
0.0
220
0.0
230
1.0
 40
0.5773346305
 41
5.19581782234681
 42
5.295213808654776
  0
SPLINE
  5
28E
330
1F
100
AcDbEntity
  8
0
  6
Continuous
 62
     7
370
    25
100
AcDbSpline
210
0.0
220
0.0
230
1.0
 70
     8
 71
     3
 72
    14
 73
    10
 74
     0
 42
0.000000001
 43
0.00000001
 40
0.0
 40
0.0
 40
0.0
 40
0.0
 40
0.1492303767436383
 40
0.299179116783829
 40
0.4339262635342087
 40
0.5602149803778717
 40
0.6930880206415773
 40
0.8437555150163131
 40
1.0
 40
1.0
 40
1.0
 40
1.0
 10
276.5639434876094
 20
31.86391870340352
 30
0.0
 10
276.5693360210773
 20
31.90094639862161
 30
0.0
 10
276.5801470465225
 20
31.97518003250781
 30
0.0
 10
276.5880199121989
 20
32.08408916962158
 30
0.0
 10
276.5879856975174
 20
32.17011217322086
 30
0.0
 10
276.5811204754962
 20
32.22790418826244
 30
0.0
 10
276.5682830065475
 20
32.25855294154571
 30
0.0
 10
276.5498887225766
 20
32.26122085917135
 30
0.0
 10
276.5345214459206
 20
32.23752424155765
 30
0.0
 10
276.5266981858714
 20
32.22546063353997
 30
0.0
  0
ELLIPSE
  5
28F
330
1F
100
AcDbEntity
  8
0
  6
Continuous
 62
     7
370
    25
100
AcDbEllipse
 10
249.6264857214
 20
38.8009932271
 30
0.0
 11
27.41909142745794
 21
-5.132750158008633
 31
0.0
210
0.0
220
0.0
230
1.0
 40
0.4106849769
 41
6.016703962938853
 42
6.15067528829201
  0
ELLIPSE
  5
290
330
1F
100
AcDbEntity
  8
0
  6
Continuous
 62
     7
370
    25
100
AcDbEllipse
 10
249.6264857214
 20
72.087083836
 30
0.0
 11
-23.17932672962229
 21
73.29085645112937
 31
0.0
210
0.0
220
0.0
230
1.0
 40
0.2019023318
 41
4.052976361610499
 42
4.061116939947695
  0
ELLIPSE
  5
291
330
1F
100
AcDbEntity
  8
0
  6
Continuous
 62
     7
370
    25
100
AcDbEllipse
 10
249.6264857214
 20
27.4007366757
 30
0.0
 11
19.44622657415704
 21
33.68002771722107
 31
0.0
210
0.0
220
0.0
230
1.0
 40
0.5773346305
 41
5.146478104256826
 42
5.243105235515071
  0
SPLINE
  5
292
330
1F
100
AcDbEntity
  8
0
  6
Continuous
 62
     7
370
    25
100
AcDbSpline
210
0.0
220
0.0
230
1.0
 70
     8
 71
     3
 72
    14
 73
    10
 74
     0
 42
0.000000001
 43
0.00000001
 40
0.0
 40
0.0
 40
0.0
 40
0.0
 40
0.1508361724112909
 40
0.3022614728416246
 40
0.4411116087226774
 40
0.5731315426934223
 40
0.7111946778611895
 40
0.8649446345673691
 40
1.0
 40
1.0
 40
1.0
 40
1.0
 10
276.2391486777278
 20
34.76527299474849
 30
0.0
 10
276.2457766267618
 20
34.80218767396556
 30
0.0
 10
276.2590584119258
 20
34.87616121181958
 30
0.0
 10
276.2685284332884
 20
34.98465390524503
 30
0.0
 10
276.2682645375318
 20
35.07138957552402
 30
0.0
 10
276.2592614496517
 20
35.13042963455294
 30
0.0
 10
276.2425937035731
 20
35.16127883235563
 30
0.0
 10
276.2202203828809
 20
35.16276876043413
 30
0.0
 10
276.2024611094019
 20
35.14131824444598
 30
0.0
 10
276.1941562583979
 20
35.13128724067482
 30
0.0
  0
ELLIPSE
  5
293
330
1F
100
AcDbEntity
  8
0
  6
Continuous
 62
     7
370
    25
100
AcDbEllipse
 10
249.6264857214
 20
42.2418184078
 30
0.0
 11
27.41909142745794
 21
-5.132750158008619
 31
0.0
210
0.0
220
0.0
230
1.0
 40
0.4106849769
 41
5.96829774419471
 42
6.0987762371492
  0
ELLIPSE
  5
294
330
1F
100
AcDbEntity
  8
0
  6
Continuous
 62
     7
370
    25
100
AcDbEllipse
 10
249.6264857214
 20
72.087083836
 30
0.0
 11
-23.17932672962238
 21
73.29085645112784
 31
0.0
210
0.0
220
0.0
230
1.0
 40
0.2019023318
 41
4.10138258035463
 42
4.109352119746795
  0
ELLIPSE
  5
295
330
1F
100
AcDbEntity
  8
0
  6
Continuous
 62
     7
370
    25
100
AcDbEllipse
 10
249.6264857214
 20
32.1009912824
 30
0.0
 11
19.44622657415704
 21
33.68002771722106
 31
0.0
210
0.0
220
0.0
230
1.0
 40
0.5773346305
 41
5.098242924457715
 42
5.192545123786198
  0
SPLINE
  5
296
330
1F
100
AcDbEntity
  8
0
  6
Continuous
 62
     7
370
    25
100
AcDbSpline
210
0.0
220
0.0
230
1.0
 70
     8
 71
     3
 72
    14
 73
    10
 74
     0
 42
0.000000001
 43
0.00000001
 40
0.0
 40
0.0
 40
0.0
 40
0.0
 40
0.1524108441228841
 40
0.305304149377383
 40
0.4478926676887488
 40
0.5850356305963126
 40
0.7275927203745713
 40
0.8836839028793234
 40
1.0
 40
1.0
 40
1.0
 40
1.0
 10
275.8549406408805
 20
37.70092657229542
 30
0.0
 10
275.8627235393222
 20
37.73773607270501
 30
0.0
 10
275.8783139732058
 20
37.81147159510975
 30
0.0
 10
275.8892029065033
 20
37.91966856056351
 30
0.0
 10
275.8886336307729
 20
38.00708998955245
 30
0.0
 10
275.8774528804884
 20
38.06724943679583
 30
0.0
 10
275.8569328738538
 20
38.0982863569252
 30
0.0
 10
275.8309524577123
 20
38.09881855180436
 30
0.0
 10
275.8112689746621
 20
38.07934473368492
 30
0.0
 10
275.8028642582782
 20
38.07102954283245
 30
0.0
  0
ELLIPSE
  5
297
330
1F
100
AcDbEntity
  8
0
  6
Continuous
 62
     7
370
    25
100
AcDbEllipse
 10
249.6264857214
 20
45.6826435884
 30
0.0
 11
27.41909142745794
 21
-5.132750158008627
 31
0.0
210
0.0
220
0.0
230
1.0
 40
0.4106849769
 41
5.920846959773255
 42
6.048391533832035
  0
ELLIPSE
  5
298
330
1F
100
AcDbEntity
  8
0
  6
Continuous
 62
     7
370
    25
100
AcDbEllipse
 10
249.6264857214
 20
72.087083836
 30
0.0
 11
-23.17932672962237
 21
73.29085645112785
 31
0.0
210
0.0
220
0.0
230
1.0
 40
0.2019023318
 41
4.14883336477608
 42
4.156659414769944
  0
ELLIPSE
  5
299
330
1F
100
AcDbEntity
  8
0
  6
Continuous
 62
     7
370
    25
100
AcDbEllipse
 10
249.6264857214
 20
36.8012458891
 30
0.0
 11
19.44622657415704
 21
33.68002771722106
 31
0.0
210
0.0
220
0.0
230
1.0
 40
0.5773346305
 41
5.050935629434565
 42
5.143283827779356
  0
SPLINE
  5
29A
330
1F
100
AcDbEntity
  8
0
  6
Continuous
 62
     7
370
    25
100
AcDbSpline
210
0.0
220
0.0
230
1.0
 70
     8
 71
     3
 72
    14
 73
    10
 74
     0
 42
0.000000001
 43
0.00000001
 40
0.0
 40
0.0
 40
0.0
 40
0.0
 40
0.1539144047790444
 40
0.3082110237231639
 40
0.4541806512559842
 40
0.5958772625654031
 40
0.7422938870187988
 40
0.9001223889522466
 40
1.0
 40
1.0
 40
1.0
 40
1.0
 10
275.4161201665307
 20
40.66810647860027
 30
0.0
 10
275.4249939630782
 20
40.70480477499736
 30
0.0
 10
275.4427635923872
 20
40.77829250031901
 30
0.0
 10
275.4549260515532
 20
40.88626457789042
 30
0.0
 10
275.453996550369
 20
40.97433890500439
 30
0.0
 10
275.4406113298853
 20
41.03552492549171
 30
0.0
 10
275.4162667642267
 20
41.06677398530706
 30
0.0
 10
275.3869812879046
 20
41.06658823753646
 30
0.0
 10
275.3657258253607
 20
41.04886405383427
 30
0.0
 10
275.3574879733515
 20
41.04199479836545
 30
0.0
  0
ELLIPSE
  5
29B
330
1F
100
AcDbEntity
  8
0
  6
Continuous
 62
     7
370
    25
100
AcDbEllipse
 10
249.6264857214
 20
49.123468769
 30
0.0
 11
27.41909142745794
 21
-5.132750158008627
 31
0.0
210
0.0
220
0.0
230
1.0
 40
0.4106849769
 41
5.874195877476117
 42
5.999277653729505
  0
ELLIPSE
  5
29C
330
1F
100
AcDbEntity
  8
0
  6
Continuous
 62
     7
370
    25
100
AcDbEllipse
 10
249.6264857214
 20
72.087083836
 30
0.0
 11
-23.17932672962252
 21
73.29085645112499
 31
0.0
210
0.0
220
0.0
230
1.0
 40
0.2019023318
 41
4.195484447073206
 42
4.203190916786204
  0
ELLIPSE
  5
29D
330
1F
100
AcDbEntity
  8
0
  6
Continuous
 62
     7
370
    25
100
AcDbEllipse
 10
249.6264857214
 20
41.5015004958
 30
0.0
 11
19.44622657415703
 21
33.68002771722107
 31
0.0
210
0.0
220
0.0
230
1.0
 40
0.5773346305
 41
5.004404127418289
 42
5.095114592045272
  0
SPLINE
  5
29E
330
1F
100
AcDbEntity
  8
0
  6
Continuous
 62
     7
370
    25
100
AcDbSpline
210
0.0
220
0.0
230
1.0
 70
     8
 71
     3
 72
    14
 73
    10
 74
     0
 42
0.000000001
 43
0.00000001
 40
0.0
 40
0.0
 40
0.0
 40
0.0
 40
0.1553093662278315
 40
0.310917823871509
 40
0.4599168465878841
 40
0.6056262587917105
 40
0.7553329463829359
 40
0.9144040580393735
 40
1.0
 40
1.0
 40
1.0
 40
1.0
 10
274.9265153739033
 20
43.66460354781341
 30
0.0
 10
274.9364228776096
 20
43.7011736290109
 30
0.0
 10
274.9562569646781
 20
43.7743842172767
 30
0.0
 10
274.9695908259101
 20
43.88216250353164
 30
0.0
 10
274.9682647184198
 20
43.9708506939802
 30
0.0
 10
274.9526601492663
 20
44.03300229027454
 30
0.0
 10
274.9245540932706
 20
44.06452652423895
 30
0.0
 10
274.8922071475226
 20
44.06384754395513
 30
0.0
 10
274.869642385747
 20
44.04768717761624
 30
0.0
 10
274.8617481800877
 20
44.0420335280596
 30
0.0
  0
ELLIPSE
  5
29F
330
1F
100
AcDbEntity
  8
0
  6
Continuous
 62
     7
370
    25
100
AcDbEllipse
 10
249.6264857214
 20
52.5642939496
 30
0.0
 11
27.41909142745794
 21
-5.132750158008627
 31
0.0
210
0.0
220
0.0
230
1.0
 40
0.4106849769
 41
5.828208346649144
 42
5.951232364329876
  0
ELLIPSE
  5
2A0
330
1F
100
AcDbEntity
  8
0
  6
Continuous
 62
     7
370
    25
100
AcDbEllipse
 10
249.6264857214
 20
72.087083836
 30
0.0
 11
-23.17932672962238
 21
73.29085645112782
 31
0.0
210
0.0
220
0.0
230
1.0
 40
0.2019023318
 41
4.241471977900185
 42
4.249079993746954
  0
ELLIPSE
  5
2A1
330
1F
100
AcDbEntity
  8
0
  6
Continuous
 62
     7
370
    25
100
AcDbEllipse
 10
249.6264857214
 20
46.2017551025
 30
0.0
 11
19.44622657415704
 21
33.68002771722106
 31
0.0
210
0.0
220
0.0
230
1.0
 40
0.5773346305
 41
4.958515050457545
 42
5.047862589783874
  0
SPLINE
  5
2A2
330
1F
100
AcDbEntity
  8
0
  6
Continuous
 62
     7
370
    25
100
AcDbSpline
210
0.0
220
0.0
230
1.0
 70
     8
 71
     3
 72
    14
 73
    10
 74
     0
 42
0.000000001
 43
0.00000001
 40
0.0
 40
0.0
 40
0.0
 40
0.0
 40
0.1565688478100881
 40
0.3133722677796325
 40
0.4650645633098632
 40
0.614274102810618
 40
0.766758598441192
 40
0.9266830093785836
 40
1.0
 40
1.0
 40
1.0
 40
1.0
 10
274.3891983731281
 20
46.68864504884609
 30
0.0
 10
274.4000947994108
 20
46.725060641945
 30
0.0
 10
274.4219039770516
 20
46.79794638614992
 30
0.0
 10
274.4363205015609
 20
46.90553992955622
 30
0.0
 10
274.4345661241846
 20
46.99480655784957
 30
0.0
 10
274.4167716018781
 20
47.05787181430306
 30
0.0
 10
274.3849726494738
 20
47.08977021359588
 30
0.0
 10
274.3497753472618
 20
47.08881785545442
 30
0.0
 10
274.3260848293473
 20
47.07405817277825
 30
0.0
 10
274.3186379632758
 20
47.06941862118444
 30
0.0
  0
ELLIPSE
  5
2A3
330
1F
100
AcDbEntity
  8
0
  6
Continuous
 62
     7
370
    25
100
AcDbEllipse
 10
249.6264857214
 20
56.0051191302
 30
0.0
 11
27.41909142745794
 21
-5.132750158008627
 31
0.0
210
0.0
220
0.0
230
1.0
 40
0.4106849769
 41
5.782763197999601
 42
5.904084238063082
  0
ELLIPSE
  5
2A4
330
1F
100
AcDbEntity
  8
0
  6
Continuous
 62
     7
370
    25
100
AcDbEllipse
 10
249.6264857214
 20
72.087083836
 30
0.0
 11
-23.17932672962226
 21
73.29085645113044
 31
0.0
210
0.0
220
0.0
230
1.0
 40
0.2019023318
 41
4.286917126549734
 42
4.295052150957105
  0
ARC
  5
2A5
330
1F
100
AcDbEntity
  8
0
  6
Continuous
 62
     7
370
    25
100
AcDbCircle
 10
255.9668419135
 20
66.4533124242
 30
0.0
 40
25.82261059019139
100
AcDbArc
 50
289.9793714791
 51
309.9535152486
  0
ELLIPSE
  5
2A6
330
1F
100
AcDbEntity
  8
0
  6
Continuous
 62
     7
370
    25
100
AcDbEllipse
 10
249.6264857214
 20
54.2253957765
 30
0.0
 11
27.41909142745794
 21
-5.132750158008683
 31
0.0
210
0.0
220
0.0
230
1.0
 40
0.4106849769
 41
4.647219674758944
 42
5.373156971970237
  0
SPLINE
  5
2A7
330
1F
100
AcDbEntity
  8
0
  6
Continuous
 62
     7
370
    25
100
AcDbSpline
210
0.0
220
0.0
230
1.0
 70
    11
 71
     3
 72
    26
 73
    22
 74
     0
 42
0.000000001
 43
0.00000001
 40
0.0
 40
0.0
 40
0.0
 40
0.0
 40
0.0472226747812099
 40
0.1025746545257589
 40
0.1596751943045632
 40
0.2173164094972977
 40
0.274045796598181
 40
0.3283646514332103
 40
0.3796112183945185
 40
0.4288884460934548
 40
0.4783789775182864
 40
0.5299541047942584
 40
0.5843327476456341
 40
0.6409629492018873
 40
0.6985825172601736
 40
0.7557765166069724
 40
0.81101922260616
 40
0.8632303169636202
 40
0.9129298872971595
 40
0.9621070633057621
 40
1.0
 40
1.0
 40
1.0
 40
1.0
 10
267.428763068568
 20
46.40428901288474
 30
0.0
 10
267.2837503231233
 20
46.53857645041798
 30
0.0
 10
266.9687611291665
 20
46.83026868462416
 30
0.0
 10
266.7465205856308
 20
47.58094884598942
 30
0.0
 10
266.7865616817908
 20
48.52826186147904
 30
0.0
 10
267.1244491061348
 20
49.55932352270521
 30
0.0
 10
267.7038929055026
 20
50.53221714762341
 30
0.0
 10
268.4230083632601
 20
51.32325649013603
 30
0.0
 10
269.1647807025444
 20
51.84931596565642
 30
0.0
 10
269.8448876212183
 20
52.08442270145449
 30
0.0
 10
270.4186834295539
 20
52.02866056544995
 30
0.0
 10
270.8534232783503
 20
51.67864821696133
 30
0.0
 10
271.1105963744619
 20
51.03707195896667
 30
0.0
 10
271.1523512478858
 20
50.14402988143102
 30
0.0
 10
270.9578046116833
 20
49.09670225430313
 30
0.0
 10
270.5355327990178
 20
48.03931054297197
 30
0.0
 10
269.9313443053496
 20
47.12999349256756
 30
0.0
 10
269.2236481408838
 20
46.48921904924627
 30
0.0
 10
268.5028299980283
 20
46.17225821543769
 30
0.0
 10
267.8804393991692
 20
46.15761730461545
 30
0.0
 10
267.5657262963728
 20
46.32948997852372
 30
0.0
 10
267.428763068568
 20
46.40428901288474
 30
0.0
  0
ELLIPSE
  5
2A8
330
1F
100
AcDbEntity
  8
0
  6
Continuous
 62
     7
370
    25
100
AcDbEllipse
 10
243.0284469341
 20
97.6087442478
 30
0.0
 11
36.42524220760544
 21
-29.08715733386198
 31
0.0
210
0.0
220
0.0
230
1.0
 40
0.833891232
 41
5.839593296713557
 42
5.848812324287837
  0
ELLIPSE
  5
2A9
330
1F
100
AcDbEntity
  8
0
  6
Continuous
 62
     7
370
    25
100
AcDbEllipse
 10
243.0284469341
 20
97.6087442478
 30
0.0
 11
36.42524220760544
 21
-29.08715733386198
 31
0.0
210
0.0
220
0.0
230
1.0
 40
0.833891232
 41
5.883747104445546
 42
5.907500639542064
  0
LINE
  5
2AA
330
1F
100
AcDbEntity
  8
0
  6
Continuous
 62
     7
370
    25
100
AcDbLine
 10
268.013685264
 20
59.4054610527
 30
0.0
 11
267.812881708
 21
59.2838909387
 31
0.0
  0
ELLIPSE
  5
2AB
330
1F
100
AcDbEntity
  8
0
  6
Continuous
 62
     7
370
    25
100
AcDbEllipse
 10
243.118283454
 20
96.9427153843
 30
0.0
 11
35.92928922842796
 21
-28.69111707547981
 31
0.0
210
0.0
220
0.0
230
1.0
 40
0.833891232
 41
5.908899430880392
 42
5.914480220567341
  0
ARC
  5
2AC
330
1F
100
AcDbEntity
  8
0
  6
Continuous
 62
     7
370
    25
100
AcDbCircle
 10
250.40004963
 20
96.7672107107
 30
0.0
 40
41.39835264384951
100
AcDbArc
 50
272.1323277154
 51
292.013028878
  0
LWPOLYLINE
  5
2AD
330
1F
100
AcDbEntity
  8
0
  6
Continuous
 62
     7
370
    25
100
AcDbPolyline
 90
        3
 70
   128
 43
0.0
 10
266.6212077191
 20
58.6909181727
 10
267.8395275712
 20
59.2669888667
 10
268.0272752354
 20
59.3618727015
  0
LINE
  5
2AE
330
1F
100
AcDbEntity
  8
0
  6
Continuous
 62
     7
370
    25
100
AcDbLine
 10
265.8277048863
 20
58.493157534
 30
0.0
 11
265.5181557111
 21
58.3003536309
 31
0.0
  0
LINE
  5
2AF
330
1F
100
AcDbEntity
  8
0
  6
Continuous
 62
     7
370
    25
100
AcDbLine
 10
261.3478495158
 20
74.8381411778
 30
0.0
 11
261.3404943968
 21
74.6113900164
 31
0.0
  0
LINE
  5
2B0
330
1F
100
AcDbEntity
  8
0
  6
Continuous
 62
     7
370
    25
100
AcDbLine
 10
267.9610897837
 20
59.4657135306
 30
0.0
 11
268.013685264
 21
59.4054610527
 31
0.0
  0
LINE
  5
2B1
330
1F
100
AcDbEntity
  8
0
  6
Continuous
 62
     7
370
    25
100
AcDbLine
 10
272.5765335415
 20
61.2728591069
 30
0.0
 11
273.9534394722
 21
60.4779882324
 31
0.0
  0
LINE
  5
2B2
330
1F
100
AcDbEntity
  8
0
  6
Continuous
 62
     7
370
    25
100
AcDbLine
 10
272.612029749
 20
62.3675342298
 30
0.0
 11
274.8117738716
 21
61.0976489781
 31
0.0
  0
LINE
  5
2B3
330
1F
100
AcDbEntity
  8
0
  6
Continuous
 62
     7
370
    25
100
AcDbLine
 10
272.206927412
 20
46.3674717192
 30
0.0
 11
272.6720679347
 21
46.0989518111
 31
0.0
  0
LINE
  5
2B4
330
1F
100
AcDbEntity
  8
0
  6
Continuous
 62
     7
370
    25
100
AcDbLine
 10
270.4985381641
 20
45.0921127567
 30
0.0
 11
273.2231870406
 21
43.5192064406
 31
0.0
  0
LINE
  5
2B5
330
1F
100
AcDbEntity
  8
0
  6
Continuous
 62
     7
370
    25
100
AcDbLine
 10
270.1328131667
 20
44.8509781478
 30
0.0
 11
273.3299466542
 21
43.0053122716
 31
0.0
  0
LINE
  5
2B6
330
1F
100
AcDbEntity
  8
0
  6
Continuous
 62
     7
370
    25
100
AcDbLine
 10
268.1853192496
 20
43.7136509926
 30
0.0
 11
273.8461889136
 21
40.4457004958
 31
0.0
  0
LINE
  5
2B7
330
1F
100
AcDbEntity
  8
0
  6
Continuous
 62
     7
370
    25
100
AcDbLine
 10
267.7721556693
 20
43.4999024749
 30
0.0
 11
273.9458471126
 21
39.9359062665
 31
0.0
  0
LINE
  5
2B8
330
1F
100
AcDbEntity
  8
0
  6
Continuous
 62
     7
370
    25
100
AcDbLine
 10
265.5860631744
 20
42.5003153467
 30
0.0
 11
274.4258351797
 21
37.3972235904
 31
0.0
  0
LINE
  5
2B9
330
1F
100
AcDbEntity
  8
0
  6
Continuous
 62
     7
370
    25
100
AcDbLine
 10
265.4028442384
 20
42.153821851
 30
0.0
 11
274.5180854115
 21
36.8917051291
 31
0.0
  0
ARC
  5
2BA
330
1F
100
AcDbEntity
  8
0
  6
Continuous
 62
     7
370
    25
100
AcDbCircle
 10
261.3588164545
 20
41.4154564064
 30
0.0
 40
4.110881200778656
100
AcDbArc
 50
10.3471869412
 51
13.912994253
  0
LINE
  5
2BB
330
1F
100
AcDbEntity
  8
0
  6
Continuous
 62
     7
370
    25
100
AcDbLine
 10
264.55500638
 20
40.3816767656
 30
0.0
 11
274.9601070707
 21
34.3749399938
 31
0.0
  0
ELLIPSE
  5
2BC
330
1F
100
AcDbEntity
  8
0
  6
Continuous
 62
     7
370
    25
100
AcDbEllipse
 10
266.6744822754
 20
49.3818704667
 30
0.0
 11
5.500089390467678
 21
9.526227806295367
 31
0.0
210
0.0
220
0.0
230
1.0
 40
0.4082372325
 41
3.776850106694739
 42
4.027629966932047
  0
ELLIPSE
  5
2BD
330
1F
100
AcDbEntity
  8
0
  6
Continuous
 62
     7
370
    25
100
AcDbEllipse
 10
255.2731804433
 20
39.2722728594
 30
0.0
 11
8.454977849284091
 21
0.8557099449734338
 31
0.0
210
0.0
220
0.0
230
1.0
 40
0.3419448307
 41
0.1171014384985103
 42
0.418669976837723
  0
ARC
  5
2BE
330
1F
100
AcDbEntity
  8
0
  6
Continuous
 62
     7
370
    25
100
AcDbCircle
 10
264.275878434
 20
42.5392135539
 30
0.0
 40
2.175517732206564
100
AcDbArc
 50
252.8966645855
 51
277.3716064087
  0
LINE
  5
2BF
330
1F
100
AcDbEntity
  8
0
  6
Continuous
 62
     7
370
    25
100
AcDbLine
 10
263.6360674467
 20
40.4599061443
 30
0.0
 11
275.0445634282
 21
33.8739216007
 31
0.0
  0
LINE
  5
2C0
330
1F
100
AcDbEntity
  8
0
  6
Continuous
 62
     7
370
    25
100
AcDbLine
 10
260.790663898
 20
39.8409311859
 30
0.0
 11
275.4464849952
 21
31.3803057559
 31
0.0
  0
LINE
  5
2C1
330
1F
100
AcDbEntity
  8
0
  6
Continuous
 62
     7
370
    25
100
AcDbLine
 10
262.9572773049
 20
38.1379091136
 30
0.0
 11
275.5226753021
 21
30.8840592523
 31
0.0
  0
LINE
  5
2C2
330
1F
100
AcDbEntity
  8
0
  6
Continuous
 62
     7
370
    25
100
AcDbLine
 10
261.2269450247
 20
36.8752172138
 30
0.0
 11
275.8818520622
 21
28.4151194592
 31
0.0
  0
LINE
  5
2C3
330
1F
100
AcDbEntity
  8
0
  6
Continuous
 62
     7
370
    25
100
AcDbLine
 10
260.8122819385
 20
36.6623305402
 30
0.0
 11
275.949185604
 21
27.9239820551
 31
0.0
  0
LINE
  5
2C4
330
1F
100
AcDbEntity
  8
0
  6
Continuous
 62
     7
370
    25
100
AcDbLine
 10
245.0302904636
 20
42.3665857918
 30
0.0
 11
221.695768128
 21
55.8373188035
 31
0.0
  0
ELLIPSE
  5
2C5
330
1F
100
AcDbEntity
  8
0
  6
Continuous
 62
     7
370
    25
100
AcDbEllipse
 10
248.9193789402
 20
76.0463379079
 30
0.0
 11
19.44622657415704
 21
33.68002771722121
 31
0.0
210
0.0
220
0.0
230
1.0
 40
0.5773346305
 41
1.943005492786274
 42
2.498132176827562
  0
LINE
  5
2C6
330
1F
100
AcDbEntity
  8
0
  6
Continuous
 62
     7
370
    25
100
AcDbLine
 10
239.1452878104
 20
65.3593112429
 30
0.0
 11
223.7340904793
 21
74.2560060907
 31
0.0
  0
LINE
  5
2C7
330
1F
100
AcDbEntity
  8
0
  6
Continuous
 62
     7
370
    25
100
AcDbLine
 10
238.2496060349
 20
61.4031802348
 30
0.0
 11
233.7869324199
 21
53.6736020582
 31
0.0
  0
ELLIPSE
  5
2C8
330
1F
100
AcDbEntity
  8
0
  6
Continuous
 62
     7
370
    25
100
AcDbEllipse
 10
235.9082533601
 20
52.4489906051
 30
0.0
 11
1.732191553428094
 21
2.999918731535864
 31
0.0
210
0.0
220
0.0
230
1.0
 40
0.7070876271
 41
1.570862676826509
 42
3.141659003621417
  0
LINE
  5
2C9
330
1F
100
AcDbEntity
  8
0
  6
Continuous
 62
     7
370
    25
100
AcDbLine
 10
234.176203347
 20
49.4489884641
 30
0.0
 11
245.8409389966
 21
42.7150799088
 31
0.0
  0
ELLIPSE
  5
2CA
330
1F
100
AcDbEntity
  8
0
  6
Continuous
 62
     7
370
    25
100
AcDbEllipse
 10
248.9193789402
 20
76.0463379079
 30
0.0
 11
19.44622657415704
 21
33.68002771722121
 31
0.0
210
0.0
220
0.0
230
1.0
 40
0.5773346305
 41
3.785134394414148
 42
3.814853043690836
  0
SPLINE
  5
2CB
330
1F
100
AcDbEntity
  8
0
  6
Continuous
 62
     7
370
    25
100
AcDbSpline
210
0.0
220
0.0
230
1.0
 70
     8
 71
     3
 72
    12
 73
     8
 74
     0
 42
0.000000001
 43
0.00000001
 40
0.0
 40
0.0
 40
0.0
 40
0.0
 40
0.4999999999999887
 40
0.4999999999999887
 40
0.7499999999999943
 40
0.7499999999999943
 40
1.0
 40
1.0
 40
1.0
 40
1.0
 10
261.0250620289848
 20
40.2116072686704
 30
0.0
 10
260.9189086147515
 20
40.15708891450701
 30
0.0
 10
260.82846335222
 20
40.05884055072269
 30
0.0
 10
260.7813784378386
 20
39.90271081311509
 30
0.0
 10
260.7810982876889
 20
39.85154450368605
 30
0.0
 10
260.8104870751736
 20
39.76492368773249
 30
0.0
 10
260.8401055901813
 20
39.72947695895516
 30
0.0
 10
260.8800690472211
 20
39.70640098513294
 30
0.0
  0
ELLIPSE
  5
2CC
330
1F
100
AcDbEntity
  8
0
  6
Continuous
 62
     7
370
    25
100
AcDbEllipse
 10
248.9193789402
 20
46.6099591584
 30
0.0
 11
27.500000116553
 21
-15.8779926651423
 31
0.0
210
0.0
220
0.0
230
1.0
 40
0.0000703729
 41
1.031524235701986
 42
1.120871774776243
  0
ELLIPSE
  5
2CD
330
1F
100
AcDbEntity
  8
0
  6
Continuous
 62
     7
370
    25
100
AcDbEllipse
 10
248.9193789402
 20
72.495287892
 30
0.0
 11
17.897684424072
 21
95.60922126663588
 31
0.0
210
0.0
220
0.0
230
1.0
 40
0.2183760757
 41
4.381967777517718
 42
4.389575793364489
  0
ELLIPSE
  5
2CE
330
1F
100
AcDbEntity
  8
0
  6
Continuous
 62
     7
370
    25
100
AcDbEllipse
 10
248.9193789402
 20
52.9724980055
 30
0.0
 11
26.85373875404639
 21
8.49289549381926
 31
0.0
210
0.0
220
0.0
230
1.0
 40
0.6978514545
 41
4.903846123616908
 42
5.026870141297636
  0
SPLINE
  5
2CF
330
1F
100
AcDbEntity
  8
0
  6
Continuous
 62
     7
370
    25
100
AcDbSpline
210
0.0
220
0.0
230
1.0
 70
     8
 71
     3
 72
    12
 73
     8
 74
     0
 42
0.000000001
 43
0.00000001
 40
0.0
 40
0.0
 40
0.0
 40
0.0
 40
0.499999999999988
 40
0.499999999999988
 40
0.749999999999994
 40
0.749999999999994
 40
1.0
 40
1.0
 40
1.0
 40
1.0
 10
259.8478518921918
 20
36.19110303140719
 30
0.0
 10
259.7386159339005
 20
36.1395753381762
 30
0.0
 10
259.6442764161899
 20
36.04421034567219
 30
0.0
 10
259.5945292967942
 20
35.88886286292264
 30
0.0
 10
259.5940402415694
 20
35.837079756412
 30
0.0
 10
259.6246752663462
 20
35.74930907197386
 30
0.0
 10
259.6556402063712
 20
35.71316106857958
 30
0.0
 10
259.6970665657795
 20
35.68924059725952
 30
0.0
  0
ELLIPSE
  5
2D0
330
1F
100
AcDbEntity
  8
0
  6
Continuous
 62
     7
370
    25
100
AcDbEllipse
 10
248.9193789402
 20
41.9097045517
 30
0.0
 11
27.50000001249691
 21
-15.87799260506221
 31
0.0
210
0.0
220
0.0
230
1.0
 40
0.0000703729
 41
1.077413310969305
 42
1.168123775513804
  0
ELLIPSE
  5
2D1
330
1F
100
AcDbEntity
  8
0
  6
Continuous
 62
     7
370
    25
100
AcDbEllipse
 10
248.9193789402
 20
72.495287892
 30
0.0
 11
17.897684424072
 21
95.60922126663299
 31
0.0
210
0.0
220
0.0
230
1.0
 40
0.2183760757
 41
4.335980246690749
 42
4.343686716403748
  0
ELLIPSE
  5
2D2
330
1F
100
AcDbEntity
  8
0
  6
Continuous
 62
     7
370
    25
100
AcDbEllipse
 10
248.9193789402
 20
49.5316728249
 30
0.0
 11
26.85373875404639
 21
8.49289549381926
 31
0.0
210
0.0
220
0.0
230
1.0
 40
0.6978514545
 41
4.855800834217277
 42
4.980882610470665
  0
SPLINE
  5
2D3
330
1F
100
AcDbEntity
  8
0
  6
Continuous
 62
     7
370
    25
100
AcDbSpline
210
0.0
220
0.0
230
1.0
 70
     8
 71
     3
 72
    12
 73
     8
 74
     0
 42
0.000000001
 43
0.00000001
 40
0.0
 40
0.0
 40
0.0
 40
0.0
 40
0.5000000000000018
 40
0.5000000000000018
 40
0.7500000000000009
 40
0.7500000000000009
 40
1.0
 40
1.0
 40
1.0
 40
1.0
 10
258.6232718542444
 20
32.1979448560031
 30
0.0
 10
258.5109795666094
 20
32.14957319300607
 30
0.0
 10
258.4125061010316
 20
32.05739202364474
 30
0.0
 10
258.3597685832476
 20
31.90288631889264
 30
0.0
 10
258.3590067352463
 20
31.85038317148894
 30
0.0
 10
258.3909815656111
 20
31.76131641864743
 30
0.0
 10
258.4234039576214
 20
31.72442270849778
 30
0.0
 10
258.4663535636648
 20
31.6996229067079
 30
0.0
  0
ELLIPSE
  5
2D4
330
1F
100
AcDbEntity
  8
0
  6
Continuous
 62
     7
370
    25
100
AcDbEllipse
 10
248.9193789402
 20
37.209449945
 30
0.0
 11
27.50000001249691
 21
-15.87799260506222
 31
0.0
210
0.0
220
0.0
230
1.0
 40
0.0000703729
 41
1.123944812949951
 42
1.216293011204596
  0
ELLIPSE
  5
2D5
330
1F
100
AcDbEntity
  8
0
  6
Continuous
 62
     7
370
    25
100
AcDbEllipse
 10
248.9193789402
 20
72.495287892
 30
0.0
 11
17.897684424072
 21
95.60922126663588
 31
0.0
210
0.0
220
0.0
230
1.0
 40
0.2183760757
 41
4.289329164393614
 42
4.297155214387477
  0
ELLIPSE
  5
2D6
330
1F
100
AcDbEntity
  8
0
  6
Continuous
 62
     7
370
    25
100
AcDbEllipse
 10
248.9193789402
 20
46.0908476443
 30
0.0
 11
26.85373875404639
 21
8.49289549381926
 31
0.0
210
0.0
220
0.0
230
1.0
 40
0.6978514545
 41
4.806686954114747
 42
4.934231528173526
  0
SPLINE
  5
2D7
330
1F
100
AcDbEntity
  8
0
  6
Continuous
 62
     7
370
    25
100
AcDbSpline
210
0.0
220
0.0
230
1.0
 70
     8
 71
     3
 72
    14
 73
    10
 74
     0
 42
0.000000001
 43
0.00000001
 40
0.0
 40
0.0
 40
0.0
 40
0.0
 40
0.25
 40
0.25
 40
0.5
 40
0.5
 40
0.75
 40
0.75
 40
1.0
 40
1.0
 40
1.0
 40
1.0
 10
257.3483291282116
 20
28.23386044157836
 30
0.0
 10
257.2906597803273
 20
28.21134539370687
 30
0.0
 10
257.2365225383923
 20
28.17871168275254
 30
0.0
 10
257.1469613181526
 20
28.09786857067725
 30
0.0
 10
257.1113990792211
 20
28.04900465604711
 30
0.0
 10
257.0739747454573
 20
27.946614809734
 30
0.0
 10
257.0728576143033
 20
27.89328372964306
 30
0.0
 10
257.1062904706897
 20
27.80273832194054
 30
0.0
 10
257.1403056624737
 20
27.76504637946702
 30
0.0
 10
257.1848551148138
 20
27.7393230305099
 30
0.0
  0
ELLIPSE
  5
2D8
330
1F
100
AcDbEntity
  8
0
  6
Continuous
 62
     7
370
    25
100
AcDbEllipse
 10
248.9193789402
 20
32.5091953383
 30
0.0
 11
27.50000001249691
 21
-15.87799260506221
 31
0.0
210
0.0
220
0.0
230
1.0
 40
0.0000703729
 41
1.171252107925123
 42
1.265554307168012
  0
ELLIPSE
  5
2D9
330
1F
100
AcDbEntity
  8
0
  6
Continuous
 62
     7
370
    25
100
AcDbEllipse
 10
248.9193789402
 20
72.495287892
 30
0.0
 11
17.89768442407199
 21
95.6092212666359
 31
0.0
210
0.0
220
0.0
230
1.0
 40
0.2183760757
 41
4.241878379972162
 42
4.249847919364326
  0
ELLIPSE
  5
2DA
330
1F
100
AcDbEntity
  8
0
  6
Continuous
 62
     7
370
    25
100
AcDbEllipse
 10
248.9193789402
 20
42.6500224637
 30
0.0
 11
26.85373875404639
 21
8.492895493819269
 31
0.0
210
0.0
220
0.0
230
1.0
 40
0.6978514545
 41
4.756302250797584
 42
4.886780743752073
  0
SPLINE
  5
2DB
330
1F
100
AcDbEntity
  8
0
  6
Continuous
 62
     7
370
    25
100
AcDbSpline
210
0.0
220
0.0
230
1.0
 70
     8
 71
     3
 72
    14
 73
    10
 74
     0
 42
0.000000001
 43
0.00000001
 40
0.0
 40
0.0
 40
0.0
 40
0.0
 40
0.25
 40
0.25
 40
0.5
 40
0.5
 40
0.75
 40
0.75
 40
1.0
 40
1.0
 40
1.0
 40
1.0
 10
256.0193013311314
 20
24.30099867407651
 30
0.0
 10
255.9601031771118
 20
24.28025995659366
 30
0.0
 10
255.9042747145491
 20
24.24961173985396
 30
0.0
 10
255.810959164426
 20
24.17190144854201
 30
0.0
 10
255.7732982153383
 20
24.12404212412199
 30
0.0
 10
255.7332609184559
 20
24.02232961986405
 30
0.0
 10
255.7316805760527
 20
23.96806445735022
 30
0.0
 10
255.7667227289466
 20
23.87580548867922
 30
0.0
 10
255.8024971358853
 20
23.83725359106909
 30
0.0
 10
255.8487440026028
 20
23.81055037379391
 30
0.0
  0
ELLIPSE
  5
2DC
330
1F
100
AcDbEntity
  8
0
  6
Continuous
 62
     7
370
    25
100
AcDbEllipse
 10
248.9193789402
 20
27.8089407316
 30
0.0
 11
27.50000001249691
 21
-15.87799260506222
 31
0.0
210
0.0
220
0.0
230
1.0
 40
0.0000703729
 41
1.21948728767816
 42
1.316114418839661
  0
ELLIPSE
  5
2DD
330
1F
100
AcDbEntity
  8
0
  6
Continuous
 62
     7
370
    25
100
AcDbEllipse
 10
248.9193789402
 20
72.495287892
 30
0.0
 11
17.897684424072
 21
95.60922126663735
 31
0.0
210
0.0
220
0.0
230
1.0
 40
0.2183760757
 41
4.193472161228023
 42
4.201612739565219
  0
ELLIPSE
  5
2DE
330
1F
100
AcDbEntity
  8
0
  6
Continuous
 62
     7
370
    25
100
AcDbEllipse
 10
248.9193789402
 20
39.2091972831
 30
0.0
 11
26.85373875404639
 21
8.49289549381929
 31
0.0
210
0.0
220
0.0
230
1.0
 40
0.6978514545
 41
4.704403199654774
 42
4.83837452500793
  0
SPLINE
  5
2DF
330
1F
100
AcDbEntity
  8
0
  6
Continuous
 62
     7
370
    25
100
AcDbSpline
210
0.0
220
0.0
230
1.0
 70
     8
 71
     3
 72
    14
 73
    10
 74
     0
 42
0.000000001
 43
0.00000001
 40
0.0
 40
0.0
 40
0.0
 40
0.0
 40
0.25
 40
0.25
 40
0.5
 40
0.5
 40
0.75
 40
0.75
 40
1.0
 40
1.0
 40
1.0
 40
1.0
 10
254.6315236414002
 20
20.40205249768849
 30
0.0
 10
254.5707783859695
 20
20.38321264430544
 30
0.0
 10
254.5142570546622
 20
20.35541907161868
 30
0.0
 10
254.4157355836246
 20
20.28051144689408
 30
0.0
 10
254.3758698798255
 20
20.23393278898626
 30
0.0
 10
254.3326852971404
 20
20.1327212277021
 30
0.0
 10
254.3305770652738
 20
20.07753684883423
 30
0.0
 10
254.3674076819125
 20
19.98333446264858
 30
0.0
 10
254.4051679417555
 20
19.94382134632368
 30
0.0
 10
254.4532179924374
 20
19.91607720758182
 30
0.0
  0
ELLIPSE
  5
2E0
330
1F
100
AcDbEntity
  8
0
  6
Continuous
 62
     7
370
    25
100
AcDbEllipse
 10
248.9193789402
 20
23.1086861249
 30
0.0
 11
27.50000001258894
 21
-15.87799260511536
 31
0.0
210
0.0
220
0.0
230
1.0
 40
0.0000703729
 41
1.268827005720283
 42
1.368222991922319
  0
ELLIPSE
  5
2E1
330
1F
100
AcDbEntity
  8
0
  6
Continuous
 62
     7
370
    25
100
AcDbEllipse
 10
248.9193789402
 20
72.495287892
 30
0.0
 11
17.897684424072
 21
95.60922126663588
 31
0.0
210
0.0
220
0.0
230
1.0
 40
0.2183760757
 41
4.1439290572748
 42
4.152273021475238
  0
ELLIPSE
  5
2E2
330
1F
100
AcDbEntity
  8
0
  6
Continuous
 62
     7
370
    25
100
AcDbEllipse
 10
248.9193789402
 20
35.7683721024
 30
0.0
 11
26.85373875404633
 21
8.492895493819317
 31
0.0
210
0.0
220
0.0
230
1.0
 40
0.6978514545
 41
4.678619711237098
 42
4.788831421054703
  0
ARC
  5
2E3
330
1F
100
AcDbEntity
  8
0
  6
Continuous
 62
     7
370
    25
100
AcDbCircle
 10
248.9182778391
 20
63.8388006427
 30
0.0
 40
47.35302354114917
100
AcDbArc
 50
267.2241332637
 51
276.0828630291
  0
ELLIPSE
  5
2E4
330
1F
100
AcDbEntity
  8
0
  6
Continuous
 62
     7
370
    25
100
AcDbEllipse
 10
248.9193789402
 20
15.2140474224
 30
0.0
 11
27.50000001249691
 21
-15.87799260506222
 31
0.0
210
0.0
220
0.0
230
1.0
 40
0.0000703729
 41
1.654365431904214
 42
1.712734013251826
  0
LINE
  5
2E5
330
1F
100
AcDbEntity
  8
0
  6
Continuous
 62
     7
370
    25
100
AcDbLine
 10
245.0302904636
 20
17.4620892285
 30
0.0
 11
245.0302904636
 21
42.3665857918
 31
0.0
  0
ELLIPSE
  5
2E6
330
1F
100
AcDbEntity
  8
0
  6
Continuous
 62
     7
370
    25
100
AcDbEllipse
 10
248.9193789402
 20
53.786694253
 30
0.0
 11
27.41909142745794
 21
-5.132750158008641
 31
0.0
210
0.0
220
0.0
230
1.0
 40
0.4106849769
 41
4.676938324035633
 42
5.354467525172861
  0
ELLIPSE
  5
2E7
330
1F
100
AcDbEntity
  8
0
  6
Continuous
 62
     7
370
    25
100
AcDbEllipse
 10
248.9193789402
 20
56.4133231861
 30
0.0
 11
26.85373875404639
 21
8.492895493819248
 31
0.0
210
0.0
220
0.0
230
1.0
 40
0.6978514545
 41
4.950994249883699
 42
5.060516227598495
  0
LINE
  5
2E8
330
1F
100
AcDbEntity
  8
0
  6
Continuous
 62
     7
370
    25
100
AcDbLine
 10
263.1042344753
 20
42.0107065357
 30
0.0
 11
263.6514612538
 21
41.6947992408
 31
0.0
  0
ELLIPSE
  5
2E9
330
1F
100
AcDbEntity
  8
0
  6
Continuous
 62
     7
370
    25
100
AcDbEllipse
 10
236.5450102695
 20
36.4335225339
 30
0.0
 11
-4.823506927350621
 21
8.965843969231017
 31
0.0
210
0.0
220
0.0
230
1.0
 40
0.5766854787
 41
2.390897964901769
 42
5.532490618491579
  0
LINE
  5
2EA
330
1F
100
AcDbEntity
  8
0
  6
Continuous
 62
     7
370
    25
100
AcDbLine
 10
228.0597288847
 20
49.7854237421
 30
0.0
 11
236.5450103327
 21
44.8869750286
 31
0.0
  0
ELLIPSE
  5
2EB
330
1F
100
AcDbEntity
  8
0
  6
Continuous
 62
     7
370
    25
100
AcDbEllipse
 10
228.0597288952
 20
41.3319712048
 30
0.0
 11
-4.82350692735065
 21
8.965843969231017
 31
0.0
210
0.0
220
0.0
230
1.0
 40
0.5766854787
 41
5.532490618491575
 42
6.65226013349019
  0
LINE
  5
2EC
330
1F
100
AcDbEntity
  8
0
  6
Continuous
 62
     7
370
    25
100
AcDbLine
 10
221.695768128
 20
55.8373188035
 30
0.0
 11
221.695768128
 21
48.6905828494
 31
0.0
  0
LINE
  5
2ED
330
1F
100
AcDbEntity
  8
0
  6
Continuous
 62
     7
370
    25
100
AcDbLine
 10
245.0302904636
 20
17.4620892285
 30
0.0
 11
221.695768128
 21
30.9328222402
 31
0.0
  0
LINE
  5
2EE
330
1F
100
AcDbEntity
  8
0
  6
Continuous
 62
     7
370
    25
100
AcDbLine
 10
221.695768128
 20
41.32103431
 30
0.0
 11
221.695768128
 21
30.9328222402
 31
0.0
  0
ELLIPSE
  5
2EF
330
1F
100
AcDbEntity
  8
0
  6
Continuous
 62
     7
370
    25
100
AcDbEllipse
 10
228.0597288952
 20
41.3319712048
 30
0.0
 11
-4.82350692735065
 21
8.965843969231017
 31
0.0
210
0.0
220
0.0
230
1.0
 40
0.5766854787
 41
1.27112844990313
 42
2.390897964901766
  0
LINE
  5
2F0
330
1F
100
AcDbEntity
  8
0
  6
Continuous
 62
     7
370
    25
100
AcDbLine
 10
236.5450103327
 20
27.9800689718
 30
0.0
 11
228.0597288847
 21
32.8785176853
 31
0.0
  0
LINE
  5
2F1
330
1F
100
AcDbEntity
  8
0
  6
Continuous
 62
     7
370
    25
100
AcDbLine
 10
243.6581464682
 20
73.5523221854
 30
0.0
 11
243.4345087046
 21
71.3356303444
 31
0.0
  0
LINE
  5
2F2
330
1F
100
AcDbEntity
  8
0
  6
Continuous
 62
     7
370
    25
100
AcDbLine
 10
259.8225698855
 20
80.5519336504
 30
0.0
 11
259.8129722578
 21
80.5877591973
 31
0.0
  0
ELLIPSE
  5
2F3
330
1F
100
AcDbEntity
  8
0
  6
Continuous
 62
     7
370
    25
100
AcDbEllipse
 10
248.9193789402
 20
110.1760786534
 30
0.0
 11
20.71060374691803
 21
193.0501230208929
 31
0.0
210
0.0
220
0.0
230
1.0
 40
0.0937166553
 41
1.730680899673893
 42
1.735030648372163
  0
SPLINE
  5
2F4
330
1F
100
AcDbEntity
  8
0
  6
Continuous
 62
     7
370
    25
100
AcDbSpline
210
0.0
220
0.0
230
1.0
 70
     8
 71
     3
 72
    10
 73
     6
 74
     0
 42
0.000000001
 43
0.00000001
 40
0.0
 40
0.0
 40
0.0
 40
0.0
 40
0.5
 40
0.5
 40
1.0
 40
1.0
 40
1.0
 40
1.0
 10
227.6333689885958
 20
82.11087692524828
 30
0.0
 10
227.6841251418885
 20
81.98718725702045
 30
0.0
 10
227.7213294978236
 20
81.8581639695778
 30
0.0
 10
227.7653529967371
 20
81.60029299079213
 30
0.0
 10
227.771621119221
 20
81.47433453661695
 30
0.0
 10
227.7609024599353
 20
81.35785133790422
 30
0.0
  0
LINE
  5
2F5
330
1F
100
AcDbEntity
  8
0
  6
Continuous
 62
     7
370
    25
100
AcDbLine
 10
227.0957130737
 20
83.4233513621
 30
0.0
 11
227.6333690603
 21
82.1108766034
 31
0.0
  0
LINE
  5
2F6
330
1F
100
AcDbEntity
  8
0
  6
Continuous
 62
     7
370
    25
100
AcDbLine
 10
231.2179374527
 20
81.0006076137
 30
0.0
 11
231.1801909986
 21
82.6116833989
 31
0.0
  0
LWPOLYLINE
  5
2F7
330
1F
100
AcDbEntity
  8
0
  6
Continuous
 62
     7
370
    25
100
AcDbPolyline
 90
       12
 70
   128
 43
0.0
 10
234.1447683834
 20
79.6566562724
 10
234.0998256842
 20
79.072007437
 10
233.9399666391
 20
78.5891618866
 10
233.6781421843
 20
78.24723841
 10
233.3355637093
 20
78.0739375935
 10
232.9399852429
 20
78.0832981303
 10
232.5234533721
 20
78.2745617102
 10
232.1197137283
 20
78.6322342479
 10
231.7614752295
 20
79.1273387176
 10
231.4777592736
 20
79.719765703
 10
231.2915516981
 20
80.36151817
 10
231.2179374527
 20
81.0006076137
  0
LINE
  5
2F8
330
1F
100
AcDbEntity
  8
0
  6
Continuous
 62
     7
370
    25
100
AcDbLine
 10
233.8353404627
 20
92.8635030607
 30
0.0
 11
234.1447683834
 21
79.6566562724
 31
0.0
  0
LINE
  5
2F9
330
1F
100
AcDbEntity
  8
0
  6
Continuous
 62
     7
370
    25
100
AcDbLine
 10
233.8353404627
 20
92.8635030607
 30
0.0
 11
236.5456804017
 21
90.9211768084
 31
0.0
  0
ELLIPSE
  5
2FA
330
1F
100
AcDbEntity
  8
0
  6
Continuous
 62
     7
370
    25
100
AcDbEllipse
 10
235.3910794944
 20
79.4767977339
 30
0.0
 11
-4.185336248665918
 21
12.66396464404775
 31
0.0
210
0.0
220
0.0
230
1.0
 40
0.5702969479
 41
4.048408108564979
 42
5.619204435359879
  0
LWPOLYLINE
  5
2FB
330
1F
100
AcDbEntity
  8
0
  6
Continuous
 62
     7
370
    25
100
AcDbPolyline
 90
       32
 70
   128
 43
0.0
 10
237.0361320826
 20
77.0959275972
 10
237.5400687793
 20
76.8104203929
 10
238.0375902648
 20
76.6775147685
 10
238.5083287451
 20
76.7026509138
 10
238.9330119152
 20
76.8848005759
 10
239.2942525538
 20
77.2165063063
 10
239.5772613975
 20
77.6841881857
 10
239.7704536608
 20
78.2686986348
 10
239.865917919
 20
78.9461087663
 10
239.8597476862
 20
79.6886838839
 10
239.7521943618
 20
80.466024265
 10
239.5476613036
 20
81.2463050701
 10
239.254522399
 20
81.9975814417
 10
238.8847774812
 20
82.689096723
 10
238.4535673119
 20
83.292538096
 10
237.9785423654
 20
83.7832024718
 10
237.4791519306
 20
84.1410015369
 10
236.9758401926
 20
84.3512872298
 10
236.489213009
 20
84.4054504106
 10
236.0391934914
 20
84.3012723841
 10
235.6442052456
 20
84.0430193945
 10
235.320418832
 20
83.6412645066
 10
235.0810905869
 20
83.1124552212
 10
234.9360180062
 20
82.4782408022
 10
234.8911413261
 20
81.7645866933
 10
234.9482960746
 20
81.0007092
 10
235.1051445836
 20
80.21788234
 10
235.355263739
 20
79.4481546921
 10
235.6884148201
 20
78.723038318
 10
236.0909577239
 20
78.0722209877
 10
236.5464120447
 20
77.5223472412
 10
237.0361320826
 20
77.0959275972
  0
ELLIPSE
  5
2FC
330
1F
100
AcDbEntity
  8
0
  6
Continuous
 62
     7
370
    25
100
AcDbEllipse
 10
250.4084518944
 20
86.0168729214
 30
0.0
 11
-8.726841362063823
 21
10.6064834592861
 31
0.0
210
0.0
220
0.0
230
1.0
 40
0.4128975027
 41
3.878919160270417
 42
5.449715487065317
  0
ARC
  5
2FD
330
1F
100
AcDbEntity
  8
0
  6
Continuous
 62
     7
370
    25
100
AcDbCircle
 10
240.0277968466
 20
33.0943882784
 30
0.0
 40
5.888548187049868
100
AcDbArc
 50
238.3026072328
 51
279.040770412
  0
LINE
  5
2FE
330
1F
100
AcDbEntity
  8
0
  6
Continuous
 62
     7
370
    25
100
AcDbLine
 10
236.9337596925
 20
28.0842052638
 30
0.0
 11
228.4484782445
 21
32.9826539773
 31
0.0
  0
LWPOLYLINE
  5
2FF
330
1F
100
AcDbEntity
  8
0
  6
Continuous
 62
     7
370
    25
100
AcDbPolyline
 90
       19
 70
   128
 43
0.0
 10
228.4484782445
 20
32.9826539773
 10
227.5411764511
 20
33.5919803325
 10
226.6807116603
 20
34.3439110601
 10
225.8818076101
 20
35.2255783779
 10
225.1581356844
 20
36.2219007948
 10
224.522075203
 20
37.3158249112
 10
223.9845092724
 20
38.4886379443
 10
223.5546403936
 20
39.7202688459
 10
223.2398179232
 20
40.9896464574
 10
223.0454307309
 20
42.2750534833
 10
222.9748071008
 20
43.5544914943
 10
223.0291521692
 20
44.8060729283
 10
223.2075373885
 20
46.0083815355
 10
223.5069117218
 20
47.1408461345
 10
223.9221510344
 20
48.1840877559
 10
224.4461496311
 20
49.1202561414
 10
225.069944721
 20
49.9333365896
 10
225.7828612977
 20
50.6094145986
 10
225.8243759435
 20
50.642347625
  0
LINE
  5
300
330
1F
100
AcDbEntity
  8
0
  6
Continuous
 62
     7
370
    25
100
AcDbLine
 10
229.2720355669
 20
37.0073128637
 30
0.0
 11
237.7573170149
 21
32.1088641502
 31
0.0
  0
LWPOLYLINE
  5
301
330
1F
100
AcDbEntity
  8
0
  6
Continuous
 62
     7
370
    25
100
AcDbPolyline
 90
       13
 70
   128
 43
0.0
 10
237.7573170149
 20
32.1088641502
 10
238.447940543
 20
31.7937324666
 10
239.148166967
 20
31.6376415219
 10
239.836717397
 20
31.6453287832
 10
240.4926659225
 20
31.8165615295
 10
241.0960889381
 20
32.1461376592
 10
241.6286512475
 20
32.624044665
 10
242.0741671439
 20
33.2357592883
 10
242.4191009033
 20
33.9626977337
 10
242.6529737657
 20
34.7827700587
 10
242.7686787187
 20
35.6710607865
 10
242.7627017687
 20
36.6005741518
 10
242.7274051002
 20
36.9673431234
  0
LINE
  5
302
330
1F
100
AcDbEntity
  8
0
  6
Continuous
 62
     7
370
    25
100
AcDbLine
 10
240.0171388358
 20
41.7932530203
 30
0.0
 11
239.7704572828
 21
41.9469213183
 31
0.0
  0
LINE
  5
303
330
1F
100
AcDbEntity
  8
0
  6
Continuous
 62
     7
370
    25
100
AcDbLine
 10
239.7704572828
 20
41.9469213183
 30
0.0
 11
231.2851758348
 21
46.8453700318
 31
0.0
  0
LWPOLYLINE
  5
304
330
1F
100
AcDbEntity
  8
0
  6
Continuous
 62
     7
370
    25
100
AcDbPolyline
 90
       19
 70
   128
 43
0.0
 10
231.2851758348
 20
46.8453700318
 10
230.5945496725
 20
47.1605017154
 10
229.8943245655
 20
47.3165918998
 10
229.2057767698
 20
47.3089076803
 10
228.5498256101
 20
47.1376734129
 10
227.9464025945
 20
46.8080957625
 10
227.4138416022
 20
46.3301879963
 10
226.9683257058
 20
45.718473373
 10
226.6233919463
 20
44.9915364483
 10
226.3895177668
 20
44.1714633629
 10
226.273814131
 20
43.2831733955
 10
226.2797910809
 20
42.3536585095
 10
226.4072721268
 20
41.4111597924
 10
226.6523810756
 20
40.4843127252
 10
227.007671106
 20
39.6012833346
 10
227.4623473564
 20
38.7889005524
 10
228.0025922461
 20
38.0718448524
 10
228.6119935287
 20
37.4719038147
 10
229.2720355669
 20
37.0073128637
  0
SPLINE
  5
305
330
1F
100
AcDbEntity
  8
0
  6
Continuous
 62
     7
370
    25
100
AcDbSpline
210
0.0
220
0.0
230
1.0
 70
     8
 71
     3
 72
    20
 73
    16
 74
     0
 42
0.000000001
 43
0.00000001
 40
0.0
 40
0.0
 40
0.0
 40
0.0
 40
0.125
 40
0.125
 40
0.25
 40
0.25
 40
0.375
 40
0.375
 40
0.5
 40
0.5
 40
0.625
 40
0.625
 40
0.75
 40
0.75
 40
1.0
 40
1.0
 40
1.0
 40
1.0
 10
227.684694618178
 20
80.52777303234105
 30
0.0
 10
227.6698756711638
 20
80.36598876583315
 30
0.0
 10
227.6441416830288
 20
80.20079420893751
 30
0.0
 10
227.5721629575347
 20
79.86372914569046
 30
0.0
 10
227.5253693190462
 20
79.69025014031129
 30
0.0
 10
227.4133152527388
 20
79.34382065983857
 30
0.0
 10
227.3487857543845
 20
79.17251948595975
 30
0.0
 10
227.2039952700147
 20
78.83328368575775
 30
0.0
 10
227.1228172306313
 20
78.66379927895353
 30
0.0
 10
226.9509852519104
 20
78.33954529845083
 30
0.0
 10
226.860116063783
 20
78.18388277856987
 30
0.0
 10
226.6694676465565
 20
77.88487627386712
 30
0.0
 10
226.5693034918846
 20
77.74128316412002
 30
0.0
 10
226.2678273326231
 20
77.34452892778832
 30
0.0
 10
226.0594812471605
 20
77.11650245993206
 30
0.0
 10
225.8561404361137
 20
76.93574897787626
 30
0.0
  0
ARC
  5
306
330
1F
100
AcDbEntity
  8
0
  6
Continuous
 62
     7
370
    25
100
AcDbCircle
 10
237.1627120238
 20
64.1818421034
 30
0.0
 40
17.04408137580354
100
AcDbArc
 50
131.5575737644
 51
137.5202715109
  0
ELLIPSE
  5
307
330
1F
100
AcDbEntity
  8
0
  6
Continuous
 62
     7
370
    25
100
AcDbEllipse
 10
248.9193789402
 20
70.0688443003
 30
0.0
 11
26.85373875404633
 21
8.492895493819391
 31
0.0
210
0.0
220
0.0
230
1.0
 40
0.6978514545
 41
2.439243828433634
 42
2.511139475556718
  0
SPLINE
  5
308
330
1F
100
AcDbEntity
  8
0
  6
Continuous
 62
     7
370
    25
100
AcDbSpline
210
0.0
220
0.0
230
1.0
 70
     8
 71
     3
 72
    20
 73
    16
 74
     0
 42
0.000000001
 43
0.00000001
 40
0.0
 40
0.0
 40
0.0
 40
0.0
 40
0.2499999999999999
 40
0.2499999999999999
 40
0.3749999999999999
 40
0.3749999999999999
 40
0.5
 40
0.5
 40
0.6250000000000001
 40
0.6250000000000001
 40
0.75
 40
0.75
 40
0.875
 40
0.875
 40
1.0
 40
1.0
 40
1.0
 40
1.0
 10
221.6957678645516
 20
41.32103317832756
 30
0.0
 10
221.6345436982486
 20
42.11611127941882
 30
0.0
 10
221.5977276135106
 20
42.88873996952867
 30
0.0
 10
221.5633056253415
 20
44.01028798928844
 30
0.0
 10
221.5555231320951
 20
44.37642139695879
 30
0.0
 10
221.5460954749541
 20
45.07113832062126
 30
0.0
 10
221.544345770476
 20
45.40304143967615
 30
0.0
 10
221.5461087572418
 20
46.03756997260555
 30
0.0
 10
221.549693515609
 20
46.34193185594403
 30
0.0
 10
221.5622032648429
 20
46.90761966625597
 30
0.0
 10
221.5711066712946
 20
47.17066334868314
 30
0.0
 10
221.5949040441001
 20
47.6619498529713
 30
0.0
 10
221.6098034986619
 20
47.89017512768443
 30
0.0
 10
221.6469480363987
 20
48.3148345174672
 30
0.0
 10
221.6692412592327
 20
48.51124054579448
 30
0.0
 10
221.6957678645516
 20
48.69058223772177
 30
0.0
  0
ELLIPSE
  5
309
330
1F
100
AcDbEntity
  8
0
  6
Continuous
 62
     7
370
    25
100
AcDbEllipse
 10
248.9193789402
 20
15.2140474224
 30
0.0
 11
27.50000001249691
 21
-15.87799260506222
 31
0.0
210
0.0
220
0.0
230
1.0
 40
0.0000703729
 41
2.999736230851369
 42
3.058104812336144
  0
ARC
  5
30A
330
1F
100
AcDbEntity
  8
0
  6
Continuous
 62
     7
370
    25
100
AcDbCircle
 10
230.6349229164
 20
32.3627710879
 30
0.0
 40
9.2155440444185
100
AcDbArc
 50
180.0085092346
 51
188.2720748223
  0
ELLIPSE
  5
30B
330
1F
100
AcDbEntity
  8
0
  6
Continuous
 62
     7
370
    25
100
AcDbEllipse
 10
181.5042977598
 20
112.1567074227
 30
0.0
 11
59.15582329075654
 21
-45.31803194169432
 31
0.0
210
0.0
220
0.0
230
1.0
 40
0.0363300839
 41
6.012459877769121
 42
6.136446826202441
  0
LINE
  5
30C
330
1F
100
AcDbEntity
  8
0
  6
Continuous
 62
     7
370
    25
100
AcDbLine
 10
238.0651977676
 20
67.9145430665
 30
0.0
 11
224.5924238908
 21
75.6922098733
 31
0.0
  0
LINE
  5
30D
330
1F
100
AcDbEntity
  8
0
  6
Continuous
 62
     7
370
    25
100
AcDbLine
 10
237.3189242652
 20
94.1956276164
 30
0.0
 11
237.5112910429
 21
94.0577706317
 31
0.0
  0
LINE
  5
30E
330
1F
100
AcDbEntity
  8
0
  6
Continuous
 62
     7
370
    25
100
AcDbLine
 10
239.4974405348
 20
95.0293271535
 30
0.0
 11
237.3159960471
 21
94.3206051094
 31
0.0
  0
LINE
  5
30F
330
1F
100
AcDbEntity
  8
0
  6
Continuous
 62
     7
370
    25
100
AcDbLine
 10
239.1182440217
 20
95.3010731197
 30
0.0
 11
239.4974405348
 21
95.0293271535
 31
0.0
  0
LINE
  5
310
330
1F
100
AcDbEntity
  8
0
  6
Continuous
 62
     7
370
    25
100
AcDbLine
 10
245.2473164404
 20
97.2790822774
 30
0.0
 11
239.1182440217
 21
95.3010731197
 31
0.0
  0
LINE
  5
311
330
1F
100
AcDbEntity
  8
0
  6
Continuous
 62
     7
370
    25
100
AcDbLine
 10
247.7832238267
 20
95.8151341043
 30
0.0
 11
245.2473164404
 21
97.2790822774
 31
0.0
  0
LINE
  5
312
330
1F
100
AcDbEntity
  8
0
  6
Continuous
 62
     7
370
    25
100
AcDbLine
 10
237.5112910429
 20
94.0577706317
 30
0.0
 11
233.8353404627
 21
92.8635030607
 31
0.0
  0
LINE
  5
313
330
1F
100
AcDbEntity
  8
0
  6
Continuous
 62
     7
370
    25
100
AcDbLine
 10
239.1182440217
 20
95.3010731197
 30
0.0
 11
238.9248591342
 21
95.339502517
 31
0.0
  0
LINE
  5
314
330
1F
100
AcDbEntity
  8
0
  6
Continuous
 62
     7
370
    25
100
AcDbLine
 10
246.6250152587
 20
16.5413399791
 30
0.0
 11
221.5152571271
 21
31.0368948019
 31
0.0
  0
SPLINE
  5
315
330
1F
100
AcDbEntity
  8
0
  6
Continuous
 62
     7
370
    25
100
AcDbSpline
210
0.0
220
0.0
230
1.0
 70
     8
 71
     3
 72
     9
 73
     5
 74
     0
 42
0.000000001
 43
0.00000001
 40
0.0
 40
0.0
 40
0.0
 40
0.0
 40
0.5275098662183071
 40
1.0
 40
1.0
 40
1.0
 40
1.0
 10
240.4979754375996
 20
98.3053412473395
 30
0.0
 10
239.1724692429694
 20
98.038596525554
 30
0.0
 10
236.6597082890696
 20
97.53292878572996
 30
0.0
 10
234.3529297692004
 20
96.92714833045912
 30
0.0
 10
233.2629996777427
 20
96.64092304210587
 30
0.0
  0
LINE
  5
316
330
1F
100
AcDbEntity
  8
0
  6
Continuous
 62
     7
370
    25
100
AcDbLine
 10
240.4979764254
 20
98.3053410573
 30
0.0
 11
245.2473164404
 21
97.2790822774
 31
0.0
  0
LINE
  5
317
330
1F
100
AcDbEntity
  8
0
  6
Continuous
 62
     7
370
    25
100
AcDbLine
 10
235.7595445417
 20
38.7451207689
 30
0.0
 11
242.6498180205
 21
34.7674505567
 31
0.0
  0
ARC
  5
318
330
1F
100
AcDbEntity
  8
0
  6
Continuous
 62
     7
370
    25
100
AcDbCircle
 10
239.3532512938
 20
44.7556635727
 30
0.0
 40
6.258927434085937
100
AcDbArc
 50
170.8157374017
 51
172.8482144557
  0
ELLIPSE
  5
319
330
1F
100
AcDbEntity
  8
0
  6
Continuous
 62
     7
370
    25
100
AcDbEllipse
 10
237.7125245194
 20
43.9176643579
 30
0.0
 11
8.062677056843853
 21
6.186235701138549
 31
0.0
210
0.0
220
0.0
230
1.0
 40
0.4141976934
 41
1.833678940562104
 42
2.147173762919532
  0
SPLINE
  5
31A
330
1F
100
AcDbEntity
  8
0
  6
Continuous
 62
     7
370
    25
100
AcDbSpline
210
0.0
220
0.0
230
1.0
 70
     8
 71
     3
 72
    10
 73
     6
 74
     0
 42
0.000000001
 43
0.00000001
 40
0.0
 40
0.0
 40
0.0
 40
0.0
 40
0.5
 40
0.5
 40
1.0
 40
1.0
 40
1.0
 40
1.0
 10
231.1700828967566
 20
43.34624031494705
 30
0.0
 10
231.1024803819926
 20
43.25792754465181
 30
0.0
 10
231.0769322550343
 20
43.11803485216279
 30
0.0
 10
231.1186037659991
 20
42.86495714303813
 30
0.0
 10
231.1836781400459
 20
42.74949473903293
 30
0.0
 10
231.2719483048314
 20
42.6985257163306
 30
0.0
  0
ELLIPSE
  5
31B
330
1F
100
AcDbEntity
  8
0
  6
Continuous
 62
     7
370
    25
100
AcDbEllipse
 10
231.8713823862
 20
42.3529983473
 30
0.0
 11
6.736096809902337
 21
-3.889508697194927
 31
0.0
210
0.0
220
0.0
230
1.0
 40
0.0000663464
 41
4.62332107933457
 42
5.032509439043539
  0
ARC
  5
31C
330
1F
100
AcDbEntity
  8
0
  6
Continuous
 62
     7
370
    25
100
AcDbCircle
 10
239.7956194023
 20
44.2106151105
 30
0.0
 40
6.572209950737717
100
AcDbArc
 50
207.9657418398
 51
221.977611579
  0
ELLIPSE
  5
31D
330
1F
100
AcDbEntity
  8
0
  6
Continuous
 62
     7
370
    25
100
AcDbEllipse
 10
243.2726842183
 20
45.407063639
 30
0.0
 11
8.062677056843825
 21
6.186235701138544
 31
0.0
210
0.0
220
0.0
230
1.0
 40
0.4141976934
 41
2.985581101158236
 42
3.311544284370199
  0
LINE
  5
31E
330
1F
100
AcDbEntity
  8
0
  6
Continuous
 62
     7
370
    18
100
AcDbLine
 10
266.4683126175
 20
65.2065458318
 30
0.0
 11
266.0473159796
 21
65.2481954353
 31
0.0
  0
LINE
  5
31F
330
1F
100
AcDbEntity
  8
0
  6
Continuous
 62
     7
370
    18
100
AcDbLine
 10
265.9750423662
 20
66.3527158985
 30
0.0
 11
265.7015629907
 21
66.0505622342
 31
0.0
  0
LINE
  5
320
330
1F
100
AcDbEntity
  8
0
  6
Continuous
 62
     7
370
    18
100
AcDbLine
 10
266.2567999754
 20
58.6839877619
 30
0.0
 11
265.8360730114
 21
58.7256120824
 31
0.0
  0
LINE
  5
321
330
1F
100
AcDbEntity
  8
0
  6
Continuous
 62
     7
370
    18
100
AcDbLine
 10
268.7208667413
 20
66.5091007772
 30
0.0
 11
266.4683126175
 21
65.2065458318
 31
0.0
  0
LINE
  5
322
330
1F
100
AcDbEntity
  8
0
  6
Continuous
 62
     7
370
    18
100
AcDbLine
 10
265.9750423662
 20
66.3527158985
 30
0.0
 11
268.2275964899
 21
67.6552708439
 31
0.0
  0
LINE
  5
323
330
1F
100
AcDbEntity
  8
0
  6
Continuous
 62
     7
370
    18
100
AcDbLine
 10
266.2567999754
 20
58.6839877619
 30
0.0
 11
268.5093540991
 21
59.9865419469
 31
0.0
  0
LINE
  5
324
330
1F
100
AcDbEntity
  8
0
  6
Continuous
 62
     7
370
    18
100
AcDbLine
 10
259.7476308132
 20
72.8711794842
 30
0.0
 11
260.0211098594
 21
73.1733330535
 31
0.0
  0
LINE
  5
325
330
1F
100
AcDbEntity
  8
0
  6
Continuous
 62
     7
370
    18
100
AcDbLine
 10
262.2736641477
 20
74.4758879989
 30
0.0
 11
260.0211098594
 21
73.1733330535
 31
0.0
  0
LINE
  5
326
330
1F
100
AcDbEntity
  8
0
  6
Continuous
 62
     7
370
    18
100
AcDbLine
 10
237.1629684134
 20
95.1543648669
 30
0.0
 11
238.5247558085
 21
95.5953068944
 31
0.0
  0
LINE
  5
327
330
1F
100
AcDbEntity
  8
0
  6
Continuous
 62
     7
370
    18
100
AcDbLine
 10
232.5708208322
 20
96.7784728065
 30
0.0
 11
231.3550859319
 21
96.3848222896
 31
0.0
  0
LINE
  5
328
330
1F
100
AcDbEntity
  8
0
  6
Continuous
 62
     7
370
    18
100
AcDbLine
 10
237.0047358085
 20
95.2621235434
 30
0.0
 11
233.2817633395
 21
94.0566378969
 31
0.0
  0
LINE
  5
329
330
1F
100
AcDbEntity
  8
0
  6
Continuous
 62
     7
370
    18
100
AcDbLine
 10
237.3056119526
 20
94.7638296595
 30
0.0
 11
233.5826394012
 21
93.5583439774
 31
0.0
  0
LINE
  5
32A
330
1F
100
AcDbEntity
  8
0
  6
Continuous
 62
     7
370
    18
100
AcDbLine
 10
234.0789243047
 20
82.4669959609
 30
0.0
 11
233.8442832501
 21
82.3910199158
 31
0.0
  0
SPLINE
  5
32B
330
1F
100
AcDbEntity
  8
0
  6
Continuous
 62
     7
370
    18
100
AcDbSpline
210
0.0
220
0.0
230
1.0
 70
     8
 71
     3
 72
     9
 73
     5
 74
     0
 42
0.000000001
 43
0.00000001
 40
0.0
 40
0.0
 40
0.0
 40
0.0
 40
0.6640595981038323
 40
1.0
 40
1.0
 40
1.0
 40
1.0
 10
233.6729701403784
 20
84.7093862038083
 30
0.0
 10
233.6761758757295
 20
84.3650878931295
 30
0.0
 10
233.6810033571187
 20
83.84661287723948
 30
0.0
 10
233.6571332866449
 20
83.44607767915849
 30
0.0
 10
233.6491143655767
 20
83.31152172374159
 30
0.0
  0
LWPOLYLINE
  5
32C
330
1F
100
AcDbEntity
  8
0
  6
Continuous
 62
     7
370
    18
100
AcDbPolyline
 90
        3
 70
   128
 43
0.0
 10
233.5265375007
 20
90.9593338615
 10
233.6085396274
 20
87.4593630401
 10
233.6729701404
 20
84.7093862038
  0
SPLINE
  5
32D
330
1F
100
AcDbEntity
  8
0
  6
Continuous
 62
     7
370
    18
100
AcDbSpline
210
0.0
220
0.0
230
1.0
 70
     8
 71
     3
 72
     9
 73
     5
 74
     0
 42
0.000000001
 43
0.00000001
 40
0.0
 40
0.0
 40
0.0
 40
0.0
 40
0.5172396268751126
 40
1.0
 40
1.0
 40
1.0
 40
1.0
 10
233.383709651285
 20
93.16920986253331
 30
0.0
 10
233.4191702143679
 20
92.78089911528659
 30
0.0
 10
233.48772753527
 20
92.03016246041598
 30
0.0
 10
233.5139016670487
 20
91.30797658444261
 30
0.0
 10
233.5265375006724
 20
90.95933386149218
 30
0.0
  0
SPLINE
  5
32E
330
1F
100
AcDbEntity
  8
0
  6
Continuous
 62
     7
370
    18
100
AcDbSpline
210
0.0
220
0.0
230
1.0
 70
     8
 71
     3
 72
     9
 73
     5
 74
     0
 42
0.000000001
 43
0.00000001
 40
0.0
 40
0.0
 40
0.0
 40
0.0
 40
0.512891960728767
 40
0.9999999999999999
 40
0.9999999999999999
 40
0.9999999999999999
 40
0.9999999999999999
 10
231.7588908950685
 20
93.88681045901107
 30
0.0
 10
232.0130093923839
 20
93.81444588012937
 30
0.0
 10
232.5084714326823
 20
93.67335460862869
 30
0.0
 10
233.0970219585954
 20
93.33434444071753
 30
0.0
 10
233.383709651285
 20
93.16920986253331
 30
0.0
  0
LINE
  5
32F
330
1F
100
AcDbEntity
  8
0
  6
Continuous
 62
     7
370
    18
100
AcDbLine
 10
227.6369363753
 20
94.7059253551
 30
0.0
 11
231.7588908951
 21
93.886810459
 31
0.0
  0
SPLINE
  5
330
330
1F
100
AcDbEntity
  8
0
  6
Continuous
 62
     7
370
    18
100
AcDbSpline
210
0.0
220
0.0
230
1.0
 70
     8
 71
     3
 72
     9
 73
     5
 74
     0
 42
0.000000001
 43
0.00000001
 40
0.0
 40
0.0
 40
0.0
 40
0.0
 40
0.3359403037691797
 40
1.0
 40
1.0
 40
1.0
 40
1.0
 10
226.8190691757871
 20
94.62305803322371
 30
0.0
 10
226.8872770043745
 20
94.65793230379542
 30
0.0
 10
227.0903125670088
 20
94.76174321954569
 30
0.0
 10
227.4188006672263
 20
94.72820003322046
 30
0.0
 10
227.6369363752722
 20
94.70592535509873
 30
0.0
  0
LINE
  5
331
330
1F
100
AcDbEntity
  8
0
  6
Continuous
 62
     7
370
    18
100
AcDbLine
 10
229.6396814563
 20
96.7257075503
 30
0.0
 11
225.9167089872
 21
95.5202216543
 31
0.0
  0
SPLINE
  5
332
330
1F
100
AcDbEntity
  8
0
  6
Continuous
 62
     7
370
    18
100
AcDbSpline
210
0.0
220
0.0
230
1.0
 70
     8
 71
     3
 72
     9
 73
     5
 74
     0
 42
0.000000001
 43
0.00000001
 40
0.0
 40
0.0
 40
0.0
 40
0.0
 40
0.5466796029727419
 40
1.0
 40
1.0
 40
1.0
 40
1.0
 10
233.0906267229131
 20
91.15949667858617
 30
0.0
 10
233.0861449317123
 20
91.44943297812758
 30
0.0
 10
233.0779467271763
 20
91.97979170738104
 30
0.0
 10
233.0652294708158
 20
92.53569663370236
 30
0.0
 10
233.0594644791134
 20
92.78769967561173
 30
0.0
  0
SPLINE
  5
333
330
1F
100
AcDbEntity
  8
0
  6
Continuous
 62
     7
370
    18
100
AcDbSpline
210
0.0
220
0.0
230
1.0
 70
     8
 71
     3
 72
    10
 73
     6
 74
     0
 42
0.000000001
 43
0.00000001
 40
0.0
 40
0.0
 40
0.0
 40
0.0
 40
0.2765302817385796
 40
0.5626676237121946
 40
1.0
 40
1.0
 40
1.0
 40
1.0
 10
233.0906267229131
 20
91.15949667858617
 30
0.0
 10
233.1509860701977
 20
91.14925155051256
 30
0.0
 10
233.2738017354187
 20
91.12840536386148
 30
0.0
 10
233.4467462001511
 20
91.06261928927233
 30
0.0
 10
233.4964761153355
 20
90.99824666306198
 30
0.0
 10
233.5265375006724
 20
90.95933386149218
 30
0.0
  0
SPLINE
  5
334
330
1F
100
AcDbEntity
  8
0
  6
Continuous
 62
     7
370
    18
100
AcDbSpline
210
0.0
220
0.0
230
1.0
 70
     8
 71
     3
 72
     9
 73
     5
 74
     0
 42
0.000000001
 43
0.00000001
 40
0.0
 40
0.0
 40
0.0
 40
0.0
 40
0.418325807244748
 40
1.0
 40
1.0
 40
1.0
 40
1.0
 10
233.0594644791134
 20
92.78769967561173
 30
0.0
 10
232.8744619546847
 20
92.87079158664834
 30
0.0
 10
232.4322168882203
 20
93.06942124228415
 30
0.0
 10
232.0638074870185
 20
93.16143621101455
 30
0.0
 10
231.849513245971
 20
93.21495894367219
 30
0.0
  0
ARC
  5
335
330
1F
100
AcDbEntity
  8
0
  6
Continuous
 62
     7
370
    18
100
AcDbCircle
 10
231.095134928
 20
93.4552425394
 30
0.0
 40
0.7917214490936243
100
AcDbArc
 50
342.3323504213
 51
33.0315456837
  0
LINE
  5
336
330
1F
100
AcDbEntity
  8
0
  6
Continuous
 62
     7
370
    18
100
AcDbLine
 10
233.0906267229
 20
91.1594966786
 30
0.0
 11
232.3923332093
 21
91.2503221246
 31
0.0
  0
LINE
  5
337
330
1F
100
AcDbEntity
  8
0
  6
Continuous
 62
     7
370
    18
100
AcDbLine
 10
231.849513246
 20
93.2149589437
 30
0.0
 11
231.6401430137
 21
92.4960569056
 31
0.0
  0
LWPOLYLINE
  5
338
330
1F
100
AcDbEntity
  8
0
  6
Continuous
 62
     7
370
    18
100
AcDbPolyline
 90
        3
 70
   128
 43
0.0
 10
233.2370586218
 20
84.9095495437
 10
233.155056495
 20
88.4095199848
 10
233.0906267229
 20
91.1594966786
  0
ARC
  5
339
330
1F
100
AcDbEntity
  8
0
  6
Continuous
 62
     7
370
    18
100
AcDbCircle
 10
233.2475996618
 20
84.3577644532
 30
0.0
 40
0.5518857667897789
100
AcDbArc
 50
39.5779768073
 51
91.094418207
  0
LINE
  5
33A
330
1F
100
AcDbEntity
  8
0
  6
Continuous
 62
     7
370
    18
100
AcDbLine
 10
233.2370586218
 20
84.9095495437
 30
0.0
 11
232.538765849
 21
85.0003742768
 31
0.0
  0
LINE
  5
33B
330
1F
100
AcDbEntity
  8
0
  6
Continuous
 62
     7
370
    18
100
AcDbLine
 10
227.7275581705
 20
94.0340739942
 30
0.0
 11
227.5181884734
 21
93.3151716948
 31
0.0
  0
LWPOLYLINE
  5
33C
330
1F
100
AcDbEntity
  8
0
  6
Continuous
 62
     7
370
    18
100
AcDbPolyline
 90
        3
 70
   128
 43
0.0
 10
231.849513246
 20
93.2149589437
 10
229.5412183099
 20
93.6736634394
 10
227.7275581705
 20
94.0340739942
  0
SPLINE
  5
33D
330
1F
100
AcDbEntity
  8
0
  6
Continuous
 62
     7
370
    18
100
AcDbSpline
210
0.0
220
0.0
230
1.0
 70
     8
 71
     3
 72
    10
 73
     6
 74
     0
 42
0.000000001
 43
0.00000001
 40
0.0
 40
0.0
 40
0.0
 40
0.0
 40
0.2765308796715735
 40
0.5626682013091484
 40
1.0
 40
1.0
 40
1.0
 40
1.0
 10
227.7275581705277
 20
94.0340739941883
 30
0.0
 10
227.7419620317451
 20
94.0999379676378
 30
0.0
 10
227.771270131776
 20
94.23395397162227
 30
0.0
 10
227.7563386025456
 20
94.47931744493205
 30
0.0
 10
227.6819211697926
 20
94.62055081470425
 30
0.0
 10
227.6369363752722
 20
94.70592535509873
 30
0.0
  0
SPLINE
  5
33E
330
1F
100
AcDbEntity
  8
0
  6
Continuous
 62
     7
370
    18
100
AcDbSpline
210
0.0
220
0.0
230
1.0
 70
     8
 71
     3
 72
     9
 73
     5
 74
     0
 42
0.000000001
 43
0.00000001
 40
0.0
 40
0.0
 40
0.0
 40
0.0
 40
0.2336739447433678
 40
1.0
 40
1.0
 40
1.0
 40
1.0
 10
233.2693539737002
 20
83.86306537269766
 30
0.0
 10
233.2671501811825
 20
83.93544584134274
 30
0.0
 10
233.2577191232177
 20
84.24519568839816
 30
0.0
 10
233.2460222446036
 20
84.62131755632346
 30
0.0
 10
233.2370586217565
 20
84.90954954366643
 30
0.0
  0
SPLINE
  5
33F
330
1F
100
AcDbEntity
  8
0
  6
Continuous
 62
     7
370
    18
100
AcDbSpline
210
0.0
220
0.0
230
1.0
 70
     8
 71
     3
 72
     9
 73
     5
 74
     0
 42
0.000000001
 43
0.00000001
 40
0.0
 40
0.0
 40
0.0
 40
0.0
 40
0.5128918177475883
 40
1.0
 40
1.0
 40
1.0
 40
1.0
 10
228.3918299166193
 20
83.94497561785363
 30
0.0
 10
228.1659993982399
 20
84.02649953389312
 30
0.0
 10
227.7256911098934
 20
84.18544906909433
 30
0.0
 10
227.4244076342538
 20
84.6174755521437
 30
0.0
 10
227.2776499880922
 20
84.82791918698678
 30
0.0
  0
LWPOLYLINE
  5
340
330
1F
100
AcDbEntity
  8
0
  6
Continuous
 62
     7
370
    18
100
AcDbPolyline
 90
        3
 70
   128
 43
0.0
 10
232.5137851155
 20
83.1258606387
 10
230.205489809
 20
83.584565681
 10
228.3918299166
 20
83.9449756179
  0
SPLINE
  5
341
330
1F
100
AcDbEntity
  8
0
  6
Continuous
 62
     7
370
    18
100
AcDbSpline
210
0.0
220
0.0
230
1.0
 70
     8
 71
     3
 72
     9
 73
     5
 74
     0
 42
0.000000001
 43
0.00000001
 40
0.0
 40
0.0
 40
0.0
 40
0.0
 40
0.3359401584605597
 40
1.0
 40
1.0
 40
1.0
 40
1.0
 10
233.6491143655767
 20
83.31152172374159
 30
0.0
 10
233.5182554304421
 20
83.25636107157376
 30
0.0
 10
233.1287249386594
 20
83.09216322032366
 30
0.0
 10
232.759183046133
 20
83.11241334443902
 30
0.0
 10
232.5137851155397
 20
83.12586063865021
 30
0.0
  0
SPLINE
  5
342
330
1F
100
AcDbEntity
  8
0
  6
Continuous
 62
     7
370
    18
100
AcDbSpline
210
0.0
220
0.0
230
1.0
 70
     8
 71
     3
 72
     9
 73
     5
 74
     0
 42
0.000000001
 43
0.00000001
 40
0.0
 40
0.0
 40
0.0
 40
0.0
 40
0.7663259872307049
 40
1.0
 40
1.0
 40
1.0
 40
1.0
 10
232.4231628057962
 20
83.79771189257612
 30
0.0
 10
232.6315019386422
 20
83.7818410290409
 30
0.0
 10
232.903369441921
 20
83.76113069975585
 30
0.0
 10
233.2000317108762
 20
83.84375761082532
 30
0.0
 10
233.2693539737002
 20
83.86306537269766
 30
0.0
  0
LINE
  5
343
330
1F
100
AcDbEntity
  8
0
  6
Continuous
 62
     7
370
    18
100
AcDbLine
 10
232.4231628058
 20
83.7977118926
 30
0.0
 11
232.0454955976
 21
84.326533449
 31
0.0
  0
ARC
  5
344
330
1F
100
AcDbEntity
  8
0
  6
Continuous
 62
     7
370
    18
100
AcDbCircle
 10
231.7594057065
 20
83.36614396
 30
0.0
 40
0.7917224054304723
100
AcDbArc
 50
342.3323933086
 51
33.0315018083
  0
LWPOLYLINE
  5
345
330
1F
100
AcDbEntity
  8
0
  6
Continuous
 62
     7
370
    18
100
AcDbPolyline
 90
        3
 70
   128
 43
0.0
 10
228.3012082654
 20
84.6168272521
 10
230.6095027488
 20
84.1581224949
 10
232.4231628058
 20
83.7977118926
  0
LINE
  5
346
330
1F
100
AcDbEntity
  8
0
  6
Continuous
 62
     7
370
    18
100
AcDbLine
 10
228.3012082654
 20
84.6168272521
 30
0.0
 11
227.923540728
 21
85.1456489986
 31
0.0
  0
SPLINE
  5
347
330
1F
100
AcDbEntity
  8
0
  6
Continuous
 62
     7
370
    18
100
AcDbSpline
210
0.0
220
0.0
230
1.0
 70
     8
 71
     3
 72
    10
 73
     6
 74
     0
 42
0.000000001
 43
0.00000001
 40
0.0
 40
0.0
 40
0.0
 40
0.0
 40
0.2765310954590064
 40
0.5626677708069656
 40
1.0
 40
1.0
 40
1.0
 40
1.0
 10
228.3918299166193
 20
83.94497561785363
 30
0.0
 10
228.4062337973829
 20
84.01083965649275
 30
0.0
 10
228.4355418918913
 20
84.14485558600661
 30
0.0
 10
228.4206104199533
 20
84.39021922742293
 30
0.0
 10
228.3461930684971
 20
84.53145260029727
 30
0.0
 10
228.3012082654203
 20
84.61682725207278
 30
0.0
  0
SPLINE
  5
348
330
1F
100
AcDbEntity
  8
0
  6
Continuous
 62
     7
370
    18
100
AcDbSpline
210
0.0
220
0.0
230
1.0
 70
     8
 71
     3
 72
     9
 73
     5
 74
     0
 42
0.000000001
 43
0.00000001
 40
0.0
 40
0.0
 40
0.0
 40
0.0
 40
0.7663258749899791
 40
1.0
 40
1.0
 40
1.0
 40
1.0
 10
227.7275581705277
 20
94.0340739941883
 30
0.0
 10
227.5473924049948
 20
94.05906700006514
 30
0.0
 10
227.3122890743976
 20
94.09168107025708
 30
0.0
 10
227.1569499931741
 20
94.05481503995988
 30
0.0
 10
227.1206512692893
 20
94.0462004025876
 30
0.0
  0
LINE
  5
349
330
1F
100
AcDbEntity
  8
0
  6
Continuous
 62
     7
370
    18
100
AcDbLine
 10
226.9136621899
 20
92.9222371036
 30
0.0
 11
227.024918222
 21
92.6413312472
 31
0.0
  0
SPLINE
  5
34A
330
1F
100
AcDbEntity
  8
0
  6
Continuous
 62
     7
370
    18
100
AcDbSpline
210
0.0
220
0.0
230
1.0
 70
     8
 71
     3
 72
     9
 73
     5
 74
     0
 42
0.000000001
 43
0.00000001
 40
0.0
 40
0.0
 40
0.0
 40
0.0
 40
0.233674300491816
 40
1.0
 40
1.0
 40
1.0
 40
1.0
 10
227.1206512692893
 20
94.0462004025876
 30
0.0
 10
227.0898316396502
 20
93.96312681188468
 30
0.0
 10
226.957940243916
 20
93.60761664012826
 30
0.0
 10
226.9328723563814
 20
93.21959107000934
 30
0.0
 10
226.9136621899313
 20
92.9222371035609
 30
0.0
  0
SPLINE
  5
34B
330
1F
100
AcDbEntity
  8
0
  6
Continuous
 62
     7
370
    18
100
AcDbSpline
210
0.0
220
0.0
230
1.0
 70
     8
 71
     3
 72
     9
 73
     5
 74
     0
 42
0.000000001
 43
0.00000001
 40
0.0
 40
0.0
 40
0.0
 40
0.0
 40
0.6640596236863853
 40
1.0
 40
1.0
 40
1.0
 40
1.0
 10
226.4777511240587
 20
93.12239984934217
 30
0.0
 10
226.5018078091666
 20
93.47552561776
 30
0.0
 10
226.5380345036528
 20
94.00729378408448
 30
0.0
 10
226.7483991854284
 20
94.46821573842976
 30
0.0
 10
226.8190691757871
 20
94.62305803322371
 30
0.0
  0
LWPOLYLINE
  5
34C
330
1F
100
AcDbEntity
  8
0
  6
Continuous
 62
     7
370
    18
100
AcDbPolyline
 90
        3
 70
   128
 43
0.0
 10
226.6241835991
 20
86.8724519065
 10
226.54218139
 20
90.3724230606
 10
226.4777511241
 20
93.1223998493
  0
SPLINE
  5
34D
330
1F
100
AcDbEntity
  8
0
  6
Continuous
 62
     7
370
    18
100
AcDbSpline
210
0.0
220
0.0
230
1.0
 70
     8
 71
     3
 72
     9
 73
     5
 74
     0
 42
0.000000001
 43
0.00000001
 40
0.0
 40
0.0
 40
0.0
 40
0.0
 40
0.5172396849180321
 40
1.0
 40
1.0
 40
1.0
 40
1.0
 10
227.2776499880922
 20
84.82791918698678
 30
0.0
 10
227.0943420495247
 20
85.16835741031615
 30
0.0
 10
226.7399455406866
 20
85.82654013151108
 30
0.0
 10
226.6618736228044
 20
86.53192168530613
 30
0.0
 10
226.6241835991287
 20
86.87245190646922
 30
0.0
  0
SPLINE
  5
34E
330
1F
100
AcDbEntity
  8
0
  6
Continuous
 62
     7
370
    18
100
AcDbSpline
210
0.0
220
0.0
230
1.0
 70
     8
 71
     3
 72
    10
 73
     6
 74
     0
 42
0.000000001
 43
0.00000001
 40
0.0
 40
0.0
 40
0.0
 40
0.0
 40
0.2765306013676139
 40
0.5626683067655859
 40
1.0
 40
1.0
 40
1.0
 40
1.0
 10
226.4777511240587
 20
93.12239984934217
 30
0.0
 10
226.538110568201
 20
93.11215466389683
 30
0.0
 10
226.6609264376378
 20
93.09130835929791
 30
0.0
 10
226.8338710319999
 20
93.02552254388542
 30
0.0
 10
226.8836008793004
 20
92.96114988269254
 30
0.0
 10
226.9136621899313
 20
92.9222371035609
 30
0.0
  0
LINE
  5
34F
330
1F
100
AcDbEntity
  8
0
  6
Continuous
 62
     7
370
    18
100
AcDbLine
 10
227.0600947062
 20
86.6722894696
 30
0.0
 11
227.1713506971
 21
86.3913833043
 31
0.0
  0
LWPOLYLINE
  5
350
330
1F
100
AcDbEntity
  8
0
  6
Continuous
 62
     7
370
    18
100
AcDbPolyline
 90
        3
 70
   128
 43
0.0
 10
226.9136621899
 20
92.9222371036
 10
226.9956642755
 20
89.4222659732
 10
227.0600947062
 20
86.6722894696
  0
ARC
  5
351
330
1F
100
AcDbEntity
  8
0
  6
Continuous
 62
     7
370
    18
100
AcDbCircle
 10
226.6347272791
 20
86.3206718537
 30
0.0
 40
0.5518807804890674
100
AcDbArc
 50
39.577847806
 51
91.0947022263
  0
SPLINE
  5
352
330
1F
100
AcDbEntity
  8
0
  6
Continuous
 62
     7
370
    18
100
AcDbSpline
210
0.0
220
0.0
230
1.0
 70
     8
 71
     3
 72
     9
 73
     5
 74
     0
 42
0.000000001
 43
0.00000001
 40
0.0
 40
0.0
 40
0.0
 40
0.0
 40
0.418325475727132
 40
1.0
 40
1.0
 40
1.0
 40
1.0
 10
227.4840167634698
 20
85.17126101992046
 30
0.0
 10
227.5768471666701
 20
85.05832417426723
 30
0.0
 10
227.7987566811192
 20
84.78835054797318
 30
0.0
 10
228.1164273374965
 20
84.67990643177345
 30
0.0
 10
228.3012082654203
 20
84.61682725207278
 30
0.0
  0
SPLINE
  5
353
330
1F
100
AcDbEntity
  8
0
  6
Continuous
 62
     7
370
    18
100
AcDbSpline
210
0.0
220
0.0
230
1.0
 70
     8
 71
     3
 72
     9
 73
     5
 74
     0
 42
0.000000001
 43
0.00000001
 40
0.0
 40
0.0
 40
0.0
 40
0.0
 40
0.5466795450205146
 40
0.9999999999999999
 40
0.9999999999999999
 40
0.9999999999999999
 40
0.9999999999999999
 10
227.0600947061602
 20
86.67228946963759
 30
0.0
 10
227.0907141864215
 20
86.39081663055524
 30
0.0
 10
227.1467241113222
 20
85.8759394202294
 30
0.0
 10
227.3788082679801
 20
85.39106466470353
 30
0.0
 10
227.4840167634698
 20
85.17126101992046
 30
0.0
  0
LINE
  5
354
330
1F
100
AcDbEntity
  8
0
  6
Continuous
 62
     7
370
    18
100
AcDbLine
 10
268.9061808365
 20
67.2857684251
 30
0.0
 11
272.6291580801
 21
69.438598972
 31
0.0
  0
LINE
  5
355
330
1F
100
AcDbEntity
  8
0
  6
Continuous
 62
     7
370
    18
100
AcDbLine
 10
261.5411285423
 20
75.7229151588
 30
0.0
 11
265.2641003528
 21
77.8757487115
 31
0.0
  0
LINE
  5
356
330
1F
100
AcDbEntity
  8
0
  6
Continuous
 62
     7
370
    18
100
AcDbLine
 10
269.1034890029
 20
66.8273005124
 30
0.0
 11
272.8264661641
 21
68.9801310119
 31
0.0
  0
LINE
  5
357
330
1F
100
AcDbEntity
  8
0
  6
Continuous
 62
     7
370
    18
100
AcDbLine
 10
268.8418504224
 20
58.7588528863
 30
0.0
 11
272.5648223152
 21
60.9116868073
 31
0.0
  0
LINE
  5
358
330
1F
100
AcDbEntity
  8
0
  6
Continuous
 62
     7
370
    18
100
AcDbLine
 10
262.0001846076
 20
79.245766467
 30
0.0
 11
250.7626411827
 21
71.1651322965
 31
0.0
  0
ARC
  5
359
330
1F
100
AcDbEntity
  8
0
  6
Continuous
 62
     7
370
    18
100
AcDbCircle
 10
250.604986035
 20
94.3853274038
 30
0.0
 40
39.42646860904784
100
AcDbArc
 50
271.1810483976
 51
296.5653997981
  0
LINE
  5
35A
330
1F
100
AcDbEntity
  8
0
  6
Continuous
 62
     7
370
    18
100
AcDbLine
 10
272.6897248301
 20
59.2344475971
 30
0.0
 11
271.4233921442
 21
60.1701338811
 31
0.0
  0
LINE
  5
35B
330
1F
100
AcDbEntity
  8
0
  6
Continuous
 62
     7
370
    18
100
AcDbLine
 10
274.0490416955
 20
46.885013319
 30
0.0
 11
274.3891983731
 21
46.6886450488
 31
0.0
  0
LINE
  5
35C
330
1F
100
AcDbEntity
  8
0
  6
Continuous
 62
     7
370
    18
100
AcDbLine
 10
274.6134485832
 20
43.8453331592
 30
0.0
 11
274.9265153739
 21
43.6646035478
 31
0.0
  0
LINE
  5
35D
330
1F
100
AcDbEntity
  8
0
  6
Continuous
 62
     7
370
    18
100
AcDbLine
 10
275.1316789885
 20
40.8323108755
 30
0.0
 11
275.4161201665
 21
40.6681064786
 31
0.0
  0
LINE
  5
35E
330
1F
100
AcDbEntity
  8
0
  6
Continuous
 62
     7
370
    18
100
AcDbLine
 10
275.601026952
 20
37.8475078248
 30
0.0
 11
275.8549406409
 21
37.7009265723
 31
0.0
  0
LINE
  5
35F
330
1F
100
AcDbEntity
  8
0
  6
Continuous
 62
     7
370
    18
100
AcDbLine
 10
263.4075103555
 20
41.8356298045
 30
0.0
 11
263.6611276994
 21
42.0605136673
 31
0.0
  0
LINE
  5
360
330
1F
100
AcDbEntity
  8
0
  6
Continuous
 62
     7
370
    18
100
AcDbLine
 10
276.0181332383
 20
34.8928624921
 30
0.0
 11
276.2391486777
 21
34.7652729947
 31
0.0
  0
LINE
  5
361
330
1F
100
AcDbEntity
  8
0
  6
Continuous
 62
     7
370
    18
100
AcDbLine
 10
276.3788081872
 20
31.9707950374
 30
0.0
 11
276.5639434876
 21
31.8639187034
 31
0.0
  0
LINE
  5
362
330
1F
100
AcDbEntity
  8
0
  6
Continuous
 62
     7
370
    18
100
AcDbLine
 10
235.8978164978
 20
49.9101594513
 30
0.0
 11
234.176203347
 21
49.4489884641
 31
0.0
  0
LINE
  5
363
330
1F
100
AcDbEntity
  8
0
  6
Continuous
 62
     7
370
    18
100
AcDbLine
 10
259.8129722578
 20
80.5877591973
 30
0.0
 11
259.7762162546
 21
80.571752621
 31
0.0
  0
LINE
  5
364
330
1F
100
AcDbEntity
  8
0
  6
Continuous
 62
     7
370
    18
100
AcDbLine
 10
250.9080306879
 20
76.709651516
 30
0.0
 11
243.6581464682
 21
73.5523221854
 31
0.0
  0
LINE
  5
365
330
1F
100
AcDbEntity
  8
0
  6
Continuous
 62
     7
370
    18
100
AcDbLine
 10
233.7869324199
 20
53.6736020582
 30
0.0
 11
236.8349951384
 21
54.4900881755
 31
0.0
  0
LINE
  5
366
330
1F
100
AcDbEntity
  8
0
  6
Continuous
 62
     7
370
    18
100
AcDbLine
 10
227.6846945375
 20
80.5277729367
 30
0.0
 11
241.8547845656
 21
70.0575700593
 31
0.0
  0
LINE
  5
367
330
1F
100
AcDbEntity
  8
0
  6
Continuous
 62
     7
370
    18
100
AcDbLine
 10
236.5456804017
 20
90.9211768084
 30
0.0
 11
247.7832238267
 21
95.8151341043
 31
0.0
  0
LINE
  5
368
330
1F
100
AcDbEntity
  8
0
  6
Continuous
 62
     7
370
    18
100
AcDbLine
 10
236.5450103327
 20
27.9800689718
 30
0.0
 11
236.9337596925
 21
28.0842052638
 31
0.0
  0
LINE
  5
369
330
1F
100
AcDbEntity
  8
0
  6
Continuous
 62
     7
370
    18
100
AcDbLine
 10
242.0945602916
 20
33.2706821156
 30
0.0
 11
237.7573170149
 21
32.1088641502
 31
0.0
  0
LINE
  5
36A
330
1F
100
AcDbEntity
  8
0
  6
Continuous
 62
     7
370
    18
100
AcDbLine
 10
225.8561405086
 20
76.9357493681
 30
0.0
 11
238.0651977676
 21
67.9145430665
 31
0.0
  0
LINE
  5
36B
330
1F
100
AcDbEntity
  8
0
  6
Continuous
 62
     7
370
    18
100
AcDbLine
 10
228.0597288847
 20
32.8785176853
 30
0.0
 11
228.4484782445
 21
32.9826539773
 31
0.0
  0
LINE
  5
36C
330
1F
100
AcDbEntity
  8
0
  6
Continuous
 62
     7
370
    18
100
AcDbLine
 10
234.0914808963
 20
81.931050845
 30
0.0
 11
231.2179374527
 21
81.0006076137
 31
0.0
  0
LINE
  5
36D
330
1F
100
AcDbEntity
  8
0
  6
Continuous
 62
     7
370
    18
100
AcDbLine
 10
235.7595445417
 20
38.7451207689
 30
0.0
 11
229.2720355669
 21
37.0073128637
 31
0.0
  0
OLE2FRAME
  5
36E
330
1F
100
AcDbEntity
  8
0
100
AcDbOle2Frame
 70
     2
  3
Paintbrush-Bild
 10
13.8511154363
 20
38.264191557
 30
0.0
 11
51.6290888628
 21
31.9806341108
 31
0.0
 71
     2
 72
     0
 73
     1
 90
    12928
310
80552BED0767C5B32B40DDAF6807D121434000000000000000006FFBDDFB85D0
310
4940DDAF6807D121434000000000000000006FFBDDFB85D04940416F4BD60AFB
310
3F4000000000000000002BED0767C5B32B40416F4BD60AFB3F40000000000000
310
0000000000000100000000010000010000000100000000000100000000320000
310
D0CF11E0A1B11AE1000000000000000000000000000000003E000300FEFF0900
310
0600000000000000000000000100000001000000000000000010000002000000
310
01000000FEFFFFFF0000000000000000FFFFFFFFFFFFFFFFFFFFFFFFFFFFFFFF
310
FFFFFFFFFFFFFFFFFFFFFFFFFFFFFFFFFFFFFFFFFFFFFFFFFFFFFFFFFFFFFFFF
310
FFFFFFFFFFFFFFFFFFFFFFFFFFFFFFFFFFFFFFFFFFFFFFFFFFFFFFFFFFFFFFFF
310
FFFFFFFFFFFFFFFFFFFFFFFFFFFFFFFFFFFFFFFFFFFFFFFFFFFFFFFFFFFFFFFF
310
FFFFFFFFFFFFFFFFFFFFFFFFFFFFFFFFFFFFFFFFFFFFFFFFFFFFFFFFFFFFFFFF
310
FFFFFFFFFFFFFFFFFFFFFFFFFFFFFFFFFFFFFFFFFFFFFFFFFFFFFFFFFFFFFFFF
310
FFFFFFFFFFFFFFFFFFFFFFFFFFFFFFFFFFFFFFFFFFFFFFFFFFFFFFFFFFFFFFFF
310
FFFFFFFFFFFFFFFFFFFFFFFFFFFFFFFFFFFFFFFFFFFFFFFFFFFFFFFFFFFFFFFF
310
FFFFFFFFFFFFFFFFFFFFFFFFFFFFFFFFFFFFFFFFFFFFFFFFFFFFFFFFFFFFFFFF
310
FFFFFFFFFFFFFFFFFFFFFFFFFFFFFFFFFFFFFFFFFFFFFFFFFFFFFFFFFFFFFFFF
310
FFFFFFFFFFFFFFFFFFFFFFFFFFFFFFFFFFFFFFFFFFFFFFFFFFFFFFFFFFFFFFFF
310
FFFFFFFFFFFFFFFFFFFFFFFFFFFFFFFFFFFFFFFFFFFFFFFFFFFFFFFFFFFFFFFF
310
FFFFFFFFFFFFFFFFFFFFFFFFFFFFFFFFFFFFFFFFFFFFFFFFFFFFFFFFFFFFFFFF
310
FFFFFFFFFFFFFFFFFFFFFFFFFFFFFFFFFFFFFFFFFFFFFFFFFFFFFFFFFFFFFFFF
310
FDFFFFFFFEFFFFFFFEFFFFFFFEFFFFFF05000000060000000700000008000000
310
090000000A0000000B0000000C0000000D0000000E0000000F00000010000000
310
11000000120000001300000014000000150000001600000017000000FEFFFFFF
310
FFFFFFFFFFFFFFFFFFFFFFFFFFFFFFFFFFFFFFFFFFFFFFFFFFFFFFFFFFFFFFFF
310
FFFFFFFFFFFFFFFFFFFFFFFFFFFFFFFFFFFFFFFFFFFFFFFFFFFFFFFFFFFFFFFF
310
FFFFFFFFFFFFFFFFFFFFFFFFFFFFFFFFFFFFFFFFFFFFFFFFFFFFFFFFFFFFFFFF
310
FFFFFFFFFFFFFFFFFFFFFFFFFFFFFFFFFFFFFFFFFFFFFFFFFFFFFFFFFFFFFFFF
310
FFFFFFFFFFFFFFFFFFFFFFFFFFFFFFFFFFFFFFFFFFFFFFFFFFFFFFFFFFFFFFFF
310
FFFFFFFFFFFFFFFFFFFFFFFFFFFFFFFFFFFFFFFFFFFFFFFFFFFFFFFFFFFFFFFF
310
FFFFFFFFFFFFFFFFFFFFFFFFFFFFFFFFFFFFFFFFFFFFFFFFFFFFFFFFFFFFFFFF
310
FFFFFFFFFFFFFFFFFFFFFFFFFFFFFFFFFFFFFFFFFFFFFFFFFFFFFFFFFFFFFFFF
310
FFFFFFFFFFFFFFFFFFFFFFFFFFFFFFFFFFFFFFFFFFFFFFFFFFFFFFFFFFFFFFFF
310
FFFFFFFFFFFFFFFFFFFFFFFFFFFFFFFFFFFFFFFFFFFFFFFFFFFFFFFFFFFFFFFF
310
FFFFFFFFFFFFFFFFFFFFFFFFFFFFFFFFFFFFFFFFFFFFFFFFFFFFFFFFFFFFFFFF
310
FFFFFFFFFFFFFFFFFFFFFFFFFFFFFFFFFFFFFFFFFFFFFFFFFFFFFFFFFFFFFFFF
310
FFFFFFFFFFFFFFFFFFFFFFFFFFFFFFFFFFFFFFFFFFFFFFFFFFFFFFFFFFFFFFFF
310
52006F006F007400200045006E00740072007900000000000000000000000000
310
0000000000000000000000000000000000000000000000000000000000000000
310
16000500FFFFFFFFFFFFFFFF020000000A00030000000000C000000000000046
310
00000000000000000000000040F9365A9261D60103000000C000000000000000
310
01004F006C006500000000000000000000000000000000000000000000000000
310
0000000000000000000000000000000000000000000000000000000000000000
310
0A000200FFFFFFFFFFFFFFFFFFFFFFFF00000000000000000000000000000000
310
0000000000000000000000000000000000000000000000001400000000000000
310
010043006F006D0070004F0062006A0000000000000000000000000000000000
310
0000000000000000000000000000000000000000000000000000000000000000
310
120002010100000003000000FFFFFFFF00000000000000000000000000000000
310
0000000000000000000000000000000000000000010000004D00000000000000
310
01004F006C006500310030004E00610074006900760065000000000000000000
310
0000000000000000000000000000000000000000000000000000000000000000
310
1A000200FFFFFFFFFFFFFFFFFFFFFFFF00000000000000000000000000000000
310
0000000000000000000000000000000000000000040000002426000000000000
310
FEFFFFFF02000000FEFFFFFFFFFFFFFFFFFFFFFFFFFFFFFFFFFFFFFFFFFFFFFF
310
FFFFFFFFFFFFFFFFFFFFFFFFFFFFFFFFFFFFFFFFFFFFFFFFFFFFFFFFFFFFFFFF
310
FFFFFFFFFFFFFFFFFFFFFFFFFFFFFFFFFFFFFFFFFFFFFFFFFFFFFFFFFFFFFFFF
310
FFFFFFFFFFFFFFFFFFFFFFFFFFFFFFFFFFFFFFFFFFFFFFFFFFFFFFFFFFFFFFFF
310
FFFFFFFFFFFFFFFFFFFFFFFFFFFFFFFFFFFFFFFFFFFFFFFFFFFFFFFFFFFFFFFF
310
FFFFFFFFFFFFFFFFFFFFFFFFFFFFFFFFFFFFFFFFFFFFFFFFFFFFFFFFFFFFFFFF
310
FFFFFFFFFFFFFFFFFFFFFFFFFFFFFFFFFFFFFFFFFFFFFFFFFFFFFFFFFFFFFFFF
310
FFFFFFFFFFFFFFFFFFFFFFFFFFFFFFFFFFFFFFFFFFFFFFFFFFFFFFFFFFFFFFFF
310
FFFFFFFFFFFFFFFFFFFFFFFFFFFFFFFFFFFFFFFFFFFFFFFFFFFFFFFFFFFFFFFF
310
FFFFFFFFFFFFFFFFFFFFFFFFFFFFFFFFFFFFFFFFFFFFFFFFFFFFFFFFFFFFFFFF
310
FFFFFFFFFFFFFFFFFFFFFFFFFFFFFFFFFFFFFFFFFFFFFFFFFFFFFFFFFFFFFFFF
310
FFFFFFFFFFFFFFFFFFFFFFFFFFFFFFFFFFFFFFFFFFFFFFFFFFFFFFFFFFFFFFFF
310
FFFFFFFFFFFFFFFFFFFFFFFFFFFFFFFFFFFFFFFFFFFFFFFFFFFFFFFFFFFFFFFF
310
FFFFFFFFFFFFFFFFFFFFFFFFFFFFFFFFFFFFFFFFFFFFFFFFFFFFFFFFFFFFFFFF
310
FFFFFFFFFFFFFFFFFFFFFFFFFFFFFFFFFFFFFFFFFFFFFFFFFFFFFFFFFFFFFFFF
310
FFFFFFFFFFFFFFFFFFFFFFFFFFFFFFFFFFFFFFFFFFFFFFFFFFFFFFFFFFFFFFFF
310
0100000200000000000000000000000000000000000000000000000000000000
310
0000000000000000000000000000000000000000000000000000000000000000
310
0100FEFF030A0000FFFFFFFF0A00030000000000C00000000000004607000000
310
5042727573680007000000504272757368000700000050427275736800F439B2
310
7100000000000000000000000000000000000000000000000000000000000000
310
0000000000000000000000000000000000000000000000000000000000000000
310
0000000000000000000000000000000000000000000000000000000000000000
310
0000000000000000000000000000000000000000000000000000000000000000
310
0000000000000000000000000000000000000000000000000000000000000000
310
0000000000000000000000000000000000000000000000000000000000000000
310
0000000000000000000000000000000000000000000000000000000000000000
310
0000000000000000000000000000000000000000000000000000000000000000
310
0000000000000000000000000000000000000000000000000000000000000000
310
0000000000000000000000000000000000000000000000000000000000000000
310
0000000000000000000000000000000000000000000000000000000000000000
310
0000000000000000000000000000000000000000000000000000000000000000
310
20260000424D0E260000000000003E00000028000000B40200006E0000000100
310
01000000000000000000130B0000130B00000200000002000000000000FFFFFF
310
FFFFFFFFFFFFFFFFFFFFFFFFFFFFFFFFFFFFFFFFFFFFFFFFFFFFFFFFFFFFFFFF
310
FFFFFFFFFFFFFFFFFFFFFFFFFFFFFFFFFFFFFFFFFFFFFFFFFFFFFFFFFFFFFFFF
310
FFFFFFFFFFFFFFFFFFFFFFFFFFFFFFFFFFFFFFFFFFFFFFFFF000FFFFFFFFFFFF
310
FFFFFFFFFFFFFFFFFFFFFFFFFFFFFFFFFFFFFFFFFFFFFFFFFFFFFFFFFFFFFFFF
310
FFFFFFFFFFFFFFFFFFFFFFFFFFFFFFFFFFFFFFFFFFFFFFFFFFFFFFFFFFFFFFFF
310
FFFFFFFFFFFFFFFFFFFFFFFFFFFFFFFFF000FFFFFFFFFFFFFFFFFFFFFFFFFFFF
310
FFFFFFFFFFFFFFFFFFFFFFFFFFFFFFFFFFFFFFFFFFFFFFFFFFFFFFFFFFFFFFFF
310
FFFFFFFFFFFFFFFFFFFFFFFFFFFFFFFFFFFFFFFFFFFFFFFFFFFFFFFFFFFFFFFF
310
FFFFFFFFFFFFFFFFF000FFFFFFFFFFFFFFFFFFFFFFFFFFFFFFFFFFFFFFFFFFFF
310
FFFFFFFFFFFFFFFFFFFFFFFFFFFFFFFFFFFFFFFFFFFFFFFFFFFFFFFFFFFFFFFF
310
FFFFFFFFFFFFFFFFFFFFFFFFFFFFFFFFFFFFFFFFFFFFFFFFFFFFFFFFFFFFFFFF
310
F000FFFFFFFFFFFFFFFFFFFFFFFFFFFFFFFFFFFFFFFFFFFFFFFFFFFFFFFFFFFF
310
FFFFFFFFFFFFFFFFFFFFFFFFFFFFFFFFFFFFFFFFFFFFFFFFFFFFFFFFFFFFFFFF
310
FFFFFFFFFFFFFFFFFFFFFFFFFFFFFFFFFFFFFFFFFFFFFFFFF000FFFFFFFFFFFF
310
FFFFFFFFFFFFFFFFFFFFFFFFFFFFFFFFFFFFFFFFFFFFFFFFFFFFFFFFFFFFFFFF
310
FFFFFFFFFFFFFFFFFFFFFFFFFFFFFFFFFFFFFFFFFFFFFFFFFFFFFFFFFFFFFFFF
310
FFFFFFFFFFFFFFFFFFFFFFFFFFFFFFFFF000FFFFFFFFFFFFFFFFFFFFFFFFFFFF
310
FFFFFFFFFFFFFFFFFFFFFFFFFFFFFFFFFFFFFFFFFFFFFFFFFFFFFFFFFFFFFFFF
310
FFFFFFFFFFFFFFFFFFFFFFFFFFFFFFFFFFFFFFFFFFFFFFFFFFFFFFFFFFFFFFFF
310
FFFFFFFFFFFFFFFFF000FFFFFFFFFFFFFFFFFFFFFFFFFFFFFFFFFFFFFFFFFFFF
310
FFFFFFFFFFFFFFFFFFFFFFFFFFFFFFFFFFFFFFFFFFFFFFFFFFFFFFFFFFFFFFFF
310
FFFFFFFFFFFFFFFFFFFFFFFFFFFFFFFFFFFFFFFFFFFFFFFFFFFFFFFFFFFFFFFF
310
F000FFFFFFFFFFFFFFFFFFFFFFFFFFFFFFFFFFFFFFFFFFFFFFFFFFFFFFFFFFFF
310
FFFFFFFFFFFFFFFFFFFFFFFFFFFFFFFFFFFFFFFFFFFFFFFFFFFFFFFFFFFFFFFF
310
FFFFFFFFFFFFFFFFFFFFFFFFFFFFFFFFFFFFFFFFFFFFFFFFF000FFFFFFFFFFFF
310
FFFFFFFFFFFFFFFFFFFFFFFFFFFFFFFFFFFFFFFFFFFFFFFFFFFFFFFFFFFFFFFF
310
FFFFFFFFFFFFFFFFFFFFFFFFFFFFFFFFFFFFFFFFFFFFFFFFFFFFFFFFFFFFFFFF
310
FFFFFFFFFFFFFFFFFFFFFFFFFFFFFFFFF000FFFFFFFFFFFFFFFFFFFFFFFFFFFF
310
FFFFFFFFFFFFFFFFFFFFFFFFFFFFFFFFFFFFFFFFFFFFFFFFFFFFFFFFFFFFFFFF
310
FFFFFFFFFFFFFFFFFFFFFFFFFFFFFFFFFFFFFFFFFFFFFFFFFFFFFFFFFFFFFFFF
310
FFFFFFFFFFFFFFFFF000FFFFFFFFFFFFFFFFFFFFFFFFFFFFFFFFFFFFFFFFFFFF
310
FFFFFFFFFFFFFFFFFFFFFFFFFFFFFFFFFFFFFFFFFFFFFFFFFFFFFFFFFFFFFFFF
310
FFFFFFFFFFFFFFFFFFFFFFFFFFFFFFFFFFFFFFFFFFFFFFFFFFFFFFFFFFFFFFFF
310
F000FFFFFFFFFFFFFFFFFFFFFFFFFFFFFFFFFFFFFFFFFFFFFFFFFFFFFFFFFFFF
310
FFFFFFFFFFFFFFFFFFFFFFFFFFFFFFFFFFFFFFFFFFFFFFFFFFFFFFFFFFFFFFFF
310
FFFFFFFFFFFFFFFFFFFFFFFFFFFFFFFFFFFFFFFFFFFFFFFFF000FFFFFFFFFFFF
310
FFFFFFFFFFFFFFFFFFFFFFFFFFFFFFFFFFFFFFFFFFFFFFFFFFFFFFFFFFFFFFFF
310
FFFFFFFFFFFFFFFFFFFFFFFFFFFFFFFFFFFFFFFFFFFFFFFFFFFFFFFFFFFFFFFF
310
FFFFFFFFFFFFFFFFFFFFFFFFFFFFFFFFF000FFFFFFFFFFFFFFFFFFFFFFFFFFFF
310
FFFFFFFFFFFFFFFFFFFFFFFFFFFFFFFFFFFFFFFFFFFFFFFFFFFFFFFFFFFFFFFF
310
FFFFFFFFFFFFFFFFFFFFFFFFFFFFFFFFFFFFFFFFFFFFFFFFFFFFFFFFFFFFFFFF
310
FFFFFFFFFFFFFFFFF000FFFFFFFFFFFFFFFFFFFFFFFFFFFFFFFFFFFFFFFFFFFF
310
FFFFFFFFFFFFFFFFFFFFFFFFFFFFFFFFFFFFFFFFFFFFFFFFFFFFFFFFFFFFFFFF
310
FFFFFFFFFFFFFFFFFFFFFFFFFFFFFFFFFFFFFFFFFFFFFFFFFFFFFFFFFFFFFFFF
310
F000FFFFFFFFFFFFFFFFFFFFFFFFFFFFFFFFFFFFFFFFFFFFFFFFFFFFFFFFFFFF
310
FFFFFFFFFFFFFFFFFFFFFFFFFFFFFFFFFFFFFFFFFFFFFFFFFFFFFFFFFFFFFFFF
310
FFFFFFFFFFFFFFFFFFFFFFFFFFFFFFFFFFFFFFFFFFFFFFFFF000FFFFFFFFFFFF
310
FFFFFFFFFFFFFFFFFFFFFFFFFFFFFFFFFFFFFFFFFFFFFFFFFFFFFFFFFFFFFFFF
310
FFFFFFFFFFFFFFFFFFFFFFFFFFFFFFFFFFFFFFFFFFFFFFFFFFFFFFFFFFFFFFFF
310
FFFFFFFFFFFFFFFFFFFFFFFFFFFFFFFFF000FFFFFFFFFFFFFFFFFFFFFFFFFFFF
310
FFFFFFFFFFFFFFFFFFFFFFFFFFFFFFFFFFFFFFFFFFFFFFFFFFFFFFFFFFFFFFFF
310
FFFFFFFFFFFFFFFFFFFFFFFFFFFFFFFFFFFFFFFFFFFFFFFFFFFFFFFFFFFFFFFF
310
FFFFFFFFFFFFFFFFF000FFFFF80003FFFFFFFFFFFFFFFFFFFFFFFFFFFFFFFFFF
310
FFFFF00007FFFFFFFFFF00007FFFFFF800000000000000007FFFFFFFFFFFFFFF
310
FFFFFFFC001FFFFFFFFFFFFFFC001FFFFFFFFFFFFFFFFFFFFFFFFFFE0007FFFF
310
F000FFFF8000007FFFFFFFF8000FFFFFC0007FFFFF80007FFFFF0000007FFFFF
310
FFF8000007FFFFF800000000000000007FFFFFF0001FFFFFFFFFFFC00001FFFF
310
FFFFFFFFC00001FFFFFFFF000000000003FFFFE000007FFFF000FFFE0000000F
310
FFFFFFF0000FFFFF80007FFFFF80007FFFFC0000001FFFFFFFC0000001FFFFF8
310
00000000000000007FFFFFF0001FFFFFFFFFFE0000003FFFFFFFFFFE0000003F
310
FFFFFF000000000003FFFF0000000FFFF000FFF800000003FFFFFFF00007FFFF
310
80007FFFFF80007FFFF000000007FFFFFF000000003FFFF80000000000000000
310
7FFFFFF0001FFFFFFFFFF80000000FFFFFFFFFF80000000FFFFFFF0000000000
310
03FFFC00000003FFF000FFE000000000FFFFFFF00007FFFF80003FFFFF80007F
310
FFC000000001FFFFFC000000001FFFF800000000000000007FFFFFF0001FFFFF
310
FFFFE000000003FFFFFFFFE000000003FFFFFF000000000003FFF000000000FF
310
F000FF80000000007FFFFFF00007FFFF80003FFFFF80007FFF8000000000FFFF
310
F80000000007FFF800000000000000007FFFFFF0001FFFFFFFFFC000000001FF
310
FFFFFFC000000001FFFFFF000000000003FFC0000000007FF000FF0000000000
310
3FFFFFE00007FFFF00003FFFFF80007FFE00000000003FFFF00000000003FFF8
310
00000000000000007FFFFFF0001FFFFFFFFF8000000000FFFFFFFF8000000000
310
FFFFFF000000000003FF80000000003FF000FE00000000001FFFFFE00003FFFF
310
00003FFFFF80007FFC00000000001FFFE00000000001FFF8000001FFFE000000
310
7FFFFFF0001FFFFFFFFE00000000003FFFFFFE00000000003FFFFF0000000000
310
03FF00000000001FF000FC00000000000FFFFFE00003FFFF00001FFFFF80007F
310
F800000000001FFFC00000000000FFF8000001FFFE0000007FFFFFF0001FFFFF
310
FFFC00000000001FFFFFFC00000000001FFFFF000000000003FE00000000000F
310
F000F8000000000007FFFFE00003FFFF00001FFFFF80007FF800000000000FFF
310
800000000000FFF8000001FFFE0000007FFFFFF0001FFFFFFFF800000000000F
310
FFFFF800000000000FFFFF000000000003FC000000000007F000F80000000000
310
03FFFFC00003FFFE00001FFFFF80007FF0000000000007FF0000000000007FF8
310
000001FFFE0000007FFFFFF0001FFFFFFFF0000000000007FFFFF00000000000
310
07FFFF000000000003F8000000000003F000F0000000000003FFFFC00001FFFE
310
00001FFFFF80007FE0000000000007FE0000000000003FF8000001FFFE000000
310
7FFFFFF0001FFFFFFFF0000000000007FFFFF0000000000007FFFF0000000000
310
03F800001F800003F000E00001FFF00001FFFFC00001FFFE00000FFFFF80007F
310
E00001FFE00003FE00001FFF00003FF8000001FFFE0000007FFFFFF0001FFFFF
310
FFE000003E000003FFFFE000003E000003FFFF000000000003F00001FFF80001
310
F000E00007FFFC0001FFFFC00001FFFE00000FFFFF80007FC0000FFFFC0003FC
310
0000FFFFC0001FF8000001FFFE0000007FFFFFF0001FFFFFFFC00003FFE00001
310
FFFFC00003FFE00001FFFF0001FFFFFFFFF00007FFFE0001F000E0000FFFFF00
310
00FFFF800001FFFC00000FFFFF80007FC0001FFFFE0001FC0001FFFFE0001FF8
310
000001FFFE0000007FFFFFF0001FFFFFFF80000FFFF80000FFFF80000FFFF800
310
00FFFF0003FFFFFFFFE0000FFFFF8000F000C0003FFFFF8000FFFF800000FFFC
310
000007FFFF80007F80003FFFFF0001FC0003FFFFF0001FF8000001FFFE000000
310
7FFFFFF0001FFFFFFF80003FFFFE0000FFFF80003FFFFE0000FFFF0003FFFFFF
310
FFE0003FFFFF8000F000C0003FFFFF8000FFFF800000FFFC000007FFFF80007F
310
80007FFFFF8001F80007FFFFF8000FF8000001FFFE0000007FFFFFF0001FFFFF
310
FF00007FFFFF00007FFF00007FFFFF00007FFF0003FFFFFFFFE0003FFFFFC000
310
F000C0007FFFFFC000FFFF000000FFFC000007FFFF80007F8000FFFFFF8000F8
310
000FFFFFF8000FF8000001FFFE0000007FFFFFF0001FFFFFFF0000FFFFFF8000
310
7FFF0000FFFFFF80007FFF0003FFFFFFFFC0007FFFFFC00070008000FFFFFFC0
310
00FFFF000000FFF8000007FFFF80007F8000FFFFFF8000F8000FFFFFF8000FF8
310
000001FFFE0000007FFFFFF0001FFFFFFE0001FFFFFFC0003FFE0001FFFFFFC0
310
003FFF0003FFFFFFFFC0007FFFFFE00070008000FFFFFFC0007FFF0000007FF8
310
000003FFFF80007F0001FFFFFF8000F8000FFFFFF8000FF8000001FFFE000000
310
7FFFFFF0001FFFFFFE0001FFFFFFC0003FFE0001FFFFFFC0003FFF0003FFFFFF
310
FFC000FFFFFFE00070008000FFFFFFC0007FFF0000007FF8000003FFFF80007F
310
0001FFFFFF8000F8001FFFFFF8000FF8000001FFFE0000007FFFFFF0001FFFFF
310
FE0003FFFFFFE0003FFE0003FFFFFFE0003FFF0003FFFFFFFFC000FFFFFFE000
310
70008000FFFFFFC0007FFE0000007FF8000003FFFF80007F0001FFFFFF8000F0
310
001FFFFFF8000FF8000001FFFE0000007FFFFFF0001FFFFFFC0003FFFFFFE000
310
1FFC0003FFFFFFE0001FFF0003FFFFFFFFC000FFFFFFC00070008000FFFFFF80
310
007FFE0000007FF0000003FFFF80007F0001FFFFFF0000F0001FFFFFF8000FF8
310
000001FFFE0000007FFFFFF0001FFFFFFC0007FFFFFFF0001FFC0007FFFFFFF0
310
001FFF0003FFFFFFFFC000FFFFFFC00070008001FFFFFF0000FFFE0000003FF0
310
000001FFFF80007F0001FFFFFF0000F8001FFFFFF0000FF8000001FFFE000000
310
7FFFFFF0001FFFFFFC0007FFFFFFF0001FFC0007FFFFFFF0001FFF0003FFFFFF
310
FFC001FFFFFF80007000FFFFFFFFFE0000FFFE0008003FF0008001FFFF80007F
310
FFFFFFFFFC0000FFFFFFFFFFE0000FF8000001FFFE0000007FFFFFF0001FFFFF
310
F8000FFFFFFFF8000FF8000FFFFFFFF8000FFF0003FFFFFFFFFFFFFFFFFF0000
310
7000FFFFFFFFFC0000FFFC0008003FF0008001FFFF80007FFFFFFFFFF80001FF
310
FFFFFFFF80000FF8000001FFFE0000007FFFFFF0001FFFFFF8000FFFFFFFF800
310
0FF8000FFFFFFFF8000FFF0003FFFFFFFFFFFFFFFFFE0000F000FFFFFFFFE000
310
00FFFC000C003FE000C001FFFF80007FFFFFFFFFC00001FFFFFFFFFE00001FF8
310
000001FFFE0000007FFFFFF0001FFFFFF8000FFFFFFFF8000FF8000FFFFFFFF8
310
000FFF0003FFFFFFFFFFFFFFFFF00000F000FFFFFFFE000001FFFC000C001FE0
310
00C000FFFF80007FFFFFFFFE000001FFFFFFFFE000001FF80FFFFFFFFFFFFFC0
310
7FFFFFF0001FFFFFF8000FFFFFFFF8000FF8000FFFFFFFF8000FFF0003FFFFFF
310
FFFFFFFFFF800000F000FFFFFFC0000001FFFC001C001FE001C000FFFF80007F
310
FFFFFF80000003FFFFFFF80000001FF80FFFFFFFFFFFFFC07FFFFFF0001FFFFF
310
F8001FFFFFFFFC000FF8001FFFFFFFFC000FFF0003FFFFFFFFFFFFFFF0000001
310
F000FFFFF800000001FFF8001C001FE001C000FFFF80007FFFFFF800000003FF
310
FFFF800000003FF80FFFFFFFFFFFFFC07FFFFFF0001FFFFFF8001FFFFFFFFC00
310
0FF8001FFFFFFFFC000FFF0003FFFFFFFFFFFFFE00000001F000FFFFC0000000
310
03FFF8001E001FC001E000FFFF80007FFFFF8000000007FFFFFC000000003FF8
310
0FFFFFFFFFFFFFC07FFFFFF0001FFFFFF8001FFFFFFFFC000FF8001FFFFFFFFC
310
000FFF0003FFFFFFFFFFFFE000000003F000FFFE0000000007FFF8001E000FC0
310
01E0007FFF80007FFFFE0000000007FFFFE0000000007FF80FFFFFFFFFFFFFC0
310
7FFFFFF0001FFFFFF0001FFFFFFFFC0007F0001FFFFFFFFC0007FF0003FFFFFF
310
FFFFFF0000000003F000FFF80000000007FFF8001E000FC003E0007FFF80007F
310
FFF0000000000FFFFF8000000000FFF80FFFFFFFFFFFFFC07FFFFFF0001FFFFF
310
F0001FFFFFFFFC0007F0001FFFFFFFFC0007FF0003FFFFFFFFFFFC0000000007
310
F000FFE0000000000FFFF0003E000FC003E0007FFF80007FFFC0000000001FFF
310
FE0000000001FFF80FFFFFFFFFFFFFC07FFFFFF0001FFFFFF0001FFFFFFFFC00
310
07F0001FFFFFFFFC0007FF0003FFFFFFFFFFF0000000000FF000FFC000000000
310
1FFFF0003F000F8003F0003FFF80007FFF80000000003FFFF80000000003FFF8
310
0FFFFFFFFFFFFFC07FFFFFF0001FFFFFF0001FFFFFFFFC0007F0001FFFFFFFFC
310
0007FF0003FFFFFFFFFFE0000000001FF000FF00000000007FFFF0003F000780
310
03F0003FFF80007FFF00000000007FFFF00000000007FFF80FFFFFFFFFFFFFC0
310
7FFFFFF0001FFFFFF0001FFFFFFFFC0007F0001FFFFFFFFC0007FF0003FFFFFF
310
FFFF80000000007FF000FE0000000000FFFFE0003F00078007F0003FFF80007F
310
FE0000000001FFFFE0000000001FFFF80FFFFFFFFFFFFFC07FFFFFF0001FFFFF
310
F0001FFFFFFFFC0007F0001FFFFFFFFC0007FF0003FFFFFFFFFF0000000000FF
310
F000FC0000000003FFFFE0007F00078007F0003FFF80007FFC0000000007FFFF
310
C0000000007FFFF80FFFFFFFFFFFFFC07FFFFFF0001FFFFFF8001FFFFFFFFC00
310
0FF8001FFFFFFFFC000FFF0003FFFFFFFFFE0000000003FFF000FC000000000F
310
FFFFE0007F80070007F8001FFF80007FF8000000001FFFFF8000000001FFFFF8
310
0FFFFFFFFFFFFFC07FFFFFF0001FFFFFF8001FFFFFFFFC000FF8001FFFFFFFFC
310
000FFF0003FFFFFFFFFC000000000FFFF000F8000000007FFFFFE0007F800700
310
07F8001FFF80007FF000000000FFFFFF800000000FFFFFF80FFFFFFFFFFFFFC0
310
7FFFFFF0001FFFFFF8000FFFFFFFF8000FF8000FFFFFFFF8000FFF0003FFFFFF
310
FFFC000000007FFFF000F800000007FFFFFFC0007F8003000FF8001FFF80007F
310
F000000007FFFFFF000000007FFFFFF80FFFFFFFFFFFFFC07FFFFFF0001FFFFF
310
F8000FFFFFFFF8000FF8000FFFFFFFF8000FFF0003FFFFFFFFF80000000FFFFF
310
F000F0000000FFFFFFFFC000FF8003000FF8001FFF80007FE0000000FFFFFFFF
310
0000000FFFFFFFF8000001FFFE0000007FFFFFF0001FFFFFF8000FFFFFFFF800
310
0FF8000FFFFFFFF8000FFF0003FFFFFFFFF8000000FFFFFFF000F000000FFFFF
310
FFFFC000FFC002000FF8000FFF80007FE000001FFFFFFFFE000001FFFFFFFFF8
310
000001FFFE0000007FFFFFF0001FFFFFF8000FFFFFFFF8000FF8000FFFFFFFF8
310
000FFF0003FFFFFFFFF000001FFFFFFFF000E00000FFFFFFFFFFC000FFC00200
310
0FFC000FFF80007FE00001FFFFFFFFFE00001FFFFFFFFFF8000001FFFE000000
310
7FFFFFF0001FFFFFFC000FFFFFFFF8001FFC000FFFFFFFF8001FFF0003FFFFFF
310
FFF00001FFFFFFFFF000E00007FFFFFFFFFF8000FFC000001FFC000FFF80007F
310
C0000FFFFFFFFFFE0000FFFFFFFFFFF8000001FFFE0000007FFFFFF0001FFFFF
310
FC0007FFFFFFF0001FFC0007FFFFFFF0001FFF0003FFFFFFFFF00007FFFFFFFF
310
F000E0001FFFFFFFFFFF8000FFC000001FFC000FFF80007FC0003FFFFFFFFFFE
310
0001FFFFFFFFFFF8000001FFFE0000007FFFFFF0001FFFFFFC0007FFFFFFF000
310
1FFC0007FFFFFFF0001FFF0003FFFFFFFFF0001FFFFFFFFFF000E0003FFFFF00
310
03FF8001FFE000001FFC0007FF80007FC0007FFFFF0007FC0003FFFFF0003FF8
310
000001FFFE0000007FFFFFF0001FFFFFFC0003FFFFFFE0001FFC0003FFFFFFE0
310
001FFF0003FFFFFFFFF0003FFFFFFFFFF000E0003FFFFF0001FF8001FFE00000
310
1FFE0007FF80007FC0007FFFFE0003FC0007FFFFE0003FF8000001FFFE000000
310
7FFFFFF0001FFFFFFE0003FFFFFFE0003FFE0003FFFFFFE0003FFF0003FFFFFF
310
FFF0003FFFFF8001F000E0003FFFFF0001FF0001FFE000001FFE0007FF80007F
310
C0007FFFFE0003FC0007FFFFE0003FF8000001FFFE0000007FFFFFF0001FFFFF
310
FE0001FFFFFFC0003FFE0001FFFFFFC0003FFF0003FFFFFFFFF0003FFFFF0001
310
F000E0003FFFFF0003FF0001FFE000003FFE0007FF80007FC0007FFFFE0003FC
310
0007FFFFE0003FF8000001FFFE0000007FFFFFF0001FFFFFFF0001FFFFFFC000
310
7FFF0001FFFFFFC0007FFF0003FFFFFFFFF0003FFFFF0001F000E0003FFFFE00
310
03FF0003FFF000003FFE0003FF80007FC0007FFFFC0003FE0007FFFFE0003FF8
310
000001FFFE0000007FFFFFF0001FFFFFFF0000FFFFFF80007FFF0000FFFFFF80
310
007FFF0003FFFFFFFFF0003FFFFF0001F000E0003FFFFE0003FF0003FFF00000
310
3FFF0003FF80007FC0007FFFFC0007FE0007FFFFC0003FF8000001FFFE000000
310
7FFFFFF0001FFFFFFF80007FFFFF0000FFFF80007FFFFF0000FFFF0003FFFFFF
310
FFF0003FFFFF0003F000E0003FFFFC0003FE0003FFF000003FFF0003FF80007F
310
E0003FFFF80007FE0003FFFFC0007FF8000001FFFE0000007FFFFFF0001FFFFF
310
FF80003FFFFE0000FFFF80003FFFFE0000FFFF0003FFFFFFFFF0001FFFFE0003
310
F000F0001FFFF80003FE0003FFF000007FFF0001FF80007FE0003FFFF00007FE
310
0001FFFF80007FF8000001FFFE0000007FFFFFF0001FFFFFFFC0000FFFF80001
310
FFFFC0000FFFF80001FFFF0003FFFFFFFFF0001FFFFC0003F000F0000FFFF000
310
07FE0007FFF800007FFF0001FF80007FE0001FFFE00007FF0000FFFE00007FF8
310
000001FFFE0000007FFFFFF0001FFFFFFFC00003FFE00001FFFFC00003FFE000
310
01FFFF0003FFFFFFFFF8000FFFF80003F000F00003FFC00007FC0007FFF80000
310
7FFF8001FF80007FF00007FF80000FFF00007FF80000FFF8000001FFFE000000
310
7F80000000000001FFE000003E000003FFFFE000003E000003FFFF0003FFFFFF
310
FFF80003FFE00007F000F800000000000FFC0007FFF800007FFF8001FF80007F
310
F000000000000FFF000000000000FFF8000001FFFE0000007F80000000000001
310
FFF0000000000007FFFFF0000000000007FFFF0003FFFFFFFFFC00007E000007
310
F000F800000000000FFC0007FFF80000FFFF8000FF80007FF800000000001FFF
310
800000000001FFF8000001FFFE0000007F80000000000001FFF800000000000F
310
FFFFF800000000000FFFFF0003FFFFFFFFFC00000000000FF000FC0000000000
310
1FFC0007FFFC0000FFFF8000FF80007FF800000000003FFFC00000000001FFF8
310
000001FFFE0000007F80000000000001FFF800000000000FFFFFF80000000000
310
0FFFFF0003FFFFFFFFFE00000000001FF000FE00000000003FF8000FFFFC0000
310
FFFF8000FF80007FFC00000000003FFFC00000000003FFF8000001FFFE000000
310
7F80000000000001FFFC00000000001FFFFFFC00000000001FFFFF0003FFFFFF
310
FFFF00000000001FF000FF00000000003FF8000FFFFC0000FFFFC000FF80007F
310
FE00000000007FFFE00000000007FFF8000001FFFE0000007F80000000000001
310
FFFE00000000003FFFFFFE00000000003FFFFF0003FFFFFFFFFF80000000003F
310
F000FF80000000007FF8000FFFFC0001FFFFC0007F80007FFF0000000000FFFF
310
F0000000000FFFF800000000000000007F80000000000001FFFF8000000000FF
310
FFFFFF8000000000FFFFFF0003FFFFFFFFFFC0000000007FF000FFC000000000
310
FFF8000FFFFE0001FFFFC0007F80007FFF8000000001FFFFF8000000001FFFF8
310
00000000000000007F80000000000001FFFFC000000001FFFFFFFFC000000001
310
FFFFFF0003FFFFFFFFFFE000000000FFF000FFE000000003FFF0001FFFFE0001
310
FFFFC0007F80007FFFC000000007FFFFFE000000003FFFF80000000000000000
310
7F80000000000001FFFFE000000003FFFFFFFFE000000003FFFFFF0003FFFFFF
310
FFFFF000000003FFF000FFF80000000FFFF0001FFFFE0001FFFFE0007F80007F
310
FFF00000000FFFFFFF00000000FFFFF800000000000000007F80000000000001
310
FFFFF80000000FFFFFFFFFF80000000FFFFFFF0003FFFFFFFFFFFC0000000FFF
310
F000FFFE0000003FFFF0001FFFFE0003FFFFE0003F80007FFFFC0000003FFFFF
310
FFC0000003FFFFF800000000000000007F80000000000001FFFFFE0000003FFF
310
FFFFFFFE0000003FFFFFFF0003FFFFFFFFFFFF0000003FFFF000FFFF800000FF
310
FFF0001FFFFF0003FFFFE0003F80007FFFFF000001FFFFFFFFF800001FFFFFF8
310
00000000000000007F80000000000001FFFFFFC00001FFFFFFFFFFFFC00001FF
310
FFFFFF0003FFFFFFFFFFFFC00000FFFFF000FFFFF8000FFFFFFFFFFFFFFFFFFF
310
FFFFFFFFFFFFFFFFFFFFF0001FFFFFFFFFFF0000FFFFFFF80000000000000000
310
7FFFFFFFFFFFFFFFFFFFFFFC001FFFFFFFFFFFFFFC001FFFFFFFFFFFFFFFFFFF
310
FFFFFFFC001FFFFFF000FFFFFFFFFFFFFFFFFFFFFFFFFFFFFFFFFFFFFFFFFFFF
310
FFFFFFFFFFFFFFFFFFFFFFFFFFFFFFFFFFFFFFFFFFFFFFFFFFFFFFFFFFFFFFFF
310
FFFFFFFFFFFFFFFFFFFFFFFFFFFFFFFFFFFFFFFFFFFFFFFFFFFFFFFFFFFFFFFF
310
F000FFFFFFFFFFFFFFFFFFFFFFFFFFFFFFFFFFFFFFFFFFFFFFFFFFFFFFFFFFFF
310
FFFFFFFFFFFFFFFFFFFFFFFFFFFFFFFFFFFFFFFFFFFFFFFFFFFFFFFFFFFFFFFF
310
FFFFFFFFFFFFFFFFFFFFFFFFFFFFFFFFFFFFFFFFFFFFFFFFF000FFFFFFFFFFFF
310
FFFFFFFFFFFFFFFFFFFFFFFFFFFFFFFFFFFFFFFFFFFFFFFFFFFFFFFFFFFFFFFF
310
FFFFFFFFFFFFFFFFFFFFFFFFFFFFFFFFFFFFFFFFFFFFFFFFFFFFFFFFFFFFFFFF
310
FFFFFFFFFFFFFFFFFFFFFFFFFFFFFFFFF000FFFFFFFFFFFFFFFFFFFFFFFFFFFF
310
FFFFFFFFFFFFFFFFFFFFFFFFFFFFFFFFFFFFFFFFFFFFFFFFFFFFFFFFFFFFFFFF
310
FFFFFFFFFFFFFFFFFFFFFFFFFFFFFFFFFFFFFFFFFFFFFFFFFFFFFFFFFFFFFFFF
310
FFFFFFFFFFFFFFFFF000FFFFFFFFFFFFFFFFFFFFFFFFFFFFFFFFFFFFFFFFFFFF
310
FFFFFFFFFFFFFFFFFFFFFFFFFFFFFFFFFFFFFFFFFFFFFFFFFFFFFFFFFFFFFFFF
310
FFFFFFFFFFFFFFFFFFFFFFFFFFFFFFFFFFFFFFFFFFFFFFFFFFFFFFFFFFFFFFFF
310
F000FFFFFFFFFFFFFFFFFFFFFFFFFFFFFFFFFFFFFFFFFFFFFFFFFFFFFFFFFFFF
310
FFFFFFFFFFFFFFFFFFFFFFFFFFFFFFFFFFFFFFFFFFFFFFFFFFFFFFFFFFFFFFFF
310
FFFFFFFFFFFFFFFFFFFFFFFFFFFFFFFFFFFFFFFFFFFFFFFFF000FFFFFFFFFFFF
310
FFFFFFFFFFFFFFFFFFFFFFFFFFFFFFFFFFFFFFFFFFFFFFFFFFFFFFFFFFFFFFFF
310
FFFFFFFFFFFFFFFFFFFFFFFFFFFFFFFFFFFFFFFFFFFFFFFFFFFFFFFFFFFFFFFF
310
FFFFFFFFFFFFFFFFFFFFFFFFFFFFFFFFF000FFFFFFFFFFFFFFFFFFFFFFFFFFFF
310
FFFFFFFFFFFFFFFFFFFFFFFFFFFFFFFFFFFFFFFFFFFFFFFFFFFFFFFFFFFFFFFF
310
FFFFFFFFFFFFFFFFFFFFFFFFFFFFFFFFFFFFFFFFFFFFFFFFFFFFFFFFFFFFFFFF
310
FFFFFFFFFFFFFFFFF000FFFFFFFFFFFFFFFFFFFFFFFFFFFFFFFFFFFFFFFFFFFF
310
FFFFFFFFFFFFFFFFFFFFFFFFFFFFFFFFFFFFFFFFFFFFFFFFFFFFFFFFFFFFFFFF
310
FFFFFFFFFFFFFFFFFFFFFFFFFFFFFFFFFFFFFFFFFFFFFFFFFFFFFFFFFFFFFFFF
310
F000FFFFFFFFFFFFFFFFFFFFFFFFFFFFFFFFFFFFFFFFFFFFFFFFFFFFFFFFFFFF
310
FFFFFFFFFFFFFFFFFFFFFFFFFFFFFFFFFFFFFFFFFFFFFFFFFFFFFFFFFFFFFFFF
310
FFFFFFFFFFFFFFFFFFFFFFFFFFFFFFFFFFFFFFFFFFFFFFFFF000FFFFFFFFFFFF
310
FFFFFFFFFFFFFFFFFFFFFFFFFFFFFFFFFFFFFFFFFFFFFFFFFFFFFFFFFFFFFFFF
310
FFFFFFFFFFFFFFFFFFFFFFFFFFFFFFFFFFFFFFFFFFFFFFFFFFFFFFFFFFFFFFFF
310
FFFFFFFFFFFFFFFFFFFFFFFFFFFFFFFFF000FFFFFFFFFFFFFFFFFFFFFFFFFFFF
310
FFFFFFFFFFFFFFFFFFFFFFFFFFFFFFFFFFFFFFFFFFFFFFFFFFFFFFFFFFFFFFFF
310
FFFFFFFFFFFFFFFFFFFFFFFFFFFFFFFFFFFFFFFFFFFFFFFFFFFFFFFFFFFFFFFF
310
FFFFFFFFFFFFFFFFF000FFFFFFFFFFFFFFFFFFFFFFFFFFFFFFFFFFFFFFFFFFFF
310
FFFFFFFFFFFFFFFFFFFFFFFFFFFFFFFFFFFFFFFFFFFFFFFFFFFFFFFFFFFFFFFF
310
FFFFFFFFFFFFFFFFFFFFFFFFFFFFFFFFFFFFFFFFFFFFFFFFFFFFFFFFFFFFFFFF
310
F000FFFFFFFFFFFFFFFFFFFFFFFFFFFFFFFFFFFFFFFFFFFFFFFFFFFFFFFFFFFF
310
FFFFFFFFFFFFFFFFFFFFFFFFFFFFFFFFFFFFFFFFFFFFFFFFFFFFFFFFFFFFFFFF
310
FFFFFFFFFFFFFFFFFFFFFFFFFFFFFFFFFFFFFFFFFFFFFFFFF000FFFFFFFFFFFF
310
FFFFFFFFFFFFFFFFFFFFFFFFFFFFFFFFFFFFFFFFFFFFFFFFFFFFFFFFFFFFFFFF
310
FFFFFFFFFFFFFFFFFFFFFFFFFFFFFFFFFFFFFFFFFFFFFFFFFFFFFFFFFFFFFFFF
310
FFFFFFFFFFFFFFFFFFFFFFFFFFFFFFFFF000FFFFFFFFFFFFFFFFFFFFFFFFFFFF
310
FFFFFFFFFFFFFFFFFFFFFFFFFFFFFFFFFFFFFFFFFFFFFFFFFFFFFFFFFFFFFFFF
310
FFFFFFFFFFFFFFFFFFFFFFFFFFFFFFFFFFFFFFFFFFFFFFFFFFFFFFFFFFFFFFFF
310
FFFFFFFFFFFFFFFFF000FFFFFFFFFFFFFFFFFFFFFFFFFFFFFFFFFFFFFFFFFFFF
310
FFFFFFFFFFFFFFFFFFFFFFFFFFFFFFFFFFFFFFFFFFFFFFFFFFFFFFFFFFFFFFFF
310
FFFFFFFFFFFFFFFFFFFFFFFFFFFFFFFFFFFFFFFFFFFFFFFFFFFFFFFFFFFFFFFF
310
F000FFFFFFFFFFFFFFFFFFFFFFFFFFFFFFFFFFFFFFFFFFFFFFFFFFFFFFFFFFFF
310
FFFFFFFFFFFFFFFFFFFFFFFFFFFFFFFFFFFFFFFFFFFFFFFFFFFFFFFFFFFFFFFF
310
FFFFFFFFFFFFFFFFFFFFFFFFFFFFFFFFFFFFFFFFFFFFFFFFF000FFFFFFFFFFFF
310
FFFFFFFFFFFFFFFFFFFFFFFFFFFFFFFFFFFFFFFFFFFFFFFFFFFFFFFFFFFFFFFF
310
FFFFFFFFFFFFFFFFFFFFFFFFFFFFFFFFFFFFFFFFFFFFFFFFFFFFFFFFFFFFFFFF
310
FFFFFFFFFFFFFFFFFFFFFFFFFFFFFFFFF000FFFFFFFFFFFFFFFFFFFFFFFFFFFF
310
FFFFFFFFFFFFFFFFFFFFFFFFFFFFFFFFFFFFFFFFFFFFFFFFFFFFFFFFFFFFFFFF
310
FFFFFFFFFFFFFFFFFFFFFFFFFFFFFFFFFFFFFFFFFFFFFFFFFFFFFFFFFFFFFFFF
310
FFFFFFFFFFFFFFFFF000FFFFFFFFFFFFFFFFFFFFFFFFFFFFFFFFFFFFFFFFFFFF
310
FFFFFFFFFFFFFFFFFFFFFFFFFFFFFFFFFFFFFFFFFFFFFFFFFFFFFFFFFFFFFFFF
310
FFFFFFFFFFFFFFFFFFFFFFFFFFFFFFFFFFFFFFFFFFFFFFFFFFFFFFFFFFFFFFFF
310
F000FFFFFFFFFFFFFFFFFFFFFFFFFFFFFFFFFFFFFFFFFFFFFFFFFFFFFFFFFFFF
310
FFFFFFFFFFFFFFFFFFFFFFFFFFFFFFFFFFFFFFFFFFFFFFFFFFFFFFFFFFFFFFFF
310
FFFFFFFFFFFFFFFFFFFFFFFFFFFFFFFFFFFFFFFFFFFFFFFFF000FFFFFFFFFFFF
310
FFFFFFFFFFFFFFFFFFFFFFFFFFFFFFFFFFFFFFFFFFFFFFFFFFFFFFFFFFFFFFFF
310
FFFFFFFFFFFFFFFFFFFFFFFFFFFFFFFFFFFFFFFFFFFFFFFFFFFFFFFFFFFFFFFF
310
FFFFFFFFFFFFFFFFFFFFFFFFFFFFFFFFF0000000000000000000000000000000
310
0000000000000000000000000000000000000000000000000000000000000000
310
0000000000000000000000000000000000000000000000000000000000000000
310
0000000000000000000000000000000000000000000000000000000000000000
310
0000000000000000000000000000000000000000000000000000000000000000
310
0000000000000000000000000000000000000000000000000000000000000000
310
0000000000000000000000000000000000000000000000000000000000000000
310
0000000000000000000000000000000000000000000000000000000000000000
310
0000000000000000000000000000000000000000000000000000000000000000
310
0000000000000000000000000000000000000000000000000000000000000000
310
0000000000000000000000000000000000000000000000000000000000000000
310
0000000000000000000000000000000000000000000000000000000000000000
310
0000000000000000000000000000000000000000000000000000000000000000
310
0000000000000000000000000000000000000000000000000000000000000000
310
0000000000000000000000000000000000000000000000000000000000000000
310
0000000000000000000000000000000000000000000000000000000000000000
  1
OLE
  0
ENDSEC
  0
SECTION
  2
OBJECTS
  0
DICTIONARY
  5
C
330
0
100
AcDbDictionary
281
     1
  3
ACAD_GROUP
350
D
  3
ACAD_LAYOUT
350
1A
  3
ACAD_MLINESTYLE
350
17
  3
ACAD_PLOTSETTINGS
350
19
  3
ACAD_PLOTSTYLENAME
350
E
  3
ACAD_SCALELIST
350
47
  0
DICTIONARY
  5
D
102
{ACAD_REACTORS
330
C
102
}
330
C
100
AcDbDictionary
281
     1
  0
DICTIONARY
  5
1A
102
{ACAD_REACTORS
330
C
102
}
330
C
100
AcDbDictionary
281
     1
  3
Layout1
350
1E
  3
Layout2
350
26
  3
Model
350
22
  0
DICTIONARY
  5
17
102
{ACAD_REACTORS
330
C
102
}
330
C
100
AcDbDictionary
281
     1
  3
Standard
350
18
  0
DICTIONARY
  5
19
102
{ACAD_REACTORS
330
C
102
}
330
C
100
AcDbDictionary
281
     1
  0
ACDBDICTIONARYWDFLT
  5
E
102
{ACAD_REACTORS
330
C
102
}
330
C
100
AcDbDictionary
281
     1
  3
Normal
350
F
100
AcDbDictionaryWithDefault
340
F
  0
DICTIONARY
  5
47
102
{ACAD_REACTORS
330
C
102
}
330
C
100
AcDbDictionary
281
     1
  3
A0
350
48
  3
A1
350
49
  3
A2
350
4A
  3
A3
350
4B
  3
A4
350
4C
  3
A5
350
4D
  3
A6
350
4E
  3
A7
350
4F
  3
A8
350
50
  3
A9
350
51
  3
B0
350
52
  3
B1
350
53
  3
B2
350
54
  3
B3
350
55
  3
B4
350
56
  3
B5
350
57
  3
B6
350
58
  3
B7
350
59
  3
B8
350
5A
  3
B9
350
5B
  3
C0
350
5C
  3
C1
350
5D
  3
C2
350
5E
  3
C3
350
5F
  3
C4
350
60
  3
C5
350
61
  3
C6
350
62
  3
C7
350
63
  3
C8
350
64
  3
C9
350
65
  3
D0
350
66
  3
D1
350
67
  3
D2
350
68
  0
LAYOUT
  5
1E
102
{ACAD_REACTORS
330
1A
102
}
330
1A
100
AcDbPlotSettings
  1

  2
none_device
  4

  6

 40
0.0
 41
0.0
 42
0.0
 43
0.0
 44
0.0
 45
0.0
 46
0.0
 47
0.0
 48
0.0
 49
0.0
140
0.0
141
0.0
142
1.0
143
1.0
 70
   688
 72
     1
 73
     0
 74
     5
  7

 75
    16
147
1.0
148
0.0
149
0.0
100
AcDbLayout
  1
Layout1
 70
     1
 71
     1
 10
0.0
 20
0.0
 11
420.0
 21
297.0
 12
0.0
 22
0.0
 32
0.0
 14
1.0000000000E+20
 24
1.0000000000E+20
 34
1.0000000000E+20
 15
-1.0000000000E+20
 25
-1.0000000000E+20
 35
-1.0000000000E+20
146
0.0
 13
0.0
 23
0.0
 33
0.0
 16
1.0
 26
0.0
 36
0.0
 17
0.0
 27
1.0
 37
0.0
 76
     0
330
1B
  0
LAYOUT
  5
26
102
{ACAD_REACTORS
330
1A
102
}
330
1A
100
AcDbPlotSettings
  1

  2
none_device
  4

  6

 40
0.0
 41
0.0
 42
0.0
 43
0.0
 44
0.0
 45
0.0
 46
0.0
 47
0.0
 48
0.0
 49
0.0
140
0.0
141
0.0
142
1.0
143
1.0
 70
   688
 72
     1
 73
     0
 74
     5
  7

 75
    16
147
1.0
148
0.0
149
0.0
100
AcDbLayout
  1
Layout2
 70
     1
 71
     2
 10
0.0
 20
0.0
 11
0.0
 21
0.0
 12
0.0
 22
0.0
 32
0.0
 14
0.0
 24
0.0
 34
0.0
 15
0.0
 25
0.0
 35
0.0
146
0.0
 13
0.0
 23
0.0
 33
0.0
 16
1.0
 26
0.0
 36
0.0
 17
0.0
 27
1.0
 37
0.0
 76
     0
330
23
  0
LAYOUT
  5
22
102
{ACAD_REACTORS
330
1A
102
}
330
1A
100
AcDbPlotSettings
  1

  2
none_device
  4
Letter_(8.50_x_11.00_Inches)
  6

 40
6.35
 41
6.35
 42
6.35000508
 43
6.35000508
 44
215.9
 45
279.4
 46
0.0
 47
0.0
 48
0.0
 49
0.0
140
0.0
141
0.0
142
1.0
143
1.0
 70
  1712
 72
     1
 73
     0
 74
     0
  7

 75
     0
147
1.0
148
0.0
149
0.0
100
AcDbLayout
  1
Model
 70
     1
 71
     0
 10
0.0
 20
0.0
 11
297.0
 21
210.0
 12
0.0
 22
0.0
 32
0.0
 14
0.0
 24
0.0
 34
0.0
 15
297.0
 25
210.0
 35
0.0
146
0.0
 13
0.0
 23
0.0
 33
0.0
 16
1.0
 26
0.0
 36
0.0
 17
0.0
 27
1.0
 37
0.0
 76
     0
330
1F
331
29
  0
MLINESTYLE
  5
18
102
{ACAD_REACTORS
330
17
102
}
330
17
100
AcDbMlineStyle
  2
Standard
 70
     0
  3

 62
   256
 51
90.0
 52
90.0
 71
     2
 49
0.5
 62
   256
  6
BYLAYER
 49
-0.5
 62
   256
  6
BYLAYER
  0
ACDBPLACEHOLDER
  5
F
102
{ACAD_REACTORS
330
E
102
}
330
E
  0
SCALE
  5
48
102
{ACAD_REACTORS
330
47
102
}
330
47
100
AcDbScale
 70
     0
300
1:1
140
1.0
141
1.0
290
     1
  0
SCALE
  5
49
102
{ACAD_REACTORS
330
47
102
}
330
47
100
AcDbScale
 70
     0
300
1:2
140
1.0
141
2.0
290
     0
  0
SCALE
  5
4A
102
{ACAD_REACTORS
330
47
102
}
330
47
100
AcDbScale
 70
     0
300
1:4
140
1.0
141
4.0
290
     0
  0
SCALE
  5
4B
102
{ACAD_REACTORS
330
47
102
}
330
47
100
AcDbScale
 70
     0
300
1:5
140
1.0
141
5.0
290
     0
  0
SCALE
  5
4C
102
{ACAD_REACTORS
330
47
102
}
330
47
100
AcDbScale
 70
     0
300
1:8
140
1.0
141
8.0
290
     0
  0
SCALE
  5
4D
102
{ACAD_REACTORS
330
47
102
}
330
47
100
AcDbScale
 70
     0
300
1:10
140
1.0
141
10.0
290
     0
  0
SCALE
  5
4E
102
{ACAD_REACTORS
330
47
102
}
330
47
100
AcDbScale
 70
     0
300
1:16
140
1.0
141
16.0
290
     0
  0
SCALE
  5
4F
102
{ACAD_REACTORS
330
47
102
}
330
47
100
AcDbScale
 70
     0
300
1:20
140
1.0
141
20.0
290
     0
  0
SCALE
  5
50
102
{ACAD_REACTORS
330
47
102
}
330
47
100
AcDbScale
 70
     0
300
1:30
140
1.0
141
30.0
290
     0
  0
SCALE
  5
51
102
{ACAD_REACTORS
330
47
102
}
330
47
100
AcDbScale
 70
     0
300
1:40
140
1.0
141
40.0
290
     0
  0
SCALE
  5
52
102
{ACAD_REACTORS
330
47
102
}
330
47
100
AcDbScale
 70
     0
300
1:50
140
1.0
141
50.0
290
     0
  0
SCALE
  5
53
102
{ACAD_REACTORS
330
47
102
}
330
47
100
AcDbScale
 70
     0
300
1:100
140
1.0
141
100.0
290
     0
  0
SCALE
  5
54
102
{ACAD_REACTORS
330
47
102
}
330
47
100
AcDbScale
 70
     0
300
2:1
140
2.0
141
1.0
290
     0
  0
SCALE
  5
55
102
{ACAD_REACTORS
330
47
102
}
330
47
100
AcDbScale
 70
     0
300
4:1
140
4.0
141
1.0
290
     0
  0
SCALE
  5
56
102
{ACAD_REACTORS
330
47
102
}
330
47
100
AcDbScale
 70
     0
300
8:1
140
8.0
141
1.0
290
     0
  0
SCALE
  5
57
102
{ACAD_REACTORS
330
47
102
}
330
47
100
AcDbScale
 70
     0
300
10:1
140
10.0
141
1.0
290
     0
  0
SCALE
  5
58
102
{ACAD_REACTORS
330
47
102
}
330
47
100
AcDbScale
 70
     0
300
100:1
140
100.0
141
1.0
290
     0
  0
SCALE
  5
59
102
{ACAD_REACTORS
330
47
102
}
330
47
100
AcDbScale
 70
     0
300
1/128" = 1'-0"
140
0.0078125
141
12.0
290
     0
  0
SCALE
  5
5A
102
{ACAD_REACTORS
330
47
102
}
330
47
100
AcDbScale
 70
     0
300
1/64" = 1'-0"
140
0.015625
141
12.0
290
     0
  0
SCALE
  5
5B
102
{ACAD_REACTORS
330
47
102
}
330
47
100
AcDbScale
 70
     0
300
1/32" = 1'-0"
140
0.03125
141
12.0
290
     0
  0
SCALE
  5
5C
102
{ACAD_REACTORS
330
47
102
}
330
47
100
AcDbScale
 70
     0
300
1/16" = 1'-0"
140
0.0625
141
12.0
290
     0
  0
SCALE
  5
5D
102
{ACAD_REACTORS
330
47
102
}
330
47
100
AcDbScale
 70
     0
300
3/32" = 1'-0"
140
0.09375
141
12.0
290
     0
  0
SCALE
  5
5E
102
{ACAD_REACTORS
330
47
102
}
330
47
100
AcDbScale
 70
     0
300
1/8" = 1'-0"
140
0.125
141
12.0
290
     0
  0
SCALE
  5
5F
102
{ACAD_REACTORS
330
47
102
}
330
47
100
AcDbScale
 70
     0
300
3/16" = 1'-0"
140
0.1875
141
12.0
290
     0
  0
SCALE
  5
60
102
{ACAD_REACTORS
330
47
102
}
330
47
100
AcDbScale
 70
     0
300
1/4" = 1'-0"
140
0.25
141
12.0
290
     0
  0
SCALE
  5
61
102
{ACAD_REACTORS
330
47
102
}
330
47
100
AcDbScale
 70
     0
300
3/8" = 1'-0"
140
0.375
141
12.0
290
     0
  0
SCALE
  5
62
102
{ACAD_REACTORS
330
47
102
}
330
47
100
AcDbScale
 70
     0
300
1/2" = 1'-0"
140
0.5
141
12.0
290
     0
  0
SCALE
  5
63
102
{ACAD_REACTORS
330
47
102
}
330
47
100
AcDbScale
 70
     0
300
3/4" = 1'-0"
140
0.75
141
12.0
290
     0
  0
SCALE
  5
64
102
{ACAD_REACTORS
330
47
102
}
330
47
100
AcDbScale
 70
     0
300
1" = 1'-0"
140
1.0
141
12.0
290
     0
  0
SCALE
  5
65
102
{ACAD_REACTORS
330
47
102
}
330
47
100
AcDbScale
 70
     0
300
1-1/2" = 1'-0"
140
1.5
141
12.0
290
     0
  0
SCALE
  5
66
102
{ACAD_REACTORS
330
47
102
}
330
47
100
AcDbScale
 70
     0
300
3" = 1'-0"
140
3.0
141
12.0
290
     0
  0
SCALE
  5
67
102
{ACAD_REACTORS
330
47
102
}
330
47
100
AcDbScale
 70
     0
300
6" = 1'-0"
140
6.0
141
12.0
290
     0
  0
SCALE
  5
68
102
{ACAD_REACTORS
330
47
102
}
330
47
100
AcDbScale
 70
     0
300
1'-0" = 1'-0"
140
12.0
141
12.0
290
     0
  0
ENDSEC
  0
EOF
