  0
SECTION
  2
HEADER
  9
$ACADVER
  1
AC1015
  9
$ACADMAINTVER
 70
     6
  9
$DWGCODEPAGE
  3
ANSI_1252
  9
$INSBASE
 10
0.0
 20
0.0
 30
0.0
  9
$EXTMIN
 10
0.0
 20
0.0
 30
0.0
  9
$EXTMAX
 10
297.0
 20
210.0
 30
0.0
  9
$LIMMIN
 10
0.0
 20
0.0
  9
$LIMMAX
 10
297.0
 20
210.0
  9
$ORTHOMODE
 70
     0
  9
$REGENMODE
 70
     1
  9
$FILLMODE
 70
     1
  9
$QTEXTMODE
 70
     0
  9
$MIRRTEXT
 70
     1
  9
$LTSCALE
 40
1.0
  9
$ATTMODE
 70
     1
  9
$TEXTSIZE
 40
2.0
  9
$TRACEWID
 40
1.0
  9
$TEXTSTYLE
  7
Standard
  9
$CLAYER
  8
0
  9
$CELTYPE
  6
ByLayer
  9
$CECOLOR
 62
   256
  9
$CELTSCALE
 40
1.0
  9
$DISPSILH
 70
     0
  9
$DIMSCALE
 40
1.0
  9
$DIMASZ
 40
3.0
  9
$DIMEXO
 40
0.0
  9
$DIMDLI
 40
3.75
  9
$DIMRND
 40
0.0
  9
$DIMDLE
 40
0.0
  9
$DIMEXE
 40
1.0
  9
$DIMTP
 40
0.0
  9
$DIMTM
 40
0.0
  9
$DIMTXT
 40
2.0
  9
$DIMCEN
 40
2.5
  9
$DIMTSZ
 40
0.0
  9
$DIMTOL
 70
     0
  9
$DIMLIM
 70
     0
  9
$DIMTIH
 70
     1
  9
$DIMTOH
 70
     1
  9
$DIMSE1
 70
     0
  9
$DIMSE2
 70
     0
  9
$DIMTAD
 70
     1
  9
$DIMZIN
 70
     0
  9
$DIMBLK
  1

  9
$DIMASO
 70
     1
  9
$DIMSHO
 70
     1
  9
$DIMPOST
  1

  9
$DIMAPOST
  1

  9
$DIMALT
 70
     0
  9
$DIMALTD
 70
     3
  9
$DIMALTF
 40
0.0393700787
  9
$DIMLFAC
 40
2.0
  9
$DIMTOFL
 70
     1
  9
$DIMTVP
 40
0.0
  9
$DIMTIX
 70
     0
  9
$DIMSOXD
 70
     0
  9
$DIMSAH
 70
     0
  9
$DIMBLK1
  1

  9
$DIMBLK2
  1

  9
$DIMSTYLE
  2
ISO-25
  9
$DIMCLRD
 70
     0
  9
$DIMCLRE
 70
     0
  9
$DIMCLRT
 70
     0
  9
$DIMTFAC
 40
1.0
  9
$DIMGAP
 40
1.524
  9
$DIMJUST
 70
     0
  9
$DIMSD1
 70
     0
  9
$DIMSD2
 70
     0
  9
$DIMTOLJ
 70
     0
  9
$DIMTZIN
 70
     0
  9
$DIMALTZ
 70
     0
  9
$DIMALTTZ
 70
     0
  9
$DIMUPT
 70
     0
  9
$DIMDEC
 70
     2
  9
$DIMTDEC
 70
     3
  9
$DIMALTU
 70
     2
  9
$DIMALTTD
 70
     3
  9
$DIMTXSTY
  7
Standard
  9
$DIMAUNIT
 70
     0
  9
$DIMADEC
 70
     2
  9
$DIMALTRND
 40
0.0
  9
$DIMAZIN
 70
     0
  9
$DIMDSEP
 70
    44
  9
$DIMATFIT
 70
     3
  9
$DIMFRAC
 70
     0
  9
$DIMLDRBLK
  1

  9
$DIMLUNIT
 70
     2
  9
$DIMLWD
 70
    -2
  9
$DIMLWE
 70
    -2
  9
$DIMTMOVE
 70
     0
  9
$LUNITS
 70
     2
  9
$LUPREC
 70
     2
  9
$SKETCHINC
 40
1.0
  9
$FILLETRAD
 40
10.0
  9
$AUNITS
 70
     0
  9
$AUPREC
 70
     2
  9
$MENU
  1
.
  9
$ELEVATION
 40
0.0
  9
$PELEVATION
 40
0.0
  9
$THICKNESS
 40
0.0
  9
$LIMCHECK
 70
     0
  9
$CHAMFERA
 40
0.0
  9
$CHAMFERB
 40
0.0
  9
$CHAMFERC
 40
0.0
  9
$CHAMFERD
 40
0.0
  9
$SKPOLY
 70
     0
  9
$TDCREATE
 40
2459055.553864062
  9
$TDUCREATE
 40
2459055.470530729
  9
$TDUPDATE
 40
2459055.553866609
  9
$TDUUPDATE
 40
2459055.470533276
  9
$TDINDWG
 40
0.0000000116
  9
$TDUSRTIMER
 40
0.0000000116
  9
$USRTIMER
 70
     1
  9
$ANGBASE
 50
0.0
  9
$ANGDIR
 70
     0
  9
$PDMODE
 70
     0
  9
$PDSIZE
 40
-1.0
  9
$PLINEWID
 40
0.0
  9
$SPLFRAME
 70
     0
  9
$SPLINETYPE
 70
     6
  9
$SPLINESEGS
 70
     8
  9
$HANDSEED
  5
3AB
  9
$SURFTAB1
 70
     6
  9
$SURFTAB2
 70
     6
  9
$SURFTYPE
 70
     6
  9
$SURFU
 70
     6
  9
$SURFV
 70
     6
  9
$UCSBASE
  2

  9
$UCSNAME
  2

  9
$UCSORG
 10
0.0
 20
0.0
 30
0.0
  9
$UCSXDIR
 10
1.0
 20
0.0
 30
0.0
  9
$UCSYDIR
 10
0.0
 20
1.0
 30
0.0
  9
$UCSORTHOREF
  2

  9
$UCSORTHOVIEW
 70
     0
  9
$UCSORGTOP
 10
0.0
 20
0.0
 30
0.0
  9
$UCSORGBOTTOM
 10
0.0
 20
0.0
 30
0.0
  9
$UCSORGLEFT
 10
0.0
 20
0.0
 30
0.0
  9
$UCSORGRIGHT
 10
0.0
 20
0.0
 30
0.0
  9
$UCSORGFRONT
 10
0.0
 20
0.0
 30
0.0
  9
$UCSORGBACK
 10
0.0
 20
0.0
 30
0.0
  9
$PUCSBASE
  2

  9
$PUCSNAME
  2

  9
$PUCSORG
 10
0.0
 20
0.0
 30
0.0
  9
$PUCSXDIR
 10
1.0
 20
0.0
 30
0.0
  9
$PUCSYDIR
 10
0.0
 20
1.0
 30
0.0
  9
$PUCSORTHOREF
  2

  9
$PUCSORTHOVIEW
 70
     0
  9
$PUCSORGTOP
 10
0.0
 20
0.0
 30
0.0
  9
$PUCSORGBOTTOM
 10
0.0
 20
0.0
 30
0.0
  9
$PUCSORGLEFT
 10
0.0
 20
0.0
 30
0.0
  9
$PUCSORGRIGHT
 10
0.0
 20
0.0
 30
0.0
  9
$PUCSORGFRONT
 10
0.0
 20
0.0
 30
0.0
  9
$PUCSORGBACK
 10
0.0
 20
0.0
 30
0.0
  9
$USERI1
 70
     0
  9
$USERI2
 70
     0
  9
$USERI3
 70
     0
  9
$USERI4
 70
     0
  9
$USERI5
 70
     0
  9
$USERR1
 40
0.0
  9
$USERR2
 40
0.0
  9
$USERR3
 40
0.0
  9
$USERR4
 40
0.0
  9
$USERR5
 40
0.0
  9
$WORLDVIEW
 70
     1
  9
$SHADEDGE
 70
     3
  9
$SHADEDIF
 70
    70
  9
$TILEMODE
 70
     1
  9
$MAXACTVP
 70
    64
  9
$PINSBASE
 10
0.0
 20
0.0
 30
0.0
  9
$PLIMCHECK
 70
     0
  9
$PEXTMIN
 10
1.0000000000E+20
 20
1.0000000000E+20
 30
1.0000000000E+20
  9
$PEXTMAX
 10
-1.0000000000E+20
 20
-1.0000000000E+20
 30
-1.0000000000E+20
  9
$PLIMMIN
 10
0.0
 20
0.0
  9
$PLIMMAX
 10
420.0
 20
297.0
  9
$UNITMODE
 70
     0
  9
$VISRETAIN
 70
     1
  9
$PLINEGEN
 70
     0
  9
$PSLTSCALE
 70
     1
  9
$TREEDEPTH
 70
  3020
  9
$CMLSTYLE
  2
Standard
  9
$CMLJUST
 70
     0
  9
$CMLSCALE
 40
20.0
  9
$PROXYGRAPHICS
 70
     1
  9
$MEASUREMENT
 70
     1
  9
$CELWEIGHT
370
    -1
  9
$ENDCAPS
280
     0
  9
$JOINSTYLE
280
     0
  9
$LWDISPLAY
290
     1
  9
$INSUNITS
 70
     4
  9
$HYPERLINKBASE
  1

  9
$STYLESHEET
  1

  9
$XEDIT
290
     1
  9
$CEPSNTYPE
380
     0
  9
$PSTYLEMODE
290
     1
  9
$FINGERPRINTGUID
  2
{5F3B4805-67B6-4CF7-866F-54F87C3E0159}
  9
$VERSIONGUID
  2
{FAEB1C32-E019-11D5-929B-00C0DF256EC4}
  9
$EXTNAMES
290
     1
  9
$PSVPSCALE
 40
0.0
  9
$OLESTARTUP
290
     0
  0
ENDSEC
  0
SECTION
  2
CLASSES
  0
CLASS
  1
ACDBDICTIONARYWDFLT
  2
AcDbDictionaryWithDefault
  3
ObjectDBX Classes
 90
        0
280
     0
281
     0
  0
CLASS
  1
VISUALSTYLE
  2
AcDbVisualStyle
  3
ObjectDBX Classes
 90
     4095
280
     0
281
     0
  0
CLASS
  1
MATERIAL
  2
AcDbMaterial
  3
ObjectDBX Classes
 90
     1153
280
     0
281
     0
  0
CLASS
  1
SCALE
  2
AcDbScale
  3
ObjectDBX Classes
 90
     1153
280
     0
281
     0
  0
CLASS
  1
TABLESTYLE
  2
AcDbTableStyle
  3
ObjectDBX Classes
 90
     4095
280
     0
281
     0
  0
CLASS
  1
MLEADERSTYLE
  2
AcDbMLeaderStyle
  3
ACDB_MLEADERSTYLE_CLASS
 90
     4095
280
     0
281
     0
  0
CLASS
  1
SUN
  2
AcDbSun
  3
SCENEOE
 90
     1153
280
     0
281
     0
  0
CLASS
  1
ACDBPLACEHOLDER
  2
AcDbPlaceHolder
  3
ObjectDBX Classes
 90
        0
280
     0
281
     0
  0
CLASS
  1
LAYOUT
  2
AcDbLayout
  3
ObjectDBX Classes
 90
        0
280
     0
281
     0
  0
ENDSEC
  0
SECTION
  2
TABLES
  0
TABLE
  2
VPORT
  5
8
330
0
100
AcDbSymbolTable
 70
     1
  0
VPORT
  5
29
330
8
100
AcDbSymbolTableRecord
100
AcDbViewportTableRecord
  2
*Active
 70
     0
 10
0.0
 20
0.0
 11
1.0
 21
1.0
 12
148.5
 22
105.0
 13
0.0
 23
0.0
 14
10.0
 24
10.0
 15
10.0
 25
10.0
 16
0.0
 26
0.0
 36
1.0
 17
0.0
 27
0.0
 37
0.0
 40
210.0
 41
1.4142857143
 42
50.0
 43
0.0
 44
0.0
 50
0.0
 51
0.0
 71
     0
 72
  2000
 73
     1
 74
     3
 75
     0
 76
     0
 77
     0
 78
     0
281
     0
 65
     1
110
0.0
120
0.0
130
0.0
111
1.0
121
0.0
131
0.0
112
0.0
122
1.0
132
0.0
 79
     0
146
0.0
  0
ENDTAB
  0
TABLE
  2
LTYPE
  5
5
330
0
100
AcDbSymbolTable
 70
     6
  0
LTYPE
  5
14
330
5
100
AcDbSymbolTableRecord
100
AcDbLinetypeTableRecord
  2
ByBlock
 70
     0
  3

 72
    65
 73
     0
 40
0.0
  0
LTYPE
  5
15
330
5
100
AcDbSymbolTableRecord
100
AcDbLinetypeTableRecord
  2
ByLayer
 70
     0
  3

 72
    65
 73
     0
 40
0.0
  0
LTYPE
  5
16
330
5
100
AcDbSymbolTableRecord
100
AcDbLinetypeTableRecord
  2
Continuous
 70
     0
  3
Solid line
 72
    65
 73
     0
 40
0.0
  0
LTYPE
  5
6E
330
5
100
AcDbSymbolTableRecord
100
AcDbLinetypeTableRecord
  2
HIDDEN
 70
     0
  3
Hidden __ __ __ __ __ __ __ __ __ __ __ __ __ __
 72
    65
 73
     2
 40
1.905
 49
1.27
 74
     0
 49
-0.635
 74
     0
  0
LTYPE
  5
6F
330
5
100
AcDbSymbolTableRecord
100
AcDbLinetypeTableRecord
  2
PHANTOM
 70
     0
  3
Phantom ______  __  __  ______  __  __  ______
 72
    65
 73
     6
 40
12.7
 49
6.35
 74
     0
 49
-1.27
 74
     0
 49
1.27
 74
     0
 49
-1.27
 74
     0
 49
1.27
 74
     0
 49
-1.27
 74
     0
  0
LTYPE
  5
70
330
5
100
AcDbSymbolTableRecord
100
AcDbLinetypeTableRecord
  2
CENTER
 70
     0
  3
Center ____ _ ____ _ ____ _ ____ _ ____ _ ____
 72
    65
 73
     4
 40
10.16
 49
6.35
 74
     0
 49
-1.27
 74
     0
 49
1.27
 74
     0
 49
-1.27
 74
     0
  0
LTYPE
  5
71
330
5
100
AcDbSymbolTableRecord
100
AcDbLinetypeTableRecord
  2
CENTERX2
 70
     0
  3
Center (2x) ________  __  ________  __  _____
 72
    65
 73
     4
 40
20.32
 49
12.7
 74
     0
 49
-2.54
 74
     0
 49
2.54
 74
     0
 49
-2.54
 74
     0
  0
LTYPE
  5
72
330
5
100
AcDbSymbolTableRecord
100
AcDbLinetypeTableRecord
  2
DOT2
 70
     0
  3
Dot (.5x) ........................................
 72
    65
 73
     2
 40
0.635
 49
0.0
 74
     0
 49
-0.635
 74
     0
  0
ENDTAB
  0
TABLE
  2
LAYER
  5
2
330
0
100
AcDbSymbolTable
 70
     5
  0
LAYER
  5
10
330
2
100
AcDbSymbolTableRecord
100
AcDbLayerTableRecord
  2
0
 70
     0
 62
     7
  6
Continuous
370
    -3
390
F
  0
LAYER
  5
73
330
2
100
AcDbSymbolTableRecord
100
AcDbLayerTableRecord
  2
FORMAT
 70
     0
 62
     7
  6
Continuous
370
    -3
390
F
  0
LAYER
  5
74
330
2
100
AcDbSymbolTableRecord
100
AcDbLayerTableRecord
  2
VERMASSUNG
 70
     0
 62
     7
  6
Continuous
370
    -3
390
F
  0
LAYER
  5
75
330
2
100
AcDbSymbolTableRecord
100
AcDbLayerTableRecord
  2
KOPF_DÜNN
 70
     0
 62
     7
  6
Continuous
370
    -3
390
F
  0
LAYER
  5
76
330
2
100
AcDbSymbolTableRecord
100
AcDbLayerTableRecord
  2
KOPF_DICK
 70
     0
 62
     7
  6
Continuous
370
    25
390
F
  0
ENDTAB
  0
TABLE
  2
STYLE
  5
3
330
0
100
AcDbSymbolTable
 70
     2
  0
STYLE
  5
11
330
3
100
AcDbSymbolTableRecord
100
AcDbTextStyleTableRecord
  2
Standard
 70
     0
 40
0.0
 41
1.0
 50
0.0
 71
     0
 42
2.0
  3
txt
  4

  0
STYLE
  5
77
330
3
100
AcDbSymbolTableRecord
100
AcDbTextStyleTableRecord
  2
SLDTEXTSTYLE0
 70
     0
 40
0.0
 41
0.7
 50
0.0
 71
     0
 42
2.0
  3
TXT
  4

  0
ENDTAB
  0
TABLE
  2
VIEW
  5
6
330
0
100
AcDbSymbolTable
 70
     0
  0
ENDTAB
  0
TABLE
  2
UCS
  5
7
330
0
100
AcDbSymbolTable
 70
     0
  0
ENDTAB
  0
TABLE
  2
APPID
  5
9
330
0
100
AcDbSymbolTable
 70
     1
  0
APPID
  5
12
330
9
100
AcDbSymbolTableRecord
100
AcDbRegAppTableRecord
  2
ACAD
 70
     0
  0
ENDTAB
  0
TABLE
  2
DIMSTYLE
  5
A
330
0
100
AcDbSymbolTable
 70
     4
100
AcDbDimStyleTable
  0
DIMSTYLE
105
27
330
A
100
AcDbSymbolTableRecord
100
AcDbDimStyleTableRecord
  2
ISO-25
 70
     0
 41
2.5
 42
0.625
 43
3.75
 44
1.25
 73
     0
 74
     0
 77
     1
 78
     8
140
2.5
141
2.5
143
0.0393700787
147
0.625
171
     3
172
     1
178
     0
271
     2
272
     2
274
     3
278
    44
283
     0
284
     8
340
11
  0
DIMSTYLE
105
1C6
102
{ACAD_REACTORS
330
1C5
102
}
330
A
100
AcDbSymbolTableRecord
100
AcDbDimStyleTableRecord
  2
SLDDIMSTYLE0
 70
     0
 41
3.0
 44
0.0
 73
     0
 74
     0
 77
     1
 78
    12
 79
     3
140
2.0
147
0.5
173
     1
178
     0
272
     3
276
     2
284
    12
340
77
  0
DIMSTYLE
105
1D0
102
{ACAD_REACTORS
330
1CF
330
1E5
102
}
330
A
100
AcDbSymbolTableRecord
100
AcDbDimStyleTableRecord
  2
SLDDIMSTYLE1
 70
     0
 41
3.0
 44
0.0
 45
0.000000001
 73
     0
 74
     0
 77
     1
 78
    12
 79
     3
140
2.0
147
0.5
173
     1
178
     0
271
     2
272
     3
276
     2
284
    12
340
77
  0
DIMSTYLE
105
1DB
102
{ACAD_REACTORS
330
1DA
102
}
330
A
100
AcDbSymbolTableRecord
100
AcDbDimStyleTableRecord
  2
SLDDIMSTYLE2
 70
     0
 41
3.0
 44
0.0
 45
0.000000001
 73
     0
 74
     0
 77
     1
 78
    12
 79
     3
140
2.0
147
0.5
173
     1
178
     0
271
     0
272
     3
276
     2
284
    12
340
77
  0
ENDTAB
  0
TABLE
  2
BLOCK_RECORD
  5
1
330
0
100
AcDbSymbolTable
 70
     5
  0
BLOCK_RECORD
  5
1F
330
1
100
AcDbSymbolTableRecord
100
AcDbBlockTableRecord
  2
*Model_Space
340
22
  0
BLOCK_RECORD
  5
1B
330
1
100
AcDbSymbolTableRecord
100
AcDbBlockTableRecord
  2
*Paper_Space
340
1E
  0
BLOCK_RECORD
  5
23
330
1
100
AcDbSymbolTableRecord
100
AcDbBlockTableRecord
  2
*Paper_Space0
340
26
  0
BLOCK_RECORD
  5
1C7
330
1
100
AcDbSymbolTableRecord
100
AcDbBlockTableRecord
  2
_D
340
0
  0
BLOCK_RECORD
  5
1D1
330
1
100
AcDbSymbolTableRecord
100
AcDbBlockTableRecord
  2
_D_1
340
0
  0
BLOCK_RECORD
  5
1DC
330
1
100
AcDbSymbolTableRecord
100
AcDbBlockTableRecord
  2
_D_2
340
0
  0
BLOCK_RECORD
  5
1E6
330
1
100
AcDbSymbolTableRecord
100
AcDbBlockTableRecord
  2
_D_3
340
0
  0
ENDTAB
  0
ENDSEC
  0
SECTION
  2
BLOCKS
  0
BLOCK
  5
20
330
1F
100
AcDbEntity
  8
0
100
AcDbBlockBegin
  2
*Model_Space
 70
     0
 10
0.0
 20
0.0
 30
0.0
  3
*Model_Space
  1

  0
ENDBLK
  5
21
330
1F
100
AcDbEntity
  8
0
100
AcDbBlockEnd
  0
BLOCK
  5
1C
330
1B
100
AcDbEntity
 67
     1
  8
0
100
AcDbBlockBegin
  2
*Paper_Space
 70
     0
 10
0.0
 20
0.0
 30
0.0
  3
*Paper_Space
  1

  0
ENDBLK
  5
1D
330
1B
100
AcDbEntity
 67
     1
  8
0
100
AcDbBlockEnd
  0
BLOCK
  5
24
330
23
100
AcDbEntity
  8
0
100
AcDbBlockBegin
  2
*Paper_Space0
 70
     0
 10
0.0
 20
0.0
 30
0.0
  3
*Paper_Space0
  1

  0
ENDBLK
  5
25
330
23
100
AcDbEntity
  8
0
100
AcDbBlockEnd
  0
BLOCK
  5
1C8
330
1C7
100
AcDbEntity
  8
0
100
AcDbBlockBegin
  2
_D
 70
     0
 10
0.0
 20
0.0
 30
0.0
  3
_D
  1

  0
ARC
  5
1CA
330
1C7
100
AcDbEntity
  8
VERMASSUNG
100
AcDbCircle
 10
54.652758097
 20
165.9074475256
 30
0.0
 40
15.31789501178261
100
AcDbArc
 50
19.9001885928
 51
90.0
  0
SOLID
  5
1CB
330
1C7
100
AcDbEntity
  8
VERMASSUNG
100
AcDbTrace
 10
69.0559757455
 20
171.1213931491
 30
0.0
 11
68.1736077425
 21
174.0237933123
 31
0.0
 12
67.360880614
 22
173.6371738421
 32
0.0
 13
67.360880614
 23
173.6371738421
 33
0.0
  0
SOLID
  5
1CC
330
1C7
100
AcDbEntity
  8
VERMASSUNG
100
AcDbTrace
 10
54.652758097
 20
181.2253425374
 30
0.0
 11
57.595294959
 21
180.4877946974
 31
0.0
 12
57.6821900134
 22
181.3835900142
 32
0.0
 13
57.6821900134
 23
181.3835900142
 33
0.0
  0
LINE
  5
1CD
330
1C7
100
AcDbEntity
  8
VERMASSUNG
100
AcDbLine
 10
54.652758097
 20
167.8078890597
 30
0.0
 11
54.652758097
 21
182.2253425374
 31
0.0
  0
MTEXT
  5
1CE
330
1C7
100
AcDbEntity
  8
VERMASSUNG
100
AcDbMText
 10
63.2929602616
 20
181.7066505915
 30
0.0
 40
2.0
 41
0.0
 71
     1
 72
     1
  1
70°
  7
SLDTEXTSTYLE0
 11
0.818652137733518
 21
-0.5742897155481204
 31
0.0
 73
     1
 44
1.0
  0
ENDBLK
  5
1C9
330
1C7
100
AcDbEntity
  8
0
100
AcDbBlockEnd
  0
BLOCK
  5
1D2
330
1D1
100
AcDbEntity
  8
0
100
AcDbBlockBegin
  2
_D_1
 70
     0
 10
0.0
 20
0.0
 30
0.0
  3
_D_1
  1

  0
SOLID
  5
1D4
330
1D1
100
AcDbEntity
  8
VERMASSUNG
100
AcDbTrace
 10
54.652758097
 20
192.1610295086
 30
0.0
 11
57.652758097
 21
191.7110295086
 31
0.0
 12
57.652758097
 22
192.6110295086
 32
0.0
 13
57.652758097
 23
192.6110295086
 33
0.0
  0
SOLID
  5
1D5
330
1D1
100
AcDbEntity
  8
VERMASSUNG
100
AcDbTrace
 10
129.2562804799
 20
192.1610295086
 30
0.0
 11
126.2562804799
 21
192.6110295086
 31
0.0
 12
126.2562804799
 22
191.7110295086
 32
0.0
 13
126.2562804799
 23
191.7110295086
 33
0.0
  0
LINE
  5
1D6
330
1D1
100
AcDbEntity
  8
VERMASSUNG
100
AcDbLine
 10
54.652758097
 20
167.8078890597
 30
0.0
 11
54.652758097
 21
193.1610295086
 31
0.0
  0
LINE
  5
1D7
330
1D1
100
AcDbEntity
  8
VERMASSUNG
100
AcDbLine
 10
129.2562804799
 20
128.4175492815
 30
0.0
 11
129.2562804799
 21
193.1610295086
 31
0.0
  0
LINE
  5
1D8
330
1D1
100
AcDbEntity
  8
VERMASSUNG
100
AcDbLine
 10
54.652758097
 20
192.1610295086
 30
0.0
 11
129.2562804799
 21
192.1610295086
 31
0.0
  0
MTEXT
  5
1D9
330
1D1
100
AcDbEntity
  8
VERMASSUNG
100
AcDbMText
 10
89.4545193443
 20
194.7391651046
 30
0.0
 40
2.0
 41
0.0
 71
     1
 72
     1
  1
74.6
  7
SLDTEXTSTYLE0
 73
     1
 44
1.0
  0
ENDBLK
  5
1D3
330
1D1
100
AcDbEntity
  8
0
100
AcDbBlockEnd
  0
BLOCK
  5
1DD
330
1DC
100
AcDbEntity
  8
0
100
AcDbBlockBegin
  2
_D_2
 70
     0
 10
0.0
 20
0.0
 30
0.0
  3
_D_2
  1

  0
SOLID
  5
1DF
330
1DC
100
AcDbEntity
  8
VERMASSUNG
100
AcDbTrace
 10
43.0939282481
 20
97.1347357843
 30
0.0
 11
43.5439282481
 21
100.1347357843
 31
0.0
 12
42.6439282481
 22
100.1347357843
 32
0.0
 13
42.6439282481
 23
100.1347357843
 33
0.0
  0
SOLID
  5
1E0
330
1DC
100
AcDbEntity
  8
VERMASSUNG
100
AcDbTrace
 10
43.0939282481
 20
172.0172956446
 30
0.0
 11
42.6439282481
 21
169.0172956446
 31
0.0
 12
43.5439282481
 22
169.0172956446
 32
0.0
 13
43.5439282481
 23
169.0172956446
 33
0.0
  0
LINE
  5
1E1
330
1DC
100
AcDbEntity
  8
VERMASSUNG
100
AcDbLine
 10
74.2934748746
 20
97.1347357843
 30
0.0
 11
42.0939282481
 21
97.1347357843
 31
0.0
  0
LINE
  5
1E2
330
1DC
100
AcDbEntity
  8
VERMASSUNG
100
AcDbLine
 10
71.6983372693
 20
172.0172956446
 30
0.0
 11
42.0939282481
 21
172.0172956446
 31
0.0
  0
LINE
  5
1E3
330
1DC
100
AcDbEntity
  8
VERMASSUNG
100
AcDbLine
 10
43.0939282481
 20
97.1347357843
 30
0.0
 11
43.0939282481
 21
172.0172956446
 31
0.0
  0
MTEXT
  5
1E4
330
1DC
100
AcDbEntity
  8
VERMASSUNG
100
AcDbMText
 10
40.5157926521
 20
133.1760157643
 30
0.0
 40
2.0
 41
0.0
 71
     1
 72
     1
  1
75
  7
SLDTEXTSTYLE0
 11
6.123233995736766E-17
 21
1.0
 31
0.0
 73
     1
 44
1.0
  0
ENDBLK
  5
1DE
330
1DC
100
AcDbEntity
  8
0
100
AcDbBlockEnd
  0
BLOCK
  5
1E7
330
1E6
100
AcDbEntity
  8
0
100
AcDbBlockBegin
  2
_D_3
 70
     0
 10
0.0
 20
0.0
 30
0.0
  3
_D_3
  1

  0
SOLID
  5
1E9
330
1E6
100
AcDbEntity
  8
VERMASSUNG
100
AcDbTrace
 10
64.2562804799
 20
83.4367674096
 30
0.0
 11
67.2562804799
 21
82.9867674096
 31
0.0
 12
67.2562804799
 22
83.8867674096
 32
0.0
 13
67.2562804799
 23
83.8867674096
 33
0.0
  0
SOLID
  5
1EA
330
1E6
100
AcDbEntity
  8
VERMASSUNG
100
AcDbTrace
 10
129.2562804799
 20
83.4367674096
 30
0.0
 11
126.2562804799
 21
83.8867674096
 31
0.0
 12
126.2562804799
 22
82.9867674096
 32
0.0
 13
126.2562804799
 23
82.9867674096
 33
0.0
  0
LINE
  5
1EB
330
1E6
100
AcDbEntity
  8
VERMASSUNG
100
AcDbLine
 10
64.2562804799
 20
115.4583510265
 30
0.0
 11
64.2562804799
 21
82.4367674096
 31
0.0
  0
LINE
  5
1EC
330
1E6
100
AcDbEntity
  8
VERMASSUNG
100
AcDbLine
 10
129.2562804799
 20
96.2203510265
 30
0.0
 11
129.2562804799
 21
82.4367674096
 31
0.0
  0
LINE
  5
1ED
330
1E6
100
AcDbEntity
  8
VERMASSUNG
100
AcDbLine
 10
64.2562804799
 20
83.4367674096
 30
0.0
 11
129.2562804799
 21
83.4367674096
 31
0.0
  0
MTEXT
  5
1EE
330
1E6
100
AcDbEntity
  8
VERMASSUNG
100
AcDbMText
 10
95.3562805298
 20
86.0149030056
 30
0.0
 40
2.0
 41
0.0
 71
     1
 72
     1
  1
65
  7
SLDTEXTSTYLE0
 73
     1
 44
1.0
  0
ENDBLK
  5
1E8
330
1E6
100
AcDbEntity
  8
0
100
AcDbBlockEnd
  0
ENDSEC
  0
SECTION
  2
ENTITIES
  0
MTEXT
  5
78
330
1F
100
AcDbEntity
  8
KOPF_DÜNN
100
AcDbMText
 10
13.8892156294
 20
23.8442973028
 30
0.0
 40
3.0
 41
0.0
 71
     1
 72
     1
  1
V80.070.019.075
  7
SLDTEXTSTYLE0
 73
     1
 44
1.0
  0
MTEXT
  5
79
330
1F
100
AcDbEntity
  8
VERMASSUNG
100
AcDbMText
 10
13.9329988022
 20
28.8834360957
 30
0.0
 40
3.0
 41
0.0
 71
     1
 72
     1
  1
Wendeplattenhalter 70°_Insert holder 70°
  7
SLDTEXTSTYLE0
 73
     1
 44
1.0
  0
MTEXT
  5
7A
330
1F
100
AcDbEntity
  8
VERMASSUNG
100
AcDbMText
 10
98.8601118557
 20
13.8365368761
 30
0.0
 40
2.0
 41
0.0
 71
     1
 72
     1
  1
Datum: 07.03.2018
  7
SLDTEXTSTYLE0
 73
     1
 44
1.0
  0
MTEXT
  5
7B
330
1F
100
AcDbEntity
  8
VERMASSUNG
100
AcDbMText
 10
13.933048693
 20
18.0482802738
 30
0.0
 40
2.0
 41
0.0
 71
     1
 72
     1
  1
für Verlängerungskonsolen / for use on extension brides / CN..19 06..
  7
SLDTEXTSTYLE0
 73
     1
 44
1.0
  0
MTEXT
  5
7C
330
1F
100
AcDbEntity
  8
VERMASSUNG
100
AcDbMText
 10
13.9808475933
 20
13.9090974274
 30
0.0
 40
2.0
 41
0.0
 71
     1
 72
     1
  1
Gewicht: 3254g
  7
SLDTEXTSTYLE0
 73
     1
 44
1.0
  0
LINE
  5
7D
330
1F
100
AcDbEntity
  8
0
  6
Continuous
 62
     7
370
    25
100
AcDbLine
 10
236.9625237565
 20
171.6626436503
 30
0.0
 11
236.1944285016
 21
170.8887733514
 31
0.0
  0
LINE
  5
7E
330
1F
100
AcDbEntity
  8
0
  6
Continuous
 62
     7
370
    25
100
AcDbLine
 10
251.085844336
 20
146.9328017667
 30
0.0
 11
251.8539544921
 21
147.7066712216
 31
0.0
  0
LINE
  5
7F
330
1F
100
AcDbEntity
  8
0
  6
Continuous
 62
     7
370
    25
100
AcDbLine
 10
57.6586073525
 20
147.7066712216
 30
0.0
 11
58.4267093594
 21
146.9328017667
 31
0.0
  0
LINE
  5
80
330
1F
100
AcDbEntity
  8
0
  6
Continuous
 62
     7
370
    25
100
AcDbLine
 10
73.3181354384
 20
170.8887733514
 30
0.0
 11
72.5500345956
 21
171.6626436503
 31
0.0
  0
LINE
  5
81
330
1F
100
AcDbEntity
  8
0
  6
Continuous
 62
     7
370
    25
100
AcDbLine
 10
236.9415429215
 20
169.8363105063
 30
0.0
 11
236.6980579476
 21
169.5909994416
 31
0.0
  0
LINE
  5
82
330
1F
100
AcDbEntity
  8
0
  6
Continuous
 62
     7
370
    25
100
AcDbLine
 10
250.2441969495
 20
147.7008616314
 30
0.0
 11
250.7836934905
 21
148.2444001124
 31
0.0
  0
LINE
  5
83
330
1F
100
AcDbEntity
  8
0
  6
Continuous
 62
     7
370
    25
100
AcDbLine
 10
68.8521028291
 20
160.9588205576
 30
0.0
 11
68.6329114045
 21
161.293881549
 31
0.0
  0
LINE
  5
84
330
1F
100
AcDbEntity
  8
0
  6
Continuous
 62
     7
370
    25
100
AcDbLine
 10
62.419500647
 20
158.0759236351
 30
0.0
 11
63.0645076539
 21
157.0899519831
 31
0.0
  0
LINE
  5
85
330
1F
100
AcDbEntity
  8
0
  6
Continuous
 62
     7
370
    25
100
AcDbLine
 10
63.227178974
 20
156.5319388867
 30
0.0
 11
63.5478733833
 21
156.0417176918
 31
0.0
  0
ARC
  5
86
330
1F
100
AcDbEntity
  8
0
  6
Continuous
 62
     7
370
    25
100
AcDbCircle
 10
249.2562804799
 20
136.2213994631
 30
0.0
 40
4.000000000000028
100
AcDbArc
 50
91.3118621264
 51
180.0
  0
LINE
  5
87
330
1F
100
AcDbEntity
  8
0
  6
Continuous
 62
     7
370
    25
100
AcDbLine
 10
245.2562865596
 20
115.4583511636
 30
0.0
 11
245.2562865596
 21
136.2213982031
 31
0.0
  0
LINE
  5
88
330
1F
100
AcDbEntity
  8
0
  6
Continuous
 62
     7
370
    25
100
AcDbLine
 10
249.3478623013
 20
140.2203520522
 30
0.0
 11
250.3762659411
 21
146.5936066345
 31
0.0
  0
LINE
  5
89
330
1F
100
AcDbEntity
  8
0
  6
Continuous
 62
     7
370
    25
100
AcDbLine
 10
64.2562801744
 20
136.2213982031
 30
0.0
 11
64.2562801744
 21
115.4583511636
 31
0.0
  0
ARC
  5
8A
330
1F
100
AcDbEntity
  8
0
  6
Continuous
 62
     7
370
    25
100
AcDbCircle
 10
60.2562804799
 20
136.2213994631
 30
0.0
 40
4.0
100
AcDbArc
 50
0.0
 51
90.0
  0
LINE
  5
8B
330
1F
100
AcDbEntity
  8
0
  6
Continuous
 62
     7
370
    25
100
AcDbLine
 10
59.0858515146
 20
146.9062069193
 30
0.0
 11
60.1647030357
 21
140.2203520522
 31
0.0
  0
CIRCLE
  5
8C
330
1F
100
AcDbEntity
  8
0
  6
Continuous
 62
     7
370
    25
100
AcDbCircle
 10
116.2562804799
 20
105.2083510265
 30
0.0
 40
4.000000000000011
  0
CIRCLE
  5
8D
330
1F
100
AcDbEntity
  8
0
  6
Continuous
 62
     7
370
    25
100
AcDbCircle
 10
186.2562804799
 20
105.2083510265
 30
0.0
 40
4.000000000000002
  0
LINE
  5
8E
330
1F
100
AcDbEntity
  8
0
  6
Continuous
 62
     7
370
    25
100
AcDbLine
 10
254.0768799166
 20
164.0972183779
 30
0.0
 11
251.4102128129
 21
147.5713239745
 31
0.0
  0
ARC
  5
8F
330
1F
100
AcDbEntity
  8
0
  6
Continuous
 62
     7
370
    25
100
AcDbCircle
 10
250.2550626892
 20
147.7572510877
 30
0.0
 40
1.170017392917462
100
AcDbArc
 50
273.1406490933
 51
350.8563829969
  0
LINE
  5
90
330
1F
100
AcDbEntity
  8
0
  6
Continuous
 62
     7
370
    25
100
AcDbLine
 10
235.8310338836
 20
170.0083509315
 30
0.0
 11
235.8700600247
 21
170.2502498631
 31
0.0
  0
ARC
  5
91
330
1F
100
AcDbEntity
  8
0
  6
Continuous
 62
     7
370
    25
100
AcDbCircle
 10
237.0289773442
 20
170.0615478323
 30
0.0
 40
1.174179632718969
100
AcDbArc
 50
69.6793856682
 51
170.751909135
  0
LINE
  5
92
330
1F
100
AcDbEntity
  8
0
  6
Continuous
 62
     7
370
    25
100
AcDbLine
 10
237.4367383103
 20
171.1626512808
 30
0.0
 11
253.2914397101
 21
165.4232685216
 31
0.0
  0
ARC
  5
93
330
1F
100
AcDbEntity
  8
0
  6
Continuous
 62
     7
370
    25
100
AcDbCircle
 10
252.8810486466
 20
164.284548165
 30
0.0
 40
1.210415166601985
100
AcDbArc
 50
351.0968382833
 51
70.1810044868
  0
LINE
  5
94
330
1F
100
AcDbEntity
  8
0
  6
Continuous
 62
     7
370
    25
100
AcDbLine
 10
238.2048335652
 20
171.9365216015
 30
0.0
 11
254.0595498662
 21
166.1971389078
 31
0.0
  0
ARC
  5
95
330
1F
100
AcDbEntity
  8
0
  6
Continuous
 62
     7
370
    25
100
AcDbCircle
 10
253.6491178813
 20
165.0583942471
 30
0.0
 40
1.210451905917515
100
AcDbArc
 50
351.0982528394
 51
70.179572286
  0
LINE
  5
96
330
1F
100
AcDbEntity
  8
0
  6
Continuous
 62
     7
370
    25
100
AcDbLine
 10
254.8449900727
 20
164.8710882985
 30
0.0
 11
252.1783080678
 21
148.345195292
 31
0.0
  0
ARC
  5
97
330
1F
100
AcDbEntity
  8
0
  6
Continuous
 62
     7
370
    25
100
AcDbCircle
 10
237.7977534793
 20
170.8285397013
 30
0.0
 40
1.180397427853098
100
AcDbArc
 50
69.8263245844
 51
135.0386394161
  0
ARC
  5
98
330
1F
100
AcDbEntity
  8
0
  6
Continuous
 62
     7
370
    25
100
AcDbCircle
 10
251.0230398801
 20
148.5303977891
 30
0.0
 40
1.170019038461036
100
AcDbArc
 50
315.2489011061
 51
350.8923352729
  0
LINE
  5
99
330
1F
100
AcDbEntity
  8
0
  6
Continuous
 62
     7
370
    25
100
AcDbLine
 10
71.3077191989
 20
171.9365216015
 30
0.0
 11
55.453013841
 21
166.1971389078
 31
0.0
  0
ARC
  5
9A
330
1F
100
AcDbEntity
  8
0
  6
Continuous
 62
     7
370
    25
100
AcDbCircle
 10
71.7154822152
 20
170.8354287576
 30
0.0
 40
1.174170400133907
100
AcDbArc
 50
9.247643175
 51
110.3208878535
  0
LINE
  5
9B
330
1F
100
AcDbEntity
  8
0
  6
Continuous
 62
     7
370
    25
100
AcDbLine
 10
75.5410645883
 20
154.4982274756
 30
0.0
 11
72.8743918966
 21
171.0241202493
 31
0.0
  0
ARC
  5
9C
330
1F
100
AcDbEntity
  8
0
  6
Continuous
 62
     7
370
    25
100
AcDbCircle
 10
74.3452111645
 20
154.3109092577
 30
0.0
 40
1.210435263027526
100
AcDbArc
 50
289.8199547914
 51
8.9024583974
  0
LINE
  5
9D
330
1F
100
AcDbEntity
  8
0
  6
Continuous
 62
     7
370
    25
100
AcDbLine
 10
58.9009211193
 20
147.4327934668
 30
0.0
 11
74.7556281071
 21
153.1721768663
 31
0.0
  0
ARC
  5
9E
330
1F
100
AcDbEntity
  8
0
  6
Continuous
 62
     7
370
    25
100
AcDbCircle
 10
58.4931591023
 20
148.5338879289
 30
0.0
 40
1.174171570534371
100
AcDbArc
 50
189.2476904953
 51
290.3208147021
  0
LINE
  5
9F
330
1F
100
AcDbEntity
  8
0
  6
Continuous
 62
     7
370
    25
100
AcDbLine
 10
54.6675756208
 20
164.8710882985
 30
0.0
 11
57.3342484216
 21
148.345195292
 31
0.0
  0
ARC
  5
A0
330
1F
100
AcDbEntity
  8
0
  6
Continuous
 62
     7
370
    25
100
AcDbCircle
 10
55.8634304817
 20
165.058405127
 30
0.0
 40
1.210436467789748
100
AcDbArc
 50
109.8199190496
 51
188.9023828948
  0
ARC
  5
A1
330
1F
100
AcDbEntity
  8
0
  6
Continuous
 62
     7
370
    25
100
AcDbCircle
 10
74.3455391079
 20
154.3105849305
 30
0.0
 40
1.190263420182791
100
AcDbArc
 50
289.8199459308
 51
8.9023716528
  0
LINE
  5
A2
330
1F
100
AcDbEntity
  8
0
  6
Continuous
 62
     7
370
    25
100
AcDbLine
 10
75.5214639734
 20
154.4947797195
 30
0.0
 11
72.8547912817
 21
171.0206731916
 31
0.0
  0
ARC
  5
A3
330
1F
100
AcDbEntity
  8
0
  6
Continuous
 62
     7
370
    25
100
AcDbCircle
 10
71.7151969616
 20
170.8351263291
 30
0.0
 40
1.154600732941099
100
AcDbArc
 50
9.2476559843
 51
110.3208373146
  0
LINE
  5
A4
330
1F
100
AcDbEntity
  8
0
  6
Continuous
 62
     7
370
    25
100
AcDbLine
 10
71.3142310064
 20
171.9178678288
 30
0.0
 11
55.459524135
 21
166.178485448
 31
0.0
  0
ARC
  5
A5
330
1F
100
AcDbEntity
  8
0
  6
Continuous
 62
     7
370
    25
100
AcDbCircle
 10
55.8631011445
 20
165.0587301581
 30
0.0
 40
1.190263127097312
100
AcDbArc
 50
109.819941693
 51
188.9023631538
  0
LINE
  5
A6
330
1F
100
AcDbEntity
  8
0
  6
Continuous
 62
     7
370
    25
100
AcDbLine
 10
54.6871765413
 20
164.874535589
 30
0.0
 11
57.3538492694
 21
148.3486430482
 31
0.0
  0
ARC
  5
A7
330
1F
100
AcDbEntity
  8
0
  6
Continuous
 62
     7
370
    25
100
AcDbCircle
 10
58.4934439165
 20
148.5341892846
 30
0.0
 40
1.154600955129551
100
AcDbArc
 50
189.2476227135
 51
290.320877529
  0
LINE
  5
A8
330
1F
100
AcDbEntity
  8
0
  6
Continuous
 62
     7
370
    25
100
AcDbLine
 10
58.8944107089
 20
147.451447858
 30
0.0
 11
74.7491162996
 21
153.1908293948
 31
0.0
  0
LINE
  5
A9
330
1F
100
AcDbEntity
  8
0
  6
Continuous
 62
     7
370
    25
100
AcDbLine
 10
69.8023442905
 20
150.3271726654
 30
0.0
 11
75.5237289499
 21
152.3983055488
 31
0.0
  0
LINE
  5
AA
330
1F
100
AcDbEntity
  8
0
  6
Continuous
 62
     7
370
    25
100
AcDbLine
 10
74.0441144239
 20
154.4317664341
 30
0.0
 11
74.4474180769
 21
154.208375676
 31
0.0
  0
LINE
  5
AB
330
1F
100
AcDbEntity
  8
0
  6
Continuous
 62
     7
370
    25
100
AcDbLine
 10
74.4474180769
 20
154.208375676
 30
0.0
 11
74.7491162996
 21
153.1908293948
 31
0.0
  0
LINE
  5
AC
330
1F
100
AcDbEntity
  8
0
  6
Continuous
 62
     7
370
    25
100
AcDbLine
 10
58.5927113219
 20
148.4689941392
 30
0.0
 11
58.8944107089
 21
147.451447858
 31
0.0
  0
LINE
  5
AD
330
1F
100
AcDbEntity
  8
0
  6
Continuous
 62
     7
370
    25
100
AcDbLine
 10
59.1469816658
 20
149.283696501
 30
0.0
 11
58.5927113219
 21
148.4689941392
 31
0.0
  0
ARC
  5
AE
330
1F
100
AcDbEntity
  8
0
  6
Continuous
 62
     7
370
    25
100
AcDbCircle
 10
75.1096841457
 20
153.5406901363
 30
0.0
 40
1.215103142018484
100
AcDbArc
 50
289.9224948801
 51
310.3088696135
  0
LINE
  5
AF
330
1F
100
AcDbEntity
  8
0
  6
Continuous
 62
     7
370
    25
100
AcDbLine
 10
74.4474180769
 20
154.208375676
 30
0.0
 11
75.5214639734
 21
154.4947797195
 31
0.0
  0
LINE
  5
B0
330
1F
100
AcDbEntity
  8
0
  6
Continuous
 62
     7
370
    25
100
AcDbLine
 10
73.6815281938
 20
170.0083509315
 30
0.0
 11
73.6424946021
 21
170.2502498631
 31
0.0
  0
LINE
  5
B1
330
1F
100
AcDbEntity
  8
0
  6
Continuous
 62
     7
370
    25
100
AcDbLine
 10
71.3162948172
 20
169.8290720344
 30
0.0
 11
71.7807453852
 21
170.7342692646
 31
0.0
  0
LINE
  5
B2
330
1F
100
AcDbEntity
  8
0
  6
Continuous
 62
     7
370
    25
100
AcDbLine
 10
71.7807453852
 20
170.7342692646
 30
0.0
 11
72.8547912817
 21
171.0206731916
 31
0.0
  0
LINE
  5
B3
330
1F
100
AcDbEntity
  8
0
  6
Continuous
 62
     7
370
    25
100
AcDbLine
 10
61.0694670844
 20
151.3903872803
 30
0.0
 11
71.5535697322
 21
155.1856180415
 31
0.0
  0
ARC
  5
B4
330
1F
100
AcDbEntity
  8
0
  6
Continuous
 62
     7
370
    25
100
AcDbCircle
 10
71.2115558963
 20
156.1345626533
 30
0.0
 40
1.00869685247328
100
AcDbArc
 50
289.8199213339
 51
8.9023965291
  0
LINE
  5
B5
330
1F
100
AcDbEntity
  8
0
  6
Continuous
 62
     7
370
    25
100
AcDbLine
 10
69.1391736995
 20
167.9789280281
 30
0.0
 11
58.6550710517
 21
164.1836972669
 31
0.0
  0
ARC
  5
B6
330
1F
100
AcDbEntity
  8
0
  6
Continuous
 62
     7
370
    25
100
AcDbCircle
 10
69.4789754493
 20
167.0613480846
 30
0.0
 40
0.9784774815042803
100
AcDbArc
 50
9.247798035
 51
110.3207935789
  0
LINE
  5
B7
330
1F
100
AcDbEntity
  8
0
  6
Continuous
 62
     7
370
    25
100
AcDbLine
 10
72.208101375
 20
156.290660216
 30
0.0
 11
70.4447352122
 21
167.2185939499
 31
0.0
  0
ARC
  5
B8
330
1F
100
AcDbEntity
  8
0
  6
Continuous
 62
     7
370
    25
100
AcDbCircle
 10
60.7296655353
 20
152.3079664817
 30
0.0
 40
0.9784767158948013
100
AcDbArc
 50
189.247788933
 51
290.3207976522
  0
LINE
  5
B9
330
1F
100
AcDbEntity
  8
0
  6
Continuous
 62
     7
370
    25
100
AcDbLine
 10
58.0005391761
 20
163.0786550925
 30
0.0
 11
59.763906503
 21
152.1507208929
 31
0.0
  0
ARC
  5
BA
330
1F
100
AcDbEntity
  8
0
  6
Continuous
 62
     7
370
    25
100
AcDbCircle
 10
58.9970861774
 20
163.2347516812
 30
0.0
 40
1.008698206036389
100
AcDbArc
 50
109.819971499
 51
188.9023284904
  0
ARC
  5
BB
330
1F
100
AcDbEntity
  8
0
  6
Continuous
 62
     7
370
    25
100
AcDbCircle
 10
65.0759478792
 20
159.6605278761
 30
0.0
 40
3.918414036229648
100
AcDbArc
 50
189.6985704294
 51
321.142035463
  0
ARC
  5
BC
330
1F
100
AcDbEntity
  8
0
  6
Continuous
 62
     7
370
    25
100
AcDbCircle
 10
65.1118861436
 20
159.666998232
 30
0.0
 40
3.954928699608035
100
AcDbArc
 50
17.2716082588
 51
189.7032577205
  0
SPLINE
  5
BD
330
1F
100
AcDbEntity
  8
0
  6
Continuous
 62
     7
370
    25
100
AcDbSpline
210
0.0
220
0.0
230
1.0
 70
     8
 71
     3
 72
    11
 73
     7
 74
     0
 42
0.000000001
 43
0.00000001
 40
0.0
 40
0.0
 40
0.0
 40
0.0
 40
0.3382137556586981
 40
0.6756041077818846
 40
0.9917757397609492
 40
1.0
 40
1.0
 40
1.0
 40
1.0
 10
74.04411442385194
 20
154.4317664340691
 30
0.0
 10
73.98070096288897
 20
154.4674006838365
 30
0.0
 10
73.8540284251863
 20
154.5385824294569
 30
0.0
 10
73.64390282623474
 20
154.6623119166328
 30
0.0
 10
73.50962583996528
 20
154.7435333572809
 30
0.0
 10
73.4474028619551
 20
154.7817733167438
 30
0.0
 10
73.44582535133836
 20
154.7827427968935
 30
0.0
  0
LWPOLYLINE
  5
BE
330
1F
100
AcDbEntity
  8
0
  6
Continuous
 62
     7
370
    25
100
AcDbPolyline
 90
        3
 70
   128
 43
0.0
 10
61.9816393386
 20
158.2265427098
 10
62.2595995459
 20
157.2829872132
 10
62.6981849577
 20
156.528333737
  0
ARC
  5
BF
330
1F
100
AcDbEntity
  8
0
  6
Continuous
 62
     7
370
    25
100
AcDbCircle
 10
65.9350378068
 20
158.9574331371
 30
0.0
 40
3.893865016708443
100
AcDbArc
 50
52.9975348859
 51
91.4213050206
  0
LWPOLYLINE
  5
C0
330
1F
100
AcDbEntity
  8
0
  6
Continuous
 62
     7
370
    25
100
AcDbPolyline
 90
        3
 70
   128
 43
0.0
 10
61.9551352951
 20
159.28238125
 10
61.9481513071
 20
159.2130917818
 10
61.9816393386
 20
158.2265427098
  0
ARC
  5
C1
330
1F
100
AcDbEntity
  8
0
  6
Continuous
 62
     7
370
    25
100
AcDbCircle
 10
59.2570558473
 20
147.758047221
 30
0.0
 40
1.170685845874007
100
AcDbArc
 50
224.8234669042
 51
264.0791243038
  0
LINE
  5
C2
330
1F
100
AcDbEntity
  8
0
  6
Continuous
 62
     7
370
    25
100
AcDbLine
 10
58.5927113219
 20
148.4689941392
 30
0.0
 11
57.3538492694
 21
148.3486430482
 31
0.0
  0
LINE
  5
C3
330
1F
100
AcDbEntity
  8
0
  6
Continuous
 62
     7
370
    25
100
AcDbLine
 10
55.9260385138
 20
164.99488668
 30
0.0
 11
54.6871765413
 21
164.874535589
 31
0.0
  0
LINE
  5
C4
330
1F
100
AcDbEntity
  8
0
  6
Continuous
 62
     7
370
    25
100
AcDbLine
 10
56.3833722639
 20
164.7170587205
 30
0.0
 11
55.9260385138
 21
164.99488668
 31
0.0
  0
SPLINE
  5
C5
330
1F
100
AcDbEntity
  8
0
  6
Continuous
 62
     7
370
    25
100
AcDbSpline
210
0.0
220
0.0
230
1.0
 70
     8
 71
     3
 72
    11
 73
     7
 74
     0
 42
0.000000001
 43
0.00000001
 40
0.0
 40
0.0
 40
0.0
 40
0.0
 40
0.0077058198117273
 40
0.2978253434312221
 40
0.6482687539048205
 40
1.0
 40
1.0
 40
1.0
 40
1.0
 10
59.49081804410693
 20
149.8885662988381
 30
0.0
 10
59.49011588230589
 20
149.8870817464512
 30
0.0
 10
59.46297774715003
 20
149.8297046814186
 30
0.0
 10
59.39730995171344
 20
149.69899326202
 30
0.0
 10
59.2800636551937
 20
149.4879322891488
 30
0.0
 10
59.19139653608822
 20
149.3518582866868
 30
0.0
 10
59.14698166580078
 20
149.2836965010123
 30
0.0
  0
LINE
  5
C6
330
1F
100
AcDbEntity
  8
0
  6
Continuous
 62
     7
370
    25
100
AcDbLine
 10
55.9260385138
 20
164.99488668
 30
0.0
 11
55.459524135
 21
166.178485448
 31
0.0
  0
LINE
  5
C7
330
1F
100
AcDbEntity
  8
0
  6
Continuous
 62
     7
370
    25
100
AcDbLine
 10
71.7807453852
 20
170.7342692646
 30
0.0
 11
71.3142310064
 21
171.9178678288
 31
0.0
  0
ARC
  5
C8
330
1F
100
AcDbEntity
  8
0
  6
Continuous
 62
     7
370
    25
100
AcDbCircle
 10
72.4871992694
 20
170.0650255543
 30
0.0
 40
1.170049293923548
100
AcDbArc
 50
9.1085089435
 51
44.7510939923
  0
SPLINE
  5
C9
330
1F
100
AcDbEntity
  8
0
  6
Continuous
 62
     7
370
    25
100
AcDbSpline
210
0.0
220
0.0
230
1.0
 70
     8
 71
     3
 72
    11
 73
     7
 74
     0
 42
0.000000001
 43
0.00000001
 40
0.0
 40
0.0
 40
0.0
 40
0.0
 40
0.351731562308271
 40
0.7021755655848976
 40
0.9922930431144709
 40
0.9999999999999999
 40
0.9999999999999999
 40
0.9999999999999999
 40
0.9999999999999999
 10
71.31629481719014
 20
169.8290720344142
 30
0.0
 10
71.27694215280039
 20
169.7558097558073
 30
0.0
 10
71.19838087955611
 20
169.6095533846724
 30
0.0
 10
71.07140352953172
 20
169.4082961926577
 30
0.0
 10
70.99101485951714
 20
169.2924171498428
 30
0.0
 10
70.95529963543483
 20
169.2436810078177
 30
0.0
 10
70.95437541411397
 20
169.2424198374705
 30
0.0
  0
SPLINE
  5
CA
330
1F
100
AcDbEntity
  8
0
  6
Continuous
 62
     7
370
    25
100
AcDbSpline
210
0.0
220
0.0
230
1.0
 70
     8
 71
     3
 72
    11
 73
     7
 74
     0
 42
0.000000001
 43
0.00000001
 40
0.0
 40
0.0
 40
0.0
 40
0.0
 40
0.0082249213322696
 40
0.3243957830729432
 40
0.6617850251967017
 40
1.0
 40
1.0
 40
1.0
 40
1.0
 10
56.96969873079237
 20
164.3781360000924
 30
0.0
 10
56.9683588298954
 20
164.378865767536
 30
0.0
 10
56.91551234259718
 20
164.4076482290011
 30
0.0
 10
56.79550505257191
 20
164.4745069638359
 30
0.0
 10
56.59174589438433
 20
164.5918191773228
 30
0.0
 10
56.45288671260218
 20
164.6752782045175
 30
0.0
 10
56.38337226391909
 20
164.7170587204949
 30
0.0
  0
LINE
  5
CB
330
1F
100
AcDbEntity
  8
0
  6
Continuous
 62
     7
370
    25
100
AcDbLine
 10
250.4004356246
 20
148.6737919733
 30
0.0
 11
252.6827272754
 21
162.8175755725
 31
0.0
  0
LWPOLYLINE
  5
CC
330
1F
100
AcDbEntity
  8
0
  6
Continuous
 62
     7
370
    25
100
AcDbPolyline
 90
        3
 70
   128
 43
0.0
 10
250.1940396409
 20
148.1260420517
 10
250.3143814187
 20
148.3625774965
 10
250.4004356246
 20
148.6737919733
  0
ARC
  5
CD
330
1F
100
AcDbEntity
  8
0
  6
Continuous
 62
     7
370
    25
100
AcDbCircle
 10
237.6221639228
 20
167.986511853
 30
0.0
 40
1.490473257986303
100
AcDbArc
 50
70.0139672378
 51
106.8572088835
  0
LINE
  5
CE
330
1F
100
AcDbEntity
  8
0
  6
Continuous
 62
     7
370
    25
100
AcDbLine
 10
251.7009344678
 20
164.4751388342
 30
0.0
 11
238.1315943579
 21
169.3872228027
 31
0.0
  0
ARC
  5
CF
330
1F
100
AcDbEntity
  8
0
  6
Continuous
 62
     7
370
    25
100
AcDbCircle
 10
251.1879118938
 20
163.0517250378
 30
0.0
 40
1.513042959411043
100
AcDbArc
 50
351.0974700741
 51
70.1799737483
  0
ARC
  5
D0
330
1F
100
AcDbEntity
  8
0
  6
Continuous
 62
     7
370
    25
100
AcDbCircle
 10
251.2192579245
 20
163.0834125004
 30
0.0
 40
1.815642126950956
100
AcDbArc
 50
351.0973360593
 51
70.1805008293
  0
LINE
  5
D1
330
1F
100
AcDbEntity
  8
0
  6
Continuous
 62
     7
370
    25
100
AcDbLine
 10
253.0130264144
 20
162.8024304048
 30
0.0
 11
250.7307496648
 21
148.6586468056
 31
0.0
  0
LINE
  5
D2
330
1F
100
AcDbEntity
  8
0
  6
Continuous
 62
     7
370
    25
100
AcDbLine
 10
238.2655259948
 20
169.7035900545
 30
0.0
 11
251.8348661046
 21
164.7915058531
 31
0.0
  0
ARC
  5
D3
330
1F
100
AcDbEntity
  8
0
  6
Continuous
 62
     7
370
    25
100
AcDbCircle
 10
251.7586973046
 20
163.6269160612
 30
0.0
 40
1.815693483855998
100
AcDbArc
 50
351.0986457946
 51
70.1791675677
  0
LINE
  5
D4
330
1F
100
AcDbEntity
  8
0
  6
Continuous
 62
     7
370
    25
100
AcDbLine
 10
253.5525229554
 20
163.3459670231
 30
0.0
 11
251.2702313046
 21
149.2021852866
 31
0.0
  0
LINE
  5
D5
330
1F
100
AcDbEntity
  8
0
  6
Continuous
 62
     7
370
    25
100
AcDbLine
 10
238.8050225358
 20
170.2471273713
 30
0.0
 11
252.3743626456
 21
165.3350434028
 31
0.0
  0
ARC
  5
D6
330
1F
100
AcDbEntity
  8
0
  6
Continuous
 62
     7
370
    25
100
AcDbCircle
 10
237.6549074498
 20
168.0334102412
 30
0.0
 40
1.778301328791514
100
AcDbArc
 50
69.9175633927
 51
120.2754618389
  0
ARC
  5
D7
330
1F
100
AcDbEntity
  8
0
  6
Continuous
 62
     7
370
    25
100
AcDbCircle
 10
238.1943807228
 20
168.5852072489
 30
0.0
 40
1.770554127107197
100
AcDbArc
 50
69.8250774818
 51
135.0396902438
  0
ARC
  5
D8
330
1F
100
AcDbEntity
  8
0
  6
Continuous
 62
     7
370
    25
100
AcDbCircle
 10
248.9997072841
 20
148.9356186265
 30
0.0
 40
1.753060498967093
100
AcDbArc
 50
310.4874405241
 51
350.9095604261
  0
ARC
  5
D9
330
1F
100
AcDbEntity
  8
0
  6
Continuous
 62
     7
370
    25
100
AcDbCircle
 10
249.537276921
 20
149.4800263962
 30
0.0
 40
1.755085917505367
100
AcDbArc
 50
315.2490826999
 51
350.8914001227
  0
LINE
  5
DA
330
1F
100
AcDbEntity
  8
0
  6
Continuous
 62
     7
370
    25
100
AcDbLine
 10
68.4642647188
 20
161.7938481033
 30
0.0
 11
68.413024282
 21
161.6285606981
 31
0.0
  0
LINE
  5
DB
330
1F
100
AcDbEntity
  8
0
  6
Continuous
 62
     7
370
    25
100
AcDbLine
 10
68.413024282
 20
161.6285606981
 30
0.0
 11
67.5446237232
 21
162.5034833089
 31
0.0
  0
LWPOLYLINE
  5
DC
330
1F
100
AcDbEntity
  8
0
  6
Continuous
 62
     7
370
    25
100
AcDbPolyline
 90
        3
 70
   128
 43
0.0
 10
63.0410634707
 20
156.296974583
 10
62.883428743
 20
157.2127654911
 10
62.876623569
 20
157.3771551014
  0
ARC
  5
DD
330
1F
100
AcDbEntity
  8
0
  6
Continuous
 62
     7
370
    25
100
AcDbCircle
 10
65.9952569366
 20
159.5588975695
 30
0.0
 40
3.138550165866097
100
AcDbArc
 50
254.4530324852
 51
73.9531936013
  0
LINE
  5
DE
330
1F
100
AcDbEntity
  8
0
  6
Continuous
 62
     7
370
    25
100
AcDbLine
 10
66.8628229554
 20
162.5751578942
 30
0.0
 11
65.8983750995
 21
162.8346206382
 31
0.0
  0
LINE
  5
DF
330
1F
100
AcDbEntity
  8
0
  6
Continuous
 62
     7
370
    25
100
AcDbLine
 10
64.1895890962
 20
156.7946472899
 30
0.0
 11
65.1540369521
 21
156.5351836145
 31
0.0
  0
ARC
  5
E0
330
1F
100
AcDbEntity
  8
0
  6
Continuous
 62
     7
370
    25
100
AcDbCircle
 10
65.0571541378
 20
159.8109074248
 30
0.0
 40
3.138549713366939
100
AcDbArc
 50
74.4530116704
 51
253.9532097877
  0
SPLINE
  5
E1
330
1F
100
AcDbEntity
  8
0
  6
Continuous
 62
     7
370
    25
100
AcDbSpline
210
0.0
220
0.0
230
1.0
 70
     8
 71
     3
 72
    11
 73
     7
 74
     0
 42
0.000000001
 43
0.00000001
 40
0.0
 40
0.0
 40
0.0
 40
0.0
 40
0.164317718424264
 40
0.3954228824632583
 40
0.6264528534888367
 40
1.0
 40
1.0
 40
1.0
 40
1.0
 10
63.07181201682565
 20
157.0951012656645
 30
0.0
 10
63.13937722506109
 20
156.9929914886779
 30
0.0
 10
63.30196972969718
 20
156.7472690995715
 30
0.0
 10
63.63921146813906
 20
156.4222228683628
 30
0.0
 10
64.14320556124244
 20
156.0519606712382
 30
0.0
 10
64.56926642617731
 20
155.903553555603
 30
0.0
 10
64.8325145970392
 20
155.8118579671339
 30
0.0
  0
LINE
  5
E2
330
1F
100
AcDbEntity
  8
0
  6
Continuous
 62
     7
370
    25
100
AcDbLine
 10
68.4924111496
 20
161.6164088011
 30
0.0
 11
68.2619609664
 21
161.6883069039
 31
0.0
  0
LINE
  5
E3
330
1F
100
AcDbEntity
  8
0
  6
Continuous
 62
     7
370
    25
100
AcDbLine
 10
75.8273456971
 20
151.8077483163
 30
0.0
 11
74.7583792339
 21
152.1212501214
 31
0.0
  0
LWPOLYLINE
  5
E4
330
1F
100
AcDbEntity
  8
0
  6
Continuous
 62
     7
370
    25
100
AcDbPolyline
 90
        3
 70
   128
 43
0.0
 10
64.8585636895
 20
155.7486826316
 10
64.8496863227
 20
155.7782688872
 10
64.832514597
 20
155.8118579671
  0
SPLINE
  5
E5
330
1F
100
AcDbEntity
  8
0
  6
Continuous
 62
     7
370
    25
100
AcDbSpline
210
0.0
220
0.0
230
1.0
 70
     8
 71
     3
 72
     9
 73
     5
 74
     0
 42
0.000000001
 43
0.00000001
 40
0.0
 40
0.0
 40
0.0
 40
0.0
 40
0.6029743975620125
 40
1.0
 40
1.0
 40
1.0
 40
1.0
 10
63.60558837459561
 20
156.1034103617625
 30
0.0
 10
63.39214734813796
 20
156.3351796596187
 30
0.0
 10
63.03816710068359
 20
156.7195563409393
 30
0.0
 10
62.90672299718962
 20
157.2144377493446
 30
0.0
 10
62.854536322813
 20
157.4109183386521
 30
0.0
  0
ARC
  5
E6
330
1F
100
AcDbEntity
  8
0
  6
Continuous
 62
     7
370
    25
100
AcDbCircle
 10
83.1477240259
 20
154.6682363992
 30
0.0
 40
4.50150983929323
100
AcDbArc
 50
46.8551824389
 51
222.7161394379
  0
CIRCLE
  5
E7
330
1F
100
AcDbEntity
  8
0
  6
Continuous
 62
     7
370
    25
100
AcDbCircle
 10
83.0758610592
 20
154.7053258564
 30
0.0
 40
2.482235682964405
  0
SPLINE
  5
E8
330
1F
100
AcDbEntity
  8
0
  6
Continuous
 62
     7
370
    25
100
AcDbSpline
210
0.0
220
0.0
230
1.0
 70
     8
 71
     3
 72
    11
 73
     7
 74
     0
 42
0.000000001
 43
0.00000001
 40
0.0
 40
0.0
 40
0.0
 40
0.0
 40
0.1208911661670783
 40
0.4766717258455257
 40
0.8143663198151473
 40
1.0
 40
1.0
 40
1.0
 40
1.0
 10
84.77996147976395
 20
156.3019888237671
 30
0.0
 10
84.7015305566856
 20
156.3193782522712
 30
0.0
 10
84.39227881688728
 20
156.3879444606988
 30
0.0
 10
83.79140279662542
 20
156.5350359425901
 30
0.0
 10
83.09571981638764
 20
156.7337329545545
 30
0.0
 10
82.71116542208026
 20
156.8529597288759
 30
0.0
 10
82.57475726113793
 20
156.8952515483455
 30
0.0
  0
SPLINE
  5
E9
330
1F
100
AcDbEntity
  8
0
  6
Continuous
 62
     7
370
    25
100
AcDbSpline
210
0.0
220
0.0
230
1.0
 70
     8
 71
     3
 72
    10
 73
     6
 74
     0
 42
0.000000001
 43
0.00000001
 40
0.0
 40
0.0
 40
0.0
 40
0.0
 40
0.4391227012506636
 40
0.7513715989208601
 40
1.0
 40
1.0
 40
1.0
 40
1.0
 10
82.57475726113793
 20
156.8952515483455
 30
0.0
 10
82.35581791614041
 20
156.6465211369133
 30
0.0
 10
81.98119641456707
 20
156.2209249051407
 30
0.0
 10
81.38280536543948
 20
155.6564723453962
 30
0.0
 10
81.06885260264502
 20
155.3917695569076
 30
0.0
 10
80.9296821038532
 20
155.2744308248715
 30
0.0
  0
SPLINE
  5
EA
330
1F
100
AcDbEntity
  8
0
  6
Continuous
 62
     7
370
    25
100
AcDbSpline
210
0.0
220
0.0
230
1.0
 70
     8
 71
     3
 72
    10
 73
     6
 74
     0
 42
0.000000001
 43
0.00000001
 40
0.0
 40
0.0
 40
0.0
 40
0.0
 40
0.439122418608165
 40
0.7513715244991835
 40
0.9999999999999999
 40
0.9999999999999999
 40
0.9999999999999999
 40
0.9999999999999999
 10
80.9296821038532
 20
155.2744308248715
 30
0.0
 10
81.02643913318978
 20
154.9407691880249
 30
0.0
 10
81.19199769626447
 20
154.3698490023988
 30
0.0
 10
81.37885059955046
 20
153.5941434265345
 30
0.0
 10
81.45573246828297
 20
153.2242953756501
 30
0.0
 10
81.48981302783963
 20
153.0603473768191
 30
0.0
  0
SPLINE
  5
EB
330
1F
100
AcDbEntity
  8
0
  6
Continuous
 62
     7
370
    25
100
AcDbSpline
210
0.0
220
0.0
230
1.0
 70
     8
 71
     3
 72
    11
 73
     7
 74
     0
 42
0.000000001
 43
0.00000001
 40
0.0
 40
0.0
 40
0.0
 40
0.0
 40
0.1856335937894787
 40
0.5233286245238278
 40
0.8791082709646812
 40
1.0
 40
1.0
 40
1.0
 40
1.0
 10
81.48981302783963
 20
153.0603473768191
 30
0.0
 10
81.626221157652
 20
153.0180554905789
 30
0.0
 10
82.01077590063421
 20
152.8988283927095
 30
0.0
 10
82.70645991501524
 20
152.7001337753826
 30
0.0
 10
83.30733490279636
 20
152.5530406856134
 30
0.0
 10
83.61658753649998
 20
152.4844749786377
 30
0.0
 10
83.6950191091108
 20
152.4670855835633
 30
0.0
  0
SPLINE
  5
EC
330
1F
100
AcDbEntity
  8
0
  6
Continuous
 62
     7
370
    25
100
AcDbSpline
210
0.0
220
0.0
230
1.0
 70
     8
 71
     3
 72
    10
 73
     6
 74
     0
 42
0.000000001
 43
0.00000001
 40
0.0
 40
0.0
 40
0.0
 40
0.0
 40
0.439121837885205
 40
0.7513714452457929
 40
0.9999999999999999
 40
0.9999999999999999
 40
0.9999999999999999
 40
0.9999999999999999
 10
83.6950191091108
 20
152.4670855835633
 30
0.0
 10
83.94709650121948
 20
152.6824279326915
 30
0.0
 10
84.37842042565616
 20
153.0508953559158
 30
0.0
 10
84.95160516955292
 20
153.6407434443907
 30
0.0
 10
85.22077403669277
 20
153.9505671947059
 30
0.0
 10
85.34009240375039
 20
154.0879072383599
 30
0.0
  0
SPLINE
  5
ED
330
1F
100
AcDbEntity
  8
0
  6
Continuous
 62
     7
370
    25
100
AcDbSpline
210
0.0
220
0.0
230
1.0
 70
     8
 71
     3
 72
    10
 73
     6
 74
     0
 42
0.000000001
 43
0.00000001
 40
0.0
 40
0.0
 40
0.0
 40
0.0
 40
0.4391218976008797
 40
0.7513719024009013
 40
1.0
 40
1.0
 40
1.0
 40
1.0
 10
85.34009240375039
 20
154.0879072383599
 30
0.0
 10
85.27647371203601
 20
154.3881805094241
 30
0.0
 10
85.16761715607089
 20
154.9019715550366
 30
0.0
 10
84.9555609095037
 20
155.7030717724625
 30
0.0
 10
84.83389429974208
 20
156.118040131236
 30
0.0
 10
84.77996147976395
 20
156.3019888237671
 30
0.0
  0
LINE
  5
EE
330
1F
100
AcDbEntity
  8
0
  6
Continuous
 62
     7
370
    25
100
AcDbLine
 10
81.5114308874
 20
154.6883122758
 30
0.0
 11
80.9296821039
 21
155.2744308249
 31
0.0
  0
LINE
  5
EF
330
1F
100
AcDbEntity
  8
0
  6
Continuous
 62
     7
370
    25
100
AcDbLine
 10
81.5114308874
 20
154.6883122758
 30
0.0
 11
81.7914963494
 21
153.5812696204
 31
0.0
  0
LINE
  5
F0
330
1F
100
AcDbEntity
  8
0
  6
Continuous
 62
     7
370
    25
100
AcDbLine
 10
81.7914963494
 20
153.5812696204
 30
0.0
 11
81.9594268482
 21
152.9174806312
 31
0.0
  0
LINE
  5
F1
330
1F
100
AcDbEntity
  8
0
  6
Continuous
 62
     7
370
    25
100
AcDbLine
 10
84.9144295584
 20
155.8362027392
 30
0.0
 11
84.259108154
 21
156.0125021026
 31
0.0
  0
LINE
  5
F2
330
1F
100
AcDbEntity
  8
0
  6
Continuous
 62
     7
370
    25
100
AcDbLine
 10
84.259108154
 20
156.0125021026
 30
0.0
 11
83.1565060447
 21
156.3091320679
 31
0.0
  0
LINE
  5
F3
330
1F
100
AcDbEntity
  8
0
  6
Continuous
 62
     7
370
    25
100
AcDbLine
 10
83.1565060447
 20
156.3091320679
 30
0.0
 11
82.5747572611
 21
156.8952515483
 31
0.0
  0
LINE
  5
F4
330
1F
100
AcDbEntity
  8
0
  6
Continuous
 62
     7
370
    25
100
AcDbLine
 10
83.1565060447
 20
156.3091320679
 30
0.0
 11
82.3339693974
 21
155.4987231032
 31
0.0
  0
LINE
  5
F5
330
1F
100
AcDbEntity
  8
0
  6
Continuous
 62
     7
370
    25
100
AcDbLine
 10
82.3339693974
 20
155.4987231032
 30
0.0
 11
81.5114308874
 21
154.6883122758
 31
0.0
  0
ARC
  5
F6
330
1F
100
AcDbEntity
  8
0
  6
Continuous
 62
     7
370
    25
100
AcDbCircle
 10
83.7376864093
 20
154.0661297684
 30
0.0
 40
2.005678217487053
100
AcDbArc
 50
134.4166949076
 51
193.9894800237
  0
ARC
  5
F7
330
1F
100
AcDbEntity
  8
0
  6
Continuous
 62
     7
370
    25
100
AcDbCircle
 10
83.7452436334
 20
154.0743077757
 30
0.0
 40
2.005156850309536
100
AcDbArc
 50
75.1510604179
 51
134.734483035
  0
ARC
  5
F8
330
1F
100
AcDbEntity
  8
0
  6
Continuous
 62
     7
370
    25
100
AcDbCircle
 10
83.7536406089
 20
154.1298478207
 30
0.0
 40
1.949329265286697
100
AcDbArc
 50
51.5888249229
 51
74.9712725121
  0
ARC
  5
F9
330
1F
100
AcDbEntity
  8
0
  6
Continuous
 62
     7
370
    25
100
AcDbCircle
 10
83.6814765405
 20
154.0583190698
 30
0.0
 40
1.949256601841458
100
AcDbArc
 50
194.166117057
 51
219.3613974488
  0
ARC
  5
FA
330
1F
100
AcDbEntity
  8
0
  6
Continuous
 62
     7
370
    25
100
AcDbCircle
 10
223.2176523028
 20
151.3315875556
 30
0.0
 40
4.232747327555459
100
AcDbArc
 50
285.0208624015
 51
343.9150750809
  0
ARC
  5
FB
330
1F
100
AcDbEntity
  8
0
  6
Continuous
 62
     7
370
    25
100
AcDbCircle
 10
223.156978832
 20
151.4105121751
 30
0.0
 40
4.324868225908645
100
AcDbArc
 50
93.1393214332
 51
285.5262185376
  0
ARC
  5
FC
330
1F
100
AcDbEntity
  8
0
  6
Continuous
 62
     7
370
    25
100
AcDbCircle
 10
223.3011469127
 20
151.3964325791
 30
0.0
 40
4.819683785866316
100
AcDbArc
 50
285.0172655675
 51
311.4714655554
  0
ARC
  5
FD
330
1F
100
AcDbEntity
  8
0
  6
Continuous
 62
     7
370
    25
100
AcDbCircle
 10
223.2631829607
 20
151.5307956526
 30
0.0
 40
4.959295253037459
100
AcDbArc
 50
136.0273674425
 51
285.0386686852
  0
ELLIPSE
  5
FE
330
1F
100
AcDbEntity
  8
0
  6
Continuous
 62
     7
370
    25
100
AcDbEllipse
 10
222.1674103439
 20
150.4392869367
 30
0.0
 11
2.535702155389572
 21
4.747076950598455
 31
0.0
210
0.0
220
0.0
230
1.0
 40
0.9427838111
 41
0.0
 42
6.283185307179586
  0
SPLINE
  5
FF
330
1F
100
AcDbEntity
  8
0
  6
Continuous
 62
     7
370
    25
100
AcDbSpline
210
0.0
220
0.0
230
1.0
 70
     8
 71
     3
 72
    12
 73
     8
 74
     0
 42
0.000000001
 43
0.00000001
 40
0.0
 40
0.0
 40
0.0
 40
0.0
 40
0.1999069242049515
 40
0.3987002359736799
 40
0.6309540160010815
 40
0.8927608522796491
 40
0.9999999999999999
 40
0.9999999999999999
 40
0.9999999999999999
 40
0.9999999999999999
 10
235.0287106613922
 20
136.2213982031302
 30
0.0
 10
235.164081867643
 20
136.680918750566
 30
0.0
 10
235.4340701739054
 20
137.5974000151647
 30
0.0
 10
236.4411361357839
 20
138.7778476979515
 30
0.0
 10
237.8369488597295
 20
139.7332743096566
 30
0.0
 10
239.2753789995828
 20
140.1897339833701
 30
0.0
 10
240.1806232302767
 20
140.2134581657762
 30
0.0
 10
240.4436734299469
 20
140.2203520522074
 30
0.0
  0
LINE
  5
100
330
1F
100
AcDbEntity
  8
0
  6
Continuous
 62
     7
370
    25
100
AcDbLine
 10
235.0285362304
 20
136.2203510265
 30
0.0
 11
235.0287157449
 21
136.2213994631
 31
0.0
  0
LINE
  5
101
330
1F
100
AcDbEntity
  8
0
  6
Continuous
 62
     7
370
    25
100
AcDbLine
 10
235.0285318475
 20
136.2203513966
 30
0.0
 11
180.2562740426
 21
136.2203513966
 31
0.0
  0
LINE
  5
102
330
1F
100
AcDbEntity
  8
0
  6
Continuous
 62
     7
370
    25
100
AcDbLine
 10
198.6803528647
 20
168.1317752921
 30
0.0
 11
180.2562740426
 21
136.2203513966
 31
0.0
  0
LINE
  5
103
330
1F
100
AcDbEntity
  8
0
  6
Continuous
 62
     7
370
    25
100
AcDbLine
 10
232.4376669507
 20
168.1317752921
 30
0.0
 11
198.6803528647
 21
168.1317752921
 31
0.0
  0
LINE
  5
104
330
1F
100
AcDbEntity
  8
0
  6
Continuous
 62
     7
370
    25
100
AcDbLine
 10
247.3985221963
 20
162.6664247126
 30
0.0
 11
232.4376669507
 21
168.1317752921
 31
0.0
  0
ELLIPSE
  5
105
330
1F
100
AcDbEntity
  8
0
  6
Continuous
 62
     7
370
    25
100
AcDbEllipse
 10
180.2562804799
 20
582.5384428205
 30
0.0
 11
-8.810729923425242E-13
 21
524.2243350948319
 31
0.0
210
0.0
220
0.0
230
1.0
 40
0.2139127227
 41
3.708143446539493
 42
3.783526157659741
  0
LINE
  5
106
330
1F
100
AcDbEntity
  8
0
  6
Continuous
 62
     7
370
    25
100
AcDbLine
 10
240.4436734299
 20
140.2203520522
 30
0.0
 11
249.3478623013
 21
140.2203520522
 31
0.0
  0
LINE
  5
107
330
1F
100
AcDbEntity
  8
0
  6
Continuous
 62
     7
370
    25
100
AcDbLine
 10
235.0285318475
 20
98.3083477006
 30
0.0
 11
180.2562740426
 21
98.3083477006
 31
0.0
  0
LINE
  5
108
330
1F
100
AcDbEntity
  8
0
  6
Continuous
 62
     7
370
    25
100
AcDbLine
 10
235.0285318475
 20
136.2203513966
 30
0.0
 11
235.0285318475
 21
98.3083477006
 31
0.0
  0
LINE
  5
109
330
1F
100
AcDbEntity
  8
0
  6
Continuous
 62
     7
370
    25
100
AcDbLine
 10
180.2562740426
 20
136.2203513966
 30
0.0
 11
180.2562740426
 21
98.3083477006
 31
0.0
  0
LINE
  5
10A
330
1F
100
AcDbEntity
  8
0
  6
Continuous
 62
     7
370
    25
100
AcDbLine
 10
180.2562740426
 20
98.0083500729
 30
0.0
 11
235.2190878968
 21
98.0083500729
 31
0.0
  0
ARC
  5
10B
330
1F
100
AcDbEntity
  8
0
  6
Continuous
 62
     7
370
    25
100
AcDbCircle
 10
180.2562804799
 20
63.3083510265
 30
0.0
 40
64.99999999999966
100
AcDbArc
 50
32.2656942016
 51
32.5789703928
  0
LINE
  5
10C
330
1F
100
AcDbEntity
  8
0
  6
Continuous
 62
     7
370
    25
100
AcDbLine
 10
180.2562740426
 20
98.0083500729
 30
0.0
 11
180.2562740426
 21
98.3083477006
 31
0.0
  0
LINE
  5
10D
330
1F
100
AcDbEntity
  8
0
  6
Continuous
 62
     7
370
    25
100
AcDbLine
 10
245.2562865596
 20
115.4583511636
 30
0.0
 11
244.4025990348
 21
115.4583511636
 31
0.0
  0
LINE
  5
10E
330
1F
100
AcDbEntity
  8
0
  6
Continuous
 62
     7
370
    25
100
AcDbLine
 10
244.4025990348
 20
115.4583511636
 30
0.0
 11
244.4025990348
 21
106.4583515511
 31
0.0
  0
LINE
  5
10F
330
1F
100
AcDbEntity
  8
0
  6
Continuous
 62
     7
370
    25
100
AcDbLine
 10
244.4025990348
 20
106.4583515511
 30
0.0
 11
244.9048426728
 21
106.4583515511
 31
0.0
  0
LINE
  5
110
330
1F
100
AcDbEntity
  8
0
  6
Continuous
 62
     7
370
    25
100
AcDbLine
 10
244.9048426728
 20
106.4583515511
 30
0.0
 11
244.9048426728
 21
98.958351253
 31
0.0
  0
LINE
  5
111
330
1F
100
AcDbEntity
  8
0
  6
Continuous
 62
     7
370
    25
100
AcDbLine
 10
244.9048426728
 20
98.958351253
 30
0.0
 11
243.9430174212
 21
98.958351253
 31
0.0
  0
LINE
  5
112
330
1F
100
AcDbEntity
  8
0
  6
Continuous
 62
     7
370
    25
100
AcDbLine
 10
243.9430174212
 20
98.958351253
 30
0.0
 11
243.9430174212
 21
97.5103532658
 31
0.0
  0
SPLINE
  5
113
330
1F
100
AcDbEntity
  8
0
  6
Continuous
 62
     7
370
    25
100
AcDbSpline
210
0.0
220
0.0
230
1.0
 70
     8
 71
     3
 72
    11
 73
     7
 74
     0
 42
0.000000001
 43
0.00000001
 40
0.0
 40
0.0
 40
0.0
 40
0.0
 40
0.1318538203946936
 40
0.4468897058744659
 40
0.7681085080923883
 40
1.0
 40
1.0
 40
1.0
 40
1.0
 10
243.9174321274566
 20
97.4383508548693
 30
0.0
 10
243.918167168718
 20
97.44398321772024
 30
0.0
 10
243.9206584304206
 20
97.46307288057793
 30
0.0
 10
243.9267105389499
 20
97.48928058260358
 30
0.0
 10
243.9350109469046
 20
97.50756644847708
 30
0.0
 10
243.9406522886772
 20
97.50953003295973
 30
0.0
 10
243.9430174212265
 20
97.51035326575797
 30
0.0
  0
ELLIPSE
  5
114
330
1F
100
AcDbEntity
  8
0
  6
Continuous
 62
     7
370
    25
100
AcDbEllipse
 10
180.2562804799
 20
120.1710115249
 30
0.0
 11
-6.536993168992922E-13
 21
112.5833024919779
 31
0.0
210
0.0
220
0.0
230
1.0
 40
0.5773502692
 41
4.498013510893026
 42
4.50907252499119
  0
LINE
  5
115
330
1F
100
AcDbEntity
  8
0
  6
Continuous
 62
     7
370
    25
100
AcDbLine
 10
243.6924841981
 20
96.2203522906
 30
0.0
 11
243.7683907132
 21
96.2203522906
 31
0.0
  0
ELLIPSE
  5
116
330
1F
100
AcDbEntity
  8
0
  6
Continuous
 62
     7
370
    25
100
AcDbEllipse
 10
180.2562804799
 20
71.673588913
 30
0.0
 11
7.105427357601002E-13
 21
112.583302491979
 31
0.0
210
0.0
220
0.0
230
1.0
 40
0.5773502692
 41
4.932186476517035
 42
4.943285817003972
  0
SPLINE
  5
117
330
1F
100
AcDbEntity
  8
0
  6
Continuous
 62
     7
370
    25
100
AcDbSpline
210
0.0
220
0.0
230
1.0
 70
     8
 71
     3
 72
    14
 73
    10
 74
     0
 42
0.000000001
 43
0.00000001
 40
0.0
 40
0.0
 40
0.0
 40
0.0
 40
0.0638724044641991
 40
0.220376887295457
 40
0.3809654071277903
 40
0.5454883548693531
 40
0.7120908582011773
 40
0.877848976397756
 40
1.0
 40
1.0
 40
1.0
 40
1.0
 10
243.4721258263397
 20
97.4383508548693
 30
0.0
 10
243.4729524886156
 20
97.44381977353616
 30
0.0
 10
243.4758046946779
 20
97.46268900638849
 30
0.0
 10
243.4827502788431
 20
97.4890099973503
 30
0.0
 10
243.4933892148783
 20
97.5087443688566
 30
0.0
 10
243.50516298457
 20
97.51256963397518
 30
0.0
 10
243.5166307918438
 20
97.4991665467786
 30
0.0
 10
243.525743183556
 20
97.47277556615305
 30
0.0
 10
243.5296330747024
 20
97.44860548108106
 30
0.0
 10
243.5312834362793
 20
97.4383508548693
 30
0.0
  0
ELLIPSE
  5
118
330
1F
100
AcDbEntity
  8
0
  6
Continuous
 62
     7
370
    25
100
AcDbEllipse
 10
180.2562804799
 20
123.6351131401
 30
0.0
 11
-6.536993168992922E-13
 21
112.5833024919779
 31
0.0
210
0.0
220
0.0
230
1.0
 40
0.5773502692
 41
4.466409471982773
 42
4.477548538364694
  0
LINE
  5
119
330
1F
100
AcDbEntity
  8
0
  6
Continuous
 62
     7
370
    25
100
AcDbLine
 10
243.2123240809
 20
96.2203522906
 30
0.0
 11
243.2997342925
 21
96.2203522906
 31
0.0
  0
ELLIPSE
  5
11A
330
1F
100
AcDbEntity
  8
0
  6
Continuous
 62
     7
370
    25
100
AcDbEllipse
 10
180.2562804799
 20
68.2094872979
 30
0.0
 11
7.105427357601002E-13
 21
112.583302491979
 31
0.0
210
0.0
220
0.0
230
1.0
 40
0.5773502692
 41
4.963831344956739
 42
4.975017547944805
  0
SPLINE
  5
11B
330
1F
100
AcDbEntity
  8
0
  6
Continuous
 62
     7
370
    25
100
AcDbSpline
210
0.0
220
0.0
230
1.0
 70
     8
 71
     3
 72
    14
 73
    10
 74
     0
 42
0.000000001
 43
0.00000001
 40
0.0
 40
0.0
 40
0.0
 40
0.0
 40
0.0614805616742523
 40
0.2166405982819584
 40
0.3770225981524536
 40
0.54252234969831
 40
0.7107646052930633
 40
0.8780097995439312
 40
1.0
 40
1.0
 40
1.0
 40
1.0
 10
242.9598984103012
 20
97.4383508548693
 30
0.0
 10
242.9608135301067
 20
97.44363679430063
 30
0.0
 10
242.9640381607341
 20
97.46226299174742
 30
0.0
 10
242.9718273881202
 20
97.48849602250486
 30
0.0
 10
242.9838983075246
 20
97.50850333628222
 30
0.0
 10
242.9974180581021
 20
97.51267708461509
 30
0.0
 10
243.0105920752126
 20
97.49945360260584
 30
0.0
 10
243.0211067078901
 20
97.4729748494545
 30
0.0
 10
243.0255964489072
 20
97.44862207361082
 30
0.0
 10
243.0274900774765
 20
97.4383508548693
 30
0.0
  0
ELLIPSE
  5
11C
330
1F
100
AcDbEntity
  8
0
  6
Continuous
 62
     7
370
    25
100
AcDbEllipse
 10
180.2562804799
 20
127.0992147552
 30
0.0
 11
-6.536993168992921E-13
 21
112.5833024919779
 31
0.0
210
0.0
220
0.0
230
1.0
 40
0.5773502692
 41
4.434552546171838
 42
4.445784874691169
  0
LINE
  5
11D
330
1F
100
AcDbEntity
  8
0
  6
Continuous
 62
     7
370
    25
100
AcDbLine
 10
242.664423285
 20
96.2203522906
 30
0.0
 11
242.7636054139
 21
96.2203522906
 31
0.0
  0
ELLIPSE
  5
11E
330
1F
100
AcDbEntity
  8
0
  6
Continuous
 62
     7
370
    25
100
AcDbEllipse
 10
180.2562804799
 20
64.7453856827
 30
0.0
 11
7.105427357601002E-13
 21
112.583302491979
 31
0.0
210
0.0
220
0.0
230
1.0
 40
0.5773502692
 41
4.995735678289508
 42
5.007022428479746
  0
SPLINE
  5
11F
330
1F
100
AcDbEntity
  8
0
  6
Continuous
 62
     7
370
    25
100
AcDbSpline
210
0.0
220
0.0
230
1.0
 70
     8
 71
     3
 72
    14
 73
    10
 74
     0
 42
0.000000001
 43
0.00000001
 40
0.0
 40
0.0
 40
0.0
 40
0.0
 40
0.0587716998767633
 40
0.2124044777312614
 40
0.3725137790182926
 40
0.5390720516987172
 40
0.709230004624464
 40
0.8782124571069447
 40
1.0
 40
1.0
 40
1.0
 40
1.0
 10
242.3791107516098
 20
97.4383508548693
 30
0.0
 10
242.3800936823692
 20
97.44342836294493
 30
0.0
 10
242.383646053579
 20
97.46177878420632
 30
0.0
 10
242.3923030891176
 20
97.48790713293052
 30
0.0
 10
242.4058222595888
 20
97.5082121633335
 30
0.0
 10
242.4210898543667
 20
97.51279901867088
 30
0.0
 10
242.4361045460439
 20
97.49977879440664
 30
0.0
 10
242.4480899519584
 20
97.47320268515064
 30
0.0
 10
242.4532033650495
 20
97.44863916227267
 30
0.0
 10
242.4553450922775
 20
97.4383508548693
 30
0.0
  0
ELLIPSE
  5
120
330
1F
100
AcDbEntity
  8
0
  6
Continuous
 62
     7
370
    25
100
AcDbEllipse
 10
180.2562804799
 20
130.5633163703
 30
0.0
 11
-6.536993168992922E-13
 21
112.5833024919779
 31
0.0
210
0.0
220
0.0
230
1.0
 40
0.5773502692
 41
4.402403375482246
 42
4.413743125713164
  0
LINE
  5
121
330
1F
100
AcDbEntity
  8
0
  6
Continuous
 62
     7
370
    25
100
AcDbLine
 10
242.0469489674
 20
96.2203522906
 30
0.0
 11
242.1582457404
 21
96.2203522906
 31
0.0
  0
ELLIPSE
  5
122
330
1F
100
AcDbEntity
  8
0
  6
Continuous
 62
     7
370
    25
100
AcDbEllipse
 10
180.2562804799
 20
61.2812840676
 30
0.0
 11
7.105427357601002E-13
 21
112.583302491979
 31
0.0
210
0.0
220
0.0
230
1.0
 40
0.5773502692
 41
5.027939322851236
 42
5.039341353291412
  0
SPLINE
  5
123
330
1F
100
AcDbEntity
  8
0
  6
Continuous
 62
     7
370
    25
100
AcDbSpline
210
0.0
220
0.0
230
1.0
 70
     8
 71
     3
 72
    14
 73
    10
 74
     0
 42
0.000000001
 43
0.00000001
 40
0.0
 40
0.0
 40
0.0
 40
0.0
 40
0.0557853103623198
 40
0.2076915712015477
 40
0.3674519771148076
 40
0.535163663353362
 40
0.7074642760710236
 40
0.8784449395291364
 40
1.0
 40
1.0
 40
1.0
 40
1.0
 10
241.7277958969879
 20
97.4383508548693
 30
0.0
 10
241.7288379140504
 20
97.44319705475041
 30
0.0
 10
241.7327173970095
 20
97.46123970542556
 30
0.0
 10
241.7422173331755
 20
97.48725257031418
 30
0.0
 10
241.7571986310956
 20
97.50788197455057
 30
0.0
 10
241.7742975144783
 20
97.51293618976823
 30
0.0
 10
241.7912156291256
 20
97.50013448517267
 30
0.0
 10
241.8047667178976
 20
97.47347080731514
 30
0.0
 10
241.8105415582266
 20
97.44866020756227
 30
0.0
 10
241.8129411320495
 20
97.4383508548693
 30
0.0
  0
ELLIPSE
  5
124
330
1F
100
AcDbEntity
  8
0
  6
Continuous
 62
     7
370
    25
100
AcDbEllipse
 10
180.2562804799
 20
134.0274179855
 30
0.0
 11
-6.536993168992922E-13
 21
112.5833024919779
 31
0.0
210
0.0
220
0.0
230
1.0
 40
0.5773502692
 41
4.369919530602123
 42
4.38138200802837
  0
LINE
  5
125
330
1F
100
AcDbEntity
  8
0
  6
Continuous
 62
     7
370
    25
100
AcDbLine
 10
241.3578298669
 20
96.2203522906
 30
0.0
 11
241.4816138129
 21
96.2203522906
 31
0.0
  0
ELLIPSE
  5
126
330
1F
100
AcDbEntity
  8
0
  6
Continuous
 62
     7
370
    25
100
AcDbEllipse
 10
180.2562804799
 20
57.8171824524
 30
0.0
 11
7.105427357601001E-13
 21
112.583302491979
 31
0.0
210
0.0
220
0.0
230
1.0
 40
0.5773502692
 41
5.060485296679793
 42
5.072018603413827
  0
SPLINE
  5
127
330
1F
100
AcDbEntity
  8
0
  6
Continuous
 62
     7
370
    25
100
AcDbSpline
210
0.0
220
0.0
230
1.0
 70
     8
 71
     3
 72
    14
 73
    10
 74
     0
 42
0.000000001
 43
0.00000001
 40
0.0
 40
0.0
 40
0.0
 40
0.0
 40
0.0524955141897611
 40
0.2024572014822056
 40
0.3617550659043864
 40
0.5307052275389637
 40
0.7054230693609599
 40
0.8787431208162013
 40
1.0
 40
1.0
 40
1.0
 40
1.0
 10
241.0036888699341
 20
97.4383508548693
 30
0.0
 10
241.0047817951582
 20
97.44293775637908
 30
0.0
 10
241.0089968330661
 20
97.46062786300011
 30
0.0
 10
241.019286712962
 20
97.48650832906014
 30
0.0
 10
241.035737565577
 20
97.50749384629864
 30
0.0
 10
241.0547397331775
 20
97.51306688348949
 30
0.0
 10
241.0736834182365
 20
97.50053996700062
 30
0.0
 10
241.088910844823
 20
97.47376756097282
 30
0.0
 10
241.0953906412663
 20
97.44867834424517
 30
0.0
 10
241.0980579237747
 20
97.4383508548693
 30
0.0
  0
ELLIPSE
  5
128
330
1F
100
AcDbEntity
  8
0
  6
Continuous
 62
     7
370
    25
100
AcDbEllipse
 10
180.2562804799
 20
137.4915196006
 30
0.0
 11
-6.536993168992921E-13
 21
112.583302491978
 31
0.0
210
0.0
220
0.0
230
1.0
 40
0.5773502692
 41
4.337054882769624
 42
4.348656772490484
  0
LINE
  5
129
330
1F
100
AcDbEntity
  8
0
  6
Continuous
 62
     7
370
    25
100
AcDbLine
 10
240.5945774894
 20
96.2203522906
 30
0.0
 11
240.7313254456
 21
96.2203522906
 31
0.0
  0
ELLIPSE
  5
12A
330
1F
100
AcDbEntity
  8
0
  6
Continuous
 62
     7
370
    25
100
AcDbEllipse
 10
180.2562804799
 20
54.3530808373
 30
0.0
 11
7.105427357601002E-13
 21
112.583302491979
 31
0.0
210
0.0
220
0.0
230
1.0
 40
0.5773502692
 41
5.093420437250595
 42
5.105102536843218
  0
SPLINE
  5
12B
330
1F
100
AcDbEntity
  8
0
  6
Continuous
 62
     7
370
    25
100
AcDbSpline
210
0.0
220
0.0
230
1.0
 70
     8
 71
     3
 72
    14
 73
    10
 74
     0
 42
0.000000001
 43
0.00000001
 40
0.0
 40
0.0
 40
0.0
 40
0.0
 40
0.0489320836792355
 40
0.1967072455143403
 40
0.3554305483545508
 40
0.5256674696716491
 40
0.7030939164230848
 40
0.8790969705554715
 40
1.0
 40
1.0
 40
1.0
 40
1.0
 10
240.2041670660782
 20
97.4383508548693
 30
0.0
 10
240.2052915222916
 20
97.4426560956648
 30
0.0
 10
240.2098118424538
 20
97.45996318734137
 30
0.0
 10
240.2208588222341
 20
97.48568351214398
 30
0.0
 10
240.2388337877086
 20
97.50704322676815
 30
0.0
 10
240.25976809453
 20
97.51320334549644
 30
0.0
 10
240.2809135199454
 20
97.50100162001094
 30
0.0
 10
240.2979064909266
 20
97.47410271904091
 30
0.0
 10
240.3051415700388
 20
97.44869650926488
 30
0.0
 10
240.308087764244
 20
97.4383508548693
 30
0.0
  0
ELLIPSE
  5
12C
330
1F
100
AcDbEntity
  8
0
  6
Continuous
 62
     7
370
    25
100
AcDbEllipse
 10
180.2562804799
 20
140.9556212158
 30
0.0
 11
-6.536993168992921E-13
 21
112.5833024919779
 31
0.0
210
0.0
220
0.0
230
1.0
 40
0.5773502692
 41
4.303758848518039
 42
4.315518497436169
  0
LINE
  5
12D
330
1F
100
AcDbEntity
  8
0
  6
Continuous
 62
     7
370
    25
100
AcDbLine
 10
239.7543606143
 20
96.2203522906
 30
0.0
 11
239.9045643191
 21
96.2203522906
 31
0.0
  0
ELLIPSE
  5
12E
330
1F
100
AcDbEntity
  8
0
  6
Continuous
 62
     7
370
    25
100
AcDbEllipse
 10
180.2562804799
 20
50.8889792222
 30
0.0
 11
7.105427357601002E-13
 21
112.583302491979
 31
0.0
210
0.0
220
0.0
230
1.0
 40
0.5773502692
 41
5.126796182127585
 42
5.138646424793397
  0
SPLINE
  5
12F
330
1F
100
AcDbEntity
  8
0
  6
Continuous
 62
     7
370
    25
100
AcDbSpline
210
0.0
220
0.0
230
1.0
 70
     8
 71
     3
 72
    14
 73
    10
 74
     0
 42
0.000000001
 43
0.00000001
 40
0.0
 40
0.0
 40
0.0
 40
0.0
 40
0.0450593596931449
 40
0.1904182171027056
 40
0.3484271070514837
 40
0.5200092770988002
 40
0.7004356055954484
 40
0.8795058994832722
 40
1.0
 40
1.0
 40
1.0
 40
1.0
 10
239.3261608462143
 20
97.4383508548693
 30
0.0
 10
239.3272915507872
 20
97.4423471234091
 30
0.0
 10
239.3320698421415
 20
97.4592351203889
 30
0.0
 10
239.3439096217679
 20
97.48475364253368
 30
0.0
 10
239.3633762889673
 20
97.50654585235971
 30
0.0
 10
239.3863718999635
 20
97.51332345980477
 30
0.0
 10
239.40985019066
 20
97.50150981229869
 30
0.0
 10
239.428754094573
 20
97.47448245462562
 30
0.0
 10
239.4368100612814
 20
97.44871523189177
 30
0.0
 10
239.4400504212188
 20
97.4383508548693
 30
0.0
  0
ELLIPSE
  5
130
330
1F
100
AcDbEntity
  8
0
  6
Continuous
 62
     7
370
    25
100
AcDbEllipse
 10
180.2562804799
 20
144.4197228309
 30
0.0
 11
-6.536993168992922E-13
 21
112.5833024919779
 31
0.0
210
0.0
220
0.0
230
1.0
 40
0.5773502692
 41
4.26997546930476
 42
4.281913231430895
  0
LINE
  5
131
330
1F
100
AcDbEntity
  8
0
  6
Continuous
 62
     7
370
    25
100
AcDbLine
 10
238.8338711839
 20
96.2203522906
 30
0.0
 11
238.9981415849
 21
96.2203522906
 31
0.0
  0
ELLIPSE
  5
132
330
1F
100
AcDbEntity
  8
0
  6
Continuous
 62
     7
370
    25
100
AcDbEllipse
 10
180.2562804799
 20
47.424877607
 30
0.0
 11
7.105427357601002E-13
 21
112.583302491979
 31
0.0
210
0.0
220
0.0
230
1.0
 40
0.5773502692
 41
5.160669522472736
 42
5.172709477943545
  0
SPLINE
  5
133
330
1F
100
AcDbEntity
  8
0
  6
Continuous
 62
     7
370
    25
100
AcDbSpline
210
0.0
220
0.0
230
1.0
 70
     8
 71
     3
 72
    14
 73
    10
 74
     0
 42
0.000000001
 43
0.00000001
 40
0.0
 40
0.0
 40
0.0
 40
0.0
 40
0.0409082808250301
 40
0.1835875234055636
 40
0.3406890908534622
 40
0.5136370067094878
 40
0.697379444177966
 40
0.8799794661366007
 40
1.0
 40
1.0
 40
1.0
 40
1.0
 10
238.366108832817
 20
97.4383508548693
 30
0.0
 10
238.3672329825062
 20
97.44201043822883
 30
0.0
 10
238.3722779233646
 20
97.45843385745171
 30
0.0
 10
238.3848026456936
 20
97.48374778078298
 30
0.0
 10
238.4058184921397
 20
97.50594523027756
 30
0.0
 10
238.4309538668048
 20
97.51345957055032
 30
0.0
 10
238.4569305707874
 20
97.50204984678653
 30
0.0
 10
238.4779485644951
 20
97.47491933246205
 30
0.0
 10
238.4868956654628
 20
97.44873547744947
 30
0.0
 10
238.4904441218185
 20
97.4383508548693
 30
0.0
  0
ELLIPSE
  5
134
330
1F
100
AcDbEntity
  8
0
  6
Continuous
 62
     7
370
    25
100
AcDbEllipse
 10
180.2562804799
 20
147.883824446
 30
0.0
 11
-6.536993168992922E-13
 21
112.5833024919779
 31
0.0
210
0.0
220
0.0
230
1.0
 40
0.5773502692
 41
4.235642274759355
 42
4.247780939487198
  0
LINE
  5
135
330
1F
100
AcDbEntity
  8
0
  6
Continuous
 62
     7
370
    25
100
AcDbLine
 10
237.8292348962
 20
96.2203522906
 30
0.0
 11
238.0083021502
 21
96.2203522906
 31
0.0
  0
ELLIPSE
  5
136
330
1F
100
AcDbEntity
  8
0
  6
Continuous
 62
     7
370
    25
100
AcDbEllipse
 10
180.2562804799
 20
43.9607759919
 30
0.0
 11
7.105427357601001E-13
 21
112.583302491979
 31
0.0
210
0.0
220
0.0
230
1.0
 40
0.5773502692
 41
5.195104183484691
 42
5.207358123062741
  0
SPLINE
  5
137
330
1F
100
AcDbEntity
  8
0
  6
Continuous
 62
     7
370
    25
100
AcDbSpline
210
0.0
220
0.0
230
1.0
 70
     8
 71
     3
 72
    14
 73
    10
 74
     0
 42
0.000000001
 43
0.00000001
 40
0.0
 40
0.0
 40
0.0
 40
0.0
 40
0.0364806946987262
 40
0.1761985188984041
 40
0.3322038876473403
 40
0.5065124029727222
 40
0.6938728681471568
 40
0.8805378326262107
 40
1.0
 40
1.0
 40
1.0
 40
1.0
 10
237.3198685030746
 20
97.4383508548693
 30
0.0
 10
237.3209669435809
 20
97.44164406023062
 30
0.0
 10
237.326272313775
 20
97.45754994995903
 30
0.0
 10
237.3394567750132
 20
97.4826169743761
 30
0.0
 10
237.3620195042429
 20
97.50528035142092
 30
0.0
 10
237.3894086668669
 20
97.51355908912707
 30
0.0
 10
237.4180874232558
 20
97.50266859351147
 30
0.0
 10
237.4414059801886
 20
97.47540595588467
 30
0.0
 10
237.4513286536265
 20
97.4487521565176
 30
0.0
 10
237.4552008490371
 20
97.4383508548693
 30
0.0
  0
ELLIPSE
  5
138
330
1F
100
AcDbEntity
  8
0
  6
Continuous
 62
     7
370
    25
100
AcDbEllipse
 10
180.2562804799
 20
151.3479260612
 30
0.0
 11
-6.536993168992921E-13
 21
112.5833024919779
 31
0.0
210
0.0
220
0.0
230
1.0
 40
0.5773502692
 41
4.20068885918313
 42
4.213054189926982
  0
LINE
  5
139
330
1F
100
AcDbEntity
  8
0
  6
Continuous
 62
     7
370
    25
100
AcDbLine
 10
236.7359814029
 20
96.2203522906
 30
0.0
 11
236.9306501727
 21
96.2203522906
 31
0.0
  0
ELLIPSE
  5
13A
330
1F
100
AcDbEntity
  8
0
  6
Continuous
 62
     7
370
    25
100
AcDbEllipse
 10
180.2562804799
 20
40.4966743768
 30
0.0
 11
7.105427357601001E-13
 21
112.583302491979
 31
0.0
210
0.0
220
0.0
230
1.0
 40
0.5773502692
 41
5.230172106206494
 42
5.242667613658157
  0
SPLINE
  5
13B
330
1F
100
AcDbEntity
  8
0
  6
Continuous
 62
     7
370
    25
100
AcDbSpline
210
0.0
220
0.0
230
1.0
 70
     8
 71
     3
 72
    14
 73
    10
 74
     0
 42
0.000000001
 43
0.00000001
 40
0.0
 40
0.0
 40
0.0
 40
0.0
 40
0.031784713845005
 40
0.1682386557066921
 40
0.32289959819708
 40
0.4985287525318458
 40
0.6898519523231379
 40
0.881174523814125
 40
1.0
 40
1.0
 40
1.0
 40
1.0
 10
236.1826118807602
 20
97.4383508548693
 30
0.0
 10
236.1836549359146
 20
97.44125079359331
 30
0.0
 10
236.1891758979052
 20
97.45660036681709
 30
0.0
 10
236.2029815318749
 20
97.48138551286794
 30
0.0
 10
236.2270972731616
 20
97.50451968340369
 30
0.0
 10
236.2568750252935
 20
97.51365541921356
 30
0.0
 10
236.2884894019456
 20
97.50332764200628
 30
0.0
 10
236.3143622228398
 20
97.47596598129518
 30
0.0
 10
236.3253661527688
 20
97.4487702282355
 30
0.0
 10
236.3295820336151
 20
97.4383508548693
 30
0.0
  0
ELLIPSE
  5
13C
330
1F
100
AcDbEntity
  8
0
  6
Continuous
 62
     7
370
    25
100
AcDbEllipse
 10
180.2562804799
 20
154.8120276763
 30
0.0
 11
-6.536993168992922E-13
 21
112.5833024919779
 31
0.0
210
0.0
220
0.0
230
1.0
 40
0.5773502692
 41
4.165035072979998
 42
4.177656494661195
  0
LINE
  5
13D
330
1F
100
AcDbEntity
  8
0
  6
Continuous
 62
     7
370
    25
100
AcDbLine
 10
235.7600745539
 20
96.2203522906
 30
0.0
 11
235.548850594
 21
96.2203522906
 31
0.0
  0
ELLIPSE
  5
13E
330
1F
100
AcDbEntity
  8
0
  6
Continuous
 62
     7
370
    25
100
AcDbEllipse
 10
180.2562804799
 20
37.0325727616
 30
0.0
 11
7.105427357601002E-13
 21
112.58330249198
 31
0.0
210
0.0
220
0.0
230
1.0
 40
0.5773502692
 41
5.265955335045238
 42
5.275531579644321
  0
LINE
  5
13F
330
1F
100
AcDbEntity
  8
0
  6
Continuous
 62
     7
370
    25
100
AcDbLine
 10
235.2190878968
 20
97.134732245
 30
0.0
 11
235.2190878968
 21
98.0083500729
 31
0.0
  0
LINE
  5
140
330
1F
100
AcDbEntity
  8
0
  6
Continuous
 62
     7
370
    25
100
AcDbLine
 10
180.2562740426
 20
97.134732245
 30
0.0
 11
235.2190878968
 21
97.134732245
 31
0.0
  0
LINE
  5
141
330
1F
100
AcDbEntity
  8
0
  6
Continuous
 62
     7
370
    25
100
AcDbLine
 10
180.2562740426
 20
97.134732245
 30
0.0
 11
180.2562740426
 21
98.0083500729
 31
0.0
  0
LINE
  5
142
330
1F
100
AcDbEntity
  8
0
  6
Continuous
 62
     7
370
    25
100
AcDbLine
 10
235.548850594
 20
96.2203522906
 30
0.0
 11
180.2562740426
 21
96.2203522906
 31
0.0
  0
LINE
  5
143
330
1F
100
AcDbEntity
  8
0
  6
Continuous
 62
     7
370
    25
100
AcDbLine
 10
180.2562740426
 20
97.134732245
 30
0.0
 11
180.2562740426
 21
96.2203522906
 31
0.0
  0
ELLIPSE
  5
144
330
1F
100
AcDbEntity
  8
0
  6
Continuous
 62
     7
370
    25
100
AcDbEllipse
 10
176.0578078365
 20
174.0529074649
 30
0.0
 11
74.41974730685175
 21
-26.64721765342543
 31
0.0
210
0.0
220
0.0
230
1.0
 40
0.1478633541
 41
6.208816020087943
 42
6.270258071457492
  0
LINE
  5
145
330
1F
100
AcDbEntity
  8
0
  6
Continuous
 62
     7
370
    25
100
AcDbLine
 10
250.4204031806
 20
147.2656694934
 30
0.0
 11
250.2966788392
 21
146.4700368926
 31
0.0
  0
ELLIPSE
  5
146
330
1F
100
AcDbEntity
  8
0
  6
Continuous
 62
     7
370
    25
100
AcDbEllipse
 10
176.0656329571
 20
173.1918187903
 30
0.0
 11
74.28104365287186
 21
-26.59755252299047
 31
0.0
210
0.0
220
0.0
230
1.0
 40
0.1478633541
 41
6.271715201954909
 42
6.282866807607875
  0
ELLIPSE
  5
147
330
1F
100
AcDbEntity
  8
0
  6
Continuous
 62
     7
370
    25
100
AcDbEllipse
 10
175.8890786738
 20
192.6201320101
 30
0.0
 11
77.41054484579153
 21
-27.71812202842754
 31
0.0
210
0.0
220
0.0
230
1.0
 40
0.1478633541
 41
5.939732084026713
 42
6.180982558544868
  0
LINE
  5
148
330
1F
100
AcDbEntity
  8
0
  6
Continuous
 62
     7
370
    25
100
AcDbLine
 10
252.4775382857
 20
163.8788511739
 30
0.0
 11
249.9790903907
 21
146.6617440567
 31
0.0
  0
LINE
  5
149
330
1F
100
AcDbEntity
  8
0
  6
Continuous
 62
     7
370
    25
100
AcDbLine
 10
236.7359814029
 20
96.2203522906
 30
0.0
 11
235.7600745539
 21
96.2203522906
 31
0.0
  0
LINE
  5
14A
330
1F
100
AcDbEntity
  8
0
  6
Continuous
 62
     7
370
    25
100
AcDbLine
 10
237.8292348962
 20
96.2203522906
 30
0.0
 11
236.9306501727
 21
96.2203522906
 31
0.0
  0
LINE
  5
14B
330
1F
100
AcDbEntity
  8
0
  6
Continuous
 62
     7
370
    25
100
AcDbLine
 10
238.8338711839
 20
96.2203522906
 30
0.0
 11
238.0083021502
 21
96.2203522906
 31
0.0
  0
LINE
  5
14C
330
1F
100
AcDbEntity
  8
0
  6
Continuous
 62
     7
370
    25
100
AcDbLine
 10
232.4376669507
 20
168.1317752921
 30
0.0
 11
236.4494767766
 21
169.6809866228
 31
0.0
  0
LINE
  5
14D
330
1F
100
AcDbEntity
  8
0
  6
Continuous
 62
     7
370
    25
100
AcDbLine
 10
236.4494767766
 20
169.6809866228
 30
0.0
 11
252.4775382857
 21
163.8788511739
 31
0.0
  0
LINE
  5
14E
330
1F
100
AcDbEntity
  8
0
  6
Continuous
 62
     7
370
    25
100
AcDbLine
 10
239.7543606143
 20
96.2203522906
 30
0.0
 11
238.9981415849
 21
96.2203522906
 31
0.0
  0
LINE
  5
14F
330
1F
100
AcDbEntity
  8
0
  6
Continuous
 62
     7
370
    25
100
AcDbLine
 10
236.5336236338
 20
170.0083509315
 30
0.0
 11
199.7637864928
 21
170.0083509315
 31
0.0
  0
LINE
  5
150
330
1F
100
AcDbEntity
  8
0
  6
Continuous
 62
     7
370
    25
100
AcDbLine
 10
236.1029204707
 20
169.6846695379
 30
0.0
 11
236.5336236338
 21
170.0083509315
 31
0.0
  0
LINE
  5
151
330
1F
100
AcDbEntity
  8
0
  6
Continuous
 62
     7
370
    25
100
AcDbLine
 10
236.4494767766
 20
169.6809866228
 30
0.0
 11
236.1029204707
 21
169.6846695379
 31
0.0
  0
LINE
  5
152
330
1F
100
AcDbEntity
  8
0
  6
Continuous
 62
     7
370
    25
100
AcDbLine
 10
199.7637864928
 20
170.0083509315
 30
0.0
 11
198.6803528647
 21
168.1317752921
 31
0.0
  0
LINE
  5
153
330
1F
100
AcDbEntity
  8
0
  6
Continuous
 62
     7
370
    25
100
AcDbLine
 10
240.5945774894
 20
96.2203522906
 30
0.0
 11
239.9045643191
 21
96.2203522906
 31
0.0
  0
LINE
  5
154
330
1F
100
AcDbEntity
  8
0
  6
Continuous
 62
     7
370
    25
100
AcDbLine
 10
241.3578298669
 20
96.2203522906
 30
0.0
 11
240.7313254456
 21
96.2203522906
 31
0.0
  0
LINE
  5
155
330
1F
100
AcDbEntity
  8
0
  6
Continuous
 62
     7
370
    25
100
AcDbLine
 10
242.0469489674
 20
96.2203522906
 30
0.0
 11
241.4816138129
 21
96.2203522906
 31
0.0
  0
LINE
  5
156
330
1F
100
AcDbEntity
  8
0
  6
Continuous
 62
     7
370
    25
100
AcDbLine
 10
242.664423285
 20
96.2203522906
 30
0.0
 11
242.1582457404
 21
96.2203522906
 31
0.0
  0
LINE
  5
157
330
1F
100
AcDbEntity
  8
0
  6
Continuous
 62
     7
370
    25
100
AcDbLine
 10
243.2123240809
 20
96.2203522906
 30
0.0
 11
242.7636054139
 21
96.2203522906
 31
0.0
  0
LINE
  5
158
330
1F
100
AcDbEntity
  8
0
  6
Continuous
 62
     7
370
    25
100
AcDbLine
 10
243.6924841981
 20
96.2203522906
 30
0.0
 11
243.2997342925
 21
96.2203522906
 31
0.0
  0
LINE
  5
159
330
1F
100
AcDbEntity
  8
0
  6
Continuous
 62
     7
370
    25
100
AcDbLine
 10
236.5336236338
 20
170.0083509315
 30
0.0
 11
236.6221216302
 21
170.0083509315
 31
0.0
  0
LINE
  5
15A
330
1F
100
AcDbEntity
  8
0
  6
Continuous
 62
     7
370
    25
100
AcDbLine
 10
236.6221216302
 20
170.0083509315
 30
0.0
 11
236.5626808982
 21
169.6400054027
 31
0.0
  0
LINE
  5
15B
330
1F
100
AcDbEntity
  8
0
  6
Continuous
 62
     7
370
    25
100
AcDbLine
 10
250.0843819957
 20
147.3873076723
 30
0.0
 11
250.4204031806
 21
147.2656694934
 31
0.0
  0
LINE
  5
15C
330
1F
100
AcDbEntity
  8
0
  6
Continuous
 62
     7
370
    25
100
AcDbLine
 10
129.2562824468
 20
98.3083477006
 30
0.0
 11
129.2562824468
 21
98.0083500729
 31
0.0
  0
LINE
  5
15D
330
1F
100
AcDbEntity
  8
0
  6
Continuous
 62
     7
370
    25
100
AcDbLine
 10
129.2562824468
 20
98.0083500729
 30
0.0
 11
74.2934741806
 21
98.0083500729
 31
0.0
  0
ARC
  5
15E
330
1F
100
AcDbEntity
  8
0
  6
Continuous
 62
     7
370
    25
100
AcDbCircle
 10
129.2562804799
 20
63.3083510265
 30
0.0
 40
64.99999999999946
100
AcDbArc
 50
147.4210296072
 51
147.7343057984
  0
LINE
  5
15F
330
1F
100
AcDbEntity
  8
0
  6
Continuous
 62
     7
370
    25
100
AcDbLine
 10
74.484024642
 20
98.3083477006
 30
0.0
 11
129.2562824468
 21
98.3083477006
 31
0.0
  0
LINE
  5
160
330
1F
100
AcDbEntity
  8
0
  6
Continuous
 62
     7
370
    25
100
AcDbLine
 10
74.484024642
 20
118.2203521714
 30
0.0
 11
129.2562824468
 21
118.2203521714
 31
0.0
  0
LINE
  5
161
330
1F
100
AcDbEntity
  8
0
  6
Continuous
 62
     7
370
    25
100
AcDbLine
 10
129.2562824468
 20
118.2203521714
 30
0.0
 11
129.2562824468
 21
98.3083477006
 31
0.0
  0
LINE
  5
162
330
1F
100
AcDbEntity
  8
0
  6
Continuous
 62
     7
370
    25
100
AcDbLine
 10
74.484024642
 20
118.2203521714
 30
0.0
 11
74.484024642
 21
98.3083477006
 31
0.0
  0
LINE
  5
163
330
1F
100
AcDbEntity
  8
0
  6
Continuous
 62
     7
370
    25
100
AcDbLine
 10
74.2934741806
 20
98.0083500729
 30
0.0
 11
74.2934741806
 21
97.134732245
 31
0.0
  0
ELLIPSE
  5
164
330
1F
100
AcDbEntity
  8
0
  6
Continuous
 62
     7
370
    25
100
AcDbEllipse
 10
129.2562804799
 20
37.0325727616
 30
0.0
 11
-2.842170943040401E-14
 21
112.58330249198
 31
0.0
210
0.0
220
0.0
230
1.0
 40
0.5773502692
 41
1.007653727535285
 42
1.017229972134365
  0
LINE
  5
165
330
1F
100
AcDbEntity
  8
0
  6
Continuous
 62
     7
370
    25
100
AcDbLine
 10
73.7524800728
 20
96.2203522906
 30
0.0
 11
73.9637040328
 21
96.2203522906
 31
0.0
  0
ELLIPSE
  5
166
330
1F
100
AcDbEntity
  8
0
  6
Continuous
 62
     7
370
    25
100
AcDbEllipse
 10
129.2562804799
 20
154.8120276763
 30
0.0
 11
-2.842170943040401E-14
 21
112.5833024919779
 31
0.0
210
0.0
220
0.0
230
1.0
 40
0.5773502692
 41
2.105528812518399
 42
2.118150234199597
  0
SPLINE
  5
167
330
1F
100
AcDbEntity
  8
0
  6
Continuous
 62
     7
370
    25
100
AcDbSpline
210
0.0
220
0.0
230
1.0
 70
     8
 71
     3
 72
    10
 73
     6
 74
     0
 42
0.000000001
 43
0.00000001
 40
0.0
 40
0.0
 40
0.0
 40
0.0
 40
0.5
 40
0.5
 40
1.0
 40
1.0
 40
1.0
 40
1.0
 10
73.32995624377952
 20
97.4383510265307
 30
0.0
 10
73.3139891982346
 20
97.48504377231845
 30
0.0
 10
73.28453450830133
 20
97.51039500618133
 30
0.0
 10
73.22787099277399
 20
97.51030692605464
 30
0.0
 10
73.19880064882558
 20
97.48509250466883
 30
0.0
 10
73.18297886996433
 20
97.43835102653064
 30
0.0
  0
ELLIPSE
  5
168
330
1F
100
AcDbEntity
  8
0
  6
Continuous
 62
     7
370
    25
100
AcDbEllipse
 10
129.2562804799
 20
40.4966743768
 30
0.0
 11
-2.842170943040401E-14
 21
112.583302491979
 31
0.0
210
0.0
220
0.0
230
1.0
 40
0.5773502692
 41
1.040517693521445
 42
1.053013200973109
  0
LINE
  5
169
330
1F
100
AcDbEntity
  8
0
  6
Continuous
 62
     7
370
    25
100
AcDbLine
 10
72.5819174926
 20
96.2203522906
 30
0.0
 11
72.7765732239
 21
96.2203522906
 31
0.0
  0
ELLIPSE
  5
16A
330
1F
100
AcDbEntity
  8
0
  6
Continuous
 62
     7
370
    25
100
AcDbEllipse
 10
129.2562804799
 20
151.3479260612
 30
0.0
 11
-2.842170943040401E-14
 21
112.5833024919768
 31
0.0
210
0.0
220
0.0
230
1.0
 40
0.5773502692
 41
2.070131117252612
 42
2.082496447996466
  0
SPLINE
  5
16B
330
1F
100
AcDbEntity
  8
0
  6
Continuous
 62
     7
370
    25
100
AcDbSpline
210
0.0
220
0.0
230
1.0
 70
     8
 71
     3
 72
    10
 73
     6
 74
     0
 42
0.000000001
 43
0.00000001
 40
0.0
 40
0.0
 40
0.0
 40
0.0
 40
0.5
 40
0.5
 40
1.0
 40
1.0
 40
1.0
 40
1.0
 10
72.19269688058263
 20
97.4383510265307
 30
0.0
 10
72.17801447519179
 20
97.48497524867975
 30
0.0
 10
72.1510474009415
 20
97.51042110136365
 30
0.0
 10
72.09843235404577
 20
97.51028064958989
 30
0.0
 10
72.07187266085887
 20
97.48491360239849
 30
0.0
 10
72.05736158446754
 20
97.43835102653067
 30
0.0
  0
ELLIPSE
  5
16C
330
1F
100
AcDbEntity
  8
0
  6
Continuous
 62
     7
370
    25
100
AcDbEllipse
 10
129.2562804799
 20
43.9607759919
 30
0.0
 11
-2.842170943040400E-14
 21
112.583302491979
 31
0.0
210
0.0
220
0.0
230
1.0
 40
0.5773502692
 41
1.075827184116861
 42
1.088081123694912
  0
LINE
  5
16D
330
1F
100
AcDbEntity
  8
0
  6
Continuous
 62
     7
370
    25
100
AcDbLine
 10
71.5042655151
 20
96.2203522906
 30
0.0
 11
71.6833215933
 21
96.2203522906
 31
0.0
  0
ELLIPSE
  5
16E
330
1F
100
AcDbEntity
  8
0
  6
Continuous
 62
     7
370
    25
100
AcDbEllipse
 10
129.2562804799
 20
147.883824446
 30
0.0
 11
-2.842170943040401E-14
 21
112.583302491978
 31
0.0
210
0.0
220
0.0
230
1.0
 40
0.5773502692
 41
2.035404367692395
 42
2.047543032420239
  0
SPLINE
  5
16F
330
1F
100
AcDbEntity
  8
0
  6
Continuous
 62
     7
370
    25
100
AcDbSpline
210
0.0
220
0.0
230
1.0
 70
     8
 71
     3
 72
    10
 73
     6
 74
     0
 42
0.000000001
 43
0.00000001
 40
0.0
 40
0.0
 40
0.0
 40
0.0
 40
0.5
 40
0.5
 40
1.0
 40
1.0
 40
1.0
 40
1.0
 10
71.14645855770782
 20
97.4383510265307
 30
0.0
 10
71.13308733965964
 20
97.48455928152316
 30
0.0
 10
71.10832928822359
 20
97.51041392033765
 30
0.0
 10
71.05972949011539
 20
97.51028789207275
 30
0.0
 10
71.03535882043197
 20
97.48459702187084
 30
0.0
 10
71.02211961040946
 20
97.43835102653067
 30
0.0
  0
ELLIPSE
  5
170
330
1F
100
AcDbEntity
  8
0
  6
Continuous
 62
     7
370
    25
100
AcDbEllipse
 10
129.2562804799
 20
47.424877607
 30
0.0
 11
-5.684341886080801E-14
 21
112.5833024919778
 31
0.0
210
0.0
220
0.0
230
1.0
 40
0.5773502692
 41
1.110475829236057
 42
1.122515784706865
  0
LINE
  5
171
330
1F
100
AcDbEntity
  8
0
  6
Continuous
 62
     7
370
    25
100
AcDbLine
 10
70.5144149046
 20
96.2203522906
 30
0.0
 11
70.6786908935
 21
96.2203522906
 31
0.0
  0
ELLIPSE
  5
172
330
1F
100
AcDbEntity
  8
0
  6
Continuous
 62
     7
370
    25
100
AcDbEllipse
 10
129.2562804799
 20
144.4197228309
 30
0.0
 11
-2.842170943040400E-14
 21
112.5833024919779
 31
0.0
210
0.0
220
0.0
230
1.0
 40
0.5773502692
 41
2.001272075748699
 42
2.013209837874834
  0
SPLINE
  5
173
330
1F
100
AcDbEntity
  8
0
  6
Continuous
 62
     7
370
    25
100
AcDbSpline
210
0.0
220
0.0
230
1.0
 70
     8
 71
     3
 72
    10
 73
     6
 74
     0
 42
0.000000001
 43
0.00000001
 40
0.0
 40
0.0
 40
0.0
 40
0.0
 40
0.5
 40
0.5
 40
1.0
 40
1.0
 40
1.0
 40
1.0
 10
70.186404616974
 20
97.43835102653073
 30
0.0
 10
70.17425381506384
 20
97.48418278917848
 30
0.0
 10
70.15159652476727
 20
97.51040678442737
 30
0.0
 10
70.1068505242405
 20
97.51029508150874
 30
0.0
 10
70.0845579505074
 20
97.48430415773696
 30
0.0
 10
70.0725102253687
 20
97.43835102653067
 30
0.0
  0
ELLIPSE
  5
174
330
1F
100
AcDbEntity
  8
0
  6
Continuous
 62
     7
370
    25
100
AcDbEllipse
 10
129.2562804799
 20
50.8889792222
 30
0.0
 11
-5.684341886080801E-14
 21
112.583302491979
 31
0.0
210
0.0
220
0.0
230
1.0
 40
0.5773502692
 41
1.144538882386205
 42
1.156389125052016
  0
LINE
  5
175
330
1F
100
AcDbEntity
  8
0
  6
Continuous
 62
     7
370
    25
100
AcDbLine
 10
69.6079903077
 20
96.2203522906
 30
0.0
 11
69.7581940125
 21
96.2203522906
 31
0.0
  0
ELLIPSE
  5
176
330
1F
100
AcDbEntity
  8
0
  6
Continuous
 62
     7
370
    25
100
AcDbEllipse
 10
129.2562804799
 20
140.9556212158
 30
0.0
 11
-2.842170943040401E-14
 21
112.5833024919779
 31
0.0
210
0.0
220
0.0
230
1.0
 40
0.5773502692
 41
1.967666809743424
 42
1.979426458661553
  0
SPLINE
  5
177
330
1F
100
AcDbEntity
  8
0
  6
Continuous
 62
     7
370
    25
100
AcDbSpline
210
0.0
220
0.0
230
1.0
 70
     8
 71
     3
 72
    10
 73
     6
 74
     0
 42
0.000000001
 43
0.00000001
 40
0.0
 40
0.0
 40
0.0
 40
0.0
 40
0.5
 40
0.5
 40
1.0
 40
1.0
 40
1.0
 40
1.0
 10
69.30839423614587
 20
97.4383510265307
 30
0.0
 10
69.2973863642063
 20
97.48384321746653
 30
0.0
 10
69.27673497454894
 20
97.51039977738546
 30
0.0
 10
69.23570699049822
 20
97.51030213407749
 30
0.0
 10
69.21537678991841
 20
97.48395247910688
 30
0.0
 10
69.20447092424561
 20
97.4383510265307
 30
0.0
  0
ELLIPSE
  5
178
330
1F
100
AcDbEntity
  8
0
  6
Continuous
 62
     7
370
    25
100
AcDbEllipse
 10
129.2562804799
 20
54.3530808373
 30
0.0
 11
-5.684341886080801E-14
 21
112.583302491979
 31
0.0
210
0.0
220
0.0
230
1.0
 40
0.5773502692
 41
1.178082770336382
 42
1.189764869929006
  0
LINE
  5
179
330
1F
100
AcDbEntity
  8
0
  6
Continuous
 62
     7
370
    25
100
AcDbLine
 10
68.7812422197
 20
96.2203522906
 30
0.0
 11
68.9179799314
 21
96.2203522906
 31
0.0
  0
ELLIPSE
  5
17A
330
1F
100
AcDbEntity
  8
0
  6
Continuous
 62
     7
370
    25
100
AcDbEllipse
 10
129.2562804799
 20
137.4915196006
 30
0.0
 11
-2.842170943040401E-14
 21
112.5833024919779
 31
0.0
210
0.0
220
0.0
230
1.0
 40
0.5773502692
 41
1.934528534689109
 42
1.946130424409969
  0
SPLINE
  5
17B
330
1F
100
AcDbEntity
  8
0
  6
Continuous
 62
     7
370
    25
100
AcDbSpline
210
0.0
220
0.0
230
1.0
 70
     8
 71
     3
 72
    29
 73
    25
 74
     0
 42
0.000000001
 43
0.00000001
 40
0.0005416600849667
 40
0.0005416600849667
 40
0.0005416600849667
 40
0.0005416600849667
 40
0.0005443640024637
 40
0.0005443640024637
 40
0.0005443640024637
 40
0.0005908636156323
 40
0.0005908636156323
 40
0.0005908636156323
 40
0.000640059491548
 40
0.000640059491548
 40
0.000640059491548
 40
0.0006924321855466
 40
0.0006924321855466
 40
0.0006924321855466
 40
0.0007471907431744
 40
0.0007471907431744
 40
0.0007471907431744
 40
0.0008022976225063
 40
0.0008022976225063
 40
0.0008022976225063
 40
0.0008553236765468
 40
0.0008553236765468
 40
0.0008553236765468
 40
0.0008566673360759
 40
0.0008566673360759
 40
0.0008566673360759
 40
0.0008566673360759
 10
68.5088698706676
 20
97.4383510265307
 30
0.0
 10
68.50869913261704
 20
97.43912788600268
 30
0.0
 10
68.50852572519372
 20
97.43990015121732
 30
0.0
 10
68.50834970620133
 20
97.44066762344922
 30
0.0
 10
68.5053571660016
 20
97.45371559898214
 30
0.0
 10
68.50155456463999
 20
97.46550537704645
 30
0.0
 10
68.49726520721264
 20
97.47526568584559
 30
0.0
 10
68.49272880748286
 20
97.48558813226063
 30
0.0
 10
68.48753535865357
 20
97.49391016852957
 30
0.0
 10
68.48209208068084
 20
97.4997448890211
 30
0.0
 10
68.47630223494087
 20
97.5059511000122
 30
0.0
 10
68.47007963983921
 20
97.5095085205824
 30
0.0
 10
68.46390344468803
 20
97.51021593689276
 30
0.0
 10
68.45745307304591
 20
97.5109547571528
 30
0.0
 10
68.4508758383033
 20
97.5086001515357
 30
0.0
 10
68.44471336365947
 20
97.50329079753486
 30
0.0
 10
68.43851767971337
 20
97.49795283166104
 30
0.0
 10
68.43256115817185
 20
97.48945699740524
 30
0.0
 10
68.4274038908532
 20
97.47840435840044
 30
0.0
 10
68.42244242507608
 20
97.46777134545367
 30
0.0
 10
68.4180739474751
 20
97.45443277154381
 30
0.0
 10
68.41476400372193
 20
97.43950737425457
 30
0.0
 10
68.41467878069605
 20
97.43912308146471
 30
0.0
 10
68.41459420597913
 20
97.43873762399438
 30
0.0
 10
68.41451028642173
 20
97.43835102653067
 30
0.0
  0
ELLIPSE
  5
17C
330
1F
100
AcDbEntity
  8
0
  6
Continuous
 62
     7
370
    25
100
AcDbEllipse
 10
129.2562804799
 20
57.8171824524
 30
0.0
 11
-5.684341886080800E-14
 21
112.583302491979
 31
0.0
210
0.0
220
0.0
230
1.0
 40
0.5773502692
 41
1.211166703765773
 42
1.222700010499807
  0
LINE
  5
17D
330
1F
100
AcDbEntity
  8
0
  6
Continuous
 62
     7
370
    25
100
AcDbLine
 10
68.0309436078
 20
96.2203522906
 30
0.0
 11
68.1547350045
 21
96.2203522906
 31
0.0
  0
ELLIPSE
  5
17E
330
1F
100
AcDbEntity
  8
0
  6
Continuous
 62
     7
370
    25
100
AcDbEllipse
 10
129.2562804799
 20
134.0274179855
 30
0.0
 11
-5.684341886080801E-14
 21
112.5833024919779
 31
0.0
210
0.0
220
0.0
230
1.0
 40
0.5773502692
 41
1.90180329915122
 42
1.913265776577468
  0
SPLINE
  5
17F
330
1F
100
AcDbEntity
  8
0
  6
Continuous
 62
     7
370
    25
100
AcDbSpline
210
0.0
220
0.0
230
1.0
 70
     8
 71
     3
 72
    29
 73
    25
 74
     0
 42
0.000000001
 43
0.00000001
 40
0.0005386973542427
 40
0.0005386973542427
 40
0.0005386973542427
 40
0.0005386973542427
 40
0.0005419792111182
 40
0.0005419792111182
 40
0.0005419792111182
 40
0.0005887996552758
 40
0.0005887996552758
 40
0.0005887996552758
 40
0.0006378736293418
 40
0.0006378736293418
 40
0.0006378736293418
 40
0.0006895668865734
 40
0.0006895668865734
 40
0.0006895668865734
 40
0.0007431746137508
 40
0.0007431746137508
 40
0.0007431746137508
 40
0.0007970141084604
 40
0.0007970141084604
 40
0.0007970141084604
 40
0.0008491493109968
 40
0.0008491493109968
 40
0.0008491493109968
 40
0.0008510139949934
 40
0.0008510139949934
 40
0.0008510139949934
 40
0.0008510139949934
 10
67.78476897774739
 20
97.4383510265307
 30
0.0
 10
67.7845813732119
 20
97.43929658229258
 30
0.0
 10
67.78439017370707
 20
97.44023545930341
 30
0.0
 10
67.78419547027386
 20
97.44116729830476
 30
0.0
 10
67.78144907129727
 20
97.4543113997596
 30
0.0
 10
67.77795283473776
 20
97.4661892423292
 30
0.0
 10
67.77400341200614
 20
97.4759910116173
 30
0.0
 10
67.76986521391343
 20
97.48626128799171
 30
0.0
 10
67.76512494940276
 20
97.49452306278233
 30
0.0
 10
67.76015795250204
 20
97.50026057927275
 30
0.0
 10
67.75492968089725
 20
97.50629990145241
 30
0.0
 10
67.74931310188002
 20
97.50970435780604
 30
0.0
 10
67.7437465715648
 20
97.51026572035492
 30
0.0
 10
67.73797927530805
 20
97.51084732935436
 30
0.0
 10
67.73210677994932
 20
97.5083885842388
 30
0.0
 10
67.72661396808516
 20
97.50304555670961
 30
0.0
 10
67.72110168096968
 20
97.49768358500275
 30
0.0
 10
67.71581306309623
 20
97.48924936932168
 30
0.0
 10
67.71123460587403
 20
97.47836150718706
 30
0.0
 10
67.70680173910227
 20
97.46781986839262
 30
0.0
 10
67.70290518695488
 20
97.45465110949894
 30
0.0
 10
67.69994168752457
 20
97.43995827740476
 30
0.0
 10
67.69983407430452
 20
97.43942473825271
 30
0.0
 10
67.69972759732694
 20
97.43888896574812
 30
0.0
 10
67.69962227265603
 20
97.43835102653067
 30
0.0
  0
ELLIPSE
  5
180
330
1F
100
AcDbEntity
  8
0
  6
Continuous
 62
     7
370
    25
100
AcDbEllipse
 10
129.2562804799
 20
61.2812840676
 30
0.0
 11
-5.684341886080800E-14
 21
112.583302491979
 31
0.0
210
0.0
220
0.0
230
1.0
 40
0.5773502692
 41
1.243843953888189
 42
1.255245984328364
  0
LINE
  5
181
330
1F
100
AcDbEntity
  8
0
  6
Continuous
 62
     7
370
    25
100
AcDbLine
 10
67.3543126117
 20
96.2203522906
 30
0.0
 11
67.4656084533
 21
96.2203522906
 31
0.0
  0
ELLIPSE
  5
182
330
1F
100
AcDbEntity
  8
0
  6
Continuous
 62
     7
370
    25
100
AcDbEllipse
 10
129.2562804799
 20
130.5633163703
 30
0.0
 11
-5.684341886080800E-14
 21
112.5833024919779
 31
0.0
210
0.0
220
0.0
230
1.0
 40
0.5773502692
 41
1.869442181466428
 42
1.880781931697346
  0
SPLINE
  5
183
330
1F
100
AcDbEntity
  8
0
  6
Continuous
 62
     7
370
    25
100
AcDbSpline
210
0.0
220
0.0
230
1.0
 70
     8
 71
     3
 72
    29
 73
    25
 74
     0
 42
0.000000001
 43
0.00000001
 40
0.0005360961035473
 40
0.0005360961035473
 40
0.0005360961035473
 40
0.0005360961035473
 40
0.0005399249923766
 40
0.0005399249923766
 40
0.0005399249923766
 40
0.0005870330498909
 40
0.0005870330498909
 40
0.0005870330498909
 40
0.0006359911913607
 40
0.0006359911913607
 40
0.0006359911913607
 40
0.0006870721666453
 40
0.0006870721666453
 40
0.0006870721666453
 40
0.00073966543428
 40
0.00073966543428
 40
0.00073966543428
 40
0.0007924058790464
 40
0.0007924058790464
 40
0.0007924058790464
 40
0.0008437722717346
 40
0.0008437722717346
 40
0.0008437722717346
 40
0.0008460452496402
 40
0.0008460452496402
 40
0.0008460452496402
 40
0.0008460452496402
 10
67.13345410350375
 20
97.4383510265307
 30
0.0
 10
67.1332575458542
 20
97.43945690392039
 30
0.0
 10
67.13305655614977
 20
97.44055379997718
 30
0.0
 10
67.13285126102838
 20
97.44164113885567
 30
0.0
 10
67.13035365633733
 20
97.45486962020134
 30
0.0
 10
67.12716923026343
 20
97.4668241136224
 30
0.0
 10
67.12356771711855
 20
97.47665915580647
 30
0.0
 10
67.11982576617835
 20
97.48687770669531
 30
0.0
 10
67.11553755544527
 20
97.49508002173165
 30
0.0
 10
67.11104579325969
 20
97.50072450705258
 30
0.0
 10
67.10636216462159
 20
97.50661009760792
 30
0.0
 10
67.10133317950421
 20
97.50987337942877
 30
0.0
 10
67.09635609850224
 20
97.51030130413679
 30
0.0
 10
67.09123560696243
 20
97.51074155914696
 30
0.0
 10
67.08602881308235
 20
97.50818896772448
 30
0.0
 10
67.08116633328576
 20
97.50281561365989
 30
0.0
 10
67.07629322447261
 20
97.49743051384583
 30
0.0
 10
67.07162677837621
 20
97.48904803982633
 30
0.0
 10
67.06758761705518
 20
97.47830089819482
 30
0.0
 10
67.06365408389617
 20
97.46783480520857
 30
0.0
 10
67.0602019033817
 20
97.45480911050467
 30
0.0
 10
67.05756839132141
 20
97.44031328168882
 30
0.0
 10
67.05745015410128
 20
97.43966246010025
 30
0.0
 10
67.05733344062922
 20
97.43900833445582
 30
0.0
 10
67.05721827627114
 20
97.4383510265307
 30
0.0
  0
ELLIPSE
  5
184
330
1F
100
AcDbEntity
  8
0
  6
Continuous
 62
     7
370
    25
100
AcDbEllipse
 10
129.2562804799
 20
64.7453856827
 30
0.0
 11
-5.684341886080801E-14
 21
112.583302491979
 31
0.0
210
0.0
220
0.0
230
1.0
 40
0.5773502692
 41
1.276162878699854
 42
1.287449628890092
  0
LINE
  5
185
330
1F
100
AcDbEntity
  8
0
  6
Continuous
 62
     7
370
    25
100
AcDbLine
 10
66.7489585261
 20
96.2203522906
 30
0.0
 11
66.848143449
 21
96.2203522906
 31
0.0
  0
ELLIPSE
  5
186
330
1F
100
AcDbEntity
  8
0
  6
Continuous
 62
     7
370
    25
100
AcDbEllipse
 10
129.2562804799
 20
127.0992147552
 30
0.0
 11
-5.684341886080801E-14
 21
112.5833024919779
 31
0.0
210
0.0
220
0.0
230
1.0
 40
0.5773502692
 41
1.837400432488422
 42
1.848632761007753
  0
SPLINE
  5
187
330
1F
100
AcDbEntity
  8
0
  6
Continuous
 62
     7
370
    25
100
AcDbSpline
210
0.0
220
0.0
230
1.0
 70
     8
 71
     3
 72
    29
 73
    25
 74
     0
 42
0.000000001
 43
0.00000001
 40
0.0005338259982469
 40
0.0005338259982469
 40
0.0005338259982469
 40
0.0005338259982469
 40
0.00053816406151
 40
0.00053816406151
 40
0.00053816406151
 40
0.0005855273045933
 40
0.0005855273045933
 40
0.0005855273045933
 40
0.0006343764531272
 40
0.0006343764531272
 40
0.0006343764531272
 40
0.0006849100044023
 40
0.0006849100044023
 40
0.0006849100044023
 40
0.0007366148672804
 40
0.0007366148672804
 40
0.0007366148672804
 40
0.0007884072935404
 40
0.0007884072935404
 40
0.0007884072935404
 40
0.0008391138375181
 40
0.0008391138375181
 40
0.0008391138375181
 40
0.0008417051248245
 40
0.0008417051248245
 40
0.0008417051248245
 40
0.0008417051248245
 10
66.55265707882002
 20
97.43835102653073
 30
0.0
 10
66.55245909551311
 20
97.43960664782644
 30
0.0
 10
66.55225601680515
 20
97.44085086551543
 30
0.0
 10
66.55204800281959
 20
97.44208283549268
 30
0.0
 10
66.54980201796238
 20
97.45538475798706
 30
0.0
 10
66.54693471923616
 20
97.46740542795997
 30
0.0
 10
66.54368867637189
 20
97.4772667719776
 30
0.0
 10
66.54034153904503
 20
97.48743523679288
 30
0.0
 10
66.53650460105324
 20
97.49558023323927
 30
0.0
 10
66.5324872134313
 20
97.50113726512888
 30
0.0
 10
66.52833341327741
 20
97.50688298898987
 30
0.0
 10
66.5238757372837
 20
97.51001769320453
 30
0.0
 10
66.51947010748417
 20
97.51032525923759
 30
0.0
 10
66.51496514641526
 20
97.51063975978985
 30
0.0
 10
66.51039026987277
 20
97.50800363381585
 30
0.0
 10
66.50612412133435
 20
97.50260347513651
 30
0.0
 10
66.50185276480525
 20
97.49719672409968
 30
0.0
 10
66.49776978203842
 20
97.48885767256341
 30
0.0
 10
66.4942363794457
 20
97.4782303577278
 30
0.0
 10
66.49077728603018
 20
97.46782654049846
 30
0.0
 10
66.48774598386362
 20
97.45492099515396
 30
0.0
 10
66.48542789518662
 20
97.4405914745408
 30
0.0
 10
66.48530776458267
 20
97.43984887397397
 30
0.0
 10
66.4851894025364
 20
97.43910199735376
 30
0.0
 10
66.48507284153825
 20
97.4383510265307
 30
0.0
  0
ELLIPSE
  5
188
330
1F
100
AcDbEntity
  8
0
  6
Continuous
 62
     7
370
    25
100
AcDbEllipse
 10
129.2562804799
 20
68.2094872979
 30
0.0
 11
-5.684341886080801E-14
 21
112.583302491979
 31
0.0
210
0.0
220
0.0
230
1.0
 40
0.5773502692
 41
1.308167759234794
 42
1.319353962222859
  0
LINE
  5
189
330
1F
100
AcDbEntity
  8
0
  6
Continuous
 62
     7
370
    25
100
AcDbLine
 10
66.2128277849
 20
96.2203522906
 30
0.0
 11
66.3002333398
 21
96.2203522906
 31
0.0
  0
ELLIPSE
  5
18A
330
1F
100
AcDbEntity
  8
0
  6
Continuous
 62
     7
370
    25
100
AcDbEllipse
 10
129.2562804799
 20
123.6351131401
 30
0.0
 11
-5.684341886080801E-14
 21
112.5833024919779
 31
0.0
210
0.0
220
0.0
230
1.0
 40
0.5773502692
 41
1.805636768814897
 42
1.816775835196818
  0
SPLINE
  5
18B
330
1F
100
AcDbEntity
  8
0
  6
Continuous
 62
     7
370
    25
100
AcDbSpline
210
0.0
220
0.0
230
1.0
 70
     8
 71
     3
 72
    29
 73
    25
 74
     0
 42
0.000000001
 43
0.00000001
 40
0.0005318619300737
 40
0.0005318619300737
 40
0.0005318619300737
 40
0.0005318619300737
 40
0.0005366655099982
 40
0.0005366655099982
 40
0.0005366655099982
 40
0.000584252445651
 40
0.000584252445651
 40
0.000584252445651
 40
0.0006330004893073
 40
0.0006330004893073
 40
0.0006330004893073
 40
0.0006830498279237
 40
0.0006830498279237
 40
0.0006830498279237
 40
0.0007339837602156
 40
0.0007339837602156
 40
0.0007339837602156
 40
0.0007849648151218
 40
0.0007849648151218
 40
0.0007849648151218
 40
0.0008351094404938
 40
0.0008351094404938
 40
0.0008351094404938
 40
0.000837947189503
 40
0.000837947189503
 40
0.000837947189503
 40
0.000837947189503
 10
66.04043422077716
 20
97.43835102653073
 30
0.0
 10
66.04024180975341
 20
97.43974395734128
 30
0.0
 10
66.04004388063477
 20
97.44112304118593
 30
0.0
 10
66.03984062054082
 20
97.44248712435935
 30
0.0
 10
66.03784909320329
 20
97.45585231020448
 30
0.0
 10
66.03530395990218
 20
97.46792955173522
 30
0.0
 10
66.03242039481627
 20
97.4778113466023
 30
0.0
 10
66.02946699674517
 20
97.48793245468553
 30
0.0
 10
66.02608076322122
 20
97.49602347336878
 30
0.0
 10
66.02253698287815
 20
97.50149985437587
 30
0.0
 10
66.01890008125619
 20
97.50712014035273
 30
0.0
 10
66.01499937286889
 20
97.51013948015294
 30
0.0
 10
66.01114925886797
 20
97.51034003556838
 30
0.0
 10
66.00723298788492
 20
97.51054403715217
 30
0.0
 10
66.00326094750328
 20
97.5078345550936
 30
0.0
 10
65.99956190570964
 20
97.50241111639177
 30
0.0
 10
65.99586075741001
 20
97.49698458918571
 30
0.0
 10
65.99232861668935
 20
97.48868183970474
 30
0.0
 10
65.98927265131996
 20
97.4781559697523
 30
0.0
 10
65.98626694822526
 20
97.46780322158064
 30
0.0
 10
65.98363661827379
 20
97.45499801325613
 30
0.0
 10
65.98162124647595
 20
97.44080805807734
 30
0.0
 10
65.98150563802353
 20
97.4399940748907
 30
0.0
 10
65.98139189807551
 20
97.43917498422324
 30
0.0
 10
65.98128006310225
 20
97.43835102653067
 30
0.0
  0
ELLIPSE
  5
18C
330
1F
100
AcDbEntity
  8
0
  6
Continuous
 62
     7
370
    25
100
AcDbEllipse
 10
129.2562804799
 20
71.673588913
 30
0.0
 11
-5.684341886080801E-14
 21
112.583302491979
 31
0.0
210
0.0
220
0.0
230
1.0
 40
0.5773502692
 41
1.339899490175627
 42
1.350998830662563
  0
LINE
  5
18D
330
1F
100
AcDbEntity
  8
0
  6
Continuous
 62
     7
370
    25
100
AcDbLine
 10
65.7441667076
 20
96.2203522906
 30
0.0
 11
65.8200750853
 21
96.2203522906
 31
0.0
  0
ELLIPSE
  5
18E
330
1F
100
AcDbEntity
  8
0
  6
Continuous
 62
     7
370
    25
100
AcDbEllipse
 10
129.2562804799
 20
120.1710115249
 30
0.0
 11
-5.684341886080801E-14
 21
112.5833024919779
 31
0.0
210
0.0
220
0.0
230
1.0
 40
0.5773502692
 41
1.774112782188401
 42
1.785171796286565
  0
SPLINE
  5
18F
330
1F
100
AcDbEntity
  8
0
  6
Continuous
 62
     7
370
    25
100
AcDbSpline
210
0.0
220
0.0
230
1.0
 70
     8
 71
     3
 72
    20
 73
    16
 74
     0
 42
0.000000001
 43
0.00000001
 40
0.0005301831730603
 40
0.0005301831730603
 40
0.0005301831730603
 40
0.0005301831730603
 40
0.0005354037692559
 40
0.0005354037692559
 40
0.0005354037692559
 40
0.0005831838942233
 40
0.0005831838942233
 40
0.0005831838942233
 40
0.0006318398967749
 40
0.0006318398967749
 40
0.0006318398967749
 40
0.0006814670386902
 40
0.0006814670386902
 40
0.0006814670386902
 40
0.0006824246624812
 40
0.0006824246624812
 40
0.0006824246624812
 40
0.0006824246624812
 10
65.59513024767715
 20
97.4383510265307
 30
0.0
 10
65.59494977003912
 20
97.43986726973888
 30
0.0
 10
65.59476363752768
 20
97.44136729633493
 30
0.0
 10
65.59457205407027
 20
97.44284961700083
 30
0.0
 10
65.59283771048234
 20
97.45626859052258
 30
0.0
 10
65.59061938796225
 20
97.4683935899129
 30
0.0
 10
65.58810465191458
 20
97.4782910005611
 30
0.0
 10
65.58554416927129
 20
97.48836845906875
 30
0.0
 10
65.58260819980968
 20
97.49640990184913
 30
0.0
 10
65.57953730783062
 20
97.50181349092341
 30
0.0
 10
65.57640610071167
 20
97.50732321145169
 30
0.0
 10
65.5730498363121
 20
97.51024086399501
 30
0.0
 10
65.56974126910589
 20
97.51034788711708
 30
0.0
 10
65.56967656722887
 20
97.51034998004626
 30
0.0
 10
65.5696118660252
 20
97.51035102653069
 30
0.0
 10
65.56954716752625
 20
97.51035102653069
 30
0.0
  0
LINE
  5
190
330
1F
100
AcDbEntity
  8
0
  6
Continuous
 62
     7
370
    25
100
AcDbLine
 10
65.5695474501
 20
97.5103532658
 30
0.0
 11
65.5695474501
 21
98.958351253
 31
0.0
  0
LINE
  5
191
330
1F
100
AcDbEntity
  8
0
  6
Continuous
 62
     7
370
    25
100
AcDbLine
 10
65.5695474501
 20
98.958351253
 30
0.0
 11
64.6077110227
 21
98.958351253
 31
0.0
  0
LINE
  5
192
330
1F
100
AcDbEntity
  8
0
  6
Continuous
 62
     7
370
    25
100
AcDbLine
 10
64.6077110227
 20
98.958351253
 30
0.0
 11
64.6077110227
 21
106.4583515511
 31
0.0
  0
LINE
  5
193
330
1F
100
AcDbEntity
  8
0
  6
Continuous
 62
     7
370
    25
100
AcDbLine
 10
64.6077110227
 20
106.4583515511
 30
0.0
 11
65.1099630426
 21
106.4583515511
 31
0.0
  0
LINE
  5
194
330
1F
100
AcDbEntity
  8
0
  6
Continuous
 62
     7
370
    25
100
AcDbLine
 10
65.1099630426
 20
106.4583515511
 30
0.0
 11
65.1099630426
 21
115.4583511636
 31
0.0
  0
LINE
  5
195
330
1F
100
AcDbEntity
  8
0
  6
Continuous
 62
     7
370
    25
100
AcDbLine
 10
65.1099630426
 20
115.4583511636
 30
0.0
 11
64.2562801744
 21
115.4583511636
 31
0.0
  0
SPLINE
  5
196
330
1F
100
AcDbEntity
  8
0
  6
Continuous
 62
     7
370
    25
100
AcDbSpline
210
0.0
220
0.0
230
1.0
 70
     8
 71
     3
 72
     8
 73
     4
 74
     0
 42
0.000000001
 43
0.00000001
 40
0.0
 40
0.0
 40
0.0
 40
0.0
 40
0.0000946696228569
 40
0.0000946696228569
 40
0.0000946696228569
 40
0.0000946696228569
 10
64.84436334716233
 20
136.2203510265307
 30
0.0
 10
64.8401280641654
 20
136.2203510265307
 30
0.0
 10
64.83591529797279
 20
136.2207004093694
 30
0.0
 10
64.83172658968117
 20
136.2213994630649
 30
0.0
  0
ELLIPSE
  5
197
330
1F
100
AcDbEntity
  8
0
  6
Continuous
 62
     7
370
    25
100
AcDbEllipse
 10
129.2562804799
 20
147.7798154636
 30
0.0
 11
64.59819356455191
 21
10.52757858129922
 31
0.0
210
0.0
220
0.0
230
1.0
 40
0.6854557539
 41
3.164963784557824
 42
3.585993925969004
  0
ELLIPSE
  5
198
330
1F
100
AcDbEntity
  8
0
  6
Continuous
 62
     7
370
    25
100
AcDbEllipse
 10
129.2562804799
 20
168.2055312625
 30
0.0
 11
-2.842170943040401E-14
 21
92.82962043823861
 31
0.0
210
0.0
220
0.0
230
1.0
 40
0.7002075382
 41
2.126445221723877
 42
2.139406627059078
  0
SPLINE
  5
199
330
1F
100
AcDbEntity
  8
0
  6
Continuous
 62
     7
370
    25
100
AcDbSpline
210
0.0
220
0.0
230
1.0
 70
    11
 71
     3
 72
    68
 73
    64
 74
     0
 42
0.000000001
 43
0.00000001
 40
0.0
 40
0.0
 40
0.0
 40
0.0
 40
0.03125
 40
0.03125
 40
0.0625000000000001
 40
0.0625000000000001
 40
0.0937500000000001
 40
0.0937500000000001
 40
0.1250000000000002
 40
0.1250000000000002
 40
0.1562500000000002
 40
0.1562500000000002
 40
0.1875000000000003
 40
0.1875000000000003
 40
0.2187500000000003
 40
0.2187500000000003
 40
0.2500000000000004
 40
0.2500000000000004
 40
0.2812500000000004
 40
0.2812500000000004
 40
0.3125000000000005
 40
0.3125000000000005
 40
0.3437500000000006
 40
0.3437500000000006
 40
0.3750000000000006
 40
0.3750000000000006
 40
0.4062500000000006
 40
0.4062500000000006
 40
0.4375000000000007
 40
0.4375000000000007
 40
0.4687500000000007
 40
0.4687500000000007
 40
0.5000000000000008
 40
0.5000000000000008
 40
0.5312500000000008
 40
0.5312500000000008
 40
0.5625000000000009
 40
0.5625000000000009
 40
0.5937500000000009
 40
0.5937500000000009
 40
0.625000000000001
 40
0.625000000000001
 40
0.656250000000001
 40
0.656250000000001
 40
0.6875000000000011
 40
0.6875000000000011
 40
0.7187500000000011
 40
0.7187500000000011
 40
0.7500000000000011
 40
0.7500000000000011
 40
0.7812500000000012
 40
0.7812500000000012
 40
0.8125000000000012
 40
0.8125000000000012
 40
0.8437500000000013
 40
0.8437500000000013
 40
0.8750000000000013
 40
0.8750000000000013
 40
0.9062500000000014
 40
0.9062500000000014
 40
0.9375000000000014
 40
0.9375000000000014
 40
1.0
 40
1.0
 40
1.0
 40
1.0
 10
66.41171030871179
 20
106.0083510265306
 30
0.0
 10
66.4117103087118
 20
105.7778135823048
 30
0.0
 10
66.41782670706739
 20
105.5513877242224
 30
0.0
 10
66.44190559886174
 20
105.1064008064028
 30
0.0
 10
66.46020375649691
 20
104.8854402625205
 30
0.0
 10
66.50799838873148
 20
104.467732831006
 30
0.0
 10
66.53737063632832
 20
104.2701830021516
 30
0.0
 10
66.60757659859584
 20
103.8974831576719
 30
0.0
 10
66.64836219449923
 20
103.7236908084387
 30
0.0
 10
66.73851483395555
 20
103.4132448214025
 30
0.0
 10
66.78851457091541
 20
103.2739229793412
 30
0.0
 10
66.89757014045473
 20
103.0316263188605
 30
0.0
 10
66.95543325191747
 20
102.9310196058736
 30
0.0
 10
67.07803865266933
 20
102.7687653414323
 30
0.0
 10
67.1434803803788
 20
102.7069012748466
 30
0.0
 10
67.27736986008426
 20
102.6264396345386
 30
0.0
 10
67.34596044336492
 20
102.6071193596438
 30
0.0
 10
67.48652448100006
 20
102.609703089351
 30
0.0
 10
67.55873232370688
 20
102.6321985679054
 30
0.0
 10
67.70080452046038
 20
102.7171032134869
 30
0.0
 10
67.77137317900878
 20
102.7793510143101
 30
0.0
 10
67.91120277254058
 20
102.9445422069954
 30
0.0
 10
67.97985169555787
 20
103.0472241779369
 30
0.0
 10
68.10970639468898
 20
103.2860029479357
 30
0.0
 10
68.1715837025118
 20
103.4228119302347
 30
0.0
 10
68.28811256404441
 20
103.7337868496724
 30
0.0
 10
68.34127812039084
 20
103.9042956845281
 30
0.0
 10
68.43520038126996
 20
104.2703701878731
 30
0.0
 10
68.47649621638615
 20
104.4682510924402
 30
0.0
 10
68.54419590697184
 20
104.8861550524713
 30
0.0
 10
68.56999446747689
 20
105.1016349510935
 30
0.0
 10
68.60509801413957
 20
105.5456194514784
 30
0.0
 10
68.61429050736031
 20
105.7769117849901
 30
0.0
 10
68.61446967902727
 20
106.2328653541383
 30
0.0
 10
68.60578495641843
 20
106.4589625881688
 30
0.0
 10
68.57086307088726
 20
106.9073643398176
 30
0.0
 10
68.54474594790163
 20
107.1260268306317
 30
0.0
 10
68.47794290715802
 20
107.5406124396175
 30
0.0
 10
68.43656367849054
 20
107.7404746120972
 30
0.0
 10
68.34195786925642
 20
108.1102889752101
 30
0.0
 10
68.2890865706014
 20
108.2798639339939
 30
0.0
 10
68.17334989777964
 20
108.5896181798674
 30
0.0
 10
68.11035189584743
 20
108.7293984109758
 30
0.0
 10
67.98015141475479
 20
108.9690396612897
 30
0.0
 10
67.91236110772749
 20
109.0706197110223
 30
0.0
 10
67.77188493235727
 20
109.2369161437611
 30
0.0
 10
67.70086290862551
 20
109.2995422672413
 30
0.0
 10
67.55890183543752
 20
109.3844238260464
 30
0.0
 10
67.48727360657819
 20
109.4069117996602
 30
0.0
 10
67.34595050423582
 20
109.4096558874682
 30
0.0
 10
67.27734444242199
 20
109.3901881278611
 30
0.0
 10
67.14404361377467
 20
109.3101980346471
 30
0.0
 10
67.07868918330979
 20
109.2487004737837
 30
0.0
 10
66.95551404621538
 20
109.0858859350724
 30
0.0
 10
66.89783275846716
 20
108.985394632848
 30
0.0
 10
66.78979159473742
 20
108.7458771638591
 30
0.0
 10
66.73901347692414
 20
108.6049855312993
 30
0.0
 10
66.64863696168635
 20
108.2941446196145
 30
0.0
 10
66.60856773430078
 20
108.1237215684613
 30
0.0
 10
66.5382592345787
 20
107.7519752041974
 30
0.0
 10
66.50823548235138
 20
107.550550846489
 30
0.0
 10
66.43671346103088
 20
106.9269372394529
 30
0.0
 10
66.4117103087118
 20
106.4694259149822
 30
0.0
 10
66.4117103087118
 20
106.0083510265306
 30
0.0
  0
LINE
  5
19A
330
1F
100
AcDbEntity
  8
0
  6
Continuous
 62
     7
370
    25
100
AcDbLine
 10
74.0349893253
 20
119.2383995042
 30
0.0
 11
129.2562824468
 21
128.4175483272
 31
0.0
  0
LINE
  5
19B
330
1F
100
AcDbEntity
  8
0
  6
Continuous
 62
     7
370
    25
100
AcDbLine
 10
129.2562824468
 20
118.2203521714
 30
0.0
 11
129.2562824468
 21
128.4175483272
 31
0.0
  0
LINE
  5
19C
330
1F
100
AcDbEntity
  8
0
  6
Continuous
 62
     7
370
    25
100
AcDbLine
 10
74.2934741806
 20
97.134732245
 30
0.0
 11
129.2562824468
 21
97.134732245
 31
0.0
  0
LINE
  5
19D
330
1F
100
AcDbEntity
  8
0
  6
Continuous
 62
     7
370
    25
100
AcDbLine
 10
129.2562824468
 20
98.0083500729
 30
0.0
 11
129.2562824468
 21
97.134732245
 31
0.0
  0
LINE
  5
19E
330
1F
100
AcDbEntity
  8
0
  6
Continuous
 62
     7
370
    25
100
AcDbLine
 10
73.9637040328
 20
96.2203522906
 30
0.0
 11
129.2562824468
 21
96.2203522906
 31
0.0
  0
LINE
  5
19F
330
1F
100
AcDbEntity
  8
0
  6
Continuous
 62
     7
370
    25
100
AcDbLine
 10
129.2562824468
 20
97.134732245
 30
0.0
 11
129.2562824468
 21
96.2203522906
 31
0.0
  0
LINE
  5
1A0
330
1F
100
AcDbEntity
  8
0
  6
Continuous
 62
     7
370
    25
100
AcDbLine
 10
129.2562824468
 20
136.2203513966
 30
0.0
 11
64.8443628828
 21
136.2203513966
 31
0.0
  0
LINE
  5
1A1
330
1F
100
AcDbEntity
  8
0
  6
Continuous
 62
     7
370
    25
100
AcDbLine
 10
129.2562824468
 20
136.2203513966
 30
0.0
 11
129.2562824468
 21
128.4175483272
 31
0.0
  0
LINE
  5
1A2
330
1F
100
AcDbEntity
  8
0
  6
Continuous
 62
     7
370
    25
100
AcDbLine
 10
72.7765732239
 20
96.2203522906
 30
0.0
 11
73.7524800728
 21
96.2203522906
 31
0.0
  0
LINE
  5
1A3
330
1F
100
AcDbEntity
  8
0
  6
Continuous
 62
     7
370
    25
100
AcDbLine
 10
71.6833215933
 20
96.2203522906
 30
0.0
 11
72.5819174926
 21
96.2203522906
 31
0.0
  0
LINE
  5
1A4
330
1F
100
AcDbEntity
  8
0
  6
Continuous
 62
     7
370
    25
100
AcDbLine
 10
70.6786908935
 20
96.2203522906
 30
0.0
 11
71.5042655151
 21
96.2203522906
 31
0.0
  0
LINE
  5
1A5
330
1F
100
AcDbEntity
  8
0
  6
Continuous
 62
     7
370
    25
100
AcDbLine
 10
69.7581940125
 20
96.2203522906
 30
0.0
 11
70.5144149046
 21
96.2203522906
 31
0.0
  0
LINE
  5
1A6
330
1F
100
AcDbEntity
  8
0
  6
Continuous
 62
     7
370
    25
100
AcDbLine
 10
68.9179799314
 20
96.2203522906
 30
0.0
 11
69.6079903077
 21
96.2203522906
 31
0.0
  0
LINE
  5
1A7
330
1F
100
AcDbEntity
  8
0
  6
Continuous
 62
     7
370
    25
100
AcDbLine
 10
68.1547350045
 20
96.2203522906
 30
0.0
 11
68.7812422197
 21
96.2203522906
 31
0.0
  0
LINE
  5
1A8
330
1F
100
AcDbEntity
  8
0
  6
Continuous
 62
     7
370
    25
100
AcDbLine
 10
67.4656084533
 20
96.2203522906
 30
0.0
 11
68.0309436078
 21
96.2203522906
 31
0.0
  0
LINE
  5
1A9
330
1F
100
AcDbEntity
  8
0
  6
Continuous
 62
     7
370
    25
100
AcDbLine
 10
66.848143449
 20
96.2203522906
 30
0.0
 11
67.3543126117
 21
96.2203522906
 31
0.0
  0
LINE
  5
1AA
330
1F
100
AcDbEntity
  8
0
  6
Continuous
 62
     7
370
    25
100
AcDbLine
 10
66.3002333398
 20
96.2203522906
 30
0.0
 11
66.7489585261
 21
96.2203522906
 31
0.0
  0
SPLINE
  5
1AB
330
1F
100
AcDbEntity
  8
0
  6
Continuous
 62
     7
370
    25
100
AcDbSpline
210
0.0
220
0.0
230
1.0
 70
     8
 71
     3
 72
    22
 73
    18
 74
     0
 42
0.000000001
 43
0.00000001
 40
0.0
 40
0.0
 40
0.0
 40
0.0
 40
0.125
 40
0.125
 40
0.25
 40
0.25
 40
0.375
 40
0.375
 40
0.5
 40
0.5
 40
0.625
 40
0.625
 40
0.75
 40
0.75
 40
0.875
 40
0.875
 40
1.0
 40
1.0
 40
1.0
 40
1.0
 10
64.83172658968117
 20
136.2213994630649
 30
0.0
 10
64.79455450563415
 20
136.2276031136683
 30
0.0
 10
64.75943508022608
 20
136.2617683806988
 30
0.0
 10
64.69140339731567
 20
136.3824639840747
 30
0.0
 10
64.65825260642077
 20
136.4687708086084
 30
0.0
 10
64.58303609100057
 20
136.6930656086933
 30
0.0
 10
64.54101007633659
 20
136.8308181264906
 30
0.0
 10
64.43658289913812
 20
137.1428811006206
 30
0.0
 10
64.3736202527905
 20
137.3189639586408
 30
0.0
 10
64.20985280190881
 20
137.7019301565551
 30
0.0
 10
64.11155183701118
 20
137.902550138645
 30
0.0
 10
63.8702871470048
 20
138.3102774519043
 30
0.0
 10
63.72492520359999
 20
138.520047797701
 30
0.0
 10
63.39214064795446
 20
138.9167788267657
 30
0.0
 10
63.20507220024364
 20
139.1045284835828
 30
0.0
 10
62.78666978415342
 20
139.4492713894296
 30
0.0
 10
62.55817570039049
 20
139.6033520017869
 30
0.0
 10
62.31722866313459
 20
139.7328736529101
 30
0.0
  0
LWPOLYLINE
  5
1AC
330
1F
100
AcDbEntity
  8
0
  6
Continuous
 62
     7
370
    25
100
AcDbPolyline
 90
        9
 70
   128
 43
0.0
 10
127.2283238153
 20
139.7328754649
 10
127.6365262251
 20
139.0258526192
 10
128.0221682768
 20
138.3578931675
 10
128.3726584892
 20
137.7508347616
 10
128.6765155177
 20
137.2245294735
 10
128.9238226394
 20
136.7961844192
 10
129.1064810734
 20
136.4798104153
 10
129.2185229044
 20
136.2857488677
 10
129.2562824468
 20
136.2203513966
  0
LINE
  5
1AD
330
1F
100
AcDbEntity
  8
0
  6
Continuous
 62
     7
370
    25
100
AcDbLine
 10
65.8200750853
 20
96.2203522906
 30
0.0
 11
66.2128277849
 21
96.2203522906
 31
0.0
  0
LWPOLYLINE
  5
1AE
330
1F
100
AcDbEntity
  8
0
  6
Continuous
 62
     7
370
    25
100
AcDbPolyline
 90
       29
 70
   128
 43
0.0
 10
82.894102184
 20
149.961585714
 10
83.9985371362
 20
150.1025208965
 10
85.0475919227
 20
150.4852125183
 10
85.9886617194
 20
151.090471609
 10
86.7745545487
 20
151.8879482285
 10
87.3658698778
 20
152.8376532481
 10
87.7329488079
 20
153.8919644192
 10
87.8573884051
 20
154.9980142847
 10
87.7329488079
 20
156.1003407226
 10
87.3658698778
 20
157.1436678753
 10
86.7745545487
 20
158.0756796286
 10
85.9886617194
 20
158.8496422157
 10
85.0475919227
 20
159.4267436997
 10
83.9985371362
 20
159.7780469567
 10
82.894102184
 20
159.8859369517
 10
81.7896672319
 20
159.7450017691
 10
80.7406124453
 20
159.3623101473
 10
79.7995445113
 20
158.7570510567
 10
79.0136498194
 20
157.9595744372
 10
78.4223363529
 20
157.0098694176
 10
78.0552555601
 20
155.9555591778
 10
77.930815963
 20
154.8495093123
 10
78.0552555601
 20
153.7471828744
 10
78.4223363529
 20
152.7038557217
 10
79.0136498194
 20
151.7718439684
 10
79.7995445113
 20
150.9978813813
 10
80.7406124453
 20
150.4207798973
 10
81.7896672319
 20
150.069475709
 10
82.894102184
 20
149.961585714
  0
SPLINE
  5
1AF
330
1F
100
AcDbEntity
  8
0
  6
Continuous
 62
     7
370
    25
100
AcDbSpline
210
0.0
220
0.0
230
1.0
 70
     8
 71
     3
 72
     8
 73
     4
 74
     0
 42
0.000000001
 43
0.00000001
 40
0.0
 40
0.0
 40
0.0
 40
0.0
 40
1.0
 40
1.0
 40
1.0
 40
1.0
 10
60.28669249721037
 20
140.2203510265307
 30
0.0
 10
59.87866832948399
 20
142.6169192591776
 30
0.0
 10
59.47355588033411
 20
145.0140131908205
 30
0.0
 10
59.07119378504351
 20
147.4116036877134
 30
0.0
  0
LINE
  5
1B0
330
1F
100
AcDbEntity
  8
0
  6
Continuous
 62
     7
370
    25
100
AcDbLine
 10
59.0711938943
 20
147.4116040156
 30
0.0
 11
69.0947226043
 21
151.0401075468
 31
0.0
  0
LINE
  5
1B1
330
1F
100
AcDbEntity
  8
0
  6
Continuous
 62
     7
370
    25
100
AcDbLine
 10
69.0947226043
 20
151.0401075468
 30
0.0
 11
69.1113578881
 21
150.9370175884
 31
0.0
  0
ARC
  5
1B2
330
1F
100
AcDbEntity
  8
0
  6
Continuous
 62
     7
370
    25
100
AcDbCircle
 10
72.5390858106
 20
151.5540916968
 30
0.0
 40
3.482829189822204
100
AcDbArc
 50
190.2053188857
 51
9.7431018847
  0
LINE
  5
1B3
330
1F
100
AcDbEntity
  8
0
  6
Continuous
 62
     7
370
    25
100
AcDbLine
 10
75.9716802071
 20
152.1434938297
 30
0.0
 11
73.0889481287
 21
170.0083509315
 31
0.0
  0
LINE
  5
1B4
330
1F
100
AcDbEntity
  8
0
  6
Continuous
 62
     7
370
    25
100
AcDbLine
 10
109.7487699966
 20
170.0083509315
 30
0.0
 11
73.0889481287
 21
170.0083509315
 31
0.0
  0
SPLINE
  5
1B5
330
1F
100
AcDbEntity
  8
0
  6
Continuous
 62
     7
370
    25
100
AcDbSpline
210
0.0
220
0.0
230
1.0
 70
     8
 71
     3
 72
    12
 73
     8
 74
     0
 42
0.000000001
 43
0.00000001
 40
0.0
 40
0.0
 40
0.0
 40
0.0
 40
0.4999999999999982
 40
0.4999999999999982
 40
0.7499999999999991
 40
0.7499999999999991
 40
1.0
 40
1.0
 40
1.0
 40
1.0
 10
62.31722866313459
 20
139.7328736529101
 30
0.0
 10
62.00586360278857
 20
139.9002486792951
 30
0.0
 10
61.67949693141185
 20
140.0246881240387
 30
0.0
 10
61.16790603769981
 20
140.1482648471321
 30
0.0
 10
60.99260259804251
 20
140.178874560488
 30
0.0
 10
60.64078703254831
 20
140.2168297194727
 30
0.0
 10
60.4641228202195
 20
140.2243781068321
 30
0.0
 10
60.28669249721036
 20
140.2203510265307
 30
0.0
  0
LINE
  5
1B6
330
1F
100
AcDbEntity
  8
0
  6
Continuous
 62
     7
370
    25
100
AcDbLine
 10
109.7487699966
 20
170.0083509315
 30
0.0
 11
127.2283238153
 21
139.7328754649
 31
0.0
  0
LINE
  5
1B7
330
1F
100
AcDbEntity
  8
0
  6
Continuous
 62
     7
370
    25
100
AcDbLine
 10
60.1647030357
 20
140.2203520522
 30
0.0
 11
60.2866923231
 21
140.2203520522
 31
0.0
  0
CIRCLE
  5
1B8
330
1F
100
AcDbEntity
  8
0
  6
Continuous
 62
     7
370
    25
100
AcDbCircle
 10
82.8885477446
 20
154.856161492
 30
0.0
 40
4.459781273079169
  0
LWPOLYLINE
  5
1B9
330
1F
100
AcDbEntity
  8
0
  6
Continuous
 62
     7
370
    25
100
AcDbPolyline
 90
        3
 70
   128
 43
0.0
 10
69.8371236007
 20
150.2058008448
 10
70.0968834366
 20
149.3409001962
 10
70.4481662046
 20
148.7367195771
  0
ELLIPSE
  5
1BA
330
1F
100
AcDbEntity
  8
0
  6
Continuous
 62
     7
370
    25
100
AcDbEllipse
 10
133.4469280027
 20
173.1918187903
 30
0.0
 11
74.2810436528719
 21
26.59755252299041
 31
0.0
210
0.0
220
0.0
230
1.0
 40
0.1478633541
 41
3.07284362419898
 42
3.114103101114924
  0
LINE
  5
1BB
330
1F
100
AcDbEntity
  8
0
  6
Continuous
 62
     7
370
    25
100
AcDbLine
 10
69.8204883169
 20
150.3088908032
 30
0.0
 11
69.0947226043
 21
151.0401075468
 31
0.0
  0
LINE
  5
1BC
330
1F
100
AcDbEntity
  8
0
  6
Continuous
 62
     7
370
    25
100
AcDbLine
 10
69.8204883169
 20
150.3088908032
 30
0.0
 11
69.8166996966
 21
150.3323694453
 31
0.0
  0
LINE
  5
1BD
330
1F
100
AcDbEntity
  8
0
  6
Continuous
 62
     7
370
    25
100
AcDbLine
 10
70.2579007278
 20
150.4920838163
 30
0.0
 11
70.3947529923
 21
149.6439823643
 31
0.0
  0
ELLIPSE
  5
1BE
330
1F
100
AcDbEntity
  8
0
  6
Continuous
 62
     7
370
    25
100
AcDbEllipse
 10
76.7384856151
 20
155.6320294756
 30
0.0
 11
5.624217682913169
 21
-1.433177056048152
 31
0.0
210
0.0
220
0.0
230
1.0
 40
0.7123041492
 41
4.693727735907736
 42
4.73807637376221
  0
LINE
  5
1BF
330
1F
100
AcDbEntity
  8
0
  6
Continuous
 62
     7
370
    25
100
AcDbLine
 10
75.9134092163
 20
151.274394779
 30
0.0
 11
75.9479556958
 21
150.9532673047
 31
0.0
  0
ARC
  5
1C0
330
1F
100
AcDbEntity
  8
0
  6
Continuous
 62
     7
370
    25
100
AcDbCircle
 10
72.820126008
 20
150.6834647379
 30
0.0
 40
3.021004163685264
100
AcDbArc
 50
189.097459108
 51
222.967019557
  0
LINE
  5
1C1
330
1F
100
AcDbEntity
  8
0
  6
Continuous
 62
     7
370
    25
100
AcDbLine
 10
75.7174943368
 20
152.488515316
 30
0.0
 11
75.9134092163
 21
151.274394779
 31
0.0
  0
LWPOLYLINE
  5
1C2
330
1F
100
AcDbEntity
  8
0
  6
Continuous
 62
     7
370
    25
100
AcDbPolyline
 90
        3
 70
   128
 43
0.0
 10
70.3947529923
 20
149.6439823643
 10
70.6555736046
 20
148.8119350508
 10
70.8363377284
 20
148.4883581982
  0
LINE
  5
1C3
330
1F
100
AcDbEntity
  8
0
  6
Continuous
 62
     7
370
    25
100
AcDbLine
 10
74.3811283986
 20
151.9846865669
 30
0.0
 11
75.6128565203
 21
151.653316407
 31
0.0
  0
LINE
  5
1C4
330
1F
100
AcDbEntity
  8
VERMASSUNG
100
AcDbLine
 10
54.652758097
 20
165.0875169803
 30
0.0
 11
54.652758097
 21
167.8078890597
 31
0.0
  0
DIMENSION
  5
1C5
330
1F
100
AcDbEntity
  8
VERMASSUNG
100
AcDbDimension
  2
_D
 10
54.652758097
 20
167.8078890597
 30
0.0
 11
63.4496676662
 21
178.4474750225
 31
0.0
 70
   162
  1
<>
 71
     1
 42
-1.0
  3
SLDDIMSTYLE0
100
AcDb2LineAngularDimension
 13
71.307720069
 23
171.9365215979
 33
0.0
 14
55.4530138488
 24
166.1971390429
 34
0.0
 15
54.652758097
 25
165.0875169803
 35
0.0
 16
63.4496676662
 26
178.4474750225
 36
0.0
  0
DIMENSION
  5
1CF
330
1F
100
AcDbEntity
  8
VERMASSUNG
100
AcDbDimension
  2
_D_1
 10
129.2562804799
 20
192.1610295086
 30
0.0
 11
91.9545192885
 21
192.1610295086
 31
0.0
 70
   160
  1
<>
 71
     2
 42
-1.0
  3
SLDDIMSTYLE1
100
AcDbAlignedDimension
 13
54.652758097
 23
167.8078890597
 33
0.0
 14
129.2562804799
 24
128.4175492815
 34
0.0
100
AcDbRotatedDimension
  0
DIMENSION
  5
1DA
330
1F
100
AcDbEntity
  8
VERMASSUNG
100
AcDbDimension
  2
_D_2
 10
43.0939282481
 20
172.0172956446
 30
0.0
 11
43.0939282481
 21
134.5760157144
 31
0.0
 70
   160
  1
<>
 71
     2
 42
-1.0
  3
SLDDIMSTYLE2
100
AcDbAlignedDimension
 13
74.2934748746
 23
97.1347357843
 33
0.0
 14
71.6983372693
 24
172.0172956446
 34
0.0
 50
90.0
100
AcDbRotatedDimension
  0
DIMENSION
  5
1E5
330
1F
100
AcDbEntity
  8
VERMASSUNG
100
AcDbDimension
  2
_D_3
 10
129.2562804799
 20
83.4367674096
 30
0.0
 11
96.7562804799
 21
83.4367674096
 31
0.0
 70
   160
  1
<>
 71
     2
 42
-1.0
  3
SLDDIMSTYLE1
100
AcDbAlignedDimension
 13
64.2562804799
 23
115.4583510265
 33
0.0
 14
129.2562804799
 24
96.2203510265
 34
0.0
100
AcDbRotatedDimension
  0
LINE
  5
1EF
330
1F
100
AcDbEntity
  8
0
  6
Continuous
 62
     7
370
    25
100
AcDbLine
 10
221.8266888012
 20
35.4418034535
 30
0.0
 11
218.0083120838
 21
33.2375014944
 31
0.0
  0
LINE
  5
1F0
330
1F
100
AcDbEntity
  8
0
  6
Continuous
 62
     7
370
    25
100
AcDbLine
 10
220.0081484355
 20
29.773306147
 30
0.0
 11
223.826525153
 21
31.9776081061
 31
0.0
  0
LINE
  5
1F1
330
1F
100
AcDbEntity
  8
0
  6
Continuous
 62
     7
370
    25
100
AcDbLine
 10
252.1715399136
 20
45.4834056855
 30
0.0
 11
254.8685154328
 21
47.0403365125
 31
0.0
  0
LINE
  5
1F2
330
1F
100
AcDbEntity
  8
0
  6
Continuous
 62
     7
370
    25
100
AcDbLine
 10
252.8686764469
 20
50.5045333806
 30
0.0
 11
252.1715385965
 21
50.102084266
 31
0.0
  0
LINE
  5
1F3
330
1F
100
AcDbEntity
  8
0
  6
Continuous
 62
     7
370
    25
100
AcDbLine
 10
246.5754288823
 20
21.1546599151
 30
0.0
 11
242.7570521649
 21
18.950357956
 31
0.0
  0
LINE
  5
1F4
330
1F
100
AcDbEntity
  8
0
  6
Continuous
 62
     7
370
    25
100
AcDbLine
 10
244.7568885166
 20
15.4861626086
 30
0.0
 11
248.575265234
 21
17.6904645677
 31
0.0
  0
LINE
  5
1F5
330
1F
100
AcDbEntity
  8
0
  6
Continuous
 62
     7
370
    25
100
AcDbLine
 10
278.6654114163
 20
43.8033039418
 30
0.0
 11
276.1821233826
 21
42.3673296263
 31
0.0
  0
LINE
  5
1F6
330
1F
100
AcDbEntity
  8
0
  6
Continuous
 62
     7
370
    25
100
AcDbLine
 10
281.8468135926
 20
29.7782208792
 30
0.0
 11
284.330101544
 21
31.2141948145
 31
0.0
  0
LINE
  5
1F7
330
1F
100
AcDbEntity
  8
0
  6
Continuous
 62
     7
370
    25
100
AcDbLine
 10
218.9488891433
 20
67.9329664698
 30
0.0
 11
219.3377861817
 21
68.0588904813
 31
0.0
  0
LINE
  5
1F8
330
1F
100
AcDbEntity
  8
0
  6
Continuous
 62
     7
370
    25
100
AcDbLine
 10
215.7900154865
 20
78.7992569144
 30
0.0
 11
213.3067303751
 21
77.9951776653
 31
0.0
  0
LINE
  5
1F9
330
1F
100
AcDbEntity
  8
0
  6
Continuous
 62
     7
370
    25
100
AcDbLine
 10
276.460251753
 20
41.7932256711
 30
0.0
 11
274.7160877333
 21
40.7846496071
 31
0.0
  0
LINE
  5
1FA
330
1F
100
AcDbEntity
  8
0
  6
Continuous
 62
     7
370
    25
100
AcDbLine
 10
279.951184336
 20
29.3410372964
 30
0.0
 11
281.6953537065
 21
30.3496100813
 31
0.0
  0
LINE
  5
1FB
330
1F
100
AcDbEntity
  8
0
  6
Continuous
 62
     7
370
    25
100
AcDbLine
 10
222.6909066372
 20
77.9211411722
 30
0.0
 11
222.5965135016
 21
78.0043208186
 31
0.0
  0
LINE
  5
1FC
330
1F
100
AcDbEntity
  8
0
  6
Continuous
 62
     7
370
    25
100
AcDbLine
 10
217.7584325563
 20
79.1136530757
 30
0.0
 11
216.4351247399
 21
78.685170408
 31
0.0
  0
LINE
  5
1FD
330
1F
100
AcDbEntity
  8
0
  6
Continuous
 62
     7
370
    25
100
AcDbLine
 10
216.7370506862
 20
71.1095064301
 30
0.0
 11
216.9531597221
 21
71.1922015999
 31
0.0
  0
LINE
  5
1FE
330
1F
100
AcDbEntity
  8
0
  6
Continuous
 62
     7
370
    25
100
AcDbLine
 10
216.2207512775
 20
74.7251814462
 30
0.0
 11
215.4264955019
 21
74.4212545735
 31
0.0
  0
LWPOLYLINE
  5
1FF
330
1F
100
AcDbEntity
  8
0
  6
Continuous
 62
     7
370
    25
100
AcDbPolyline
 90
       22
 70
   128
 43
0.0
 10
219.7511106115
 20
29.6869269042
 10
219.3634043862
 20
29.7196254102
 10
218.9441367569
 20
29.9110014229
 10
218.5305668546
 20
30.2440446022
 10
218.1594375117
 20
30.6891634615
 10
217.8637286371
 20
31.2068109414
 10
217.6697135225
 20
31.7509906278
 10
217.594631546
 20
32.2733470635
 10
217.6451537636
 20
32.7274705848
 10
217.8167915358
 20
33.0730045256
 10
218.0942942889
 20
33.2792513705
 10
218.4530034824
 20
33.3278862126
 10
218.8610481963
 20
33.2145820696
 10
219.282170287
 20
32.9494109119
 10
219.6789499385
 20
32.5559367339
 10
220.0161352633
 20
32.0691139464
 10
220.2637638034
 20
31.5322047532
 10
220.3998322696
 20
30.9929139687
 10
220.412252419
 20
30.4991572253
 10
220.2999152627
 20
30.0948146488
 10
220.0728096037
 20
29.8158053598
 10
219.7511106115
 20
29.6869269042
  0
LWPOLYLINE
  5
200
330
1F
100
AcDbEntity
  8
0
  6
Continuous
 62
     7
370
    25
100
AcDbPolyline
 90
       12
 70
   128
 43
0.0
 10
254.8685154328
 20
47.0403365125
 10
255.108038607
 20
47.2705100399
 10
255.253706018
 20
47.6432280922
 10
255.2763019972
 20
48.1162807167
 10
255.1738140325
 20
48.6476354196
 10
254.9553537458
 20
49.1900789569
 10
254.6403297607
 20
49.6954150115
 10
254.2567328532
 20
50.1187393555
 10
253.8386492869
 20
50.4224366087
 10
253.4232262403
 20
50.5795259918
 10
253.0473764504
 20
50.5760473487
 10
252.8686764469
 20
50.5045333806
  0
LWPOLYLINE
  5
201
330
1F
100
AcDbEntity
  8
0
  6
Continuous
 62
     7
370
    25
100
AcDbPolyline
 90
       22
 70
   128
 43
0.0
 10
245.128750161
 20
16.0293200984
 10
244.9664637208
 20
15.6737276319
 10
244.6967080853
 20
15.4553734238
 10
244.3434542745
 20
15.3936606527
 10
243.9380858855
 20
15.4940706381
 10
243.5166279371
 20
15.7476819679
 10
243.1165226358
 20
16.131961077
 10
242.7733208484
 20
16.6127634757
 10
242.5175263564
 20
17.1473661792
 10
242.3718563113
 20
17.688269765
 10
242.3492656005
 20
18.1874081104
 10
242.451750931
 20
18.6004342487
 10
242.6702085835
 20
18.8906504284
 10
242.9852352027
 20
19.0322660112
 10
243.3688294761
 20
19.0127003136
 10
243.7869156766
 20
18.8336870353
 10
244.2023360889
 20
18.5111406989
 10
244.5781858789
 20
18.0737151251
 10
244.8810689374
 20
17.5602759595
 10
245.0840692332
 20
17.0164484501
 10
245.1691479153
 20
16.4905568
 10
245.128750161
 20
16.0293200984
  0
ARC
  5
202
330
1F
100
AcDbEntity
  8
0
  6
Continuous
 62
     7
370
    25
100
AcDbCircle
 10
230.1314555477
 20
35.9484250732
 30
0.0
 40
1.922607788277314
100
AcDbArc
 50
292.5884778332
 51
4.3633581594
  0
LINE
  5
203
330
1F
100
AcDbEntity
  8
0
  6
Continuous
 62
     7
370
    25
100
AcDbLine
 10
282.0245076694
 20
35.6675790035
 30
0.0
 11
281.9202525828
 21
29.9489045339
 31
0.0
  0
LWPOLYLINE
  5
204
330
1F
100
AcDbEntity
  8
0
  6
Continuous
 62
     7
370
    25
100
AcDbPolyline
 90
        8
 70
   128
 43
0.0
 10
281.9202525828
 20
29.9489045339
 10
281.9097906155
 20
29.8693190766
 10
281.8821017824
 20
29.8100402944
 10
281.8385038311
 20
29.7738756949
 10
281.7810598991
 20
29.7625415495
 10
281.7124929035
 20
29.7765754252
 10
281.6360575358
 20
29.8153101679
 10
281.5715306284
 20
29.8630016454
  0
LINE
  5
205
330
1F
100
AcDbEntity
  8
0
  6
Continuous
 62
     7
370
    25
100
AcDbLine
 10
276.1058853313
 20
42.0430253634
 30
0.0
 11
276.1086844747
 21
42.1966453537
 31
0.0
  0
LWPOLYLINE
  5
206
330
1F
100
AcDbEntity
  8
0
  6
Continuous
 62
     7
370
    25
100
AcDbPolyline
 90
        9
 70
   128
 43
0.0
 10
276.1086844747
 20
42.1966453537
 10
276.119146442
 20
42.276230906
 10
276.1468352751
 20
42.3355098784
 10
276.1904330618
 20
42.371674668
 10
276.2478770761
 20
42.3830088847
 10
276.3164440717
 20
42.3689748188
 10
276.3928793571
 20
42.3302400999
 10
276.4735637363
 20
42.2686388399
 10
276.5546725475
 20
42.1870908545
  0
LINE
  5
207
330
1F
100
AcDbEntity
  8
0
  6
Continuous
 62
     7
370
    25
100
AcDbLine
 10
276.5546725475
 20
42.1870908545
 30
0.0
 11
281.7229117362
 21
36.3554782856
 31
0.0
  0
ARC
  5
208
330
1F
100
AcDbEntity
  8
0
  6
Continuous
 62
     7
370
    25
100
AcDbCircle
 10
280.8807162938
 20
35.576170182
 30
0.0
 40
1.147438139242813
100
AcDbArc
 50
4.5692181238
 51
42.7789908885
  0
LINE
  5
209
330
1F
100
AcDbEntity
  8
0
  6
Continuous
 62
     7
370
    25
100
AcDbLine
 10
279.0379553129
 20
43.6230682322
 30
0.0
 11
284.2061997905
 21
37.7914526606
 31
0.0
  0
ARC
  5
20A
330
1F
100
AcDbEntity
  8
0
  6
Continuous
 62
     7
370
    25
100
AcDbCircle
 10
283.3639481214
 20
37.0121201097
 30
0.0
 40
1.147496012564673
100
AcDbArc
 50
4.5701992612
 51
42.7779800886
  0
LINE
  5
20B
330
1F
100
AcDbEntity
  8
0
  6
Continuous
 62
     7
370
    25
100
AcDbLine
 10
284.5077956208
 20
37.1035531289
 30
0.0
 11
284.4035352659
 21
31.3848822711
 31
0.0
  0
LWPOLYLINE
  5
20C
330
1F
100
AcDbEntity
  8
0
  6
Continuous
 62
     7
370
    25
100
AcDbPolyline
 90
        7
 70
   128
 43
0.0
 10
278.6654114163
 20
43.8033039418
 10
278.6737210956
 20
43.8076489955
 10
278.7311650275
 20
43.8189831824
 10
278.7997267548
 20
43.8049521549
 10
278.8761673909
 20
43.766214445
 10
278.9568516877
 20
43.7046131376
 10
279.0379553129
 20
43.6230682322
  0
ARC
  5
20D
330
1F
100
AcDbEntity
  8
0
  6
Continuous
 62
     7
370
    25
100
AcDbCircle
 10
284.2169321816
 20
31.3640230893
 30
0.0
 40
0.1877653229601916
100
AcDbArc
 50
307.0647411809
 51
6.378255039
  0
LINE
  5
20E
330
1F
100
AcDbEntity
  8
0
  6
Continuous
 62
     7
370
    25
100
AcDbLine
 10
218.5876056993
 20
76.8539032133
 30
0.0
 11
213.4193650907
 21
77.9990763469
 31
0.0
  0
ARC
  5
20F
330
1F
100
AcDbEntity
  8
0
  6
Continuous
 62
     7
370
    25
100
AcDbCircle
 10
218.2420336858
 20
76.1405698351
 30
0.0
 40
0.7926313929036342
100
AcDbArc
 50
357.0181120533
 51
64.1522842981
  0
LINE
  5
210
330
1F
100
AcDbEntity
  8
0
  6
Continuous
 62
     7
370
    25
100
AcDbLine
 10
219.137848941
 20
68.3239436956
 30
0.0
 11
219.0335918788
 21
76.0993369345
 31
0.0
  0
LWPOLYLINE
  5
211
330
1F
100
AcDbEntity
  8
0
  6
Continuous
 62
     7
370
    25
100
AcDbPolyline
 90
        9
 70
   128
 43
0.0
 10
218.8362544895
 20
67.9290680614
 10
218.8988565536
 20
67.9236850733
 10
218.9573626355
 20
67.9359281645
 10
219.0099953236
 20
67.9654256691
 10
219.0551553425
 20
68.011280661
 10
219.091470944
 20
68.072100236
 10
219.1178375844
 20
68.1460366753
 10
219.1334557906
 20
68.2308435326
 10
219.137848941
 20
68.3239436956
  0
LINE
  5
212
330
1F
100
AcDbEntity
  8
0
  6
Continuous
 62
     7
370
    25
100
AcDbLine
 10
213.6680132428
 20
69.074241204
 30
0.0
 11
218.8362544895
 21
67.9290680614
 31
0.0
  0
ARC
  5
213
330
1F
100
AcDbEntity
  8
0
  6
Continuous
 62
     7
370
    25
100
AcDbCircle
 10
214.0135870275
 20
69.7875756395
 30
0.0
 40
0.7926331166095222
100
AcDbArc
 50
177.0181811011
 51
244.1522024061
  0
LINE
  5
214
330
1F
100
AcDbEntity
  8
0
  6
Continuous
 62
     7
370
    25
100
AcDbLine
 10
213.1177699626
 20
77.6042010321
 30
0.0
 11
213.2220270634
 21
69.8288076758
 31
0.0
  0
LWPOLYLINE
  5
215
330
1F
100
AcDbEntity
  8
0
  6
Continuous
 62
     7
370
    25
100
AcDbPolyline
 90
        9
 70
   128
 43
0.0
 10
213.4193650907
 20
77.9990763469
 10
213.3567630677
 20
78.0044593588
 10
213.2982568006
 20
77.9922163033
 10
213.2456239736
 20
77.9627189739
 10
213.2004638106
 20
77.9168638038
 10
213.1641484715
 20
77.8560438872
 10
213.1377813887
 20
77.7821074656
 10
213.1221637047
 20
77.6973009961
 10
213.1177699626
 20
77.6042010321
  0
LWPOLYLINE
  5
216
330
1F
100
AcDbEntity
  8
0
  6
Continuous
 62
     7
370
    25
100
AcDbPolyline
 90
        9
 70
   128
 43
0.0
 10
218.8350506701
 20
67.9386465329
 10
218.8966095997
 20
67.9333531678
 10
218.9541403772
 20
67.9453927366
 10
219.0058960486
 20
67.9743982343
 10
219.0503035158
 20
68.0194893725
 10
219.0860140796
 20
68.0792949219
 10
219.1119418
 20
68.1519991998
 10
219.1272988933
 20
68.2353929278
 10
219.1316192746
 20
68.3269408194
  0
LINE
  5
217
330
1F
100
AcDbEntity
  8
0
  6
Continuous
 62
     7
370
    25
100
AcDbLine
 10
219.1316192746
 20
68.3269408194
 30
0.0
 11
219.0273621301
 21
76.102334296
 31
0.0
  0
ARC
  5
218
330
1F
100
AcDbEntity
  8
0
  6
Continuous
 62
     7
370
    25
100
AcDbCircle
 10
218.2489959421
 20
76.1428795979
 30
0.0
 40
0.779421480385007
100
AcDbArc
 50
357.0181426294
 51
64.1522164729
  0
LINE
  5
219
330
1F
100
AcDbEntity
  8
0
  6
Continuous
 62
     7
370
    25
100
AcDbLine
 10
218.5888095187
 20
76.8443242338
 30
0.0
 11
213.4205683544
 21
77.9894977922
 31
0.0
  0
LWPOLYLINE
  5
21A
330
1F
100
AcDbEntity
  8
0
  6
Continuous
 62
     7
370
    25
100
AcDbPolyline
 90
        9
 70
   128
 43
0.0
 10
213.4205683544
 20
77.9894977922
 10
213.3590096923
 20
77.9947910029
 10
213.3014785444
 20
77.9827519807
 10
213.2497229347
 20
77.9537462096
 10
213.2053154212
 20
77.9086552884
 10
213.1696053536
 20
77.8488491198
 10
213.1436777081
 20
77.7761450363
 10
213.128320319
 20
77.6927519069
 10
213.1239998194
 20
77.6012037033
  0
LINE
  5
21B
330
1F
100
AcDbEntity
  8
0
  6
Continuous
 62
     7
370
    25
100
AcDbLine
 10
213.1239998194
 20
77.6012037033
 30
0.0
 11
213.2282568944
 21
69.825810552
 31
0.0
  0
ARC
  5
21C
330
1F
100
AcDbEntity
  8
0
  6
Continuous
 62
     7
370
    25
100
AcDbCircle
 10
214.0066232291
 20
69.7852650872
 30
0.0
 40
0.7794216353612118
100
AcDbArc
 50
177.0181312361
 51
244.1522436285
  0
LINE
  5
21D
330
1F
100
AcDbEntity
  8
0
  6
Continuous
 62
     7
370
    25
100
AcDbLine
 10
213.6668099174
 20
69.0838201508
 30
0.0
 11
218.8350506701
 21
67.9386465329
 31
0.0
  0
ARC
  5
21E
330
1F
100
AcDbEntity
  8
0
  6
Continuous
 62
     7
370
    25
100
AcDbCircle
 10
220.7253170889
 20
76.9446478944
 30
0.0
 40
0.7926332511437468
100
AcDbArc
 50
357.0181931283
 51
64.1521890189
  0
LINE
  5
21F
330
1F
100
AcDbEntity
  8
0
  6
Continuous
 62
     7
370
    25
100
AcDbLine
 10
218.9262263219
 20
76.3654494803
 30
0.0
 11
218.5888095187
 21
76.8443242338
 31
0.0
  0
LINE
  5
220
330
1F
100
AcDbEntity
  8
0
  6
Continuous
 62
     7
370
    25
100
AcDbLine
 10
218.9262263219
 20
76.3654494803
 30
0.0
 11
219.0273621301
 21
76.102334296
 31
0.0
  0
LINE
  5
221
330
1F
100
AcDbEntity
  8
0
  6
Continuous
 62
     7
370
    25
100
AcDbLine
 10
221.5184032906
 20
76.7896031675
 30
0.0
 11
221.516877196
 21
76.9034160173
 31
0.0
  0
LINE
  5
222
330
1F
100
AcDbEntity
  8
0
  6
Continuous
 62
     7
370
    25
100
AcDbLine
 10
218.8758353193
 20
76.1563847387
 30
0.0
 11
218.9262263219
 21
76.3654494803
 31
0.0
  0
LINE
  5
223
330
1F
100
AcDbEntity
  8
0
  6
Continuous
 62
     7
370
    25
100
AcDbLine
 10
219.0304833018
 20
68.5900558612
 30
0.0
 11
219.1316192746
 21
68.3269408194
 31
0.0
  0
LINE
  5
224
330
1F
100
AcDbEntity
  8
0
  6
Continuous
 62
     7
370
    25
100
AcDbLine
 10
218.9953258331
 20
68.8255939089
 30
0.0
 11
219.0304833018
 21
68.5900558612
 31
0.0
  0
LINE
  5
225
330
1F
100
AcDbEntity
  8
0
  6
Continuous
 62
     7
370
    25
100
AcDbLine
 10
213.967826136
 20
77.3316471484
 30
0.0
 11
213.7579851473
 21
77.5106229496
 31
0.0
  0
LINE
  5
226
330
1F
100
AcDbEntity
  8
0
  6
Continuous
 62
     7
370
    25
100
AcDbLine
 10
213.7579851473
 20
77.5106229496
 30
0.0
 11
213.4205683544
 21
77.9894977922
 31
0.0
  0
LINE
  5
227
330
1F
100
AcDbEntity
  8
0
  6
Continuous
 62
     7
370
    25
100
AcDbLine
 10
221.0708910989
 20
77.6579823703
 30
0.0
 11
215.9026502638
 21
78.8031556317
 31
0.0
  0
SPLINE
  5
228
330
1F
100
AcDbEntity
  8
0
  6
Continuous
 62
     7
370
    25
100
AcDbSpline
210
0.0
220
0.0
230
1.0
 70
     8
 71
     3
 72
    11
 73
     7
 74
     0
 42
0.000000001
 43
0.00000001
 40
0.0
 40
0.0
 40
0.0
 40
0.0
 40
0.351731562308271
 40
0.7021755655848976
 40
0.9922930431144709
 40
0.9999999999999999
 40
0.9999999999999999
 40
0.9999999999999999
 40
0.9999999999999999
 10
218.8758353193111
 20
76.15638473871336
 30
0.0
 10
218.8679365133876
 20
76.13797795210127
 30
0.0
 10
218.8521678161448
 20
76.1012317593083
 30
0.0
 10
218.7895413577099
 20
76.03474358820843
 30
0.0
 10
218.737717870667
 20
75.99033152324007
 30
0.0
 10
218.7117764436484
 20
75.97003743102779
 30
0.0
 10
218.7111051439279
 20
75.96951227031013
 30
0.0
  0
ARC
  5
229
330
1F
100
AcDbEntity
  8
0
  6
Continuous
 62
     7
370
    25
100
AcDbCircle
 10
217.4539758504
 20
75.0407139442
 30
0.0
 40
0.6605286196713469
100
AcDbArc
 50
357.0182605082
 51
64.1521701336
  0
LINE
  5
22A
330
1F
100
AcDbEntity
  8
0
  6
Continuous
 62
     7
370
    25
100
AcDbLine
 10
218.1825509422
 20
69.8647882439
 30
0.0
 11
218.1136102225
 21
75.006354775
 31
0.0
  0
LINE
  5
22B
330
1F
100
AcDbEntity
  8
0
  6
Continuous
 62
     7
370
    25
100
AcDbLine
 10
217.7419547849
 20
75.6351600652
 30
0.0
 11
214.3243973544
 21
76.3924189751
 31
0.0
  0
LWPOLYLINE
  5
22C
330
1F
100
AcDbEntity
  8
0
  6
Continuous
 62
     7
370
    25
100
AcDbPolyline
 90
        9
 70
   128
 43
0.0
 10
217.9312217112
 20
69.5357254214
 10
217.9833901254
 20
69.5312396138
 10
218.0321457974
 20
69.5414421581
 10
218.076006014
 20
69.5660235862
 10
218.1136393631
 20
69.6042363329
 10
218.1439022821
 20
69.6549188844
 10
218.1658749489
 20
69.7165332334
 10
218.1788895993
 20
69.7872048064
 10
218.1825509422
 20
69.8647882439
  0
LINE
  5
22D
330
1F
100
AcDbEntity
  8
0
  6
Continuous
 62
     7
370
    25
100
AcDbLine
 10
214.5136644043
 20
70.2929844026
 30
0.0
 11
217.9312217112
 21
69.5357254214
 31
0.0
  0
ARC
  5
22E
330
1F
100
AcDbEntity
  8
0
  6
Continuous
 62
     7
370
    25
100
AcDbCircle
 10
214.8016426245
 20
70.8874298189
 30
0.0
 40
0.6605276741786208
100
AcDbArc
 50
177.0182321878
 51
244.1521992442
  0
LINE
  5
22F
330
1F
100
AcDbEntity
  8
0
  6
Continuous
 62
     7
370
    25
100
AcDbLine
 10
214.0730680823
 20
76.0633562238
 30
0.0
 11
214.1420092135
 21
70.9217892651
 31
0.0
  0
LWPOLYLINE
  5
230
330
1F
100
AcDbEntity
  8
0
  6
Continuous
 62
     7
370
    25
100
AcDbPolyline
 90
        9
 70
   128
 43
0.0
 10
214.3243973544
 20
76.3924189751
 10
214.2722290225
 20
76.3969048302
 10
214.2234737622
 20
76.3867020483
 10
214.1796131339
 20
76.3621207627
 10
214.1419796202
 20
76.3239082061
 10
214.1117168659
 20
76.2732250844
 10
214.0897442814
 20
76.2116115433
 10
214.0767295486
 20
76.1409392574
 10
214.0730680823
 20
76.0633562238
  0
LWPOLYLINE
  5
231
330
1F
100
AcDbEntity
  8
0
  6
Continuous
 62
     7
370
    25
100
AcDbPolyline
 90
        9
 70
   128
 43
0.0
 10
214.8911855802
 20
73.5590611033
 10
214.9533413157
 20
72.9944670388
 10
215.119853636
 20
72.4271725827
 10
215.3759274332
 20
71.9075838262
 10
215.6988090066
 20
71.4818689514
 10
216.0598094411
 20
71.1878537379
 10
216.4268517745
 20
71.051663837
 10
216.7673231541
 20
71.0853996232
 10
216.9531597221
 20
71.1922015709
  0
LWPOLYLINE
  5
232
330
1F
100
AcDbEntity
  8
0
  6
Continuous
 62
     7
370
    25
100
AcDbPolyline
 90
       12
 70
   128
 43
0.0
 10
217.3520226792
 20
72.598277928
 10
217.3469728776
 20
72.6478482676
 10
217.2313472792
 20
73.2201849047
 10
217.0176677787
 20
73.7697651395
 10
216.7249202141
 20
74.2477557851
 10
216.3791170112
 20
74.6116854905
 10
216.0109838812
 20
74.8292175539
 10
215.6532313059
 20
74.8810232715
 10
215.3376469818
 20
74.7624992451
 10
215.0922721457
 20
74.4841774412
 10
214.9389093952
 20
74.070787535
 10
214.8911855802
 20
73.5590611033
  0
SPLINE
  5
233
330
1F
100
AcDbEntity
  8
0
  6
Continuous
 62
     7
370
    25
100
AcDbSpline
210
0.0
220
0.0
230
1.0
 70
     8
 71
     3
 72
    11
 73
     7
 74
     0
 42
0.000000001
 43
0.00000001
 40
0.0
 40
0.0
 40
0.0
 40
0.0
 40
0.3382137556586981
 40
0.6756041077818846
 40
0.9917757397609492
 40
1.0
 40
1.0
 40
1.0
 40
1.0
 10
218.9953258330607
 20
68.82559390889854
 30
0.0
 10
218.9862671912702
 20
68.86079850788715
 30
0.0
 10
218.9681719615457
 20
68.93112199796278
 30
0.0
 10
218.8989670304067
 20
69.02746005129974
 30
0.0
 10
218.8397172698559
 20
69.0812286135452
 30
0.0
 10
218.8081738092815
 20
69.10403087712673
 30
0.0
 10
218.8073741023961
 20
69.1046089724548
 30
0.0
  0
LINE
  5
234
330
1F
100
AcDbEntity
  8
0
  6
Continuous
 62
     7
370
    25
100
AcDbLine
 10
219.0304833018
 20
68.5900558612
 30
0.0
 11
218.8350506701
 21
67.9386465329
 31
0.0
  0
LINE
  5
235
330
1F
100
AcDbEntity
  8
0
  6
Continuous
 62
     7
370
    25
100
AcDbLine
 10
213.8622422198
 20
69.7352297642
 30
0.0
 11
213.6668099174
 21
69.0838201508
 31
0.0
  0
LINE
  5
236
330
1F
100
AcDbEntity
  8
0
  6
Continuous
 62
     7
370
    25
100
AcDbLine
 10
214.2030230329
 20
70.0383218017
 30
0.0
 11
213.8622422198
 21
69.7352297642
 31
0.0
  0
SPLINE
  5
237
330
1F
100
AcDbEntity
  8
0
  6
Continuous
 62
     7
370
    25
100
AcDbSpline
210
0.0
220
0.0
230
1.0
 70
     8
 71
     3
 72
    11
 73
     7
 74
     0
 42
0.000000001
 43
0.00000001
 40
0.0
 40
0.0
 40
0.0
 40
0.0
 40
0.0082249213322696
 40
0.3243957830729432
 40
0.6617850251967017
 40
1.0
 40
1.0
 40
1.0
 40
1.0
 10
214.1170999218807
 20
77.04010811219861
 30
0.0
 10
214.1170691364178
 20
77.04093523556024
 30
0.0
 10
214.1158549394748
 20
77.07355747226723
 30
0.0
 10
214.1027185589184
 20
77.14225790652984
 30
0.0
 10
214.0541017884475
 20
77.24526246215926
 30
0.0
 10
213.9966081099693
 20
77.30282880016757
 30
0.0
 10
213.9678261359516
 20
77.33164714835308
 30
0.0
  0
LINE
  5
238
330
1F
100
AcDbEntity
  8
0
  6
Continuous
 62
     7
370
    25
100
AcDbLine
 10
213.8622422198
 20
69.7352297642
 30
0.0
 11
213.2282568944
 21
69.825810552
 31
0.0
  0
LINE
  5
239
330
1F
100
AcDbEntity
  8
0
  6
Continuous
 62
     7
370
    25
100
AcDbLine
 10
213.7579851473
 20
77.5106229496
 30
0.0
 11
213.1239998194
 21
77.6012037033
 31
0.0
  0
LWPOLYLINE
  5
23A
330
1F
100
AcDbEntity
  8
0
  6
Continuous
 62
     7
370
    25
100
AcDbPolyline
 90
        3
 70
   128
 43
0.0
 10
215.9026502638
 20
78.8031556317
 10
215.8400481997
 20
78.8085386198
 10
215.7900154865
 20
78.7992569144
  0
SPLINE
  5
23B
330
1F
100
AcDbEntity
  8
0
  6
Continuous
 62
     7
370
    25
100
AcDbSpline
210
0.0
220
0.0
230
1.0
 70
     8
 71
     3
 72
    11
 73
     7
 74
     0
 42
0.000000001
 43
0.00000001
 40
0.0
 40
0.0
 40
0.0
 40
0.0
 40
0.0077058198117273
 40
0.2978253434312221
 40
0.6482687539048205
 40
1.0
 40
1.0
 40
1.0
 40
1.0
 10
214.3092912077414
 20
70.20626414689575
 30
0.0
 10
214.3093380093492
 20
70.2059716913783
 30
0.0
 10
214.3111468636
 20
70.19466845991809
 30
0.0
 10
214.3068837379251
 20
70.16564766603162
 30
0.0
 10
214.27573410031
 20
70.1093558277076
 30
0.0
 10
214.2272896721789
 20
70.06202874404993
 30
0.0
 10
214.2030230329411
 20
70.0383218016913
 30
0.0
  0
LINE
  5
23C
330
1F
100
AcDbEntity
  8
0
  6
Continuous
 62
     7
370
    25
100
AcDbLine
 10
279.8505728939
 20
29.6164040828
 30
0.0
 11
279.9398036991
 21
34.5107634932
 31
0.0
  0
LWPOLYLINE
  5
23D
330
1F
100
AcDbEntity
  8
0
  6
Continuous
 62
     7
370
    25
100
AcDbPolyline
 90
        3
 70
   128
 43
0.0
 10
279.8105182413
 20
29.4539026189
 10
279.8374955171
 20
29.516922689
 10
279.8505728939
 20
29.6164040828
  0
ARC
  5
23E
330
1F
100
AcDbEntity
  8
0
  6
Continuous
 62
     7
370
    25
100
AcDbCircle
 10
274.5138455899
 20
39.8519755945
 30
0.0
 40
0.8070142815304802
100
AcDbArc
 50
39.1655556026
 51
65.6665530596
  0
LINE
  5
23F
330
1F
100
AcDbEntity
  8
0
  6
Continuous
 62
     7
370
    25
100
AcDbLine
 10
279.5628113344
 20
35.3706362654
 30
0.0
 11
275.1395433764
 21
40.3616562107
 31
0.0
  0
ARC
  5
240
330
1F
100
AcDbEntity
  8
0
  6
Continuous
 62
     7
370
    25
100
AcDbCircle
 10
278.5100276113
 20
34.3964879191
 30
0.0
 40
1.434335584253345
100
AcDbArc
 50
4.5696800567
 51
42.7783089174
  0
ARC
  5
241
330
1F
100
AcDbEntity
  8
0
  6
Continuous
 62
     7
370
    25
100
AcDbCircle
 10
278.4348494625
 20
34.3542961462
 30
0.0
 40
1.721192609087654
100
AcDbArc
 50
4.5696128476
 51
42.7785730654
  0
ARC
  5
242
330
1F
100
AcDbEntity
  8
0
  6
Continuous
 62
     7
370
    25
100
AcDbCircle
 10
280.178944592
 20
35.362836801
 30
0.0
 40
1.721269088238426
100
AcDbArc
 50
4.5704807177
 51
42.7776896669
  0
LINE
  5
243
330
1F
100
AcDbEntity
  8
0
  6
Continuous
 62
     7
370
    25
100
AcDbLine
 10
280.1505708689
 20
34.4914240184
 30
0.0
 11
280.0613454967
 21
29.5970616618
 31
0.0
  0
LINE
  5
244
330
1F
100
AcDbEntity
  8
0
  6
Continuous
 62
     7
370
    25
100
AcDbLine
 10
281.894740157
 20
35.4999967559
 30
0.0
 11
281.8055095988
 21
30.6056382485
 31
0.0
  0
LINE
  5
245
330
1F
100
AcDbEntity
  8
0
  6
Continuous
 62
     7
370
    25
100
AcDbLine
 10
275.2749088464
 20
40.5142929821
 30
0.0
 11
279.6981771337
 21
35.5232731318
 31
0.0
  0
LINE
  5
246
330
1F
100
AcDbEntity
  8
0
  6
Continuous
 62
     7
370
    25
100
AcDbLine
 10
277.0190781345
 20
41.5228660047
 30
0.0
 11
281.4423464218
 21
36.5318462495
 31
0.0
  0
LWPOLYLINE
  5
247
330
1F
100
AcDbEntity
  8
0
  6
Continuous
 62
     7
370
    25
100
AcDbPolyline
 90
        7
 70
   128
 43
0.0
 10
274.6888743693
 20
40.765010982
 10
274.7285497003
 20
40.7911687855
 10
274.8147182735
 20
40.8081685067
 10
274.9175661328
 20
40.7871189285
 10
275.0322243292
 20
40.7290137969
 10
275.1532480169
 20
40.636613285
 10
275.2749088464
 20
40.5142929821
  0
LWPOLYLINE
  5
248
330
1F
100
AcDbEntity
  8
0
  6
Continuous
 62
     7
370
    25
100
AcDbPolyline
 90
        7
 70
   128
 43
0.0
 10
276.460251753
 20
41.7932256711
 10
276.4727189884
 20
41.7997418081
 10
276.5588822933
 20
41.8167445706
 10
276.6617301525
 20
41.7956949925
 10
276.7763885136
 20
41.7375900034
 10
276.8974122013
 20
41.6451894915
 10
277.0190781345
 20
41.5228660047
  0
LWPOLYLINE
  5
249
330
1F
100
AcDbEntity
  8
0
  6
Continuous
 62
     7
370
    25
100
AcDbPolyline
 90
        6
 70
   128
 43
0.0
 10
280.0613454967
 20
29.5970616618
 10
280.0456525457
 20
29.4776834758
 10
280.0041219302
 20
29.3887634015
 10
279.938722369
 20
29.3345176427
 10
279.8525539604
 20
29.3175183968
 10
279.8151320041
 20
29.3210588223
  0
ARC
  5
24A
330
1F
100
AcDbEntity
  8
0
  6
Continuous
 62
     7
370
    25
100
AcDbCircle
 10
281.5256123925
 20
30.5743524526
 30
0.0
 40
0.2816402795671437
100
AcDbArc
 50
307.0626797638
 51
6.3778209268
  0
ARC
  5
24B
330
1F
100
AcDbEntity
  8
0
  6
Continuous
 62
     7
370
    25
100
AcDbCircle
 10
222.0439019009
 20
77.305963183
 30
0.0
 40
0.8880935020868227
100
AcDbArc
 50
19.7900786643
 51
69.7935039176
  0
LINE
  5
24C
330
1F
100
AcDbEntity
  8
0
  6
Continuous
 62
     7
370
    25
100
AcDbLine
 10
222.3506534829
 20
78.1393979648
 30
0.0
 11
217.9273844547
 21
79.1195010209
 31
0.0
  0
ARC
  5
24D
330
1F
100
AcDbEntity
  8
0
  6
Continuous
 62
     7
370
    25
100
AcDbCircle
 10
222.014468501
 20
77.1916821841
 30
0.0
 40
0.994826099167146
100
AcDbArc
 50
25.4302923507
 51
47.1597825141
  0
LWPOLYLINE
  5
24E
330
1F
100
AcDbEntity
  8
0
  6
Continuous
 62
     7
370
    25
100
AcDbPolyline
 90
        3
 70
   128
 43
0.0
 10
217.9273844547
 20
79.1195010209
 10
217.8334816055
 20
79.1275756456
 10
217.7584325563
 20
79.1136530757
  0
LWPOLYLINE
  5
24F
330
1F
100
AcDbEntity
  8
0
  6
Continuous
 62
     7
370
    25
100
AcDbPolyline
 90
       10
 70
   128
 43
0.0
 10
215.8285887021
 20
71.4852041433
 10
216.1594906891
 20
71.1966174489
 10
216.498373577
 20
71.0771346125
 10
216.804362496
 20
71.1411661865
 10
217.0405511302
 20
71.3809900283
 10
217.1784516672
 20
71.7676792289
 10
217.2014307547
 20
72.2545938802
 10
217.1067174841
 20
72.7830040836
 10
216.9057355449
 20
73.2891763583
 10
216.622725631
 20
73.7120590078
  0
LINE
  5
250
330
1F
100
AcDbEntity
  8
0
  6
Continuous
 62
     7
370
    25
100
AcDbLine
 10
216.622725631
 20
73.7120590078
 30
0.0
 11
216.334957486
 21
74.0455564802
 31
0.0
  0
LINE
  5
251
330
1F
100
AcDbEntity
  8
0
  6
Continuous
 62
     7
370
    25
100
AcDbLine
 10
215.5408205572
 20
71.8187019958
 30
0.0
 11
215.8285887021
 21
71.4852041433
 31
0.0
  0
LWPOLYLINE
  5
252
330
1F
100
AcDbEntity
  8
0
  6
Continuous
 62
     7
370
    25
100
AcDbPolyline
 90
       10
 70
   128
 43
0.0
 10
216.334957486
 20
74.0455564802
 10
216.004055499
 20
74.3341431745
 10
215.6651730227
 20
74.4536262486
 10
215.3591836921
 20
74.3895944369
 10
215.1229952226
 20
74.1497708803
 10
214.9850946856
 20
73.7630816798
 10
214.9621154335
 20
73.2761671234
 10
215.056828704
 20
72.7477569201
 10
215.2578110549
 20
72.2415845028
 10
215.5408205572
 20
71.8187019958
  0
LWPOLYLINE
  5
253
330
1F
100
AcDbEntity
  8
0
  6
Continuous
 62
     7
370
    25
100
AcDbPolyline
 90
        8
 70
   128
 43
0.0
 10
221.7530745559
 20
65.5642867812
 10
221.4148390995
 20
66.047331374
 10
221.1499594922
 20
66.6201039119
 10
220.9798953944
 20
67.2362028093
 10
220.9184242158
 20
67.8457148755
 10
220.9705260347
 20
68.3992603033
 10
221.1319794161
 20
68.8519953376
 10
221.388252423
 20
69.166089697
  0
ARC
  5
254
330
1F
100
AcDbEntity
  8
0
  6
Continuous
 62
     7
370
    25
100
AcDbCircle
 10
222.9175368574
 20
66.404515992
 30
0.0
 40
1.435951802222893
100
AcDbArc
 50
215.8127025362
 51
263.0582977569
  0
LWPOLYLINE
  5
255
330
1F
100
AcDbEntity
  8
0
  6
Continuous
 62
     7
370
    25
100
AcDbPolyline
 90
       10
 70
   128
 43
0.0
 10
222.0051812809
 20
66.271224709
 10
221.7565902781
 20
66.6543852454
 10
221.5938204662
 20
67.1137453926
 10
221.5416534514
 20
67.5793697245
 10
221.6080303749
 20
67.9803719086
 10
221.7828462006
 20
68.2557034773
 10
222.0394870046
 20
68.3634468024
 10
222.3388811766
 20
68.2871993838
 10
222.6354492048
 20
68.0385694096
 10
222.7968361555
 20
67.8152049569
  0
LWPOLYLINE
  5
256
330
1F
100
AcDbEntity
  8
0
  6
Continuous
 62
     7
370
    25
100
AcDbPolyline
 90
        7
 70
   128
 43
0.0
 10
223.0934301963
 20
66.8992173735
 10
223.0989770343
 20
66.7304247743
 10
223.0326001108
 20
66.3294225903
 10
222.8577843674
 20
66.054091069
 10
222.6011434811
 20
65.9463476964
 10
222.3017493915
 20
66.0225944021
 10
222.0051812809
 20
66.271224709
  0
SPLINE
  5
257
330
1F
100
AcDbEntity
  8
0
  6
Continuous
 62
     7
370
    25
100
AcDbSpline
210
0.0
220
0.0
230
1.0
 70
     8
 71
     3
 72
     9
 73
     5
 74
     0
 42
0.000000001
 43
0.00000001
 40
0.0
 40
0.0
 40
0.0
 40
0.0
 40
0.4784868276643228
 40
1.0
 40
1.0
 40
1.0
 40
1.0
 10
222.6447541094431
 20
68.02917043678976
 30
0.0
 10
222.5999431301968
 20
68.072441757569
 30
0.0
 10
222.5062916926743
 20
68.16287542946434
 30
0.0
 10
222.3825187350899
 20
68.23146826720978
 30
0.0
 10
222.3179695073306
 20
68.26724033562189
 30
0.0
  0
SPLINE
  5
258
330
1F
100
AcDbEntity
  8
0
  6
Continuous
 62
     7
370
    25
100
AcDbSpline
210
0.0
220
0.0
230
1.0
 70
     8
 71
     3
 72
    10
 73
     6
 74
     0
 42
0.000000001
 43
0.00000001
 40
0.0
 40
0.0
 40
0.0
 40
0.0
 40
0.4391227012506636
 40
0.7513715989208601
 40
1.0
 40
1.0
 40
1.0
 40
1.0
 10
222.3179695073306
 20
68.26724033562189
 30
0.0
 10
222.2883486035595
 20
68.23796321443471
 30
0.0
 10
222.2376650343324
 20
68.18786788277556
 30
0.0
 10
221.9899999780746
 20
68.05871026665753
 30
0.0
 10
221.8146167718049
 20
67.97755017299869
 30
0.0
 10
221.7368720560744
 20
67.9415731342367
 30
0.0
  0
SPLINE
  5
259
330
1F
100
AcDbEntity
  8
0
  6
Continuous
 62
     7
370
    25
100
AcDbSpline
210
0.0
220
0.0
230
1.0
 70
     8
 71
     3
 72
    10
 73
     6
 74
     0
 42
0.000000001
 43
0.00000001
 40
0.0
 40
0.0
 40
0.0
 40
0.0
 40
0.439122418608165
 40
0.7513715244991835
 40
0.9999999999999999
 40
0.9999999999999999
 40
0.9999999999999999
 40
0.9999999999999999
 10
221.7368720560744
 20
67.9415731342367
 30
0.0
 10
221.8014473668673
 20
67.80313088392548
 30
0.0
 10
221.9119405862051
 20
67.56624576883354
 30
0.0
 10
221.8985735437181
 20
67.16555739612842
 30
0.0
 10
221.8398060498865
 20
66.94925013955493
 30
0.0
 10
221.813755316384
 20
66.85336443253811
 30
0.0
  0
SPLINE
  5
25A
330
1F
100
AcDbEntity
  8
0
  6
Continuous
 62
     7
370
    25
100
AcDbSpline
210
0.0
220
0.0
230
1.0
 70
     8
 71
     3
 72
    11
 73
     7
 74
     0
 42
0.000000001
 43
0.00000001
 40
0.0
 40
0.0
 40
0.0
 40
0.0
 40
0.1856335937894787
 40
0.5233286245238278
 40
0.8791082709646812
 40
1.0
 40
1.0
 40
1.0
 40
1.0
 10
221.813755316384
 20
66.85336443253811
 30
0.0
 10
221.8766874527263
 20
66.81674550413175
 30
0.0
 10
222.0541024759343
 20
66.71351131551728
 30
0.0
 10
222.3075269962238
 20
66.49470800864384
 30
0.0
 10
222.4289559213894
 20
66.25947407245428
 30
0.0
 10
222.463081274985
 20
66.12494269135583
 30
0.0
 10
222.4717360279498
 20
66.09082331245615
 30
0.0
  0
SPLINE
  5
25B
330
1F
100
AcDbEntity
  8
0
  6
Continuous
 62
     7
370
    25
100
AcDbSpline
210
0.0
220
0.0
230
1.0
 70
     8
 71
     3
 72
    10
 73
     6
 74
     0
 42
0.000000001
 43
0.00000001
 40
0.0
 40
0.0
 40
0.0
 40
0.0
 40
0.439121837885205
 40
0.7513714452457929
 40
0.9999999999999999
 40
0.9999999999999999
 40
0.9999999999999999
 40
0.9999999999999999
 10
222.4717360279498
 20
66.09082331245615
 30
0.0
 10
222.608494492626
 20
66.15479118807032
 30
0.0
 10
222.8424988084855
 20
66.26424517328086
 30
0.0
 10
223.0086747867321
 20
66.36701770484754
 30
0.0
 10
223.0392703042205
 20
66.40129616615887
 30
0.0
 10
223.0528328206616
 20
66.41649127424243
 30
0.0
  0
LINE
  5
25C
330
1F
100
AcDbEntity
  8
0
  6
Continuous
 62
     7
370
    25
100
AcDbLine
 10
223.0528328207
 20
66.4164912742
 30
0.0
 11
223.0796052068
 21
66.5778462429
 31
0.0
  0
LINE
  5
25D
330
1F
100
AcDbEntity
  8
0
  6
Continuous
 62
     7
370
    25
100
AcDbLine
 10
222.4651192403
 20
68.1773771336
 30
0.0
 11
221.7368720561
 21
67.9415731342
 31
0.0
  0
LINE
  5
25E
330
1F
100
AcDbEntity
  8
0
  6
Continuous
 62
     7
370
    25
100
AcDbLine
 10
223.0089201828
 20
67.2403547639
 30
0.0
 11
221.8137553164
 21
66.8533644325
 31
0.0
  0
ELLIPSE
  5
25F
330
1F
100
AcDbEntity
  8
0
  6
Continuous
 62
     7
370
    25
100
AcDbEllipse
 10
261.6188683983
 20
31.3370998827
 30
0.0
 11
-0.3754682324503165
 21
2.613766493959982
 31
0.0
210
0.0
220
0.0
230
1.0
 40
0.7167441738
 41
0.0
 42
6.283185307179586
  0
SPLINE
  5
260
330
1F
100
AcDbEntity
  8
0
  6
Continuous
 62
     7
370
    25
100
AcDbSpline
210
0.0
220
0.0
230
1.0
 70
     8
 71
     3
 72
    12
 73
     8
 74
     0
 42
0.000000001
 43
0.00000001
 40
0.0
 40
0.0
 40
0.0
 40
0.0
 40
0.1999069242049515
 40
0.3987002359736799
 40
0.6309540160010815
 40
0.8927608522796491
 40
0.9999999999999999
 40
0.9999999999999999
 40
0.9999999999999999
 40
0.9999999999999999
 10
264.8191018749472
 20
22.12977718580914
 30
0.0
 10
264.9104951900829
 20
22.31488698859927
 30
0.0
 10
265.0927726997587
 20
22.68407541139651
 30
0.0
 10
265.5606547144528
 20
23.02503139362184
 30
0.0
 10
266.1446588553678
 20
23.18246580338131
 30
0.0
 10
266.6964635269001
 20
23.10020181877864
 30
0.0
 10
267.0187632043331
 20
22.92642297719184
 30
0.0
 10
267.1124185866352
 20
22.87592548996362
 30
0.0
  0
LINE
  5
261
330
1F
100
AcDbEntity
  8
0
  6
Continuous
 62
     7
370
    25
100
AcDbLine
 10
264.8189414753
 20
22.1293282613
 30
0.0
 11
264.8191042662
 21
22.1297770055
 31
0.0
  0
LINE
  5
262
330
1F
100
AcDbEntity
  8
0
  6
Continuous
 62
     7
370
    25
100
AcDbLine
 10
264.818939873
 20
22.1293292765
 30
0.0
 11
245.4540224156
 21
33.3084581702
 31
0.0
  0
LINE
  5
263
330
1F
100
AcDbEntity
  8
0
  6
Continuous
 62
     7
370
    25
100
AcDbLine
 10
254.9910257847
 20
44.3217593117
 30
0.0
 11
245.4540224156
 21
33.3084581702
 31
0.0
  0
LINE
  5
264
330
1F
100
AcDbEntity
  8
0
  6
Continuous
 62
     7
370
    25
100
AcDbLine
 10
266.9260386371
 20
37.4318230484
 30
0.0
 11
254.9910257847
 21
44.3217593117
 31
0.0
  0
LINE
  5
265
330
1F
100
AcDbEntity
  8
0
  6
Continuous
 62
     7
370
    25
100
AcDbLine
 10
271.6977434821
 20
31.8480469302
 30
0.0
 11
266.9260386371
 21
37.4318230484
 31
0.0
  0
ELLIPSE
  5
266
330
1F
100
AcDbEntity
  8
0
  6
Continuous
 62
     7
370
    25
100
AcDbEllipse
 10
287.735677051
 20
239.9356035754
 30
0.0
 11
47.18658200019627
 21
243.6319823805474
 31
0.0
210
0.0
220
0.0
230
1.0
 40
0.1747025127
 41
3.64793860231891
 42
3.723321313439157
  0
ELLIPSE
  5
267
330
1F
100
AcDbEntity
  8
0
  6
Continuous
 62
     7
370
    25
100
AcDbEllipse
 10
257.0524140646
 20
57.1638111069
 30
0.0
 11
35.24059714106698
 21
-14.22003121526908
 31
0.0
210
0.0
220
0.0
230
1.0
 40
0.8402139112
 41
5.697253573894547
 42
5.758695625264098
  0
LINE
  5
268
330
1F
100
AcDbEntity
  8
0
  6
Continuous
 62
     7
370
    25
100
AcDbLine
 10
281.5728063114
 20
30.0275826983
 30
0.0
 11
281.5692324727
 21
29.7511910981
 31
0.0
  0
ELLIPSE
  5
269
330
1F
100
AcDbEntity
  8
0
  6
Continuous
 62
     7
370
    25
100
AcDbEllipse
 10
257.0538603363
 20
56.8098947531
 30
0.0
 11
35.17491565505304
 21
-14.19352789645052
 31
0.0
210
0.0
220
0.0
230
1.0
 40
0.8402139112
 41
5.760152755761512
 42
5.763101385274669
  0
LINE
  5
26A
330
1F
100
AcDbEntity
  8
0
  6
Continuous
 62
     7
370
    25
100
AcDbLine
 10
283.6637714759
 20
28.8458913025
 30
0.0
 11
283.7145348854
 21
30.8582419386
 31
0.0
  0
ARC
  5
26B
330
1F
100
AcDbEntity
  8
0
  6
Continuous
 62
     7
370
    25
100
AcDbCircle
 10
261.0249170777
 20
65.6819114613
 30
0.0
 40
43.23667551514443
100
AcDbArc
 50
278.0938437452
 51
301.5742475863
  0
ELLIPSE
  5
26C
330
1F
100
AcDbEntity
  8
0
  6
Continuous
 62
     7
370
    25
100
AcDbEllipse
 10
257.021228832
 20
64.7951324862
 30
0.0
 11
36.65685418324267
 21
-14.79150902729279
 31
0.0
210
0.0
220
0.0
230
1.0
 40
0.8402139112
 41
5.428169637833327
 42
5.669420112351471
  0
LINE
  5
26D
330
1F
100
AcDbEntity
  8
0
  6
Continuous
 62
     7
370
    25
100
AcDbLine
 10
279.829749058
 20
34.9642766996
 30
0.0
 11
279.8078969049
 21
28.9423029725
 31
0.0
  0
LINE
  5
26E
330
1F
100
AcDbEntity
  8
0
  6
Continuous
 62
     7
370
    25
100
AcDbLine
 10
266.9260386371
 20
37.4318230484
 30
0.0
 11
274.6049985188
 21
40.8596523261
 31
0.0
  0
LINE
  5
26F
330
1F
100
AcDbEntity
  8
0
  6
Continuous
 62
     7
370
    25
100
AcDbLine
 10
274.6049985188
 20
40.8596523261
 30
0.0
 11
279.829749058
 21
34.9642766996
 31
0.0
  0
LINE
  5
270
330
1F
100
AcDbEntity
  8
0
  6
Continuous
 62
     7
370
    25
100
AcDbLine
 10
262.9575713944
 20
49.2446364968
 30
0.0
 11
254.9910257847
 21
44.3217593117
 31
0.0
  0
LINE
  5
271
330
1F
100
AcDbEntity
  8
0
  6
Continuous
 62
     7
370
    25
100
AcDbLine
 10
275.9576719872
 20
41.7398381687
 30
0.0
 11
262.9575713944
 21
49.2446364968
 31
0.0
  0
LINE
  5
272
330
1F
100
AcDbEntity
  8
0
  6
Continuous
 62
     7
370
    25
100
AcDbLine
 10
274.4973554677
 20
40.9404806303
 30
0.0
 11
275.9576719872
 21
41.7398381687
 31
0.0
  0
LINE
  5
273
330
1F
100
AcDbEntity
  8
0
  6
Continuous
 62
     7
370
    25
100
AcDbLine
 10
274.6049985188
 20
40.8596523261
 30
0.0
 11
274.4973554677
 21
40.9404806303
 31
0.0
  0
LINE
  5
274
330
1F
100
AcDbEntity
  8
0
  6
Continuous
 62
     7
370
    25
100
AcDbLine
 10
289.5676773199
 20
29.0676043036
 30
0.0
 11
289.5676773199
 21
20.9381221552
 31
0.0
  0
ELLIPSE
  5
275
330
1F
100
AcDbEntity
  8
0
  6
Continuous
 62
     7
370
    25
100
AcDbEllipse
 10
257.828393415
 20
10.684215876
 30
0.0
 11
22.98190413309471
 21
39.80366912035161
 31
0.0
210
0.0
220
0.0
230
1.0
 40
0.5773346305
 41
5.275572211675379
 42
5.281039912679945
  0
LINE
  5
276
330
1F
100
AcDbEntity
  8
0
  6
Continuous
 62
     7
370
    25
100
AcDbLine
 10
289.5289825617
 20
20.7155182413
 30
0.0
 11
289.5289825617
 21
20.358845936
 31
0.0
  0
ELLIPSE
  5
277
330
1F
100
AcDbEntity
  8
0
  6
Continuous
 62
     7
370
    25
100
AcDbEllipse
 10
257.828393415
 20
-0.0434067827
 30
0.0
 11
21.15206495560062
 21
60.07362709777023
 31
0.0
210
0.0
220
0.0
230
1.0
 40
0.4107407456
 41
5.189237964705284
 42
5.198814209304365
  0
ARC
  5
278
330
1F
100
AcDbEntity
  8
0
  6
Continuous
 62
     7
370
    25
100
AcDbCircle
 10
278.0785346531
 20
24.4626926593
 30
0.0
 40
12.29456665817597
100
AcDbArc
 50
337.1937595828
 51
337.7656344771
  0
ELLIPSE
  5
279
330
1F
100
AcDbEntity
  8
0
  6
Continuous
 62
     7
370
    25
100
AcDbEllipse
 10
257.828393415
 20
48.0424590871
 30
0.0
 11
-31.73555091678469
 21
34.69979856061831
 31
0.0
210
0.0
220
0.0
230
1.0
 40
0.2019459068
 41
3.59695834563084
 42
3.609579767312039
  0
SPLINE
  5
27A
330
1F
100
AcDbEntity
  8
0
  6
Continuous
 62
     7
370
    25
100
AcDbSpline
210
0.0
220
0.0
230
1.0
 70
     8
 71
     3
 72
    14
 73
    10
 74
     0
 42
0.000000001
 43
0.00000001
 40
0.0
 40
0.0
 40
0.0
 40
0.0
 40
0.1039351457530769
 40
0.2496872967180104
 40
0.4158019654569774
 40
0.6013468670613338
 40
0.7952157902214311
 40
0.97814984742421
 40
1.0
 40
1.0
 40
1.0
 40
1.0
 10
289.3126902034927
 20
19.96462711031697
 30
0.0
 10
289.3117964935019
 20
19.96636390084468
 30
0.0
 10
289.3096495004898
 20
19.97053625783416
 30
0.0
 10
289.3047025906945
 20
19.96986722989341
 30
0.0
 10
289.2979928395472
 20
19.96153134682259
 30
0.0
 10
289.2902400612282
 20
19.94383836299397
 30
0.0
 10
289.2826682790097
 20
19.91819396523197
 30
0.0
 10
289.2783003895082
 20
19.89623687219234
 30
0.0
 10
289.2766467014629
 20
19.88493035456513
 30
0.0
 10
289.2764702555536
 20
19.88372396694609
 30
0.0
  0
ELLIPSE
  5
27B
330
1F
100
AcDbEntity
  8
0
  6
Continuous
 62
     7
370
    25
100
AcDbEllipse
 10
257.828393415
 20
1.37088339
 30
0.0
 11
21.15206495560062
 21
60.07362709776984
 31
0.0
210
0.0
220
0.0
230
1.0
 40
0.4107407456
 41
5.153454735866539
 42
5.165950243318203
  0
ARC
  5
27C
330
1F
100
AcDbEntity
  8
0
  6
Continuous
 62
     7
370
    25
100
AcDbCircle
 10
277.2181279163
 20
24.8369732259
 30
0.0
 40
13.23299409032639
100
AcDbArc
 50
334.0673778308
 51
334.5956868773
  0
ELLIPSE
  5
27D
330
1F
100
AcDbEntity
  8
0
  6
Continuous
 62
     7
370
    25
100
AcDbEllipse
 10
257.828393415
 20
46.6281689144
 30
0.0
 11
-31.73555091678475
 21
34.69979856061791
 31
0.0
210
0.0
220
0.0
230
1.0
 40
0.2019459068
 41
3.632612131833968
 42
3.64497746257782
  0
SPLINE
  5
27E
330
1F
100
AcDbEntity
  8
0
  6
Continuous
 62
     7
370
    25
100
AcDbSpline
210
0.0
220
0.0
230
1.0
 70
     8
 71
     3
 72
    13
 73
     9
 74
     0
 42
0.000000001
 43
0.00000001
 40
0.0
 40
0.0
 40
0.0
 40
0.0
 40
0.0193858410164466
 40
0.1913986214200923
 40
0.3842658784111028
 40
0.5945739057344672
 40
0.8090050926256219
 40
1.0
 40
1.0
 40
1.0
 40
1.0
 10
289.0038934153435
 20
19.32892001314832
 30
0.0
 10
289.0037185882119
 20
19.32914861832423
 30
0.0
 10
289.0019924999845
 20
19.33140566332317
 30
0.0
 10
288.9970353063151
 20
19.32855301593439
 30
0.0
 10
288.9893653017574
 20
19.3191062694917
 30
0.0
 10
288.9807496080468
 20
19.29996926774286
 30
0.0
 10
288.9726877991468
 20
19.27439266799947
 30
0.0
 10
288.9690455560058
 20
19.25494193697782
 30
0.0
 10
288.9673297071712
 20
19.24577876119216
 30
0.0
  0
ELLIPSE
  5
27F
330
1F
100
AcDbEntity
  8
0
  6
Continuous
 62
     7
370
    25
100
AcDbEllipse
 10
257.828393415
 20
2.7851735626
 30
0.0
 11
21.15206495560062
 21
60.07362709776984
 31
0.0
210
0.0
220
0.0
230
1.0
 40
0.4107407456
 41
5.118386813144736
 42
5.130640752722787
  0
ARC
  5
280
330
1F
100
AcDbEntity
  8
0
  6
Continuous
 62
     7
370
    25
100
AcDbCircle
 10
276.4412151229
 20
25.242045303
 30
0.0
 40
14.10926302573436
100
AcDbArc
 50
331.0933171464
 51
331.5875333468
  0
ELLIPSE
  5
281
330
1F
100
AcDbEntity
  8
0
  6
Continuous
 62
     7
370
    25
100
AcDbEllipse
 10
257.828393415
 20
45.2138787418
 30
0.0
 11
-31.73555091678469
 21
34.69979856061831
 31
0.0
210
0.0
220
0.0
230
1.0
 40
0.2019459068
 41
3.667565547410199
 42
3.679704212138042
  0
SPLINE
  5
282
330
1F
100
AcDbEntity
  8
0
  6
Continuous
 62
     7
370
    25
100
AcDbSpline
210
0.0
220
0.0
230
1.0
 70
     8
 71
     3
 72
    14
 73
    10
 74
     0
 42
0.000000001
 43
0.00000001
 40
0.0
 40
0.0
 40
0.0
 40
0.0
 40
0.0027263180812371
 40
0.1424909453136807
 40
0.2952862128529988
 40
0.4640912060879741
 40
0.6458496942553571
 40
0.8302941940980582
 40
1.0
 40
1.0
 40
1.0
 40
1.0
 10
288.6704591600617
 20
18.7025627087247
 30
0.0
 10
288.6704326287345
 20
18.70262053285394
 30
0.0
 10
288.6690459695932
 20
18.70564270950072
 30
0.0
 10
288.6656634463801
 20
18.70938225044135
 30
0.0
 10
288.6586703989424
 20
18.70774083931456
 30
0.0
 10
288.6501036201452
 20
18.69782573145958
 30
0.0
 10
288.6408080233839
 20
18.67937627839057
 30
0.0
 10
288.6320577378556
 20
18.65437919755725
 30
0.0
 10
288.6281228178914
 20
18.63538271807973
 30
0.0
 10
288.6262372378061
 20
18.62627976713845
 30
0.0
  0
ELLIPSE
  5
283
330
1F
100
AcDbEntity
  8
0
  6
Continuous
 62
     7
370
    25
100
AcDbEllipse
 10
257.828393415
 20
4.1994637352
 30
0.0
 11
21.15206495560068
 21
60.07362709776933
 31
0.0
210
0.0
220
0.0
230
1.0
 40
0.4107407456
 41
5.083952152132781
 42
5.095992107603591
  0
ARC
  5
284
330
1F
100
AcDbEntity
  8
0
  6
Continuous
 62
     7
370
    25
100
AcDbCircle
 10
276.1490280671
 20
25.4131743335
 30
0.0
 40
14.44781887487489
100
AcDbArc
 50
328.2550511297
 51
328.7377215384
  0
ELLIPSE
  5
285
330
1F
100
AcDbEntity
  8
0
  6
Continuous
 62
     7
370
    25
100
AcDbEllipse
 10
257.828393415
 20
43.7995885692
 30
0.0
 11
-31.73555091678469
 21
34.69979856061829
 31
0.0
210
0.0
220
0.0
230
1.0
 40
0.2019459068
 41
3.7018987419556
 42
3.713836504081736
  0
SPLINE
  5
286
330
1F
100
AcDbEntity
  8
0
  6
Continuous
 62
     7
370
    25
100
AcDbSpline
210
0.0
220
0.0
230
1.0
 70
     8
 71
     3
 72
    14
 73
    10
 74
     0
 42
0.000000001
 43
0.00000001
 40
0.0
 40
0.0
 40
0.0
 40
0.0
 40
0.0047104524088392
 40
0.1473763160192686
 40
0.3015390883823084
 40
0.4694938037676049
 40
0.6483159166327633
 40
0.8290919868913502
 40
1.0
 40
1.0
 40
1.0
 40
1.0
 10
288.3027825659983
 20
18.09841040319582
 30
0.0
 10
288.3027355142706
 20
18.09851032123932
 30
0.0
 10
288.3012634029574
 20
18.10163646537032
 30
0.0
 10
288.2973863930198
 20
18.10555635714359
 30
0.0
 10
288.2897706084858
 20
18.10399538996005
 30
0.0
 10
288.2804423157255
 20
18.09426976263818
 30
0.0
 10
288.27048766426
 20
18.07627113389038
 30
0.0
 10
288.2611130657771
 20
18.05186060347069
 30
0.0
 10
288.2569096182008
 20
18.0332858506926
 30
0.0
 10
288.2548668675975
 20
18.02425907285014
 30
0.0
  0
ELLIPSE
  5
287
330
1F
100
AcDbEntity
  8
0
  6
Continuous
 62
     7
370
    25
100
AcDbEllipse
 10
257.828393415
 20
5.6137539079
 30
0.0
 11
21.15206495560062
 21
60.07362709776985
 31
0.0
210
0.0
220
0.0
230
1.0
 40
0.4107407456
 41
5.05007881178763
 42
5.061929054453442
  0
ARC
  5
288
330
1F
100
AcDbEntity
  8
0
  6
Continuous
 62
     7
370
    25
100
AcDbCircle
 10
275.6618754266
 20
25.7105108453
 30
0.0
 40
15.0183755612624
100
AcDbArc
 50
325.5666241578
 51
326.0320489936
  0
ELLIPSE
  5
289
330
1F
100
AcDbEntity
  8
0
  6
Continuous
 62
     7
370
    25
100
AcDbEllipse
 10
257.828393415
 20
42.3852983965
 30
0.0
 11
-31.73555091678469
 21
34.69979856061831
 31
0.0
210
0.0
220
0.0
230
1.0
 40
0.2019459068
 41
3.735682121168881
 42
3.747441770087006
  0
SPLINE
  5
28A
330
1F
100
AcDbEntity
  8
0
  6
Continuous
 62
     7
370
    25
100
AcDbSpline
210
0.0
220
0.0
230
1.0
 70
     8
 71
     3
 72
    15
 73
    11
 74
     0
 42
0.000000001
 43
0.00000001
 40
0.0
 40
0.0
 40
0.0
 40
0.0
 40
0.0066993981368781
 40
0.1520818388425151
 40
0.3074253680356926
 40
0.4745587335286953
 40
0.6507055452152422
 40
0.8282252503174432
 40
0.9978229647609094
 40
1.0
 40
1.0
 40
1.0
 40
1.0
 10
287.9060977449028
 20
17.5110034303427
 30
0.0
 10
287.9060262779386
 20
17.51114632056847
 30
0.0
 10
287.9044039191681
 20
17.51439004602604
 30
0.0
 10
287.9001419091195
 20
17.51846638655346
 30
0.0
 10
287.89185941681
 20
17.51699476721905
 30
0.0
 10
287.8818474073132
 20
17.50745054785948
 30
0.0
 10
287.8712186576066
 20
17.48985689274687
 30
0.0
 10
287.8614836885062
 20
17.46614018398591
 30
0.0
 10
287.8565847410777
 20
17.44785850545432
 30
0.0
 10
287.8546816358308
 20
17.43899905074845
 30
0.0
 10
287.8546575162952
 20
17.43888676797623
 30
0.0
  0
ELLIPSE
  5
28B
330
1F
100
AcDbEntity
  8
0
  6
Continuous
 62
     7
370
    25
100
AcDbEllipse
 10
257.828393415
 20
7.0280440805
 30
0.0
 11
21.15206495560062
 21
60.07362709776983
 31
0.0
210
0.0
220
0.0
230
1.0
 40
0.4107407456
 41
5.01670306691064
 42
5.028385166503264
  0
ARC
  5
28C
330
1F
100
AcDbEntity
  8
0
  6
Continuous
 62
     7
370
    25
100
AcDbCircle
 10
274.7234601724
 20
26.3633848659
 30
0.0
 40
16.16161122736895
100
AcDbArc
 50
323.0194182612
 51
323.4537816627
  0
ELLIPSE
  5
28D
330
1F
100
AcDbEntity
  8
0
  6
Continuous
 62
     7
370
    25
100
AcDbEllipse
 10
257.828393415
 20
40.9710082239
 30
0.0
 11
-31.73555091678469
 21
34.69979856061831
 31
0.0
210
0.0
220
0.0
230
1.0
 40
0.2019459068
 41
3.768978155420463
 42
3.78058004514132
  0
SPLINE
  5
28E
330
1F
100
AcDbEntity
  8
0
  6
Continuous
 62
     7
370
    25
100
AcDbSpline
210
0.0
220
0.0
230
1.0
 70
     8
 71
     3
 72
    15
 73
    11
 74
     0
 42
0.000000001
 43
0.00000001
 40
0.0
 40
0.0
 40
0.0
 40
0.0
 40
0.0087004511959276
 40
0.1565684103208688
 40
0.3129369054790143
 40
0.4792772560203292
 40
0.6529979186358119
 40
0.827644269691315
 40
0.9956698890502117
 40
1.0
 40
1.0
 40
1.0
 40
1.0
 10
287.4816644924189
 20
16.93961528595973
 30
0.0
 10
287.4815653757198
 20
16.93980345818301
 30
0.0
 10
287.4797817275309
 20
16.94318969933364
 30
0.0
 10
287.4751622547495
 20
16.94737344716773
 30
0.0
 10
287.4662154372426
 20
16.94601590694029
 30
0.0
 10
287.4555495629901
 20
16.93664002610965
 30
0.0
 10
287.4443024479344
 20
16.91944453961453
 30
0.0
 10
287.4341551790786
 20
16.8963125297836
 30
0.0
 10
287.4287933256768
 20
16.87847697624217
 30
0.0
 10
287.4268949408929
 20
16.86966940704784
 30
0.0
 10
287.4268472475744
 20
16.86944813357035
 30
0.0
  0
ELLIPSE
  5
28F
330
1F
100
AcDbEntity
  8
0
  6
Continuous
 62
     7
370
    25
100
AcDbEllipse
 10
257.828393415
 20
8.4423342532
 30
0.0
 11
21.15206495560062
 21
60.07362709776984
 31
0.0
210
0.0
220
0.0
230
1.0
 40
0.4107407456
 41
4.983767926339837
 42
4.995301233073872
  0
ARC
  5
290
330
1F
100
AcDbEntity
  8
0
  6
Continuous
 62
     7
370
    25
100
AcDbCircle
 10
274.1328787176
 20
26.8133015278
 30
0.0
 40
16.90401786075964
100
AcDbArc
 50
320.5838314505
 51
321.0016137937
  0
ELLIPSE
  5
291
330
1F
100
AcDbEntity
  8
0
  6
Continuous
 62
     7
370
    25
100
AcDbEllipse
 10
257.828393415
 20
39.5567180512
 30
0.0
 11
-31.73555091678469
 21
34.69979856061831
 31
0.0
210
0.0
220
0.0
230
1.0
 40
0.2019459068
 41
3.801842803252958
 42
3.813305280679205
  0
SPLINE
  5
292
330
1F
100
AcDbEntity
  8
0
  6
Continuous
 62
     7
370
    25
100
AcDbSpline
210
0.0
220
0.0
230
1.0
 70
     8
 71
     3
 72
    15
 73
    11
 74
     0
 42
0.000000001
 43
0.00000001
 40
0.0
 40
0.0
 40
0.0
 40
0.0
 40
0.0106383058050195
 40
0.1607547942915276
 40
0.3180352862911222
 40
0.483606777100592
 40
0.6551284658410075
 40
0.8272847944511303
 40
0.9939365208107159
 40
1.0
 40
1.0
 40
1.0
 40
1.0
 10
287.0305680898958
 20
16.38361945045986
 30
0.0
 10
287.0304389588209
 20
16.38385263161764
 30
0.0
 10
287.0284876669742
 20
16.38737621796123
 30
0.0
 10
287.0235136455545
 20
16.39166966453067
 30
0.0
 10
287.0139285492641
 20
16.39043314320695
 30
0.0
 10
287.0026264483076
 20
16.38122507824104
 30
0.0
 10
286.9908021083647
 20
16.36440815863969
 30
0.0
 10
286.9801904603867
 20
16.34183200507034
 30
0.0
 10
286.9746166643995
 20
16.32433986756867
 30
0.0
 10
286.9725618699187
 20
16.31564031180403
 30
0.0
 10
286.9724897326478
 20
16.31533489818878
 30
0.0
  0
ELLIPSE
  5
293
330
1F
100
AcDbEntity
  8
0
  6
Continuous
 62
     7
370
    25
100
AcDbEllipse
 10
257.828393415
 20
9.8566244258
 30
0.0
 11
21.15206495560062
 21
60.07362709776984
 31
0.0
210
0.0
220
0.0
230
1.0
 40
0.4107407456
 41
4.951221952511281
 42
4.962623982951456
  0
ARC
  5
294
330
1F
100
AcDbEntity
  8
0
  6
Continuous
 62
     7
370
    25
100
AcDbCircle
 10
273.5220476431
 20
27.3092598942
 30
0.0
 40
17.69067108157801
100
AcDbArc
 50
318.2693059885
 51
318.6714812283
  0
ELLIPSE
  5
295
330
1F
100
AcDbEntity
  8
0
  6
Continuous
 62
     7
370
    25
100
AcDbEllipse
 10
257.828393415
 20
38.1424278786
 30
0.0
 11
-31.73555091678469
 21
34.69979856061831
 31
0.0
210
0.0
220
0.0
230
1.0
 40
0.2019459068
 41
3.834326648133081
 42
3.845666398363998
  0
SPLINE
  5
296
330
1F
100
AcDbEntity
  8
0
  6
Continuous
 62
     7
370
    25
100
AcDbSpline
210
0.0
220
0.0
230
1.0
 70
     8
 71
     3
 72
    15
 73
    11
 74
     0
 42
0.000000001
 43
0.00000001
 40
0.0
 40
0.0
 40
0.0
 40
0.0
 40
0.0125093240831161
 40
0.1646510656919434
 40
0.32273238090333
 40
0.4875424110730614
 40
0.6571303292860962
 40
0.8270677102464928
 40
0.9925714269348048
 40
1.0
 40
1.0
 40
1.0
 40
1.0
 10
286.5537357680008
 20
15.84248064497266
 30
0.0
 10
286.5535765245727
 20
15.84275775466237
 30
0.0
 10
286.5514805200274
 20
15.84640514643358
 30
0.0
 10
286.5461273357052
 20
15.85082307831753
 30
0.0
 10
286.5359453526631
 20
15.84970559975041
 30
0.0
 10
286.5239970983931
 20
15.840681726072
 30
0.0
 10
286.5116555229945
 20
15.82421331166085
 30
0.0
 10
286.5005725371441
 20
15.80215254062217
 30
0.0
 10
286.4947768841284
 20
15.78498687214288
 30
0.0
 10
286.4926004269016
 20
15.77638435854965
 30
0.0
 10
286.4925069338266
 20
15.77601482431828
 30
0.0
  0
ELLIPSE
  5
297
330
1F
100
AcDbEntity
  8
0
  6
Continuous
 62
     7
370
    25
100
AcDbEllipse
 10
257.828393415
 20
11.2709145984
 30
0.0
 11
21.15206495560062
 21
60.07362709776984
 31
0.0
210
0.0
220
0.0
230
1.0
 40
0.4107407456
 41
4.919018307949552
 42
4.930305058139791
  0
ARC
  5
298
330
1F
100
AcDbEntity
  8
0
  6
Continuous
 62
     7
370
    25
100
AcDbCircle
 10
272.4300429037
 20
28.298970493
 30
0.0
 40
19.16454213408388
100
AcDbArc
 50
316.0660212912
 51
316.4405030255
  0
ELLIPSE
  5
299
330
1F
100
AcDbEntity
  8
0
  6
Continuous
 62
     7
370
    25
100
AcDbEllipse
 10
257.828393415
 20
36.728137706
 30
0.0
 11
-31.73555091678469
 21
34.69979856061831
 31
0.0
210
0.0
220
0.0
230
1.0
 40
0.2019459068
 41
3.866475818822673
 42
3.877708147342
  0
SPLINE
  5
29A
330
1F
100
AcDbEntity
  8
0
  6
Continuous
 62
     7
370
    25
100
AcDbSpline
210
0.0
220
0.0
230
1.0
 70
     8
 71
     3
 72
    15
 73
    11
 74
     0
 42
0.000000001
 43
0.00000001
 40
0.0
 40
0.0
 40
0.0
 40
0.0
 40
0.0142604016402545
 40
0.1682055380107592
 40
0.3269556526835353
 40
0.4910936645733652
 40
0.6589200917910377
 40
0.8269619571374579
 40
0.9914676311344984
 40
1.0
 40
1.0
 40
1.0
 40
1.0
 10
286.0519683168554
 20
15.31573658320089
 30
0.0
 10
286.0517792793672
 20
15.3160546917231
 30
0.0
 10
286.049549527835
 20
15.31980687321621
 30
0.0
 10
286.043819179915
 20
15.32436439885241
 30
0.0
 10
286.0330365117811
 20
15.32337711240576
 30
0.0
 10
286.0205029971748
 20
15.31453547437949
 30
0.0
 10
286.0076187265767
 20
15.29841582314364
 30
0.0
 10
285.9961098423652
 20
15.27682552064514
 30
0.0
 10
285.9900863390877
 20
15.25995863464199
 30
0.0
 10
285.9877973623396
 20
15.25145446383119
 30
0.0
 10
285.9876844947087
 20
15.25103512990294
 30
0.0
  0
ELLIPSE
  5
29B
330
1F
100
AcDbEntity
  8
0
  6
Continuous
 62
     7
370
    25
100
AcDbEllipse
 10
257.828393415
 20
12.6852047711
 30
0.0
 11
21.15206495560062
 21
60.07362709776985
 31
0.0
210
0.0
220
0.0
230
1.0
 40
0.4107407456
 41
4.887113974616785
 42
4.898300177604849
  0
ARC
  5
29C
330
1F
100
AcDbEntity
  8
0
  6
Continuous
 62
     7
370
    25
100
AcDbCircle
 10
271.3960753982
 20
29.3300878531
 30
0.0
 40
20.62489266775578
100
AcDbArc
 50
313.9625726614
 51
314.3139514737
  0
ELLIPSE
  5
29D
330
1F
100
AcDbEntity
  8
0
  6
Continuous
 62
     7
370
    25
100
AcDbEllipse
 10
257.828393415
 20
35.3138475333
 30
0.0
 11
-31.73555091678469
 21
34.69979856061831
 31
0.0
210
0.0
220
0.0
230
1.0
 40
0.2019459068
 41
3.898332744633603
 42
3.909471811015523
  0
SPLINE
  5
29E
330
1F
100
AcDbEntity
  8
0
  6
Continuous
 62
     7
370
    25
100
AcDbSpline
210
0.0
220
0.0
230
1.0
 70
     8
 71
     3
 72
    15
 73
    11
 74
     0
 42
0.000000001
 43
0.00000001
 40
0.0
 40
0.0
 40
0.0
 40
0.0
 40
0.0158731501879591
 40
0.1714169257165771
 40
0.3307334132114419
 40
0.4942270237483561
 40
0.6605410413889627
 40
0.8269320376715197
 40
0.9906066791947642
 40
1.0
 40
1.0
 40
1.0
 40
1.0
 10
285.5259614887325
 20
14.80298599607657
 30
0.0
 10
285.5257415632489
 20
14.80334348012329
 30
0.0
 10
285.5233665494762
 20
14.80720401288207
 30
0.0
 10
285.5172832133372
 20
14.8118928373965
 30
0.0
 10
285.5059145098721
 20
14.81105254796839
 30
0.0
 10
285.492786747118
 20
14.80240774354979
 30
0.0
 10
285.4794062383278
 20
14.78661342626451
 30
0.0
 10
285.4674619120377
 20
14.76546272035879
 30
0.0
 10
285.4612174203359
 20
14.74887491501351
 30
0.0
 10
285.4588252818857
 20
14.74046235533406
 30
0.0
 10
285.4586954477815
 20
14.74000576087948
 30
0.0
  0
ELLIPSE
  5
29F
330
1F
100
AcDbEntity
  8
0
  6
Continuous
 62
     7
370
    25
100
AcDbEllipse
 10
257.828393415
 20
14.0994949437
 30
0.0
 11
21.15206495560062
 21
60.07362709776983
 31
0.0
210
0.0
220
0.0
230
1.0
 40
0.4107407456
 41
4.85546910617708
 42
4.866568446664017
  0
ARC
  5
2A0
330
1F
100
AcDbEntity
  8
0
  6
Continuous
 62
     7
370
    25
100
AcDbCircle
 10
270.7109021177
 20
30.073056645
 30
0.0
 40
21.63557259811665
100
AcDbArc
 50
311.9440678017
 51
312.282644451
  0
ELLIPSE
  5
2A1
330
1F
100
AcDbEntity
  8
0
  6
Continuous
 62
     7
370
    25
100
AcDbEllipse
 10
257.828393415
 20
33.8995573607
 30
0.0
 11
-31.73555091678469
 21
34.69979856061831
 31
0.0
210
0.0
220
0.0
230
1.0
 40
0.2019459068
 41
3.929936783543857
 42
3.940995797642019
  0
SPLINE
  5
2A2
330
1F
100
AcDbEntity
  8
0
  6
Continuous
 62
     7
370
    25
100
AcDbSpline
210
0.0
220
0.0
230
1.0
 70
     8
 71
     3
 72
    12
 73
     8
 74
     0
 42
0.000000001
 43
0.00000001
 40
0.0
 40
0.0
 40
0.0
 40
0.0
 40
0.034664548278904
 40
0.3484267254385736
 40
0.6678836794004289
 40
0.9936301532973308
 40
1.0
 40
1.0
 40
1.0
 40
1.0
 10
284.9762944735269
 20
14.30389414422076
 30
0.0
 10
284.9760429829079
 20
14.30428964942874
 30
0.0
 10
284.9735151538376
 20
14.30826502459859
 30
0.0
 10
284.9670966273608
 20
14.31307054862884
 30
0.0
 10
284.9551645750367
 20
14.31241173215551
 30
0.0
 10
284.945990940362
 20
14.30670679364402
 30
0.0
 10
284.941338598878
 20
14.30269246197369
 30
0.0
 10
284.94124936899
 20
14.30261546883677
 30
0.0
  0
LINE
  5
2A3
330
1F
100
AcDbEntity
  8
0
  6
Continuous
 62
     7
370
    25
100
AcDbLine
 10
284.941249369
 20
14.3026154688
 30
0.0
 11
284.941249369
 21
14.8937901949
 31
0.0
  0
ARC
  5
2A4
330
1F
100
AcDbEntity
  8
0
  6
Continuous
 62
     7
370
    25
100
AcDbCircle
 10
269.1817177327
 20
32.9879916326
 30
0.0
 40
23.99506122233585
100
AcDbArc
 50
305.3706890016
 51
311.0549323734
  0
LINE
  5
2A5
330
1F
100
AcDbEntity
  8
0
  6
Continuous
 62
     7
370
    25
100
AcDbLine
 10
283.0715972237
 20
13.4218420168
 30
0.0
 11
283.0715972237
 21
16.483870183
 31
0.0
  0
ARC
  5
2A6
330
1F
100
AcDbEntity
  8
0
  6
Continuous
 62
     7
370
    25
100
AcDbCircle
 10
268.7040863772
 20
36.6862014197
 30
0.0
 40
24.79031172292794
100
AcDbArc
 50
305.4197084921
 51
308.7468232123
  0
LINE
  5
2A7
330
1F
100
AcDbEntity
  8
0
  6
Continuous
 62
     7
370
    25
100
AcDbLine
 10
284.2198523853
 20
17.3517616683
 30
0.0
 11
284.2198523853
 21
21.0261951636
 31
0.0
  0
ARC
  5
2A8
330
1F
100
AcDbEntity
  8
0
  6
Continuous
 62
     7
370
    25
100
AcDbCircle
 10
265.3890338765
 20
45.071985434
 30
0.0
 40
30.54177066640047
100
AcDbArc
 50
291.9293003506
 51
308.0653231167
  0
LINE
  5
2A9
330
1F
100
AcDbEntity
  8
0
  6
Continuous
 62
     7
370
    25
100
AcDbLine
 10
276.795231283
 20
16.7400526343
 30
0.0
 11
276.795231283
 21
13.065619139
 31
0.0
  0
ARC
  5
2AA
330
1F
100
AcDbEntity
  8
0
  6
Continuous
 62
     7
370
    25
100
AcDbCircle
 10
262.6748564122
 20
47.1268651964
 30
0.0
 40
36.87212320271596
100
AcDbArc
 50
292.5168610865
 51
295.0702089012
  0
LINE
  5
2AB
330
1F
100
AcDbEntity
  8
0
  6
Continuous
 62
     7
370
    25
100
AcDbLine
 10
278.2986263269
 20
13.7284927342
 30
0.0
 11
278.2986263269
 21
10.6664645679
 31
0.0
  0
ARC
  5
2AC
330
1F
100
AcDbEntity
  8
0
  6
Continuous
 62
     7
370
    25
100
AcDbCircle
 10
262.3014969991
 20
44.9061277812
 30
0.0
 40
37.7923627693643
100
AcDbArc
 50
290.8438473587
 51
295.0424740501
  0
LINE
  5
2AD
330
1F
100
AcDbEntity
  8
0
  6
Continuous
 62
     7
370
    25
100
AcDbLine
 10
275.7488610239
 20
9.5871373586
 30
0.0
 11
275.7488610239
 21
8.9959626325
 31
0.0
  0
SPLINE
  5
2AE
330
1F
100
AcDbEntity
  8
0
  6
Continuous
 62
     7
370
    25
100
AcDbSpline
210
0.0
220
0.0
230
1.0
 70
     8
 71
     3
 72
    11
 73
     7
 74
     0
 42
0.000000001
 43
0.00000001
 40
0.0
 40
0.0
 40
0.0
 40
0.0
 40
0.1318538203946936
 40
0.4468897058744659
 40
0.7681085080923883
 40
1.0
 40
1.0
 40
1.0
 40
1.0
 10
275.695724384644
 20
8.946335070760071
 30
0.0
 10
275.6972487606412
 20
8.949214554535269
 30
0.0
 10
275.7024152999117
 20
8.958973935442975
 30
0.0
 10
275.7149453019644
 20
8.974436685556787
 30
0.0
 10
275.7321774355166
 20
8.988461902199854
 30
0.0
 10
275.743932650147
 20
8.993746898000442
 30
0.0
 10
275.7488610239041
 20
8.995962632500305
 30
0.0
  0
ELLIPSE
  5
2AF
330
1F
100
AcDbEntity
  8
0
  6
Continuous
 62
     7
370
    25
100
AcDbEllipse
 10
257.828393415
 20
33.8995573607
 30
0.0
 11
21.15206495560068
 21
60.07362709776939
 31
0.0
210
0.0
220
0.0
230
1.0
 40
0.4107407456
 41
4.42129614055308
 42
4.432355154651244
  0
ARC
  5
2B0
330
1F
100
AcDbEntity
  8
0
  6
Continuous
 62
     7
370
    25
100
AcDbCircle
 10
261.1183938229
 20
46.8317836995
 30
0.0
 40
41.05768369356811
100
AcDbArc
 50
290.1261952401
 51
290.3470835717
  0
ELLIPSE
  5
2B1
330
1F
100
AcDbEntity
  8
0
  6
Continuous
 62
     7
370
    25
100
AcDbEllipse
 10
257.828393415
 20
14.0994949437
 30
0.0
 11
-31.73555091678469
 21
34.69979856061876
 31
0.0
210
0.0
220
0.0
230
1.0
 40
0.2019459068
 41
4.364109749167839
 42
4.375209089654776
  0
SPLINE
  5
2B2
330
1F
100
AcDbEntity
  8
0
  6
Continuous
 62
     7
370
    25
100
AcDbSpline
210
0.0
220
0.0
230
1.0
 70
     8
 71
     3
 72
    14
 73
    10
 74
     0
 42
0.000000001
 43
0.00000001
 40
0.0
 40
0.0
 40
0.0
 40
0.0
 40
0.0638724044641991
 40
0.220376887295457
 40
0.3809654071277903
 40
0.5454883548693531
 40
0.7120908582011773
 40
0.877848976397756
 40
1.0
 40
1.0
 40
1.0
 40
1.0
 10
274.8311782642135
 20
8.629019057143104
 30
0.0
 10
274.8326958256953
 20
8.631790477489222
 30
0.0
 10
274.8379318188989
 20
8.641352619299735
 30
0.0
 10
274.8506525054971
 20
8.65660698140005
 30
0.0
 10
274.8701868630923
 20
8.671598029029012
 30
0.0
 10
274.891921913688
 20
8.680901048660726
 30
0.0
 10
274.9130882336723
 20
8.682966815805486
 30
0.0
 10
274.929987587635
 20
8.678228233561187
 30
0.0
 10
274.9372105645936
 20
8.670942169617023
 30
0.0
 10
274.9402750523117
 20
8.66785091602481
 30
0.0
  0
ELLIPSE
  5
2B3
330
1F
100
AcDbEntity
  8
0
  6
Continuous
 62
     7
370
    25
100
AcDbEllipse
 10
257.828393415
 20
35.3138475333
 30
0.0
 11
21.15206495560068
 21
60.07362709776938
 31
0.0
210
0.0
220
0.0
230
1.0
 40
0.4107407456
 41
4.389692101642829
 42
4.40083116802475
  0
ARC
  5
2B4
330
1F
100
AcDbEntity
  8
0
  6
Continuous
 62
     7
370
    25
100
AcDbCircle
 10
260.5442489839
 20
48.4732188622
 30
0.0
 40
42.79665835597424
100
AcDbArc
 50
288.8465049358
 51
289.0624930759
  0
ELLIPSE
  5
2B5
330
1F
100
AcDbEntity
  8
0
  6
Continuous
 62
     7
370
    25
100
AcDbEllipse
 10
257.828393415
 20
12.6852047711
 30
0.0
 11
-31.73555091678469
 21
34.69979856061876
 31
0.0
210
0.0
220
0.0
230
1.0
 40
0.2019459068
 41
4.395754617607542
 42
4.406940820595607
  0
SPLINE
  5
2B6
330
1F
100
AcDbEntity
  8
0
  6
Continuous
 62
     7
370
    25
100
AcDbSpline
210
0.0
220
0.0
230
1.0
 70
     8
 71
     3
 72
    14
 73
    10
 74
     0
 42
0.000000001
 43
0.00000001
 40
0.0
 40
0.0
 40
0.0
 40
0.0
 40
0.0614805616742523
 40
0.2166405982819584
 40
0.3770225981524536
 40
0.54252234969831
 40
0.7107646052930633
 40
0.8780097995439312
 40
1.0
 40
1.0
 40
1.0
 40
1.0
 10
273.9429719567
 20
8.325361778794663
 30
0.0
 10
273.9444759466548
 20
8.328014550735764
 30
0.0
 10
273.949775593807
 20
8.337362189807026
 30
0.0
 10
273.9626497701161
 20
8.352324869498489
 30
0.0
 10
273.9826051743095
 20
8.367085874987309
 30
0.0
 10
274.0049886684361
 20
8.376192792005625
 30
0.0
 10
274.0268961686261
 20
8.378063279082797
 30
0.0
 10
274.0444117190387
 20
8.37307218410311
 30
0.0
 10
274.0518943652131
 20
8.36561657562076
 30
0.0
 10
274.0550503050582
 20
8.362472039405871
 30
0.0
  0
ELLIPSE
  5
2B7
330
1F
100
AcDbEntity
  8
0
  6
Continuous
 62
     7
370
    25
100
AcDbEllipse
 10
257.828393415
 20
36.728137706
 30
0.0
 11
21.15206495560068
 21
60.07362709776939
 31
0.0
210
0.0
220
0.0
230
1.0
 40
0.4107407456
 41
4.357835175831894
 42
4.369067504351224
  0
ARC
  5
2B8
330
1F
100
AcDbEntity
  8
0
  6
Continuous
 62
     7
370
    25
100
AcDbCircle
 10
260.3480946487
 20
49.0752459596
 30
0.0
 40
43.42981301659856
100
AcDbArc
 50
287.5837256381
 51
287.800781091
  0
ELLIPSE
  5
2B9
330
1F
100
AcDbEntity
  8
0
  6
Continuous
 62
     7
370
    25
100
AcDbEllipse
 10
257.828393415
 20
11.2709145984
 30
0.0
 11
-31.73555091678469
 21
34.69979856061876
 31
0.0
210
0.0
220
0.0
230
1.0
 40
0.2019459068
 41
4.427658950940308
 42
4.438945701130547
  0
SPLINE
  5
2BA
330
1F
100
AcDbEntity
  8
0
  6
Continuous
 62
     7
370
    25
100
AcDbSpline
210
0.0
220
0.0
230
1.0
 70
     8
 71
     3
 72
    14
 73
    10
 74
     0
 42
0.000000001
 43
0.00000001
 40
0.0
 40
0.0
 40
0.0
 40
0.0
 40
0.0587716998767633
 40
0.2124044777312614
 40
0.3725137790182926
 40
0.5390720516987172
 40
0.709230004624464
 40
0.8782124571069447
 40
1.0
 40
1.0
 40
1.0
 40
1.0
 10
273.0305256136646
 20
8.035697594923986
 30
0.0
 10
273.0320034426453
 20
8.03822248739567
 30
0.0
 10
273.0373444059573
 20
8.047347601488044
 30
0.0
 10
273.050358218889
 20
8.061993910302135
 30
0.0
 10
273.0707270963048
 20
8.07652397572963
 30
0.0
 10
273.0937660896892
 20
8.08546448668749
 30
0.0
 10
273.1164760300174
 20
8.087129825894442
 30
0.0
 10
273.1346514356891
 20
8.081879534030536
 30
0.0
 10
273.1424104451773
 20
8.074242839445905
 30
0.0
 10
273.1456602670843
 20
8.071044248518087
 30
0.0
  0
ELLIPSE
  5
2BB
330
1F
100
AcDbEntity
  8
0
  6
Continuous
 62
     7
370
    25
100
AcDbEllipse
 10
257.828393415
 20
38.1424278786
 30
0.0
 11
21.15206495560068
 21
60.07362709776938
 31
0.0
210
0.0
220
0.0
230
1.0
 40
0.4107407456
 41
4.325686005142302
 42
4.337025755373219
  0
ARC
  5
2BC
330
1F
100
AcDbEntity
  8
0
  6
Continuous
 62
     7
370
    25
100
AcDbCircle
 10
260.2450681474
 20
49.3547621588
 30
0.0
 40
43.7272182764378
100
AcDbArc
 50
286.3340556779
 51
286.5540492484
  0
ELLIPSE
  5
2BD
330
1F
100
AcDbEntity
  8
0
  6
Continuous
 62
     7
370
    25
100
AcDbEllipse
 10
257.828393415
 20
9.8566244258
 30
0.0
 11
-31.73555091678469
 21
34.69979856061876
 31
0.0
210
0.0
220
0.0
230
1.0
 40
0.2019459068
 41
4.459862595502035
 42
4.471264625942212
  0
SPLINE
  5
2BE
330
1F
100
AcDbEntity
  8
0
  6
Continuous
 62
     7
370
    25
100
AcDbSpline
210
0.0
220
0.0
230
1.0
 70
     8
 71
     3
 72
    14
 73
    10
 74
     0
 42
0.000000001
 43
0.00000001
 40
0.0
 40
0.0
 40
0.0
 40
0.0
 40
0.0557853103623198
 40
0.2076915712015477
 40
0.3674519771148076
 40
0.535163663353362
 40
0.7074642760710236
 40
0.8784449395291364
 40
1.0
 40
1.0
 40
1.0
 40
1.0
 10
272.0931441413788
 20
7.760428154768774
 30
0.0
 10
272.094587194183
 20
7.76281441582196
 30
0.0
 10
272.0999597537735
 20
7.771698588092741
 30
0.0
 10
272.1130853029326
 20
7.786018176770555
 30
0.0
 10
272.1338603163358
 20
7.800318285394813
 30
0.0
 10
272.1575829650589
 20
7.809096731951036
 30
0.0
 10
272.1811360595377
 20
7.810561043825805
 30
0.0
 10
272.2000267891238
 20
7.805048829906645
 30
0.0
 10
272.2080821084593
 20
7.797212319898654
 30
0.0
 10
272.2114292717247
 20
7.793956076746149
 30
0.0
  0
ELLIPSE
  5
2BF
330
1F
100
AcDbEntity
  8
0
  6
Continuous
 62
     7
370
    25
100
AcDbEllipse
 10
257.828393415
 20
39.5567180512
 30
0.0
 11
21.15206495560068
 21
60.07362709776939
 31
0.0
210
0.0
220
0.0
230
1.0
 40
0.4107407456
 41
4.29320216026218
 42
4.304664637688427
  0
ARC
  5
2C0
330
1F
100
AcDbEntity
  8
0
  6
Continuous
 62
     7
370
    25
100
AcDbCircle
 10
259.7397889416
 20
51.046679114
 30
0.0
 40
45.49284482607015
100
AcDbArc
 50
285.1015119786
 51
285.317442631
  0
ELLIPSE
  5
2C1
330
1F
100
AcDbEntity
  8
0
  6
Continuous
 62
     7
370
    25
100
AcDbEllipse
 10
257.828393415
 20
8.4423342532
 30
0.0
 11
-31.73555091678469
 21
34.69979856061876
 31
0.0
210
0.0
220
0.0
230
1.0
 40
0.2019459068
 41
4.492408569330591
 42
4.503941876064625
  0
SPLINE
  5
2C2
330
1F
100
AcDbEntity
  8
0
  6
Continuous
 62
     7
370
    25
100
AcDbSpline
210
0.0
220
0.0
230
1.0
 70
     8
 71
     3
 72
    14
 73
    10
 74
     0
 42
0.000000001
 43
0.00000001
 40
0.0
 40
0.0
 40
0.0
 40
0.0
 40
0.0524955141897611
 40
0.2024572014822056
 40
0.3617550659043864
 40
0.5307052275389637
 40
0.7054230693609599
 40
0.8787431208162013
 40
1.0
 40
1.0
 40
1.0
 40
1.0
 10
271.1300267497212
 20
7.5000157446262
 30
0.0
 10
271.1314266081645
 20
7.502250425336289
 30
0.0
 10
271.1368253822745
 20
7.51086882273181
 30
0.0
 10
271.1500239629577
 20
7.52485405885319
 30
0.0
 10
271.1711935576619
 20
7.538927466626939
 30
0.0
 10
271.195622919346
 20
7.54754878121195
 30
0.0
 10
271.2200840199557
 20
7.54882261566283
 30
0.0
 10
271.2397465750112
 20
7.543027288713831
 30
0.0
 10
271.248124416527
 20
7.53497544978695
 30
0.0
 10
271.2515729924705
 20
7.531661066485305
 30
0.0
  0
ELLIPSE
  5
2C3
330
1F
100
AcDbEntity
  8
0
  6
Continuous
 62
     7
370
    25
100
AcDbEllipse
 10
257.828393415
 20
40.9710082239
 30
0.0
 11
21.15206495560068
 21
60.07362709776938
 31
0.0
210
0.0
220
0.0
230
1.0
 40
0.4107407456
 41
4.26033751242968
 42
4.27193940215054
  0
ARC
  5
2C4
330
1F
100
AcDbEntity
  8
0
  6
Continuous
 62
     7
370
    25
100
AcDbCircle
 10
259.2799293672
 20
52.7615755104
 30
0.0
 40
47.26833437155798
100
AcDbArc
 50
283.8749943755
 51
284.0873819356
  0
ELLIPSE
  5
2C5
330
1F
100
AcDbEntity
  8
0
  6
Continuous
 62
     7
370
    25
100
AcDbEllipse
 10
257.828393415
 20
7.0280440805
 30
0.0
 11
-31.73555091678469
 21
34.69979856061876
 31
0.0
210
0.0
220
0.0
230
1.0
 40
0.2019459068
 41
4.525343709901391
 42
4.537025809494015
  0
SPLINE
  5
2C6
330
1F
100
AcDbEntity
  8
0
  6
Continuous
 62
     7
370
    25
100
AcDbSpline
210
0.0
220
0.0
230
1.0
 70
     8
 71
     3
 72
    14
 73
    10
 74
     0
 42
0.000000001
 43
0.00000001
 40
0.0
 40
0.0
 40
0.0
 40
0.0
 40
0.0489320836792355
 40
0.1967072455143403
 40
0.3554305483545508
 40
0.5256674696716491
 40
0.7030939164230848
 40
0.8790969705554715
 40
1.0
 40
1.0
 40
1.0
 40
1.0
 10
270.1402462080243
 20
7.254995643366742
 30
0.0
 10
270.1415902725739
 20
7.257070250135729
 30
0.0
 10
270.1469934194555
 20
7.265410180757277
 30
0.0
 10
270.1602391217143
 20
7.279048187405484
 30
0.0
 10
270.1818007341363
 20
7.292878526858372
 30
0.0
 10
270.2069510461346
 20
7.301367018151712
 30
0.0
 10
270.2323965558965
 20
7.302443146429312
 30
0.0
 10
270.2528870511416
 20
7.296353432653911
 30
0.0
 10
270.2616152571066
 20
7.288066126488947
 30
0.0
 10
270.2651694670107
 20
7.284691455248758
 30
0.0
  0
ELLIPSE
  5
2C7
330
1F
100
AcDbEntity
  8
0
  6
Continuous
 62
     7
370
    25
100
AcDbEllipse
 10
257.828393415
 20
42.3852983965
 30
0.0
 11
21.15206495560068
 21
60.0736270977694
 31
0.0
210
0.0
220
0.0
230
1.0
 40
0.4107407456
 41
4.227041478178096
 42
4.238801127096227
  0
ARC
  5
2C8
330
1F
100
AcDbEntity
  8
0
  6
Continuous
 62
     7
370
    25
100
AcDbCircle
 10
259.1822953916
 20
53.0859756132
 30
0.0
 40
47.60649886452277
100
AcDbArc
 50
282.6537530717
 51
282.8694382254
  0
ELLIPSE
  5
2C9
330
1F
100
AcDbEntity
  8
0
  6
Continuous
 62
     7
370
    25
100
AcDbEllipse
 10
257.828393415
 20
5.6137539079
 30
0.0
 11
-31.73555091678469
 21
34.69979856061876
 31
0.0
210
0.0
220
0.0
230
1.0
 40
0.2019459068
 41
4.55871945477838
 42
4.570569697444192
  0
SPLINE
  5
2CA
330
1F
100
AcDbEntity
  8
0
  6
Continuous
 62
     7
370
    25
100
AcDbSpline
210
0.0
220
0.0
230
1.0
 70
     8
 71
     3
 72
    14
 73
    10
 74
     0
 42
0.000000001
 43
0.00000001
 40
0.0
 40
0.0
 40
0.0
 40
0.0
 40
0.0450593596931449
 40
0.1904182171027056
 40
0.3484271070514837
 40
0.5200092770988002
 40
0.7004356055954484
 40
0.8795058994832722
 40
1.0
 40
1.0
 40
1.0
 40
1.0
 10
269.1227172349391
 20
7.025994370577473
 30
0.0
 10
269.1239912184142
 20
7.027899825569333
 30
0.0
 10
269.129374998024
 20
7.035952166853994
 30
0.0
 10
269.1426557654136
 20
7.049204402005661
 30
0.0
 10
269.1645830707246
 20
7.062813507767003
 30
0.0
 10
269.1904938491273
 20
7.071151676615574
 30
0.0
 10
269.2169915594087
 20
7.072041383008203
 30
0.0
 10
269.2383874393109
 20
7.065641841026475
 30
0.0
 10
269.2474997641542
 20
7.057093801416816
 30
0.0
 10
269.2511650241321
 20
7.053655514480249
 30
0.0
  0
ELLIPSE
  5
2CB
330
1F
100
AcDbEntity
  8
0
  6
Continuous
 62
     7
370
    25
100
AcDbEllipse
 10
257.828393415
 20
43.7995885692
 30
0.0
 11
21.15206495560068
 21
60.07362709776939
 31
0.0
210
0.0
220
0.0
230
1.0
 40
0.4107407456
 41
4.193258098964817
 42
4.205195861090952
  0
ARC
  5
2CC
330
1F
100
AcDbEntity
  8
0
  6
Continuous
 62
     7
370
    25
100
AcDbCircle
 10
258.764808858
 20
54.9202393203
 30
0.0
 40
49.48760014499636
100
AcDbArc
 50
281.4377601861
 51
281.6501762964
  0
ELLIPSE
  5
2CD
330
1F
100
AcDbEntity
  8
0
  6
Continuous
 62
     7
370
    25
100
AcDbEllipse
 10
257.828393415
 20
4.1994637352
 30
0.0
 11
-31.73555091678469
 21
34.69979856061876
 31
0.0
210
0.0
220
0.0
230
1.0
 40
0.2019459068
 41
4.59259279512353
 42
4.604632750594339
  0
SPLINE
  5
2CE
330
1F
100
AcDbEntity
  8
0
  6
Continuous
 62
     7
370
    25
100
AcDbSpline
210
0.0
220
0.0
230
1.0
 70
     8
 71
     3
 72
    14
 73
    10
 74
     0
 42
0.000000001
 43
0.00000001
 40
0.0
 40
0.0
 40
0.0
 40
0.0
 40
0.0409082808250301
 40
0.1835875234055636
 40
0.3406890908534622
 40
0.5136370067094878
 40
0.697379444177966
 40
0.8799794661366007
 40
1.0
 40
1.0
 40
1.0
 40
1.0
 10
268.0761813519107
 20
6.813739190803212
 30
0.0
 10
268.0773746376329
 20
6.815463277108864
 30
0.0
 10
268.0827298460661
 20
6.823200603845857
 30
0.0
 10
268.0959900799502
 20
6.836077857227125
 30
0.0
 10
268.118285516794
 20
6.84943254691097
 30
0.0
 10
268.1449776671187
 20
6.857649118170945
 30
0.0
 10
268.1726062877645
 20
6.858336732894009
 30
0.0
 10
268.1950065521408
 20
6.851611913890602
 30
0.0
 10
268.204540426936
 20
6.842773366639639
 30
0.0
 10
268.20832160016
 20
6.839267963126137
 30
0.0
  0
ELLIPSE
  5
2CF
330
1F
100
AcDbEntity
  8
0
  6
Continuous
 62
     7
370
    25
100
AcDbEllipse
 10
257.828393415
 20
45.2138787418
 30
0.0
 11
21.15206495560068
 21
60.07362709776939
 31
0.0
210
0.0
220
0.0
230
1.0
 40
0.4107407456
 41
4.158924904419413
 42
4.171063569147256
  0
ARC
  5
2D0
330
1F
100
AcDbEntity
  8
0
  6
Continuous
 62
     7
370
    25
100
AcDbCircle
 10
258.2835926699
 20
57.423114535
 30
0.0
 40
52.03641888632396
100
AcDbArc
 50
280.2197098255
 51
280.426746721
  0
ELLIPSE
  5
2D1
330
1F
100
AcDbEntity
  8
0
  6
Continuous
 62
     7
370
    25
100
AcDbEllipse
 10
257.828393415
 20
2.7851735626
 30
0.0
 11
-31.73555091678469
 21
34.69979856061876
 31
0.0
210
0.0
220
0.0
230
1.0
 40
0.2019459068
 41
4.627027456135484
 42
4.639281395713533
  0
SPLINE
  5
2D2
330
1F
100
AcDbEntity
  8
0
  6
Continuous
 62
     7
370
    25
100
AcDbSpline
210
0.0
220
0.0
230
1.0
 70
     8
 71
     3
 72
    14
 73
    10
 74
     0
 42
0.000000001
 43
0.00000001
 40
0.0
 40
0.0
 40
0.0
 40
0.0
 40
0.0364806946987262
 40
0.1761985188984041
 40
0.3322038876473403
 40
0.5065124029727222
 40
0.6938728681471568
 40
0.8805378326262107
 40
1.0
 40
1.0
 40
1.0
 40
1.0
 10
266.9991726388645
 20
6.619074841011437
 30
0.0
 10
267.0002732834418
 20
6.62060636002116
 30
0.0
 10
267.0055892991031
 20
6.62800346096467
 30
0.0
 10
267.018798555697
 20
6.640481176164205
 30
0.0
 10
267.041438667507
 20
6.653593623074501
 30
0.0
 10
267.0689449973139
 20
6.661672285609439
 30
0.0
 10
267.0977999301552
 20
6.662176832029444
 30
0.0
 10
267.1212958739711
 20
6.655091494029257
 30
0.0
 10
267.1312982817313
 20
6.64593332809011
 30
0.0
 10
267.1352015924334
 20
6.642359471876712
 30
0.0
  0
ELLIPSE
  5
2D3
330
1F
100
AcDbEntity
  8
0
  6
Continuous
 62
     7
370
    25
100
AcDbEllipse
 10
257.828393415
 20
46.6281689144
 30
0.0
 11
21.15206495560068
 21
60.07362709776938
 31
0.0
210
0.0
220
0.0
230
1.0
 40
0.4107407456
 41
4.123971488843187
 42
4.13633681958704
  0
ARC
  5
2D4
330
1F
100
AcDbEntity
  8
0
  6
Continuous
 62
     7
370
    25
100
AcDbCircle
 10
258.2445908642
 20
57.697044043
 30
0.0
 40
52.31299588713171
100
AcDbArc
 50
278.9936668656
 51
279.2049767493
  0
ELLIPSE
  5
2D5
330
1F
100
AcDbEntity
  8
0
  6
Continuous
 62
     7
370
    25
100
AcDbEllipse
 10
257.828393415
 20
1.37088339
 30
0.0
 11
-31.73555091678469
 21
34.69979856061876
 31
0.0
210
0.0
220
0.0
230
1.0
 40
0.2019459068
 41
4.662095378857287
 42
4.67459088630895
  0
SPLINE
  5
2D6
330
1F
100
AcDbEntity
  8
0
  6
Continuous
 62
     7
370
    25
100
AcDbSpline
210
0.0
220
0.0
230
1.0
 70
     8
 71
     3
 72
    14
 73
    10
 74
     0
 42
0.000000001
 43
0.00000001
 40
0.0
 40
0.0
 40
0.0
 40
0.0
 40
0.031784713845005
 40
0.1682386557066921
 40
0.32289959819708
 40
0.4985287525318458
 40
0.6898519523231379
 40
0.881174523814125
 40
1.0
 40
1.0
 40
1.0
 40
1.0
 10
265.8899848069802
 20
6.442987101110638
 30
0.0
 10
265.8909765531421
 20
6.4443178037989
 30
0.0
 10
265.8962259331398
 20
6.451361303781648
 30
0.0
 10
265.9093499404518
 20
6.463421157794892
 30
0.0
 10
265.9323175063051
 20
6.476280905129729
 30
0.0
 10
265.9606724698324
 20
6.484224328522255
 30
0.0
 10
265.9908552338616
 20
6.484526824745631
 30
0.0
 10
266.0155717564699
 20
6.477063022780234
 30
0.0
 10
266.026096177604
 20
6.467543571808211
 30
0.0
 10
266.030128346635
 20
6.463896431988227
 30
0.0
  0
ELLIPSE
  5
2D7
330
1F
100
AcDbEntity
  8
0
  6
Continuous
 62
     7
370
    25
100
AcDbEllipse
 10
257.828393415
 20
48.0424590871
 30
0.0
 11
21.15206495560068
 21
60.0736270977694
 31
0.0
210
0.0
220
0.0
230
1.0
 40
0.4107407456
 41
4.088317702640056
 42
4.100939124321254
  0
ARC
  5
2D8
330
1F
100
AcDbEntity
  8
0
  6
Continuous
 62
     7
370
    25
100
AcDbCircle
 10
258.3005350615
 20
57.208459514
 30
0.0
 40
51.82144725807225
100
AcDbArc
 50
277.7577090217
 51
277.9768731523
  0
ELLIPSE
  5
2D9
330
1F
100
AcDbEntity
  8
0
  6
Continuous
 62
     7
370
    25
100
AcDbEllipse
 10
257.828393415
 20
-0.0434067827
 30
0.0
 11
-31.73555091678463
 21
34.69979856061905
 31
0.0
210
0.0
220
0.0
230
1.0
 40
0.2019459068
 41
4.697878607696034
 42
4.707454852295117
  0
LINE
  5
2DA
330
1F
100
AcDbEntity
  8
0
  6
Continuous
 62
     7
370
    25
100
AcDbLine
 10
264.9923781059
 20
6.1941656874
 30
0.0
 11
264.9923781059
 21
6.5508379926
 31
0.0
  0
ELLIPSE
  5
2DB
330
1F
100
AcDbEntity
  8
0
  6
Continuous
 62
     7
370
    25
100
AcDbEllipse
 10
257.828393415
 20
10.684215876
 30
0.0
 11
32.49999980044072
 21
-18.76490022768738
 31
0.0
210
0.0
220
0.0
230
1.0
 40
0.0000703729
 41
1.3485813935447
 42
1.354049094575118
  0
LINE
  5
2DC
330
1F
100
AcDbEntity
  8
0
  6
Continuous
 62
     7
370
    25
100
AcDbLine
 10
264.818939873
 20
22.1293292765
 30
0.0
 11
264.818939873
 21
6.6509801374
 31
0.0
  0
ELLIPSE
  5
2DD
330
1F
100
AcDbEntity
  8
0
  6
Continuous
 62
     7
370
    25
100
AcDbEllipse
 10
257.828393415
 20
45.1714149523
 30
0.0
 11
32.37652957102006
 21
-15.22465020081541
 31
0.0
210
0.0
220
0.0
230
1.0
 40
0.1858993882
 41
5.719601058596225
 42
6.140631200007425
  0
ELLIPSE
  5
2DE
330
1F
100
AcDbEntity
  8
0
  6
Continuous
 62
     7
370
    25
100
AcDbEllipse
 10
257.828393415
 20
53.5106302332
 30
0.0
 11
32.25285726769437
 21
-27.58455755067052
 31
0.0
210
0.0
220
0.0
230
1.0
 40
0.1450231613
 41
0.3401900442381227
 42
0.3531514495733229
  0
SPLINE
  5
2DF
330
1F
100
AcDbEntity
  8
0
  6
Continuous
 62
     7
370
    25
100
AcDbSpline
210
0.0
220
0.0
230
1.0
 70
    11
 71
     3
 72
    26
 73
    22
 74
     0
 42
0.000000001
 43
0.00000001
 40
0.0
 40
0.0
 40
0.0
 40
0.0
 40
0.0509725376354203
 40
0.1019228240236468
 40
0.1535118628856798
 40
0.206748530524887
 40
0.2621165284425448
 40
0.319407391923809
 40
0.3772848623317009
 40
0.433475032234224
 40
0.4862408713334864
 40
0.5359971850720036
 40
0.5849516130262403
 40
0.6355027702977551
 40
0.6890916329006594
 40
0.7456366724549108
 40
0.8035434708549735
 40
0.860668490256957
 40
0.9156601919679849
 40
0.9684268342409411
 40
1.0
 40
1.0
 40
1.0
 40
1.0
 10
285.9162897089648
 20
18.67875218923563
 30
0.0
 10
285.9256091289829
 20
18.53592719551317
 30
0.0
 10
285.9442439007752
 20
18.25033955603813
 30
0.0
 10
286.0876761444047
 20
17.98824079437447
 30
0.0
 10
286.2959301435581
 20
17.88759935730126
 30
0.0
 10
286.5553546441637
 20
17.9723930452239
 30
0.0
 10
286.8364631980756
 20
18.2435652754001
 30
0.0
 10
287.1076559117457
 20
18.68465558533346
 30
0.0
 10
287.334052847918
 20
19.24657506655962
 30
0.0
 10
287.4865655277257
 20
19.84729603547446
 30
0.0
 10
287.5519188650999
 20
20.39565687510889
 30
0.0
 10
287.5342868630218
 20
20.82985250834608
 30
0.0
 10
287.4434725340323
 20
21.12496019024888
 30
0.0
 10
287.2851209842499
 20
21.26698283557134
 30
0.0
 10
287.0636646817899
 20
21.23698858616341
 30
0.0
 10
286.7922800027046
 20
21.02011553593364
 30
0.0
 10
286.5008988010161
 20
20.62682075625337
 30
0.0
 10
286.2324326055061
 20
20.10431669047556
 30
0.0
 10
286.0309031715231
 20
19.52904072864758
 30
0.0
 10
285.9296191654639
 20
19.03650928521704
 30
0.0
 10
285.9199204771675
 20
18.77620050518738
 30
0.0
 10
285.9162897089648
 20
18.67875218923563
 30
0.0
  0
LINE
  5
2E0
330
1F
100
AcDbEntity
  8
0
  6
Continuous
 62
     7
370
    25
100
AcDbLine
 10
275.9576719872
 20
41.7398381687
 30
0.0
 11
276.2986781873
 21
41.9005716167
 31
0.0
  0
LINE
  5
2E1
330
1F
100
AcDbEntity
  8
0
  6
Continuous
 62
     7
370
    25
100
AcDbLine
 10
276.2986781873
 20
41.9005716167
 30
0.0
 11
276.2949786488
 21
41.6976555549
 31
0.0
  0
LINE
  5
2E2
330
1F
100
AcDbEntity
  8
0
  6
Continuous
 62
     7
370
    25
100
AcDbLine
 10
262.9575713944
 20
49.2446364968
 30
0.0
 11
267.0206436594
 21
51.5901981886
 31
0.0
  0
LINE
  5
2E3
330
1F
100
AcDbEntity
  8
0
  6
Continuous
 62
     7
370
    25
100
AcDbLine
 10
276.0486143496
 20
42.0853424314
 30
0.0
 11
276.1071610143
 21
42.1129363328
 31
0.0
  0
LINE
  5
2E4
330
1F
100
AcDbEntity
  8
0
  6
Continuous
 62
     7
370
    25
100
AcDbLine
 10
276.2986781873
 20
41.9005716167
 30
0.0
 11
276.0486143496
 21
42.0853424314
 31
0.0
  0
LINE
  5
2E5
330
1F
100
AcDbEntity
  8
0
  6
Continuous
 62
     7
370
    25
100
AcDbLine
 10
267.0206436594
 20
51.5901981886
 30
0.0
 11
278.0448597404
 21
43.4444653333
 31
0.0
  0
LINE
  5
2E6
330
1F
100
AcDbEntity
  8
0
  6
Continuous
 62
     7
370
    25
100
AcDbLine
 10
281.4256366781
 20
30.1936436153
 30
0.0
 11
281.5728063114
 21
30.0275826983
 31
0.0
  0
LWPOLYLINE
  5
2E7
330
1F
100
AcDbEntity
  8
0
  6
Continuous
 62
     7
370
    25
100
AcDbPolyline
 90
       13
 70
   128
 43
0.0
 10
248.575265234
 20
17.6904645677
 10
248.6810222137
 20
17.7660584189
 10
248.8917986031
 20
18.0659591332
 10
248.9856016828
 20
18.4863974491
 10
248.9541021819
 20
18.9900186477
 10
248.8000923291
 20
19.5320712709
 10
248.537254045
 20
20.0643980084
 10
248.1889472206
 20
20.5396941768
 10
247.7861234476
 20
20.9157235294
 10
247.3645654004
 20
21.15908381
 10
246.9617416274
 20
21.2481448859
 10
246.613434803
 20
21.1749952172
 10
246.5754288823
 20
21.1546599151
  0
LINE
  5
2E8
330
1F
100
AcDbEntity
  8
0
  6
Continuous
 62
     7
370
    25
100
AcDbLine
 10
264.818939873
 20
6.6509801374
 30
0.0
 11
247.1355921092
 21
16.85935951
 31
0.0
  0
LINE
  5
2E9
330
1F
100
AcDbEntity
  8
0
  6
Continuous
 62
     7
370
    25
100
AcDbLine
 10
245.4540224156
 20
33.3084581702
 30
0.0
 11
245.4540224156
 21
20.5072912629
 31
0.0
  0
LINE
  5
2EA
330
1F
100
AcDbEntity
  8
0
  6
Continuous
 62
     7
370
    25
100
AcDbLine
 10
289.4744102954
 20
29.2460983947
 30
0.0
 11
284.4224651278
 21
32.4230299349
 31
0.0
  0
LINE
  5
2EB
330
1F
100
AcDbEntity
  8
0
  6
Continuous
 62
     7
370
    25
100
AcDbLine
 10
247.135574987
 20
16.8593510103
 30
0.0
 11
264.9923781059
 21
6.5508379926
 31
0.0
  0
LINE
  5
2EC
330
1F
100
AcDbEntity
  8
0
  6
Continuous
 62
     7
370
    25
100
AcDbLine
 10
246.8266543925
 20
16.6810147683
 30
0.0
 11
264.9923781059
 21
6.1941656874
 31
0.0
  0
LINE
  5
2ED
330
1F
100
AcDbEntity
  8
0
  6
Continuous
 62
     7
370
    25
100
AcDbLine
 10
265.2956141442
 20
5.8612953805
 30
0.0
 11
246.6899668944
 21
16.6021069132
 31
0.0
  0
LINE
  5
2EE
330
1F
100
AcDbEntity
  8
0
  6
Continuous
 62
     7
370
    25
100
AcDbLine
 10
266.4224351638
 20
6.0272036978
 30
0.0
 11
265.835224197
 21
6.3661933734
 31
0.0
  0
LINE
  5
2EF
330
1F
100
AcDbEntity
  8
0
  6
Continuous
 62
     7
370
    25
100
AcDbLine
 10
267.5160655403
 20
6.2122725656
 30
0.0
 11
266.9460241458
 21
6.541350458
 31
0.0
  0
LINE
  5
2F0
330
1F
100
AcDbEntity
  8
0
  6
Continuous
 62
     7
370
    25
100
AcDbLine
 10
268.5783650032
 20
6.4154283847
 30
0.0
 11
268.0245554138
 21
6.7351358556
 31
0.0
  0
LINE
  5
2F1
330
1F
100
AcDbEntity
  8
0
  6
Continuous
 62
     7
370
    25
100
AcDbLine
 10
269.6109140594
 20
6.6357587481
 30
0.0
 11
269.0725407532
 21
6.9465550423
 31
0.0
  0
LINE
  5
2F2
330
1F
100
AcDbEntity
  8
0
  6
Continuous
 62
     7
370
    25
100
AcDbLine
 10
270.6150824815
 20
6.8724729028
 30
0.0
 11
270.0914500356
 21
7.1747594795
 31
0.0
  0
LINE
  5
2F3
330
1F
100
AcDbEntity
  8
0
  6
Continuous
 62
     7
370
    25
100
AcDbLine
 10
276.7952324354
 20
14.5963835541
 30
0.0
 11
278.2986263269
 21
13.7284927342
 31
0.0
  0
LINE
  5
2F4
330
1F
100
AcDbEntity
  8
0
  6
Continuous
 62
     7
370
    25
100
AcDbLine
 10
271.592039186
 20
7.1248952874
 30
0.0
 11
271.0825522761
 21
7.4190158199
 31
0.0
  0
LINE
  5
2F5
330
1F
100
AcDbEntity
  8
0
  6
Continuous
 62
     7
370
    25
100
AcDbLine
 10
272.5427864776
 20
7.3924488042
 30
0.0
 11
272.0469393416
 21
7.6786952629
 31
0.0
  0
LINE
  5
2F6
330
1F
100
AcDbEntity
  8
0
  6
Continuous
 62
     7
370
    25
100
AcDbLine
 10
273.4682035133
 20
7.6746251666
 30
0.0
 11
272.9855536092
 21
7.9532530255
 31
0.0
  0
LINE
  5
2F7
330
1F
100
AcDbEntity
  8
0
  6
Continuous
 62
     7
370
    25
100
AcDbLine
 10
274.3690225945
 20
7.9710016259
 30
0.0
 11
273.8991958691
 21
8.2422268213
 31
0.0
  0
LINE
  5
2F8
330
1F
100
AcDbEntity
  8
0
  6
Continuous
 62
     7
370
    25
100
AcDbLine
 10
275.2458913998
 20
8.281203905
 30
0.0
 11
274.7885664833
 21
8.5452119597
 31
0.0
  0
LINE
  5
2F9
330
1F
100
AcDbEntity
  8
0
  6
Continuous
 62
     7
370
    25
100
AcDbLine
 10
281.3330672169
 20
19.0182672735
 30
0.0
 11
284.2198523853
 21
17.3517616683
 31
0.0
  0
LINE
  5
2FA
330
1F
100
AcDbEntity
  8
0
  6
Continuous
 62
     7
370
    25
100
AcDbLine
 10
279.999560851
 20
18.2573190321
 30
0.0
 11
283.0715972237
 21
16.483870183
 31
0.0
  0
LINE
  5
2FB
330
1F
100
AcDbEntity
  8
0
  6
Continuous
 62
     7
370
    25
100
AcDbLine
 10
277.1011220789
 20
16.8685239532
 30
0.0
 11
283.0715972237
 21
13.4218420168
 31
0.0
  0
LINE
  5
2FC
330
1F
100
AcDbEntity
  8
0
  6
Continuous
 62
     7
370
    25
100
AcDbLine
 10
284.941249369
 20
14.3026154688
 30
0.0
 11
284.527699223
 21
14.5413528864
 31
0.0
  0
LINE
  5
2FD
330
1F
100
AcDbEntity
  8
0
  6
Continuous
 62
     7
370
    25
100
AcDbLine
 10
285.1722233185
 20
13.9805680004
 30
0.0
 11
284.3931651655
 21
14.4303086991
 31
0.0
  0
LINE
  5
2FE
330
1F
100
AcDbEntity
  8
0
  6
Continuous
 62
     7
370
    25
100
AcDbLine
 10
285.713635149
 20
14.4844258491
 30
0.0
 11
285.4323839605
 21
14.6467887042
 31
0.0
  0
LINE
  5
2FF
330
1F
100
AcDbEntity
  8
0
  6
Continuous
 62
     7
370
    25
100
AcDbLine
 10
286.2311918632
 20
15.0020549633
 30
0.0
 11
285.9625320458
 21
15.1571489746
 31
0.0
  0
LINE
  5
300
330
1F
100
AcDbEntity
  8
0
  6
Continuous
 62
     7
370
    25
100
AcDbLine
 10
286.7242717952
 20
15.5338142231
 30
0.0
 11
286.4685405235
 21
15.6814447438
 31
0.0
  0
LINE
  5
301
330
1F
100
AcDbEntity
  8
0
  6
Continuous
 62
     7
370
    25
100
AcDbLine
 10
287.1921525216
 20
16.0801199143
 30
0.0
 11
286.9497501908
 21
16.2200558013
 31
0.0
  0
LINE
  5
302
330
1F
100
AcDbEntity
  8
0
  6
Continuous
 62
     7
370
    25
100
AcDbLine
 10
287.6339924226
 20
16.6414594145
 30
0.0
 11
287.4053721112
 21
16.773439111
 31
0.0
  0
LINE
  5
303
330
1F
100
AcDbEntity
  8
0
  6
Continuous
 62
     7
370
    25
100
AcDbLine
 10
288.0487951202
 20
17.2184071598
 30
0.0
 11
287.8344942005
 21
17.3421204474
 31
0.0
  0
LINE
  5
304
330
1F
100
AcDbEntity
  8
0
  6
Continuous
 62
     7
370
    25
100
AcDbLine
 10
288.4354331862
 20
17.8116140009
 30
0.0
 11
288.2360733244
 21
17.9267019994
 31
0.0
  0
LINE
  5
305
330
1F
100
AcDbEntity
  8
0
  6
Continuous
 62
     7
370
    25
100
AcDbLine
 10
288.7925789951
 20
18.4218463597
 30
0.0
 11
288.6088766875
 21
18.5278954445
 31
0.0
  0
LINE
  5
306
330
1F
100
AcDbEntity
  8
0
  6
Continuous
 62
     7
370
    25
100
AcDbLine
 10
289.1186777231
 20
19.0500010564
 30
0.0
 11
288.9514759067
 21
19.1465246104
 31
0.0
  0
LINE
  5
307
330
1F
100
AcDbEntity
  8
0
  6
Continuous
 62
     7
370
    25
100
AcDbLine
 10
289.4119236412
 20
19.6971220369
 30
0.0
 11
289.262212767
 21
19.7835482849
 31
0.0
  0
LINE
  5
308
330
1F
100
AcDbEntity
  8
0
  6
Continuous
 62
     7
370
    25
100
AcDbLine
 10
242.6345391788
 20
73.0484792123
 30
0.0
 11
252.1715399136
 21
58.0048018983
 31
0.0
  0
LINE
  5
309
330
1F
100
AcDbEntity
  8
0
  6
Continuous
 62
     7
370
    25
100
AcDbLine
 10
252.1715399136
 20
58.0048018983
 30
0.0
 11
233.9166578349
 21
47.4664827887
 31
0.0
  0
ELLIPSE
  5
30A
330
1F
100
AcDbEntity
  8
0
  6
Continuous
 62
     7
370
    25
100
AcDbEllipse
 10
233.2004139046
 20
49.6287931308
 30
0.0
 11
-0.3036907733034582
 21
2.304253090102478
 31
0.0
210
0.0
220
0.0
230
1.0
 40
0.6794150358
 41
3.415781883872995
 42
4.864405163028295
  0
LINE
  5
30B
330
1F
100
AcDbEntity
  8
0
  6
Continuous
 62
     7
370
    25
100
AcDbLine
 10
230.6049186699
 20
67.3123424522
 30
0.0
 11
234.7019151966
 21
50.1816827803
 31
0.0
  0
LINE
  5
30C
330
1F
100
AcDbEntity
  8
0
  6
Continuous
 62
     7
370
    25
100
AcDbLine
 10
234.6679909348
 20
69.657904144
 30
0.0
 11
230.6049186699
 21
67.3123424522
 31
0.0
  0
LINE
  5
30D
330
1F
100
AcDbEntity
  8
0
  6
Continuous
 62
     7
370
    25
100
AcDbLine
 10
234.6679909348
 20
69.657904144
 30
0.0
 11
242.6345391788
 21
73.0484792123
 31
0.0
  0
LWPOLYLINE
  5
30E
330
1F
100
AcDbEntity
  8
0
  6
Continuous
 62
     7
370
    25
100
AcDbPolyline
 90
       24
 70
   128
 43
0.0
 10
221.3993615749
 20
64.7757708064
 10
221.8235913372
 20
64.5573612926
 10
222.2324537987
 20
64.5146944533
 10
222.5956254544
 20
64.6509350266
 10
222.8861719986
 20
64.9559784863
 10
223.0825445379
 20
65.4072022894
 10
223.1701798544
 20
65.9711390292
 10
223.1425776198
 20
66.6059657791
 10
223.0017849199
 20
67.2645998304
 10
222.7582436364
 20
67.8981937889
 10
222.4300171511
 20
68.459755509
 10
222.0414477386
 20
68.9076381222
 10
221.6213538005
 20
69.208623272
 10
221.2008914067
 20
69.3403892067
 10
220.8112447801
 20
69.2931626091
 10
220.4813126645
 20
69.0704460057
 10
220.2355639397
 20
68.6887577536
 10
220.0922249775
 20
68.1764054378
 10
220.0619268264
 20
67.5713879384
 10
220.1469154525
 20
66.9185774147
 10
220.3408894081
 20
66.2663890969
 10
220.629460648
 20
65.6631926881
 10
220.9912284515
 20
65.1537249701
 10
221.3993615749
 20
64.7757708064
  0
LINE
  5
30F
330
1F
100
AcDbEntity
  8
0
  6
Continuous
 62
     7
370
    25
100
AcDbLine
 10
213.9617916765
 20
65.7335320737
 30
0.0
 11
213.9013061745
 21
69.022548626
 31
0.0
  0
LWPOLYLINE
  5
310
330
1F
100
AcDbEntity
  8
0
  6
Continuous
 62
     7
370
    25
100
AcDbPolyline
 90
       10
 70
   128
 43
0.0
 10
217.1689049945
 20
68.2985175886
 10
217.2405392434
 20
67.7749666877
 10
217.4363459284
 20
67.1997537322
 10
217.7312121953
 20
66.7008685855
 10
218.0895713724
 20
66.3384847659
 10
218.4682017019
 20
66.1563108193
 10
218.8214347685
 20
66.1763190651
 10
219.1066638951
 20
66.3960973464
 10
219.2894877043
 20
66.7891364504
 10
219.3478541748
 20
67.3080300329
  0
LINE
  5
311
330
1F
100
AcDbEntity
  8
0
  6
Continuous
 62
     7
370
    25
100
AcDbLine
 10
219.3478541748
 20
67.3080300329
 30
0.0
 11
219.2351501268
 21
75.7134027585
 31
0.0
  0
LINE
  5
312
330
1F
100
AcDbEntity
  8
0
  6
Continuous
 62
     7
370
    25
100
AcDbLine
 10
230.6049186699
 20
67.3123424522
 30
0.0
 11
219.2351501268
 21
75.7134027585
 31
0.0
  0
SPLINE
  5
313
330
1F
100
AcDbEntity
  8
0
  6
Continuous
 62
     7
370
    25
100
AcDbSpline
210
0.0
220
0.0
230
1.0
 70
     8
 71
     3
 72
    12
 73
     8
 74
     0
 42
0.000000001
 43
0.00000001
 40
0.0
 40
0.0
 40
0.0
 40
0.0
 40
0.4999999999999982
 40
0.4999999999999982
 40
0.7499999999999991
 40
0.7499999999999991
 40
1.0
 40
1.0
 40
1.0
 40
1.0
 10
214.5702264794028
 20
65.05687783533345
 30
0.0
 10
214.4809794092345
 20
65.20079134885493
 30
0.0
 10
214.3852018325236
 20
65.32952927231742
 30
0.0
 10
214.2319406209998
 20
65.50033965484836
 30
0.0
 10
214.178910349391
 20
65.55378254586101
 30
0.0
 10
214.0714574341361
 20
65.65085980719037
 30
0.0
 10
214.0169964980496
 20
65.69461700917738
 30
0.0
 10
213.961791683345
 20
65.73353158778504
 30
0.0
  0
LINE
  5
314
330
1F
100
AcDbEntity
  8
0
  6
Continuous
 62
     7
370
    25
100
AcDbLine
 10
252.1715399136
 20
58.0048018983
 30
0.0
 11
252.1715399136
 21
42.5264527593
 31
0.0
  0
LINE
  5
315
330
1F
100
AcDbEntity
  8
0
  6
Continuous
 62
     7
370
    25
100
AcDbLine
 10
252.0654734181
 20
42.3427417215
 30
0.0
 11
252.1715399136
 21
42.5264527593
 31
0.0
  0
LINE
  5
316
330
1F
100
AcDbEntity
  8
0
  6
Continuous
 62
     7
370
    25
100
AcDbLine
 10
252.0654734181
 20
41.9860694162
 30
0.0
 11
252.0654734181
 21
42.3427417215
 31
0.0
  0
LINE
  5
317
330
1F
100
AcDbEntity
  8
0
  6
Continuous
 62
     7
370
    25
100
AcDbLine
 10
252.0654734181
 20
41.9860694162
 30
0.0
 11
251.8788260995
 21
41.5050059376
 31
0.0
  0
LINE
  5
318
330
1F
100
AcDbEntity
  8
0
  6
Continuous
 62
     7
370
    25
100
AcDbLine
 10
251.7571468307
 20
41.4347619909
 30
0.0
 11
251.8788260995
 21
41.5050059376
 31
0.0
  0
LINE
  5
319
330
1F
100
AcDbEntity
  8
0
  6
Continuous
 62
     7
370
    25
100
AcDbLine
 10
251.7571468307
 20
41.4347619909
 30
0.0
 11
251.5085238884
 21
41.7885077896
 31
0.0
  0
LWPOLYLINE
  5
31A
330
1F
100
AcDbEntity
  8
0
  6
Continuous
 62
     7
370
    25
100
AcDbPolyline
 90
        9
 70
   128
 43
0.0
 10
251.5085238884
 20
41.7885077896
 10
251.5004330106
 20
41.7960135571
 10
251.489888396
 20
41.7992678068
 10
251.4776104921
 20
41.7980537392
 10
251.4644330165
 20
41.7924511246
 10
251.4512555409
 20
41.7828393497
 10
251.4389776371
 20
41.7698776513
 10
251.4284330225
 20
41.7544488487
 10
251.4203421446
 20
41.7376015525
  0
LINE
  5
31B
330
1F
100
AcDbEntity
  8
0
  6
Continuous
 62
     7
370
    25
100
AcDbLine
 10
251.4203421446
 20
41.7376015525
 30
0.0
 11
251.1717192024
 21
41.0968018147
 31
0.0
  0
LINE
  5
31C
330
1F
100
AcDbEntity
  8
0
  6
Continuous
 62
     7
370
    25
100
AcDbLine
 10
251.1717192024
 20
41.0968018147
 30
0.0
 11
251.0500399336
 21
41.0265578681
 31
0.0
  0
LINE
  5
31D
330
1F
100
AcDbEntity
  8
0
  6
Continuous
 62
     7
370
    25
100
AcDbLine
 10
251.0500399336
 20
41.0265578681
 30
0.0
 11
250.8014169913
 21
41.3803036668
 31
0.0
  0
LWPOLYLINE
  5
31E
330
1F
100
AcDbEntity
  8
0
  6
Continuous
 62
     7
370
    25
100
AcDbPolyline
 90
        9
 70
   128
 43
0.0
 10
250.8014169913
 20
41.3803036668
 10
250.7933261135
 20
41.3878094343
 10
250.7827821574
 20
41.3910640641
 10
250.7705029365
 20
41.3898492362
 10
250.7573261194
 20
41.3842470018
 10
250.7441493024
 20
41.374635607
 10
250.73187074
 20
41.3616735285
 10
250.7213261254
 20
41.3462447259
 10
250.7132352476
 20
41.3293974297
  0
LINE
  5
31F
330
1F
100
AcDbEntity
  8
0
  6
Continuous
 62
     7
370
    25
100
AcDbLine
 10
250.7132352476
 20
41.3293974297
 30
0.0
 11
250.4646123053
 21
40.6885976919
 31
0.0
  0
LINE
  5
320
330
1F
100
AcDbEntity
  8
0
  6
Continuous
 62
     7
370
    25
100
AcDbLine
 10
250.4646123053
 20
40.6885976919
 30
0.0
 11
250.3429336951
 21
40.6183541254
 31
0.0
  0
LINE
  5
321
330
1F
100
AcDbEntity
  8
0
  6
Continuous
 62
     7
370
    25
100
AcDbLine
 10
250.3429336951
 20
40.6183541254
 30
0.0
 11
250.0943100943
 21
40.972099544
 31
0.0
  0
LWPOLYLINE
  5
322
330
1F
100
AcDbEntity
  8
0
  6
Continuous
 62
     7
370
    25
100
AcDbPolyline
 90
        9
 70
   128
 43
0.0
 10
250.0943100943
 20
40.972099544
 10
250.0862192164
 20
40.9796053115
 10
250.0756752603
 20
40.9828599413
 10
250.063396698
 20
40.9816454935
 10
250.0502192224
 20
40.976042879
 10
250.0370424053
 20
40.9664314842
 10
250.0247638429
 20
40.9534694057
 10
250.0142192283
 20
40.938040603
 10
250.006129009
 20
40.921193687
  0
LINE
  5
323
330
1F
100
AcDbEntity
  8
0
  6
Continuous
 62
     7
370
    25
100
AcDbLine
 10
250.006129009
 20
40.921193687
 30
0.0
 11
249.7575054082
 21
40.2803935691
 31
0.0
  0
LINE
  5
324
330
1F
100
AcDbEntity
  8
0
  6
Continuous
 62
     7
370
    25
100
AcDbLine
 10
249.7575054082
 20
40.2803935691
 30
0.0
 11
249.635826798
 21
40.2101500026
 31
0.0
  0
LINE
  5
325
330
1F
100
AcDbEntity
  8
0
  6
Continuous
 62
     7
370
    25
100
AcDbLine
 10
249.635826798
 20
40.2101500026
 30
0.0
 11
249.3872038557
 21
40.5638958013
 31
0.0
  0
LWPOLYLINE
  5
326
330
1F
100
AcDbEntity
  8
0
  6
Continuous
 62
     7
370
    25
100
AcDbPolyline
 90
        9
 70
   128
 43
0.0
 10
249.3872038557
 20
40.5638958013
 10
249.3791129779
 20
40.5714015688
 10
249.3685683632
 20
40.5746558185
 10
249.3562898009
 20
40.5734413707
 10
249.3431129838
 20
40.5678391363
 10
249.3299355082
 20
40.5582273614
 10
249.3176569459
 20
40.5452652828
 10
249.3071129897
 20
40.5298368604
 10
249.2990221119
 20
40.5129895642
  0
LINE
  5
327
330
1F
100
AcDbEntity
  8
0
  6
Continuous
 62
     7
370
    25
100
AcDbLine
 10
249.2990221119
 20
40.5129895642
 30
0.0
 11
249.0503985111
 21
39.8721894463
 31
0.0
  0
LINE
  5
328
330
1F
100
AcDbEntity
  8
0
  6
Continuous
 62
     7
370
    25
100
AcDbLine
 10
249.0503985111
 20
39.8721894463
 30
0.0
 11
248.9287199009
 21
39.8019458798
 31
0.0
  0
LINE
  5
329
330
1F
100
AcDbEntity
  8
0
  6
Continuous
 62
     7
370
    25
100
AcDbLine
 10
248.9287199009
 20
39.8019458798
 30
0.0
 11
248.6800969586
 21
40.1556916785
 31
0.0
  0
LWPOLYLINE
  5
32A
330
1F
100
AcDbEntity
  8
0
  6
Continuous
 62
     7
370
    25
100
AcDbPolyline
 90
        9
 70
   128
 43
0.0
 10
248.6800969586
 20
40.1556916785
 10
248.6720060808
 20
40.163197446
 10
248.6614621247
 20
40.1664520758
 10
248.6491829038
 20
40.1652372479
 10
248.6360060867
 20
40.1596350135
 10
248.6228292697
 20
40.1500236187
 10
248.6105500488
 20
40.13706116
 10
248.6000060926
 20
40.1216327376
 10
248.5919152148
 20
40.1047854414
  0
LINE
  5
32B
330
1F
100
AcDbEntity
  8
0
  6
Continuous
 62
     7
370
    25
100
AcDbLine
 10
248.5919152148
 20
40.1047854414
 30
0.0
 11
248.343291614
 21
39.4639853234
 31
0.0
  0
LINE
  5
32C
330
1F
100
AcDbEntity
  8
0
  6
Continuous
 62
     7
370
    25
100
AcDbLine
 10
248.343291614
 20
39.4639853234
 30
0.0
 11
248.2216130038
 21
39.393741757
 31
0.0
  0
LINE
  5
32D
330
1F
100
AcDbEntity
  8
0
  6
Continuous
 62
     7
370
    25
100
AcDbLine
 10
248.2216130038
 20
39.393741757
 30
0.0
 11
247.9729900615
 21
39.7474875557
 31
0.0
  0
LWPOLYLINE
  5
32E
330
1F
100
AcDbEntity
  8
0
  6
Continuous
 62
     7
370
    25
100
AcDbPolyline
 90
        9
 70
   128
 43
0.0
 10
247.9729900615
 20
39.7474875557
 10
247.9648991837
 20
39.7549933232
 10
247.9543552276
 20
39.758247953
 10
247.9420760067
 20
39.7570331251
 10
247.9288991896
 20
39.7514308907
 10
247.9157223726
 20
39.7418194959
 10
247.9034431517
 20
39.7288570372
 10
247.8928991956
 20
39.7134286147
 10
247.8848083177
 20
39.6965813186
  0
LINE
  5
32F
330
1F
100
AcDbEntity
  8
0
  6
Continuous
 62
     7
370
    25
100
AcDbLine
 10
247.8848083177
 20
39.6965813186
 30
0.0
 11
247.6361853755
 21
39.0557815808
 31
0.0
  0
LINE
  5
330
330
1F
100
AcDbEntity
  8
0
  6
Continuous
 62
     7
370
    25
100
AcDbLine
 10
247.6361853755
 20
39.0557815808
 30
0.0
 11
247.5145061067
 21
38.9855376341
 31
0.0
  0
LINE
  5
331
330
1F
100
AcDbEntity
  8
0
  6
Continuous
 62
     7
370
    25
100
AcDbLine
 10
247.5145061067
 20
38.9855376341
 30
0.0
 11
247.2658831644
 21
39.3392834329
 31
0.0
  0
LWPOLYLINE
  5
332
330
1F
100
AcDbEntity
  8
0
  6
Continuous
 62
     7
370
    25
100
AcDbPolyline
 90
        9
 70
   128
 43
0.0
 10
247.2658831644
 20
39.3392834329
 10
247.2577922866
 20
39.3467892003
 10
247.2472483305
 20
39.3500438302
 10
247.2349691096
 20
39.3488290022
 10
247.2217922925
 20
39.3432267678
 10
247.2086154755
 20
39.3336153731
 10
247.1963362546
 20
39.3206529144
 10
247.1857922985
 20
39.3052244919
 10
247.1777014206
 20
39.2883771958
  0
LINE
  5
333
330
1F
100
AcDbEntity
  8
0
  6
Continuous
 62
     7
370
    25
100
AcDbLine
 10
247.1777014206
 20
39.2883771958
 30
0.0
 11
246.9290784784
 21
38.647577458
 31
0.0
  0
LINE
  5
334
330
1F
100
AcDbEntity
  8
0
  6
Continuous
 62
     7
370
    25
100
AcDbLine
 10
246.9290784784
 20
38.647577458
 30
0.0
 11
246.8073998682
 21
38.5773338915
 31
0.0
  0
LINE
  5
335
330
1F
100
AcDbEntity
  8
0
  6
Continuous
 62
     7
370
    25
100
AcDbLine
 10
246.8073998682
 20
38.5773338915
 30
0.0
 11
246.5587762673
 21
38.9310793101
 31
0.0
  0
LWPOLYLINE
  5
336
330
1F
100
AcDbEntity
  8
0
  6
Continuous
 62
     7
370
    25
100
AcDbPolyline
 90
        9
 70
   128
 43
0.0
 10
246.5587762673
 20
38.9310793101
 10
246.5506853895
 20
38.9385850775
 10
246.5401414334
 20
38.9418397074
 10
246.5278622125
 20
38.9406248794
 10
246.5146853955
 20
38.935022645
 10
246.5015085784
 20
38.9254112503
 10
246.489230016
 20
38.9124491717
 10
246.4786854014
 20
38.8970203691
 10
246.4705945236
 20
38.8801730729
  0
LINE
  5
337
330
1F
100
AcDbEntity
  8
0
  6
Continuous
 62
     7
370
    25
100
AcDbLine
 10
246.4705945236
 20
38.8801730729
 30
0.0
 11
246.2219715813
 21
38.2393733352
 31
0.0
  0
LINE
  5
338
330
1F
100
AcDbEntity
  8
0
  6
Continuous
 62
     7
370
    25
100
AcDbLine
 10
246.2219715813
 20
38.2393733352
 30
0.0
 11
246.1002929711
 21
38.1691297687
 31
0.0
  0
LINE
  5
339
330
1F
100
AcDbEntity
  8
0
  6
Continuous
 62
     7
370
    25
100
AcDbLine
 10
246.1002929711
 20
38.1691297687
 30
0.0
 11
245.8516693703
 21
38.5228751872
 31
0.0
  0
LWPOLYLINE
  5
33A
330
1F
100
AcDbEntity
  8
0
  6
Continuous
 62
     7
370
    25
100
AcDbPolyline
 90
        9
 70
   128
 43
0.0
 10
245.8516693703
 20
38.5228751872
 10
245.843579151
 20
38.5303813349
 10
245.8330345363
 20
38.5336355846
 10
245.820755974
 20
38.5324211368
 10
245.8075791569
 20
38.5268189024
 10
245.7944016813
 20
38.5172071274
 10
245.7821231189
 20
38.5042450489
 10
245.7715785043
 20
38.4888162463
 10
245.763488285
 20
38.4719693303
  0
LINE
  5
33B
330
1F
100
AcDbEntity
  8
0
  6
Continuous
 62
     7
370
    25
100
AcDbLine
 10
245.763488285
 20
38.4719693303
 30
0.0
 11
245.5148646842
 21
37.8311692123
 31
0.0
  0
LINE
  5
33C
330
1F
100
AcDbEntity
  8
0
  6
Continuous
 62
     7
370
    25
100
AcDbLine
 10
245.5148646842
 20
37.8311692123
 30
0.0
 11
245.393186074
 21
37.7609256458
 31
0.0
  0
LINE
  5
33D
330
1F
100
AcDbEntity
  8
0
  6
Continuous
 62
     7
370
    25
100
AcDbLine
 10
245.393186074
 20
37.7609256458
 30
0.0
 11
245.1445628024
 21
38.1146712545
 31
0.0
  0
LWPOLYLINE
  5
33E
330
1F
100
AcDbEntity
  8
0
  6
Continuous
 62
     7
370
    25
100
AcDbPolyline
 90
        9
 70
   128
 43
0.0
 10
245.1445628024
 20
38.1146712545
 10
245.1364719246
 20
38.122177022
 10
245.1259279685
 20
38.1254316518
 10
245.1136490769
 20
38.1242170139
 10
245.1004719305
 20
38.1186145895
 10
245.0872951135
 20
38.1090031947
 10
245.0750162219
 20
38.0960409261
 10
245.0644719365
 20
38.0806123135
 10
245.0563813879
 20
38.0637652075
  0
LINE
  5
33F
330
1F
100
AcDbEntity
  8
0
  6
Continuous
 62
     7
370
    25
100
AcDbLine
 10
245.0563813879
 20
38.0637652075
 30
0.0
 11
244.8077581164
 21
37.4229652796
 31
0.0
  0
LINE
  5
340
330
1F
100
AcDbEntity
  8
0
  6
Continuous
 62
     7
370
    25
100
AcDbLine
 10
244.8077581164
 20
37.4229652796
 30
0.0
 11
244.6860791769
 21
37.352721523
 31
0.0
  0
LINE
  5
341
330
1F
100
AcDbEntity
  8
0
  6
Continuous
 62
     7
370
    25
100
AcDbLine
 10
244.6860791769
 20
37.352721523
 30
0.0
 11
244.4374562346
 21
37.7064673218
 31
0.0
  0
ARC
  5
342
330
1F
100
AcDbEntity
  8
0
  6
Continuous
 62
     7
370
    25
100
AcDbCircle
 10
244.413394128
 20
37.6858903676
 30
0.0
 40
0.0316606383191428
100
AcDbArc
 50
40.5357422561
 51
129.2427809819
  0
LINE
  5
343
330
1F
100
AcDbEntity
  8
0
  6
Continuous
 62
     7
370
    25
100
AcDbLine
 10
244.3933653627
 20
38.3015853828
 30
0.0
 11
244.3933653627
 21
37.7104106567
 31
0.0
  0
LINE
  5
344
330
1F
100
AcDbEntity
  8
0
  6
Continuous
 62
     7
370
    25
100
AcDbLine
 10
242.1836566386
 20
37.0259476891
 30
0.0
 11
244.3933653627
 21
38.3015853828
 31
0.0
  0
LINE
  5
345
330
1F
100
AcDbEntity
  8
0
  6
Continuous
 62
     7
370
    25
100
AcDbLine
 10
242.1836566386
 20
40.0879758553
 30
0.0
 11
242.1836566386
 21
37.0259476891
 31
0.0
  0
LINE
  5
346
330
1F
100
AcDbEntity
  8
0
  6
Continuous
 62
     7
370
    25
100
AcDbLine
 10
243.5094817414
 20
40.8533583955
 30
0.0
 11
242.1836566386
 21
40.0879758553
 31
0.0
  0
LINE
  5
347
330
1F
100
AcDbEntity
  8
0
  6
Continuous
 62
     7
370
    25
100
AcDbLine
 10
243.5094817414
 20
44.5277918908
 30
0.0
 11
243.5094817414
 21
40.8533583955
 31
0.0
  0
LINE
  5
348
330
1F
100
AcDbEntity
  8
0
  6
Continuous
 62
     7
370
    25
100
AcDbLine
 10
236.084860639
 20
40.2416493615
 30
0.0
 11
243.5094817414
 21
44.5277918908
 31
0.0
  0
LINE
  5
349
330
1F
100
AcDbEntity
  8
0
  6
Continuous
 62
     7
370
    25
100
AcDbLine
 10
236.084860639
 20
36.5672158662
 30
0.0
 11
236.084860639
 21
40.2416493615
 31
0.0
  0
LINE
  5
34A
330
1F
100
AcDbEntity
  8
0
  6
Continuous
 62
     7
370
    25
100
AcDbLine
 10
237.4106857418
 20
37.3325984064
 30
0.0
 11
236.084860639
 21
36.5672158662
 31
0.0
  0
LINE
  5
34B
330
1F
100
AcDbEntity
  8
0
  6
Continuous
 62
     7
370
    25
100
AcDbLine
 10
237.4106857418
 20
34.2705702402
 30
0.0
 11
237.4106857418
 21
37.3325984064
 31
0.0
  0
LINE
  5
34C
330
1F
100
AcDbEntity
  8
0
  6
Continuous
 62
     7
370
    25
100
AcDbLine
 10
235.2009770176
 20
32.9949325465
 30
0.0
 11
237.4106857418
 21
34.2705702402
 31
0.0
  0
LINE
  5
34D
330
1F
100
AcDbEntity
  8
0
  6
Continuous
 62
     7
370
    25
100
AcDbLine
 10
235.2009770176
 20
32.4037578204
 30
0.0
 11
235.2009770176
 21
32.9949325465
 31
0.0
  0
ARC
  5
34E
330
1F
100
AcDbEntity
  8
0
  6
Continuous
 62
     7
370
    25
100
AcDbCircle
 10
235.2605867944
 20
32.310694427
 30
0.0
 40
0.1105175129744916
100
AcDbArc
 50
122.6407289452
 51
159.7710935816
  0
LINE
  5
34F
330
1F
100
AcDbEntity
  8
0
  6
Continuous
 62
     7
370
    25
100
AcDbLine
 10
234.9082632035
 20
31.7081085105
 30
0.0
 11
235.1568861457
 21
32.3489082483
 31
0.0
  0
LINE
  5
350
330
1F
100
AcDbEntity
  8
0
  6
Continuous
 62
     7
370
    25
100
AcDbLine
 10
234.9082632035
 20
31.7081085105
 30
0.0
 11
234.786584264
 21
31.6378647539
 31
0.0
  0
LINE
  5
351
330
1F
100
AcDbEntity
  8
0
  6
Continuous
 62
     7
370
    25
100
AcDbLine
 10
234.5822586473
 20
31.9285828439
 30
0.0
 11
234.786584264
 21
31.6378647539
 31
0.0
  0
LINE
  5
352
330
1F
100
AcDbEntity
  8
0
  6
Continuous
 62
     7
370
    25
100
AcDbLine
 10
234.5822586473
 20
37.5574120533
 30
0.0
 11
234.5822586473
 21
31.9285828439
 31
0.0
  0
LINE
  5
353
330
1F
100
AcDbEntity
  8
0
  6
Continuous
 62
     7
370
    25
100
AcDbLine
 10
234.5822586473
 20
37.5574120533
 30
0.0
 11
230.8699477669
 21
35.4143405986
 31
0.0
  0
LINE
  5
354
330
1F
100
AcDbEntity
  8
0
  6
Continuous
 62
     7
370
    25
100
AcDbLine
 10
230.8699477669
 20
35.4143405986
 30
0.0
 11
230.8699477669
 21
29.7855113892
 31
0.0
  0
LINE
  5
355
330
1F
100
AcDbEntity
  8
0
  6
Continuous
 62
     7
370
    25
100
AcDbLine
 10
230.6656224795
 20
29.2588841538
 30
0.0
 11
230.8699477669
 21
29.7855113892
 31
0.0
  0
LINE
  5
356
330
1F
100
AcDbEntity
  8
0
  6
Continuous
 62
     7
370
    25
100
AcDbLine
 10
230.6656224795
 20
29.2588841538
 30
0.0
 11
230.5439438693
 21
29.1886405873
 31
0.0
  0
LINE
  5
357
330
1F
100
AcDbEntity
  8
0
  6
Continuous
 62
     7
370
    25
100
AcDbLine
 10
230.2953202684
 20
29.5423860058
 30
0.0
 11
230.5439438693
 21
29.1886405873
 31
0.0
  0
LWPOLYLINE
  5
358
330
1F
100
AcDbEntity
  8
0
  6
Continuous
 62
     7
370
    25
100
AcDbPolyline
 90
        9
 70
   128
 43
0.0
 10
230.2071385247
 20
29.4914797687
 10
230.2152294025
 20
29.5083270649
 10
230.2257740171
 20
29.5237558675
 10
230.2380525795
 20
29.5367179461
 10
230.2512293966
 20
29.5463293408
 10
230.2644068722
 20
29.5519319554
 10
230.2766854345
 20
29.5531464032
 10
230.2872293906
 20
29.5498917733
 10
230.2953202684
 20
29.5423860058
  0
LINE
  5
359
330
1F
100
AcDbEntity
  8
0
  6
Continuous
 62
     7
370
    25
100
AcDbLine
 10
229.9585155824
 20
28.8506800309
 30
0.0
 11
230.2071385247
 21
29.4914797687
 31
0.0
  0
LINE
  5
35A
330
1F
100
AcDbEntity
  8
0
  6
Continuous
 62
     7
370
    25
100
AcDbLine
 10
229.9585155824
 20
28.8506800309
 30
0.0
 11
229.8368369722
 21
28.7804364645
 31
0.0
  0
LINE
  5
35B
330
1F
100
AcDbEntity
  8
0
  6
Continuous
 62
     7
370
    25
100
AcDbLine
 10
229.5882133714
 20
29.134181883
 30
0.0
 11
229.8368369722
 21
28.7804364645
 31
0.0
  0
LWPOLYLINE
  5
35C
330
1F
100
AcDbEntity
  8
0
  6
Continuous
 62
     7
370
    25
100
AcDbPolyline
 90
        9
 70
   128
 43
0.0
 10
229.5000322861
 20
29.0832760261
 10
229.5081231639
 20
29.1001233222
 10
229.51866712
 20
29.1155517447
 10
229.5309456824
 20
29.1285138232
 10
229.544123158
 20
29.1381255982
 10
229.5572999751
 20
29.1437278325
 10
229.5695785374
 20
29.1449422803
 10
229.5801231521
 20
29.1416880307
 10
229.5882133714
 20
29.134181883
  0
LINE
  5
35D
330
1F
100
AcDbEntity
  8
0
  6
Continuous
 62
     7
370
    25
100
AcDbLine
 10
229.2514086853
 20
28.4424759081
 30
0.0
 11
229.5000322861
 21
29.0832760261
 31
0.0
  0
LINE
  5
35E
330
1F
100
AcDbEntity
  8
0
  6
Continuous
 62
     7
370
    25
100
AcDbLine
 10
229.2514086853
 20
28.4424759081
 30
0.0
 11
229.1297300751
 21
28.3722323416
 31
0.0
  0
LINE
  5
35F
330
1F
100
AcDbEntity
  8
0
  6
Continuous
 62
     7
370
    25
100
AcDbLine
 10
228.8811071328
 20
28.7259781404
 30
0.0
 11
229.1297300751
 21
28.3722323416
 31
0.0
  0
LWPOLYLINE
  5
360
330
1F
100
AcDbEntity
  8
0
  6
Continuous
 62
     7
370
    25
100
AcDbPolyline
 90
        9
 70
   128
 43
0.0
 10
228.792925389
 20
28.6750719033
 10
228.8010162668
 20
28.6919191994
 10
228.811560223
 20
28.7073476219
 10
228.8238394439
 20
28.7203100806
 10
228.8370162609
 20
28.7299214753
 10
228.850193078
 20
28.7355237097
 10
228.8624716403
 20
28.7367381575
 10
228.873016255
 20
28.7334839078
 10
228.8811071328
 20
28.7259781404
  0
LINE
  5
361
330
1F
100
AcDbEntity
  8
0
  6
Continuous
 62
     7
370
    25
100
AcDbLine
 10
228.5443024467
 20
28.0342721655
 30
0.0
 11
228.792925389
 21
28.6750719033
 31
0.0
  0
LINE
  5
362
330
1F
100
AcDbEntity
  8
0
  6
Continuous
 62
     7
370
    25
100
AcDbLine
 10
228.5443024467
 20
28.0342721655
 30
0.0
 11
228.422623178
 21
27.9640282188
 31
0.0
  0
LINE
  5
363
330
1F
100
AcDbEntity
  8
0
  6
Continuous
 62
     7
370
    25
100
AcDbLine
 10
228.1740002357
 20
28.3177740176
 30
0.0
 11
228.422623178
 21
27.9640282188
 31
0.0
  0
LWPOLYLINE
  5
364
330
1F
100
AcDbEntity
  8
0
  6
Continuous
 62
     7
370
    25
100
AcDbPolyline
 90
        9
 70
   128
 43
0.0
 10
228.0858184919
 20
28.2668677804
 10
228.0939093698
 20
28.2837150766
 10
228.1044539844
 20
28.2991438792
 10
228.1167318882
 20
28.3121055776
 10
228.1299093638
 20
28.3217173525
 10
228.1430868394
 20
28.3273199671
 10
228.1553647432
 20
28.3285340347
 10
228.1659093579
 20
28.325279785
 10
228.1740002357
 20
28.3177740176
  0
LINE
  5
365
330
1F
100
AcDbEntity
  8
0
  6
Continuous
 62
     7
370
    25
100
AcDbLine
 10
227.8371955496
 20
27.6260680426
 30
0.0
 11
228.0858184919
 21
28.2668677804
 31
0.0
  0
LINE
  5
366
330
1F
100
AcDbEntity
  8
0
  6
Continuous
 62
     7
370
    25
100
AcDbLine
 10
227.8371955496
 20
27.6260680426
 30
0.0
 11
227.7155162809
 21
27.555824096
 31
0.0
  0
LINE
  5
367
330
1F
100
AcDbEntity
  8
0
  6
Continuous
 62
     7
370
    25
100
AcDbLine
 10
227.5288689623
 20
27.8213891676
 30
0.0
 11
227.7155162809
 21
27.555824096
 31
0.0
  0
LINE
  5
368
330
1F
100
AcDbEntity
  8
0
  6
Continuous
 62
     7
370
    25
100
AcDbLine
 10
227.5288689623
 20
28.1780614728
 30
0.0
 11
227.5288689623
 21
27.8213891676
 31
0.0
  0
LINE
  5
369
330
1F
100
AcDbEntity
  8
0
  6
Continuous
 62
     7
370
    25
100
AcDbLine
 10
227.4228024667
 20
28.2393107415
 30
0.0
 11
227.5288689623
 21
28.1780614728
 31
0.0
  0
LINE
  5
36A
330
1F
100
AcDbEntity
  8
0
  6
Continuous
 62
     7
370
    25
100
AcDbLine
 10
227.4228024667
 20
36.36879289
 30
0.0
 11
227.4228024667
 21
28.2393107415
 31
0.0
  0
LINE
  5
36B
330
1F
100
AcDbEntity
  8
0
  6
Continuous
 62
     7
370
    25
100
AcDbLine
 10
227.4228024667
 20
36.36879289
 30
0.0
 11
229.9472287881
 21
41.9893265993
 31
0.0
  0
LINE
  5
36C
330
1F
100
AcDbEntity
  8
0
  6
Continuous
 62
     7
370
    25
100
AcDbLine
 10
233.9166578349
 20
47.4664827887
 30
0.0
 11
229.9472287881
 21
41.9893265993
 31
0.0
  0
LINE
  5
36D
330
1F
100
AcDbEntity
  8
0
  6
Continuous
 62
     7
370
    25
100
AcDbLine
 10
208.1511559851
 20
48.2007026072
 30
0.0
 11
229.9472287881
 21
41.9893265993
 31
0.0
  0
ELLIPSE
  5
36E
330
1F
100
AcDbEntity
  8
0
  6
Continuous
 62
     7
370
    25
100
AcDbEllipse
 10
239.7971704948
 20
55.580618378
 30
0.0
 11
26.9538578938903
 21
29.01863330579543
 31
0.0
210
0.0
220
0.0
230
1.0
 40
0.6257611005
 41
1.897959299008215
 42
2.318989440419397
  0
LINE
  5
36F
330
1F
100
AcDbEntity
  8
0
  6
Continuous
 62
     7
370
    25
100
AcDbLine
 10
233.9166578349
 20
47.4664827887
 30
0.0
 11
213.9397846008
 21
62.2272861598
 31
0.0
  0
LINE
  5
370
330
1F
100
AcDbEntity
  8
0
  6
Continuous
 62
     7
370
    25
100
AcDbLine
 10
208.0578850094
 20
47.5479217837
 30
0.0
 11
227.4228024667
 21
36.36879289
 31
0.0
  0
ELLIPSE
  5
371
330
1F
100
AcDbEntity
  8
0
  6
Continuous
 62
     7
370
    25
100
AcDbEllipse
 10
239.7971704948
 20
63.919833659
 30
0.0
 11
21.52769048047196
 21
51.88379044226979
 31
0.0
210
0.0
220
0.0
230
1.0
 40
0.4692729597
 41
2.065052216799019
 42
2.07801362213422
  0
LINE
  5
372
330
1F
100
AcDbEntity
  8
0
  6
Continuous
 62
     7
370
    25
100
AcDbLine
 10
221.5769479797
 20
76.8171982094
 30
0.0
 11
219.2351501268
 21
75.7134027585
 31
0.0
  0
LINE
  5
373
330
1F
100
AcDbEntity
  8
0
  6
Continuous
 62
     7
370
    25
100
AcDbLine
 10
221.5174435443
 20
76.8611657801
 30
0.0
 11
221.5769479797
 21
76.8171982094
 31
0.0
  0
LINE
  5
374
330
1F
100
AcDbEntity
  8
0
  6
Continuous
 62
     7
370
    25
100
AcDbLine
 10
221.6678923177
 20
77.1627013316
 30
0.0
 11
221.4964756518
 21
77.0819045407
 31
0.0
  0
LINE
  5
375
330
1F
100
AcDbEntity
  8
0
  6
Continuous
 62
     7
370
    25
100
AcDbLine
 10
221.6678923177
 20
77.1627013316
 30
0.0
 11
234.6679909348
 21
69.657904144
 31
0.0
  0
SPLINE
  5
376
330
1F
100
AcDbEntity
  8
0
  6
Continuous
 62
     7
370
    25
100
AcDbSpline
210
0.0
220
0.0
230
1.0
 70
     8
 71
     3
 72
     8
 73
     4
 74
     0
 42
0.000000001
 43
0.00000001
 40
0.0
 40
0.0
 40
0.0
 40
0.0
 40
0.0000946696228569
 40
0.0000946696228569
 40
0.0000946696228569
 40
0.0000946696228569
 10
213.9397847675085
 20
62.22728591546091
 30
0.0
 10
213.9493433494368
 20
62.23453282705038
 30
0.0
 10
213.9589116649188
 20
62.24191880892327
 30
0.0
 10
213.9684861689139
 20
62.24944130307868
 30
0.0
  0
SPLINE
  5
377
330
1F
100
AcDbEntity
  8
0
  6
Continuous
 62
     7
370
    25
100
AcDbSpline
210
0.0
220
0.0
230
1.0
 70
     8
 71
     3
 72
    22
 73
    18
 74
     0
 42
0.000000001
 43
0.00000001
 40
0.0
 40
0.0
 40
0.0
 40
0.0
 40
0.125
 40
0.125
 40
0.25
 40
0.25
 40
0.375
 40
0.375
 40
0.5
 40
0.5
 40
0.625
 40
0.625
 40
0.75
 40
0.75
 40
0.875
 40
0.875
 40
1.0
 40
1.0
 40
1.0
 40
1.0
 10
213.9684861689139
 20
62.24944130307868
 30
0.0
 10
214.0534537155745
 20
62.31619858611674
 30
0.0
 10
214.139326995595
 20
62.39405673480162
 30
0.0
 10
214.3051661606226
 20
62.56684089883491
 30
0.0
 10
214.3856552178887
 20
62.6620750521399
 30
0.0
 10
214.5375271588757
 20
62.87202547322987
 30
0.0
 10
214.6081316269442
 20
62.98618003106449
 30
0.0
 10
214.7283917988251
 20
63.22563842495224
 30
0.0
 10
214.7789936211745
 20
63.35244126273726
 30
0.0
 10
214.8538486076795
 20
63.61885842939591
 30
0.0
 10
214.8769056180678
 20
63.75420301226976
 30
0.0
 10
214.8924915093168
 20
64.02814877647695
 30
0.0
 10
214.8845503848616
 20
64.16854482201504
 30
0.0
 10
214.8385920510765
 20
64.43983118429847
 30
0.0
 10
214.8011027766713
 20
64.5712038145423
 30
0.0
 10
214.7011433468327
 20
64.8250403533565
 30
0.0
 10
214.6392895178725
 20
64.94551166385118
 30
0.0
 10
214.5702264794028
 20
65.05687783533345
 30
0.0
  0
LWPOLYLINE
  5
378
330
1F
100
AcDbEntity
  8
0
  6
Continuous
 62
     7
370
    25
100
AcDbPolyline
 90
       13
 70
   128
 43
0.0
 10
221.8266888012
 20
35.4418034535
 10
221.8646986732
 20
35.4621364745
 10
222.2130028634
 20
35.535287664
 10
222.6158305877
 20
35.446224307
 10
223.0373846836
 20
35.2028663075
 10
223.4402124079
 20
34.8268346738
 10
223.7885165981
 20
34.3515400262
 10
224.051352248
 20
33.8192148093
 10
224.205364735
 20
33.2771606654
 10
224.2368668701
 20
32.7735379461
 10
224.1430611562
 20
32.3531011509
 10
223.9322847668
 20
32.0532004366
 10
223.826525153
 20
31.9776081061
  0
LINE
  5
379
330
1F
100
AcDbEntity
  8
0
  6
Continuous
 62
     7
370
    25
100
AcDbLine
 10
208.0578850094
 20
39.4184396352
 30
0.0
 11
218.3865299998
 21
33.4558397998
 31
0.0
  0
LINE
  5
37A
330
1F
100
AcDbEntity
  8
0
  6
Continuous
 62
     7
370
    25
100
AcDbLine
 10
222.3868559794
 20
31.1465007674
 30
0.0
 11
227.4228024667
 21
28.2393107415
 31
0.0
  0
LINE
  5
37B
330
1F
100
AcDbEntity
  8
0
  6
Continuous
 62
     7
370
    25
100
AcDbLine
 10
208.0578850094
 20
47.5479217837
 30
0.0
 11
208.0578850094
 21
39.4184396352
 31
0.0
  0
LINE
  5
37C
330
1F
100
AcDbEntity
  8
0
  6
Continuous
 62
     7
370
    25
100
AcDbLine
 10
223.1282081787
 20
77.6977601822
 30
0.0
 11
221.6678923177
 21
77.1627013316
 31
0.0
  0
LINE
  5
37D
330
1F
100
AcDbEntity
  8
0
  6
Continuous
 62
     7
370
    25
100
AcDbLine
 10
223.0205651276
 20
77.7755812359
 30
0.0
 11
223.1282081787
 21
77.6977601822
 31
0.0
  0
LINE
  5
37E
330
1F
100
AcDbEntity
  8
0
  6
Continuous
 62
     7
370
    25
100
AcDbLine
 10
230.6995250093
 20
79.9384162359
 30
0.0
 11
223.0205651276
 21
77.7755812359
 31
0.0
  0
LINE
  5
37F
330
1F
100
AcDbEntity
  8
0
  6
Continuous
 62
     7
370
    25
100
AcDbLine
 10
230.6995250093
 20
79.9384162359
 30
0.0
 11
242.6345391788
 21
73.0484792123
 31
0.0
  0
LINE
  5
380
330
1F
100
AcDbEntity
  8
0
  6
Continuous
 62
     7
370
    25
100
AcDbLine
 10
227.5288689623
 20
28.1780614728
 30
0.0
 11
222.3868388572
 21
31.1464922677
 31
0.0
  0
LINE
  5
381
330
1F
100
AcDbEntity
  8
0
  6
Continuous
 62
     7
370
    25
100
AcDbLine
 10
218.3865128776
 20
33.4558313
 30
0.0
 11
208.0965817432
 21
39.3960821021
 31
0.0
  0
ELLIPSE
  5
382
330
1F
100
AcDbEntity
  8
0
  6
Continuous
 62
     7
370
    25
100
AcDbEllipse
 10
239.7971704948
 20
21.0934193017
 30
0.0
 11
32.49999991892219
 21
-18.76490029609652
 31
0.0
210
0.0
220
0.0
230
1.0
 40
0.0000703729
 41
3.358421148590315
 42
3.363888849664576
  0
LINE
  5
383
330
1F
100
AcDbEntity
  8
0
  6
Continuous
 62
     7
370
    25
100
AcDbLine
 10
208.0965817432
 20
39.3960821021
 30
0.0
 11
208.0965817432
 21
39.0394097969
 31
0.0
  0
LINE
  5
384
330
1F
100
AcDbEntity
  8
0
  6
Continuous
 62
     7
370
    25
100
AcDbLine
 10
208.0965817432
 20
39.0394097969
 30
0.0
 11
218.0775936002
 21
33.2774942977
 31
0.0
  0
LINE
  5
385
330
1F
100
AcDbEntity
  8
0
  6
Continuous
 62
     7
370
    25
100
AcDbLine
 10
222.0779182627
 20
30.9681560257
 30
0.0
 11
227.5288689623
 21
27.8213891676
 31
0.0
  0
LINE
  5
386
330
1F
100
AcDbEntity
  8
0
  6
Continuous
 62
     7
370
    25
100
AcDbLine
 10
208.166637708
 20
38.8411514812
 30
0.0
 11
217.9451695193
 21
33.1961252243
 31
0.0
  0
LINE
  5
387
330
1F
100
AcDbEntity
  8
0
  6
Continuous
 62
     7
370
    25
100
AcDbLine
 10
221.9412294475
 20
30.889248931
 30
0.0
 11
227.7155162809
 21
27.555824096
 31
0.0
  0
ELLIPSE
  5
388
330
1F
100
AcDbEntity
  8
0
  6
Continuous
 62
     7
370
    25
100
AcDbEllipse
 10
239.7971704948
 20
10.3657966431
 30
0.0
 11
-31.73555091678471
 21
34.69979856061927
 31
0.0
210
0.0
220
0.0
230
1.0
 40
0.2019459068
 41
0.439577000186097
 42
0.4491532447851773
  0
ELLIPSE
  5
389
330
1F
100
AcDbEntity
  8
0
  6
Continuous
 62
     7
370
    25
100
AcDbEllipse
 10
231.0467240776
 20
35.5390441695
 30
0.0
 11
-2.563256035586477
 21
2.802676037588455
 31
0.0
210
0.0
220
0.0
230
1.0
 40
0.2019459068
 41
2.354606166549185
 42
2.573515926240576
  0
SPLINE
  5
38A
330
1F
100
AcDbEntity
  8
0
  6
Continuous
 62
     7
370
    25
100
AcDbSpline
210
0.0
220
0.0
230
1.0
 70
     8
 71
     3
 72
    16
 73
    12
 74
     0
 42
0.000000001
 43
0.00000001
 40
0.0
 40
0.0
 40
0.0
 40
0.0
 40
0.2500000000000113
 40
0.2500000000000113
 40
0.5000000000000225
 40
0.5000000000000225
 40
0.7500000000000338
 40
0.7500000000000338
 40
0.8750000000000169
 40
0.8750000000000169
 40
1.0
 40
1.0
 40
1.0
 40
1.0
 10
232.4554888947119
 20
33.19379616354941
 30
0.0
 10
232.4268205449395
 20
33.2147574283802
 30
0.0
 10
232.3965947912324
 20
33.23119275937713
 30
0.0
 10
232.3352656176889
 20
33.26083577427896
 30
0.0
 10
232.3037373625947
 20
33.27371132063283
 30
0.0
 10
232.2400888602142
 20
33.29502200495192
 30
0.0
 10
232.2080556442762
 20
33.30350470595123
 30
0.0
 10
232.1598333687952
 20
33.31114989877157
 30
0.0
 10
232.1436435212257
 20
33.31285507418142
 30
0.0
 10
232.1116873126474
 20
33.31333160239171
 30
0.0
 10
232.0958141782959
 20
33.31229467675207
 30
0.0
 10
232.0817398687755
 20
33.30774453987529
 30
0.0
  0
ELLIPSE
  5
38B
330
1F
100
AcDbEntity
  8
0
  6
Continuous
 62
     7
370
    25
100
AcDbEllipse
 10
231.0467240776
 20
28.4675933063
 30
0.0
 11
1.70843601564468
 21
4.852100650204434
 31
0.0
210
0.0
220
0.0
230
1.0
 40
0.4107407456
 41
0.3033837782792068
 42
0.5755956689459273
  0
ARC
  5
38C
330
1F
100
AcDbEntity
  8
0
  6
Continuous
 62
     7
370
    25
100
AcDbCircle
 10
231.0477369821
 20
28.4214235135
 30
0.0
 40
4.511802870447208
100
AcDbArc
 50
85.5851651649
 51
88.957964975
  0
ELLIPSE
  5
38D
330
1F
100
AcDbEntity
  8
0
  6
Continuous
 62
     7
370
    25
100
AcDbEllipse
 10
231.0467240776
 20
34.1247539969
 30
0.0
 11
-2.563256035586477
 21
2.802676037588463
 31
0.0
210
0.0
220
0.0
230
1.0
 40
0.2019459068
 41
1.720723253591182
 42
1.819766055838414
  0
LINE
  5
38E
330
1F
100
AcDbEntity
  8
0
  6
Continuous
 62
     7
370
    25
100
AcDbLine
 10
228.0514543224
 20
28.1782994383
 30
0.0
 11
228.422623178
 21
27.9640282188
 31
0.0
  0
LINE
  5
38F
330
1F
100
AcDbEntity
  8
0
  6
Continuous
 62
     7
370
    25
100
AcDbLine
 10
228.7585612195
 20
28.5865035611
 30
0.0
 11
229.1297300751
 21
28.3722323416
 31
0.0
  0
LINE
  5
390
330
1F
100
AcDbEntity
  8
0
  6
Continuous
 62
     7
370
    25
100
AcDbLine
 10
229.4656681166
 20
28.9947076839
 30
0.0
 11
229.8368369722
 21
28.7804364645
 31
0.0
  0
LINE
  5
391
330
1F
100
AcDbEntity
  8
0
  6
Continuous
 62
     7
370
    25
100
AcDbLine
 10
234.5822586473
 20
31.9285828439
 30
0.0
 11
232.9028805899
 21
32.8980671604
 31
0.0
  0
ARC
  5
392
330
1F
100
AcDbEntity
  8
0
  6
Continuous
 62
     7
370
    25
100
AcDbCircle
 10
222.2162031988
 20
65.758909435
 30
0.0
 40
0.925275704624137
100
AcDbArc
 50
229.6069124326
 51
351.4751943158
  0
LWPOLYLINE
  5
393
330
1F
100
AcDbEntity
  8
0
  6
Continuous
 62
     7
370
    25
100
AcDbPolyline
 90
       13
 70
   128
 43
0.0
 10
222.0787080222
 20
68.8723938769
 10
222.0072529796
 20
68.9263608364
 10
221.6082071941
 20
69.128172382
 10
221.2256656865
 20
69.1567844996
 10
220.890618738
 20
69.0098798503
 10
220.6302108125
 20
68.6993595873
 10
220.4655390418
 20
68.2503796373
 10
220.4099432327
 20
67.6993138039
 10
220.4679270888
 20
67.090807633
 10
220.6347945292
 20
66.4741562666
 10
220.8970262938
 20
65.8993185495
 10
221.233377078
 20
65.4128654797
 10
221.6165986152
 20
65.0542041966
  0
LINE
  5
394
330
1F
100
AcDbEntity
  8
0
  6
Continuous
 62
     7
370
    25
100
AcDbLine
 10
230.1727750137
 20
29.4029118067
 30
0.0
 11
230.5439438693
 21
29.1886405873
 31
0.0
  0
LINE
  5
395
330
1F
100
AcDbEntity
  8
0
  6
Continuous
 62
     7
370
    25
100
AcDbLine
 10
237.4106857418
 20
37.3325984064
 30
0.0
 11
236.0848591573
 21
38.097981802
 31
0.0
  0
LINE
  5
396
330
1F
100
AcDbEntity
  8
0
  6
Continuous
 62
     7
370
    25
100
AcDbLine
 10
231.9669232201
 20
33.2656204268
 30
0.0
 11
234.786584264
 21
31.6378647539
 31
0.0
  0
LINE
  5
397
330
1F
100
AcDbEntity
  8
0
  6
Continuous
 62
     7
370
    25
100
AcDbLine
 10
223.0205651276
 20
77.7755812359
 30
0.0
 11
222.7791921018
 21
77.8290648212
 31
0.0
  0
ELLIPSE
  5
398
330
1F
100
AcDbEntity
  8
0
  6
Continuous
 62
     7
370
    25
100
AcDbEllipse
 10
240.6043350778
 20
72.5708493223
 30
0.0
 11
38.68715757112363
 21
4.403301878906831
 31
0.0
210
0.0
220
0.0
230
1.0
 40
0.2767265972
 41
1.928215790934809
 42
2.15648463035956
  0
LINE
  5
399
330
1F
100
AcDbEntity
  8
0
  6
Continuous
 62
     7
370
    25
100
AcDbLine
 10
225.9278211521
 20
81.0595099844
 30
0.0
 11
230.6995250093
 21
79.9384162359
 31
0.0
  0
LINE
  5
39A
330
1F
100
AcDbEntity
  8
0
  6
Continuous
 62
     7
370
    25
100
AcDbLine
 10
230.8699477669
 20
33.082483011
 30
0.0
 11
231.1297883563
 21
32.9324802316
 31
0.0
  0
LINE
  5
39B
330
1F
100
AcDbEntity
  8
0
  6
Continuous
 62
     7
370
    25
100
AcDbLine
 10
243.5094817414
 20
40.8533583955
 30
0.0
 11
240.326983747
 21
42.6905753814
 31
0.0
  0
LINE
  5
39C
330
1F
100
AcDbEntity
  8
0
  6
Continuous
 62
     7
370
    25
100
AcDbLine
 10
242.1836566386
 20
37.0259476891
 30
0.0
 11
236.3490774213
 21
40.3941785764
 31
0.0
  0
LINE
  5
39D
330
1F
100
AcDbEntity
  8
0
  6
Continuous
 62
     7
370
    25
100
AcDbLine
 10
242.1836566386
 20
40.0879758553
 30
0.0
 11
239.0011586442
 21
41.9251928412
 31
0.0
  0
LINE
  5
39E
330
1F
100
AcDbEntity
  8
0
  6
Continuous
 62
     7
370
    25
100
AcDbLine
 10
243.8813364711
 20
38.0059986441
 30
0.0
 11
244.3933653627
 21
37.7104106567
 31
0.0
  0
LINE
  5
39F
330
1F
100
AcDbEntity
  8
0
  6
Continuous
 62
     7
370
    25
100
AcDbLine
 10
243.7178923096
 20
37.9116439045
 30
0.0
 11
244.6860791769
 21
37.352721523
 31
0.0
  0
LINE
  5
3A0
330
1F
100
AcDbEntity
  8
0
  6
Continuous
 62
     7
370
    25
100
AcDbLine
 10
245.0220172184
 20
37.9751968653
 30
0.0
 11
245.393186074
 21
37.7609256458
 31
0.0
  0
LINE
  5
3A1
330
1F
100
AcDbEntity
  8
0
  6
Continuous
 62
     7
370
    25
100
AcDbLine
 10
245.7291241155
 20
38.3834009881
 30
0.0
 11
246.1002929711
 21
38.1691297687
 31
0.0
  0
LINE
  5
3A2
330
1F
100
AcDbEntity
  8
0
  6
Continuous
 62
     7
370
    25
100
AcDbLine
 10
246.4362310126
 20
38.7916051109
 30
0.0
 11
246.8073998682
 21
38.5773338915
 31
0.0
  0
LINE
  5
3A3
330
1F
100
AcDbEntity
  8
0
  6
Continuous
 62
     7
370
    25
100
AcDbLine
 10
247.1433372511
 20
39.1998088536
 30
0.0
 11
247.5145061067
 21
38.9855376341
 31
0.0
  0
LINE
  5
3A4
330
1F
100
AcDbEntity
  8
0
  6
Continuous
 62
     7
370
    25
100
AcDbLine
 10
247.8504441482
 20
39.6080129764
 30
0.0
 11
248.2216130038
 21
39.393741757
 31
0.0
  0
LINE
  5
3A5
330
1F
100
AcDbEntity
  8
0
  6
Continuous
 62
     7
370
    25
100
AcDbLine
 10
248.5575510453
 20
40.0162170992
 30
0.0
 11
248.9287199009
 21
39.8019458798
 31
0.0
  0
LINE
  5
3A6
330
1F
100
AcDbEntity
  8
0
  6
Continuous
 62
     7
370
    25
100
AcDbLine
 10
249.2646579424
 20
40.424421222
 30
0.0
 11
249.635826798
 21
40.2101500026
 31
0.0
  0
LINE
  5
3A7
330
1F
100
AcDbEntity
  8
0
  6
Continuous
 62
     7
370
    25
100
AcDbLine
 10
249.9717648395
 20
40.8326253449
 30
0.0
 11
250.3429336951
 21
40.6183541254
 31
0.0
  0
LINE
  5
3A8
330
1F
100
AcDbEntity
  8
0
  6
Continuous
 62
     7
370
    25
100
AcDbLine
 10
250.678871078
 20
41.2408290875
 30
0.0
 11
251.0500399336
 21
41.0265578681
 31
0.0
  0
LINE
  5
3A9
330
1F
100
AcDbEntity
  8
0
  6
Continuous
 62
     7
370
    25
100
AcDbLine
 10
251.3859779751
 20
41.6490332103
 30
0.0
 11
251.7571468307
 21
41.4347619909
 31
0.0
  0
OLE2FRAME
  5
3AA
330
1F
100
AcDbEntity
  8
0
100
AcDbOle2Frame
 70
     2
  3
Paintbrush-Bild
 10
13.8511154363
 20
38.264191557
 30
0.0
 11
51.6290888628
 21
31.9806341108
 31
0.0
 71
     2
 72
     0
 73
     1
 90
    12928
310
80552BED0767C5B32B40DDAF6807D121434000000000000000006FFBDDFB85D0
310
4940DDAF6807D121434000000000000000006FFBDDFB85D04940416F4BD60AFB
310
3F4000000000000000002BED0767C5B32B40416F4BD60AFB3F40000000000000
310
0000000000000100000000010000010000000100000000000100000000320000
310
D0CF11E0A1B11AE1000000000000000000000000000000003E000300FEFF0900
310
0600000000000000000000000100000001000000000000000010000002000000
310
01000000FEFFFFFF0000000000000000FFFFFFFFFFFFFFFFFFFFFFFFFFFFFFFF
310
FFFFFFFFFFFFFFFFFFFFFFFFFFFFFFFFFFFFFFFFFFFFFFFFFFFFFFFFFFFFFFFF
310
FFFFFFFFFFFFFFFFFFFFFFFFFFFFFFFFFFFFFFFFFFFFFFFFFFFFFFFFFFFFFFFF
310
FFFFFFFFFFFFFFFFFFFFFFFFFFFFFFFFFFFFFFFFFFFFFFFFFFFFFFFFFFFFFFFF
310
FFFFFFFFFFFFFFFFFFFFFFFFFFFFFFFFFFFFFFFFFFFFFFFFFFFFFFFFFFFFFFFF
310
FFFFFFFFFFFFFFFFFFFFFFFFFFFFFFFFFFFFFFFFFFFFFFFFFFFFFFFFFFFFFFFF
310
FFFFFFFFFFFFFFFFFFFFFFFFFFFFFFFFFFFFFFFFFFFFFFFFFFFFFFFFFFFFFFFF
310
FFFFFFFFFFFFFFFFFFFFFFFFFFFFFFFFFFFFFFFFFFFFFFFFFFFFFFFFFFFFFFFF
310
FFFFFFFFFFFFFFFFFFFFFFFFFFFFFFFFFFFFFFFFFFFFFFFFFFFFFFFFFFFFFFFF
310
FFFFFFFFFFFFFFFFFFFFFFFFFFFFFFFFFFFFFFFFFFFFFFFFFFFFFFFFFFFFFFFF
310
FFFFFFFFFFFFFFFFFFFFFFFFFFFFFFFFFFFFFFFFFFFFFFFFFFFFFFFFFFFFFFFF
310
FFFFFFFFFFFFFFFFFFFFFFFFFFFFFFFFFFFFFFFFFFFFFFFFFFFFFFFFFFFFFFFF
310
FFFFFFFFFFFFFFFFFFFFFFFFFFFFFFFFFFFFFFFFFFFFFFFFFFFFFFFFFFFFFFFF
310
FFFFFFFFFFFFFFFFFFFFFFFFFFFFFFFFFFFFFFFFFFFFFFFFFFFFFFFFFFFFFFFF
310
FDFFFFFFFEFFFFFFFEFFFFFFFEFFFFFF05000000060000000700000008000000
310
090000000A0000000B0000000C0000000D0000000E0000000F00000010000000
310
11000000120000001300000014000000150000001600000017000000FEFFFFFF
310
FFFFFFFFFFFFFFFFFFFFFFFFFFFFFFFFFFFFFFFFFFFFFFFFFFFFFFFFFFFFFFFF
310
FFFFFFFFFFFFFFFFFFFFFFFFFFFFFFFFFFFFFFFFFFFFFFFFFFFFFFFFFFFFFFFF
310
FFFFFFFFFFFFFFFFFFFFFFFFFFFFFFFFFFFFFFFFFFFFFFFFFFFFFFFFFFFFFFFF
310
FFFFFFFFFFFFFFFFFFFFFFFFFFFFFFFFFFFFFFFFFFFFFFFFFFFFFFFFFFFFFFFF
310
FFFFFFFFFFFFFFFFFFFFFFFFFFFFFFFFFFFFFFFFFFFFFFFFFFFFFFFFFFFFFFFF
310
FFFFFFFFFFFFFFFFFFFFFFFFFFFFFFFFFFFFFFFFFFFFFFFFFFFFFFFFFFFFFFFF
310
FFFFFFFFFFFFFFFFFFFFFFFFFFFFFFFFFFFFFFFFFFFFFFFFFFFFFFFFFFFFFFFF
310
FFFFFFFFFFFFFFFFFFFFFFFFFFFFFFFFFFFFFFFFFFFFFFFFFFFFFFFFFFFFFFFF
310
FFFFFFFFFFFFFFFFFFFFFFFFFFFFFFFFFFFFFFFFFFFFFFFFFFFFFFFFFFFFFFFF
310
FFFFFFFFFFFFFFFFFFFFFFFFFFFFFFFFFFFFFFFFFFFFFFFFFFFFFFFFFFFFFFFF
310
FFFFFFFFFFFFFFFFFFFFFFFFFFFFFFFFFFFFFFFFFFFFFFFFFFFFFFFFFFFFFFFF
310
FFFFFFFFFFFFFFFFFFFFFFFFFFFFFFFFFFFFFFFFFFFFFFFFFFFFFFFFFFFFFFFF
310
FFFFFFFFFFFFFFFFFFFFFFFFFFFFFFFFFFFFFFFFFFFFFFFFFFFFFFFFFFFFFFFF
310
52006F006F007400200045006E00740072007900000000000000000000000000
310
0000000000000000000000000000000000000000000000000000000000000000
310
16000500FFFFFFFFFFFFFFFF020000000A00030000000000C000000000000046
310
00000000000000000000000090FE6A07AC61D60103000000C000000000000000
310
01004F006C006500000000000000000000000000000000000000000000000000
310
0000000000000000000000000000000000000000000000000000000000000000
310
0A000200FFFFFFFFFFFFFFFFFFFFFFFF00000000000000000000000000000000
310
0000000000000000000000000000000000000000000000001400000000000000
310
010043006F006D0070004F0062006A0000000000000000000000000000000000
310
0000000000000000000000000000000000000000000000000000000000000000
310
120002010100000003000000FFFFFFFF00000000000000000000000000000000
310
0000000000000000000000000000000000000000010000004D00000000000000
310
01004F006C006500310030004E00610074006900760065000000000000000000
310
0000000000000000000000000000000000000000000000000000000000000000
310
1A000200FFFFFFFFFFFFFFFFFFFFFFFF00000000000000000000000000000000
310
0000000000000000000000000000000000000000040000002426000000000000
310
FEFFFFFF02000000FEFFFFFFFFFFFFFFFFFFFFFFFFFFFFFFFFFFFFFFFFFFFFFF
310
FFFFFFFFFFFFFFFFFFFFFFFFFFFFFFFFFFFFFFFFFFFFFFFFFFFFFFFFFFFFFFFF
310
FFFFFFFFFFFFFFFFFFFFFFFFFFFFFFFFFFFFFFFFFFFFFFFFFFFFFFFFFFFFFFFF
310
FFFFFFFFFFFFFFFFFFFFFFFFFFFFFFFFFFFFFFFFFFFFFFFFFFFFFFFFFFFFFFFF
310
FFFFFFFFFFFFFFFFFFFFFFFFFFFFFFFFFFFFFFFFFFFFFFFFFFFFFFFFFFFFFFFF
310
FFFFFFFFFFFFFFFFFFFFFFFFFFFFFFFFFFFFFFFFFFFFFFFFFFFFFFFFFFFFFFFF
310
FFFFFFFFFFFFFFFFFFFFFFFFFFFFFFFFFFFFFFFFFFFFFFFFFFFFFFFFFFFFFFFF
310
FFFFFFFFFFFFFFFFFFFFFFFFFFFFFFFFFFFFFFFFFFFFFFFFFFFFFFFFFFFFFFFF
310
FFFFFFFFFFFFFFFFFFFFFFFFFFFFFFFFFFFFFFFFFFFFFFFFFFFFFFFFFFFFFFFF
310
FFFFFFFFFFFFFFFFFFFFFFFFFFFFFFFFFFFFFFFFFFFFFFFFFFFFFFFFFFFFFFFF
310
FFFFFFFFFFFFFFFFFFFFFFFFFFFFFFFFFFFFFFFFFFFFFFFFFFFFFFFFFFFFFFFF
310
FFFFFFFFFFFFFFFFFFFFFFFFFFFFFFFFFFFFFFFFFFFFFFFFFFFFFFFFFFFFFFFF
310
FFFFFFFFFFFFFFFFFFFFFFFFFFFFFFFFFFFFFFFFFFFFFFFFFFFFFFFFFFFFFFFF
310
FFFFFFFFFFFFFFFFFFFFFFFFFFFFFFFFFFFFFFFFFFFFFFFFFFFFFFFFFFFFFFFF
310
FFFFFFFFFFFFFFFFFFFFFFFFFFFFFFFFFFFFFFFFFFFFFFFFFFFFFFFFFFFFFFFF
310
FFFFFFFFFFFFFFFFFFFFFFFFFFFFFFFFFFFFFFFFFFFFFFFFFFFFFFFFFFFFFFFF
310
0100000200000000000000000000000000000000000000000000000000000000
310
0000000000000000000000000000000000000000000000000000000000000000
310
0100FEFF030A0000FFFFFFFF0A00030000000000C00000000000004607000000
310
5042727573680007000000504272757368000700000050427275736800F439B2
310
7100000000000000000000000000000000000000000000000000000000000000
310
0000000000000000000000000000000000000000000000000000000000000000
310
0000000000000000000000000000000000000000000000000000000000000000
310
0000000000000000000000000000000000000000000000000000000000000000
310
0000000000000000000000000000000000000000000000000000000000000000
310
0000000000000000000000000000000000000000000000000000000000000000
310
0000000000000000000000000000000000000000000000000000000000000000
310
0000000000000000000000000000000000000000000000000000000000000000
310
0000000000000000000000000000000000000000000000000000000000000000
310
0000000000000000000000000000000000000000000000000000000000000000
310
0000000000000000000000000000000000000000000000000000000000000000
310
0000000000000000000000000000000000000000000000000000000000000000
310
20260000424D0E260000000000003E00000028000000B40200006E0000000100
310
01000000000000000000130B0000130B00000200000002000000000000FFFFFF
310
FFFFFFFFFFFFFFFFFFFFFFFFFFFFFFFFFFFFFFFFFFFFFFFFFFFFFFFFFFFFFFFF
310
FFFFFFFFFFFFFFFFFFFFFFFFFFFFFFFFFFFFFFFFFFFFFFFFFFFFFFFFFFFFFFFF
310
FFFFFFFFFFFFFFFFFFFFFFFFFFFFFFFFFFFFFFFFFFFFFFFFF000FFFFFFFFFFFF
310
FFFFFFFFFFFFFFFFFFFFFFFFFFFFFFFFFFFFFFFFFFFFFFFFFFFFFFFFFFFFFFFF
310
FFFFFFFFFFFFFFFFFFFFFFFFFFFFFFFFFFFFFFFFFFFFFFFFFFFFFFFFFFFFFFFF
310
FFFFFFFFFFFFFFFFFFFFFFFFFFFFFFFFF000FFFFFFFFFFFFFFFFFFFFFFFFFFFF
310
FFFFFFFFFFFFFFFFFFFFFFFFFFFFFFFFFFFFFFFFFFFFFFFFFFFFFFFFFFFFFFFF
310
FFFFFFFFFFFFFFFFFFFFFFFFFFFFFFFFFFFFFFFFFFFFFFFFFFFFFFFFFFFFFFFF
310
FFFFFFFFFFFFFFFFF000FFFFFFFFFFFFFFFFFFFFFFFFFFFFFFFFFFFFFFFFFFFF
310
FFFFFFFFFFFFFFFFFFFFFFFFFFFFFFFFFFFFFFFFFFFFFFFFFFFFFFFFFFFFFFFF
310
FFFFFFFFFFFFFFFFFFFFFFFFFFFFFFFFFFFFFFFFFFFFFFFFFFFFFFFFFFFFFFFF
310
F000FFFFFFFFFFFFFFFFFFFFFFFFFFFFFFFFFFFFFFFFFFFFFFFFFFFFFFFFFFFF
310
FFFFFFFFFFFFFFFFFFFFFFFFFFFFFFFFFFFFFFFFFFFFFFFFFFFFFFFFFFFFFFFF
310
FFFFFFFFFFFFFFFFFFFFFFFFFFFFFFFFFFFFFFFFFFFFFFFFF000FFFFFFFFFFFF
310
FFFFFFFFFFFFFFFFFFFFFFFFFFFFFFFFFFFFFFFFFFFFFFFFFFFFFFFFFFFFFFFF
310
FFFFFFFFFFFFFFFFFFFFFFFFFFFFFFFFFFFFFFFFFFFFFFFFFFFFFFFFFFFFFFFF
310
FFFFFFFFFFFFFFFFFFFFFFFFFFFFFFFFF000FFFFFFFFFFFFFFFFFFFFFFFFFFFF
310
FFFFFFFFFFFFFFFFFFFFFFFFFFFFFFFFFFFFFFFFFFFFFFFFFFFFFFFFFFFFFFFF
310
FFFFFFFFFFFFFFFFFFFFFFFFFFFFFFFFFFFFFFFFFFFFFFFFFFFFFFFFFFFFFFFF
310
FFFFFFFFFFFFFFFFF000FFFFFFFFFFFFFFFFFFFFFFFFFFFFFFFFFFFFFFFFFFFF
310
FFFFFFFFFFFFFFFFFFFFFFFFFFFFFFFFFFFFFFFFFFFFFFFFFFFFFFFFFFFFFFFF
310
FFFFFFFFFFFFFFFFFFFFFFFFFFFFFFFFFFFFFFFFFFFFFFFFFFFFFFFFFFFFFFFF
310
F000FFFFFFFFFFFFFFFFFFFFFFFFFFFFFFFFFFFFFFFFFFFFFFFFFFFFFFFFFFFF
310
FFFFFFFFFFFFFFFFFFFFFFFFFFFFFFFFFFFFFFFFFFFFFFFFFFFFFFFFFFFFFFFF
310
FFFFFFFFFFFFFFFFFFFFFFFFFFFFFFFFFFFFFFFFFFFFFFFFF000FFFFFFFFFFFF
310
FFFFFFFFFFFFFFFFFFFFFFFFFFFFFFFFFFFFFFFFFFFFFFFFFFFFFFFFFFFFFFFF
310
FFFFFFFFFFFFFFFFFFFFFFFFFFFFFFFFFFFFFFFFFFFFFFFFFFFFFFFFFFFFFFFF
310
FFFFFFFFFFFFFFFFFFFFFFFFFFFFFFFFF000FFFFFFFFFFFFFFFFFFFFFFFFFFFF
310
FFFFFFFFFFFFFFFFFFFFFFFFFFFFFFFFFFFFFFFFFFFFFFFFFFFFFFFFFFFFFFFF
310
FFFFFFFFFFFFFFFFFFFFFFFFFFFFFFFFFFFFFFFFFFFFFFFFFFFFFFFFFFFFFFFF
310
FFFFFFFFFFFFFFFFF000FFFFFFFFFFFFFFFFFFFFFFFFFFFFFFFFFFFFFFFFFFFF
310
FFFFFFFFFFFFFFFFFFFFFFFFFFFFFFFFFFFFFFFFFFFFFFFFFFFFFFFFFFFFFFFF
310
FFFFFFFFFFFFFFFFFFFFFFFFFFFFFFFFFFFFFFFFFFFFFFFFFFFFFFFFFFFFFFFF
310
F000FFFFFFFFFFFFFFFFFFFFFFFFFFFFFFFFFFFFFFFFFFFFFFFFFFFFFFFFFFFF
310
FFFFFFFFFFFFFFFFFFFFFFFFFFFFFFFFFFFFFFFFFFFFFFFFFFFFFFFFFFFFFFFF
310
FFFFFFFFFFFFFFFFFFFFFFFFFFFFFFFFFFFFFFFFFFFFFFFFF000FFFFFFFFFFFF
310
FFFFFFFFFFFFFFFFFFFFFFFFFFFFFFFFFFFFFFFFFFFFFFFFFFFFFFFFFFFFFFFF
310
FFFFFFFFFFFFFFFFFFFFFFFFFFFFFFFFFFFFFFFFFFFFFFFFFFFFFFFFFFFFFFFF
310
FFFFFFFFFFFFFFFFFFFFFFFFFFFFFFFFF000FFFFFFFFFFFFFFFFFFFFFFFFFFFF
310
FFFFFFFFFFFFFFFFFFFFFFFFFFFFFFFFFFFFFFFFFFFFFFFFFFFFFFFFFFFFFFFF
310
FFFFFFFFFFFFFFFFFFFFFFFFFFFFFFFFFFFFFFFFFFFFFFFFFFFFFFFFFFFFFFFF
310
FFFFFFFFFFFFFFFFF000FFFFFFFFFFFFFFFFFFFFFFFFFFFFFFFFFFFFFFFFFFFF
310
FFFFFFFFFFFFFFFFFFFFFFFFFFFFFFFFFFFFFFFFFFFFFFFFFFFFFFFFFFFFFFFF
310
FFFFFFFFFFFFFFFFFFFFFFFFFFFFFFFFFFFFFFFFFFFFFFFFFFFFFFFFFFFFFFFF
310
F000FFFFFFFFFFFFFFFFFFFFFFFFFFFFFFFFFFFFFFFFFFFFFFFFFFFFFFFFFFFF
310
FFFFFFFFFFFFFFFFFFFFFFFFFFFFFFFFFFFFFFFFFFFFFFFFFFFFFFFFFFFFFFFF
310
FFFFFFFFFFFFFFFFFFFFFFFFFFFFFFFFFFFFFFFFFFFFFFFFF000FFFFFFFFFFFF
310
FFFFFFFFFFFFFFFFFFFFFFFFFFFFFFFFFFFFFFFFFFFFFFFFFFFFFFFFFFFFFFFF
310
FFFFFFFFFFFFFFFFFFFFFFFFFFFFFFFFFFFFFFFFFFFFFFFFFFFFFFFFFFFFFFFF
310
FFFFFFFFFFFFFFFFFFFFFFFFFFFFFFFFF000FFFFFFFFFFFFFFFFFFFFFFFFFFFF
310
FFFFFFFFFFFFFFFFFFFFFFFFFFFFFFFFFFFFFFFFFFFFFFFFFFFFFFFFFFFFFFFF
310
FFFFFFFFFFFFFFFFFFFFFFFFFFFFFFFFFFFFFFFFFFFFFFFFFFFFFFFFFFFFFFFF
310
FFFFFFFFFFFFFFFFF000FFFFF80003FFFFFFFFFFFFFFFFFFFFFFFFFFFFFFFFFF
310
FFFFF00007FFFFFFFFFF00007FFFFFF800000000000000007FFFFFFFFFFFFFFF
310
FFFFFFFC001FFFFFFFFFFFFFFC001FFFFFFFFFFFFFFFFFFFFFFFFFFE0007FFFF
310
F000FFFF8000007FFFFFFFF8000FFFFFC0007FFFFF80007FFFFF0000007FFFFF
310
FFF8000007FFFFF800000000000000007FFFFFF0001FFFFFFFFFFFC00001FFFF
310
FFFFFFFFC00001FFFFFFFF000000000003FFFFE000007FFFF000FFFE0000000F
310
FFFFFFF0000FFFFF80007FFFFF80007FFFFC0000001FFFFFFFC0000001FFFFF8
310
00000000000000007FFFFFF0001FFFFFFFFFFE0000003FFFFFFFFFFE0000003F
310
FFFFFF000000000003FFFF0000000FFFF000FFF800000003FFFFFFF00007FFFF
310
80007FFFFF80007FFFF000000007FFFFFF000000003FFFF80000000000000000
310
7FFFFFF0001FFFFFFFFFF80000000FFFFFFFFFF80000000FFFFFFF0000000000
310
03FFFC00000003FFF000FFE000000000FFFFFFF00007FFFF80003FFFFF80007F
310
FFC000000001FFFFFC000000001FFFF800000000000000007FFFFFF0001FFFFF
310
FFFFE000000003FFFFFFFFE000000003FFFFFF000000000003FFF000000000FF
310
F000FF80000000007FFFFFF00007FFFF80003FFFFF80007FFF8000000000FFFF
310
F80000000007FFF800000000000000007FFFFFF0001FFFFFFFFFC000000001FF
310
FFFFFFC000000001FFFFFF000000000003FFC0000000007FF000FF0000000000
310
3FFFFFE00007FFFF00003FFFFF80007FFE00000000003FFFF00000000003FFF8
310
00000000000000007FFFFFF0001FFFFFFFFF8000000000FFFFFFFF8000000000
310
FFFFFF000000000003FF80000000003FF000FE00000000001FFFFFE00003FFFF
310
00003FFFFF80007FFC00000000001FFFE00000000001FFF8000001FFFE000000
310
7FFFFFF0001FFFFFFFFE00000000003FFFFFFE00000000003FFFFF0000000000
310
03FF00000000001FF000FC00000000000FFFFFE00003FFFF00001FFFFF80007F
310
F800000000001FFFC00000000000FFF8000001FFFE0000007FFFFFF0001FFFFF
310
FFFC00000000001FFFFFFC00000000001FFFFF000000000003FE00000000000F
310
F000F8000000000007FFFFE00003FFFF00001FFFFF80007FF800000000000FFF
310
800000000000FFF8000001FFFE0000007FFFFFF0001FFFFFFFF800000000000F
310
FFFFF800000000000FFFFF000000000003FC000000000007F000F80000000000
310
03FFFFC00003FFFE00001FFFFF80007FF0000000000007FF0000000000007FF8
310
000001FFFE0000007FFFFFF0001FFFFFFFF0000000000007FFFFF00000000000
310
07FFFF000000000003F8000000000003F000F0000000000003FFFFC00001FFFE
310
00001FFFFF80007FE0000000000007FE0000000000003FF8000001FFFE000000
310
7FFFFFF0001FFFFFFFF0000000000007FFFFF0000000000007FFFF0000000000
310
03F800001F800003F000E00001FFF00001FFFFC00001FFFE00000FFFFF80007F
310
E00001FFE00003FE00001FFF00003FF8000001FFFE0000007FFFFFF0001FFFFF
310
FFE000003E000003FFFFE000003E000003FFFF000000000003F00001FFF80001
310
F000E00007FFFC0001FFFFC00001FFFE00000FFFFF80007FC0000FFFFC0003FC
310
0000FFFFC0001FF8000001FFFE0000007FFFFFF0001FFFFFFFC00003FFE00001
310
FFFFC00003FFE00001FFFF0001FFFFFFFFF00007FFFE0001F000E0000FFFFF00
310
00FFFF800001FFFC00000FFFFF80007FC0001FFFFE0001FC0001FFFFE0001FF8
310
000001FFFE0000007FFFFFF0001FFFFFFF80000FFFF80000FFFF80000FFFF800
310
00FFFF0003FFFFFFFFE0000FFFFF8000F000C0003FFFFF8000FFFF800000FFFC
310
000007FFFF80007F80003FFFFF0001FC0003FFFFF0001FF8000001FFFE000000
310
7FFFFFF0001FFFFFFF80003FFFFE0000FFFF80003FFFFE0000FFFF0003FFFFFF
310
FFE0003FFFFF8000F000C0003FFFFF8000FFFF800000FFFC000007FFFF80007F
310
80007FFFFF8001F80007FFFFF8000FF8000001FFFE0000007FFFFFF0001FFFFF
310
FF00007FFFFF00007FFF00007FFFFF00007FFF0003FFFFFFFFE0003FFFFFC000
310
F000C0007FFFFFC000FFFF000000FFFC000007FFFF80007F8000FFFFFF8000F8
310
000FFFFFF8000FF8000001FFFE0000007FFFFFF0001FFFFFFF0000FFFFFF8000
310
7FFF0000FFFFFF80007FFF0003FFFFFFFFC0007FFFFFC00070008000FFFFFFC0
310
00FFFF000000FFF8000007FFFF80007F8000FFFFFF8000F8000FFFFFF8000FF8
310
000001FFFE0000007FFFFFF0001FFFFFFE0001FFFFFFC0003FFE0001FFFFFFC0
310
003FFF0003FFFFFFFFC0007FFFFFE00070008000FFFFFFC0007FFF0000007FF8
310
000003FFFF80007F0001FFFFFF8000F8000FFFFFF8000FF8000001FFFE000000
310
7FFFFFF0001FFFFFFE0001FFFFFFC0003FFE0001FFFFFFC0003FFF0003FFFFFF
310
FFC000FFFFFFE00070008000FFFFFFC0007FFF0000007FF8000003FFFF80007F
310
0001FFFFFF8000F8001FFFFFF8000FF8000001FFFE0000007FFFFFF0001FFFFF
310
FE0003FFFFFFE0003FFE0003FFFFFFE0003FFF0003FFFFFFFFC000FFFFFFE000
310
70008000FFFFFFC0007FFE0000007FF8000003FFFF80007F0001FFFFFF8000F0
310
001FFFFFF8000FF8000001FFFE0000007FFFFFF0001FFFFFFC0003FFFFFFE000
310
1FFC0003FFFFFFE0001FFF0003FFFFFFFFC000FFFFFFC00070008000FFFFFF80
310
007FFE0000007FF0000003FFFF80007F0001FFFFFF0000F0001FFFFFF8000FF8
310
000001FFFE0000007FFFFFF0001FFFFFFC0007FFFFFFF0001FFC0007FFFFFFF0
310
001FFF0003FFFFFFFFC000FFFFFFC00070008001FFFFFF0000FFFE0000003FF0
310
000001FFFF80007F0001FFFFFF0000F8001FFFFFF0000FF8000001FFFE000000
310
7FFFFFF0001FFFFFFC0007FFFFFFF0001FFC0007FFFFFFF0001FFF0003FFFFFF
310
FFC001FFFFFF80007000FFFFFFFFFE0000FFFE0008003FF0008001FFFF80007F
310
FFFFFFFFFC0000FFFFFFFFFFE0000FF8000001FFFE0000007FFFFFF0001FFFFF
310
F8000FFFFFFFF8000FF8000FFFFFFFF8000FFF0003FFFFFFFFFFFFFFFFFF0000
310
7000FFFFFFFFFC0000FFFC0008003FF0008001FFFF80007FFFFFFFFFF80001FF
310
FFFFFFFF80000FF8000001FFFE0000007FFFFFF0001FFFFFF8000FFFFFFFF800
310
0FF8000FFFFFFFF8000FFF0003FFFFFFFFFFFFFFFFFE0000F000FFFFFFFFE000
310
00FFFC000C003FE000C001FFFF80007FFFFFFFFFC00001FFFFFFFFFE00001FF8
310
000001FFFE0000007FFFFFF0001FFFFFF8000FFFFFFFF8000FF8000FFFFFFFF8
310
000FFF0003FFFFFFFFFFFFFFFFF00000F000FFFFFFFE000001FFFC000C001FE0
310
00C000FFFF80007FFFFFFFFE000001FFFFFFFFE000001FF80FFFFFFFFFFFFFC0
310
7FFFFFF0001FFFFFF8000FFFFFFFF8000FF8000FFFFFFFF8000FFF0003FFFFFF
310
FFFFFFFFFF800000F000FFFFFFC0000001FFFC001C001FE001C000FFFF80007F
310
FFFFFF80000003FFFFFFF80000001FF80FFFFFFFFFFFFFC07FFFFFF0001FFFFF
310
F8001FFFFFFFFC000FF8001FFFFFFFFC000FFF0003FFFFFFFFFFFFFFF0000001
310
F000FFFFF800000001FFF8001C001FE001C000FFFF80007FFFFFF800000003FF
310
FFFF800000003FF80FFFFFFFFFFFFFC07FFFFFF0001FFFFFF8001FFFFFFFFC00
310
0FF8001FFFFFFFFC000FFF0003FFFFFFFFFFFFFE00000001F000FFFFC0000000
310
03FFF8001E001FC001E000FFFF80007FFFFF8000000007FFFFFC000000003FF8
310
0FFFFFFFFFFFFFC07FFFFFF0001FFFFFF8001FFFFFFFFC000FF8001FFFFFFFFC
310
000FFF0003FFFFFFFFFFFFE000000003F000FFFE0000000007FFF8001E000FC0
310
01E0007FFF80007FFFFE0000000007FFFFE0000000007FF80FFFFFFFFFFFFFC0
310
7FFFFFF0001FFFFFF0001FFFFFFFFC0007F0001FFFFFFFFC0007FF0003FFFFFF
310
FFFFFF0000000003F000FFF80000000007FFF8001E000FC003E0007FFF80007F
310
FFF0000000000FFFFF8000000000FFF80FFFFFFFFFFFFFC07FFFFFF0001FFFFF
310
F0001FFFFFFFFC0007F0001FFFFFFFFC0007FF0003FFFFFFFFFFFC0000000007
310
F000FFE0000000000FFFF0003E000FC003E0007FFF80007FFFC0000000001FFF
310
FE0000000001FFF80FFFFFFFFFFFFFC07FFFFFF0001FFFFFF0001FFFFFFFFC00
310
07F0001FFFFFFFFC0007FF0003FFFFFFFFFFF0000000000FF000FFC000000000
310
1FFFF0003F000F8003F0003FFF80007FFF80000000003FFFF80000000003FFF8
310
0FFFFFFFFFFFFFC07FFFFFF0001FFFFFF0001FFFFFFFFC0007F0001FFFFFFFFC
310
0007FF0003FFFFFFFFFFE0000000001FF000FF00000000007FFFF0003F000780
310
03F0003FFF80007FFF00000000007FFFF00000000007FFF80FFFFFFFFFFFFFC0
310
7FFFFFF0001FFFFFF0001FFFFFFFFC0007F0001FFFFFFFFC0007FF0003FFFFFF
310
FFFF80000000007FF000FE0000000000FFFFE0003F00078007F0003FFF80007F
310
FE0000000001FFFFE0000000001FFFF80FFFFFFFFFFFFFC07FFFFFF0001FFFFF
310
F0001FFFFFFFFC0007F0001FFFFFFFFC0007FF0003FFFFFFFFFF0000000000FF
310
F000FC0000000003FFFFE0007F00078007F0003FFF80007FFC0000000007FFFF
310
C0000000007FFFF80FFFFFFFFFFFFFC07FFFFFF0001FFFFFF8001FFFFFFFFC00
310
0FF8001FFFFFFFFC000FFF0003FFFFFFFFFE0000000003FFF000FC000000000F
310
FFFFE0007F80070007F8001FFF80007FF8000000001FFFFF8000000001FFFFF8
310
0FFFFFFFFFFFFFC07FFFFFF0001FFFFFF8001FFFFFFFFC000FF8001FFFFFFFFC
310
000FFF0003FFFFFFFFFC000000000FFFF000F8000000007FFFFFE0007F800700
310
07F8001FFF80007FF000000000FFFFFF800000000FFFFFF80FFFFFFFFFFFFFC0
310
7FFFFFF0001FFFFFF8000FFFFFFFF8000FF8000FFFFFFFF8000FFF0003FFFFFF
310
FFFC000000007FFFF000F800000007FFFFFFC0007F8003000FF8001FFF80007F
310
F000000007FFFFFF000000007FFFFFF80FFFFFFFFFFFFFC07FFFFFF0001FFFFF
310
F8000FFFFFFFF8000FF8000FFFFFFFF8000FFF0003FFFFFFFFF80000000FFFFF
310
F000F0000000FFFFFFFFC000FF8003000FF8001FFF80007FE0000000FFFFFFFF
310
0000000FFFFFFFF8000001FFFE0000007FFFFFF0001FFFFFF8000FFFFFFFF800
310
0FF8000FFFFFFFF8000FFF0003FFFFFFFFF8000000FFFFFFF000F000000FFFFF
310
FFFFC000FFC002000FF8000FFF80007FE000001FFFFFFFFE000001FFFFFFFFF8
310
000001FFFE0000007FFFFFF0001FFFFFF8000FFFFFFFF8000FF8000FFFFFFFF8
310
000FFF0003FFFFFFFFF000001FFFFFFFF000E00000FFFFFFFFFFC000FFC00200
310
0FFC000FFF80007FE00001FFFFFFFFFE00001FFFFFFFFFF8000001FFFE000000
310
7FFFFFF0001FFFFFFC000FFFFFFFF8001FFC000FFFFFFFF8001FFF0003FFFFFF
310
FFF00001FFFFFFFFF000E00007FFFFFFFFFF8000FFC000001FFC000FFF80007F
310
C0000FFFFFFFFFFE0000FFFFFFFFFFF8000001FFFE0000007FFFFFF0001FFFFF
310
FC0007FFFFFFF0001FFC0007FFFFFFF0001FFF0003FFFFFFFFF00007FFFFFFFF
310
F000E0001FFFFFFFFFFF8000FFC000001FFC000FFF80007FC0003FFFFFFFFFFE
310
0001FFFFFFFFFFF8000001FFFE0000007FFFFFF0001FFFFFFC0007FFFFFFF000
310
1FFC0007FFFFFFF0001FFF0003FFFFFFFFF0001FFFFFFFFFF000E0003FFFFF00
310
03FF8001FFE000001FFC0007FF80007FC0007FFFFF0007FC0003FFFFF0003FF8
310
000001FFFE0000007FFFFFF0001FFFFFFC0003FFFFFFE0001FFC0003FFFFFFE0
310
001FFF0003FFFFFFFFF0003FFFFFFFFFF000E0003FFFFF0001FF8001FFE00000
310
1FFE0007FF80007FC0007FFFFE0003FC0007FFFFE0003FF8000001FFFE000000
310
7FFFFFF0001FFFFFFE0003FFFFFFE0003FFE0003FFFFFFE0003FFF0003FFFFFF
310
FFF0003FFFFF8001F000E0003FFFFF0001FF0001FFE000001FFE0007FF80007F
310
C0007FFFFE0003FC0007FFFFE0003FF8000001FFFE0000007FFFFFF0001FFFFF
310
FE0001FFFFFFC0003FFE0001FFFFFFC0003FFF0003FFFFFFFFF0003FFFFF0001
310
F000E0003FFFFF0003FF0001FFE000003FFE0007FF80007FC0007FFFFE0003FC
310
0007FFFFE0003FF8000001FFFE0000007FFFFFF0001FFFFFFF0001FFFFFFC000
310
7FFF0001FFFFFFC0007FFF0003FFFFFFFFF0003FFFFF0001F000E0003FFFFE00
310
03FF0003FFF000003FFE0003FF80007FC0007FFFFC0003FE0007FFFFE0003FF8
310
000001FFFE0000007FFFFFF0001FFFFFFF0000FFFFFF80007FFF0000FFFFFF80
310
007FFF0003FFFFFFFFF0003FFFFF0001F000E0003FFFFE0003FF0003FFF00000
310
3FFF0003FF80007FC0007FFFFC0007FE0007FFFFC0003FF8000001FFFE000000
310
7FFFFFF0001FFFFFFF80007FFFFF0000FFFF80007FFFFF0000FFFF0003FFFFFF
310
FFF0003FFFFF0003F000E0003FFFFC0003FE0003FFF000003FFF0003FF80007F
310
E0003FFFF80007FE0003FFFFC0007FF8000001FFFE0000007FFFFFF0001FFFFF
310
FF80003FFFFE0000FFFF80003FFFFE0000FFFF0003FFFFFFFFF0001FFFFE0003
310
F000F0001FFFF80003FE0003FFF000007FFF0001FF80007FE0003FFFF00007FE
310
0001FFFF80007FF8000001FFFE0000007FFFFFF0001FFFFFFFC0000FFFF80001
310
FFFFC0000FFFF80001FFFF0003FFFFFFFFF0001FFFFC0003F000F0000FFFF000
310
07FE0007FFF800007FFF0001FF80007FE0001FFFE00007FF0000FFFE00007FF8
310
000001FFFE0000007FFFFFF0001FFFFFFFC00003FFE00001FFFFC00003FFE000
310
01FFFF0003FFFFFFFFF8000FFFF80003F000F00003FFC00007FC0007FFF80000
310
7FFF8001FF80007FF00007FF80000FFF00007FF80000FFF8000001FFFE000000
310
7F80000000000001FFE000003E000003FFFFE000003E000003FFFF0003FFFFFF
310
FFF80003FFE00007F000F800000000000FFC0007FFF800007FFF8001FF80007F
310
F000000000000FFF000000000000FFF8000001FFFE0000007F80000000000001
310
FFF0000000000007FFFFF0000000000007FFFF0003FFFFFFFFFC00007E000007
310
F000F800000000000FFC0007FFF80000FFFF8000FF80007FF800000000001FFF
310
800000000001FFF8000001FFFE0000007F80000000000001FFF800000000000F
310
FFFFF800000000000FFFFF0003FFFFFFFFFC00000000000FF000FC0000000000
310
1FFC0007FFFC0000FFFF8000FF80007FF800000000003FFFC00000000001FFF8
310
000001FFFE0000007F80000000000001FFF800000000000FFFFFF80000000000
310
0FFFFF0003FFFFFFFFFE00000000001FF000FE00000000003FF8000FFFFC0000
310
FFFF8000FF80007FFC00000000003FFFC00000000003FFF8000001FFFE000000
310
7F80000000000001FFFC00000000001FFFFFFC00000000001FFFFF0003FFFFFF
310
FFFF00000000001FF000FF00000000003FF8000FFFFC0000FFFFC000FF80007F
310
FE00000000007FFFE00000000007FFF8000001FFFE0000007F80000000000001
310
FFFE00000000003FFFFFFE00000000003FFFFF0003FFFFFFFFFF80000000003F
310
F000FF80000000007FF8000FFFFC0001FFFFC0007F80007FFF0000000000FFFF
310
F0000000000FFFF800000000000000007F80000000000001FFFF8000000000FF
310
FFFFFF8000000000FFFFFF0003FFFFFFFFFFC0000000007FF000FFC000000000
310
FFF8000FFFFE0001FFFFC0007F80007FFF8000000001FFFFF8000000001FFFF8
310
00000000000000007F80000000000001FFFFC000000001FFFFFFFFC000000001
310
FFFFFF0003FFFFFFFFFFE000000000FFF000FFE000000003FFF0001FFFFE0001
310
FFFFC0007F80007FFFC000000007FFFFFE000000003FFFF80000000000000000
310
7F80000000000001FFFFE000000003FFFFFFFFE000000003FFFFFF0003FFFFFF
310
FFFFF000000003FFF000FFF80000000FFFF0001FFFFE0001FFFFE0007F80007F
310
FFF00000000FFFFFFF00000000FFFFF800000000000000007F80000000000001
310
FFFFF80000000FFFFFFFFFF80000000FFFFFFF0003FFFFFFFFFFFC0000000FFF
310
F000FFFE0000003FFFF0001FFFFE0003FFFFE0003F80007FFFFC0000003FFFFF
310
FFC0000003FFFFF800000000000000007F80000000000001FFFFFE0000003FFF
310
FFFFFFFE0000003FFFFFFF0003FFFFFFFFFFFF0000003FFFF000FFFF800000FF
310
FFF0001FFFFF0003FFFFE0003F80007FFFFF000001FFFFFFFFF800001FFFFFF8
310
00000000000000007F80000000000001FFFFFFC00001FFFFFFFFFFFFC00001FF
310
FFFFFF0003FFFFFFFFFFFFC00000FFFFF000FFFFF8000FFFFFFFFFFFFFFFFFFF
310
FFFFFFFFFFFFFFFFFFFFF0001FFFFFFFFFFF0000FFFFFFF80000000000000000
310
7FFFFFFFFFFFFFFFFFFFFFFC001FFFFFFFFFFFFFFC001FFFFFFFFFFFFFFFFFFF
310
FFFFFFFC001FFFFFF000FFFFFFFFFFFFFFFFFFFFFFFFFFFFFFFFFFFFFFFFFFFF
310
FFFFFFFFFFFFFFFFFFFFFFFFFFFFFFFFFFFFFFFFFFFFFFFFFFFFFFFFFFFFFFFF
310
FFFFFFFFFFFFFFFFFFFFFFFFFFFFFFFFFFFFFFFFFFFFFFFFFFFFFFFFFFFFFFFF
310
F000FFFFFFFFFFFFFFFFFFFFFFFFFFFFFFFFFFFFFFFFFFFFFFFFFFFFFFFFFFFF
310
FFFFFFFFFFFFFFFFFFFFFFFFFFFFFFFFFFFFFFFFFFFFFFFFFFFFFFFFFFFFFFFF
310
FFFFFFFFFFFFFFFFFFFFFFFFFFFFFFFFFFFFFFFFFFFFFFFFF000FFFFFFFFFFFF
310
FFFFFFFFFFFFFFFFFFFFFFFFFFFFFFFFFFFFFFFFFFFFFFFFFFFFFFFFFFFFFFFF
310
FFFFFFFFFFFFFFFFFFFFFFFFFFFFFFFFFFFFFFFFFFFFFFFFFFFFFFFFFFFFFFFF
310
FFFFFFFFFFFFFFFFFFFFFFFFFFFFFFFFF000FFFFFFFFFFFFFFFFFFFFFFFFFFFF
310
FFFFFFFFFFFFFFFFFFFFFFFFFFFFFFFFFFFFFFFFFFFFFFFFFFFFFFFFFFFFFFFF
310
FFFFFFFFFFFFFFFFFFFFFFFFFFFFFFFFFFFFFFFFFFFFFFFFFFFFFFFFFFFFFFFF
310
FFFFFFFFFFFFFFFFF000FFFFFFFFFFFFFFFFFFFFFFFFFFFFFFFFFFFFFFFFFFFF
310
FFFFFFFFFFFFFFFFFFFFFFFFFFFFFFFFFFFFFFFFFFFFFFFFFFFFFFFFFFFFFFFF
310
FFFFFFFFFFFFFFFFFFFFFFFFFFFFFFFFFFFFFFFFFFFFFFFFFFFFFFFFFFFFFFFF
310
F000FFFFFFFFFFFFFFFFFFFFFFFFFFFFFFFFFFFFFFFFFFFFFFFFFFFFFFFFFFFF
310
FFFFFFFFFFFFFFFFFFFFFFFFFFFFFFFFFFFFFFFFFFFFFFFFFFFFFFFFFFFFFFFF
310
FFFFFFFFFFFFFFFFFFFFFFFFFFFFFFFFFFFFFFFFFFFFFFFFF000FFFFFFFFFFFF
310
FFFFFFFFFFFFFFFFFFFFFFFFFFFFFFFFFFFFFFFFFFFFFFFFFFFFFFFFFFFFFFFF
310
FFFFFFFFFFFFFFFFFFFFFFFFFFFFFFFFFFFFFFFFFFFFFFFFFFFFFFFFFFFFFFFF
310
FFFFFFFFFFFFFFFFFFFFFFFFFFFFFFFFF000FFFFFFFFFFFFFFFFFFFFFFFFFFFF
310
FFFFFFFFFFFFFFFFFFFFFFFFFFFFFFFFFFFFFFFFFFFFFFFFFFFFFFFFFFFFFFFF
310
FFFFFFFFFFFFFFFFFFFFFFFFFFFFFFFFFFFFFFFFFFFFFFFFFFFFFFFFFFFFFFFF
310
FFFFFFFFFFFFFFFFF000FFFFFFFFFFFFFFFFFFFFFFFFFFFFFFFFFFFFFFFFFFFF
310
FFFFFFFFFFFFFFFFFFFFFFFFFFFFFFFFFFFFFFFFFFFFFFFFFFFFFFFFFFFFFFFF
310
FFFFFFFFFFFFFFFFFFFFFFFFFFFFFFFFFFFFFFFFFFFFFFFFFFFFFFFFFFFFFFFF
310
F000FFFFFFFFFFFFFFFFFFFFFFFFFFFFFFFFFFFFFFFFFFFFFFFFFFFFFFFFFFFF
310
FFFFFFFFFFFFFFFFFFFFFFFFFFFFFFFFFFFFFFFFFFFFFFFFFFFFFFFFFFFFFFFF
310
FFFFFFFFFFFFFFFFFFFFFFFFFFFFFFFFFFFFFFFFFFFFFFFFF000FFFFFFFFFFFF
310
FFFFFFFFFFFFFFFFFFFFFFFFFFFFFFFFFFFFFFFFFFFFFFFFFFFFFFFFFFFFFFFF
310
FFFFFFFFFFFFFFFFFFFFFFFFFFFFFFFFFFFFFFFFFFFFFFFFFFFFFFFFFFFFFFFF
310
FFFFFFFFFFFFFFFFFFFFFFFFFFFFFFFFF000FFFFFFFFFFFFFFFFFFFFFFFFFFFF
310
FFFFFFFFFFFFFFFFFFFFFFFFFFFFFFFFFFFFFFFFFFFFFFFFFFFFFFFFFFFFFFFF
310
FFFFFFFFFFFFFFFFFFFFFFFFFFFFFFFFFFFFFFFFFFFFFFFFFFFFFFFFFFFFFFFF
310
FFFFFFFFFFFFFFFFF000FFFFFFFFFFFFFFFFFFFFFFFFFFFFFFFFFFFFFFFFFFFF
310
FFFFFFFFFFFFFFFFFFFFFFFFFFFFFFFFFFFFFFFFFFFFFFFFFFFFFFFFFFFFFFFF
310
FFFFFFFFFFFFFFFFFFFFFFFFFFFFFFFFFFFFFFFFFFFFFFFFFFFFFFFFFFFFFFFF
310
F000FFFFFFFFFFFFFFFFFFFFFFFFFFFFFFFFFFFFFFFFFFFFFFFFFFFFFFFFFFFF
310
FFFFFFFFFFFFFFFFFFFFFFFFFFFFFFFFFFFFFFFFFFFFFFFFFFFFFFFFFFFFFFFF
310
FFFFFFFFFFFFFFFFFFFFFFFFFFFFFFFFFFFFFFFFFFFFFFFFF000FFFFFFFFFFFF
310
FFFFFFFFFFFFFFFFFFFFFFFFFFFFFFFFFFFFFFFFFFFFFFFFFFFFFFFFFFFFFFFF
310
FFFFFFFFFFFFFFFFFFFFFFFFFFFFFFFFFFFFFFFFFFFFFFFFFFFFFFFFFFFFFFFF
310
FFFFFFFFFFFFFFFFFFFFFFFFFFFFFFFFF000FFFFFFFFFFFFFFFFFFFFFFFFFFFF
310
FFFFFFFFFFFFFFFFFFFFFFFFFFFFFFFFFFFFFFFFFFFFFFFFFFFFFFFFFFFFFFFF
310
FFFFFFFFFFFFFFFFFFFFFFFFFFFFFFFFFFFFFFFFFFFFFFFFFFFFFFFFFFFFFFFF
310
FFFFFFFFFFFFFFFFF000FFFFFFFFFFFFFFFFFFFFFFFFFFFFFFFFFFFFFFFFFFFF
310
FFFFFFFFFFFFFFFFFFFFFFFFFFFFFFFFFFFFFFFFFFFFFFFFFFFFFFFFFFFFFFFF
310
FFFFFFFFFFFFFFFFFFFFFFFFFFFFFFFFFFFFFFFFFFFFFFFFFFFFFFFFFFFFFFFF
310
F000FFFFFFFFFFFFFFFFFFFFFFFFFFFFFFFFFFFFFFFFFFFFFFFFFFFFFFFFFFFF
310
FFFFFFFFFFFFFFFFFFFFFFFFFFFFFFFFFFFFFFFFFFFFFFFFFFFFFFFFFFFFFFFF
310
FFFFFFFFFFFFFFFFFFFFFFFFFFFFFFFFFFFFFFFFFFFFFFFFF000FFFFFFFFFFFF
310
FFFFFFFFFFFFFFFFFFFFFFFFFFFFFFFFFFFFFFFFFFFFFFFFFFFFFFFFFFFFFFFF
310
FFFFFFFFFFFFFFFFFFFFFFFFFFFFFFFFFFFFFFFFFFFFFFFFFFFFFFFFFFFFFFFF
310
FFFFFFFFFFFFFFFFFFFFFFFFFFFFFFFFF000FFFFFFFFFFFFFFFFFFFFFFFFFFFF
310
FFFFFFFFFFFFFFFFFFFFFFFFFFFFFFFFFFFFFFFFFFFFFFFFFFFFFFFFFFFFFFFF
310
FFFFFFFFFFFFFFFFFFFFFFFFFFFFFFFFFFFFFFFFFFFFFFFFFFFFFFFFFFFFFFFF
310
FFFFFFFFFFFFFFFFF000FFFFFFFFFFFFFFFFFFFFFFFFFFFFFFFFFFFFFFFFFFFF
310
FFFFFFFFFFFFFFFFFFFFFFFFFFFFFFFFFFFFFFFFFFFFFFFFFFFFFFFFFFFFFFFF
310
FFFFFFFFFFFFFFFFFFFFFFFFFFFFFFFFFFFFFFFFFFFFFFFFFFFFFFFFFFFFFFFF
310
F000FFFFFFFFFFFFFFFFFFFFFFFFFFFFFFFFFFFFFFFFFFFFFFFFFFFFFFFFFFFF
310
FFFFFFFFFFFFFFFFFFFFFFFFFFFFFFFFFFFFFFFFFFFFFFFFFFFFFFFFFFFFFFFF
310
FFFFFFFFFFFFFFFFFFFFFFFFFFFFFFFFFFFFFFFFFFFFFFFFF000FFFFFFFFFFFF
310
FFFFFFFFFFFFFFFFFFFFFFFFFFFFFFFFFFFFFFFFFFFFFFFFFFFFFFFFFFFFFFFF
310
FFFFFFFFFFFFFFFFFFFFFFFFFFFFFFFFFFFFFFFFFFFFFFFFFFFFFFFFFFFFFFFF
310
FFFFFFFFFFFFFFFFFFFFFFFFFFFFFFFFF0000000000000000000000000000000
310
0000000000000000000000000000000000000000000000000000000000000000
310
0000000000000000000000000000000000000000000000000000000000000000
310
0000000000000000000000000000000000000000000000000000000000000000
310
0000000000000000000000000000000000000000000000000000000000000000
310
0000000000000000000000000000000000000000000000000000000000000000
310
0000000000000000000000000000000000000000000000000000000000000000
310
0000000000000000000000000000000000000000000000000000000000000000
310
0000000000000000000000000000000000000000000000000000000000000000
310
0000000000000000000000000000000000000000000000000000000000000000
310
0000000000000000000000000000000000000000000000000000000000000000
310
0000000000000000000000000000000000000000000000000000000000000000
310
0000000000000000000000000000000000000000000000000000000000000000
310
0000000000000000000000000000000000000000000000000000000000000000
310
0000000000000000000000000000000000000000000000000000000000000000
310
0000000000000000000000000000000000000000000000000000000000000000
  1
OLE
  0
ENDSEC
  0
SECTION
  2
OBJECTS
  0
DICTIONARY
  5
C
330
0
100
AcDbDictionary
281
     1
  3
ACAD_GROUP
350
D
  3
ACAD_LAYOUT
350
1A
  3
ACAD_MLINESTYLE
350
17
  3
ACAD_PLOTSETTINGS
350
19
  3
ACAD_PLOTSTYLENAME
350
E
  3
ACAD_SCALELIST
350
47
  0
DICTIONARY
  5
D
102
{ACAD_REACTORS
330
C
102
}
330
C
100
AcDbDictionary
281
     1
  0
DICTIONARY
  5
1A
102
{ACAD_REACTORS
330
C
102
}
330
C
100
AcDbDictionary
281
     1
  3
Layout1
350
1E
  3
Layout2
350
26
  3
Model
350
22
  0
DICTIONARY
  5
17
102
{ACAD_REACTORS
330
C
102
}
330
C
100
AcDbDictionary
281
     1
  3
Standard
350
18
  0
DICTIONARY
  5
19
102
{ACAD_REACTORS
330
C
102
}
330
C
100
AcDbDictionary
281
     1
  0
ACDBDICTIONARYWDFLT
  5
E
102
{ACAD_REACTORS
330
C
102
}
330
C
100
AcDbDictionary
281
     1
  3
Normal
350
F
100
AcDbDictionaryWithDefault
340
F
  0
DICTIONARY
  5
47
102
{ACAD_REACTORS
330
C
102
}
330
C
100
AcDbDictionary
281
     1
  3
A0
350
48
  3
A1
350
49
  3
A2
350
4A
  3
A3
350
4B
  3
A4
350
4C
  3
A5
350
4D
  3
A6
350
4E
  3
A7
350
4F
  3
A8
350
50
  3
A9
350
51
  3
B0
350
52
  3
B1
350
53
  3
B2
350
54
  3
B3
350
55
  3
B4
350
56
  3
B5
350
57
  3
B6
350
58
  3
B7
350
59
  3
B8
350
5A
  3
B9
350
5B
  3
C0
350
5C
  3
C1
350
5D
  3
C2
350
5E
  3
C3
350
5F
  3
C4
350
60
  3
C5
350
61
  3
C6
350
62
  3
C7
350
63
  3
C8
350
64
  3
C9
350
65
  3
D0
350
66
  3
D1
350
67
  3
D2
350
68
  0
LAYOUT
  5
1E
102
{ACAD_REACTORS
330
1A
102
}
330
1A
100
AcDbPlotSettings
  1

  2
none_device
  4

  6

 40
0.0
 41
0.0
 42
0.0
 43
0.0
 44
0.0
 45
0.0
 46
0.0
 47
0.0
 48
0.0
 49
0.0
140
0.0
141
0.0
142
1.0
143
1.0
 70
   688
 72
     1
 73
     0
 74
     5
  7

 75
    16
147
1.0
148
0.0
149
0.0
100
AcDbLayout
  1
Layout1
 70
     1
 71
     1
 10
0.0
 20
0.0
 11
420.0
 21
297.0
 12
0.0
 22
0.0
 32
0.0
 14
1.0000000000E+20
 24
1.0000000000E+20
 34
1.0000000000E+20
 15
-1.0000000000E+20
 25
-1.0000000000E+20
 35
-1.0000000000E+20
146
0.0
 13
0.0
 23
0.0
 33
0.0
 16
1.0
 26
0.0
 36
0.0
 17
0.0
 27
1.0
 37
0.0
 76
     0
330
1B
  0
LAYOUT
  5
26
102
{ACAD_REACTORS
330
1A
102
}
330
1A
100
AcDbPlotSettings
  1

  2
none_device
  4

  6

 40
0.0
 41
0.0
 42
0.0
 43
0.0
 44
0.0
 45
0.0
 46
0.0
 47
0.0
 48
0.0
 49
0.0
140
0.0
141
0.0
142
1.0
143
1.0
 70
   688
 72
     1
 73
     0
 74
     5
  7

 75
    16
147
1.0
148
0.0
149
0.0
100
AcDbLayout
  1
Layout2
 70
     1
 71
     2
 10
0.0
 20
0.0
 11
0.0
 21
0.0
 12
0.0
 22
0.0
 32
0.0
 14
0.0
 24
0.0
 34
0.0
 15
0.0
 25
0.0
 35
0.0
146
0.0
 13
0.0
 23
0.0
 33
0.0
 16
1.0
 26
0.0
 36
0.0
 17
0.0
 27
1.0
 37
0.0
 76
     0
330
23
  0
LAYOUT
  5
22
102
{ACAD_REACTORS
330
1A
102
}
330
1A
100
AcDbPlotSettings
  1

  2
none_device
  4
Letter_(8.50_x_11.00_Inches)
  6

 40
6.35
 41
6.35
 42
6.35000508
 43
6.35000508
 44
215.9
 45
279.4
 46
0.0
 47
0.0
 48
0.0
 49
0.0
140
0.0
141
0.0
142
1.0
143
1.0
 70
  1712
 72
     1
 73
     0
 74
     0
  7

 75
     0
147
1.0
148
0.0
149
0.0
100
AcDbLayout
  1
Model
 70
     1
 71
     0
 10
0.0
 20
0.0
 11
297.0
 21
210.0
 12
0.0
 22
0.0
 32
0.0
 14
0.0
 24
0.0
 34
0.0
 15
297.0
 25
210.0
 35
0.0
146
0.0
 13
0.0
 23
0.0
 33
0.0
 16
1.0
 26
0.0
 36
0.0
 17
0.0
 27
1.0
 37
0.0
 76
     0
330
1F
331
29
  0
MLINESTYLE
  5
18
102
{ACAD_REACTORS
330
17
102
}
330
17
100
AcDbMlineStyle
  2
Standard
 70
     0
  3

 62
   256
 51
90.0
 52
90.0
 71
     2
 49
0.5
 62
   256
  6
BYLAYER
 49
-0.5
 62
   256
  6
BYLAYER
  0
ACDBPLACEHOLDER
  5
F
102
{ACAD_REACTORS
330
E
102
}
330
E
  0
SCALE
  5
48
102
{ACAD_REACTORS
330
47
102
}
330
47
100
AcDbScale
 70
     0
300
1:1
140
1.0
141
1.0
290
     1
  0
SCALE
  5
49
102
{ACAD_REACTORS
330
47
102
}
330
47
100
AcDbScale
 70
     0
300
1:2
140
1.0
141
2.0
290
     0
  0
SCALE
  5
4A
102
{ACAD_REACTORS
330
47
102
}
330
47
100
AcDbScale
 70
     0
300
1:4
140
1.0
141
4.0
290
     0
  0
SCALE
  5
4B
102
{ACAD_REACTORS
330
47
102
}
330
47
100
AcDbScale
 70
     0
300
1:5
140
1.0
141
5.0
290
     0
  0
SCALE
  5
4C
102
{ACAD_REACTORS
330
47
102
}
330
47
100
AcDbScale
 70
     0
300
1:8
140
1.0
141
8.0
290
     0
  0
SCALE
  5
4D
102
{ACAD_REACTORS
330
47
102
}
330
47
100
AcDbScale
 70
     0
300
1:10
140
1.0
141
10.0
290
     0
  0
SCALE
  5
4E
102
{ACAD_REACTORS
330
47
102
}
330
47
100
AcDbScale
 70
     0
300
1:16
140
1.0
141
16.0
290
     0
  0
SCALE
  5
4F
102
{ACAD_REACTORS
330
47
102
}
330
47
100
AcDbScale
 70
     0
300
1:20
140
1.0
141
20.0
290
     0
  0
SCALE
  5
50
102
{ACAD_REACTORS
330
47
102
}
330
47
100
AcDbScale
 70
     0
300
1:30
140
1.0
141
30.0
290
     0
  0
SCALE
  5
51
102
{ACAD_REACTORS
330
47
102
}
330
47
100
AcDbScale
 70
     0
300
1:40
140
1.0
141
40.0
290
     0
  0
SCALE
  5
52
102
{ACAD_REACTORS
330
47
102
}
330
47
100
AcDbScale
 70
     0
300
1:50
140
1.0
141
50.0
290
     0
  0
SCALE
  5
53
102
{ACAD_REACTORS
330
47
102
}
330
47
100
AcDbScale
 70
     0
300
1:100
140
1.0
141
100.0
290
     0
  0
SCALE
  5
54
102
{ACAD_REACTORS
330
47
102
}
330
47
100
AcDbScale
 70
     0
300
2:1
140
2.0
141
1.0
290
     0
  0
SCALE
  5
55
102
{ACAD_REACTORS
330
47
102
}
330
47
100
AcDbScale
 70
     0
300
4:1
140
4.0
141
1.0
290
     0
  0
SCALE
  5
56
102
{ACAD_REACTORS
330
47
102
}
330
47
100
AcDbScale
 70
     0
300
8:1
140
8.0
141
1.0
290
     0
  0
SCALE
  5
57
102
{ACAD_REACTORS
330
47
102
}
330
47
100
AcDbScale
 70
     0
300
10:1
140
10.0
141
1.0
290
     0
  0
SCALE
  5
58
102
{ACAD_REACTORS
330
47
102
}
330
47
100
AcDbScale
 70
     0
300
100:1
140
100.0
141
1.0
290
     0
  0
SCALE
  5
59
102
{ACAD_REACTORS
330
47
102
}
330
47
100
AcDbScale
 70
     0
300
1/128" = 1'-0"
140
0.0078125
141
12.0
290
     0
  0
SCALE
  5
5A
102
{ACAD_REACTORS
330
47
102
}
330
47
100
AcDbScale
 70
     0
300
1/64" = 1'-0"
140
0.015625
141
12.0
290
     0
  0
SCALE
  5
5B
102
{ACAD_REACTORS
330
47
102
}
330
47
100
AcDbScale
 70
     0
300
1/32" = 1'-0"
140
0.03125
141
12.0
290
     0
  0
SCALE
  5
5C
102
{ACAD_REACTORS
330
47
102
}
330
47
100
AcDbScale
 70
     0
300
1/16" = 1'-0"
140
0.0625
141
12.0
290
     0
  0
SCALE
  5
5D
102
{ACAD_REACTORS
330
47
102
}
330
47
100
AcDbScale
 70
     0
300
3/32" = 1'-0"
140
0.09375
141
12.0
290
     0
  0
SCALE
  5
5E
102
{ACAD_REACTORS
330
47
102
}
330
47
100
AcDbScale
 70
     0
300
1/8" = 1'-0"
140
0.125
141
12.0
290
     0
  0
SCALE
  5
5F
102
{ACAD_REACTORS
330
47
102
}
330
47
100
AcDbScale
 70
     0
300
3/16" = 1'-0"
140
0.1875
141
12.0
290
     0
  0
SCALE
  5
60
102
{ACAD_REACTORS
330
47
102
}
330
47
100
AcDbScale
 70
     0
300
1/4" = 1'-0"
140
0.25
141
12.0
290
     0
  0
SCALE
  5
61
102
{ACAD_REACTORS
330
47
102
}
330
47
100
AcDbScale
 70
     0
300
3/8" = 1'-0"
140
0.375
141
12.0
290
     0
  0
SCALE
  5
62
102
{ACAD_REACTORS
330
47
102
}
330
47
100
AcDbScale
 70
     0
300
1/2" = 1'-0"
140
0.5
141
12.0
290
     0
  0
SCALE
  5
63
102
{ACAD_REACTORS
330
47
102
}
330
47
100
AcDbScale
 70
     0
300
3/4" = 1'-0"
140
0.75
141
12.0
290
     0
  0
SCALE
  5
64
102
{ACAD_REACTORS
330
47
102
}
330
47
100
AcDbScale
 70
     0
300
1" = 1'-0"
140
1.0
141
12.0
290
     0
  0
SCALE
  5
65
102
{ACAD_REACTORS
330
47
102
}
330
47
100
AcDbScale
 70
     0
300
1-1/2" = 1'-0"
140
1.5
141
12.0
290
     0
  0
SCALE
  5
66
102
{ACAD_REACTORS
330
47
102
}
330
47
100
AcDbScale
 70
     0
300
3" = 1'-0"
140
3.0
141
12.0
290
     0
  0
SCALE
  5
67
102
{ACAD_REACTORS
330
47
102
}
330
47
100
AcDbScale
 70
     0
300
6" = 1'-0"
140
6.0
141
12.0
290
     0
  0
SCALE
  5
68
102
{ACAD_REACTORS
330
47
102
}
330
47
100
AcDbScale
 70
     0
300
1'-0" = 1'-0"
140
12.0
141
12.0
290
     0
  0
ENDSEC
  0
EOF
